  0
SECTION
  2
HEADER
  9
$ACADVER
  1
AC1015
  9
$ACADMAINTVER
 70
     6
  9
$DWGCODEPAGE
  3
ANSI_950
  9
$INSBASE
 10
0.0
 20
0.0
 30
0.0
  9
$EXTMIN
 10
0.0
 20
0.0
 30
0.0
  9
$EXTMAX
 10
297.0
 20
210.0
 30
0.0
  9
$LIMMIN
 10
0.0
 20
0.0
  9
$LIMMAX
 10
297.0
 20
210.0
  9
$ORTHOMODE
 70
     0
  9
$REGENMODE
 70
     1
  9
$FILLMODE
 70
     1
  9
$QTEXTMODE
 70
     0
  9
$MIRRTEXT
 70
     1
  9
$LTSCALE
 40
1.0
  9
$ATTMODE
 70
     1
  9
$TEXTSIZE
 40
3.175
  9
$TRACEWID
 40
1.0
  9
$TEXTSTYLE
  7
Standard
  9
$CLAYER
  8
0
  9
$CELTYPE
  6
ByLayer
  9
$CECOLOR
 62
   256
  9
$CELTSCALE
 40
1.0
  9
$DISPSILH
 70
     0
  9
$DIMSCALE
 40
1.0
  9
$DIMASZ
 40
2.0
  9
$DIMEXO
 40
1.0
  9
$DIMDLI
 40
3.75
  9
$DIMRND
 40
0.0
  9
$DIMDLE
 40
0.0
  9
$DIMEXE
 40
1.0
  9
$DIMTP
 40
0.0
  9
$DIMTM
 40
0.0
  9
$DIMTXT
 40
3.175
  9
$DIMCEN
 40
2.5
  9
$DIMTSZ
 40
0.0
  9
$DIMTOL
 70
     0
  9
$DIMLIM
 70
     0
  9
$DIMTIH
 70
     1
  9
$DIMTOH
 70
     1
  9
$DIMSE1
 70
     0
  9
$DIMSE2
 70
     0
  9
$DIMTAD
 70
     1
  9
$DIMZIN
 70
     0
  9
$DIMBLK
  1

  9
$DIMASO
 70
     1
  9
$DIMSHO
 70
     1
  9
$DIMPOST
  1

  9
$DIMAPOST
  1

  9
$DIMALT
 70
     0
  9
$DIMALTD
 70
     3
  9
$DIMALTF
 40
0.0393700787
  9
$DIMLFAC
 40
1.0
  9
$DIMTOFL
 70
     1
  9
$DIMTVP
 40
0.0
  9
$DIMTIX
 70
     0
  9
$DIMSOXD
 70
     0
  9
$DIMSAH
 70
     0
  9
$DIMBLK1
  1

  9
$DIMBLK2
  1

  9
$DIMSTYLE
  2
ISO-25
  9
$DIMCLRD
 70
     0
  9
$DIMCLRE
 70
     0
  9
$DIMCLRT
 70
     0
  9
$DIMTFAC
 40
1.0
  9
$DIMGAP
 40
1.0
  9
$DIMJUST
 70
     0
  9
$DIMSD1
 70
     0
  9
$DIMSD2
 70
     0
  9
$DIMTOLJ
 70
     0
  9
$DIMTZIN
 70
     0
  9
$DIMALTZ
 70
     0
  9
$DIMALTTZ
 70
     0
  9
$DIMUPT
 70
     0
  9
$DIMDEC
 70
     2
  9
$DIMTDEC
 70
     2
  9
$DIMALTU
 70
     2
  9
$DIMALTTD
 70
     3
  9
$DIMTXSTY
  7
Standard
  9
$DIMAUNIT
 70
     0
  9
$DIMADEC
 70
     2
  9
$DIMALTRND
 40
0.0
  9
$DIMAZIN
 70
     0
  9
$DIMDSEP
 70
    44
  9
$DIMATFIT
 70
     3
  9
$DIMFRAC
 70
     0
  9
$DIMLDRBLK
  1

  9
$DIMLUNIT
 70
     2
  9
$DIMLWD
 70
    -2
  9
$DIMLWE
 70
    -2
  9
$DIMTMOVE
 70
     0
  9
$LUNITS
 70
     2
  9
$LUPREC
 70
     2
  9
$SKETCHINC
 40
1.0
  9
$FILLETRAD
 40
10.0
  9
$AUNITS
 70
     0
  9
$AUPREC
 70
     2
  9
$MENU
  1
.
  9
$ELEVATION
 40
0.0
  9
$PELEVATION
 40
0.0
  9
$THICKNESS
 40
0.0
  9
$LIMCHECK
 70
     0
  9
$CHAMFERA
 40
0.0
  9
$CHAMFERB
 40
0.0
  9
$CHAMFERC
 40
0.0
  9
$CHAMFERD
 40
0.0
  9
$SKPOLY
 70
     0
  9
$TDCREATE
 40
2459212.598166076
  9
$TDUCREATE
 40
2459212.264832743
  9
$TDUPDATE
 40
2459212.59816853
  9
$TDUUPDATE
 40
2459212.264835197
  9
$TDINDWG
 40
0.0000000116
  9
$TDUSRTIMER
 40
0.0000000116
  9
$USRTIMER
 70
     1
  9
$ANGBASE
 50
0.0
  9
$ANGDIR
 70
     0
  9
$PDMODE
 70
     0
  9
$PDSIZE
 40
-1.0
  9
$PLINEWID
 40
0.0
  9
$SPLFRAME
 70
     0
  9
$SPLINETYPE
 70
     6
  9
$SPLINESEGS
 70
     8
  9
$HANDSEED
  5
439
  9
$SURFTAB1
 70
     6
  9
$SURFTAB2
 70
     6
  9
$SURFTYPE
 70
     6
  9
$SURFU
 70
     6
  9
$SURFV
 70
     6
  9
$UCSBASE
  2

  9
$UCSNAME
  2

  9
$UCSORG
 10
0.0
 20
0.0
 30
0.0
  9
$UCSXDIR
 10
1.0
 20
0.0
 30
0.0
  9
$UCSYDIR
 10
0.0
 20
1.0
 30
0.0
  9
$UCSORTHOREF
  2

  9
$UCSORTHOVIEW
 70
     0
  9
$UCSORGTOP
 10
0.0
 20
0.0
 30
0.0
  9
$UCSORGBOTTOM
 10
0.0
 20
0.0
 30
0.0
  9
$UCSORGLEFT
 10
0.0
 20
0.0
 30
0.0
  9
$UCSORGRIGHT
 10
0.0
 20
0.0
 30
0.0
  9
$UCSORGFRONT
 10
0.0
 20
0.0
 30
0.0
  9
$UCSORGBACK
 10
0.0
 20
0.0
 30
0.0
  9
$PUCSBASE
  2

  9
$PUCSNAME
  2

  9
$PUCSORG
 10
0.0
 20
0.0
 30
0.0
  9
$PUCSXDIR
 10
1.0
 20
0.0
 30
0.0
  9
$PUCSYDIR
 10
0.0
 20
1.0
 30
0.0
  9
$PUCSORTHOREF
  2

  9
$PUCSORTHOVIEW
 70
     0
  9
$PUCSORGTOP
 10
0.0
 20
0.0
 30
0.0
  9
$PUCSORGBOTTOM
 10
0.0
 20
0.0
 30
0.0
  9
$PUCSORGLEFT
 10
0.0
 20
0.0
 30
0.0
  9
$PUCSORGRIGHT
 10
0.0
 20
0.0
 30
0.0
  9
$PUCSORGFRONT
 10
0.0
 20
0.0
 30
0.0
  9
$PUCSORGBACK
 10
0.0
 20
0.0
 30
0.0
  9
$USERI1
 70
     0
  9
$USERI2
 70
     0
  9
$USERI3
 70
     0
  9
$USERI4
 70
     0
  9
$USERI5
 70
     0
  9
$USERR1
 40
0.0
  9
$USERR2
 40
0.0
  9
$USERR3
 40
0.0
  9
$USERR4
 40
0.0
  9
$USERR5
 40
0.0
  9
$WORLDVIEW
 70
     1
  9
$SHADEDGE
 70
     3
  9
$SHADEDIF
 70
    70
  9
$TILEMODE
 70
     1
  9
$MAXACTVP
 70
    64
  9
$PINSBASE
 10
0.0
 20
0.0
 30
0.0
  9
$PLIMCHECK
 70
     0
  9
$PEXTMIN
 10
1.0000000000E+20
 20
1.0000000000E+20
 30
1.0000000000E+20
  9
$PEXTMAX
 10
-1.0000000000E+20
 20
-1.0000000000E+20
 30
-1.0000000000E+20
  9
$PLIMMIN
 10
0.0
 20
0.0
  9
$PLIMMAX
 10
420.0
 20
297.0
  9
$UNITMODE
 70
     0
  9
$VISRETAIN
 70
     1
  9
$PLINEGEN
 70
     0
  9
$PSLTSCALE
 70
     1
  9
$TREEDEPTH
 70
  3020
  9
$CMLSTYLE
  2
Standard
  9
$CMLJUST
 70
     0
  9
$CMLSCALE
 40
20.0
  9
$PROXYGRAPHICS
 70
     1
  9
$MEASUREMENT
 70
     1
  9
$CELWEIGHT
370
    -1
  9
$ENDCAPS
280
     0
  9
$JOINSTYLE
280
     0
  9
$LWDISPLAY
290
     1
  9
$INSUNITS
 70
     4
  9
$HYPERLINKBASE
  1

  9
$STYLESHEET
  1

  9
$XEDIT
290
     1
  9
$CEPSNTYPE
380
     0
  9
$PSTYLEMODE
290
     1
  9
$FINGERPRINTGUID
  2
{61f7acf0-ebd2-4bb5-85eb-e503876bff04}
  9
$VERSIONGUID
  2
{FAEB1C32-E019-11D5-929B-00C0DF256EC4}
  9
$EXTNAMES
290
     1
  9
$PSVPSCALE
 40
0.0
  9
$OLESTARTUP
290
     0
  0
ENDSEC
  0
SECTION
  2
CLASSES
  0
CLASS
  1
ACDBDICTIONARYWDFLT
  2
AcDbDictionaryWithDefault
  3
ObjectDBX Classes
 90
        0
280
     0
281
     0
  0
CLASS
  1
VISUALSTYLE
  2
AcDbVisualStyle
  3
ObjectDBX Classes
 90
     4095
280
     0
281
     0
  0
CLASS
  1
MATERIAL
  2
AcDbMaterial
  3
ObjectDBX Classes
 90
     1153
280
     0
281
     0
  0
CLASS
  1
SCALE
  2
AcDbScale
  3
ObjectDBX Classes
 90
     1153
280
     0
281
     0
  0
CLASS
  1
TABLESTYLE
  2
AcDbTableStyle
  3
ObjectDBX Classes
 90
     4095
280
     0
281
     0
  0
CLASS
  1
MLEADERSTYLE
  2
AcDbMLeaderStyle
  3
ACDB_MLEADERSTYLE_CLASS
 90
     4095
280
     0
281
     0
  0
CLASS
  1
SUN
  2
AcDbSun
  3
SCENEOE
 90
     1153
280
     0
281
     0
  0
CLASS
  1
ACDBPLACEHOLDER
  2
AcDbPlaceHolder
  3
ObjectDBX Classes
 90
        0
280
     0
281
     0
  0
CLASS
  1
LAYOUT
  2
AcDbLayout
  3
ObjectDBX Classes
 90
        0
280
     0
281
     0
  0
ENDSEC
  0
SECTION
  2
TABLES
  0
TABLE
  2
VPORT
  5
8
330
0
100
AcDbSymbolTable
 70
     1
  0
VPORT
  5
29
330
8
100
AcDbSymbolTableRecord
100
AcDbViewportTableRecord
  2
*Active
 70
     0
 10
0.0
 20
0.0
 11
1.0
 21
1.0
 12
148.5
 22
105.0
 13
0.0
 23
0.0
 14
10.0
 24
10.0
 15
10.0
 25
10.0
 16
0.0
 26
0.0
 36
1.0
 17
0.0
 27
0.0
 37
0.0
 40
210.0
 41
1.4142857143
 42
50.0
 43
0.0
 44
0.0
 50
0.0
 51
0.0
 71
     0
 72
  2000
 73
     1
 74
     3
 75
     0
 76
     0
 77
     0
 78
     0
281
     0
 65
     1
110
0.0
120
0.0
130
0.0
111
1.0
121
0.0
131
0.0
112
0.0
122
1.0
132
0.0
 79
     0
146
0.0
  0
ENDTAB
  0
TABLE
  2
LTYPE
  5
5
330
0
100
AcDbSymbolTable
 70
     6
  0
LTYPE
  5
14
330
5
100
AcDbSymbolTableRecord
100
AcDbLinetypeTableRecord
  2
ByBlock
 70
     0
  3

 72
    65
 73
     0
 40
0.0
  0
LTYPE
  5
15
330
5
100
AcDbSymbolTableRecord
100
AcDbLinetypeTableRecord
  2
ByLayer
 70
     0
  3

 72
    65
 73
     0
 40
0.0
  0
LTYPE
  5
16
330
5
100
AcDbSymbolTableRecord
100
AcDbLinetypeTableRecord
  2
Continuous
 70
     0
  3
Solid line
 72
    65
 73
     0
 40
0.0
  0
LTYPE
  5
6E
330
5
100
AcDbSymbolTableRecord
100
AcDbLinetypeTableRecord
  2
HIDDEN
 70
     0
  3
Hidden __ __ __ __ __ __ __ __ __ __ __ __ __ __
 72
    65
 73
     2
 40
1.905
 49
1.27
 74
     0
 49
-0.635
 74
     0
  0
LTYPE
  5
6F
330
5
100
AcDbSymbolTableRecord
100
AcDbLinetypeTableRecord
  2
PHANTOM
 70
     0
  3
Phantom ______  __  __  ______  __  __  ______
 72
    65
 73
     6
 40
12.7
 49
6.35
 74
     0
 49
-1.27
 74
     0
 49
1.27
 74
     0
 49
-1.27
 74
     0
 49
1.27
 74
     0
 49
-1.27
 74
     0
  0
LTYPE
  5
70
330
5
100
AcDbSymbolTableRecord
100
AcDbLinetypeTableRecord
  2
CENTER
 70
     0
  3
Center ____ _ ____ _ ____ _ ____ _ ____ _ ____
 72
    65
 73
     4
 40
10.16
 49
6.35
 74
     0
 49
-1.27
 74
     0
 49
1.27
 74
     0
 49
-1.27
 74
     0
  0
LTYPE
  5
71
330
5
100
AcDbSymbolTableRecord
100
AcDbLinetypeTableRecord
  2
CENTERX2
 70
     0
  3
Center (2x) ________  __  ________  __  _____
 72
    65
 73
     4
 40
20.32
 49
12.7
 74
     0
 49
-2.54
 74
     0
 49
2.54
 74
     0
 49
-2.54
 74
     0
  0
LTYPE
  5
72
330
5
100
AcDbSymbolTableRecord
100
AcDbLinetypeTableRecord
  2
DOT2
 70
     0
  3
Dot (.5x) ........................................
 72
    65
 73
     2
 40
0.635
 49
0.0
 74
     0
 49
-0.635
 74
     0
  0
ENDTAB
  0
TABLE
  2
LAYER
  5
2
330
0
100
AcDbSymbolTable
 70
    10
  0
LAYER
  5
10
330
2
100
AcDbSymbolTableRecord
100
AcDbLayerTableRecord
  2
0
 70
     0
 62
     7
  6
Continuous
370
    -3
390
F
  0
LAYER
  5
73
330
2
100
AcDbSymbolTableRecord
100
AcDbLayerTableRecord
  2
SLD-0
 70
     0
 62
     7
  6
Continuous
370
    25
390
F
  0
LAYER
  5
74
330
2
100
AcDbSymbolTableRecord
100
AcDbLayerTableRecord
  2
輪廓線
 70
     0
 62
   219
  6
Continuous
370
    25
390
F
  0
LAYER
  5
75
330
2
100
AcDbSymbolTableRecord
100
AcDbLayerTableRecord
  2
DIM
 70
     0
 62
     7
  6
Continuous
370
    -3
390
F
  0
LAYER
  5
76
330
2
100
AcDbSymbolTableRecord
100
AcDbLayerTableRecord
  2
中心線
 70
     0
 62
     7
  6
CENTERX2
370
    -3
390
F
  0
LAYER
  5
77
330
2
100
AcDbSymbolTableRecord
100
AcDbLayerTableRecord
  2
虛線
 70
     0
 62
     7
  6
HIDDEN
370
    -3
390
F
  0
LAYER
  5
78
330
2
100
AcDbSymbolTableRecord
100
AcDbLayerTableRecord
  2
SECTION
 70
     0
 62
     7
  6
PHANTOM
370
    25
390
F
  0
LAYER
  5
79
330
2
100
AcDbSymbolTableRecord
100
AcDbLayerTableRecord
  2
假想線
 70
     0
 62
     7
  6
PHANTOM
370
    -3
390
F
  0
LAYER
  5
7A
330
2
100
AcDbSymbolTableRecord
100
AcDbLayerTableRecord
  2
圖層_1
 70
     0
 62
   179
  6
Continuous
370
    -3
390
F
  0
LAYER
  5
7B
330
2
100
AcDbSymbolTableRecord
100
AcDbLayerTableRecord
  2
工作區域參考線
 70
     0
 62
   179
  6
Continuous
370
    -3
390
F
  0
ENDTAB
  0
TABLE
  2
STYLE
  5
3
330
0
100
AcDbSymbolTable
 70
     3
  0
STYLE
  5
11
330
3
100
AcDbSymbolTableRecord
100
AcDbTextStyleTableRecord
  2
Standard
 70
     0
 40
0.0
 41
1.0
 50
0.0
 71
     0
 42
3.175
  3
txt
  4

  0
STYLE
  5
CC
330
3
100
AcDbSymbolTableRecord
100
AcDbTextStyleTableRecord
  2
SLDTEXTSTYLE0
 70
     0
 40
0.0
 41
0.605
 50
0.0
 71
     0
 42
3.175
  3
TXT
  4

  0
STYLE
  5
103
330
3
100
AcDbSymbolTableRecord
100
AcDbTextStyleTableRecord
  2
SLDTEXTSTYLE1
 70
     0
 40
0.0
 41
0.7
 50
0.0
 71
     0
 42
3.175
  3
TXT
  4

  0
ENDTAB
  0
TABLE
  2
VIEW
  5
6
330
0
100
AcDbSymbolTable
 70
     0
  0
ENDTAB
  0
TABLE
  2
UCS
  5
7
330
0
100
AcDbSymbolTable
 70
     0
  0
ENDTAB
  0
TABLE
  2
APPID
  5
9
330
0
100
AcDbSymbolTable
 70
     1
  0
APPID
  5
12
330
9
100
AcDbSymbolTableRecord
100
AcDbRegAppTableRecord
  2
ACAD
 70
     0
  0
ENDTAB
  0
TABLE
  2
DIMSTYLE
  5
A
330
0
100
AcDbSymbolTable
 70
     6
100
AcDbDimStyleTable
  0
DIMSTYLE
105
27
330
A
100
AcDbSymbolTableRecord
100
AcDbDimStyleTableRecord
  2
ISO-25
 70
     0
 41
2.5
 42
0.625
 43
3.75
 44
1.25
 73
     0
 74
     0
 77
     1
 78
     8
140
2.5
141
2.5
143
0.0393700787
147
0.625
171
     3
172
     1
178
     0
271
     2
272
     2
274
     3
278
    44
283
     0
284
     8
340
11
  0
DIMSTYLE
105
1F5
102
{ACAD_REACTORS
330
1F4
330
1FF
102
}
330
A
100
AcDbSymbolTableRecord
100
AcDbDimStyleTableRecord
  2
SLDDIMSTYLE0
 70
     0
 41
2.0
 44
0.0
 73
     0
 74
     0
 77
     1
 78
    12
 79
     3
140
2.5424804688
147
0.6356201172
173
     1
178
     0
179
     2
272
     2
276
     2
284
    12
340
103
  0
DIMSTYLE
105
20A
102
{ACAD_REACTORS
330
209
330
216
330
222
330
22E
330
23A
330
25F
102
}
330
A
100
AcDbSymbolTableRecord
100
AcDbDimStyleTableRecord
  2
SLDDIMSTYLE1
 70
     0
 41
2.0
 44
0.0
 45
0.000000001
 73
     0
 74
     0
 77
     1
 78
    12
 79
     3
140
2.5424804688
147
0.6356201172
173
     1
178
     0
271
     2
272
     2
276
     2
284
    12
340
103
  0
DIMSTYLE
105
246
102
{ACAD_REACTORS
330
245
102
}
330
A
100
AcDbSymbolTableRecord
100
AcDbDimStyleTableRecord
  2
SLDDIMSTYLE2
 70
     0
 41
2.0
 44
0.0
 45
0.000000001
 78
    12
 79
     3
140
2.5424804688
141
0.0
147
0.6356201172
172
     1
173
     1
178
     0
271
     2
272
     2
276
     2
284
    12
340
103
  0
DIMSTYLE
105
252
102
{ACAD_REACTORS
330
251
330
420
102
}
330
A
100
AcDbSymbolTableRecord
100
AcDbDimStyleTableRecord
  2
SLDDIMSTYLE3
 70
     0
 41
2.0
 44
0.0
 45
0.000000001
 78
    12
 79
     3
140
2.5424804688
141
0.0
147
0.6356201172
172
     1
173
     1
178
     0
271
     2
272
     2
276
     2
284
    12
340
103
341
253
343
253
  0
DIMSTYLE
105
270
330
A
100
AcDbSymbolTableRecord
100
AcDbDimStyleTableRecord
  2
SLDDIMSTYLE4
 70
     0
 41
2.0
 44
0.0
 45
0.000000001
146
2.0
147
0.0
173
     1
178
     0
271
     0
272
     0
276
     2
340
11
  0
ENDTAB
  0
TABLE
  2
BLOCK_RECORD
  5
1
330
0
100
AcDbSymbolTable
 70
    19
  0
BLOCK_RECORD
  5
1F
330
1
100
AcDbSymbolTableRecord
100
AcDbBlockTableRecord
  2
*Model_Space
340
22
  0
BLOCK_RECORD
  5
1B
330
1
100
AcDbSymbolTableRecord
100
AcDbBlockTableRecord
  2
*Paper_Space
340
1E
  0
BLOCK_RECORD
  5
23
330
1
100
AcDbSymbolTableRecord
100
AcDbBlockTableRecord
  2
*Paper_Space0
340
26
  0
BLOCK_RECORD
  5
7C
330
1
100
AcDbSymbolTableRecord
100
AcDbBlockTableRecord
  2
圖塊6
340
0
102
{BLKREFS
331
CB
102
}
  0
BLOCK_RECORD
  5
CE
330
1
100
AcDbSymbolTableRecord
100
AcDbBlockTableRecord
  2
SW_NOTE_0
340
0
102
{BLKREFS
331
D4
102
}
  0
BLOCK_RECORD
  5
105
330
1
100
AcDbSymbolTableRecord
100
AcDbBlockTableRecord
  2
SW_NOTE_0_1
340
0
102
{BLKREFS
331
10A
102
}
  0
BLOCK_RECORD
  5
10B
330
1
100
AcDbSymbolTableRecord
100
AcDbBlockTableRecord
  2
SW_TABLEANNOTATION_0
340
0
102
{BLKREFS
331
120
102
}
  0
BLOCK_RECORD
  5
1F6
330
1
100
AcDbSymbolTableRecord
100
AcDbBlockTableRecord
  2
_D
340
0
  0
BLOCK_RECORD
  5
200
330
1
100
AcDbSymbolTableRecord
100
AcDbBlockTableRecord
  2
_D_1
340
0
  0
BLOCK_RECORD
  5
20B
330
1
100
AcDbSymbolTableRecord
100
AcDbBlockTableRecord
  2
_D_2
340
0
  0
BLOCK_RECORD
  5
217
330
1
100
AcDbSymbolTableRecord
100
AcDbBlockTableRecord
  2
_D_3
340
0
  0
BLOCK_RECORD
  5
223
330
1
100
AcDbSymbolTableRecord
100
AcDbBlockTableRecord
  2
_D_4
340
0
  0
BLOCK_RECORD
  5
22F
330
1
100
AcDbSymbolTableRecord
100
AcDbBlockTableRecord
  2
_D_5
340
0
  0
BLOCK_RECORD
  5
23B
330
1
100
AcDbSymbolTableRecord
100
AcDbBlockTableRecord
  2
_D_6
340
0
  0
BLOCK_RECORD
  5
247
330
1
100
AcDbSymbolTableRecord
100
AcDbBlockTableRecord
  2
_D_7
340
0
  0
BLOCK_RECORD
  5
253
330
1
100
AcDbSymbolTableRecord
100
AcDbBlockTableRecord
  2
_None
340
0
  0
BLOCK_RECORD
  5
256
330
1
100
AcDbSymbolTableRecord
100
AcDbBlockTableRecord
  2
_D_8
340
0
  0
BLOCK_RECORD
  5
260
330
1
100
AcDbSymbolTableRecord
100
AcDbBlockTableRecord
  2
_D_9
340
0
  0
BLOCK_RECORD
  5
26A
330
1
100
AcDbSymbolTableRecord
100
AcDbBlockTableRecord
  2
SW_NOTE_0_2
340
0
102
{BLKREFS
331
26F
102
}
  0
BLOCK_RECORD
  5
421
330
1
100
AcDbSymbolTableRecord
100
AcDbBlockTableRecord
  2
_D_10
340
0
  0
BLOCK_RECORD
  5
42C
330
1
100
AcDbSymbolTableRecord
100
AcDbBlockTableRecord
  2
SW_CENTERMARKSYMBOL_0
340
0
102
{BLKREFS
331
437
102
}
  0
ENDTAB
  0
ENDSEC
  0
SECTION
  2
BLOCKS
  0
BLOCK
  5
20
330
1F
100
AcDbEntity
  8
0
100
AcDbBlockBegin
  2
*Model_Space
 70
     0
 10
0.0
 20
0.0
 30
0.0
  3
*Model_Space
  1

  0
ENDBLK
  5
21
330
1F
100
AcDbEntity
  8
0
100
AcDbBlockEnd
  0
BLOCK
  5
1C
330
1B
100
AcDbEntity
 67
     1
  8
0
100
AcDbBlockBegin
  2
*Paper_Space
 70
     0
 10
0.0
 20
0.0
 30
0.0
  3
*Paper_Space
  1

  0
ENDBLK
  5
1D
330
1B
100
AcDbEntity
 67
     1
  8
0
100
AcDbBlockEnd
  0
BLOCK
  5
24
330
23
100
AcDbEntity
  8
0
100
AcDbBlockBegin
  2
*Paper_Space0
 70
     0
 10
0.0
 20
0.0
 30
0.0
  3
*Paper_Space0
  1

  0
ENDBLK
  5
25
330
23
100
AcDbEntity
  8
0
100
AcDbBlockEnd
  0
BLOCK
  5
7D
330
7C
100
AcDbEntity
  8
0
100
AcDbBlockBegin
  2
圖塊6
 70
     0
 10
0.0
 20
0.0
 30
0.0
  3
圖塊6
  1

  0
ARC
  5
7F
330
7C
100
AcDbEntity
  8
圖層_1
 62
     7
370
    35
100
AcDbCircle
 10
1.5301544339
 20
6.1020682891
 30
0.0
 40
1.53015443394367
100
AcDbArc
 50
130.2115225915
 51
228.588904108
  0
ARC
  5
80
330
7C
100
AcDbEntity
  8
圖層_1
 62
     7
370
    35
100
AcDbCircle
 10
4.8509135981
 20
5.9949454415
 30
0.0
 40
2.577335426817622
100
AcDbArc
 50
140.4331765613
 51
251.0865666567
  0
ARC
  5
81
330
7C
100
AcDbEntity
  8
圖層_1
 62
     7
370
    35
100
AcDbCircle
 10
5.1765041982
 20
6.3117559713
 30
0.0
 40
2.989636657769863
100
AcDbArc
 50
247.1485306747
 51
309.6030773927
  0
LINE
  5
82
330
7C
100
AcDbEntity
  8
圖層_1
 62
     7
370
    35
100
AcDbLine
 10
1.8488977269
 20
8.5321825984
 30
0.0
 11
0.542269472
 21
7.2705955219
 31
0.0
  0
LINE
  5
83
330
7C
100
AcDbEntity
  8
圖層_1
 62
     7
370
    35
100
AcDbLine
 10
0.51802289
 20
4.9544784977
 30
0.0
 11
4.5272252002
 21
1.4698746574
 31
0.0
  0
LINE
  5
84
330
7C
100
AcDbEntity
  8
圖層_1
 62
     7
370
    35
100
AcDbLine
 10
4.5272252002
 20
1.4698746574
 30
0.0
 11
3.8961732797
 21
0.853974267
 31
0.0
  0
LINE
  5
85
330
7C
100
AcDbEntity
  8
圖層_1
 62
     7
370
    35
100
AcDbLine
 10
3.8961732797
 20
0.853974267
 30
0.0
 11
4.8880526445
 21
0.0
 31
0.0
  0
LINE
  5
86
330
7C
100
AcDbEntity
  8
圖層_1
 62
     7
370
    35
100
AcDbLine
 10
8.0977170788
 20
3.1165779655
 30
0.0
 11
7.0822940472
 21
4.0083036932
 31
0.0
  0
LINE
  5
87
330
7C
100
AcDbEntity
  8
圖層_1
 62
     7
370
    35
100
AcDbLine
 10
2.8640915743
 20
7.6366506975
 30
0.0
 11
1.8488977269
 21
8.5321825984
 31
0.0
  0
LINE
  5
88
330
7C
100
AcDbEntity
  8
圖層_1
 62
     7
370
    35
100
AcDbLine
 10
4.8880526445
 20
0.0
 30
0.0
 11
8.0977170788
 21
3.1165779655
 31
0.0
  0
ENDBLK
  5
7E
330
7C
100
AcDbEntity
  8
0
100
AcDbBlockEnd
  0
BLOCK
  5
CF
330
CE
100
AcDbEntity
  8
0
100
AcDbBlockBegin
  2
SW_NOTE_0
 70
     0
 10
0.0
 20
0.0
 30
0.0
  3
SW_NOTE_0
  1

  0
MTEXT
  5
D1
330
CE
100
AcDbEntity
  8
0
  6
Continuous
 62
     0
370
     0
100
AcDbMText
 10
0.0
 20
3.4106583948
 30
0.0
 40
2.6458333333
 41
0.0
 71
     1
 72
     1
  1
PROPRIETARY AND CONFIDENTIAL
  7
SLDTEXTSTYLE0
 73
     1
 44
1.0
  0
MTEXT
  5
D2
330
CE
100
AcDbEntity
  8
0
  6
Continuous
 62
     0
370
     0
100
AcDbMText
 10
0.0
 20
-0.08198348
 30
0.0
 40
1.8520833333
 41
0.0
 71
     1
 72
     1
  1
THE INFORMATION CONTAINED IN THIS DRAWING IS THE SOLE PROPERTY OF UNICE E-O SERVICES INC. ANY REPRODUCTION IN PART OR AS A WHOLE WITHOUT THE WRITTEN PERMISSION OF UNICE E-O SERVICES INC IS
  7
SLDTEXTSTYLE0
 73
     1
 44
1.0
  0
MTEXT
  5
D3
330
CE
100
AcDbEntity
  8
0
  6
Continuous
 62
     0
370
     0
100
AcDbMText
 10
0.0
 20
-2.5514278946
 30
0.0
 40
1.8520833333
 41
0.0
 71
     1
 72
     1
  1
PROHIBITED.
  7
SLDTEXTSTYLE0
 73
     1
 44
1.0
  0
ENDBLK
  5
D0
330
CE
100
AcDbEntity
  8
0
100
AcDbBlockEnd
  0
BLOCK
  5
106
330
105
100
AcDbEntity
  8
0
100
AcDbBlockBegin
  2
SW_NOTE_0_1
 70
     0
 10
0.0
 20
0.0
 30
0.0
  3
SW_NOTE_0_1
  1

  0
MTEXT
  5
108
330
105
100
AcDbEntity
  8
SLD-0
 62
     0
100
AcDbMText
 10
0.0
 20
2.0463950369
 30
0.0
 40
1.5875
 41
0.0
 71
     1
 72
     1
  1
No.5, Andong Rd., Chung Li District,
  7
SLDTEXTSTYLE0
 73
     1
 44
1.0
  0
MTEXT
  5
109
330
105
100
AcDbEntity
  8
SLD-0
 62
     0
100
AcDbMText
 10
0.0
 20
-0.0702716042
 30
0.0
 40
1.5875
 41
0.0
 71
     1
 72
     1
  1
Taoyuan City 32063, Taiwan, R.O.C.
  7
SLDTEXTSTYLE0
 73
     1
 44
1.0
  0
ENDBLK
  5
107
330
105
100
AcDbEntity
  8
0
100
AcDbBlockEnd
  0
BLOCK
  5
10C
330
10B
100
AcDbEntity
  8
0
100
AcDbBlockBegin
  2
SW_TABLEANNOTATION_0
 70
     0
 10
0.0
 20
0.0
 30
0.0
  3
SW_TABLEANNOTATION_0
  1

  0
LINE
  5
10E
330
10B
100
AcDbEntity
  8
DIM
 62
     0
100
AcDbLine
 10
0.0
 20
0.0
 30
0.0
 11
0.0
 21
-6.4735574558
 31
0.0
  0
LINE
  5
10F
330
10B
100
AcDbEntity
  8
DIM
 62
     0
100
AcDbLine
 10
41.2019662902
 20
0.0
 30
0.0
 11
41.2019662902
 21
-6.4735574558
 31
0.0
  0
LINE
  5
110
330
10B
100
AcDbEntity
  8
DIM
 62
     0
100
AcDbLine
 10
0.0
 20
-6.4735574558
 30
0.0
 11
0.0
 21
-12.9471149115
 31
0.0
  0
LINE
  5
111
330
10B
100
AcDbEntity
  8
DIM
 62
     0
100
AcDbLine
 10
41.2019662902
 20
-6.4735574558
 30
0.0
 11
41.2019662902
 21
-12.9471149115
 31
0.0
  0
LINE
  5
112
330
10B
100
AcDbEntity
  8
DIM
 62
     0
100
AcDbLine
 10
69.196887047
 20
0.0
 30
0.0
 11
69.196887047
 21
-6.4735574558
 31
0.0
  0
LINE
  5
113
330
10B
100
AcDbEntity
  8
DIM
 62
     0
100
AcDbLine
 10
69.196887047
 20
-6.4735574558
 30
0.0
 11
69.196887047
 21
-12.9471149115
 31
0.0
  0
LINE
  5
114
330
10B
100
AcDbEntity
  8
DIM
 62
     0
100
AcDbLine
 10
0.0
 20
0.0
 30
0.0
 11
41.2019662902
 21
0.0
 31
0.0
  0
LINE
  5
115
330
10B
100
AcDbEntity
  8
DIM
 62
     0
100
AcDbLine
 10
0.0
 20
-6.4735574558
 30
0.0
 11
41.2019662902
 21
-6.4735574558
 31
0.0
  0
LINE
  5
116
330
10B
100
AcDbEntity
  8
DIM
 62
     0
100
AcDbLine
 10
41.2019662902
 20
0.0
 30
0.0
 11
69.196887047
 21
0.0
 31
0.0
  0
LINE
  5
117
330
10B
100
AcDbEntity
  8
DIM
 62
     0
100
AcDbLine
 10
41.2019662902
 20
-6.4735574558
 30
0.0
 11
69.196887047
 21
-6.4735574558
 31
0.0
  0
LINE
  5
118
330
10B
100
AcDbEntity
  8
DIM
 62
     0
100
AcDbLine
 10
0.0
 20
-12.9471149115
 30
0.0
 11
41.2019662902
 21
-12.9471149115
 31
0.0
  0
LINE
  5
119
330
10B
100
AcDbEntity
  8
DIM
 62
     0
100
AcDbLine
 10
41.2019662902
 20
-12.9471149115
 30
0.0
 11
69.196887047
 21
-12.9471149115
 31
0.0
  0
LINE
  5
11A
330
10B
100
AcDbEntity
  8
DIM
 62
     0
100
AcDbLine
 10
0.0
 20
0.0
 30
0.0
 11
0.0
 21
-12.9471149115
 31
0.0
  0
LINE
  5
11B
330
10B
100
AcDbEntity
  8
DIM
 62
     0
100
AcDbLine
 10
0.0
 20
-12.9471149115
 30
0.0
 11
69.196887047
 21
-12.9471149115
 31
0.0
  0
LINE
  5
11C
330
10B
100
AcDbEntity
  8
DIM
 62
     0
100
AcDbLine
 10
69.196887047
 20
-12.9471149115
 30
0.0
 11
69.196887047
 21
0.0
 31
0.0
  0
LINE
  5
11D
330
10B
100
AcDbEntity
  8
DIM
 62
     0
100
AcDbLine
 10
69.196887047
 20
0.0
 30
0.0
 11
0.0
 21
0.0
 31
0.0
  0
MTEXT
  5
11E
330
10B
100
AcDbEntity
  8
DIM
 62
     0
100
AcDbMText
 10
16.0093165174
 20
-1.2424921563
 30
0.0
 40
3.0
 41
0.0
 71
     1
 72
     1
  1
Model
  7
SLDTEXTSTYLE1
 73
     1
 44
1.0
  0
MTEXT
  5
11F
330
10B
100
AcDbEntity
  8
DIM
 62
     0
100
AcDbMText
 10
49.9223434133
 20
-1.2424921563
 30
0.0
 40
3.0
 41
0.0
 71
     1
 72
     1
  1
W(kgs)
  7
SLDTEXTSTYLE1
 73
     1
 44
1.0
  0
ENDBLK
  5
10D
330
10B
100
AcDbEntity
  8
0
100
AcDbBlockEnd
  0
BLOCK
  5
1F7
330
1F6
100
AcDbEntity
  8
0
100
AcDbBlockBegin
  2
_D
 70
     0
 10
0.0
 20
0.0
 30
0.0
  3
_D
  1

  0
ARC
  5
1F9
330
1F6
100
AcDbEntity
  8
DIM
100
AcDbCircle
 10
117.038141957
 20
58.7502363699
 30
0.0
 40
40.78023216538502
100
AcDbArc
 50
90.0
 51
120.0
  0
SOLID
  5
1FA
330
1F6
100
AcDbEntity
  8
DIM
100
AcDbTrace
 10
117.038141957
 20
99.5304685353
 30
0.0
 11
115.0326173772
 21
99.7313942926
 31
0.0
 12
115.0448671779
 22
99.2315443727
 32
0.0
 13
115.0448671779
 23
99.2315443727
 33
0.0
  0
SOLID
  5
1FB
330
1F6
100
AcDbEntity
  8
DIM
100
AcDbTrace
 10
96.6480258743
 20
94.0669533973
 30
0.0
 11
98.523714551
 21
94.8047148683
 31
0.0
 12
98.2843982296
 22
95.2437224973
 32
0.0
 13
98.2843982296
 23
95.2437224973
 33
0.0
  0
LINE
  5
1FC
330
1F6
100
AcDbEntity
  8
DIM
100
AcDbLine
 10
117.038141957
 20
96.2351083546
 30
0.0
 11
117.038141957
 21
100.5304685353
 31
0.0
  0
LINE
  5
1FD
330
1F6
100
AcDbEntity
  8
DIM
100
AcDbLine
 10
100.2114451264
 20
87.8949302041
 30
0.0
 11
96.1480258743
 21
94.9329788011
 31
0.0
  0
MTEXT
  5
1FE
330
1F6
100
AcDbEntity
  8
DIM
100
AcDbMText
 10
105.5979764327
 20
101.1228938366
 30
0.0
 40
2.38125
 41
0.0
 71
     1
 72
     1
  1
30°
  7
SLDTEXTSTYLE1
 11
0.9756813385287686
 21
0.2191938084132635
 31
0.0
 73
     1
 44
1.0
  0
ENDBLK
  5
1F8
330
1F6
100
AcDbEntity
  8
0
100
AcDbBlockEnd
  0
BLOCK
  5
201
330
200
100
AcDbEntity
  8
0
100
AcDbBlockBegin
  2
_D_1
 70
     0
 10
0.0
 20
0.0
 30
0.0
  3
_D_1
  1

  0
ARC
  5
203
330
200
100
AcDbEntity
  8
DIM
100
AcDbCircle
 10
117.038141957
 20
58.7502363699
 30
0.0
 40
40.78023216538504
100
AcDbArc
 50
60.0
 51
90.0
  0
SOLID
  5
204
330
200
100
AcDbEntity
  8
DIM
100
AcDbTrace
 10
137.4282580397
 20
94.0669533973
 30
0.0
 11
135.7918856844
 21
95.2437224973
 31
0.0
 12
135.552569363
 22
94.8047148683
 32
0.0
 13
135.552569363
 23
94.8047148683
 33
0.0
  0
SOLID
  5
205
330
200
100
AcDbEntity
  8
DIM
100
AcDbTrace
 10
117.038141957
 20
99.5304685353
 30
0.0
 11
119.0314167361
 21
99.2315443727
 31
0.0
 12
119.0436665368
 22
99.7313942926
 32
0.0
 13
119.0436665368
 23
99.7313942926
 33
0.0
  0
LINE
  5
206
330
200
100
AcDbEntity
  8
DIM
100
AcDbLine
 10
133.8648387876
 20
87.8949302041
 30
0.0
 11
137.9282580397
 21
94.9329788011
 31
0.0
  0
LINE
  5
207
330
200
100
AcDbEntity
  8
DIM
100
AcDbLine
 10
117.038141957
 20
96.2351083546
 30
0.0
 11
117.038141957
 21
100.5304685353
 31
0.0
  0
MTEXT
  5
208
330
200
100
AcDbEntity
  8
DIM
100
AcDbMText
 10
124.1296611722
 20
102.0633965321
 30
0.0
 40
2.38125
 41
0.0
 71
     1
 72
     1
  1
30°
  7
SLDTEXTSTYLE1
 11
0.979060870164253
 21
-0.2035677098982444
 31
0.0
 73
     1
 44
1.0
  0
ENDBLK
  5
202
330
200
100
AcDbEntity
  8
0
100
AcDbBlockEnd
  0
BLOCK
  5
20C
330
20B
100
AcDbEntity
  8
0
100
AcDbBlockBegin
  2
_D_2
 70
     0
 10
0.0
 20
0.0
 30
0.0
  3
_D_2
  1

  0
SOLID
  5
20E
330
20B
100
AcDbEntity
  8
DIM
100
AcDbTrace
 10
81.2834985329
 20
100.6790953869
 30
0.0
 11
83.1405493404
 21
101.462589036
 31
0.0
 12
82.8905493404
 22
101.8956017379
 32
0.0
 13
82.8905493404
 23
101.8956017379
 33
0.0
  0
SOLID
  5
20F
330
20B
100
AcDbEntity
  8
DIM
100
AcDbTrace
 10
98.6040066086
 20
110.6790953869
 30
0.0
 11
96.746955801
 21
109.8956017379
 31
0.0
 12
96.996955801
 22
109.462589036
 32
0.0
 13
96.996955801
 23
109.462589036
 33
0.0
  0
LINE
  5
210
330
20B
100
AcDbEntity
  8
DIM
100
AcDbLine
 10
92.5511910885
 20
81.1628793965
 30
0.0
 11
80.7834985329
 21
101.5451207907
 31
0.0
  0
LINE
  5
211
330
20B
100
AcDbEntity
  8
DIM
100
AcDbLine
 10
109.8716991642
 20
91.1628793965
 30
0.0
 11
106.1808257378
 21
97.5556596953
 31
0.0
  0
LINE
  5
212
330
20B
100
AcDbEntity
  8
DIM
100
AcDbLine
 10
105.6808257378
 20
98.4216850991
 30
0.0
 11
98.1040066086
 21
111.5451207907
 31
0.0
  0
LINE
  5
213
330
20B
100
AcDbEntity
  8
DIM
100
AcDbLine
 10
81.2834985329
 20
100.6790953869
 30
0.0
 11
98.6040066086
 21
110.6790953869
 31
0.0
  0
MTEXT
  5
214
330
20B
100
AcDbEntity
  8
DIM
100
AcDbMText
 10
85.8120829688
 20
106.8381351407
 30
0.0
 40
2.38125
 41
0.0
 71
     1
 72
     1
  1
%%c
  7
SLDTEXTSTYLE1
 11
0.8660254037844408
 21
0.4999999999999963
 31
0.0
 73
     1
 44
1.0
  0
MTEXT
  5
215
330
20B
100
AcDbEntity
  8
DIM
100
AcDbMText
 10
88.4242320714
 20
108.3462601283
 30
0.0
 40
2.38125
 41
0.0
 71
     1
 72
     1
  1
20
  7
SLDTEXTSTYLE1
 11
0.8660254037844408
 21
0.4999999999999963
 31
0.0
 73
     1
 44
1.0
  0
ENDBLK
  5
20D
330
20B
100
AcDbEntity
  8
0
100
AcDbBlockEnd
  0
BLOCK
  5
218
330
217
100
AcDbEntity
  8
0
100
AcDbBlockBegin
  2
_D_3
 70
     0
 10
0.0
 20
0.0
 30
0.0
  3
_D_3
  1

  0
SOLID
  5
21A
330
217
100
AcDbEntity
  8
DIM
100
AcDbTrace
 10
88.1422203126
 20
94.6708693609
 30
0.0
 11
89.9992711202
 21
95.45436301
 31
0.0
 12
89.7492711202
 22
95.8873757119
 32
0.0
 13
89.7492711202
 23
95.8873757119
 33
0.0
  0
SOLID
  5
21B
330
217
100
AcDbEntity
  8
DIM
100
AcDbTrace
 10
100.3779220889
 20
101.7351550752
 30
0.0
 11
98.5208712813
 21
100.9516614262
 31
0.0
 12
98.7708712813
 22
100.5186487243
 32
0.0
 13
98.7708712813
 23
100.5186487243
 33
0.0
  0
LINE
  5
21C
330
217
100
AcDbEntity
  8
DIM
100
AcDbLine
 10
95.0935942382
 20
82.6307365394
 30
0.0
 11
87.6422203126
 21
95.5368947647
 31
0.0
  0
LINE
  5
21D
330
217
100
AcDbEntity
  8
DIM
100
AcDbLine
 10
107.3292960145
 20
89.6950222536
 30
0.0
 11
103.3241403235
 21
96.6321554028
 31
0.0
  0
LINE
  5
21E
330
217
100
AcDbEntity
  8
DIM
100
AcDbLine
 10
102.8241403235
 20
97.4981808066
 30
0.0
 11
99.8779220889
 21
102.601180479
 31
0.0
  0
LINE
  5
21F
330
217
100
AcDbEntity
  8
DIM
100
AcDbLine
 10
88.1422203126
 20
94.6708693609
 30
0.0
 11
100.3779220889
 21
101.7351550752
 31
0.0
  0
MTEXT
  5
220
330
217
100
AcDbEntity
  8
DIM
100
AcDbMText
 10
90.1284015988
 20
99.3620519719
 30
0.0
 40
2.38125
 41
0.0
 71
     1
 72
     1
  1
%%c
  7
SLDTEXTSTYLE1
 11
0.8660254037844416
 21
0.4999999999999949
 31
0.0
 73
     1
 44
1.0
  0
MTEXT
  5
221
330
217
100
AcDbEntity
  8
DIM
100
AcDbMText
 10
92.7405507015
 20
100.8701769594
 30
0.0
 40
2.38125
 41
0.0
 71
     1
 72
     1
  1
14
  7
SLDTEXTSTYLE1
 11
0.8660254037844416
 21
0.4999999999999949
 31
0.0
 73
     1
 44
1.0
  0
ENDBLK
  5
219
330
217
100
AcDbEntity
  8
0
100
AcDbBlockEnd
  0
BLOCK
  5
224
330
223
100
AcDbEntity
  8
0
100
AcDbBlockBegin
  2
_D_4
 70
     0
 10
0.0
 20
0.0
 30
0.0
  3
_D_4
  1

  0
SOLID
  5
226
330
223
100
AcDbEntity
  8
DIM
100
AcDbTrace
 10
136.4258337375
 20
112.3307035752
 30
0.0
 11
138.0328845451
 21
111.1141972242
 31
0.0
 12
138.2828845451
 22
111.5472099261
 32
0.0
 13
138.2828845451
 23
111.5472099261
 33
0.0
  0
SOLID
  5
227
330
223
100
AcDbEntity
  8
DIM
100
AcDbTrace
 10
153.7463418132
 20
102.3307035752
 30
0.0
 11
152.1392910056
 21
103.5472099261
 31
0.0
 12
151.8892910056
 22
103.1141972242
 32
0.0
 13
151.8892910056
 23
103.1141972242
 33
0.0
  0
LINE
  5
228
330
223
100
AcDbEntity
  8
DIM
100
AcDbLine
 10
124.2045847498
 20
91.1628793965
 30
0.0
 11
127.8954581762
 21
97.5556596953
 31
0.0
  0
LINE
  5
229
330
223
100
AcDbEntity
  8
DIM
100
AcDbLine
 10
128.3954581762
 20
98.4216850991
 30
0.0
 11
136.9258337375
 21
113.196728979
 31
0.0
  0
LINE
  5
22A
330
223
100
AcDbEntity
  8
DIM
100
AcDbLine
 10
141.5250928255
 20
81.1628793965
 30
0.0
 11
154.2463418132
 21
103.196728979
 31
0.0
  0
LINE
  5
22B
330
223
100
AcDbEntity
  8
DIM
100
AcDbLine
 10
136.4258337375
 20
112.3307035752
 30
0.0
 11
153.7463418132
 21
102.3307035752
 31
0.0
  0
MTEXT
  5
22C
330
223
100
AcDbEntity
  8
DIM
100
AcDbMText
 10
144.0240108451
 20
111.4883542874
 30
0.0
 40
2.38125
 41
0.0
 71
     1
 72
     1
  1
%%c
  7
SLDTEXTSTYLE1
 11
0.8660254037844437
 21
-0.4999999999999912
 31
0.0
 73
     1
 44
1.0
  0
MTEXT
  5
22D
330
223
100
AcDbEntity
  8
DIM
100
AcDbMText
 10
146.6361599478
 20
109.9802292998
 30
0.0
 40
2.38125
 41
0.0
 71
     1
 72
     1
  1
20
  7
SLDTEXTSTYLE1
 11
0.8660254037844437
 21
-0.4999999999999912
 31
0.0
 73
     1
 44
1.0
  0
ENDBLK
  5
225
330
223
100
AcDbEntity
  8
0
100
AcDbBlockEnd
  0
BLOCK
  5
230
330
22F
100
AcDbEntity
  8
0
100
AcDbBlockBegin
  2
_D_5
 70
     0
 10
0.0
 20
0.0
 30
0.0
  3
_D_5
  1

  0
SOLID
  5
232
330
22F
100
AcDbEntity
  8
DIM
100
AcDbTrace
 10
133.6438454695
 20
101.6407299775
 30
0.0
 11
135.2508962771
 21
100.4242236266
 31
0.0
 12
135.5008962771
 22
100.8572363285
 32
0.0
 13
135.5008962771
 23
100.8572363285
 33
0.0
  0
SOLID
  5
233
330
22F
100
AcDbEntity
  8
DIM
100
AcDbTrace
 10
145.8795472458
 20
94.5764442632
 30
0.0
 11
144.2724964382
 21
95.7929506142
 31
0.0
 12
144.0224964382
 22
95.3599379123
 32
0.0
 13
144.0224964382
 23
95.3599379123
 33
0.0
  0
LINE
  5
234
330
22F
100
AcDbEntity
  8
DIM
100
AcDbLine
 10
126.7469878995
 20
89.6950222536
 30
0.0
 11
130.7521435905
 21
96.6321554028
 31
0.0
  0
LINE
  5
235
330
22F
100
AcDbEntity
  8
DIM
100
AcDbLine
 10
131.2521435905
 20
97.4981808066
 30
0.0
 11
134.1438454695
 21
102.5067553813
 31
0.0
  0
LINE
  5
236
330
22F
100
AcDbEntity
  8
DIM
100
AcDbLine
 10
138.9826896758
 20
82.6307365394
 30
0.0
 11
146.3795472458
 21
95.442469667
 31
0.0
  0
LINE
  5
237
330
22F
100
AcDbEntity
  8
DIM
100
AcDbLine
 10
133.6438454695
 20
101.6407299775
 30
0.0
 11
145.8795472458
 21
94.5764442632
 31
0.0
  0
MTEXT
  5
238
330
22F
100
AcDbEntity
  8
DIM
100
AcDbMText
 10
138.6996194274
 20
102.2662378326
 30
0.0
 40
2.38125
 41
0.0
 71
     1
 72
     1
  1
%%c
  7
SLDTEXTSTYLE1
 11
0.8660254037844468
 21
-0.4999999999999858
 31
0.0
 73
     1
 44
1.0
  0
MTEXT
  5
239
330
22F
100
AcDbEntity
  8
DIM
100
AcDbMText
 10
141.3117685301
 20
100.758112845
 30
0.0
 40
2.38125
 41
0.0
 71
     1
 72
     1
  1
14
  7
SLDTEXTSTYLE1
 11
0.8660254037844468
 21
-0.4999999999999858
 31
0.0
 73
     1
 44
1.0
  0
ENDBLK
  5
231
330
22F
100
AcDbEntity
  8
0
100
AcDbBlockEnd
  0
BLOCK
  5
23C
330
23B
100
AcDbEntity
  8
0
100
AcDbBlockBegin
  2
_D_6
 70
     0
 10
0.0
 20
0.0
 30
0.0
  3
_D_6
  1

  0
SOLID
  5
23E
330
23B
100
AcDbEntity
  8
DIM
100
AcDbTrace
 10
107.038141957
 20
20.1968427086
 30
0.0
 11
109.038141957
 21
19.9468427086
 31
0.0
 12
109.038141957
 22
20.4468427086
 32
0.0
 13
109.038141957
 23
20.4468427086
 33
0.0
  0
SOLID
  5
23F
330
23B
100
AcDbEntity
  8
DIM
100
AcDbTrace
 10
127.038141957
 20
20.1968427086
 30
0.0
 11
125.038141957
 21
20.4468427086
 31
0.0
 12
125.038141957
 22
19.9468427086
 32
0.0
 13
125.038141957
 23
19.9468427086
 33
0.0
  0
LINE
  5
240
330
23B
100
AcDbEntity
  8
DIM
100
AcDbLine
 10
107.038141957
 20
31.1968427086
 30
0.0
 11
107.038141957
 21
19.1968427086
 31
0.0
  0
LINE
  5
241
330
23B
100
AcDbEntity
  8
DIM
100
AcDbLine
 10
127.038141957
 20
31.1968427086
 30
0.0
 11
127.038141957
 21
19.1968427086
 31
0.0
  0
LINE
  5
242
330
23B
100
AcDbEntity
  8
DIM
100
AcDbLine
 10
107.038141957
 20
20.1968427086
 30
0.0
 11
127.038141957
 21
20.1968427086
 31
0.0
  0
MTEXT
  5
243
330
23B
100
AcDbEntity
  8
DIM
100
AcDbMText
 10
114.0395309985
 20
23.2664353804
 30
0.0
 40
2.38125
 41
0.0
 71
     1
 72
     1
  1
%%c
  7
SLDTEXTSTYLE1
 73
     1
 44
1.0
  0
MTEXT
  5
244
330
23B
100
AcDbEntity
  8
DIM
100
AcDbMText
 10
117.0557809737
 20
23.2664353804
 30
0.0
 40
2.38125
 41
0.0
 71
     1
 72
     1
  1
20
  7
SLDTEXTSTYLE1
 73
     1
 44
1.0
  0
ENDBLK
  5
23D
330
23B
100
AcDbEntity
  8
0
100
AcDbBlockEnd
  0
BLOCK
  5
248
330
247
100
AcDbEntity
  8
0
100
AcDbBlockBegin
  2
_D_7
 70
     0
 10
0.0
 20
0.0
 30
0.0
  3
_D_7
  1

  0
SOLID
  5
24A
330
247
100
AcDbEntity
  8
DIM
100
AcDbTrace
 10
142.2318804191
 20
52.3256319228
 30
0.0
 11
140.3556755802
 21
53.0620797501
 31
0.0
 12
140.2321254947
 22
52.5775847797
 32
0.0
 13
140.2321254947
 23
52.5775847797
 33
0.0
  0
SOLID
  5
24B
330
247
100
AcDbEntity
  8
DIM
100
AcDbTrace
 10
91.8444034948
 20
65.1748408169
 30
0.0
 11
93.7206083338
 21
64.4383929896
 31
0.0
 12
93.8441584193
 22
64.9228879601
 32
0.0
 13
93.8441584193
 23
64.9228879601
 33
0.0
  0
LINE
  5
24C
330
247
100
AcDbEntity
  8
DIM
100
AcDbLine
 10
91.8444034948
 20
65.1748408169
 30
0.0
 11
75.600671747
 21
69.3171220977
 31
0.0
  0
LINE
  5
24D
330
247
100
AcDbEntity
  8
DIM
100
AcDbLine
 10
142.2318804191
 20
52.3256319228
 30
0.0
 11
91.8444034948
 21
65.1748408169
 31
0.0
  0
LINE
  5
24E
330
247
100
AcDbEntity
  8
DIM
100
AcDbLine
 10
75.600671747
 20
69.3171220977
 30
0.0
 11
68.35344983
 21
69.3171220977
 31
0.0
  0
MTEXT
  5
24F
330
247
100
AcDbEntity
  8
DIM
100
AcDbMText
 10
68.35344983
 20
72.3867147694
 30
0.0
 40
2.38125
 41
0.0
 71
     1
 72
     1
  1
%%c
  7
SLDTEXTSTYLE1
 73
     1
 44
1.0
  0
MTEXT
  5
250
330
247
100
AcDbEntity
  8
DIM
100
AcDbMText
 10
71.3696998052
 20
72.3867147694
 30
0.0
 40
2.38125
 41
0.0
 71
     1
 72
     1
  1
52
  7
SLDTEXTSTYLE1
 73
     1
 44
1.0
  0
ENDBLK
  5
249
330
247
100
AcDbEntity
  8
0
100
AcDbBlockEnd
  0
BLOCK
  5
254
330
253
100
AcDbEntity
  8
0
100
AcDbBlockBegin
  2
_None
 70
     0
 10
0.0
 20
0.0
 30
0.0
  3
_None
  1

  0
ENDBLK
  5
255
330
253
100
AcDbEntity
  8
0
100
AcDbBlockEnd
  0
BLOCK
  5
257
330
256
100
AcDbEntity
  8
0
100
AcDbBlockBegin
  2
_D_8
 70
     0
 10
0.0
 20
0.0
 30
0.0
  3
_D_8
  1

  0
SOLID
  5
259
330
256
100
AcDbEntity
  8
DIM
100
AcDbTrace
 10
92.5859408568
 20
72.3917121461
 30
0.0
 11
90.9611539548
 21
73.5844264971
 31
0.0
 12
90.717556173
 22
73.1477800489
 32
0.0
 13
90.717556173
 23
73.1477800489
 33
0.0
  0
LINE
  5
25A
330
256
100
AcDbEntity
  8
DIM
100
AcDbLine
 10
92.5859408568
 20
72.3917121461
 30
0.0
 11
76.3851479636
 21
81.4298646994
 31
0.0
  0
LINE
  5
25B
330
256
100
AcDbEntity
  8
DIM
100
AcDbLine
 10
141.4903430572
 20
45.1087605936
 30
0.0
 11
92.5859408568
 21
72.3917121461
 31
0.0
  0
LINE
  5
25C
330
256
100
AcDbEntity
  8
DIM
100
AcDbLine
 10
76.3851479636
 20
81.4298646994
 30
0.0
 11
69.1379260467
 21
81.4298646994
 31
0.0
  0
MTEXT
  5
25D
330
256
100
AcDbEntity
  8
DIM
100
AcDbMText
 10
69.1379260467
 20
84.4994573712
 30
0.0
 40
2.38125
 41
0.0
 71
     1
 72
     1
  1
%%c
  7
SLDTEXTSTYLE1
 73
     1
 44
1.0
  0
MTEXT
  5
25E
330
256
100
AcDbEntity
  8
DIM
100
AcDbMText
 10
72.1541760219
 20
84.4994573712
 30
0.0
 40
2.38125
 41
0.0
 71
     1
 72
     1
  1
56
  7
SLDTEXTSTYLE1
 73
     1
 44
1.0
  0
ENDBLK
  5
258
330
256
100
AcDbEntity
  8
0
100
AcDbBlockEnd
  0
BLOCK
  5
261
330
260
100
AcDbEntity
  8
0
100
AcDbBlockBegin
  2
_D_9
 70
     0
 10
0.0
 20
0.0
 30
0.0
  3
_D_9
  1

  0
SOLID
  5
263
330
260
100
AcDbEntity
  8
DIM
100
AcDbTrace
 10
82.538141957
 20
15.1968427086
 30
0.0
 11
84.538141957
 21
14.9468427086
 31
0.0
 12
84.538141957
 22
15.4468427086
 32
0.0
 13
84.538141957
 23
15.4468427086
 33
0.0
  0
SOLID
  5
264
330
260
100
AcDbEntity
  8
DIM
100
AcDbTrace
 10
151.538141957
 20
15.1968427086
 30
0.0
 11
149.538141957
 21
15.4468427086
 31
0.0
 12
149.538141957
 22
14.9468427086
 32
0.0
 13
149.538141957
 23
14.9468427086
 33
0.0
  0
LINE
  5
265
330
260
100
AcDbEntity
  8
DIM
100
AcDbLine
 10
82.538141957
 20
54.3502363699
 30
0.0
 11
82.538141957
 21
14.1968427086
 31
0.0
  0
LINE
  5
266
330
260
100
AcDbEntity
  8
DIM
100
AcDbLine
 10
151.538141957
 20
54.3502363699
 30
0.0
 11
151.538141957
 21
14.1968427086
 31
0.0
  0
LINE
  5
267
330
260
100
AcDbEntity
  8
DIM
100
AcDbLine
 10
82.538141957
 20
15.1968427086
 30
0.0
 11
151.538141957
 21
15.1968427086
 31
0.0
  0
MTEXT
  5
268
330
260
100
AcDbEntity
  8
DIM
100
AcDbMText
 10
114.0395309985
 20
18.2664353804
 30
0.0
 40
2.38125
 41
0.0
 71
     1
 72
     1
  1
%%c
  7
SLDTEXTSTYLE1
 73
     1
 44
1.0
  0
MTEXT
  5
269
330
260
100
AcDbEntity
  8
DIM
100
AcDbMText
 10
117.0557809737
 20
18.2664353804
 30
0.0
 40
2.38125
 41
0.0
 71
     1
 72
     1
  1
69
  7
SLDTEXTSTYLE1
 73
     1
 44
1.0
  0
ENDBLK
  5
262
330
260
100
AcDbEntity
  8
0
100
AcDbBlockEnd
  0
BLOCK
  5
26B
330
26A
100
AcDbEntity
  8
0
100
AcDbBlockBegin
  2
SW_NOTE_0_2
 70
     0
 10
0.0
 20
0.0
 30
0.0
  3
SW_NOTE_0_2
  1

  0
LINE
  5
26D
330
26A
100
AcDbEntity
  8
DIM
 62
     0
100
AcDbLine
 10
7.344480931
 20
0.0
 30
0.0
 11
0.0
 21
0.0
 31
0.0
  0
MTEXT
  5
26E
330
26A
100
AcDbEntity
  8
DIM
 62
     0
100
AcDbMText
 10
0.4621724365
 20
3.0600187036
 30
0.0
 40
2.38125
 41
0.0
 71
     1
 72
     1
  1
Baffle
  7
SLDTEXTSTYLE1
 73
     1
 44
1.0
  0
ENDBLK
  5
26C
330
26A
100
AcDbEntity
  8
0
100
AcDbBlockEnd
  0
BLOCK
  5
422
330
421
100
AcDbEntity
  8
0
100
AcDbBlockBegin
  2
_D_10
 70
     0
 10
0.0
 20
0.0
 30
0.0
  3
_D_10
  1

  0
ARC
  5
424
330
421
100
AcDbEntity
  8
DIM
100
AcDbCircle
 10
117.038141957
 20
153.7429491398
 30
0.0
 40
15.0
100
AcDbArc
 50
303.6637984266
 51
0.008478895
  0
SOLID
  5
425
330
421
100
AcDbEntity
  8
DIM
100
AcDbTrace
 10
126.1649670005
 20
141.8391235099
 30
0.0
 11
127.1834799124
 21
140.0998330085
 31
0.0
 12
127.5802741001
 22
140.40406051
 32
0.0
 13
127.5802741001
 23
140.40406051
 33
0.0
  0
LINE
  5
426
330
421
100
AcDbEntity
  8
DIM
100
AcDbLine
 10
126.1649670005
 20
141.8391235099
 30
0.0
 11
143.0507047598
 21
119.8155964935
 31
0.0
  0
LINE
  5
427
330
421
100
AcDbEntity
  8
DIM
100
AcDbLine
 10
107.9113169135
 20
165.6467747696
 30
0.0
 11
126.1649670005
 21
141.8391235099
 31
0.0
  0
LINE
  5
428
330
421
100
AcDbEntity
  8
DIM
100
AcDbLine
 10
143.0507047598
 20
119.8155964935
 30
0.0
 11
158.5793848459
 21
119.8155964935
 31
0.0
  0
MTEXT
  5
429
330
421
100
AcDbEntity
  8
DIM
100
AcDbMText
 10
144.3007047598
 20
122.8851891653
 30
0.0
 40
2.38125
 41
0.0
 71
     1
 72
     1
  1
%%c
  7
SLDTEXTSTYLE1
 73
     1
 44
1.0
  0
MTEXT
  5
42A
330
421
100
AcDbEntity
  8
DIM
100
AcDbMText
 10
147.316954735
 20
122.8851891653
 30
0.0
 40
2.38125
 41
0.0
 71
     1
 72
     1
  1
30
  7
SLDTEXTSTYLE1
 73
     1
 44
1.0
  0
MTEXT
  5
42B
330
421
100
AcDbEntity
  8
DIM
100
AcDbMText
 10
151.0420673017
 20
122.8851891653
 30
0.0
 40
2.38125
 41
0.0
 71
     1
 72
     1
  1
Baffle
  7
SLDTEXTSTYLE1
 73
     1
 44
1.0
  0
ENDBLK
  5
423
330
421
100
AcDbEntity
  8
0
100
AcDbBlockEnd
  0
BLOCK
  5
42D
330
42C
100
AcDbEntity
  8
0
100
AcDbBlockBegin
  2
SW_CENTERMARKSYMBOL_0
 70
     0
 10
0.0
 20
0.0
 30
0.0
  3
SW_CENTERMARKSYMBOL_0
  1

  0
LINE
  5
42F
330
42C
100
AcDbEntity
  8
DIM
 62
     0
100
AcDbLine
 10
0.0
 20
0.0
 30
0.0
 11
0.0
 21
1.0
 31
0.0
  0
LINE
  5
430
330
42C
100
AcDbEntity
  8
DIM
 62
     0
100
AcDbLine
 10
0.0
 20
0.0
 30
0.0
 11
-1.0
 21
0.0
 31
0.0
  0
LINE
  5
431
330
42C
100
AcDbEntity
  8
DIM
 62
     0
100
AcDbLine
 10
0.0
 20
0.0
 30
0.0
 11
0.0
 21
-1.0
 31
0.0
  0
LINE
  5
432
330
42C
100
AcDbEntity
  8
DIM
 62
     0
100
AcDbLine
 10
0.0
 20
0.0
 30
0.0
 11
1.0
 21
0.0
 31
0.0
  0
LINE
  5
433
330
42C
100
AcDbEntity
  8
DIM
 62
     0
100
AcDbLine
 10
0.0
 20
2.0
 30
0.0
 11
0.0
 21
35.5
 31
0.0
  0
LINE
  5
434
330
42C
100
AcDbEntity
  8
DIM
 62
     0
100
AcDbLine
 10
-2.0
 20
0.0
 30
0.0
 11
-35.5
 21
0.0
 31
0.0
  0
LINE
  5
435
330
42C
100
AcDbEntity
  8
DIM
 62
     0
100
AcDbLine
 10
0.0
 20
-2.0
 30
0.0
 11
0.0
 21
-35.5
 31
0.0
  0
LINE
  5
436
330
42C
100
AcDbEntity
  8
DIM
 62
     0
100
AcDbLine
 10
2.0
 20
0.0
 30
0.0
 11
35.5
 21
0.0
 31
0.0
  0
ENDBLK
  5
42E
330
42C
100
AcDbEntity
  8
0
100
AcDbBlockEnd
  0
ENDSEC
  0
SECTION
  2
ENTITIES
  0
HATCH
  5
89
330
1F
100
AcDbEntity
  8
0
  6
Continuous
 62
     7
100
AcDbHatch
 10
0.0
 20
0.0
 30
0.0
210
0.0
220
0.0
230
1.0
  2
SOLID
 70
     1
 71
     0
 91
        1
 92
        0
 93
       10
 72
     2
 10
192.1405965629367
 20
35.75580880988856
 40
2.989636657769859
 50
50.39692260731407
 51
112.8514693252983
 73
     0
 72
     2
 10
191.815005962812
 20
35.43899828006204
 40
2.577335426817619
 50
108.9134333432861
 51
219.5668234386827
 73
     0
 72
     1
 10
189.8281839389603
 20
37.0807035361501
 11
188.8129900915579
 21
37.97623543696786
 72
     1
 10
188.8129900915579
 20
37.97623543696786
 11
187.5063618366762
 21
36.71464836046036
 72
     2
 10
188.4942467986389
 20
35.54612112772446
 40
1.530154433943661
 50
130.2115225915088
 51
228.5889041080191
 73
     1
 72
     1
 10
187.482115254651
 20
34.39853133629978
 11
191.4913175648466
 21
30.9139274960251
 72
     1
 10
191.4913175648466
 20
30.9139274960251
 11
190.8602656444315
 21
30.29802710555407
 72
     1
 10
190.8602656444315
 20
30.29802710555407
 11
191.852145009157
 21
29.44405283860024
 72
     1
 10
191.852145009157
 20
29.44405283860024
 11
195.0618094435223
 21
32.56063080411572
 72
     1
 10
195.0618094435223
 20
32.56063080411572
 11
194.0463864118641
 21
33.45235653184883
 97
        0
 75
     0
 76
     1
 98
        1
 10
0.0
 20
0.0
  0
HATCH
  5
8A
330
1F
100
AcDbEntity
  8
0
  6
Continuous
 62
     1
100
AcDbHatch
 10
0.0
 20
0.0
 30
0.0
210
0.0
220
0.0
230
1.0
  2
SOLID
 70
     1
 71
     0
 91
        1
 92
        0
 93
       10
 72
     2
 10
192.5892455627688
 20
35.6630691563161
 40
2.57756748834625
 50
317.8184992995785
 51
398.0564711573078
 73
     0
 72
     1
 10
194.6188314058163
 20
34.07415900697447
 11
195.6042802987991
 21
33.21546206708498
 72
     1
 10
195.6042802987991
 20
33.21546206708498
 11
196.8459616135929
 21
34.41989500949219
 72
     2
 10
195.9525692879308
 20
35.64784174131312
 40
1.518552937418265
 50
306.0377529468138
 51
403.4396461533871
 73
     1
 72
     1
 10
197.0551891526031
 20
36.69198371335126
 11
192.9284332942598
 21
40.28115998198521
 72
     1
 10
192.9284332942598
 20
40.28115998198521
 11
193.552684596187
 21
40.89021841282256
 72
     1
 10
193.552684596187
 20
40.89021841282256
 11
192.622178086003
 21
41.72041063266705
 72
     1
 10
192.622178086003
 20
41.72041063266705
 11
189.3865926375931
 21
38.59349038605298
 72
     1
 10
189.3865926375931
 20
38.59349038605298
 11
190.4090005149417
 21
37.70169985893218
 72
     2
 10
192.2715892720444
 20
35.12224735083792
 40
3.181636704527876
 50
234.1674444878512
 51
314.4407074583994
 73
     0
 97
        0
 75
     0
 76
     1
 98
        1
 10
0.0
 20
0.0
  0
LINE
  5
8B
330
1F
100
AcDbEntity
  8
0
  6
Continuous
 62
     7
370
    18
100
AcDbLine
 10
167.8593775185
 20
17.7745192513
 30
0.0
 11
168.8593775185
 21
17.7745192513
 31
0.0
  0
LINE
  5
8C
330
1F
100
AcDbEntity
  8
0
  6
Continuous
 62
     7
370
    18
100
AcDbLine
 10
164.8593775185
 20
17.7745192513
 30
0.0
 11
167.3593775185
 21
17.7745192513
 31
0.0
  0
LINE
  5
8D
330
1F
100
AcDbEntity
  8
0
  6
Continuous
 62
     7
370
    18
100
AcDbLine
 10
181.3593775185
 20
15.2745192513
 30
0.0
 11
181.3593775185
 21
20.2745192513
 31
0.0
  0
LINE
  5
8E
330
1F
100
AcDbEntity
  8
0
  6
Continuous
 62
     7
370
    18
100
AcDbLine
 10
174.3593775185
 20
16.2745192513
 30
0.0
 11
181.3593775185
 21
15.2745192513
 31
0.0
  0
LINE
  5
8F
330
1F
100
AcDbEntity
  8
0
  6
Continuous
 62
     7
370
    18
100
AcDbLine
 10
168.3593775185
 20
16.7745192513
 30
0.0
 11
168.3593775185
 21
14.2745192513
 31
0.0
  0
LINE
  5
90
330
1F
100
AcDbEntity
  8
0
  6
Continuous
 62
     7
370
    18
100
AcDbLine
 10
181.3593775185
 20
20.2745192513
 30
0.0
 11
174.3593775185
 21
19.2745192513
 31
0.0
  0
LINE
  5
91
330
1F
100
AcDbEntity
  8
0
  6
Continuous
 62
     7
370
    18
100
AcDbLine
 10
173.3593775185
 20
17.7745192513
 30
0.0
 11
182.3593775185
 21
17.7745192513
 31
0.0
  0
LINE
  5
92
330
1F
100
AcDbEntity
  8
0
  6
Continuous
 62
     7
370
    18
100
AcDbLine
 10
168.3593775185
 20
18.2745192513
 30
0.0
 11
168.3593775185
 21
17.2745192513
 31
0.0
  0
LINE
  5
93
330
1F
100
AcDbEntity
  8
0
  6
Continuous
 62
     7
370
    18
100
AcDbLine
 10
169.3593775185
 20
17.7745192513
 30
0.0
 11
171.8593775185
 21
17.7745192513
 31
0.0
  0
LINE
  5
94
330
1F
100
AcDbEntity
  8
0
  6
Continuous
 62
     7
370
    18
100
AcDbLine
 10
168.3593775185
 20
21.2745192513
 30
0.0
 11
168.3593775185
 21
18.7745192513
 31
0.0
  0
LINE
  5
95
330
1F
100
AcDbEntity
  8
0
  6
Continuous
 62
     7
370
    18
100
AcDbLine
 10
174.3593775185
 20
19.2745192513
 30
0.0
 11
174.3593775185
 21
16.2745192513
 31
0.0
  0
LINE
  5
96
330
1F
100
AcDbEntity
  8
工作區域參考線
 62
     1
370
    35
100
AcDbLine
 10
190.4090005149
 20
37.7016998589
 30
0.0
 11
189.3865926376
 21
38.5934903861
 31
0.0
  0
LINE
  5
97
330
1F
100
AcDbEntity
  8
工作區域參考線
 62
     1
370
    35
100
AcDbLine
 10
189.3865926376
 20
38.5934903861
 30
0.0
 11
192.622178086
 21
41.7204106327
 31
0.0
  0
LINE
  5
98
330
1F
100
AcDbEntity
  8
工作區域參考線
 62
     1
370
    35
100
AcDbLine
 10
192.622178086
 20
41.7204106327
 30
0.0
 11
193.5526845962
 21
40.8902184128
 31
0.0
  0
LINE
  5
99
330
1F
100
AcDbEntity
  8
工作區域參考線
 62
     1
370
    35
100
AcDbLine
 10
193.5526845962
 20
40.8902184128
 30
0.0
 11
192.9284332943
 21
40.281159982
 31
0.0
  0
LINE
  5
9A
330
1F
100
AcDbEntity
  8
工作區域參考線
 62
     1
370
    35
100
AcDbLine
 10
192.9284332943
 20
40.281159982
 30
0.0
 11
197.0551891526
 21
36.6919837134
 31
0.0
  0
LINE
  5
9B
330
1F
100
AcDbEntity
  8
工作區域參考線
 62
     1
370
    35
100
AcDbLine
 10
194.6188314058
 20
34.074159007
 30
0.0
 11
195.6042802988
 21
33.2154620671
 31
0.0
  0
LINE
  5
9C
330
1F
100
AcDbEntity
  8
工作區域參考線
 62
     1
370
    35
100
AcDbLine
 10
195.6042802988
 20
33.2154620671
 30
0.0
 11
196.8459616136
 21
34.4198950095
 31
0.0
  0
LINE
  5
9D
330
1F
100
AcDbEntity
  8
0
  6
Continuous
 62
     7
370
    18
100
AcDbLine
 10
185.6907965209
 20
13.1152464079
 30
0.0
 11
285.6907965209
 21
13.1152464079
 31
0.0
  0
LINE
  5
9E
330
1F
100
AcDbEntity
  8
0
  6
Continuous
 62
     7
370
    18
100
AcDbLine
 10
185.6907965209
 20
18.1152464079
 30
0.0
 11
235.6907965209
 21
18.1152464079
 31
0.0
  0
LINE
  5
9F
330
1F
100
AcDbEntity
  8
0
  6
Continuous
 62
     7
370
    18
100
AcDbLine
 10
185.6907965209
 20
23.1152464079
 30
0.0
 11
235.6907965209
 21
23.1152464079
 31
0.0
  0
LINE
  5
A0
330
1F
100
AcDbEntity
  8
0
  6
Continuous
 62
     7
370
    18
100
AcDbLine
 10
185.6907965209
 20
28.1152464079
 30
0.0
 11
285.6907965209
 21
28.1152464079
 31
0.0
  0
LINE
  5
A1
330
1F
100
AcDbEntity
  8
0
  6
Continuous
 62
     7
370
    18
100
AcDbLine
 10
235.6907965209
 20
33.1152464079
 30
0.0
 11
285.6907965209
 21
33.1152464079
 31
0.0
  0
LINE
  5
A2
330
1F
100
AcDbEntity
  8
0
  6
Continuous
 62
     7
370
    25
100
AcDbLine
 10
235.6907965209
 20
18.1152464079
 30
0.0
 11
285.6907965209
 21
18.1152464079
 31
0.0
  0
LINE
  5
A3
330
1F
100
AcDbEntity
  8
0
  6
Continuous
 62
     7
370
    18
100
AcDbLine
 10
185.6907965209
 20
43.1152464079
 30
0.0
 11
285.6907965209
 21
43.1152464079
 31
0.0
  0
LINE
  5
A4
330
1F
100
AcDbEntity
  8
0
  6
Continuous
 62
     7
370
    18
100
AcDbLine
 10
251.237217675
 20
8.1152464079
 30
0.0
 11
251.237217675
 21
18.1152464079
 31
0.0
  0
LINE
  5
A5
330
1F
100
AcDbEntity
  8
0
  6
Continuous
 62
     7
370
    18
100
AcDbLine
 10
235.6907965209
 20
8.1152464079
 30
0.0
 11
235.6907965209
 21
43.1152464079
 31
0.0
  0
LINE
  5
A6
330
1F
100
AcDbEntity
  8
0
  6
Continuous
 62
     7
370
    18
100
AcDbLine
 10
251.237217675
 20
28.1152464079
 30
0.0
 11
251.237217675
 21
33.1152464079
 31
0.0
  0
LINE
  5
A7
330
1F
100
AcDbEntity
  8
0
  6
Continuous
 62
     7
370
    18
100
AcDbLine
 10
214.4164086353
 20
8.1152464079
 30
0.0
 11
214.4164086353
 21
28.1152464079
 31
0.0
  0
LINE
  5
A8
330
1F
100
AcDbEntity
  8
0
  6
Continuous
 62
     7
370
    18
100
AcDbLine
 10
199.7785887506
 20
8.1152464079
 30
0.0
 11
199.7785887506
 21
28.1152464079
 31
0.0
  0
LINE
  5
A9
330
1F
100
AcDbEntity
  8
0
  6
Continuous
 62
     7
370
    18
100
AcDbLine
 10
185.6907965209
 20
8.1152464079
 30
0.0
 11
185.6907965209
 21
43.1152464079
 31
0.0
  0
LINE
  5
AA
330
1F
100
AcDbEntity
  8
0
  6
Continuous
 62
     7
370
    25
100
AcDbLine
 10
43.3207965209
 20
201.3720275751
 30
0.0
 11
43.3207965209
 21
202.8720275751
 31
0.0
  0
LINE
  5
AB
330
1F
100
AcDbEntity
  8
0
  6
Continuous
 62
     7
370
    25
100
AcDbLine
 10
77.9507965209
 20
201.3720275751
 30
0.0
 11
77.9507965209
 21
202.8720275751
 31
0.0
  0
LINE
  5
AC
330
1F
100
AcDbEntity
  8
0
  6
Continuous
 62
     7
370
    25
100
AcDbLine
 10
112.5807965209
 20
201.3720275751
 30
0.0
 11
112.5807965209
 21
202.8720275751
 31
0.0
  0
LINE
  5
AD
330
1F
100
AcDbEntity
  8
0
  6
Continuous
 62
     7
370
    25
100
AcDbLine
 10
147.2107965209
 20
201.3720275751
 30
0.0
 11
147.2107965209
 21
202.8720275751
 31
0.0
  0
LINE
  5
AE
330
1F
100
AcDbEntity
  8
0
  6
Continuous
 62
     7
370
    25
100
AcDbLine
 10
181.8407965209
 20
201.3720275751
 30
0.0
 11
181.8407965209
 21
202.8720275751
 31
0.0
  0
LINE
  5
AF
330
1F
100
AcDbEntity
  8
0
  6
Continuous
 62
     7
370
    25
100
AcDbLine
 10
216.4707965209
 20
201.3720275751
 30
0.0
 11
216.4707965209
 21
202.8720275751
 31
0.0
  0
LINE
  5
B0
330
1F
100
AcDbEntity
  8
0
  6
Continuous
 62
     7
370
    25
100
AcDbLine
 10
251.1007965209
 20
201.3720275751
 30
0.0
 11
251.1007965209
 21
202.8720275751
 31
0.0
  0
LINE
  5
B1
330
1F
100
AcDbEntity
  8
0
  6
Continuous
 62
     7
370
    25
100
AcDbLine
 10
43.3157965209
 20
8.1152464079
 30
0.0
 11
43.3157965209
 21
6.6152464079
 31
0.0
  0
LINE
  5
B2
330
1F
100
AcDbEntity
  8
0
  6
Continuous
 62
     7
370
    25
100
AcDbLine
 10
77.9407965209
 20
8.1152464079
 30
0.0
 11
77.9407965209
 21
6.6152464079
 31
0.0
  0
LINE
  5
B3
330
1F
100
AcDbEntity
  8
0
  6
Continuous
 62
     7
370
    25
100
AcDbLine
 10
112.5657965209
 20
8.1152464079
 30
0.0
 11
112.5657965209
 21
6.6152464079
 31
0.0
  0
LINE
  5
B4
330
1F
100
AcDbEntity
  8
0
  6
Continuous
 62
     7
370
    25
100
AcDbLine
 10
147.1907965209
 20
8.1152464079
 30
0.0
 11
147.1907965209
 21
6.6152464079
 31
0.0
  0
LINE
  5
B5
330
1F
100
AcDbEntity
  8
0
  6
Continuous
 62
     7
370
    25
100
AcDbLine
 10
181.8157965209
 20
8.1152464079
 30
0.0
 11
181.8157965209
 21
6.6152464079
 31
0.0
  0
LINE
  5
B6
330
1F
100
AcDbEntity
  8
0
  6
Continuous
 62
     7
370
    25
100
AcDbLine
 10
216.4407965209
 20
8.1152464079
 30
0.0
 11
216.4407965209
 21
6.6152464079
 31
0.0
  0
LINE
  5
B7
330
1F
100
AcDbEntity
  8
0
  6
Continuous
 62
     7
370
    18
100
AcDbLine
 10
285.6907965209
 20
201.3720275751
 30
0.0
 11
8.6907965209
 21
201.3720275751
 31
0.0
  0
LINE
  5
B8
330
1F
100
AcDbEntity
  8
0
  6
Continuous
 62
     7
370
    18
100
AcDbLine
 10
285.6907965209
 20
8.1152464079
 30
0.0
 11
285.6907965209
 21
201.3720275751
 31
0.0
  0
LINE
  5
B9
330
1F
100
AcDbEntity
  8
0
  6
Continuous
 62
     7
370
    18
100
AcDbLine
 10
8.6907965209
 20
201.3720275751
 30
0.0
 11
8.6907965209
 21
8.1152464079
 31
0.0
  0
LINE
  5
BA
330
1F
100
AcDbEntity
  8
0
  6
Continuous
 62
     7
370
    18
100
AcDbLine
 10
8.6907965209
 20
8.1152464079
 30
0.0
 11
285.6907965209
 21
8.1152464079
 31
0.0
  0
LINE
  5
BB
330
1F
100
AcDbEntity
  8
0
  6
Continuous
 62
     7
370
    25
100
AcDbLine
 10
251.0657965209
 20
8.1152464079
 30
0.0
 11
251.0657965209
 21
6.6152464079
 31
0.0
  0
LINE
  5
BC
330
1F
100
AcDbEntity
  8
0
  6
Continuous
 62
     7
370
    25
100
AcDbLine
 10
8.6907965209
 20
40.3252464079
 30
0.0
 11
7.1907965209
 21
40.3252464079
 31
0.0
  0
LINE
  5
BD
330
1F
100
AcDbEntity
  8
0
  6
Continuous
 62
     7
370
    25
100
AcDbLine
 10
8.6907965209
 20
72.5352464079
 30
0.0
 11
7.1907965209
 21
72.5352464079
 31
0.0
  0
LINE
  5
BE
330
1F
100
AcDbEntity
  8
0
  6
Continuous
 62
     7
370
    25
100
AcDbLine
 10
8.6907965209
 20
104.7452464079
 30
0.0
 11
7.1907965209
 21
104.7452464079
 31
0.0
  0
LINE
  5
BF
330
1F
100
AcDbEntity
  8
0
  6
Continuous
 62
     7
370
    25
100
AcDbLine
 10
8.6907965209
 20
136.9552464079
 30
0.0
 11
7.1907965209
 21
136.9552464079
 31
0.0
  0
LINE
  5
C0
330
1F
100
AcDbEntity
  8
0
  6
Continuous
 62
     7
370
    25
100
AcDbLine
 10
8.6907965209
 20
169.1652464079
 30
0.0
 11
7.1907965209
 21
169.1652464079
 31
0.0
  0
LINE
  5
C1
330
1F
100
AcDbEntity
  8
0
  6
Continuous
 62
     7
370
    25
100
AcDbLine
 10
285.6907965209
 20
40.3252464079
 30
0.0
 11
287.1907965209
 21
40.3252464079
 31
0.0
  0
LINE
  5
C2
330
1F
100
AcDbEntity
  8
0
  6
Continuous
 62
     7
370
    25
100
AcDbLine
 10
285.6907965209
 20
72.5352464079
 30
0.0
 11
287.1907965209
 21
72.5352464079
 31
0.0
  0
LINE
  5
C3
330
1F
100
AcDbEntity
  8
0
  6
Continuous
 62
     7
370
    25
100
AcDbLine
 10
285.6907965209
 20
104.7452464079
 30
0.0
 11
287.1907965209
 21
104.7452464079
 31
0.0
  0
LINE
  5
C4
330
1F
100
AcDbEntity
  8
0
  6
Continuous
 62
     7
370
    25
100
AcDbLine
 10
285.6907965209
 20
136.9552464079
 30
0.0
 11
287.1907965209
 21
136.9552464079
 31
0.0
  0
LINE
  5
C5
330
1F
100
AcDbEntity
  8
0
  6
Continuous
 62
     7
370
    25
100
AcDbLine
 10
285.6907965209
 20
169.1652464079
 30
0.0
 11
287.1907965209
 21
169.1652464079
 31
0.0
  0
CIRCLE
  5
C6
330
1F
100
AcDbEntity
  8
0
  6
Continuous
 62
     7
370
    18
100
AcDbCircle
 10
168.3593775185
 20
17.7745192513
 30
0.0
 40
1.5
  0
CIRCLE
  5
C7
330
1F
100
AcDbEntity
  8
0
  6
Continuous
 62
     7
370
    18
100
AcDbCircle
 10
168.3593775185
 20
17.7745192513
 30
0.0
 40
2.5
  0
ARC
  5
C8
330
1F
100
AcDbEntity
  8
工作區域參考線
 62
     1
370
    35
100
AcDbCircle
 10
195.9525692879
 20
35.6478417413
 30
0.0
 40
1.518552937418275
100
AcDbArc
 50
306.0377529468
 51
43.4396461534
  0
ARC
  5
C9
330
1F
100
AcDbEntity
  8
工作區域參考線
 62
     1
370
    35
100
AcDbCircle
 10
192.271589272
 20
35.1222473508
 30
0.0
 40
3.181636704527891
100
AcDbArc
 50
45.5592925416
 51
125.8325555121
  0
ARC
  5
CA
330
1F
100
AcDbEntity
  8
工作區域參考線
 62
     1
370
    35
100
AcDbCircle
 10
192.5892455628
 20
35.6630691563
 30
0.0
 40
2.577567488346266
100
AcDbArc
 50
321.9435288427
 51
42.1815007004
  0
INSERT
  5
CB
330
1F
100
AcDbEntity
  8
0
  6
Continuous
 62
     7
100
AcDbBlockReference
  2
圖塊6
 10
186.9640923647
 20
29.4440528386
 30
0.0
  0
MTEXT
  5
CD
330
1F
100
AcDbEntity
  8
0
  6
Continuous
 62
     7
370
     0
100
AcDbMText
 10
165.5426850804
 20
13.2208440369
 30
0.0
 40
2.6458333333
 41
0.0
 71
     1
 72
     1
  1
UNIT:m/m
  7
SLDTEXTSTYLE0
 73
     1
 44
1.0
  0
INSERT
  5
D4
330
1F
100
AcDbEntity
  8
0
  6
Continuous
 62
     7
370
     0
100
AcDbBlockReference
  2
SW_NOTE_0
 10
12.2315076053
 20
193.8904304251
 30
0.0
  0
MTEXT
  5
D5
330
1F
100
AcDbEntity
  8
0
  6
Continuous
 62
     7
370
     0
100
AcDbMText
 10
198.7251893935
 20
40.4406774139
 30
0.0
 40
2.38125
 41
0.0
 71
     1
 72
     1
  1
Unice E-O Services Inc.
  7
SLDTEXTSTYLE0
 73
     1
 44
1.0
  0
MTEXT
  5
D6
330
1F
100
AcDbEntity
  8
0
  6
Continuous
 62
     7
370
     0
100
AcDbMText
 10
217.5590538149
 20
21.5867148511
 30
0.0
 40
1.8520833333
 41
0.0
 71
     1
 72
     1
  1
2020/12/28
  7
SLDTEXTSTYLE0
 73
     1
 44
1.0
  0
MTEXT
  5
D7
330
1F
100
AcDbEntity
  8
0
  6
Continuous
 62
     7
370
     0
100
AcDbMText
 10
252.6088982507
 20
16.87117774
 30
0.0
 40
2.5
 41
0.0
 71
     1
 72
     1
  1
1:1
  7
SLDTEXTSTYLE0
 73
     1
 44
1.0
  0
MTEXT
  5
D8
330
1F
100
AcDbEntity
  8
0
  6
Continuous
 62
     7
370
     0
100
AcDbMText
 10
252.3075599985
 20
32.1519195438
 30
0.0
 40
2.5
 41
0.0
 71
     1
 72
     1
  1
UIS-050-020-N-Y
  7
SLDTEXTSTYLE0
 73
     1
 44
1.0
  0
MTEXT
  5
D9
330
1F
100
AcDbEntity
  8
0
  6
Continuous
 62
     7
370
     0
100
AcDbMText
 10
252.3075599985
 20
38.1082117879
 30
0.0
 40
2.5
 41
0.0
 71
     1
 72
     1
  1
UIS-050-020-N-Y
  7
SLDTEXTSTYLE0
 73
     1
 44
1.0
  0
MTEXT
  5
DA
330
1F
100
AcDbEntity
  8
0
  6
Continuous
 62
     7
370
     0
100
AcDbMText
 10
236.3921866786
 20
16.5064795728
 30
0.0
 40
2.1166666667
 41
0.0
 71
     1
 72
     1
  1
SCALE:
  7
SLDTEXTSTYLE0
 73
     1
 44
1.0
  0
MTEXT
  5
DB
330
1F
100
AcDbEntity
  8
0
  6
Continuous
 62
     7
370
     0
100
AcDbMText
 10
186.3336086789
 20
21.5867148511
 30
0.0
 40
1.8520833333
 41
0.0
 71
     1
 72
     1
  1
DRAWN
  7
SLDTEXTSTYLE0
 73
     1
 44
1.0
  0
MTEXT
  5
DC
330
1F
100
AcDbEntity
  8
0
  6
Continuous
 62
     7
370
     0
100
AcDbMText
 10
203.2228367937
 20
26.683208308
 30
0.0
 40
1.8520833333
 41
0.0
 71
     1
 72
     1
  1
NAME
  7
SLDTEXTSTYLE0
 73
     1
 44
1.0
  0
MTEXT
  5
DD
330
1F
100
AcDbEntity
  8
0
  6
Continuous
 62
     7
370
     0
100
AcDbMText
 10
220.8710155758
 20
26.683208308
 30
0.0
 40
1.8520833333
 41
0.0
 71
     1
 72
     1
  1
DATE
  7
SLDTEXTSTYLE0
 73
     1
 44
1.0
  0
MTEXT
  5
DE
330
1F
100
AcDbEntity
  8
0
  6
Continuous
 62
     7
370
     0
100
AcDbMText
 10
236.2756316645
 20
31.7872213766
 30
0.0
 40
2.1166666667
 41
0.0
 71
     1
 72
     1
  1
DWG. NO.
  7
SLDTEXTSTYLE0
 73
     1
 44
1.0
  0
MTEXT
  5
DF
330
1F
100
AcDbEntity
  8
0
  6
Continuous
 62
     7
370
     0
100
AcDbMText
 10
236.3629907088
 20
41.8840658243
 30
0.0
 40
2.1166666667
 41
0.0
 71
     1
 72
     1
  1
TITLE:
  7
SLDTEXTSTYLE0
 73
     1
 44
1.0
  0
MTEXT
  5
E0
330
1F
100
AcDbEntity
  8
0
  6
Continuous
 62
     7
370
     0
100
AcDbMText
 10
203.0314209802
 20
16.2403789724
 30
0.0
 40
1.8520833333
 41
0.0
 71
     1
 72
     1
  1
Johnny
  7
SLDTEXTSTYLE0
 73
     1
 44
1.0
  0
MTEXT
  5
E1
330
1F
100
AcDbEntity
  8
0
  6
Continuous
 62
     7
370
     0
100
AcDbMText
 10
217.5590538149
 20
16.2403789724
 30
0.0
 40
1.8520833333
 41
0.0
 71
     1
 72
     1
  1
2020/12/28
  7
SLDTEXTSTYLE0
 73
     1
 44
1.0
  0
MTEXT
  5
E2
330
1F
100
AcDbEntity
  8
0
  6
Continuous
 62
     7
370
     0
100
AcDbMText
 10
186.3336086789
 20
16.2403789724
 30
0.0
 40
1.8520833333
 41
0.0
 71
     1
 72
     1
  1
ENG APPR.
  7
SLDTEXTSTYLE0
 73
     1
 44
1.0
  0
MTEXT
  5
E3
330
1F
100
AcDbEntity
  8
0
  6
Continuous
 62
     7
370
     0
100
AcDbMText
 10
236.3921866786
 20
11.6853389288
 30
0.0
 40
2.1166666667
 41
0.0
 71
     1
 72
     1
  1
REV
  7
SLDTEXTSTYLE0
 73
     1
 44
1.0
  0
MTEXT
  5
E4
330
1F
100
AcDbEntity
  8
0
  6
Continuous
 62
     7
370
     0
100
AcDbMText
 10
236.3629907088
 20
26.9493089085
 30
0.0
 40
2.1166666667
 41
0.0
 71
     1
 72
     1
  1
MATERIAL:
  7
SLDTEXTSTYLE0
 73
     1
 44
1.0
  0
MTEXT
  5
E5
330
1F
100
AcDbEntity
  8
0
  6
Continuous
 62
     7
370
     0
100
AcDbMText
 10
252.6088982507
 20
22.2175136187
 30
0.0
 40
2.5
 41
0.0
 71
     1
 72
     1
  1
N/A
  7
SLDTEXTSTYLE0
 73
     1
 44
1.0
  0
MTEXT
  5
E6
330
1F
100
AcDbEntity
  8
0
  6
Continuous
 62
     7
370
     0
100
AcDbMText
 10
26.6029931533
 20
204.453351657
 30
0.0
 40
2.1166666667
 41
0.0
 71
     1
 72
     1
  1
1
  7
SLDTEXTSTYLE0
 73
     1
 44
1.0
  0
MTEXT
  5
E7
330
1F
100
AcDbEntity
  8
0
  6
Continuous
 62
     7
370
     0
100
AcDbMText
 10
60.7170995724
 20
204.453351657
 30
0.0
 40
2.1166666667
 41
0.0
 71
     1
 72
     1
  1
2
  7
SLDTEXTSTYLE0
 73
     1
 44
1.0
  0
MTEXT
  5
E8
330
1F
100
AcDbEntity
  8
0
  6
Continuous
 62
     7
370
     0
100
AcDbMText
 10
94.9009943906
 20
204.453351657
 30
0.0
 40
2.1166666667
 41
0.0
 71
     1
 72
     1
  1
3
  7
SLDTEXTSTYLE0
 73
     1
 44
1.0
  0
MTEXT
  5
E9
330
1F
100
AcDbEntity
  8
0
  6
Continuous
 62
     7
370
     0
100
AcDbMText
 10
129.2533362851
 20
204.2992584364
 30
0.0
 40
2.1166666667
 41
0.0
 71
     1
 72
     1
  1
4
  7
SLDTEXTSTYLE0
 73
     1
 44
1.0
  0
MTEXT
  5
EA
330
1F
100
AcDbEntity
  8
0
  6
Continuous
 62
     7
370
     0
100
AcDbMText
 10
163.702323464
 20
204.453351657
 30
0.0
 40
2.1166666667
 41
0.0
 71
     1
 72
     1
  1
5
  7
SLDTEXTSTYLE0
 73
     1
 44
1.0
  0
MTEXT
  5
EB
330
1F
100
AcDbEntity
  8
0
  6
Continuous
 62
     7
370
     0
100
AcDbMText
 10
198.6382170415
 20
204.453351657
 30
0.0
 40
2.1166666667
 41
0.0
 71
     1
 72
     1
  1
6
  7
SLDTEXTSTYLE0
 73
     1
 44
1.0
  0
MTEXT
  5
EC
330
1F
100
AcDbEntity
  8
0
  6
Continuous
 62
     7
370
     0
100
AcDbMText
 10
234.3630657407
 20
204.453351657
 30
0.0
 40
2.1166666667
 41
0.0
 71
     1
 72
     1
  1
7
  7
SLDTEXTSTYLE0
 73
     1
 44
1.0
  0
MTEXT
  5
ED
330
1F
100
AcDbEntity
  8
0
  6
Continuous
 62
     7
370
     0
100
AcDbMText
 10
266.2787820494
 20
204.453351657
 30
0.0
 40
2.1166666667
 41
0.0
 71
     1
 72
     1
  1
8
  7
SLDTEXTSTYLE0
 73
     1
 44
1.0
  0
MTEXT
  5
EE
330
1F
100
AcDbEntity
  8
0
  6
Continuous
 62
     7
370
     0
100
AcDbMText
 10
5.3568236555
 20
185.8113022879
 30
0.0
 40
2.1166666667
 41
0.0
 71
     1
 72
     1
  1
A
  7
SLDTEXTSTYLE0
 73
     1
 44
1.0
  0
MTEXT
  5
EF
330
1F
100
AcDbEntity
  8
0
  6
Continuous
 62
     7
370
     0
100
AcDbMText
 10
5.5910431831
 20
154.2993048238
 30
0.0
 40
2.1166666667
 41
0.0
 71
     1
 72
     1
  1
B
  7
SLDTEXTSTYLE0
 73
     1
 44
1.0
  0
MTEXT
  5
F0
330
1F
100
AcDbEntity
  8
0
  6
Continuous
 62
     7
370
     0
100
AcDbMText
 10
5.5910431831
 20
121.274351423
 30
0.0
 40
2.1166666667
 41
0.0
 71
     1
 72
     1
  1
C
  7
SLDTEXTSTYLE0
 73
     1
 44
1.0
  0
MTEXT
  5
F1
330
1F
100
AcDbEntity
  8
0
  6
Continuous
 62
     7
370
     0
100
AcDbMText
 10
5.5910431831
 20
88.7453220221
 30
0.0
 40
2.1166666667
 41
0.0
 71
     1
 72
     1
  1
D
  7
SLDTEXTSTYLE0
 73
     1
 44
1.0
  0
MTEXT
  5
F2
330
1F
100
AcDbEntity
  8
0
  6
Continuous
 62
     7
370
     0
100
AcDbMText
 10
5.5910431831
 20
57.5558849197
 30
0.0
 40
2.1166666667
 41
0.0
 71
     1
 72
     1
  1
E
  7
SLDTEXTSTYLE0
 73
     1
 44
1.0
  0
MTEXT
  5
F3
330
1F
100
AcDbEntity
  8
0
  6
Continuous
 62
     7
370
     0
100
AcDbMText
 10
5.5910431831
 20
25.5694212252
 30
0.0
 40
2.1166666667
 41
0.0
 71
     1
 72
     1
  1
F
  7
SLDTEXTSTYLE0
 73
     1
 44
1.0
  0
MTEXT
  5
F4
330
1F
100
AcDbEntity
  8
0
  6
Continuous
 62
     7
370
     0
100
AcDbMText
 10
266.1858616964
 20
6.6236223963
 30
0.0
 40
2.1166666667
 41
0.0
 71
     1
 72
     1
  1
8
  7
SLDTEXTSTYLE0
 73
     1
 44
1.0
  0
MTEXT
  5
F5
330
1F
100
AcDbEntity
  8
0
  6
Continuous
 62
     7
370
     0
100
AcDbMText
 10
234.2701453876
 20
6.6236223963
 30
0.0
 40
2.1166666667
 41
0.0
 71
     1
 72
     1
  1
7
  7
SLDTEXTSTYLE0
 73
     1
 44
1.0
  0
MTEXT
  5
F6
330
1F
100
AcDbEntity
  8
0
  6
Continuous
 62
     7
370
     0
100
AcDbMText
 10
198.5452966885
 20
6.6236223963
 30
0.0
 40
2.1166666667
 41
0.0
 71
     1
 72
     1
  1
6
  7
SLDTEXTSTYLE0
 73
     1
 44
1.0
  0
MTEXT
  5
F7
330
1F
100
AcDbEntity
  8
0
  6
Continuous
 62
     7
370
     0
100
AcDbMText
 10
163.6094031109
 20
6.6236223963
 30
0.0
 40
2.1166666667
 41
0.0
 71
     1
 72
     1
  1
5
  7
SLDTEXTSTYLE0
 73
     1
 44
1.0
  0
MTEXT
  5
F8
330
1F
100
AcDbEntity
  8
0
  6
Continuous
 62
     7
370
     0
100
AcDbMText
 10
129.1604159321
 20
6.4695291758
 30
0.0
 40
2.1166666667
 41
0.0
 71
     1
 72
     1
  1
4
  7
SLDTEXTSTYLE0
 73
     1
 44
1.0
  0
MTEXT
  5
F9
330
1F
100
AcDbEntity
  8
0
  6
Continuous
 62
     7
370
     0
100
AcDbMText
 10
94.8080740376
 20
6.6236223963
 30
0.0
 40
2.1166666667
 41
0.0
 71
     1
 72
     1
  1
3
  7
SLDTEXTSTYLE0
 73
     1
 44
1.0
  0
MTEXT
  5
FA
330
1F
100
AcDbEntity
  8
0
  6
Continuous
 62
     7
370
     0
100
AcDbMText
 10
60.6241792194
 20
6.6236223963
 30
0.0
 40
2.1166666667
 41
0.0
 71
     1
 72
     1
  1
2
  7
SLDTEXTSTYLE0
 73
     1
 44
1.0
  0
MTEXT
  5
FB
330
1F
100
AcDbEntity
  8
0
  6
Continuous
 62
     7
370
     0
100
AcDbMText
 10
26.5100728003
 20
6.6236223963
 30
0.0
 40
2.1166666667
 41
0.0
 71
     1
 72
     1
  1
1
  7
SLDTEXTSTYLE0
 73
     1
 44
1.0
  0
MTEXT
  5
FC
330
1F
100
AcDbEntity
  8
0
  6
Continuous
 62
     7
370
     0
100
AcDbMText
 10
287.1023846145
 20
186.6424909092
 30
0.0
 40
2.1166666667
 41
0.0
 71
     1
 72
     1
  1
A
  7
SLDTEXTSTYLE0
 73
     1
 44
1.0
  0
MTEXT
  5
FD
330
1F
100
AcDbEntity
  8
0
  6
Continuous
 62
     7
370
     0
100
AcDbMText
 10
287.3366041421
 20
155.1304934451
 30
0.0
 40
2.1166666667
 41
0.0
 71
     1
 72
     1
  1
B
  7
SLDTEXTSTYLE0
 73
     1
 44
1.0
  0
MTEXT
  5
FE
330
1F
100
AcDbEntity
  8
0
  6
Continuous
 62
     7
370
     0
100
AcDbMText
 10
287.3366041421
 20
122.1055400442
 30
0.0
 40
2.1166666667
 41
0.0
 71
     1
 72
     1
  1
C
  7
SLDTEXTSTYLE0
 73
     1
 44
1.0
  0
MTEXT
  5
FF
330
1F
100
AcDbEntity
  8
0
  6
Continuous
 62
     7
370
     0
100
AcDbMText
 10
287.3366041421
 20
89.5765106433
 30
0.0
 40
2.1166666667
 41
0.0
 71
     1
 72
     1
  1
D
  7
SLDTEXTSTYLE0
 73
     1
 44
1.0
  0
MTEXT
  5
100
330
1F
100
AcDbEntity
  8
0
  6
Continuous
 62
     7
370
     0
100
AcDbMText
 10
287.3366041421
 20
58.3870735409
 30
0.0
 40
2.1166666667
 41
0.0
 71
     1
 72
     1
  1
E
  7
SLDTEXTSTYLE0
 73
     1
 44
1.0
  0
MTEXT
  5
101
330
1F
100
AcDbEntity
  8
0
  6
Continuous
 62
     7
370
     0
100
AcDbMText
 10
287.3366041421
 20
26.4006098464
 30
0.0
 40
2.1166666667
 41
0.0
 71
     1
 72
     1
  1
F
  7
SLDTEXTSTYLE0
 73
     1
 44
1.0
  0
MTEXT
  5
102
330
1F
100
AcDbEntity
  8
0
  6
Continuous
 62
     7
370
     0
100
AcDbMText
 10
203.1553128802
 20
21.5867148511
 30
0.0
 40
1.8520833333
 41
0.0
 71
     1
 72
     1
  1
John
  7
SLDTEXTSTYLE0
 73
     1
 44
1.0
  0
MTEXT
  5
104
330
1F
100
AcDbEntity
  8
0
  6
Continuous
 62
     7
370
     0
100
AcDbMText
 10
252.8482239645
 20
12.2219603318
 30
0.0
 40
2.38125
 41
0.0
 71
     1
 72
     1
  1
0
  7
SLDTEXTSTYLE1
 73
     1
 44
1.0
  0
INSERT
  5
10A
330
1F
100
AcDbEntity
  8
SLD-0
 62
     7
100
AcDbBlockReference
  2
SW_NOTE_0_1
 10
198.7251893935
 20
33.5479745212
 30
0.0
  0
INSERT
  5
120
330
1F
100
AcDbEntity
  8
DIM
100
AcDbBlockReference
  2
SW_TABLEANNOTATION_0
 10
8.6907965209
 20
21.0953354643
 30
0.0
  0
ARC
  5
121
330
1F
100
AcDbEntity
  8
0
  6
Continuous
 62
     7
370
    35
100
AcDbCircle
 10
84.888141957
 20
60.5502363699
 30
0.0
 40
0.3000000000000043
100
AcDbArc
 50
180.0
 51
270.0
  0
ARC
  5
122
330
1F
100
AcDbEntity
  8
0
  6
Continuous
 62
     7
370
    35
100
AcDbCircle
 10
87.188141957
 20
60.5502363699
 30
0.0
 40
0.3000000000000043
100
AcDbArc
 50
270.0
 51
0.0
  0
ARC
  5
123
330
1F
100
AcDbEntity
  8
0
  6
Continuous
 62
     7
370
    35
100
AcDbCircle
 10
84.888141957
 20
60.5502363699
 30
0.0
 40
0.3000000000000043
100
AcDbArc
 50
90.0
 51
180.0
  0
ARC
  5
124
330
1F
100
AcDbEntity
  8
0
  6
Continuous
 62
     7
370
    35
100
AcDbCircle
 10
87.188141957
 20
60.5502363699
 30
0.0
 40
0.3000000000000043
100
AcDbArc
 50
0.0
 51
90.0
  0
LINE
  5
125
330
1F
100
AcDbEntity
  8
0
  6
Continuous
 62
     7
370
    35
100
AcDbLine
 10
85.8260099226
 20
60.6502363699
 30
0.0
 11
86.2502739913
 21
60.6502363699
 31
0.0
  0
LINE
  5
126
330
1F
100
AcDbEntity
  8
0
  6
Continuous
 62
     7
370
    35
100
AcDbLine
 10
86.2502739913
 20
60.8502363699
 30
0.0
 11
86.2502739913
 21
60.6502363699
 31
0.0
  0
LINE
  5
127
330
1F
100
AcDbEntity
  8
0
  6
Continuous
 62
     7
370
    35
100
AcDbLine
 10
86.2502739913
 20
60.8502363699
 30
0.0
 11
87.188141957
 21
60.8502363699
 31
0.0
  0
LINE
  5
128
330
1F
100
AcDbEntity
  8
0
  6
Continuous
 62
     7
370
    35
100
AcDbLine
 10
86.988141957
 20
60.2502363699
 30
0.0
 11
87.188141957
 21
60.2502363699
 31
0.0
  0
LINE
  5
129
330
1F
100
AcDbEntity
  8
0
  6
Continuous
 62
     7
370
    35
100
AcDbLine
 10
86.988141957
 20
60.2502363699
 30
0.0
 11
86.988141957
 21
55.4502363699
 31
0.0
  0
LINE
  5
12A
330
1F
100
AcDbEntity
  8
0
  6
Continuous
 62
     7
370
    35
100
AcDbLine
 10
86.788141957
 20
55.2502363699
 30
0.0
 11
86.988141957
 21
55.4502363699
 31
0.0
  0
LINE
  5
12B
330
1F
100
AcDbEntity
  8
0
  6
Continuous
 62
     7
370
    35
100
AcDbLine
 10
85.288141957
 20
55.2502363699
 30
0.0
 11
86.788141957
 21
55.2502363699
 31
0.0
  0
LINE
  5
12C
330
1F
100
AcDbEntity
  8
0
  6
Continuous
 62
     7
370
    35
100
AcDbLine
 10
85.088141957
 20
55.4502363699
 30
0.0
 11
85.288141957
 21
55.2502363699
 31
0.0
  0
LINE
  5
12D
330
1F
100
AcDbEntity
  8
0
  6
Continuous
 62
     7
370
    35
100
AcDbLine
 10
85.088141957
 20
55.4502363699
 30
0.0
 11
85.088141957
 21
60.2502363699
 31
0.0
  0
LINE
  5
12E
330
1F
100
AcDbEntity
  8
0
  6
Continuous
 62
     7
370
    35
100
AcDbLine
 10
84.888141957
 20
60.2502363699
 30
0.0
 11
85.088141957
 21
60.2502363699
 31
0.0
  0
LINE
  5
12F
330
1F
100
AcDbEntity
  8
0
  6
Continuous
 62
     7
370
    35
100
AcDbLine
 10
84.888141957
 20
60.8502363699
 30
0.0
 11
85.8260099226
 21
60.8502363699
 31
0.0
  0
LINE
  5
130
330
1F
100
AcDbEntity
  8
0
  6
Continuous
 62
     7
370
    35
100
AcDbLine
 10
85.8260099226
 20
60.8502363699
 30
0.0
 11
85.8260099226
 21
60.6502363699
 31
0.0
  0
LINE
  5
131
330
1F
100
AcDbEntity
  8
0
  6
Continuous
 62
     7
370
    35
100
AcDbLine
 10
86.038141957
 20
60.8502363699
 30
0.0
 11
86.038141957
 21
60.6502363699
 31
0.0
  0
LINE
  5
132
330
1F
100
AcDbEntity
  8
0
  6
Continuous
 62
     7
370
    35
100
AcDbLine
 10
86.038141957
 20
60.8502363699
 30
0.0
 11
85.8260099226
 21
60.8502363699
 31
0.0
  0
LINE
  5
133
330
1F
100
AcDbEntity
  8
0
  6
Continuous
 62
     7
370
    35
100
AcDbLine
 10
86.2502739913
 20
60.8502363699
 30
0.0
 11
86.038141957
 21
60.8502363699
 31
0.0
  0
ARC
  5
134
330
1F
100
AcDbEntity
  8
0
  6
Continuous
 62
     7
370
    35
100
AcDbCircle
 10
146.888141957
 20
60.5502363699
 30
0.0
 40
0.3000000000000043
100
AcDbArc
 50
180.0
 51
270.0
  0
ARC
  5
135
330
1F
100
AcDbEntity
  8
0
  6
Continuous
 62
     7
370
    35
100
AcDbCircle
 10
149.188141957
 20
60.5502363699
 30
0.0
 40
0.3000000000000043
100
AcDbArc
 50
270.0
 51
0.0
  0
ARC
  5
136
330
1F
100
AcDbEntity
  8
0
  6
Continuous
 62
     7
370
    35
100
AcDbCircle
 10
146.888141957
 20
60.5502363699
 30
0.0
 40
0.3000000000000043
100
AcDbArc
 50
90.0
 51
180.0
  0
ARC
  5
137
330
1F
100
AcDbEntity
  8
0
  6
Continuous
 62
     7
370
    35
100
AcDbCircle
 10
149.188141957
 20
60.5502363699
 30
0.0
 40
0.3000000000000043
100
AcDbArc
 50
0.0
 51
90.0
  0
LINE
  5
138
330
1F
100
AcDbEntity
  8
0
  6
Continuous
 62
     7
370
    35
100
AcDbLine
 10
147.8260099226
 20
60.8502363699
 30
0.0
 11
147.8260099226
 21
60.6502363699
 31
0.0
  0
LINE
  5
139
330
1F
100
AcDbEntity
  8
0
  6
Continuous
 62
     7
370
    35
100
AcDbLine
 10
147.8260099226
 20
60.6502363699
 30
0.0
 11
148.2502739913
 21
60.6502363699
 31
0.0
  0
LINE
  5
13A
330
1F
100
AcDbEntity
  8
0
  6
Continuous
 62
     7
370
    35
100
AcDbLine
 10
148.2502739913
 20
60.8502363699
 30
0.0
 11
148.2502739913
 21
60.6502363699
 31
0.0
  0
LINE
  5
13B
330
1F
100
AcDbEntity
  8
0
  6
Continuous
 62
     7
370
    35
100
AcDbLine
 10
148.2502739913
 20
60.8502363699
 30
0.0
 11
149.188141957
 21
60.8502363699
 31
0.0
  0
LINE
  5
13C
330
1F
100
AcDbEntity
  8
0
  6
Continuous
 62
     7
370
    35
100
AcDbLine
 10
148.988141957
 20
60.2502363699
 30
0.0
 11
149.188141957
 21
60.2502363699
 31
0.0
  0
LINE
  5
13D
330
1F
100
AcDbEntity
  8
0
  6
Continuous
 62
     7
370
    35
100
AcDbLine
 10
148.988141957
 20
60.2502363699
 30
0.0
 11
148.988141957
 21
55.4502363699
 31
0.0
  0
LINE
  5
13E
330
1F
100
AcDbEntity
  8
0
  6
Continuous
 62
     7
370
    35
100
AcDbLine
 10
148.788141957
 20
55.2502363699
 30
0.0
 11
148.988141957
 21
55.4502363699
 31
0.0
  0
LINE
  5
13F
330
1F
100
AcDbEntity
  8
0
  6
Continuous
 62
     7
370
    35
100
AcDbLine
 10
147.288141957
 20
55.2502363699
 30
0.0
 11
148.788141957
 21
55.2502363699
 31
0.0
  0
LINE
  5
140
330
1F
100
AcDbEntity
  8
0
  6
Continuous
 62
     7
370
    35
100
AcDbLine
 10
147.088141957
 20
55.4502363699
 30
0.0
 11
147.288141957
 21
55.2502363699
 31
0.0
  0
LINE
  5
141
330
1F
100
AcDbEntity
  8
0
  6
Continuous
 62
     7
370
    35
100
AcDbLine
 10
147.088141957
 20
55.4502363699
 30
0.0
 11
147.088141957
 21
60.2502363699
 31
0.0
  0
LINE
  5
142
330
1F
100
AcDbEntity
  8
0
  6
Continuous
 62
     7
370
    35
100
AcDbLine
 10
146.888141957
 20
60.2502363699
 30
0.0
 11
147.088141957
 21
60.2502363699
 31
0.0
  0
LINE
  5
143
330
1F
100
AcDbEntity
  8
0
  6
Continuous
 62
     7
370
    35
100
AcDbLine
 10
146.888141957
 20
60.8502363699
 30
0.0
 11
147.8260099226
 21
60.8502363699
 31
0.0
  0
LINE
  5
144
330
1F
100
AcDbEntity
  8
0
  6
Continuous
 62
     7
370
    35
100
AcDbLine
 10
148.038141957
 20
60.8502363699
 30
0.0
 11
148.038141957
 21
60.6502363699
 31
0.0
  0
LINE
  5
145
330
1F
100
AcDbEntity
  8
0
  6
Continuous
 62
     7
370
    35
100
AcDbLine
 10
147.8260099226
 20
60.8502363699
 30
0.0
 11
148.038141957
 21
60.8502363699
 31
0.0
  0
LINE
  5
146
330
1F
100
AcDbEntity
  8
0
  6
Continuous
 62
     7
370
    35
100
AcDbLine
 10
148.038141957
 20
60.8502363699
 30
0.0
 11
148.2502739913
 21
60.8502363699
 31
0.0
  0
LINE
  5
147
330
1F
100
AcDbEntity
  8
0
  6
Continuous
 62
     7
370
    35
100
AcDbLine
 10
148.838141957
 20
55.3502363699
 30
0.0
 11
148.838141957
 21
56.8502363699
 31
0.0
  0
LINE
  5
148
330
1F
100
AcDbEntity
  8
0
  6
Continuous
 62
     7
370
    35
100
AcDbLine
 10
147.238141957
 20
56.8502363699
 30
0.0
 11
147.238141957
 21
55.3502363699
 31
0.0
  0
LINE
  5
149
330
1F
100
AcDbEntity
  8
0
  6
Continuous
 62
     7
370
    35
100
AcDbLine
 10
86.838141957
 20
55.3502363699
 30
0.0
 11
86.838141957
 21
56.8502363699
 31
0.0
  0
LINE
  5
14A
330
1F
100
AcDbEntity
  8
0
  6
Continuous
 62
     7
370
    35
100
AcDbLine
 10
85.238141957
 20
56.8502363699
 30
0.0
 11
85.238141957
 21
55.3502363699
 31
0.0
  0
LINE
  5
14B
330
1F
100
AcDbEntity
  8
0
  6
Continuous
 62
     7
370
    35
100
AcDbLine
 10
82.538141957
 20
55.3502363699
 30
0.0
 11
82.538141957
 21
60.8502363699
 31
0.0
  0
LINE
  5
14C
330
1F
100
AcDbEntity
  8
0
  6
Continuous
 62
     7
370
    35
100
AcDbLine
 10
151.538141957
 20
60.8502363699
 30
0.0
 11
151.538141957
 21
55.3502363699
 31
0.0
  0
LINE
  5
14D
330
1F
100
AcDbEntity
  8
0
  6
Continuous
 62
     7
370
    35
100
AcDbLine
 10
150.288141957
 20
56.8502363699
 30
0.0
 11
150.288141957
 21
60.8502363699
 31
0.0
  0
LINE
  5
14E
330
1F
100
AcDbEntity
  8
0
  6
Continuous
 62
     7
370
    35
100
AcDbLine
 10
83.788141957
 20
60.8502363699
 30
0.0
 11
83.788141957
 21
56.8502363699
 31
0.0
  0
LINE
  5
14F
330
1F
100
AcDbEntity
  8
0
  6
Continuous
 62
     7
370
    35
100
AcDbLine
 10
150.288141957
 20
60.8502363699
 30
0.0
 11
149.188141957
 21
60.8502363699
 31
0.0
  0
LINE
  5
150
330
1F
100
AcDbEntity
  8
0
  6
Continuous
 62
     7
370
    35
100
AcDbLine
 10
146.888141957
 20
60.8502363699
 30
0.0
 11
144.9592809022
 21
60.8502363699
 31
0.0
  0
LINE
  5
151
330
1F
100
AcDbEntity
  8
0
  6
Continuous
 62
     7
370
    35
100
AcDbLine
 10
89.1170030117
 20
60.8502363699
 30
0.0
 11
87.188141957
 21
60.8502363699
 31
0.0
  0
LINE
  5
152
330
1F
100
AcDbEntity
  8
0
  6
Continuous
 62
     7
370
    35
100
AcDbLine
 10
84.888141957
 20
60.8502363699
 30
0.0
 11
83.788141957
 21
60.8502363699
 31
0.0
  0
LINE
  5
153
330
1F
100
AcDbEntity
  8
0
  6
Continuous
 62
     7
370
    35
100
AcDbLine
 10
145.288141957
 20
56.8502363699
 30
0.0
 11
145.288141957
 21
55.3502363699
 31
0.0
  0
LINE
  5
154
330
1F
100
AcDbEntity
  8
0
  6
Continuous
 62
     7
370
    35
100
AcDbLine
 10
147.238141957
 20
55.3502363699
 30
0.0
 11
145.288141957
 21
55.3502363699
 31
0.0
  0
LINE
  5
155
330
1F
100
AcDbEntity
  8
0
  6
Continuous
 62
     7
370
    35
100
AcDbLine
 10
147.238141957
 20
56.8502363699
 30
0.0
 11
145.288141957
 21
56.8502363699
 31
0.0
  0
LINE
  5
156
330
1F
100
AcDbEntity
  8
0
  6
Continuous
 62
     7
370
    35
100
AcDbLine
 10
88.788141957
 20
55.3502363699
 30
0.0
 11
88.788141957
 21
56.8502363699
 31
0.0
  0
LINE
  5
157
330
1F
100
AcDbEntity
  8
0
  6
Continuous
 62
     7
370
    35
100
AcDbLine
 10
145.288141957
 20
55.3502363699
 30
0.0
 11
144.8769637711
 21
55.3502363699
 31
0.0
  0
LINE
  5
158
330
1F
100
AcDbEntity
  8
0
  6
Continuous
 62
     7
370
    35
100
AcDbLine
 10
89.1993201428
 20
55.3502363699
 30
0.0
 11
88.788141957
 21
55.3502363699
 31
0.0
  0
LINE
  5
159
330
1F
100
AcDbEntity
  8
0
  6
Continuous
 62
     7
370
    35
100
AcDbLine
 10
83.788141957
 20
60.8502363699
 30
0.0
 11
82.538141957
 21
60.8502363699
 31
0.0
  0
LINE
  5
15A
330
1F
100
AcDbEntity
  8
0
  6
Continuous
 62
     7
370
    35
100
AcDbLine
 10
85.238141957
 20
55.3502363699
 30
0.0
 11
82.538141957
 21
55.3502363699
 31
0.0
  0
LINE
  5
15B
330
1F
100
AcDbEntity
  8
0
  6
Continuous
 62
     7
370
    35
100
AcDbLine
 10
85.238141957
 20
56.8502363699
 30
0.0
 11
83.788141957
 21
56.8502363699
 31
0.0
  0
LINE
  5
15C
330
1F
100
AcDbEntity
  8
0
  6
Continuous
 62
     7
370
    35
100
AcDbLine
 10
88.788141957
 20
55.3502363699
 30
0.0
 11
86.838141957
 21
55.3502363699
 31
0.0
  0
LINE
  5
15D
330
1F
100
AcDbEntity
  8
0
  6
Continuous
 62
     7
370
    35
100
AcDbLine
 10
88.788141957
 20
56.8502363699
 30
0.0
 11
86.838141957
 21
56.8502363699
 31
0.0
  0
LINE
  5
15E
330
1F
100
AcDbEntity
  8
0
  6
Continuous
 62
     7
370
    35
100
AcDbLine
 10
151.538141957
 20
60.8502363699
 30
0.0
 11
150.288141957
 21
60.8502363699
 31
0.0
  0
LINE
  5
15F
330
1F
100
AcDbEntity
  8
0
  6
Continuous
 62
     7
370
    35
100
AcDbLine
 10
151.538141957
 20
55.3502363699
 30
0.0
 11
148.838141957
 21
55.3502363699
 31
0.0
  0
LINE
  5
160
330
1F
100
AcDbEntity
  8
0
  6
Continuous
 62
     7
370
    35
100
AcDbLine
 10
150.288141957
 20
56.8502363699
 30
0.0
 11
148.838141957
 21
56.8502363699
 31
0.0
  0
LINE
  5
161
330
1F
100
AcDbEntity
  8
0
  6
Continuous
 62
     7
370
    35
100
AcDbLine
 10
94.3681783866
 20
77.0157650795
 30
0.0
 11
94.8681783866
 21
76.1497396757
 31
0.0
  0
LINE
  5
162
330
1F
100
AcDbEntity
  8
0
  6
Continuous
 62
     7
370
    35
100
AcDbLine
 10
113.0547118661
 20
86.6497396757
 30
0.0
 11
112.5547118661
 21
87.5157650795
 31
0.0
  0
LINE
  5
163
330
1F
100
AcDbEntity
  8
0
  6
Continuous
 62
     7
370
    35
100
AcDbLine
 10
95.171287278
 20
76.3247396757
 30
0.0
 11
96.171287278
 21
74.5926888681
 31
0.0
  0
LINE
  5
164
330
1F
100
AcDbEntity
  8
0
  6
Continuous
 62
     7
370
    35
100
AcDbLine
 10
113.7516029748
 20
84.7426888681
 30
0.0
 11
112.7516029748
 21
86.4747396757
 31
0.0
  0
ARC
  5
165
330
1F
100
AcDbEntity
  8
0
  6
Continuous
 62
     7
370
    35
100
AcDbCircle
 10
94.0511910885
 20
78.5648031851
 30
0.0
 40
1.5
100
AcDbArc
 50
300.0
 51
120.0
  0
ARC
  5
166
330
1F
100
AcDbEntity
  8
0
  6
Continuous
 62
     7
370
    35
100
AcDbCircle
 10
111.3716991642
 20
88.5648031851
 30
0.0
 40
1.500000000000012
100
AcDbArc
 50
120.0
 51
300.0
  0
LINE
  5
167
330
1F
100
AcDbEntity
  8
0
  6
Continuous
 62
     7
370
    35
100
AcDbLine
 10
93.3011910885
 20
79.8638412908
 30
0.0
 11
93.0511910885
 21
80.2968539927
 31
0.0
  0
LINE
  5
168
330
1F
100
AcDbEntity
  8
0
  6
Continuous
 62
     7
370
    35
100
AcDbLine
 10
110.3716991642
 20
90.2968539927
 30
0.0
 11
110.6216991642
 21
89.8638412908
 31
0.0
  0
LINE
  5
169
330
1F
100
AcDbEntity
  8
0
  6
Continuous
 62
     7
370
    35
100
AcDbLine
 10
98.1198444365
 20
75.7176888681
 30
0.0
 11
95.5935942382
 21
81.7647111356
 31
0.0
  0
LINE
  5
16A
330
1F
100
AcDbEntity
  8
0
  6
Continuous
 62
     7
370
    35
100
AcDbLine
 10
107.8292960145
 20
88.8289968499
 30
0.0
 11
111.8030458163
 21
83.6176888681
 31
0.0
  0
LINE
  5
16B
330
1F
100
AcDbEntity
  8
0
  6
Continuous
 62
     7
370
    35
100
AcDbLine
 10
95.5935942382
 20
81.7647111356
 30
0.0
 11
107.8292960145
 21
88.8289968499
 31
0.0
  0
LINE
  5
16C
330
1F
100
AcDbEntity
  8
0
  6
Continuous
 62
     7
370
    35
100
AcDbLine
 10
111.8030458163
 20
83.6176888681
 30
0.0
 11
98.1198444365
 21
75.7176888681
 31
0.0
  0
LINE
  5
16D
330
1F
100
AcDbEntity
  8
0
  6
Continuous
 62
     7
370
    35
100
AcDbLine
 10
95.5935942382
 20
81.7647111356
 30
0.0
 11
93.0511910885
 21
80.2968539927
 31
0.0
  0
LINE
  5
16E
330
1F
100
AcDbEntity
  8
0
  6
Continuous
 62
     7
370
    35
100
AcDbLine
 10
98.1198444365
 20
75.7176888681
 30
0.0
 11
96.171287278
 21
74.5926888681
 31
0.0
  0
LINE
  5
16F
330
1F
100
AcDbEntity
  8
0
  6
Continuous
 62
     7
370
    35
100
AcDbLine
 10
94.8681783866
 20
76.1497396757
 30
0.0
 11
95.171287278
 21
76.3247396757
 31
0.0
  0
LINE
  5
170
330
1F
100
AcDbEntity
  8
0
  6
Continuous
 62
     7
370
    35
100
AcDbLine
 10
94.3681783866
 20
77.0157650795
 30
0.0
 11
94.8011910885
 21
77.2657650795
 31
0.0
  0
LINE
  5
171
330
1F
100
AcDbEntity
  8
0
  6
Continuous
 62
     7
370
    35
100
AcDbLine
 10
110.3716991642
 20
90.2968539927
 30
0.0
 11
107.8292960145
 21
88.8289968499
 31
0.0
  0
LINE
  5
172
330
1F
100
AcDbEntity
  8
0
  6
Continuous
 62
     7
370
    35
100
AcDbLine
 10
113.7516029748
 20
84.7426888681
 30
0.0
 11
111.8030458163
 21
83.6176888681
 31
0.0
  0
LINE
  5
173
330
1F
100
AcDbEntity
  8
0
  6
Continuous
 62
     7
370
    35
100
AcDbLine
 10
112.7516029748
 20
86.4747396757
 30
0.0
 11
113.0547118661
 21
86.6497396757
 31
0.0
  0
LINE
  5
174
330
1F
100
AcDbEntity
  8
0
  6
Continuous
 62
     7
370
    35
100
AcDbLine
 10
112.1216991642
 20
87.2657650795
 30
0.0
 11
112.5547118661
 21
87.5157650795
 31
0.0
  0
LINE
  5
175
330
1F
100
AcDbEntity
  8
0
  6
Continuous
 62
     7
370
    35
100
AcDbLine
 10
121.5215720479
 20
87.5157650795
 30
0.0
 11
121.0215720479
 21
86.6497396757
 31
0.0
  0
LINE
  5
176
330
1F
100
AcDbEntity
  8
0
  6
Continuous
 62
     7
370
    35
100
AcDbLine
 10
139.2081055273
 20
76.1497396757
 30
0.0
 11
139.7081055273
 21
77.0157650795
 31
0.0
  0
LINE
  5
177
330
1F
100
AcDbEntity
  8
0
  6
Continuous
 62
     7
370
    35
100
AcDbLine
 10
121.3246809392
 20
86.4747396757
 30
0.0
 11
120.3246809392
 21
84.7426888681
 31
0.0
  0
LINE
  5
178
330
1F
100
AcDbEntity
  8
0
  6
Continuous
 62
     7
370
    35
100
AcDbLine
 10
137.904996636
 20
74.5926888681
 30
0.0
 11
138.904996636
 21
76.3247396757
 31
0.0
  0
LINE
  5
179
330
1F
100
AcDbEntity
  8
0
  6
Continuous
 62
     7
370
    35
100
AcDbLine
 10
123.4545847498
 20
89.8638412908
 30
0.0
 11
123.7045847498
 21
90.2968539927
 31
0.0
  0
LINE
  5
17A
330
1F
100
AcDbEntity
  8
0
  6
Continuous
 62
     7
370
    35
100
AcDbLine
 10
141.0250928255
 20
80.2968539927
 30
0.0
 11
140.7750928255
 21
79.8638412908
 31
0.0
  0
ARC
  5
17B
330
1F
100
AcDbEntity
  8
0
  6
Continuous
 62
     7
370
    35
100
AcDbCircle
 10
122.7045847498
 20
88.5648031851
 30
0.0
 40
1.500000000000012
100
AcDbArc
 50
240.0
 51
60.0
  0
ARC
  5
17C
330
1F
100
AcDbEntity
  8
0
  6
Continuous
 62
     7
370
    35
100
AcDbCircle
 10
140.0250928255
 20
78.5648031851
 30
0.0
 40
1.500000000000012
100
AcDbArc
 50
60.0
 51
240.0
  0
LINE
  5
17D
330
1F
100
AcDbEntity
  8
0
  6
Continuous
 62
     7
370
    35
100
AcDbLine
 10
122.2732380977
 20
83.6176888681
 30
0.0
 11
126.2469878995
 21
88.8289968499
 31
0.0
  0
LINE
  5
17E
330
1F
100
AcDbEntity
  8
0
  6
Continuous
 62
     7
370
    35
100
AcDbLine
 10
138.4826896758
 20
81.7647111356
 30
0.0
 11
135.9564394775
 21
75.7176888681
 31
0.0
  0
LINE
  5
17F
330
1F
100
AcDbEntity
  8
0
  6
Continuous
 62
     7
370
    35
100
AcDbLine
 10
126.2469878995
 20
88.8289968499
 30
0.0
 11
138.4826896758
 21
81.7647111356
 31
0.0
  0
LINE
  5
180
330
1F
100
AcDbEntity
  8
0
  6
Continuous
 62
     7
370
    35
100
AcDbLine
 10
135.9564394775
 20
75.7176888681
 30
0.0
 11
122.2732380977
 21
83.6176888681
 31
0.0
  0
LINE
  5
181
330
1F
100
AcDbEntity
  8
0
  6
Continuous
 62
     7
370
    35
100
AcDbLine
 10
126.2469878995
 20
88.8289968499
 30
0.0
 11
123.7045847498
 21
90.2968539927
 31
0.0
  0
LINE
  5
182
330
1F
100
AcDbEntity
  8
0
  6
Continuous
 62
     7
370
    35
100
AcDbLine
 10
122.2732380977
 20
83.6176888681
 30
0.0
 11
120.3246809392
 21
84.7426888681
 31
0.0
  0
LINE
  5
183
330
1F
100
AcDbEntity
  8
0
  6
Continuous
 62
     7
370
    35
100
AcDbLine
 10
121.5215720479
 20
87.5157650795
 30
0.0
 11
121.9545847498
 21
87.2657650795
 31
0.0
  0
LINE
  5
184
330
1F
100
AcDbEntity
  8
0
  6
Continuous
 62
     7
370
    35
100
AcDbLine
 10
121.0215720479
 20
86.6497396757
 30
0.0
 11
121.3246809392
 21
86.4747396757
 31
0.0
  0
LINE
  5
185
330
1F
100
AcDbEntity
  8
0
  6
Continuous
 62
     7
370
    35
100
AcDbLine
 10
141.0250928255
 20
80.2968539927
 30
0.0
 11
138.4826896758
 21
81.7647111356
 31
0.0
  0
LINE
  5
186
330
1F
100
AcDbEntity
  8
0
  6
Continuous
 62
     7
370
    35
100
AcDbLine
 10
137.904996636
 20
74.5926888681
 30
0.0
 11
135.9564394775
 21
75.7176888681
 31
0.0
  0
LINE
  5
187
330
1F
100
AcDbEntity
  8
0
  6
Continuous
 62
     7
370
    35
100
AcDbLine
 10
139.2750928255
 20
77.2657650795
 30
0.0
 11
139.7081055273
 21
77.0157650795
 31
0.0
  0
LINE
  5
188
330
1F
100
AcDbEntity
  8
0
  6
Continuous
 62
     7
370
    35
100
AcDbLine
 10
138.904996636
 20
76.3247396757
 30
0.0
 11
139.2081055273
 21
76.1497396757
 31
0.0
  0
LINE
  5
189
330
1F
100
AcDbEntity
  8
0
  6
Continuous
 62
     7
370
    35
100
AcDbLine
 10
150.038141957
 20
56.8502363699
 30
0.0
 11
150.038141957
 21
58.3502363699
 31
0.0
  0
LINE
  5
18A
330
1F
100
AcDbEntity
  8
0
  6
Continuous
 62
     7
370
    35
100
AcDbLine
 10
84.038141957
 20
58.3502363699
 30
0.0
 11
84.038141957
 21
56.8502363699
 31
0.0
  0
LINE
  5
18B
330
1F
100
AcDbEntity
  8
0
  6
Continuous
 62
     7
370
    35
100
AcDbLine
 10
107.038141957
 20
32.1968427086
 30
0.0
 11
127.038141957
 21
32.1968427086
 31
0.0
  0
ARC
  5
18C
330
1F
100
AcDbEntity
  8
0
  6
Continuous
 62
     7
370
    35
100
AcDbCircle
 10
117.038141957
 20
58.3502363699
 30
0.0
 40
28.00000000000002
100
AcDbArc
 50
290.9248324276
 51
356.9291131889
  0
ARC
  5
18D
330
1F
100
AcDbEntity
  8
0
  6
Continuous
 62
     7
370
    35
100
AcDbCircle
 10
117.038141957
 20
58.3502363699
 30
0.0
 40
28.00000000000005
100
AcDbArc
 50
183.0708868111
 51
249.0751675724
  0
ARC
  5
18E
330
1F
100
AcDbEntity
  8
0
  6
Continuous
 62
     7
370
    35
100
AcDbCircle
 10
117.038141957
 20
58.3502363699
 30
0.0
 40
26.00000000000003
100
AcDbArc
 50
292.619864948
 51
0.0
  0
LINE
  5
18F
330
1F
100
AcDbEntity
  8
0
  6
Continuous
 62
     7
370
    35
100
AcDbLine
 10
107.038141957
 20
34.3502363699
 30
0.0
 11
127.038141957
 21
34.3502363699
 31
0.0
  0
ARC
  5
190
330
1F
100
AcDbEntity
  8
0
  6
Continuous
 62
     7
370
    35
100
AcDbCircle
 10
117.038141957
 20
58.3502363699
 30
0.0
 40
26.00000000000004
100
AcDbArc
 50
180.0
 51
247.380135052
  0
LINE
  5
191
330
1F
100
AcDbEntity
  8
0
  6
Continuous
 62
     7
370
    35
100
AcDbLine
 10
102.038141957
 20
58.3502363699
 30
0.0
 11
91.038141957
 21
58.3502363699
 31
0.0
  0
LINE
  5
192
330
1F
100
AcDbEntity
  8
0
  6
Continuous
 62
     7
370
    35
100
AcDbLine
 10
127.038141957
 20
34.3502363699
 30
0.0
 11
127.038141957
 21
32.1968427086
 31
0.0
  0
LINE
  5
193
330
1F
100
AcDbEntity
  8
0
  6
Continuous
 62
     7
370
    35
100
AcDbLine
 10
107.038141957
 20
32.1968427086
 30
0.0
 11
107.038141957
 21
34.3502363699
 31
0.0
  0
LINE
  5
194
330
1F
100
AcDbEntity
  8
0
  6
Continuous
 62
     7
370
    35
100
AcDbLine
 10
146.788141957
 20
58.3502363699
 30
0.0
 11
146.788141957
 21
56.8502363699
 31
0.0
  0
LINE
  5
195
330
1F
100
AcDbEntity
  8
0
  6
Continuous
 62
     7
370
    35
100
AcDbLine
 10
146.788141957
 20
58.3502363699
 30
0.0
 11
143.038141957
 21
58.3502363699
 31
0.0
  0
LINE
  5
196
330
1F
100
AcDbEntity
  8
0
  6
Continuous
 62
     7
370
    35
100
AcDbLine
 10
146.788141957
 20
56.8502363699
 30
0.0
 11
144.997934517
 21
56.8502363699
 31
0.0
  0
LINE
  5
197
330
1F
100
AcDbEntity
  8
0
  6
Continuous
 62
     7
370
    35
100
AcDbLine
 10
87.288141957
 20
56.8502363699
 30
0.0
 11
87.288141957
 21
58.3502363699
 31
0.0
  0
LINE
  5
198
330
1F
100
AcDbEntity
  8
0
  6
Continuous
 62
     7
370
    35
100
AcDbLine
 10
91.038141957
 20
58.3502363699
 30
0.0
 11
87.288141957
 21
58.3502363699
 31
0.0
  0
LINE
  5
199
330
1F
100
AcDbEntity
  8
0
  6
Continuous
 62
     7
370
    35
100
AcDbLine
 10
89.078349397
 20
56.8502363699
 30
0.0
 11
87.288141957
 21
56.8502363699
 31
0.0
  0
LINE
  5
19A
330
1F
100
AcDbEntity
  8
0
  6
Continuous
 62
     7
370
    35
100
AcDbLine
 10
149.288141957
 20
56.8502363699
 30
0.0
 11
149.288141957
 21
58.3502363699
 31
0.0
  0
LINE
  5
19B
330
1F
100
AcDbEntity
  8
0
  6
Continuous
 62
     7
370
    35
100
AcDbLine
 10
149.288141957
 20
58.3502363699
 30
0.0
 11
148.988141957
 21
58.3502363699
 31
0.0
  0
LINE
  5
19C
330
1F
100
AcDbEntity
  8
0
  6
Continuous
 62
     7
370
    35
100
AcDbLine
 10
147.088141957
 20
58.3502363699
 30
0.0
 11
146.788141957
 21
58.3502363699
 31
0.0
  0
LINE
  5
19D
330
1F
100
AcDbEntity
  8
0
  6
Continuous
 62
     7
370
    35
100
AcDbLine
 10
84.788141957
 20
58.3502363699
 30
0.0
 11
84.788141957
 21
56.8502363699
 31
0.0
  0
LINE
  5
19E
330
1F
100
AcDbEntity
  8
0
  6
Continuous
 62
     7
370
    35
100
AcDbLine
 10
87.288141957
 20
58.3502363699
 30
0.0
 11
86.988141957
 21
58.3502363699
 31
0.0
  0
LINE
  5
19F
330
1F
100
AcDbEntity
  8
0
  6
Continuous
 62
     7
370
    35
100
AcDbLine
 10
85.088141957
 20
58.3502363699
 30
0.0
 11
84.788141957
 21
58.3502363699
 31
0.0
  0
LINE
  5
1A0
330
1F
100
AcDbEntity
  8
0
  6
Continuous
 62
     7
370
    35
100
AcDbLine
 10
84.788141957
 20
58.3502363699
 30
0.0
 11
84.038141957
 21
58.3502363699
 31
0.0
  0
LINE
  5
1A1
330
1F
100
AcDbEntity
  8
0
  6
Continuous
 62
     7
370
    35
100
AcDbLine
 10
84.788141957
 20
56.8502363699
 30
0.0
 11
84.038141957
 21
56.8502363699
 31
0.0
  0
LINE
  5
1A2
330
1F
100
AcDbEntity
  8
0
  6
Continuous
 62
     7
370
    35
100
AcDbLine
 10
150.038141957
 20
58.3502363699
 30
0.0
 11
149.288141957
 21
58.3502363699
 31
0.0
  0
LINE
  5
1A3
330
1F
100
AcDbEntity
  8
0
  6
Continuous
 62
     7
370
    35
100
AcDbLine
 10
150.038141957
 20
56.8502363699
 30
0.0
 11
149.288141957
 21
56.8502363699
 31
0.0
  0
LINE
  5
1A4
330
1F
100
AcDbEntity
  8
0
  6
Continuous
 62
     7
370
    35
100
AcDbLine
 10
149.288141957
 20
58.3502363699
 30
0.0
 11
149.288141957
 21
58.7502363699
 31
0.0
  0
LINE
  5
1A5
330
1F
100
AcDbEntity
  8
0
  6
Continuous
 62
     7
370
    35
100
AcDbLine
 10
146.788141957
 20
58.7502363699
 30
0.0
 11
146.788141957
 21
58.3502363699
 31
0.0
  0
LINE
  5
1A6
330
1F
100
AcDbEntity
  8
0
  6
Continuous
 62
     7
370
    35
100
AcDbLine
 10
149.288141957
 20
58.7502363699
 30
0.0
 11
148.988141957
 21
58.7502363699
 31
0.0
  0
LINE
  5
1A7
330
1F
100
AcDbEntity
  8
0
  6
Continuous
 62
     7
370
    35
100
AcDbLine
 10
147.088141957
 20
58.7502363699
 30
0.0
 11
146.788141957
 21
58.7502363699
 31
0.0
  0
LINE
  5
1A8
330
1F
100
AcDbEntity
  8
0
  6
Continuous
 62
     7
370
    35
100
AcDbLine
 10
84.038141957
 20
58.3502363699
 30
0.0
 11
84.038141957
 21
58.7502363699
 31
0.0
  0
LINE
  5
1A9
330
1F
100
AcDbEntity
  8
0
  6
Continuous
 62
     7
370
    35
100
AcDbLine
 10
150.038141957
 20
58.7502363699
 30
0.0
 11
150.038141957
 21
58.3502363699
 31
0.0
  0
LINE
  5
1AA
330
1F
100
AcDbEntity
  8
0
  6
Continuous
 62
     7
370
    35
100
AcDbLine
 10
102.038141957
 20
58.7502363699
 30
0.0
 11
102.038141957
 21
58.3502363699
 31
0.0
  0
LINE
  5
1AB
330
1F
100
AcDbEntity
  8
0
  6
Continuous
 62
     7
370
    35
100
AcDbLine
 10
146.788141957
 20
58.3502363699
 30
0.0
 11
102.038141957
 21
58.3502363699
 31
0.0
  0
LINE
  5
1AC
330
1F
100
AcDbEntity
  8
0
  6
Continuous
 62
     7
370
    35
100
AcDbLine
 10
146.788141957
 20
58.7502363699
 30
0.0
 11
102.038141957
 21
58.7502363699
 31
0.0
  0
LINE
  5
1AD
330
1F
100
AcDbEntity
  8
0
  6
Continuous
 62
     7
370
    35
100
AcDbLine
 10
91.038141957
 20
58.3502363699
 30
0.0
 11
91.038141957
 21
58.7502363699
 31
0.0
  0
LINE
  5
1AE
330
1F
100
AcDbEntity
  8
0
  6
Continuous
 62
     7
370
    35
100
AcDbLine
 10
102.038141957
 20
58.7502363699
 30
0.0
 11
91.038141957
 21
58.7502363699
 31
0.0
  0
LINE
  5
1AF
330
1F
100
AcDbEntity
  8
0
  6
Continuous
 62
     7
370
    35
100
AcDbLine
 10
87.288141957
 20
58.3502363699
 30
0.0
 11
87.288141957
 21
58.7502363699
 31
0.0
  0
LINE
  5
1B0
330
1F
100
AcDbEntity
  8
0
  6
Continuous
 62
     7
370
    35
100
AcDbLine
 10
91.038141957
 20
58.7502363699
 30
0.0
 11
87.288141957
 21
58.7502363699
 31
0.0
  0
LINE
  5
1B1
330
1F
100
AcDbEntity
  8
0
  6
Continuous
 62
     7
370
    35
100
AcDbLine
 10
84.788141957
 20
58.7502363699
 30
0.0
 11
84.788141957
 21
58.3502363699
 31
0.0
  0
LINE
  5
1B2
330
1F
100
AcDbEntity
  8
0
  6
Continuous
 62
     7
370
    35
100
AcDbLine
 10
87.288141957
 20
58.7502363699
 30
0.0
 11
86.988141957
 21
58.7502363699
 31
0.0
  0
LINE
  5
1B3
330
1F
100
AcDbEntity
  8
0
  6
Continuous
 62
     7
370
    35
100
AcDbLine
 10
85.088141957
 20
58.7502363699
 30
0.0
 11
84.788141957
 21
58.7502363699
 31
0.0
  0
LINE
  5
1B4
330
1F
100
AcDbEntity
  8
0
  6
Continuous
 62
     7
370
    35
100
AcDbLine
 10
150.038141957
 20
58.7502363699
 30
0.0
 11
149.288141957
 21
58.7502363699
 31
0.0
  0
LINE
  5
1B5
330
1F
100
AcDbEntity
  8
0
  6
Continuous
 62
     7
370
    35
100
AcDbLine
 10
84.788141957
 20
58.7502363699
 30
0.0
 11
84.038141957
 21
58.7502363699
 31
0.0
  0
LINE
  5
1B6
330
1F
100
AcDbEntity
  8
0
  6
Continuous
 62
     7
370
    35
100
AcDbLine
 10
149.538141957
 20
59.7502363699
 30
0.0
 11
149.538141957
 21
60.2502363699
 31
0.0
  0
LINE
  5
1B7
330
1F
100
AcDbEntity
  8
0
  6
Continuous
 62
     7
370
    35
100
AcDbLine
 10
146.538141957
 20
60.2502363699
 30
0.0
 11
146.538141957
 21
59.7502363699
 31
0.0
  0
LINE
  5
1B8
330
1F
100
AcDbEntity
  8
0
  6
Continuous
 62
     7
370
    35
100
AcDbLine
 10
149.538141957
 20
60.2502363699
 30
0.0
 11
149.188141957
 21
60.2502363699
 31
0.0
  0
LINE
  5
1B9
330
1F
100
AcDbEntity
  8
0
  6
Continuous
 62
     7
370
    35
100
AcDbLine
 10
146.888141957
 20
60.2502363699
 30
0.0
 11
146.538141957
 21
60.2502363699
 31
0.0
  0
LINE
  5
1BA
330
1F
100
AcDbEntity
  8
0
  6
Continuous
 62
     7
370
    35
100
AcDbLine
 10
149.288141957
 20
58.7502363699
 30
0.0
 11
149.288141957
 21
59.7502363699
 31
0.0
  0
LINE
  5
1BB
330
1F
100
AcDbEntity
  8
0
  6
Continuous
 62
     7
370
    35
100
AcDbLine
 10
146.788141957
 20
59.7502363699
 30
0.0
 11
146.788141957
 21
58.7502363699
 31
0.0
  0
LINE
  5
1BC
330
1F
100
AcDbEntity
  8
0
  6
Continuous
 62
     7
370
    35
100
AcDbLine
 10
146.788141957
 20
59.7502363699
 30
0.0
 11
147.088141957
 21
59.7502363699
 31
0.0
  0
LINE
  5
1BD
330
1F
100
AcDbEntity
  8
0
  6
Continuous
 62
     7
370
    35
100
AcDbLine
 10
148.988141957
 20
59.7502363699
 30
0.0
 11
149.288141957
 21
59.7502363699
 31
0.0
  0
LINE
  5
1BE
330
1F
100
AcDbEntity
  8
0
  6
Continuous
 62
     7
370
    35
100
AcDbLine
 10
87.538141957
 20
59.7502363699
 30
0.0
 11
87.538141957
 21
60.2502363699
 31
0.0
  0
LINE
  5
1BF
330
1F
100
AcDbEntity
  8
0
  6
Continuous
 62
     7
370
    35
100
AcDbLine
 10
84.538141957
 20
60.2502363699
 30
0.0
 11
84.538141957
 21
59.7502363699
 31
0.0
  0
LINE
  5
1C0
330
1F
100
AcDbEntity
  8
0
  6
Continuous
 62
     7
370
    35
100
AcDbLine
 10
87.538141957
 20
60.2502363699
 30
0.0
 11
87.188141957
 21
60.2502363699
 31
0.0
  0
LINE
  5
1C1
330
1F
100
AcDbEntity
  8
0
  6
Continuous
 62
     7
370
    35
100
AcDbLine
 10
84.888141957
 20
60.2502363699
 30
0.0
 11
84.538141957
 21
60.2502363699
 31
0.0
  0
ARC
  5
1C2
330
1F
100
AcDbEntity
  8
0
  6
Continuous
 62
     7
370
    35
100
AcDbCircle
 10
117.038141957
 20
58.7502363699
 30
0.0
 40
28.00000000000001
100
AcDbArc
 50
80.9248324276
 51
99.0751675724
  0
ARC
  5
1C3
330
1F
100
AcDbEntity
  8
0
  6
Continuous
 62
     7
370
    35
100
AcDbCircle
 10
117.038141957
 20
58.7502363699
 30
0.0
 40
28.00000000000001
100
AcDbArc
 50
140.9248324276
 51
176.9291131889
  0
ARC
  5
1C4
330
1F
100
AcDbEntity
  8
0
  6
Continuous
 62
     7
370
    35
100
AcDbCircle
 10
117.038141957
 20
58.7502363699
 30
0.0
 40
28.00000000000001
100
AcDbArc
 50
3.0708868111
 51
39.0751675724
  0
ARC
  5
1C5
330
1F
100
AcDbEntity
  8
0
  6
Continuous
 62
     7
370
    35
100
AcDbCircle
 10
117.038141957
 20
58.7502363699
 30
0.0
 40
26.00000000000002
100
AcDbArc
 50
142.619864948
 51
180.0
  0
LINE
  5
1C6
330
1F
100
AcDbEntity
  8
0
  6
Continuous
 62
     7
370
    35
100
AcDbLine
 10
96.3778879191
 20
74.5348460607
 30
0.0
 11
113.6983959948
 21
84.5348460607
 31
0.0
  0
ARC
  5
1C7
330
1F
100
AcDbEntity
  8
0
  6
Continuous
 62
     7
370
    35
100
AcDbCircle
 10
117.038141957
 20
58.7502363699
 30
0.0
 40
26.00000000000002
100
AcDbArc
 50
82.619864948
 51
97.380135052
  0
LINE
  5
1C8
330
1F
100
AcDbEntity
  8
0
  6
Continuous
 62
     7
370
    35
100
AcDbLine
 10
137.6983959948
 20
74.5348460607
 30
0.0
 11
120.3778879191
 21
84.5348460607
 31
0.0
  0
ARC
  5
1C9
330
1F
100
AcDbEntity
  8
0
  6
Continuous
 62
     7
370
    35
100
AcDbCircle
 10
117.038141957
 20
58.7502363699
 30
0.0
 40
26.0
100
AcDbArc
 50
0.0
 51
37.380135052
  0
LINE
  5
1CA
330
1F
100
AcDbEntity
  8
0
  6
Continuous
 62
     7
370
    35
100
AcDbLine
 10
87.288141957
 20
58.7502363699
 30
0.0
 11
87.288141957
 21
59.7502363699
 31
0.0
  0
LINE
  5
1CB
330
1F
100
AcDbEntity
  8
0
  6
Continuous
 62
     7
370
    35
100
AcDbLine
 10
84.788141957
 20
59.7502363699
 30
0.0
 11
84.788141957
 21
58.7502363699
 31
0.0
  0
LINE
  5
1CC
330
1F
100
AcDbEntity
  8
0
  6
Continuous
 62
     7
370
    35
100
AcDbLine
 10
84.788141957
 20
59.7502363699
 30
0.0
 11
85.088141957
 21
59.7502363699
 31
0.0
  0
LINE
  5
1CD
330
1F
100
AcDbEntity
  8
0
  6
Continuous
 62
     7
370
    35
100
AcDbLine
 10
86.988141957
 20
59.7502363699
 30
0.0
 11
87.288141957
 21
59.7502363699
 31
0.0
  0
LINE
  5
1CE
330
1F
100
AcDbEntity
  8
0
  6
Continuous
 62
     7
370
    35
100
AcDbLine
 10
137.6983959948
 20
74.5348460607
 30
0.0
 11
138.7750928255
 21
76.3997396757
 31
0.0
  0
LINE
  5
1CF
330
1F
100
AcDbEntity
  8
0
  6
Continuous
 62
     7
370
    35
100
AcDbLine
 10
143.038141957
 20
58.7502363699
 30
0.0
 11
146.788141957
 21
58.7502363699
 31
0.0
  0
LINE
  5
1D0
330
1F
100
AcDbEntity
  8
0
  6
Continuous
 62
     7
370
    35
100
AcDbLine
 10
146.788141957
 20
59.7502363699
 30
0.0
 11
146.538141957
 21
59.7502363699
 31
0.0
  0
LINE
  5
1D1
330
1F
100
AcDbEntity
  8
0
  6
Continuous
 62
     7
370
    35
100
AcDbLine
 10
144.997934517
 20
60.2502363699
 30
0.0
 11
146.538141957
 21
60.2502363699
 31
0.0
  0
LINE
  5
1D2
330
1F
100
AcDbEntity
  8
0
  6
Continuous
 62
     7
370
    35
100
AcDbLine
 10
87.538141957
 20
59.7502363699
 30
0.0
 11
87.288141957
 21
59.7502363699
 31
0.0
  0
LINE
  5
1D3
330
1F
100
AcDbEntity
  8
0
  6
Continuous
 62
     7
370
    35
100
AcDbLine
 10
96.3778879191
 20
74.5348460607
 30
0.0
 11
95.3011910885
 21
76.3997396757
 31
0.0
  0
LINE
  5
1D4
330
1F
100
AcDbEntity
  8
0
  6
Continuous
 62
     7
370
    35
100
AcDbLine
 10
87.538141957
 20
60.2502363699
 30
0.0
 11
89.078349397
 21
60.2502363699
 31
0.0
  0
LINE
  5
1D5
330
1F
100
AcDbEntity
  8
0
  6
Continuous
 62
     7
370
    35
100
AcDbLine
 10
84.038141957
 20
60.2502363699
 30
0.0
 11
84.038141957
 21
58.7502363699
 31
0.0
  0
LINE
  5
1D6
330
1F
100
AcDbEntity
  8
0
  6
Continuous
 62
     7
370
    35
100
AcDbLine
 10
84.788141957
 20
59.7502363699
 30
0.0
 11
84.538141957
 21
59.7502363699
 31
0.0
  0
LINE
  5
1D7
330
1F
100
AcDbEntity
  8
0
  6
Continuous
 62
     7
370
    35
100
AcDbLine
 10
84.038141957
 20
60.2502363699
 30
0.0
 11
84.538141957
 21
60.2502363699
 31
0.0
  0
LINE
  5
1D8
330
1F
100
AcDbEntity
  8
0
  6
Continuous
 62
     7
370
    35
100
AcDbLine
 10
121.4545847498
 20
86.3997396757
 30
0.0
 11
120.3778879191
 21
84.5348460607
 31
0.0
  0
LINE
  5
1D9
330
1F
100
AcDbEntity
  8
0
  6
Continuous
 62
     7
370
    35
100
AcDbLine
 10
112.6216991642
 20
86.3997396757
 30
0.0
 11
113.6983959948
 21
84.5348460607
 31
0.0
  0
LINE
  5
1DA
330
1F
100
AcDbEntity
  8
0
  6
Continuous
 62
     7
370
    35
100
AcDbLine
 10
150.038141957
 20
58.7502363699
 30
0.0
 11
150.038141957
 21
60.2502363699
 31
0.0
  0
LINE
  5
1DB
330
1F
100
AcDbEntity
  8
0
  6
Continuous
 62
     7
370
    35
100
AcDbLine
 10
149.538141957
 20
59.7502363699
 30
0.0
 11
149.288141957
 21
59.7502363699
 31
0.0
  0
LINE
  5
1DC
330
1F
100
AcDbEntity
  8
0
  6
Continuous
 62
     7
370
    35
100
AcDbLine
 10
149.538141957
 20
60.2502363699
 30
0.0
 11
150.038141957
 21
60.2502363699
 31
0.0
  0
HATCH
  5
1DD
330
1F
100
AcDbEntity
  8
DIM
  6
Continuous
370
    18
100
AcDbHatch
 10
0.0
 20
0.0
 30
0.0
210
0.0
220
0.0
230
1.0
  2
ANSI31
 70
     0
 71
     0
 91
        1
 92
        0
 93
        6
 72
     1
 10
149.2881419569912
 20
58.75023636986808
 11
150.0381419569912
 21
58.75023636986808
 72
     1
 10
150.0381419569912
 20
58.75023636986808
 11
150.0381419569912
 21
60.25023636986808
 72
     1
 10
150.0381419569912
 20
60.25023636986808
 11
149.5381419569912
 21
60.25023636986808
 72
     1
 10
149.5381419569912
 20
60.25023636986808
 11
149.5381419569912
 21
59.75023636986808
 72
     1
 10
149.5381419569912
 20
59.75023636986808
 11
149.2881419569912
 21
59.75023636986808
 72
     1
 10
149.2881419569912
 20
59.75023636986808
 11
149.2881419569912
 21
58.75023636986808
 97
        0
 75
     0
 76
     1
 52
0.0
 41
1.0
 77
     0
 78
     1
 53
45.0
 43
0.0
 44
0.0
 45
-2.245064030267288
 46
2.245064030267288
 79
     0
 98
        1
 10
0.0
 20
0.0
  0
HATCH
  5
1DE
330
1F
100
AcDbEntity
  8
DIM
  6
Continuous
370
    18
100
AcDbHatch
 10
0.0
 20
0.0
 30
0.0
210
0.0
220
0.0
230
1.0
  2
ANSI31
 70
     0
 71
     0
 91
        1
 92
        0
 93
        8
 72
     1
 10
143.0381419569912
 20
58.75023636986808
 11
146.7881419569912
 21
58.75023636986808
 72
     1
 10
146.7881419569912
 20
58.75023636986808
 11
146.7881419569912
 21
59.75023636986808
 72
     1
 10
146.7881419569912
 20
59.75023636986808
 11
146.5381419569912
 21
59.75023636986808
 72
     1
 10
146.5381419569912
 20
59.75023636986808
 11
146.5381419569912
 21
60.25023636986808
 72
     1
 10
146.5381419569912
 20
60.25023636986808
 11
144.9979345170228
 21
60.25023636986808
 72
     2
 10
117.0381419569912
 20
58.75023636986808
 40
28.0
 50
3.070886811074866
 51
39.07516757236181
 73
     1
 72
     1
 10
138.7750928254576
 20
76.39973967568038
 11
137.6983959948356
 21
74.53484606069466
 72
     2
 10
117.0381419569912
 20
58.75023636986808
 40
26.0
 50
322.6198649480411
 51
360.0000000000008
 73
     0
 97
        0
 75
     0
 76
     1
 52
0.0
 41
1.0
 77
     0
 78
     1
 53
45.0
 43
0.0
 44
0.0
 45
-2.245064030267288
 46
2.245064030267288
 79
     0
 98
        1
 10
0.0
 20
0.0
  0
HATCH
  5
1DF
330
1F
100
AcDbEntity
  8
DIM
  6
Continuous
370
    18
100
AcDbHatch
 10
0.0
 20
0.0
 30
0.0
210
0.0
220
0.0
230
1.0
  2
ANSI31
 70
     0
 71
     0
 91
        1
 92
        0
 93
        8
 72
     1
 10
96.37788791914691
 20
74.53484606069473
 11
95.30119108852492
 21
76.39973967568046
 72
     2
 10
117.0381419569912
 20
58.75023636986808
 40
28.0
 50
140.924832427638
 51
176.9291131889251
 73
     1
 72
     1
 10
89.07834939695958
 20
60.25023636986808
 11
87.53814195699121
 21
60.25023636986808
 72
     1
 10
87.53814195699121
 20
60.25023636986808
 11
87.53814195699121
 21
59.75023636986808
 72
     1
 10
87.53814195699121
 20
59.75023636986808
 11
87.28814195699121
 21
59.75023636986808
 72
     1
 10
87.28814195699121
 20
59.75023636986808
 11
87.28814195699121
 21
58.75023636986808
 72
     1
 10
87.28814195699121
 20
58.75023636986808
 11
91.03814195699121
 21
58.75023636986808
 72
     2
 10
117.0381419569912
 20
58.75023636986808
 40
26.0
 50
180.0
 51
217.3801350519607
 73
     0
 97
        0
 75
     0
 76
     1
 52
0.0
 41
1.0
 77
     0
 78
     1
 53
45.0
 43
0.0
 44
0.0
 45
-2.245064030267288
 46
2.245064030267288
 79
     0
 98
        1
 10
0.0
 20
0.0
  0
HATCH
  5
1E0
330
1F
100
AcDbEntity
  8
DIM
  6
Continuous
370
    18
100
AcDbHatch
 10
0.0
 20
0.0
 30
0.0
210
0.0
220
0.0
230
1.0
  2
ANSI31
 70
     0
 71
     0
 91
        1
 92
        0
 93
        6
 72
     1
 10
84.03814195699121
 20
58.75023636986808
 11
84.78814195699121
 21
58.75023636986808
 72
     1
 10
84.78814195699121
 20
58.75023636986808
 11
84.78814195699121
 21
59.75023636986808
 72
     1
 10
84.78814195699121
 20
59.75023636986808
 11
84.53814195699121
 21
59.75023636986808
 72
     1
 10
84.53814195699121
 20
59.75023636986808
 11
84.53814195699121
 21
60.25023636986808
 72
     1
 10
84.53814195699121
 20
60.25023636986808
 11
84.03814195699121
 21
60.25023636986808
 72
     1
 10
84.03814195699121
 20
60.25023636986808
 11
84.03814195699121
 21
58.75023636986808
 97
        0
 75
     0
 76
     1
 52
0.0
 41
1.0
 77
     0
 78
     1
 53
45.0
 43
0.0
 44
0.0
 45
-2.245064030267288
 46
2.245064030267288
 79
     0
 98
        1
 10
0.0
 20
0.0
  0
HATCH
  5
1E1
330
1F
100
AcDbEntity
  8
DIM
  6
Continuous
370
    18
100
AcDbHatch
 10
0.0
 20
0.0
 30
0.0
210
0.0
220
0.0
230
1.0
  2
ANSI31
 70
     0
 71
     0
 91
        1
 92
        0
 93
        4
 72
     2
 10
117.0381419569912
 20
58.75023636986808
 40
28.0
 50
80.9248324276385
 51
99.07516757236132
 73
     1
 72
     1
 10
112.6216991642138
 20
86.39973967568037
 11
113.6983959948357
 21
84.53484606069465
 72
     2
 10
117.0381419569912
 20
58.75023636986808
 40
26.0
 50
262.6198649480416
 51
277.3801350519602
 73
     0
 72
     1
 10
120.3778879191467
 20
84.53484606069462
 11
121.4545847497688
 21
86.39973967568035
 97
        0
 75
     0
 76
     1
 52
0.0
 41
1.0
 77
     0
 78
     1
 53
45.0
 43
0.0
 44
0.0
 45
-2.245064030267288
 46
2.245064030267288
 79
     0
 98
        1
 10
0.0
 20
0.0
  0
HATCH
  5
1E2
330
1F
100
AcDbEntity
  8
DIM
  6
Continuous
370
    18
100
AcDbHatch
 10
0.0
 20
0.0
 30
0.0
210
0.0
220
0.0
230
1.0
  2
ANSI31
 70
     0
 71
     0
 91
        1
 92
        0
 93
        4
 72
     1
 10
150.0381419569913
 20
58.75023636986808
 11
149.2881419569913
 21
58.75023636986808
 72
     1
 10
149.2881419569913
 20
58.75023636986808
 11
149.2881419569913
 21
58.35023636986808
 72
     1
 10
149.2881419569913
 20
58.35023636986808
 11
150.0381419569913
 21
58.35023636986808
 72
     1
 10
150.0381419569913
 20
58.35023636986808
 11
150.0381419569913
 21
58.75023636986808
 97
        0
 75
     0
 76
     1
 52
0.0
 41
1.0
 77
     0
 78
     1
 53
45.0
 43
0.0
 44
0.0
 45
-2.245064030267288
 46
2.245064030267288
 79
     0
 98
        1
 10
0.0
 20
0.0
  0
HATCH
  5
1E3
330
1F
100
AcDbEntity
  8
DIM
  6
Continuous
370
    18
100
AcDbHatch
 10
0.0
 20
0.0
 30
0.0
210
0.0
220
0.0
230
1.0
  2
ANSI31
 70
     0
 71
     0
 91
        1
 92
        0
 93
        4
 72
     1
 10
102.0381419569913
 20
58.75023636986808
 11
102.0381419569913
 21
58.35023636986808
 72
     1
 10
102.0381419569913
 20
58.35023636986808
 11
146.7881419569913
 21
58.35023636986808
 72
     1
 10
146.7881419569913
 20
58.35023636986808
 11
146.7881419569913
 21
58.75023636986808
 72
     1
 10
146.7881419569913
 20
58.75023636986808
 11
102.0381419569913
 21
58.75023636986808
 97
        0
 75
     0
 76
     1
 52
0.0
 41
1.0
 77
     0
 78
     1
 53
45.0
 43
0.0
 44
0.0
 45
-2.245064030267288
 46
2.245064030267288
 79
     0
 98
        1
 10
0.0
 20
0.0
  0
HATCH
  5
1E4
330
1F
100
AcDbEntity
  8
DIM
  6
Continuous
370
    18
100
AcDbHatch
 10
0.0
 20
0.0
 30
0.0
210
0.0
220
0.0
230
1.0
  2
ANSI31
 70
     0
 71
     0
 91
        1
 92
        0
 93
        4
 72
     1
 10
91.03814195699127
 20
58.35023636986808
 11
91.03814195699127
 21
58.75023636986808
 72
     1
 10
91.03814195699127
 20
58.75023636986808
 11
87.28814195699128
 21
58.75023636986808
 72
     1
 10
87.28814195699128
 20
58.75023636986808
 11
87.28814195699128
 21
58.35023636986808
 72
     1
 10
87.28814195699128
 20
58.35023636986808
 11
91.03814195699127
 21
58.35023636986808
 97
        0
 75
     0
 76
     1
 52
0.0
 41
1.0
 77
     0
 78
     1
 53
45.0
 43
0.0
 44
0.0
 45
-2.245064030267288
 46
2.245064030267288
 79
     0
 98
        1
 10
0.0
 20
0.0
  0
HATCH
  5
1E5
330
1F
100
AcDbEntity
  8
DIM
  6
Continuous
370
    18
100
AcDbHatch
 10
0.0
 20
0.0
 30
0.0
210
0.0
220
0.0
230
1.0
  2
ANSI31
 70
     0
 71
     0
 91
        1
 92
        0
 93
        4
 72
     1
 10
84.03814195699127
 20
58.35023636986808
 11
84.78814195699128
 21
58.35023636986808
 72
     1
 10
84.78814195699128
 20
58.35023636986808
 11
84.78814195699128
 21
58.75023636986808
 72
     1
 10
84.78814195699128
 20
58.75023636986808
 11
84.03814195699127
 21
58.75023636986808
 72
     1
 10
84.03814195699127
 20
58.75023636986808
 11
84.03814195699127
 21
58.35023636986808
 97
        0
 75
     0
 76
     1
 52
0.0
 41
1.0
 77
     0
 78
     1
 53
45.0
 43
0.0
 44
0.0
 45
-2.245064030267288
 46
2.245064030267288
 79
     0
 98
        1
 10
0.0
 20
0.0
  0
HATCH
  5
1E6
330
1F
100
AcDbEntity
  8
DIM
  6
Continuous
370
    18
100
AcDbHatch
 10
0.0
 20
0.0
 30
0.0
210
0.0
220
0.0
230
1.0
  2
ANSI31
 70
     0
 71
     0
 91
        1
 92
        0
 93
        6
 72
     1
 10
146.7881419569913
 20
58.35023636986808
 11
143.0381419569912
 21
58.35023636986808
 72
     2
 10
117.0381419569912
 20
58.35023636986808
 40
26.0
 50
0.0
 51
67.38013505195961
 73
     0
 72
     1
 10
127.0381419569912
 20
34.35023636986807
 11
127.0381419569912
 21
32.19684270862404
 72
     2
 10
117.0381419569912
 20
58.35023636986808
 40
28.0
 50
290.9248324276392
 51
356.929113188926
 73
     1
 72
     1
 10
144.9979345170229
 20
56.85023636986808
 11
146.7881419569913
 21
56.85023636986808
 72
     1
 10
146.7881419569913
 20
56.85023636986808
 11
146.7881419569913
 21
58.35023636986808
 97
        0
 75
     0
 76
     1
 52
0.0
 41
1.0
 77
     0
 78
     1
 53
45.0
 43
0.0
 44
0.0
 45
-2.245064030267288
 46
2.245064030267288
 79
     0
 98
        1
 10
0.0
 20
0.0
  0
HATCH
  5
1E7
330
1F
100
AcDbEntity
  8
DIM
  6
Continuous
370
    18
100
AcDbHatch
 10
0.0
 20
0.0
 30
0.0
210
0.0
220
0.0
230
1.0
  2
ANSI31
 70
     0
 71
     0
 91
        1
 92
        0
 93
        6
 72
     1
 10
87.28814195699114
 20
56.85023636986808
 11
89.07834939695954
 21
56.85023636986808
 72
     2
 10
117.0381419569912
 20
58.35023636986808
 40
28.0
 50
183.0708868110757
 51
249.0751675723625
 73
     1
 72
     1
 10
107.0381419569912
 20
32.19684270862404
 11
107.0381419569912
 21
34.35023636986807
 72
     2
 10
117.0381419569912
 20
58.35023636986808
 40
26.0
 50
112.6198649480404
 51
180.0
 73
     0
 72
     1
 10
91.03814195699117
 20
58.35023636986808
 11
87.28814195699114
 21
58.35023636986808
 72
     1
 10
87.28814195699114
 20
58.35023636986808
 11
87.28814195699114
 21
56.85023636986808
 97
        0
 75
     0
 76
     1
 52
0.0
 41
1.0
 77
     0
 78
     1
 53
45.0
 43
0.0
 44
0.0
 45
-2.245064030267288
 46
2.245064030267288
 79
     0
 98
        1
 10
0.0
 20
0.0
  0
HATCH
  5
1E8
330
1F
100
AcDbEntity
  8
DIM
  6
Continuous
370
    18
100
AcDbHatch
 10
0.0
 20
0.0
 30
0.0
210
0.0
220
0.0
230
1.0
  2
ANSI31
 70
     0
 71
     0
 91
        1
 92
        0
 93
        4
 72
     1
 10
84.03814195699118
 20
58.35023636986808
 11
84.03814195699118
 21
56.85023636986808
 72
     1
 10
84.03814195699118
 20
56.85023636986808
 11
84.78814195699115
 21
56.85023636986808
 72
     1
 10
84.78814195699115
 20
56.85023636986808
 11
84.78814195699115
 21
58.35023636986808
 72
     1
 10
84.78814195699115
 20
58.35023636986808
 11
84.03814195699118
 21
58.35023636986808
 97
        0
 75
     0
 76
     1
 52
0.0
 41
1.0
 77
     0
 78
     1
 53
45.0
 43
0.0
 44
0.0
 45
-2.245064030267288
 46
2.245064030267288
 79
     0
 98
        1
 10
0.0
 20
0.0
  0
HATCH
  5
1E9
330
1F
100
AcDbEntity
  8
DIM
  6
Continuous
370
    18
100
AcDbHatch
 10
0.0
 20
0.0
 30
0.0
210
0.0
220
0.0
230
1.0
  2
ANSI31
 70
     0
 71
     0
 91
        1
 92
        0
 93
        4
 72
     1
 10
150.0381419569912
 20
56.85023636986808
 11
150.0381419569912
 21
58.35023636986808
 72
     1
 10
150.0381419569912
 20
58.35023636986808
 11
149.2881419569913
 21
58.35023636986808
 72
     1
 10
149.2881419569913
 20
58.35023636986808
 11
149.2881419569913
 21
56.85023636986808
 72
     1
 10
149.2881419569913
 20
56.85023636986808
 11
150.0381419569912
 21
56.85023636986808
 97
        0
 75
     0
 76
     1
 52
0.0
 41
1.0
 77
     0
 78
     1
 53
45.0
 43
0.0
 44
0.0
 45
-2.245064030267288
 46
2.245064030267288
 79
     0
 98
        1
 10
0.0
 20
0.0
  0
HATCH
  5
1EA
330
1F
100
AcDbEntity
  8
DIM
  6
Continuous
370
    18
100
AcDbHatch
 10
0.0
 20
0.0
 30
0.0
210
0.0
220
0.0
230
1.0
  2
ANSI31
 70
     0
 71
     0
 91
        1
 92
        0
 93
        9
 72
     1
 10
126.2469878994502
 20
88.82899684985318
 11
123.7045847497688
 21
90.29685399271031
 72
     1
 10
123.7045847497688
 20
90.29685399271031
 11
123.4545847497688
 21
89.86384129081809
 72
     2
 10
122.7045847497688
 20
88.56480318514143
 40
1.500000000000002
 50
300.0000000000008
 51
480.0000000000006
 73
     0
 72
     1
 10
121.9545847497688
 20
87.26576507946476
 11
121.5215720478765
 21
87.51576507946476
 72
     1
 10
121.5215720478765
 20
87.51576507946476
 11
121.0215720478765
 21
86.64973967568034
 72
     1
 10
121.0215720478765
 20
86.64973967568034
 11
121.3246809392011
 21
86.47473967568034
 72
     1
 10
121.3246809392011
 20
86.47473967568034
 11
120.3246809392011
 21
84.74268886811146
 72
     1
 10
120.3246809392011
 20
84.74268886811146
 11
122.2732380977161
 21
83.61768886811146
 72
     1
 10
122.2732380977161
 20
83.61768886811146
 11
126.2469878994502
 21
88.82899684985318
 97
        0
 75
     0
 76
     1
 52
0.0
 41
1.0
 77
     0
 78
     1
 53
45.0
 43
0.0
 44
0.0
 45
-2.245064030267288
 46
2.245064030267288
 79
     0
 98
        1
 10
0.0
 20
0.0
  0
HATCH
  5
1EB
330
1F
100
AcDbEntity
  8
DIM
  6
Continuous
370
    18
100
AcDbHatch
 10
0.0
 20
0.0
 30
0.0
210
0.0
220
0.0
230
1.0
  2
ANSI31
 70
     0
 71
     0
 91
        1
 92
        0
 93
        9
 72
     1
 10
141.0250928254576
 20
80.29685399271035
 11
138.4826896757761
 21
81.7647111355675
 72
     1
 10
138.4826896757761
 20
81.7647111355675
 11
135.9564394775102
 21
75.7176888681115
 72
     1
 10
135.9564394775102
 20
75.7176888681115
 11
137.9049966360252
 21
74.59268886811151
 72
     1
 10
137.9049966360252
 20
74.59268886811151
 11
138.9049966360252
 21
76.32473967568038
 72
     1
 10
138.9049966360252
 20
76.32473967568038
 11
139.2081055273498
 21
76.14973967568038
 72
     1
 10
139.2081055273498
 20
76.14973967568038
 11
139.7081055273498
 21
77.01576507946483
 72
     1
 10
139.7081055273498
 20
77.01576507946483
 11
139.2750928254576
 21
77.26576507946481
 72
     2
 10
140.0250928254576
 20
78.56480318514147
 40
1.500000000000002
 50
120.0
 51
300.0000000000005
 73
     0
 72
     1
 10
140.7750928254576
 20
79.86384129081814
 11
141.0250928254576
 21
80.29685399271035
 97
        0
 75
     0
 76
     1
 52
0.0
 41
1.0
 77
     0
 78
     1
 53
45.0
 43
0.0
 44
0.0
 45
-2.245064030267288
 46
2.245064030267288
 79
     0
 98
        1
 10
0.0
 20
0.0
  0
HATCH
  5
1EC
330
1F
100
AcDbEntity
  8
DIM
  6
Continuous
370
    18
100
AcDbHatch
 10
0.0
 20
0.0
 30
0.0
210
0.0
220
0.0
230
1.0
  2
ANSI31
 70
     0
 71
     0
 91
        1
 92
        0
 93
        9
 72
     1
 10
95.5935942382064
 20
81.76471113556758
 11
93.05119108852493
 21
80.29685399271045
 72
     1
 10
93.05119108852493
 20
80.29685399271045
 11
93.30119108852492
 21
79.86384129081823
 72
     2
 10
94.05119108852492
 20
78.56480318514157
 40
1.500000000000002
 50
240.0000000000008
 51
420.0000000000013
 73
     0
 72
     1
 10
94.8011910885249
 20
77.26576507946491
 11
94.36817838663269
 21
77.01576507946491
 72
     1
 10
94.36817838663269
 20
77.01576507946491
 11
94.86817838663268
 21
76.14973967568046
 72
     1
 10
94.86817838663268
 20
76.14973967568046
 11
95.17128727795723
 21
76.32473967568048
 72
     1
 10
95.17128727795723
 20
76.32473967568048
 11
96.17128727795723
 21
74.59268886811158
 72
     1
 10
96.17128727795723
 20
74.59268886811158
 11
98.11984443647222
 21
75.71768886811158
 72
     1
 10
98.11984443647222
 20
75.71768886811158
 11
95.5935942382064
 21
81.76471113556758
 97
        0
 75
     0
 76
     1
 52
0.0
 41
1.0
 77
     0
 78
     1
 53
45.0
 43
0.0
 44
0.0
 45
-2.245064030267288
 46
2.245064030267288
 79
     0
 98
        1
 10
0.0
 20
0.0
  0
HATCH
  5
1ED
330
1F
100
AcDbEntity
  8
DIM
  6
Continuous
370
    18
100
AcDbHatch
 10
0.0
 20
0.0
 30
0.0
210
0.0
220
0.0
230
1.0
  2
ANSI31
 70
     0
 71
     0
 91
        1
 92
        0
 93
        9
 72
     1
 10
110.3716991642138
 20
90.29685399271035
 11
107.8292960145323
 21
88.82899684985323
 72
     1
 10
107.8292960145323
 20
88.82899684985323
 11
111.8030458162664
 21
83.6176888681115
 72
     1
 10
111.8030458162664
 20
83.6176888681115
 11
113.7516029747814
 21
84.74268886811149
 72
     1
 10
113.7516029747814
 20
84.74268886811149
 11
112.7516029747814
 21
86.47473967568037
 72
     1
 10
112.7516029747814
 20
86.47473967568037
 11
113.0547118661059
 21
86.64973967568037
 72
     1
 10
113.0547118661059
 20
86.64973967568037
 11
112.554711866106
 21
87.5157650794648
 72
     1
 10
112.554711866106
 20
87.5157650794648
 11
112.1216991642138
 21
87.2657650794648
 72
     2
 10
111.3716991642137
 20
88.56480318514147
 40
1.500000000000002
 50
59.99999999999981
 51
240.0000000000013
 73
     0
 72
     1
 10
110.6216991642138
 20
89.86384129081813
 11
110.3716991642138
 21
90.29685399271035
 97
        0
 75
     0
 76
     1
 52
0.0
 41
1.0
 77
     0
 78
     1
 53
45.0
 43
0.0
 44
0.0
 45
-2.245064030267288
 46
2.245064030267288
 79
     0
 98
        1
 10
0.0
 20
0.0
  0
HATCH
  5
1EE
330
1F
100
AcDbEntity
  8
DIM
  6
Continuous
370
    18
100
AcDbHatch
 10
0.0
 20
0.0
 30
0.0
210
0.0
220
0.0
230
1.0
  2
ANSI31
 70
     0
 71
     0
 91
        1
 92
        0
 93
        4
 72
     1
 10
88.78814195699121
 20
55.35023636986808
 11
88.78814195699121
 21
56.85023636986808
 72
     1
 10
88.78814195699121
 20
56.85023636986808
 11
86.83814195699122
 21
56.85023636986808
 72
     1
 10
86.83814195699122
 20
56.85023636986808
 11
86.83814195699122
 21
55.35023636986808
 72
     1
 10
86.83814195699122
 20
55.35023636986808
 11
88.78814195699121
 21
55.35023636986808
 97
        0
 75
     0
 76
     1
 52
0.0
 41
1.0
 77
     0
 78
     1
 53
45.0
 43
0.0
 44
0.0
 45
-2.245064030267288
 46
2.245064030267288
 79
     0
 98
        1
 10
0.0
 20
0.0
  0
HATCH
  5
1EF
330
1F
100
AcDbEntity
  8
DIM
  6
Continuous
370
    18
100
AcDbHatch
 10
0.0
 20
0.0
 30
0.0
210
0.0
220
0.0
230
1.0
  2
ANSI31
 70
     0
 71
     0
 91
        1
 92
        0
 93
        6
 72
     1
 10
82.53814195699121
 20
55.35023636986808
 11
85.23814195699121
 21
55.35023636986808
 72
     1
 10
85.23814195699121
 20
55.35023636986808
 11
85.23814195699121
 21
56.85023636986808
 72
     1
 10
85.23814195699121
 20
56.85023636986808
 11
83.78814195699121
 21
56.85023636986808
 72
     1
 10
83.78814195699121
 20
56.85023636986808
 11
83.78814195699121
 21
60.85023636986808
 72
     1
 10
83.78814195699121
 20
60.85023636986808
 11
82.53814195699121
 21
60.85023636986808
 72
     1
 10
82.53814195699121
 20
60.85023636986808
 11
82.53814195699121
 21
55.35023636986808
 97
        0
 75
     0
 76
     1
 52
0.0
 41
1.0
 77
     0
 78
     1
 53
45.0
 43
0.0
 44
0.0
 45
-2.245064030267288
 46
2.245064030267288
 79
     0
 98
        1
 10
0.0
 20
0.0
  0
HATCH
  5
1F0
330
1F
100
AcDbEntity
  8
DIM
  6
Continuous
370
    18
100
AcDbHatch
 10
0.0
 20
0.0
 30
0.0
210
0.0
220
0.0
230
1.0
  2
ANSI31
 70
     0
 71
     0
 91
        1
 92
        0
 93
        6
 72
     1
 10
151.5381419569912
 20
60.85023636986808
 11
150.2881419569912
 21
60.85023636986808
 72
     1
 10
150.2881419569912
 20
60.85023636986808
 11
150.2881419569912
 21
56.85023636986808
 72
     1
 10
150.2881419569912
 20
56.85023636986808
 11
148.8381419569912
 21
56.85023636986808
 72
     1
 10
148.8381419569912
 20
56.85023636986808
 11
148.8381419569912
 21
55.35023636986808
 72
     1
 10
148.8381419569912
 20
55.35023636986808
 11
151.5381419569912
 21
55.35023636986808
 72
     1
 10
151.5381419569912
 20
55.35023636986808
 11
151.5381419569912
 21
60.85023636986808
 97
        0
 75
     0
 76
     1
 52
0.0
 41
1.0
 77
     0
 78
     1
 53
45.0
 43
0.0
 44
0.0
 45
-2.245064030267288
 46
2.245064030267288
 79
     0
 98
        1
 10
0.0
 20
0.0
  0
HATCH
  5
1F1
330
1F
100
AcDbEntity
  8
DIM
  6
Continuous
370
    18
100
AcDbHatch
 10
0.0
 20
0.0
 30
0.0
210
0.0
220
0.0
230
1.0
  2
ANSI31
 70
     0
 71
     0
 91
        1
 92
        0
 93
        4
 72
     1
 10
145.2881419569912
 20
56.85023636986808
 11
145.2881419569912
 21
55.35023636986808
 72
     1
 10
145.2881419569912
 20
55.35023636986808
 11
147.2381419569912
 21
55.35023636986808
 72
     1
 10
147.2381419569912
 20
55.35023636986808
 11
147.2381419569912
 21
56.85023636986808
 72
     1
 10
147.2381419569912
 20
56.85023636986808
 11
145.2881419569912
 21
56.85023636986808
 97
        0
 75
     0
 76
     1
 52
0.0
 41
1.0
 77
     0
 78
     1
 53
45.0
 43
0.0
 44
0.0
 45
-2.245064030267288
 46
2.245064030267288
 79
     0
 98
        1
 10
0.0
 20
0.0
  0
HATCH
  5
1F2
330
1F
100
AcDbEntity
  8
DIM
  6
Continuous
370
    18
100
AcDbHatch
 10
0.0
 20
0.0
 30
0.0
210
0.0
220
0.0
230
1.0
  2
ANSI31
 70
     0
 71
     0
 91
        1
 92
        0
 93
       16
 72
     1
 10
147.8260099226352
 20
60.85023636986809
 11
146.8881419569912
 21
60.85023636986809
 72
     2
 10
146.8881419569912
 20
60.55023636986807
 40
0.3
 50
90.0
 51
180.0
 73
     1
 72
     2
 10
146.8881419569912
 20
60.55023636986807
 40
0.3
 50
180.0
 51
270.0000000000008
 73
     1
 72
     1
 10
146.8881419569912
 20
60.25023636986808
 11
147.0881419569912
 21
60.25023636986808
 72
     1
 10
147.0881419569912
 20
60.25023636986808
 11
147.0881419569912
 21
55.45023636986808
 72
     1
 10
147.0881419569912
 20
55.45023636986808
 11
147.2881419569912
 21
55.25023636986808
 72
     1
 10
147.2881419569912
 20
55.25023636986808
 11
148.7881419569912
 21
55.25023636986808
 72
     1
 10
148.7881419569912
 20
55.25023636986808
 11
148.9881419569912
 21
55.45023636986808
 72
     1
 10
148.9881419569912
 20
55.45023636986808
 11
148.9881419569912
 21
60.25023636986808
 72
     1
 10
148.9881419569912
 20
60.25023636986808
 11
149.1881419569912
 21
60.25023636986808
 72
     2
 10
149.1881419569912
 20
60.55023636986807
 40
0.3
 50
270.0000000000008
 51
360.0000000000008
 73
     1
 72
     2
 10
149.1881419569912
 20
60.55023636986807
 40
0.3
 50
0.0
 51
90.0
 73
     1
 72
     1
 10
149.1881419569912
 20
60.85023636986809
 11
148.2502739913472
 21
60.85023636986809
 72
     1
 10
148.2502739913472
 20
60.85023636986809
 11
148.2502739913468
 21
60.65023636986808
 72
     1
 10
148.2502739913468
 20
60.65023636986808
 11
147.8260099226352
 21
60.65023636986808
 72
     1
 10
147.8260099226352
 20
60.65023636986808
 11
147.8260099226352
 21
60.85023636986809
 97
        0
 75
     0
 76
     1
 52
0.0
 41
1.0
 77
     0
 78
     1
 53
45.0
 43
0.0
 44
0.0
 45
-2.245064030267288
 46
2.245064030267288
 79
     0
 98
        1
 10
0.0
 20
0.0
  0
HATCH
  5
1F3
330
1F
100
AcDbEntity
  8
DIM
  6
Continuous
370
    18
100
AcDbHatch
 10
0.0
 20
0.0
 30
0.0
210
0.0
220
0.0
230
1.0
  2
ANSI31
 70
     0
 71
     0
 91
        1
 92
        0
 93
       16
 72
     1
 10
85.82600992263588
 20
60.65023636986808
 11
85.82600992263525
 21
60.85023636986809
 72
     1
 10
85.82600992263525
 20
60.85023636986809
 11
84.8881419569912
 21
60.85023636986809
 72
     2
 10
84.8881419569912
 20
60.55023636986807
 40
0.3
 50
90.0
 51
180.0
 73
     1
 72
     2
 10
84.8881419569912
 20
60.55023636986807
 40
0.3
 50
180.0
 51
270.0000000000008
 73
     1
 72
     1
 10
84.8881419569912
 20
60.25023636986808
 11
85.08814195699121
 21
60.25023636986808
 72
     1
 10
85.08814195699121
 20
60.25023636986808
 11
85.08814195699121
 21
55.45023636986808
 72
     1
 10
85.08814195699121
 20
55.45023636986808
 11
85.28814195699123
 21
55.25023636986808
 72
     1
 10
85.28814195699123
 20
55.25023636986808
 11
86.78814195699123
 21
55.25023636986808
 72
     1
 10
86.78814195699123
 20
55.25023636986808
 11
86.98814195699121
 21
55.45023636986808
 72
     1
 10
86.98814195699121
 20
55.45023636986808
 11
86.98814195699121
 21
60.25023636986808
 72
     1
 10
86.98814195699121
 20
60.25023636986808
 11
87.1881419569912
 21
60.25023636986808
 72
     2
 10
87.1881419569912
 20
60.55023636986807
 40
0.3
 50
270.0000000000008
 51
360.0000000000008
 73
     1
 72
     2
 10
87.1881419569912
 20
60.55023636986807
 40
0.3
 50
0.0
 51
90.0
 73
     1
 72
     1
 10
87.1881419569912
 20
60.85023636986809
 11
86.25027399134716
 21
60.85023636986809
 72
     1
 10
86.25027399134716
 20
60.85023636986809
 11
86.2502739913478
 21
60.65023636986808
 72
     1
 10
86.2502739913478
 20
60.65023636986808
 11
85.82600992263588
 21
60.65023636986808
 97
        0
 75
     0
 76
     1
 52
0.0
 41
1.0
 77
     0
 78
     1
 53
45.0
 43
0.0
 44
0.0
 45
-2.245064030267288
 46
2.245064030267288
 79
     0
 98
        1
 10
0.0
 20
0.0
  0
DIMENSION
  5
1F4
330
1F
100
AcDbEntity
  8
DIM
100
AcDbDimension
  2
_D
 10
105.9614451264
 20
77.9356380605
 30
0.0
 11
108.0993675607
 21
98.5387478745
 31
0.0
 70
   162
  1
<>
 71
     1
 42
-1.0
  3
SLDDIMSTYLE0
100
AcDb2LineAngularDimension
 13
117.038141957
 23
95.2351083546
 33
0.0
 14
117.038141957
 24
26.265647587
 34
0.0
 15
100.7114451264
 25
87.0289048003
 35
0.0
 16
106.4834412089
 26
98.1409158205
 36
0.0
  0
DIMENSION
  5
1FF
330
1F
100
AcDbEntity
  8
DIM
100
AcDbDimension
  2
_D_1
 10
128.1148387876
 20
77.9356380605
 30
0.0
 11
125.339680428
 21
98.6765659592
 31
0.0
 70
   162
  1
<>
 71
     1
 42
-1.0
  3
SLDDIMSTYLE0
100
AcDb2LineAngularDimension
 13
117.038141957
 23
95.2351083546
 33
0.0
 14
117.038141957
 24
26.265647587
 34
0.0
 15
133.3648387876
 25
87.0289048003
 35
0.0
 16
127.5928427051
 26
98.1409158205
 36
0.0
  0
DIMENSION
  5
209
330
1F
100
AcDbEntity
  8
DIM
100
AcDbDimension
  2
_D_2
 10
98.6040066086
 20
110.6790953869
 30
0.0
 11
89.9437525707
 21
105.6790953869
 31
0.0
 70
   160
  1
%%c<>
 71
     2
 42
-1.0
  3
SLDDIMSTYLE1
100
AcDbAlignedDimension
 13
93.0511910885
 23
80.2968539927
 33
0.0
 14
110.3716991642
 24
90.2968539927
 34
0.0
 50
30.0
100
AcDbRotatedDimension
  0
DIMENSION
  5
216
330
1F
100
AcDbEntity
  8
DIM
100
AcDbDimension
  2
_D_3
 10
100.3779220889
 20
101.7351550752
 30
0.0
 11
94.2600712008
 21
98.2030122181
 31
0.0
 70
   160
  1
%%c<>
 71
     2
 42
-1.0
  3
SLDDIMSTYLE1
100
AcDbAlignedDimension
 13
95.5935942382
 23
81.7647111356
 33
0.0
 14
107.8292960145
 24
88.8289968499
 34
0.0
 50
30.0
100
AcDbRotatedDimension
  0
DIMENSION
  5
222
330
1F
100
AcDbEntity
  8
DIM
100
AcDbDimension
  2
_D_4
 10
153.7463418132
 20
102.3307035752
 30
0.0
 11
145.0860877753
 21
107.3307035752
 31
0.0
 70
   160
  1
%%c<>
 71
     2
 42
-1.0
  3
SLDDIMSTYLE1
100
AcDbAlignedDimension
 13
123.7045847498
 23
90.2968539927
 33
0.0
 14
141.0250928255
 24
80.2968539927
 34
0.0
 50
-30.0
100
AcDbRotatedDimension
  0
DIMENSION
  5
22E
330
1F
100
AcDbEntity
  8
DIM
100
AcDbDimension
  2
_D_5
 10
145.8795472458
 20
94.5764442632
 30
0.0
 11
139.7616963576
 21
98.1085871204
 31
0.0
 70
   160
  1
%%c<>
 71
     2
 42
-1.0
  3
SLDDIMSTYLE1
100
AcDbAlignedDimension
 13
126.2469878995
 23
88.8289968499
 33
0.0
 14
138.4826896758
 24
81.7647111356
 34
0.0
 50
-30.0
100
AcDbRotatedDimension
  0
DIMENSION
  5
23A
330
1F
100
AcDbEntity
  8
DIM
100
AcDbDimension
  2
_D_6
 10
127.038141957
 20
20.1968427086
 30
0.0
 11
117.038141957
 21
20.1968427086
 31
0.0
 70
   160
  1
%%c<>
 71
     2
 42
-1.0
  3
SLDDIMSTYLE1
100
AcDbAlignedDimension
 13
107.038141957
 23
32.1968427086
 33
0.0
 14
127.038141957
 24
32.1968427086
 34
0.0
 50
0.0
100
AcDbRotatedDimension
  0
DIMENSION
  5
245
330
1F
100
AcDbEntity
  8
DIM
100
AcDbDimension
  2
_D_7
 10
91.8444034948
 20
65.1748408169
 30
0.0
 11
71.3520607885
 21
71.2199172616
 31
0.0
 70
   163
  1
<>
 71
     1
 42
-1.0
  3
SLDDIMSTYLE2
100
AcDbDiametricDimension
 15
142.2318804191
 25
52.3256319228
 35
0.0
 40
0.0
  0
DIMENSION
  5
251
330
1F
100
AcDbEntity
  8
DIM
100
AcDbDimension
  2
_D_8
 10
141.4903430572
 20
45.1087605936
 30
0.0
 11
72.1365370051
 21
83.3326598634
 31
0.0
 70
   163
  1
<>
 71
     1
 42
-1.0
  3
SLDDIMSTYLE3
100
AcDbDiametricDimension
 15
92.5859408568
 25
72.3917121461
 35
0.0
 40
0.0
  0
DIMENSION
  5
25F
330
1F
100
AcDbEntity
  8
DIM
100
AcDbDimension
  2
_D_9
 10
151.538141957
 20
15.1968427086
 30
0.0
 11
117.038141957
 21
15.1968427086
 31
0.0
 70
   160
  1
%%c<>
 71
     2
 42
-1.0
  3
SLDDIMSTYLE1
100
AcDbAlignedDimension
 13
82.538141957
 23
55.3502363699
 33
0.0
 14
151.538141957
 24
55.3502363699
 34
0.0
100
AcDbRotatedDimension
  0
INSERT
  5
26F
330
1F
100
AcDbEntity
  8
DIM
100
AcDbBlockReference
  2
SW_NOTE_0_2
 10
161.4101123596
 20
73.5665730721
 30
0.0
  0
LEADER
  5
271
330
1F
100
AcDbEntity
  8
DIM
100
AcDbLeader
  3
SLDDIMSTYLE4
 76
     2
 10
135.472389679
 20
58.3502363699
 30
0.0
 10
161.4101123596
 20
73.5665730721
 30
0.0
  0
LINE
  5
272
330
1F
100
AcDbEntity
  8
DIM
  6
CENTERX2
370
    18
100
AcDbLine
 10
105.9614451264
 20
77.9356380605
 30
0.0
 11
100.7114451264
 21
87.0289048003
 31
0.0
  0
LINE
  5
273
330
1F
100
AcDbEntity
  8
DIM
  6
CENTERX2
370
    18
100
AcDbLine
 10
128.1148387876
 20
77.9356380605
 30
0.0
 11
133.3648387876
 21
87.0289048003
 31
0.0
  0
LINE
  5
274
330
1F
100
AcDbEntity
  8
DIM
  6
CENTERX2
370
    18
100
AcDbLine
 10
117.038141957
 20
26.265647587
 30
0.0
 11
117.038141957
 21
95.2351083546
 31
0.0
  0
LINE
  5
275
330
1F
100
AcDbEntity
  8
0
  6
Continuous
 62
     7
370
    35
100
AcDbLine
 10
258.2106741573
 20
133.5750587175
 30
0.0
 11
258.2106741573
 21
138.0660331829
 31
0.0
  0
LINE
  5
276
330
1F
100
AcDbEntity
  8
0
  6
Continuous
 62
     7
370
    35
100
AcDbLine
 10
189.2106741573
 20
138.0660331829
 30
0.0
 11
189.2106741573
 21
133.5750587175
 31
0.0
  0
LINE
  5
277
330
1F
100
AcDbEntity
  8
0
  6
Continuous
 62
     7
370
    35
100
AcDbLine
 10
222.3727190696
 20
167.4456603557
 30
0.0
 11
222.1959423743
 21
167.9012839128
 31
0.0
  0
LINE
  5
278
330
1F
100
AcDbEntity
  8
0
  6
Continuous
 62
     7
370
    35
100
AcDbLine
 10
203.5501834161
 20
160.6669440761
 30
0.0
 11
203.7269601114
 21
160.211320519
 31
0.0
  0
SPLINE
  5
279
330
1F
100
AcDbEntity
  8
0
  6
Continuous
 62
     7
370
    35
100
AcDbSpline
210
0.0
220
0.0
230
1.0
 70
     8
 71
     3
 72
    12
 73
     8
 74
     0
 42
0.00000001
 43
0.00000001
 40
0.0
 40
0.0
 40
0.0
 40
0.0
 40
0.2069565240545856
 40
0.4206454448025006
 40
0.6607389983210575
 40
0.9096269389825167
 40
1.0
 40
1.0
 40
1.0
 40
1.0
 10
221.9491075953524
 20
165.0311419143011
 30
0.0
 10
221.9382671153964
 20
165.0344224012541
 30
0.0
 10
221.9162335093828
 20
165.0410900910011
 30
0.0
 10
221.7250297560657
 20
165.1688294678903
 30
0.0
 10
221.5105863044916
 20
165.4564256329773
 30
0.0
 10
221.4244040511894
 20
165.790967077317
 30
0.0
 10
221.4398170811282
 20
165.9156476163633
 30
0.0
 10
221.4439228365442
 20
165.9488602812648
 30
0.0
  0
SPLINE
  5
27A
330
1F
100
AcDbEntity
  8
0
  6
Continuous
 62
     7
370
    35
100
AcDbSpline
210
0.0
220
0.0
230
1.0
 70
     8
 71
     3
 72
    12
 73
     8
 74
     0
 42
0.00000001
 43
0.00000001
 40
0.0
 40
0.0
 40
0.0
 40
0.0
 40
0.2340426343269866
 40
0.4819567192821778
 40
0.7007464526227911
 40
0.918226071068673
 40
1.0
 40
1.0
 40
1.0
 40
1.0
 10
205.4174458668555
 20
159.7473908815425
 30
0.0
 10
205.4893931866058
 20
159.6656154180486
 30
0.0
 10
205.6375520649557
 20
159.4972177488947
 30
0.0
 10
205.7422655228436
 20
159.1045744303496
 30
0.0
 10
205.7156009458524
 20
158.8232363815681
 30
0.0
 10
205.6655402705552
 20
158.7094490036822
 30
0.0
 10
205.6731759483204
 20
158.7225182237293
 30
0.0
 10
205.6752624711917
 20
158.7260895146319
 30
0.0
  0
LINE
  5
27B
330
1F
100
AcDbEntity
  8
0
  6
Continuous
 62
     7
370
    35
100
AcDbLine
 10
224.2530766059
 20
163.9815303945
 30
0.0
 11
223.8995232153
 21
164.8927775087
 31
0.0
  0
LINE
  5
27C
330
1F
100
AcDbEntity
  8
0
  6
Continuous
 62
     7
370
    35
100
AcDbLine
 10
204.3214763092
 20
157.2967206802
 30
0.0
 11
204.6750296998
 21
156.385473566
 31
0.0
  0
LINE
  5
27D
330
1F
100
AcDbEntity
  8
0
  6
Continuous
 62
     7
370
    35
100
AcDbLine
 10
242.5529385082
 20
145.7696044396
 30
0.0
 11
242.7297152035
 21
146.0211259688
 31
0.0
  0
LINE
  5
27E
330
1F
100
AcDbEntity
  8
0
  6
Continuous
 62
     7
370
    35
100
AcDbLine
 10
226.3668556353
 20
157.5214227802
 30
0.0
 11
226.19007894
 21
157.269901251
 31
0.0
  0
LINE
  5
27F
330
1F
100
AcDbEntity
  8
0
  6
Continuous
 62
     7
370
    35
100
AcDbLine
 10
241.5477964351
 20
143.4699247858
 30
0.0
 11
241.9013498256
 21
143.9729678442
 31
0.0
  0
LINE
  5
280
330
1F
100
AcDbEntity
  8
0
  6
Continuous
 62
     7
370
    35
100
AcDbLine
 10
224.7203472791
 20
156.0482794962
 30
0.0
 11
224.3667938885
 21
155.5452364379
 31
0.0
  0
LINE
  5
281
330
1F
100
AcDbEntity
  8
0
  6
Continuous
 62
     7
370
    35
100
AcDbLine
 10
190.7106741573
 20
136.0246811531
 30
0.0
 11
190.7106741573
 21
135.7166424085
 31
0.0
  0
LINE
  5
282
330
1F
100
AcDbEntity
  8
0
  6
Continuous
 62
     7
370
    35
100
AcDbLine
 10
256.7106741573
 20
135.7166424085
 30
0.0
 11
256.7106741573
 21
136.0246811531
 31
0.0
  0
ARC
  5
283
330
1F
100
AcDbEntity
  8
0
  6
Continuous
 62
     7
370
    35
100
AcDbCircle
 10
223.7106741573
 20
136.0246811531
 30
0.0
 40
28.00000000000001
100
AcDbArc
 50
220.2216426491
 51
319.7783573509
  0
LINE
  5
284
330
1F
100
AcDbEntity
  8
0
  6
Continuous
 62
     7
370
    35
100
AcDbLine
 10
256.7106741573
 20
136.0246811531
 30
0.0
 11
256.7106741573
 21
136.3512974779
 31
0.0
  0
LINE
  5
285
330
1F
100
AcDbEntity
  8
0
  6
Continuous
 62
     7
370
    35
100
AcDbLine
 10
190.7106741573
 20
136.3512974779
 30
0.0
 11
190.7106741573
 21
136.0246811531
 31
0.0
  0
ARC
  5
286
330
1F
100
AcDbEntity
  8
0
  6
Continuous
 62
     7
370
    35
100
AcDbCircle
 10
223.7106741573
 20
136.3512974779
 30
0.0
 40
28.00000000000002
100
AcDbArc
 50
133.2299927072
 51
176.238249233
  0
ARC
  5
287
330
1F
100
AcDbEntity
  8
0
  6
Continuous
 62
     7
370
    35
100
AcDbCircle
 10
223.7106741573
 20
136.3512974779
 30
0.0
 40
28.00000000000002
100
AcDbArc
 50
3.761750767
 51
89.1813670331
  0
LINE
  5
288
330
1F
100
AcDbEntity
  8
0
  6
Continuous
 62
     7
370
    35
100
AcDbLine
 10
256.7106741573
 20
136.3512974779
 30
0.0
 11
256.7106741573
 21
137.5761086957
 31
0.0
  0
LINE
  5
289
330
1F
100
AcDbEntity
  8
0
  6
Continuous
 62
     7
370
    35
100
AcDbLine
 10
190.7106741573
 20
137.5761086957
 30
0.0
 11
190.7106741573
 21
136.3512974779
 31
0.0
  0
SPLINE
  5
28A
330
1F
100
AcDbEntity
  8
0
  6
Continuous
 62
     7
370
    35
100
AcDbSpline
210
0.0
220
0.0
230
1.0
 70
     8
 71
     3
 72
    18
 73
    14
 74
     0
 42
0.00000001
 43
0.00000001
 40
0.0
 40
0.0
 40
0.0
 40
0.0
 40
0.0171682454731729
 40
0.1144706820998881
 40
0.2100019917878372
 40
0.313561765539813
 40
0.4243487205237836
 40
0.535753313834889
 40
0.6478519693504288
 40
0.7621407653666417
 40
0.8652897116463246
 40
0.9596772893244958
 40
1.0
 40
1.0
 40
1.0
 40
1.0
 10
247.0698284007332
 20
125.1578706481415
 30
0.0
 10
247.0735880028015
 20
125.1771419707753
 30
0.0
 10
247.0986554573563
 20
125.3056350920034
 30
0.0
 10
246.9914296833084
 20
125.5432270504064
 30
0.0
 10
246.7649218952493
 20
125.8049180658952
 30
0.0
 10
246.4153704063334
 20
126.0034538435514
 30
0.0
 10
245.9717185899324
 20
126.1229230375988
 30
0.0
 10
245.4765839314669
 20
126.1431404404486
 30
0.0
 10
244.9945195230378
 20
126.0576042787404
 30
0.0
 10
244.5934332664891
 20
125.8759349749023
 30
0.0
 10
244.3152741818126
 20
125.6206208387025
 30
0.0
 10
244.1933091523811
 20
125.3664929692751
 30
0.0
 10
244.1838236585185
 20
125.2127615075898
 30
0.0
 10
244.1809843740859
 20
125.1667452060362
 30
0.0
  0
SPLINE
  5
28B
330
1F
100
AcDbEntity
  8
0
  6
Continuous
 62
     7
370
    35
100
AcDbSpline
210
0.0
220
0.0
230
1.0
 70
     8
 71
     3
 72
    17
 73
    13
 74
     0
 42
0.00000001
 43
0.00000001
 40
0.0
 40
0.0
 40
0.0
 40
0.0
 40
0.0673040485440758
 40
0.1618071630121153
 40
0.2613733537856453
 40
0.3701742193447564
 40
0.4822265511731428
 40
0.594455500576079
 40
0.7081195841887974
 40
0.8250841375511733
 40
0.9233515786506342
 40
1.0
 40
1.0
 40
1.0
 40
1.0
 10
244.1809843740859
 20
125.1667452060362
 30
0.0
 10
244.1887151746425
 20
125.090289823675
 30
0.0
 10
244.2073009645459
 20
124.9064817350906
 30
0.0
 10
244.3743628145203
 20
124.6454468168468
 30
0.0
 10
244.6652949367501
 20
124.4170121243302
 30
0.0
 10
245.066635957158
 20
124.2567239673687
 30
0.0
 10
245.5449259046487
 20
124.1869254828586
 30
0.0
 10
246.0399889267333
 20
124.2215560976923
 30
0.0
 10
246.4964082665452
 20
124.3613178320464
 30
0.0
 10
246.8368741444738
 20
124.5901097149589
 30
0.0
 10
247.0474160965832
 20
124.87030680323
 30
0.0
 10
247.062999658171
 20
125.0702536207287
 30
0.0
 10
247.0698284007332
 20
125.1578706481415
 30
0.0
  0
LINE
  5
28C
330
1F
100
AcDbEntity
  8
0
  6
Continuous
 62
     7
370
    35
100
AcDbLine
 10
244.6809843741
 20
124.4317589629
 30
0.0
 11
244.6809843741
 21
124.2516566045
 31
0.0
  0
LINE
  5
28D
330
1F
100
AcDbEntity
  8
0
  6
Continuous
 62
     7
370
    35
100
AcDbLine
 10
246.5809843741
 20
124.2516566045
 30
0.0
 11
246.5809843741
 21
124.4474244047
 31
0.0
  0
SPLINE
  5
28E
330
1F
100
AcDbEntity
  8
0
  6
Continuous
 62
     7
370
    35
100
AcDbSpline
210
0.0
220
0.0
230
1.0
 70
     8
 71
     3
 72
    15
 73
    11
 74
     0
 42
0.00000001
 43
0.00000001
 40
0.0
 40
0.0
 40
0.0
 40
0.0
 40
0.0460234675129253
 40
0.1754261315893
 40
0.3065187659455055
 40
0.4497805241991673
 40
0.6008242416979982
 40
0.7520995254119307
 40
0.9047609083517422
 40
1.0
 40
1.0
 40
1.0
 40
1.0
 10
225.1435524350311
 20
119.9314175889733
 30
0.0
 10
225.1477044448618
 20
119.9700845273389
 30
0.0
 10
225.1635305236489
 20
120.1174700196637
 30
0.0
 10
225.0330550885146
 20
120.3608803249951
 30
0.0
 10
224.7820700484844
 20
120.6094080741308
 30
0.0
 10
224.4114255526007
 20
120.7933708291342
 30
0.0
 10
223.9518780010227
 20
120.8942240928695
 30
0.0
 10
223.4558371888517
 20
120.8918008575172
 30
0.0
 10
223.0409226185983
 20
120.8023736141605
 30
0.0
 10
222.8289498391574
 20
120.695471238662
 30
0.0
 10
222.7475135490428
 20
120.6544011876488
 30
0.0
  0
SPLINE
  5
28F
330
1F
100
AcDbEntity
  8
0
  6
Continuous
 62
     7
370
    35
100
AcDbSpline
210
0.0
220
0.0
230
1.0
 70
     8
 71
     3
 72
    10
 73
     6
 74
     0
 42
0.00000001
 43
0.00000001
 40
0.0
 40
0.0
 40
0.0
 40
0.0
 40
0.2494440541939206
 40
0.6518725911483112
 40
1.0
 40
1.0
 40
1.0
 40
1.0
 10
222.7475135490428
 20
120.6544011876488
 30
0.0
 10
222.6828760860502
 20
120.6122487440675
 30
0.0
 10
222.5139588888761
 20
120.5020916881724
 30
0.0
 10
222.3190143040988
 20
120.2726965885036
 30
0.0
 10
222.2835706146749
 20
120.0616595157457
 30
0.0
 10
222.2671309077773
 20
119.9637750212968
 30
0.0
  0
SPLINE
  5
290
330
1F
100
AcDbEntity
  8
0
  6
Continuous
 62
     7
370
    35
100
AcDbSpline
210
0.0
220
0.0
230
1.0
 70
     8
 71
     3
 72
    18
 73
    14
 74
     0
 42
0.00000001
 43
0.00000001
 40
0.0
 40
0.0
 40
0.0
 40
0.0
 40
0.0073598972361763
 40
0.1054073718829044
 40
0.1995707396045142
 40
0.3003777048424954
 40
0.4093273827121453
 40
0.5196208620698577
 40
0.6303642339357467
 40
0.7429861758417321
 40
0.8467226383373729
 40
0.9417401321776485
 40
1.0
 40
1.0
 40
1.0
 40
1.0
 10
222.2671309077773
 20
119.9637750212968
 30
0.0
 10
222.2648984827265
 20
119.9555829639239
 30
0.0
 10
222.2329260176261
 20
119.8382575162608
 30
0.0
 10
222.3215737620257
 20
119.6012165640872
 30
0.0
 10
222.5272286351587
 20
119.3282968420103
 30
0.0
 10
222.8583602410707
 20
119.117884935003
 30
0.0
 10
223.2869828117927
 20
118.9831392362674
 30
0.0
 10
223.7779930089712
 20
118.9446586963389
 30
0.0
 10
224.2658126938501
 20
119.0117766626775
 30
0.0
 10
224.6847495066446
 20
119.1771523029947
 30
0.0
 10
224.9812345971567
 20
119.4196331919673
 30
0.0
 10
225.1485518639604
 20
119.6854455884645
 30
0.0
 10
225.144929337193
 20
119.8636739758394
 30
0.0
 10
225.1435524350311
 20
119.9314175889733
 30
0.0
  0
LINE
  5
291
330
1F
100
AcDbEntity
  8
0
  6
Continuous
 62
     7
370
    35
100
AcDbLine
 10
222.7606741573
 20
119.2021925556
 30
0.0
 11
222.7606741573
 21
119.0100632631
 31
0.0
  0
LINE
  5
292
330
1F
100
AcDbEntity
  8
0
  6
Continuous
 62
     7
370
    35
100
AcDbLine
 10
224.6606741573
 20
119.0100632631
 30
0.0
 11
224.6606741573
 21
119.191179404
 31
0.0
  0
SPLINE
  5
293
330
1F
100
AcDbEntity
  8
0
  6
Continuous
 62
     7
370
    35
100
AcDbSpline
210
0.0
220
0.0
230
1.0
 70
     8
 71
     3
 72
    11
 73
     7
 74
     0
 42
0.00000001
 43
0.00000001
 40
0.0
 40
0.0
 40
0.0
 40
0.0
 40
0.09557773108443
 40
0.4612340594525641
 40
0.8234063132262069
 40
1.0
 40
1.0
 40
1.0
 40
1.0
 10
194.1458318564202
 20
137.8039546965752
 30
0.0
 10
194.1509011640582
 20
137.8324643729058
 30
0.0
 10
194.1753643660404
 20
137.9700448908621
 30
0.0
 10
194.0615246452128
 20
138.2126217715509
 30
0.0
 10
193.875870519233
 20
138.4232252389676
 30
0.0
 10
193.7237093143049
 20
138.5189455832111
 30
0.0
 10
193.6738347655632
 20
138.550320262301
 30
0.0
  0
SPLINE
  5
294
330
1F
100
AcDbEntity
  8
0
  6
Continuous
 62
     7
370
    35
100
AcDbSpline
210
0.0
220
0.0
230
1.0
 70
     8
 71
     3
 72
    15
 73
    11
 74
     0
 42
0.00000001
 43
0.00000001
 40
0.0
 40
0.0
 40
0.0
 40
0.0
 40
0.0819243340115446
 40
0.2328709787007719
 40
0.3836540832563158
 40
0.5355506576564557
 40
0.6906077919280657
 40
0.829025863681564
 40
0.9568841812181329
 40
0.9999999999999999
 40
0.9999999999999999
 40
0.9999999999999999
 40
0.9999999999999999
 10
193.6738347655632
 20
138.550320262301
 30
0.0
 10
193.6040499257918
 20
138.5861448930532
 30
0.0
 10
193.4056856164312
 20
138.6879768691748
 30
0.0
 10
193.0105715623045
 20
138.7822091799306
 30
0.0
 10
192.5146797985992
 20
138.7945414722964
 30
0.0
 10
192.0363966425612
 20
138.6999264968418
 30
0.0
 10
191.6412160288167
 20
138.5105517820234
 30
0.0
 10
191.3821578359127
 20
138.2485577719565
 30
0.0
 10
191.2521254174108
 20
137.9990993623164
 30
0.0
 10
191.2741804659018
 20
137.8557820006622
 30
0.0
 10
191.2797422514118
 20
137.8196405963163
 30
0.0
  0
SPLINE
  5
295
330
1F
100
AcDbEntity
  8
0
  6
Continuous
 62
     7
370
    35
100
AcDbSpline
210
0.0
220
0.0
230
1.0
 70
     8
 71
     3
 72
    17
 73
    13
 74
     0
 42
0.00000001
 43
0.00000001
 40
0.0
 40
0.0
 40
0.0
 40
0.0
 40
0.0706828217726177
 40
0.1665127161585758
 40
0.2668413531381995
 40
0.3764102196527678
 40
0.4888619584802143
 40
0.6015235757673417
 40
0.715702979746444
 40
0.8333116265759282
 40
0.9314162232349222
 40
1.0
 40
1.0
 40
1.0
 40
1.0
 10
191.2797422514118
 20
137.8196405963163
 30
0.0
 10
191.2808050440275
 20
137.7388262624619
 30
0.0
 10
191.2833087426731
 20
137.5484459989526
 30
0.0
 10
191.4683757197353
 20
137.2869357510352
 30
0.0
 10
191.7630576932183
 20
137.0608227705677
 30
0.0
 10
192.1704750494234
 20
136.9048816614438
 30
0.0
 10
192.6510704526906
 20
136.8404132745583
 30
0.0
 10
193.145300375611
 20
136.8806948579152
 30
0.0
 10
193.5984157833354
 20
137.0259582668469
 30
0.0
 10
193.9320084131242
 20
137.259723442194
 30
0.0
 10
194.1313650684625
 20
137.5357583156301
 30
0.0
 10
194.1416146681342
 20
137.7257732343615
 30
0.0
 10
194.1458318564202
 20
137.8039546965752
 30
0.0
  0
LINE
  5
296
330
1F
100
AcDbEntity
  8
0
  6
Continuous
 62
     7
370
    35
100
AcDbLine
 10
191.7606741573
 20
137.0859514151
 30
0.0
 11
191.7606741573
 21
136.9059823377
 31
0.0
  0
LINE
  5
297
330
1F
100
AcDbEntity
  8
0
  6
Continuous
 62
     7
370
    35
100
AcDbLine
 10
193.6606741573
 20
136.9059823377
 30
0.0
 11
193.6606741573
 21
137.0996428658
 31
0.0
  0
SPLINE
  5
298
330
1F
100
AcDbEntity
  8
0
  6
Continuous
 62
     7
370
    35
100
AcDbSpline
210
0.0
220
0.0
230
1.0
 70
     8
 71
     3
 72
    13
 73
     9
 74
     0
 42
0.00000001
 43
0.00000001
 40
0.0
 40
0.0
 40
0.0
 40
0.0
 40
0.0613787574922174
 40
0.2539653937059661
 40
0.4485075659014841
 40
0.6609969698720335
 40
0.8854101631654973
 40
1.0
 40
1.0
 40
1.0
 40
1.0
 10
203.2240324022142
 20
125.1776590175555
 30
0.0
 10
203.2279931638168
 20
125.212312195683
 30
0.0
 10
203.2443815108746
 20
125.3556958089375
 30
0.0
 10
203.1166862541637
 20
125.5964580530767
 30
0.0
 10
202.8684573243039
 20
125.8465588219373
 30
0.0
 10
202.4999820951267
 20
126.0311230046779
 30
0.0
 10
202.1178773031515
 20
126.1199379222222
 30
0.0
 10
201.8731026816213
 20
126.1279259582342
 30
0.0
 10
201.7903639405199
 20
126.130626074935
 30
0.0
  0
SPLINE
  5
299
330
1F
100
AcDbEntity
  8
0
  6
Continuous
 62
     7
370
    35
100
AcDbSpline
210
0.0
220
0.0
230
1.0
 70
     8
 71
     3
 72
    13
 73
     9
 74
     0
 42
0.00000001
 43
0.00000001
 40
0.0
 40
0.0
 40
0.0
 40
0.0
 40
0.1179793833017495
 40
0.3420664028913666
 40
0.5721330966932472
 40
0.7738184711258154
 40
0.9617062229741863
 40
1.0
 40
1.0
 40
1.0
 40
1.0
 10
201.7903639405199
 20
126.130626074935
 30
0.0
 10
201.7044141695767
 20
126.1277149195582
 30
0.0
 10
201.4552136045877
 20
126.1192743902035
 30
0.0
 10
201.056691175118
 20
126.0243199127879
 30
0.0
 10
200.6751471035122
 20
125.8241382862659
 30
0.0
 10
200.435611283821
 20
125.5521400148139
 30
0.0
 10
200.3238112090511
 20
125.311416966177
 30
0.0
 10
200.3492600127867
 20
125.1844868213913
 30
0.0
 10
200.3535686352489
 20
125.1629968496573
 30
0.0
  0
SPLINE
  5
29A
330
1F
100
AcDbEntity
  8
0
  6
Continuous
 62
     7
370
    35
100
AcDbSpline
210
0.0
220
0.0
230
1.0
 70
     8
 71
     3
 72
    17
 73
    13
 74
     0
 42
0.00000001
 43
0.00000001
 40
0.0
 40
0.0
 40
0.0
 40
0.0
 40
0.08135829290759
 40
0.1766196434280005
 40
0.2773542875066102
 40
0.3868971530745235
 40
0.4984925856478655
 40
0.6104017207571539
 40
0.7240080466512354
 40
0.841275685810206
 40
0.9375346135173891
 40
1.0
 40
1.0
 40
1.0
 40
1.0
 10
200.3535686352489
 20
125.1629968496573
 30
0.0
 10
200.3602464168374
 20
125.0694264589358
 30
0.0
 10
200.3747431246825
 20
124.8662957336707
 30
0.0
 10
200.5789075512187
 20
124.6008072619935
 30
0.0
 10
200.8885711456229
 20
124.3825704072699
 30
0.0
 10
201.3077974407034
 20
124.2369239521337
 30
0.0
 10
201.7938085112758
 20
124.1853163883233
 30
0.0
 10
202.2853683643815
 20
124.2389641268097
 30
0.0
 10
202.7298200464436
 20
124.3973889249349
 30
0.0
 10
203.0481099214241
 20
124.6427331975693
 30
0.0
 10
203.2270227993367
 20
124.9232983279334
 30
0.0
 10
203.224876909492
 20
125.1058259315893
 30
0.0
 10
203.2240324022142
 20
125.1776590175555
 30
0.0
  0
LINE
  5
29B
330
1F
100
AcDbEntity
  8
0
  6
Continuous
 62
     7
370
    35
100
AcDbLine
 10
200.8403639405
 20
124.4390462543
 30
0.0
 11
200.8403639405
 21
124.2516566045
 31
0.0
  0
LINE
  5
29C
330
1F
100
AcDbEntity
  8
0
  6
Continuous
 62
     7
370
    35
100
AcDbLine
 10
202.7403639405
 20
124.2516566045
 30
0.0
 11
202.7403639405
 21
124.4376443252
 31
0.0
  0
SPLINE
  5
29D
330
1F
100
AcDbEntity
  8
0
  6
Continuous
 62
     7
370
    35
100
AcDbSpline
210
0.0
220
0.0
230
1.0
 70
     8
 71
     3
 72
    17
 73
    13
 74
     0
 42
0.00000001
 43
0.00000001
 40
0.0
 40
0.0
 40
0.0
 40
0.0
 40
0.0706828217726198
 40
0.1665127161585775
 40
0.2668413531382011
 40
0.3764102196527699
 40
0.4888619584802157
 40
0.6015235757673437
 40
0.7157029797464458
 40
0.8333116265759306
 40
0.9314162232349241
 40
1.0
 40
1.0
 40
1.0
 40
1.0
 10
256.1416060631946
 20
137.8225012822606
 30
0.0
 10
256.140543270579
 20
137.903315616115
 30
0.0
 10
256.1380395719333
 20
138.0936958796243
 30
0.0
 10
255.9529725948711
 20
138.3552061275416
 30
0.0
 10
255.6582906213881
 20
138.5813191080092
 30
0.0
 10
255.250873265183
 20
138.737260217133
 30
0.0
 10
254.7702778619158
 20
138.8017286040185
 30
0.0
 10
254.2760479389954
 20
138.7614470206617
 30
0.0
 10
253.822932531271
 20
138.6161836117299
 30
0.0
 10
253.4893399014823
 20
138.3824184363829
 30
0.0
 10
253.289983246144
 20
138.1063835629468
 30
0.0
 10
253.2797336464723
 20
137.9163686442154
 30
0.0
 10
253.2755164581862
 20
137.8381871820017
 30
0.0
  0
SPLINE
  5
29E
330
1F
100
AcDbEntity
  8
0
  6
Continuous
 62
     7
370
    35
100
AcDbSpline
210
0.0
220
0.0
230
1.0
 70
     8
 71
     3
 72
    11
 73
     7
 74
     0
 42
0.00000001
 43
0.00000001
 40
0.0
 40
0.0
 40
0.0
 40
0.0
 40
0.095577731084435
 40
0.461234059452565
 40
0.8234063132262054
 40
1.0
 40
1.0
 40
1.0
 40
1.0
 10
253.2755164581862
 20
137.8381871820017
 30
0.0
 10
253.2704471505482
 20
137.809677505671
 30
0.0
 10
253.2459839485661
 20
137.6720969877148
 30
0.0
 10
253.3598236693936
 20
137.429520107026
 30
0.0
 10
253.5454777953734
 20
137.2189166396092
 30
0.0
 10
253.6976390003016
 20
137.1231962953657
 30
0.0
 10
253.7475135490433
 20
137.0918216162759
 30
0.0
  0
SPLINE
  5
29F
330
1F
100
AcDbEntity
  8
0
  6
Continuous
 62
     7
370
    35
100
AcDbSpline
210
0.0
220
0.0
230
1.0
 70
     8
 71
     3
 72
    15
 73
    11
 74
     0
 42
0.00000001
 43
0.00000001
 40
0.0
 40
0.0
 40
0.0
 40
0.0
 40
0.0819243340115444
 40
0.2328709787007731
 40
0.3836540832563173
 40
0.5355506576564569
 40
0.6906077919280672
 40
0.8290258636815657
 40
0.9568841812181351
 40
1.0
 40
1.0
 40
1.0
 40
1.0
 10
253.7475135490433
 20
137.0918216162759
 30
0.0
 10
253.8172983888146
 20
137.0559969855237
 30
0.0
 10
254.0156626981752
 20
136.9541650094021
 30
0.0
 10
254.4107767523019
 20
136.8599326986462
 30
0.0
 10
254.9066685160072
 20
136.8476004062805
 30
0.0
 10
255.3849516720452
 20
136.9422153817351
 30
0.0
 10
255.7801322857897
 20
137.1315900965534
 30
0.0
 10
256.0391904786937
 20
137.3935841066203
 30
0.0
 10
256.1692228971957
 20
137.6430425162604
 30
0.0
 10
256.1471678487047
 20
137.7863598779146
 30
0.0
 10
256.1416060631946
 20
137.8225012822606
 30
0.0
  0
LINE
  5
2A0
330
1F
100
AcDbEntity
  8
0
  6
Continuous
 62
     7
370
    35
100
AcDbLine
 10
253.7606741573
 20
137.0855661052
 30
0.0
 11
253.7606741573
 21
136.9059823377
 31
0.0
  0
LINE
  5
2A1
330
1F
100
AcDbEntity
  8
0
  6
Continuous
 62
     7
370
    35
100
AcDbLine
 10
255.6606741573
 20
136.9059823377
 30
0.0
 11
255.6606741573
 21
137.1000996419
 31
0.0
  0
LWPOLYLINE
  5
2A2
330
1F
100
AcDbEntity
  8
0
  6
Continuous
 62
     7
370
    35
100
AcDbPolyline
 90
       34
 70
   128
 43
0.0
 10
199.3154902064
 20
119.4920187885
 10
201.1613037658
 20
118.5015924132
 10
203.1274279728
 20
117.5915895025
 10
205.2033727041
 20
116.7668653157
 10
207.3780618961
 20
116.0318201131
 10
209.6398926413
 20
115.390375679
 10
211.9767970939
 20
114.8459543969
 10
214.3763068576
 20
114.4014609899
 10
216.8256195095
 20
114.0592670227
 10
219.3116669069
 20
113.8211982482
 10
221.8211849114
 20
113.6885248662
 10
224.3407841585
 20
113.6619547466
 10
226.8570214962
 20
113.7416296526
 10
229.3564717094
 20
113.9271244841
 10
231.82579915
 20
114.2174495458
 10
234.2518288874
 20
114.611055828
 10
236.6216170036
 20
115.1058432708
 10
238.9225196534
 20
115.6991719691
 10
241.1422605258
 20
116.3878762576
 10
243.2689963427
 20
117.168281601
 10
245.2913800484
 20
118.0362241991
 10
247.1986213508
 20
118.9870732026
 10
248.9805442923
 20
120.0157554206
 10
250.627641543
 20
121.1167823884
 10
252.1311251265
 20
122.2842796509
 10
253.4829733073
 20
123.5120181048
 10
254.6759733905
 20
124.7934472344
 10
255.7037602045
 20
126.1217300609
 10
256.5608500618
 20
127.4897796206
 10
257.2426700173
 20
128.8902967772
 10
257.7455822665
 20
130.3158091657
 10
258.0669035549
 20
131.7587110608
 10
258.2049194946
 20
133.2113039565
 10
258.2106741573
 20
133.5750587175
  0
LWPOLYLINE
  5
2A3
330
1F
100
AcDbEntity
  8
0
  6
Continuous
 62
     7
370
    35
100
AcDbPolyline
 90
       12
 70
   128
 43
0.0
 10
189.2106741573
 20
133.5750587175
 10
189.262454604
 20
132.4842797937
 10
189.4922765442
 20
131.0355658865
 10
189.9046684409
 20
129.6004012723
 10
190.4974300051
 20
128.1864431752
 10
191.2673985973
 20
126.8012356737
 10
192.210466102
 20
125.4521694488
 10
193.3216008459
 20
124.1464423528
 10
194.5948744445
 20
122.8910210047
 10
196.0234934321
 20
121.6926036204
 10
197.5998355084
 20
120.5575842752
 10
199.3154902064
 20
119.4920187885
  0
LWPOLYLINE
  5
2A4
330
1F
100
AcDbEntity
  8
0
  6
Continuous
 62
     7
370
    35
100
AcDbPolyline
 90
       46
 70
   128
 43
0.0
 10
199.3154902064
 20
123.9829932539
 10
201.1613037658
 20
122.9925668786
 10
203.1274279728
 20
122.0825639679
 10
205.2033727041
 20
121.2578397811
 10
207.3780618961
 20
120.5227945785
 10
209.6398926413
 20
119.8813501444
 10
211.9767970939
 20
119.3369288623
 10
214.3763068576
 20
118.8924354553
 10
216.8256195095
 20
118.5502414881
 10
219.3116669069
 20
118.3121727135
 10
221.8211849114
 20
118.1794993315
 10
224.3407841585
 20
118.152929212
 10
226.8570214962
 20
118.232604118
 10
229.3564717094
 20
118.4180989495
 10
231.82579915
 20
118.7084240112
 10
234.2518288874
 20
119.1020302933
 10
236.6216170036
 20
119.5968177361
 10
238.9225196534
 20
120.1901464345
 10
241.1422605258
 20
120.878850723
 10
243.2689963427
 20
121.6592560664
 10
245.2913800484
 20
122.5271986645
 10
247.1986213508
 20
123.4780476679
 10
248.9805442923
 20
124.506729886
 10
250.627641543
 20
125.6077568538
 10
252.1311251265
 20
126.7752541162
 10
253.4829733073
 20
128.0029925702
 10
254.6759733905
 20
129.2844216998
 10
255.7037602045
 20
130.6127045263
 10
256.5608500618
 20
131.980754086
 10
257.2426700173
 20
133.3812712426
 10
257.7455822665
 20
134.8067836311
 10
258.0669035549
 20
136.2496855262
 10
258.2049194946
 20
137.7022784219
 10
258.1588937106
 20
139.1568121066
 10
257.9290717704
 20
140.6055260139
 10
257.5166798737
 20
142.0406906281
 10
256.9239183095
 20
143.4546487251
 10
256.1539497173
 20
144.8398562267
 10
255.2108822126
 20
146.1889224515
 10
254.0997474687
 20
147.4946495475
 10
252.8264738701
 20
148.7500708957
 10
251.3978548825
 20
149.94848828
 10
249.8215128062
 20
151.0835076251
 10
248.1058581082
 20
152.1490731118
 10
246.2600445488
 20
153.1394994871
 10
246.0362047878
 20
153.2501341854
  0
LWPOLYLINE
  5
2A5
330
1F
100
AcDbEntity
  8
0
  6
Continuous
 62
     7
370
    35
100
AcDbPolyline
 90
       24
 70
   128
 43
0.0
 10
201.3851435268
 20
153.2501341854
 10
200.2227269639
 20
152.6540186978
 10
198.4408040223
 20
151.6253364797
 10
196.7937067716
 20
150.5243095119
 10
195.2902231881
 20
149.3568122495
 10
193.9383750073
 20
148.1290737955
 10
192.7453749241
 20
146.8476446659
 10
191.7175881102
 20
145.5193618394
 10
190.8604982528
 20
144.1513122798
 10
190.1786782973
 20
142.7507951231
 10
189.6757660481
 20
141.3252827346
 10
189.3544447597
 20
139.8823808395
 10
189.2164288201
 20
138.4297879438
 10
189.262454604
 20
136.9752542591
 10
189.4922765442
 20
135.5265403518
 10
189.9046684409
 20
134.0913757376
 10
190.4974300051
 20
132.6774176406
 10
191.2673985973
 20
131.292210139
 10
192.210466102
 20
129.9431439142
 10
193.3216008459
 20
128.6374168182
 10
194.5948744445
 20
127.38199547
 10
196.0234934321
 20
126.1835780857
 10
197.5998355084
 20
125.0485587406
 10
199.3154902064
 20
123.9829932539
  0
LWPOLYLINE
  5
2A6
330
1F
100
AcDbEntity
  8
0
  6
Continuous
 62
     7
370
    35
100
AcDbPolyline
 90
       44
 70
   128
 43
0.0
 10
200.1993736829
 20
124.4932483238
 10
202.0221177323
 20
123.5169051003
 10
203.966152987
 20
122.6219265028
 10
206.0206076132
 20
121.8133176145
 10
208.1739922672
 20
121.0956005044
 10
210.4142643487
 20
120.4727889377
 10
212.7288953473
 20
119.9483659292
 10
215.1049409076
 20
119.5252642653
 10
217.5291132191
 20
119.205850102
 10
219.9878553269
 20
118.9919097328
 10
222.4674169476
 20
118.8846395992
 10
224.953931367
 20
118.8846395992
 10
227.4334929877
 20
118.9919097328
 10
229.8922350955
 20
119.205850102
 10
232.316407407
 20
119.5252642653
 10
234.6924529673
 20
119.9483659292
 10
237.0070839659
 20
120.4727889377
 10
239.2473560474
 20
121.0956005044
 10
241.4007407014
 20
121.8133176145
 10
243.4551953276
 20
122.6219265028
 10
245.3992305823
 20
123.5169051003
 10
247.2219746318
 20
124.4932483238
 10
248.9132339519
 20
125.5454960658
 10
250.4635503345
 20
126.6677637302
 10
251.8642537816
 20
127.8537751409
 10
253.1075109913
 20
129.0968976411
 10
254.186369165
 20
130.3901791855
 10
255.0947948901
 20
131.726387219
 10
255.8277078814
 20
133.0980491243
 10
256.3810093923
 20
134.4974940117
 10
256.7516051363
 20
135.9168956177
 10
256.9374225915
 20
137.3483160727
 10
256.9374225915
 20
138.783750293
 10
256.7516051363
 20
140.215170748
 10
256.3810093923
 20
141.634572354
 10
255.8277078814
 20
143.0340172414
 10
255.0947948901
 20
144.4056791467
 10
254.186369165
 20
145.7418871802
 10
253.1075109913
 20
147.0351687246
 10
251.8642537816
 20
148.2782912248
 10
250.4635503345
 20
149.4643026355
 10
248.9132339519
 20
150.5865702999
 10
247.2219746318
 20
151.6388180419
 10
247.1370728274
 20
151.6876544557
  0
LWPOLYLINE
  5
2A7
330
1F
100
AcDbEntity
  8
0
  6
Continuous
 62
     7
370
    35
100
AcDbPolyline
 90
       23
 70
   128
 43
0.0
 10
200.2842754872
 20
151.6876544557
 10
200.1993736829
 20
151.6388180419
 10
198.5081143627
 20
150.5865702999
 10
196.9577979801
 20
149.4643026355
 10
195.557094533
 20
148.2782912248
 10
194.3138373233
 20
147.0351687246
 10
193.2349791496
 20
145.7418871802
 10
192.3265534245
 20
144.4056791467
 10
191.5936404332
 20
143.0340172414
 10
191.0403389223
 20
141.634572354
 10
190.6697431784
 20
140.215170748
 10
190.4839257231
 20
138.783750293
 10
190.4839257231
 20
137.3483160727
 10
190.6697431784
 20
135.9168956177
 10
191.0403389223
 20
134.4974940117
 10
191.5936404332
 20
133.0980491243
 10
192.3265534246
 20
131.726387219
 10
193.2349791496
 20
130.3901791855
 10
194.3138373233
 20
129.0968976411
 10
195.557094533
 20
127.8537751409
 10
196.9577979801
 20
126.6677637302
 10
198.5081143627
 20
125.5454960658
 10
200.1993736829
 20
124.4932483238
  0
LWPOLYLINE
  5
2A8
330
1F
100
AcDbEntity
  8
0
  6
Continuous
 62
     7
370
    35
100
AcDbPolyline
 90
        3
 70
   128
 43
0.0
 10
256.8401157331
 20
136.4329515591
 10
256.7516051363
 20
136.9490075004
 10
256.7106741573
 20
137.1492607097
  0
LWPOLYLINE
  5
2A9
330
1F
100
AcDbEntity
  8
0
  6
Continuous
 62
     7
370
    35
100
AcDbPolyline
 90
        3
 70
   128
 43
0.0
 10
190.7106741573
 20
137.1492607097
 10
190.6697431784
 20
136.9490075004
 10
190.5812325815
 20
136.4329515591
  0
LWPOLYLINE
  5
2AA
330
1F
100
AcDbEntity
  8
0
  6
Continuous
 62
     7
370
    35
100
AcDbPolyline
 90
       47
 70
   128
 43
0.0
 10
204.2399021788
 20
160.2359392555
 10
204.8106732478
 20
160.1703771468
 10
205.5316313812
 20
160.181446172
 10
206.3893464933
 20
160.2689401362
 10
207.3678409742
 20
160.4312291924
 10
208.4488873233
 20
160.6652902025
 10
209.6123476924
 20
160.9667630528
 10
210.8365490162
 20
161.3300318745
 10
212.0986867403
 20
161.7483296567
 10
213.3752496271
 20
162.2138643032
 10
214.6424577252
 20
162.7179637845
 10
215.8767053454
 20
163.2512376808
 10
217.0550007899
 20
163.8037521086
 10
218.1553946439
 20
164.3652147695
 10
219.1573886521
 20
164.9251666764
 10
220.0423175617
 20
165.4731769847
 10
220.7936968217
 20
165.9990372993
 10
221.3975296581
 20
166.4929518375
 10
221.8425678076
 20
166.945719906
 10
222.1205210515
 20
167.3489072923
 10
222.2262116468
 20
167.6950033782
 10
222.1576707777
 20
167.9775610486
 10
221.9161752309
 20
168.1913167887
 10
221.5062236115
 20
168.3322887334
 10
220.9354525426
 20
168.3978508421
 10
220.2144944091
 20
168.3867818169
 10
219.3567792971
 20
168.2992878527
 10
218.3782848161
 20
168.1369987965
 10
217.2972384671
 20
167.9029377864
 10
216.133778098
 20
167.6014649361
 10
214.9095767742
 20
167.2381961144
 10
213.64743905
 20
166.8198983322
 10
212.3708761633
 20
166.3543636857
 10
211.1036680652
 20
165.8502642045
 10
209.869420445
 20
165.3169903081
 10
208.6911250005
 20
164.7644758803
 10
207.5907311464
 20
164.2030132194
 10
206.5887371383
 20
163.6430613125
 10
205.7038082286
 20
163.0950510042
 10
204.9524289686
 20
162.5691906896
 10
204.3485961323
 20
162.0752761514
 10
203.9035579828
 20
161.6225080829
 10
203.6256047389
 20
161.2193206966
 10
203.5199141436
 20
160.8732246107
 10
203.5884550127
 20
160.5906669403
 10
203.8299505595
 20
160.3769112002
 10
204.2399021788
 20
160.2359392555
  0
LWPOLYLINE
  5
2AB
330
1F
100
AcDbEntity
  8
0
  6
Continuous
 62
     7
370
    35
100
AcDbPolyline
 90
       25
 70
   128
 43
0.0
 10
203.7269601114
 20
160.211320519
 10
203.765231708
 20
160.1350433831
 10
204.0067272547
 20
159.9212876431
 10
204.4166788741
 20
159.7803156984
 10
204.9874499431
 20
159.7147535896
 10
205.7084080765
 20
159.7258226149
 10
206.5661231886
 20
159.8133165791
 10
207.5446176695
 20
159.9756056353
 10
208.6256640186
 20
160.2096666454
 10
209.7891243877
 20
160.5111394957
 10
211.0133257115
 20
160.8744083173
 10
212.2754634356
 20
161.2927060996
 10
213.5520263224
 20
161.7582407461
 10
214.8192344204
 20
162.2623402273
 10
216.0534820407
 20
162.7956141237
 10
217.2317774852
 20
163.3481285515
 10
218.3321713392
 20
163.9095912124
 10
219.3341653474
 20
164.4695431192
 10
220.219094257
 20
165.0175534276
 10
220.970473517
 20
165.5434137422
 10
221.5743063534
 20
166.0373282804
 10
222.0193445028
 20
166.4900963488
 10
222.2972977468
 20
166.8932837351
 10
222.4029883421
 20
167.2393798211
 10
222.3727190696
 20
167.4456603557
  0
LWPOLYLINE
  5
2AC
330
1F
100
AcDbEntity
  8
0
  6
Continuous
 62
     7
370
    35
100
AcDbPolyline
 90
       40
 70
   128
 43
0.0
 10
206.7743515034
 20
161.4243676967
 10
206.4452450864
 20
161.5473404101
 10
206.2826157742
 20
161.7411941217
 10
206.2906755806
 20
162.0009081223
 10
206.469215761
 20
162.3197559557
 10
206.8136122183
 20
162.6894796305
 10
207.3149452652
 20
163.1005034976
 10
207.9602306393
 20
163.5421822549
 10
208.7327557881
 20
164.0030766545
 10
209.6125127163
 20
164.4712497737
 10
210.5767161814
 20
164.9345761744
 10
211.6003938201
 20
165.3810559463
 10
212.6570329194
 20
165.7991254979
 10
213.7192670816
 20
166.1779570474
 10
214.7595849999
 20
166.5077390565
 10
215.7510429866
 20
166.7799303446
 10
216.6679628006
 20
166.9874813002
 10
217.4865967005
 20
167.1250164626
 10
218.1857424982
 20
167.1889737433
 10
218.7472926848
 20
167.1776966824
 10
219.1567034054
 20
167.0914773498
 10
219.4033711375
 20
166.9325487809
 10
219.4809073163
 20
166.7050271422
 10
219.3873037956
 20
166.4148051247
 10
219.1249848572
 20
166.0693993261
 10
218.7007444241
 20
165.6777555751
 10
218.1255701005
 20
165.2500172392
 10
217.4143585993
 20
164.7972625167
 10
216.5855299248
 20
164.331217517
 10
215.6605503043
 20
163.8639525608
 10
214.6633762241
 20
163.4075695651
 10
213.6198339691
 20
162.9738886096
 10
212.5569507355
 20
162.5741418033
 10
211.5022546408
 20
162.2186823787
 10
210.4830617599
 20
161.9167165479
 10
209.5257686529
 20
161.6760650675
 10
208.6551687086
 20
161.5029606843
 10
207.8938100082
 20
161.401886711
 10
207.261411342
 20
161.3754609103
 10
206.7743515034
 20
161.4243676967
  0
LWPOLYLINE
  5
2AD
330
1F
100
AcDbEntity
  8
0
  6
Continuous
 62
     7
370
    35
100
AcDbPolyline
 90
       25
 70
   128
 43
0.0
 10
224.2530766059
 20
163.9815303945
 10
224.2857348621
 20
163.785931686
 10
224.1904227187
 20
163.4348997069
 10
223.9215432799
 20
163.0258464583
 10
223.4838947058
 20
162.5660715052
 10
222.8852868455
 20
162.0637795424
 10
222.1364018705
 20
161.5279339821
 10
221.2506036508
 20
160.9680970007
 10
220.2436992767
 20
160.3942589027
 10
219.1336569806
 20
159.8166598424
 10
217.9402854936
 20
159.2456070887
 10
216.6848805581
 20
158.6912910916
 10
215.3898449049
 20
158.1636036331
 10
214.078288476
 20
157.6719613085
 10
212.7736160269
 20
157.2251374867
 10
211.4991094684
 20
156.8311057493
 10
210.2775124001
 20
156.4968976022
 10
209.1306242508
 20
156.2284769974
 10
208.0789112665
 20
156.0306339072
 10
207.1411412905
 20
155.9068988462
 10
206.3340488502
 20
155.8594798693
 10
205.6720365292
 20
155.8892231695
 10
205.1669179532
 20
155.9955979768
 10
204.8277069751
 20
156.1767060303
 10
204.6750296998
 20
156.385473566
  0
LWPOLYLINE
  5
2AE
330
1F
100
AcDbEntity
  8
0
  6
Continuous
 62
     7
370
    35
100
AcDbPolyline
 90
       32
 70
   128
 43
0.0
 10
223.1753185144
 20
165.3453325704
 10
223.5984281467
 20
165.2012694295
 10
223.8522254721
 20
164.983925336
 10
223.9321814715
 20
164.6971788003
 10
223.8368693281
 20
164.3461468212
 10
223.5679898893
 20
163.9370935726
 10
223.1303413152
 20
163.4773186195
 10
222.5317334549
 20
162.9750266567
 10
221.7828484799
 20
162.4391810963
 10
220.8970502602
 20
161.879344115
 10
219.8901458861
 20
161.305506017
 10
218.78010359
 20
160.7279069566
 10
217.586732103
 20
160.156854203
 10
216.3313271675
 20
159.6025382058
 10
215.0362915143
 20
159.0748507474
 10
213.7247350854
 20
158.5832084228
 10
212.4200626363
 20
158.136384601
 10
211.1455560778
 20
157.7423528636
 10
209.9239590095
 20
157.4081447164
 10
208.7770708602
 20
157.1397241117
 10
207.7253578759
 20
156.9418810215
 10
206.7875878999
 20
156.8181459604
 10
205.9804954596
 20
156.7707269836
 10
205.3184831386
 20
156.8004702838
 10
204.8133645626
 20
156.9068450911
 10
204.4741535845
 20
157.0879531445
 10
204.3069034322
 20
157.3405625666
 10
204.3145986886
 20
157.6601655363
 10
204.4971020318
 20
158.0410587309
 10
204.8511566853
 20
158.4764451023
 10
205.3704445353
 20
158.9585551706
 10
205.6282787077
 20
159.167143268
  0
ARC
  5
2AF
330
1F
100
AcDbEntity
  8
0
  6
Continuous
 62
     7
370
    35
100
AcDbCircle
 10
222.2347935024
 20
159.3508065356
 30
0.0
 40
6.067860387244201
100
AcDbArc
 50
81.083140167
 51
95.4480678932
  0
LWPOLYLINE
  5
2B0
330
1F
100
AcDbEntity
  8
0
  6
Continuous
 62
     7
370
    35
100
AcDbPolyline
 90
       47
 70
   128
 43
0.0
 10
227.8000773603
 20
147.3044955524
 10
228.7449887008
 20
146.3386257616
 10
229.798004479
 20
145.4739559355
 10
230.9395090031
 20
144.726593237
 10
232.1482382039
 20
144.110459619
 10
233.4016757432
 20
143.637032485
 10
234.6764724513
 20
143.3151308869
 10
235.9488812775
 20
143.1507512423
 10
237.195199653
 20
143.146955633
 10
238.3922110244
 20
143.303814764
 10
239.5176173347
 20
143.6184066466
 10
240.5504543939
 20
144.084871029
 10
241.4714824016
 20
144.6945185626
 10
242.2635443487
 20
145.4359926672
 10
242.9118856197
 20
146.2954810832
 10
243.4044288436
 20
147.2569731676
 10
243.731998872
 20
148.3025581421
 10
243.888493695
 20
149.412758737
 10
243.8709981101
 20
150.5668940157
 10
243.6798380271
 20
151.7434646217
 10
243.3185743966
 20
152.9205532708
 10
242.7939368764
 20
154.0762330286
 10
242.115698471
 20
155.1889757678
 10
241.2964934785
 20
156.2380531965
 10
240.351582138
 20
157.2039229873
 10
239.2985663599
 20
158.0685928134
 10
238.1570618357
 20
158.815955512
 10
236.948332635
 20
159.43208913
 10
235.6948950957
 20
159.905516264
 10
234.4200983876
 20
160.2274178621
 10
233.1476895613
 20
160.3917975067
 10
231.9013711859
 20
160.395593116
 10
230.7043598145
 20
160.2387339849
 10
229.5789535041
 20
159.9241421024
 10
228.546116445
 20
159.4576777199
 10
227.6250884373
 20
158.8480301864
 10
226.8330264902
 20
158.1065560818
 10
226.1846852191
 20
157.2470676658
 10
225.6921419952
 20
156.2855755813
 10
225.3645719669
 20
155.2399906068
 10
225.2080771439
 20
154.129790012
 10
225.2255727287
 20
152.9756547333
 10
225.4167328117
 20
151.7990841273
 10
225.7779964423
 20
150.6219954782
 10
226.3026339624
 20
149.4663157204
 10
226.9808723678
 20
148.3535729812
 10
227.8000773603
 20
147.3044955524
  0
LWPOLYLINE
  5
2B1
330
1F
100
AcDbEntity
  8
0
  6
Continuous
 62
     7
370
    35
100
AcDbPolyline
 90
       25
 70
   128
 43
0.0
 10
226.19007894
 20
157.269901251
 10
226.0079085238
 20
156.9955461366
 10
225.5153652999
 20
156.0340540522
 10
225.1877952716
 20
154.9884690776
 10
225.0313004486
 20
153.8782684828
 10
225.0487960334
 20
152.7241332041
 10
225.2399561164
 20
151.5475625981
 10
225.601219747
 20
150.370473949
 10
226.1258572671
 20
149.2147941912
 10
226.8040956726
 20
148.102051452
 10
227.623300665
 20
147.0529740232
 10
228.5682120055
 20
146.0871042325
 10
229.6212277837
 20
145.2224344064
 10
230.7627323078
 20
144.4750717078
 10
231.9714615086
 20
143.8589380898
 10
233.2248990479
 20
143.3855109558
 10
234.499695756
 20
143.0636093577
 10
235.7721045822
 20
142.8992297131
 10
237.0184229577
 20
142.8954341038
 10
238.2154343291
 20
143.0522932349
 10
239.3408406394
 20
143.3668851174
 10
240.3736776986
 20
143.8333494999
 10
241.2947057063
 20
144.4429970334
 10
242.0867676534
 20
145.184471138
 10
242.5529385082
 20
145.7696044396
  0
LWPOLYLINE
  5
2B2
330
1F
100
AcDbEntity
  8
0
  6
Continuous
 62
     7
370
    35
100
AcDbPolyline
 90
       40
 70
   128
 43
0.0
 10
229.7811584405
 20
148.6158141923
 10
229.1088347311
 20
149.4951051864
 10
228.5773899372
 20
150.4333477668
 10
228.2005882
 20
151.4062419436
 10
227.9881884865
 20
152.3885902686
 10
227.9456918377
 20
153.3549504362
 10
228.0741988944
 20
154.2802942257
 10
228.3703813915
 20
155.140655719
 10
228.8265683578
 20
155.9137520053
 10
229.4309447905
 20
156.5795602968
 10
230.1678576575
 20
157.1208365087
 10
231.0182213026
 20
157.5235618713
 10
231.960011754
 20
157.7773060093
 10
232.9688371339
 20
157.8754970827
 10
234.0185693946
 20
157.8155919945
 10
235.0820210222
 20
157.5991422547
 10
236.131649178
 20
157.2317537982
 10
237.1402690442
 20
156.7229417928
 10
238.081757896
 20
156.0858842022
 10
238.9317316667
 20
155.3370804835
 10
239.6681764822
 20
154.4959242596
 10
240.2720188084
 20
153.5842010349
 10
240.7276194464
 20
152.6255239619
 10
241.023178579
 20
151.6447222734
 10
241.1510413798
 20
150.6671982178
 10
241.1078962696
 20
149.7182691547
 10
240.8948606839
 20
148.8225118484
 10
240.5174521326
 20
148.0031259426
 10
239.9854452988
 20
147.2813331019
 10
239.3126188802
 20
146.6758273817
 10
238.5163987276
 20
146.2022910621
 10
237.6174065246
 20
145.872988485
 10
236.6389256971
 20
145.6964484142
 10
235.6062983846
 20
145.6772431449
 10
234.5462690921
 20
145.8158700833
 10
233.4862920214
 20
146.1087388647
 10
232.4538200218
 20
146.5482643414
 10
231.4755935759
 20
147.1230630344
 10
230.5769482347
 20
147.8182479595
 10
229.7811584405
 20
148.6158141923
  0
ARC
  5
2B3
330
1F
100
AcDbEntity
  8
0
  6
Continuous
 62
     7
370
    35
100
AcDbCircle
 10
230.777582584
 20
146.4062405862
 30
0.0
 40
8.878130006040196
100
AcDbArc
 50
3.4454799089
 51
106.3531770984
  0
LWPOLYLINE
  5
2B4
330
1F
100
AcDbEntity
  8
0
  6
Continuous
 62
     7
370
    35
100
AcDbPolyline
 90
       26
 70
   128
 43
0.0
 10
241.5477964351
 20
143.4699247858
 10
241.2162710242
 20
143.0377067225
 10
240.4340491786
 20
142.2472880373
 10
239.5184044804
 20
141.5864294451
 10
238.4856766311
 20
141.0669239832
 10
237.3542946834
 20
140.6980422388
 10
236.1444481751
 20
140.4863669153
 10
234.8777268458
 20
140.435675364
 10
233.5767353676
 20
140.5468721767
 10
232.2646899642
 20
140.8179730437
 10
230.965004117
 20
141.2441401637
 10
229.7008707507
 20
141.8177685742
 10
228.4948483551
 20
142.5286218627
 10
227.3684584285
 20
143.3640148354
 10
226.3418014259
 20
144.3090398849
 10
225.4331980656
 20
145.3468330169
 10
224.6588623963
 20
146.4588747883
 10
224.0326124563
 20
147.6253207873
 10
223.5656236907
 20
148.8253557575
 10
223.2662295248
 20
150.0375650463
 10
223.1397726549
 20
151.2403167504
 10
223.1885097067
 20
152.412147737
 10
223.4115709664
 20
153.5321466545
 10
223.8049759005
 20
154.5803270956
 10
224.3617041886
 20
155.5379842555
 10
224.3667938885
 20
155.5452364379
  0
LWPOLYLINE
  5
2B5
330
1F
100
AcDbEntity
  8
0
  6
Continuous
 62
     7
370
    35
100
AcDbPolyline
 90
       30
 70
   128
 43
0.0
 10
242.9518850755
 20
146.3601995989
 10
242.6807945073
 20
145.4517869713
 10
242.2046646404
 20
144.4466235188
 10
241.5698244148
 20
143.5407497808
 10
240.7876025692
 20
142.7503310957
 10
239.871957871
 20
142.0894725035
 10
238.8392300216
 20
141.5699670416
 10
237.707848074
 20
141.2010852971
 10
236.4980015657
 20
140.9894099737
 10
235.2312802364
 20
140.9387184223
 10
233.9302887581
 20
141.0499152351
 10
232.6182433548
 20
141.3210161021
 10
231.3185575076
 20
141.747183222
 10
230.0544241413
 20
142.3208116326
 10
228.8484017457
 20
143.0316649211
 10
227.7220118191
 20
143.8670578938
 10
226.6953548165
 20
144.8120829433
 10
225.7867514562
 20
145.8498760753
 10
225.0124157869
 20
146.9619178466
 10
224.3861658469
 20
148.1283638457
 10
223.9191770812
 20
149.3283988158
 10
223.6197829154
 20
150.5406081047
 10
223.4933260455
 20
151.7433598088
 10
223.5420630973
 20
152.9151907954
 10
223.765124357
 20
154.0351897129
 10
224.158529291
 20
155.083370154
 10
224.7152575792
 20
156.0410273139
 10
225.4253743918
 20
156.8910717779
 10
226.2762076777
 20
157.6183344825
 10
226.6106337247
 20
157.8453095225
  0
LINE
  5
2B6
330
1F
100
AcDbEntity
  8
0
  6
Continuous
 62
     7
370
    35
100
AcDbLine
 10
190.7106741573
 20
136.0246811531
 30
0.0
 11
190.7156640954
 21
135.6934009816
 31
0.0
  0
LINE
  5
2B7
330
1F
100
AcDbEntity
  8
0
  6
Continuous
 62
     7
370
    35
100
AcDbLine
 10
256.7056842192
 20
135.6934009815
 30
0.0
 11
256.7106741573
 21
136.0246811531
 31
0.0
  0
ARC
  5
2B8
330
1F
100
AcDbEntity
  8
0
  6
Continuous
 62
     7
370
    35
100
AcDbCircle
 10
225.3155098251
 20
115.1486208133
 30
0.0
 40
35.73591308545602
100
AcDbArc
 50
66.4889277313
 51
80.1954209022
  0
LWPOLYLINE
  5
2B9
330
1F
100
AcDbEntity
  8
0
  6
Continuous
 62
     7
370
    35
100
AcDbPolyline
 90
        3
 70
   128
 43
0.0
 10
229.3260542726
 20
150.6799174748
 10
228.5825883365
 20
150.7683025023
 10
228.421331264
 20
150.7857564754
  0
LWPOLYLINE
  5
2BA
330
1F
100
AcDbEntity
  8
0
  6
Continuous
 62
     7
370
    35
100
AcDbPolyline
 90
        3
 70
   128
 43
0.0
 10
190.7106741573
 20
136.3512974779
 10
190.7337508993
 20
135.638976737
 10
190.7364015826
 20
135.5991936798
  0
LWPOLYLINE
  5
2BB
330
1F
100
AcDbEntity
  8
0
  6
Continuous
 62
     7
370
    35
100
AcDbPolyline
 90
        3
 70
   128
 43
0.0
 10
256.684946732
 20
135.5991936798
 10
256.6875974153
 20
135.638976737
 10
256.7106741573
 20
136.3512974779
  0
ARC
  5
2BC
330
1F
100
AcDbEntity
  8
0
  6
Continuous
 62
     7
370
    35
100
AcDbCircle
 10
225.3999554982
 20
115.7508153918
 30
0.0
 40
35.44999831033937
100
AcDbArc
 50
66.5459974222
 51
80.2540655214
  0
LINE
  5
2BD
330
1F
100
AcDbEntity
  8
0
  6
Continuous
 62
     7
370
    35
100
AcDbLine
 10
230.2218215912
 20
148.1488817846
 30
0.0
 11
231.4009160249
 21
150.6892019167
 31
0.0
  0
LINE
  5
2BE
330
1F
100
AcDbEntity
  8
0
  6
Continuous
 62
     7
370
    35
100
AcDbLine
 10
229.4690643723
 20
150.9880280255
 30
0.0
 11
228.2919075718
 21
151.1259420218
 31
0.0
  0
LINE
  5
2BF
330
1F
100
AcDbEntity
  8
0
  6
Continuous
 62
     7
370
    35
100
AcDbLine
 10
229.4690643723
 20
150.9880280255
 30
0.0
 11
228.9172532063
 21
149.7991690383
 31
0.0
  0
LINE
  5
2C0
330
1F
100
AcDbEntity
  8
0
  6
Continuous
 62
     7
370
    35
100
AcDbLine
 10
231.4009160249
 20
150.362585592
 30
0.0
 11
231.4009160249
 21
150.6892019167
 31
0.0
  0
ARC
  5
2C1
330
1F
100
AcDbEntity
  8
0
  6
Continuous
 62
     7
370
    35
100
AcDbCircle
 10
225.4087441221
 20
115.4602200415
 30
0.0
 40
35.41300954630052
100
AcDbArc
 50
66.4261344608
 51
80.2582141728
  0
LINE
  5
2C2
330
1F
100
AcDbEntity
  8
0
  6
Continuous
 62
     7
370
    35
100
AcDbLine
 10
229.3260542726
 20
150.6799174748
 30
0.0
 11
228.421331264
 21
150.7857564754
 31
0.0
  0
LINE
  5
2C3
330
1F
100
AcDbEntity
  8
0
  6
Continuous
 62
     7
370
    35
100
AcDbLine
 10
231.4009160249
 20
150.362585592
 30
0.0
 11
230.326432513
 21
148.0476462461
 31
0.0
  0
LWPOLYLINE
  5
2C4
330
1F
100
AcDbEntity
  8
0
  6
Continuous
 62
     7
370
    35
100
AcDbPolyline
 90
       41
 70
   128
 43
0.0
 10
195.7710004722
 20
138.1883152707
 10
195.7523360463
 20
137.4114753198
 10
195.8686102756
 20
136.0964628763
 10
196.1701688465
 20
134.7912972317
 10
196.6550049364
 20
133.5046640479
 10
197.319892041
 20
132.2451256565
 10
198.1604054465
 20
131.0210640777
 10
199.1709516747
 20
129.8406252393
 10
200.3448057073
 20
128.711664767
 10
201.6741557393
 20
127.6416957066
 10
203.1501551656
 20
126.6378385255
 10
204.7629814536
 20
125.7067737277
 10
206.5019015104
 20
124.8546973959
 10
208.3553431099
 20
124.0872799573
 10
210.310971904
 20
123.4096284485
 10
212.3557735059
 20
122.8262525285
 10
214.4761400981
 20
122.3410344677
 10
216.6579609909
 20
121.9572033122
 10
218.8867165263
 20
121.6773133952
 10
221.1475747038
 20
121.5032273377
 10
223.4254898852
 20
121.4361036539
 10
225.705302921
 20
121.4763890407
 10
227.9718420314
 20
121.6238154055
 10
230.2100237726
 20
121.8774016503
 10
232.4049534145
 20
122.2354602003
 10
234.5420240624
 20
122.695608235
 10
236.6070138637
 20
123.2547835452
 10
238.586180652
 20
123.9092649114
 10
240.4663533988
 20
124.6546968681
 10
242.2350198648
 20
125.4861186887
 10
243.8804098664
 20
126.397997398
 10
245.3915736047
 20
127.3842645938
 10
246.7584545342
 20
128.4383568305
 10
247.971956288
 20
129.5532592983
 10
249.0240032119
 20
130.7215525051
 10
249.9075941075
 20
131.9354616525
 10
250.6168488229
 20
133.1869083753
 10
251.1470473852
 20
134.4675645021
 10
251.4946614103
 20
135.7689074776
 10
251.6573775843
 20
137.082277079
 10
251.6503478424
 20
138.1883152707
  0
ARC
  5
2C5
330
1F
100
AcDbEntity
  8
0
  6
Continuous
 62
     7
370
    35
100
AcDbCircle
 10
224.862591046
 20
114.1749127723
 30
0.0
 40
37.10982045807019
100
AcDbArc
 50
66.7532918583
 51
84.6977352015
  0
LWPOLYLINE
  5
2C6
330
1F
100
AcDbEntity
  8
0
  6
Continuous
 62
     7
370
    35
100
AcDbPolyline
 90
        3
 70
   128
 43
0.0
 10
256.7106741573
 20
136.3512974779
 10
256.6875974153
 20
135.638976737
 10
256.684946732
 20
135.5991936798
  0
LWPOLYLINE
  5
2C7
330
1F
100
AcDbEntity
  8
0
  6
Continuous
 62
     7
370
    35
100
AcDbPolyline
 90
        3
 70
   128
 43
0.0
 10
190.7364015826
 20
135.5991936798
 10
190.7337508993
 20
135.638976737
 10
190.7106741573
 20
136.3512974779
  0
LWPOLYLINE
  5
2C8
330
1F
100
AcDbEntity
  8
0
  6
Continuous
 62
     7
370
    35
100
AcDbPolyline
 90
       16
 70
   128
 43
0.0
 10
247.8253928538
 20
150.5808562268
 10
248.7237410211
 20
150.0025064359
 10
250.2624008896
 20
148.8886768743
 10
251.6525727318
 20
147.7115828426
 10
252.886482143
 20
146.4778071281
 10
253.957228601
 20
145.1942495051
 10
254.8588240575
 20
143.8680881486
 10
255.5862264248
 20
142.5067394906
 10
256.135367774
 20
141.1178167452
 10
256.5031770838
 20
139.7090873318
 10
256.6875974153
 20
138.2884294366
 10
256.6875974153
 20
136.8637879549
 10
256.5031770838
 20
135.4431300597
 10
256.135367774
 20
134.0344006462
 10
255.5862264248
 20
132.6454779008
 10
255.3632158479
 20
132.1879201622
  0
LWPOLYLINE
  5
2C9
330
1F
100
AcDbEntity
  8
0
  6
Continuous
 62
     7
370
    35
100
AcDbPolyline
 90
       16
 70
   128
 43
0.0
 10
192.0581324667
 20
132.1879201623
 10
191.8351218898
 20
132.6454779008
 10
191.2859805406
 20
134.0344006462
 10
190.9181712308
 20
135.4431300597
 10
190.7337508993
 20
136.8637879549
 10
190.7337508993
 20
138.2884294366
 10
190.9181712308
 20
139.7090873318
 10
191.2859805406
 20
141.1178167452
 10
191.8351218898
 20
142.5067394906
 10
192.5625242571
 20
143.8680881486
 10
193.4641197136
 20
145.1942495051
 10
194.5348661717
 20
146.4778071281
 10
195.7687755828
 20
147.7115828426
 10
197.158947425
 20
148.8886768743
 10
198.6976072935
 20
150.0025064359
 10
199.5959554608
 20
150.5808562268
  0
LWPOLYLINE
  5
2CA
330
1F
100
AcDbEntity
  8
0
  6
Continuous
 62
     7
370
    35
100
AcDbPolyline
 90
        9
 70
   128
 43
0.0
 10
200.7297037687
 20
124.3094768786
 10
201.1844824332
 20
124.1296340734
 10
201.7210887526
 20
124.0567753651
 10
202.2670510699
 20
124.1007407261
 10
202.748634149
 20
124.2555923906
 10
203.1007975265
 20
124.5004167833
 10
203.2759795868
 20
124.8021490134
 10
203.2505210221
 20
125.1200384712
 10
203.2492217943
 20
125.1232007569
  0
LWPOLYLINE
  5
2CB
330
1F
100
AcDbEntity
  8
0
  6
Continuous
 62
     7
370
    35
100
AcDbPolyline
 90
        4
 70
   128
 43
0.0
 10
200.3512056904
 20
125.1659036849
 10
200.2919644783
 20
124.8817912477
 10
200.4181731378
 20
124.5720150133
 10
200.7297037687
 20
124.3094768786
  0
LWPOLYLINE
  5
2CC
330
1F
100
AcDbEntity
  8
0
  6
Continuous
 62
     7
370
    35
100
AcDbPolyline
 90
       12
 70
   128
 43
0.0
 10
191.2742844393
 20
137.8256042555
 10
191.2106741573
 20
137.5761086957
 10
191.3119658132
 20
137.2632981332
 10
191.6021607815
 20
136.9927343706
 10
192.0420666236
 20
136.8009585431
 10
192.5722716181
 20
136.713871039
 10
193.1211686424
 20
136.7432335083
 10
193.6146261119
 20
136.8850803867
 10
193.9859998609
 20
137.1202544674
 10
194.1851338068
 20
137.4169941876
 10
194.1851338068
 20
137.7352232038
 10
194.169956703
 20
137.7764986004
  0
LINE
  5
2CD
330
1F
100
AcDbEntity
  8
0
  6
Continuous
 62
     7
370
    35
100
AcDbLine
 10
256.2106741573
 20
137.5761086957
 30
0.0
 11
256.1778295721
 21
137.756325113
 31
0.0
  0
LWPOLYLINE
  5
2CE
330
1F
100
AcDbEntity
  8
0
  6
Continuous
 62
     7
370
    35
100
AcDbPolyline
 90
       12
 70
   128
 43
0.0
 10
253.2950006518
 20
137.8623575664
 10
253.2362145078
 20
137.7352232038
 10
253.2362145078
 20
137.4169941876
 10
253.4353484537
 20
137.1202544674
 10
253.8067222027
 20
136.8850803867
 10
254.3001796722
 20
136.7432335083
 10
254.8490766965
 20
136.713871039
 10
255.379281691
 20
136.8009585431
 10
255.8191875331
 20
136.9927343706
 10
256.1093825014
 20
137.2632981332
 10
256.2106741573
 20
137.5761086957
 10
256.2106741573
 20
137.5761086957
  0
LWPOLYLINE
  5
2CF
330
1F
100
AcDbEntity
  8
0
  6
Continuous
 62
     7
370
    35
100
AcDbPolyline
 90
        4
 70
   128
 43
0.0
 10
246.6916445459
 20
124.3094768786
 10
247.0031751768
 20
124.5720150133
 10
247.1293838363
 20
124.8817912477
 10
247.0725838168
 20
125.1610553463
  0
LWPOLYLINE
  5
2D0
330
1F
100
AcDbEntity
  8
0
  6
Continuous
 62
     7
370
    35
100
AcDbPolyline
 90
        8
 70
   128
 43
0.0
 10
244.16845717
 20
125.1141282436
 10
244.1453687278
 20
124.8021490134
 10
244.3205507881
 20
124.5004167833
 10
244.6727141656
 20
124.2555923906
 10
245.1542972447
 20
124.1007407261
 10
245.7002595621
 20
124.0567753651
 10
246.2368658814
 20
124.1296340734
 10
246.6916445459
 20
124.3094768786
  0
LWPOLYLINE
  5
2D1
330
1F
100
AcDbEntity
  8
0
  6
Continuous
 62
     7
370
    35
100
AcDbPolyline
 90
        5
 70
   128
 43
0.0
 10
224.2573353876
 20
118.8738111538
 10
224.7212176228
 20
119.0402584705
 10
225.0534190943
 20
119.2942107077
 10
225.2042754217
 20
119.6002915359
 10
225.1698032664
 20
119.880951533
  0
LWPOLYLINE
  5
2D2
330
1F
100
AcDbEntity
  8
0
  6
Continuous
 62
     7
370
    35
100
AcDbPolyline
 90
        6
 70
   128
 43
0.0
 10
222.2831558842
 20
119.9461129181
 10
222.2679356925
 20
119.9171630432
 10
222.2170728929
 20
119.6002915359
 10
222.3679292203
 20
119.2942107077
 10
222.7001306918
 20
119.0402584705
 10
223.164012927
 20
118.8738111538
  0
LWPOLYLINE
  5
2D3
330
1F
100
AcDbEntity
  8
0
  6
Continuous
 62
     7
370
    35
100
AcDbPolyline
 90
        3
 70
   128
 43
0.0
 10
225.168398192
 20
119.4760544181
 10
225.1534126221
 20
119.5088926373
 10
225.0783340976
 20
119.6275520087
  0
LWPOLYLINE
  5
2D4
330
1F
100
AcDbEntity
  8
0
  6
Continuous
 62
     7
370
    35
100
AcDbPolyline
 90
        3
 70
   128
 43
0.0
 10
222.3256869216
 20
119.6044541538
 10
222.2679356925
 20
119.5088926373
 10
222.2529501226
 20
119.4760544181
  0
LWPOLYLINE
  5
2D5
330
1F
100
AcDbEntity
  8
0
  6
Continuous
 62
     7
370
    35
100
AcDbPolyline
 90
        3
 70
   128
 43
0.0
 10
222.4677107452
 20
119.1954597379
 10
222.4606741573
 20
119.2719192151
 10
222.4794441829
 20
119.3965020632
  0
LWPOLYLINE
  5
2D6
330
1F
100
AcDbEntity
  8
0
  6
Continuous
 62
     7
370
    35
100
AcDbPolyline
 90
        3
 70
   128
 43
0.0
 10
224.9415655687
 20
119.3976120429
 10
224.9606741573
 20
119.2719192151
 10
224.9536375694
 20
119.1954597379
  0
LWPOLYLINE
  5
2D7
330
1F
100
AcDbEntity
  8
0
  6
Continuous
 62
     7
370
    35
100
AcDbPolyline
 90
        3
 70
   128
 43
0.0
 10
247.0887084088
 20
124.7176477595
 10
247.0532253455
 20
124.7886981788
 10
247.0026964065
 20
124.8639057972
  0
LINE
  5
2D8
330
1F
100
AcDbEntity
  8
0
  6
Continuous
 62
     7
370
    35
100
AcDbLine
 10
244.2542350394
 20
124.8572587995
 30
0.0
 11
244.1732603394
 21
124.7176477595
 31
0.0
  0
LINE
  5
2D9
330
1F
100
AcDbEntity
  8
0
  6
Continuous
 62
     7
370
    35
100
AcDbLine
 10
203.2480879752
 20
124.7176477595
 30
0.0
 11
203.1611715545
 21
124.8650833731
 31
0.0
  0
LWPOLYLINE
  5
2DA
330
1F
100
AcDbEntity
  8
0
  6
Continuous
 62
     7
370
    35
100
AcDbPolyline
 90
        3
 70
   128
 43
0.0
 10
200.4083538275
 20
124.8501500281
 10
200.3681229691
 20
124.7886981788
 10
200.3326399058
 20
124.7176477595
  0
LWPOLYLINE
  5
2DB
330
1F
100
AcDbEntity
  8
0
  6
Continuous
 62
     7
370
    35
100
AcDbPolyline
 90
        3
 70
   128
 43
0.0
 10
244.388020962
 20
124.4370530794
 10
244.3809843741
 20
124.5135125565
 10
244.3990256375
 20
124.6356708805
  0
LWPOLYLINE
  5
2DC
330
1F
100
AcDbEntity
  8
0
  6
Continuous
 62
     7
370
    35
100
AcDbPolyline
 90
        3
 70
   128
 43
0.0
 10
246.8648589918
 20
124.629047181
 10
246.8809843741
 20
124.5135125565
 10
246.8739477862
 20
124.4370530794
  0
LWPOLYLINE
  5
2DD
330
1F
100
AcDbEntity
  8
0
  6
Continuous
 62
     7
370
    35
100
AcDbPolyline
 90
        3
 70
   128
 43
0.0
 10
200.5474005284
 20
124.4370530793
 10
200.5403639405
 20
124.5135125565
 10
200.5570890152
 20
124.6311616942
  0
LWPOLYLINE
  5
2DE
330
1F
100
AcDbEntity
  8
0
  6
Continuous
 62
     7
370
    35
100
AcDbPolyline
 90
        3
 70
   128
 43
0.0
 10
203.0211765639
 20
124.6394622443
 10
203.0403639405
 20
124.5135125565
 10
203.0333273526
 20
124.4370530793
  0
LWPOLYLINE
  5
2DF
330
1F
100
AcDbEntity
  8
0
  6
Continuous
 62
     7
370
    35
100
AcDbPolyline
 90
        3
 70
   128
 43
0.0
 10
256.168398192
 20
137.3719734928
 10
256.1093825014
 20
137.4806488523
 10
256.0795070798
 20
137.5219639217
  0
LINE
  5
2E0
330
1F
100
AcDbEntity
  8
0
  6
Continuous
 62
     7
370
    35
100
AcDbLine
 10
253.3339403611
 20
137.5116052721
 30
0.0
 11
253.2529501226
 21
137.3719734928
 31
0.0
  0
LINE
  5
2E1
330
1F
100
AcDbEntity
  8
0
  6
Continuous
 62
     7
370
    35
100
AcDbLine
 10
194.168398192
 20
137.3719734928
 30
0.0
 11
194.0870340976
 21
137.5121038131
 31
0.0
  0
LWPOLYLINE
  5
2E2
330
1F
100
AcDbEntity
  8
0
  6
Continuous
 62
     7
370
    35
100
AcDbPolyline
 90
        3
 70
   128
 43
0.0
 10
191.3306114431
 20
137.5071277697
 10
191.3119658132
 20
137.4806488523
 10
191.2529501226
 20
137.3719734928
  0
LWPOLYLINE
  5
2E3
330
1F
100
AcDbEntity
  8
0
  6
Continuous
 62
     7
370
    35
100
AcDbPolyline
 90
        3
 70
   128
 43
0.0
 10
253.4677107451
 20
137.091378813
 10
253.4606741573
 20
137.1678382898
 10
253.4812493456
 20
137.2982269112
  0
LWPOLYLINE
  5
2E4
330
1F
100
AcDbEntity
  8
0
  6
Continuous
 62
     7
370
    35
100
AcDbPolyline
 90
        3
 70
   128
 43
0.0
 10
255.9391998288
 20
137.3010212982
 10
255.9606741573
 20
137.1678382898
 10
255.9536375695
 20
137.0913788131
  0
LWPOLYLINE
  5
2E5
330
1F
100
AcDbEntity
  8
0
  6
Continuous
 62
     7
370
    35
100
AcDbPolyline
 90
        3
 70
   128
 43
0.0
 10
191.4677107452
 20
137.0913788124
 10
191.4606741573
 20
137.1678382898
 10
191.4780070017
 20
137.2875913117
  0
LWPOLYLINE
  5
2E6
330
1F
100
AcDbEntity
  8
0
  6
Continuous
 62
     7
370
    35
100
AcDbPolyline
 90
        3
 70
   128
 43
0.0
 10
193.944239509
 20
137.2844683009
 10
193.9606741573
 20
137.1678382898
 10
193.9536375694
 20
137.0913788124
  0
LWPOLYLINE
  5
2E7
330
1F
100
AcDbEntity
  8
0
  6
Continuous
 62
     7
370
    35
100
AcDbPolyline
 90
       17
 70
   128
 43
0.0
 10
244.4809843741
 20
125.4117074496
 10
244.5685229117
 20
125.15765124
 10
244.8178115757
 20
124.9422727853
 10
245.1908984269
 20
124.7983615028
 10
245.6309843741
 20
124.7478265807
 10
246.0710703213
 20
124.7983615028
 10
246.4441571725
 20
124.9422727853
 10
246.6934458365
 20
125.15765124
 10
246.7809843741
 20
125.4117074496
 10
246.6934458365
 20
125.6657636592
 10
246.4441571725
 20
125.8811421139
 10
246.0710703213
 20
126.0250533964
 10
245.6309843741
 20
126.0755883185
 10
245.1908984269
 20
126.0250533964
 10
244.8178115757
 20
125.8811421139
 10
244.5685229117
 20
125.6657636592
 10
244.4809843741
 20
125.4117074496
  0
LINE
  5
2E8
330
1F
100
AcDbEntity
  8
0
  6
Continuous
 62
     7
370
    35
100
AcDbLine
 10
245.7809843741
 20
125.4983006064
 30
0.0
 11
246.5809843741
 21
125.4983006064
 31
0.0
  0
LINE
  5
2E9
330
1F
100
AcDbEntity
  8
0
  6
Continuous
 62
     7
370
    35
100
AcDbLine
 10
245.7809843741
 20
125.9601307761
 30
0.0
 11
245.7809843741
 21
125.4983006064
 31
0.0
  0
LINE
  5
2EA
330
1F
100
AcDbEntity
  8
0
  6
Continuous
 62
     7
370
    35
100
AcDbLine
 10
245.4809843741
 20
125.9601307761
 30
0.0
 11
245.7809843741
 21
125.9601307761
 31
0.0
  0
LINE
  5
2EB
330
1F
100
AcDbEntity
  8
0
  6
Continuous
 62
     7
370
    35
100
AcDbLine
 10
245.4809843741
 20
125.9601307761
 30
0.0
 11
245.4809843741
 21
125.4983006064
 31
0.0
  0
LINE
  5
2EC
330
1F
100
AcDbEntity
  8
0
  6
Continuous
 62
     7
370
    35
100
AcDbLine
 10
244.6809843741
 20
125.4983006064
 30
0.0
 11
245.4809843741
 21
125.4983006064
 31
0.0
  0
LINE
  5
2ED
330
1F
100
AcDbEntity
  8
0
  6
Continuous
 62
     7
370
    35
100
AcDbLine
 10
244.6809843741
 20
125.4983006064
 30
0.0
 11
244.6809843741
 21
125.3251142928
 31
0.0
  0
LINE
  5
2EE
330
1F
100
AcDbEntity
  8
0
  6
Continuous
 62
     7
370
    35
100
AcDbLine
 10
244.6809843741
 20
125.3251142928
 30
0.0
 11
245.4809843741
 21
125.3251142928
 31
0.0
  0
LINE
  5
2EF
330
1F
100
AcDbEntity
  8
0
  6
Continuous
 62
     7
370
    35
100
AcDbLine
 10
245.4809843741
 20
125.3251142928
 30
0.0
 11
245.4809843741
 21
124.8632841231
 31
0.0
  0
LINE
  5
2F0
330
1F
100
AcDbEntity
  8
0
  6
Continuous
 62
     7
370
    35
100
AcDbLine
 10
245.4809843741
 20
124.8632841231
 30
0.0
 11
245.7809843741
 21
124.8632841231
 31
0.0
  0
LINE
  5
2F1
330
1F
100
AcDbEntity
  8
0
  6
Continuous
 62
     7
370
    35
100
AcDbLine
 10
245.7809843741
 20
125.3251142928
 30
0.0
 11
245.7809843741
 21
124.8632841231
 31
0.0
  0
LINE
  5
2F2
330
1F
100
AcDbEntity
  8
0
  6
Continuous
 62
     7
370
    35
100
AcDbLine
 10
245.7809843741
 20
125.3251142928
 30
0.0
 11
246.5809843741
 21
125.3251142928
 31
0.0
  0
LINE
  5
2F3
330
1F
100
AcDbEntity
  8
0
  6
Continuous
 62
     7
370
    35
100
AcDbLine
 10
246.5809843741
 20
125.4983006064
 30
0.0
 11
246.5809843741
 21
125.3251142928
 31
0.0
  0
LINE
  5
2F4
330
1F
100
AcDbEntity
  8
0
  6
Continuous
 62
     7
370
    35
100
AcDbLine
 10
244.6809843741
 20
125.334992444
 30
0.0
 11
245.4809843741
 21
125.334992444
 31
0.0
  0
LINE
  5
2F5
330
1F
100
AcDbEntity
  8
0
  6
Continuous
 62
     7
370
    35
100
AcDbLine
 10
245.4809843741
 20
125.7968226137
 30
0.0
 11
245.7809843741
 21
125.7968226137
 31
0.0
  0
LINE
  5
2F6
330
1F
100
AcDbEntity
  8
0
  6
Continuous
 62
     7
370
    35
100
AcDbLine
 10
245.7809843741
 20
125.334992444
 30
0.0
 11
246.5809843741
 21
125.334992444
 31
0.0
  0
LINE
  5
2F7
330
1F
100
AcDbEntity
  8
0
  6
Continuous
 62
     7
370
    35
100
AcDbLine
 10
245.7809843741
 20
125.4983006064
 30
0.0
 11
245.7809843741
 21
125.334992444
 31
0.0
  0
LINE
  5
2F8
330
1F
100
AcDbEntity
  8
0
  6
Continuous
 62
     7
370
    35
100
AcDbLine
 10
245.4809843741
 20
125.4983006064
 30
0.0
 11
245.4809843741
 21
125.334992444
 31
0.0
  0
LWPOLYLINE
  5
2F9
330
1F
100
AcDbEntity
  8
0
  6
Continuous
 62
     7
370
    35
100
AcDbPolyline
 90
       17
 70
   128
 43
0.0
 10
222.8975013589
 20
120.6395487725
 10
222.6482126949
 20
120.4241703178
 10
222.5606741573
 20
120.1701141082
 10
222.6482126949
 20
119.9160578986
 10
222.8975013589
 20
119.7006794439
 10
223.2705882101
 20
119.5567681614
 10
223.7106741573
 20
119.5062332393
 10
224.1507601045
 20
119.5567681614
 10
224.5238469557
 20
119.7006794439
 10
224.7731356197
 20
119.9160578986
 10
224.8606741573
 20
120.1701141082
 10
224.7731356197
 20
120.4241703178
 10
224.5238469557
 20
120.6395487725
 10
224.1507601045
 20
120.783460055
 10
223.7106741573
 20
120.8339949771
 10
223.2705882101
 20
120.783460055
 10
222.8975013589
 20
120.6395487725
  0
LINE
  5
2FA
330
1F
100
AcDbEntity
  8
0
  6
Continuous
 62
     7
370
    35
100
AcDbLine
 10
223.9228061917
 20
120.1701141082
 30
0.0
 11
224.4884916166
 21
119.8435508635
 31
0.0
  0
LINE
  5
2FB
330
1F
100
AcDbEntity
  8
0
  6
Continuous
 62
     7
370
    35
100
AcDbLine
 10
224.4884916166
 20
120.4966773529
 30
0.0
 11
223.9228061917
 21
120.1701141082
 31
0.0
  0
LINE
  5
2FC
330
1F
100
AcDbEntity
  8
0
  6
Continuous
 62
     7
370
    35
100
AcDbLine
 10
224.2763595823
 20
120.6191385697
 30
0.0
 11
224.4884916166
 21
120.4966773529
 31
0.0
  0
LINE
  5
2FD
330
1F
100
AcDbEntity
  8
0
  6
Continuous
 62
     7
370
    35
100
AcDbLine
 10
224.2763595823
 20
120.6191385697
 30
0.0
 11
223.7106741573
 21
120.292575325
 31
0.0
  0
LINE
  5
2FE
330
1F
100
AcDbEntity
  8
0
  6
Continuous
 62
     7
370
    35
100
AcDbLine
 10
223.1449887324
 20
120.6191385697
 30
0.0
 11
223.7106741573
 21
120.292575325
 31
0.0
  0
LINE
  5
2FF
330
1F
100
AcDbEntity
  8
0
  6
Continuous
 62
     7
370
    35
100
AcDbLine
 10
223.1449887324
 20
120.6191385697
 30
0.0
 11
222.932856698
 21
120.4966773529
 31
0.0
  0
LINE
  5
300
330
1F
100
AcDbEntity
  8
0
  6
Continuous
 62
     7
370
    35
100
AcDbLine
 10
222.932856698
 20
120.4966773529
 30
0.0
 11
223.4985421229
 21
120.1701141082
 31
0.0
  0
LINE
  5
301
330
1F
100
AcDbEntity
  8
0
  6
Continuous
 62
     7
370
    35
100
AcDbLine
 10
223.4985421229
 20
120.1701141082
 30
0.0
 11
222.932856698
 21
119.8435508635
 31
0.0
  0
LINE
  5
302
330
1F
100
AcDbEntity
  8
0
  6
Continuous
 62
     7
370
    35
100
AcDbLine
 10
222.932856698
 20
119.8435508635
 30
0.0
 11
223.1449887324
 21
119.7210896467
 31
0.0
  0
LINE
  5
303
330
1F
100
AcDbEntity
  8
0
  6
Continuous
 62
     7
370
    35
100
AcDbLine
 10
223.7106741573
 20
120.0476528914
 30
0.0
 11
223.1449887324
 21
119.7210896467
 31
0.0
  0
LINE
  5
304
330
1F
100
AcDbEntity
  8
0
  6
Continuous
 62
     7
370
    35
100
AcDbLine
 10
223.7106741573
 20
120.0476528914
 30
0.0
 11
224.2763595823
 21
119.7210896467
 31
0.0
  0
LINE
  5
305
330
1F
100
AcDbEntity
  8
0
  6
Continuous
 62
     7
370
    35
100
AcDbLine
 10
224.4884916166
 20
119.8435508635
 30
0.0
 11
224.2763595823
 21
119.7210896467
 31
0.0
  0
LINE
  5
306
330
1F
100
AcDbEntity
  8
0
  6
Continuous
 62
     7
370
    35
100
AcDbLine
 10
223.4985421229
 20
120.0068059458
 30
0.0
 11
223.0743010411
 21
119.7618967823
 31
0.0
  0
LINE
  5
307
330
1F
100
AcDbEntity
  8
0
  6
Continuous
 62
     7
370
    35
100
AcDbLine
 10
223.1449887324
 20
120.4558304073
 30
0.0
 11
223.0743010411
 21
120.4150232717
 31
0.0
  0
LINE
  5
308
330
1F
100
AcDbEntity
  8
0
  6
Continuous
 62
     7
370
    35
100
AcDbLine
 10
223.1449887324
 20
120.4558304073
 30
0.0
 11
223.7106741573
 21
120.1292671626
 31
0.0
  0
LINE
  5
309
330
1F
100
AcDbEntity
  8
0
  6
Continuous
 62
     7
370
    35
100
AcDbLine
 10
224.2763595823
 20
120.4558304073
 30
0.0
 11
223.7106741573
 21
120.1292671626
 31
0.0
  0
LINE
  5
30A
330
1F
100
AcDbEntity
  8
0
  6
Continuous
 62
     7
370
    35
100
AcDbLine
 10
224.2763595823
 20
120.4558304073
 30
0.0
 11
224.3470472736
 21
120.4150232717
 31
0.0
  0
LINE
  5
30B
330
1F
100
AcDbEntity
  8
0
  6
Continuous
 62
     7
370
    35
100
AcDbLine
 10
223.9228061917
 20
120.0068059458
 30
0.0
 11
224.3470472736
 21
119.7618967823
 31
0.0
  0
LINE
  5
30C
330
1F
100
AcDbEntity
  8
0
  6
Continuous
 62
     7
370
    35
100
AcDbLine
 10
223.4985421229
 20
120.1701141082
 30
0.0
 11
223.4985421229
 21
120.0068059458
 31
0.0
  0
LINE
  5
30D
330
1F
100
AcDbEntity
  8
0
  6
Continuous
 62
     7
370
    35
100
AcDbLine
 10
223.9228061917
 20
120.1701141082
 30
0.0
 11
223.9228061917
 21
120.0068059458
 31
0.0
  0
LINE
  5
30E
330
1F
100
AcDbEntity
  8
0
  6
Continuous
 62
     7
370
    35
100
AcDbLine
 10
224.2763595823
 20
120.4558304073
 30
0.0
 11
224.2763595823
 21
120.6191385697
 31
0.0
  0
LINE
  5
30F
330
1F
100
AcDbEntity
  8
0
  6
Continuous
 62
     7
370
    35
100
AcDbLine
 10
223.7106741573
 20
120.292575325
 30
0.0
 11
223.7106741573
 21
120.1292671626
 31
0.0
  0
LINE
  5
310
330
1F
100
AcDbEntity
  8
0
  6
Continuous
 62
     7
370
    35
100
AcDbLine
 10
223.1449887324
 20
120.4558304073
 30
0.0
 11
223.1449887324
 21
120.6191385697
 31
0.0
  0
LWPOLYLINE
  5
311
330
1F
100
AcDbEntity
  8
0
  6
Continuous
 62
     7
370
    35
100
AcDbPolyline
 90
       17
 70
   128
 43
0.0
 10
193.5238469557
 20
138.5354678472
 10
193.1507601045
 20
138.6793791297
 10
192.7106741573
 20
138.7299140518
 10
192.2705882101
 20
138.6793791297
 10
191.8975013589
 20
138.5354678472
 10
191.6482126949
 20
138.3200893924
 10
191.5606741573
 20
138.0660331829
 10
191.6482126949
 20
137.8119769733
 10
191.8975013589
 20
137.5965985186
 10
192.2705882101
 20
137.4526872361
 10
192.7106741573
 20
137.402152314
 10
193.1507601045
 20
137.4526872361
 10
193.5238469557
 20
137.5965985186
 10
193.7731356197
 20
137.8119769733
 10
193.8606741573
 20
138.0660331829
 10
193.7731356197
 20
138.3200893924
 10
193.5238469557
 20
138.5354678472
  0
LINE
  5
312
330
1F
100
AcDbEntity
  8
0
  6
Continuous
 62
     7
370
    35
100
AcDbLine
 10
192.7106741573
 20
137.9435719661
 30
0.0
 11
192.1449887324
 21
137.6170087214
 31
0.0
  0
LINE
  5
313
330
1F
100
AcDbEntity
  8
0
  6
Continuous
 62
     7
370
    35
100
AcDbLine
 10
193.2763595823
 20
137.6170087214
 30
0.0
 11
192.7106741573
 21
137.9435719661
 31
0.0
  0
LINE
  5
314
330
1F
100
AcDbEntity
  8
0
  6
Continuous
 62
     7
370
    35
100
AcDbLine
 10
193.4884916166
 20
137.7394699381
 30
0.0
 11
193.2763595823
 21
137.6170087214
 31
0.0
  0
LINE
  5
315
330
1F
100
AcDbEntity
  8
0
  6
Continuous
 62
     7
370
    35
100
AcDbLine
 10
193.4884916166
 20
137.7394699381
 30
0.0
 11
192.9228061917
 21
138.0660331829
 31
0.0
  0
LINE
  5
316
330
1F
100
AcDbEntity
  8
0
  6
Continuous
 62
     7
370
    35
100
AcDbLine
 10
193.4884916166
 20
138.3925964276
 30
0.0
 11
192.9228061917
 21
138.0660331829
 31
0.0
  0
LINE
  5
317
330
1F
100
AcDbEntity
  8
0
  6
Continuous
 62
     7
370
    35
100
AcDbLine
 10
193.4884916166
 20
138.3925964276
 30
0.0
 11
193.2763595823
 21
138.5150576444
 31
0.0
  0
LINE
  5
318
330
1F
100
AcDbEntity
  8
0
  6
Continuous
 62
     7
370
    35
100
AcDbLine
 10
193.2763595823
 20
138.5150576444
 30
0.0
 11
192.7106741573
 21
138.1884943996
 31
0.0
  0
LINE
  5
319
330
1F
100
AcDbEntity
  8
0
  6
Continuous
 62
     7
370
    35
100
AcDbLine
 10
192.7106741573
 20
138.1884943996
 30
0.0
 11
192.1449887324
 21
138.5150576444
 31
0.0
  0
LINE
  5
31A
330
1F
100
AcDbEntity
  8
0
  6
Continuous
 62
     7
370
    35
100
AcDbLine
 10
192.1449887324
 20
138.5150576444
 30
0.0
 11
191.932856698
 21
138.3925964276
 31
0.0
  0
LINE
  5
31B
330
1F
100
AcDbEntity
  8
0
  6
Continuous
 62
     7
370
    35
100
AcDbLine
 10
192.4985421229
 20
138.0660331829
 30
0.0
 11
191.932856698
 21
138.3925964276
 31
0.0
  0
LINE
  5
31C
330
1F
100
AcDbEntity
  8
0
  6
Continuous
 62
     7
370
    35
100
AcDbLine
 10
192.4985421229
 20
138.0660331829
 30
0.0
 11
191.932856698
 21
137.7394699381
 31
0.0
  0
LINE
  5
31D
330
1F
100
AcDbEntity
  8
0
  6
Continuous
 62
     7
370
    35
100
AcDbLine
 10
192.1449887324
 20
137.6170087214
 30
0.0
 11
191.932856698
 21
137.7394699381
 31
0.0
  0
LINE
  5
31E
330
1F
100
AcDbEntity
  8
0
  6
Continuous
 62
     7
370
    35
100
AcDbLine
 10
192.1449887324
 20
138.351749482
 30
0.0
 11
192.0743010411
 21
138.3109423464
 31
0.0
  0
LINE
  5
31F
330
1F
100
AcDbEntity
  8
0
  6
Continuous
 62
     7
370
    35
100
AcDbLine
 10
192.7106741573
 20
138.0251862373
 30
0.0
 11
192.1449887324
 21
138.351749482
 31
0.0
  0
LINE
  5
320
330
1F
100
AcDbEntity
  8
0
  6
Continuous
 62
     7
370
    35
100
AcDbLine
 10
193.2763595823
 20
138.351749482
 30
0.0
 11
192.7106741573
 21
138.0251862373
 31
0.0
  0
LINE
  5
321
330
1F
100
AcDbEntity
  8
0
  6
Continuous
 62
     7
370
    35
100
AcDbLine
 10
193.3470472736
 20
138.3109423464
 30
0.0
 11
193.2763595823
 21
138.351749482
 31
0.0
  0
LINE
  5
322
330
1F
100
AcDbEntity
  8
0
  6
Continuous
 62
     7
370
    35
100
AcDbLine
 10
193.3470472736
 20
137.6578158569
 30
0.0
 11
192.9228061917
 21
137.9027250205
 31
0.0
  0
LINE
  5
323
330
1F
100
AcDbEntity
  8
0
  6
Continuous
 62
     7
370
    35
100
AcDbLine
 10
192.4985421229
 20
137.9027250205
 30
0.0
 11
192.0743010411
 21
137.6578158569
 31
0.0
  0
LINE
  5
324
330
1F
100
AcDbEntity
  8
0
  6
Continuous
 62
     7
370
    35
100
AcDbLine
 10
192.9228061917
 20
138.0660331829
 30
0.0
 11
192.9228061917
 21
137.9027250205
 31
0.0
  0
LINE
  5
325
330
1F
100
AcDbEntity
  8
0
  6
Continuous
 62
     7
370
    35
100
AcDbLine
 10
192.4985421229
 20
138.0660331829
 30
0.0
 11
192.4985421229
 21
137.9027250205
 31
0.0
  0
LINE
  5
326
330
1F
100
AcDbEntity
  8
0
  6
Continuous
 62
     7
370
    35
100
AcDbLine
 10
192.7106741573
 20
138.1884943996
 30
0.0
 11
192.7106741573
 21
138.0251862373
 31
0.0
  0
LINE
  5
327
330
1F
100
AcDbEntity
  8
0
  6
Continuous
 62
     7
370
    35
100
AcDbLine
 10
192.1449887324
 20
138.351749482
 30
0.0
 11
192.1449887324
 21
138.5150576444
 31
0.0
  0
LINE
  5
328
330
1F
100
AcDbEntity
  8
0
  6
Continuous
 62
     7
370
    35
100
AcDbLine
 10
193.2763595823
 20
138.351749482
 30
0.0
 11
193.2763595823
 21
138.5150576444
 31
0.0
  0
LWPOLYLINE
  5
329
330
1F
100
AcDbEntity
  8
0
  6
Continuous
 62
     7
370
    35
100
AcDbPolyline
 90
       17
 70
   128
 43
0.0
 10
201.7903639405
 20
126.0755883185
 10
201.3502779933
 20
126.0250533964
 10
200.9771911422
 20
125.8811421139
 10
200.7279024781
 20
125.6657636592
 10
200.6403639405
 20
125.4117074496
 10
200.7279024781
 20
125.15765124
 10
200.9771911422
 20
124.9422727853
 10
201.3502779933
 20
124.7983615028
 10
201.7903639405
 20
124.7478265807
 10
202.2304498877
 20
124.7983615028
 10
202.6035367389
 20
124.9422727853
 10
202.8528254029
 20
125.15765124
 10
202.9403639405
 20
125.4117074496
 10
202.8528254029
 20
125.6657636592
 10
202.6035367389
 20
125.8811421139
 10
202.2304498877
 20
126.0250533964
 10
201.7903639405
 20
126.0755883185
  0
LINE
  5
32A
330
1F
100
AcDbEntity
  8
0
  6
Continuous
 62
     7
370
    35
100
AcDbLine
 10
201.9403639405
 20
125.3251142928
 30
0.0
 11
201.9403639405
 21
124.8632841231
 31
0.0
  0
LINE
  5
32B
330
1F
100
AcDbEntity
  8
0
  6
Continuous
 62
     7
370
    35
100
AcDbLine
 10
202.7403639405
 20
125.3251142928
 30
0.0
 11
201.9403639405
 21
125.3251142928
 31
0.0
  0
LINE
  5
32C
330
1F
100
AcDbEntity
  8
0
  6
Continuous
 62
     7
370
    35
100
AcDbLine
 10
202.7403639405
 20
125.4983006064
 30
0.0
 11
202.7403639405
 21
125.3251142928
 31
0.0
  0
LINE
  5
32D
330
1F
100
AcDbEntity
  8
0
  6
Continuous
 62
     7
370
    35
100
AcDbLine
 10
202.7403639405
 20
125.4983006064
 30
0.0
 11
201.9403639405
 21
125.4983006064
 31
0.0
  0
LINE
  5
32E
330
1F
100
AcDbEntity
  8
0
  6
Continuous
 62
     7
370
    35
100
AcDbLine
 10
201.9403639405
 20
125.9601307761
 30
0.0
 11
201.9403639405
 21
125.4983006064
 31
0.0
  0
LINE
  5
32F
330
1F
100
AcDbEntity
  8
0
  6
Continuous
 62
     7
370
    35
100
AcDbLine
 10
201.9403639405
 20
125.9601307761
 30
0.0
 11
201.6403639405
 21
125.9601307761
 31
0.0
  0
LINE
  5
330
330
1F
100
AcDbEntity
  8
0
  6
Continuous
 62
     7
370
    35
100
AcDbLine
 10
201.6403639405
 20
125.9601307761
 30
0.0
 11
201.6403639405
 21
125.4983006064
 31
0.0
  0
LINE
  5
331
330
1F
100
AcDbEntity
  8
0
  6
Continuous
 62
     7
370
    35
100
AcDbLine
 10
201.6403639405
 20
125.4983006064
 30
0.0
 11
200.8403639405
 21
125.4983006064
 31
0.0
  0
LINE
  5
332
330
1F
100
AcDbEntity
  8
0
  6
Continuous
 62
     7
370
    35
100
AcDbLine
 10
200.8403639405
 20
125.4983006064
 30
0.0
 11
200.8403639405
 21
125.3251142928
 31
0.0
  0
LINE
  5
333
330
1F
100
AcDbEntity
  8
0
  6
Continuous
 62
     7
370
    35
100
AcDbLine
 10
201.6403639405
 20
125.3251142928
 30
0.0
 11
200.8403639405
 21
125.3251142928
 31
0.0
  0
LINE
  5
334
330
1F
100
AcDbEntity
  8
0
  6
Continuous
 62
     7
370
    35
100
AcDbLine
 10
201.6403639405
 20
125.3251142928
 30
0.0
 11
201.6403639405
 21
124.8632841231
 31
0.0
  0
LINE
  5
335
330
1F
100
AcDbEntity
  8
0
  6
Continuous
 62
     7
370
    35
100
AcDbLine
 10
201.9403639405
 20
124.8632841231
 30
0.0
 11
201.6403639405
 21
124.8632841231
 31
0.0
  0
LINE
  5
336
330
1F
100
AcDbEntity
  8
0
  6
Continuous
 62
     7
370
    35
100
AcDbLine
 10
201.6403639405
 20
125.334992444
 30
0.0
 11
200.8403639405
 21
125.334992444
 31
0.0
  0
LINE
  5
337
330
1F
100
AcDbEntity
  8
0
  6
Continuous
 62
     7
370
    35
100
AcDbLine
 10
201.9403639405
 20
125.7968226137
 30
0.0
 11
201.6403639405
 21
125.7968226137
 31
0.0
  0
LINE
  5
338
330
1F
100
AcDbEntity
  8
0
  6
Continuous
 62
     7
370
    35
100
AcDbLine
 10
202.7403639405
 20
125.334992444
 30
0.0
 11
201.9403639405
 21
125.334992444
 31
0.0
  0
LINE
  5
339
330
1F
100
AcDbEntity
  8
0
  6
Continuous
 62
     7
370
    35
100
AcDbLine
 10
201.9403639405
 20
125.4983006064
 30
0.0
 11
201.9403639405
 21
125.334992444
 31
0.0
  0
LINE
  5
33A
330
1F
100
AcDbEntity
  8
0
  6
Continuous
 62
     7
370
    35
100
AcDbLine
 10
201.6403639405
 20
125.4983006064
 30
0.0
 11
201.6403639405
 21
125.334992444
 31
0.0
  0
LWPOLYLINE
  5
33B
330
1F
100
AcDbEntity
  8
0
  6
Continuous
 62
     7
370
    35
100
AcDbPolyline
 90
       17
 70
   128
 43
0.0
 10
253.8975013589
 20
137.5965985186
 10
254.2705882101
 20
137.4526872361
 10
254.7106741573
 20
137.402152314
 10
255.1507601045
 20
137.4526872361
 10
255.5238469557
 20
137.5965985186
 10
255.7731356197
 20
137.8119769733
 10
255.8606741573
 20
138.0660331829
 10
255.7731356197
 20
138.3200893924
 10
255.5238469557
 20
138.5354678472
 10
255.1507601045
 20
138.6793791297
 10
254.7106741573
 20
138.7299140518
 10
254.2705882101
 20
138.6793791297
 10
253.8975013589
 20
138.5354678472
 10
253.6482126949
 20
138.3200893924
 10
253.5606741573
 20
138.0660331829
 10
253.6482126949
 20
137.8119769733
 10
253.8975013589
 20
137.5965985186
  0
LINE
  5
33C
330
1F
100
AcDbEntity
  8
0
  6
Continuous
 62
     7
370
    35
100
AcDbLine
 10
254.7106741573
 20
138.1884943996
 30
0.0
 11
255.2763595823
 21
138.5150576444
 31
0.0
  0
LINE
  5
33D
330
1F
100
AcDbEntity
  8
0
  6
Continuous
 62
     7
370
    35
100
AcDbLine
 10
254.1449887324
 20
138.5150576444
 30
0.0
 11
254.7106741573
 21
138.1884943996
 31
0.0
  0
LINE
  5
33E
330
1F
100
AcDbEntity
  8
0
  6
Continuous
 62
     7
370
    35
100
AcDbLine
 10
253.932856698
 20
138.3925964276
 30
0.0
 11
254.1449887324
 21
138.5150576444
 31
0.0
  0
LINE
  5
33F
330
1F
100
AcDbEntity
  8
0
  6
Continuous
 62
     7
370
    35
100
AcDbLine
 10
253.932856698
 20
138.3925964276
 30
0.0
 11
254.4985421229
 21
138.0660331829
 31
0.0
  0
LINE
  5
340
330
1F
100
AcDbEntity
  8
0
  6
Continuous
 62
     7
370
    35
100
AcDbLine
 10
253.932856698
 20
137.7394699381
 30
0.0
 11
254.4985421229
 21
138.0660331829
 31
0.0
  0
LINE
  5
341
330
1F
100
AcDbEntity
  8
0
  6
Continuous
 62
     7
370
    35
100
AcDbLine
 10
253.932856698
 20
137.7394699381
 30
0.0
 11
254.1449887324
 21
137.6170087214
 31
0.0
  0
LINE
  5
342
330
1F
100
AcDbEntity
  8
0
  6
Continuous
 62
     7
370
    35
100
AcDbLine
 10
254.1449887324
 20
137.6170087214
 30
0.0
 11
254.7106741573
 21
137.9435719661
 31
0.0
  0
LINE
  5
343
330
1F
100
AcDbEntity
  8
0
  6
Continuous
 62
     7
370
    35
100
AcDbLine
 10
254.7106741573
 20
137.9435719661
 30
0.0
 11
255.2763595823
 21
137.6170087214
 31
0.0
  0
LINE
  5
344
330
1F
100
AcDbEntity
  8
0
  6
Continuous
 62
     7
370
    35
100
AcDbLine
 10
255.2763595823
 20
137.6170087214
 30
0.0
 11
255.4884916166
 21
137.7394699381
 31
0.0
  0
LINE
  5
345
330
1F
100
AcDbEntity
  8
0
  6
Continuous
 62
     7
370
    35
100
AcDbLine
 10
254.9228061917
 20
138.0660331829
 30
0.0
 11
255.4884916166
 21
137.7394699381
 31
0.0
  0
LINE
  5
346
330
1F
100
AcDbEntity
  8
0
  6
Continuous
 62
     7
370
    35
100
AcDbLine
 10
254.9228061917
 20
138.0660331829
 30
0.0
 11
255.4884916166
 21
138.3925964276
 31
0.0
  0
LINE
  5
347
330
1F
100
AcDbEntity
  8
0
  6
Continuous
 62
     7
370
    35
100
AcDbLine
 10
255.2763595823
 20
138.5150576444
 30
0.0
 11
255.4884916166
 21
138.3925964276
 31
0.0
  0
LINE
  5
348
330
1F
100
AcDbEntity
  8
0
  6
Continuous
 62
     7
370
    35
100
AcDbLine
 10
254.9228061917
 20
137.9027250205
 30
0.0
 11
255.3470472736
 21
137.6578158569
 31
0.0
  0
LINE
  5
349
330
1F
100
AcDbEntity
  8
0
  6
Continuous
 62
     7
370
    35
100
AcDbLine
 10
254.0743010411
 20
137.6578158569
 30
0.0
 11
254.4985421229
 21
137.9027250205
 31
0.0
  0
LINE
  5
34A
330
1F
100
AcDbEntity
  8
0
  6
Continuous
 62
     7
370
    35
100
AcDbLine
 10
254.0743010411
 20
138.3109423464
 30
0.0
 11
254.1449887324
 21
138.351749482
 31
0.0
  0
LINE
  5
34B
330
1F
100
AcDbEntity
  8
0
  6
Continuous
 62
     7
370
    35
100
AcDbLine
 10
254.1449887324
 20
138.351749482
 30
0.0
 11
254.7106741573
 21
138.0251862373
 31
0.0
  0
LINE
  5
34C
330
1F
100
AcDbEntity
  8
0
  6
Continuous
 62
     7
370
    35
100
AcDbLine
 10
254.7106741573
 20
138.0251862373
 30
0.0
 11
255.2763595823
 21
138.351749482
 31
0.0
  0
LINE
  5
34D
330
1F
100
AcDbEntity
  8
0
  6
Continuous
 62
     7
370
    35
100
AcDbLine
 10
255.2763595823
 20
138.351749482
 30
0.0
 11
255.3470472736
 21
138.3109423464
 31
0.0
  0
LINE
  5
34E
330
1F
100
AcDbEntity
  8
0
  6
Continuous
 62
     7
370
    35
100
AcDbLine
 10
254.4985421229
 20
138.0660331829
 30
0.0
 11
254.4985421229
 21
137.9027250205
 31
0.0
  0
LINE
  5
34F
330
1F
100
AcDbEntity
  8
0
  6
Continuous
 62
     7
370
    35
100
AcDbLine
 10
254.9228061917
 20
138.0660331829
 30
0.0
 11
254.9228061917
 21
137.9027250205
 31
0.0
  0
LINE
  5
350
330
1F
100
AcDbEntity
  8
0
  6
Continuous
 62
     7
370
    35
100
AcDbLine
 10
254.7106741573
 20
138.1884943996
 30
0.0
 11
254.7106741573
 21
138.0251862373
 31
0.0
  0
LINE
  5
351
330
1F
100
AcDbEntity
  8
0
  6
Continuous
 62
     7
370
    35
100
AcDbLine
 10
254.1449887324
 20
138.351749482
 30
0.0
 11
254.1449887324
 21
138.5150576444
 31
0.0
  0
LINE
  5
352
330
1F
100
AcDbEntity
  8
0
  6
Continuous
 62
     7
370
    35
100
AcDbLine
 10
255.2763595823
 20
138.351749482
 30
0.0
 11
255.2763595823
 21
138.5150576444
 31
0.0
  0
LWPOLYLINE
  5
353
330
1F
100
AcDbEntity
  8
0
  6
Continuous
 62
     8
370
    35
100
AcDbPolyline
 90
        8
 70
   128
 43
0.0
 10
205.4773390459
 20
157.0465743556
 10
205.0673874265
 20
157.1875463003
 10
204.8258918797
 20
157.4013020403
 10
204.7573510107
 20
157.6838597107
 10
204.863041606
 20
158.0299557967
 10
205.1409948499
 20
158.433143183
 10
205.5860329994
 20
158.8859112514
 10
205.6826730786
 20
158.9714987192
  0
LWPOLYLINE
  5
354
330
1F
100
AcDbEntity
  8
0
  6
Continuous
 62
     8
370
    35
100
AcDbPolyline
 90
       27
 70
   128
 43
0.0
 10
221.7634293705
 20
165.2112069749
 10
222.1728894097
 20
165.2084859422
 10
222.7436604786
 20
165.1429238334
 10
223.153612098
 20
165.0019518887
 10
223.3951076448
 20
164.7881961487
 10
223.4636485139
 20
164.5056384783
 10
223.3579579185
 20
164.1595423923
 10
223.0800046746
 20
163.756355006
 10
222.6349665252
 20
163.3035869376
 10
222.0311336888
 20
162.8096723993
 10
221.2797544288
 20
162.2838120847
 10
220.3948255191
 20
161.7358017764
 10
219.392831511
 20
161.1758498695
 10
218.292437657
 20
160.6143872087
 10
217.1141422125
 20
160.0618727809
 10
215.8798945922
 20
159.5285988845
 10
214.6126864941
 20
159.0244994033
 10
213.3361236074
 20
158.5589647567
 10
212.0739858833
 20
158.1406669745
 10
210.8497845594
 20
157.7773981529
 10
209.6863241903
 20
157.4759253026
 10
208.6052778413
 20
157.2418642925
 10
207.6267833603
 20
157.0795752363
 10
206.7690682483
 20
156.992081272
 10
206.0481101149
 20
156.9810122468
 10
205.4773390459
 20
157.0465743556
 10
205.4773390459
 20
157.0465743556
  0
LWPOLYLINE
  5
355
330
1F
100
AcDbEntity
  8
0
  6
Continuous
 62
     8
370
    35
100
AcDbPolyline
 90
       12
 70
   128
 43
0.0
 10
226.5626404932
 20
145.5438448482
 10
225.7434355008
 20
146.5929222769
 10
225.0651970953
 20
147.7056650161
 10
224.5405595752
 20
148.8613447739
 10
224.1792959447
 20
150.038433423
 10
223.9881358617
 20
151.215004029
 10
223.9706402768
 20
152.3691393077
 10
224.1271350998
 20
153.4793399026
 10
224.4547051282
 20
154.5249248771
 10
224.947248352
 20
155.4864169615
 10
225.5955896231
 20
156.3459053775
 10
225.7158888509
 20
156.47587983
  0
LWPOLYLINE
  5
356
330
1F
100
AcDbEntity
  8
0
  6
Continuous
 62
     8
370
    35
100
AcDbPolyline
 90
       16
 70
   128
 43
0.0
 10
241.9664684256
 20
145.0544966855
 10
241.6744487527
 20
144.5348303789
 10
241.0261074816
 20
143.6753419629
 10
240.2340455345
 20
142.9338678583
 10
239.3130175268
 20
142.3242203248
 10
238.2801804677
 20
141.8577559423
 10
237.1547741573
 20
141.5431640598
 10
235.9577627859
 20
141.3863049287
 10
234.7114444104
 20
141.390100538
 10
233.4390355842
 20
141.5544801826
 10
232.1642388761
 20
141.8763817807
 10
230.9108013368
 20
142.3498089147
 10
229.7020721361
 20
142.9659425327
 10
228.5605676119
 20
143.7133052313
 10
227.5075518338
 20
144.5779750574
 10
226.5626404932
 20
145.5438448482
  0
LWPOLYLINE
  5
357
330
1F
100
AcDbEntity
  8
0
  6
Continuous
 62
     8
370
    35
100
AcDbPolyline
 90
       10
 70
   128
 43
0.0
 10
247.0809449141
 20
125.1605697779
 10
247.0562953686
 20
125.0129345149
 10
246.8637992209
 20
124.7260861187
 10
246.5048045968
 20
124.498751174
 10
246.0277957097
 20
124.3616325248
 10
245.4971952529
 20
124.3332488045
 10
244.9846637582
 20
124.4174333918
 10
244.5594214441
 20
124.6028166917
 10
244.2788996414
 20
124.8643616623
 10
244.1809843741
 20
125.166745206
  0
LWPOLYLINE
  5
358
330
1F
100
AcDbEntity
  8
0
  6
Continuous
 62
     8
370
    35
100
AcDbPolyline
 90
       10
 70
   128
 43
0.0
 10
225.1606441673
 20
119.9305355183
 10
225.1221593361
 20
119.7335048729
 10
224.9069204955
 20
119.4520947185
 10
224.5301219582
 20
119.234573553
 10
224.0426524547
 20
119.1103188151
 10
223.5103474426
 20
119.0961117957
 10
223.0050976634
 20
119.1938712315
 10
222.5951398994
 20
119.390394169
 10
222.3358412183
 20
119.6591390964
 10
222.2614721771
 20
119.9529194668
  0
LWPOLYLINE
  5
359
330
1F
100
AcDbEntity
  8
0
  6
Continuous
 62
     8
370
    35
100
AcDbPolyline
 90
       10
 70
   128
 43
0.0
 10
194.1604597763
 20
137.8066773736
 10
194.0855070963
 20
137.5550581711
 10
193.8262084152
 20
137.2863132436
 10
193.4162506512
 20
137.0897903062
 10
192.911000872
 20
136.9920308704
 10
192.3786958599
 20
137.0062378898
 10
191.8912263564
 20
137.1304926276
 10
191.5144278191
 20
137.3480137931
 10
191.2991889785
 20
137.6294239475
 10
191.2606796824
 20
137.8187601488
  0
LWPOLYLINE
  5
35A
330
1F
100
AcDbEntity
  8
0
  6
Continuous
 62
     8
370
    35
100
AcDbPolyline
 90
       10
 70
   128
 43
0.0
 10
203.2402841363
 20
125.1755273026
 10
203.1850111231
 20
124.937670898
 10
202.9474889201
 20
124.6622995289
 10
202.5536905767
 20
124.4550563437
 10
202.0568007414
 20
124.343930683
 10
201.5239271397
 20
124.343930683
 10
201.0270373043
 20
124.4550563437
 10
200.633238961
 20
124.6622995289
 10
200.3957167579
 20
124.937670898
 10
200.3403764631
 20
125.1632663468
  0
ARC
  5
35B
330
1F
100
AcDbEntity
  8
0
  6
Continuous
 62
     8
370
    35
100
AcDbCircle
 10
253.9383240483
 20
137.8580163446
 30
0.0
 40
0.6778107816231566
100
AcDbArc
 50
181.9066733331
 51
248.0872826806
  0
LWPOLYLINE
  5
35C
330
1F
100
AcDbEntity
  8
0
  6
Continuous
 62
     8
370
    35
100
AcDbPolyline
 90
        8
 70
   128
 43
0.0
 10
256.1606686322
 20
137.8233817298
 10
256.1467692821
 20
137.7054247885
 10
255.9774266237
 20
137.4137502994
 10
255.6370020255
 20
137.1770867198
 10
255.1714717157
 20
137.0273967774
 10
254.6437081423
 20
136.9848969285
 10
254.1249887002
 20
137.0553270132
 10
253.6853693246
 20
137.2291750582
  0
LINE
  5
35D
330
1F
100
AcDbEntity
  8
0
  6
Continuous
 62
     7
370
    35
100
AcDbLine
 10
101.9614451264
 20
163.7429491398
 30
0.0
 11
101.7114451264
 21
163.7429491398
 31
0.0
  0
LINE
  5
35E
330
1F
100
AcDbEntity
  8
0
  6
Continuous
 62
     7
370
    35
100
AcDbLine
 10
101.7114451264
 20
143.7429491398
 30
0.0
 11
101.9614451264
 21
143.7429491398
 31
0.0
  0
LINE
  5
35F
330
1F
100
AcDbEntity
  8
0
  6
Continuous
 62
     7
370
    35
100
AcDbLine
 10
103.9614451264
 20
164.2429491398
 30
0.0
 11
103.4614451264
 21
164.2429491398
 31
0.0
  0
LINE
  5
360
330
1F
100
AcDbEntity
  8
0
  6
Continuous
 62
     7
370
    35
100
AcDbLine
 10
103.4614451264
 20
143.2429491398
 30
0.0
 11
103.9614451264
 21
143.2429491398
 31
0.0
  0
LINE
  5
361
330
1F
100
AcDbEntity
  8
0
  6
Continuous
 62
     7
370
    35
100
AcDbLine
 10
132.1148387876
 20
143.7429491398
 30
0.0
 11
132.3648387876
 21
143.7429491398
 31
0.0
  0
LINE
  5
362
330
1F
100
AcDbEntity
  8
0
  6
Continuous
 62
     7
370
    35
100
AcDbLine
 10
132.3648387876
 20
163.7429491398
 30
0.0
 11
132.1148387876
 21
163.7429491398
 31
0.0
  0
LINE
  5
363
330
1F
100
AcDbEntity
  8
0
  6
Continuous
 62
     7
370
    35
100
AcDbLine
 10
130.1148387876
 20
143.2429491398
 30
0.0
 11
130.6148387876
 21
143.2429491398
 31
0.0
  0
LINE
  5
364
330
1F
100
AcDbEntity
  8
0
  6
Continuous
 62
     7
370
    35
100
AcDbLine
 10
130.6148387876
 20
164.2429491398
 30
0.0
 11
130.1148387876
 21
164.2429491398
 31
0.0
  0
CIRCLE
  5
365
330
1F
100
AcDbEntity
  8
0
  6
Continuous
 62
     7
370
    35
100
AcDbCircle
 10
117.038141957
 20
153.7429491398
 30
0.0
 40
34.49999999999999
  0
CIRCLE
  5
366
330
1F
100
AcDbEntity
  8
0
  6
Continuous
 62
     7
370
    35
100
AcDbCircle
 10
117.038141957
 20
153.7429491398
 30
0.0
 40
33.25
  0
LWPOLYLINE
  5
367
330
1F
100
AcDbEntity
  8
0
  6
Continuous
 62
     7
370
    35
100
AcDbPolyline
 90
       58
 70
   128
 43
0.0
 10
98.9992643152
 20
144.2459969797
 10
99.9204992313
 20
143.95911807
 10
100.8634738045
 20
143.791001616
 10
101.8167416009
 20
143.7436883236
 10
102.7687312407
 20
143.8177525122
 10
103.7078868593
 20
144.0122951428
 10
104.6228083797
 20
144.3249547314
 10
105.5023898941
 20
144.7519360142
 10
106.3359544743
 20
145.2880560168
 10
107.1133837756
 20
145.9268069686
 10
107.8252408593
 20
146.6604352983
 10
108.4628847448
 20
147.4800357519
 10
109.0185752991
 20
148.37565949
 10
109.4855671916
 20
149.3364348537
 10
109.8581917733
 20
150.3506993316
 10
110.1319258866
 20
151.406141127
 10
110.3034467702
 20
152.4899486061
 10
110.3706723928
 20
153.5889658143
 10
110.3327867265
 20
154.6898521715
 10
110.190249652
 20
155.7792444086
 10
109.9447913762
 20
156.8439187796
 10
109.5993914301
 20
157.8709515798
 10
109.1582425013
 20
158.8478760224
 10
108.6266995399
 20
159.7628335679
 10
108.0112147577
 20
160.6047178712
 10
107.319259306
 20
161.3633095973
 10
106.5592325867
 20
162.0294004703
 10
105.7403602946
 20
162.5949050492
 10
104.8725824301
 20
163.0529588746
 10
103.966432641
 20
163.3980017934
 10
103.0329103581
 20
163.6258454522
 10
102.0833472774
 20
163.7337241374
 10
101.1292698083
 20
163.720328348
 10
100.182259159
 20
163.5858206908
 10
99.2538107558
 20
163.3318339064
 10
98.3551947047
 20
162.9614510504
 10
97.4973189873
 20
162.4791680689
 10
96.6905970525
 20
161.890839224
 10
95.9448214119
 20
161.203606031
 10
95.2690447716
 20
160.4258105697
 10
94.6714701445
 20
159.5668942235
 10
94.159351277
 20
158.6372830733
 10
93.7389045985
 20
157.6482613393
 10
93.4152337622
 20
156.6118344054
 10
93.1922676934
 20
155.5405830906
 10
93.0727128983
 20
154.4475109348
 10
93.0580206102
 20
153.3458863533
 10
93.1483691734
 20
152.2490815761
 10
93.3426618788
 20
151.1704103275
 10
93.6385402762
 20
150.1229662153
 10
94.0324128026
 20
149.1194637919
 10
94.5194983792
 20
148.1720842176
 10
95.0938844468
 20
147.2923273969
 10
95.7485987367
 20
146.4908723859
 10
96.4756939042
 20
145.7774477628
 10
97.2663439991
 20
145.1607135361
 10
98.1109516001
 20
144.6481560238
 10
98.9992643152
 20
144.2459969797
  0
ARC
  5
368
330
1F
100
AcDbEntity
  8
0
  6
Continuous
 62
     7
370
    35
100
AcDbCircle
 10
101.9529279687
 20
156.1341479317
 30
0.0
 40
7.608805975010275
100
AcDbArc
 50
69.0488249837
 51
89.9358641435
  0
LWPOLYLINE
  5
369
330
1F
100
AcDbEntity
  8
0
  6
Continuous
 62
     7
370
    35
100
AcDbPolyline
 90
       27
 70
   128
 43
0.0
 10
101.9614451264
 20
143.7429491398
 10
102.5436204444
 20
143.7655699315
 10
103.4906310937
 20
143.9000775888
 10
104.4190794969
 20
144.1540643731
 10
105.317695548
 20
144.5244472291
 10
106.1755712655
 20
145.0067302106
 10
106.9822932002
 20
145.5950590555
 10
107.7280688408
 20
146.2822922486
 10
108.4038454811
 20
147.0600877098
 10
109.0014201083
 20
147.919004056
 10
109.5135389758
 20
148.8486152062
 10
109.9339856542
 20
149.8376369403
 10
110.2576564906
 20
150.8740638742
 10
110.4806225593
 20
151.9453151889
 10
110.6001773544
 20
153.0383873447
 10
110.6148696426
 20
154.1400119262
 10
110.5245210794
 20
155.2368167034
 10
110.3302283739
 20
156.315487952
 10
110.0343499765
 20
157.3629320643
 10
109.6404774501
 20
158.3664344876
 10
109.1533918735
 20
159.3138140619
 10
108.5790058059
 20
160.1935708826
 10
107.9242915161
 20
160.9950258936
 10
107.1971963485
 20
161.7084505167
 10
106.4065462537
 20
162.3251847435
 10
105.5619386526
 20
162.8377422558
 10
104.6736259376
 20
163.2399012998
  0
LWPOLYLINE
  5
36A
330
1F
100
AcDbEntity
  8
0
  6
Continuous
 62
     7
370
    35
100
AcDbPolyline
 90
       49
 70
   128
 43
0.0
 10
99.7954831105
 20
147.0340307924
 10
99.0535050213
 20
147.3801977551
 10
98.3570050243
 20
147.835233158
 10
97.7179004274
 20
148.3913512192
 10
97.1471264876
 20
149.0390366047
 10
96.6544493051
 20
149.7672072378
 10
96.2482987232
 20
150.5634039171
 10
95.9356240909
 20
151.4140034967
 10
95.7217753579
 20
152.304451982
 10
95.6104115353
 20
153.2195135525
 10
95.603438089
 20
154.143531251
 10
95.7009743365
 20
155.0606948785
 10
95.9013514057
 20
155.955311511
 10
96.2011407892
 20
156.8120740101
 10
96.5952130078
 20
157.6163229316
 10
97.0768253764
 20
158.3542973537
 10
97.6377373738
 20
159.0133703293
 10
98.2683516404
 20
159.5822649372
 10
98.9578781911
 20
160.0512472328
 10
99.6945190355
 20
160.412292799
 10
100.4656700445
 20
160.6592240461
 10
101.2581366105
 20
160.787815912
 10
102.058359411
 20
160.7958681543
 10
102.8526464118
 20
160.6832429967
 10
103.6274071423
 20
160.4518674871
 10
104.3693852314
 20
160.1057005245
 10
105.0658852285
 20
159.6506651216
 10
105.7049898253
 20
159.0945470603
 10
106.2757637652
 20
158.4468616748
 10
106.7684409476
 20
157.7186910417
 10
107.1745915296
 20
156.9224943624
 10
107.4872661618
 20
156.0718947828
 10
107.7011148948
 20
155.1814462975
 10
107.8124787174
 20
154.2663847271
 10
107.8194521638
 20
153.3423670286
 10
107.7219159162
 20
152.4252034011
 10
107.5215388471
 20
151.5305867685
 10
107.2217494635
 20
150.6738242695
 10
106.827677245
 20
149.8695753479
 10
106.3460648764
 20
149.1316009258
 10
105.7851528789
 20
148.4725279502
 10
105.1545386124
 20
147.9036333423
 10
104.4650120617
 20
147.4346510468
 10
103.7283712173
 20
147.0736054805
 10
102.9572202083
 20
146.8266742334
 10
102.1647536422
 20
146.6980823675
 10
101.3645308418
 20
146.6900301253
 10
100.5702438409
 20
146.8026552828
 10
99.7954831105
 20
147.0340307924
  0
ARC
  5
36B
330
1F
100
AcDbEntity
  8
0
  6
Continuous
 62
     7
370
    35
100
AcDbCircle
 10
106.4731142314
 20
153.7429491398
 30
0.0
 40
8.416245529236773
100
AcDbArc
 50
122.9662218031
 51
237.0337781969
  0
LWPOLYLINE
  5
36C
330
1F
100
AcDbEntity
  8
0
  6
Continuous
 62
     7
370
    35
100
AcDbPolyline
 90
       31
 70
   128
 43
0.0
 10
106.3092349781
 20
163.7147489078
 10
107.2262387825
 20
163.3007612134
 10
108.0991038235
 20
162.7747169113
 10
108.9175965565
 20
162.1427833899
 10
109.6721209026
 20
161.4123694919
 10
110.3538307536
 20
160.5920386525
 10
110.954733685
 20
159.6914085008
 10
111.4677846592
 20
158.7210381017
 10
111.8869686226
 20
157.6923041611
 10
112.2073710266
 20
156.6172676439
 10
112.4252354459
 20
155.5085323701
 10
112.5380076193
 20
154.3790972473
 10
112.5443653963
 20
153.2422038696
 10
112.4442342378
 20
152.1111812723
 10
112.2387880899
 20
150.9992896613
 10
111.930435621
 20
149.9195649491
 10
111.5227919818
 20
148.8846659209
 10
111.0206364213
 20
147.9067258214
 10
110.4298562543
 20
146.9972101042
 10
109.7573778381
 20
146.1667820095
 10
109.0110853673
 20
145.4251775475
 10
108.1997284387
 20
144.7810913523
 10
107.3328194706
 20
144.2420747458
 10
106.4205221779
 20
143.8144472049
 10
105.4735324123
 20
143.5032222714
 10
104.5029527629
 20
143.3120487732
 10
103.5201623887
 20
143.2431680447
 10
102.5366836084
 20
143.2973876495
 10
101.5640468113
 20
143.4740719123
 10
100.6136552746
 20
143.7711493717
 10
100.3900165549
 20
143.8600462915
  0
ARC
  5
36D
330
1F
100
AcDbEntity
  8
0
  6
Continuous
 62
     7
370
    35
100
AcDbCircle
 10
103.4606826427
 20
156.2755570851
 30
0.0
 40
7.965916480993249
100
AcDbArc
 50
69.0475807121
 51
112.673266556
  0
LWPOLYLINE
  5
36E
330
1F
100
AcDbEntity
  8
0
  6
Continuous
 62
     7
370
    35
100
AcDbPolyline
 90
       28
 70
   128
 43
0.0
 10
106.8092349781
 20
163.7147489078
 10
107.7262387825
 20
163.3007612134
 10
108.5991038235
 20
162.7747169113
 10
109.4175965565
 20
162.1427833899
 10
110.1721209026
 20
161.4123694919
 10
110.8538307536
 20
160.5920386525
 10
111.454733685
 20
159.6914085008
 10
111.9677846592
 20
158.7210381017
 10
112.3869686226
 20
157.6923041611
 10
112.7073710266
 20
156.6172676439
 10
112.9252354459
 20
155.5085323701
 10
113.0380076193
 20
154.3790972473
 10
113.0443653963
 20
153.2422038696
 10
112.9442342378
 20
152.1111812723
 10
112.7387880899
 20
150.9992896613
 10
112.430435621
 20
149.9195649491
 10
112.0227919818
 20
148.8846659209
 10
111.5206364213
 20
147.9067258214
 10
110.9298562543
 20
146.9972101042
 10
110.2573778381
 20
146.1667820095
 10
109.5110853673
 20
145.4251775475
 10
108.6997284387
 20
144.7810913523
 10
107.8328194706
 20
144.2420747458
 10
106.9205221779
 20
143.8144472049
 10
105.9735324123
 20
143.5032222714
 10
105.0029527629
 20
143.3120487732
 10
104.0201623887
 20
143.2431680447
 10
103.9614451264
 20
143.2429491398
  0
ARC
  5
36F
330
1F
100
AcDbEntity
  8
0
  6
Continuous
 62
     7
370
    35
100
AcDbCircle
 10
103.9523027295
 20
156.2526329077
 30
0.0
 40
7.990321462374426
100
AcDbArc
 50
69.0502460475
 51
89.9344430797
  0
LWPOLYLINE
  5
370
330
1F
100
AcDbEntity
  8
0
  6
Continuous
 62
     7
370
    35
100
AcDbPolyline
 90
       58
 70
   128
 43
0.0
 10
132.8083116125
 20
143.756068956
 10
133.7570692491
 20
143.8730153783
 10
134.6889270939
 20
144.1097694262
 10
135.5925736549
 20
144.4634572265
 10
136.4570398871
 20
144.9297854882
 10
137.2718323413
 20
145.5030936181
 10
138.027060541
 20
146.1764224319
 10
138.7135570389
 20
146.9415986301
 10
139.3229886974
 20
147.7893340102
 10
139.8479578417
 20
148.7093382129
 10
140.2820920577
 20
149.6904436336
 10
140.6201215439
 20
150.7207409815
 10
140.8579430804
 20
151.7877238424
 10
140.9926698358
 20
152.8784404898
 10
141.0226664098
 20
153.9796511011
 10
140.9475686848
 20
155.0779884712
 10
140.7682882452
 20
156.1601202724
 10
140.4870013129
 20
157.2129108904
 10
140.1071223301
 20
158.2235808733
 10
139.633262513
 20
159.1798620565
 10
139.071173878
 20
160.070146482
 10
138.4276794196
 20
160.8836273028
 10
137.7105902889
 20
161.6104299637
 10
136.9286109765
 20
162.241732065
 10
136.091233652
 20
162.7698704543
 10
135.2086229418
 20
163.1884342471
 10
134.2914925442
 20
163.4923426458
 10
133.3509751799
 20
163.6779066143
 10
132.3984874557
 20
163.7428736573
 10
131.4455912822
 20
163.6864551629
 10
130.5038535282
 20
163.5093359752
 10
129.5847056143
 20
163.2136660812
 10
128.699304751
 20
162.8030345129
 10
127.8583985055
 20
162.2824257813
 10
127.0721943404
 20
161.6581593712
 10
126.3502357093
 20
160.9378130311
 10
125.701286212
 20
160.1301307897
 10
125.1332232163
 20
159.2449168155
 10
124.6529422374
 20
158.2929164068
 10
124.2662732358
 20
157.285685559
 10
123.9779098493
 20
156.2354506902
 10
123.791352419
 20
155.1549602291
 10
123.7088654992
 20
154.0573298661
 10
123.7314503695
 20
152.9558833469
 10
123.85883288
 20
151.8639907403
 10
124.0894667798
 20
150.7949061433
 10
124.4205524856
 20
149.7616067948
 10
124.8480710654
 20
148.7766355491
 10
125.366833023
 20
147.8519486228
 10
125.9705412908
 20
146.9987704626
 10
126.6518676682
 20
146.2274574957
 10
127.402541776
 20
145.5473724166
 10
128.2134514475
 20
144.9667705369
 10
129.0747533376
 20
144.4926995769
 10
129.9759924083
 20
144.1309141158
 10
130.9062288379
 20
143.8858057392
 10
131.8541708165
 20
143.7603497306
 10
132.8083116125
 20
143.756068956
  0
LWPOLYLINE
  5
371
330
1F
100
AcDbEntity
  8
0
  6
Continuous
 62
     7
370
    35
100
AcDbPolyline
 90
       49
 70
   128
 43
0.0
 10
132.6781206618
 20
146.6879316385
 10
131.8779483804
 20
146.7010708656
 10
131.0861069289
 20
146.8346985823
 10
130.3161449341
 20
147.0865283814
 10
129.5812366591
 20
147.4522513852
 10
128.8939565882
 20
147.9256099716
 10
128.2660642741
 20
148.4985048441
 10
127.7083031284
 20
149.1611336126
 10
127.2302165987
 20
149.902158515
 10
126.8399848784
 20
150.7089004099
 10
126.5442849402
 20
151.5675557197
 10
126.3481762921
 20
152.4634326141
 10
126.2550144074
 20
153.381202391
 10
126.2663933118
 20
154.3051617551
 10
126.3821183092
 20
155.2195015054
 10
126.6002093126
 20
156.1085770354
 10
126.9169347246
 20
156.9571760162
 10
127.3268752856
 20
157.7507786841
 10
127.8230167989
 20
158.4758062772
 10
128.3968701456
 20
159.1198533725
 10
129.038616536
 20
159.6719001456
 10
129.7372755112
 20
160.1225009232
 10
130.4808928226
 20
160.4639458011
 10
131.2567449719
 20
160.6903925626
 10
132.0515569135
 20
160.797966641
 10
132.8517291948
 20
160.7848274139
 10
133.6435706463
 20
160.6511996972
 10
134.4135326412
 20
160.3993698981
 10
135.1484409162
 20
160.0336468943
 10
135.835720987
 20
159.5602883079
 10
136.4636133011
 20
158.9873934354
 10
137.0213744469
 20
158.3247646669
 10
137.4994609765
 20
157.5837397645
 10
137.8896926968
 20
156.7769978696
 10
138.185392635
 20
155.9183425598
 10
138.3815012832
 20
155.0224656654
 10
138.4746631678
 20
154.1046958885
 10
138.4632842634
 20
153.1807365244
 10
138.3475592661
 20
152.2663967741
 10
138.1294682626
 20
151.3773212441
 10
137.8127428506
 20
150.5287222633
 10
137.4028022896
 20
149.7351195955
 10
136.9066607764
 20
149.0100920023
 10
136.3328074296
 20
148.366044907
 10
135.6910610393
 20
147.8139981339
 10
134.992402064
 20
147.3633973563
 10
134.2487847526
 20
147.0219524785
 10
133.4729326034
 20
146.7955057169
 10
132.6781206618
 20
146.6879316385
  0
LWPOLYLINE
  5
372
330
1F
100
AcDbEntity
  8
0
  6
Continuous
 62
     7
370
    35
100
AcDbPolyline
 90
       31
 70
   128
 43
0.0
 10
132.1148387876
 20
163.7429491398
 10
131.6713659627
 20
163.7298293235
 10
130.7226083261
 20
163.6128829012
 10
129.7907504813
 20
163.3761288533
 10
128.8871039203
 20
163.022441053
 10
128.0226376881
 20
162.5561127913
 10
127.2078452339
 20
161.9828046615
 10
126.4526170342
 20
161.3094758476
 10
125.7661205363
 20
160.5442996494
 10
125.1566888779
 20
159.6965642693
 10
124.6317197335
 20
158.7765600666
 10
124.1975855176
 20
157.7954546459
 10
123.8595560313
 20
156.7651572981
 10
123.6217344949
 20
155.6981744372
 10
123.4870077395
 20
154.6074577898
 10
123.4570111654
 20
153.5062471784
 10
123.5321088905
 20
152.4079098083
 10
123.71138933
 20
151.3257780071
 10
123.9926762623
 20
150.2729873891
 10
124.3725552452
 20
149.2623174063
 10
124.8464150622
 20
148.306036223
 10
125.4085036972
 20
147.4157517975
 10
126.0519981556
 20
146.6022709767
 10
126.7690872863
 20
145.8754683158
 10
127.5510665987
 20
145.2441662145
 10
128.3884439232
 20
144.7160278252
 10
129.2710546334
 20
144.2974640324
 10
130.188185031
 20
143.9935556337
 10
131.1287023953
 20
143.8079916652
 10
132.0811901195
 20
143.7430246222
 10
132.1148387876
 20
143.7429491398
  0
ARC
  5
373
330
1F
100
AcDbEntity
  8
0
  6
Continuous
 62
     7
370
    35
100
AcDbCircle
 10
127.6063286767
 20
153.7429491398
 30
0.0
 40
8.41452699737098
100
AcDbArc
 50
302.9481750406
 51
57.0518249594
  0
LINE
  5
374
330
1F
100
AcDbEntity
  8
0
  6
Continuous
 62
     7
370
    35
100
AcDbLine
 10
129.6491923215
 20
164.2291733327
 30
0.0
 11
130.1148387876
 21
164.2429491398
 31
0.0
  0
LWPOLYLINE
  5
375
330
1F
100
AcDbEntity
  8
0
  6
Continuous
 62
     7
370
    35
100
AcDbPolyline
 90
       30
 70
   128
 43
0.0
 10
130.1148387876
 20
143.2429491398
 10
129.5958904214
 20
143.2600619679
 10
128.6173797842
 20
143.3863012565
 10
127.6564254847
 20
143.6339627724
 10
126.7242938334
 20
144.0001429107
 10
125.8319132217
 20
144.480548544
 10
124.9897459963
 20
145.0695473557
 10
124.207665798
 20
145.7602338731
 10
123.494841802
 20
146.5445104284
 10
122.859631218
 20
147.413182096
 10
122.3094813092
 20
148.3560644947
 10
121.8508420803
 20
149.3621031907
 10
121.489090657
 20
150.4195033
 10
121.2284682439
 20
151.5158677731
 10
121.0720304006
 20
152.638342739
 10
121.0216112177
 20
153.7737682049
 10
121.077801814
 20
154.9088323456
 10
121.2399434062
 20
156.0302275716
 10
121.5061350323
 20
157.1248065492
 10
121.873255839
 20
158.1797363408
 10
122.3370016704
 20
159.1826488591
 10
122.8919355306
 20
160.1217858717
 10
123.5315513276
 20
160.9861368559
 10
124.2483501508
 20
161.7655680866
 10
125.0339281896
 20
162.4509414453
 10
125.8790752596
 20
163.034221556
 10
126.7738827842
 20
163.5085699927
 10
127.7078599632
 20
163.8684254538
 10
128.6700567683
 20
164.1095689628
 10
129.6491923215
 20
164.2291733327
  0
ARC
  5
376
330
1F
100
AcDbEntity
  8
0
  6
Continuous
 62
     7
370
    35
100
AcDbCircle
 10
130.6076389834
 20
156.2468799307
 30
0.0
 40
7.995447535798647
100
AcDbArc
 50
67.3533008266
 51
93.287054678
  0
LWPOLYLINE
  5
377
330
1F
100
AcDbEntity
  8
0
  6
Continuous
 62
     7
370
    35
100
AcDbPolyline
 90
       34
 70
   128
 43
0.0
 10
133.686267359
 20
143.8600462915
 10
133.021817612
 20
143.6174728258
 10
132.059620807
 20
143.3763293167
 10
131.0804852537
 20
143.2567249468
 10
130.0958904214
 20
143.2600619679
 10
129.1173797842
 20
143.3863012565
 10
128.1564254847
 20
143.6339627724
 10
127.2242938334
 20
144.0001429107
 10
126.3319132217
 20
144.480548544
 10
125.4897459963
 20
145.0695473557
 10
124.707665798
 20
145.7602338731
 10
123.994841802
 20
146.5445104284
 10
123.359631218
 20
147.413182096
 10
122.8094813092
 20
148.3560644947
 10
122.3508420803
 20
149.3621031907
 10
121.989090657
 20
150.4195033
 10
121.7284682439
 20
151.5158677731
 10
121.5720304006
 20
152.638342739
 10
121.5216112177
 20
153.7737682049
 10
121.577801814
 20
154.9088323456
 10
121.7399434062
 20
156.0302275716
 10
122.0061350323
 20
157.1248065492
 10
122.373255839
 20
158.1797363408
 10
122.8370016704
 20
159.1826488591
 10
123.3919355306
 20
160.1217858717
 10
124.0315513276
 20
160.9861368559
 10
124.7483501508
 20
161.7655680866
 10
125.5339281896
 20
162.4509414453
 10
126.3790752596
 20
163.034221556
 10
127.2738827842
 20
163.5085699927
 10
128.2078599632
 20
163.8684254538
 10
129.1700567683
 20
164.1095689628
 10
130.1491923215
 20
164.2291733327
 10
130.1491923215
 20
164.2291733327
  0
LINE
  5
378
330
1F
100
AcDbEntity
  8
0
  6
Continuous
 62
     7
370
    35
100
AcDbLine
 10
135.9014064031
 20
154.7429491398
 30
0.0
 11
132.0047715041
 21
154.7429491398
 31
0.0
  0
ARC
  5
379
330
1F
100
AcDbEntity
  8
0
  6
Continuous
 62
     7
370
    35
100
AcDbCircle
 10
117.038141957
 20
153.7429491398
 30
0.0
 40
15.00000000000001
100
AcDbArc
 50
3.8225537293
 51
26.5753561202
  0
LINE
  5
37A
330
1F
100
AcDbEntity
  8
0
  6
Continuous
 62
     7
370
    35
100
AcDbLine
 10
132.0047715041
 20
152.7429491398
 30
0.0
 11
135.9014064031
 21
152.7429491398
 31
0.0
  0
ARC
  5
37B
330
1F
100
AcDbEntity
  8
0
  6
Continuous
 62
     7
370
    35
100
AcDbCircle
 10
117.038141957
 20
153.7429491398
 30
0.0
 40
15.0
100
AcDbArc
 50
333.4246438798
 51
356.1774462707
  0
ARC
  5
37C
330
1F
100
AcDbEntity
  8
0
  6
Continuous
 62
     7
370
    35
100
AcDbCircle
 10
117.038141957
 20
153.7429491398
 30
0.0
 40
15.0
100
AcDbArc
 50
153.4246438798
 51
206.5753561202
  0
CIRCLE
  5
37D
330
1F
100
AcDbEntity
  8
0
  6
Continuous
 62
     7
370
    35
100
AcDbCircle
 10
117.038141957
 20
153.7429491398
 30
0.0
 40
27.95979256003164
  0
CIRCLE
  5
37E
330
1F
100
AcDbEntity
  8
0
  6
Continuous
 62
     7
370
    35
100
AcDbCircle
 10
117.038141957
 20
153.7429491398
 30
0.0
 40
33.0
  0
CIRCLE
  5
37F
330
1F
100
AcDbEntity
  8
0
  6
Continuous
 62
     7
370
    35
100
AcDbCircle
 10
117.038141957
 20
122.7429491398
 30
0.0
 40
1.5
  0
CIRCLE
  5
380
330
1F
100
AcDbEntity
  8
0
  6
Continuous
 62
     7
370
    35
100
AcDbCircle
 10
95.1178317402
 20
131.822638923
 30
0.0
 40
1.500000000000002
  0
CIRCLE
  5
381
330
1F
100
AcDbEntity
  8
0
  6
Continuous
 62
     7
370
    35
100
AcDbCircle
 10
86.038141957
 20
153.7429491398
 30
0.0
 40
1.5
  0
CIRCLE
  5
382
330
1F
100
AcDbEntity
  8
0
  6
Continuous
 62
     7
370
    35
100
AcDbCircle
 10
95.1178317402
 20
175.6632593565
 30
0.0
 40
1.500000000000022
  0
CIRCLE
  5
383
330
1F
100
AcDbEntity
  8
0
  6
Continuous
 62
     7
370
    35
100
AcDbCircle
 10
117.038141957
 20
184.7429491398
 30
0.0
 40
1.5
  0
CIRCLE
  5
384
330
1F
100
AcDbEntity
  8
0
  6
Continuous
 62
     7
370
    35
100
AcDbCircle
 10
138.9584521738
 20
175.6632593565
 30
0.0
 40
1.499999999999992
  0
CIRCLE
  5
385
330
1F
100
AcDbEntity
  8
0
  6
Continuous
 62
     7
370
    35
100
AcDbCircle
 10
148.038141957
 20
153.7429491398
 30
0.0
 40
1.5
  0
CIRCLE
  5
386
330
1F
100
AcDbEntity
  8
0
  6
Continuous
 62
     7
370
    35
100
AcDbCircle
 10
138.9584521738
 20
131.822638923
 30
0.0
 40
1.500000000000012
  0
LINE
  5
387
330
1F
100
AcDbEntity
  8
0
  6
Continuous
 62
     7
370
    35
100
AcDbLine
 10
148.038141957
 20
153.9550811741
 30
0.0
 11
148.6038273819
 21
154.5207665991
 31
0.0
  0
LINE
  5
388
330
1F
100
AcDbEntity
  8
0
  6
Continuous
 62
     7
370
    35
100
AcDbLine
 10
147.472456532
 20
154.5207665991
 30
0.0
 11
148.038141957
 21
153.9550811741
 31
0.0
  0
LINE
  5
389
330
1F
100
AcDbEntity
  8
0
  6
Continuous
 62
     7
370
    35
100
AcDbLine
 10
147.2603244977
 20
154.3086345647
 30
0.0
 11
147.472456532
 21
154.5207665991
 31
0.0
  0
LINE
  5
38A
330
1F
100
AcDbEntity
  8
0
  6
Continuous
 62
     7
370
    35
100
AcDbLine
 10
147.2603244977
 20
154.3086345647
 30
0.0
 11
147.8260099226
 21
153.7429491398
 31
0.0
  0
LINE
  5
38B
330
1F
100
AcDbEntity
  8
0
  6
Continuous
 62
     7
370
    35
100
AcDbLine
 10
147.2603244977
 20
153.1772637148
 30
0.0
 11
147.8260099226
 21
153.7429491398
 31
0.0
  0
LINE
  5
38C
330
1F
100
AcDbEntity
  8
0
  6
Continuous
 62
     7
370
    35
100
AcDbLine
 10
147.2603244977
 20
153.1772637148
 30
0.0
 11
147.472456532
 21
152.9651316805
 31
0.0
  0
LINE
  5
38D
330
1F
100
AcDbEntity
  8
0
  6
Continuous
 62
     7
370
    35
100
AcDbLine
 10
147.472456532
 20
152.9651316805
 30
0.0
 11
148.038141957
 21
153.5308171054
 31
0.0
  0
LINE
  5
38E
330
1F
100
AcDbEntity
  8
0
  6
Continuous
 62
     7
370
    35
100
AcDbLine
 10
148.038141957
 20
153.5308171054
 30
0.0
 11
148.6038273819
 21
152.9651316805
 31
0.0
  0
LINE
  5
38F
330
1F
100
AcDbEntity
  8
0
  6
Continuous
 62
     7
370
    35
100
AcDbLine
 10
148.6038273819
 20
152.9651316805
 30
0.0
 11
148.8159594163
 21
153.1772637148
 31
0.0
  0
LINE
  5
390
330
1F
100
AcDbEntity
  8
0
  6
Continuous
 62
     7
370
    35
100
AcDbLine
 10
148.2502739913
 20
153.7429491398
 30
0.0
 11
148.8159594163
 21
153.1772637148
 31
0.0
  0
LINE
  5
391
330
1F
100
AcDbEntity
  8
0
  6
Continuous
 62
     7
370
    35
100
AcDbLine
 10
148.2502739913
 20
153.7429491398
 30
0.0
 11
148.8159594163
 21
154.3086345647
 31
0.0
  0
LINE
  5
392
330
1F
100
AcDbEntity
  8
0
  6
Continuous
 62
     7
370
    35
100
AcDbLine
 10
148.6038273819
 20
154.5207665991
 30
0.0
 11
148.8159594163
 21
154.3086345647
 31
0.0
  0
CIRCLE
  5
393
330
1F
100
AcDbEntity
  8
0
  6
Continuous
 62
     7
370
    35
100
AcDbCircle
 10
148.038141957
 20
153.7429491398
 30
0.0
 40
1.149999999999985
  0
CIRCLE
  5
394
330
1F
100
AcDbEntity
  8
0
  6
Continuous
 62
     7
370
    35
100
AcDbCircle
 10
148.038141957
 20
153.7429491398
 30
0.0
 40
1.45
  0
LINE
  5
395
330
1F
100
AcDbEntity
  8
0
  6
Continuous
 62
     7
370
    35
100
AcDbLine
 10
116.8260099226
 20
184.7429491398
 30
0.0
 11
116.2603244977
 21
185.3086345647
 31
0.0
  0
LINE
  5
396
330
1F
100
AcDbEntity
  8
0
  6
Continuous
 62
     7
370
    35
100
AcDbLine
 10
116.2603244977
 20
184.1772637148
 30
0.0
 11
116.8260099226
 21
184.7429491398
 31
0.0
  0
LINE
  5
397
330
1F
100
AcDbEntity
  8
0
  6
Continuous
 62
     7
370
    35
100
AcDbLine
 10
116.472456532
 20
183.9651316805
 30
0.0
 11
116.2603244977
 21
184.1772637148
 31
0.0
  0
LINE
  5
398
330
1F
100
AcDbEntity
  8
0
  6
Continuous
 62
     7
370
    35
100
AcDbLine
 10
116.472456532
 20
183.9651316805
 30
0.0
 11
117.038141957
 21
184.5308171054
 31
0.0
  0
LINE
  5
399
330
1F
100
AcDbEntity
  8
0
  6
Continuous
 62
     7
370
    35
100
AcDbLine
 10
117.6038273819
 20
183.9651316805
 30
0.0
 11
117.038141957
 21
184.5308171054
 31
0.0
  0
LINE
  5
39A
330
1F
100
AcDbEntity
  8
0
  6
Continuous
 62
     7
370
    35
100
AcDbLine
 10
117.6038273819
 20
183.9651316805
 30
0.0
 11
117.8159594163
 21
184.1772637148
 31
0.0
  0
LINE
  5
39B
330
1F
100
AcDbEntity
  8
0
  6
Continuous
 62
     7
370
    35
100
AcDbLine
 10
117.8159594163
 20
184.1772637148
 30
0.0
 11
117.2502739913
 21
184.7429491398
 31
0.0
  0
LINE
  5
39C
330
1F
100
AcDbEntity
  8
0
  6
Continuous
 62
     7
370
    35
100
AcDbLine
 10
117.2502739913
 20
184.7429491398
 30
0.0
 11
117.8159594163
 21
185.3086345647
 31
0.0
  0
LINE
  5
39D
330
1F
100
AcDbEntity
  8
0
  6
Continuous
 62
     7
370
    35
100
AcDbLine
 10
117.8159594163
 20
185.3086345647
 30
0.0
 11
117.6038273819
 21
185.5207665991
 31
0.0
  0
LINE
  5
39E
330
1F
100
AcDbEntity
  8
0
  6
Continuous
 62
     7
370
    35
100
AcDbLine
 10
117.038141957
 20
184.9550811741
 30
0.0
 11
117.6038273819
 21
185.5207665991
 31
0.0
  0
LINE
  5
39F
330
1F
100
AcDbEntity
  8
0
  6
Continuous
 62
     7
370
    35
100
AcDbLine
 10
117.038141957
 20
184.9550811741
 30
0.0
 11
116.472456532
 21
185.5207665991
 31
0.0
  0
LINE
  5
3A0
330
1F
100
AcDbEntity
  8
0
  6
Continuous
 62
     7
370
    35
100
AcDbLine
 10
116.2603244977
 20
185.3086345647
 30
0.0
 11
116.472456532
 21
185.5207665991
 31
0.0
  0
CIRCLE
  5
3A1
330
1F
100
AcDbEntity
  8
0
  6
Continuous
 62
     7
370
    35
100
AcDbCircle
 10
117.038141957
 20
184.7429491398
 30
0.0
 40
1.150000000000015
  0
CIRCLE
  5
3A2
330
1F
100
AcDbEntity
  8
0
  6
Continuous
 62
     7
370
    35
100
AcDbCircle
 10
117.038141957
 20
184.7429491398
 30
0.0
 40
1.44999999999999
  0
CIRCLE
  5
3A3
330
1F
100
AcDbEntity
  8
0
  6
Continuous
 62
     7
370
    35
100
AcDbCircle
 10
138.9584521738
 20
131.822638923
 30
0.0
 40
1.450000000000017
  0
CIRCLE
  5
3A4
330
1F
100
AcDbEntity
  8
0
  6
Continuous
 62
     7
370
    35
100
AcDbCircle
 10
138.9584521738
 20
131.822638923
 30
0.0
 40
1.150000000000034
  0
LINE
  5
3A5
330
1F
100
AcDbEntity
  8
0
  6
Continuous
 62
     7
370
    35
100
AcDbLine
 10
139.1084521738
 20
131.972638923
 30
0.0
 11
139.9084521738
 21
131.972638923
 31
0.0
  0
LINE
  5
3A6
330
1F
100
AcDbEntity
  8
0
  6
Continuous
 62
     7
370
    35
100
AcDbLine
 10
139.1084521738
 20
132.772638923
 30
0.0
 11
139.1084521738
 21
131.972638923
 31
0.0
  0
LINE
  5
3A7
330
1F
100
AcDbEntity
  8
0
  6
Continuous
 62
     7
370
    35
100
AcDbLine
 10
138.0084521738
 20
131.972638923
 30
0.0
 11
138.8084521738
 21
131.972638923
 31
0.0
  0
LINE
  5
3A8
330
1F
100
AcDbEntity
  8
0
  6
Continuous
 62
     7
370
    35
100
AcDbLine
 10
138.0084521738
 20
131.972638923
 30
0.0
 11
138.0084521738
 21
131.672638923
 31
0.0
  0
LINE
  5
3A9
330
1F
100
AcDbEntity
  8
0
  6
Continuous
 62
     7
370
    35
100
AcDbLine
 10
138.0084521738
 20
131.672638923
 30
0.0
 11
138.8084521738
 21
131.672638923
 31
0.0
  0
LINE
  5
3AA
330
1F
100
AcDbEntity
  8
0
  6
Continuous
 62
     7
370
    35
100
AcDbLine
 10
138.8084521738
 20
131.672638923
 30
0.0
 11
138.8084521738
 21
130.872638923
 31
0.0
  0
LINE
  5
3AB
330
1F
100
AcDbEntity
  8
0
  6
Continuous
 62
     7
370
    35
100
AcDbLine
 10
138.8084521738
 20
130.872638923
 30
0.0
 11
139.1084521738
 21
130.872638923
 31
0.0
  0
LINE
  5
3AC
330
1F
100
AcDbEntity
  8
0
  6
Continuous
 62
     7
370
    35
100
AcDbLine
 10
139.1084521738
 20
131.672638923
 30
0.0
 11
139.1084521738
 21
130.872638923
 31
0.0
  0
LINE
  5
3AD
330
1F
100
AcDbEntity
  8
0
  6
Continuous
 62
     7
370
    35
100
AcDbLine
 10
139.1084521738
 20
131.672638923
 30
0.0
 11
139.9084521738
 21
131.672638923
 31
0.0
  0
LINE
  5
3AE
330
1F
100
AcDbEntity
  8
0
  6
Continuous
 62
     7
370
    35
100
AcDbLine
 10
139.9084521738
 20
131.972638923
 30
0.0
 11
139.9084521738
 21
131.672638923
 31
0.0
  0
LINE
  5
3AF
330
1F
100
AcDbEntity
  8
0
  6
Continuous
 62
     7
370
    35
100
AcDbLine
 10
138.8084521738
 20
132.772638923
 30
0.0
 11
139.1084521738
 21
132.772638923
 31
0.0
  0
LINE
  5
3B0
330
1F
100
AcDbEntity
  8
0
  6
Continuous
 62
     7
370
    35
100
AcDbLine
 10
138.8084521738
 20
132.772638923
 30
0.0
 11
138.8084521738
 21
131.972638923
 31
0.0
  0
LINE
  5
3B1
330
1F
100
AcDbEntity
  8
0
  6
Continuous
 62
     7
370
    35
100
AcDbLine
 10
95.2678317402
 20
131.672638923
 30
0.0
 11
95.2678317402
 21
130.872638923
 31
0.0
  0
LINE
  5
3B2
330
1F
100
AcDbEntity
  8
0
  6
Continuous
 62
     7
370
    35
100
AcDbLine
 10
96.0678317402
 20
131.672638923
 30
0.0
 11
95.2678317402
 21
131.672638923
 31
0.0
  0
LINE
  5
3B3
330
1F
100
AcDbEntity
  8
0
  6
Continuous
 62
     7
370
    35
100
AcDbLine
 10
96.0678317402
 20
131.972638923
 30
0.0
 11
96.0678317402
 21
131.672638923
 31
0.0
  0
LINE
  5
3B4
330
1F
100
AcDbEntity
  8
0
  6
Continuous
 62
     7
370
    35
100
AcDbLine
 10
96.0678317402
 20
131.972638923
 30
0.0
 11
95.2678317402
 21
131.972638923
 31
0.0
  0
LINE
  5
3B5
330
1F
100
AcDbEntity
  8
0
  6
Continuous
 62
     7
370
    35
100
AcDbLine
 10
95.2678317402
 20
132.772638923
 30
0.0
 11
95.2678317402
 21
131.972638923
 31
0.0
  0
LINE
  5
3B6
330
1F
100
AcDbEntity
  8
0
  6
Continuous
 62
     7
370
    35
100
AcDbLine
 10
95.2678317402
 20
132.772638923
 30
0.0
 11
94.9678317402
 21
132.772638923
 31
0.0
  0
LINE
  5
3B7
330
1F
100
AcDbEntity
  8
0
  6
Continuous
 62
     7
370
    35
100
AcDbLine
 10
94.9678317402
 20
131.972638923
 30
0.0
 11
94.1678317402
 21
131.972638923
 31
0.0
  0
LINE
  5
3B8
330
1F
100
AcDbEntity
  8
0
  6
Continuous
 62
     7
370
    35
100
AcDbLine
 10
94.1678317402
 20
131.972638923
 30
0.0
 11
94.1678317402
 21
131.672638923
 31
0.0
  0
LINE
  5
3B9
330
1F
100
AcDbEntity
  8
0
  6
Continuous
 62
     7
370
    35
100
AcDbLine
 10
94.9678317402
 20
131.672638923
 30
0.0
 11
94.1678317402
 21
131.672638923
 31
0.0
  0
LINE
  5
3BA
330
1F
100
AcDbEntity
  8
0
  6
Continuous
 62
     7
370
    35
100
AcDbLine
 10
94.9678317402
 20
131.672638923
 30
0.0
 11
94.9678317402
 21
130.872638923
 31
0.0
  0
LINE
  5
3BB
330
1F
100
AcDbEntity
  8
0
  6
Continuous
 62
     7
370
    35
100
AcDbLine
 10
95.2678317402
 20
130.872638923
 30
0.0
 11
94.9678317402
 21
130.872638923
 31
0.0
  0
CIRCLE
  5
3BC
330
1F
100
AcDbEntity
  8
0
  6
Continuous
 62
     7
370
    35
100
AcDbCircle
 10
95.1178317402
 20
131.822638923
 30
0.0
 40
1.149999999999977
  0
LINE
  5
3BD
330
1F
100
AcDbEntity
  8
0
  6
Continuous
 62
     7
370
    35
100
AcDbLine
 10
94.9678317402
 20
132.772638923
 30
0.0
 11
94.9678317402
 21
131.972638923
 31
0.0
  0
CIRCLE
  5
3BE
330
1F
100
AcDbEntity
  8
0
  6
Continuous
 62
     7
370
    35
100
AcDbCircle
 10
95.1178317402
 20
131.822638923
 30
0.0
 40
1.44999999999996
  0
LINE
  5
3BF
330
1F
100
AcDbEntity
  8
0
  6
Continuous
 62
     7
370
    35
100
AcDbLine
 10
86.038141957
 20
153.5308171054
 30
0.0
 11
85.472456532
 21
152.9651316805
 31
0.0
  0
LINE
  5
3C0
330
1F
100
AcDbEntity
  8
0
  6
Continuous
 62
     7
370
    35
100
AcDbLine
 10
86.6038273819
 20
152.9651316805
 30
0.0
 11
86.038141957
 21
153.5308171054
 31
0.0
  0
LINE
  5
3C1
330
1F
100
AcDbEntity
  8
0
  6
Continuous
 62
     7
370
    35
100
AcDbLine
 10
86.8159594163
 20
153.1772637148
 30
0.0
 11
86.6038273819
 21
152.9651316805
 31
0.0
  0
LINE
  5
3C2
330
1F
100
AcDbEntity
  8
0
  6
Continuous
 62
     7
370
    35
100
AcDbLine
 10
86.8159594163
 20
153.1772637148
 30
0.0
 11
86.2502739913
 21
153.7429491398
 31
0.0
  0
LINE
  5
3C3
330
1F
100
AcDbEntity
  8
0
  6
Continuous
 62
     7
370
    35
100
AcDbLine
 10
86.8159594163
 20
154.3086345647
 30
0.0
 11
86.2502739913
 21
153.7429491398
 31
0.0
  0
LINE
  5
3C4
330
1F
100
AcDbEntity
  8
0
  6
Continuous
 62
     7
370
    35
100
AcDbLine
 10
86.8159594163
 20
154.3086345647
 30
0.0
 11
86.6038273819
 21
154.5207665991
 31
0.0
  0
LINE
  5
3C5
330
1F
100
AcDbEntity
  8
0
  6
Continuous
 62
     7
370
    35
100
AcDbLine
 10
86.6038273819
 20
154.5207665991
 30
0.0
 11
86.038141957
 21
153.9550811741
 31
0.0
  0
LINE
  5
3C6
330
1F
100
AcDbEntity
  8
0
  6
Continuous
 62
     7
370
    35
100
AcDbLine
 10
86.038141957
 20
153.9550811741
 30
0.0
 11
85.472456532
 21
154.5207665991
 31
0.0
  0
LINE
  5
3C7
330
1F
100
AcDbEntity
  8
0
  6
Continuous
 62
     7
370
    35
100
AcDbLine
 10
85.472456532
 20
154.5207665991
 30
0.0
 11
85.2603244977
 21
154.3086345647
 31
0.0
  0
LINE
  5
3C8
330
1F
100
AcDbEntity
  8
0
  6
Continuous
 62
     7
370
    35
100
AcDbLine
 10
85.8260099226
 20
153.7429491398
 30
0.0
 11
85.2603244977
 21
154.3086345647
 31
0.0
  0
LINE
  5
3C9
330
1F
100
AcDbEntity
  8
0
  6
Continuous
 62
     7
370
    35
100
AcDbLine
 10
85.8260099226
 20
153.7429491398
 30
0.0
 11
85.2603244977
 21
153.1772637148
 31
0.0
  0
LINE
  5
3CA
330
1F
100
AcDbEntity
  8
0
  6
Continuous
 62
     7
370
    35
100
AcDbLine
 10
85.472456532
 20
152.9651316805
 30
0.0
 11
85.2603244977
 21
153.1772637148
 31
0.0
  0
CIRCLE
  5
3CB
330
1F
100
AcDbEntity
  8
0
  6
Continuous
 62
     7
370
    35
100
AcDbCircle
 10
86.038141957
 20
153.7429491398
 30
0.0
 40
1.149999999999995
  0
CIRCLE
  5
3CC
330
1F
100
AcDbEntity
  8
0
  6
Continuous
 62
     7
370
    35
100
AcDbCircle
 10
86.038141957
 20
153.7429491398
 30
0.0
 40
1.45
  0
CIRCLE
  5
3CD
330
1F
100
AcDbEntity
  8
0
  6
Continuous
 62
     7
370
    35
100
AcDbCircle
 10
117.038141957
 20
122.7429491398
 30
0.0
 40
1.45
  0
CIRCLE
  5
3CE
330
1F
100
AcDbEntity
  8
0
  6
Continuous
 62
     7
370
    35
100
AcDbCircle
 10
117.038141957
 20
122.7429491398
 30
0.0
 40
1.150000000000015
  0
LINE
  5
3CF
330
1F
100
AcDbEntity
  8
0
  6
Continuous
 62
     7
370
    35
100
AcDbLine
 10
117.2502739913
 20
122.7429491398
 30
0.0
 11
117.8159594163
 21
122.1772637148
 31
0.0
  0
LINE
  5
3D0
330
1F
100
AcDbEntity
  8
0
  6
Continuous
 62
     7
370
    35
100
AcDbLine
 10
117.8159594163
 20
123.3086345647
 30
0.0
 11
117.2502739913
 21
122.7429491398
 31
0.0
  0
LINE
  5
3D1
330
1F
100
AcDbEntity
  8
0
  6
Continuous
 62
     7
370
    35
100
AcDbLine
 10
117.6038273819
 20
123.5207665991
 30
0.0
 11
117.8159594163
 21
123.3086345647
 31
0.0
  0
LINE
  5
3D2
330
1F
100
AcDbEntity
  8
0
  6
Continuous
 62
     7
370
    35
100
AcDbLine
 10
117.6038273819
 20
123.5207665991
 30
0.0
 11
117.038141957
 21
122.9550811741
 31
0.0
  0
LINE
  5
3D3
330
1F
100
AcDbEntity
  8
0
  6
Continuous
 62
     7
370
    35
100
AcDbLine
 10
116.472456532
 20
123.5207665991
 30
0.0
 11
117.038141957
 21
122.9550811741
 31
0.0
  0
LINE
  5
3D4
330
1F
100
AcDbEntity
  8
0
  6
Continuous
 62
     7
370
    35
100
AcDbLine
 10
116.2603244977
 20
123.3086345647
 30
0.0
 11
116.8260099226
 21
122.7429491398
 31
0.0
  0
LINE
  5
3D5
330
1F
100
AcDbEntity
  8
0
  6
Continuous
 62
     7
370
    35
100
AcDbLine
 10
116.8260099226
 20
122.7429491398
 30
0.0
 11
116.2603244977
 21
122.1772637148
 31
0.0
  0
LINE
  5
3D6
330
1F
100
AcDbEntity
  8
0
  6
Continuous
 62
     7
370
    35
100
AcDbLine
 10
116.2603244977
 20
122.1772637148
 30
0.0
 11
116.472456532
 21
121.9651316805
 31
0.0
  0
LINE
  5
3D7
330
1F
100
AcDbEntity
  8
0
  6
Continuous
 62
     7
370
    35
100
AcDbLine
 10
117.038141957
 20
122.5308171054
 30
0.0
 11
116.472456532
 21
121.9651316805
 31
0.0
  0
LINE
  5
3D8
330
1F
100
AcDbEntity
  8
0
  6
Continuous
 62
     7
370
    35
100
AcDbLine
 10
117.038141957
 20
122.5308171054
 30
0.0
 11
117.6038273819
 21
121.9651316805
 31
0.0
  0
LINE
  5
3D9
330
1F
100
AcDbEntity
  8
0
  6
Continuous
 62
     7
370
    35
100
AcDbLine
 10
117.8159594163
 20
122.1772637148
 30
0.0
 11
117.6038273819
 21
121.9651316805
 31
0.0
  0
LINE
  5
3DA
330
1F
100
AcDbEntity
  8
0
  6
Continuous
 62
     7
370
    35
100
AcDbLine
 10
116.472456532
 20
123.5207665991
 30
0.0
 11
116.2603244977
 21
123.3086345647
 31
0.0
  0
CIRCLE
  5
3DB
330
1F
100
AcDbEntity
  8
0
  6
Continuous
 62
     7
370
    35
100
AcDbCircle
 10
95.1178317402
 20
175.6632593565
 30
0.0
 40
1.450000000000003
  0
CIRCLE
  5
3DC
330
1F
100
AcDbEntity
  8
0
  6
Continuous
 62
     7
370
    35
100
AcDbCircle
 10
95.1178317402
 20
175.6632593565
 30
0.0
 40
1.150000000000006
  0
LINE
  5
3DD
330
1F
100
AcDbEntity
  8
0
  6
Continuous
 62
     7
370
    35
100
AcDbLine
 10
94.9678317402
 20
175.5132593565
 30
0.0
 11
94.1678317402
 21
175.5132593565
 31
0.0
  0
LINE
  5
3DE
330
1F
100
AcDbEntity
  8
0
  6
Continuous
 62
     7
370
    35
100
AcDbLine
 10
94.9678317402
 20
174.7132593565
 30
0.0
 11
94.9678317402
 21
175.5132593565
 31
0.0
  0
LINE
  5
3DF
330
1F
100
AcDbEntity
  8
0
  6
Continuous
 62
     7
370
    35
100
AcDbLine
 10
95.2678317402
 20
174.7132593565
 30
0.0
 11
94.9678317402
 21
174.7132593565
 31
0.0
  0
LINE
  5
3E0
330
1F
100
AcDbEntity
  8
0
  6
Continuous
 62
     7
370
    35
100
AcDbLine
 10
95.2678317402
 20
174.7132593565
 30
0.0
 11
95.2678317402
 21
175.5132593565
 31
0.0
  0
LINE
  5
3E1
330
1F
100
AcDbEntity
  8
0
  6
Continuous
 62
     7
370
    35
100
AcDbLine
 10
96.0678317402
 20
175.5132593565
 30
0.0
 11
95.2678317402
 21
175.5132593565
 31
0.0
  0
LINE
  5
3E2
330
1F
100
AcDbEntity
  8
0
  6
Continuous
 62
     7
370
    35
100
AcDbLine
 10
96.0678317402
 20
175.5132593565
 30
0.0
 11
96.0678317402
 21
175.8132593565
 31
0.0
  0
LINE
  5
3E3
330
1F
100
AcDbEntity
  8
0
  6
Continuous
 62
     7
370
    35
100
AcDbLine
 10
96.0678317402
 20
175.8132593565
 30
0.0
 11
95.2678317402
 21
175.8132593565
 31
0.0
  0
LINE
  5
3E4
330
1F
100
AcDbEntity
  8
0
  6
Continuous
 62
     7
370
    35
100
AcDbLine
 10
95.2678317402
 20
176.6132593565
 30
0.0
 11
94.9678317402
 21
176.6132593565
 31
0.0
  0
LINE
  5
3E5
330
1F
100
AcDbEntity
  8
0
  6
Continuous
 62
     7
370
    35
100
AcDbLine
 10
94.9678317402
 20
175.8132593565
 30
0.0
 11
94.9678317402
 21
176.6132593565
 31
0.0
  0
LINE
  5
3E6
330
1F
100
AcDbEntity
  8
0
  6
Continuous
 62
     7
370
    35
100
AcDbLine
 10
94.9678317402
 20
175.8132593565
 30
0.0
 11
94.1678317402
 21
175.8132593565
 31
0.0
  0
LINE
  5
3E7
330
1F
100
AcDbEntity
  8
0
  6
Continuous
 62
     7
370
    35
100
AcDbLine
 10
94.1678317402
 20
175.5132593565
 30
0.0
 11
94.1678317402
 21
175.8132593565
 31
0.0
  0
LINE
  5
3E8
330
1F
100
AcDbEntity
  8
0
  6
Continuous
 62
     7
370
    35
100
AcDbLine
 10
95.2678317402
 20
175.8132593565
 30
0.0
 11
95.2678317402
 21
176.6132593565
 31
0.0
  0
CIRCLE
  5
3E9
330
1F
100
AcDbEntity
  8
0
  6
Continuous
 62
     7
370
    35
100
AcDbCircle
 10
138.9584521738
 20
175.6632593565
 30
0.0
 40
1.449999999999989
  0
CIRCLE
  5
3EA
330
1F
100
AcDbEntity
  8
0
  6
Continuous
 62
     7
370
    35
100
AcDbCircle
 10
138.9584521738
 20
175.6632593565
 30
0.0
 40
1.149999999999977
  0
LINE
  5
3EB
330
1F
100
AcDbEntity
  8
0
  6
Continuous
 62
     7
370
    35
100
AcDbLine
 10
138.0084521738
 20
175.8132593565
 30
0.0
 11
138.8084521738
 21
175.8132593565
 31
0.0
  0
LINE
  5
3EC
330
1F
100
AcDbEntity
  8
0
  6
Continuous
 62
     7
370
    35
100
AcDbLine
 10
138.0084521738
 20
175.5132593565
 30
0.0
 11
138.0084521738
 21
175.8132593565
 31
0.0
  0
LINE
  5
3ED
330
1F
100
AcDbEntity
  8
0
  6
Continuous
 62
     7
370
    35
100
AcDbLine
 10
138.0084521738
 20
175.5132593565
 30
0.0
 11
138.8084521738
 21
175.5132593565
 31
0.0
  0
LINE
  5
3EE
330
1F
100
AcDbEntity
  8
0
  6
Continuous
 62
     7
370
    35
100
AcDbLine
 10
138.8084521738
 20
174.7132593565
 30
0.0
 11
138.8084521738
 21
175.5132593565
 31
0.0
  0
LINE
  5
3EF
330
1F
100
AcDbEntity
  8
0
  6
Continuous
 62
     7
370
    35
100
AcDbLine
 10
138.8084521738
 20
174.7132593565
 30
0.0
 11
139.1084521738
 21
174.7132593565
 31
0.0
  0
LINE
  5
3F0
330
1F
100
AcDbEntity
  8
0
  6
Continuous
 62
     7
370
    35
100
AcDbLine
 10
139.1084521738
 20
174.7132593565
 30
0.0
 11
139.1084521738
 21
175.5132593565
 31
0.0
  0
LINE
  5
3F1
330
1F
100
AcDbEntity
  8
0
  6
Continuous
 62
     7
370
    35
100
AcDbLine
 10
139.1084521738
 20
175.5132593565
 30
0.0
 11
139.9084521738
 21
175.5132593565
 31
0.0
  0
LINE
  5
3F2
330
1F
100
AcDbEntity
  8
0
  6
Continuous
 62
     7
370
    35
100
AcDbLine
 10
139.9084521738
 20
175.5132593565
 30
0.0
 11
139.9084521738
 21
175.8132593565
 31
0.0
  0
LINE
  5
3F3
330
1F
100
AcDbEntity
  8
0
  6
Continuous
 62
     7
370
    35
100
AcDbLine
 10
139.1084521738
 20
175.8132593565
 30
0.0
 11
139.9084521738
 21
175.8132593565
 31
0.0
  0
LINE
  5
3F4
330
1F
100
AcDbEntity
  8
0
  6
Continuous
 62
     7
370
    35
100
AcDbLine
 10
138.8084521738
 20
176.6132593565
 30
0.0
 11
139.1084521738
 21
176.6132593565
 31
0.0
  0
LINE
  5
3F5
330
1F
100
AcDbEntity
  8
0
  6
Continuous
 62
     7
370
    35
100
AcDbLine
 10
138.8084521738
 20
175.8132593565
 30
0.0
 11
138.8084521738
 21
176.6132593565
 31
0.0
  0
LINE
  5
3F6
330
1F
100
AcDbEntity
  8
0
  6
Continuous
 62
     7
370
    35
100
AcDbLine
 10
139.1084521738
 20
175.8132593565
 30
0.0
 11
139.1084521738
 21
176.6132593565
 31
0.0
  0
LWPOLYLINE
  5
3F7
330
1F
100
AcDbEntity
  8
0
  6
Continuous
 62
     8
370
    35
100
AcDbPolyline
 90
       32
 70
   128
 43
0.0
 10
102.7114451264
 20
163.7053785623
 10
102.8792698083
 20
163.720328348
 10
103.8333472774
 20
163.7337241374
 10
104.7829103581
 20
163.6258454522
 10
105.716432641
 20
163.3980017934
 10
106.6225824301
 20
163.0529588746
 10
107.4903602946
 20
162.5949050492
 10
108.3092325867
 20
162.0294004703
 10
109.069259306
 20
161.3633095973
 10
109.7612147577
 20
160.6047178712
 10
110.3766995399
 20
159.7628335679
 10
110.9082425013
 20
158.8478760224
 10
111.3493914301
 20
157.8709515798
 10
111.6947913762
 20
156.8439187796
 10
111.940249652
 20
155.7792444086
 10
112.0827867265
 20
154.6898521715
 10
112.1206723928
 20
153.5889658143
 10
112.0534467702
 20
152.4899486061
 10
111.8819258866
 20
151.406141127
 10
111.6081917733
 20
150.3506993316
 10
111.2355671916
 20
149.3364348537
 10
110.7685752991
 20
148.37565949
 10
110.2128847448
 20
147.4800357519
 10
109.5752408593
 20
146.6604352983
 10
108.8633837756
 20
145.9268069686
 10
108.0859544743
 20
145.2880560168
 10
107.2523898941
 20
144.7519360142
 10
106.3728083797
 20
144.3249547314
 10
105.4578868593
 20
144.0122951428
 10
104.5187312407
 20
143.8177525122
 10
103.5667416009
 20
143.7436883236
 10
102.7114451264
 20
143.7805197172
  0
LWPOLYLINE
  5
3F8
330
1F
100
AcDbEntity
  8
0
  6
Continuous
 62
     8
370
    35
100
AcDbPolyline
 90
       32
 70
   128
 43
0.0
 10
131.3648387876
 20
143.7805197172
 10
131.0583116125
 20
143.756068956
 10
130.1041708165
 20
143.7603497306
 10
129.1562288379
 20
143.8858057392
 10
128.2259924083
 20
144.1309141158
 10
127.3247533376
 20
144.4926995769
 10
126.4634514475
 20
144.9667705369
 10
125.652541776
 20
145.5473724166
 10
124.9018676682
 20
146.2274574957
 10
124.2205412908
 20
146.9987704626
 10
123.616833023
 20
147.8519486228
 10
123.0980710654
 20
148.7766355491
 10
122.6705524856
 20
149.7616067948
 10
122.3394667798
 20
150.7949061433
 10
122.10883288
 20
151.8639907403
 10
121.9814503695
 20
152.9558833469
 10
121.9588654992
 20
154.0573298661
 10
122.041352419
 20
155.1549602291
 10
122.2279098493
 20
156.2354506902
 10
122.5162732358
 20
157.285685559
 10
122.9029422374
 20
158.2929164068
 10
123.3832232163
 20
159.2449168155
 10
123.951286212
 20
160.1301307897
 10
124.6002357093
 20
160.9378130311
 10
125.3221943404
 20
161.6581593712
 10
126.1083985055
 20
162.2824257813
 10
126.949304751
 20
162.8030345129
 10
127.8347056143
 20
163.2136660812
 10
128.7538535282
 20
163.5093359752
 10
129.6955912822
 20
163.6864551629
 10
130.6484874557
 20
163.7428736573
 10
131.3648387876
 20
163.7053785623
  0
CIRCLE
  5
3F9
330
1F
100
AcDbEntity
  8
0
  6
HIDDEN
 62
     7
370
    25
100
AcDbCircle
 10
117.038141957
 20
122.7429491398
 30
0.0
 40
1.25
  0
CIRCLE
  5
3FA
330
1F
100
AcDbEntity
  8
0
  6
HIDDEN
 62
     7
370
    25
100
AcDbCircle
 10
95.1178317402
 20
131.822638923
 30
0.0
 40
1.25
  0
CIRCLE
  5
3FB
330
1F
100
AcDbEntity
  8
0
  6
HIDDEN
 62
     7
370
    25
100
AcDbCircle
 10
86.038141957
 20
153.7429491398
 30
0.0
 40
1.25
  0
CIRCLE
  5
3FC
330
1F
100
AcDbEntity
  8
0
  6
HIDDEN
 62
     7
370
    25
100
AcDbCircle
 10
95.1178317402
 20
175.6632593565
 30
0.0
 40
1.25
  0
CIRCLE
  5
3FD
330
1F
100
AcDbEntity
  8
0
  6
HIDDEN
 62
     7
370
    25
100
AcDbCircle
 10
117.038141957
 20
184.7429491398
 30
0.0
 40
1.25
  0
CIRCLE
  5
3FE
330
1F
100
AcDbEntity
  8
0
  6
HIDDEN
 62
     7
370
    25
100
AcDbCircle
 10
138.9584521738
 20
175.6632593565
 30
0.0
 40
1.25
  0
CIRCLE
  5
3FF
330
1F
100
AcDbEntity
  8
0
  6
HIDDEN
 62
     7
370
    25
100
AcDbCircle
 10
148.038141957
 20
153.7429491398
 30
0.0
 40
1.25
  0
CIRCLE
  5
400
330
1F
100
AcDbEntity
  8
0
  6
HIDDEN
 62
     7
370
    25
100
AcDbCircle
 10
138.9584521738
 20
131.822638923
 30
0.0
 40
1.25
  0
LINE
  5
401
330
1F
100
AcDbEntity
  8
0
  6
HIDDEN
 62
     7
370
    25
100
AcDbLine
 10
143.0189040705
 20
154.7429491398
 30
0.0
 11
135.9014064031
 21
154.7429491398
 31
0.0
  0
ARC
  5
402
330
1F
100
AcDbEntity
  8
0
  6
HIDDEN
 62
     7
370
    25
100
AcDbCircle
 10
117.038141957
 20
153.7429491398
 30
0.0
 40
26.0
100
AcDbArc
 50
2.204227504
 51
117.795772496
  0
LINE
  5
403
330
1F
100
AcDbEntity
  8
0
  6
HIDDEN
 62
     7
370
    25
100
AcDbLine
 10
110.4208525872
 20
167.2044305366
 30
0.0
 11
104.913786304
 21
176.7429491398
 31
0.0
  0
ARC
  5
404
330
1F
100
AcDbEntity
  8
0
  6
HIDDEN
 62
     7
370
    25
100
AcDbCircle
 10
117.038141957
 20
153.7429491398
 30
0.0
 40
14.99999999999999
100
AcDbArc
 50
26.5753561202
 51
116.1774462707
  0
ARC
  5
405
330
1F
100
AcDbEntity
  8
0
  6
HIDDEN
 62
     7
370
    25
100
AcDbCircle
 10
117.038141957
 20
153.7429491398
 30
0.0
 40
26.00000000000002
100
AcDbArc
 50
242.204227504
 51
357.795772496
  0
LINE
  5
406
330
1F
100
AcDbEntity
  8
0
  6
HIDDEN
 62
     7
370
    25
100
AcDbLine
 10
135.9014064031
 20
152.7429491398
 30
0.0
 11
143.0189040705
 21
152.7429491398
 31
0.0
  0
ARC
  5
407
330
1F
100
AcDbEntity
  8
0
  6
HIDDEN
 62
     7
370
    25
100
AcDbCircle
 10
117.038141957
 20
153.7429491398
 30
0.0
 40
15.0
100
AcDbArc
 50
243.8225537293
 51
333.4246438798
  0
LINE
  5
408
330
1F
100
AcDbEntity
  8
0
  6
HIDDEN
 62
     7
370
    25
100
AcDbLine
 10
104.913786304
 20
130.7429491398
 30
0.0
 11
110.4208525872
 21
140.2814677429
 31
0.0
  0
ARC
  5
409
330
1F
100
AcDbEntity
  8
0
  6
HIDDEN
 62
     7
370
    25
100
AcDbCircle
 10
117.038141957
 20
153.7429491398
 30
0.0
 40
26.00000000000003
100
AcDbArc
 50
122.204227504
 51
237.795772496
  0
LINE
  5
40A
330
1F
100
AcDbEntity
  8
0
  6
HIDDEN
 62
     7
370
    25
100
AcDbLine
 10
108.6888017797
 20
141.2814677429
 30
0.0
 11
103.1817354964
 21
131.7429491398
 31
0.0
  0
ARC
  5
40B
330
1F
100
AcDbEntity
  8
0
  6
HIDDEN
 62
     7
370
    25
100
AcDbCircle
 10
117.038141957
 20
153.7429491398
 30
0.0
 40
15.0
100
AcDbArc
 50
123.8225537293
 51
153.4246438798
  0
ARC
  5
40C
330
1F
100
AcDbEntity
  8
0
  6
HIDDEN
 62
     7
370
    25
100
AcDbCircle
 10
117.038141957
 20
153.7429491398
 30
0.0
 40
15.00000000000001
100
AcDbArc
 50
206.5753561202
 51
236.1774462707
  0
LINE
  5
40D
330
1F
100
AcDbEntity
  8
0
  6
HIDDEN
 62
     7
370
    25
100
AcDbLine
 10
103.1817354964
 20
175.7429491398
 30
0.0
 11
108.6888017797
 21
166.2044305366
 31
0.0
  0
CIRCLE
  5
40E
330
1F
100
AcDbEntity
  8
0
  6
HIDDEN
 62
     7
370
    25
100
AcDbCircle
 10
117.038141957
 20
153.7429491398
 30
0.0
 40
33.00000000000001
  0
CIRCLE
  5
40F
330
1F
100
AcDbEntity
  8
0
  6
HIDDEN
 62
     7
370
    25
100
AcDbCircle
 10
117.038141957
 20
122.7429491398
 30
0.0
 40
1.25
  0
CIRCLE
  5
410
330
1F
100
AcDbEntity
  8
0
  6
HIDDEN
 62
     7
370
    25
100
AcDbCircle
 10
138.9584521738
 20
131.822638923
 30
0.0
 40
1.25
  0
CIRCLE
  5
411
330
1F
100
AcDbEntity
  8
0
  6
HIDDEN
 62
     7
370
    25
100
AcDbCircle
 10
95.1178317402
 20
131.822638923
 30
0.0
 40
1.25
  0
ARC
  5
412
330
1F
100
AcDbEntity
  8
0
  6
HIDDEN
 62
     7
370
    25
100
AcDbCircle
 10
117.038141957
 20
153.7429491398
 30
0.0
 40
14.99999999999999
100
AcDbArc
 50
243.8225537293
 51
356.1774462707
  0
LINE
  5
413
330
1F
100
AcDbEntity
  8
0
  6
HIDDEN
 62
     7
370
    25
100
AcDbLine
 10
143.0189040705
 20
152.7429491398
 30
0.0
 11
132.0047715041
 21
152.7429491398
 31
0.0
  0
ARC
  5
414
330
1F
100
AcDbEntity
  8
0
  6
HIDDEN
 62
     7
370
    25
100
AcDbCircle
 10
117.038141957
 20
153.7429491398
 30
0.0
 40
26.00000000000002
100
AcDbArc
 50
242.204227504
 51
357.795772496
  0
CIRCLE
  5
415
330
1F
100
AcDbEntity
  8
0
  6
HIDDEN
 62
     7
370
    25
100
AcDbCircle
 10
86.038141957
 20
153.7429491398
 30
0.0
 40
1.25
  0
CIRCLE
  5
416
330
1F
100
AcDbEntity
  8
0
  6
HIDDEN
 62
     7
370
    25
100
AcDbCircle
 10
148.038141957
 20
153.7429491398
 30
0.0
 40
1.25
  0
LINE
  5
417
330
1F
100
AcDbEntity
  8
0
  6
HIDDEN
 62
     7
370
    25
100
AcDbLine
 10
132.0047715041
 20
154.7429491398
 30
0.0
 11
143.0189040705
 21
154.7429491398
 31
0.0
  0
ARC
  5
418
330
1F
100
AcDbEntity
  8
0
  6
HIDDEN
 62
     7
370
    25
100
AcDbCircle
 10
117.038141957
 20
153.7429491398
 30
0.0
 40
15.00000000000001
100
AcDbArc
 50
123.8225537293
 51
236.1774462707
  0
ARC
  5
419
330
1F
100
AcDbEntity
  8
0
  6
HIDDEN
 62
     7
370
    25
100
AcDbCircle
 10
117.038141957
 20
153.7429491398
 30
0.0
 40
15.00000000000001
100
AcDbArc
 50
3.8225537293
 51
116.1774462707
  0
ARC
  5
41A
330
1F
100
AcDbEntity
  8
0
  6
HIDDEN
 62
     7
370
    25
100
AcDbCircle
 10
117.038141957
 20
153.7429491398
 30
0.0
 40
26.00000000000003
100
AcDbArc
 50
122.204227504
 51
237.795772496
  0
CIRCLE
  5
41B
330
1F
100
AcDbEntity
  8
0
  6
HIDDEN
 62
     7
370
    25
100
AcDbCircle
 10
138.9584521738
 20
175.6632593565
 30
0.0
 40
1.25
  0
CIRCLE
  5
41C
330
1F
100
AcDbEntity
  8
0
  6
HIDDEN
 62
     7
370
    25
100
AcDbCircle
 10
95.1178317402
 20
175.6632593565
 30
0.0
 40
1.25
  0
ARC
  5
41D
330
1F
100
AcDbEntity
  8
0
  6
HIDDEN
 62
     7
370
    25
100
AcDbCircle
 10
117.038141957
 20
153.7429491398
 30
0.0
 40
26.0
100
AcDbArc
 50
2.204227504
 51
117.795772496
  0
CIRCLE
  5
41E
330
1F
100
AcDbEntity
  8
0
  6
HIDDEN
 62
     7
370
    25
100
AcDbCircle
 10
117.038141957
 20
184.7429491398
 30
0.0
 40
1.25
  0
CIRCLE
  5
41F
330
1F
100
AcDbEntity
  8
0
  6
HIDDEN
 62
     7
370
    25
100
AcDbCircle
 10
117.038141957
 20
153.7429491398
 30
0.0
 40
33.00000000000001
  0
DIMENSION
  5
420
330
1F
100
AcDbEntity
  8
DIM
100
AcDbDimension
  2
_D_10
 10
107.9113169135
 20
165.6467747696
 30
0.0
 11
151.4400448028
 21
121.7183916574
 31
0.0
 70
   163
  1
<> Baffle
 71
     1
 42
-1.0
  3
SLDDIMSTYLE3
100
AcDbDiametricDimension
 15
126.1649670005
 25
141.8391235099
 35
0.0
 40
0.0
  0
INSERT
  5
437
330
1F
100
AcDbEntity
  8
DIM
100
AcDbBlockReference
  2
SW_CENTERMARKSYMBOL_0
 10
117.038141957
 20
153.7429491398
 30
0.0
  0
ENDSEC
  0
SECTION
  2
OBJECTS
  0
DICTIONARY
  5
C
330
0
100
AcDbDictionary
281
     1
  3
ACAD_GROUP
350
D
  3
ACAD_LAYOUT
350
1A
  3
ACAD_MLINESTYLE
350
17
  3
ACAD_PLOTSETTINGS
350
19
  3
ACAD_PLOTSTYLENAME
350
E
  3
ACAD_SCALELIST
350
47
  3
DWGPROPS
350
438
  0
DICTIONARY
  5
D
102
{ACAD_REACTORS
330
C
102
}
330
C
100
AcDbDictionary
281
     1
  0
DICTIONARY
  5
1A
102
{ACAD_REACTORS
330
C
102
}
330
C
100
AcDbDictionary
281
     1
  3
Layout1
350
1E
  3
Layout2
350
26
  3
Model
350
22
  0
DICTIONARY
  5
17
102
{ACAD_REACTORS
330
C
102
}
330
C
100
AcDbDictionary
281
     1
  3
Standard
350
18
  0
DICTIONARY
  5
19
102
{ACAD_REACTORS
330
C
102
}
330
C
100
AcDbDictionary
281
     1
  0
ACDBDICTIONARYWDFLT
  5
E
102
{ACAD_REACTORS
330
C
102
}
330
C
100
AcDbDictionary
281
     1
  3
Normal
350
F
100
AcDbDictionaryWithDefault
340
F
  0
DICTIONARY
  5
47
102
{ACAD_REACTORS
330
C
102
}
330
C
100
AcDbDictionary
281
     1
  3
A0
350
48
  3
A1
350
49
  3
A2
350
4A
  3
A3
350
4B
  3
A4
350
4C
  3
A5
350
4D
  3
A6
350
4E
  3
A7
350
4F
  3
A8
350
50
  3
A9
350
51
  3
B0
350
52
  3
B1
350
53
  3
B2
350
54
  3
B3
350
55
  3
B4
350
56
  3
B5
350
57
  3
B6
350
58
  3
B7
350
59
  3
B8
350
5A
  3
B9
350
5B
  3
C0
350
5C
  3
C1
350
5D
  3
C2
350
5E
  3
C3
350
5F
  3
C4
350
60
  3
C5
350
61
  3
C6
350
62
  3
C7
350
63
  3
C8
350
64
  3
C9
350
65
  3
D0
350
66
  3
D1
350
67
  3
D2
350
68
  0
XRECORD
  5
438
102
{ACAD_REACTORS
330
C
102
}
330
C
100
AcDbXrecord
280
     1
  1
DWGPROPS COOKIE
  2

  3

  4

  6

  7

  8
R2591
  9

300
=
301
=
302
=
303
=
304
=
305
=
306
=
307
=
308
=
309
=
 40
0.0
 41
2459212.264832743
 42
2459212.264835197
  1

 90
        0
  0
LAYOUT
  5
1E
102
{ACAD_REACTORS
330
1A
102
}
330
1A
100
AcDbPlotSettings
  1

  2
none_device
  4

  6

 40
0.0
 41
0.0
 42
0.0
 43
0.0
 44
0.0
 45
0.0
 46
0.0
 47
0.0
 48
0.0
 49
0.0
140
0.0
141
0.0
142
1.0
143
1.0
 70
   688
 72
     1
 73
     0
 74
     5
  7

 75
    16
147
1.0
148
0.0
149
0.0
100
AcDbLayout
  1
Layout1
 70
     1
 71
     1
 10
0.0
 20
0.0
 11
420.0
 21
297.0
 12
0.0
 22
0.0
 32
0.0
 14
1.0000000000E+20
 24
1.0000000000E+20
 34
1.0000000000E+20
 15
-1.0000000000E+20
 25
-1.0000000000E+20
 35
-1.0000000000E+20
146
0.0
 13
0.0
 23
0.0
 33
0.0
 16
1.0
 26
0.0
 36
0.0
 17
0.0
 27
1.0
 37
0.0
 76
     0
330
1B
  0
LAYOUT
  5
26
102
{ACAD_REACTORS
330
1A
102
}
330
1A
100
AcDbPlotSettings
  1

  2
none_device
  4

  6

 40
0.0
 41
0.0
 42
0.0
 43
0.0
 44
0.0
 45
0.0
 46
0.0
 47
0.0
 48
0.0
 49
0.0
140
0.0
141
0.0
142
1.0
143
1.0
 70
   688
 72
     1
 73
     0
 74
     5
  7

 75
    16
147
1.0
148
0.0
149
0.0
100
AcDbLayout
  1
Layout2
 70
     1
 71
     2
 10
0.0
 20
0.0
 11
0.0
 21
0.0
 12
0.0
 22
0.0
 32
0.0
 14
0.0
 24
0.0
 34
0.0
 15
0.0
 25
0.0
 35
0.0
146
0.0
 13
0.0
 23
0.0
 33
0.0
 16
1.0
 26
0.0
 36
0.0
 17
0.0
 27
1.0
 37
0.0
 76
     0
330
23
  0
LAYOUT
  5
22
102
{ACAD_REACTORS
330
1A
102
}
330
1A
100
AcDbPlotSettings
  1

  2
none_device
  4
Letter_(8.50_x_11.00_Inches)
  6

 40
6.35
 41
6.35
 42
6.35000508
 43
6.35000508
 44
215.9
 45
279.4
 46
0.0
 47
0.0
 48
0.0
 49
0.0
140
0.0
141
0.0
142
1.0
143
1.0
 70
  1712
 72
     1
 73
     0
 74
     0
  7

 75
     0
147
1.0
148
0.0
149
0.0
100
AcDbLayout
  1
Model
 70
     1
 71
     0
 10
0.0
 20
0.0
 11
297.0
 21
210.0
 12
0.0
 22
0.0
 32
0.0
 14
0.0
 24
0.0
 34
0.0
 15
297.0
 25
210.0
 35
0.0
146
0.0
 13
0.0
 23
0.0
 33
0.0
 16
1.0
 26
0.0
 36
0.0
 17
0.0
 27
1.0
 37
0.0
 76
     0
330
1F
331
29
  0
MLINESTYLE
  5
18
102
{ACAD_REACTORS
330
17
102
}
330
17
100
AcDbMlineStyle
  2
Standard
 70
     0
  3

 62
   256
 51
90.0
 52
90.0
 71
     2
 49
0.5
 62
   256
  6
BYLAYER
 49
-0.5
 62
   256
  6
BYLAYER
  0
ACDBPLACEHOLDER
  5
F
102
{ACAD_REACTORS
330
E
102
}
330
E
  0
SCALE
  5
48
102
{ACAD_REACTORS
330
47
102
}
330
47
100
AcDbScale
 70
     0
300
1:1
140
1.0
141
1.0
290
     1
  0
SCALE
  5
49
102
{ACAD_REACTORS
330
47
102
}
330
47
100
AcDbScale
 70
     0
300
1:2
140
1.0
141
2.0
290
     0
  0
SCALE
  5
4A
102
{ACAD_REACTORS
330
47
102
}
330
47
100
AcDbScale
 70
     0
300
1:4
140
1.0
141
4.0
290
     0
  0
SCALE
  5
4B
102
{ACAD_REACTORS
330
47
102
}
330
47
100
AcDbScale
 70
     0
300
1:5
140
1.0
141
5.0
290
     0
  0
SCALE
  5
4C
102
{ACAD_REACTORS
330
47
102
}
330
47
100
AcDbScale
 70
     0
300
1:8
140
1.0
141
8.0
290
     0
  0
SCALE
  5
4D
102
{ACAD_REACTORS
330
47
102
}
330
47
100
AcDbScale
 70
     0
300
1:10
140
1.0
141
10.0
290
     0
  0
SCALE
  5
4E
102
{ACAD_REACTORS
330
47
102
}
330
47
100
AcDbScale
 70
     0
300
1:16
140
1.0
141
16.0
290
     0
  0
SCALE
  5
4F
102
{ACAD_REACTORS
330
47
102
}
330
47
100
AcDbScale
 70
     0
300
1:20
140
1.0
141
20.0
290
     0
  0
SCALE
  5
50
102
{ACAD_REACTORS
330
47
102
}
330
47
100
AcDbScale
 70
     0
300
1:30
140
1.0
141
30.0
290
     0
  0
SCALE
  5
51
102
{ACAD_REACTORS
330
47
102
}
330
47
100
AcDbScale
 70
     0
300
1:40
140
1.0
141
40.0
290
     0
  0
SCALE
  5
52
102
{ACAD_REACTORS
330
47
102
}
330
47
100
AcDbScale
 70
     0
300
1:50
140
1.0
141
50.0
290
     0
  0
SCALE
  5
53
102
{ACAD_REACTORS
330
47
102
}
330
47
100
AcDbScale
 70
     0
300
1:100
140
1.0
141
100.0
290
     0
  0
SCALE
  5
54
102
{ACAD_REACTORS
330
47
102
}
330
47
100
AcDbScale
 70
     0
300
2:1
140
2.0
141
1.0
290
     0
  0
SCALE
  5
55
102
{ACAD_REACTORS
330
47
102
}
330
47
100
AcDbScale
 70
     0
300
4:1
140
4.0
141
1.0
290
     0
  0
SCALE
  5
56
102
{ACAD_REACTORS
330
47
102
}
330
47
100
AcDbScale
 70
     0
300
8:1
140
8.0
141
1.0
290
     0
  0
SCALE
  5
57
102
{ACAD_REACTORS
330
47
102
}
330
47
100
AcDbScale
 70
     0
300
10:1
140
10.0
141
1.0
290
     0
  0
SCALE
  5
58
102
{ACAD_REACTORS
330
47
102
}
330
47
100
AcDbScale
 70
     0
300
100:1
140
100.0
141
1.0
290
     0
  0
SCALE
  5
59
102
{ACAD_REACTORS
330
47
102
}
330
47
100
AcDbScale
 70
     0
300
1/128" = 1'-0"
140
0.0078125
141
12.0
290
     0
  0
SCALE
  5
5A
102
{ACAD_REACTORS
330
47
102
}
330
47
100
AcDbScale
 70
     0
300
1/64" = 1'-0"
140
0.015625
141
12.0
290
     0
  0
SCALE
  5
5B
102
{ACAD_REACTORS
330
47
102
}
330
47
100
AcDbScale
 70
     0
300
1/32" = 1'-0"
140
0.03125
141
12.0
290
     0
  0
SCALE
  5
5C
102
{ACAD_REACTORS
330
47
102
}
330
47
100
AcDbScale
 70
     0
300
1/16" = 1'-0"
140
0.0625
141
12.0
290
     0
  0
SCALE
  5
5D
102
{ACAD_REACTORS
330
47
102
}
330
47
100
AcDbScale
 70
     0
300
3/32" = 1'-0"
140
0.09375
141
12.0
290
     0
  0
SCALE
  5
5E
102
{ACAD_REACTORS
330
47
102
}
330
47
100
AcDbScale
 70
     0
300
1/8" = 1'-0"
140
0.125
141
12.0
290
     0
  0
SCALE
  5
5F
102
{ACAD_REACTORS
330
47
102
}
330
47
100
AcDbScale
 70
     0
300
3/16" = 1'-0"
140
0.1875
141
12.0
290
     0
  0
SCALE
  5
60
102
{ACAD_REACTORS
330
47
102
}
330
47
100
AcDbScale
 70
     0
300
1/4" = 1'-0"
140
0.25
141
12.0
290
     0
  0
SCALE
  5
61
102
{ACAD_REACTORS
330
47
102
}
330
47
100
AcDbScale
 70
     0
300
3/8" = 1'-0"
140
0.375
141
12.0
290
     0
  0
SCALE
  5
62
102
{ACAD_REACTORS
330
47
102
}
330
47
100
AcDbScale
 70
     0
300
1/2" = 1'-0"
140
0.5
141
12.0
290
     0
  0
SCALE
  5
63
102
{ACAD_REACTORS
330
47
102
}
330
47
100
AcDbScale
 70
     0
300
3/4" = 1'-0"
140
0.75
141
12.0
290
     0
  0
SCALE
  5
64
102
{ACAD_REACTORS
330
47
102
}
330
47
100
AcDbScale
 70
     0
300
1" = 1'-0"
140
1.0
141
12.0
290
     0
  0
SCALE
  5
65
102
{ACAD_REACTORS
330
47
102
}
330
47
100
AcDbScale
 70
     0
300
1-1/2" = 1'-0"
140
1.5
141
12.0
290
     0
  0
SCALE
  5
66
102
{ACAD_REACTORS
330
47
102
}
330
47
100
AcDbScale
 70
     0
300
3" = 1'-0"
140
3.0
141
12.0
290
     0
  0
SCALE
  5
67
102
{ACAD_REACTORS
330
47
102
}
330
47
100
AcDbScale
 70
     0
300
6" = 1'-0"
140
6.0
141
12.0
290
     0
  0
SCALE
  5
68
102
{ACAD_REACTORS
330
47
102
}
330
47
100
AcDbScale
 70
     0
300
1'-0" = 1'-0"
140
12.0
141
12.0
290
     0
  0
ENDSEC
  0
EOF
