  0
SECTION
  2
HEADER
  9
$ACADVER
  1
AC1015
  9
$ACADMAINTVER
 70
     6
  9
$DWGCODEPAGE
  3
ANSI_950
  9
$INSBASE
 10
0.0
 20
0.0
 30
0.0
  9
$EXTMIN
 10
0.0
 20
0.0
 30
0.0
  9
$EXTMAX
 10
297.0
 20
210.0
 30
0.0
  9
$LIMMIN
 10
0.0
 20
0.0
  9
$LIMMAX
 10
297.0
 20
210.0
  9
$ORTHOMODE
 70
     0
  9
$REGENMODE
 70
     1
  9
$FILLMODE
 70
     1
  9
$QTEXTMODE
 70
     0
  9
$MIRRTEXT
 70
     1
  9
$LTSCALE
 40
1.0
  9
$ATTMODE
 70
     1
  9
$TEXTSIZE
 40
3.175
  9
$TRACEWID
 40
1.0
  9
$TEXTSTYLE
  7
Standard
  9
$CLAYER
  8
0
  9
$CELTYPE
  6
ByLayer
  9
$CECOLOR
 62
   256
  9
$CELTSCALE
 40
1.0
  9
$DISPSILH
 70
     0
  9
$DIMSCALE
 40
1.0
  9
$DIMASZ
 40
2.0
  9
$DIMEXO
 40
1.0
  9
$DIMDLI
 40
3.75
  9
$DIMRND
 40
0.0
  9
$DIMDLE
 40
0.0
  9
$DIMEXE
 40
1.0
  9
$DIMTP
 40
0.0
  9
$DIMTM
 40
0.0
  9
$DIMTXT
 40
3.175
  9
$DIMCEN
 40
2.5
  9
$DIMTSZ
 40
0.0
  9
$DIMTOL
 70
     0
  9
$DIMLIM
 70
     0
  9
$DIMTIH
 70
     1
  9
$DIMTOH
 70
     1
  9
$DIMSE1
 70
     0
  9
$DIMSE2
 70
     0
  9
$DIMTAD
 70
     1
  9
$DIMZIN
 70
     0
  9
$DIMBLK
  1

  9
$DIMASO
 70
     1
  9
$DIMSHO
 70
     1
  9
$DIMPOST
  1

  9
$DIMAPOST
  1

  9
$DIMALT
 70
     0
  9
$DIMALTD
 70
     3
  9
$DIMALTF
 40
0.0393700787
  9
$DIMLFAC
 40
1.0
  9
$DIMTOFL
 70
     1
  9
$DIMTVP
 40
0.0
  9
$DIMTIX
 70
     0
  9
$DIMSOXD
 70
     0
  9
$DIMSAH
 70
     0
  9
$DIMBLK1
  1

  9
$DIMBLK2
  1

  9
$DIMSTYLE
  2
ISO-25
  9
$DIMCLRD
 70
     0
  9
$DIMCLRE
 70
     0
  9
$DIMCLRT
 70
     0
  9
$DIMTFAC
 40
1.0
  9
$DIMGAP
 40
1.0
  9
$DIMJUST
 70
     0
  9
$DIMSD1
 70
     0
  9
$DIMSD2
 70
     0
  9
$DIMTOLJ
 70
     0
  9
$DIMTZIN
 70
     0
  9
$DIMALTZ
 70
     0
  9
$DIMALTTZ
 70
     0
  9
$DIMUPT
 70
     0
  9
$DIMDEC
 70
     2
  9
$DIMTDEC
 70
     2
  9
$DIMALTU
 70
     2
  9
$DIMALTTD
 70
     3
  9
$DIMTXSTY
  7
Standard
  9
$DIMAUNIT
 70
     0
  9
$DIMADEC
 70
     2
  9
$DIMALTRND
 40
0.0
  9
$DIMAZIN
 70
     0
  9
$DIMDSEP
 70
    44
  9
$DIMATFIT
 70
     3
  9
$DIMFRAC
 70
     0
  9
$DIMLDRBLK
  1

  9
$DIMLUNIT
 70
     2
  9
$DIMLWD
 70
    -2
  9
$DIMLWE
 70
    -2
  9
$DIMTMOVE
 70
     0
  9
$LUNITS
 70
     2
  9
$LUPREC
 70
     2
  9
$SKETCHINC
 40
1.0
  9
$FILLETRAD
 40
10.0
  9
$AUNITS
 70
     0
  9
$AUPREC
 70
     2
  9
$MENU
  1
.
  9
$ELEVATION
 40
0.0
  9
$PELEVATION
 40
0.0
  9
$THICKNESS
 40
0.0
  9
$LIMCHECK
 70
     0
  9
$CHAMFERA
 40
0.0
  9
$CHAMFERB
 40
0.0
  9
$CHAMFERC
 40
0.0
  9
$CHAMFERD
 40
0.0
  9
$SKPOLY
 70
     0
  9
$TDCREATE
 40
2459212.600639225
  9
$TDUCREATE
 40
2459212.267305891
  9
$TDUPDATE
 40
2459212.600641887
  9
$TDUUPDATE
 40
2459212.267308553
  9
$TDINDWG
 40
0.0000000116
  9
$TDUSRTIMER
 40
0.0000000116
  9
$USRTIMER
 70
     1
  9
$ANGBASE
 50
0.0
  9
$ANGDIR
 70
     0
  9
$PDMODE
 70
     0
  9
$PDSIZE
 40
-1.0
  9
$PLINEWID
 40
0.0
  9
$SPLFRAME
 70
     0
  9
$SPLINETYPE
 70
     6
  9
$SPLINESEGS
 70
     8
  9
$HANDSEED
  5
414
  9
$SURFTAB1
 70
     6
  9
$SURFTAB2
 70
     6
  9
$SURFTYPE
 70
     6
  9
$SURFU
 70
     6
  9
$SURFV
 70
     6
  9
$UCSBASE
  2

  9
$UCSNAME
  2

  9
$UCSORG
 10
0.0
 20
0.0
 30
0.0
  9
$UCSXDIR
 10
1.0
 20
0.0
 30
0.0
  9
$UCSYDIR
 10
0.0
 20
1.0
 30
0.0
  9
$UCSORTHOREF
  2

  9
$UCSORTHOVIEW
 70
     0
  9
$UCSORGTOP
 10
0.0
 20
0.0
 30
0.0
  9
$UCSORGBOTTOM
 10
0.0
 20
0.0
 30
0.0
  9
$UCSORGLEFT
 10
0.0
 20
0.0
 30
0.0
  9
$UCSORGRIGHT
 10
0.0
 20
0.0
 30
0.0
  9
$UCSORGFRONT
 10
0.0
 20
0.0
 30
0.0
  9
$UCSORGBACK
 10
0.0
 20
0.0
 30
0.0
  9
$PUCSBASE
  2

  9
$PUCSNAME
  2

  9
$PUCSORG
 10
0.0
 20
0.0
 30
0.0
  9
$PUCSXDIR
 10
1.0
 20
0.0
 30
0.0
  9
$PUCSYDIR
 10
0.0
 20
1.0
 30
0.0
  9
$PUCSORTHOREF
  2

  9
$PUCSORTHOVIEW
 70
     0
  9
$PUCSORGTOP
 10
0.0
 20
0.0
 30
0.0
  9
$PUCSORGBOTTOM
 10
0.0
 20
0.0
 30
0.0
  9
$PUCSORGLEFT
 10
0.0
 20
0.0
 30
0.0
  9
$PUCSORGRIGHT
 10
0.0
 20
0.0
 30
0.0
  9
$PUCSORGFRONT
 10
0.0
 20
0.0
 30
0.0
  9
$PUCSORGBACK
 10
0.0
 20
0.0
 30
0.0
  9
$USERI1
 70
     0
  9
$USERI2
 70
     0
  9
$USERI3
 70
     0
  9
$USERI4
 70
     0
  9
$USERI5
 70
     0
  9
$USERR1
 40
0.0
  9
$USERR2
 40
0.0
  9
$USERR3
 40
0.0
  9
$USERR4
 40
0.0
  9
$USERR5
 40
0.0
  9
$WORLDVIEW
 70
     1
  9
$SHADEDGE
 70
     3
  9
$SHADEDIF
 70
    70
  9
$TILEMODE
 70
     1
  9
$MAXACTVP
 70
    64
  9
$PINSBASE
 10
0.0
 20
0.0
 30
0.0
  9
$PLIMCHECK
 70
     0
  9
$PEXTMIN
 10
1.0000000000E+20
 20
1.0000000000E+20
 30
1.0000000000E+20
  9
$PEXTMAX
 10
-1.0000000000E+20
 20
-1.0000000000E+20
 30
-1.0000000000E+20
  9
$PLIMMIN
 10
0.0
 20
0.0
  9
$PLIMMAX
 10
420.0
 20
297.0
  9
$UNITMODE
 70
     0
  9
$VISRETAIN
 70
     1
  9
$PLINEGEN
 70
     0
  9
$PSLTSCALE
 70
     1
  9
$TREEDEPTH
 70
  3020
  9
$CMLSTYLE
  2
Standard
  9
$CMLJUST
 70
     0
  9
$CMLSCALE
 40
20.0
  9
$PROXYGRAPHICS
 70
     1
  9
$MEASUREMENT
 70
     1
  9
$CELWEIGHT
370
    -1
  9
$ENDCAPS
280
     0
  9
$JOINSTYLE
280
     0
  9
$LWDISPLAY
290
     1
  9
$INSUNITS
 70
     4
  9
$HYPERLINKBASE
  1

  9
$STYLESHEET
  1

  9
$XEDIT
290
     1
  9
$CEPSNTYPE
380
     0
  9
$PSTYLEMODE
290
     1
  9
$FINGERPRINTGUID
  2
{1dc3afbc-ec91-4fb3-8d07-ee766b8d69b4}
  9
$VERSIONGUID
  2
{FAEB1C32-E019-11D5-929B-00C0DF256EC4}
  9
$EXTNAMES
290
     1
  9
$PSVPSCALE
 40
0.0
  9
$OLESTARTUP
290
     0
  0
ENDSEC
  0
SECTION
  2
CLASSES
  0
CLASS
  1
ACDBDICTIONARYWDFLT
  2
AcDbDictionaryWithDefault
  3
ObjectDBX Classes
 90
        0
280
     0
281
     0
  0
CLASS
  1
VISUALSTYLE
  2
AcDbVisualStyle
  3
ObjectDBX Classes
 90
     4095
280
     0
281
     0
  0
CLASS
  1
MATERIAL
  2
AcDbMaterial
  3
ObjectDBX Classes
 90
     1153
280
     0
281
     0
  0
CLASS
  1
SCALE
  2
AcDbScale
  3
ObjectDBX Classes
 90
     1153
280
     0
281
     0
  0
CLASS
  1
TABLESTYLE
  2
AcDbTableStyle
  3
ObjectDBX Classes
 90
     4095
280
     0
281
     0
  0
CLASS
  1
MLEADERSTYLE
  2
AcDbMLeaderStyle
  3
ACDB_MLEADERSTYLE_CLASS
 90
     4095
280
     0
281
     0
  0
CLASS
  1
SUN
  2
AcDbSun
  3
SCENEOE
 90
     1153
280
     0
281
     0
  0
CLASS
  1
ACDBPLACEHOLDER
  2
AcDbPlaceHolder
  3
ObjectDBX Classes
 90
        0
280
     0
281
     0
  0
CLASS
  1
LAYOUT
  2
AcDbLayout
  3
ObjectDBX Classes
 90
        0
280
     0
281
     0
  0
ENDSEC
  0
SECTION
  2
TABLES
  0
TABLE
  2
VPORT
  5
8
330
0
100
AcDbSymbolTable
 70
     1
  0
VPORT
  5
29
330
8
100
AcDbSymbolTableRecord
100
AcDbViewportTableRecord
  2
*Active
 70
     0
 10
0.0
 20
0.0
 11
1.0
 21
1.0
 12
148.5
 22
105.0
 13
0.0
 23
0.0
 14
10.0
 24
10.0
 15
10.0
 25
10.0
 16
0.0
 26
0.0
 36
1.0
 17
0.0
 27
0.0
 37
0.0
 40
210.0
 41
1.4142857143
 42
50.0
 43
0.0
 44
0.0
 50
0.0
 51
0.0
 71
     0
 72
  2000
 73
     1
 74
     3
 75
     0
 76
     0
 77
     0
 78
     0
281
     0
 65
     1
110
0.0
120
0.0
130
0.0
111
1.0
121
0.0
131
0.0
112
0.0
122
1.0
132
0.0
 79
     0
146
0.0
  0
ENDTAB
  0
TABLE
  2
LTYPE
  5
5
330
0
100
AcDbSymbolTable
 70
     6
  0
LTYPE
  5
14
330
5
100
AcDbSymbolTableRecord
100
AcDbLinetypeTableRecord
  2
ByBlock
 70
     0
  3

 72
    65
 73
     0
 40
0.0
  0
LTYPE
  5
15
330
5
100
AcDbSymbolTableRecord
100
AcDbLinetypeTableRecord
  2
ByLayer
 70
     0
  3

 72
    65
 73
     0
 40
0.0
  0
LTYPE
  5
16
330
5
100
AcDbSymbolTableRecord
100
AcDbLinetypeTableRecord
  2
Continuous
 70
     0
  3
Solid line
 72
    65
 73
     0
 40
0.0
  0
LTYPE
  5
6E
330
5
100
AcDbSymbolTableRecord
100
AcDbLinetypeTableRecord
  2
HIDDEN
 70
     0
  3
Hidden __ __ __ __ __ __ __ __ __ __ __ __ __ __
 72
    65
 73
     2
 40
1.905
 49
1.27
 74
     0
 49
-0.635
 74
     0
  0
LTYPE
  5
6F
330
5
100
AcDbSymbolTableRecord
100
AcDbLinetypeTableRecord
  2
PHANTOM
 70
     0
  3
Phantom ______  __  __  ______  __  __  ______
 72
    65
 73
     6
 40
12.7
 49
6.35
 74
     0
 49
-1.27
 74
     0
 49
1.27
 74
     0
 49
-1.27
 74
     0
 49
1.27
 74
     0
 49
-1.27
 74
     0
  0
LTYPE
  5
70
330
5
100
AcDbSymbolTableRecord
100
AcDbLinetypeTableRecord
  2
CENTER
 70
     0
  3
Center ____ _ ____ _ ____ _ ____ _ ____ _ ____
 72
    65
 73
     4
 40
10.16
 49
6.35
 74
     0
 49
-1.27
 74
     0
 49
1.27
 74
     0
 49
-1.27
 74
     0
  0
LTYPE
  5
71
330
5
100
AcDbSymbolTableRecord
100
AcDbLinetypeTableRecord
  2
CENTERX2
 70
     0
  3
Center (2x) ________  __  ________  __  _____
 72
    65
 73
     4
 40
20.32
 49
12.7
 74
     0
 49
-2.54
 74
     0
 49
2.54
 74
     0
 49
-2.54
 74
     0
  0
LTYPE
  5
72
330
5
100
AcDbSymbolTableRecord
100
AcDbLinetypeTableRecord
  2
DOT2
 70
     0
  3
Dot (.5x) ........................................
 72
    65
 73
     2
 40
0.635
 49
0.0
 74
     0
 49
-0.635
 74
     0
  0
ENDTAB
  0
TABLE
  2
LAYER
  5
2
330
0
100
AcDbSymbolTable
 70
    10
  0
LAYER
  5
10
330
2
100
AcDbSymbolTableRecord
100
AcDbLayerTableRecord
  2
0
 70
     0
 62
     7
  6
Continuous
370
    -3
390
F
  0
LAYER
  5
73
330
2
100
AcDbSymbolTableRecord
100
AcDbLayerTableRecord
  2
SLD-0
 70
     0
 62
     7
  6
Continuous
370
    25
390
F
  0
LAYER
  5
74
330
2
100
AcDbSymbolTableRecord
100
AcDbLayerTableRecord
  2
輪廓線
 70
     0
 62
   219
  6
Continuous
370
    25
390
F
  0
LAYER
  5
75
330
2
100
AcDbSymbolTableRecord
100
AcDbLayerTableRecord
  2
DIM
 70
     0
 62
     7
  6
Continuous
370
    -3
390
F
  0
LAYER
  5
76
330
2
100
AcDbSymbolTableRecord
100
AcDbLayerTableRecord
  2
中心線
 70
     0
 62
     7
  6
CENTERX2
370
    -3
390
F
  0
LAYER
  5
77
330
2
100
AcDbSymbolTableRecord
100
AcDbLayerTableRecord
  2
虛線
 70
     0
 62
     7
  6
HIDDEN
370
    -3
390
F
  0
LAYER
  5
78
330
2
100
AcDbSymbolTableRecord
100
AcDbLayerTableRecord
  2
SECTION
 70
     0
 62
     7
  6
PHANTOM
370
    25
390
F
  0
LAYER
  5
79
330
2
100
AcDbSymbolTableRecord
100
AcDbLayerTableRecord
  2
假想線
 70
     0
 62
     7
  6
PHANTOM
370
    -3
390
F
  0
LAYER
  5
7A
330
2
100
AcDbSymbolTableRecord
100
AcDbLayerTableRecord
  2
圖層_1
 70
     0
 62
   179
  6
Continuous
370
    -3
390
F
  0
LAYER
  5
7B
330
2
100
AcDbSymbolTableRecord
100
AcDbLayerTableRecord
  2
工作區域參考線
 70
     0
 62
   179
  6
Continuous
370
    -3
390
F
  0
ENDTAB
  0
TABLE
  2
STYLE
  5
3
330
0
100
AcDbSymbolTable
 70
     3
  0
STYLE
  5
11
330
3
100
AcDbSymbolTableRecord
100
AcDbTextStyleTableRecord
  2
Standard
 70
     0
 40
0.0
 41
1.0
 50
0.0
 71
     0
 42
3.175
  3
txt
  4

  0
STYLE
  5
CC
330
3
100
AcDbSymbolTableRecord
100
AcDbTextStyleTableRecord
  2
SLDTEXTSTYLE0
 70
     0
 40
0.0
 41
0.605
 50
0.0
 71
     0
 42
3.175
  3
TXT
  4

  0
STYLE
  5
103
330
3
100
AcDbSymbolTableRecord
100
AcDbTextStyleTableRecord
  2
SLDTEXTSTYLE1
 70
     0
 40
0.0
 41
0.7
 50
0.0
 71
     0
 42
3.175
  3
TXT
  4

  0
ENDTAB
  0
TABLE
  2
VIEW
  5
6
330
0
100
AcDbSymbolTable
 70
     0
  0
ENDTAB
  0
TABLE
  2
UCS
  5
7
330
0
100
AcDbSymbolTable
 70
     0
  0
ENDTAB
  0
TABLE
  2
APPID
  5
9
330
0
100
AcDbSymbolTable
 70
     1
  0
APPID
  5
12
330
9
100
AcDbSymbolTableRecord
100
AcDbRegAppTableRecord
  2
ACAD
 70
     0
  0
ENDTAB
  0
TABLE
  2
DIMSTYLE
  5
A
330
0
100
AcDbSymbolTable
 70
     7
100
AcDbDimStyleTable
  0
DIMSTYLE
105
27
330
A
100
AcDbSymbolTableRecord
100
AcDbDimStyleTableRecord
  2
ISO-25
 70
     0
 41
2.5
 42
0.625
 43
3.75
 44
1.25
 73
     0
 74
     0
 77
     1
 78
     8
140
2.5
141
2.5
143
0.0393700787
147
0.625
171
     3
172
     1
178
     0
271
     2
272
     2
274
     3
278
    44
283
     0
284
     8
340
11
  0
DIMSTYLE
105
268
102
{ACAD_REACTORS
330
267
102
}
330
A
100
AcDbSymbolTableRecord
100
AcDbDimStyleTableRecord
  2
SLDDIMSTYLE0
 70
     0
 41
2.0
 44
0.0
 73
     0
 74
     0
 77
     1
 78
    12
 79
     3
140
2.5424804688
147
0.6356201172
173
     1
178
     0
179
     2
272
     2
276
     2
284
    12
340
103
  0
DIMSTYLE
105
273
102
{ACAD_REACTORS
330
272
330
27F
330
28B
330
297
330
2A3
330
2C8
330
3F1
102
}
330
A
100
AcDbSymbolTableRecord
100
AcDbDimStyleTableRecord
  2
SLDDIMSTYLE1
 70
     0
 41
2.0
 44
0.0
 45
0.000000001
 73
     0
 74
     0
 77
     1
 78
    12
 79
     3
140
2.5424804688
147
0.6356201172
173
     1
178
     0
271
     2
272
     2
276
     2
284
    12
340
103
  0
DIMSTYLE
105
2AF
102
{ACAD_REACTORS
330
2AE
102
}
330
A
100
AcDbSymbolTableRecord
100
AcDbDimStyleTableRecord
  2
SLDDIMSTYLE2
 70
     0
 41
2.0
 44
0.0
 45
0.000000001
 78
    12
 79
     3
140
2.5424804688
141
0.0
147
0.6356201172
172
     1
173
     1
178
     0
271
     2
272
     2
276
     2
284
    12
340
103
341
2B0
343
2B0
  0
DIMSTYLE
105
2BD
102
{ACAD_REACTORS
330
2BC
102
}
330
A
100
AcDbSymbolTableRecord
100
AcDbDimStyleTableRecord
  2
SLDDIMSTYLE3
 70
     0
 41
2.0
 44
0.0
 45
0.000000001
 78
    12
 79
     3
140
2.5424804688
141
0.0
147
0.6356201172
173
     1
178
     0
271
     2
272
     2
276
     2
284
    12
340
103
  0
DIMSTYLE
105
2D9
330
A
100
AcDbSymbolTableRecord
100
AcDbDimStyleTableRecord
  2
SLDDIMSTYLE4
 70
     0
 41
2.0
 44
0.0
 45
0.000000001
146
2.0
147
0.0
173
     1
178
     0
271
     0
272
     0
276
     2
340
11
  0
DIMSTYLE
105
3E7
102
{ACAD_REACTORS
330
3E6
102
}
330
A
100
AcDbSymbolTableRecord
100
AcDbDimStyleTableRecord
  2
SLDDIMSTYLE5
 70
     0
 41
2.0
 44
0.0
 45
0.000000001
 78
    12
 79
     3
140
2.5424804688
141
0.0
147
0.6356201172
173
     1
178
     0
271
     2
272
     2
276
     2
284
    12
340
103
  0
ENDTAB
  0
TABLE
  2
BLOCK_RECORD
  5
1
330
0
100
AcDbSymbolTable
 70
    20
  0
BLOCK_RECORD
  5
1F
330
1
100
AcDbSymbolTableRecord
100
AcDbBlockTableRecord
  2
*Model_Space
340
22
  0
BLOCK_RECORD
  5
1B
330
1
100
AcDbSymbolTableRecord
100
AcDbBlockTableRecord
  2
*Paper_Space
340
1E
  0
BLOCK_RECORD
  5
23
330
1
100
AcDbSymbolTableRecord
100
AcDbBlockTableRecord
  2
*Paper_Space0
340
26
  0
BLOCK_RECORD
  5
7C
330
1
100
AcDbSymbolTableRecord
100
AcDbBlockTableRecord
  2
圖塊6
340
0
102
{BLKREFS
331
CB
102
}
  0
BLOCK_RECORD
  5
CE
330
1
100
AcDbSymbolTableRecord
100
AcDbBlockTableRecord
  2
SW_NOTE_0
340
0
102
{BLKREFS
331
D4
102
}
  0
BLOCK_RECORD
  5
105
330
1
100
AcDbSymbolTableRecord
100
AcDbBlockTableRecord
  2
SW_NOTE_0_1
340
0
102
{BLKREFS
331
10A
102
}
  0
BLOCK_RECORD
  5
10B
330
1
100
AcDbSymbolTableRecord
100
AcDbBlockTableRecord
  2
SW_TABLEANNOTATION_0
340
0
102
{BLKREFS
331
11C
102
}
  0
BLOCK_RECORD
  5
269
330
1
100
AcDbSymbolTableRecord
100
AcDbBlockTableRecord
  2
_D
340
0
  0
BLOCK_RECORD
  5
274
330
1
100
AcDbSymbolTableRecord
100
AcDbBlockTableRecord
  2
_D_1
340
0
  0
BLOCK_RECORD
  5
280
330
1
100
AcDbSymbolTableRecord
100
AcDbBlockTableRecord
  2
_D_2
340
0
  0
BLOCK_RECORD
  5
28C
330
1
100
AcDbSymbolTableRecord
100
AcDbBlockTableRecord
  2
_D_3
340
0
  0
BLOCK_RECORD
  5
298
330
1
100
AcDbSymbolTableRecord
100
AcDbBlockTableRecord
  2
_D_4
340
0
  0
BLOCK_RECORD
  5
2A4
330
1
100
AcDbSymbolTableRecord
100
AcDbBlockTableRecord
  2
_D_5
340
0
  0
BLOCK_RECORD
  5
2B0
330
1
100
AcDbSymbolTableRecord
100
AcDbBlockTableRecord
  2
_None
340
0
  0
BLOCK_RECORD
  5
2B3
330
1
100
AcDbSymbolTableRecord
100
AcDbBlockTableRecord
  2
_D_6
340
0
  0
BLOCK_RECORD
  5
2BE
330
1
100
AcDbSymbolTableRecord
100
AcDbBlockTableRecord
  2
_D_7
340
0
  0
BLOCK_RECORD
  5
2C9
330
1
100
AcDbSymbolTableRecord
100
AcDbBlockTableRecord
  2
_D_8
340
0
  0
BLOCK_RECORD
  5
2D3
330
1
100
AcDbSymbolTableRecord
100
AcDbBlockTableRecord
  2
SW_NOTE_0_2
340
0
102
{BLKREFS
331
2D8
102
}
  0
BLOCK_RECORD
  5
3E8
330
1
100
AcDbSymbolTableRecord
100
AcDbBlockTableRecord
  2
_D_9
340
0
  0
BLOCK_RECORD
  5
3F2
330
1
100
AcDbSymbolTableRecord
100
AcDbBlockTableRecord
  2
_D_10
340
0
  0
BLOCK_RECORD
  5
3FB
330
1
100
AcDbSymbolTableRecord
100
AcDbBlockTableRecord
  2
SW_CENTERMARKSYMBOL_0
340
0
102
{BLKREFS
331
406
102
}
  0
BLOCK_RECORD
  5
407
330
1
100
AcDbSymbolTableRecord
100
AcDbBlockTableRecord
  2
SW_CENTERMARKSYMBOL_1
340
0
102
{BLKREFS
331
412
102
}
  0
ENDTAB
  0
ENDSEC
  0
SECTION
  2
BLOCKS
  0
BLOCK
  5
20
330
1F
100
AcDbEntity
  8
0
100
AcDbBlockBegin
  2
*Model_Space
 70
     0
 10
0.0
 20
0.0
 30
0.0
  3
*Model_Space
  1

  0
ENDBLK
  5
21
330
1F
100
AcDbEntity
  8
0
100
AcDbBlockEnd
  0
BLOCK
  5
1C
330
1B
100
AcDbEntity
 67
     1
  8
0
100
AcDbBlockBegin
  2
*Paper_Space
 70
     0
 10
0.0
 20
0.0
 30
0.0
  3
*Paper_Space
  1

  0
ENDBLK
  5
1D
330
1B
100
AcDbEntity
 67
     1
  8
0
100
AcDbBlockEnd
  0
BLOCK
  5
24
330
23
100
AcDbEntity
  8
0
100
AcDbBlockBegin
  2
*Paper_Space0
 70
     0
 10
0.0
 20
0.0
 30
0.0
  3
*Paper_Space0
  1

  0
ENDBLK
  5
25
330
23
100
AcDbEntity
  8
0
100
AcDbBlockEnd
  0
BLOCK
  5
7D
330
7C
100
AcDbEntity
  8
0
100
AcDbBlockBegin
  2
圖塊6
 70
     0
 10
0.0
 20
0.0
 30
0.0
  3
圖塊6
  1

  0
ARC
  5
7F
330
7C
100
AcDbEntity
  8
圖層_1
 62
     7
370
    35
100
AcDbCircle
 10
1.5301544339
 20
6.1020682891
 30
0.0
 40
1.53015443394367
100
AcDbArc
 50
130.2115225915
 51
228.588904108
  0
ARC
  5
80
330
7C
100
AcDbEntity
  8
圖層_1
 62
     7
370
    35
100
AcDbCircle
 10
4.8509135981
 20
5.9949454415
 30
0.0
 40
2.577335426817622
100
AcDbArc
 50
140.4331765613
 51
251.0865666567
  0
ARC
  5
81
330
7C
100
AcDbEntity
  8
圖層_1
 62
     7
370
    35
100
AcDbCircle
 10
5.1765041982
 20
6.3117559713
 30
0.0
 40
2.989636657769863
100
AcDbArc
 50
247.1485306747
 51
309.6030773927
  0
LINE
  5
82
330
7C
100
AcDbEntity
  8
圖層_1
 62
     7
370
    35
100
AcDbLine
 10
1.8488977269
 20
8.5321825984
 30
0.0
 11
0.542269472
 21
7.2705955219
 31
0.0
  0
LINE
  5
83
330
7C
100
AcDbEntity
  8
圖層_1
 62
     7
370
    35
100
AcDbLine
 10
0.51802289
 20
4.9544784977
 30
0.0
 11
4.5272252002
 21
1.4698746574
 31
0.0
  0
LINE
  5
84
330
7C
100
AcDbEntity
  8
圖層_1
 62
     7
370
    35
100
AcDbLine
 10
4.5272252002
 20
1.4698746574
 30
0.0
 11
3.8961732797
 21
0.853974267
 31
0.0
  0
LINE
  5
85
330
7C
100
AcDbEntity
  8
圖層_1
 62
     7
370
    35
100
AcDbLine
 10
3.8961732797
 20
0.853974267
 30
0.0
 11
4.8880526445
 21
0.0
 31
0.0
  0
LINE
  5
86
330
7C
100
AcDbEntity
  8
圖層_1
 62
     7
370
    35
100
AcDbLine
 10
8.0977170788
 20
3.1165779655
 30
0.0
 11
7.0822940472
 21
4.0083036932
 31
0.0
  0
LINE
  5
87
330
7C
100
AcDbEntity
  8
圖層_1
 62
     7
370
    35
100
AcDbLine
 10
2.8640915743
 20
7.6366506975
 30
0.0
 11
1.8488977269
 21
8.5321825984
 31
0.0
  0
LINE
  5
88
330
7C
100
AcDbEntity
  8
圖層_1
 62
     7
370
    35
100
AcDbLine
 10
4.8880526445
 20
0.0
 30
0.0
 11
8.0977170788
 21
3.1165779655
 31
0.0
  0
ENDBLK
  5
7E
330
7C
100
AcDbEntity
  8
0
100
AcDbBlockEnd
  0
BLOCK
  5
CF
330
CE
100
AcDbEntity
  8
0
100
AcDbBlockBegin
  2
SW_NOTE_0
 70
     0
 10
0.0
 20
0.0
 30
0.0
  3
SW_NOTE_0
  1

  0
MTEXT
  5
D1
330
CE
100
AcDbEntity
  8
0
  6
Continuous
 62
     0
370
     0
100
AcDbMText
 10
0.0
 20
3.4106583948
 30
0.0
 40
2.6458333333
 41
0.0
 71
     1
 72
     1
  1
PROPRIETARY AND CONFIDENTIAL
  7
SLDTEXTSTYLE0
 73
     1
 44
1.0
  0
MTEXT
  5
D2
330
CE
100
AcDbEntity
  8
0
  6
Continuous
 62
     0
370
     0
100
AcDbMText
 10
0.0
 20
-0.08198348
 30
0.0
 40
1.8520833333
 41
0.0
 71
     1
 72
     1
  1
THE INFORMATION CONTAINED IN THIS DRAWING IS THE SOLE PROPERTY OF UNICE E-O SERVICES INC. ANY REPRODUCTION IN PART OR AS A WHOLE WITHOUT THE WRITTEN PERMISSION OF UNICE E-O SERVICES INC IS
  7
SLDTEXTSTYLE0
 73
     1
 44
1.0
  0
MTEXT
  5
D3
330
CE
100
AcDbEntity
  8
0
  6
Continuous
 62
     0
370
     0
100
AcDbMText
 10
0.0
 20
-2.5514278946
 30
0.0
 40
1.8520833333
 41
0.0
 71
     1
 72
     1
  1
PROHIBITED.
  7
SLDTEXTSTYLE0
 73
     1
 44
1.0
  0
ENDBLK
  5
D0
330
CE
100
AcDbEntity
  8
0
100
AcDbBlockEnd
  0
BLOCK
  5
106
330
105
100
AcDbEntity
  8
0
100
AcDbBlockBegin
  2
SW_NOTE_0_1
 70
     0
 10
0.0
 20
0.0
 30
0.0
  3
SW_NOTE_0_1
  1

  0
MTEXT
  5
108
330
105
100
AcDbEntity
  8
SLD-0
 62
     0
100
AcDbMText
 10
0.0
 20
2.0463950369
 30
0.0
 40
1.5875
 41
0.0
 71
     1
 72
     1
  1
No.5, Andong Rd., Chung Li District,
  7
SLDTEXTSTYLE0
 73
     1
 44
1.0
  0
MTEXT
  5
109
330
105
100
AcDbEntity
  8
SLD-0
 62
     0
100
AcDbMText
 10
0.0
 20
-0.0702716042
 30
0.0
 40
1.5875
 41
0.0
 71
     1
 72
     1
  1
Taoyuan City 32063, Taiwan, R.O.C.
  7
SLDTEXTSTYLE0
 73
     1
 44
1.0
  0
ENDBLK
  5
107
330
105
100
AcDbEntity
  8
0
100
AcDbBlockEnd
  0
BLOCK
  5
10C
330
10B
100
AcDbEntity
  8
0
100
AcDbBlockBegin
  2
SW_TABLEANNOTATION_0
 70
     0
 10
0.0
 20
0.0
 30
0.0
  3
SW_TABLEANNOTATION_0
  1

  0
LINE
  5
10E
330
10B
100
AcDbEntity
  8
DIM
 62
     0
100
AcDbLine
 10
0.0
 20
0.0
 30
0.0
 11
0.0
 21
-6.4735574558
 31
0.0
  0
LINE
  5
10F
330
10B
100
AcDbEntity
  8
DIM
 62
     0
100
AcDbLine
 10
41.2019662902
 20
0.0
 30
0.0
 11
41.2019662902
 21
-6.4735574558
 31
0.0
  0
LINE
  5
110
330
10B
100
AcDbEntity
  8
DIM
 62
     0
100
AcDbLine
 10
0.0
 20
-6.4735574558
 30
0.0
 11
0.0
 21
-12.9471149115
 31
0.0
  0
LINE
  5
111
330
10B
100
AcDbEntity
  8
DIM
 62
     0
100
AcDbLine
 10
41.2019662902
 20
-6.4735574558
 30
0.0
 11
41.2019662902
 21
-12.9471149115
 31
0.0
  0
LINE
  5
112
330
10B
100
AcDbEntity
  8
DIM
 62
     0
100
AcDbLine
 10
69.196887047
 20
0.0
 30
0.0
 11
69.196887047
 21
-6.4735574558
 31
0.0
  0
LINE
  5
113
330
10B
100
AcDbEntity
  8
DIM
 62
     0
100
AcDbLine
 10
69.196887047
 20
-6.4735574558
 30
0.0
 11
69.196887047
 21
-12.9471149115
 31
0.0
  0
LINE
  5
114
330
10B
100
AcDbEntity
  8
DIM
 62
     0
100
AcDbLine
 10
0.0
 20
0.0
 30
0.0
 11
41.2019662902
 21
0.0
 31
0.0
  0
LINE
  5
115
330
10B
100
AcDbEntity
  8
DIM
 62
     0
100
AcDbLine
 10
0.0
 20
-6.4735574558
 30
0.0
 11
41.2019662902
 21
-6.4735574558
 31
0.0
  0
LINE
  5
116
330
10B
100
AcDbEntity
  8
DIM
 62
     0
100
AcDbLine
 10
41.2019662902
 20
0.0
 30
0.0
 11
69.196887047
 21
0.0
 31
0.0
  0
LINE
  5
117
330
10B
100
AcDbEntity
  8
DIM
 62
     0
100
AcDbLine
 10
41.2019662902
 20
-6.4735574558
 30
0.0
 11
69.196887047
 21
-6.4735574558
 31
0.0
  0
LINE
  5
118
330
10B
100
AcDbEntity
  8
DIM
 62
     0
100
AcDbLine
 10
0.0
 20
-12.9471149115
 30
0.0
 11
41.2019662902
 21
-12.9471149115
 31
0.0
  0
LINE
  5
119
330
10B
100
AcDbEntity
  8
DIM
 62
     0
100
AcDbLine
 10
41.2019662902
 20
-12.9471149115
 30
0.0
 11
69.196887047
 21
-12.9471149115
 31
0.0
  0
MTEXT
  5
11A
330
10B
100
AcDbEntity
  8
DIM
 62
     0
100
AcDbMText
 10
16.0093165174
 20
-1.2424921563
 30
0.0
 40
3.0
 41
0.0
 71
     1
 72
     1
  1
Model
  7
SLDTEXTSTYLE1
 73
     1
 44
1.0
  0
MTEXT
  5
11B
330
10B
100
AcDbEntity
  8
DIM
 62
     0
100
AcDbMText
 10
49.9223434133
 20
-1.2424921563
 30
0.0
 40
3.0
 41
0.0
 71
     1
 72
     1
  1
W(kgs)
  7
SLDTEXTSTYLE1
 73
     1
 44
1.0
  0
ENDBLK
  5
10D
330
10B
100
AcDbEntity
  8
0
100
AcDbBlockEnd
  0
BLOCK
  5
26A
330
269
100
AcDbEntity
  8
0
100
AcDbBlockBegin
  2
_D
 70
     0
 10
0.0
 20
0.0
 30
0.0
  3
_D
  1

  0
ARC
  5
26C
330
269
100
AcDbEntity
  8
DIM
100
AcDbCircle
 10
118.6632852741
 20
56.4181947749
 30
0.0
 40
37.10146334314469
100
AcDbArc
 50
34.0
 51
90.0
  0
SOLID
  5
26D
330
269
100
AcDbEntity
  8
DIM
100
AcDbTrace
 10
149.4217923823
 20
77.1650697847
 30
0.0
 11
148.4625906811
 21
78.9377604223
 31
0.0
 12
148.0557499611
 22
78.6471049069
 32
0.0
 13
148.0557499611
 23
78.6471049069
 33
0.0
  0
SOLID
  5
26E
330
269
100
AcDbEntity
  8
DIM
100
AcDbTrace
 10
118.6632852741
 20
93.519658118
 30
0.0
 11
120.655829302
 21
93.2159011482
 31
0.0
 12
120.6692912014
 22
93.7157198926
 32
0.0
 13
120.6692912014
 23
93.7157198926
 33
0.0
  0
LINE
  5
26F
330
269
100
AcDbEntity
  8
DIM
100
AcDbLine
 10
147.3922506358
 20
75.7961265914
 30
0.0
 11
150.2508299549
 21
77.7242626882
 31
0.0
  0
LINE
  5
270
330
269
100
AcDbEntity
  8
DIM
100
AcDbLine
 10
118.6632852741
 20
90.0715884361
 30
0.0
 11
118.6632852741
 21
94.519658118
 31
0.0
  0
MTEXT
  5
271
330
269
100
AcDbEntity
  8
DIM
100
AcDbMText
 10
135.867693406
 20
92.7669833883
 30
0.0
 40
2.38125
 41
0.0
 71
     1
 72
     1
  1
56°
  7
SLDTEXTSTYLE1
 11
0.882947592858925
 21
-0.4694715627858945
 31
0.0
 73
     1
 44
1.0
  0
ENDBLK
  5
26B
330
269
100
AcDbEntity
  8
0
100
AcDbBlockEnd
  0
BLOCK
  5
275
330
274
100
AcDbEntity
  8
0
100
AcDbBlockBegin
  2
_D_1
 70
     0
 10
0.0
 20
0.0
 30
0.0
  3
_D_1
  1

  0
SOLID
  5
277
330
274
100
AcDbEntity
  8
DIM
100
AcDbTrace
 10
108.6632852741
 20
104.0715884361
 30
0.0
 11
110.6632852741
 21
103.8215884361
 31
0.0
 12
110.6632852741
 22
104.3215884361
 32
0.0
 13
110.6632852741
 23
104.3215884361
 33
0.0
  0
SOLID
  5
278
330
274
100
AcDbEntity
  8
DIM
100
AcDbTrace
 10
128.6632852741
 20
104.0715884361
 30
0.0
 11
126.6632852741
 21
104.3215884361
 31
0.0
 12
126.6632852741
 22
103.8215884361
 32
0.0
 13
126.6632852741
 23
103.8215884361
 33
0.0
  0
LINE
  5
279
330
274
100
AcDbEntity
  8
DIM
100
AcDbLine
 10
108.6632852741
 20
88.0715884361
 30
0.0
 11
108.6632852741
 21
105.0715884361
 31
0.0
  0
LINE
  5
27A
330
274
100
AcDbEntity
  8
DIM
100
AcDbLine
 10
128.6632852741
 20
88.0715884361
 30
0.0
 11
128.6632852741
 21
91.6465949938
 31
0.0
  0
LINE
  5
27B
330
274
100
AcDbEntity
  8
DIM
100
AcDbLine
 10
128.6632852741
 20
92.6465949938
 30
0.0
 11
128.6632852741
 21
105.0715884361
 31
0.0
  0
LINE
  5
27C
330
274
100
AcDbEntity
  8
DIM
100
AcDbLine
 10
108.6632852741
 20
104.0715884361
 30
0.0
 11
128.6632852741
 21
104.0715884361
 31
0.0
  0
MTEXT
  5
27D
330
274
100
AcDbEntity
  8
DIM
100
AcDbMText
 10
115.6646743156
 20
107.1411811079
 30
0.0
 40
2.38125
 41
0.0
 71
     1
 72
     1
  1
%%c
  7
SLDTEXTSTYLE1
 73
     1
 44
1.0
  0
MTEXT
  5
27E
330
274
100
AcDbEntity
  8
DIM
100
AcDbMText
 10
118.6809242908
 20
107.1411811079
 30
0.0
 40
2.38125
 41
0.0
 71
     1
 72
     1
  1
20
  7
SLDTEXTSTYLE1
 73
     1
 44
1.0
  0
ENDBLK
  5
276
330
274
100
AcDbEntity
  8
0
100
AcDbBlockEnd
  0
BLOCK
  5
281
330
280
100
AcDbEntity
  8
0
100
AcDbBlockBegin
  2
_D_2
 70
     0
 10
0.0
 20
0.0
 30
0.0
  3
_D_2
  1

  0
SOLID
  5
283
330
280
100
AcDbEntity
  8
DIM
100
AcDbTrace
 10
111.5989995598
 20
99.0715884361
 30
0.0
 11
113.5989995598
 21
98.8215884361
 31
0.0
 12
113.5989995598
 22
99.3215884361
 32
0.0
 13
113.5989995598
 23
99.3215884361
 33
0.0
  0
SOLID
  5
284
330
280
100
AcDbEntity
  8
DIM
100
AcDbTrace
 10
125.7275709884
 20
99.0715884361
 30
0.0
 11
123.7275709884
 21
99.3215884361
 31
0.0
 12
123.7275709884
 22
98.8215884361
 32
0.0
 13
123.7275709884
 23
98.8215884361
 33
0.0
  0
LINE
  5
285
330
280
100
AcDbEntity
  8
DIM
100
AcDbLine
 10
111.5989995598
 20
88.0715884361
 30
0.0
 11
111.5989995598
 21
100.0715884361
 31
0.0
  0
LINE
  5
286
330
280
100
AcDbEntity
  8
DIM
100
AcDbLine
 10
125.7275709884
 20
88.0715884361
 30
0.0
 11
125.7275709884
 21
92.3409136403
 31
0.0
  0
LINE
  5
287
330
280
100
AcDbEntity
  8
DIM
100
AcDbLine
 10
125.7275709884
 20
93.3409136403
 30
0.0
 11
125.7275709884
 21
100.0715884361
 31
0.0
  0
LINE
  5
288
330
280
100
AcDbEntity
  8
DIM
100
AcDbLine
 10
111.5989995598
 20
99.0715884361
 30
0.0
 11
125.7275709884
 21
99.0715884361
 31
0.0
  0
MTEXT
  5
289
330
280
100
AcDbEntity
  8
DIM
100
AcDbMText
 10
115.6646743156
 20
102.1411811079
 30
0.0
 40
2.38125
 41
0.0
 71
     1
 72
     1
  1
%%c
  7
SLDTEXTSTYLE1
 73
     1
 44
1.0
  0
MTEXT
  5
28A
330
280
100
AcDbEntity
  8
DIM
100
AcDbMText
 10
118.6809242908
 20
102.1411811079
 30
0.0
 40
2.38125
 41
0.0
 71
     1
 72
     1
  1
14
  7
SLDTEXTSTYLE1
 73
     1
 44
1.0
  0
ENDBLK
  5
282
330
280
100
AcDbEntity
  8
0
100
AcDbBlockEnd
  0
BLOCK
  5
28D
330
28C
100
AcDbEntity
  8
0
100
AcDbBlockBegin
  2
_D_3
 70
     0
 10
0.0
 20
0.0
 30
0.0
  3
_D_3
  1

  0
SOLID
  5
28F
330
28C
100
AcDbEntity
  8
DIM
100
AcDbTrace
 10
157.1736612036
 20
94.4559508112
 30
0.0
 11
158.0847876174
 21
92.6580774402
 31
0.0
 12
158.4993064037
 22
92.937673892
 32
0.0
 13
158.4993064037
 23
92.937673892
 33
0.0
  0
SOLID
  5
290
330
28C
100
AcDbEntity
  8
DIM
100
AcDbTrace
 10
168.357519273
 20
77.8751993601
 30
0.0
 11
167.4463928592
 21
79.6730727311
 31
0.0
 12
167.031874073
 22
79.3934762793
 32
0.0
 13
167.031874073
 23
79.3934762793
 33
0.0
  0
LINE
  5
291
330
28C
100
AcDbEntity
  8
DIM
100
AcDbLine
 10
139.3132088834
 20
82.4089236066
 30
0.0
 11
142.2770236419
 21
84.4080419035
 31
0.0
  0
LINE
  5
292
330
28C
100
AcDbEntity
  8
DIM
100
AcDbLine
 10
143.1060612144
 20
84.9672348069
 30
0.0
 11
158.0026987762
 21
95.0151437147
 31
0.0
  0
LINE
  5
293
330
28C
100
AcDbEntity
  8
DIM
100
AcDbLine
 10
150.4970669528
 20
65.8281721554
 30
0.0
 11
169.1865568456
 21
78.4343922636
 31
0.0
  0
LINE
  5
294
330
28C
100
AcDbEntity
  8
DIM
100
AcDbLine
 10
157.1736612036
 20
94.4559508112
 30
0.0
 11
168.357519273
 21
77.8751993601
 31
0.0
  0
MTEXT
  5
295
330
28C
100
AcDbEntity
  8
DIM
100
AcDbMText
 10
163.6335959274
 20
90.3680306743
 30
0.0
 40
2.38125
 41
0.0
 71
     1
 72
     1
  1
%%c
  7
SLDTEXTSTYLE1
 11
0.5591929034707551
 21
-0.8290375725550361
 31
0.0
 73
     1
 44
1.0
  0
MTEXT
  5
296
330
28C
100
AcDbEntity
  8
DIM
100
AcDbMText
 10
165.3202615086
 20
87.8674461166
 30
0.0
 40
2.38125
 41
0.0
 71
     1
 72
     1
  1
20
  7
SLDTEXTSTYLE1
 11
0.5591929034707551
 21
-0.8290375725550361
 31
0.0
 73
     1
 44
1.0
  0
ENDBLK
  5
28E
330
28C
100
AcDbEntity
  8
0
100
AcDbBlockEnd
  0
BLOCK
  5
299
330
298
100
AcDbEntity
  8
0
100
AcDbBlockBegin
  2
_D_4
 70
     0
 10
0.0
 20
0.0
 30
0.0
  3
_D_4
  1

  0
SOLID
  5
29B
330
298
100
AcDbEntity
  8
DIM
100
AcDbTrace
 10
152.5998709412
 20
87.8297790618
 30
0.0
 11
153.510997355
 21
86.0319056909
 31
0.0
 12
153.9255161413
 22
86.3115021426
 32
0.0
 13
153.9255161413
 23
86.3115021426
 33
0.0
  0
SOLID
  5
29C
330
298
100
AcDbEntity
  8
DIM
100
AcDbTrace
 10
160.5004678203
 20
76.116662501
 30
0.0
 11
159.5893414065
 21
77.914535872
 31
0.0
 12
159.1748226202
 22
77.6349394203
 32
0.0
 13
159.1748226202
 23
77.6349394203
 33
0.0
  0
LINE
  5
29D
330
298
100
AcDbEntity
  8
DIM
100
AcDbLine
 10
140.9548394786
 20
79.9751061614
 30
0.0
 11
144.4942704823
 21
82.3624825182
 31
0.0
  0
LINE
  5
29E
330
298
100
AcDbEntity
  8
DIM
100
AcDbLine
 10
145.3233080549
 20
82.9216754217
 30
0.0
 11
153.4289085138
 21
88.3889719653
 31
0.0
  0
LINE
  5
29F
330
298
100
AcDbEntity
  8
DIM
100
AcDbLine
 10
148.8554363576
 20
68.2619896006
 30
0.0
 11
161.3295053928
 21
76.6758554045
 31
0.0
  0
LINE
  5
2A0
330
298
100
AcDbEntity
  8
DIM
100
AcDbLine
 10
152.5998709412
 20
87.8297790618
 30
0.0
 11
160.5004678203
 21
76.116662501
 31
0.0
  0
MTEXT
  5
2A1
330
298
100
AcDbEntity
  8
DIM
100
AcDbMText
 10
157.4181750698
 20
86.1756763701
 30
0.0
 40
2.38125
 41
0.0
 71
     1
 72
     1
  1
%%c
  7
SLDTEXTSTYLE1
 11
0.5591929034707595
 21
-0.8290375725550332
 31
0.0
 73
     1
 44
1.0
  0
MTEXT
  5
2A2
330
298
100
AcDbEntity
  8
DIM
100
AcDbMText
 10
159.104840651
 20
83.6750918124
 30
0.0
 40
2.38125
 41
0.0
 71
     1
 72
     1
  1
14
  7
SLDTEXTSTYLE1
 11
0.5591929034707595
 21
-0.8290375725550332
 31
0.0
 73
     1
 44
1.0
  0
ENDBLK
  5
29A
330
298
100
AcDbEntity
  8
0
100
AcDbBlockEnd
  0
BLOCK
  5
2A5
330
2A4
100
AcDbEntity
  8
0
100
AcDbBlockBegin
  2
_D_5
 70
     0
 10
0.0
 20
0.0
 30
0.0
  3
_D_5
  1

  0
SOLID
  5
2A7
330
2A4
100
AcDbEntity
  8
DIM
100
AcDbTrace
 10
108.6632852741
 20
22.8648011136
 30
0.0
 11
110.6632852741
 21
22.6148011136
 31
0.0
 12
110.6632852741
 22
23.1148011136
 32
0.0
 13
110.6632852741
 23
23.1148011136
 33
0.0
  0
SOLID
  5
2A8
330
2A4
100
AcDbEntity
  8
DIM
100
AcDbTrace
 10
128.6632852741
 20
22.8648011136
 30
0.0
 11
126.6632852741
 21
23.1148011136
 31
0.0
 12
126.6632852741
 22
22.6148011136
 32
0.0
 13
126.6632852741
 23
22.6148011136
 33
0.0
  0
LINE
  5
2A9
330
2A4
100
AcDbEntity
  8
DIM
100
AcDbLine
 10
108.6632852741
 20
28.8648011136
 30
0.0
 11
108.6632852741
 21
21.8648011136
 31
0.0
  0
LINE
  5
2AA
330
2A4
100
AcDbEntity
  8
DIM
100
AcDbLine
 10
128.6632852741
 20
28.8648011136
 30
0.0
 11
128.6632852741
 21
21.8648011136
 31
0.0
  0
LINE
  5
2AB
330
2A4
100
AcDbEntity
  8
DIM
100
AcDbLine
 10
108.6632852741
 20
22.8648011136
 30
0.0
 11
128.6632852741
 21
22.8648011136
 31
0.0
  0
MTEXT
  5
2AC
330
2A4
100
AcDbEntity
  8
DIM
100
AcDbMText
 10
115.6646743156
 20
25.9343937854
 30
0.0
 40
2.38125
 41
0.0
 71
     1
 72
     1
  1
%%c
  7
SLDTEXTSTYLE1
 73
     1
 44
1.0
  0
MTEXT
  5
2AD
330
2A4
100
AcDbEntity
  8
DIM
100
AcDbMText
 10
118.6809242908
 20
25.9343937854
 30
0.0
 40
2.38125
 41
0.0
 71
     1
 72
     1
  1
20
  7
SLDTEXTSTYLE1
 73
     1
 44
1.0
  0
ENDBLK
  5
2A6
330
2A4
100
AcDbEntity
  8
0
100
AcDbBlockEnd
  0
BLOCK
  5
2B1
330
2B0
100
AcDbEntity
  8
0
100
AcDbBlockBegin
  2
_None
 70
     0
 10
0.0
 20
0.0
 30
0.0
  3
_None
  1

  0
ENDBLK
  5
2B2
330
2B0
100
AcDbEntity
  8
0
100
AcDbBlockEnd
  0
BLOCK
  5
2B4
330
2B3
100
AcDbEntity
  8
0
100
AcDbBlockBegin
  2
_D_6
 70
     0
 10
0.0
 20
0.0
 30
0.0
  3
_D_6
  1

  0
SOLID
  5
2B6
330
2B3
100
AcDbEntity
  8
DIM
100
AcDbTrace
 10
94.1999684634
 20
70.0397266499
 30
0.0
 11
92.5742095116
 21
71.2311156839
 31
0.0
 12
92.3309678709
 22
70.7942707409
 32
0.0
 13
92.3309678709
 23
70.7942707409
 33
0.0
  0
LINE
  5
2B7
330
2B3
100
AcDbEntity
  8
DIM
100
AcDbLine
 10
94.1999684634
 20
70.0397266499
 30
0.0
 11
80.1260188489
 21
77.8763072234
 31
0.0
  0
LINE
  5
2B8
330
2B3
100
AcDbEntity
  8
DIM
100
AcDbLine
 10
143.1266020847
 20
42.7966628998
 30
0.0
 11
94.1999684634
 21
70.0397266499
 31
0.0
  0
LINE
  5
2B9
330
2B3
100
AcDbEntity
  8
DIM
100
AcDbLine
 10
80.1260188489
 20
77.8763072234
 30
0.0
 11
72.8787969319
 21
77.8763072234
 31
0.0
  0
MTEXT
  5
2BA
330
2B3
100
AcDbEntity
  8
DIM
100
AcDbMText
 10
72.8787969319
 20
80.9458998952
 30
0.0
 40
2.38125
 41
0.0
 71
     1
 72
     1
  1
%%c
  7
SLDTEXTSTYLE1
 73
     1
 44
1.0
  0
MTEXT
  5
2BB
330
2B3
100
AcDbEntity
  8
DIM
100
AcDbMText
 10
75.8950469071
 20
80.9458998952
 30
0.0
 40
2.38125
 41
0.0
 71
     1
 72
     1
  1
56
  7
SLDTEXTSTYLE1
 73
     1
 44
1.0
  0
ENDBLK
  5
2B5
330
2B3
100
AcDbEntity
  8
0
100
AcDbBlockEnd
  0
BLOCK
  5
2BF
330
2BE
100
AcDbEntity
  8
0
100
AcDbBlockBegin
  2
_D_7
 70
     0
 10
0.0
 20
0.0
 30
0.0
  3
_D_7
  1

  0
SOLID
  5
2C1
330
2BE
100
AcDbEntity
  8
DIM
100
AcDbTrace
 10
137.2096650877
 20
38.1964551266
 30
0.0
 11
135.9582295217
 21
39.7764579824
 31
0.0
 12
135.6078114516
 22
39.4197968321
 32
0.0
 13
135.6078114516
 23
39.4197968321
 33
0.0
  0
SOLID
  5
2C2
330
2BE
100
AcDbEntity
  8
DIM
100
AcDbTrace
 10
100.1169054605
 20
74.6399344231
 30
0.0
 11
101.3683410264
 21
73.0599315674
 31
0.0
 12
101.7187590966
 22
73.4165927176
 32
0.0
 13
101.7187590966
 23
73.4165927176
 33
0.0
  0
LINE
  5
2C3
330
2BE
100
AcDbEntity
  8
DIM
100
AcDbLine
 10
100.1169054605
 20
74.6399344231
 30
0.0
 11
82.8902002927
 21
91.5650993189
 31
0.0
  0
LINE
  5
2C4
330
2BE
100
AcDbEntity
  8
DIM
100
AcDbLine
 10
137.2096650877
 20
38.1964551266
 30
0.0
 11
100.1169054605
 21
74.6399344231
 31
0.0
  0
LINE
  5
2C5
330
2BE
100
AcDbEntity
  8
DIM
100
AcDbLine
 10
82.8902002927
 20
91.5650993189
 30
0.0
 11
75.6429783758
 21
91.5650993189
 31
0.0
  0
MTEXT
  5
2C6
330
2BE
100
AcDbEntity
  8
DIM
100
AcDbMText
 10
75.6429783758
 20
94.6346919906
 30
0.0
 40
2.38125
 41
0.0
 71
     1
 72
     1
  1
%%c
  7
SLDTEXTSTYLE1
 73
     1
 44
1.0
  0
MTEXT
  5
2C7
330
2BE
100
AcDbEntity
  8
DIM
100
AcDbMText
 10
78.659228351
 20
94.6346919906
 30
0.0
 40
2.38125
 41
0.0
 71
     1
 72
     1
  1
50
  7
SLDTEXTSTYLE1
 73
     1
 44
1.0
  0
ENDBLK
  5
2C0
330
2BE
100
AcDbEntity
  8
0
100
AcDbBlockEnd
  0
BLOCK
  5
2CA
330
2C9
100
AcDbEntity
  8
0
100
AcDbBlockBegin
  2
_D_8
 70
     0
 10
0.0
 20
0.0
 30
0.0
  3
_D_8
  1

  0
SOLID
  5
2CC
330
2C9
100
AcDbEntity
  8
DIM
100
AcDbTrace
 10
84.1632852741
 20
12.8648011136
 30
0.0
 11
86.1632852741
 21
12.6148011136
 31
0.0
 12
86.1632852741
 22
13.1148011136
 32
0.0
 13
86.1632852741
 23
13.1148011136
 33
0.0
  0
SOLID
  5
2CD
330
2C9
100
AcDbEntity
  8
DIM
100
AcDbTrace
 10
153.1632852741
 20
12.8648011136
 30
0.0
 11
151.1632852741
 21
13.1148011136
 31
0.0
 12
151.1632852741
 22
12.6148011136
 32
0.0
 13
151.1632852741
 23
12.6148011136
 33
0.0
  0
LINE
  5
2CE
330
2C9
100
AcDbEntity
  8
DIM
100
AcDbLine
 10
84.1632852741
 20
51.4181947749
 30
0.0
 11
84.1632852741
 21
11.8648011136
 31
0.0
  0
LINE
  5
2CF
330
2C9
100
AcDbEntity
  8
DIM
100
AcDbLine
 10
153.1632852741
 20
51.4181947749
 30
0.0
 11
153.1632852741
 21
11.8648011136
 31
0.0
  0
LINE
  5
2D0
330
2C9
100
AcDbEntity
  8
DIM
100
AcDbLine
 10
84.1632852741
 20
12.8648011136
 30
0.0
 11
153.1632852741
 21
12.8648011136
 31
0.0
  0
MTEXT
  5
2D1
330
2C9
100
AcDbEntity
  8
DIM
100
AcDbMText
 10
115.6646743156
 20
15.9343937854
 30
0.0
 40
2.38125
 41
0.0
 71
     1
 72
     1
  1
%%c
  7
SLDTEXTSTYLE1
 73
     1
 44
1.0
  0
MTEXT
  5
2D2
330
2C9
100
AcDbEntity
  8
DIM
100
AcDbMText
 10
118.6809242908
 20
15.9343937854
 30
0.0
 40
2.38125
 41
0.0
 71
     1
 72
     1
  1
69
  7
SLDTEXTSTYLE1
 73
     1
 44
1.0
  0
ENDBLK
  5
2CB
330
2C9
100
AcDbEntity
  8
0
100
AcDbBlockEnd
  0
BLOCK
  5
2D4
330
2D3
100
AcDbEntity
  8
0
100
AcDbBlockBegin
  2
SW_NOTE_0_2
 70
     0
 10
0.0
 20
0.0
 30
0.0
  3
SW_NOTE_0_2
  1

  0
LINE
  5
2D6
330
2D3
100
AcDbEntity
  8
DIM
 62
     0
100
AcDbLine
 10
7.344607036
 20
0.0
 30
0.0
 11
0.0
 21
0.0
 31
0.0
  0
MTEXT
  5
2D7
330
2D3
100
AcDbEntity
  8
DIM
 62
     0
100
AcDbMText
 10
0.4774339079
 20
2.970675538
 30
0.0
 40
2.38125
 41
0.0
 71
     1
 72
     1
  1
Baffle
  7
SLDTEXTSTYLE1
 73
     1
 44
1.0
  0
ENDBLK
  5
2D5
330
2D3
100
AcDbEntity
  8
0
100
AcDbBlockEnd
  0
BLOCK
  5
3E9
330
3E8
100
AcDbEntity
  8
0
100
AcDbBlockBegin
  2
_D_9
 70
     0
 10
0.0
 20
0.0
 30
0.0
  3
_D_9
  1

  0
SOLID
  5
3EB
330
3E8
100
AcDbEntity
  8
DIM
100
AcDbTrace
 10
141.2723136532
 20
140.8983615843
 30
0.0
 11
142.3232538335
 21
139.1784706758
 31
0.0
 12
142.7142749747
 22
139.4900833635
 32
0.0
 13
142.7142749747
 23
139.4900833635
 33
0.0
  0
LINE
  5
3EC
330
3E8
100
AcDbEntity
  8
DIM
100
AcDbLine
 10
141.2723136532
 20
140.8983615843
 30
0.0
 11
156.3796283932
 21
121.9412405092
 31
0.0
  0
LINE
  5
3ED
330
3E8
100
AcDbEntity
  8
DIM
100
AcDbLine
 10
156.3796283932
 20
121.9412405092
 30
0.0
 11
171.9083084794
 21
121.9412405092
 31
0.0
  0
MTEXT
  5
3EE
330
3E8
100
AcDbEntity
  8
DIM
100
AcDbMText
 10
157.6296283932
 20
125.0108331809
 30
0.0
 40
2.38125
 41
0.0
 71
     1
 72
     1
  1
%%c
  7
SLDTEXTSTYLE1
 73
     1
 44
1.0
  0
MTEXT
  5
3EF
330
3E8
100
AcDbEntity
  8
DIM
100
AcDbMText
 10
160.6458783684
 20
125.0108331809
 30
0.0
 40
2.38125
 41
0.0
 71
     1
 72
     1
  1
18
  7
SLDTEXTSTYLE1
 73
     1
 44
1.0
  0
MTEXT
  5
3F0
330
3E8
100
AcDbEntity
  8
DIM
100
AcDbMText
 10
164.3709909352
 20
125.0108331809
 30
0.0
 40
2.38125
 41
0.0
 71
     1
 72
     1
  1
Baffle
  7
SLDTEXTSTYLE1
 73
     1
 44
1.0
  0
ENDBLK
  5
3EA
330
3E8
100
AcDbEntity
  8
0
100
AcDbBlockEnd
  0
BLOCK
  5
3F3
330
3F2
100
AcDbEntity
  8
0
100
AcDbBlockBegin
  2
_D_10
 70
     0
 10
0.0
 20
0.0
 30
0.0
  3
_D_10
  1

  0
SOLID
  5
3F5
330
3F2
100
AcDbEntity
  8
DIM
100
AcDbTrace
 10
118.6632852741
 20
185.9639830925
 30
0.0
 11
120.6632852741
 21
185.7139830925
 31
0.0
 12
120.6632852741
 22
186.2139830925
 32
0.0
 13
120.6632852741
 23
186.2139830925
 33
0.0
  0
SOLID
  5
3F6
330
3F2
100
AcDbEntity
  8
DIM
100
AcDbTrace
 10
135.6632852741
 20
185.9639830925
 30
0.0
 11
133.6632852741
 21
186.2139830925
 31
0.0
 12
133.6632852741
 22
185.7139830925
 32
0.0
 13
133.6632852741
 23
185.7139830925
 33
0.0
  0
LINE
  5
3F7
330
3F2
100
AcDbEntity
  8
DIM
100
AcDbLine
 10
118.6632852741
 20
160.4367421255
 30
0.0
 11
118.6632852741
 21
186.9639830925
 31
0.0
  0
LINE
  5
3F8
330
3F2
100
AcDbEntity
  8
DIM
100
AcDbLine
 10
135.6632852741
 20
158.9367421255
 30
0.0
 11
135.6632852741
 21
186.9639830925
 31
0.0
  0
LINE
  5
3F9
330
3F2
100
AcDbEntity
  8
DIM
100
AcDbLine
 10
118.6632852741
 20
185.9639830925
 30
0.0
 11
135.6632852741
 21
185.9639830925
 31
0.0
  0
MTEXT
  5
3FA
330
3F2
100
AcDbEntity
  8
DIM
100
AcDbMText
 10
125.6727991868
 20
189.0335755314
 30
0.0
 40
2.38125
 41
0.0
 71
     1
 72
     1
  1
17
  7
SLDTEXTSTYLE1
 73
     1
 44
1.0
  0
ENDBLK
  5
3F4
330
3F2
100
AcDbEntity
  8
0
100
AcDbBlockEnd
  0
BLOCK
  5
3FC
330
3FB
100
AcDbEntity
  8
0
100
AcDbBlockBegin
  2
SW_CENTERMARKSYMBOL_0
 70
     0
 10
0.0
 20
0.0
 30
0.0
  3
SW_CENTERMARKSYMBOL_0
  1

  0
LINE
  5
3FE
330
3FB
100
AcDbEntity
  8
DIM
 62
     0
100
AcDbLine
 10
0.0
 20
0.0
 30
0.0
 11
0.0
 21
1.0
 31
0.0
  0
LINE
  5
3FF
330
3FB
100
AcDbEntity
  8
DIM
 62
     0
100
AcDbLine
 10
0.0
 20
0.0
 30
0.0
 11
-1.0
 21
0.0
 31
0.0
  0
LINE
  5
400
330
3FB
100
AcDbEntity
  8
DIM
 62
     0
100
AcDbLine
 10
0.0
 20
0.0
 30
0.0
 11
0.0
 21
-1.0
 31
0.0
  0
LINE
  5
401
330
3FB
100
AcDbEntity
  8
DIM
 62
     0
100
AcDbLine
 10
0.0
 20
0.0
 30
0.0
 11
1.0
 21
0.0
 31
0.0
  0
LINE
  5
402
330
3FB
100
AcDbEntity
  8
DIM
 62
     0
100
AcDbLine
 10
0.0
 20
2.0
 30
0.0
 11
0.0
 21
11.5
 31
0.0
  0
LINE
  5
403
330
3FB
100
AcDbEntity
  8
DIM
 62
     0
100
AcDbLine
 10
-2.0
 20
0.0
 30
0.0
 11
-11.5
 21
0.0
 31
0.0
  0
LINE
  5
404
330
3FB
100
AcDbEntity
  8
DIM
 62
     0
100
AcDbLine
 10
0.0
 20
-2.0
 30
0.0
 11
0.0
 21
-11.5
 31
0.0
  0
LINE
  5
405
330
3FB
100
AcDbEntity
  8
DIM
 62
     0
100
AcDbLine
 10
2.0
 20
0.0
 30
0.0
 11
11.5
 21
0.0
 31
0.0
  0
ENDBLK
  5
3FD
330
3FB
100
AcDbEntity
  8
0
100
AcDbBlockEnd
  0
BLOCK
  5
408
330
407
100
AcDbEntity
  8
0
100
AcDbBlockBegin
  2
SW_CENTERMARKSYMBOL_1
 70
     0
 10
0.0
 20
0.0
 30
0.0
  3
SW_CENTERMARKSYMBOL_1
  1

  0
LINE
  5
40A
330
407
100
AcDbEntity
  8
DIM
 62
     0
100
AcDbLine
 10
0.0
 20
0.0
 30
0.0
 11
0.0
 21
1.0
 31
0.0
  0
LINE
  5
40B
330
407
100
AcDbEntity
  8
DIM
 62
     0
100
AcDbLine
 10
0.0
 20
0.0
 30
0.0
 11
-1.0
 21
0.0
 31
0.0
  0
LINE
  5
40C
330
407
100
AcDbEntity
  8
DIM
 62
     0
100
AcDbLine
 10
0.0
 20
0.0
 30
0.0
 11
0.0
 21
-1.0
 31
0.0
  0
LINE
  5
40D
330
407
100
AcDbEntity
  8
DIM
 62
     0
100
AcDbLine
 10
0.0
 20
0.0
 30
0.0
 11
1.0
 21
0.0
 31
0.0
  0
LINE
  5
40E
330
407
100
AcDbEntity
  8
DIM
 62
     0
100
AcDbLine
 10
0.0
 20
2.0
 30
0.0
 11
0.0
 21
10.0
 31
0.0
  0
LINE
  5
40F
330
407
100
AcDbEntity
  8
DIM
 62
     0
100
AcDbLine
 10
-2.0
 20
0.0
 30
0.0
 11
-10.0
 21
0.0
 31
0.0
  0
LINE
  5
410
330
407
100
AcDbEntity
  8
DIM
 62
     0
100
AcDbLine
 10
0.0
 20
-2.0
 30
0.0
 11
0.0
 21
-10.0
 31
0.0
  0
LINE
  5
411
330
407
100
AcDbEntity
  8
DIM
 62
     0
100
AcDbLine
 10
2.0
 20
0.0
 30
0.0
 11
10.0
 21
0.0
 31
0.0
  0
ENDBLK
  5
409
330
407
100
AcDbEntity
  8
0
100
AcDbBlockEnd
  0
ENDSEC
  0
SECTION
  2
ENTITIES
  0
HATCH
  5
89
330
1F
100
AcDbEntity
  8
0
  6
Continuous
 62
     7
100
AcDbHatch
 10
0.0
 20
0.0
 30
0.0
210
0.0
220
0.0
230
1.0
  2
SOLID
 70
     1
 71
     0
 91
        1
 92
        0
 93
       10
 72
     2
 10
192.1405965629367
 20
35.75580880988856
 40
2.989636657769859
 50
50.39692260731407
 51
112.8514693252983
 73
     0
 72
     2
 10
191.815005962812
 20
35.43899828006204
 40
2.577335426817619
 50
108.9134333432861
 51
219.5668234386827
 73
     0
 72
     1
 10
189.8281839389603
 20
37.0807035361501
 11
188.8129900915579
 21
37.97623543696786
 72
     1
 10
188.8129900915579
 20
37.97623543696786
 11
187.5063618366762
 21
36.71464836046036
 72
     2
 10
188.4942467986389
 20
35.54612112772446
 40
1.530154433943661
 50
130.2115225915088
 51
228.5889041080191
 73
     1
 72
     1
 10
187.482115254651
 20
34.39853133629978
 11
191.4913175648466
 21
30.9139274960251
 72
     1
 10
191.4913175648466
 20
30.9139274960251
 11
190.8602656444315
 21
30.29802710555407
 72
     1
 10
190.8602656444315
 20
30.29802710555407
 11
191.852145009157
 21
29.44405283860024
 72
     1
 10
191.852145009157
 20
29.44405283860024
 11
195.0618094435223
 21
32.56063080411572
 72
     1
 10
195.0618094435223
 20
32.56063080411572
 11
194.0463864118641
 21
33.45235653184883
 97
        0
 75
     0
 76
     1
 98
        1
 10
0.0
 20
0.0
  0
HATCH
  5
8A
330
1F
100
AcDbEntity
  8
0
  6
Continuous
 62
     1
100
AcDbHatch
 10
0.0
 20
0.0
 30
0.0
210
0.0
220
0.0
230
1.0
  2
SOLID
 70
     1
 71
     0
 91
        1
 92
        0
 93
       10
 72
     2
 10
192.5892455627688
 20
35.6630691563161
 40
2.57756748834625
 50
317.8184992995785
 51
398.0564711573078
 73
     0
 72
     1
 10
194.6188314058163
 20
34.07415900697447
 11
195.6042802987991
 21
33.21546206708498
 72
     1
 10
195.6042802987991
 20
33.21546206708498
 11
196.8459616135929
 21
34.41989500949219
 72
     2
 10
195.9525692879308
 20
35.64784174131312
 40
1.518552937418265
 50
306.0377529468138
 51
403.4396461533871
 73
     1
 72
     1
 10
197.0551891526031
 20
36.69198371335126
 11
192.9284332942598
 21
40.28115998198521
 72
     1
 10
192.9284332942598
 20
40.28115998198521
 11
193.552684596187
 21
40.89021841282256
 72
     1
 10
193.552684596187
 20
40.89021841282256
 11
192.622178086003
 21
41.72041063266705
 72
     1
 10
192.622178086003
 20
41.72041063266705
 11
189.3865926375931
 21
38.59349038605298
 72
     1
 10
189.3865926375931
 20
38.59349038605298
 11
190.4090005149417
 21
37.70169985893218
 72
     2
 10
192.2715892720444
 20
35.12224735083792
 40
3.181636704527876
 50
234.1674444878512
 51
314.4407074583994
 73
     0
 97
        0
 75
     0
 76
     1
 98
        1
 10
0.0
 20
0.0
  0
LINE
  5
8B
330
1F
100
AcDbEntity
  8
0
  6
Continuous
 62
     7
370
    18
100
AcDbLine
 10
167.8593775185
 20
17.7745192513
 30
0.0
 11
168.8593775185
 21
17.7745192513
 31
0.0
  0
LINE
  5
8C
330
1F
100
AcDbEntity
  8
0
  6
Continuous
 62
     7
370
    18
100
AcDbLine
 10
164.8593775185
 20
17.7745192513
 30
0.0
 11
167.3593775185
 21
17.7745192513
 31
0.0
  0
LINE
  5
8D
330
1F
100
AcDbEntity
  8
0
  6
Continuous
 62
     7
370
    18
100
AcDbLine
 10
181.3593775185
 20
15.2745192513
 30
0.0
 11
181.3593775185
 21
20.2745192513
 31
0.0
  0
LINE
  5
8E
330
1F
100
AcDbEntity
  8
0
  6
Continuous
 62
     7
370
    18
100
AcDbLine
 10
174.3593775185
 20
16.2745192513
 30
0.0
 11
181.3593775185
 21
15.2745192513
 31
0.0
  0
LINE
  5
8F
330
1F
100
AcDbEntity
  8
0
  6
Continuous
 62
     7
370
    18
100
AcDbLine
 10
168.3593775185
 20
16.7745192513
 30
0.0
 11
168.3593775185
 21
14.2745192513
 31
0.0
  0
LINE
  5
90
330
1F
100
AcDbEntity
  8
0
  6
Continuous
 62
     7
370
    18
100
AcDbLine
 10
181.3593775185
 20
20.2745192513
 30
0.0
 11
174.3593775185
 21
19.2745192513
 31
0.0
  0
LINE
  5
91
330
1F
100
AcDbEntity
  8
0
  6
Continuous
 62
     7
370
    18
100
AcDbLine
 10
173.3593775185
 20
17.7745192513
 30
0.0
 11
182.3593775185
 21
17.7745192513
 31
0.0
  0
LINE
  5
92
330
1F
100
AcDbEntity
  8
0
  6
Continuous
 62
     7
370
    18
100
AcDbLine
 10
168.3593775185
 20
18.2745192513
 30
0.0
 11
168.3593775185
 21
17.2745192513
 31
0.0
  0
LINE
  5
93
330
1F
100
AcDbEntity
  8
0
  6
Continuous
 62
     7
370
    18
100
AcDbLine
 10
169.3593775185
 20
17.7745192513
 30
0.0
 11
171.8593775185
 21
17.7745192513
 31
0.0
  0
LINE
  5
94
330
1F
100
AcDbEntity
  8
0
  6
Continuous
 62
     7
370
    18
100
AcDbLine
 10
168.3593775185
 20
21.2745192513
 30
0.0
 11
168.3593775185
 21
18.7745192513
 31
0.0
  0
LINE
  5
95
330
1F
100
AcDbEntity
  8
0
  6
Continuous
 62
     7
370
    18
100
AcDbLine
 10
174.3593775185
 20
19.2745192513
 30
0.0
 11
174.3593775185
 21
16.2745192513
 31
0.0
  0
LINE
  5
96
330
1F
100
AcDbEntity
  8
工作區域參考線
 62
     1
370
    35
100
AcDbLine
 10
190.4090005149
 20
37.7016998589
 30
0.0
 11
189.3865926376
 21
38.5934903861
 31
0.0
  0
LINE
  5
97
330
1F
100
AcDbEntity
  8
工作區域參考線
 62
     1
370
    35
100
AcDbLine
 10
189.3865926376
 20
38.5934903861
 30
0.0
 11
192.622178086
 21
41.7204106327
 31
0.0
  0
LINE
  5
98
330
1F
100
AcDbEntity
  8
工作區域參考線
 62
     1
370
    35
100
AcDbLine
 10
192.622178086
 20
41.7204106327
 30
0.0
 11
193.5526845962
 21
40.8902184128
 31
0.0
  0
LINE
  5
99
330
1F
100
AcDbEntity
  8
工作區域參考線
 62
     1
370
    35
100
AcDbLine
 10
193.5526845962
 20
40.8902184128
 30
0.0
 11
192.9284332943
 21
40.281159982
 31
0.0
  0
LINE
  5
9A
330
1F
100
AcDbEntity
  8
工作區域參考線
 62
     1
370
    35
100
AcDbLine
 10
192.9284332943
 20
40.281159982
 30
0.0
 11
197.0551891526
 21
36.6919837134
 31
0.0
  0
LINE
  5
9B
330
1F
100
AcDbEntity
  8
工作區域參考線
 62
     1
370
    35
100
AcDbLine
 10
194.6188314058
 20
34.074159007
 30
0.0
 11
195.6042802988
 21
33.2154620671
 31
0.0
  0
LINE
  5
9C
330
1F
100
AcDbEntity
  8
工作區域參考線
 62
     1
370
    35
100
AcDbLine
 10
195.6042802988
 20
33.2154620671
 30
0.0
 11
196.8459616136
 21
34.4198950095
 31
0.0
  0
LINE
  5
9D
330
1F
100
AcDbEntity
  8
0
  6
Continuous
 62
     7
370
    18
100
AcDbLine
 10
185.6907965209
 20
13.1152464079
 30
0.0
 11
285.6907965209
 21
13.1152464079
 31
0.0
  0
LINE
  5
9E
330
1F
100
AcDbEntity
  8
0
  6
Continuous
 62
     7
370
    18
100
AcDbLine
 10
185.6907965209
 20
18.1152464079
 30
0.0
 11
235.6907965209
 21
18.1152464079
 31
0.0
  0
LINE
  5
9F
330
1F
100
AcDbEntity
  8
0
  6
Continuous
 62
     7
370
    18
100
AcDbLine
 10
185.6907965209
 20
23.1152464079
 30
0.0
 11
235.6907965209
 21
23.1152464079
 31
0.0
  0
LINE
  5
A0
330
1F
100
AcDbEntity
  8
0
  6
Continuous
 62
     7
370
    18
100
AcDbLine
 10
185.6907965209
 20
28.1152464079
 30
0.0
 11
285.6907965209
 21
28.1152464079
 31
0.0
  0
LINE
  5
A1
330
1F
100
AcDbEntity
  8
0
  6
Continuous
 62
     7
370
    18
100
AcDbLine
 10
235.6907965209
 20
33.1152464079
 30
0.0
 11
285.6907965209
 21
33.1152464079
 31
0.0
  0
LINE
  5
A2
330
1F
100
AcDbEntity
  8
0
  6
Continuous
 62
     7
370
    25
100
AcDbLine
 10
235.6907965209
 20
18.1152464079
 30
0.0
 11
285.6907965209
 21
18.1152464079
 31
0.0
  0
LINE
  5
A3
330
1F
100
AcDbEntity
  8
0
  6
Continuous
 62
     7
370
    18
100
AcDbLine
 10
185.6907965209
 20
43.1152464079
 30
0.0
 11
285.6907965209
 21
43.1152464079
 31
0.0
  0
LINE
  5
A4
330
1F
100
AcDbEntity
  8
0
  6
Continuous
 62
     7
370
    18
100
AcDbLine
 10
251.237217675
 20
8.1152464079
 30
0.0
 11
251.237217675
 21
18.1152464079
 31
0.0
  0
LINE
  5
A5
330
1F
100
AcDbEntity
  8
0
  6
Continuous
 62
     7
370
    18
100
AcDbLine
 10
235.6907965209
 20
8.1152464079
 30
0.0
 11
235.6907965209
 21
43.1152464079
 31
0.0
  0
LINE
  5
A6
330
1F
100
AcDbEntity
  8
0
  6
Continuous
 62
     7
370
    18
100
AcDbLine
 10
251.237217675
 20
28.1152464079
 30
0.0
 11
251.237217675
 21
33.1152464079
 31
0.0
  0
LINE
  5
A7
330
1F
100
AcDbEntity
  8
0
  6
Continuous
 62
     7
370
    18
100
AcDbLine
 10
214.4164086353
 20
8.1152464079
 30
0.0
 11
214.4164086353
 21
28.1152464079
 31
0.0
  0
LINE
  5
A8
330
1F
100
AcDbEntity
  8
0
  6
Continuous
 62
     7
370
    18
100
AcDbLine
 10
199.7785887506
 20
8.1152464079
 30
0.0
 11
199.7785887506
 21
28.1152464079
 31
0.0
  0
LINE
  5
A9
330
1F
100
AcDbEntity
  8
0
  6
Continuous
 62
     7
370
    18
100
AcDbLine
 10
185.6907965209
 20
8.1152464079
 30
0.0
 11
185.6907965209
 21
43.1152464079
 31
0.0
  0
LINE
  5
AA
330
1F
100
AcDbEntity
  8
0
  6
Continuous
 62
     7
370
    25
100
AcDbLine
 10
43.3207965209
 20
201.3720275751
 30
0.0
 11
43.3207965209
 21
202.8720275751
 31
0.0
  0
LINE
  5
AB
330
1F
100
AcDbEntity
  8
0
  6
Continuous
 62
     7
370
    25
100
AcDbLine
 10
77.9507965209
 20
201.3720275751
 30
0.0
 11
77.9507965209
 21
202.8720275751
 31
0.0
  0
LINE
  5
AC
330
1F
100
AcDbEntity
  8
0
  6
Continuous
 62
     7
370
    25
100
AcDbLine
 10
112.5807965209
 20
201.3720275751
 30
0.0
 11
112.5807965209
 21
202.8720275751
 31
0.0
  0
LINE
  5
AD
330
1F
100
AcDbEntity
  8
0
  6
Continuous
 62
     7
370
    25
100
AcDbLine
 10
147.2107965209
 20
201.3720275751
 30
0.0
 11
147.2107965209
 21
202.8720275751
 31
0.0
  0
LINE
  5
AE
330
1F
100
AcDbEntity
  8
0
  6
Continuous
 62
     7
370
    25
100
AcDbLine
 10
181.8407965209
 20
201.3720275751
 30
0.0
 11
181.8407965209
 21
202.8720275751
 31
0.0
  0
LINE
  5
AF
330
1F
100
AcDbEntity
  8
0
  6
Continuous
 62
     7
370
    25
100
AcDbLine
 10
216.4707965209
 20
201.3720275751
 30
0.0
 11
216.4707965209
 21
202.8720275751
 31
0.0
  0
LINE
  5
B0
330
1F
100
AcDbEntity
  8
0
  6
Continuous
 62
     7
370
    25
100
AcDbLine
 10
251.1007965209
 20
201.3720275751
 30
0.0
 11
251.1007965209
 21
202.8720275751
 31
0.0
  0
LINE
  5
B1
330
1F
100
AcDbEntity
  8
0
  6
Continuous
 62
     7
370
    25
100
AcDbLine
 10
43.3157965209
 20
8.1152464079
 30
0.0
 11
43.3157965209
 21
6.6152464079
 31
0.0
  0
LINE
  5
B2
330
1F
100
AcDbEntity
  8
0
  6
Continuous
 62
     7
370
    25
100
AcDbLine
 10
77.9407965209
 20
8.1152464079
 30
0.0
 11
77.9407965209
 21
6.6152464079
 31
0.0
  0
LINE
  5
B3
330
1F
100
AcDbEntity
  8
0
  6
Continuous
 62
     7
370
    25
100
AcDbLine
 10
112.5657965209
 20
8.1152464079
 30
0.0
 11
112.5657965209
 21
6.6152464079
 31
0.0
  0
LINE
  5
B4
330
1F
100
AcDbEntity
  8
0
  6
Continuous
 62
     7
370
    25
100
AcDbLine
 10
147.1907965209
 20
8.1152464079
 30
0.0
 11
147.1907965209
 21
6.6152464079
 31
0.0
  0
LINE
  5
B5
330
1F
100
AcDbEntity
  8
0
  6
Continuous
 62
     7
370
    25
100
AcDbLine
 10
181.8157965209
 20
8.1152464079
 30
0.0
 11
181.8157965209
 21
6.6152464079
 31
0.0
  0
LINE
  5
B6
330
1F
100
AcDbEntity
  8
0
  6
Continuous
 62
     7
370
    25
100
AcDbLine
 10
216.4407965209
 20
8.1152464079
 30
0.0
 11
216.4407965209
 21
6.6152464079
 31
0.0
  0
LINE
  5
B7
330
1F
100
AcDbEntity
  8
0
  6
Continuous
 62
     7
370
    18
100
AcDbLine
 10
285.6907965209
 20
201.3720275751
 30
0.0
 11
8.6907965209
 21
201.3720275751
 31
0.0
  0
LINE
  5
B8
330
1F
100
AcDbEntity
  8
0
  6
Continuous
 62
     7
370
    18
100
AcDbLine
 10
285.6907965209
 20
8.1152464079
 30
0.0
 11
285.6907965209
 21
201.3720275751
 31
0.0
  0
LINE
  5
B9
330
1F
100
AcDbEntity
  8
0
  6
Continuous
 62
     7
370
    18
100
AcDbLine
 10
8.6907965209
 20
201.3720275751
 30
0.0
 11
8.6907965209
 21
8.1152464079
 31
0.0
  0
LINE
  5
BA
330
1F
100
AcDbEntity
  8
0
  6
Continuous
 62
     7
370
    18
100
AcDbLine
 10
8.6907965209
 20
8.1152464079
 30
0.0
 11
285.6907965209
 21
8.1152464079
 31
0.0
  0
LINE
  5
BB
330
1F
100
AcDbEntity
  8
0
  6
Continuous
 62
     7
370
    25
100
AcDbLine
 10
251.0657965209
 20
8.1152464079
 30
0.0
 11
251.0657965209
 21
6.6152464079
 31
0.0
  0
LINE
  5
BC
330
1F
100
AcDbEntity
  8
0
  6
Continuous
 62
     7
370
    25
100
AcDbLine
 10
8.6907965209
 20
40.3252464079
 30
0.0
 11
7.1907965209
 21
40.3252464079
 31
0.0
  0
LINE
  5
BD
330
1F
100
AcDbEntity
  8
0
  6
Continuous
 62
     7
370
    25
100
AcDbLine
 10
8.6907965209
 20
72.5352464079
 30
0.0
 11
7.1907965209
 21
72.5352464079
 31
0.0
  0
LINE
  5
BE
330
1F
100
AcDbEntity
  8
0
  6
Continuous
 62
     7
370
    25
100
AcDbLine
 10
8.6907965209
 20
104.7452464079
 30
0.0
 11
7.1907965209
 21
104.7452464079
 31
0.0
  0
LINE
  5
BF
330
1F
100
AcDbEntity
  8
0
  6
Continuous
 62
     7
370
    25
100
AcDbLine
 10
8.6907965209
 20
136.9552464079
 30
0.0
 11
7.1907965209
 21
136.9552464079
 31
0.0
  0
LINE
  5
C0
330
1F
100
AcDbEntity
  8
0
  6
Continuous
 62
     7
370
    25
100
AcDbLine
 10
8.6907965209
 20
169.1652464079
 30
0.0
 11
7.1907965209
 21
169.1652464079
 31
0.0
  0
LINE
  5
C1
330
1F
100
AcDbEntity
  8
0
  6
Continuous
 62
     7
370
    25
100
AcDbLine
 10
285.6907965209
 20
40.3252464079
 30
0.0
 11
287.1907965209
 21
40.3252464079
 31
0.0
  0
LINE
  5
C2
330
1F
100
AcDbEntity
  8
0
  6
Continuous
 62
     7
370
    25
100
AcDbLine
 10
285.6907965209
 20
72.5352464079
 30
0.0
 11
287.1907965209
 21
72.5352464079
 31
0.0
  0
LINE
  5
C3
330
1F
100
AcDbEntity
  8
0
  6
Continuous
 62
     7
370
    25
100
AcDbLine
 10
285.6907965209
 20
104.7452464079
 30
0.0
 11
287.1907965209
 21
104.7452464079
 31
0.0
  0
LINE
  5
C4
330
1F
100
AcDbEntity
  8
0
  6
Continuous
 62
     7
370
    25
100
AcDbLine
 10
285.6907965209
 20
136.9552464079
 30
0.0
 11
287.1907965209
 21
136.9552464079
 31
0.0
  0
LINE
  5
C5
330
1F
100
AcDbEntity
  8
0
  6
Continuous
 62
     7
370
    25
100
AcDbLine
 10
285.6907965209
 20
169.1652464079
 30
0.0
 11
287.1907965209
 21
169.1652464079
 31
0.0
  0
CIRCLE
  5
C6
330
1F
100
AcDbEntity
  8
0
  6
Continuous
 62
     7
370
    18
100
AcDbCircle
 10
168.3593775185
 20
17.7745192513
 30
0.0
 40
1.5
  0
CIRCLE
  5
C7
330
1F
100
AcDbEntity
  8
0
  6
Continuous
 62
     7
370
    18
100
AcDbCircle
 10
168.3593775185
 20
17.7745192513
 30
0.0
 40
2.5
  0
ARC
  5
C8
330
1F
100
AcDbEntity
  8
工作區域參考線
 62
     1
370
    35
100
AcDbCircle
 10
195.9525692879
 20
35.6478417413
 30
0.0
 40
1.518552937418275
100
AcDbArc
 50
306.0377529468
 51
43.4396461534
  0
ARC
  5
C9
330
1F
100
AcDbEntity
  8
工作區域參考線
 62
     1
370
    35
100
AcDbCircle
 10
192.271589272
 20
35.1222473508
 30
0.0
 40
3.181636704527891
100
AcDbArc
 50
45.5592925416
 51
125.8325555121
  0
ARC
  5
CA
330
1F
100
AcDbEntity
  8
工作區域參考線
 62
     1
370
    35
100
AcDbCircle
 10
192.5892455628
 20
35.6630691563
 30
0.0
 40
2.577567488346266
100
AcDbArc
 50
321.9435288427
 51
42.1815007004
  0
INSERT
  5
CB
330
1F
100
AcDbEntity
  8
0
  6
Continuous
 62
     7
100
AcDbBlockReference
  2
圖塊6
 10
186.9640923647
 20
29.4440528386
 30
0.0
  0
MTEXT
  5
CD
330
1F
100
AcDbEntity
  8
0
  6
Continuous
 62
     7
370
     0
100
AcDbMText
 10
165.5426850804
 20
13.2208440369
 30
0.0
 40
2.6458333333
 41
0.0
 71
     1
 72
     1
  1
UNIT:m/m
  7
SLDTEXTSTYLE0
 73
     1
 44
1.0
  0
INSERT
  5
D4
330
1F
100
AcDbEntity
  8
0
  6
Continuous
 62
     7
370
     0
100
AcDbBlockReference
  2
SW_NOTE_0
 10
12.2315076053
 20
193.8904304251
 30
0.0
  0
MTEXT
  5
D5
330
1F
100
AcDbEntity
  8
0
  6
Continuous
 62
     7
370
     0
100
AcDbMText
 10
198.7251893935
 20
40.4406774139
 30
0.0
 40
2.38125
 41
0.0
 71
     1
 72
     1
  1
Unice E-O Services Inc.
  7
SLDTEXTSTYLE0
 73
     1
 44
1.0
  0
MTEXT
  5
D6
330
1F
100
AcDbEntity
  8
0
  6
Continuous
 62
     7
370
     0
100
AcDbMText
 10
217.5590538149
 20
21.5867148511
 30
0.0
 40
1.8520833333
 41
0.0
 71
     1
 72
     1
  1
2020/12/28
  7
SLDTEXTSTYLE0
 73
     1
 44
1.0
  0
MTEXT
  5
D7
330
1F
100
AcDbEntity
  8
0
  6
Continuous
 62
     7
370
     0
100
AcDbMText
 10
252.6088982507
 20
16.87117774
 30
0.0
 40
2.5
 41
0.0
 71
     1
 72
     1
  1
1:1
  7
SLDTEXTSTYLE0
 73
     1
 44
1.0
  0
MTEXT
  5
D8
330
1F
100
AcDbEntity
  8
0
  6
Continuous
 62
     7
370
     0
100
AcDbMText
 10
252.3075599985
 20
32.1519195438
 30
0.0
 40
2.5
 41
0.0
 71
     1
 72
     1
  1
UIS-050-020-N-B
  7
SLDTEXTSTYLE0
 73
     1
 44
1.0
  0
MTEXT
  5
D9
330
1F
100
AcDbEntity
  8
0
  6
Continuous
 62
     7
370
     0
100
AcDbMText
 10
252.3075599985
 20
38.1082117879
 30
0.0
 40
2.5
 41
0.0
 71
     1
 72
     1
  1
UIS-050-020-N-B
  7
SLDTEXTSTYLE0
 73
     1
 44
1.0
  0
MTEXT
  5
DA
330
1F
100
AcDbEntity
  8
0
  6
Continuous
 62
     7
370
     0
100
AcDbMText
 10
236.3921866786
 20
16.5064795728
 30
0.0
 40
2.1166666667
 41
0.0
 71
     1
 72
     1
  1
SCALE:
  7
SLDTEXTSTYLE0
 73
     1
 44
1.0
  0
MTEXT
  5
DB
330
1F
100
AcDbEntity
  8
0
  6
Continuous
 62
     7
370
     0
100
AcDbMText
 10
186.3336086789
 20
21.5867148511
 30
0.0
 40
1.8520833333
 41
0.0
 71
     1
 72
     1
  1
DRAWN
  7
SLDTEXTSTYLE0
 73
     1
 44
1.0
  0
MTEXT
  5
DC
330
1F
100
AcDbEntity
  8
0
  6
Continuous
 62
     7
370
     0
100
AcDbMText
 10
203.2228367937
 20
26.683208308
 30
0.0
 40
1.8520833333
 41
0.0
 71
     1
 72
     1
  1
NAME
  7
SLDTEXTSTYLE0
 73
     1
 44
1.0
  0
MTEXT
  5
DD
330
1F
100
AcDbEntity
  8
0
  6
Continuous
 62
     7
370
     0
100
AcDbMText
 10
220.8710155758
 20
26.683208308
 30
0.0
 40
1.8520833333
 41
0.0
 71
     1
 72
     1
  1
DATE
  7
SLDTEXTSTYLE0
 73
     1
 44
1.0
  0
MTEXT
  5
DE
330
1F
100
AcDbEntity
  8
0
  6
Continuous
 62
     7
370
     0
100
AcDbMText
 10
236.2756316645
 20
31.7872213766
 30
0.0
 40
2.1166666667
 41
0.0
 71
     1
 72
     1
  1
DWG. NO.
  7
SLDTEXTSTYLE0
 73
     1
 44
1.0
  0
MTEXT
  5
DF
330
1F
100
AcDbEntity
  8
0
  6
Continuous
 62
     7
370
     0
100
AcDbMText
 10
236.3629907088
 20
41.8840658243
 30
0.0
 40
2.1166666667
 41
0.0
 71
     1
 72
     1
  1
TITLE:
  7
SLDTEXTSTYLE0
 73
     1
 44
1.0
  0
MTEXT
  5
E0
330
1F
100
AcDbEntity
  8
0
  6
Continuous
 62
     7
370
     0
100
AcDbMText
 10
203.0314209802
 20
16.2403789724
 30
0.0
 40
1.8520833333
 41
0.0
 71
     1
 72
     1
  1
Johnny
  7
SLDTEXTSTYLE0
 73
     1
 44
1.0
  0
MTEXT
  5
E1
330
1F
100
AcDbEntity
  8
0
  6
Continuous
 62
     7
370
     0
100
AcDbMText
 10
217.5590538149
 20
16.2403789724
 30
0.0
 40
1.8520833333
 41
0.0
 71
     1
 72
     1
  1
2020/12/28
  7
SLDTEXTSTYLE0
 73
     1
 44
1.0
  0
MTEXT
  5
E2
330
1F
100
AcDbEntity
  8
0
  6
Continuous
 62
     7
370
     0
100
AcDbMText
 10
186.3336086789
 20
16.2403789724
 30
0.0
 40
1.8520833333
 41
0.0
 71
     1
 72
     1
  1
ENG APPR.
  7
SLDTEXTSTYLE0
 73
     1
 44
1.0
  0
MTEXT
  5
E3
330
1F
100
AcDbEntity
  8
0
  6
Continuous
 62
     7
370
     0
100
AcDbMText
 10
236.3921866786
 20
11.6853389288
 30
0.0
 40
2.1166666667
 41
0.0
 71
     1
 72
     1
  1
REV
  7
SLDTEXTSTYLE0
 73
     1
 44
1.0
  0
MTEXT
  5
E4
330
1F
100
AcDbEntity
  8
0
  6
Continuous
 62
     7
370
     0
100
AcDbMText
 10
236.3629907088
 20
26.9493089085
 30
0.0
 40
2.1166666667
 41
0.0
 71
     1
 72
     1
  1
MATERIAL:
  7
SLDTEXTSTYLE0
 73
     1
 44
1.0
  0
MTEXT
  5
E5
330
1F
100
AcDbEntity
  8
0
  6
Continuous
 62
     7
370
     0
100
AcDbMText
 10
252.6088982507
 20
22.2175136187
 30
0.0
 40
2.5
 41
0.0
 71
     1
 72
     1
  1
N/A
  7
SLDTEXTSTYLE0
 73
     1
 44
1.0
  0
MTEXT
  5
E6
330
1F
100
AcDbEntity
  8
0
  6
Continuous
 62
     7
370
     0
100
AcDbMText
 10
26.6029931533
 20
204.453351657
 30
0.0
 40
2.1166666667
 41
0.0
 71
     1
 72
     1
  1
1
  7
SLDTEXTSTYLE0
 73
     1
 44
1.0
  0
MTEXT
  5
E7
330
1F
100
AcDbEntity
  8
0
  6
Continuous
 62
     7
370
     0
100
AcDbMText
 10
60.7170995724
 20
204.453351657
 30
0.0
 40
2.1166666667
 41
0.0
 71
     1
 72
     1
  1
2
  7
SLDTEXTSTYLE0
 73
     1
 44
1.0
  0
MTEXT
  5
E8
330
1F
100
AcDbEntity
  8
0
  6
Continuous
 62
     7
370
     0
100
AcDbMText
 10
94.9009943906
 20
204.453351657
 30
0.0
 40
2.1166666667
 41
0.0
 71
     1
 72
     1
  1
3
  7
SLDTEXTSTYLE0
 73
     1
 44
1.0
  0
MTEXT
  5
E9
330
1F
100
AcDbEntity
  8
0
  6
Continuous
 62
     7
370
     0
100
AcDbMText
 10
129.2533362851
 20
204.2992584364
 30
0.0
 40
2.1166666667
 41
0.0
 71
     1
 72
     1
  1
4
  7
SLDTEXTSTYLE0
 73
     1
 44
1.0
  0
MTEXT
  5
EA
330
1F
100
AcDbEntity
  8
0
  6
Continuous
 62
     7
370
     0
100
AcDbMText
 10
163.702323464
 20
204.453351657
 30
0.0
 40
2.1166666667
 41
0.0
 71
     1
 72
     1
  1
5
  7
SLDTEXTSTYLE0
 73
     1
 44
1.0
  0
MTEXT
  5
EB
330
1F
100
AcDbEntity
  8
0
  6
Continuous
 62
     7
370
     0
100
AcDbMText
 10
198.6382170415
 20
204.453351657
 30
0.0
 40
2.1166666667
 41
0.0
 71
     1
 72
     1
  1
6
  7
SLDTEXTSTYLE0
 73
     1
 44
1.0
  0
MTEXT
  5
EC
330
1F
100
AcDbEntity
  8
0
  6
Continuous
 62
     7
370
     0
100
AcDbMText
 10
234.3630657407
 20
204.453351657
 30
0.0
 40
2.1166666667
 41
0.0
 71
     1
 72
     1
  1
7
  7
SLDTEXTSTYLE0
 73
     1
 44
1.0
  0
MTEXT
  5
ED
330
1F
100
AcDbEntity
  8
0
  6
Continuous
 62
     7
370
     0
100
AcDbMText
 10
266.2787820494
 20
204.453351657
 30
0.0
 40
2.1166666667
 41
0.0
 71
     1
 72
     1
  1
8
  7
SLDTEXTSTYLE0
 73
     1
 44
1.0
  0
MTEXT
  5
EE
330
1F
100
AcDbEntity
  8
0
  6
Continuous
 62
     7
370
     0
100
AcDbMText
 10
5.3568236555
 20
185.8113022879
 30
0.0
 40
2.1166666667
 41
0.0
 71
     1
 72
     1
  1
A
  7
SLDTEXTSTYLE0
 73
     1
 44
1.0
  0
MTEXT
  5
EF
330
1F
100
AcDbEntity
  8
0
  6
Continuous
 62
     7
370
     0
100
AcDbMText
 10
5.5910431831
 20
154.2993048238
 30
0.0
 40
2.1166666667
 41
0.0
 71
     1
 72
     1
  1
B
  7
SLDTEXTSTYLE0
 73
     1
 44
1.0
  0
MTEXT
  5
F0
330
1F
100
AcDbEntity
  8
0
  6
Continuous
 62
     7
370
     0
100
AcDbMText
 10
5.5910431831
 20
121.274351423
 30
0.0
 40
2.1166666667
 41
0.0
 71
     1
 72
     1
  1
C
  7
SLDTEXTSTYLE0
 73
     1
 44
1.0
  0
MTEXT
  5
F1
330
1F
100
AcDbEntity
  8
0
  6
Continuous
 62
     7
370
     0
100
AcDbMText
 10
5.5910431831
 20
88.7453220221
 30
0.0
 40
2.1166666667
 41
0.0
 71
     1
 72
     1
  1
D
  7
SLDTEXTSTYLE0
 73
     1
 44
1.0
  0
MTEXT
  5
F2
330
1F
100
AcDbEntity
  8
0
  6
Continuous
 62
     7
370
     0
100
AcDbMText
 10
5.5910431831
 20
57.5558849197
 30
0.0
 40
2.1166666667
 41
0.0
 71
     1
 72
     1
  1
E
  7
SLDTEXTSTYLE0
 73
     1
 44
1.0
  0
MTEXT
  5
F3
330
1F
100
AcDbEntity
  8
0
  6
Continuous
 62
     7
370
     0
100
AcDbMText
 10
5.5910431831
 20
25.5694212252
 30
0.0
 40
2.1166666667
 41
0.0
 71
     1
 72
     1
  1
F
  7
SLDTEXTSTYLE0
 73
     1
 44
1.0
  0
MTEXT
  5
F4
330
1F
100
AcDbEntity
  8
0
  6
Continuous
 62
     7
370
     0
100
AcDbMText
 10
266.1858616964
 20
6.6236223963
 30
0.0
 40
2.1166666667
 41
0.0
 71
     1
 72
     1
  1
8
  7
SLDTEXTSTYLE0
 73
     1
 44
1.0
  0
MTEXT
  5
F5
330
1F
100
AcDbEntity
  8
0
  6
Continuous
 62
     7
370
     0
100
AcDbMText
 10
234.2701453876
 20
6.6236223963
 30
0.0
 40
2.1166666667
 41
0.0
 71
     1
 72
     1
  1
7
  7
SLDTEXTSTYLE0
 73
     1
 44
1.0
  0
MTEXT
  5
F6
330
1F
100
AcDbEntity
  8
0
  6
Continuous
 62
     7
370
     0
100
AcDbMText
 10
198.5452966885
 20
6.6236223963
 30
0.0
 40
2.1166666667
 41
0.0
 71
     1
 72
     1
  1
6
  7
SLDTEXTSTYLE0
 73
     1
 44
1.0
  0
MTEXT
  5
F7
330
1F
100
AcDbEntity
  8
0
  6
Continuous
 62
     7
370
     0
100
AcDbMText
 10
163.6094031109
 20
6.6236223963
 30
0.0
 40
2.1166666667
 41
0.0
 71
     1
 72
     1
  1
5
  7
SLDTEXTSTYLE0
 73
     1
 44
1.0
  0
MTEXT
  5
F8
330
1F
100
AcDbEntity
  8
0
  6
Continuous
 62
     7
370
     0
100
AcDbMText
 10
129.1604159321
 20
6.4695291758
 30
0.0
 40
2.1166666667
 41
0.0
 71
     1
 72
     1
  1
4
  7
SLDTEXTSTYLE0
 73
     1
 44
1.0
  0
MTEXT
  5
F9
330
1F
100
AcDbEntity
  8
0
  6
Continuous
 62
     7
370
     0
100
AcDbMText
 10
94.8080740376
 20
6.6236223963
 30
0.0
 40
2.1166666667
 41
0.0
 71
     1
 72
     1
  1
3
  7
SLDTEXTSTYLE0
 73
     1
 44
1.0
  0
MTEXT
  5
FA
330
1F
100
AcDbEntity
  8
0
  6
Continuous
 62
     7
370
     0
100
AcDbMText
 10
60.6241792194
 20
6.6236223963
 30
0.0
 40
2.1166666667
 41
0.0
 71
     1
 72
     1
  1
2
  7
SLDTEXTSTYLE0
 73
     1
 44
1.0
  0
MTEXT
  5
FB
330
1F
100
AcDbEntity
  8
0
  6
Continuous
 62
     7
370
     0
100
AcDbMText
 10
26.5100728003
 20
6.6236223963
 30
0.0
 40
2.1166666667
 41
0.0
 71
     1
 72
     1
  1
1
  7
SLDTEXTSTYLE0
 73
     1
 44
1.0
  0
MTEXT
  5
FC
330
1F
100
AcDbEntity
  8
0
  6
Continuous
 62
     7
370
     0
100
AcDbMText
 10
287.1023846145
 20
186.6424909092
 30
0.0
 40
2.1166666667
 41
0.0
 71
     1
 72
     1
  1
A
  7
SLDTEXTSTYLE0
 73
     1
 44
1.0
  0
MTEXT
  5
FD
330
1F
100
AcDbEntity
  8
0
  6
Continuous
 62
     7
370
     0
100
AcDbMText
 10
287.3366041421
 20
155.1304934451
 30
0.0
 40
2.1166666667
 41
0.0
 71
     1
 72
     1
  1
B
  7
SLDTEXTSTYLE0
 73
     1
 44
1.0
  0
MTEXT
  5
FE
330
1F
100
AcDbEntity
  8
0
  6
Continuous
 62
     7
370
     0
100
AcDbMText
 10
287.3366041421
 20
122.1055400442
 30
0.0
 40
2.1166666667
 41
0.0
 71
     1
 72
     1
  1
C
  7
SLDTEXTSTYLE0
 73
     1
 44
1.0
  0
MTEXT
  5
FF
330
1F
100
AcDbEntity
  8
0
  6
Continuous
 62
     7
370
     0
100
AcDbMText
 10
287.3366041421
 20
89.5765106433
 30
0.0
 40
2.1166666667
 41
0.0
 71
     1
 72
     1
  1
D
  7
SLDTEXTSTYLE0
 73
     1
 44
1.0
  0
MTEXT
  5
100
330
1F
100
AcDbEntity
  8
0
  6
Continuous
 62
     7
370
     0
100
AcDbMText
 10
287.3366041421
 20
58.3870735409
 30
0.0
 40
2.1166666667
 41
0.0
 71
     1
 72
     1
  1
E
  7
SLDTEXTSTYLE0
 73
     1
 44
1.0
  0
MTEXT
  5
101
330
1F
100
AcDbEntity
  8
0
  6
Continuous
 62
     7
370
     0
100
AcDbMText
 10
287.3366041421
 20
26.4006098464
 30
0.0
 40
2.1166666667
 41
0.0
 71
     1
 72
     1
  1
F
  7
SLDTEXTSTYLE0
 73
     1
 44
1.0
  0
MTEXT
  5
102
330
1F
100
AcDbEntity
  8
0
  6
Continuous
 62
     7
370
     0
100
AcDbMText
 10
203.1553128802
 20
21.5867148511
 30
0.0
 40
1.8520833333
 41
0.0
 71
     1
 72
     1
  1
John
  7
SLDTEXTSTYLE0
 73
     1
 44
1.0
  0
MTEXT
  5
104
330
1F
100
AcDbEntity
  8
0
  6
Continuous
 62
     7
370
     0
100
AcDbMText
 10
252.8482239645
 20
12.2219603318
 30
0.0
 40
2.38125
 41
0.0
 71
     1
 72
     1
  1
0
  7
SLDTEXTSTYLE1
 73
     1
 44
1.0
  0
INSERT
  5
10A
330
1F
100
AcDbEntity
  8
SLD-0
 62
     7
100
AcDbBlockReference
  2
SW_NOTE_0_1
 10
198.7251893935
 20
33.5479745212
 30
0.0
  0
INSERT
  5
11C
330
1F
100
AcDbEntity
  8
DIM
100
AcDbBlockReference
  2
SW_TABLEANNOTATION_0
 10
8.6907965209
 20
21.0953354643
 30
0.0
  0
LINE
  5
11D
330
1F
100
AcDbEntity
  8
0
  6
Continuous
 62
     7
370
    35
100
AcDbLine
 10
148.7132852741
 20
52.4181947749
 30
0.0
 11
148.7132852741
 21
57.4181947749
 31
0.0
  0
LINE
  5
11E
330
1F
100
AcDbEntity
  8
0
  6
Continuous
 62
     7
370
    35
100
AcDbLine
 10
148.2632852741
 20
57.4181947749
 30
0.0
 11
148.7132852741
 21
57.4181947749
 31
0.0
  0
ARC
  5
11F
330
1F
100
AcDbEntity
  8
0
  6
Continuous
 62
     7
370
    35
100
AcDbCircle
 10
148.2632852741
 20
57.5181947749
 30
0.0
 40
0.0999999999999943
100
AcDbArc
 50
179.9999999998
 51
270.0
  0
LINE
  5
120
330
1F
100
AcDbEntity
  8
0
  6
Continuous
 62
     7
370
    35
100
AcDbLine
 10
148.1632852741
 20
57.5181947749
 30
0.0
 11
148.1632852741
 21
57.8181947749
 31
0.0
  0
ARC
  5
121
330
1F
100
AcDbEntity
  8
0
  6
Continuous
 62
     7
370
    35
100
AcDbCircle
 10
148.2632852741
 20
57.8181947749
 30
0.0
 40
0.1000000000000014
100
AcDbArc
 50
90.0
 51
180.0
  0
LINE
  5
122
330
1F
100
AcDbEntity
  8
0
  6
Continuous
 62
     7
370
    35
100
AcDbLine
 10
148.2632852741
 20
57.9181947749
 30
0.0
 11
149.4498724652
 21
57.9181947749
 31
0.0
  0
LINE
  5
123
330
1F
100
AcDbEntity
  8
0
  6
Continuous
 62
     7
370
    35
100
AcDbLine
 10
149.4498724652
 20
57.9181947749
 30
0.0
 11
149.4498724652
 21
57.7181947749
 31
0.0
  0
LINE
  5
124
330
1F
100
AcDbEntity
  8
0
  6
Continuous
 62
     7
370
    35
100
AcDbLine
 10
149.4498724652
 20
57.7181947749
 30
0.0
 11
149.8766980829
 21
57.7181947749
 31
0.0
  0
LINE
  5
125
330
1F
100
AcDbEntity
  8
0
  6
Continuous
 62
     7
370
    35
100
AcDbLine
 10
149.8766980829
 20
57.9181947749
 30
0.0
 11
149.8766980829
 21
57.7181947749
 31
0.0
  0
LINE
  5
126
330
1F
100
AcDbEntity
  8
0
  6
Continuous
 62
     7
370
    35
100
AcDbLine
 10
149.8766980829
 20
57.9181947749
 30
0.0
 11
151.0632852741
 21
57.9181947749
 31
0.0
  0
ARC
  5
127
330
1F
100
AcDbEntity
  8
0
  6
Continuous
 62
     7
370
    35
100
AcDbCircle
 10
151.0632852741
 20
57.8181947749
 30
0.0
 40
0.1000000000000227
100
AcDbArc
 50
0.0
 51
90.0
  0
LINE
  5
128
330
1F
100
AcDbEntity
  8
0
  6
Continuous
 62
     7
370
    35
100
AcDbLine
 10
151.1632852741
 20
57.8181947749
 30
0.0
 11
151.1632852741
 21
57.5181947749
 31
0.0
  0
ARC
  5
129
330
1F
100
AcDbEntity
  8
0
  6
Continuous
 62
     7
370
    35
100
AcDbCircle
 10
151.0632852741
 20
57.5181947749
 30
0.0
 40
0.1000000000000227
100
AcDbArc
 50
270.0
 51
0.0000000002
  0
LINE
  5
12A
330
1F
100
AcDbEntity
  8
0
  6
Continuous
 62
     7
370
    35
100
AcDbLine
 10
150.6132852741
 20
57.4181947749
 30
0.0
 11
151.0632852741
 21
57.4181947749
 31
0.0
  0
LINE
  5
12B
330
1F
100
AcDbEntity
  8
0
  6
Continuous
 62
     7
370
    35
100
AcDbLine
 10
150.6132852741
 20
57.4181947749
 30
0.0
 11
150.6132852741
 21
52.4181947749
 31
0.0
  0
LINE
  5
12C
330
1F
100
AcDbEntity
  8
0
  6
Continuous
 62
     7
370
    35
100
AcDbLine
 10
148.7132852741
 20
52.4181947749
 30
0.0
 11
150.6132852741
 21
52.4181947749
 31
0.0
  0
LINE
  5
12D
330
1F
100
AcDbEntity
  8
0
  6
Continuous
 62
     7
370
    35
100
AcDbLine
 10
86.7132852741
 20
52.4181947749
 30
0.0
 11
86.7132852741
 21
57.4181947749
 31
0.0
  0
LINE
  5
12E
330
1F
100
AcDbEntity
  8
0
  6
Continuous
 62
     7
370
    35
100
AcDbLine
 10
86.2632852741
 20
57.4181947749
 30
0.0
 11
86.7132852741
 21
57.4181947749
 31
0.0
  0
ARC
  5
12F
330
1F
100
AcDbEntity
  8
0
  6
Continuous
 62
     7
370
    35
100
AcDbCircle
 10
86.2632852741
 20
57.5181947749
 30
0.0
 40
0.1000000000000085
100
AcDbArc
 50
179.9999999999
 51
270.0
  0
LINE
  5
130
330
1F
100
AcDbEntity
  8
0
  6
Continuous
 62
     7
370
    35
100
AcDbLine
 10
86.1632852741
 20
57.5181947749
 30
0.0
 11
86.1632852741
 21
57.8181947749
 31
0.0
  0
ARC
  5
131
330
1F
100
AcDbEntity
  8
0
  6
Continuous
 62
     7
370
    35
100
AcDbCircle
 10
86.2632852741
 20
57.8181947749
 30
0.0
 40
0.0999999999999943
100
AcDbArc
 50
90.0
 51
180.0
  0
LINE
  5
132
330
1F
100
AcDbEntity
  8
0
  6
Continuous
 62
     7
370
    35
100
AcDbLine
 10
86.2632852741
 20
57.9181947749
 30
0.0
 11
87.4498724652
 21
57.9181947749
 31
0.0
  0
LINE
  5
133
330
1F
100
AcDbEntity
  8
0
  6
Continuous
 62
     7
370
    35
100
AcDbLine
 10
87.4498724652
 20
57.7181947749
 30
0.0
 11
87.4498724652
 21
57.9181947749
 31
0.0
  0
LINE
  5
134
330
1F
100
AcDbEntity
  8
0
  6
Continuous
 62
     7
370
    35
100
AcDbLine
 10
87.4498724652
 20
57.7181947749
 30
0.0
 11
87.8766980829
 21
57.7181947749
 31
0.0
  0
LINE
  5
135
330
1F
100
AcDbEntity
  8
0
  6
Continuous
 62
     7
370
    35
100
AcDbLine
 10
87.8766980829
 20
57.7181947749
 30
0.0
 11
87.8766980829
 21
57.9181947749
 31
0.0
  0
LINE
  5
136
330
1F
100
AcDbEntity
  8
0
  6
Continuous
 62
     7
370
    35
100
AcDbLine
 10
87.8766980829
 20
57.9181947749
 30
0.0
 11
89.0632852741
 21
57.9181947749
 31
0.0
  0
ARC
  5
137
330
1F
100
AcDbEntity
  8
0
  6
Continuous
 62
     7
370
    35
100
AcDbCircle
 10
89.0632852741
 20
57.8181947749
 30
0.0
 40
0.0999999999999943
100
AcDbArc
 50
0.0
 51
90.0
  0
LINE
  5
138
330
1F
100
AcDbEntity
  8
0
  6
Continuous
 62
     7
370
    35
100
AcDbLine
 10
89.1632852741
 20
57.8181947749
 30
0.0
 11
89.1632852741
 21
57.5181947749
 31
0.0
  0
ARC
  5
139
330
1F
100
AcDbEntity
  8
0
  6
Continuous
 62
     7
370
    35
100
AcDbCircle
 10
89.0632852741
 20
57.5181947749
 30
0.0
 40
0.1000000000000085
100
AcDbArc
 50
270.0
 51
0.0000000001
  0
LINE
  5
13A
330
1F
100
AcDbEntity
  8
0
  6
Continuous
 62
     7
370
    35
100
AcDbLine
 10
88.6132852741
 20
57.4181947749
 30
0.0
 11
89.0632852741
 21
57.4181947749
 31
0.0
  0
LINE
  5
13B
330
1F
100
AcDbEntity
  8
0
  6
Continuous
 62
     7
370
    35
100
AcDbLine
 10
88.6132852741
 20
57.4181947749
 30
0.0
 11
88.6132852741
 21
52.4181947749
 31
0.0
  0
LINE
  5
13C
330
1F
100
AcDbEntity
  8
0
  6
Continuous
 62
     7
370
    35
100
AcDbLine
 10
86.7132852741
 20
52.4181947749
 30
0.0
 11
88.6132852741
 21
52.4181947749
 31
0.0
  0
LINE
  5
13D
330
1F
100
AcDbEntity
  8
0
  6
Continuous
 62
     7
370
    35
100
AcDbLine
 10
150.9132852741
 20
56.0181947749
 30
0.0
 11
150.9132852741
 21
56.4181947749
 31
0.0
  0
LINE
  5
13E
330
1F
100
AcDbEntity
  8
0
  6
Continuous
 62
     7
370
    35
100
AcDbLine
 10
148.4132852741
 20
56.4181947749
 30
0.0
 11
148.4132852741
 21
56.0181947749
 31
0.0
  0
LINE
  5
13F
330
1F
100
AcDbEntity
  8
0
  6
Continuous
 62
     7
370
    35
100
AcDbLine
 10
150.9132852741
 20
56.0181947749
 30
0.0
 11
150.6132852741
 21
56.0181947749
 31
0.0
  0
LINE
  5
140
330
1F
100
AcDbEntity
  8
0
  6
Continuous
 62
     7
370
    35
100
AcDbLine
 10
148.7132852741
 20
56.0181947749
 30
0.0
 11
148.4132852741
 21
56.0181947749
 31
0.0
  0
LINE
  5
141
330
1F
100
AcDbEntity
  8
0
  6
Continuous
 62
     7
370
    35
100
AcDbLine
 10
148.4132852741
 20
56.4181947749
 30
0.0
 11
126.6632852741
 21
56.4181947749
 31
0.0
  0
LINE
  5
142
330
1F
100
AcDbEntity
  8
0
  6
Continuous
 62
     7
370
    35
100
AcDbLine
 10
126.6632852741
 20
56.4181947749
 30
0.0
 11
126.6632852741
 21
56.0181947749
 31
0.0
  0
LINE
  5
143
330
1F
100
AcDbEntity
  8
0
  6
Continuous
 62
     7
370
    35
100
AcDbLine
 10
148.4132852741
 20
56.0181947749
 30
0.0
 11
126.6632852741
 21
56.0181947749
 31
0.0
  0
LINE
  5
144
330
1F
100
AcDbEntity
  8
0
  6
Continuous
 62
     7
370
    35
100
AcDbLine
 10
85.6632852741
 20
56.0181947749
 30
0.0
 11
85.6632852741
 21
56.4181947749
 31
0.0
  0
LINE
  5
145
330
1F
100
AcDbEntity
  8
0
  6
Continuous
 62
     7
370
    35
100
AcDbLine
 10
151.6632852741
 20
56.4181947749
 30
0.0
 11
151.6632852741
 21
56.0181947749
 31
0.0
  0
LINE
  5
146
330
1F
100
AcDbEntity
  8
0
  6
Continuous
 62
     7
370
    35
100
AcDbLine
 10
92.6632852741
 20
56.0181947749
 30
0.0
 11
92.6632852741
 21
56.4181947749
 31
0.0
  0
LINE
  5
147
330
1F
100
AcDbEntity
  8
0
  6
Continuous
 62
     7
370
    35
100
AcDbLine
 10
126.6632852741
 20
56.4181947749
 30
0.0
 11
92.6632852741
 21
56.4181947749
 31
0.0
  0
LINE
  5
148
330
1F
100
AcDbEntity
  8
0
  6
Continuous
 62
     7
370
    35
100
AcDbLine
 10
126.6632852741
 20
56.0181947749
 30
0.0
 11
92.6632852741
 21
56.0181947749
 31
0.0
  0
LINE
  5
149
330
1F
100
AcDbEntity
  8
0
  6
Continuous
 62
     7
370
    35
100
AcDbLine
 10
88.9132852741
 20
56.0181947749
 30
0.0
 11
88.9132852741
 21
56.4181947749
 31
0.0
  0
LINE
  5
14A
330
1F
100
AcDbEntity
  8
0
  6
Continuous
 62
     7
370
    35
100
AcDbLine
 10
92.6632852741
 20
56.4181947749
 30
0.0
 11
88.9132852741
 21
56.4181947749
 31
0.0
  0
LINE
  5
14B
330
1F
100
AcDbEntity
  8
0
  6
Continuous
 62
     7
370
    35
100
AcDbLine
 10
92.6632852741
 20
56.0181947749
 30
0.0
 11
88.9132852741
 21
56.0181947749
 31
0.0
  0
LINE
  5
14C
330
1F
100
AcDbEntity
  8
0
  6
Continuous
 62
     7
370
    35
100
AcDbLine
 10
86.4132852741
 20
56.4181947749
 30
0.0
 11
86.4132852741
 21
56.0181947749
 31
0.0
  0
LINE
  5
14D
330
1F
100
AcDbEntity
  8
0
  6
Continuous
 62
     7
370
    35
100
AcDbLine
 10
88.9132852741
 20
56.0181947749
 30
0.0
 11
88.6132852741
 21
56.0181947749
 31
0.0
  0
LINE
  5
14E
330
1F
100
AcDbEntity
  8
0
  6
Continuous
 62
     7
370
    35
100
AcDbLine
 10
86.7132852741
 20
56.0181947749
 30
0.0
 11
86.4132852741
 21
56.0181947749
 31
0.0
  0
LINE
  5
14F
330
1F
100
AcDbEntity
  8
0
  6
Continuous
 62
     7
370
    35
100
AcDbLine
 10
151.6632852741
 20
56.4181947749
 30
0.0
 11
150.9132852741
 21
56.4181947749
 31
0.0
  0
LINE
  5
150
330
1F
100
AcDbEntity
  8
0
  6
Continuous
 62
     7
370
    35
100
AcDbLine
 10
151.6632852741
 20
56.0181947749
 30
0.0
 11
150.9132852741
 21
56.0181947749
 31
0.0
  0
LINE
  5
151
330
1F
100
AcDbEntity
  8
0
  6
Continuous
 62
     7
370
    35
100
AcDbLine
 10
86.4132852741
 20
56.4181947749
 30
0.0
 11
85.6632852741
 21
56.4181947749
 31
0.0
  0
LINE
  5
152
330
1F
100
AcDbEntity
  8
0
  6
Continuous
 62
     7
370
    35
100
AcDbLine
 10
86.4132852741
 20
56.0181947749
 30
0.0
 11
85.6632852741
 21
56.0181947749
 31
0.0
  0
LINE
  5
153
330
1F
100
AcDbEntity
  8
0
  6
Continuous
 62
     7
370
    35
100
AcDbLine
 10
108.1632852741
 20
83.5715884361
 30
0.0
 11
108.1632852741
 21
82.5715884361
 31
0.0
  0
LINE
  5
154
330
1F
100
AcDbEntity
  8
0
  6
Continuous
 62
     7
370
    35
100
AcDbLine
 10
129.1632852741
 20
82.5715884361
 30
0.0
 11
129.1632852741
 21
83.5715884361
 31
0.0
  0
LINE
  5
155
330
1F
100
AcDbEntity
  8
0
  6
Continuous
 62
     7
370
    35
100
AcDbLine
 10
108.5132852741
 20
82.5715884361
 30
0.0
 11
108.5132852741
 21
80.5715884361
 31
0.0
  0
LINE
  5
156
330
1F
100
AcDbEntity
  8
0
  6
Continuous
 62
     7
370
    35
100
AcDbLine
 10
128.8132852741
 20
80.5715884361
 30
0.0
 11
128.8132852741
 21
82.5715884361
 31
0.0
  0
ARC
  5
157
330
1F
100
AcDbEntity
  8
0
  6
Continuous
 62
     7
370
    35
100
AcDbCircle
 10
108.6632852741
 20
85.0715884361
 30
0.0
 40
1.5
100
AcDbArc
 50
270.0
 51
90.0
  0
ARC
  5
158
330
1F
100
AcDbEntity
  8
0
  6
Continuous
 62
     7
370
    35
100
AcDbCircle
 10
128.6632852741
 20
85.0715884361
 30
0.0
 40
1.5
100
AcDbArc
 50
90.0
 51
270.0
  0
LINE
  5
159
330
1F
100
AcDbEntity
  8
0
  6
Continuous
 62
     7
370
    35
100
AcDbLine
 10
108.6632852741
 20
86.5715884361
 30
0.0
 11
108.6632852741
 21
87.0715884361
 31
0.0
  0
LINE
  5
15A
330
1F
100
AcDbEntity
  8
0
  6
Continuous
 62
     7
370
    35
100
AcDbLine
 10
128.6632852741
 20
87.0715884361
 30
0.0
 11
128.6632852741
 21
86.5715884361
 31
0.0
  0
LINE
  5
15B
330
1F
100
AcDbEntity
  8
0
  6
Continuous
 62
     7
370
    35
100
AcDbLine
 10
110.7632852741
 20
80.5715884361
 30
0.0
 11
111.5989995598
 21
87.0715884361
 31
0.0
  0
LINE
  5
15C
330
1F
100
AcDbEntity
  8
0
  6
Continuous
 62
     7
370
    35
100
AcDbLine
 10
125.7275709884
 20
87.0715884361
 30
0.0
 11
126.5632852741
 21
80.5715884361
 31
0.0
  0
LINE
  5
15D
330
1F
100
AcDbEntity
  8
0
  6
Continuous
 62
     7
370
    35
100
AcDbLine
 10
111.5989995598
 20
87.0715884361
 30
0.0
 11
125.7275709884
 21
87.0715884361
 31
0.0
  0
LINE
  5
15E
330
1F
100
AcDbEntity
  8
0
  6
Continuous
 62
     7
370
    35
100
AcDbLine
 10
126.5632852741
 20
80.5715884361
 30
0.0
 11
110.7632852741
 21
80.5715884361
 31
0.0
  0
LINE
  5
15F
330
1F
100
AcDbEntity
  8
0
  6
Continuous
 62
     7
370
    35
100
AcDbLine
 10
128.6632852741
 20
87.0715884361
 30
0.0
 11
125.7275709884
 21
87.0715884361
 31
0.0
  0
LINE
  5
160
330
1F
100
AcDbEntity
  8
0
  6
Continuous
 62
     7
370
    35
100
AcDbLine
 10
128.8132852741
 20
80.5715884361
 30
0.0
 11
126.5632852741
 21
80.5715884361
 31
0.0
  0
LINE
  5
161
330
1F
100
AcDbEntity
  8
0
  6
Continuous
 62
     7
370
    35
100
AcDbLine
 10
128.8132852741
 20
82.5715884361
 30
0.0
 11
129.1632852741
 21
82.5715884361
 31
0.0
  0
LINE
  5
162
330
1F
100
AcDbEntity
  8
0
  6
Continuous
 62
     7
370
    35
100
AcDbLine
 10
128.6632852741
 20
83.5715884361
 30
0.0
 11
129.1632852741
 21
83.5715884361
 31
0.0
  0
LINE
  5
163
330
1F
100
AcDbEntity
  8
0
  6
Continuous
 62
     7
370
    35
100
AcDbLine
 10
111.5989995598
 20
87.0715884361
 30
0.0
 11
108.6632852741
 21
87.0715884361
 31
0.0
  0
LINE
  5
164
330
1F
100
AcDbEntity
  8
0
  6
Continuous
 62
     7
370
    35
100
AcDbLine
 10
110.7632852741
 20
80.5715884361
 30
0.0
 11
108.5132852741
 21
80.5715884361
 31
0.0
  0
LINE
  5
165
330
1F
100
AcDbEntity
  8
0
  6
Continuous
 62
     7
370
    35
100
AcDbLine
 10
108.1632852741
 20
82.5715884361
 30
0.0
 11
108.5132852741
 21
82.5715884361
 31
0.0
  0
LINE
  5
166
330
1F
100
AcDbEntity
  8
0
  6
Continuous
 62
     7
370
    35
100
AcDbLine
 10
108.1632852741
 20
83.5715884361
 30
0.0
 11
108.6632852741
 21
83.5715884361
 31
0.0
  0
LINE
  5
167
330
1F
100
AcDbEntity
  8
0
  6
Continuous
 62
     7
370
    35
100
AcDbLine
 10
135.3029433552
 20
80.3070743272
 30
0.0
 11
134.4739057826
 21
79.7478814237
 31
0.0
  0
LINE
  5
168
330
1F
100
AcDbEntity
  8
0
  6
Continuous
 62
     7
370
    35
100
AcDbLine
 10
146.2169567555
 20
62.3380924001
 30
0.0
 11
147.0459943281
 21
62.8972853036
 31
0.0
  0
LINE
  5
169
330
1F
100
AcDbEntity
  8
0
  6
Continuous
 62
     7
370
    35
100
AcDbLine
 10
134.6696232988
 20
79.4577182733
 30
0.0
 11
133.0115481537
 21
78.3393324664
 31
0.0
  0
LINE
  5
16A
330
1F
100
AcDbEntity
  8
0
  6
Continuous
 62
     7
370
    35
100
AcDbLine
 10
144.3631640942
 20
61.5098697435
 30
0.0
 11
146.0212392393
 21
62.6282555505
 31
0.0
  0
ARC
  5
16B
330
1F
100
AcDbEntity
  8
0
  6
Continuous
 62
     7
370
    35
100
AcDbCircle
 10
136.8260961657
 20
80.7313448961
 30
0.0
 40
1.500000000000007
100
AcDbArc
 50
214.0
 51
34.0
  0
ARC
  5
16C
330
1F
100
AcDbEntity
  8
0
  6
Continuous
 62
     7
370
    35
100
AcDbCircle
 10
148.0099542352
 20
64.150593445
 30
0.0
 40
1.500000000000031
100
AcDbArc
 50
34.0
 51
214.0
  0
LINE
  5
16D
330
1F
100
AcDbEntity
  8
0
  6
Continuous
 62
     7
370
    35
100
AcDbLine
 10
138.0696525246
 20
81.5701342513
 30
0.0
 11
138.4841713109
 21
81.8497307031
 31
0.0
  0
LINE
  5
16E
330
1F
100
AcDbEntity
  8
0
  6
Continuous
 62
     7
370
    35
100
AcDbLine
 10
149.6680293803
 20
65.268979252
 30
0.0
 11
149.253510594
 21
64.9893828002
 31
0.0
  0
LINE
  5
16F
330
1F
100
AcDbEntity
  8
0
  6
Continuous
 62
     7
370
    35
100
AcDbLine
 10
134.2697321865
 20
76.4739979282
 30
0.0
 11
140.125801906
 21
79.4159132579
 31
0.0
  0
LINE
  5
170
330
1F
100
AcDbEntity
  8
0
  6
Continuous
 62
     7
370
    35
100
AcDbLine
 10
148.0263987851
 20
67.7027966971
 30
0.0
 11
143.1049800614
 21
63.3752042818
 31
0.0
  0
LINE
  5
171
330
1F
100
AcDbEntity
  8
0
  6
Continuous
 62
     7
370
    35
100
AcDbLine
 10
140.125801906
 20
79.4159132579
 30
0.0
 11
148.0263987851
 21
67.7027966971
 31
0.0
  0
LINE
  5
172
330
1F
100
AcDbEntity
  8
0
  6
Continuous
 62
     7
370
    35
100
AcDbLine
 10
143.1049800614
 20
63.3752042818
 30
0.0
 11
134.2697321865
 21
76.4739979282
 31
0.0
  0
LINE
  5
173
330
1F
100
AcDbEntity
  8
0
  6
Continuous
 62
     7
370
    35
100
AcDbLine
 10
149.6680293803
 20
65.268979252
 30
0.0
 11
148.0263987851
 21
67.7027966971
 31
0.0
  0
LINE
  5
174
330
1F
100
AcDbEntity
  8
0
  6
Continuous
 62
     7
370
    35
100
AcDbLine
 10
144.3631640942
 20
61.5098697435
 30
0.0
 11
143.1049800614
 21
63.3752042818
 31
0.0
  0
LINE
  5
175
330
1F
100
AcDbEntity
  8
0
  6
Continuous
 62
     7
370
    35
100
AcDbLine
 10
146.7663978763
 20
63.3118040898
 30
0.0
 11
147.0459943281
 21
62.8972853036
 31
0.0
  0
LINE
  5
176
330
1F
100
AcDbEntity
  8
0
  6
Continuous
 62
     7
370
    35
100
AcDbLine
 10
146.0212392393
 20
62.6282555505
 30
0.0
 11
146.2169567555
 21
62.3380924001
 31
0.0
  0
LINE
  5
177
330
1F
100
AcDbEntity
  8
0
  6
Continuous
 62
     7
370
    35
100
AcDbLine
 10
140.125801906
 20
79.4159132579
 30
0.0
 11
138.4841713109
 21
81.8497307031
 31
0.0
  0
LINE
  5
178
330
1F
100
AcDbEntity
  8
0
  6
Continuous
 62
     7
370
    35
100
AcDbLine
 10
134.2697321865
 20
76.4739979282
 30
0.0
 11
133.0115481537
 21
78.3393324664
 31
0.0
  0
LINE
  5
179
330
1F
100
AcDbEntity
  8
0
  6
Continuous
 62
     7
370
    35
100
AcDbLine
 10
135.3029433552
 20
80.3070743272
 30
0.0
 11
135.5825398069
 21
79.8925555409
 31
0.0
  0
LINE
  5
17A
330
1F
100
AcDbEntity
  8
0
  6
Continuous
 62
     7
370
    35
100
AcDbLine
 10
134.4739057826
 20
79.7478814237
 30
0.0
 11
134.6696232988
 21
79.4577182733
 31
0.0
  0
LINE
  5
17B
330
1F
100
AcDbEntity
  8
0
  6
Continuous
 62
     7
370
    35
100
AcDbLine
 10
148.8632852741
 20
53.9181947749
 30
0.0
 11
146.9132852741
 21
53.9181947749
 31
0.0
  0
LINE
  5
17C
330
1F
100
AcDbEntity
  8
0
  6
Continuous
 62
     7
370
    35
100
AcDbLine
 10
148.8632852741
 20
53.9181947749
 30
0.0
 11
148.8632852741
 21
52.4181947749
 31
0.0
  0
LINE
  5
17D
330
1F
100
AcDbEntity
  8
0
  6
Continuous
 62
     7
370
    35
100
AcDbLine
 10
148.8632852741
 20
52.4181947749
 30
0.0
 11
146.9132852741
 21
52.4181947749
 31
0.0
  0
LINE
  5
17E
330
1F
100
AcDbEntity
  8
0
  6
Continuous
 62
     7
370
    35
100
AcDbLine
 10
146.9132852741
 20
53.9181947749
 30
0.0
 11
146.9132852741
 21
52.4181947749
 31
0.0
  0
LINE
  5
17F
330
1F
100
AcDbEntity
  8
0
  6
Continuous
 62
     7
370
    35
100
AcDbLine
 10
84.1632852741
 20
52.4181947749
 30
0.0
 11
84.1632852741
 21
57.9181947749
 31
0.0
  0
LINE
  5
180
330
1F
100
AcDbEntity
  8
0
  6
Continuous
 62
     7
370
    35
100
AcDbLine
 10
153.1632852741
 20
57.9181947749
 30
0.0
 11
153.1632852741
 21
52.4181947749
 31
0.0
  0
LINE
  5
181
330
1F
100
AcDbEntity
  8
0
  6
Continuous
 62
     7
370
    35
100
AcDbLine
 10
153.1632852741
 20
52.4181947749
 30
0.0
 11
150.4632852741
 21
52.4181947749
 31
0.0
  0
LINE
  5
182
330
1F
100
AcDbEntity
  8
0
  6
Continuous
 62
     7
370
    35
100
AcDbLine
 10
150.4632852741
 20
52.4181947749
 30
0.0
 11
150.4632852741
 21
53.9181947749
 31
0.0
  0
LINE
  5
183
330
1F
100
AcDbEntity
  8
0
  6
Continuous
 62
     7
370
    35
100
AcDbLine
 10
151.9132852741
 20
53.9181947749
 30
0.0
 11
150.4632852741
 21
53.9181947749
 31
0.0
  0
LINE
  5
184
330
1F
100
AcDbEntity
  8
0
  6
Continuous
 62
     7
370
    35
100
AcDbLine
 10
151.9132852741
 20
53.9181947749
 30
0.0
 11
151.9132852741
 21
57.9181947749
 31
0.0
  0
LINE
  5
185
330
1F
100
AcDbEntity
  8
0
  6
Continuous
 62
     7
370
    35
100
AcDbLine
 10
153.1632852741
 20
57.9181947749
 30
0.0
 11
151.9132852741
 21
57.9181947749
 31
0.0
  0
LINE
  5
186
330
1F
100
AcDbEntity
  8
0
  6
Continuous
 62
     7
370
    35
100
AcDbLine
 10
85.4132852741
 20
57.9181947749
 30
0.0
 11
84.1632852741
 21
57.9181947749
 31
0.0
  0
LINE
  5
187
330
1F
100
AcDbEntity
  8
0
  6
Continuous
 62
     7
370
    35
100
AcDbLine
 10
85.4132852741
 20
57.9181947749
 30
0.0
 11
85.4132852741
 21
53.9181947749
 31
0.0
  0
LINE
  5
188
330
1F
100
AcDbEntity
  8
0
  6
Continuous
 62
     7
370
    35
100
AcDbLine
 10
86.8632852741
 20
53.9181947749
 30
0.0
 11
85.4132852741
 21
53.9181947749
 31
0.0
  0
LINE
  5
189
330
1F
100
AcDbEntity
  8
0
  6
Continuous
 62
     7
370
    35
100
AcDbLine
 10
86.8632852741
 20
53.9181947749
 30
0.0
 11
86.8632852741
 21
52.4181947749
 31
0.0
  0
LINE
  5
18A
330
1F
100
AcDbEntity
  8
0
  6
Continuous
 62
     7
370
    35
100
AcDbLine
 10
86.8632852741
 20
52.4181947749
 30
0.0
 11
84.1632852741
 21
52.4181947749
 31
0.0
  0
LINE
  5
18B
330
1F
100
AcDbEntity
  8
0
  6
Continuous
 62
     7
370
    35
100
AcDbLine
 10
151.9132852741
 20
57.9181947749
 30
0.0
 11
151.6632852741
 21
57.9181947749
 31
0.0
  0
LINE
  5
18C
330
1F
100
AcDbEntity
  8
0
  6
Continuous
 62
     7
370
    35
100
AcDbLine
 10
85.6632852741
 20
57.9181947749
 30
0.0
 11
85.4132852741
 21
57.9181947749
 31
0.0
  0
LINE
  5
18D
330
1F
100
AcDbEntity
  8
0
  6
Continuous
 62
     7
370
    35
100
AcDbLine
 10
88.4632852741
 20
52.4181947749
 30
0.0
 11
88.4632852741
 21
53.9181947749
 31
0.0
  0
LINE
  5
18E
330
1F
100
AcDbEntity
  8
0
  6
Continuous
 62
     7
370
    35
100
AcDbLine
 10
90.4132852741
 20
53.9181947749
 30
0.0
 11
88.4632852741
 21
53.9181947749
 31
0.0
  0
LINE
  5
18F
330
1F
100
AcDbEntity
  8
0
  6
Continuous
 62
     7
370
    35
100
AcDbLine
 10
90.4132852741
 20
52.4181947749
 30
0.0
 11
90.4132852741
 21
53.9181947749
 31
0.0
  0
LINE
  5
190
330
1F
100
AcDbEntity
  8
0
  6
Continuous
 62
     7
370
    35
100
AcDbLine
 10
90.4132852741
 20
52.4181947749
 30
0.0
 11
88.4632852741
 21
52.4181947749
 31
0.0
  0
LINE
  5
191
330
1F
100
AcDbEntity
  8
0
  6
Continuous
 62
     7
370
    35
100
AcDbLine
 10
146.9132852741
 20
53.9181947749
 30
0.0
 11
146.5844242193
 21
53.9181947749
 31
0.0
  0
LINE
  5
192
330
1F
100
AcDbEntity
  8
0
  6
Continuous
 62
     7
370
    35
100
AcDbLine
 10
90.7421463288
 20
53.9181947749
 30
0.0
 11
90.4132852741
 21
53.9181947749
 31
0.0
  0
LINE
  5
193
330
1F
100
AcDbEntity
  8
0
  6
Continuous
 62
     7
370
    35
100
AcDbLine
 10
146.9132852741
 20
52.4181947749
 30
0.0
 11
146.430892301
 21
52.4181947749
 31
0.0
  0
LINE
  5
194
330
1F
100
AcDbEntity
  8
0
  6
Continuous
 62
     7
370
    35
100
AcDbLine
 10
90.8956782472
 20
52.4181947749
 30
0.0
 11
90.4132852741
 21
52.4181947749
 31
0.0
  0
LINE
  5
195
330
1F
100
AcDbEntity
  8
0
  6
Continuous
 62
     7
370
    35
100
AcDbLine
 10
151.6632852741
 20
54.5181947749
 30
0.0
 11
151.6632852741
 21
56.0181947749
 31
0.0
  0
LINE
  5
196
330
1F
100
AcDbEntity
  8
0
  6
Continuous
 62
     7
370
    35
100
AcDbLine
 10
85.6632852741
 20
56.0181947749
 30
0.0
 11
85.6632852741
 21
54.5181947749
 31
0.0
  0
LINE
  5
197
330
1F
100
AcDbEntity
  8
0
  6
Continuous
 62
     7
370
    35
100
AcDbLine
 10
108.6632852741
 20
29.8648011136
 30
0.0
 11
128.6632852741
 21
29.8648011136
 31
0.0
  0
ARC
  5
198
330
1F
100
AcDbEntity
  8
0
  6
Continuous
 62
     7
370
    35
100
AcDbCircle
 10
118.6632852741
 20
56.0181947749
 30
0.0
 40
28.00000000000003
100
AcDbArc
 50
290.9248324276
 51
356.9291131889
  0
ARC
  5
199
330
1F
100
AcDbEntity
  8
0
  6
Continuous
 62
     7
370
    35
100
AcDbCircle
 10
118.6632852741
 20
56.0181947749
 30
0.0
 40
28.00000000000002
100
AcDbArc
 50
183.0708868111
 51
249.0751675724
  0
ARC
  5
19A
330
1F
100
AcDbEntity
  8
0
  6
Continuous
 62
     7
370
    35
100
AcDbCircle
 10
118.6632852741
 20
56.0181947749
 30
0.0
 40
26.00000000000004
100
AcDbArc
 50
292.619864948
 51
0.0
  0
LINE
  5
19B
330
1F
100
AcDbEntity
  8
0
  6
Continuous
 62
     7
370
    35
100
AcDbLine
 10
108.6632852741
 20
32.0181947749
 30
0.0
 11
128.6632852741
 21
32.0181947749
 31
0.0
  0
ARC
  5
19C
330
1F
100
AcDbEntity
  8
0
  6
Continuous
 62
     7
370
    35
100
AcDbCircle
 10
118.6632852741
 20
56.0181947749
 30
0.0
 40
26.00000000000001
100
AcDbArc
 50
180.0
 51
247.380135052
  0
LINE
  5
19D
330
1F
100
AcDbEntity
  8
0
  6
Continuous
 62
     7
370
    35
100
AcDbLine
 10
128.6632852741
 20
32.0181947749
 30
0.0
 11
128.6632852741
 21
29.8648011136
 31
0.0
  0
LINE
  5
19E
330
1F
100
AcDbEntity
  8
0
  6
Continuous
 62
     7
370
    35
100
AcDbLine
 10
108.6632852741
 20
29.8648011136
 30
0.0
 11
108.6632852741
 21
32.0181947749
 31
0.0
  0
LINE
  5
19F
330
1F
100
AcDbEntity
  8
0
  6
Continuous
 62
     7
370
    35
100
AcDbLine
 10
148.4132852741
 20
56.0181947749
 30
0.0
 11
148.4132852741
 21
54.5181947749
 31
0.0
  0
LINE
  5
1A0
330
1F
100
AcDbEntity
  8
0
  6
Continuous
 62
     7
370
    35
100
AcDbLine
 10
148.4132852741
 20
56.0181947749
 30
0.0
 11
144.6632852741
 21
56.0181947749
 31
0.0
  0
LINE
  5
1A1
330
1F
100
AcDbEntity
  8
0
  6
Continuous
 62
     7
370
    35
100
AcDbLine
 10
148.4132852741
 20
54.5181947749
 30
0.0
 11
146.6230778341
 21
54.5181947749
 31
0.0
  0
LINE
  5
1A2
330
1F
100
AcDbEntity
  8
0
  6
Continuous
 62
     7
370
    35
100
AcDbLine
 10
88.9132852741
 20
54.5181947749
 30
0.0
 11
88.9132852741
 21
56.0181947749
 31
0.0
  0
LINE
  5
1A3
330
1F
100
AcDbEntity
  8
0
  6
Continuous
 62
     7
370
    35
100
AcDbLine
 10
90.703492714
 20
54.5181947749
 30
0.0
 11
88.9132852741
 21
54.5181947749
 31
0.0
  0
LINE
  5
1A4
330
1F
100
AcDbEntity
  8
0
  6
Continuous
 62
     7
370
    35
100
AcDbLine
 10
86.4132852741
 20
56.0181947749
 30
0.0
 11
86.4132852741
 21
54.5181947749
 31
0.0
  0
LINE
  5
1A5
330
1F
100
AcDbEntity
  8
0
  6
Continuous
 62
     7
370
    35
100
AcDbLine
 10
86.4132852741
 20
54.5181947749
 30
0.0
 11
86.7132852741
 21
54.5181947749
 31
0.0
  0
LINE
  5
1A6
330
1F
100
AcDbEntity
  8
0
  6
Continuous
 62
     7
370
    35
100
AcDbLine
 10
88.6132852741
 20
54.5181947749
 30
0.0
 11
88.9132852741
 21
54.5181947749
 31
0.0
  0
LINE
  5
1A7
330
1F
100
AcDbEntity
  8
0
  6
Continuous
 62
     7
370
    35
100
AcDbLine
 10
150.9132852741
 20
54.5181947749
 30
0.0
 11
150.9132852741
 21
56.0181947749
 31
0.0
  0
LINE
  5
1A8
330
1F
100
AcDbEntity
  8
0
  6
Continuous
 62
     7
370
    35
100
AcDbLine
 10
148.4132852741
 20
54.5181947749
 30
0.0
 11
148.7132852741
 21
54.5181947749
 31
0.0
  0
LINE
  5
1A9
330
1F
100
AcDbEntity
  8
0
  6
Continuous
 62
     7
370
    35
100
AcDbLine
 10
150.6132852741
 20
54.5181947749
 30
0.0
 11
150.9132852741
 21
54.5181947749
 31
0.0
  0
LINE
  5
1AA
330
1F
100
AcDbEntity
  8
0
  6
Continuous
 62
     7
370
    35
100
AcDbLine
 10
86.4132852741
 20
54.5181947749
 30
0.0
 11
85.6632852741
 21
54.5181947749
 31
0.0
  0
LINE
  5
1AB
330
1F
100
AcDbEntity
  8
0
  6
Continuous
 62
     7
370
    35
100
AcDbLine
 10
151.6632852741
 20
54.5181947749
 30
0.0
 11
150.9132852741
 21
54.5181947749
 31
0.0
  0
ARC
  5
1AC
330
1F
100
AcDbEntity
  8
0
  6
Continuous
 62
     7
370
    35
100
AcDbCircle
 10
118.6632852741
 20
56.4181947749
 30
0.0
 40
26.0
100
AcDbArc
 50
112.619864948
 51
180.0
  0
LINE
  5
1AD
330
1F
100
AcDbEntity
  8
0
  6
Continuous
 62
     7
370
    35
100
AcDbLine
 10
108.6632852741
 20
80.4181947749
 30
0.0
 11
128.6632852741
 21
80.4181947749
 31
0.0
  0
ARC
  5
1AE
330
1F
100
AcDbEntity
  8
0
  6
Continuous
 62
     7
370
    35
100
AcDbCircle
 10
118.6632852741
 20
56.4181947749
 30
0.0
 40
26.0
100
AcDbArc
 50
56.619864948
 51
67.380135052
  0
LINE
  5
1AF
330
1F
100
AcDbEntity
  8
0
  6
Continuous
 62
     7
370
    35
100
AcDbLine
 10
144.1521160501
 20
61.5484487326
 30
0.0
 11
132.9682579807
 21
78.1292001837
 31
0.0
  0
ARC
  5
1B0
330
1F
100
AcDbEntity
  8
0
  6
Continuous
 62
     7
370
    35
100
AcDbCircle
 10
118.6632852741
 20
56.4181947749
 30
0.0
 40
26.00000000000001
100
AcDbArc
 50
0.0
 51
11.380135052
  0
LINE
  5
1B1
330
1F
100
AcDbEntity
  8
0
  6
Continuous
 62
     7
370
    35
100
AcDbLine
 10
144.1521160501
 20
61.5484487326
 30
0.0
 11
145.9373603038
 21
62.7526111864
 31
0.0
  0
ARC
  5
1B2
330
1F
100
AcDbEntity
  8
0
  6
Continuous
 62
     7
370
    35
100
AcDbCircle
 10
118.6632852741
 20
56.4181947749
 30
0.0
 40
28.00000000000002
100
AcDbArc
 50
3.0708868111
 51
13.0751675724
  0
LINE
  5
1B3
330
1F
100
AcDbEntity
  8
0
  6
Continuous
 62
     7
370
    35
100
AcDbLine
 10
151.6632852741
 20
56.4181947749
 30
0.0
 11
151.6632852741
 21
57.9181947749
 31
0.0
  0
LINE
  5
1B4
330
1F
100
AcDbEntity
  8
0
  6
Continuous
 62
     7
370
    35
100
AcDbLine
 10
144.6632852741
 20
56.4181947749
 30
0.0
 11
151.6632852741
 21
56.4181947749
 31
0.0
  0
LINE
  5
1B5
330
1F
100
AcDbEntity
  8
0
  6
Continuous
 62
     7
370
    35
100
AcDbLine
 10
146.6230778341
 20
57.9181947749
 30
0.0
 11
151.6632852741
 21
57.9181947749
 31
0.0
  0
ARC
  5
1B6
330
1F
100
AcDbEntity
  8
0
  6
Continuous
 62
     7
370
    35
100
AcDbCircle
 10
118.6632852741
 20
56.4181947749
 30
0.0
 40
28.0
100
AcDbArc
 50
54.9248324276
 51
69.0751675724
  0
ARC
  5
1B7
330
1F
100
AcDbEntity
  8
0
  6
Continuous
 62
     7
370
    35
100
AcDbCircle
 10
118.6632852741
 20
56.4181947749
 30
0.0
 40
28.00000000000006
100
AcDbArc
 50
110.9248324276
 51
176.9291131889
  0
LINE
  5
1B8
330
1F
100
AcDbEntity
  8
0
  6
Continuous
 62
     7
370
    35
100
AcDbLine
 10
85.6632852741
 20
57.9181947749
 30
0.0
 11
85.6632852741
 21
56.4181947749
 31
0.0
  0
LINE
  5
1B9
330
1F
100
AcDbEntity
  8
0
  6
Continuous
 62
     7
370
    35
100
AcDbLine
 10
134.7535022344
 20
79.3333626375
 30
0.0
 11
132.9682579807
 21
78.1292001837
 31
0.0
  0
LINE
  5
1BA
330
1F
100
AcDbEntity
  8
0
  6
Continuous
 62
     7
370
    35
100
AcDbLine
 10
128.6632852741
 20
82.5715884361
 30
0.0
 11
128.6632852741
 21
80.4181947749
 31
0.0
  0
LINE
  5
1BB
330
1F
100
AcDbEntity
  8
0
  6
Continuous
 62
     7
370
    35
100
AcDbLine
 10
108.6632852741
 20
80.4181947749
 30
0.0
 11
108.6632852741
 21
82.5715884361
 31
0.0
  0
LINE
  5
1BC
330
1F
100
AcDbEntity
  8
0
  6
Continuous
 62
     7
370
    35
100
AcDbLine
 10
85.6632852741
 20
56.4181947749
 30
0.0
 11
92.6632852741
 21
56.4181947749
 31
0.0
  0
LINE
  5
1BD
330
1F
100
AcDbEntity
  8
0
  6
Continuous
 62
     7
370
    35
100
AcDbLine
 10
85.6632852741
 20
57.9181947749
 30
0.0
 11
90.703492714
 21
57.9181947749
 31
0.0
  0
LINE
  5
1BE
330
1F
100
AcDbEntity
  8
0
  6
HIDDEN
 62
     7
370
    25
100
AcDbLine
 10
151.1632852741
 20
57.5181947749
 30
0.0
 11
148.1632852741
 21
57.5181947749
 31
0.0
  0
LINE
  5
1BF
330
1F
100
AcDbEntity
  8
0
  6
HIDDEN
 62
     7
370
    25
100
AcDbLine
 10
148.1632852741
 20
57.8181947749
 30
0.0
 11
151.1632852741
 21
57.8181947749
 31
0.0
  0
LINE
  5
1C0
330
1F
100
AcDbEntity
  8
0
  6
HIDDEN
 62
     7
370
    25
100
AcDbLine
 10
148.7132852741
 20
57.4181947749
 30
0.0
 11
150.6132852741
 21
57.4181947749
 31
0.0
  0
LINE
  5
1C1
330
1F
100
AcDbEntity
  8
0
  6
HIDDEN
 62
     7
370
    25
100
AcDbLine
 10
149.875413511
 20
57.9181947749
 30
0.0
 11
149.875413511
 21
57.7181947749
 31
0.0
  0
LINE
  5
1C2
330
1F
100
AcDbEntity
  8
0
  6
HIDDEN
 62
     7
370
    25
100
AcDbLine
 10
148.8820969637
 20
57.7181947749
 30
0.0
 11
149.4498724652
 21
57.7181947749
 31
0.0
  0
LINE
  5
1C3
330
1F
100
AcDbEntity
  8
0
  6
HIDDEN
 62
     7
370
    25
100
AcDbLine
 10
150.4377040345
 20
57.7181947749
 30
0.0
 11
149.8766980829
 21
57.7181947749
 31
0.0
  0
LINE
  5
1C4
330
1F
100
AcDbEntity
  8
0
  6
HIDDEN
 62
     7
370
    25
100
AcDbLine
 10
150.224306507
 20
57.7181947749
 30
0.0
 11
150.224306507
 21
57.9181947749
 31
0.0
  0
LINE
  5
1C5
330
1F
100
AcDbEntity
  8
0
  6
HIDDEN
 62
     7
370
    25
100
AcDbLine
 10
149.6620159835
 20
57.9181947749
 30
0.0
 11
149.6620159835
 21
57.7181947749
 31
0.0
  0
LINE
  5
1C6
330
1F
100
AcDbEntity
  8
0
  6
HIDDEN
 62
     7
370
    25
100
AcDbLine
 10
149.09295591
 20
57.7181947749
 30
0.0
 11
149.09295591
 21
57.9181947749
 31
0.0
  0
LINE
  5
1C7
330
1F
100
AcDbEntity
  8
0
  6
HIDDEN
 62
     7
370
    25
100
AcDbLine
 10
148.8820969637
 20
57.7181947749
 30
0.0
 11
148.8820969637
 21
57.9181947749
 31
0.0
  0
LINE
  5
1C8
330
1F
100
AcDbEntity
  8
0
  6
HIDDEN
 62
     7
370
    25
100
AcDbLine
 10
150.4377040345
 20
57.7181947749
 30
0.0
 11
150.4377040345
 21
57.9181947749
 31
0.0
  0
LINE
  5
1C9
330
1F
100
AcDbEntity
  8
0
  6
HIDDEN
 62
     7
370
    25
100
AcDbLine
 10
86.1632852741
 20
57.8181947749
 30
0.0
 11
89.1632852741
 21
57.8181947749
 31
0.0
  0
LINE
  5
1CA
330
1F
100
AcDbEntity
  8
0
  6
HIDDEN
 62
     7
370
    25
100
AcDbLine
 10
89.1632852741
 20
57.5181947749
 30
0.0
 11
86.1632852741
 21
57.5181947749
 31
0.0
  0
LINE
  5
1CB
330
1F
100
AcDbEntity
  8
0
  6
HIDDEN
 62
     7
370
    25
100
AcDbLine
 10
86.7132852741
 20
57.4181947749
 30
0.0
 11
88.6132852741
 21
57.4181947749
 31
0.0
  0
LINE
  5
1CC
330
1F
100
AcDbEntity
  8
0
  6
HIDDEN
 62
     7
370
    25
100
AcDbLine
 10
87.875413511
 20
57.9181947749
 30
0.0
 11
87.875413511
 21
57.7181947749
 31
0.0
  0
LINE
  5
1CD
330
1F
100
AcDbEntity
  8
0
  6
HIDDEN
 62
     7
370
    25
100
AcDbLine
 10
87.4498724652
 20
57.7181947749
 30
0.0
 11
86.8820969637
 21
57.7181947749
 31
0.0
  0
LINE
  5
1CE
330
1F
100
AcDbEntity
  8
0
  6
HIDDEN
 62
     7
370
    25
100
AcDbLine
 10
87.8766980829
 20
57.7181947749
 30
0.0
 11
88.4377040345
 21
57.7181947749
 31
0.0
  0
LINE
  5
1CF
330
1F
100
AcDbEntity
  8
0
  6
HIDDEN
 62
     7
370
    25
100
AcDbLine
 10
88.224306507
 20
57.7181947749
 30
0.0
 11
88.224306507
 21
57.9181947749
 31
0.0
  0
LINE
  5
1D0
330
1F
100
AcDbEntity
  8
0
  6
HIDDEN
 62
     7
370
    25
100
AcDbLine
 10
87.6620159835
 20
57.9181947749
 30
0.0
 11
87.6620159835
 21
57.7181947749
 31
0.0
  0
LINE
  5
1D1
330
1F
100
AcDbEntity
  8
0
  6
HIDDEN
 62
     7
370
    25
100
AcDbLine
 10
87.09295591
 20
57.7181947749
 30
0.0
 11
87.09295591
 21
57.9181947749
 31
0.0
  0
LINE
  5
1D2
330
1F
100
AcDbEntity
  8
0
  6
HIDDEN
 62
     7
370
    25
100
AcDbLine
 10
86.8820969637
 20
57.7181947749
 30
0.0
 11
86.8820969637
 21
57.9181947749
 31
0.0
  0
LINE
  5
1D3
330
1F
100
AcDbEntity
  8
0
  6
HIDDEN
 62
     7
370
    25
100
AcDbLine
 10
88.4377040345
 20
57.7181947749
 30
0.0
 11
88.4377040345
 21
57.9181947749
 31
0.0
  0
LINE
  5
1D4
330
1F
100
AcDbEntity
  8
0
  6
HIDDEN
 62
     7
370
    25
100
AcDbLine
 10
150.6132852741
 20
56.0181947749
 30
0.0
 11
148.7132852741
 21
56.0181947749
 31
0.0
  0
LINE
  5
1D5
330
1F
100
AcDbEntity
  8
0
  6
HIDDEN
 62
     7
370
    25
100
AcDbLine
 10
144.1779869184
 20
56.0181947749
 30
0.0
 11
144.1779869184
 21
56.4181947749
 31
0.0
  0
LINE
  5
1D6
330
1F
100
AcDbEntity
  8
0
  6
HIDDEN
 62
     7
370
    25
100
AcDbLine
 10
143.1466000476
 20
56.4181947749
 30
0.0
 11
143.1466000476
 21
56.0181947749
 31
0.0
  0
LINE
  5
1D7
330
1F
100
AcDbEntity
  8
0
  6
HIDDEN
 62
     7
370
    25
100
AcDbLine
 10
88.6132852741
 20
56.0181947749
 30
0.0
 11
86.7132852741
 21
56.0181947749
 31
0.0
  0
LINE
  5
1D8
330
1F
100
AcDbEntity
  8
0
  6
HIDDEN
 62
     7
370
    25
100
AcDbLine
 10
108.5132852741
 20
82.5715884361
 30
0.0
 11
108.6632852741
 21
82.5715884361
 31
0.0
  0
LINE
  5
1D9
330
1F
100
AcDbEntity
  8
0
  6
HIDDEN
 62
     7
370
    25
100
AcDbLine
 10
128.6632852741
 20
82.5715884361
 30
0.0
 11
128.8132852741
 21
82.5715884361
 31
0.0
  0
LINE
  5
1DA
330
1F
100
AcDbEntity
  8
0
  6
HIDDEN
 62
     7
370
    25
100
AcDbLine
 10
128.6632852741
 20
86.5715884361
 30
0.0
 11
108.6632852741
 21
86.5715884361
 31
0.0
  0
LINE
  5
1DB
330
1F
100
AcDbEntity
  8
0
  6
HIDDEN
 62
     7
370
    25
100
AcDbLine
 10
108.6632852741
 20
83.5715884361
 30
0.0
 11
128.6632852741
 21
83.5715884361
 31
0.0
  0
LINE
  5
1DC
330
1F
100
AcDbEntity
  8
0
  6
HIDDEN
 62
     7
370
    25
100
AcDbLine
 10
134.6696232988
 20
79.4577182733
 30
0.0
 11
134.7535022344
 21
79.3333626375
 31
0.0
  0
LINE
  5
1DD
330
1F
100
AcDbEntity
  8
0
  6
HIDDEN
 62
     7
370
    25
100
AcDbLine
 10
145.9373603038
 20
62.7526111864
 30
0.0
 11
146.0212392393
 21
62.6282555505
 31
0.0
  0
LINE
  5
1DE
330
1F
100
AcDbEntity
  8
0
  6
HIDDEN
 62
     7
370
    25
100
AcDbLine
 10
149.253510594
 20
64.9893828002
 30
0.0
 11
138.0696525246
 21
81.5701342513
 31
0.0
  0
LINE
  5
1DF
330
1F
100
AcDbEntity
  8
0
  6
HIDDEN
 62
     7
370
    25
100
AcDbLine
 10
135.5825398069
 20
79.8925555409
 30
0.0
 11
146.7663978763
 21
63.3118040898
 31
0.0
  0
LINE
  5
1E0
330
1F
100
AcDbEntity
  8
0
  6
HIDDEN
 62
     7
370
    25
100
AcDbLine
 10
88.4632852741
 20
53.9181947749
 30
0.0
 11
86.8632852741
 21
53.9181947749
 31
0.0
  0
LINE
  5
1E1
330
1F
100
AcDbEntity
  8
0
  6
HIDDEN
 62
     7
370
    25
100
AcDbLine
 10
146.5844242193
 20
53.9181947749
 30
0.0
 11
90.7421463288
 21
53.9181947749
 31
0.0
  0
LINE
  5
1E2
330
1F
100
AcDbEntity
  8
0
  6
HIDDEN
 62
     7
370
    25
100
AcDbLine
 10
146.430892301
 20
52.4181947749
 30
0.0
 11
90.8956782472
 21
52.4181947749
 31
0.0
  0
LINE
  5
1E3
330
1F
100
AcDbEntity
  8
0
  6
HIDDEN
 62
     7
370
    25
100
AcDbLine
 10
150.4632852741
 20
53.9181947749
 30
0.0
 11
148.8632852741
 21
53.9181947749
 31
0.0
  0
LINE
  5
1E4
330
1F
100
AcDbEntity
  8
0
  6
HIDDEN
 62
     7
370
    25
100
AcDbLine
 10
90.703492714
 20
54.5181947749
 30
0.0
 11
146.6230778341
 21
54.5181947749
 31
0.0
  0
LINE
  5
1E5
330
1F
100
AcDbEntity
  8
0
  6
HIDDEN
 62
     7
370
    25
100
AcDbLine
 10
86.7132852741
 20
54.5181947749
 30
0.0
 11
88.6132852741
 21
54.5181947749
 31
0.0
  0
LINE
  5
1E6
330
1F
100
AcDbEntity
  8
0
  6
HIDDEN
 62
     7
370
    25
100
AcDbLine
 10
148.7132852741
 20
54.5181947749
 30
0.0
 11
150.6132852741
 21
54.5181947749
 31
0.0
  0
LINE
  5
1E7
330
1F
100
AcDbEntity
  8
0
  6
HIDDEN
 62
     7
370
    25
100
AcDbLine
 10
145.9373603038
 20
62.7526111864
 30
0.0
 11
134.7535022344
 21
79.3333626375
 31
0.0
  0
LINE
  5
1E8
330
1F
100
AcDbEntity
  8
0
  6
HIDDEN
 62
     7
370
    25
100
AcDbLine
 10
108.6632852741
 20
82.5715884361
 30
0.0
 11
128.6632852741
 21
82.5715884361
 31
0.0
  0
LINE
  5
1E9
330
1F
100
AcDbEntity
  8
0
  6
HIDDEN
 62
     7
370
    25
100
AcDbLine
 10
146.6230778341
 20
57.9181947749
 30
0.0
 11
90.703492714
 21
57.9181947749
 31
0.0
  0
LINE
  5
1EA
330
1F
100
AcDbEntity
  8
0
  6
HIDDEN
 62
     7
370
    25
100
AcDbLine
 10
120.154476636
 20
57.8181947749
 30
0.0
 11
117.1638801521
 21
57.8181947749
 31
0.0
  0
LINE
  5
1EB
330
1F
100
AcDbEntity
  8
0
  6
HIDDEN
 62
     7
370
    25
100
AcDbLine
 10
117.1638801521
 20
57.5181947749
 30
0.0
 11
120.154476636
 21
57.5181947749
 31
0.0
  0
LINE
  5
1EC
330
1F
100
AcDbEntity
  8
0
  6
HIDDEN
 62
     7
370
    25
100
AcDbLine
 10
117.679276858
 20
57.4181947749
 30
0.0
 11
117.2632852741
 21
57.4181947749
 31
0.0
  0
LINE
  5
1ED
330
1F
100
AcDbEntity
  8
0
  6
HIDDEN
 62
     7
370
    25
100
AcDbLine
 10
120.0632852741
 20
57.4181947749
 30
0.0
 11
117.679276858
 21
57.4181947749
 31
0.0
  0
LINE
  5
1EE
330
1F
100
AcDbEntity
  8
0
  6
HIDDEN
 62
     7
370
    25
100
AcDbLine
 10
117.8888665137
 20
57.7181947749
 30
0.0
 11
118.1022640412
 21
57.7181947749
 31
0.0
  0
LINE
  5
1EF
330
1F
100
AcDbEntity
  8
0
  6
HIDDEN
 62
     7
370
    25
100
AcDbLine
 10
118.1022640412
 20
57.7181947749
 30
0.0
 11
118.1022640412
 21
57.9181947749
 31
0.0
  0
LINE
  5
1F0
330
1F
100
AcDbEntity
  8
0
  6
HIDDEN
 62
     7
370
    25
100
AcDbLine
 10
118.1022640412
 20
57.7181947749
 30
0.0
 11
118.6645545647
 21
57.7181947749
 31
0.0
  0
LINE
  5
1F1
330
1F
100
AcDbEntity
  8
0
  6
HIDDEN
 62
     7
370
    25
100
AcDbLine
 10
118.6645545647
 20
57.9181947749
 30
0.0
 11
118.6645545647
 21
57.7181947749
 31
0.0
  0
LINE
  5
1F2
330
1F
100
AcDbEntity
  8
0
  6
HIDDEN
 62
     7
370
    25
100
AcDbLine
 10
118.6645545647
 20
57.7181947749
 30
0.0
 11
119.2336146381
 21
57.7181947749
 31
0.0
  0
LINE
  5
1F3
330
1F
100
AcDbEntity
  8
0
  6
HIDDEN
 62
     7
370
    25
100
AcDbLine
 10
119.2336146381
 20
57.7181947749
 30
0.0
 11
119.2336146381
 21
57.9181947749
 31
0.0
  0
LINE
  5
1F4
330
1F
100
AcDbEntity
  8
0
  6
HIDDEN
 62
     7
370
    25
100
AcDbLine
 10
119.2336146381
 20
57.7181947749
 30
0.0
 11
119.4444735844
 21
57.7181947749
 31
0.0
  0
LINE
  5
1F5
330
1F
100
AcDbEntity
  8
0
  6
HIDDEN
 62
     7
370
    25
100
AcDbLine
 10
118.4511570371
 20
57.9181947749
 30
0.0
 11
118.4511570371
 21
57.7181947749
 31
0.0
  0
LINE
  5
1F6
330
1F
100
AcDbEntity
  8
0
  6
HIDDEN
 62
     7
370
    25
100
AcDbLine
 10
117.8888665137
 20
57.7181947749
 30
0.0
 11
117.8888665137
 21
57.9181947749
 31
0.0
  0
LINE
  5
1F7
330
1F
100
AcDbEntity
  8
0
  6
HIDDEN
 62
     7
370
    25
100
AcDbLine
 10
118.875413511
 20
57.9181947749
 30
0.0
 11
118.875413511
 21
57.7181947749
 31
0.0
  0
LINE
  5
1F8
330
1F
100
AcDbEntity
  8
0
  6
HIDDEN
 62
     7
370
    25
100
AcDbLine
 10
119.4444735844
 20
57.7181947749
 30
0.0
 11
119.4444735844
 21
57.9181947749
 31
0.0
  0
LINE
  5
1F9
330
1F
100
AcDbEntity
  8
0
  6
HIDDEN
 62
     7
370
    25
100
AcDbLine
 10
117.8820969637
 20
57.7181947749
 30
0.0
 11
117.8888665137
 21
57.7181947749
 31
0.0
  0
LINE
  5
1FA
330
1F
100
AcDbEntity
  8
0
  6
HIDDEN
 62
     7
370
    25
100
AcDbLine
 10
119.224306507
 20
57.7181947749
 30
0.0
 11
119.224306507
 21
57.9181947749
 31
0.0
  0
LINE
  5
1FB
330
1F
100
AcDbEntity
  8
0
  6
HIDDEN
 62
     7
370
    25
100
AcDbLine
 10
118.6620159835
 20
57.9181947749
 30
0.0
 11
118.6620159835
 21
57.7181947749
 31
0.0
  0
LINE
  5
1FC
330
1F
100
AcDbEntity
  8
0
  6
HIDDEN
 62
     7
370
    25
100
AcDbLine
 10
118.09295591
 20
57.7181947749
 30
0.0
 11
118.09295591
 21
57.9181947749
 31
0.0
  0
LINE
  5
1FD
330
1F
100
AcDbEntity
  8
0
  6
HIDDEN
 62
     7
370
    25
100
AcDbLine
 10
117.8820969637
 20
57.7181947749
 30
0.0
 11
117.8820969637
 21
57.9181947749
 31
0.0
  0
LINE
  5
1FE
330
1F
100
AcDbEntity
  8
0
  6
HIDDEN
 62
     7
370
    25
100
AcDbLine
 10
119.4377040345
 20
57.7181947749
 30
0.0
 11
119.4377040345
 21
57.9181947749
 31
0.0
  0
LINE
  5
1FF
330
1F
100
AcDbEntity
  8
0
  6
HIDDEN
 62
     7
370
    25
100
AcDbLine
 10
141.9835954909
 20
57.4181947749
 30
0.0
 11
139.1836205526
 21
57.4181947749
 31
0.0
  0
LINE
  5
200
330
1F
100
AcDbEntity
  8
0
  6
HIDDEN
 62
     7
370
    25
100
AcDbLine
 10
139.0836223427
 20
57.5181947749
 30
0.0
 11
142.0708199365
 21
57.5181947749
 31
0.0
  0
LINE
  5
201
330
1F
100
AcDbEntity
  8
0
  6
HIDDEN
 62
     7
370
    25
100
AcDbLine
 10
139.0836223427
 20
57.8181947749
 30
0.0
 11
142.0708199365
 21
57.8181947749
 31
0.0
  0
LINE
  5
202
330
1F
100
AcDbEntity
  8
0
  6
HIDDEN
 62
     7
370
    25
100
AcDbLine
 10
140.4344957
 20
57.7181947749
 30
0.0
 11
140.4392824947
 21
57.7181947749
 31
0.0
  0
LINE
  5
203
330
1F
100
AcDbEntity
  8
0
  6
HIDDEN
 62
     7
370
    25
100
AcDbLine
 10
140.4392824947
 20
57.7181947749
 30
0.0
 11
140.4392824947
 21
57.9181947749
 31
0.0
  0
LINE
  5
204
330
1F
100
AcDbEntity
  8
0
  6
HIDDEN
 62
     7
370
    25
100
AcDbLine
 10
140.4392824947
 20
57.7181947749
 30
0.0
 11
140.7392771243
 21
57.7181947749
 31
0.0
  0
LINE
  5
205
330
1F
100
AcDbEntity
  8
0
  6
HIDDEN
 62
     7
370
    25
100
AcDbLine
 10
140.7344903297
 20
57.9181947749
 30
0.0
 11
140.7344903297
 21
57.7181947749
 31
0.0
  0
LINE
  5
206
330
1F
100
AcDbEntity
  8
0
  6
HIDDEN
 62
     7
370
    25
100
AcDbLine
 10
140.7392771243
 20
57.7181947749
 30
0.0
 11
140.7392771243
 21
57.9181947749
 31
0.0
  0
LINE
  5
207
330
1F
100
AcDbEntity
  8
0
  6
HIDDEN
 62
     7
370
    25
100
AcDbLine
 10
139.632714973
 20
57.7181947749
 30
0.0
 11
139.6345100211
 21
57.7181947749
 31
0.0
  0
LINE
  5
208
330
1F
100
AcDbEntity
  8
0
  6
HIDDEN
 62
     7
370
    25
100
AcDbLine
 10
139.6345100211
 20
57.7181947749
 30
0.0
 11
139.6345100211
 21
57.9181947749
 31
0.0
  0
LINE
  5
209
330
1F
100
AcDbEntity
  8
0
  6
HIDDEN
 62
     7
370
    25
100
AcDbLine
 10
140.4344957
 20
57.9181947749
 30
0.0
 11
140.4344957
 21
57.7181947749
 31
0.0
  0
LINE
  5
20A
330
1F
100
AcDbEntity
  8
0
  6
HIDDEN
 62
     7
370
    25
100
AcDbLine
 10
139.6345100211
 20
57.7181947749
 30
0.0
 11
140.4344957
 21
57.7181947749
 31
0.0
  0
LINE
  5
20B
330
1F
100
AcDbEntity
  8
0
  6
HIDDEN
 62
     7
370
    25
100
AcDbLine
 10
140.7392771243
 20
57.7181947749
 30
0.0
 11
141.5344760087
 21
57.7181947749
 31
0.0
  0
LINE
  5
20C
330
1F
100
AcDbEntity
  8
0
  6
HIDDEN
 62
     7
370
    25
100
AcDbLine
 10
141.5326809607
 20
57.7181947749
 30
0.0
 11
141.5326809607
 21
57.9181947749
 31
0.0
  0
LINE
  5
20D
330
1F
100
AcDbEntity
  8
0
  6
HIDDEN
 62
     7
370
    25
100
AcDbLine
 10
141.5344760087
 20
57.7181947749
 30
0.0
 11
141.5344760087
 21
57.9181947749
 31
0.0
  0
LINE
  5
20E
330
1F
100
AcDbEntity
  8
0
  6
HIDDEN
 62
     7
370
    25
100
AcDbLine
 10
140.432700652
 20
57.9181947749
 30
0.0
 11
140.432700652
 21
57.7181947749
 31
0.0
  0
LINE
  5
20F
330
1F
100
AcDbEntity
  8
0
  6
HIDDEN
 62
     7
370
    25
100
AcDbLine
 10
139.632714973
 20
57.7181947749
 30
0.0
 11
139.632714973
 21
57.9181947749
 31
0.0
  0
LINE
  5
210
330
1F
100
AcDbEntity
  8
0
  6
HIDDEN
 62
     7
370
    25
100
AcDbLine
 10
140.7326952817
 20
57.9181947749
 30
0.0
 11
140.7326952817
 21
57.7181947749
 31
0.0
  0
LINE
  5
211
330
1F
100
AcDbEntity
  8
0
  6
HIDDEN
 62
     7
370
    25
100
AcDbLine
 10
140.727908487
 20
57.7181947749
 30
0.0
 11
140.727908487
 21
57.9181947749
 31
0.0
  0
LINE
  5
212
330
1F
100
AcDbEntity
  8
0
  6
HIDDEN
 62
     7
370
    25
100
AcDbLine
 10
140.4279138574
 20
57.7181947749
 30
0.0
 11
140.4279138574
 21
57.9181947749
 31
0.0
  0
LINE
  5
213
330
1F
100
AcDbEntity
  8
0
  6
HIDDEN
 62
     7
370
    25
100
AcDbLine
 10
98.2388389298
 20
57.8181947749
 30
0.0
 11
95.2458862008
 21
57.8181947749
 31
0.0
  0
LINE
  5
214
330
1F
100
AcDbEntity
  8
0
  6
HIDDEN
 62
     7
370
    25
100
AcDbLine
 10
95.2458862008
 20
57.5181947749
 30
0.0
 11
98.2388389298
 21
57.5181947749
 31
0.0
  0
LINE
  5
215
330
1F
100
AcDbEntity
  8
0
  6
HIDDEN
 62
     7
370
    25
100
AcDbLine
 10
96.751351948
 20
57.4181947749
 30
0.0
 11
95.3429750573
 21
57.4181947749
 31
0.0
  0
LINE
  5
216
330
1F
100
AcDbEntity
  8
0
  6
HIDDEN
 62
     7
370
    25
100
AcDbLine
 10
98.1429750573
 20
57.4181947749
 30
0.0
 11
96.751351948
 21
57.4181947749
 31
0.0
  0
LINE
  5
217
330
1F
100
AcDbEntity
  8
0
  6
HIDDEN
 62
     7
370
    25
100
AcDbLine
 10
96.5986620612
 20
57.7181947749
 30
0.0
 11
96.5938752665
 21
57.7181947749
 31
0.0
  0
LINE
  5
218
330
1F
100
AcDbEntity
  8
0
  6
HIDDEN
 62
     7
370
    25
100
AcDbLine
 10
96.5986620612
 20
57.7181947749
 30
0.0
 11
96.5986620612
 21
57.9181947749
 31
0.0
  0
LINE
  5
219
330
1F
100
AcDbEntity
  8
0
  6
HIDDEN
 62
     7
370
    25
100
AcDbLine
 10
96.5986620612
 20
57.7181947749
 30
0.0
 11
96.8986566908
 21
57.7181947749
 31
0.0
  0
LINE
  5
21A
330
1F
100
AcDbEntity
  8
0
  6
HIDDEN
 62
     7
370
    25
100
AcDbLine
 10
96.8938698961
 20
57.9181947749
 30
0.0
 11
96.8938698961
 21
57.7181947749
 31
0.0
  0
LINE
  5
21B
330
1F
100
AcDbEntity
  8
0
  6
HIDDEN
 62
     7
370
    25
100
AcDbLine
 10
96.8986566908
 20
57.7181947749
 30
0.0
 11
96.8986566908
 21
57.9181947749
 31
0.0
  0
LINE
  5
21C
330
1F
100
AcDbEntity
  8
0
  6
HIDDEN
 62
     7
370
    25
100
AcDbLine
 10
96.5938752665
 20
57.9181947749
 30
0.0
 11
96.5938752665
 21
57.7181947749
 31
0.0
  0
LINE
  5
21D
330
1F
100
AcDbEntity
  8
0
  6
HIDDEN
 62
     7
370
    25
100
AcDbLine
 10
95.7938895875
 20
57.7181947749
 30
0.0
 11
96.5938752665
 21
57.7181947749
 31
0.0
  0
LINE
  5
21E
330
1F
100
AcDbEntity
  8
0
  6
HIDDEN
 62
     7
370
    25
100
AcDbLine
 10
95.7938895875
 20
57.7181947749
 30
0.0
 11
95.7938895875
 21
57.9181947749
 31
0.0
  0
LINE
  5
21F
330
1F
100
AcDbEntity
  8
0
  6
HIDDEN
 62
     7
370
    25
100
AcDbLine
 10
95.7938895875
 20
57.7181947749
 30
0.0
 11
95.7920945395
 21
57.7181947749
 31
0.0
  0
LINE
  5
220
330
1F
100
AcDbEntity
  8
0
  6
HIDDEN
 62
     7
370
    25
100
AcDbLine
 10
96.8986566908
 20
57.7181947749
 30
0.0
 11
97.6938555751
 21
57.7181947749
 31
0.0
  0
LINE
  5
221
330
1F
100
AcDbEntity
  8
0
  6
HIDDEN
 62
     7
370
    25
100
AcDbLine
 10
97.6920605271
 20
57.7181947749
 30
0.0
 11
97.6920605271
 21
57.9181947749
 31
0.0
  0
LINE
  5
222
330
1F
100
AcDbEntity
  8
0
  6
HIDDEN
 62
     7
370
    25
100
AcDbLine
 10
97.6938555751
 20
57.7181947749
 30
0.0
 11
97.6938555751
 21
57.9181947749
 31
0.0
  0
LINE
  5
223
330
1F
100
AcDbEntity
  8
0
  6
HIDDEN
 62
     7
370
    25
100
AcDbLine
 10
96.5920802185
 20
57.9181947749
 30
0.0
 11
96.5920802185
 21
57.7181947749
 31
0.0
  0
LINE
  5
224
330
1F
100
AcDbEntity
  8
0
  6
HIDDEN
 62
     7
370
    25
100
AcDbLine
 10
95.7920945395
 20
57.7181947749
 30
0.0
 11
95.7920945395
 21
57.9181947749
 31
0.0
  0
LINE
  5
225
330
1F
100
AcDbEntity
  8
0
  6
HIDDEN
 62
     7
370
    25
100
AcDbLine
 10
96.8920748481
 20
57.9181947749
 30
0.0
 11
96.8920748481
 21
57.7181947749
 31
0.0
  0
LINE
  5
226
330
1F
100
AcDbEntity
  8
0
  6
HIDDEN
 62
     7
370
    25
100
AcDbLine
 10
96.8872880534
 20
57.7181947749
 30
0.0
 11
96.8872880534
 21
57.9181947749
 31
0.0
  0
LINE
  5
227
330
1F
100
AcDbEntity
  8
0
  6
HIDDEN
 62
     7
370
    25
100
AcDbLine
 10
96.5872934238
 20
57.7181947749
 30
0.0
 11
96.5872934238
 21
57.9181947749
 31
0.0
  0
LINE
  5
228
330
1F
100
AcDbEntity
  8
0
  6
HIDDEN
 62
     7
370
    25
100
AcDbLine
 10
139.3335954909
 20
56.4181947749
 30
0.0
 11
139.3335954909
 21
56.0181947749
 31
0.0
  0
LINE
  5
229
330
1F
100
AcDbEntity
  8
0
  6
HIDDEN
 62
     7
370
    25
100
AcDbLine
 10
141.8335954909
 20
56.0181947749
 30
0.0
 11
141.8335954909
 21
56.4181947749
 31
0.0
  0
LINE
  5
22A
330
1F
100
AcDbEntity
  8
0
  6
HIDDEN
 62
     7
370
    25
100
AcDbLine
 10
95.4929750573
 20
56.4181947749
 30
0.0
 11
95.4929750573
 21
56.0181947749
 31
0.0
  0
LINE
  5
22B
330
1F
100
AcDbEntity
  8
0
  6
HIDDEN
 62
     7
370
    25
100
AcDbLine
 10
97.9929750573
 20
56.0181947749
 30
0.0
 11
97.9929750573
 21
56.4181947749
 31
0.0
  0
LINE
  5
22C
330
1F
100
AcDbEntity
  8
0
  6
HIDDEN
 62
     7
370
    25
100
AcDbLine
 10
117.4132852741
 20
56.4181947749
 30
0.0
 11
117.4132852741
 21
56.0181947749
 31
0.0
  0
LINE
  5
22D
330
1F
100
AcDbEntity
  8
0
  6
HIDDEN
 62
     7
370
    25
100
AcDbLine
 10
119.9132852741
 20
56.0181947749
 30
0.0
 11
119.9132852741
 21
56.4181947749
 31
0.0
  0
LINE
  5
22E
330
1F
100
AcDbEntity
  8
0
  6
HIDDEN
 62
     7
370
    25
100
AcDbLine
 10
139.7835954909
 20
53.9181947749
 30
0.0
 11
139.7835954909
 21
52.4181947749
 31
0.0
  0
LINE
  5
22F
330
1F
100
AcDbEntity
  8
0
  6
HIDDEN
 62
     7
370
    25
100
AcDbLine
 10
141.3835954909
 20
52.4181947749
 30
0.0
 11
141.3835954909
 21
53.9181947749
 31
0.0
  0
LINE
  5
230
330
1F
100
AcDbEntity
  8
0
  6
HIDDEN
 62
     7
370
    25
100
AcDbLine
 10
95.9429750573
 20
53.9181947749
 30
0.0
 11
95.9429750573
 21
52.4181947749
 31
0.0
  0
LINE
  5
231
330
1F
100
AcDbEntity
  8
0
  6
HIDDEN
 62
     7
370
    25
100
AcDbLine
 10
97.5429750573
 20
52.4181947749
 30
0.0
 11
97.5429750573
 21
53.9181947749
 31
0.0
  0
LINE
  5
232
330
1F
100
AcDbEntity
  8
0
  6
HIDDEN
 62
     7
370
    25
100
AcDbLine
 10
117.8632852741
 20
53.9181947749
 30
0.0
 11
117.8632852741
 21
52.4181947749
 31
0.0
  0
LINE
  5
233
330
1F
100
AcDbEntity
  8
0
  6
HIDDEN
 62
     7
370
    25
100
AcDbLine
 10
119.4632852741
 20
52.4181947749
 30
0.0
 11
119.4632852741
 21
53.9181947749
 31
0.0
  0
LINE
  5
234
330
1F
100
AcDbEntity
  8
0
  6
HIDDEN
 62
     7
370
    25
100
AcDbLine
 10
141.8335954909
 20
54.5181947749
 30
0.0
 11
141.8335954909
 21
56.0181947749
 31
0.0
  0
LINE
  5
235
330
1F
100
AcDbEntity
  8
0
  6
HIDDEN
 62
     7
370
    25
100
AcDbLine
 10
139.3335954909
 20
56.0181947749
 30
0.0
 11
139.3335954909
 21
54.5181947749
 31
0.0
  0
LINE
  5
236
330
1F
100
AcDbEntity
  8
0
  6
HIDDEN
 62
     7
370
    25
100
AcDbLine
 10
97.9929750573
 20
54.5181947749
 30
0.0
 11
97.9929750573
 21
56.0181947749
 31
0.0
  0
LINE
  5
237
330
1F
100
AcDbEntity
  8
0
  6
HIDDEN
 62
     7
370
    25
100
AcDbLine
 10
95.4929750573
 20
56.0181947749
 30
0.0
 11
95.4929750573
 21
54.5181947749
 31
0.0
  0
LINE
  5
238
330
1F
100
AcDbEntity
  8
0
  6
HIDDEN
 62
     7
370
    25
100
AcDbLine
 10
119.9132852741
 20
54.5181947749
 30
0.0
 11
119.9132852741
 21
56.0181947749
 31
0.0
  0
LINE
  5
239
330
1F
100
AcDbEntity
  8
0
  6
HIDDEN
 62
     7
370
    25
100
AcDbLine
 10
117.4132852741
 20
56.0181947749
 30
0.0
 11
117.4132852741
 21
54.5181947749
 31
0.0
  0
LINE
  5
23A
330
1F
100
AcDbEntity
  8
0
  6
HIDDEN
 62
     7
370
    25
100
AcDbLine
 10
117.1632852741
 20
57.8181947749
 30
0.0
 11
117.1632852741
 21
57.5181947749
 31
0.0
  0
LINE
  5
23B
330
1F
100
AcDbEntity
  8
0
  6
HIDDEN
 62
     7
370
    25
100
AcDbLine
 10
120.1632852741
 20
57.5181947749
 30
0.0
 11
120.1632852741
 21
57.8181947749
 31
0.0
  0
ARC
  5
23C
330
1F
100
AcDbEntity
  8
0
  6
HIDDEN
 62
     7
370
    25
100
AcDbCircle
 10
120.0632852741
 20
57.8181947749
 30
0.0
 40
0.1000000000000085
100
AcDbArc
 50
0.0
 51
90.0
  0
ARC
  5
23D
330
1F
100
AcDbEntity
  8
0
  6
HIDDEN
 62
     7
370
    25
100
AcDbCircle
 10
117.2632852741
 20
57.8181947749
 30
0.0
 40
0.1000000000000014
100
AcDbArc
 50
90.0
 51
180.0
  0
ARC
  5
23E
330
1F
100
AcDbEntity
  8
0
  6
HIDDEN
 62
     7
370
    25
100
AcDbCircle
 10
120.0632852741
 20
57.5181947749
 30
0.0
 40
0.1000000000000085
100
AcDbArc
 50
270.0
 51
0.0
  0
ARC
  5
23F
330
1F
100
AcDbEntity
  8
0
  6
HIDDEN
 62
     7
370
    25
100
AcDbCircle
 10
117.2632852741
 20
57.5181947749
 30
0.0
 40
0.1000000000000014
100
AcDbArc
 50
180.0
 51
270.0
  0
LINE
  5
240
330
1F
100
AcDbEntity
  8
0
  6
HIDDEN
 62
     7
370
    25
100
AcDbLine
 10
117.7132852741
 20
57.4181947749
 30
0.0
 11
117.7132852741
 21
52.4181947749
 31
0.0
  0
LINE
  5
241
330
1F
100
AcDbEntity
  8
0
  6
HIDDEN
 62
     7
370
    25
100
AcDbLine
 10
119.6132852741
 20
52.4181947749
 30
0.0
 11
119.6132852741
 21
57.4181947749
 31
0.0
  0
ARC
  5
242
330
1F
100
AcDbEntity
  8
0
  6
HIDDEN
 62
     7
370
    25
100
AcDbCircle
 10
141.9835954909
 20
57.5181947749
 30
0.0
 40
0.0999999999999943
100
AcDbArc
 50
270.0
 51
0.0
  0
ARC
  5
243
330
1F
100
AcDbEntity
  8
0
  6
HIDDEN
 62
     7
370
    25
100
AcDbCircle
 10
139.1835954909
 20
57.5181947749
 30
0.0
 40
0.1000000000000014
100
AcDbArc
 50
180.0
 51
270.0
  0
LINE
  5
244
330
1F
100
AcDbEntity
  8
0
  6
HIDDEN
 62
     7
370
    25
100
AcDbLine
 10
139.0835954909
 20
57.8181947749
 30
0.0
 11
139.0835954909
 21
57.5181947749
 31
0.0
  0
LINE
  5
245
330
1F
100
AcDbEntity
  8
0
  6
HIDDEN
 62
     7
370
    25
100
AcDbLine
 10
142.0835954909
 20
57.5181947749
 30
0.0
 11
142.0835954909
 21
57.8181947749
 31
0.0
  0
ARC
  5
246
330
1F
100
AcDbEntity
  8
0
  6
HIDDEN
 62
     7
370
    25
100
AcDbCircle
 10
141.9835954909
 20
57.8181947749
 30
0.0
 40
0.0999999999999943
100
AcDbArc
 50
0.0
 51
90.0
  0
ARC
  5
247
330
1F
100
AcDbEntity
  8
0
  6
HIDDEN
 62
     7
370
    25
100
AcDbCircle
 10
139.1835954909
 20
57.8181947749
 30
0.0
 40
0.1000000000000227
100
AcDbArc
 50
90.0
 51
180.0
  0
LINE
  5
248
330
1F
100
AcDbEntity
  8
0
  6
HIDDEN
 62
     7
370
    25
100
AcDbLine
 10
139.6335954909
 20
57.4181947749
 30
0.0
 11
139.6335954909
 21
52.4181947749
 31
0.0
  0
LINE
  5
249
330
1F
100
AcDbEntity
  8
0
  6
HIDDEN
 62
     7
370
    25
100
AcDbLine
 10
141.5335954909
 20
52.4181947749
 30
0.0
 11
141.5335954909
 21
57.4181947749
 31
0.0
  0
ARC
  5
24A
330
1F
100
AcDbEntity
  8
0
  6
HIDDEN
 62
     7
370
    25
100
AcDbCircle
 10
98.1429750573
 20
57.8181947749
 30
0.0
 40
0.1000000000000014
100
AcDbArc
 50
0.0
 51
90.0
  0
ARC
  5
24B
330
1F
100
AcDbEntity
  8
0
  6
HIDDEN
 62
     7
370
    25
100
AcDbCircle
 10
95.3429750573
 20
57.8181947749
 30
0.0
 40
0.1000000000000014
100
AcDbArc
 50
90.0
 51
180.0
  0
LINE
  5
24C
330
1F
100
AcDbEntity
  8
0
  6
HIDDEN
 62
     7
370
    25
100
AcDbLine
 10
95.2429750573
 20
57.8181947749
 30
0.0
 11
95.2429750573
 21
57.5181947749
 31
0.0
  0
LINE
  5
24D
330
1F
100
AcDbEntity
  8
0
  6
HIDDEN
 62
     7
370
    25
100
AcDbLine
 10
98.2429750573
 20
57.5181947749
 30
0.0
 11
98.2429750573
 21
57.8181947749
 31
0.0
  0
ARC
  5
24E
330
1F
100
AcDbEntity
  8
0
  6
HIDDEN
 62
     7
370
    25
100
AcDbCircle
 10
98.1429750573
 20
57.5181947749
 30
0.0
 40
0.1000000000000014
100
AcDbArc
 50
270.0
 51
0.0
  0
ARC
  5
24F
330
1F
100
AcDbEntity
  8
0
  6
HIDDEN
 62
     7
370
    25
100
AcDbCircle
 10
95.3429750573
 20
57.5181947749
 30
0.0
 40
0.1000000000000085
100
AcDbArc
 50
180.0
 51
270.0
  0
LINE
  5
250
330
1F
100
AcDbEntity
  8
0
  6
HIDDEN
 62
     7
370
    25
100
AcDbLine
 10
95.7929750573
 20
57.4181947749
 30
0.0
 11
95.7929750573
 21
52.4181947749
 31
0.0
  0
LINE
  5
251
330
1F
100
AcDbEntity
  8
0
  6
HIDDEN
 62
     7
370
    25
100
AcDbLine
 10
97.6929750573
 20
52.4181947749
 30
0.0
 11
97.6929750573
 21
57.4181947749
 31
0.0
  0
HATCH
  5
252
330
1F
100
AcDbEntity
  8
DIM
  6
Continuous
370
    18
100
AcDbHatch
 10
0.0
 20
0.0
 30
0.0
210
0.0
220
0.0
230
1.0
  2
ANSI31
 70
     0
 71
     0
 91
        1
 92
        0
 93
        6
 72
     1
 10
85.66328527407467
 20
57.91819477486627
 11
85.66328527407467
 21
56.41819477486627
 72
     1
 10
85.66328527407467
 20
56.41819477486627
 11
92.66328527407468
 21
56.41819477486627
 72
     2
 10
118.6632852740747
 20
56.41819477486627
 40
26.0
 50
180.0
 51
247.3801350519602
 73
     0
 72
     1
 10
108.6632852740746
 20
80.41819477486624
 11
108.6632852740746
 21
82.57158843611036
 72
     2
 10
118.6632852740747
 20
56.41819477486627
 40
28.0
 50
110.9248324276384
 51
176.9291131889251
 73
     1
 72
     1
 10
90.70349271404304
 20
57.91819477486627
 11
85.66328527407467
 21
57.91819477486627
 97
        0
 75
     0
 76
     1
 52
0.0
 41
1.0
 77
     0
 78
     1
 53
45.0
 43
0.0
 44
0.0
 45
-2.245064030267288
 46
2.245064030267288
 79
     0
 98
        1
 10
0.0
 20
0.0
  0
HATCH
  5
253
330
1F
100
AcDbEntity
  8
DIM
  6
Continuous
370
    18
100
AcDbHatch
 10
0.0
 20
0.0
 30
0.0
210
0.0
220
0.0
230
1.0
  2
ANSI31
 70
     0
 71
     0
 91
        1
 92
        0
 93
        4
 72
     2
 10
118.6632852740747
 20
56.41819477486627
 40
28.0
 50
54.92483242763839
 51
69.07516757236188
 73
     1
 72
     1
 10
128.6632852740746
 20
82.57158843611036
 11
128.6632852740746
 21
80.41819477486631
 72
     2
 10
118.6632852740747
 20
56.41819477486627
 40
26.0
 50
292.619864948041
 51
303.3801350519603
 73
     0
 72
     1
 10
132.9682579806882
 20
78.12920018371463
 11
134.7535022343613
 21
79.33336263746119
 97
        0
 75
     0
 76
     1
 52
0.0
 41
1.0
 77
     0
 78
     1
 53
45.0
 43
0.0
 44
0.0
 45
-2.245064030267288
 46
2.245064030267288
 79
     0
 98
        1
 10
0.0
 20
0.0
  0
HATCH
  5
254
330
1F
100
AcDbEntity
  8
DIM
  6
Continuous
370
    18
100
AcDbHatch
 10
0.0
 20
0.0
 30
0.0
210
0.0
220
0.0
230
1.0
  2
ANSI31
 70
     0
 71
     0
 91
        1
 92
        0
 93
        6
 72
     1
 10
151.6632852740747
 20
56.41819477486627
 11
151.6632852740747
 21
57.91819477486627
 72
     1
 10
151.6632852740747
 20
57.91819477486627
 11
146.6230778341063
 21
57.91819477486627
 72
     2
 10
118.6632852740747
 20
56.41819477486627
 40
28.0
 50
3.070886811074862
 51
13.07516757236178
 73
     1
 72
     1
 10
145.9373603037763
 20
62.75261118636038
 11
144.1521160501031
 21
61.54844873261382
 72
     2
 10
118.6632852740747
 20
56.41819477486627
 40
26.0
 50
348.6198649480411
 51
360.0000000000008
 73
     0
 72
     1
 10
144.6632852740747
 20
56.41819477486627
 11
151.6632852740747
 21
56.41819477486627
 97
        0
 75
     0
 76
     1
 52
0.0
 41
1.0
 77
     0
 78
     1
 53
45.0
 43
0.0
 44
0.0
 45
-2.245064030267288
 46
2.245064030267288
 79
     0
 98
        1
 10
0.0
 20
0.0
  0
HATCH
  5
255
330
1F
100
AcDbEntity
  8
DIM
  6
Continuous
370
    18
100
AcDbHatch
 10
0.0
 20
0.0
 30
0.0
210
0.0
220
0.0
230
1.0
  2
ANSI31
 70
     0
 71
     0
 91
        1
 92
        0
 93
        6
 72
     1
 10
148.4132852740747
 20
56.01819477486627
 11
144.6632852740747
 21
56.01819477486627
 72
     2
 10
118.6632852740747
 20
56.01819477486627
 40
26.0
 50
0.0
 51
67.38013505195951
 73
     0
 72
     1
 10
128.6632852740747
 20
32.01819477486627
 11
128.6632852740747
 21
29.86480111362223
 72
     2
 10
118.6632852740747
 20
56.01819477486627
 40
28.0
 50
290.9248324276392
 51
356.929113188926
 73
     1
 72
     1
 10
146.6230778341063
 20
54.51819477486627
 11
148.4132852740747
 21
54.51819477486627
 72
     1
 10
148.4132852740747
 20
54.51819477486627
 11
148.4132852740747
 21
56.01819477486627
 97
        0
 75
     0
 76
     1
 52
0.0
 41
1.0
 77
     0
 78
     1
 53
45.0
 43
0.0
 44
0.0
 45
-2.245064030267288
 46
2.245064030267288
 79
     0
 98
        1
 10
0.0
 20
0.0
  0
HATCH
  5
256
330
1F
100
AcDbEntity
  8
DIM
  6
Continuous
370
    18
100
AcDbHatch
 10
0.0
 20
0.0
 30
0.0
210
0.0
220
0.0
230
1.0
  2
ANSI31
 70
     0
 71
     0
 91
        1
 92
        0
 93
        6
 72
     1
 10
88.91328527407465
 20
54.51819477486627
 11
90.70349271404302
 21
54.51819477486627
 72
     2
 10
118.6632852740747
 20
56.01819477486627
 40
28.0
 50
183.0708868110757
 51
249.0751675723625
 73
     1
 72
     1
 10
108.6632852740747
 20
29.86480111362223
 11
108.6632852740747
 21
32.01819477486627
 72
     2
 10
118.6632852740747
 20
56.01819477486627
 40
26.0
 50
112.6198649480404
 51
180.0
 73
     0
 72
     1
 10
92.66328527407465
 20
56.01819477486627
 11
88.91328527407465
 21
56.01819477486627
 72
     1
 10
88.91328527407465
 20
56.01819477486627
 11
88.91328527407465
 21
54.51819477486627
 97
        0
 75
     0
 76
     1
 52
0.0
 41
1.0
 77
     0
 78
     1
 53
45.0
 43
0.0
 44
0.0
 45
-2.245064030267288
 46
2.245064030267288
 79
     0
 98
        1
 10
0.0
 20
0.0
  0
HATCH
  5
257
330
1F
100
AcDbEntity
  8
DIM
  6
Continuous
370
    18
100
AcDbHatch
 10
0.0
 20
0.0
 30
0.0
210
0.0
220
0.0
230
1.0
  2
ANSI31
 70
     0
 71
     0
 91
        1
 92
        0
 93
        4
 72
     1
 10
85.66328527407462
 20
56.01819477486627
 11
85.66328527407462
 21
54.51819477486627
 72
     1
 10
85.66328527407462
 20
54.51819477486627
 11
86.41328527407464
 21
54.51819477486627
 72
     1
 10
86.41328527407464
 20
54.51819477486627
 11
86.41328527407464
 21
56.01819477486627
 72
     1
 10
86.41328527407464
 20
56.01819477486627
 11
85.66328527407462
 21
56.01819477486627
 97
        0
 75
     0
 76
     1
 52
0.0
 41
1.0
 77
     0
 78
     1
 53
45.0
 43
0.0
 44
0.0
 45
-2.245064030267288
 46
2.245064030267288
 79
     0
 98
        1
 10
0.0
 20
0.0
  0
HATCH
  5
258
330
1F
100
AcDbEntity
  8
DIM
  6
Continuous
370
    18
100
AcDbHatch
 10
0.0
 20
0.0
 30
0.0
210
0.0
220
0.0
230
1.0
  2
ANSI31
 70
     0
 71
     0
 91
        1
 92
        0
 93
        4
 72
     1
 10
151.6632852740747
 20
54.51819477486627
 11
151.6632852740747
 21
56.01819477486627
 72
     1
 10
151.6632852740747
 20
56.01819477486627
 11
150.9132852740747
 21
56.01819477486627
 72
     1
 10
150.9132852740747
 20
56.01819477486627
 11
150.9132852740747
 21
54.51819477486627
 72
     1
 10
150.9132852740747
 20
54.51819477486627
 11
151.6632852740747
 21
54.51819477486627
 97
        0
 75
     0
 76
     1
 52
0.0
 41
1.0
 77
     0
 78
     1
 53
45.0
 43
0.0
 44
0.0
 45
-2.245064030267288
 46
2.245064030267288
 79
     0
 98
        1
 10
0.0
 20
0.0
  0
HATCH
  5
259
330
1F
100
AcDbEntity
  8
DIM
  6
Continuous
370
    18
100
AcDbHatch
 10
0.0
 20
0.0
 30
0.0
210
0.0
220
0.0
230
1.0
  2
ANSI31
 70
     0
 71
     0
 91
        1
 92
        0
 93
        4
 72
     1
 10
90.41328527407468
 20
52.41819477486628
 11
90.41328527407468
 21
53.91819477486627
 72
     1
 10
90.41328527407468
 20
53.91819477486627
 11
88.46328527407468
 21
53.91819477486627
 72
     1
 10
88.46328527407468
 20
53.91819477486627
 11
88.46328527407468
 21
52.41819477486628
 72
     1
 10
88.46328527407468
 20
52.41819477486628
 11
90.41328527407468
 21
52.41819477486628
 97
        0
 75
     0
 76
     1
 52
0.0
 41
1.0
 77
     0
 78
     1
 53
45.0
 43
0.0
 44
0.0
 45
-2.245064030267288
 46
2.245064030267288
 79
     0
 98
        1
 10
0.0
 20
0.0
  0
HATCH
  5
25A
330
1F
100
AcDbEntity
  8
DIM
  6
Continuous
370
    18
100
AcDbHatch
 10
0.0
 20
0.0
 30
0.0
210
0.0
220
0.0
230
1.0
  2
ANSI31
 70
     0
 71
     0
 91
        1
 92
        0
 93
        6
 72
     1
 10
84.16328527407468
 20
52.41819477486628
 11
86.86328527407468
 21
52.41819477486628
 72
     1
 10
86.86328527407468
 20
52.41819477486628
 11
86.86328527407468
 21
53.91819477486627
 72
     1
 10
86.86328527407468
 20
53.91819477486627
 11
85.41328527407467
 21
53.91819477486627
 72
     1
 10
85.41328527407467
 20
53.91819477486627
 11
85.41328527407467
 21
57.91819477486627
 72
     1
 10
85.41328527407467
 20
57.91819477486627
 11
84.16328527407468
 21
57.91819477486627
 72
     1
 10
84.16328527407468
 20
57.91819477486627
 11
84.16328527407468
 21
52.41819477486628
 97
        0
 75
     0
 76
     1
 52
0.0
 41
1.0
 77
     0
 78
     1
 53
45.0
 43
0.0
 44
0.0
 45
-2.245064030267288
 46
2.245064030267288
 79
     0
 98
        1
 10
0.0
 20
0.0
  0
HATCH
  5
25B
330
1F
100
AcDbEntity
  8
DIM
  6
Continuous
370
    18
100
AcDbHatch
 10
0.0
 20
0.0
 30
0.0
210
0.0
220
0.0
230
1.0
  2
ANSI31
 70
     0
 71
     0
 91
        1
 92
        0
 93
        6
 72
     1
 10
153.1632852740747
 20
57.91819477486627
 11
151.9132852740747
 21
57.91819477486627
 72
     1
 10
151.9132852740747
 20
57.91819477486627
 11
151.9132852740747
 21
53.91819477486627
 72
     1
 10
151.9132852740747
 20
53.91819477486627
 11
150.4632852740747
 21
53.91819477486627
 72
     1
 10
150.4632852740747
 20
53.91819477486627
 11
150.4632852740747
 21
52.41819477486628
 72
     1
 10
150.4632852740747
 20
52.41819477486628
 11
153.1632852740747
 21
52.41819477486628
 72
     1
 10
153.1632852740747
 20
52.41819477486628
 11
153.1632852740747
 21
57.91819477486627
 97
        0
 75
     0
 76
     1
 52
0.0
 41
1.0
 77
     0
 78
     1
 53
45.0
 43
0.0
 44
0.0
 45
-2.245064030267288
 46
2.245064030267288
 79
     0
 98
        1
 10
0.0
 20
0.0
  0
HATCH
  5
25C
330
1F
100
AcDbEntity
  8
DIM
  6
Continuous
370
    18
100
AcDbHatch
 10
0.0
 20
0.0
 30
0.0
210
0.0
220
0.0
230
1.0
  2
ANSI31
 70
     0
 71
     0
 91
        1
 92
        0
 93
        4
 72
     1
 10
146.9132852740747
 20
53.91819477486627
 11
146.9132852740747
 21
52.41819477486628
 72
     1
 10
146.9132852740747
 20
52.41819477486628
 11
148.8632852740747
 21
52.41819477486628
 72
     1
 10
148.8632852740747
 20
52.41819477486628
 11
148.8632852740747
 21
53.91819477486627
 72
     1
 10
148.8632852740747
 20
53.91819477486627
 11
146.9132852740747
 21
53.91819477486627
 97
        0
 75
     0
 76
     1
 52
0.0
 41
1.0
 77
     0
 78
     1
 53
45.0
 43
0.0
 44
0.0
 45
-2.245064030267288
 46
2.245064030267288
 79
     0
 98
        1
 10
0.0
 20
0.0
  0
HATCH
  5
25D
330
1F
100
AcDbEntity
  8
DIM
  6
Continuous
370
    18
100
AcDbHatch
 10
0.0
 20
0.0
 30
0.0
210
0.0
220
0.0
230
1.0
  2
ANSI31
 70
     0
 71
     0
 91
        1
 92
        0
 93
        9
 72
     1
 10
140.1258019060481
 20
79.41591325793584
 11
138.484171310859
 21
81.84973070307956
 72
     1
 10
138.484171310859
 20
81.84973070307956
 11
138.0696525245815
 21
81.5701342513442
 72
     2
 10
136.826096165749
 20
80.73134489613807
 40
1.500000000000002
 50
325.9999999999999
 51
506.0000000000011
 73
     0
 72
     1
 10
135.5825398069164
 20
79.89255554093194
 11
135.302943355181
 21
80.30707432720948
 72
     1
 10
135.302943355181
 20
80.30707432720948
 11
134.473905782626
 21
79.74788142373872
 72
     1
 10
134.473905782626
 20
79.74788142373872
 11
134.6696232988407
 21
79.45771827334445
 72
     1
 10
134.6696232988407
 20
79.45771827334445
 11
133.0115481537306
 21
78.33933246640295
 72
     1
 10
133.0115481537306
 20
78.33933246640295
 11
134.2697321865398
 21
76.4739979281541
 72
     1
 10
134.2697321865398
 20
76.4739979281541
 11
140.1258019060481
 21
79.41591325793584
 97
        0
 75
     0
 76
     1
 52
0.0
 41
1.0
 77
     0
 78
     1
 53
45.0
 43
0.0
 44
0.0
 45
-2.245064030267288
 46
2.245064030267288
 79
     0
 98
        1
 10
0.0
 20
0.0
  0
HATCH
  5
25E
330
1F
100
AcDbEntity
  8
DIM
  6
Continuous
370
    18
100
AcDbHatch
 10
0.0
 20
0.0
 30
0.0
210
0.0
220
0.0
230
1.0
  2
ANSI31
 70
     0
 71
     0
 91
        1
 92
        0
 93
        9
 72
     1
 10
149.668029380274
 20
65.26897925197875
 11
148.0263987850849
 21
67.70279669712248
 72
     1
 10
148.0263987850849
 20
67.70279669712248
 11
143.1049800613777
 21
63.37520428178448
 72
     1
 10
143.1049800613777
 20
63.37520428178448
 11
144.3631640941868
 21
61.50986974353564
 72
     1
 10
144.3631640941868
 20
61.50986974353564
 11
146.0212392392969
 21
62.62825555047713
 72
     1
 10
146.0212392392969
 20
62.62825555047713
 11
146.2169567555117
 21
62.33809240008286
 72
     1
 10
146.2169567555117
 20
62.33809240008286
 11
147.0459943280667
 21
62.89728530355361
 72
     1
 10
147.0459943280667
 20
62.89728530355361
 11
146.7663978763313
 21
63.31180408983113
 72
     2
 10
148.0099542351639
 20
64.15059344503725
 40
1.500000000000002
 50
146.0000000000007
 51
326.0000000000001
 73
     0
 72
     1
 10
149.2535105939965
 20
64.98938280024339
 11
149.668029380274
 21
65.26897925197875
 97
        0
 75
     0
 76
     1
 52
0.0
 41
1.0
 77
     0
 78
     1
 53
45.0
 43
0.0
 44
0.0
 45
-2.245064030267288
 46
2.245064030267288
 79
     0
 98
        1
 10
0.0
 20
0.0
  0
HATCH
  5
25F
330
1F
100
AcDbEntity
  8
DIM
  6
Continuous
370
    18
100
AcDbHatch
 10
0.0
 20
0.0
 30
0.0
210
0.0
220
0.0
230
1.0
  2
ANSI31
 70
     0
 71
     0
 91
        1
 92
        0
 93
        9
 72
     1
 10
111.5989995597889
 20
87.07158843611029
 11
108.6632852740746
 21
87.07158843611028
 72
     1
 10
108.6632852740746
 20
87.07158843611028
 11
108.6632852740746
 21
86.57158843611028
 72
     2
 10
108.6632852740746
 20
85.07158843611028
 40
1.500000000000002
 50
270.0000000000008
 51
450.0000000000003
 73
     0
 72
     1
 10
108.6632852740746
 20
83.57158843611028
 11
108.1632852740746
 21
83.57158843611028
 72
     1
 10
108.1632852740746
 20
83.57158843611028
 11
108.1632852740746
 21
82.57158843611028
 72
     1
 10
108.1632852740746
 20
82.57158843611028
 11
108.5132852740746
 21
82.57158843611029
 72
     1
 10
108.5132852740746
 20
82.57158843611029
 11
108.5132852740746
 21
80.57158843611028
 72
     1
 10
108.5132852740746
 20
80.57158843611028
 11
110.7632852740746
 21
80.57158843611029
 72
     1
 10
110.7632852740746
 20
80.57158843611029
 11
111.5989995597889
 21
87.07158843611029
 97
        0
 75
     0
 76
     1
 52
0.0
 41
1.0
 77
     0
 78
     1
 53
45.0
 43
0.0
 44
0.0
 45
-2.245064030267288
 46
2.245064030267288
 79
     0
 98
        1
 10
0.0
 20
0.0
  0
HATCH
  5
260
330
1F
100
AcDbEntity
  8
DIM
  6
Continuous
370
    18
100
AcDbHatch
 10
0.0
 20
0.0
 30
0.0
210
0.0
220
0.0
230
1.0
  2
ANSI31
 70
     0
 71
     0
 91
        1
 92
        0
 93
        9
 72
     1
 10
128.6632852740746
 20
87.07158843611035
 11
125.7275709883603
 21
87.07158843611035
 72
     1
 10
125.7275709883603
 20
87.07158843611035
 11
126.5632852740746
 21
80.57158843611035
 72
     1
 10
126.5632852740746
 20
80.57158843611035
 11
128.8132852740746
 21
80.57158843611036
 72
     1
 10
128.8132852740746
 20
80.57158843611036
 11
128.8132852740746
 21
82.57158843611036
 72
     1
 10
128.8132852740746
 20
82.57158843611036
 11
129.1632852740746
 21
82.57158843611036
 72
     1
 10
129.1632852740746
 20
82.57158843611036
 11
129.1632852740746
 21
83.57158843611036
 72
     1
 10
129.1632852740746
 20
83.57158843611036
 11
128.6632852740746
 21
83.57158843611035
 72
     2
 10
128.6632852740746
 20
85.07158843611035
 40
1.500000000000002
 50
89.99999999999892
 51
270.0000000000008
 73
     0
 72
     1
 10
128.6632852740746
 20
86.57158843611036
 11
128.6632852740746
 21
87.07158843611035
 97
        0
 75
     0
 76
     1
 52
0.0
 41
1.0
 77
     0
 78
     1
 53
45.0
 43
0.0
 44
0.0
 45
-2.245064030267288
 46
2.245064030267288
 79
     0
 98
        1
 10
0.0
 20
0.0
  0
HATCH
  5
261
330
1F
100
AcDbEntity
  8
DIM
  6
Continuous
370
    18
100
AcDbHatch
 10
0.0
 20
0.0
 30
0.0
210
0.0
220
0.0
230
1.0
  2
ANSI31
 70
     0
 71
     0
 91
        1
 92
        0
 93
        4
 72
     1
 10
151.6632852740748
 20
56.41819477486627
 11
150.9132852740748
 21
56.41819477486627
 72
     1
 10
150.9132852740748
 20
56.41819477486627
 11
150.9132852740748
 21
56.01819477486627
 72
     1
 10
150.9132852740748
 20
56.01819477486627
 11
151.6632852740748
 21
56.01819477486627
 72
     1
 10
151.6632852740748
 20
56.01819477486627
 11
151.6632852740748
 21
56.41819477486627
 97
        0
 75
     0
 76
     1
 52
0.0
 41
1.0
 77
     0
 78
     1
 53
45.0
 43
0.0
 44
0.0
 45
-2.245064030267288
 46
2.245064030267288
 79
     0
 98
        1
 10
0.0
 20
0.0
  0
HATCH
  5
262
330
1F
100
AcDbEntity
  8
DIM
  6
Continuous
370
    18
100
AcDbHatch
 10
0.0
 20
0.0
 30
0.0
210
0.0
220
0.0
230
1.0
  2
ANSI31
 70
     0
 71
     0
 91
        1
 92
        0
 93
        4
 72
     1
 10
126.6632852740748
 20
56.41819477486627
 11
126.6632852740748
 21
56.01819477486627
 72
     1
 10
126.6632852740748
 20
56.01819477486627
 11
148.4132852740748
 21
56.01819477486627
 72
     1
 10
148.4132852740748
 20
56.01819477486627
 11
148.4132852740748
 21
56.41819477486627
 72
     1
 10
148.4132852740748
 20
56.41819477486627
 11
126.6632852740748
 21
56.41819477486627
 97
        0
 75
     0
 76
     1
 52
0.0
 41
1.0
 77
     0
 78
     1
 53
45.0
 43
0.0
 44
0.0
 45
-2.245064030267288
 46
2.245064030267288
 79
     0
 98
        1
 10
0.0
 20
0.0
  0
HATCH
  5
263
330
1F
100
AcDbEntity
  8
DIM
  6
Continuous
370
    18
100
AcDbHatch
 10
0.0
 20
0.0
 30
0.0
210
0.0
220
0.0
230
1.0
  2
ANSI31
 70
     0
 71
     0
 91
        1
 92
        0
 93
        4
 72
     1
 10
92.66328527407474
 20
56.01819477486627
 11
92.66328527407474
 21
56.41819477486627
 72
     1
 10
92.66328527407474
 20
56.41819477486627
 11
88.91328527407474
 21
56.41819477486627
 72
     1
 10
88.91328527407474
 20
56.41819477486627
 11
88.91328527407474
 21
56.01819477486627
 72
     1
 10
88.91328527407474
 20
56.01819477486627
 11
92.66328527407474
 21
56.01819477486627
 97
        0
 75
     0
 76
     1
 52
0.0
 41
1.0
 77
     0
 78
     1
 53
45.0
 43
0.0
 44
0.0
 45
-2.245064030267288
 46
2.245064030267288
 79
     0
 98
        1
 10
0.0
 20
0.0
  0
HATCH
  5
264
330
1F
100
AcDbEntity
  8
DIM
  6
Continuous
370
    18
100
AcDbHatch
 10
0.0
 20
0.0
 30
0.0
210
0.0
220
0.0
230
1.0
  2
ANSI31
 70
     0
 71
     0
 91
        1
 92
        0
 93
        4
 72
     1
 10
85.66328527407474
 20
56.01819477486627
 11
86.41328527407474
 21
56.01819477486627
 72
     1
 10
86.41328527407474
 20
56.01819477486627
 11
86.41328527407474
 21
56.41819477486627
 72
     1
 10
86.41328527407474
 20
56.41819477486627
 11
85.66328527407474
 21
56.41819477486627
 72
     1
 10
85.66328527407474
 20
56.41819477486627
 11
85.66328527407474
 21
56.01819477486627
 97
        0
 75
     0
 76
     1
 52
0.0
 41
1.0
 77
     0
 78
     1
 53
45.0
 43
0.0
 44
0.0
 45
-2.245064030267288
 46
2.245064030267288
 79
     0
 98
        1
 10
0.0
 20
0.0
  0
HATCH
  5
265
330
1F
100
AcDbEntity
  8
DIM
  6
Continuous
370
    18
100
AcDbHatch
 10
0.0
 20
0.0
 30
0.0
210
0.0
220
0.0
230
1.0
  2
ANSI31
 70
     0
 71
     0
 91
        1
 92
        0
 93
       16
 72
     1
 10
86.71328527407468
 20
52.41819477486624
 11
88.61328527407468
 21
52.41819477486624
 72
     1
 10
88.61328527407468
 20
52.41819477486624
 11
88.61328527407467
 21
57.41819477486624
 72
     1
 10
88.61328527407467
 20
57.41819477486624
 11
89.06328527407467
 21
57.41819477486624
 72
     2
 10
89.06328527407467
 20
57.51819477486624
 40
0.1
 50
270.0000000000008
 51
360.0000000000008
 73
     1
 72
     1
 10
89.16328527407467
 20
57.51819477486624
 11
89.1632852740747
 21
57.81819477486624
 72
     2
 10
89.0632852740747
 20
57.81819477486624
 40
0.1
 50
0.0
 51
90.00000000001629
 73
     1
 72
     1
 10
89.06328527407467
 20
57.91819477486624
 11
87.87669808290958
 21
57.91819477486624
 72
     1
 10
87.87669808290958
 20
57.91819477486624
 11
87.8766980829096
 21
57.71819477486624
 72
     1
 10
87.8766980829096
 20
57.71819477486624
 11
87.4498724652402
 21
57.71819477486628
 72
     1
 10
87.4498724652402
 20
57.71819477486628
 11
87.4498724652402
 21
57.91819477486627
 72
     1
 10
87.4498724652402
 20
57.91819477486627
 11
86.26328527407466
 21
57.91819477486624
 72
     2
 10
86.2632852740747
 20
57.81819477486624
 40
0.1
 50
90.00000000002441
 51
180.0
 73
     1
 72
     1
 10
86.1632852740747
 20
57.81819477486624
 11
86.16328527407465
 21
57.51819477486625
 72
     2
 10
86.26328527407468
 20
57.51819477486625
 40
0.1
 50
180.0
 51
270.0000000000008
 73
     1
 72
     1
 10
86.26328527407468
 20
57.41819477486624
 11
86.71328527407466
 21
57.41819477486624
 72
     1
 10
86.71328527407466
 20
57.41819477486624
 11
86.71328527407468
 21
52.41819477486624
 97
        0
 75
     0
 76
     1
 52
0.0
 41
1.0
 77
     0
 78
     1
 53
45.0
 43
0.0
 44
0.0
 45
-2.245064030267288
 46
2.245064030267288
 79
     0
 98
        1
 10
0.0
 20
0.0
  0
HATCH
  5
266
330
1F
100
AcDbEntity
  8
DIM
  6
Continuous
370
    18
100
AcDbHatch
 10
0.0
 20
0.0
 30
0.0
210
0.0
220
0.0
230
1.0
  2
ANSI31
 70
     0
 71
     0
 91
        1
 92
        0
 93
       16
 72
     1
 10
148.7132852740747
 20
52.41819477486646
 11
150.6132852740747
 21
52.41819477486649
 72
     1
 10
150.6132852740747
 20
52.41819477486649
 11
150.6132852740747
 21
57.41819477486649
 72
     1
 10
150.6132852740747
 20
57.41819477486649
 11
151.0632852740747
 21
57.41819477486649
 72
     2
 10
151.0632852740747
 20
57.51819477486649
 40
0.1
 50
270.0000000000008
 51
360.0000000000008
 73
     1
 72
     1
 10
151.1632852740747
 20
57.51819477486649
 11
151.1632852740746
 21
57.81819477486649
 72
     2
 10
151.0632852740746
 20
57.81819477486649
 40
0.1
 50
0.0
 51
89.99999999998371
 73
     1
 72
     1
 10
151.0632852740747
 20
57.9181947748665
 11
149.8766980829089
 21
57.91819477486651
 72
     1
 10
149.8766980829089
 20
57.91819477486651
 11
149.8766980829089
 21
57.71819477486652
 72
     1
 10
149.8766980829089
 20
57.71819477486652
 11
149.4498724652395
 21
57.71819477486649
 72
     1
 10
149.4498724652395
 20
57.71819477486649
 11
149.4498724652395
 21
57.91819477486654
 72
     1
 10
149.4498724652395
 20
57.91819477486654
 11
148.2632852740747
 21
57.91819477486647
 72
     2
 10
148.2632852740746
 20
57.81819477486646
 40
0.1
 50
89.99999999998371
 51
180.0
 73
     1
 72
     1
 10
148.1632852740746
 20
57.81819477486646
 11
148.1632852740747
 21
57.51819477486647
 72
     2
 10
148.2632852740747
 20
57.51819477486647
 40
0.1
 50
180.0
 51
270.0000000000008
 73
     1
 72
     1
 10
148.2632852740747
 20
57.41819477486647
 11
148.7132852740747
 21
57.41819477486647
 72
     1
 10
148.7132852740747
 20
57.41819477486647
 11
148.7132852740747
 21
52.41819477486646
 97
        0
 75
     0
 76
     1
 52
0.0
 41
1.0
 77
     0
 78
     1
 53
45.0
 43
0.0
 44
0.0
 45
-2.245064030267288
 46
2.245064030267288
 79
     0
 98
        1
 10
0.0
 20
0.0
  0
DIMENSION
  5
267
330
1F
100
AcDbEntity
  8
DIM
100
AcDbDimension
  2
_D
 10
136.2002434063
 20
68.2470223946
 30
0.0
 11
136.0813672514
 21
89.1768425252
 31
0.0
 70
   162
  1
<>
 71
     1
 42
-1.0
  3
SLDDIMSTYLE0
100
AcDb2LineAngularDimension
 13
118.6632852741
 23
89.0715884361
 33
0.0
 14
118.6632852741
 24
26.2818487381
 34
0.0
 15
146.5632130632
 25
75.2369336879
 35
0.0
 16
136.0813672514
 26
89.1768425252
 36
0.0
  0
DIMENSION
  5
272
330
1F
100
AcDbEntity
  8
DIM
100
AcDbDimension
  2
_D_1
 10
128.6632852741
 20
104.0715884361
 30
0.0
 11
118.6632852741
 21
104.0715884361
 31
0.0
 70
   160
  1
%%c<>
 71
     2
 42
-1.0
  3
SLDDIMSTYLE1
100
AcDbAlignedDimension
 13
108.6632852741
 23
87.0715884361
 33
0.0
 14
128.6632852741
 24
87.0715884361
 34
0.0
100
AcDbRotatedDimension
  0
DIMENSION
  5
27F
330
1F
100
AcDbEntity
  8
DIM
100
AcDbDimension
  2
_D_2
 10
125.7275709884
 20
99.0715884361
 30
0.0
 11
118.6632852741
 21
99.0715884361
 31
0.0
 70
   160
  1
%%c<>
 71
     2
 42
-1.0
  3
SLDDIMSTYLE1
100
AcDbAlignedDimension
 13
111.5989995598
 23
87.0715884361
 33
0.0
 14
125.7275709884
 24
87.0715884361
 34
0.0
 50
0.0
100
AcDbRotatedDimension
  0
DIMENSION
  5
28B
330
1F
100
AcDbEntity
  8
DIM
100
AcDbDimension
  2
_D_3
 10
168.357519273
 20
77.8751993601
 30
0.0
 11
162.7655902383
 21
86.1655750856
 31
0.0
 70
   160
  1
%%c<>
 71
     2
 42
-1.0
  3
SLDDIMSTYLE1
100
AcDbAlignedDimension
 13
138.4841713109
 23
81.8497307031
 33
0.0
 14
149.6680293803
 24
65.268979252
 34
0.0
 50
-56.0
100
AcDbRotatedDimension
  0
DIMENSION
  5
297
330
1F
100
AcDbEntity
  8
DIM
100
AcDbDimension
  2
_D_4
 10
160.5004678203
 20
76.116662501
 30
0.0
 11
156.5501693807
 21
81.9732207814
 31
0.0
 70
   160
  1
%%c<>
 71
     2
 42
-1.0
  3
SLDDIMSTYLE1
100
AcDbAlignedDimension
 13
140.125801906
 23
79.4159132579
 33
0.0
 14
148.0263987851
 24
67.7027966971
 34
0.0
 50
-56.0
100
AcDbRotatedDimension
  0
DIMENSION
  5
2A3
330
1F
100
AcDbEntity
  8
DIM
100
AcDbDimension
  2
_D_5
 10
128.6632852741
 20
22.8648011136
 30
0.0
 11
118.6632852741
 21
22.8648011136
 31
0.0
 70
   160
  1
%%c<>
 71
     2
 42
-1.0
  3
SLDDIMSTYLE1
100
AcDbAlignedDimension
 13
108.6632852741
 23
29.8648011136
 33
0.0
 14
128.6632852741
 24
29.8648011136
 34
0.0
 50
0.0
100
AcDbRotatedDimension
  0
DIMENSION
  5
2AE
330
1F
100
AcDbEntity
  8
DIM
100
AcDbDimension
  2
_D_6
 10
143.1266020847
 20
42.7966628998
 30
0.0
 11
75.8774078904
 21
79.7791023873
 31
0.0
 70
   163
  1
<>
 71
     1
 42
-1.0
  3
SLDDIMSTYLE2
100
AcDbDiametricDimension
 15
94.1999684634
 25
70.0397266499
 35
0.0
 40
0.0
  0
DIMENSION
  5
2BC
330
1F
100
AcDbEntity
  8
DIM
100
AcDbDimension
  2
_D_7
 10
100.1169054605
 20
74.6399344231
 30
0.0
 11
78.6415893342
 21
93.4678944828
 31
0.0
 70
   163
  1
<>
 71
     1
 42
-1.0
  3
SLDDIMSTYLE3
100
AcDbDiametricDimension
 15
137.2096650877
 25
38.1964551266
 35
0.0
 40
0.0
  0
DIMENSION
  5
2C8
330
1F
100
AcDbEntity
  8
DIM
100
AcDbDimension
  2
_D_8
 10
153.1632852741
 20
12.8648011136
 30
0.0
 11
118.6632852741
 21
12.8648011136
 31
0.0
 70
   160
  1
%%c<>
 71
     2
 42
-1.0
  3
SLDDIMSTYLE1
100
AcDbAlignedDimension
 13
84.1632852741
 23
52.4181947749
 33
0.0
 14
153.1632852741
 24
52.4181947749
 34
0.0
100
AcDbRotatedDimension
  0
INSERT
  5
2D8
330
1F
100
AcDbEntity
  8
DIM
100
AcDbBlockReference
  2
SW_NOTE_0_2
 10
156.7390572391
 20
40.8205107005
 30
0.0
  0
LEADER
  5
2DA
330
1F
100
AcDbEntity
  8
DIM
100
AcDbLeader
  3
SLDDIMSTYLE4
 76
     2
 10
136.3231266291
 20
56.4181947749
 30
0.0
 10
156.7390572391
 20
40.8205107005
 30
0.0
  0
LINE
  5
2DB
330
1F
100
AcDbEntity
  8
DIM
  6
CENTERX2
370
    18
100
AcDbLine
 10
118.6632852741
 20
26.2818487381
 30
0.0
 11
118.6632852741
 21
89.0715884361
 31
0.0
  0
LINE
  5
2DC
330
1F
100
AcDbEntity
  8
DIM
  6
CENTERX2
370
    18
100
AcDbLine
 10
136.2002434063
 20
68.2470223946
 30
0.0
 11
146.5632130632
 21
75.2369336879
 31
0.0
  0
SPLINE
  5
2DD
330
1F
100
AcDbEntity
  8
0
  6
Continuous
 62
     7
370
    35
100
AcDbSpline
210
0.0
220
0.0
230
1.0
 70
     8
 71
     3
 72
    15
 73
    11
 74
     0
 42
0.00000001
 43
0.00000001
 40
0.0
 40
0.0
 40
0.0
 40
0.0
 40
0.0032932883304238
 40
0.1500043344994298
 40
0.2962144085028101
 40
0.4411039143325824
 40
0.5851613176678453
 40
0.7319102288561181
 40
0.8723961610633482
 40
0.9999999999999999
 40
0.9999999999999999
 40
0.9999999999999999
 40
0.9999999999999999
 10
257.1246474670373
 20
136.3035199836105
 30
0.0
 10
257.121290926192
 20
136.3031845094714
 30
0.0
 10
256.9684055346953
 20
136.287904166564
 30
0.0
 10
256.656007226005
 20
136.3400228194343
 30
0.0
 10
256.2584520653209
 20
136.4620149918611
 30
0.0
 10
255.9662599648698
 20
136.6589357996396
 30
0.0
 10
255.8165841297819
 20
136.8833345655147
 30
0.0
 10
255.8077448673263
 20
137.0985281189791
 30
0.0
 10
255.9184321172265
 20
137.3151799381772
 30
0.0
 10
256.0902331073024
 20
137.4352815278797
 30
0.0
 10
256.17200596187
 20
137.4924467969723
 30
0.0
  0
SPLINE
  5
2DE
330
1F
100
AcDbEntity
  8
0
  6
Continuous
 62
     7
370
    35
100
AcDbSpline
210
0.0
220
0.0
230
1.0
 70
     8
 71
     3
 72
    13
 73
     9
 74
     0
 42
0.00000001
 43
0.00000001
 40
0.0
 40
0.0
 40
0.0
 40
0.0
 40
0.1435707322065953
 40
0.313951049315048
 40
0.4829789866475986
 40
0.650541928314284
 40
0.8194820885084961
 40
1.0
 40
1.0
 40
1.0
 40
1.0
 10
226.1652053729592
 20
118.4130855692226
 30
0.0
 10
226.0363065649966
 20
118.4142352805198
 30
0.0
 10
225.7544391161554
 20
118.4167493936864
 30
0.0
 10
225.356690803367
 20
118.5270380742576
 30
0.0
 10
225.0312171971164
 20
118.7051426332928
 30
0.0
 10
224.8443281494546
 20
118.9266438515267
 30
0.0
 10
224.7889634060455
 20
119.1512137807158
 30
0.0
 10
224.8737812495326
 20
119.3036646309232
 30
0.0
 10
224.917595203778
 20
119.3824154491595
 30
0.0
  0
LINE
  5
2DF
330
1F
100
AcDbEntity
  8
0
  6
Continuous
 62
     7
370
    35
100
AcDbLine
 10
193.1174157303
 20
135.5409612486
 30
0.0
 11
193.1174157303
 21
134.7429980168
 31
0.0
  0
LINE
  5
2E0
330
1F
100
AcDbEntity
  8
0
  6
Continuous
 62
     7
370
    35
100
AcDbLine
 10
259.1174157303
 20
134.7429980168
 30
0.0
 11
259.1174157303
 21
135.5409612486
 31
0.0
  0
ARC
  5
2E1
330
1F
100
AcDbEntity
  8
0
  6
Continuous
 62
     7
370
    35
100
AcDbCircle
 10
226.1174157303
 20
135.5409612486
 30
0.0
 40
28.00000000000001
100
AcDbArc
 50
222.4104324944
 51
317.5895675056
  0
LINE
  5
2E2
330
1F
100
AcDbEntity
  8
0
  6
Continuous
 62
     7
370
    35
100
AcDbLine
 10
259.1174157303
 20
135.5409612486
 30
0.0
 11
259.1174157303
 21
135.8675775733
 31
0.0
  0
LINE
  5
2E3
330
1F
100
AcDbEntity
  8
0
  6
Continuous
 62
     7
370
    35
100
AcDbLine
 10
193.1174157303
 20
135.8675775733
 30
0.0
 11
193.1174157303
 21
135.5409612486
 31
0.0
  0
LINE
  5
2E4
330
1F
100
AcDbEntity
  8
0
  6
Continuous
 62
     7
370
    35
100
AcDbLine
 10
236.1174157303
 20
160.4890541146
 30
0.0
 11
236.1174157303
 21
160.8973245205
 31
0.0
  0
LINE
  5
2E5
330
1F
100
AcDbEntity
  8
0
  6
Continuous
 62
     7
370
    35
100
AcDbLine
 10
216.1174157303
 20
160.8973245205
 30
0.0
 11
216.1174157303
 21
160.4890541146
 31
0.0
  0
LINE
  5
2E6
330
1F
100
AcDbEntity
  8
0
  6
Continuous
 62
     7
370
    35
100
AcDbLine
 10
236.6174157303
 20
157.222890867
 30
0.0
 11
236.6174157303
 21
158.0394316789
 31
0.0
  0
LINE
  5
2E7
330
1F
100
AcDbEntity
  8
0
  6
Continuous
 62
     7
370
    35
100
AcDbLine
 10
215.6174157303
 20
158.0394316789
 30
0.0
 11
215.6174157303
 21
157.222890867
 31
0.0
  0
LINE
  5
2E8
330
1F
100
AcDbEntity
  8
0
  6
Continuous
 62
     7
370
    35
100
AcDbLine
 10
245.7702133544
 20
129.6285663368
 30
0.0
 11
246.0633223991
 21
129.6876600007
 31
0.0
  0
LINE
  5
2E9
330
1F
100
AcDbEntity
  8
0
  6
Continuous
 62
     7
370
    35
100
AcDbLine
 10
242.1106567937
 20
149.2931805144
 30
0.0
 11
241.817547749
 21
149.2340868505
 31
0.0
  0
LINE
  5
2EA
330
1F
100
AcDbEntity
  8
0
  6
Continuous
 62
     7
370
    35
100
AcDbLine
 10
243.5241576369
 20
128.6656790129
 30
0.0
 11
244.1103757263
 21
128.7838663406
 31
0.0
  0
LINE
  5
2EB
330
1F
100
AcDbEntity
  8
0
  6
Continuous
 62
     7
370
    35
100
AcDbLine
 10
239.9600768407
 20
149.36966288
 30
0.0
 11
239.3738587513
 21
149.2514755522
 31
0.0
  0
LINE
  5
2EC
330
1F
100
AcDbEntity
  8
0
  6
Continuous
 62
     7
370
    35
100
AcDbLine
 10
260.6174157303
 20
132.6014143258
 30
0.0
 11
260.6174157303
 21
137.0923887912
 31
0.0
  0
LINE
  5
2ED
330
1F
100
AcDbEntity
  8
0
  6
Continuous
 62
     7
370
    35
100
AcDbLine
 10
191.6174157303
 20
137.0923887912
 30
0.0
 11
191.6174157303
 21
132.6014143258
 31
0.0
  0
ARC
  5
2EE
330
1F
100
AcDbEntity
  8
0
  6
Continuous
 62
     7
370
    35
100
AcDbCircle
 10
226.1174157303
 20
135.8675775733
 30
0.0
 40
28.00000000000002
100
AcDbArc
 50
3.761750767
 51
69.5586711337
  0
ARC
  5
2EF
330
1F
100
AcDbEntity
  8
0
  6
Continuous
 62
     7
370
    35
100
AcDbCircle
 10
226.1174157303
 20
135.8675775733
 30
0.0
 40
28.00000000000002
100
AcDbArc
 50
110.4413288663
 51
176.238249233
  0
LINE
  5
2F0
330
1F
100
AcDbEntity
  8
0
  6
Continuous
 62
     7
370
    35
100
AcDbLine
 10
259.1174157303
 20
135.8675775733
 30
0.0
 11
259.1174157303
 21
137.0923887912
 31
0.0
  0
LINE
  5
2F1
330
1F
100
AcDbEntity
  8
0
  6
Continuous
 62
     7
370
    35
100
AcDbLine
 10
193.1174157303
 20
137.0923887912
 30
0.0
 11
193.1174157303
 21
135.8675775733
 31
0.0
  0
LWPOLYLINE
  5
2F2
330
1F
100
AcDbEntity
  8
0
  6
Continuous
 62
     7
370
    35
100
AcDbPolyline
 90
       18
 70
   128
 43
0.0
 10
256.1215606018
 20
137.6604447584
 10
255.8333436387
 20
137.4144092034
 10
255.7185477268
 20
137.1248830074
 10
255.7926766903
 20
136.8309682874
 10
256.0457190017
 20
136.572359855
 10
256.4434998948
 20
136.3839842121
 10
256.9322968558
 20
136.2912825329
 10
257.4460951465
 20
136.306774693
 10
257.9155034609
 20
136.4283683903
 10
258.2771256049
 20
136.6396417222
 10
258.4821225041
 20
136.9120610545
 10
258.5028081915
 20
137.2088346469
 10
258.3363889502
 20
137.4898815812
 10
258.0053406211
 20
137.7172449116
 10
257.5543731152
 20
137.8602179605
 10
257.0443920933
 20
137.8994914254
 10
256.5442733183
 20
137.8297612073
 10
256.1215606018
 20
137.6604447584
  0
LINE
  5
2F3
330
1F
100
AcDbEntity
  8
0
  6
Continuous
 62
     7
370
    35
100
AcDbLine
 10
257.3295439673
 20
137.093121537
 30
0.0
 11
257.8986040407
 21
136.7685181272
 31
0.0
  0
LINE
  5
2F4
330
1F
100
AcDbEntity
  8
0
  6
Continuous
 62
     7
370
    35
100
AcDbLine
 10
257.8918344908
 20
137.4216329249
 30
0.0
 11
257.3295439673
 21
137.093121537
 31
0.0
  0
LINE
  5
2F5
330
1F
100
AcDbEntity
  8
0
  6
Continuous
 62
     7
370
    35
100
AcDbLine
 10
257.6784369632
 20
137.5433592036
 30
0.0
 11
257.8918344908
 21
137.4216329249
 31
0.0
  0
LINE
  5
2F6
330
1F
100
AcDbEntity
  8
0
  6
Continuous
 62
     7
370
    35
100
AcDbLine
 10
257.6784369632
 20
137.5433592036
 30
0.0
 11
257.1161464397
 21
137.2148478157
 31
0.0
  0
LINE
  5
2F7
330
1F
100
AcDbEntity
  8
0
  6
Continuous
 62
     7
370
    35
100
AcDbLine
 10
256.5470863663
 20
137.5394512256
 30
0.0
 11
257.1161464397
 21
137.2148478157
 31
0.0
  0
LINE
  5
2F8
330
1F
100
AcDbEntity
  8
0
  6
Continuous
 62
     7
370
    35
100
AcDbLine
 10
256.5470863663
 20
137.5394512256
 30
0.0
 11
256.33622742
 21
137.4162594551
 31
0.0
  0
LINE
  5
2F9
330
1F
100
AcDbEntity
  8
0
  6
Continuous
 62
     7
370
    35
100
AcDbLine
 10
256.33622742
 20
137.4162594551
 30
0.0
 11
256.9052874934
 21
137.0916560453
 31
0.0
  0
LINE
  5
2FA
330
1F
100
AcDbEntity
  8
0
  6
Continuous
 62
     7
370
    35
100
AcDbLine
 10
256.9052874934
 20
137.0916560453
 30
0.0
 11
256.3429969699
 21
136.7631446574
 31
0.0
  0
LINE
  5
2FB
330
1F
100
AcDbEntity
  8
0
  6
Continuous
 62
     7
370
    35
100
AcDbLine
 10
256.3429969699
 20
136.7631446574
 30
0.0
 11
256.5563944975
 21
136.6414183787
 31
0.0
  0
LINE
  5
2FC
330
1F
100
AcDbEntity
  8
0
  6
Continuous
 62
     7
370
    35
100
AcDbLine
 10
257.118685021
 20
136.9699297666
 30
0.0
 11
256.5563944975
 21
136.6414183787
 31
0.0
  0
LINE
  5
2FD
330
1F
100
AcDbEntity
  8
0
  6
Continuous
 62
     7
370
    35
100
AcDbLine
 10
257.118685021
 20
136.9699297666
 30
0.0
 11
257.6877450944
 21
136.6453263568
 31
0.0
  0
LINE
  5
2FE
330
1F
100
AcDbEntity
  8
0
  6
Continuous
 62
     7
370
    35
100
AcDbLine
 10
257.8986040407
 20
136.7685181272
 30
0.0
 11
257.6877450944
 21
136.6453263568
 31
0.0
  0
LWPOLYLINE
  5
2FF
330
1F
100
AcDbEntity
  8
0
  6
Continuous
 62
     7
370
    35
100
AcDbPolyline
 90
       18
 70
   128
 43
0.0
 10
196.1132708589
 20
136.5243328239
 10
196.401487822
 20
136.7703683789
 10
196.5162837338
 20
137.0598945749
 10
196.4421547704
 20
137.3538092949
 10
196.189112459
 20
137.6124177273
 10
195.7913315659
 20
137.8007933702
 10
195.3025346049
 20
137.8934950494
 10
194.7887363141
 20
137.8780028893
 10
194.3193279998
 20
137.756409192
 10
193.9577058558
 20
137.5451358601
 10
193.7527089566
 20
137.2727165278
 10
193.7320232692
 20
136.9759429354
 10
193.8984425105
 20
136.6948960011
 10
194.2294908396
 20
136.4675326707
 10
194.6804583454
 20
136.3245596218
 10
195.1904393673
 20
136.2852861569
 10
195.6905581424
 20
136.355016375
 10
196.1132708589
 20
136.5243328239
  0
LINE
  5
300
330
1F
100
AcDbEntity
  8
0
  6
Continuous
 62
     7
370
    35
100
AcDbLine
 10
194.9052874934
 20
137.0916560453
 30
0.0
 11
194.33622742
 21
137.4162594551
 31
0.0
  0
LINE
  5
301
330
1F
100
AcDbEntity
  8
0
  6
Continuous
 62
     7
370
    35
100
AcDbLine
 10
194.3429969699
 20
136.7631446574
 30
0.0
 11
194.9052874934
 21
137.0916560453
 31
0.0
  0
LINE
  5
302
330
1F
100
AcDbEntity
  8
0
  6
Continuous
 62
     7
370
    35
100
AcDbLine
 10
194.5563944975
 20
136.6414183787
 30
0.0
 11
194.3429969699
 21
136.7631446574
 31
0.0
  0
LINE
  5
303
330
1F
100
AcDbEntity
  8
0
  6
Continuous
 62
     7
370
    35
100
AcDbLine
 10
194.5563944975
 20
136.6414183787
 30
0.0
 11
195.118685021
 21
136.9699297666
 31
0.0
  0
LINE
  5
304
330
1F
100
AcDbEntity
  8
0
  6
Continuous
 62
     7
370
    35
100
AcDbLine
 10
195.6877450944
 20
136.6453263568
 30
0.0
 11
195.118685021
 21
136.9699297666
 31
0.0
  0
LINE
  5
305
330
1F
100
AcDbEntity
  8
0
  6
Continuous
 62
     7
370
    35
100
AcDbLine
 10
195.6877450944
 20
136.6453263568
 30
0.0
 11
195.8986040407
 21
136.7685181272
 31
0.0
  0
LINE
  5
306
330
1F
100
AcDbEntity
  8
0
  6
Continuous
 62
     7
370
    35
100
AcDbLine
 10
195.8986040407
 20
136.7685181272
 30
0.0
 11
195.3295439673
 21
137.093121537
 31
0.0
  0
LINE
  5
307
330
1F
100
AcDbEntity
  8
0
  6
Continuous
 62
     7
370
    35
100
AcDbLine
 10
195.3295439673
 20
137.093121537
 30
0.0
 11
195.8918344908
 21
137.4216329249
 31
0.0
  0
LINE
  5
308
330
1F
100
AcDbEntity
  8
0
  6
Continuous
 62
     7
370
    35
100
AcDbLine
 10
195.8918344908
 20
137.4216329249
 30
0.0
 11
195.6784369632
 21
137.5433592036
 31
0.0
  0
LINE
  5
309
330
1F
100
AcDbEntity
  8
0
  6
Continuous
 62
     7
370
    35
100
AcDbLine
 10
195.1161464397
 20
137.2148478157
 30
0.0
 11
195.6784369632
 21
137.5433592036
 31
0.0
  0
LINE
  5
30A
330
1F
100
AcDbEntity
  8
0
  6
Continuous
 62
     7
370
    35
100
AcDbLine
 10
195.1161464397
 20
137.2148478157
 30
0.0
 11
194.5470863663
 21
137.5394512256
 31
0.0
  0
LINE
  5
30B
330
1F
100
AcDbEntity
  8
0
  6
Continuous
 62
     7
370
    35
100
AcDbLine
 10
194.33622742
 20
137.4162594551
 30
0.0
 11
194.5470863663
 21
137.5394512256
 31
0.0
  0
LWPOLYLINE
  5
30C
330
1F
100
AcDbEntity
  8
0
  6
Continuous
 62
     7
370
    35
100
AcDbPolyline
 90
       18
 70
   128
 43
0.0
 10
227.1014241465
 20
119.7713646452
 10
226.675231886
 20
119.9377487564
 10
226.1737034627
 20
120.0040190257
 10
225.6645730692
 20
119.9612252861
 10
225.2166015865
 20
119.815147069
 10
224.8902900454
 20
119.5855130474
 10
224.7297086279
 20
119.3033365681
 10
224.756544744
 20
119.0067271283
 10
224.9671740278
 20
118.7357434765
 10
225.3331498271
 20
118.5269834564
 10
225.8050450825
 20
118.4086412654
 10
226.3191277247
 20
118.3966996723
 10
226.8059680444
 20
118.4927714553
 10
227.1998155587
 20
118.6838815878
 10
227.4474789784
 20
118.9442195875
 10
227.5155099863
 20
119.2386253648
 10
227.3947206178
 20
119.5273377883
 10
227.1014241465
 20
119.7713646452
  0
LINE
  5
30D
330
1F
100
AcDbEntity
  8
0
  6
Continuous
 62
     7
370
    35
100
AcDbLine
 10
226.118685021
 20
119.0740106919
 30
0.0
 11
225.5563944975
 21
118.7454993041
 31
0.0
  0
LINE
  5
30E
330
1F
100
AcDbEntity
  8
0
  6
Continuous
 62
     7
370
    35
100
AcDbLine
 10
226.6877450944
 20
118.7494072821
 30
0.0
 11
226.118685021
 21
119.0740106919
 31
0.0
  0
LINE
  5
30F
330
1F
100
AcDbEntity
  8
0
  6
Continuous
 62
     7
370
    35
100
AcDbLine
 10
226.8986040407
 20
118.8725990525
 30
0.0
 11
226.6877450944
 21
118.7494072821
 31
0.0
  0
LINE
  5
310
330
1F
100
AcDbEntity
  8
0
  6
Continuous
 62
     7
370
    35
100
AcDbLine
 10
226.8986040407
 20
118.8725990525
 30
0.0
 11
226.3295439673
 21
119.1972024624
 31
0.0
  0
LINE
  5
311
330
1F
100
AcDbEntity
  8
0
  6
Continuous
 62
     7
370
    35
100
AcDbLine
 10
226.8918344908
 20
119.5257138502
 30
0.0
 11
226.3295439673
 21
119.1972024624
 31
0.0
  0
LINE
  5
312
330
1F
100
AcDbEntity
  8
0
  6
Continuous
 62
     7
370
    35
100
AcDbLine
 10
226.8918344908
 20
119.5257138502
 30
0.0
 11
226.6784369632
 21
119.6474401289
 31
0.0
  0
LINE
  5
313
330
1F
100
AcDbEntity
  8
0
  6
Continuous
 62
     7
370
    35
100
AcDbLine
 10
226.6784369632
 20
119.6474401289
 30
0.0
 11
226.1161464397
 21
119.3189287411
 31
0.0
  0
LINE
  5
314
330
1F
100
AcDbEntity
  8
0
  6
Continuous
 62
     7
370
    35
100
AcDbLine
 10
226.1161464397
 20
119.3189287411
 30
0.0
 11
225.5470863663
 21
119.6435321509
 31
0.0
  0
LINE
  5
315
330
1F
100
AcDbEntity
  8
0
  6
Continuous
 62
     7
370
    35
100
AcDbLine
 10
225.5470863663
 20
119.6435321509
 30
0.0
 11
225.33622742
 21
119.5203403805
 31
0.0
  0
LINE
  5
316
330
1F
100
AcDbEntity
  8
0
  6
Continuous
 62
     7
370
    35
100
AcDbLine
 10
225.9052874934
 20
119.1957369706
 30
0.0
 11
225.33622742
 21
119.5203403805
 31
0.0
  0
LINE
  5
317
330
1F
100
AcDbEntity
  8
0
  6
Continuous
 62
     7
370
    35
100
AcDbLine
 10
225.9052874934
 20
119.1957369706
 30
0.0
 11
225.3429969699
 21
118.8672255828
 31
0.0
  0
LINE
  5
318
330
1F
100
AcDbEntity
  8
0
  6
Continuous
 62
     7
370
    35
100
AcDbLine
 10
225.5563944975
 20
118.7454993041
 30
0.0
 11
225.3429969699
 21
118.8672255828
 31
0.0
  0
LWPOLYLINE
  5
319
330
1F
100
AcDbEntity
  8
0
  6
Continuous
 62
     7
370
    35
100
AcDbPolyline
 90
       18
 70
   128
 43
0.0
 10
205.5970804518
 20
124.442898934
 10
205.4995171834
 20
124.7345236766
 10
205.226056002
 20
124.98610977
 10
204.8136293556
 20
125.163679118
 10
204.3179377481
 20
125.2432499964
 10
203.8059270777
 20
125.214075917
 10
203.3467472226
 20
125.080097001
 10
203.0024129668
 20
124.8594078433
 10
202.8194285594
 20
124.5818137376
 10
202.8225070587
 20
124.2848053061
 10
203.0112326961
 20
124.0084951831
 10
203.3601170288
 20
123.790200582
 10
203.8220412942
 20
123.6594033982
 10
204.3346200607
 20
123.6337685161
 10
204.8286267257
 20
123.7167580687
 10
205.2373429516
 20
123.8971638569
 10
205.5055693473
 20
124.1506210794
 10
205.5970804518
 20
124.442898934
  0
LINE
  5
31A
330
1F
100
AcDbEntity
  8
0
  6
Continuous
 62
     7
370
    35
100
AcDbLine
 10
204.0480057227
 20
124.3509533216
 30
0.0
 11
203.2480200437
 21
124.3481899639
 31
0.0
  0
LINE
  5
31B
330
1F
100
AcDbEntity
  8
0
  6
Continuous
 62
     7
370
    35
100
AcDbLine
 10
204.0527925174
 20
123.8891314193
 30
0.0
 11
204.0480057227
 21
124.3509533216
 31
0.0
  0
LINE
  5
31C
330
1F
100
AcDbEntity
  8
0
  6
Continuous
 62
     7
370
    35
100
AcDbLine
 10
204.352787147
 20
123.8901676785
 30
0.0
 11
204.0527925174
 21
123.8891314193
 31
0.0
  0
LINE
  5
31D
330
1F
100
AcDbEntity
  8
0
  6
Continuous
 62
     7
370
    35
100
AcDbLine
 10
204.352787147
 20
123.8901676785
 30
0.0
 11
204.3480003524
 21
124.3519895808
 31
0.0
  0
LINE
  5
31E
330
1F
100
AcDbEntity
  8
0
  6
Continuous
 62
     7
370
    35
100
AcDbLine
 10
205.1479860314
 20
124.3547529385
 30
0.0
 11
204.3480003524
 21
124.3519895808
 31
0.0
  0
LINE
  5
31F
330
1F
100
AcDbEntity
  8
0
  6
Continuous
 62
     7
370
    35
100
AcDbLine
 10
205.1479860314
 20
124.3547529385
 30
0.0
 11
205.1461909834
 21
124.5279361519
 31
0.0
  0
LINE
  5
320
330
1F
100
AcDbEntity
  8
0
  6
Continuous
 62
     7
370
    35
100
AcDbLine
 10
205.1461909834
 20
124.5279361519
 30
0.0
 11
204.3462053044
 21
124.5251727942
 31
0.0
  0
LINE
  5
321
330
1F
100
AcDbEntity
  8
0
  6
Continuous
 62
     7
370
    35
100
AcDbLine
 10
204.3462053044
 20
124.5251727942
 30
0.0
 11
204.3414185097
 21
124.9869946965
 31
0.0
  0
LINE
  5
322
330
1F
100
AcDbEntity
  8
0
  6
Continuous
 62
     7
370
    35
100
AcDbLine
 10
204.3414185097
 20
124.9869946965
 30
0.0
 11
204.0414238801
 21
124.9859584373
 31
0.0
  0
LINE
  5
323
330
1F
100
AcDbEntity
  8
0
  6
Continuous
 62
     7
370
    35
100
AcDbLine
 10
204.0462106747
 20
124.524136535
 30
0.0
 11
204.0414238801
 21
124.9859584373
 31
0.0
  0
LINE
  5
324
330
1F
100
AcDbEntity
  8
0
  6
Continuous
 62
     7
370
    35
100
AcDbLine
 10
204.0462106747
 20
124.524136535
 30
0.0
 11
203.2462249957
 21
124.5213731773
 31
0.0
  0
LINE
  5
325
330
1F
100
AcDbEntity
  8
0
  6
Continuous
 62
     7
370
    35
100
AcDbLine
 10
203.2480200437
 20
124.3481899639
 30
0.0
 11
203.2462249957
 21
124.5213731773
 31
0.0
  0
LWPOLYLINE
  5
326
330
1F
100
AcDbEntity
  8
0
  6
Continuous
 62
     7
370
    35
100
AcDbPolyline
 90
       18
 70
   128
 43
0.0
 10
248.0293490564
 20
125.246251387
 10
247.5241854499
 20
125.189929311
 10
247.0883783331
 20
125.0320635312
 10
246.7807858721
 20
124.7939746961
 10
246.6429501332
 20
124.5078180221
 10
246.6934865967
 20
124.2122405536
 10
246.9255700331
 20
123.9471616657
 10
247.3078562884
 20
123.7483817309
 10
247.7887154855
 20
123.642747081
 10
248.3032049252
 20
123.6445242608
 10
248.7818399578
 20
123.7534732523
 10
249.1599782701
 20
123.9548798905
 10
249.3865501875
 20
124.2215430928
 10
249.4309559171
 20
124.5174485162
 10
249.2871982192
 20
124.8026324936
 10
248.9746923673
 20
125.0385793485
 10
248.5356440085
 20
125.1934231508
 10
248.0293490564
 20
125.246251387
  0
LINE
  5
327
330
1F
100
AcDbEntity
  8
0
  6
Continuous
 62
     7
370
    35
100
AcDbLine
 10
248.1886207859
 20
124.3519895808
 30
0.0
 11
248.1934075806
 21
123.8901676785
 31
0.0
  0
LINE
  5
328
330
1F
100
AcDbEntity
  8
0
  6
Continuous
 62
     7
370
    35
100
AcDbLine
 10
248.9886064649
 20
124.3547529385
 30
0.0
 11
248.1886207859
 21
124.3519895808
 31
0.0
  0
LINE
  5
329
330
1F
100
AcDbEntity
  8
0
  6
Continuous
 62
     7
370
    35
100
AcDbLine
 10
248.9868114169
 20
124.5279361519
 30
0.0
 11
248.9886064649
 21
124.3547529385
 31
0.0
  0
LINE
  5
32A
330
1F
100
AcDbEntity
  8
0
  6
Continuous
 62
     7
370
    35
100
AcDbLine
 10
248.9868114169
 20
124.5279361519
 30
0.0
 11
248.1868257379
 21
124.5251727942
 31
0.0
  0
LINE
  5
32B
330
1F
100
AcDbEntity
  8
0
  6
Continuous
 62
     7
370
    35
100
AcDbLine
 10
248.1820389433
 20
124.9869946965
 30
0.0
 11
248.1868257379
 21
124.5251727942
 31
0.0
  0
LINE
  5
32C
330
1F
100
AcDbEntity
  8
0
  6
Continuous
 62
     7
370
    35
100
AcDbLine
 10
248.1820389433
 20
124.9869946965
 30
0.0
 11
247.8820443136
 21
124.9859584373
 31
0.0
  0
LINE
  5
32D
330
1F
100
AcDbEntity
  8
0
  6
Continuous
 62
     7
370
    35
100
AcDbLine
 10
247.8820443136
 20
124.9859584373
 30
0.0
 11
247.8868311083
 21
124.524136535
 31
0.0
  0
LINE
  5
32E
330
1F
100
AcDbEntity
  8
0
  6
Continuous
 62
     7
370
    35
100
AcDbLine
 10
247.8868311083
 20
124.524136535
 30
0.0
 11
247.0868454293
 21
124.5213731773
 31
0.0
  0
LINE
  5
32F
330
1F
100
AcDbEntity
  8
0
  6
Continuous
 62
     7
370
    35
100
AcDbLine
 10
247.0868454293
 20
124.5213731773
 30
0.0
 11
247.0886404773
 21
124.3481899639
 31
0.0
  0
LINE
  5
330
330
1F
100
AcDbEntity
  8
0
  6
Continuous
 62
     7
370
    35
100
AcDbLine
 10
247.8886261563
 20
124.3509533216
 30
0.0
 11
247.0886404773
 21
124.3481899639
 31
0.0
  0
LINE
  5
331
330
1F
100
AcDbEntity
  8
0
  6
Continuous
 62
     7
370
    35
100
AcDbLine
 10
247.8886261563
 20
124.3509533216
 30
0.0
 11
247.893412951
 21
123.8891314193
 31
0.0
  0
LINE
  5
332
330
1F
100
AcDbEntity
  8
0
  6
Continuous
 62
     7
370
    35
100
AcDbLine
 10
248.1934075806
 20
123.8901676785
 30
0.0
 11
247.893412951
 21
123.8891314193
 31
0.0
  0
LINE
  5
333
330
1F
100
AcDbEntity
  8
0
  6
Continuous
 62
     7
370
    35
100
AcDbLine
 10
193.1174157303
 20
135.5409612486
 30
0.0
 11
193.1632011334
 21
134.5377853009
 31
0.0
  0
LWPOLYLINE
  5
334
330
1F
100
AcDbEntity
  8
0
  6
Continuous
 62
     7
370
    35
100
AcDbPolyline
 90
        3
 70
   128
 43
0.0
 10
259.0716303272
 20
134.5377853009
 10
259.0948787151
 20
134.8370169127
 10
259.1174157303
 20
135.5409612486
  0
LWPOLYLINE
  5
335
330
1F
100
AcDbEntity
  8
0
  6
Continuous
 62
     7
370
    35
100
AcDbPolyline
 90
        3
 70
   128
 43
0.0
 10
193.1174157303
 20
135.5409612486
 10
193.1300934328
 20
135.0129504021
 10
193.1632011334
 20
134.5377853009
  0
LWPOLYLINE
  5
336
330
1F
100
AcDbEntity
  8
0
  6
Continuous
 62
     7
370
    35
100
AcDbPolyline
 90
        3
 70
   128
 43
0.0
 10
259.0716303272
 20
134.5377853009
 10
259.1160070165
 20
135.3649375958
 10
259.1174157303
 20
135.5409612486
  0
LWPOLYLINE
  5
337
330
1F
100
AcDbEntity
  8
0
  6
Continuous
 62
     7
370
    35
100
AcDbPolyline
 90
        3
 70
   128
 43
0.0
 10
193.1174157303
 20
135.8675775733
 10
193.1300934328
 20
135.3395667269
 10
193.2400521363
 20
134.2267228715
  0
ARC
  5
338
330
1F
100
AcDbEntity
  8
0
  6
Continuous
 62
     7
370
    35
100
AcDbCircle
 10
248.0378424895
 20
135.8706473893
 30
0.0
 40
11.07957366614884
100
AcDbArc
 50
351.4672706197
 51
359.9841250661
  0
ARC
  5
339
330
1F
100
AcDbEntity
  8
0
  6
Continuous
 62
     7
370
    35
100
AcDbCircle
 10
239.0043313588
 20
122.7562560271
 30
0.0
 40
11.27434712436578
100
AcDbArc
 50
60.0929089896
 51
79.2073327812
  0
LWPOLYLINE
  5
33A
330
1F
100
AcDbEntity
  8
0
  6
Continuous
 62
     7
370
    35
100
AcDbPolyline
 90
       48
 70
   128
 43
0.0
 10
219.1107613538
 20
156.7784345677
 10
220.1242673751
 20
156.276058941
 10
221.2447212708
 20
155.856149908
 10
222.4521285145
 20
155.5262007554
 10
223.7249428954
 20
155.2920994337
 10
225.0404510108
 20
155.1580234864
 10
226.3751775871
 20
155.126365502
 10
227.7053043969
 20
155.1976904181
 10
229.0070952959
 20
155.3707254397
 10
230.2573197946
 20
155.6423827528
 10
231.4336676072
 20
156.0078146263
 10
232.515146779
 20
156.4604999197
 10
233.4824582888
 20
156.9923604532
 10
234.3183404396
 20
157.593905163
 10
235.0078768947
 20
158.2543994695
 10
235.5387628597
 20
158.9620568361
 10
235.901524662
 20
159.7042491004
 10
236.0896888086
 20
160.4677318238
 10
236.0998975059
 20
161.2388806391
 10
235.9319685794
 20
162.0039343774
 10
235.5888987248
 20
162.7492406366
 10
235.0768100317
 20
163.4614994087
 10
234.4048407352
 20
164.1280004193
 10
233.584982143
 20
164.7368499419
 10
232.6318646514
 20
165.2771830424
 10
231.5624966644
 20
165.7393574639
 10
230.3959610791
 20
166.1151256927
 10
229.1530747507
 20
166.397782136
 10
227.8560170152
 20
166.5822827829
 10
226.5279338986
 20
166.6653352148
 10
225.1925250756
 20
166.6454573593
 10
223.8736209481
 20
166.5230039372
 10
222.5947573918
 20
166.3001601325
 10
221.3787557569
 20
165.9809025984
 10
220.2473156215
 20
165.570928493
 10
219.2206275617
 20
165.077553814
 10
218.3170128501
 20
164.5095828442
 10
217.5525965126
 20
163.8771510391
 10
216.9410195771
 20
163.1915441592
 10
216.4931956482
 20
162.4649968755
 10
216.2171161548
 20
161.7104744414
 10
216.1177077418
 20
160.9414413277
 10
216.1967443547
 20
160.1716209486
 10
216.4528155834
 20
159.4147507669
 10
216.8813518307
 20
158.684337149
 10
217.4747058571
 20
157.9934143431
 10
218.2222892458
 20
157.3543118832
 10
219.1107613538
 20
156.7784345677
  0
LWPOLYLINE
  5
33B
330
1F
100
AcDbEntity
  8
0
  6
Continuous
 62
     7
370
    35
100
AcDbPolyline
 90
       26
 70
   128
 43
0.0
 10
216.1174157303
 20
160.4890541146
 10
216.1349339548
 20
160.147497996
 10
216.3028628813
 20
159.3824442577
 10
216.6459327359
 20
158.6371379986
 10
217.1580214289
 20
157.9248792264
 10
217.8299907255
 20
157.2583782158
 10
218.6498493176
 20
156.6495286932
 10
219.6029668093
 20
156.1091955927
 10
220.6723347963
 20
155.6470211713
 10
221.8388703816
 20
155.2712529424
 10
223.0817567099
 20
154.9885964991
 10
224.3788144454
 20
154.8040958523
 10
225.7068975621
 20
154.7210434203
 10
227.0423063851
 20
154.7409212758
 10
228.3612105125
 20
154.863374698
 10
229.6400740689
 20
155.0862185026
 10
230.8560757038
 20
155.4054760368
 10
231.9875158391
 20
155.8154501421
 10
233.014203899
 20
156.3088248211
 10
233.9178186106
 20
156.8767957909
 10
234.682234948
 20
157.509227596
 10
235.2938118836
 20
158.1948344759
 10
235.7416358124
 20
158.9213817597
 10
236.0177153059
 20
159.6759041937
 10
236.1171237189
 20
160.4449373074
 10
236.1174157303
 20
160.4890541146
  0
LWPOLYLINE
  5
33C
330
1F
100
AcDbEntity
  8
0
  6
Continuous
 62
     7
370
    35
100
AcDbPolyline
 90
       40
 70
   128
 43
0.0
 10
221.1677148886
 20
157.9876229753
 10
220.4232917108
 20
158.4836622765
 10
219.8263433541
 20
159.042214162
 10
219.3923304674
 20
159.6488124314
 10
219.1324937564
 20
160.2877465081
 10
219.0535628556
 20
160.9424683351
 10
219.1575820338
 20
161.596020961
 10
219.4418572488
 20
162.2314777161
 10
219.8990259221
 20
162.8323806042
 10
220.517247625
 20
163.3831665562
 10
221.2805107402
 20
163.8695705053
 10
222.1690471539
 20
164.2789948446
 10
223.1598442398
 20
164.6008356988
 10
224.2272408737
 20
164.8267575588
 10
225.3435920436
 20
164.9509091672
 10
226.4799848405
 20
164.9700750625
 10
227.6069872878
 20
164.8837588581
 10
228.6954106143
 20
164.6941960983
 10
229.7170652275
 20
164.406296359
 10
230.6454908094
 20
164.0275160924
 10
231.4566416253
 20
163.5676655082
 10
232.1295092951
 20
163.0386544951
 10
232.6466668996
 20
162.4541841604
 10
232.9947203285
 20
161.8293919789
 10
233.1646551807
 20
161.1804597398
 10
233.1520702329
 20
160.5241944472
 10
232.9572914287
 20
159.8775930275
 10
232.5853634366
 20
159.2574021179
 10
232.0459189965
 20
158.679684337
 10
231.3529294358
 20
158.1594022721
 10
230.5243428203
 20
157.7100309552
 10
229.581619108
 20
157.3432088675
 10
228.5491743478
 20
157.0684365083
 10
227.4537483168
 20
156.8928303373
 10
226.3237119738
 20
156.8209384623
 10
225.1883326664
 20
156.8546228449
 10
224.0770161224
 20
156.9930110774
 10
223.0185448564
 20
157.2325189773
 10
222.0403327183
 20
157.5669434156
 10
221.1677148886
 20
157.9876229753
  0
LWPOLYLINE
  5
33D
330
1F
100
AcDbEntity
  8
0
  6
Continuous
 62
     7
370
    35
100
AcDbPolyline
 90
       31
 70
   128
 43
0.0
 10
236.0755686648
 20
159.9614781627
 10
236.2345758192
 20
159.6612990562
 10
236.5147303732
 20
158.8850839378
 10
236.616983991
 20
158.0943994748
 10
236.5395870848
 20
157.3027744975
 10
236.2838639372
 20
156.5237539289
 10
235.854190042
 20
155.7706670268
 10
235.2579172389
 20
155.056399317
 10
234.5052479207
 20
154.3931721179
 10
233.6090604682
 20
153.7923334308
 10
232.5846888972
 20
153.2641637723
 10
231.4496604892
 20
152.8177002716
 10
230.223395895
 20
152.460582043
 10
228.9268768418
 20
152.1989194784
 10
227.58228713
 20
152.0371896969
 10
226.2126330625
 20
151.9781599399
 10
224.8413498
 20
152.0228402228
 10
223.4919003794
 20
152.1704660536
 10
222.1873742543
 20
152.4185115134
 10
220.9500922286
 20
152.7627324757
 10
219.8012245405
 20
153.1972392244
 10
218.760428635
 20
153.7145972284
 10
217.8455128183
 20
154.305954349
 10
217.0721315539
 20
154.9611923018
 10
216.4535176096
 20
155.6690997838
 10
216.0002556415
 20
156.4175643017
 10
215.7201010875
 20
157.1937794201
 10
215.6178474697
 20
157.9844638831
 10
215.6952443759
 20
158.7760888603
 10
215.9509675235
 20
159.5551094289
 10
216.1592627959
 20
159.9614781627
  0
LWPOLYLINE
  5
33E
330
1F
100
AcDbEntity
  8
0
  6
Continuous
 62
     7
370
    35
100
AcDbPolyline
 90
       26
 70
   128
 43
0.0
 10
236.6174157303
 20
157.222890867
 10
236.5395870848
 20
156.4862336857
 10
236.2838639372
 20
155.707213117
 10
235.854190042
 20
154.954126215
 10
235.2579172389
 20
154.2398585051
 10
234.5052479207
 20
153.576631306
 10
233.6090604682
 20
152.9757926189
 10
232.5846888972
 20
152.4476229604
 10
231.4496604892
 20
152.0011594597
 10
230.223395895
 20
151.6440412311
 10
228.9268768418
 20
151.3823786666
 10
227.58228713
 20
151.220648885
 10
226.2126330625
 20
151.161619128
 10
224.8413498
 20
151.2062994109
 10
223.4919003794
 20
151.3539252417
 10
222.1873742543
 20
151.6019707015
 10
220.9500922286
 20
151.9461916639
 10
219.8012245405
 20
152.3806984125
 10
218.760428635
 20
152.8980564166
 10
217.8455128183
 20
153.4894135371
 10
217.0721315539
 20
154.1446514899
 10
216.4535176096
 20
154.8525589719
 10
216.0002556415
 20
155.6010234898
 10
215.7201010875
 20
156.3772386082
 10
215.6178474697
 20
157.1679230712
 10
215.6174157303
 20
157.222890867
  0
ARC
  5
33F
330
1F
100
AcDbEntity
  8
0
  6
Continuous
 62
     7
370
    35
100
AcDbCircle
 10
226.1174157303
 20
148.3055761472
 30
0.0
 40
11.88630489170711
100
AcDbArc
 50
60.3564383769
 51
119.6435616231
  0
LWPOLYLINE
  5
340
330
1F
100
AcDbEntity
  8
0
  6
Continuous
 62
     7
370
    35
100
AcDbPolyline
 90
       48
 70
   128
 43
0.0
 10
237.2276793161
 20
134.9501979684
 10
237.8634812968
 20
133.8136284425
 10
238.6103419306
 20
132.7783614011
 10
239.4549334718
 20
131.8628712089
 10
240.3821841642
 20
131.0834948103
 10
241.3755471973
 20
130.4541401954
 10
242.4172959843
 20
129.9860382123
 10
243.4888404934
 20
129.6875421519
 10
244.5710589873
 20
129.5639786836
 10
245.6446392515
 20
129.6175528003
 10
246.6904232207
 20
129.8473084707
 10
247.6897488552
 20
130.2491456994
 10
248.6247831654
 20
130.8158936915
 10
249.4788404419
 20
131.5374388157
 10
250.2366800122
 20
132.4009050821
 10
250.8847782115
 20
133.3908839148
 10
251.4115697118
 20
134.489709118
 10
251.8076539064
 20
135.67777213
 10
252.0659626636
 20
136.9338719381
 10
252.1818864573
 20
138.2355934116
 10
252.1533566248
 20
139.5597072998
 10
251.9808822815
 20
140.8825847592
 10
251.6675412363
 20
142.18061901
 10
251.2189250675
 20
143.4306466003
 10
250.6430393412
 20
144.6103607583
 10
249.950160752
 20
145.6987094567
 10
249.1526537345
 20
146.6762710872
 10
248.2647498205
 20
147.5256010395
 10
247.3022936764
 20
148.2315430004
 10
246.2824603547
 20
148.7814994188
 10
245.2234488054
 20
149.1656563095
 10
244.1441571145
 20
149.3771583836
 10
243.063845268
 20
149.4122313817
 10
242.0017914562
 20
149.2702494252
 10
240.9769480546
 20
148.9537461855
 10
240.007603418
 20
148.4683696704
 10
239.1110555245
 20
147.8227814354
 10
238.3033032923
 20
147.0285020177
 10
237.5987610792
 20
146.0997053525
 10
237.0100014577
 20
145.0529658382
 10
236.5475308573
 20
143.9069625662
 10
236.2196020766
 20
142.682145992
 10
236.0320670126
 20
141.4003729966
 10
235.9882722329
 20
140.0845168492
 10
236.0889992565
 20
138.7580590341
 10
236.3324506072
 20
137.4446702224
 10
236.7142818898
 20
136.1677878685
 10
237.2276793161
 20
134.9501979684
  0
LWPOLYLINE
  5
341
330
1F
100
AcDbEntity
  8
0
  6
Continuous
 62
     7
370
    35
100
AcDbPolyline
 90
       25
 70
   128
 43
0.0
 10
241.817547749
 20
149.2340868505
 10
241.1904469274
 20
149.0744383805
 10
240.1911212929
 20
148.6726011518
 10
239.2560869827
 20
148.1058531597
 10
238.4020297063
 20
147.3843080355
 10
237.6441901359
 20
146.5208417691
 10
236.9960919367
 20
145.5308629364
 10
236.4693004364
 20
144.4320377332
 10
236.0732162417
 20
143.2439747213
 10
235.8149074846
 20
141.9878749131
 10
235.6989836908
 20
140.6861534397
 10
235.7275135234
 20
139.3620395514
 10
235.8999878666
 20
138.0391620921
 10
236.2133289118
 20
136.7411278412
 10
236.6619450807
 20
135.4911002509
 10
237.2378308069
 20
134.311386093
 10
237.9307093962
 20
133.2230373946
 10
238.7282164136
 20
132.245475764
 10
239.6161203276
 20
131.3961458117
 10
240.5785764718
 20
130.6902038509
 10
241.5984097934
 20
130.1402474324
 10
242.6574213428
 20
129.7560905417
 10
243.7367130336
 20
129.5445884676
 10
244.8170248802
 20
129.5095154696
 10
245.7702133544
 20
129.6285663368
  0
LWPOLYLINE
  5
342
330
1F
100
AcDbEntity
  8
0
  6
Continuous
 62
     7
370
    35
100
AcDbPolyline
 90
       40
 70
   128
 43
0.0
 10
239.2413768341
 20
136.2830775118
 10
238.815607862
 20
137.3253520588
 10
238.5263649079
 20
138.4237007348
 10
238.3811392123
 20
139.5496768861
 10
238.3836920446
 20
140.6741183219
 10
238.5339572876
 20
141.7679025996
 10
238.8280431506
 20
142.8027012809
 10
239.2583329641
 20
143.7517136236
 10
239.813682448
 20
144.5903607065
 10
240.4797083424
 20
145.2969220106
 10
241.2391609265
 20
145.8530979693
 10
242.0723707772
 20
146.2444839175
 10
242.9577581971
 20
146.4609431646
 10
243.8723921171
 20
146.4968695298
 10
244.7925839991
 20
146.3513325393
 10
245.6945013566
 20
146.0281015245
 10
246.554785004
 20
145.5355479989
 10
247.3511540466
 20
144.8864288403
 10
248.0629829445
 20
144.0975558937
 10
248.6718357032
 20
143.1893605542
 10
249.1619433561
 20
142.1853646039
 10
249.5206123723
 20
141.1115710107
 10
249.7385534128
 20
139.9957904645
 10
249.8101219191
 20
138.8669210954
 10
249.7334643044
 20
137.7542000271
 10
249.5105659607
 20
136.6864461508
 10
249.1471998381
 20
135.691313731
 10
248.6527769283
 20
134.7945761746
 10
248.0401025248
 20
134.0194585134
 10
247.325044573
 20
133.3860358876
 10
246.5261226981
 20
132.9107136105
 10
245.6640285571
 20
132.6058022794
 10
244.7610899355
 20
132.4791989376
 10
243.8406924691
 20
132.5341825451
 10
242.926673969
 20
132.7693290555
 10
242.0427070341
 20
133.1785482976
 10
241.2116859438
 20
133.7512417079
 10
240.4551337077
 20
134.4725768281
 10
239.7926446315
 20
135.3238714573
 10
239.2413768341
 20
136.2830775118
  0
ARC
  5
343
330
1F
100
AcDbEntity
  8
0
  6
Continuous
 62
     7
370
    35
100
AcDbCircle
 10
237.9517329151
 20
138.2534922174
 30
0.0
 40
8.787557668659888
100
AcDbArc
 50
318.8903264015
 51
63.9068610311
  0
LWPOLYLINE
  5
344
330
1F
100
AcDbEntity
  8
0
  6
Continuous
 62
     7
370
    35
100
AcDbPolyline
 90
       26
 70
   128
 43
0.0
 10
243.5241576369
 20
128.6656790129
 10
242.8748008421
 20
128.5673523233
 10
241.767975125
 20
128.5445424693
 10
240.6556917952
 20
128.6999196384
 10
239.5569823289
 20
129.030825284
 10
238.4906459498
 20
129.5315975187
 10
237.4749279688
 20
130.1936679909
 10
236.5272076024
 20
131.0057084912
 10
235.6637006086
 20
131.9538247814
 10
234.8991818317
 20
133.021794329
 10
234.2467323997
 20
134.1913438789
 10
233.7175159034
 20
135.4424621141
 10
233.3205873838
 20
136.7537420546
 10
233.0627383979
 20
138.1027473373
 10
232.9483808133
 20
139.4663961075
 10
232.9794713201
 20
140.8213559569
 10
233.1554779509
 20
142.1444431467
 10
233.4733891836
 20
143.4130192883
 10
233.9277654688
 20
144.6053786921
 10
234.5108323023
 20
145.7011197582
 10
235.212613249
 20
146.6814940532
 10
236.0211006422
 20
147.5297271011
 10
236.9224610386
 20
148.2313053992
 10
237.9012719118
 20
148.7742247483
 10
238.9407855363
 20
149.1491956479
 10
239.3738587513
 20
149.2514755522
  0
LWPOLYLINE
  5
345
330
1F
100
AcDbEntity
  8
0
  6
Continuous
 62
     7
370
    35
100
AcDbPolyline
 90
       31
 70
   128
 43
0.0
 10
246.5750709386
 20
129.8128591309
 10
246.561773439
 20
129.8040364937
 10
245.5829625658
 20
129.2611171446
 10
244.5434489412
 20
128.886146245
 10
243.4610189316
 20
128.685539651
 10
242.3541932144
 20
128.6627297971
 10
241.2419098846
 20
128.8181069662
 10
240.1432004183
 20
129.1490126117
 10
239.0768640392
 20
129.6497848465
 10
238.0611460582
 20
130.3118553187
 10
237.1134256918
 20
131.1238958189
 10
236.249918698
 20
132.0720121092
 10
235.4853999211
 20
133.1399816568
 10
234.8329504891
 20
134.3095312067
 10
234.3037339929
 20
135.5606494419
 10
233.9068054733
 20
136.8719293824
 10
233.6489564873
 20
138.220934665
 10
233.5345989028
 20
139.5845834353
 10
233.5656894095
 20
140.9395432847
 10
233.7416960403
 20
142.2626304745
 10
234.059607273
 20
143.531206616
 10
234.5139835582
 20
144.7235660199
 10
235.0970503918
 20
145.819307086
 10
235.7988313384
 20
146.799681381
 10
236.6073187317
 20
147.6479144289
 10
237.508679128
 20
148.3494927269
 10
238.4874900012
 20
148.8924120761
 10
239.5270036257
 20
149.2673829756
 10
240.6094336354
 20
149.4679895696
 10
241.7162593526
 20
149.4907994235
 10
242.6309395981
 20
149.3760490452
  0
LWPOLYLINE
  5
346
330
1F
100
AcDbEntity
  8
0
  6
Continuous
 62
     7
370
    35
100
AcDbPolyline
 90
       46
 70
   128
 43
0.0
 10
201.7222317794
 20
123.0093488622
 10
203.5461261023
 20
122.0298595307
 10
205.487696678
 20
121.1288992523
 10
207.5368210565
 20
120.3111652166
 10
209.6828160522
 20
119.5809207104
 10
211.9144934407
 20
118.9419728903
 10
214.2202182897
 20
118.3976529344
 10
216.5879696172
 20
117.9507986749
 10
219.0054030644
 20
117.6037398031
 10
221.4599152524
 20
117.3582857231
 10
223.9387094913
 20
117.215716119
 10
226.4288624958
 20
117.1767742825
 10
228.917391761
 20
117.2416632384
 10
231.3913232477
 20
117.4100446858
 10
233.8377590226
 20
117.6810407617
 10
236.2439445024
 20
118.0532386181
 10
238.5973349501
 20
118.5246977877
 10
240.8856608777
 20
119.0929603006
 10
243.0969920133
 20
119.7550634993
 10
245.2197995002
 20
120.5075554843
 10
247.2430160034
 20
121.3465131108
 10
249.1560934085
 20
122.2675624422
 10
250.9490578161
 20
123.2659015537
 10
252.6125615397
 20
124.3363255675
 10
254.1379318413
 20
125.4732537885
 10
255.5172161463
 20
126.6707587993
 10
256.7432235052
 20
127.9225973633
 10
257.8095620832
 20
129.2222429738
 10
258.7106724847
 20
130.5629198805
 10
259.4418567373
 20
131.9376384146
 10
259.9993027849
 20
133.3392314305
 10
260.380104362
 20
134.7603916709
 10
260.5822761454
 20
136.1937098646
 10
260.604764105
 20
137.631713354
 10
260.4474509991
 20
139.0669050549
 10
260.1111569854
 20
140.4918025423
 10
259.5976353451
 20
141.8989770604
 10
258.9095633422
 20
143.2810922529
 10
258.0505282657
 20
144.6309424111
 10
257.0250087265
 20
145.9414900414
 10
255.8383513088
 20
147.2059025553
 10
254.4967426949
 20
148.4175878912
 10
253.0071774108
 20
149.5702288831
 10
251.3774213602
 20
150.6578161944
 10
249.6159713366
 20
151.6746796485
 10
249.0072041115
 20
151.9938786949
  0
LWPOLYLINE
  5
347
330
1F
100
AcDbEntity
  8
0
  6
Continuous
 62
     7
370
    35
100
AcDbPolyline
 90
       24
 70
   128
 43
0.0
 10
203.2276273492
 20
151.9938786949
 10
202.1666422287
 20
151.4273906381
 10
200.4372807844
 20
150.3923343175
 10
198.841803673
 20
149.2879382392
 10
197.3885289732
 20
148.1199602131
 10
196.0850333864
 20
146.8944895357
 10
194.9381127351
 20
145.6179152438
 10
193.9537465325
 20
144.2968928046
 10
193.1370668082
 20
142.9383094174
 10
192.492331352
 20
141.5492481069
 10
192.0229015162
 20
140.1369507956
 10
191.7312246905
 20
138.7087805478
 10
191.6188215429
 20
137.2721831818
 10
191.6862780912
 20
135.8346484511
 10
191.9332426484
 20
134.4036709962
 10
192.3584276555
 20
132.9867112709
 10
192.9596163948
 20
131.5911566471
 10
193.7336745466
 20
130.2242829004
 10
194.67656653
 20
128.8932162777
 10
195.783376543
 20
127.6048963439
 10
197.0483341906
 20
126.3660398027
 10
198.4648445692
 20
125.1831054784
 10
200.0255226498
 20
124.062260643
 10
201.7222317794
 20
123.0093488622
  0
LWPOLYLINE
  5
348
330
1F
100
AcDbEntity
  8
0
  6
Continuous
 62
     7
370
    35
100
AcDbPolyline
 90
       44
 70
   128
 43
0.0
 10
202.6061152559
 20
123.5196039321
 10
204.3850515125
 20
122.5650625704
 10
206.2799393352
 20
121.6880307796
 10
208.2806686776
 20
120.8931879039
 10
210.376564783
 20
120.1847747739
 10
212.5564451388
 20
119.5665710802
 10
214.8086791402
 20
119.0418752068
 10
217.1212501443
 20
118.6134866334
 10
219.4818195843
 20
118.2836909984
 10
221.8777928006
 20
118.054247904
 10
224.2963862397
 20
117.9263815286
 10
226.7246956591
 20
117.9007740946
 10
229.1497649772
 20
117.9775622287
 10
231.5586554001
 20
118.1563362329
 10
233.9385144551
 20
118.4361422706
 10
236.2766445645
 20
118.8154874556
 10
238.5605707923
 20
119.2923478171
 10
240.7781074041
 20
119.8641790989
 10
242.9174228826
 20
120.5279303335
 10
244.9671030539
 20
121.2800601209
 10
246.9162119877
 20
122.1165555234
 10
248.7543503443
 20
123.0329534761
 10
250.4717108604
 20
124.0243645992
 10
252.0591306745
 20
125.0854992856
 10
253.5081402151
 20
126.2106959226
 10
254.8110083894
 20
127.3939510992
 10
255.9607838319
 20
128.6289516372
 10
256.9513319932
 20
129.9091082743
 10
257.7773678702
 20
131.2275908209
 10
258.4344842041
 20
132.5773646023
 10
258.919174995
 20
133.9512279913
 10
259.2288542078
 20
135.3418508322
 10
259.3618695699
 20
136.7418135505
 10
259.3175113867
 20
138.1436467394
 10
259.0960163285
 20
139.5398710123
 10
258.6985661671
 20
140.9230369086
 10
258.1272814712
 20
142.2857646398
 10
257.3852102918
 20
143.6207834638
 10
256.4763118996
 20
144.9209704776
 10
255.4054356609
 20
146.1793886208
 10
254.1782951637
 20
147.3893236883
 10
252.8014377336
 20
148.5443201529
 10
251.2822095006
 20
149.6382156087
 10
250.0345649639
 20
150.4267661681
  0
LWPOLYLINE
  5
349
330
1F
100
AcDbEntity
  8
0
  6
Continuous
 62
     7
370
    35
100
AcDbPolyline
 90
       23
 70
   128
 43
0.0
 10
202.2002664968
 20
150.4267661681
 10
201.7631206003
 20
150.1604129831
 10
200.1757007861
 20
149.0992782967
 10
198.7266912455
 20
147.9740816597
 10
197.4238230713
 20
146.7908264831
 10
196.2740476288
 20
145.5558259451
 10
195.2834994675
 20
144.275669308
 10
194.4574635905
 20
142.9571867614
 10
193.8003472566
 20
141.60741298
 10
193.3156564657
 20
140.233549591
 10
193.0059772529
 20
138.8429267501
 10
192.8729618908
 20
137.4429640318
 10
192.9173200739
 20
136.0411308429
 10
193.1388151322
 20
134.64490657
 10
193.5362652935
 20
133.2617406737
 10
194.1075499895
 20
131.8990129425
 10
194.8496211689
 20
130.5639941185
 10
195.7585195611
 20
129.2638071047
 10
196.8293957998
 20
128.0053889615
 10
198.0565362969
 20
126.795453894
 10
199.4333937271
 20
125.6404574294
 10
200.95262196
 20
124.5465619736
 10
202.6061152559
 20
123.5196039321
  0
LWPOLYLINE
  5
34A
330
1F
100
AcDbEntity
  8
0
  6
Continuous
 62
     7
370
    35
100
AcDbPolyline
 90
       34
 70
   128
 43
0.0
 10
201.7222317794
 20
118.5183743968
 10
203.5461261023
 20
117.5388850653
 10
205.487696678
 20
116.6379247869
 10
207.5368210565
 20
115.8201907513
 10
209.6828160522
 20
115.089946245
 10
211.9144934407
 20
114.4509984249
 10
214.2202182897
 20
113.906678469
 10
216.5879696172
 20
113.4598242096
 10
219.0054030644
 20
113.1127653377
 10
221.4599152524
 20
112.8673112578
 10
223.9387094913
 20
112.7247416536
 10
226.4288624958
 20
112.6857998171
 10
228.917391761
 20
112.7506887731
 10
231.3913232477
 20
112.9190702204
 10
233.8377590226
 20
113.1900662963
 10
236.2439445024
 20
113.5622641527
 10
238.5973349501
 20
114.0337233223
 10
240.8856608777
 20
114.6019858352
 10
243.0969920133
 20
115.264089034
 10
245.2197995002
 20
116.016581019
 10
247.2430160034
 20
116.8555386454
 10
249.1560934085
 20
117.7765879768
 10
250.9490578161
 20
118.7749270883
 10
252.6125615397
 20
119.8453511022
 10
254.1379318413
 20
120.9822793231
 10
255.5172161463
 20
122.1797843339
 10
256.7432235052
 20
123.4316228979
 10
257.8095620832
 20
124.7312685084
 10
258.7106724847
 20
126.0719454151
 10
259.4418567373
 20
127.4466639493
 10
259.9993027849
 20
128.8482569651
 10
260.380104362
 20
130.2694172055
 10
260.5822761454
 20
131.7027353992
 10
260.6174157303
 20
132.6014143258
  0
LWPOLYLINE
  5
34B
330
1F
100
AcDbEntity
  8
0
  6
Continuous
 62
     7
370
    35
100
AcDbPolyline
 90
       12
 70
   128
 43
0.0
 10
191.6174157303
 20
132.6014143258
 10
191.6862780912
 20
131.3436739858
 10
191.9332426484
 20
129.9126965308
 10
192.3584276555
 20
128.4957368055
 10
192.9596163948
 20
127.1001821817
 10
193.7336745466
 20
125.733308435
 10
194.67656653
 20
124.4022418123
 10
195.783376543
 20
123.1139218785
 10
197.0483341906
 20
121.8750653373
 10
198.4648445692
 20
120.6921310131
 10
200.0255226498
 20
119.5712861776
 10
201.7222317794
 20
118.5183743968
  0
LINE
  5
34C
330
1F
100
AcDbEntity
  8
0
  6
Continuous
 62
     7
370
    35
100
AcDbLine
 10
259.2468573062
 20
135.4593071674
 30
0.0
 11
259.1174157303
 21
136.175616318
 31
0.0
  0
LWPOLYLINE
  5
34D
330
1F
100
AcDbEntity
  8
0
  6
Continuous
 62
     7
370
    35
100
AcDbPolyline
 90
        3
 70
   128
 43
0.0
 10
193.1174157303
 20
136.175616318
 10
193.0059772529
 20
135.5767635026
 10
192.9879741545
 20
135.4593071674
  0
LWPOLYLINE
  5
34E
330
1F
100
AcDbEntity
  8
0
  6
Continuous
 62
     7
370
    35
100
AcDbPolyline
 90
       42
 70
   128
 43
0.0
 10
198.1777420453
 20
137.7045953661
 10
198.1700580001
 20
136.6110554852
 10
198.3246483816
 20
135.3307545836
 10
198.6549535868
 20
134.0615913006
 10
199.1588853198
 20
132.8115896952
 10
199.8332575619
 20
131.58865268
 10
200.6738067146
 20
130.4005120565
 10
201.6752185556
 20
129.2546796323
 10
202.8311618369
 20
128.158399729
 10
204.1343283127
 20
127.1186033809
 10
205.5764789451
 20
126.1418645155
 10
207.1484959934
 20
125.2343583903
 10
208.8404406598
 20
124.4018225512
 10
210.6416159252
 20
123.6495205579
 10
212.5406341798
 20
122.9822087058
 10
214.5254892186
 20
122.4041059553
 10
216.5836321491
 20
121.918867258
 10
218.702050729
 20
121.5295604493
 10
220.8673516339
 20
121.2386468521
 10
223.0658451345
 20
121.0479657159
 10
225.2836316469
 20
120.9587225882
 10
227.5066896107
 20
120.9714816928
 10
229.7209641377
 20
121.0861623626
 10
231.9124558714
 20
121.3020395494
 10
234.0673094956
 20
121.6177484081
 10
236.1719013317
 20
122.0312929257
 10
238.2129254726
 20
122.5400585406
 10
240.1774779066
 20
123.1408286727
 10
242.0531381005
 20
123.8298050599
 10
243.8280475267
 20
124.6026317717
 10
245.4909846365
 20
125.4544227486
 10
247.0314358059
 20
126.3797926939
 10
248.4396618067
 20
127.3728911209
 10
249.7067593806
 20
128.4274393416
 10
250.824717529
 20
129.5367701625
 10
251.7864681603
 20
130.6938700371
 10
252.5859307776
 20
131.8914234075
 10
253.2180509205
 20
133.1218589555
 10
253.6788321223
 20
134.3773974715
 10
253.9653611756
 20
135.6501010368
 10
254.0758265516
 20
136.9319232097
 10
254.0570894154
 20
137.7045953661
  0
LWPOLYLINE
  5
34F
330
1F
100
AcDbEntity
  8
0
  6
Continuous
 62
     7
370
    35
100
AcDbPolyline
 90
        3
 70
   128
 43
0.0
 10
259.1174157303
 20
135.8675775733
 10
259.1047380279
 20
135.3395667269
 10
258.9947793243
 20
134.2267228715
  0
ARC
  5
350
330
1F
100
AcDbEntity
  8
0
  6
Continuous
 62
     7
370
    35
100
AcDbCircle
 10
204.1969889712
 20
135.8706473893
 30
0.0
 40
11.07957366615677
100
AcDbArc
 50
180.0158749339
 51
188.5327293803
  0
LWPOLYLINE
  5
351
330
1F
100
AcDbEntity
  8
0
  6
Continuous
 62
     7
370
    35
100
AcDbPolyline
 90
       65
 70
   128
 43
0.0
 10
250.2321344268
 20
150.0971363223
 10
251.1115305294
 20
149.5314886563
 10
252.6346123616
 20
148.4319166265
 10
254.0128664612
 20
147.2704120278
 10
255.2387652822
 20
146.0533185957
 10
256.3056133904
 20
144.7872836724
 10
257.2075840315
 20
143.4792219016
 10
257.9397509544
 20
142.1362774632
 10
258.4981153175
 20
140.7657850539
 10
258.8796275281
 20
139.375229828
 10
259.0822038988
 20
137.972206516
 10
259.1047380279
 20
136.5643779447
 10
258.9471068416
 20
135.1594331856
 10
258.6101712668
 20
133.7650455596
 10
258.0957715289
 20
132.3888307286
 10
257.4067171008
 20
131.0383051006
 10
256.5467713589
 20
129.7208447784
 10
255.5206310286
 20
128.4436452733
 10
254.3339005324
 20
127.2136822062
 10
252.993061381
 20
126.0376732088
 10
251.5054367728
 20
124.9220412345
 10
249.8791515974
 20
123.8728794782
 10
248.1230880607
 20
122.8959180976
 10
246.2468371726
 20
121.9964929169
 10
244.2606463649
 20
121.1795162848
 10
242.175363523
 20
120.4494502441
 10
240.0023777388
 20
119.8102821625
 10
237.7535571069
 20
119.2655029543
 10
235.441183906
 20
118.8180880147
 10
233.0778875165
 20
118.470480969
 10
230.6765754437
 20
118.2245803262
 10
228.2503628217
 20
118.0817291104
 10
225.8125007822
 20
118.0427075255
 10
223.3763040825
 20
118.1077286937
 10
220.955078384
 20
118.2764374921
 10
218.562047582
 20
118.5479124916
 10
216.2102815808
 20
118.92067099
 10
213.9126249108
 20
119.3926771095
 10
211.681626576
 20
119.9613529165
 10
209.5294715157
 20
120.6235925009
 10
207.4679140544
 20
121.3757789398
 10
205.5082137041
 20
122.2138040515
 10
203.6610736687
 20
123.1330908337
 10
201.9365823863
 20
124.1286184606
 10
200.3441584305
 20
125.1949497055
 10
198.8924990686
 20
126.3262606371
 10
197.5895327607
 20
127.5163724273
 10
196.4423758569
 20
128.7587850981
 10
195.4572937304
 20
130.0467130225
 10
194.6396665582
 20
131.3731219846
 10
193.9939599364
 20
132.7307675988
 10
193.5237004907
 20
134.1122348755
 10
193.231456615
 20
135.5099787194
 10
193.1188244441
 20
136.9163651384
 10
193.1864191359
 20
138.3237129375
 10
193.4338715115
 20
139.7243356711
 10
193.8598300719
 20
141.1105836236
 10
194.4619683791
 20
142.4748855893
 10
195.2369977626
 20
143.809790224
 10
196.1806852805
 20
145.1080067414
 10
197.287876839
 20
146.3624447332
 10
198.5525253416
 20
147.566252894
 10
199.9677237169
 20
148.7128564412
 10
201.5257426419
 20
149.7959930236
 10
202.0026970338
 20
150.0971363223
  0
LWPOLYLINE
  5
352
330
1F
100
AcDbEntity
  8
0
  6
Continuous
 62
     8
370
    35
100
AcDbPolyline
 90
        9
 70
   128
 43
0.0
 10
219.1107613538
 20
153.9205417261
 10
218.2222892458
 20
154.4964190416
 10
217.4747058571
 20
155.1355215015
 10
216.8813518307
 20
155.8264443074
 10
216.4528155834
 20
156.5568579253
 10
216.1967443547
 20
157.313728107
 10
216.1177077418
 20
158.0835484861
 10
216.2171161548
 20
158.8525815998
 10
216.3450804409
 20
159.2642428968
  0
LWPOLYLINE
  5
353
330
1F
100
AcDbEntity
  8
0
  6
Continuous
 62
     8
370
    35
100
AcDbPolyline
 90
       21
 70
   128
 43
0.0
 10
235.8897510198
 20
159.2642428968
 10
235.9319685794
 20
159.1460415358
 10
236.0998975059
 20
158.3809877975
 10
236.0896888086
 20
157.6098389822
 10
235.901524662
 20
156.8463562588
 10
235.5387628597
 20
156.1041639945
 10
235.0078768947
 20
155.3965066279
 10
234.3183404396
 20
154.7360123214
 10
233.4824582888
 20
154.1344676116
 10
232.515146779
 20
153.6026070781
 10
231.4336676072
 20
153.1499217847
 10
230.2573197946
 20
152.7844899112
 10
229.0070952959
 20
152.5128325981
 10
227.7053043969
 20
152.3397975765
 10
226.3751775871
 20
152.2684726604
 10
225.0404510108
 20
152.3001306448
 10
223.7249428954
 20
152.4342065921
 10
222.4521285145
 20
152.6683079138
 10
221.2447212708
 20
152.9982570664
 10
220.1242673751
 20
153.4181660994
 10
219.1107613538
 20
153.9205417261
  0
LWPOLYLINE
  5
354
330
1F
100
AcDbEntity
  8
0
  6
Continuous
 62
     8
370
    35
100
AcDbPolyline
 90
       16
 70
   128
 43
0.0
 10
235.1759160031
 20
134.5365423211
 10
234.6625185768
 20
135.7541322213
 10
234.2806872942
 20
137.0310145752
 10
234.0372359436
 20
138.3444033869
 10
233.93650892
 20
139.670861202
 10
233.9803036997
 20
140.9867173493
 10
234.1678387637
 20
142.2684903448
 10
234.4957675443
 20
143.4933069189
 10
234.9582381448
 20
144.6393101909
 10
235.5469977663
 20
145.6860497053
 10
236.2515399793
 20
146.6148463705
 10
237.0592922115
 20
147.4091257881
 10
237.9558401051
 20
148.0547140232
 10
238.9251847417
 20
148.5400905382
 10
239.9500281432
 20
148.8565937779
 10
240.9506373842
 20
148.9952177435
  0
LWPOLYLINE
  5
355
330
1F
100
AcDbEntity
  8
0
  6
Continuous
 62
     8
370
    35
100
AcDbPolyline
 90
       12
 70
   128
 43
0.0
 10
244.878469451
 20
129.5128734605
 10
244.6386599078
 20
129.4336528235
 10
243.5928759386
 20
129.2038971531
 10
242.5192956744
 20
129.1503230364
 10
241.4370771804
 20
129.2738865047
 10
240.3655326714
 20
129.572382565
 10
239.3237838844
 20
130.0404845481
 10
238.3304208513
 20
130.669839163
 10
237.4031701588
 20
131.4492155617
 10
236.5585786177
 20
132.3647057538
 10
235.8117179839
 20
133.3999727953
 10
235.1759160031
 20
134.5365423211
  0
LINE
  5
356
330
1F
100
AcDbEntity
  8
0
  6
Continuous
 62
     7
370
    35
100
AcDbLine
 10
87.4511570371
 20
147.9354728349
 30
0.0
 11
86.8820969637
 21
148.4977633584
 31
0.0
  0
LINE
  5
357
330
1F
100
AcDbEntity
  8
0
  6
Continuous
 62
     7
370
    35
100
AcDbLine
 10
86.8888665137
 20
147.3664127615
 30
0.0
 11
87.4511570371
 21
147.9354728349
 31
0.0
  0
LINE
  5
358
330
1F
100
AcDbEntity
  8
0
  6
Continuous
 62
     7
370
    35
100
AcDbLine
 10
87.1022640412
 20
147.1555538152
 30
0.0
 11
86.8888665137
 21
147.3664127615
 31
0.0
  0
LINE
  5
359
330
1F
100
AcDbEntity
  8
0
  6
Continuous
 62
     7
370
    35
100
AcDbLine
 10
87.1022640412
 20
147.1555538152
 30
0.0
 11
87.6645545647
 21
147.7246138886
 31
0.0
  0
LINE
  5
35A
330
1F
100
AcDbEntity
  8
0
  6
Continuous
 62
     7
370
    35
100
AcDbLine
 10
88.2336146381
 20
147.1623233651
 30
0.0
 11
87.6645545647
 21
147.7246138886
 31
0.0
  0
LINE
  5
35B
330
1F
100
AcDbEntity
  8
0
  6
Continuous
 62
     7
370
    35
100
AcDbLine
 10
88.2336146381
 20
147.1623233651
 30
0.0
 11
88.4444735844
 21
147.3757208927
 31
0.0
  0
LINE
  5
35C
330
1F
100
AcDbEntity
  8
0
  6
Continuous
 62
     7
370
    35
100
AcDbLine
 10
88.4444735844
 20
147.3757208927
 30
0.0
 11
87.875413511
 21
147.9380114161
 31
0.0
  0
LINE
  5
35D
330
1F
100
AcDbEntity
  8
0
  6
Continuous
 62
     7
370
    35
100
AcDbLine
 10
87.875413511
 20
147.9380114161
 30
0.0
 11
88.4377040345
 21
148.5070714896
 31
0.0
  0
LINE
  5
35E
330
1F
100
AcDbEntity
  8
0
  6
Continuous
 62
     7
370
    35
100
AcDbLine
 10
88.4377040345
 20
148.5070714896
 30
0.0
 11
88.224306507
 21
148.7179304359
 31
0.0
  0
LINE
  5
35F
330
1F
100
AcDbEntity
  8
0
  6
Continuous
 62
     7
370
    35
100
AcDbLine
 10
87.6620159835
 20
148.1488703625
 30
0.0
 11
88.224306507
 21
148.7179304359
 31
0.0
  0
LINE
  5
360
330
1F
100
AcDbEntity
  8
0
  6
Continuous
 62
     7
370
    35
100
AcDbLine
 10
87.6620159835
 20
148.1488703625
 30
0.0
 11
87.09295591
 21
148.711160886
 31
0.0
  0
LINE
  5
361
330
1F
100
AcDbEntity
  8
0
  6
Continuous
 62
     7
370
    35
100
AcDbLine
 10
86.8820969637
 20
148.4977633584
 30
0.0
 11
87.09295591
 21
148.711160886
 31
0.0
  0
CIRCLE
  5
362
330
1F
100
AcDbEntity
  8
0
  6
Continuous
 62
     7
370
    35
100
AcDbCircle
 10
87.6632852741
 20
147.9367421255
 30
0.0
 40
1.399999999999985
  0
LINE
  5
363
330
1F
100
AcDbEntity
  8
0
  6
Continuous
 62
     7
370
    35
100
AcDbLine
 10
118.6620159835
 20
179.1488703625
 30
0.0
 11
119.224306507
 21
179.7179304359
 31
0.0
  0
LINE
  5
364
330
1F
100
AcDbEntity
  8
0
  6
Continuous
 62
     7
370
    35
100
AcDbLine
 10
118.09295591
 20
179.711160886
 30
0.0
 11
118.6620159835
 21
179.1488703625
 31
0.0
  0
LINE
  5
365
330
1F
100
AcDbEntity
  8
0
  6
Continuous
 62
     7
370
    35
100
AcDbLine
 10
117.8820969637
 20
179.4977633584
 30
0.0
 11
118.09295591
 21
179.711160886
 31
0.0
  0
LINE
  5
366
330
1F
100
AcDbEntity
  8
0
  6
Continuous
 62
     7
370
    35
100
AcDbLine
 10
117.8820969637
 20
179.4977633584
 30
0.0
 11
118.4511570371
 21
178.9354728349
 31
0.0
  0
LINE
  5
367
330
1F
100
AcDbEntity
  8
0
  6
Continuous
 62
     7
370
    35
100
AcDbLine
 10
117.8888665137
 20
178.3664127615
 30
0.0
 11
118.4511570371
 21
178.9354728349
 31
0.0
  0
LINE
  5
368
330
1F
100
AcDbEntity
  8
0
  6
Continuous
 62
     7
370
    35
100
AcDbLine
 10
117.8888665137
 20
178.3664127615
 30
0.0
 11
118.1022640412
 21
178.1555538152
 31
0.0
  0
LINE
  5
369
330
1F
100
AcDbEntity
  8
0
  6
Continuous
 62
     7
370
    35
100
AcDbLine
 10
118.1022640412
 20
178.1555538152
 30
0.0
 11
118.6645545647
 21
178.7246138886
 31
0.0
  0
LINE
  5
36A
330
1F
100
AcDbEntity
  8
0
  6
Continuous
 62
     7
370
    35
100
AcDbLine
 10
118.6645545647
 20
178.7246138886
 30
0.0
 11
119.2336146381
 21
178.1623233651
 31
0.0
  0
LINE
  5
36B
330
1F
100
AcDbEntity
  8
0
  6
Continuous
 62
     7
370
    35
100
AcDbLine
 10
119.2336146381
 20
178.1623233651
 30
0.0
 11
119.4444735844
 21
178.3757208927
 31
0.0
  0
LINE
  5
36C
330
1F
100
AcDbEntity
  8
0
  6
Continuous
 62
     7
370
    35
100
AcDbLine
 10
118.875413511
 20
178.9380114161
 30
0.0
 11
119.4444735844
 21
178.3757208927
 31
0.0
  0
LINE
  5
36D
330
1F
100
AcDbEntity
  8
0
  6
Continuous
 62
     7
370
    35
100
AcDbLine
 10
118.875413511
 20
178.9380114161
 30
0.0
 11
119.4377040345
 21
179.5070714896
 31
0.0
  0
LINE
  5
36E
330
1F
100
AcDbEntity
  8
0
  6
Continuous
 62
     7
370
    35
100
AcDbLine
 10
119.224306507
 20
179.7179304359
 30
0.0
 11
119.4377040345
 21
179.5070714896
 31
0.0
  0
CIRCLE
  5
36F
330
1F
100
AcDbEntity
  8
0
  6
Continuous
 62
     7
370
    35
100
AcDbCircle
 10
118.6632852741
 20
178.9367421255
 30
0.0
 40
1.399999999999995
  0
LINE
  5
370
330
1F
100
AcDbEntity
  8
0
  6
Continuous
 62
     7
370
    35
100
AcDbLine
 10
140.7326952817
 20
170.0079471811
 30
0.0
 11
141.5326809607
 21
170.0127339758
 31
0.0
  0
LINE
  5
371
330
1F
100
AcDbEntity
  8
0
  6
Continuous
 62
     7
370
    35
100
AcDbLine
 10
140.727908487
 20
170.8079328601
 30
0.0
 11
140.7326952817
 21
170.0079471811
 31
0.0
  0
LINE
  5
372
330
1F
100
AcDbEntity
  8
0
  6
Continuous
 62
     7
370
    35
100
AcDbLine
 10
140.4279138574
 20
170.8061378121
 30
0.0
 11
140.727908487
 21
170.8079328601
 31
0.0
  0
LINE
  5
373
330
1F
100
AcDbEntity
  8
0
  6
Continuous
 62
     7
370
    35
100
AcDbLine
 10
140.4279138574
 20
170.8061378121
 30
0.0
 11
140.432700652
 21
170.0061521331
 31
0.0
  0
LINE
  5
374
330
1F
100
AcDbEntity
  8
0
  6
Continuous
 62
     7
370
    35
100
AcDbLine
 10
139.632714973
 20
170.0013653384
 30
0.0
 11
140.432700652
 21
170.0061521331
 31
0.0
  0
LINE
  5
375
330
1F
100
AcDbEntity
  8
0
  6
Continuous
 62
     7
370
    35
100
AcDbLine
 10
139.632714973
 20
170.0013653384
 30
0.0
 11
139.6345100211
 21
169.7013707088
 31
0.0
  0
LINE
  5
376
330
1F
100
AcDbEntity
  8
0
  6
Continuous
 62
     7
370
    35
100
AcDbLine
 10
139.6345100211
 20
169.7013707088
 30
0.0
 11
140.4344957
 21
169.7061575035
 31
0.0
  0
LINE
  5
377
330
1F
100
AcDbEntity
  8
0
  6
Continuous
 62
     7
370
    35
100
AcDbLine
 10
140.4344957
 20
169.7061575035
 30
0.0
 11
140.4392824947
 21
168.9061718245
 31
0.0
  0
LINE
  5
378
330
1F
100
AcDbEntity
  8
0
  6
Continuous
 62
     7
370
    35
100
AcDbLine
 10
140.4392824947
 20
168.9061718245
 30
0.0
 11
140.7392771243
 21
168.9079668725
 31
0.0
  0
LINE
  5
379
330
1F
100
AcDbEntity
  8
0
  6
Continuous
 62
     7
370
    35
100
AcDbLine
 10
140.7344903297
 20
169.7079525515
 30
0.0
 11
140.7392771243
 21
168.9079668725
 31
0.0
  0
LINE
  5
37A
330
1F
100
AcDbEntity
  8
0
  6
Continuous
 62
     7
370
    35
100
AcDbLine
 10
140.7344903297
 20
169.7079525515
 30
0.0
 11
141.5344760087
 21
169.7127393462
 31
0.0
  0
LINE
  5
37B
330
1F
100
AcDbEntity
  8
0
  6
Continuous
 62
     7
370
    35
100
AcDbLine
 10
141.5326809607
 20
170.0127339758
 30
0.0
 11
141.5344760087
 21
169.7127393462
 31
0.0
  0
CIRCLE
  5
37C
330
1F
100
AcDbEntity
  8
0
  6
Continuous
 62
     7
370
    35
100
AcDbCircle
 10
140.5835954909
 20
169.8570523423
 30
0.0
 40
1.399999999999999
  0
LINE
  5
37D
330
1F
100
AcDbEntity
  8
0
  6
Continuous
 62
     7
370
    35
100
AcDbLine
 10
96.5938752665
 20
125.8655370699
 30
0.0
 11
95.7938895875
 21
125.8607502753
 31
0.0
  0
LINE
  5
37E
330
1F
100
AcDbEntity
  8
0
  6
Continuous
 62
     7
370
    35
100
AcDbLine
 10
96.5986620612
 20
125.0655513909
 30
0.0
 11
96.5938752665
 21
125.8655370699
 31
0.0
  0
LINE
  5
37F
330
1F
100
AcDbEntity
  8
0
  6
Continuous
 62
     7
370
    35
100
AcDbLine
 10
96.8986566908
 20
125.0673464389
 30
0.0
 11
96.5986620612
 21
125.0655513909
 31
0.0
  0
LINE
  5
380
330
1F
100
AcDbEntity
  8
0
  6
Continuous
 62
     7
370
    35
100
AcDbLine
 10
96.8986566908
 20
125.0673464389
 30
0.0
 11
96.8938698961
 21
125.8673321179
 31
0.0
  0
LINE
  5
381
330
1F
100
AcDbEntity
  8
0
  6
Continuous
 62
     7
370
    35
100
AcDbLine
 10
97.6938555751
 20
125.8721189126
 30
0.0
 11
96.8938698961
 21
125.8673321179
 31
0.0
  0
LINE
  5
382
330
1F
100
AcDbEntity
  8
0
  6
Continuous
 62
     7
370
    35
100
AcDbLine
 10
97.6938555751
 20
125.8721189126
 30
0.0
 11
97.6920605271
 21
126.1721135422
 31
0.0
  0
LINE
  5
383
330
1F
100
AcDbEntity
  8
0
  6
Continuous
 62
     7
370
    35
100
AcDbLine
 10
97.6920605271
 20
126.1721135422
 30
0.0
 11
96.8920748481
 21
126.1673267476
 31
0.0
  0
LINE
  5
384
330
1F
100
AcDbEntity
  8
0
  6
Continuous
 62
     7
370
    35
100
AcDbLine
 10
96.8920748481
 20
126.1673267476
 30
0.0
 11
96.8872880534
 21
126.9673124266
 31
0.0
  0
LINE
  5
385
330
1F
100
AcDbEntity
  8
0
  6
Continuous
 62
     7
370
    35
100
AcDbLine
 10
96.8872880534
 20
126.9673124266
 30
0.0
 11
96.5872934238
 21
126.9655173786
 31
0.0
  0
LINE
  5
386
330
1F
100
AcDbEntity
  8
0
  6
Continuous
 62
     7
370
    35
100
AcDbLine
 10
96.5920802185
 20
126.1655316996
 30
0.0
 11
96.5872934238
 21
126.9655173786
 31
0.0
  0
LINE
  5
387
330
1F
100
AcDbEntity
  8
0
  6
Continuous
 62
     7
370
    35
100
AcDbLine
 10
96.5920802185
 20
126.1655316996
 30
0.0
 11
95.7920945395
 21
126.1607449049
 31
0.0
  0
LINE
  5
388
330
1F
100
AcDbEntity
  8
0
  6
Continuous
 62
     7
370
    35
100
AcDbLine
 10
95.7938895875
 20
125.8607502753
 30
0.0
 11
95.7920945395
 21
126.1607449049
 31
0.0
  0
CIRCLE
  5
389
330
1F
100
AcDbEntity
  8
0
  6
Continuous
 62
     7
370
    35
100
AcDbCircle
 10
96.7429750573
 20
126.0164319087
 30
0.0
 40
1.399999999999999
  0
LINE
  5
38A
330
1F
100
AcDbEntity
  8
0
  6
Continuous
 62
     7
370
    35
100
AcDbLine
 10
96.5920802185
 20
170.0061521331
 30
0.0
 11
96.5872934238
 21
170.8061378121
 31
0.0
  0
LINE
  5
38B
330
1F
100
AcDbEntity
  8
0
  6
Continuous
 62
     7
370
    35
100
AcDbLine
 10
95.7920945395
 20
170.0013653384
 30
0.0
 11
96.5920802185
 21
170.0061521331
 31
0.0
  0
LINE
  5
38C
330
1F
100
AcDbEntity
  8
0
  6
Continuous
 62
     7
370
    35
100
AcDbLine
 10
95.7938895875
 20
169.7013707088
 30
0.0
 11
95.7920945395
 21
170.0013653384
 31
0.0
  0
LINE
  5
38D
330
1F
100
AcDbEntity
  8
0
  6
Continuous
 62
     7
370
    35
100
AcDbLine
 10
95.7938895875
 20
169.7013707088
 30
0.0
 11
96.5938752665
 21
169.7061575035
 31
0.0
  0
LINE
  5
38E
330
1F
100
AcDbEntity
  8
0
  6
Continuous
 62
     7
370
    35
100
AcDbLine
 10
96.5986620612
 20
168.9061718245
 30
0.0
 11
96.5938752665
 21
169.7061575035
 31
0.0
  0
LINE
  5
38F
330
1F
100
AcDbEntity
  8
0
  6
Continuous
 62
     7
370
    35
100
AcDbLine
 10
96.5986620612
 20
168.9061718245
 30
0.0
 11
96.8986566908
 21
168.9079668725
 31
0.0
  0
LINE
  5
390
330
1F
100
AcDbEntity
  8
0
  6
Continuous
 62
     7
370
    35
100
AcDbLine
 10
96.8986566908
 20
168.9079668725
 30
0.0
 11
96.8938698961
 21
169.7079525515
 31
0.0
  0
LINE
  5
391
330
1F
100
AcDbEntity
  8
0
  6
Continuous
 62
     7
370
    35
100
AcDbLine
 10
96.8938698961
 20
169.7079525515
 30
0.0
 11
97.6938555751
 21
169.7127393462
 31
0.0
  0
LINE
  5
392
330
1F
100
AcDbEntity
  8
0
  6
Continuous
 62
     7
370
    35
100
AcDbLine
 10
97.6938555751
 20
169.7127393462
 30
0.0
 11
97.6920605271
 21
170.0127339758
 31
0.0
  0
LINE
  5
393
330
1F
100
AcDbEntity
  8
0
  6
Continuous
 62
     7
370
    35
100
AcDbLine
 10
96.8920748481
 20
170.0079471811
 30
0.0
 11
97.6920605271
 21
170.0127339758
 31
0.0
  0
LINE
  5
394
330
1F
100
AcDbEntity
  8
0
  6
Continuous
 62
     7
370
    35
100
AcDbLine
 10
96.8920748481
 20
170.0079471811
 30
0.0
 11
96.8872880534
 21
170.8079328601
 31
0.0
  0
LINE
  5
395
330
1F
100
AcDbEntity
  8
0
  6
Continuous
 62
     7
370
    35
100
AcDbLine
 10
96.5872934238
 20
170.8061378121
 30
0.0
 11
96.8872880534
 21
170.8079328601
 31
0.0
  0
CIRCLE
  5
396
330
1F
100
AcDbEntity
  8
0
  6
Continuous
 62
     7
370
    35
100
AcDbCircle
 10
96.7429750573
 20
169.8570523423
 30
0.0
 40
1.399999999999999
  0
LINE
  5
397
330
1F
100
AcDbEntity
  8
0
  6
Continuous
 62
     7
370
    35
100
AcDbLine
 10
149.875413511
 20
147.9380114161
 30
0.0
 11
150.4444735844
 21
147.3757208927
 31
0.0
  0
LINE
  5
398
330
1F
100
AcDbEntity
  8
0
  6
Continuous
 62
     7
370
    35
100
AcDbLine
 10
150.4377040345
 20
148.5070714896
 30
0.0
 11
149.875413511
 21
147.9380114161
 31
0.0
  0
LINE
  5
399
330
1F
100
AcDbEntity
  8
0
  6
Continuous
 62
     7
370
    35
100
AcDbLine
 10
150.224306507
 20
148.7179304359
 30
0.0
 11
150.4377040345
 21
148.5070714896
 31
0.0
  0
LINE
  5
39A
330
1F
100
AcDbEntity
  8
0
  6
Continuous
 62
     7
370
    35
100
AcDbLine
 10
150.224306507
 20
148.7179304359
 30
0.0
 11
149.6620159835
 21
148.1488703625
 31
0.0
  0
LINE
  5
39B
330
1F
100
AcDbEntity
  8
0
  6
Continuous
 62
     7
370
    35
100
AcDbLine
 10
149.09295591
 20
148.711160886
 30
0.0
 11
149.6620159835
 21
148.1488703625
 31
0.0
  0
LINE
  5
39C
330
1F
100
AcDbEntity
  8
0
  6
Continuous
 62
     7
370
    35
100
AcDbLine
 10
149.09295591
 20
148.711160886
 30
0.0
 11
148.8820969637
 21
148.4977633584
 31
0.0
  0
LINE
  5
39D
330
1F
100
AcDbEntity
  8
0
  6
Continuous
 62
     7
370
    35
100
AcDbLine
 10
148.8820969637
 20
148.4977633584
 30
0.0
 11
149.4511570371
 21
147.9354728349
 31
0.0
  0
LINE
  5
39E
330
1F
100
AcDbEntity
  8
0
  6
Continuous
 62
     7
370
    35
100
AcDbLine
 10
149.4511570371
 20
147.9354728349
 30
0.0
 11
148.8888665137
 21
147.3664127615
 31
0.0
  0
LINE
  5
39F
330
1F
100
AcDbEntity
  8
0
  6
Continuous
 62
     7
370
    35
100
AcDbLine
 10
148.8888665137
 20
147.3664127615
 30
0.0
 11
149.1022640412
 21
147.1555538152
 31
0.0
  0
LINE
  5
3A0
330
1F
100
AcDbEntity
  8
0
  6
Continuous
 62
     7
370
    35
100
AcDbLine
 10
149.6645545647
 20
147.7246138886
 30
0.0
 11
149.1022640412
 21
147.1555538152
 31
0.0
  0
LINE
  5
3A1
330
1F
100
AcDbEntity
  8
0
  6
Continuous
 62
     7
370
    35
100
AcDbLine
 10
149.6645545647
 20
147.7246138886
 30
0.0
 11
150.2336146381
 21
147.1623233651
 31
0.0
  0
LINE
  5
3A2
330
1F
100
AcDbEntity
  8
0
  6
Continuous
 62
     7
370
    35
100
AcDbLine
 10
150.4444735844
 20
147.3757208927
 30
0.0
 11
150.2336146381
 21
147.1623233651
 31
0.0
  0
CIRCLE
  5
3A3
330
1F
100
AcDbEntity
  8
0
  6
Continuous
 62
     7
370
    35
100
AcDbCircle
 10
149.6632852741
 20
147.9367421255
 30
0.0
 40
1.400000000000016
  0
LINE
  5
3A4
330
1F
100
AcDbEntity
  8
0
  6
Continuous
 62
     7
370
    35
100
AcDbLine
 10
140.7344903297
 20
125.8673321179
 30
0.0
 11
140.7392771243
 21
125.0673464389
 31
0.0
  0
LINE
  5
3A5
330
1F
100
AcDbEntity
  8
0
  6
Continuous
 62
     7
370
    35
100
AcDbLine
 10
141.5344760087
 20
125.8721189126
 30
0.0
 11
140.7344903297
 21
125.8673321179
 31
0.0
  0
LINE
  5
3A6
330
1F
100
AcDbEntity
  8
0
  6
Continuous
 62
     7
370
    35
100
AcDbLine
 10
141.5326809607
 20
126.1721135422
 30
0.0
 11
141.5344760087
 21
125.8721189126
 31
0.0
  0
LINE
  5
3A7
330
1F
100
AcDbEntity
  8
0
  6
Continuous
 62
     7
370
    35
100
AcDbLine
 10
141.5326809607
 20
126.1721135422
 30
0.0
 11
140.7326952817
 21
126.1673267476
 31
0.0
  0
LINE
  5
3A8
330
1F
100
AcDbEntity
  8
0
  6
Continuous
 62
     7
370
    35
100
AcDbLine
 10
140.727908487
 20
126.9673124266
 30
0.0
 11
140.7326952817
 21
126.1673267476
 31
0.0
  0
LINE
  5
3A9
330
1F
100
AcDbEntity
  8
0
  6
Continuous
 62
     7
370
    35
100
AcDbLine
 10
140.727908487
 20
126.9673124266
 30
0.0
 11
140.4279138574
 21
126.9655173786
 31
0.0
  0
LINE
  5
3AA
330
1F
100
AcDbEntity
  8
0
  6
Continuous
 62
     7
370
    35
100
AcDbLine
 10
140.4279138574
 20
126.9655173786
 30
0.0
 11
140.432700652
 21
126.1655316996
 31
0.0
  0
LINE
  5
3AB
330
1F
100
AcDbEntity
  8
0
  6
Continuous
 62
     7
370
    35
100
AcDbLine
 10
140.432700652
 20
126.1655316996
 30
0.0
 11
139.632714973
 21
126.1607449049
 31
0.0
  0
LINE
  5
3AC
330
1F
100
AcDbEntity
  8
0
  6
Continuous
 62
     7
370
    35
100
AcDbLine
 10
139.632714973
 20
126.1607449049
 30
0.0
 11
139.6345100211
 21
125.8607502753
 31
0.0
  0
LINE
  5
3AD
330
1F
100
AcDbEntity
  8
0
  6
Continuous
 62
     7
370
    35
100
AcDbLine
 10
140.4344957
 20
125.8655370699
 30
0.0
 11
139.6345100211
 21
125.8607502753
 31
0.0
  0
LINE
  5
3AE
330
1F
100
AcDbEntity
  8
0
  6
Continuous
 62
     7
370
    35
100
AcDbLine
 10
140.4344957
 20
125.8655370699
 30
0.0
 11
140.4392824947
 21
125.0655513909
 31
0.0
  0
LINE
  5
3AF
330
1F
100
AcDbEntity
  8
0
  6
Continuous
 62
     7
370
    35
100
AcDbLine
 10
140.7392771243
 20
125.0673464389
 30
0.0
 11
140.4392824947
 21
125.0655513909
 31
0.0
  0
CIRCLE
  5
3B0
330
1F
100
AcDbEntity
  8
0
  6
Continuous
 62
     7
370
    35
100
AcDbCircle
 10
140.5835954909
 20
126.0164319087
 30
0.0
 40
1.399999999999985
  0
LINE
  5
3B1
330
1F
100
AcDbEntity
  8
0
  6
Continuous
 62
     7
370
    35
100
AcDbLine
 10
118.6645545647
 20
116.7246138886
 30
0.0
 11
118.1022640412
 21
116.1555538152
 31
0.0
  0
LINE
  5
3B2
330
1F
100
AcDbEntity
  8
0
  6
Continuous
 62
     7
370
    35
100
AcDbLine
 10
119.2336146381
 20
116.1623233651
 30
0.0
 11
118.6645545647
 21
116.7246138886
 31
0.0
  0
LINE
  5
3B3
330
1F
100
AcDbEntity
  8
0
  6
Continuous
 62
     7
370
    35
100
AcDbLine
 10
119.4444735844
 20
116.3757208927
 30
0.0
 11
119.2336146381
 21
116.1623233651
 31
0.0
  0
LINE
  5
3B4
330
1F
100
AcDbEntity
  8
0
  6
Continuous
 62
     7
370
    35
100
AcDbLine
 10
119.4444735844
 20
116.3757208927
 30
0.0
 11
118.875413511
 21
116.9380114161
 31
0.0
  0
LINE
  5
3B5
330
1F
100
AcDbEntity
  8
0
  6
Continuous
 62
     7
370
    35
100
AcDbLine
 10
119.4377040345
 20
117.5070714896
 30
0.0
 11
118.875413511
 21
116.9380114161
 31
0.0
  0
LINE
  5
3B6
330
1F
100
AcDbEntity
  8
0
  6
Continuous
 62
     7
370
    35
100
AcDbLine
 10
119.4377040345
 20
117.5070714896
 30
0.0
 11
119.224306507
 21
117.7179304359
 31
0.0
  0
LINE
  5
3B7
330
1F
100
AcDbEntity
  8
0
  6
Continuous
 62
     7
370
    35
100
AcDbLine
 10
119.224306507
 20
117.7179304359
 30
0.0
 11
118.6620159835
 21
117.1488703625
 31
0.0
  0
LINE
  5
3B8
330
1F
100
AcDbEntity
  8
0
  6
Continuous
 62
     7
370
    35
100
AcDbLine
 10
118.6620159835
 20
117.1488703625
 30
0.0
 11
118.09295591
 21
117.711160886
 31
0.0
  0
LINE
  5
3B9
330
1F
100
AcDbEntity
  8
0
  6
Continuous
 62
     7
370
    35
100
AcDbLine
 10
118.09295591
 20
117.711160886
 30
0.0
 11
117.8820969637
 21
117.4977633584
 31
0.0
  0
LINE
  5
3BA
330
1F
100
AcDbEntity
  8
0
  6
Continuous
 62
     7
370
    35
100
AcDbLine
 10
118.4511570371
 20
116.9354728349
 30
0.0
 11
117.8820969637
 21
117.4977633584
 31
0.0
  0
LINE
  5
3BB
330
1F
100
AcDbEntity
  8
0
  6
Continuous
 62
     7
370
    35
100
AcDbLine
 10
118.4511570371
 20
116.9354728349
 30
0.0
 11
117.8888665137
 21
116.3664127615
 31
0.0
  0
LINE
  5
3BC
330
1F
100
AcDbEntity
  8
0
  6
Continuous
 62
     7
370
    35
100
AcDbLine
 10
118.1022640412
 20
116.1555538152
 30
0.0
 11
117.8888665137
 21
116.3664127615
 31
0.0
  0
CIRCLE
  5
3BD
330
1F
100
AcDbEntity
  8
0
  6
Continuous
 62
     7
370
    35
100
AcDbCircle
 10
118.6632852741
 20
116.9367421255
 30
0.0
 40
1.399999999999995
  0
ARC
  5
3BE
330
1F
100
AcDbEntity
  8
0
  6
Continuous
 62
     7
370
    35
100
AcDbCircle
 10
135.6632852741
 20
147.9367421255
 30
0.0
 40
9.00000000000001
100
AcDbArc
 50
33.7489885959
 51
77.1585529396
  0
ARC
  5
3BF
330
1F
100
AcDbEntity
  8
0
  6
Continuous
 62
     7
370
    35
100
AcDbCircle
 10
135.6632852741
 20
147.9367421255
 30
0.0
 40
9.000000000000009
100
AcDbArc
 50
282.8414470604
 51
326.2510114041
  0
LINE
  5
3C0
330
1F
100
AcDbEntity
  8
0
  6
Continuous
 62
     7
370
    35
100
AcDbLine
 10
143.1466000476
 20
152.9367421255
 30
0.0
 11
143.4029396156
 21
152.9367421255
 31
0.0
  0
LINE
  5
3C1
330
1F
100
AcDbEntity
  8
0
  6
Continuous
 62
     7
370
    35
100
AcDbLine
 10
143.1466000476
 20
142.9367421255
 30
0.0
 11
143.4029396156
 21
142.9367421255
 31
0.0
  0
CIRCLE
  5
3C2
330
1F
100
AcDbEntity
  8
0
  6
Continuous
 62
     7
370
    35
100
AcDbCircle
 10
118.6632852741
 20
147.9367421255
 30
0.0
 40
10.00000000000001
  0
CIRCLE
  5
3C3
330
1F
100
AcDbEntity
  8
0
  6
Continuous
 62
     7
370
    35
100
AcDbCircle
 10
118.6632852741
 20
147.9367421255
 30
0.0
 40
7.064285714285714
  0
CIRCLE
  5
3C4
330
1F
100
AcDbEntity
  8
0
  6
Continuous
 62
     7
370
    35
100
AcDbCircle
 10
118.6632852741
 20
147.9367421255
 30
0.0
 40
10.5
  0
CIRCLE
  5
3C5
330
1F
100
AcDbEntity
  8
0
  6
Continuous
 62
     7
370
    35
100
AcDbCircle
 10
118.6632852741
 20
147.9367421255
 30
0.0
 40
34.5
  0
CIRCLE
  5
3C6
330
1F
100
AcDbEntity
  8
0
  6
Continuous
 62
     7
370
    35
100
AcDbCircle
 10
118.6632852741
 20
147.9367421255
 30
0.0
 40
33.25
  0
LWPOLYLINE
  5
3C7
330
1F
100
AcDbEntity
  8
0
  6
Continuous
 62
     7
370
    35
100
AcDbPolyline
 90
       58
 70
   128
 43
0.0
 10
145.9373603038
 20
147.9367421255
 10
145.903421082
 20
149.0368243355
 10
145.802015393
 20
150.1235530376
 10
145.6343741645
 20
151.1837368176
 10
145.4025323337
 20
152.2045064805
 10
145.1093041466
 20
153.1734712654
 10
144.758248996
 20
154.0788692524
 10
144.353628216
 20
154.9097101365
 10
143.9003533547
 20
155.6559086347
 10
143.403926555
 20
156.3084069082
 10
142.8703737655
 20
156.8592845117
 10
142.3061715946
 20
157.3018545375
 10
141.7181686922
 20
157.6307447849
 10
141.1135026171
 20
157.8419629719
 10
140.4995131962
 20
157.9329451958
 10
139.8836534295
 20
157.9025870556
 10
139.2733990202
 20
157.7512570581
 10
138.6761576301
 20
157.4807921443
 10
138.0991789608
 20
157.0944753921
 10
137.5494667517
 20
156.5969961634
 10
137.0336937643
 20
155.9943931821
 10
136.558120784
 20
155.2939812323
 10
136.1285206226
 20
154.504262366
 10
135.750108044
 20
153.6348227006
 10
135.4274764644
 20
152.6962160559
 10
135.1645421941
 20
151.699835845
 10
134.964496899
 20
150.657776774
 10
134.8297688579
 20
149.5826880283
 10
134.7619934867
 20
148.4876197291
 10
134.7619934867
 20
147.385864522
 10
134.8297688579
 20
146.2907962227
 10
134.964496899
 20
145.2157074771
 10
135.1645421941
 20
144.1736484061
 10
135.4274764644
 20
143.1772681952
 10
135.750108044
 20
142.2386615504
 10
136.1285206226
 20
141.3692218851
 10
136.558120784
 20
140.5795030188
 10
137.0336937643
 20
139.8790910689
 10
137.5494667517
 20
139.2764880877
 10
138.0991789608
 20
138.779008859
 10
138.6761576301
 20
138.3926921067
 10
139.2733990202
 20
138.122227193
 10
139.8836534295
 20
137.9708971955
 10
140.4995131962
 20
137.9405390553
 10
141.1135026171
 20
138.0315212792
 10
141.7181686922
 20
138.2427394661
 10
142.3061715946
 20
138.5716297136
 10
142.8703737655
 20
139.0141997393
 10
143.403926555
 20
139.5650773429
 10
143.9003533547
 20
140.2175756164
 10
144.353628216
 20
140.9637741146
 10
144.758248996
 20
141.7946149986
 10
145.1093041466
 20
142.7000129857
 10
145.4025323337
 20
143.6689777706
 10
145.6343741645
 20
144.6897474335
 10
145.802015393
 20
145.7499312135
 10
145.903421082
 20
146.8366599156
 10
145.9373603038
 20
147.9367421255
  0
CIRCLE
  5
3C8
330
1F
100
AcDbEntity
  8
0
  6
Continuous
 62
     7
370
    35
100
AcDbCircle
 10
118.6632852741
 20
147.9367421255
 30
0.0
 40
27.95979256003162
  0
LWPOLYLINE
  5
3C9
330
1F
100
AcDbEntity
  8
0
  6
Continuous
 62
     7
370
    35
100
AcDbPolyline
 90
       14
 70
   128
 43
0.0
 10
144.1521160501
 20
147.9367421255
 10
144.1181768284
 20
149.0368243355
 10
144.0167711394
 20
150.1235530376
 10
143.8491299108
 20
151.1837368176
 10
143.61728808
 20
152.2045064805
 10
143.3240598929
 20
153.1734712654
 10
142.9730047424
 20
154.0788692524
 10
142.5683839624
 20
154.9097101365
 10
142.1151091011
 20
155.6559086347
 10
141.6186823013
 20
156.3084069082
 10
141.0851295119
 20
156.8592845117
 10
140.5209273409
 20
157.3018545375
 10
139.9329244385
 20
157.6307447849
 10
139.4528091422
 20
157.8085163455
  0
LWPOLYLINE
  5
3CA
330
1F
100
AcDbEntity
  8
0
  6
Continuous
 62
     7
370
    35
100
AcDbPolyline
 90
       14
 70
   128
 43
0.0
 10
139.4528091422
 20
138.0649679056
 10
139.9329244385
 20
138.2427394661
 10
140.5209273409
 20
138.5716297136
 10
141.0851295119
 20
139.0141997393
 10
141.6186823013
 20
139.5650773429
 10
142.1151091011
 20
140.2175756164
 10
142.5683839624
 20
140.9637741146
 10
142.9730047424
 20
141.7946149986
 10
143.3240598929
 20
142.7000129857
 10
143.61728808
 20
143.6689777706
 10
143.8491299108
 20
144.6897474335
 10
144.0167711394
 20
145.7499312135
 10
144.1181768284
 20
146.8366599156
 10
144.1521160501
 20
147.9367421255
  0
CIRCLE
  5
3CB
330
1F
100
AcDbEntity
  8
0
  6
Continuous
 62
     7
370
    35
100
AcDbCircle
 10
118.6632852741
 20
147.9367421255
 30
0.0
 40
33.0
  0
ARC
  5
3CC
330
1F
100
AcDbEntity
  8
0
  6
HIDDEN
 62
     7
370
    25
100
AcDbCircle
 10
135.6632852741
 20
147.9367421255
 30
0.0
 40
9.00000000000001
100
AcDbArc
 50
77.1585529396
 51
282.8414470604
  0
LINE
  5
3CD
330
1F
100
AcDbEntity
  8
0
  6
HIDDEN
 62
     7
370
    25
100
AcDbLine
 10
143.4029396156
 20
152.9367421255
 30
0.0
 11
144.1779869184
 21
152.9367421255
 31
0.0
  0
ARC
  5
3CE
330
1F
100
AcDbEntity
  8
0
  6
HIDDEN
 62
     7
370
    25
100
AcDbCircle
 10
118.6632852741
 20
147.9367421255
 30
0.0
 40
26.00000000000003
100
AcDbArc
 50
11.087489211
 51
348.912510789
  0
LINE
  5
3CF
330
1F
100
AcDbEntity
  8
0
  6
HIDDEN
 62
     7
370
    25
100
AcDbLine
 10
143.4029396156
 20
142.9367421255
 30
0.0
 11
144.1779869184
 21
142.9367421255
 31
0.0
  0
CIRCLE
  5
3D0
330
1F
100
AcDbEntity
  8
0
  6
HIDDEN
 62
     7
370
    25
100
AcDbCircle
 10
118.6632852741
 20
116.9367421255
 30
0.0
 40
1.250000000000014
  0
CIRCLE
  5
3D1
330
1F
100
AcDbEntity
  8
0
  6
HIDDEN
 62
     7
370
    25
100
AcDbCircle
 10
96.7429750573
 20
126.0164319087
 30
0.0
 40
1.25
  0
CIRCLE
  5
3D2
330
1F
100
AcDbEntity
  8
0
  6
HIDDEN
 62
     7
370
    25
100
AcDbCircle
 10
87.6632852741
 20
147.9367421255
 30
0.0
 40
1.25
  0
CIRCLE
  5
3D3
330
1F
100
AcDbEntity
  8
0
  6
HIDDEN
 62
     7
370
    25
100
AcDbCircle
 10
96.7429750573
 20
169.8570523423
 30
0.0
 40
1.25
  0
CIRCLE
  5
3D4
330
1F
100
AcDbEntity
  8
0
  6
HIDDEN
 62
     7
370
    25
100
AcDbCircle
 10
118.6632852741
 20
178.9367421255
 30
0.0
 40
1.25
  0
CIRCLE
  5
3D5
330
1F
100
AcDbEntity
  8
0
  6
HIDDEN
 62
     7
370
    25
100
AcDbCircle
 10
140.5835954909
 20
169.8570523423
 30
0.0
 40
1.25
  0
CIRCLE
  5
3D6
330
1F
100
AcDbEntity
  8
0
  6
HIDDEN
 62
     7
370
    25
100
AcDbCircle
 10
149.6632852741
 20
147.9367421255
 30
0.0
 40
1.25
  0
CIRCLE
  5
3D7
330
1F
100
AcDbEntity
  8
0
  6
HIDDEN
 62
     7
370
    25
100
AcDbCircle
 10
140.5835954909
 20
126.0164319087
 30
0.0
 40
1.25
  0
CIRCLE
  5
3D8
330
1F
100
AcDbEntity
  8
0
  6
HIDDEN
 62
     7
370
    25
100
AcDbCircle
 10
118.6632852741
 20
147.9367421255
 30
0.0
 40
33.0
  0
CIRCLE
  5
3D9
330
1F
100
AcDbEntity
  8
0
  6
HIDDEN
 62
     7
370
    25
100
AcDbCircle
 10
118.6632852741
 20
116.9367421255
 30
0.0
 40
1.250000000000014
  0
CIRCLE
  5
3DA
330
1F
100
AcDbEntity
  8
0
  6
HIDDEN
 62
     7
370
    25
100
AcDbCircle
 10
140.5835954909
 20
126.0164319087
 30
0.0
 40
1.25
  0
CIRCLE
  5
3DB
330
1F
100
AcDbEntity
  8
0
  6
HIDDEN
 62
     7
370
    25
100
AcDbCircle
 10
96.7429750573
 20
126.0164319087
 30
0.0
 40
1.25
  0
LINE
  5
3DC
330
1F
100
AcDbEntity
  8
0
  6
HIDDEN
 62
     7
370
    25
100
AcDbLine
 10
144.1779869184
 20
142.9367421255
 30
0.0
 11
143.1466000476
 21
142.9367421255
 31
0.0
  0
CIRCLE
  5
3DD
330
1F
100
AcDbEntity
  8
0
  6
HIDDEN
 62
     7
370
    25
100
AcDbCircle
 10
149.6632852741
 20
147.9367421255
 30
0.0
 40
1.25
  0
CIRCLE
  5
3DE
330
1F
100
AcDbEntity
  8
0
  6
HIDDEN
 62
     7
370
    25
100
AcDbCircle
 10
87.6632852741
 20
147.9367421255
 30
0.0
 40
1.25
  0
LINE
  5
3DF
330
1F
100
AcDbEntity
  8
0
  6
HIDDEN
 62
     7
370
    25
100
AcDbLine
 10
144.1779869184
 20
152.9367421255
 30
0.0
 11
143.1466000476
 21
152.9367421255
 31
0.0
  0
ARC
  5
3E0
330
1F
100
AcDbEntity
  8
0
  6
HIDDEN
 62
     7
370
    25
100
AcDbCircle
 10
135.6632852741
 20
147.9367421255
 30
0.0
 40
9.000000000000009
100
AcDbArc
 50
33.7489885959
 51
326.2510114041
  0
CIRCLE
  5
3E1
330
1F
100
AcDbEntity
  8
0
  6
HIDDEN
 62
     7
370
    25
100
AcDbCircle
 10
96.7429750573
 20
169.8570523423
 30
0.0
 40
1.25
  0
CIRCLE
  5
3E2
330
1F
100
AcDbEntity
  8
0
  6
HIDDEN
 62
     7
370
    25
100
AcDbCircle
 10
140.5835954909
 20
169.8570523423
 30
0.0
 40
1.25
  0
ARC
  5
3E3
330
1F
100
AcDbEntity
  8
0
  6
HIDDEN
 62
     7
370
    25
100
AcDbCircle
 10
118.6632852741
 20
147.9367421255
 30
0.0
 40
26.00000000000003
100
AcDbArc
 50
11.087489211
 51
348.912510789
  0
CIRCLE
  5
3E4
330
1F
100
AcDbEntity
  8
0
  6
HIDDEN
 62
     7
370
    25
100
AcDbCircle
 10
118.6632852741
 20
178.9367421255
 30
0.0
 40
1.25
  0
CIRCLE
  5
3E5
330
1F
100
AcDbEntity
  8
0
  6
HIDDEN
 62
     7
370
    25
100
AcDbCircle
 10
118.6632852741
 20
147.9367421255
 30
0.0
 40
33.0
  0
DIMENSION
  5
3E6
330
1F
100
AcDbEntity
  8
DIM
100
AcDbDimension
  2
_D_9
 10
130.054256895
 20
154.9751226667
 30
0.0
 11
164.7689684363
 21
123.8440356731
 31
0.0
 70
   163
  1
<> Baffle
 71
     1
 42
-1.0
  3
SLDDIMSTYLE5
100
AcDbDiametricDimension
 15
141.2723136532
 25
140.8983615843
 35
0.0
 40
0.0
  0
DIMENSION
  5
3F1
330
1F
100
AcDbEntity
  8
DIM
100
AcDbDimension
  2
_D_10
 10
135.6632852741
 20
185.9639830925
 30
0.0
 11
127.1632852741
 21
185.9639830925
 31
0.0
 70
   160
  1
<>
 71
     2
 42
-1.0
  3
SLDDIMSTYLE1
100
AcDbAlignedDimension
 13
118.6632852741
 23
159.4367421255
 33
0.0
 14
135.6632852741
 24
157.9367421255
 34
0.0
100
AcDbRotatedDimension
  0
INSERT
  5
406
330
1F
100
AcDbEntity
  8
DIM
100
AcDbBlockReference
  2
SW_CENTERMARKSYMBOL_0
 10
118.6632852741
 20
147.9367421255
 30
0.0
  0
INSERT
  5
412
330
1F
100
AcDbEntity
  8
DIM
100
AcDbBlockReference
  2
SW_CENTERMARKSYMBOL_1
 10
135.6632852741
 20
147.9367421255
 30
0.0
  0
ENDSEC
  0
SECTION
  2
OBJECTS
  0
DICTIONARY
  5
C
330
0
100
AcDbDictionary
281
     1
  3
ACAD_GROUP
350
D
  3
ACAD_LAYOUT
350
1A
  3
ACAD_MLINESTYLE
350
17
  3
ACAD_PLOTSETTINGS
350
19
  3
ACAD_PLOTSTYLENAME
350
E
  3
ACAD_SCALELIST
350
47
  3
DWGPROPS
350
413
  0
DICTIONARY
  5
D
102
{ACAD_REACTORS
330
C
102
}
330
C
100
AcDbDictionary
281
     1
  0
DICTIONARY
  5
1A
102
{ACAD_REACTORS
330
C
102
}
330
C
100
AcDbDictionary
281
     1
  3
Layout1
350
1E
  3
Layout2
350
26
  3
Model
350
22
  0
DICTIONARY
  5
17
102
{ACAD_REACTORS
330
C
102
}
330
C
100
AcDbDictionary
281
     1
  3
Standard
350
18
  0
DICTIONARY
  5
19
102
{ACAD_REACTORS
330
C
102
}
330
C
100
AcDbDictionary
281
     1
  0
ACDBDICTIONARYWDFLT
  5
E
102
{ACAD_REACTORS
330
C
102
}
330
C
100
AcDbDictionary
281
     1
  3
Normal
350
F
100
AcDbDictionaryWithDefault
340
F
  0
DICTIONARY
  5
47
102
{ACAD_REACTORS
330
C
102
}
330
C
100
AcDbDictionary
281
     1
  3
A0
350
48
  3
A1
350
49
  3
A2
350
4A
  3
A3
350
4B
  3
A4
350
4C
  3
A5
350
4D
  3
A6
350
4E
  3
A7
350
4F
  3
A8
350
50
  3
A9
350
51
  3
B0
350
52
  3
B1
350
53
  3
B2
350
54
  3
B3
350
55
  3
B4
350
56
  3
B5
350
57
  3
B6
350
58
  3
B7
350
59
  3
B8
350
5A
  3
B9
350
5B
  3
C0
350
5C
  3
C1
350
5D
  3
C2
350
5E
  3
C3
350
5F
  3
C4
350
60
  3
C5
350
61
  3
C6
350
62
  3
C7
350
63
  3
C8
350
64
  3
C9
350
65
  3
D0
350
66
  3
D1
350
67
  3
D2
350
68
  0
XRECORD
  5
413
102
{ACAD_REACTORS
330
C
102
}
330
C
100
AcDbXrecord
280
     1
  1
DWGPROPS COOKIE
  2

  3

  4

  6

  7

  8
R2591
  9

300
=
301
=
302
=
303
=
304
=
305
=
306
=
307
=
308
=
309
=
 40
0.0
 41
2459212.267305891
 42
2459212.267308553
  1

 90
        0
  0
LAYOUT
  5
1E
102
{ACAD_REACTORS
330
1A
102
}
330
1A
100
AcDbPlotSettings
  1

  2
none_device
  4

  6

 40
0.0
 41
0.0
 42
0.0
 43
0.0
 44
0.0
 45
0.0
 46
0.0
 47
0.0
 48
0.0
 49
0.0
140
0.0
141
0.0
142
1.0
143
1.0
 70
   688
 72
     1
 73
     0
 74
     5
  7

 75
    16
147
1.0
148
0.0
149
0.0
100
AcDbLayout
  1
Layout1
 70
     1
 71
     1
 10
0.0
 20
0.0
 11
420.0
 21
297.0
 12
0.0
 22
0.0
 32
0.0
 14
1.0000000000E+20
 24
1.0000000000E+20
 34
1.0000000000E+20
 15
-1.0000000000E+20
 25
-1.0000000000E+20
 35
-1.0000000000E+20
146
0.0
 13
0.0
 23
0.0
 33
0.0
 16
1.0
 26
0.0
 36
0.0
 17
0.0
 27
1.0
 37
0.0
 76
     0
330
1B
  0
LAYOUT
  5
26
102
{ACAD_REACTORS
330
1A
102
}
330
1A
100
AcDbPlotSettings
  1

  2
none_device
  4

  6

 40
0.0
 41
0.0
 42
0.0
 43
0.0
 44
0.0
 45
0.0
 46
0.0
 47
0.0
 48
0.0
 49
0.0
140
0.0
141
0.0
142
1.0
143
1.0
 70
   688
 72
     1
 73
     0
 74
     5
  7

 75
    16
147
1.0
148
0.0
149
0.0
100
AcDbLayout
  1
Layout2
 70
     1
 71
     2
 10
0.0
 20
0.0
 11
0.0
 21
0.0
 12
0.0
 22
0.0
 32
0.0
 14
0.0
 24
0.0
 34
0.0
 15
0.0
 25
0.0
 35
0.0
146
0.0
 13
0.0
 23
0.0
 33
0.0
 16
1.0
 26
0.0
 36
0.0
 17
0.0
 27
1.0
 37
0.0
 76
     0
330
23
  0
LAYOUT
  5
22
102
{ACAD_REACTORS
330
1A
102
}
330
1A
100
AcDbPlotSettings
  1

  2
none_device
  4
Letter_(8.50_x_11.00_Inches)
  6

 40
6.35
 41
6.35
 42
6.35000508
 43
6.35000508
 44
215.9
 45
279.4
 46
0.0
 47
0.0
 48
0.0
 49
0.0
140
0.0
141
0.0
142
1.0
143
1.0
 70
  1712
 72
     1
 73
     0
 74
     0
  7

 75
     0
147
1.0
148
0.0
149
0.0
100
AcDbLayout
  1
Model
 70
     1
 71
     0
 10
0.0
 20
0.0
 11
297.0
 21
210.0
 12
0.0
 22
0.0
 32
0.0
 14
0.0
 24
0.0
 34
0.0
 15
297.0
 25
210.0
 35
0.0
146
0.0
 13
0.0
 23
0.0
 33
0.0
 16
1.0
 26
0.0
 36
0.0
 17
0.0
 27
1.0
 37
0.0
 76
     0
330
1F
331
29
  0
MLINESTYLE
  5
18
102
{ACAD_REACTORS
330
17
102
}
330
17
100
AcDbMlineStyle
  2
Standard
 70
     0
  3

 62
   256
 51
90.0
 52
90.0
 71
     2
 49
0.5
 62
   256
  6
BYLAYER
 49
-0.5
 62
   256
  6
BYLAYER
  0
ACDBPLACEHOLDER
  5
F
102
{ACAD_REACTORS
330
E
102
}
330
E
  0
SCALE
  5
48
102
{ACAD_REACTORS
330
47
102
}
330
47
100
AcDbScale
 70
     0
300
1:1
140
1.0
141
1.0
290
     1
  0
SCALE
  5
49
102
{ACAD_REACTORS
330
47
102
}
330
47
100
AcDbScale
 70
     0
300
1:2
140
1.0
141
2.0
290
     0
  0
SCALE
  5
4A
102
{ACAD_REACTORS
330
47
102
}
330
47
100
AcDbScale
 70
     0
300
1:4
140
1.0
141
4.0
290
     0
  0
SCALE
  5
4B
102
{ACAD_REACTORS
330
47
102
}
330
47
100
AcDbScale
 70
     0
300
1:5
140
1.0
141
5.0
290
     0
  0
SCALE
  5
4C
102
{ACAD_REACTORS
330
47
102
}
330
47
100
AcDbScale
 70
     0
300
1:8
140
1.0
141
8.0
290
     0
  0
SCALE
  5
4D
102
{ACAD_REACTORS
330
47
102
}
330
47
100
AcDbScale
 70
     0
300
1:10
140
1.0
141
10.0
290
     0
  0
SCALE
  5
4E
102
{ACAD_REACTORS
330
47
102
}
330
47
100
AcDbScale
 70
     0
300
1:16
140
1.0
141
16.0
290
     0
  0
SCALE
  5
4F
102
{ACAD_REACTORS
330
47
102
}
330
47
100
AcDbScale
 70
     0
300
1:20
140
1.0
141
20.0
290
     0
  0
SCALE
  5
50
102
{ACAD_REACTORS
330
47
102
}
330
47
100
AcDbScale
 70
     0
300
1:30
140
1.0
141
30.0
290
     0
  0
SCALE
  5
51
102
{ACAD_REACTORS
330
47
102
}
330
47
100
AcDbScale
 70
     0
300
1:40
140
1.0
141
40.0
290
     0
  0
SCALE
  5
52
102
{ACAD_REACTORS
330
47
102
}
330
47
100
AcDbScale
 70
     0
300
1:50
140
1.0
141
50.0
290
     0
  0
SCALE
  5
53
102
{ACAD_REACTORS
330
47
102
}
330
47
100
AcDbScale
 70
     0
300
1:100
140
1.0
141
100.0
290
     0
  0
SCALE
  5
54
102
{ACAD_REACTORS
330
47
102
}
330
47
100
AcDbScale
 70
     0
300
2:1
140
2.0
141
1.0
290
     0
  0
SCALE
  5
55
102
{ACAD_REACTORS
330
47
102
}
330
47
100
AcDbScale
 70
     0
300
4:1
140
4.0
141
1.0
290
     0
  0
SCALE
  5
56
102
{ACAD_REACTORS
330
47
102
}
330
47
100
AcDbScale
 70
     0
300
8:1
140
8.0
141
1.0
290
     0
  0
SCALE
  5
57
102
{ACAD_REACTORS
330
47
102
}
330
47
100
AcDbScale
 70
     0
300
10:1
140
10.0
141
1.0
290
     0
  0
SCALE
  5
58
102
{ACAD_REACTORS
330
47
102
}
330
47
100
AcDbScale
 70
     0
300
100:1
140
100.0
141
1.0
290
     0
  0
SCALE
  5
59
102
{ACAD_REACTORS
330
47
102
}
330
47
100
AcDbScale
 70
     0
300
1/128" = 1'-0"
140
0.0078125
141
12.0
290
     0
  0
SCALE
  5
5A
102
{ACAD_REACTORS
330
47
102
}
330
47
100
AcDbScale
 70
     0
300
1/64" = 1'-0"
140
0.015625
141
12.0
290
     0
  0
SCALE
  5
5B
102
{ACAD_REACTORS
330
47
102
}
330
47
100
AcDbScale
 70
     0
300
1/32" = 1'-0"
140
0.03125
141
12.0
290
     0
  0
SCALE
  5
5C
102
{ACAD_REACTORS
330
47
102
}
330
47
100
AcDbScale
 70
     0
300
1/16" = 1'-0"
140
0.0625
141
12.0
290
     0
  0
SCALE
  5
5D
102
{ACAD_REACTORS
330
47
102
}
330
47
100
AcDbScale
 70
     0
300
3/32" = 1'-0"
140
0.09375
141
12.0
290
     0
  0
SCALE
  5
5E
102
{ACAD_REACTORS
330
47
102
}
330
47
100
AcDbScale
 70
     0
300
1/8" = 1'-0"
140
0.125
141
12.0
290
     0
  0
SCALE
  5
5F
102
{ACAD_REACTORS
330
47
102
}
330
47
100
AcDbScale
 70
     0
300
3/16" = 1'-0"
140
0.1875
141
12.0
290
     0
  0
SCALE
  5
60
102
{ACAD_REACTORS
330
47
102
}
330
47
100
AcDbScale
 70
     0
300
1/4" = 1'-0"
140
0.25
141
12.0
290
     0
  0
SCALE
  5
61
102
{ACAD_REACTORS
330
47
102
}
330
47
100
AcDbScale
 70
     0
300
3/8" = 1'-0"
140
0.375
141
12.0
290
     0
  0
SCALE
  5
62
102
{ACAD_REACTORS
330
47
102
}
330
47
100
AcDbScale
 70
     0
300
1/2" = 1'-0"
140
0.5
141
12.0
290
     0
  0
SCALE
  5
63
102
{ACAD_REACTORS
330
47
102
}
330
47
100
AcDbScale
 70
     0
300
3/4" = 1'-0"
140
0.75
141
12.0
290
     0
  0
SCALE
  5
64
102
{ACAD_REACTORS
330
47
102
}
330
47
100
AcDbScale
 70
     0
300
1" = 1'-0"
140
1.0
141
12.0
290
     0
  0
SCALE
  5
65
102
{ACAD_REACTORS
330
47
102
}
330
47
100
AcDbScale
 70
     0
300
1-1/2" = 1'-0"
140
1.5
141
12.0
290
     0
  0
SCALE
  5
66
102
{ACAD_REACTORS
330
47
102
}
330
47
100
AcDbScale
 70
     0
300
3" = 1'-0"
140
3.0
141
12.0
290
     0
  0
SCALE
  5
67
102
{ACAD_REACTORS
330
47
102
}
330
47
100
AcDbScale
 70
     0
300
6" = 1'-0"
140
6.0
141
12.0
290
     0
  0
SCALE
  5
68
102
{ACAD_REACTORS
330
47
102
}
330
47
100
AcDbScale
 70
     0
300
1'-0" = 1'-0"
140
12.0
141
12.0
290
     0
  0
ENDSEC
  0
EOF
