  0
SECTION
  2
HEADER
  9
$ACADVER
  1
AC1015
  9
$ACADMAINTVER
 70
     6
  9
$DWGCODEPAGE
  3
ANSI_950
  9
$INSBASE
 10
0.0
 20
0.0
 30
0.0
  9
$EXTMIN
 10
0.0
 20
0.0
 30
0.0
  9
$EXTMAX
 10
297.0
 20
210.0
 30
0.0
  9
$LIMMIN
 10
0.0
 20
0.0
  9
$LIMMAX
 10
297.0
 20
210.0
  9
$ORTHOMODE
 70
     0
  9
$REGENMODE
 70
     1
  9
$FILLMODE
 70
     1
  9
$QTEXTMODE
 70
     0
  9
$MIRRTEXT
 70
     1
  9
$LTSCALE
 40
1.0
  9
$ATTMODE
 70
     1
  9
$TEXTSIZE
 40
3.175
  9
$TRACEWID
 40
1.0
  9
$TEXTSTYLE
  7
Standard
  9
$CLAYER
  8
0
  9
$CELTYPE
  6
ByLayer
  9
$CECOLOR
 62
   256
  9
$CELTSCALE
 40
1.0
  9
$DISPSILH
 70
     0
  9
$DIMSCALE
 40
1.0
  9
$DIMASZ
 40
2.0
  9
$DIMEXO
 40
1.0
  9
$DIMDLI
 40
3.75
  9
$DIMRND
 40
0.0
  9
$DIMDLE
 40
0.0
  9
$DIMEXE
 40
1.0
  9
$DIMTP
 40
0.0
  9
$DIMTM
 40
0.0
  9
$DIMTXT
 40
3.175
  9
$DIMCEN
 40
2.5
  9
$DIMTSZ
 40
0.0
  9
$DIMTOL
 70
     0
  9
$DIMLIM
 70
     0
  9
$DIMTIH
 70
     1
  9
$DIMTOH
 70
     1
  9
$DIMSE1
 70
     0
  9
$DIMSE2
 70
     0
  9
$DIMTAD
 70
     1
  9
$DIMZIN
 70
     0
  9
$DIMBLK
  1

  9
$DIMASO
 70
     1
  9
$DIMSHO
 70
     1
  9
$DIMPOST
  1

  9
$DIMAPOST
  1

  9
$DIMALT
 70
     0
  9
$DIMALTD
 70
     3
  9
$DIMALTF
 40
0.0393700787
  9
$DIMLFAC
 40
1.0
  9
$DIMTOFL
 70
     1
  9
$DIMTVP
 40
0.0
  9
$DIMTIX
 70
     0
  9
$DIMSOXD
 70
     0
  9
$DIMSAH
 70
     0
  9
$DIMBLK1
  1

  9
$DIMBLK2
  1

  9
$DIMSTYLE
  2
ISO-25
  9
$DIMCLRD
 70
     0
  9
$DIMCLRE
 70
     0
  9
$DIMCLRT
 70
     0
  9
$DIMTFAC
 40
1.0
  9
$DIMGAP
 40
1.0
  9
$DIMJUST
 70
     0
  9
$DIMSD1
 70
     0
  9
$DIMSD2
 70
     0
  9
$DIMTOLJ
 70
     0
  9
$DIMTZIN
 70
     0
  9
$DIMALTZ
 70
     0
  9
$DIMALTTZ
 70
     0
  9
$DIMUPT
 70
     0
  9
$DIMDEC
 70
     2
  9
$DIMTDEC
 70
     2
  9
$DIMALTU
 70
     2
  9
$DIMALTTD
 70
     3
  9
$DIMTXSTY
  7
Standard
  9
$DIMAUNIT
 70
     0
  9
$DIMADEC
 70
     2
  9
$DIMALTRND
 40
0.0
  9
$DIMAZIN
 70
     0
  9
$DIMDSEP
 70
    44
  9
$DIMATFIT
 70
     3
  9
$DIMFRAC
 70
     0
  9
$DIMLDRBLK
  1

  9
$DIMLUNIT
 70
     2
  9
$DIMLWD
 70
    -2
  9
$DIMLWE
 70
    -2
  9
$DIMTMOVE
 70
     0
  9
$LUNITS
 70
     2
  9
$LUPREC
 70
     2
  9
$SKETCHINC
 40
1.0
  9
$FILLETRAD
 40
10.0
  9
$AUNITS
 70
     0
  9
$AUPREC
 70
     2
  9
$MENU
  1
.
  9
$ELEVATION
 40
0.0
  9
$PELEVATION
 40
0.0
  9
$THICKNESS
 40
0.0
  9
$LIMCHECK
 70
     0
  9
$CHAMFERA
 40
0.0
  9
$CHAMFERB
 40
0.0
  9
$CHAMFERC
 40
0.0
  9
$CHAMFERD
 40
0.0
  9
$SKPOLY
 70
     0
  9
$TDCREATE
 40
2459212.59904338
  9
$TDUCREATE
 40
2459212.265710047
  9
$TDUPDATE
 40
2459212.599045729
  9
$TDUUPDATE
 40
2459212.265712396
  9
$TDINDWG
 40
0.0000000116
  9
$TDUSRTIMER
 40
0.0000000116
  9
$USRTIMER
 70
     1
  9
$ANGBASE
 50
0.0
  9
$ANGDIR
 70
     0
  9
$PDMODE
 70
     0
  9
$PDSIZE
 40
-1.0
  9
$PLINEWID
 40
0.0
  9
$SPLFRAME
 70
     0
  9
$SPLINETYPE
 70
     6
  9
$SPLINESEGS
 70
     8
  9
$HANDSEED
  5
45C
  9
$SURFTAB1
 70
     6
  9
$SURFTAB2
 70
     6
  9
$SURFTYPE
 70
     6
  9
$SURFU
 70
     6
  9
$SURFV
 70
     6
  9
$UCSBASE
  2

  9
$UCSNAME
  2

  9
$UCSORG
 10
0.0
 20
0.0
 30
0.0
  9
$UCSXDIR
 10
1.0
 20
0.0
 30
0.0
  9
$UCSYDIR
 10
0.0
 20
1.0
 30
0.0
  9
$UCSORTHOREF
  2

  9
$UCSORTHOVIEW
 70
     0
  9
$UCSORGTOP
 10
0.0
 20
0.0
 30
0.0
  9
$UCSORGBOTTOM
 10
0.0
 20
0.0
 30
0.0
  9
$UCSORGLEFT
 10
0.0
 20
0.0
 30
0.0
  9
$UCSORGRIGHT
 10
0.0
 20
0.0
 30
0.0
  9
$UCSORGFRONT
 10
0.0
 20
0.0
 30
0.0
  9
$UCSORGBACK
 10
0.0
 20
0.0
 30
0.0
  9
$PUCSBASE
  2

  9
$PUCSNAME
  2

  9
$PUCSORG
 10
0.0
 20
0.0
 30
0.0
  9
$PUCSXDIR
 10
1.0
 20
0.0
 30
0.0
  9
$PUCSYDIR
 10
0.0
 20
1.0
 30
0.0
  9
$PUCSORTHOREF
  2

  9
$PUCSORTHOVIEW
 70
     0
  9
$PUCSORGTOP
 10
0.0
 20
0.0
 30
0.0
  9
$PUCSORGBOTTOM
 10
0.0
 20
0.0
 30
0.0
  9
$PUCSORGLEFT
 10
0.0
 20
0.0
 30
0.0
  9
$PUCSORGRIGHT
 10
0.0
 20
0.0
 30
0.0
  9
$PUCSORGFRONT
 10
0.0
 20
0.0
 30
0.0
  9
$PUCSORGBACK
 10
0.0
 20
0.0
 30
0.0
  9
$USERI1
 70
     0
  9
$USERI2
 70
     0
  9
$USERI3
 70
     0
  9
$USERI4
 70
     0
  9
$USERI5
 70
     0
  9
$USERR1
 40
0.0
  9
$USERR2
 40
0.0
  9
$USERR3
 40
0.0
  9
$USERR4
 40
0.0
  9
$USERR5
 40
0.0
  9
$WORLDVIEW
 70
     1
  9
$SHADEDGE
 70
     3
  9
$SHADEDIF
 70
    70
  9
$TILEMODE
 70
     1
  9
$MAXACTVP
 70
    64
  9
$PINSBASE
 10
0.0
 20
0.0
 30
0.0
  9
$PLIMCHECK
 70
     0
  9
$PEXTMIN
 10
1.0000000000E+20
 20
1.0000000000E+20
 30
1.0000000000E+20
  9
$PEXTMAX
 10
-1.0000000000E+20
 20
-1.0000000000E+20
 30
-1.0000000000E+20
  9
$PLIMMIN
 10
0.0
 20
0.0
  9
$PLIMMAX
 10
420.0
 20
297.0
  9
$UNITMODE
 70
     0
  9
$VISRETAIN
 70
     1
  9
$PLINEGEN
 70
     0
  9
$PSLTSCALE
 70
     1
  9
$TREEDEPTH
 70
  3020
  9
$CMLSTYLE
  2
Standard
  9
$CMLJUST
 70
     0
  9
$CMLSCALE
 40
20.0
  9
$PROXYGRAPHICS
 70
     1
  9
$MEASUREMENT
 70
     1
  9
$CELWEIGHT
370
    -1
  9
$ENDCAPS
280
     0
  9
$JOINSTYLE
280
     0
  9
$LWDISPLAY
290
     1
  9
$INSUNITS
 70
     4
  9
$HYPERLINKBASE
  1

  9
$STYLESHEET
  1

  9
$XEDIT
290
     1
  9
$CEPSNTYPE
380
     0
  9
$PSTYLEMODE
290
     1
  9
$FINGERPRINTGUID
  2
{57bb3ef5-3310-494b-a393-f18d4d6f704a}
  9
$VERSIONGUID
  2
{FAEB1C32-E019-11D5-929B-00C0DF256EC4}
  9
$EXTNAMES
290
     1
  9
$PSVPSCALE
 40
0.0
  9
$OLESTARTUP
290
     0
  0
ENDSEC
  0
SECTION
  2
CLASSES
  0
CLASS
  1
ACDBDICTIONARYWDFLT
  2
AcDbDictionaryWithDefault
  3
ObjectDBX Classes
 90
        0
280
     0
281
     0
  0
CLASS
  1
VISUALSTYLE
  2
AcDbVisualStyle
  3
ObjectDBX Classes
 90
     4095
280
     0
281
     0
  0
CLASS
  1
MATERIAL
  2
AcDbMaterial
  3
ObjectDBX Classes
 90
     1153
280
     0
281
     0
  0
CLASS
  1
SCALE
  2
AcDbScale
  3
ObjectDBX Classes
 90
     1153
280
     0
281
     0
  0
CLASS
  1
TABLESTYLE
  2
AcDbTableStyle
  3
ObjectDBX Classes
 90
     4095
280
     0
281
     0
  0
CLASS
  1
MLEADERSTYLE
  2
AcDbMLeaderStyle
  3
ACDB_MLEADERSTYLE_CLASS
 90
     4095
280
     0
281
     0
  0
CLASS
  1
SUN
  2
AcDbSun
  3
SCENEOE
 90
     1153
280
     0
281
     0
  0
CLASS
  1
ACDBPLACEHOLDER
  2
AcDbPlaceHolder
  3
ObjectDBX Classes
 90
        0
280
     0
281
     0
  0
CLASS
  1
LAYOUT
  2
AcDbLayout
  3
ObjectDBX Classes
 90
        0
280
     0
281
     0
  0
ENDSEC
  0
SECTION
  2
TABLES
  0
TABLE
  2
VPORT
  5
8
330
0
100
AcDbSymbolTable
 70
     1
  0
VPORT
  5
29
330
8
100
AcDbSymbolTableRecord
100
AcDbViewportTableRecord
  2
*Active
 70
     0
 10
0.0
 20
0.0
 11
1.0
 21
1.0
 12
148.5
 22
105.0
 13
0.0
 23
0.0
 14
10.0
 24
10.0
 15
10.0
 25
10.0
 16
0.0
 26
0.0
 36
1.0
 17
0.0
 27
0.0
 37
0.0
 40
210.0
 41
1.4142857143
 42
50.0
 43
0.0
 44
0.0
 50
0.0
 51
0.0
 71
     0
 72
  2000
 73
     1
 74
     3
 75
     0
 76
     0
 77
     0
 78
     0
281
     0
 65
     1
110
0.0
120
0.0
130
0.0
111
1.0
121
0.0
131
0.0
112
0.0
122
1.0
132
0.0
 79
     0
146
0.0
  0
ENDTAB
  0
TABLE
  2
LTYPE
  5
5
330
0
100
AcDbSymbolTable
 70
     6
  0
LTYPE
  5
14
330
5
100
AcDbSymbolTableRecord
100
AcDbLinetypeTableRecord
  2
ByBlock
 70
     0
  3

 72
    65
 73
     0
 40
0.0
  0
LTYPE
  5
15
330
5
100
AcDbSymbolTableRecord
100
AcDbLinetypeTableRecord
  2
ByLayer
 70
     0
  3

 72
    65
 73
     0
 40
0.0
  0
LTYPE
  5
16
330
5
100
AcDbSymbolTableRecord
100
AcDbLinetypeTableRecord
  2
Continuous
 70
     0
  3
Solid line
 72
    65
 73
     0
 40
0.0
  0
LTYPE
  5
6E
330
5
100
AcDbSymbolTableRecord
100
AcDbLinetypeTableRecord
  2
HIDDEN
 70
     0
  3
Hidden __ __ __ __ __ __ __ __ __ __ __ __ __ __
 72
    65
 73
     2
 40
1.905
 49
1.27
 74
     0
 49
-0.635
 74
     0
  0
LTYPE
  5
6F
330
5
100
AcDbSymbolTableRecord
100
AcDbLinetypeTableRecord
  2
PHANTOM
 70
     0
  3
Phantom ______  __  __  ______  __  __  ______
 72
    65
 73
     6
 40
12.7
 49
6.35
 74
     0
 49
-1.27
 74
     0
 49
1.27
 74
     0
 49
-1.27
 74
     0
 49
1.27
 74
     0
 49
-1.27
 74
     0
  0
LTYPE
  5
70
330
5
100
AcDbSymbolTableRecord
100
AcDbLinetypeTableRecord
  2
CENTER
 70
     0
  3
Center ____ _ ____ _ ____ _ ____ _ ____ _ ____
 72
    65
 73
     4
 40
10.16
 49
6.35
 74
     0
 49
-1.27
 74
     0
 49
1.27
 74
     0
 49
-1.27
 74
     0
  0
LTYPE
  5
71
330
5
100
AcDbSymbolTableRecord
100
AcDbLinetypeTableRecord
  2
CENTERX2
 70
     0
  3
Center (2x) ________  __  ________  __  _____
 72
    65
 73
     4
 40
20.32
 49
12.7
 74
     0
 49
-2.54
 74
     0
 49
2.54
 74
     0
 49
-2.54
 74
     0
  0
LTYPE
  5
72
330
5
100
AcDbSymbolTableRecord
100
AcDbLinetypeTableRecord
  2
DOT2
 70
     0
  3
Dot (.5x) ........................................
 72
    65
 73
     2
 40
0.635
 49
0.0
 74
     0
 49
-0.635
 74
     0
  0
ENDTAB
  0
TABLE
  2
LAYER
  5
2
330
0
100
AcDbSymbolTable
 70
    10
  0
LAYER
  5
10
330
2
100
AcDbSymbolTableRecord
100
AcDbLayerTableRecord
  2
0
 70
     0
 62
     7
  6
Continuous
370
    -3
390
F
  0
LAYER
  5
73
330
2
100
AcDbSymbolTableRecord
100
AcDbLayerTableRecord
  2
SLD-0
 70
     0
 62
     7
  6
Continuous
370
    25
390
F
  0
LAYER
  5
74
330
2
100
AcDbSymbolTableRecord
100
AcDbLayerTableRecord
  2
輪廓線
 70
     0
 62
   219
  6
Continuous
370
    25
390
F
  0
LAYER
  5
75
330
2
100
AcDbSymbolTableRecord
100
AcDbLayerTableRecord
  2
DIM
 70
     0
 62
     7
  6
Continuous
370
    -3
390
F
  0
LAYER
  5
76
330
2
100
AcDbSymbolTableRecord
100
AcDbLayerTableRecord
  2
中心線
 70
     0
 62
     7
  6
CENTERX2
370
    -3
390
F
  0
LAYER
  5
77
330
2
100
AcDbSymbolTableRecord
100
AcDbLayerTableRecord
  2
虛線
 70
     0
 62
     7
  6
HIDDEN
370
    -3
390
F
  0
LAYER
  5
78
330
2
100
AcDbSymbolTableRecord
100
AcDbLayerTableRecord
  2
SECTION
 70
     0
 62
     7
  6
PHANTOM
370
    25
390
F
  0
LAYER
  5
79
330
2
100
AcDbSymbolTableRecord
100
AcDbLayerTableRecord
  2
假想線
 70
     0
 62
     7
  6
PHANTOM
370
    -3
390
F
  0
LAYER
  5
7A
330
2
100
AcDbSymbolTableRecord
100
AcDbLayerTableRecord
  2
圖層_1
 70
     0
 62
   179
  6
Continuous
370
    -3
390
F
  0
LAYER
  5
7B
330
2
100
AcDbSymbolTableRecord
100
AcDbLayerTableRecord
  2
工作區域參考線
 70
     0
 62
   179
  6
Continuous
370
    -3
390
F
  0
ENDTAB
  0
TABLE
  2
STYLE
  5
3
330
0
100
AcDbSymbolTable
 70
     3
  0
STYLE
  5
11
330
3
100
AcDbSymbolTableRecord
100
AcDbTextStyleTableRecord
  2
Standard
 70
     0
 40
0.0
 41
1.0
 50
0.0
 71
     0
 42
3.175
  3
txt
  4

  0
STYLE
  5
CC
330
3
100
AcDbSymbolTableRecord
100
AcDbTextStyleTableRecord
  2
SLDTEXTSTYLE0
 70
     0
 40
0.0
 41
0.605
 50
0.0
 71
     0
 42
3.175
  3
TXT
  4

  0
STYLE
  5
103
330
3
100
AcDbSymbolTableRecord
100
AcDbTextStyleTableRecord
  2
SLDTEXTSTYLE1
 70
     0
 40
0.0
 41
0.7
 50
0.0
 71
     0
 42
3.175
  3
TXT
  4

  0
ENDTAB
  0
TABLE
  2
VIEW
  5
6
330
0
100
AcDbSymbolTable
 70
     0
  0
ENDTAB
  0
TABLE
  2
UCS
  5
7
330
0
100
AcDbSymbolTable
 70
     0
  0
ENDTAB
  0
TABLE
  2
APPID
  5
9
330
0
100
AcDbSymbolTable
 70
     1
  0
APPID
  5
12
330
9
100
AcDbSymbolTableRecord
100
AcDbRegAppTableRecord
  2
ACAD
 70
     0
  0
ENDTAB
  0
TABLE
  2
DIMSTYLE
  5
A
330
0
100
AcDbSymbolTable
 70
     6
100
AcDbDimStyleTable
  0
DIMSTYLE
105
27
330
A
100
AcDbSymbolTableRecord
100
AcDbDimStyleTableRecord
  2
ISO-25
 70
     0
 41
2.5
 42
0.625
 43
3.75
 44
1.25
 73
     0
 74
     0
 77
     1
 78
     8
140
2.5
141
2.5
143
0.0393700787
147
0.625
171
     3
172
     1
178
     0
271
     2
272
     2
274
     3
278
    44
283
     0
284
     8
340
11
  0
DIMSTYLE
105
20A
102
{ACAD_REACTORS
330
209
330
215
330
220
330
22C
330
238
330
244
330
265
102
}
330
A
100
AcDbSymbolTableRecord
100
AcDbDimStyleTableRecord
  2
SLDDIMSTYLE0
 70
     0
 41
2.0
 44
0.0
 45
0.000000001
 73
     0
 74
     0
 77
     1
 78
    12
 79
     3
140
2.5424804688
147
0.6356201172
173
     1
178
     0
271
     2
272
     2
276
     2
284
    12
340
103
  0
DIMSTYLE
105
251
102
{ACAD_REACTORS
330
250
330
25B
102
}
330
A
100
AcDbSymbolTableRecord
100
AcDbDimStyleTableRecord
  2
SLDDIMSTYLE1
 70
     0
 41
2.0
 44
0.0
 73
     0
 74
     0
 77
     1
 78
    12
 79
     3
140
2.5424804688
147
0.6356201172
173
     1
178
     0
179
     2
272
     2
276
     2
284
    12
340
103
  0
DIMSTYLE
105
271
102
{ACAD_REACTORS
330
270
102
}
330
A
100
AcDbSymbolTableRecord
100
AcDbDimStyleTableRecord
  2
SLDDIMSTYLE2
 70
     0
 41
2.0
 44
0.0
 45
0.000000001
 78
    12
 79
     3
140
2.5424804688
141
0.0
147
0.6356201172
172
     1
173
     1
178
     0
271
     2
272
     2
276
     2
284
    12
340
103
  0
DIMSTYLE
105
27D
102
{ACAD_REACTORS
330
27C
330
444
102
}
330
A
100
AcDbSymbolTableRecord
100
AcDbDimStyleTableRecord
  2
SLDDIMSTYLE3
 70
     0
 41
2.0
 44
0.0
 45
0.000000001
 78
    12
 79
     3
140
2.5424804688
141
0.0
147
0.6356201172
172
     1
173
     1
178
     0
271
     2
272
     2
276
     2
284
    12
340
103
341
27E
343
27E
  0
DIMSTYLE
105
290
330
A
100
AcDbSymbolTableRecord
100
AcDbDimStyleTableRecord
  2
SLDDIMSTYLE4
 70
     0
 41
2.0
 44
0.0
 45
0.000000001
146
2.0
147
0.0
173
     1
178
     0
271
     0
272
     0
276
     2
340
11
  0
ENDTAB
  0
TABLE
  2
BLOCK_RECORD
  5
1
330
0
100
AcDbSymbolTable
 70
    20
  0
BLOCK_RECORD
  5
1F
330
1
100
AcDbSymbolTableRecord
100
AcDbBlockTableRecord
  2
*Model_Space
340
22
  0
BLOCK_RECORD
  5
1B
330
1
100
AcDbSymbolTableRecord
100
AcDbBlockTableRecord
  2
*Paper_Space
340
1E
  0
BLOCK_RECORD
  5
23
330
1
100
AcDbSymbolTableRecord
100
AcDbBlockTableRecord
  2
*Paper_Space0
340
26
  0
BLOCK_RECORD
  5
7C
330
1
100
AcDbSymbolTableRecord
100
AcDbBlockTableRecord
  2
圖塊6
340
0
102
{BLKREFS
331
CB
102
}
  0
BLOCK_RECORD
  5
CE
330
1
100
AcDbSymbolTableRecord
100
AcDbBlockTableRecord
  2
SW_NOTE_0
340
0
102
{BLKREFS
331
D4
102
}
  0
BLOCK_RECORD
  5
105
330
1
100
AcDbSymbolTableRecord
100
AcDbBlockTableRecord
  2
SW_NOTE_0_1
340
0
102
{BLKREFS
331
10A
102
}
  0
BLOCK_RECORD
  5
10B
330
1
100
AcDbSymbolTableRecord
100
AcDbBlockTableRecord
  2
SW_TABLEANNOTATION_0
340
0
102
{BLKREFS
331
120
102
}
  0
BLOCK_RECORD
  5
20B
330
1
100
AcDbSymbolTableRecord
100
AcDbBlockTableRecord
  2
_D
340
0
  0
BLOCK_RECORD
  5
216
330
1
100
AcDbSymbolTableRecord
100
AcDbBlockTableRecord
  2
_D_1
340
0
  0
BLOCK_RECORD
  5
221
330
1
100
AcDbSymbolTableRecord
100
AcDbBlockTableRecord
  2
_D_2
340
0
  0
BLOCK_RECORD
  5
22D
330
1
100
AcDbSymbolTableRecord
100
AcDbBlockTableRecord
  2
_D_3
340
0
  0
BLOCK_RECORD
  5
239
330
1
100
AcDbSymbolTableRecord
100
AcDbBlockTableRecord
  2
_D_4
340
0
  0
BLOCK_RECORD
  5
245
330
1
100
AcDbSymbolTableRecord
100
AcDbBlockTableRecord
  2
_D_5
340
0
  0
BLOCK_RECORD
  5
252
330
1
100
AcDbSymbolTableRecord
100
AcDbBlockTableRecord
  2
_D_6
340
0
  0
BLOCK_RECORD
  5
25C
330
1
100
AcDbSymbolTableRecord
100
AcDbBlockTableRecord
  2
_D_7
340
0
  0
BLOCK_RECORD
  5
266
330
1
100
AcDbSymbolTableRecord
100
AcDbBlockTableRecord
  2
_D_8
340
0
  0
BLOCK_RECORD
  5
272
330
1
100
AcDbSymbolTableRecord
100
AcDbBlockTableRecord
  2
_D_9
340
0
  0
BLOCK_RECORD
  5
27E
330
1
100
AcDbSymbolTableRecord
100
AcDbBlockTableRecord
  2
_None
340
0
  0
BLOCK_RECORD
  5
281
330
1
100
AcDbSymbolTableRecord
100
AcDbBlockTableRecord
  2
_D_10
340
0
  0
BLOCK_RECORD
  5
28A
330
1
100
AcDbSymbolTableRecord
100
AcDbBlockTableRecord
  2
SW_NOTE_0_2
340
0
102
{BLKREFS
331
28F
102
}
  0
BLOCK_RECORD
  5
445
330
1
100
AcDbSymbolTableRecord
100
AcDbBlockTableRecord
  2
_D_11
340
0
  0
BLOCK_RECORD
  5
44F
330
1
100
AcDbSymbolTableRecord
100
AcDbBlockTableRecord
  2
SW_CENTERMARKSYMBOL_0
340
0
102
{BLKREFS
331
45A
102
}
  0
ENDTAB
  0
ENDSEC
  0
SECTION
  2
BLOCKS
  0
BLOCK
  5
20
330
1F
100
AcDbEntity
  8
0
100
AcDbBlockBegin
  2
*Model_Space
 70
     0
 10
0.0
 20
0.0
 30
0.0
  3
*Model_Space
  1

  0
ENDBLK
  5
21
330
1F
100
AcDbEntity
  8
0
100
AcDbBlockEnd
  0
BLOCK
  5
1C
330
1B
100
AcDbEntity
 67
     1
  8
0
100
AcDbBlockBegin
  2
*Paper_Space
 70
     0
 10
0.0
 20
0.0
 30
0.0
  3
*Paper_Space
  1

  0
ENDBLK
  5
1D
330
1B
100
AcDbEntity
 67
     1
  8
0
100
AcDbBlockEnd
  0
BLOCK
  5
24
330
23
100
AcDbEntity
  8
0
100
AcDbBlockBegin
  2
*Paper_Space0
 70
     0
 10
0.0
 20
0.0
 30
0.0
  3
*Paper_Space0
  1

  0
ENDBLK
  5
25
330
23
100
AcDbEntity
  8
0
100
AcDbBlockEnd
  0
BLOCK
  5
7D
330
7C
100
AcDbEntity
  8
0
100
AcDbBlockBegin
  2
圖塊6
 70
     0
 10
0.0
 20
0.0
 30
0.0
  3
圖塊6
  1

  0
ARC
  5
7F
330
7C
100
AcDbEntity
  8
圖層_1
 62
     7
370
    35
100
AcDbCircle
 10
1.5301544339
 20
6.1020682891
 30
0.0
 40
1.53015443394367
100
AcDbArc
 50
130.2115225915
 51
228.588904108
  0
ARC
  5
80
330
7C
100
AcDbEntity
  8
圖層_1
 62
     7
370
    35
100
AcDbCircle
 10
4.8509135981
 20
5.9949454415
 30
0.0
 40
2.577335426817622
100
AcDbArc
 50
140.4331765613
 51
251.0865666567
  0
ARC
  5
81
330
7C
100
AcDbEntity
  8
圖層_1
 62
     7
370
    35
100
AcDbCircle
 10
5.1765041982
 20
6.3117559713
 30
0.0
 40
2.989636657769863
100
AcDbArc
 50
247.1485306747
 51
309.6030773927
  0
LINE
  5
82
330
7C
100
AcDbEntity
  8
圖層_1
 62
     7
370
    35
100
AcDbLine
 10
1.8488977269
 20
8.5321825984
 30
0.0
 11
0.542269472
 21
7.2705955219
 31
0.0
  0
LINE
  5
83
330
7C
100
AcDbEntity
  8
圖層_1
 62
     7
370
    35
100
AcDbLine
 10
0.51802289
 20
4.9544784977
 30
0.0
 11
4.5272252002
 21
1.4698746574
 31
0.0
  0
LINE
  5
84
330
7C
100
AcDbEntity
  8
圖層_1
 62
     7
370
    35
100
AcDbLine
 10
4.5272252002
 20
1.4698746574
 30
0.0
 11
3.8961732797
 21
0.853974267
 31
0.0
  0
LINE
  5
85
330
7C
100
AcDbEntity
  8
圖層_1
 62
     7
370
    35
100
AcDbLine
 10
3.8961732797
 20
0.853974267
 30
0.0
 11
4.8880526445
 21
0.0
 31
0.0
  0
LINE
  5
86
330
7C
100
AcDbEntity
  8
圖層_1
 62
     7
370
    35
100
AcDbLine
 10
8.0977170788
 20
3.1165779655
 30
0.0
 11
7.0822940472
 21
4.0083036932
 31
0.0
  0
LINE
  5
87
330
7C
100
AcDbEntity
  8
圖層_1
 62
     7
370
    35
100
AcDbLine
 10
2.8640915743
 20
7.6366506975
 30
0.0
 11
1.8488977269
 21
8.5321825984
 31
0.0
  0
LINE
  5
88
330
7C
100
AcDbEntity
  8
圖層_1
 62
     7
370
    35
100
AcDbLine
 10
4.8880526445
 20
0.0
 30
0.0
 11
8.0977170788
 21
3.1165779655
 31
0.0
  0
ENDBLK
  5
7E
330
7C
100
AcDbEntity
  8
0
100
AcDbBlockEnd
  0
BLOCK
  5
CF
330
CE
100
AcDbEntity
  8
0
100
AcDbBlockBegin
  2
SW_NOTE_0
 70
     0
 10
0.0
 20
0.0
 30
0.0
  3
SW_NOTE_0
  1

  0
MTEXT
  5
D1
330
CE
100
AcDbEntity
  8
0
  6
Continuous
 62
     0
370
     0
100
AcDbMText
 10
0.0
 20
3.4106583948
 30
0.0
 40
2.6458333333
 41
0.0
 71
     1
 72
     1
  1
PROPRIETARY AND CONFIDENTIAL
  7
SLDTEXTSTYLE0
 73
     1
 44
1.0
  0
MTEXT
  5
D2
330
CE
100
AcDbEntity
  8
0
  6
Continuous
 62
     0
370
     0
100
AcDbMText
 10
0.0
 20
-0.08198348
 30
0.0
 40
1.8520833333
 41
0.0
 71
     1
 72
     1
  1
THE INFORMATION CONTAINED IN THIS DRAWING IS THE SOLE PROPERTY OF UNICE E-O SERVICES INC. ANY REPRODUCTION IN PART OR AS A WHOLE WITHOUT THE WRITTEN PERMISSION OF UNICE E-O SERVICES INC IS
  7
SLDTEXTSTYLE0
 73
     1
 44
1.0
  0
MTEXT
  5
D3
330
CE
100
AcDbEntity
  8
0
  6
Continuous
 62
     0
370
     0
100
AcDbMText
 10
0.0
 20
-2.5514278946
 30
0.0
 40
1.8520833333
 41
0.0
 71
     1
 72
     1
  1
PROHIBITED.
  7
SLDTEXTSTYLE0
 73
     1
 44
1.0
  0
ENDBLK
  5
D0
330
CE
100
AcDbEntity
  8
0
100
AcDbBlockEnd
  0
BLOCK
  5
106
330
105
100
AcDbEntity
  8
0
100
AcDbBlockBegin
  2
SW_NOTE_0_1
 70
     0
 10
0.0
 20
0.0
 30
0.0
  3
SW_NOTE_0_1
  1

  0
MTEXT
  5
108
330
105
100
AcDbEntity
  8
SLD-0
 62
     0
100
AcDbMText
 10
0.0
 20
2.0463950369
 30
0.0
 40
1.5875
 41
0.0
 71
     1
 72
     1
  1
No.5, Andong Rd., Chung Li District,
  7
SLDTEXTSTYLE0
 73
     1
 44
1.0
  0
MTEXT
  5
109
330
105
100
AcDbEntity
  8
SLD-0
 62
     0
100
AcDbMText
 10
0.0
 20
-0.0702716042
 30
0.0
 40
1.5875
 41
0.0
 71
     1
 72
     1
  1
Taoyuan City 32063, Taiwan, R.O.C.
  7
SLDTEXTSTYLE0
 73
     1
 44
1.0
  0
ENDBLK
  5
107
330
105
100
AcDbEntity
  8
0
100
AcDbBlockEnd
  0
BLOCK
  5
10C
330
10B
100
AcDbEntity
  8
0
100
AcDbBlockBegin
  2
SW_TABLEANNOTATION_0
 70
     0
 10
0.0
 20
0.0
 30
0.0
  3
SW_TABLEANNOTATION_0
  1

  0
LINE
  5
10E
330
10B
100
AcDbEntity
  8
DIM
 62
     0
100
AcDbLine
 10
0.0
 20
0.0
 30
0.0
 11
0.0
 21
-6.4735574558
 31
0.0
  0
LINE
  5
10F
330
10B
100
AcDbEntity
  8
DIM
 62
     0
100
AcDbLine
 10
41.2019662902
 20
0.0
 30
0.0
 11
41.2019662902
 21
-6.4735574558
 31
0.0
  0
LINE
  5
110
330
10B
100
AcDbEntity
  8
DIM
 62
     0
100
AcDbLine
 10
0.0
 20
-6.4735574558
 30
0.0
 11
0.0
 21
-12.9471149115
 31
0.0
  0
LINE
  5
111
330
10B
100
AcDbEntity
  8
DIM
 62
     0
100
AcDbLine
 10
41.2019662902
 20
-6.4735574558
 30
0.0
 11
41.2019662902
 21
-12.9471149115
 31
0.0
  0
LINE
  5
112
330
10B
100
AcDbEntity
  8
DIM
 62
     0
100
AcDbLine
 10
69.196887047
 20
0.0
 30
0.0
 11
69.196887047
 21
-6.4735574558
 31
0.0
  0
LINE
  5
113
330
10B
100
AcDbEntity
  8
DIM
 62
     0
100
AcDbLine
 10
69.196887047
 20
-6.4735574558
 30
0.0
 11
69.196887047
 21
-12.9471149115
 31
0.0
  0
LINE
  5
114
330
10B
100
AcDbEntity
  8
DIM
 62
     0
100
AcDbLine
 10
0.0
 20
0.0
 30
0.0
 11
41.2019662902
 21
0.0
 31
0.0
  0
LINE
  5
115
330
10B
100
AcDbEntity
  8
DIM
 62
     0
100
AcDbLine
 10
0.0
 20
-6.4735574558
 30
0.0
 11
41.2019662902
 21
-6.4735574558
 31
0.0
  0
LINE
  5
116
330
10B
100
AcDbEntity
  8
DIM
 62
     0
100
AcDbLine
 10
41.2019662902
 20
0.0
 30
0.0
 11
69.196887047
 21
0.0
 31
0.0
  0
LINE
  5
117
330
10B
100
AcDbEntity
  8
DIM
 62
     0
100
AcDbLine
 10
41.2019662902
 20
-6.4735574558
 30
0.0
 11
69.196887047
 21
-6.4735574558
 31
0.0
  0
LINE
  5
118
330
10B
100
AcDbEntity
  8
DIM
 62
     0
100
AcDbLine
 10
0.0
 20
-12.9471149115
 30
0.0
 11
41.2019662902
 21
-12.9471149115
 31
0.0
  0
LINE
  5
119
330
10B
100
AcDbEntity
  8
DIM
 62
     0
100
AcDbLine
 10
41.2019662902
 20
-12.9471149115
 30
0.0
 11
69.196887047
 21
-12.9471149115
 31
0.0
  0
LINE
  5
11A
330
10B
100
AcDbEntity
  8
DIM
 62
     0
100
AcDbLine
 10
0.0
 20
0.0
 30
0.0
 11
0.0
 21
-12.9471149115
 31
0.0
  0
LINE
  5
11B
330
10B
100
AcDbEntity
  8
DIM
 62
     0
100
AcDbLine
 10
0.0
 20
-12.9471149115
 30
0.0
 11
69.196887047
 21
-12.9471149115
 31
0.0
  0
LINE
  5
11C
330
10B
100
AcDbEntity
  8
DIM
 62
     0
100
AcDbLine
 10
69.196887047
 20
-12.9471149115
 30
0.0
 11
69.196887047
 21
0.0
 31
0.0
  0
LINE
  5
11D
330
10B
100
AcDbEntity
  8
DIM
 62
     0
100
AcDbLine
 10
69.196887047
 20
0.0
 30
0.0
 11
0.0
 21
0.0
 31
0.0
  0
MTEXT
  5
11E
330
10B
100
AcDbEntity
  8
DIM
 62
     0
100
AcDbMText
 10
16.0093165174
 20
-1.2424921563
 30
0.0
 40
3.0
 41
0.0
 71
     1
 72
     1
  1
Model
  7
SLDTEXTSTYLE1
 73
     1
 44
1.0
  0
MTEXT
  5
11F
330
10B
100
AcDbEntity
  8
DIM
 62
     0
100
AcDbMText
 10
49.9223434133
 20
-1.2424921563
 30
0.0
 40
3.0
 41
0.0
 71
     1
 72
     1
  1
W(kgs)
  7
SLDTEXTSTYLE1
 73
     1
 44
1.0
  0
ENDBLK
  5
10D
330
10B
100
AcDbEntity
  8
0
100
AcDbBlockEnd
  0
BLOCK
  5
20C
330
20B
100
AcDbEntity
  8
0
100
AcDbBlockBegin
  2
_D
 70
     0
 10
0.0
 20
0.0
 30
0.0
  3
_D
  1

  0
SOLID
  5
20E
330
20B
100
AcDbEntity
  8
DIM
100
AcDbTrace
 10
110.0935498925
 20
19.325253808
 30
0.0
 11
112.0935498925
 21
19.075253808
 31
0.0
 12
112.0935498925
 22
19.575253808
 32
0.0
 13
112.0935498925
 23
19.575253808
 33
0.0
  0
SOLID
  5
20F
330
20B
100
AcDbEntity
  8
DIM
100
AcDbTrace
 10
130.0935498925
 20
19.325253808
 30
0.0
 11
128.0935498925
 21
19.575253808
 31
0.0
 12
128.0935498925
 22
19.075253808
 32
0.0
 13
128.0935498925
 23
19.075253808
 33
0.0
  0
LINE
  5
210
330
20B
100
AcDbEntity
  8
DIM
100
AcDbLine
 10
110.0935498925
 20
27.7619307428
 30
0.0
 11
110.0935498925
 21
18.325253808
 31
0.0
  0
LINE
  5
211
330
20B
100
AcDbEntity
  8
DIM
100
AcDbLine
 10
130.0935498925
 20
27.7619307428
 30
0.0
 11
130.0935498925
 21
18.325253808
 31
0.0
  0
LINE
  5
212
330
20B
100
AcDbEntity
  8
DIM
100
AcDbLine
 10
110.0935498925
 20
19.325253808
 30
0.0
 11
130.0935498925
 21
19.325253808
 31
0.0
  0
MTEXT
  5
213
330
20B
100
AcDbEntity
  8
DIM
100
AcDbMText
 10
117.094938934
 20
22.3948464798
 30
0.0
 40
2.38125
 41
0.0
 71
     1
 72
     1
  1
%%c
  7
SLDTEXTSTYLE1
 73
     1
 44
1.0
  0
MTEXT
  5
214
330
20B
100
AcDbEntity
  8
DIM
100
AcDbMText
 10
120.1111889092
 20
22.3948464798
 30
0.0
 40
2.38125
 41
0.0
 71
     1
 72
     1
  1
20
  7
SLDTEXTSTYLE1
 73
     1
 44
1.0
  0
ENDBLK
  5
20D
330
20B
100
AcDbEntity
  8
0
100
AcDbBlockEnd
  0
BLOCK
  5
217
330
216
100
AcDbEntity
  8
0
100
AcDbBlockBegin
  2
_D_1
 70
     0
 10
0.0
 20
0.0
 30
0.0
  3
_D_1
  1

  0
SOLID
  5
219
330
216
100
AcDbEntity
  8
DIM
100
AcDbTrace
 10
113.0292641782
 20
24.9414320678
 30
0.0
 11
115.0292641782
 21
24.6914320678
 31
0.0
 12
115.0292641782
 22
25.1914320678
 32
0.0
 13
115.0292641782
 23
25.1914320678
 33
0.0
  0
SOLID
  5
21A
330
216
100
AcDbEntity
  8
DIM
100
AcDbTrace
 10
127.1578356067
 20
24.9414320678
 30
0.0
 11
125.1578356067
 21
25.1914320678
 31
0.0
 12
125.1578356067
 22
24.6914320678
 32
0.0
 13
125.1578356067
 23
24.6914320678
 33
0.0
  0
LINE
  5
21B
330
216
100
AcDbEntity
  8
DIM
100
AcDbLine
 10
113.0292641782
 20
27.7619307428
 30
0.0
 11
113.0292641782
 21
23.9414320678
 31
0.0
  0
LINE
  5
21C
330
216
100
AcDbEntity
  8
DIM
100
AcDbLine
 10
127.1578356067
 20
27.7619307428
 30
0.0
 11
127.1578356067
 21
23.9414320678
 31
0.0
  0
LINE
  5
21D
330
216
100
AcDbEntity
  8
DIM
100
AcDbLine
 10
113.0292641782
 20
24.9414320678
 30
0.0
 11
127.1578356067
 21
24.9414320678
 31
0.0
  0
MTEXT
  5
21E
330
216
100
AcDbEntity
  8
DIM
100
AcDbMText
 10
117.094938934
 20
28.0110247395
 30
0.0
 40
2.38125
 41
0.0
 71
     1
 72
     1
  1
%%c
  7
SLDTEXTSTYLE1
 73
     1
 44
1.0
  0
MTEXT
  5
21F
330
216
100
AcDbEntity
  8
DIM
100
AcDbMText
 10
120.1111889092
 20
28.0110247395
 30
0.0
 40
2.38125
 41
0.0
 71
     1
 72
     1
  1
14
  7
SLDTEXTSTYLE1
 73
     1
 44
1.0
  0
ENDBLK
  5
218
330
216
100
AcDbEntity
  8
0
100
AcDbBlockEnd
  0
BLOCK
  5
222
330
221
100
AcDbEntity
  8
0
100
AcDbBlockBegin
  2
_D_2
 70
     0
 10
0.0
 20
0.0
 30
0.0
  3
_D_2
  1

  0
SOLID
  5
224
330
221
100
AcDbEntity
  8
DIM
100
AcDbTrace
 10
135.9975289893
 20
107.3618242422
 30
0.0
 11
137.6045797969
 21
106.1453178913
 31
0.0
 12
137.8545797969
 22
106.5783305932
 32
0.0
 13
137.8545797969
 23
106.5783305932
 33
0.0
  0
SOLID
  5
225
330
221
100
AcDbEntity
  8
DIM
100
AcDbTrace
 10
153.318037065
 20
97.3618242422
 30
0.0
 11
151.7109862574
 21
98.5783305932
 31
0.0
 12
151.4609862574
 22
98.1453178913
 32
0.0
 13
151.4609862574
 23
98.1453178913
 33
0.0
  0
LINE
  5
226
330
221
100
AcDbEntity
  8
DIM
100
AcDbLine
 10
127.2599926852
 20
92.2279674306
 30
0.0
 11
129.026465931
 21
95.2875888425
 31
0.0
  0
LINE
  5
227
330
221
100
AcDbEntity
  8
DIM
100
AcDbLine
 10
129.526465931
 20
96.1536142463
 30
0.0
 11
136.4975289893
 21
108.227849646
 31
0.0
  0
LINE
  5
228
330
221
100
AcDbEntity
  8
DIM
100
AcDbLine
 10
144.5805007609
 20
82.2279674306
 30
0.0
 11
153.818037065
 21
98.227849646
 31
0.0
  0
LINE
  5
229
330
221
100
AcDbEntity
  8
DIM
100
AcDbLine
 10
135.9975289893
 20
107.3618242422
 30
0.0
 11
153.318037065
 21
97.3618242422
 31
0.0
  0
MTEXT
  5
22A
330
221
100
AcDbEntity
  8
DIM
100
AcDbMText
 10
143.5957060969
 20
106.5194749544
 30
0.0
 40
2.38125
 41
0.0
 71
     1
 72
     1
  1
%%c
  7
SLDTEXTSTYLE1
 11
0.8660254037844437
 21
-0.4999999999999912
 31
0.0
 73
     1
 44
1.0
  0
MTEXT
  5
22B
330
221
100
AcDbEntity
  8
DIM
100
AcDbMText
 10
146.2078551996
 20
105.0113499669
 30
0.0
 40
2.38125
 41
0.0
 71
     1
 72
     1
  1
20
  7
SLDTEXTSTYLE1
 11
0.8660254037844437
 21
-0.4999999999999912
 31
0.0
 73
     1
 44
1.0
  0
ENDBLK
  5
223
330
221
100
AcDbEntity
  8
0
100
AcDbBlockEnd
  0
BLOCK
  5
22E
330
22D
100
AcDbEntity
  8
0
100
AcDbBlockBegin
  2
_D_3
 70
     0
 10
0.0
 20
0.0
 30
0.0
  3
_D_3
  1

  0
SOLID
  5
230
330
22D
100
AcDbEntity
  8
DIM
100
AcDbTrace
 10
134.3822829937
 20
98.6927075397
 30
0.0
 11
135.9893338013
 21
97.4762011887
 31
0.0
 12
136.2393338013
 22
97.9092138906
 32
0.0
 13
136.2393338013
 23
97.9092138906
 33
0.0
  0
SOLID
  5
231
330
22D
100
AcDbEntity
  8
DIM
100
AcDbTrace
 10
146.61798477
 20
91.6284218254
 30
0.0
 11
145.0109339624
 21
92.8449281763
 31
0.0
 12
144.7609339624
 22
92.4119154745
 32
0.0
 13
144.7609339624
 23
92.4119154745
 33
0.0
  0
LINE
  5
232
330
22D
100
AcDbEntity
  8
DIM
100
AcDbLine
 10
129.8023958349
 20
90.7601102878
 30
0.0
 11
131.9164297541
 21
94.4217244447
 31
0.0
  0
LINE
  5
233
330
22D
100
AcDbEntity
  8
DIM
100
AcDbLine
 10
132.4164297541
 20
95.2877498485
 30
0.0
 11
134.8822829937
 21
99.5587329435
 31
0.0
  0
LINE
  5
234
330
22D
100
AcDbEntity
  8
DIM
100
AcDbLine
 10
142.0380976112
 20
83.6958245735
 30
0.0
 11
147.11798477
 21
92.4944472292
 31
0.0
  0
LINE
  5
235
330
22D
100
AcDbEntity
  8
DIM
100
AcDbLine
 10
134.3822829937
 20
98.6927075397
 30
0.0
 11
146.61798477
 21
91.6284218254
 31
0.0
  0
MTEXT
  5
236
330
22D
100
AcDbEntity
  8
DIM
100
AcDbMText
 10
139.4380569516
 20
99.3182153948
 30
0.0
 40
2.38125
 41
0.0
 71
     1
 72
     1
  1
%%c
  7
SLDTEXTSTYLE1
 11
0.8660254037844468
 21
-0.4999999999999858
 31
0.0
 73
     1
 44
1.0
  0
MTEXT
  5
237
330
22D
100
AcDbEntity
  8
DIM
100
AcDbMText
 10
142.0502060543
 20
97.8100904072
 30
0.0
 40
2.38125
 41
0.0
 71
     1
 72
     1
  1
14
  7
SLDTEXTSTYLE1
 11
0.8660254037844468
 21
-0.4999999999999858
 31
0.0
 73
     1
 44
1.0
  0
ENDBLK
  5
22F
330
22D
100
AcDbEntity
  8
0
100
AcDbBlockEnd
  0
BLOCK
  5
23A
330
239
100
AcDbEntity
  8
0
100
AcDbBlockBegin
  2
_D_4
 70
     0
 10
0.0
 20
0.0
 30
0.0
  3
_D_4
  1

  0
SOLID
  5
23C
330
239
100
AcDbEntity
  8
DIM
100
AcDbTrace
 10
86.7446758947
 20
97.5772685433
 30
0.0
 11
88.6017267023
 21
98.3607621924
 31
0.0
 12
88.3517267023
 22
98.7937748943
 32
0.0
 13
88.3517267023
 23
98.7937748943
 33
0.0
  0
SOLID
  5
23D
330
239
100
AcDbEntity
  8
DIM
100
AcDbTrace
 10
104.0651839704
 20
107.5772685433
 30
0.0
 11
102.2081331628
 21
106.7937748943
 31
0.0
 12
102.4581331628
 22
106.3607621924
 32
0.0
 13
102.4581331628
 23
106.3607621924
 33
0.0
  0
LINE
  5
23E
330
239
100
AcDbEntity
  8
DIM
100
AcDbLine
 10
95.606599024
 20
82.2279674306
 30
0.0
 11
86.2446758947
 21
98.4432939471
 31
0.0
  0
LINE
  5
23F
330
239
100
AcDbEntity
  8
DIM
100
AcDbLine
 10
112.9271070997
 20
92.2279674306
 30
0.0
 11
111.1606338539
 21
95.2875888425
 31
0.0
  0
LINE
  5
240
330
239
100
AcDbEntity
  8
DIM
100
AcDbLine
 10
110.6606338539
 20
96.1536142463
 30
0.0
 11
103.5651839704
 21
108.4432939471
 31
0.0
  0
LINE
  5
241
330
239
100
AcDbEntity
  8
DIM
100
AcDbLine
 10
86.7446758947
 20
97.5772685433
 30
0.0
 11
104.0651839704
 21
107.5772685433
 31
0.0
  0
MTEXT
  5
242
330
239
100
AcDbEntity
  8
DIM
100
AcDbMText
 10
91.2732603306
 20
103.7363082971
 30
0.0
 40
2.38125
 41
0.0
 71
     1
 72
     1
  1
%%c
  7
SLDTEXTSTYLE1
 11
0.8660254037844408
 21
0.4999999999999963
 31
0.0
 73
     1
 44
1.0
  0
MTEXT
  5
243
330
239
100
AcDbEntity
  8
DIM
100
AcDbMText
 10
93.8854094333
 20
105.2444332847
 30
0.0
 40
2.38125
 41
0.0
 71
     1
 72
     1
  1
20
  7
SLDTEXTSTYLE1
 11
0.8660254037844408
 21
0.4999999999999963
 31
0.0
 73
     1
 44
1.0
  0
ENDBLK
  5
23B
330
239
100
AcDbEntity
  8
0
100
AcDbBlockEnd
  0
BLOCK
  5
246
330
245
100
AcDbEntity
  8
0
100
AcDbBlockBegin
  2
_D_5
 70
     0
 10
0.0
 20
0.0
 30
0.0
  3
_D_5
  1

  0
SOLID
  5
248
330
245
100
AcDbEntity
  8
DIM
100
AcDbTrace
 10
93.3959755335
 20
91.928308204
 30
0.0
 11
95.2530263411
 21
92.711801853
 31
0.0
 12
95.0030263411
 22
93.1448145549
 32
0.0
 13
95.0030263411
 23
93.1448145549
 33
0.0
  0
SOLID
  5
249
330
245
100
AcDbEntity
  8
DIM
100
AcDbTrace
 10
105.6316773098
 20
98.9925939182
 30
0.0
 11
103.7746265023
 21
98.2091002692
 31
0.0
 12
104.0246265023
 22
97.7760875673
 32
0.0
 13
104.0246265023
 23
97.7760875673
 33
0.0
  0
LINE
  5
24A
330
245
100
AcDbEntity
  8
DIM
100
AcDbLine
 10
98.1490021737
 20
83.6958245735
 30
0.0
 11
92.8959755335
 21
92.7943336077
 31
0.0
  0
LINE
  5
24B
330
245
100
AcDbEntity
  8
DIM
100
AcDbLine
 10
110.38470395
 20
90.7601102878
 30
0.0
 11
108.2706700308
 21
94.4217244447
 31
0.0
  0
LINE
  5
24C
330
245
100
AcDbEntity
  8
DIM
100
AcDbLine
 10
107.7706700308
 20
95.2877498485
 30
0.0
 11
105.1316773098
 21
99.858619322
 31
0.0
  0
LINE
  5
24D
330
245
100
AcDbEntity
  8
DIM
100
AcDbLine
 10
93.3959755335
 20
91.928308204
 30
0.0
 11
105.6316773098
 21
98.9925939182
 31
0.0
  0
MTEXT
  5
24E
330
245
100
AcDbEntity
  8
DIM
100
AcDbMText
 10
95.3821568197
 20
96.6194908149
 30
0.0
 40
2.38125
 41
0.0
 71
     1
 72
     1
  1
%%c
  7
SLDTEXTSTYLE1
 11
0.8660254037844416
 21
0.4999999999999949
 31
0.0
 73
     1
 44
1.0
  0
MTEXT
  5
24F
330
245
100
AcDbEntity
  8
DIM
100
AcDbMText
 10
97.9943059224
 20
98.1276158025
 30
0.0
 40
2.38125
 41
0.0
 71
     1
 72
     1
  1
14
  7
SLDTEXTSTYLE1
 11
0.8660254037844416
 21
0.4999999999999949
 31
0.0
 73
     1
 44
1.0
  0
ENDBLK
  5
247
330
245
100
AcDbEntity
  8
0
100
AcDbBlockEnd
  0
BLOCK
  5
253
330
252
100
AcDbEntity
  8
0
100
AcDbBlockBegin
  2
_D_6
 70
     0
 10
0.0
 20
0.0
 30
0.0
  3
_D_6
  1

  0
ARC
  5
255
330
252
100
AcDbEntity
  8
DIM
100
AcDbCircle
 10
120.0935498925
 20
59.815324404
 30
0.0
 40
37.06096158358385
100
AcDbArc
 50
90.0
 51
120.0
  0
SOLID
  5
256
330
252
100
AcDbEntity
  8
DIM
100
AcDbTrace
 10
120.0935498925
 20
96.8762859876
 30
0.0
 11
118.0875382076
 21
97.0722888456
 31
0.0
 12
118.1010147867
 22
96.5724704968
 32
0.0
 13
118.1010147867
 23
96.5724704968
 33
0.0
  0
SOLID
  5
257
330
252
100
AcDbEntity
  8
DIM
100
AcDbTrace
 10
101.5630691007
 20
91.9110586241
 30
0.0
 11
103.4405628656
 21
92.6442142438
 31
0.0
 12
103.202324751
 22
93.0838079207
 32
0.0
 13
103.202324751
 23
93.0838079207
 33
0.0
  0
LINE
  5
258
330
252
100
AcDbEntity
  8
DIM
100
AcDbLine
 10
120.0935498925
 20
92.917348573
 30
0.0
 11
120.0935498925
 21
97.8762859876
 31
0.0
  0
LINE
  5
259
330
252
100
AcDbEntity
  8
DIM
100
AcDbLine
 10
103.2668530618
 20
88.9600182382
 30
0.0
 11
101.0630691007
 21
92.7770840278
 31
0.0
  0
MTEXT
  5
25A
330
252
100
AcDbEntity
  8
DIM
100
AcDbMText
 10
112.8805449411
 20
99.3367906712
 30
0.0
 40
2.38125
 41
0.0
 71
     1
 72
     1
  1
30°
  7
SLDTEXTSTYLE1
 11
0.9910548253524761
 21
0.1334553601230504
 31
0.0
 73
     1
 44
1.0
  0
ENDBLK
  5
254
330
252
100
AcDbEntity
  8
0
100
AcDbBlockEnd
  0
BLOCK
  5
25D
330
25C
100
AcDbEntity
  8
0
100
AcDbBlockBegin
  2
_D_7
 70
     0
 10
0.0
 20
0.0
 30
0.0
  3
_D_7
  1

  0
ARC
  5
25F
330
25C
100
AcDbEntity
  8
DIM
100
AcDbCircle
 10
120.0935498925
 20
59.815324404
 30
0.0
 40
37.06096158358383
100
AcDbArc
 50
60.0
 51
90.0
  0
SOLID
  5
260
330
25C
100
AcDbEntity
  8
DIM
100
AcDbTrace
 10
138.6240306842
 20
91.9110586241
 30
0.0
 11
136.9847750339
 21
93.0838079207
 31
0.0
 12
136.7465369194
 22
92.6442142438
 32
0.0
 13
136.7465369194
 23
92.6442142438
 33
0.0
  0
SOLID
  5
261
330
25C
100
AcDbEntity
  8
DIM
100
AcDbTrace
 10
120.0935498925
 20
96.8762859876
 30
0.0
 11
122.0860849982
 21
96.5724704968
 31
0.0
 12
122.0995615773
 22
97.0722888456
 32
0.0
 13
122.0995615773
 23
97.0722888456
 33
0.0
  0
LINE
  5
262
330
25C
100
AcDbEntity
  8
DIM
100
AcDbLine
 10
136.9202467231
 20
88.9600182382
 30
0.0
 11
139.1240306842
 21
92.7770840278
 31
0.0
  0
LINE
  5
263
330
25C
100
AcDbEntity
  8
DIM
100
AcDbLine
 10
120.0935498925
 20
92.917348573
 30
0.0
 11
120.0935498925
 21
97.8762859876
 31
0.0
  0
MTEXT
  5
264
330
25C
100
AcDbEntity
  8
DIM
100
AcDbMText
 10
124.1384179098
 20
99.7854730034
 30
0.0
 40
2.38125
 41
0.0
 71
     1
 72
     1
  1
30°
  7
SLDTEXTSTYLE1
 11
0.9891385192556009
 21
-0.1469863589753733
 31
0.0
 73
     1
 44
1.0
  0
ENDBLK
  5
25E
330
25C
100
AcDbEntity
  8
0
100
AcDbBlockEnd
  0
BLOCK
  5
267
330
266
100
AcDbEntity
  8
0
100
AcDbBlockBegin
  2
_D_8
 70
     0
 10
0.0
 20
0.0
 30
0.0
  3
_D_8
  1

  0
SOLID
  5
269
330
266
100
AcDbEntity
  8
DIM
100
AcDbTrace
 10
85.5935498925
 20
14.6599351096
 30
0.0
 11
87.5935498925
 21
14.4099351096
 31
0.0
 12
87.5935498925
 22
14.9099351096
 32
0.0
 13
87.5935498925
 23
14.9099351096
 33
0.0
  0
SOLID
  5
26A
330
266
100
AcDbEntity
  8
DIM
100
AcDbTrace
 10
154.5935498925
 20
14.6599351096
 30
0.0
 11
152.5935498925
 21
14.9099351096
 31
0.0
 12
152.5935498925
 22
14.4099351096
 32
0.0
 13
152.5935498925
 23
14.4099351096
 33
0.0
  0
LINE
  5
26B
330
266
100
AcDbEntity
  8
DIM
100
AcDbLine
 10
85.5935498925
 20
55.415324404
 30
0.0
 11
85.5935498925
 21
13.6599351096
 31
0.0
  0
LINE
  5
26C
330
266
100
AcDbEntity
  8
DIM
100
AcDbLine
 10
154.5935498925
 20
55.415324404
 30
0.0
 11
154.5935498925
 21
13.6599351096
 31
0.0
  0
LINE
  5
26D
330
266
100
AcDbEntity
  8
DIM
100
AcDbLine
 10
85.5935498925
 20
14.6599351096
 30
0.0
 11
154.5935498925
 21
14.6599351096
 31
0.0
  0
MTEXT
  5
26E
330
266
100
AcDbEntity
  8
DIM
100
AcDbMText
 10
117.094938934
 20
17.7295277813
 30
0.0
 40
2.38125
 41
0.0
 71
     1
 72
     1
  1
%%c
  7
SLDTEXTSTYLE1
 73
     1
 44
1.0
  0
MTEXT
  5
26F
330
266
100
AcDbEntity
  8
DIM
100
AcDbMText
 10
120.1111889092
 20
17.7295277813
 30
0.0
 40
2.38125
 41
0.0
 71
     1
 72
     1
  1
69
  7
SLDTEXTSTYLE1
 73
     1
 44
1.0
  0
ENDBLK
  5
268
330
266
100
AcDbEntity
  8
0
100
AcDbBlockEnd
  0
BLOCK
  5
273
330
272
100
AcDbEntity
  8
0
100
AcDbBlockBegin
  2
_D_9
 70
     0
 10
0.0
 20
0.0
 30
0.0
  3
_D_9
  1

  0
SOLID
  5
275
330
272
100
AcDbEntity
  8
DIM
100
AcDbTrace
 10
145.2588546688
 20
53.2802317869
 30
0.0
 11
143.3858994227
 21
54.0249053034
 31
0.0
 12
143.2602245647
 22
53.5409571346
 32
0.0
 13
143.2602245647
 23
53.5409571346
 33
0.0
  0
SOLID
  5
276
330
272
100
AcDbEntity
  8
DIM
100
AcDbTrace
 10
94.9282451161
 20
66.3504170211
 30
0.0
 11
96.8012003622
 21
65.6057435046
 31
0.0
 12
96.9268752202
 22
66.0896916734
 32
0.0
 13
96.9268752202
 23
66.0896916734
 33
0.0
  0
LINE
  5
277
330
272
100
AcDbEntity
  8
DIM
100
AcDbLine
 10
94.9282451161
 20
66.3504170211
 30
0.0
 11
71.8523970576
 21
72.3429057121
 31
0.0
  0
LINE
  5
278
330
272
100
AcDbEntity
  8
DIM
100
AcDbLine
 10
145.2588546688
 20
53.2802317869
 30
0.0
 11
94.9282451161
 21
66.3504170211
 31
0.0
  0
LINE
  5
279
330
272
100
AcDbEntity
  8
DIM
100
AcDbLine
 10
71.8523970576
 20
72.3429057121
 30
0.0
 11
64.6051751407
 21
72.3429057121
 31
0.0
  0
MTEXT
  5
27A
330
272
100
AcDbEntity
  8
DIM
100
AcDbMText
 10
64.6051751407
 20
75.4124983839
 30
0.0
 40
2.38125
 41
0.0
 71
     1
 72
     1
  1
%%c
  7
SLDTEXTSTYLE1
 73
     1
 44
1.0
  0
MTEXT
  5
27B
330
272
100
AcDbEntity
  8
DIM
100
AcDbMText
 10
67.6214251159
 20
75.4124983839
 30
0.0
 40
2.38125
 41
0.0
 71
     1
 72
     1
  1
52
  7
SLDTEXTSTYLE1
 73
     1
 44
1.0
  0
ENDBLK
  5
274
330
272
100
AcDbEntity
  8
0
100
AcDbBlockEnd
  0
BLOCK
  5
27F
330
27E
100
AcDbEntity
  8
0
100
AcDbBlockBegin
  2
_None
 70
     0
 10
0.0
 20
0.0
 30
0.0
  3
_None
  1

  0
ENDBLK
  5
280
330
27E
100
AcDbEntity
  8
0
100
AcDbBlockEnd
  0
BLOCK
  5
282
330
281
100
AcDbEntity
  8
0
100
AcDbBlockBegin
  2
_D_10
 70
     0
 10
0.0
 20
0.0
 30
0.0
  3
_D_10
  1

  0
SOLID
  5
284
330
281
100
AcDbEntity
  8
DIM
100
AcDbTrace
 10
95.7354829433
 20
73.6241829557
 30
0.0
 11
94.1189143983
 21
74.8280127357
 31
0.0
 12
93.8723276384
 22
74.3930472544
 32
0.0
 13
93.8723276384
 23
74.3930472544
 33
0.0
  0
LINE
  5
285
330
281
100
AcDbEntity
  8
DIM
100
AcDbLine
 10
95.7354829433
 20
73.6241829557
 30
0.0
 11
72.6965870354
 21
86.6851887999
 31
0.0
  0
LINE
  5
286
330
281
100
AcDbEntity
  8
DIM
100
AcDbLine
 10
144.4516168416
 20
46.0064658523
 30
0.0
 11
95.7354829433
 21
73.6241829557
 31
0.0
  0
LINE
  5
287
330
281
100
AcDbEntity
  8
DIM
100
AcDbLine
 10
72.6965870354
 20
86.6851887999
 30
0.0
 11
65.4493651185
 21
86.6851887999
 31
0.0
  0
MTEXT
  5
288
330
281
100
AcDbEntity
  8
DIM
100
AcDbMText
 10
65.4493651185
 20
89.7547814717
 30
0.0
 40
2.38125
 41
0.0
 71
     1
 72
     1
  1
%%c
  7
SLDTEXTSTYLE1
 73
     1
 44
1.0
  0
MTEXT
  5
289
330
281
100
AcDbEntity
  8
DIM
100
AcDbMText
 10
68.4656150937
 20
89.7547814717
 30
0.0
 40
2.38125
 41
0.0
 71
     1
 72
     1
  1
56
  7
SLDTEXTSTYLE1
 73
     1
 44
1.0
  0
ENDBLK
  5
283
330
281
100
AcDbEntity
  8
0
100
AcDbBlockEnd
  0
BLOCK
  5
28B
330
28A
100
AcDbEntity
  8
0
100
AcDbBlockBegin
  2
SW_NOTE_0_2
 70
     0
 10
0.0
 20
0.0
 30
0.0
  3
SW_NOTE_0_2
  1

  0
LINE
  5
28D
330
28A
100
AcDbEntity
  8
DIM
 62
     0
100
AcDbLine
 10
7.344480931
 20
0.0
 30
0.0
 11
0.0
 21
0.0
 31
0.0
  0
MTEXT
  5
28E
330
28A
100
AcDbEntity
  8
DIM
 62
     0
100
AcDbMText
 10
0.4140922927
 20
3.0297422739
 30
0.0
 40
2.38125
 41
0.0
 71
     1
 72
     1
  1
Baffle
  7
SLDTEXTSTYLE1
 73
     1
 44
1.0
  0
ENDBLK
  5
28C
330
28A
100
AcDbEntity
  8
0
100
AcDbBlockEnd
  0
BLOCK
  5
446
330
445
100
AcDbEntity
  8
0
100
AcDbBlockBegin
  2
_D_11
 70
     0
 10
0.0
 20
0.0
 30
0.0
  3
_D_11
  1

  0
SOLID
  5
448
330
445
100
AcDbEntity
  8
DIM
100
AcDbTrace
 10
129.7966783139
 20
136.0661265576
 30
0.0
 11
130.8997798061
 21
134.379216039
 31
0.0
 12
131.281077734
 22
134.7026536531
 32
0.0
 13
131.281077734
 23
134.7026536531
 33
0.0
  0
LINE
  5
449
330
445
100
AcDbEntity
  8
DIM
100
AcDbLine
 10
129.7966783139
 20
136.0661265576
 30
0.0
 11
154.2411148592
 21
107.2487825055
 31
0.0
  0
LINE
  5
44A
330
445
100
AcDbEntity
  8
DIM
100
AcDbLine
 10
110.3904214711
 20
158.9440022315
 30
0.0
 11
129.7966783139
 21
136.0661265576
 31
0.0
  0
LINE
  5
44B
330
445
100
AcDbEntity
  8
DIM
100
AcDbLine
 10
154.2411148592
 20
107.2487825055
 30
0.0
 11
169.7697949453
 21
107.2487825055
 31
0.0
  0
MTEXT
  5
44C
330
445
100
AcDbEntity
  8
DIM
100
AcDbMText
 10
155.4911148592
 20
110.3183751773
 30
0.0
 40
2.38125
 41
0.0
 71
     1
 72
     1
  1
%%c
  7
SLDTEXTSTYLE1
 73
     1
 44
1.0
  0
MTEXT
  5
44D
330
445
100
AcDbEntity
  8
DIM
100
AcDbMText
 10
158.5073648344
 20
110.3183751773
 30
0.0
 40
2.38125
 41
0.0
 71
     1
 72
     1
  1
30
  7
SLDTEXTSTYLE1
 73
     1
 44
1.0
  0
MTEXT
  5
44E
330
445
100
AcDbEntity
  8
DIM
100
AcDbMText
 10
162.2324774011
 20
110.3183751773
 30
0.0
 40
2.38125
 41
0.0
 71
     1
 72
     1
  1
Baffle
  7
SLDTEXTSTYLE1
 73
     1
 44
1.0
  0
ENDBLK
  5
447
330
445
100
AcDbEntity
  8
0
100
AcDbBlockEnd
  0
BLOCK
  5
450
330
44F
100
AcDbEntity
  8
0
100
AcDbBlockBegin
  2
SW_CENTERMARKSYMBOL_0
 70
     0
 10
0.0
 20
0.0
 30
0.0
  3
SW_CENTERMARKSYMBOL_0
  1

  0
LINE
  5
452
330
44F
100
AcDbEntity
  8
DIM
 62
     0
100
AcDbLine
 10
0.0
 20
0.0
 30
0.0
 11
0.0
 21
1.0
 31
0.0
  0
LINE
  5
453
330
44F
100
AcDbEntity
  8
DIM
 62
     0
100
AcDbLine
 10
0.0
 20
0.0
 30
0.0
 11
-1.0
 21
0.0
 31
0.0
  0
LINE
  5
454
330
44F
100
AcDbEntity
  8
DIM
 62
     0
100
AcDbLine
 10
0.0
 20
0.0
 30
0.0
 11
0.0
 21
-1.0
 31
0.0
  0
LINE
  5
455
330
44F
100
AcDbEntity
  8
DIM
 62
     0
100
AcDbLine
 10
0.0
 20
0.0
 30
0.0
 11
1.0
 21
0.0
 31
0.0
  0
LINE
  5
456
330
44F
100
AcDbEntity
  8
DIM
 62
     0
100
AcDbLine
 10
0.0
 20
2.0
 30
0.0
 11
0.0
 21
35.5
 31
0.0
  0
LINE
  5
457
330
44F
100
AcDbEntity
  8
DIM
 62
     0
100
AcDbLine
 10
-2.0
 20
0.0
 30
0.0
 11
-35.5
 21
0.0
 31
0.0
  0
LINE
  5
458
330
44F
100
AcDbEntity
  8
DIM
 62
     0
100
AcDbLine
 10
0.0
 20
-2.0
 30
0.0
 11
0.0
 21
-35.5
 31
0.0
  0
LINE
  5
459
330
44F
100
AcDbEntity
  8
DIM
 62
     0
100
AcDbLine
 10
2.0
 20
0.0
 30
0.0
 11
35.5
 21
0.0
 31
0.0
  0
ENDBLK
  5
451
330
44F
100
AcDbEntity
  8
0
100
AcDbBlockEnd
  0
ENDSEC
  0
SECTION
  2
ENTITIES
  0
HATCH
  5
89
330
1F
100
AcDbEntity
  8
0
  6
Continuous
 62
     7
100
AcDbHatch
 10
0.0
 20
0.0
 30
0.0
210
0.0
220
0.0
230
1.0
  2
SOLID
 70
     1
 71
     0
 91
        1
 92
        0
 93
       10
 72
     2
 10
192.1405965629367
 20
35.75580880988856
 40
2.989636657769859
 50
50.39692260731407
 51
112.8514693252983
 73
     0
 72
     2
 10
191.815005962812
 20
35.43899828006204
 40
2.577335426817619
 50
108.9134333432861
 51
219.5668234386827
 73
     0
 72
     1
 10
189.8281839389603
 20
37.0807035361501
 11
188.8129900915579
 21
37.97623543696786
 72
     1
 10
188.8129900915579
 20
37.97623543696786
 11
187.5063618366762
 21
36.71464836046036
 72
     2
 10
188.4942467986389
 20
35.54612112772446
 40
1.530154433943661
 50
130.2115225915088
 51
228.5889041080191
 73
     1
 72
     1
 10
187.482115254651
 20
34.39853133629978
 11
191.4913175648466
 21
30.9139274960251
 72
     1
 10
191.4913175648466
 20
30.9139274960251
 11
190.8602656444315
 21
30.29802710555407
 72
     1
 10
190.8602656444315
 20
30.29802710555407
 11
191.852145009157
 21
29.44405283860024
 72
     1
 10
191.852145009157
 20
29.44405283860024
 11
195.0618094435223
 21
32.56063080411572
 72
     1
 10
195.0618094435223
 20
32.56063080411572
 11
194.0463864118641
 21
33.45235653184883
 97
        0
 75
     0
 76
     1
 98
        1
 10
0.0
 20
0.0
  0
HATCH
  5
8A
330
1F
100
AcDbEntity
  8
0
  6
Continuous
 62
     1
100
AcDbHatch
 10
0.0
 20
0.0
 30
0.0
210
0.0
220
0.0
230
1.0
  2
SOLID
 70
     1
 71
     0
 91
        1
 92
        0
 93
       10
 72
     2
 10
192.5892455627688
 20
35.6630691563161
 40
2.57756748834625
 50
317.8184992995785
 51
398.0564711573078
 73
     0
 72
     1
 10
194.6188314058163
 20
34.07415900697447
 11
195.6042802987991
 21
33.21546206708498
 72
     1
 10
195.6042802987991
 20
33.21546206708498
 11
196.8459616135929
 21
34.41989500949219
 72
     2
 10
195.9525692879308
 20
35.64784174131312
 40
1.518552937418265
 50
306.0377529468138
 51
403.4396461533871
 73
     1
 72
     1
 10
197.0551891526031
 20
36.69198371335126
 11
192.9284332942598
 21
40.28115998198521
 72
     1
 10
192.9284332942598
 20
40.28115998198521
 11
193.552684596187
 21
40.89021841282256
 72
     1
 10
193.552684596187
 20
40.89021841282256
 11
192.622178086003
 21
41.72041063266705
 72
     1
 10
192.622178086003
 20
41.72041063266705
 11
189.3865926375931
 21
38.59349038605298
 72
     1
 10
189.3865926375931
 20
38.59349038605298
 11
190.4090005149417
 21
37.70169985893218
 72
     2
 10
192.2715892720444
 20
35.12224735083792
 40
3.181636704527876
 50
234.1674444878512
 51
314.4407074583994
 73
     0
 97
        0
 75
     0
 76
     1
 98
        1
 10
0.0
 20
0.0
  0
LINE
  5
8B
330
1F
100
AcDbEntity
  8
0
  6
Continuous
 62
     7
370
    18
100
AcDbLine
 10
167.8593775185
 20
17.7745192513
 30
0.0
 11
168.8593775185
 21
17.7745192513
 31
0.0
  0
LINE
  5
8C
330
1F
100
AcDbEntity
  8
0
  6
Continuous
 62
     7
370
    18
100
AcDbLine
 10
164.8593775185
 20
17.7745192513
 30
0.0
 11
167.3593775185
 21
17.7745192513
 31
0.0
  0
LINE
  5
8D
330
1F
100
AcDbEntity
  8
0
  6
Continuous
 62
     7
370
    18
100
AcDbLine
 10
181.3593775185
 20
15.2745192513
 30
0.0
 11
181.3593775185
 21
20.2745192513
 31
0.0
  0
LINE
  5
8E
330
1F
100
AcDbEntity
  8
0
  6
Continuous
 62
     7
370
    18
100
AcDbLine
 10
174.3593775185
 20
16.2745192513
 30
0.0
 11
181.3593775185
 21
15.2745192513
 31
0.0
  0
LINE
  5
8F
330
1F
100
AcDbEntity
  8
0
  6
Continuous
 62
     7
370
    18
100
AcDbLine
 10
168.3593775185
 20
16.7745192513
 30
0.0
 11
168.3593775185
 21
14.2745192513
 31
0.0
  0
LINE
  5
90
330
1F
100
AcDbEntity
  8
0
  6
Continuous
 62
     7
370
    18
100
AcDbLine
 10
181.3593775185
 20
20.2745192513
 30
0.0
 11
174.3593775185
 21
19.2745192513
 31
0.0
  0
LINE
  5
91
330
1F
100
AcDbEntity
  8
0
  6
Continuous
 62
     7
370
    18
100
AcDbLine
 10
173.3593775185
 20
17.7745192513
 30
0.0
 11
182.3593775185
 21
17.7745192513
 31
0.0
  0
LINE
  5
92
330
1F
100
AcDbEntity
  8
0
  6
Continuous
 62
     7
370
    18
100
AcDbLine
 10
168.3593775185
 20
18.2745192513
 30
0.0
 11
168.3593775185
 21
17.2745192513
 31
0.0
  0
LINE
  5
93
330
1F
100
AcDbEntity
  8
0
  6
Continuous
 62
     7
370
    18
100
AcDbLine
 10
169.3593775185
 20
17.7745192513
 30
0.0
 11
171.8593775185
 21
17.7745192513
 31
0.0
  0
LINE
  5
94
330
1F
100
AcDbEntity
  8
0
  6
Continuous
 62
     7
370
    18
100
AcDbLine
 10
168.3593775185
 20
21.2745192513
 30
0.0
 11
168.3593775185
 21
18.7745192513
 31
0.0
  0
LINE
  5
95
330
1F
100
AcDbEntity
  8
0
  6
Continuous
 62
     7
370
    18
100
AcDbLine
 10
174.3593775185
 20
19.2745192513
 30
0.0
 11
174.3593775185
 21
16.2745192513
 31
0.0
  0
LINE
  5
96
330
1F
100
AcDbEntity
  8
工作區域參考線
 62
     1
370
    35
100
AcDbLine
 10
190.4090005149
 20
37.7016998589
 30
0.0
 11
189.3865926376
 21
38.5934903861
 31
0.0
  0
LINE
  5
97
330
1F
100
AcDbEntity
  8
工作區域參考線
 62
     1
370
    35
100
AcDbLine
 10
189.3865926376
 20
38.5934903861
 30
0.0
 11
192.622178086
 21
41.7204106327
 31
0.0
  0
LINE
  5
98
330
1F
100
AcDbEntity
  8
工作區域參考線
 62
     1
370
    35
100
AcDbLine
 10
192.622178086
 20
41.7204106327
 30
0.0
 11
193.5526845962
 21
40.8902184128
 31
0.0
  0
LINE
  5
99
330
1F
100
AcDbEntity
  8
工作區域參考線
 62
     1
370
    35
100
AcDbLine
 10
193.5526845962
 20
40.8902184128
 30
0.0
 11
192.9284332943
 21
40.281159982
 31
0.0
  0
LINE
  5
9A
330
1F
100
AcDbEntity
  8
工作區域參考線
 62
     1
370
    35
100
AcDbLine
 10
192.9284332943
 20
40.281159982
 30
0.0
 11
197.0551891526
 21
36.6919837134
 31
0.0
  0
LINE
  5
9B
330
1F
100
AcDbEntity
  8
工作區域參考線
 62
     1
370
    35
100
AcDbLine
 10
194.6188314058
 20
34.074159007
 30
0.0
 11
195.6042802988
 21
33.2154620671
 31
0.0
  0
LINE
  5
9C
330
1F
100
AcDbEntity
  8
工作區域參考線
 62
     1
370
    35
100
AcDbLine
 10
195.6042802988
 20
33.2154620671
 30
0.0
 11
196.8459616136
 21
34.4198950095
 31
0.0
  0
LINE
  5
9D
330
1F
100
AcDbEntity
  8
0
  6
Continuous
 62
     7
370
    18
100
AcDbLine
 10
185.6907965209
 20
13.1152464079
 30
0.0
 11
285.6907965209
 21
13.1152464079
 31
0.0
  0
LINE
  5
9E
330
1F
100
AcDbEntity
  8
0
  6
Continuous
 62
     7
370
    18
100
AcDbLine
 10
185.6907965209
 20
18.1152464079
 30
0.0
 11
235.6907965209
 21
18.1152464079
 31
0.0
  0
LINE
  5
9F
330
1F
100
AcDbEntity
  8
0
  6
Continuous
 62
     7
370
    18
100
AcDbLine
 10
185.6907965209
 20
23.1152464079
 30
0.0
 11
235.6907965209
 21
23.1152464079
 31
0.0
  0
LINE
  5
A0
330
1F
100
AcDbEntity
  8
0
  6
Continuous
 62
     7
370
    18
100
AcDbLine
 10
185.6907965209
 20
28.1152464079
 30
0.0
 11
285.6907965209
 21
28.1152464079
 31
0.0
  0
LINE
  5
A1
330
1F
100
AcDbEntity
  8
0
  6
Continuous
 62
     7
370
    18
100
AcDbLine
 10
235.6907965209
 20
33.1152464079
 30
0.0
 11
285.6907965209
 21
33.1152464079
 31
0.0
  0
LINE
  5
A2
330
1F
100
AcDbEntity
  8
0
  6
Continuous
 62
     7
370
    25
100
AcDbLine
 10
235.6907965209
 20
18.1152464079
 30
0.0
 11
285.6907965209
 21
18.1152464079
 31
0.0
  0
LINE
  5
A3
330
1F
100
AcDbEntity
  8
0
  6
Continuous
 62
     7
370
    18
100
AcDbLine
 10
185.6907965209
 20
43.1152464079
 30
0.0
 11
285.6907965209
 21
43.1152464079
 31
0.0
  0
LINE
  5
A4
330
1F
100
AcDbEntity
  8
0
  6
Continuous
 62
     7
370
    18
100
AcDbLine
 10
251.237217675
 20
8.1152464079
 30
0.0
 11
251.237217675
 21
18.1152464079
 31
0.0
  0
LINE
  5
A5
330
1F
100
AcDbEntity
  8
0
  6
Continuous
 62
     7
370
    18
100
AcDbLine
 10
235.6907965209
 20
8.1152464079
 30
0.0
 11
235.6907965209
 21
43.1152464079
 31
0.0
  0
LINE
  5
A6
330
1F
100
AcDbEntity
  8
0
  6
Continuous
 62
     7
370
    18
100
AcDbLine
 10
251.237217675
 20
28.1152464079
 30
0.0
 11
251.237217675
 21
33.1152464079
 31
0.0
  0
LINE
  5
A7
330
1F
100
AcDbEntity
  8
0
  6
Continuous
 62
     7
370
    18
100
AcDbLine
 10
214.4164086353
 20
8.1152464079
 30
0.0
 11
214.4164086353
 21
28.1152464079
 31
0.0
  0
LINE
  5
A8
330
1F
100
AcDbEntity
  8
0
  6
Continuous
 62
     7
370
    18
100
AcDbLine
 10
199.7785887506
 20
8.1152464079
 30
0.0
 11
199.7785887506
 21
28.1152464079
 31
0.0
  0
LINE
  5
A9
330
1F
100
AcDbEntity
  8
0
  6
Continuous
 62
     7
370
    18
100
AcDbLine
 10
185.6907965209
 20
8.1152464079
 30
0.0
 11
185.6907965209
 21
43.1152464079
 31
0.0
  0
LINE
  5
AA
330
1F
100
AcDbEntity
  8
0
  6
Continuous
 62
     7
370
    25
100
AcDbLine
 10
43.3207965209
 20
201.3720275751
 30
0.0
 11
43.3207965209
 21
202.8720275751
 31
0.0
  0
LINE
  5
AB
330
1F
100
AcDbEntity
  8
0
  6
Continuous
 62
     7
370
    25
100
AcDbLine
 10
77.9507965209
 20
201.3720275751
 30
0.0
 11
77.9507965209
 21
202.8720275751
 31
0.0
  0
LINE
  5
AC
330
1F
100
AcDbEntity
  8
0
  6
Continuous
 62
     7
370
    25
100
AcDbLine
 10
112.5807965209
 20
201.3720275751
 30
0.0
 11
112.5807965209
 21
202.8720275751
 31
0.0
  0
LINE
  5
AD
330
1F
100
AcDbEntity
  8
0
  6
Continuous
 62
     7
370
    25
100
AcDbLine
 10
147.2107965209
 20
201.3720275751
 30
0.0
 11
147.2107965209
 21
202.8720275751
 31
0.0
  0
LINE
  5
AE
330
1F
100
AcDbEntity
  8
0
  6
Continuous
 62
     7
370
    25
100
AcDbLine
 10
181.8407965209
 20
201.3720275751
 30
0.0
 11
181.8407965209
 21
202.8720275751
 31
0.0
  0
LINE
  5
AF
330
1F
100
AcDbEntity
  8
0
  6
Continuous
 62
     7
370
    25
100
AcDbLine
 10
216.4707965209
 20
201.3720275751
 30
0.0
 11
216.4707965209
 21
202.8720275751
 31
0.0
  0
LINE
  5
B0
330
1F
100
AcDbEntity
  8
0
  6
Continuous
 62
     7
370
    25
100
AcDbLine
 10
251.1007965209
 20
201.3720275751
 30
0.0
 11
251.1007965209
 21
202.8720275751
 31
0.0
  0
LINE
  5
B1
330
1F
100
AcDbEntity
  8
0
  6
Continuous
 62
     7
370
    25
100
AcDbLine
 10
43.3157965209
 20
8.1152464079
 30
0.0
 11
43.3157965209
 21
6.6152464079
 31
0.0
  0
LINE
  5
B2
330
1F
100
AcDbEntity
  8
0
  6
Continuous
 62
     7
370
    25
100
AcDbLine
 10
77.9407965209
 20
8.1152464079
 30
0.0
 11
77.9407965209
 21
6.6152464079
 31
0.0
  0
LINE
  5
B3
330
1F
100
AcDbEntity
  8
0
  6
Continuous
 62
     7
370
    25
100
AcDbLine
 10
112.5657965209
 20
8.1152464079
 30
0.0
 11
112.5657965209
 21
6.6152464079
 31
0.0
  0
LINE
  5
B4
330
1F
100
AcDbEntity
  8
0
  6
Continuous
 62
     7
370
    25
100
AcDbLine
 10
147.1907965209
 20
8.1152464079
 30
0.0
 11
147.1907965209
 21
6.6152464079
 31
0.0
  0
LINE
  5
B5
330
1F
100
AcDbEntity
  8
0
  6
Continuous
 62
     7
370
    25
100
AcDbLine
 10
181.8157965209
 20
8.1152464079
 30
0.0
 11
181.8157965209
 21
6.6152464079
 31
0.0
  0
LINE
  5
B6
330
1F
100
AcDbEntity
  8
0
  6
Continuous
 62
     7
370
    25
100
AcDbLine
 10
216.4407965209
 20
8.1152464079
 30
0.0
 11
216.4407965209
 21
6.6152464079
 31
0.0
  0
LINE
  5
B7
330
1F
100
AcDbEntity
  8
0
  6
Continuous
 62
     7
370
    18
100
AcDbLine
 10
285.6907965209
 20
201.3720275751
 30
0.0
 11
8.6907965209
 21
201.3720275751
 31
0.0
  0
LINE
  5
B8
330
1F
100
AcDbEntity
  8
0
  6
Continuous
 62
     7
370
    18
100
AcDbLine
 10
285.6907965209
 20
8.1152464079
 30
0.0
 11
285.6907965209
 21
201.3720275751
 31
0.0
  0
LINE
  5
B9
330
1F
100
AcDbEntity
  8
0
  6
Continuous
 62
     7
370
    18
100
AcDbLine
 10
8.6907965209
 20
201.3720275751
 30
0.0
 11
8.6907965209
 21
8.1152464079
 31
0.0
  0
LINE
  5
BA
330
1F
100
AcDbEntity
  8
0
  6
Continuous
 62
     7
370
    18
100
AcDbLine
 10
8.6907965209
 20
8.1152464079
 30
0.0
 11
285.6907965209
 21
8.1152464079
 31
0.0
  0
LINE
  5
BB
330
1F
100
AcDbEntity
  8
0
  6
Continuous
 62
     7
370
    25
100
AcDbLine
 10
251.0657965209
 20
8.1152464079
 30
0.0
 11
251.0657965209
 21
6.6152464079
 31
0.0
  0
LINE
  5
BC
330
1F
100
AcDbEntity
  8
0
  6
Continuous
 62
     7
370
    25
100
AcDbLine
 10
8.6907965209
 20
40.3252464079
 30
0.0
 11
7.1907965209
 21
40.3252464079
 31
0.0
  0
LINE
  5
BD
330
1F
100
AcDbEntity
  8
0
  6
Continuous
 62
     7
370
    25
100
AcDbLine
 10
8.6907965209
 20
72.5352464079
 30
0.0
 11
7.1907965209
 21
72.5352464079
 31
0.0
  0
LINE
  5
BE
330
1F
100
AcDbEntity
  8
0
  6
Continuous
 62
     7
370
    25
100
AcDbLine
 10
8.6907965209
 20
104.7452464079
 30
0.0
 11
7.1907965209
 21
104.7452464079
 31
0.0
  0
LINE
  5
BF
330
1F
100
AcDbEntity
  8
0
  6
Continuous
 62
     7
370
    25
100
AcDbLine
 10
8.6907965209
 20
136.9552464079
 30
0.0
 11
7.1907965209
 21
136.9552464079
 31
0.0
  0
LINE
  5
C0
330
1F
100
AcDbEntity
  8
0
  6
Continuous
 62
     7
370
    25
100
AcDbLine
 10
8.6907965209
 20
169.1652464079
 30
0.0
 11
7.1907965209
 21
169.1652464079
 31
0.0
  0
LINE
  5
C1
330
1F
100
AcDbEntity
  8
0
  6
Continuous
 62
     7
370
    25
100
AcDbLine
 10
285.6907965209
 20
40.3252464079
 30
0.0
 11
287.1907965209
 21
40.3252464079
 31
0.0
  0
LINE
  5
C2
330
1F
100
AcDbEntity
  8
0
  6
Continuous
 62
     7
370
    25
100
AcDbLine
 10
285.6907965209
 20
72.5352464079
 30
0.0
 11
287.1907965209
 21
72.5352464079
 31
0.0
  0
LINE
  5
C3
330
1F
100
AcDbEntity
  8
0
  6
Continuous
 62
     7
370
    25
100
AcDbLine
 10
285.6907965209
 20
104.7452464079
 30
0.0
 11
287.1907965209
 21
104.7452464079
 31
0.0
  0
LINE
  5
C4
330
1F
100
AcDbEntity
  8
0
  6
Continuous
 62
     7
370
    25
100
AcDbLine
 10
285.6907965209
 20
136.9552464079
 30
0.0
 11
287.1907965209
 21
136.9552464079
 31
0.0
  0
LINE
  5
C5
330
1F
100
AcDbEntity
  8
0
  6
Continuous
 62
     7
370
    25
100
AcDbLine
 10
285.6907965209
 20
169.1652464079
 30
0.0
 11
287.1907965209
 21
169.1652464079
 31
0.0
  0
CIRCLE
  5
C6
330
1F
100
AcDbEntity
  8
0
  6
Continuous
 62
     7
370
    18
100
AcDbCircle
 10
168.3593775185
 20
17.7745192513
 30
0.0
 40
1.5
  0
CIRCLE
  5
C7
330
1F
100
AcDbEntity
  8
0
  6
Continuous
 62
     7
370
    18
100
AcDbCircle
 10
168.3593775185
 20
17.7745192513
 30
0.0
 40
2.5
  0
ARC
  5
C8
330
1F
100
AcDbEntity
  8
工作區域參考線
 62
     1
370
    35
100
AcDbCircle
 10
195.9525692879
 20
35.6478417413
 30
0.0
 40
1.518552937418275
100
AcDbArc
 50
306.0377529468
 51
43.4396461534
  0
ARC
  5
C9
330
1F
100
AcDbEntity
  8
工作區域參考線
 62
     1
370
    35
100
AcDbCircle
 10
192.271589272
 20
35.1222473508
 30
0.0
 40
3.181636704527891
100
AcDbArc
 50
45.5592925416
 51
125.8325555121
  0
ARC
  5
CA
330
1F
100
AcDbEntity
  8
工作區域參考線
 62
     1
370
    35
100
AcDbCircle
 10
192.5892455628
 20
35.6630691563
 30
0.0
 40
2.577567488346266
100
AcDbArc
 50
321.9435288427
 51
42.1815007004
  0
INSERT
  5
CB
330
1F
100
AcDbEntity
  8
0
  6
Continuous
 62
     7
100
AcDbBlockReference
  2
圖塊6
 10
186.9640923647
 20
29.4440528386
 30
0.0
  0
MTEXT
  5
CD
330
1F
100
AcDbEntity
  8
0
  6
Continuous
 62
     7
370
     0
100
AcDbMText
 10
165.5426850804
 20
13.2208440369
 30
0.0
 40
2.6458333333
 41
0.0
 71
     1
 72
     1
  1
UNIT:m/m
  7
SLDTEXTSTYLE0
 73
     1
 44
1.0
  0
INSERT
  5
D4
330
1F
100
AcDbEntity
  8
0
  6
Continuous
 62
     7
370
     0
100
AcDbBlockReference
  2
SW_NOTE_0
 10
12.2315076053
 20
193.8904304251
 30
0.0
  0
MTEXT
  5
D5
330
1F
100
AcDbEntity
  8
0
  6
Continuous
 62
     7
370
     0
100
AcDbMText
 10
198.7251893935
 20
40.4406774139
 30
0.0
 40
2.38125
 41
0.0
 71
     1
 72
     1
  1
Unice E-O Services Inc.
  7
SLDTEXTSTYLE0
 73
     1
 44
1.0
  0
MTEXT
  5
D6
330
1F
100
AcDbEntity
  8
0
  6
Continuous
 62
     7
370
     0
100
AcDbMText
 10
217.5590538149
 20
21.5867148511
 30
0.0
 40
1.8520833333
 41
0.0
 71
     1
 72
     1
  1
2020/12/28
  7
SLDTEXTSTYLE0
 73
     1
 44
1.0
  0
MTEXT
  5
D7
330
1F
100
AcDbEntity
  8
0
  6
Continuous
 62
     7
370
     0
100
AcDbMText
 10
252.6088982507
 20
16.87117774
 30
0.0
 40
2.5
 41
0.0
 71
     1
 72
     1
  1
1:1
  7
SLDTEXTSTYLE0
 73
     1
 44
1.0
  0
MTEXT
  5
D8
330
1F
100
AcDbEntity
  8
0
  6
Continuous
 62
     7
370
     0
100
AcDbMText
 10
252.3075599985
 20
32.1519195438
 30
0.0
 40
2.5
 41
0.0
 71
     1
 72
     1
  1
UIS-050-014-C-Y
  7
SLDTEXTSTYLE0
 73
     1
 44
1.0
  0
MTEXT
  5
D9
330
1F
100
AcDbEntity
  8
0
  6
Continuous
 62
     7
370
     0
100
AcDbMText
 10
252.3075599985
 20
38.1082117879
 30
0.0
 40
2.5
 41
0.0
 71
     1
 72
     1
  1
UIS-050-014-C-Y
  7
SLDTEXTSTYLE0
 73
     1
 44
1.0
  0
MTEXT
  5
DA
330
1F
100
AcDbEntity
  8
0
  6
Continuous
 62
     7
370
     0
100
AcDbMText
 10
236.3921866786
 20
16.5064795728
 30
0.0
 40
2.1166666667
 41
0.0
 71
     1
 72
     1
  1
SCALE:
  7
SLDTEXTSTYLE0
 73
     1
 44
1.0
  0
MTEXT
  5
DB
330
1F
100
AcDbEntity
  8
0
  6
Continuous
 62
     7
370
     0
100
AcDbMText
 10
186.3336086789
 20
21.5867148511
 30
0.0
 40
1.8520833333
 41
0.0
 71
     1
 72
     1
  1
DRAWN
  7
SLDTEXTSTYLE0
 73
     1
 44
1.0
  0
MTEXT
  5
DC
330
1F
100
AcDbEntity
  8
0
  6
Continuous
 62
     7
370
     0
100
AcDbMText
 10
203.2228367937
 20
26.683208308
 30
0.0
 40
1.8520833333
 41
0.0
 71
     1
 72
     1
  1
NAME
  7
SLDTEXTSTYLE0
 73
     1
 44
1.0
  0
MTEXT
  5
DD
330
1F
100
AcDbEntity
  8
0
  6
Continuous
 62
     7
370
     0
100
AcDbMText
 10
220.8710155758
 20
26.683208308
 30
0.0
 40
1.8520833333
 41
0.0
 71
     1
 72
     1
  1
DATE
  7
SLDTEXTSTYLE0
 73
     1
 44
1.0
  0
MTEXT
  5
DE
330
1F
100
AcDbEntity
  8
0
  6
Continuous
 62
     7
370
     0
100
AcDbMText
 10
236.2756316645
 20
31.7872213766
 30
0.0
 40
2.1166666667
 41
0.0
 71
     1
 72
     1
  1
DWG. NO.
  7
SLDTEXTSTYLE0
 73
     1
 44
1.0
  0
MTEXT
  5
DF
330
1F
100
AcDbEntity
  8
0
  6
Continuous
 62
     7
370
     0
100
AcDbMText
 10
236.3629907088
 20
41.8840658243
 30
0.0
 40
2.1166666667
 41
0.0
 71
     1
 72
     1
  1
TITLE:
  7
SLDTEXTSTYLE0
 73
     1
 44
1.0
  0
MTEXT
  5
E0
330
1F
100
AcDbEntity
  8
0
  6
Continuous
 62
     7
370
     0
100
AcDbMText
 10
203.0314209802
 20
16.2403789724
 30
0.0
 40
1.8520833333
 41
0.0
 71
     1
 72
     1
  1
Johnny
  7
SLDTEXTSTYLE0
 73
     1
 44
1.0
  0
MTEXT
  5
E1
330
1F
100
AcDbEntity
  8
0
  6
Continuous
 62
     7
370
     0
100
AcDbMText
 10
217.5590538149
 20
16.2403789724
 30
0.0
 40
1.8520833333
 41
0.0
 71
     1
 72
     1
  1
2020/12/28
  7
SLDTEXTSTYLE0
 73
     1
 44
1.0
  0
MTEXT
  5
E2
330
1F
100
AcDbEntity
  8
0
  6
Continuous
 62
     7
370
     0
100
AcDbMText
 10
186.3336086789
 20
16.2403789724
 30
0.0
 40
1.8520833333
 41
0.0
 71
     1
 72
     1
  1
ENG APPR.
  7
SLDTEXTSTYLE0
 73
     1
 44
1.0
  0
MTEXT
  5
E3
330
1F
100
AcDbEntity
  8
0
  6
Continuous
 62
     7
370
     0
100
AcDbMText
 10
236.3921866786
 20
11.6853389288
 30
0.0
 40
2.1166666667
 41
0.0
 71
     1
 72
     1
  1
REV
  7
SLDTEXTSTYLE0
 73
     1
 44
1.0
  0
MTEXT
  5
E4
330
1F
100
AcDbEntity
  8
0
  6
Continuous
 62
     7
370
     0
100
AcDbMText
 10
236.3629907088
 20
26.9493089085
 30
0.0
 40
2.1166666667
 41
0.0
 71
     1
 72
     1
  1
MATERIAL:
  7
SLDTEXTSTYLE0
 73
     1
 44
1.0
  0
MTEXT
  5
E5
330
1F
100
AcDbEntity
  8
0
  6
Continuous
 62
     7
370
     0
100
AcDbMText
 10
252.6088982507
 20
22.2175136187
 30
0.0
 40
2.5
 41
0.0
 71
     1
 72
     1
  1
N/A
  7
SLDTEXTSTYLE0
 73
     1
 44
1.0
  0
MTEXT
  5
E6
330
1F
100
AcDbEntity
  8
0
  6
Continuous
 62
     7
370
     0
100
AcDbMText
 10
26.6029931533
 20
204.453351657
 30
0.0
 40
2.1166666667
 41
0.0
 71
     1
 72
     1
  1
1
  7
SLDTEXTSTYLE0
 73
     1
 44
1.0
  0
MTEXT
  5
E7
330
1F
100
AcDbEntity
  8
0
  6
Continuous
 62
     7
370
     0
100
AcDbMText
 10
60.7170995724
 20
204.453351657
 30
0.0
 40
2.1166666667
 41
0.0
 71
     1
 72
     1
  1
2
  7
SLDTEXTSTYLE0
 73
     1
 44
1.0
  0
MTEXT
  5
E8
330
1F
100
AcDbEntity
  8
0
  6
Continuous
 62
     7
370
     0
100
AcDbMText
 10
94.9009943906
 20
204.453351657
 30
0.0
 40
2.1166666667
 41
0.0
 71
     1
 72
     1
  1
3
  7
SLDTEXTSTYLE0
 73
     1
 44
1.0
  0
MTEXT
  5
E9
330
1F
100
AcDbEntity
  8
0
  6
Continuous
 62
     7
370
     0
100
AcDbMText
 10
129.2533362851
 20
204.2992584364
 30
0.0
 40
2.1166666667
 41
0.0
 71
     1
 72
     1
  1
4
  7
SLDTEXTSTYLE0
 73
     1
 44
1.0
  0
MTEXT
  5
EA
330
1F
100
AcDbEntity
  8
0
  6
Continuous
 62
     7
370
     0
100
AcDbMText
 10
163.702323464
 20
204.453351657
 30
0.0
 40
2.1166666667
 41
0.0
 71
     1
 72
     1
  1
5
  7
SLDTEXTSTYLE0
 73
     1
 44
1.0
  0
MTEXT
  5
EB
330
1F
100
AcDbEntity
  8
0
  6
Continuous
 62
     7
370
     0
100
AcDbMText
 10
198.6382170415
 20
204.453351657
 30
0.0
 40
2.1166666667
 41
0.0
 71
     1
 72
     1
  1
6
  7
SLDTEXTSTYLE0
 73
     1
 44
1.0
  0
MTEXT
  5
EC
330
1F
100
AcDbEntity
  8
0
  6
Continuous
 62
     7
370
     0
100
AcDbMText
 10
234.3630657407
 20
204.453351657
 30
0.0
 40
2.1166666667
 41
0.0
 71
     1
 72
     1
  1
7
  7
SLDTEXTSTYLE0
 73
     1
 44
1.0
  0
MTEXT
  5
ED
330
1F
100
AcDbEntity
  8
0
  6
Continuous
 62
     7
370
     0
100
AcDbMText
 10
266.2787820494
 20
204.453351657
 30
0.0
 40
2.1166666667
 41
0.0
 71
     1
 72
     1
  1
8
  7
SLDTEXTSTYLE0
 73
     1
 44
1.0
  0
MTEXT
  5
EE
330
1F
100
AcDbEntity
  8
0
  6
Continuous
 62
     7
370
     0
100
AcDbMText
 10
5.3568236555
 20
185.8113022879
 30
0.0
 40
2.1166666667
 41
0.0
 71
     1
 72
     1
  1
A
  7
SLDTEXTSTYLE0
 73
     1
 44
1.0
  0
MTEXT
  5
EF
330
1F
100
AcDbEntity
  8
0
  6
Continuous
 62
     7
370
     0
100
AcDbMText
 10
5.5910431831
 20
154.2993048238
 30
0.0
 40
2.1166666667
 41
0.0
 71
     1
 72
     1
  1
B
  7
SLDTEXTSTYLE0
 73
     1
 44
1.0
  0
MTEXT
  5
F0
330
1F
100
AcDbEntity
  8
0
  6
Continuous
 62
     7
370
     0
100
AcDbMText
 10
5.5910431831
 20
121.274351423
 30
0.0
 40
2.1166666667
 41
0.0
 71
     1
 72
     1
  1
C
  7
SLDTEXTSTYLE0
 73
     1
 44
1.0
  0
MTEXT
  5
F1
330
1F
100
AcDbEntity
  8
0
  6
Continuous
 62
     7
370
     0
100
AcDbMText
 10
5.5910431831
 20
88.7453220221
 30
0.0
 40
2.1166666667
 41
0.0
 71
     1
 72
     1
  1
D
  7
SLDTEXTSTYLE0
 73
     1
 44
1.0
  0
MTEXT
  5
F2
330
1F
100
AcDbEntity
  8
0
  6
Continuous
 62
     7
370
     0
100
AcDbMText
 10
5.5910431831
 20
57.5558849197
 30
0.0
 40
2.1166666667
 41
0.0
 71
     1
 72
     1
  1
E
  7
SLDTEXTSTYLE0
 73
     1
 44
1.0
  0
MTEXT
  5
F3
330
1F
100
AcDbEntity
  8
0
  6
Continuous
 62
     7
370
     0
100
AcDbMText
 10
5.5910431831
 20
25.5694212252
 30
0.0
 40
2.1166666667
 41
0.0
 71
     1
 72
     1
  1
F
  7
SLDTEXTSTYLE0
 73
     1
 44
1.0
  0
MTEXT
  5
F4
330
1F
100
AcDbEntity
  8
0
  6
Continuous
 62
     7
370
     0
100
AcDbMText
 10
266.1858616964
 20
6.6236223963
 30
0.0
 40
2.1166666667
 41
0.0
 71
     1
 72
     1
  1
8
  7
SLDTEXTSTYLE0
 73
     1
 44
1.0
  0
MTEXT
  5
F5
330
1F
100
AcDbEntity
  8
0
  6
Continuous
 62
     7
370
     0
100
AcDbMText
 10
234.2701453876
 20
6.6236223963
 30
0.0
 40
2.1166666667
 41
0.0
 71
     1
 72
     1
  1
7
  7
SLDTEXTSTYLE0
 73
     1
 44
1.0
  0
MTEXT
  5
F6
330
1F
100
AcDbEntity
  8
0
  6
Continuous
 62
     7
370
     0
100
AcDbMText
 10
198.5452966885
 20
6.6236223963
 30
0.0
 40
2.1166666667
 41
0.0
 71
     1
 72
     1
  1
6
  7
SLDTEXTSTYLE0
 73
     1
 44
1.0
  0
MTEXT
  5
F7
330
1F
100
AcDbEntity
  8
0
  6
Continuous
 62
     7
370
     0
100
AcDbMText
 10
163.6094031109
 20
6.6236223963
 30
0.0
 40
2.1166666667
 41
0.0
 71
     1
 72
     1
  1
5
  7
SLDTEXTSTYLE0
 73
     1
 44
1.0
  0
MTEXT
  5
F8
330
1F
100
AcDbEntity
  8
0
  6
Continuous
 62
     7
370
     0
100
AcDbMText
 10
129.1604159321
 20
6.4695291758
 30
0.0
 40
2.1166666667
 41
0.0
 71
     1
 72
     1
  1
4
  7
SLDTEXTSTYLE0
 73
     1
 44
1.0
  0
MTEXT
  5
F9
330
1F
100
AcDbEntity
  8
0
  6
Continuous
 62
     7
370
     0
100
AcDbMText
 10
94.8080740376
 20
6.6236223963
 30
0.0
 40
2.1166666667
 41
0.0
 71
     1
 72
     1
  1
3
  7
SLDTEXTSTYLE0
 73
     1
 44
1.0
  0
MTEXT
  5
FA
330
1F
100
AcDbEntity
  8
0
  6
Continuous
 62
     7
370
     0
100
AcDbMText
 10
60.6241792194
 20
6.6236223963
 30
0.0
 40
2.1166666667
 41
0.0
 71
     1
 72
     1
  1
2
  7
SLDTEXTSTYLE0
 73
     1
 44
1.0
  0
MTEXT
  5
FB
330
1F
100
AcDbEntity
  8
0
  6
Continuous
 62
     7
370
     0
100
AcDbMText
 10
26.5100728003
 20
6.6236223963
 30
0.0
 40
2.1166666667
 41
0.0
 71
     1
 72
     1
  1
1
  7
SLDTEXTSTYLE0
 73
     1
 44
1.0
  0
MTEXT
  5
FC
330
1F
100
AcDbEntity
  8
0
  6
Continuous
 62
     7
370
     0
100
AcDbMText
 10
287.1023846145
 20
186.6424909092
 30
0.0
 40
2.1166666667
 41
0.0
 71
     1
 72
     1
  1
A
  7
SLDTEXTSTYLE0
 73
     1
 44
1.0
  0
MTEXT
  5
FD
330
1F
100
AcDbEntity
  8
0
  6
Continuous
 62
     7
370
     0
100
AcDbMText
 10
287.3366041421
 20
155.1304934451
 30
0.0
 40
2.1166666667
 41
0.0
 71
     1
 72
     1
  1
B
  7
SLDTEXTSTYLE0
 73
     1
 44
1.0
  0
MTEXT
  5
FE
330
1F
100
AcDbEntity
  8
0
  6
Continuous
 62
     7
370
     0
100
AcDbMText
 10
287.3366041421
 20
122.1055400442
 30
0.0
 40
2.1166666667
 41
0.0
 71
     1
 72
     1
  1
C
  7
SLDTEXTSTYLE0
 73
     1
 44
1.0
  0
MTEXT
  5
FF
330
1F
100
AcDbEntity
  8
0
  6
Continuous
 62
     7
370
     0
100
AcDbMText
 10
287.3366041421
 20
89.5765106433
 30
0.0
 40
2.1166666667
 41
0.0
 71
     1
 72
     1
  1
D
  7
SLDTEXTSTYLE0
 73
     1
 44
1.0
  0
MTEXT
  5
100
330
1F
100
AcDbEntity
  8
0
  6
Continuous
 62
     7
370
     0
100
AcDbMText
 10
287.3366041421
 20
58.3870735409
 30
0.0
 40
2.1166666667
 41
0.0
 71
     1
 72
     1
  1
E
  7
SLDTEXTSTYLE0
 73
     1
 44
1.0
  0
MTEXT
  5
101
330
1F
100
AcDbEntity
  8
0
  6
Continuous
 62
     7
370
     0
100
AcDbMText
 10
287.3366041421
 20
26.4006098464
 30
0.0
 40
2.1166666667
 41
0.0
 71
     1
 72
     1
  1
F
  7
SLDTEXTSTYLE0
 73
     1
 44
1.0
  0
MTEXT
  5
102
330
1F
100
AcDbEntity
  8
0
  6
Continuous
 62
     7
370
     0
100
AcDbMText
 10
203.1553128802
 20
21.5867148511
 30
0.0
 40
1.8520833333
 41
0.0
 71
     1
 72
     1
  1
John
  7
SLDTEXTSTYLE0
 73
     1
 44
1.0
  0
MTEXT
  5
104
330
1F
100
AcDbEntity
  8
0
  6
Continuous
 62
     7
370
     0
100
AcDbMText
 10
252.8482239645
 20
12.2219603318
 30
0.0
 40
2.38125
 41
0.0
 71
     1
 72
     1
  1
0
  7
SLDTEXTSTYLE1
 73
     1
 44
1.0
  0
INSERT
  5
10A
330
1F
100
AcDbEntity
  8
SLD-0
 62
     7
100
AcDbBlockReference
  2
SW_NOTE_0_1
 10
198.7251893935
 20
33.5479745212
 30
0.0
  0
INSERT
  5
120
330
1F
100
AcDbEntity
  8
DIM
100
AcDbBlockReference
  2
SW_TABLEANNOTATION_0
 10
8.6907965209
 20
21.0953354643
 30
0.0
  0
ARC
  5
121
330
1F
100
AcDbEntity
  8
0
  6
Continuous
 62
     7
370
    35
100
AcDbCircle
 10
87.9435498925
 20
61.615324404
 30
0.0
 40
0.2999999999999972
100
AcDbArc
 50
180.0
 51
270.0
  0
ARC
  5
122
330
1F
100
AcDbEntity
  8
0
  6
Continuous
 62
     7
370
    35
100
AcDbCircle
 10
90.2435498925
 20
61.615324404
 30
0.0
 40
0.2999999999999972
100
AcDbArc
 50
270.0
 51
0.0
  0
ARC
  5
123
330
1F
100
AcDbEntity
  8
0
  6
Continuous
 62
     7
370
    35
100
AcDbCircle
 10
87.9435498925
 20
61.615324404
 30
0.0
 40
0.3000000000000043
100
AcDbArc
 50
90.0
 51
180.0
  0
ARC
  5
124
330
1F
100
AcDbEntity
  8
0
  6
Continuous
 62
     7
370
    35
100
AcDbCircle
 10
90.2435498925
 20
61.615324404
 30
0.0
 40
0.3000000000000043
100
AcDbArc
 50
0.0
 51
90.0
  0
LINE
  5
125
330
1F
100
AcDbEntity
  8
0
  6
Continuous
 62
     7
370
    35
100
AcDbLine
 10
88.8814178581
 20
61.715324404
 30
0.0
 11
89.3056819268
 21
61.715324404
 31
0.0
  0
LINE
  5
126
330
1F
100
AcDbEntity
  8
0
  6
Continuous
 62
     7
370
    35
100
AcDbLine
 10
89.3056819268
 20
61.915324404
 30
0.0
 11
89.3056819268
 21
61.715324404
 31
0.0
  0
LINE
  5
127
330
1F
100
AcDbEntity
  8
0
  6
Continuous
 62
     7
370
    35
100
AcDbLine
 10
89.3056819268
 20
61.915324404
 30
0.0
 11
90.2435498925
 21
61.915324404
 31
0.0
  0
LINE
  5
128
330
1F
100
AcDbEntity
  8
0
  6
Continuous
 62
     7
370
    35
100
AcDbLine
 10
90.0435498925
 20
61.315324404
 30
0.0
 11
90.2435498925
 21
61.315324404
 31
0.0
  0
LINE
  5
129
330
1F
100
AcDbEntity
  8
0
  6
Continuous
 62
     7
370
    35
100
AcDbLine
 10
90.0435498925
 20
61.315324404
 30
0.0
 11
90.0435498925
 21
56.515324404
 31
0.0
  0
LINE
  5
12A
330
1F
100
AcDbEntity
  8
0
  6
Continuous
 62
     7
370
    35
100
AcDbLine
 10
89.8435498925
 20
56.315324404
 30
0.0
 11
90.0435498925
 21
56.515324404
 31
0.0
  0
LINE
  5
12B
330
1F
100
AcDbEntity
  8
0
  6
Continuous
 62
     7
370
    35
100
AcDbLine
 10
88.3435498925
 20
56.315324404
 30
0.0
 11
89.8435498925
 21
56.315324404
 31
0.0
  0
LINE
  5
12C
330
1F
100
AcDbEntity
  8
0
  6
Continuous
 62
     7
370
    35
100
AcDbLine
 10
88.1435498925
 20
56.515324404
 30
0.0
 11
88.3435498925
 21
56.315324404
 31
0.0
  0
LINE
  5
12D
330
1F
100
AcDbEntity
  8
0
  6
Continuous
 62
     7
370
    35
100
AcDbLine
 10
88.1435498925
 20
56.515324404
 30
0.0
 11
88.1435498925
 21
61.315324404
 31
0.0
  0
LINE
  5
12E
330
1F
100
AcDbEntity
  8
0
  6
Continuous
 62
     7
370
    35
100
AcDbLine
 10
87.9435498925
 20
61.315324404
 30
0.0
 11
88.1435498925
 21
61.315324404
 31
0.0
  0
LINE
  5
12F
330
1F
100
AcDbEntity
  8
0
  6
Continuous
 62
     7
370
    35
100
AcDbLine
 10
87.9435498925
 20
61.915324404
 30
0.0
 11
88.8814178581
 21
61.915324404
 31
0.0
  0
LINE
  5
130
330
1F
100
AcDbEntity
  8
0
  6
Continuous
 62
     7
370
    35
100
AcDbLine
 10
88.8814178581
 20
61.915324404
 30
0.0
 11
88.8814178581
 21
61.715324404
 31
0.0
  0
LINE
  5
131
330
1F
100
AcDbEntity
  8
0
  6
Continuous
 62
     7
370
    35
100
AcDbLine
 10
89.0935498925
 20
61.915324404
 30
0.0
 11
89.0935498925
 21
61.715324404
 31
0.0
  0
LINE
  5
132
330
1F
100
AcDbEntity
  8
0
  6
Continuous
 62
     7
370
    35
100
AcDbLine
 10
89.0935498925
 20
61.915324404
 30
0.0
 11
88.8814178581
 21
61.915324404
 31
0.0
  0
LINE
  5
133
330
1F
100
AcDbEntity
  8
0
  6
Continuous
 62
     7
370
    35
100
AcDbLine
 10
89.3056819268
 20
61.915324404
 30
0.0
 11
89.0935498925
 21
61.915324404
 31
0.0
  0
ARC
  5
134
330
1F
100
AcDbEntity
  8
0
  6
Continuous
 62
     7
370
    35
100
AcDbCircle
 10
149.9435498925
 20
61.615324404
 30
0.0
 40
0.3000000000000114
100
AcDbArc
 50
90.0
 51
180.0
  0
ARC
  5
135
330
1F
100
AcDbEntity
  8
0
  6
Continuous
 62
     7
370
    35
100
AcDbCircle
 10
152.2435498925
 20
61.615324404
 30
0.0
 40
0.3000000000000114
100
AcDbArc
 50
0.0
 51
90.0
  0
ARC
  5
136
330
1F
100
AcDbEntity
  8
0
  6
Continuous
 62
     7
370
    35
100
AcDbCircle
 10
149.9435498925
 20
61.615324404
 30
0.0
 40
0.3000000000000114
100
AcDbArc
 50
180.0
 51
270.0
  0
ARC
  5
137
330
1F
100
AcDbEntity
  8
0
  6
Continuous
 62
     7
370
    35
100
AcDbCircle
 10
152.2435498925
 20
61.615324404
 30
0.0
 40
0.3000000000000114
100
AcDbArc
 50
270.0
 51
0.0
  0
LINE
  5
138
330
1F
100
AcDbEntity
  8
0
  6
Continuous
 62
     7
370
    35
100
AcDbLine
 10
150.8814178581
 20
61.915324404
 30
0.0
 11
150.8814178581
 21
61.715324404
 31
0.0
  0
LINE
  5
139
330
1F
100
AcDbEntity
  8
0
  6
Continuous
 62
     7
370
    35
100
AcDbLine
 10
150.8814178581
 20
61.715324404
 30
0.0
 11
151.3056819268
 21
61.715324404
 31
0.0
  0
LINE
  5
13A
330
1F
100
AcDbEntity
  8
0
  6
Continuous
 62
     7
370
    35
100
AcDbLine
 10
151.3056819268
 20
61.915324404
 30
0.0
 11
151.3056819268
 21
61.715324404
 31
0.0
  0
LINE
  5
13B
330
1F
100
AcDbEntity
  8
0
  6
Continuous
 62
     7
370
    35
100
AcDbLine
 10
151.3056819268
 20
61.915324404
 30
0.0
 11
152.2435498925
 21
61.915324404
 31
0.0
  0
LINE
  5
13C
330
1F
100
AcDbEntity
  8
0
  6
Continuous
 62
     7
370
    35
100
AcDbLine
 10
152.0435498925
 20
61.315324404
 30
0.0
 11
152.2435498925
 21
61.315324404
 31
0.0
  0
LINE
  5
13D
330
1F
100
AcDbEntity
  8
0
  6
Continuous
 62
     7
370
    35
100
AcDbLine
 10
152.0435498925
 20
61.315324404
 30
0.0
 11
152.0435498925
 21
56.515324404
 31
0.0
  0
LINE
  5
13E
330
1F
100
AcDbEntity
  8
0
  6
Continuous
 62
     7
370
    35
100
AcDbLine
 10
151.8435498925
 20
56.315324404
 30
0.0
 11
152.0435498925
 21
56.515324404
 31
0.0
  0
LINE
  5
13F
330
1F
100
AcDbEntity
  8
0
  6
Continuous
 62
     7
370
    35
100
AcDbLine
 10
150.3435498925
 20
56.315324404
 30
0.0
 11
151.8435498925
 21
56.315324404
 31
0.0
  0
LINE
  5
140
330
1F
100
AcDbEntity
  8
0
  6
Continuous
 62
     7
370
    35
100
AcDbLine
 10
150.1435498925
 20
56.515324404
 30
0.0
 11
150.3435498925
 21
56.315324404
 31
0.0
  0
LINE
  5
141
330
1F
100
AcDbEntity
  8
0
  6
Continuous
 62
     7
370
    35
100
AcDbLine
 10
150.1435498925
 20
56.515324404
 30
0.0
 11
150.1435498925
 21
61.315324404
 31
0.0
  0
LINE
  5
142
330
1F
100
AcDbEntity
  8
0
  6
Continuous
 62
     7
370
    35
100
AcDbLine
 10
149.9435498925
 20
61.315324404
 30
0.0
 11
150.1435498925
 21
61.315324404
 31
0.0
  0
LINE
  5
143
330
1F
100
AcDbEntity
  8
0
  6
Continuous
 62
     7
370
    35
100
AcDbLine
 10
149.9435498925
 20
61.915324404
 30
0.0
 11
150.8814178581
 21
61.915324404
 31
0.0
  0
LINE
  5
144
330
1F
100
AcDbEntity
  8
0
  6
Continuous
 62
     7
370
    35
100
AcDbLine
 10
151.0935498925
 20
61.915324404
 30
0.0
 11
151.0935498925
 21
61.715324404
 31
0.0
  0
LINE
  5
145
330
1F
100
AcDbEntity
  8
0
  6
Continuous
 62
     7
370
    35
100
AcDbLine
 10
151.0935498925
 20
61.915324404
 30
0.0
 11
151.3056819268
 21
61.915324404
 31
0.0
  0
LINE
  5
146
330
1F
100
AcDbEntity
  8
0
  6
Continuous
 62
     7
370
    35
100
AcDbLine
 10
150.8814178581
 20
61.915324404
 30
0.0
 11
151.0935498925
 21
61.915324404
 31
0.0
  0
LINE
  5
147
330
1F
100
AcDbEntity
  8
0
  6
Continuous
 62
     7
370
    35
100
AcDbLine
 10
150.2935498925
 20
57.915324404
 30
0.0
 11
148.3435498925
 21
57.915324404
 31
0.0
  0
LINE
  5
148
330
1F
100
AcDbEntity
  8
0
  6
Continuous
 62
     7
370
    35
100
AcDbLine
 10
150.2935498925
 20
57.915324404
 30
0.0
 11
150.2935498925
 21
56.415324404
 31
0.0
  0
LINE
  5
149
330
1F
100
AcDbEntity
  8
0
  6
Continuous
 62
     7
370
    35
100
AcDbLine
 10
148.3435498925
 20
57.915324404
 30
0.0
 11
148.3435498925
 21
56.415324404
 31
0.0
  0
LINE
  5
14A
330
1F
100
AcDbEntity
  8
0
  6
Continuous
 62
     7
370
    35
100
AcDbLine
 10
150.2935498925
 20
56.415324404
 30
0.0
 11
148.3435498925
 21
56.415324404
 31
0.0
  0
LINE
  5
14B
330
1F
100
AcDbEntity
  8
0
  6
Continuous
 62
     7
370
    35
100
AcDbLine
 10
151.8935498925
 20
56.415324404
 30
0.0
 11
151.8935498925
 21
57.915324404
 31
0.0
  0
LINE
  5
14C
330
1F
100
AcDbEntity
  8
0
  6
Continuous
 62
     7
370
    35
100
AcDbLine
 10
153.3435498925
 20
57.915324404
 30
0.0
 11
153.3435498925
 21
61.915324404
 31
0.0
  0
LINE
  5
14D
330
1F
100
AcDbEntity
  8
0
  6
Continuous
 62
     7
370
    35
100
AcDbLine
 10
86.8435498925
 20
61.915324404
 30
0.0
 11
86.8435498925
 21
57.915324404
 31
0.0
  0
LINE
  5
14E
330
1F
100
AcDbEntity
  8
0
  6
Continuous
 62
     7
370
    35
100
AcDbLine
 10
153.3435498925
 20
61.915324404
 30
0.0
 11
152.2435498925
 21
61.915324404
 31
0.0
  0
LINE
  5
14F
330
1F
100
AcDbEntity
  8
0
  6
Continuous
 62
     7
370
    35
100
AcDbLine
 10
149.9435498925
 20
61.915324404
 30
0.0
 11
148.0146888377
 21
61.915324404
 31
0.0
  0
LINE
  5
150
330
1F
100
AcDbEntity
  8
0
  6
Continuous
 62
     7
370
    35
100
AcDbLine
 10
92.1724109472
 20
61.915324404
 30
0.0
 11
90.2435498925
 21
61.915324404
 31
0.0
  0
LINE
  5
151
330
1F
100
AcDbEntity
  8
0
  6
Continuous
 62
     7
370
    35
100
AcDbLine
 10
87.9435498925
 20
61.915324404
 30
0.0
 11
86.8435498925
 21
61.915324404
 31
0.0
  0
LINE
  5
152
330
1F
100
AcDbEntity
  8
0
  6
Continuous
 62
     7
370
    35
100
AcDbLine
 10
89.8935498925
 20
56.415324404
 30
0.0
 11
89.8935498925
 21
57.915324404
 31
0.0
  0
LINE
  5
153
330
1F
100
AcDbEntity
  8
0
  6
Continuous
 62
     7
370
    35
100
AcDbLine
 10
88.2935498925
 20
57.915324404
 30
0.0
 11
88.2935498925
 21
56.415324404
 31
0.0
  0
LINE
  5
154
330
1F
100
AcDbEntity
  8
0
  6
Continuous
 62
     7
370
    35
100
AcDbLine
 10
91.8435498925
 20
56.415324404
 30
0.0
 11
91.8435498925
 21
57.915324404
 31
0.0
  0
LINE
  5
155
330
1F
100
AcDbEntity
  8
0
  6
Continuous
 62
     7
370
    35
100
AcDbLine
 10
148.3435498925
 20
56.415324404
 30
0.0
 11
147.9323717066
 21
56.415324404
 31
0.0
  0
LINE
  5
156
330
1F
100
AcDbEntity
  8
0
  6
Continuous
 62
     7
370
    35
100
AcDbLine
 10
92.2547280783
 20
56.415324404
 30
0.0
 11
91.8435498925
 21
56.415324404
 31
0.0
  0
LINE
  5
157
330
1F
100
AcDbEntity
  8
0
  6
Continuous
 62
     7
370
    35
100
AcDbLine
 10
91.8435498925
 20
57.915324404
 30
0.0
 11
89.8935498925
 21
57.915324404
 31
0.0
  0
LINE
  5
158
330
1F
100
AcDbEntity
  8
0
  6
Continuous
 62
     7
370
    35
100
AcDbLine
 10
91.8435498925
 20
56.415324404
 30
0.0
 11
89.8935498925
 21
56.415324404
 31
0.0
  0
LINE
  5
159
330
1F
100
AcDbEntity
  8
0
  6
Continuous
 62
     7
370
    35
100
AcDbLine
 10
154.5935498925
 20
61.915324404
 30
0.0
 11
154.5935498925
 21
56.415324404
 31
0.0
  0
LINE
  5
15A
330
1F
100
AcDbEntity
  8
0
  6
Continuous
 62
     7
370
    35
100
AcDbLine
 10
153.3435498925
 20
57.915324404
 30
0.0
 11
151.8935498925
 21
57.915324404
 31
0.0
  0
LINE
  5
15B
330
1F
100
AcDbEntity
  8
0
  6
Continuous
 62
     7
370
    35
100
AcDbLine
 10
154.5935498925
 20
61.915324404
 30
0.0
 11
153.3435498925
 21
61.915324404
 31
0.0
  0
LINE
  5
15C
330
1F
100
AcDbEntity
  8
0
  6
Continuous
 62
     7
370
    35
100
AcDbLine
 10
154.5935498925
 20
56.415324404
 30
0.0
 11
151.8935498925
 21
56.415324404
 31
0.0
  0
LINE
  5
15D
330
1F
100
AcDbEntity
  8
0
  6
Continuous
 62
     7
370
    35
100
AcDbLine
 10
85.5935498925
 20
56.415324404
 30
0.0
 11
85.5935498925
 21
61.915324404
 31
0.0
  0
LINE
  5
15E
330
1F
100
AcDbEntity
  8
0
  6
Continuous
 62
     7
370
    35
100
AcDbLine
 10
88.2935498925
 20
57.915324404
 30
0.0
 11
86.8435498925
 21
57.915324404
 31
0.0
  0
LINE
  5
15F
330
1F
100
AcDbEntity
  8
0
  6
Continuous
 62
     7
370
    35
100
AcDbLine
 10
86.8435498925
 20
61.915324404
 30
0.0
 11
85.5935498925
 21
61.915324404
 31
0.0
  0
LINE
  5
160
330
1F
100
AcDbEntity
  8
0
  6
Continuous
 62
     7
370
    35
100
AcDbLine
 10
88.2935498925
 20
56.415324404
 30
0.0
 11
85.5935498925
 21
56.415324404
 31
0.0
  0
LINE
  5
161
330
1F
100
AcDbEntity
  8
0
  6
Continuous
 62
     7
370
    35
100
AcDbLine
 10
130.5935498925
 20
32.2619307428
 30
0.0
 11
130.5935498925
 21
33.2619307428
 31
0.0
  0
LINE
  5
162
330
1F
100
AcDbEntity
  8
0
  6
Continuous
 62
     7
370
    35
100
AcDbLine
 10
109.5935498925
 20
33.2619307428
 30
0.0
 11
109.5935498925
 21
32.2619307428
 31
0.0
  0
LINE
  5
163
330
1F
100
AcDbEntity
  8
0
  6
Continuous
 62
     7
370
    35
100
AcDbLine
 10
130.2435498925
 20
33.2619307428
 30
0.0
 11
130.2435498925
 21
35.2619307428
 31
0.0
  0
LINE
  5
164
330
1F
100
AcDbEntity
  8
0
  6
Continuous
 62
     7
370
    35
100
AcDbLine
 10
109.9435498925
 20
35.2619307428
 30
0.0
 11
109.9435498925
 21
33.2619307428
 31
0.0
  0
ARC
  5
165
330
1F
100
AcDbEntity
  8
0
  6
Continuous
 62
     7
370
    35
100
AcDbCircle
 10
130.0935498925
 20
30.7619307428
 30
0.0
 40
1.500000000000007
100
AcDbArc
 50
90.0
 51
270.0
  0
ARC
  5
166
330
1F
100
AcDbEntity
  8
0
  6
Continuous
 62
     7
370
    35
100
AcDbCircle
 10
110.0935498925
 20
30.7619307428
 30
0.0
 40
1.500000000000007
100
AcDbArc
 50
270.0
 51
90.0
  0
LINE
  5
167
330
1F
100
AcDbEntity
  8
0
  6
Continuous
 62
     7
370
    35
100
AcDbLine
 10
130.0935498925
 20
29.2619307428
 30
0.0
 11
130.0935498925
 21
28.7619307428
 31
0.0
  0
LINE
  5
168
330
1F
100
AcDbEntity
  8
0
  6
Continuous
 62
     7
370
    35
100
AcDbLine
 10
110.0935498925
 20
28.7619307428
 30
0.0
 11
110.0935498925
 21
29.2619307428
 31
0.0
  0
LINE
  5
169
330
1F
100
AcDbEntity
  8
0
  6
Continuous
 62
     7
370
    35
100
AcDbLine
 10
127.9935498925
 20
35.2619307428
 30
0.0
 11
127.1578356067
 21
28.7619307428
 31
0.0
  0
LINE
  5
16A
330
1F
100
AcDbEntity
  8
0
  6
Continuous
 62
     7
370
    35
100
AcDbLine
 10
113.0292641782
 20
28.7619307428
 30
0.0
 11
112.1935498925
 21
35.2619307428
 31
0.0
  0
LINE
  5
16B
330
1F
100
AcDbEntity
  8
0
  6
Continuous
 62
     7
370
    35
100
AcDbLine
 10
127.1578356067
 20
28.7619307428
 30
0.0
 11
113.0292641782
 21
28.7619307428
 31
0.0
  0
LINE
  5
16C
330
1F
100
AcDbEntity
  8
0
  6
Continuous
 62
     7
370
    35
100
AcDbLine
 10
112.1935498925
 20
35.2619307428
 30
0.0
 11
127.9935498925
 21
35.2619307428
 31
0.0
  0
LINE
  5
16D
330
1F
100
AcDbEntity
  8
0
  6
Continuous
 62
     7
370
    35
100
AcDbLine
 10
110.0935498925
 20
28.7619307428
 30
0.0
 11
113.0292641782
 21
28.7619307428
 31
0.0
  0
LINE
  5
16E
330
1F
100
AcDbEntity
  8
0
  6
Continuous
 62
     7
370
    35
100
AcDbLine
 10
109.9435498925
 20
35.2619307428
 30
0.0
 11
112.1935498925
 21
35.2619307428
 31
0.0
  0
LINE
  5
16F
330
1F
100
AcDbEntity
  8
0
  6
Continuous
 62
     7
370
    35
100
AcDbLine
 10
110.0935498925
 20
32.2619307428
 30
0.0
 11
109.5935498925
 21
32.2619307428
 31
0.0
  0
LINE
  5
170
330
1F
100
AcDbEntity
  8
0
  6
Continuous
 62
     7
370
    35
100
AcDbLine
 10
109.9435498925
 20
33.2619307428
 30
0.0
 11
109.5935498925
 21
33.2619307428
 31
0.0
  0
LINE
  5
171
330
1F
100
AcDbEntity
  8
0
  6
Continuous
 62
     7
370
    35
100
AcDbLine
 10
127.1578356067
 20
28.7619307428
 30
0.0
 11
130.0935498925
 21
28.7619307428
 31
0.0
  0
LINE
  5
172
330
1F
100
AcDbEntity
  8
0
  6
Continuous
 62
     7
370
    35
100
AcDbLine
 10
127.9935498925
 20
35.2619307428
 30
0.0
 11
130.2435498925
 21
35.2619307428
 31
0.0
  0
LINE
  5
173
330
1F
100
AcDbEntity
  8
0
  6
Continuous
 62
     7
370
    35
100
AcDbLine
 10
130.5935498925
 20
32.2619307428
 30
0.0
 11
130.0935498925
 21
32.2619307428
 31
0.0
  0
LINE
  5
174
330
1F
100
AcDbEntity
  8
0
  6
Continuous
 62
     7
370
    35
100
AcDbLine
 10
130.5935498925
 20
33.2619307428
 30
0.0
 11
130.2435498925
 21
33.2619307428
 31
0.0
  0
LINE
  5
175
330
1F
100
AcDbEntity
  8
0
  6
Continuous
 62
     7
370
    35
100
AcDbLine
 10
97.4235863221
 20
78.0808531136
 30
0.0
 11
97.9235863221
 21
77.2148277098
 31
0.0
  0
LINE
  5
176
330
1F
100
AcDbEntity
  8
0
  6
Continuous
 62
     7
370
    35
100
AcDbLine
 10
116.1101198016
 20
87.7148277098
 30
0.0
 11
115.6101198016
 21
88.5808531136
 31
0.0
  0
LINE
  5
177
330
1F
100
AcDbEntity
  8
0
  6
Continuous
 62
     7
370
    35
100
AcDbLine
 10
98.2266952134
 20
77.3898277098
 30
0.0
 11
99.2266952134
 21
75.6577769022
 31
0.0
  0
LINE
  5
178
330
1F
100
AcDbEntity
  8
0
  6
Continuous
 62
     7
370
    35
100
AcDbLine
 10
116.8070109102
 20
85.8077769022
 30
0.0
 11
115.8070109102
 21
87.5398277098
 31
0.0
  0
ARC
  5
179
330
1F
100
AcDbEntity
  8
0
  6
Continuous
 62
     7
370
    35
100
AcDbCircle
 10
97.106599024
 20
79.6298912193
 30
0.0
 40
1.500000000000005
100
AcDbArc
 50
300.0
 51
120.0
  0
ARC
  5
17A
330
1F
100
AcDbEntity
  8
0
  6
Continuous
 62
     7
370
    35
100
AcDbCircle
 10
114.4271070997
 20
89.6298912193
 30
0.0
 40
1.500000000000005
100
AcDbArc
 50
120.0
 51
300.0
  0
LINE
  5
17B
330
1F
100
AcDbEntity
  8
0
  6
Continuous
 62
     7
370
    35
100
AcDbLine
 10
96.356599024
 20
80.9289293249
 30
0.0
 11
96.106599024
 21
81.3619420268
 31
0.0
  0
LINE
  5
17C
330
1F
100
AcDbEntity
  8
0
  6
Continuous
 62
     7
370
    35
100
AcDbLine
 10
113.4271070997
 20
91.3619420268
 30
0.0
 11
113.6771070997
 21
90.9289293249
 31
0.0
  0
LINE
  5
17D
330
1F
100
AcDbEntity
  8
0
  6
Continuous
 62
     7
370
    35
100
AcDbLine
 10
101.1752523719
 20
76.7827769022
 30
0.0
 11
98.6490021737
 21
82.8297991697
 31
0.0
  0
LINE
  5
17E
330
1F
100
AcDbEntity
  8
0
  6
Continuous
 62
     7
370
    35
100
AcDbLine
 10
110.88470395
 20
89.894084884
 30
0.0
 11
114.8584537517
 21
84.6827769022
 31
0.0
  0
LINE
  5
17F
330
1F
100
AcDbEntity
  8
0
  6
Continuous
 62
     7
370
    35
100
AcDbLine
 10
98.6490021737
 20
82.8297991697
 30
0.0
 11
110.88470395
 21
89.894084884
 31
0.0
  0
LINE
  5
180
330
1F
100
AcDbEntity
  8
0
  6
Continuous
 62
     7
370
    35
100
AcDbLine
 10
114.8584537517
 20
84.6827769022
 30
0.0
 11
101.1752523719
 21
76.7827769022
 31
0.0
  0
LINE
  5
181
330
1F
100
AcDbEntity
  8
0
  6
Continuous
 62
     7
370
    35
100
AcDbLine
 10
113.4271070997
 20
91.3619420268
 30
0.0
 11
110.88470395
 21
89.894084884
 31
0.0
  0
LINE
  5
182
330
1F
100
AcDbEntity
  8
0
  6
Continuous
 62
     7
370
    35
100
AcDbLine
 10
116.8070109102
 20
85.8077769022
 30
0.0
 11
114.8584537517
 21
84.6827769022
 31
0.0
  0
LINE
  5
183
330
1F
100
AcDbEntity
  8
0
  6
Continuous
 62
     7
370
    35
100
AcDbLine
 10
115.8070109102
 20
87.5398277098
 30
0.0
 11
116.1101198016
 21
87.7148277098
 31
0.0
  0
LINE
  5
184
330
1F
100
AcDbEntity
  8
0
  6
Continuous
 62
     7
370
    35
100
AcDbLine
 10
115.1771070997
 20
88.3308531136
 30
0.0
 11
115.6101198016
 21
88.5808531136
 31
0.0
  0
LINE
  5
185
330
1F
100
AcDbEntity
  8
0
  6
Continuous
 62
     7
370
    35
100
AcDbLine
 10
98.6490021737
 20
82.8297991697
 30
0.0
 11
96.106599024
 21
81.3619420268
 31
0.0
  0
LINE
  5
186
330
1F
100
AcDbEntity
  8
0
  6
Continuous
 62
     7
370
    35
100
AcDbLine
 10
101.1752523719
 20
76.7827769022
 30
0.0
 11
99.2266952134
 21
75.6577769022
 31
0.0
  0
LINE
  5
187
330
1F
100
AcDbEntity
  8
0
  6
Continuous
 62
     7
370
    35
100
AcDbLine
 10
97.9235863221
 20
77.2148277098
 30
0.0
 11
98.2266952134
 21
77.3898277098
 31
0.0
  0
LINE
  5
188
330
1F
100
AcDbEntity
  8
0
  6
Continuous
 62
     7
370
    35
100
AcDbLine
 10
97.4235863221
 20
78.0808531136
 30
0.0
 11
97.856599024
 21
78.3308531136
 31
0.0
  0
LINE
  5
189
330
1F
100
AcDbEntity
  8
0
  6
Continuous
 62
     7
370
    35
100
AcDbLine
 10
124.5769799833
 20
88.5808531136
 30
0.0
 11
124.0769799833
 21
87.7148277098
 31
0.0
  0
LINE
  5
18A
330
1F
100
AcDbEntity
  8
0
  6
Continuous
 62
     7
370
    35
100
AcDbLine
 10
142.2635134628
 20
77.2148277098
 30
0.0
 11
142.7635134628
 21
78.0808531136
 31
0.0
  0
LINE
  5
18B
330
1F
100
AcDbEntity
  8
0
  6
Continuous
 62
     7
370
    35
100
AcDbLine
 10
124.3800888747
 20
87.5398277098
 30
0.0
 11
123.3800888747
 21
85.8077769022
 31
0.0
  0
LINE
  5
18C
330
1F
100
AcDbEntity
  8
0
  6
Continuous
 62
     7
370
    35
100
AcDbLine
 10
140.9604045715
 20
75.6577769022
 30
0.0
 11
141.9604045715
 21
77.3898277098
 31
0.0
  0
LINE
  5
18D
330
1F
100
AcDbEntity
  8
0
  6
Continuous
 62
     7
370
    35
100
AcDbLine
 10
126.5099926852
 20
90.9289293249
 30
0.0
 11
126.7599926852
 21
91.3619420268
 31
0.0
  0
LINE
  5
18E
330
1F
100
AcDbEntity
  8
0
  6
Continuous
 62
     7
370
    35
100
AcDbLine
 10
144.0805007609
 20
81.3619420268
 30
0.0
 11
143.8305007609
 21
80.9289293249
 31
0.0
  0
ARC
  5
18F
330
1F
100
AcDbEntity
  8
0
  6
Continuous
 62
     7
370
    35
100
AcDbCircle
 10
125.7599926852
 20
89.6298912193
 30
0.0
 40
1.500000000000012
100
AcDbArc
 50
240.0
 51
60.0
  0
ARC
  5
190
330
1F
100
AcDbEntity
  8
0
  6
Continuous
 62
     7
370
    35
100
AcDbCircle
 10
143.0805007609
 20
79.6298912193
 30
0.0
 40
1.500000000000014
100
AcDbArc
 50
60.0
 51
240.0
  0
LINE
  5
191
330
1F
100
AcDbEntity
  8
0
  6
Continuous
 62
     7
370
    35
100
AcDbLine
 10
125.3286460332
 20
84.6827769022
 30
0.0
 11
129.3023958349
 21
89.894084884
 31
0.0
  0
LINE
  5
192
330
1F
100
AcDbEntity
  8
0
  6
Continuous
 62
     7
370
    35
100
AcDbLine
 10
141.5380976112
 20
82.8297991697
 30
0.0
 11
139.011847413
 21
76.7827769022
 31
0.0
  0
LINE
  5
193
330
1F
100
AcDbEntity
  8
0
  6
Continuous
 62
     7
370
    35
100
AcDbLine
 10
129.3023958349
 20
89.894084884
 30
0.0
 11
141.5380976112
 21
82.8297991697
 31
0.0
  0
LINE
  5
194
330
1F
100
AcDbEntity
  8
0
  6
Continuous
 62
     7
370
    35
100
AcDbLine
 10
139.011847413
 20
76.7827769022
 30
0.0
 11
125.3286460332
 21
84.6827769022
 31
0.0
  0
LINE
  5
195
330
1F
100
AcDbEntity
  8
0
  6
Continuous
 62
     7
370
    35
100
AcDbLine
 10
129.3023958349
 20
89.894084884
 30
0.0
 11
126.7599926852
 21
91.3619420268
 31
0.0
  0
LINE
  5
196
330
1F
100
AcDbEntity
  8
0
  6
Continuous
 62
     7
370
    35
100
AcDbLine
 10
125.3286460332
 20
84.6827769022
 30
0.0
 11
123.3800888747
 21
85.8077769022
 31
0.0
  0
LINE
  5
197
330
1F
100
AcDbEntity
  8
0
  6
Continuous
 62
     7
370
    35
100
AcDbLine
 10
124.0769799833
 20
87.7148277098
 30
0.0
 11
124.3800888747
 21
87.5398277098
 31
0.0
  0
LINE
  5
198
330
1F
100
AcDbEntity
  8
0
  6
Continuous
 62
     7
370
    35
100
AcDbLine
 10
124.5769799833
 20
88.5808531136
 30
0.0
 11
125.0099926852
 21
88.3308531136
 31
0.0
  0
LINE
  5
199
330
1F
100
AcDbEntity
  8
0
  6
Continuous
 62
     7
370
    35
100
AcDbLine
 10
144.0805007609
 20
81.3619420268
 30
0.0
 11
141.5380976112
 21
82.8297991697
 31
0.0
  0
LINE
  5
19A
330
1F
100
AcDbEntity
  8
0
  6
Continuous
 62
     7
370
    35
100
AcDbLine
 10
140.9604045715
 20
75.6577769022
 30
0.0
 11
139.011847413
 21
76.7827769022
 31
0.0
  0
LINE
  5
19B
330
1F
100
AcDbEntity
  8
0
  6
Continuous
 62
     7
370
    35
100
AcDbLine
 10
141.9604045715
 20
77.3898277098
 30
0.0
 11
142.2635134628
 21
77.2148277098
 31
0.0
  0
LINE
  5
19C
330
1F
100
AcDbEntity
  8
0
  6
Continuous
 62
     7
370
    35
100
AcDbLine
 10
142.3305007609
 20
78.3308531136
 30
0.0
 11
142.7635134628
 21
78.0808531136
 31
0.0
  0
LINE
  5
19D
330
1F
100
AcDbEntity
  8
0
  6
Continuous
 62
     7
370
    35
100
AcDbLine
 10
153.0935498925
 20
57.915324404
 30
0.0
 11
153.0935498925
 21
59.415324404
 31
0.0
  0
LINE
  5
19E
330
1F
100
AcDbEntity
  8
0
  6
Continuous
 62
     7
370
    35
100
AcDbLine
 10
87.0935498925
 20
59.415324404
 30
0.0
 11
87.0935498925
 21
57.915324404
 31
0.0
  0
ARC
  5
19F
330
1F
100
AcDbEntity
  8
0
  6
Continuous
 62
     7
370
    35
100
AcDbCircle
 10
120.0935498925
 20
59.415324404
 30
0.0
 40
28.00000000000003
100
AcDbArc
 50
290.9248324276
 51
356.9291131889
  0
ARC
  5
1A0
330
1F
100
AcDbEntity
  8
0
  6
Continuous
 62
     7
370
    35
100
AcDbCircle
 10
120.0935498925
 20
59.415324404
 30
0.0
 40
28.00000000000005
100
AcDbArc
 50
183.0708868111
 51
249.0751675724
  0
ARC
  5
1A1
330
1F
100
AcDbEntity
  8
0
  6
Continuous
 62
     7
370
    35
100
AcDbCircle
 10
120.0935498925
 20
59.415324404
 30
0.0
 40
26.00000000000004
100
AcDbArc
 50
292.619864948
 51
0.0
  0
LINE
  5
1A2
330
1F
100
AcDbEntity
  8
0
  6
Continuous
 62
     7
370
    35
100
AcDbLine
 10
110.0935498925
 20
35.415324404
 30
0.0
 11
130.0935498925
 21
35.415324404
 31
0.0
  0
ARC
  5
1A3
330
1F
100
AcDbEntity
  8
0
  6
Continuous
 62
     7
370
    35
100
AcDbCircle
 10
120.0935498925
 20
59.415324404
 30
0.0
 40
26.00000000000003
100
AcDbArc
 50
180.0
 51
247.380135052
  0
LINE
  5
1A4
330
1F
100
AcDbEntity
  8
0
  6
Continuous
 62
     7
370
    35
100
AcDbLine
 10
105.0935498925
 20
59.415324404
 30
0.0
 11
94.0935498925
 21
59.415324404
 31
0.0
  0
LINE
  5
1A5
330
1F
100
AcDbEntity
  8
0
  6
Continuous
 62
     7
370
    35
100
AcDbLine
 10
130.0935498925
 20
35.415324404
 30
0.0
 11
130.0935498925
 21
33.2619307428
 31
0.0
  0
LINE
  5
1A6
330
1F
100
AcDbEntity
  8
0
  6
Continuous
 62
     7
370
    35
100
AcDbLine
 10
110.0935498925
 20
33.2619307428
 30
0.0
 11
110.0935498925
 21
35.415324404
 31
0.0
  0
LINE
  5
1A7
330
1F
100
AcDbEntity
  8
0
  6
Continuous
 62
     7
370
    35
100
AcDbLine
 10
149.8435498925
 20
59.415324404
 30
0.0
 11
149.8435498925
 21
57.915324404
 31
0.0
  0
LINE
  5
1A8
330
1F
100
AcDbEntity
  8
0
  6
Continuous
 62
     7
370
    35
100
AcDbLine
 10
149.8435498925
 20
57.915324404
 30
0.0
 11
148.0533424525
 21
57.915324404
 31
0.0
  0
LINE
  5
1A9
330
1F
100
AcDbEntity
  8
0
  6
Continuous
 62
     7
370
    35
100
AcDbLine
 10
149.8435498925
 20
59.415324404
 30
0.0
 11
146.0935498925
 21
59.415324404
 31
0.0
  0
LINE
  5
1AA
330
1F
100
AcDbEntity
  8
0
  6
Continuous
 62
     7
370
    35
100
AcDbLine
 10
90.3435498925
 20
57.915324404
 30
0.0
 11
90.3435498925
 21
59.415324404
 31
0.0
  0
LINE
  5
1AB
330
1F
100
AcDbEntity
  8
0
  6
Continuous
 62
     7
370
    35
100
AcDbLine
 10
92.1337573324
 20
57.915324404
 30
0.0
 11
90.3435498925
 21
57.915324404
 31
0.0
  0
LINE
  5
1AC
330
1F
100
AcDbEntity
  8
0
  6
Continuous
 62
     7
370
    35
100
AcDbLine
 10
94.0935498925
 20
59.415324404
 30
0.0
 11
90.3435498925
 21
59.415324404
 31
0.0
  0
LINE
  5
1AD
330
1F
100
AcDbEntity
  8
0
  6
Continuous
 62
     7
370
    35
100
AcDbLine
 10
152.3435498925
 20
57.915324404
 30
0.0
 11
152.3435498925
 21
59.415324404
 31
0.0
  0
LINE
  5
1AE
330
1F
100
AcDbEntity
  8
0
  6
Continuous
 62
     7
370
    35
100
AcDbLine
 10
152.3435498925
 20
59.415324404
 30
0.0
 11
152.0435498925
 21
59.415324404
 31
0.0
  0
LINE
  5
1AF
330
1F
100
AcDbEntity
  8
0
  6
Continuous
 62
     7
370
    35
100
AcDbLine
 10
150.1435498925
 20
59.415324404
 30
0.0
 11
149.8435498925
 21
59.415324404
 31
0.0
  0
LINE
  5
1B0
330
1F
100
AcDbEntity
  8
0
  6
Continuous
 62
     7
370
    35
100
AcDbLine
 10
87.8435498925
 20
59.415324404
 30
0.0
 11
87.8435498925
 21
57.915324404
 31
0.0
  0
LINE
  5
1B1
330
1F
100
AcDbEntity
  8
0
  6
Continuous
 62
     7
370
    35
100
AcDbLine
 10
90.3435498925
 20
59.415324404
 30
0.0
 11
90.0435498925
 21
59.415324404
 31
0.0
  0
LINE
  5
1B2
330
1F
100
AcDbEntity
  8
0
  6
Continuous
 62
     7
370
    35
100
AcDbLine
 10
88.1435498925
 20
59.415324404
 30
0.0
 11
87.8435498925
 21
59.415324404
 31
0.0
  0
LINE
  5
1B3
330
1F
100
AcDbEntity
  8
0
  6
Continuous
 62
     7
370
    35
100
AcDbLine
 10
87.8435498925
 20
57.915324404
 30
0.0
 11
87.0935498925
 21
57.915324404
 31
0.0
  0
LINE
  5
1B4
330
1F
100
AcDbEntity
  8
0
  6
Continuous
 62
     7
370
    35
100
AcDbLine
 10
87.8435498925
 20
59.415324404
 30
0.0
 11
87.0935498925
 21
59.415324404
 31
0.0
  0
LINE
  5
1B5
330
1F
100
AcDbEntity
  8
0
  6
Continuous
 62
     7
370
    35
100
AcDbLine
 10
153.0935498925
 20
57.915324404
 30
0.0
 11
152.3435498925
 21
57.915324404
 31
0.0
  0
LINE
  5
1B6
330
1F
100
AcDbEntity
  8
0
  6
Continuous
 62
     7
370
    35
100
AcDbLine
 10
153.0935498925
 20
59.415324404
 30
0.0
 11
152.3435498925
 21
59.415324404
 31
0.0
  0
LINE
  5
1B7
330
1F
100
AcDbEntity
  8
0
  6
Continuous
 62
     7
370
    35
100
AcDbLine
 10
152.3435498925
 20
59.415324404
 30
0.0
 11
152.3435498925
 21
59.815324404
 31
0.0
  0
LINE
  5
1B8
330
1F
100
AcDbEntity
  8
0
  6
Continuous
 62
     7
370
    35
100
AcDbLine
 10
149.8435498925
 20
59.815324404
 30
0.0
 11
149.8435498925
 21
59.415324404
 31
0.0
  0
LINE
  5
1B9
330
1F
100
AcDbEntity
  8
0
  6
Continuous
 62
     7
370
    35
100
AcDbLine
 10
152.3435498925
 20
59.815324404
 30
0.0
 11
152.0435498925
 21
59.815324404
 31
0.0
  0
LINE
  5
1BA
330
1F
100
AcDbEntity
  8
0
  6
Continuous
 62
     7
370
    35
100
AcDbLine
 10
150.1435498925
 20
59.815324404
 30
0.0
 11
149.8435498925
 21
59.815324404
 31
0.0
  0
LINE
  5
1BB
330
1F
100
AcDbEntity
  8
0
  6
Continuous
 62
     7
370
    35
100
AcDbLine
 10
87.0935498925
 20
59.415324404
 30
0.0
 11
87.0935498925
 21
59.815324404
 31
0.0
  0
LINE
  5
1BC
330
1F
100
AcDbEntity
  8
0
  6
Continuous
 62
     7
370
    35
100
AcDbLine
 10
153.0935498925
 20
59.815324404
 30
0.0
 11
153.0935498925
 21
59.415324404
 31
0.0
  0
LINE
  5
1BD
330
1F
100
AcDbEntity
  8
0
  6
Continuous
 62
     7
370
    35
100
AcDbLine
 10
105.0935498925
 20
59.815324404
 30
0.0
 11
105.0935498925
 21
59.415324404
 31
0.0
  0
LINE
  5
1BE
330
1F
100
AcDbEntity
  8
0
  6
Continuous
 62
     7
370
    35
100
AcDbLine
 10
149.8435498925
 20
59.815324404
 30
0.0
 11
105.0935498925
 21
59.815324404
 31
0.0
  0
LINE
  5
1BF
330
1F
100
AcDbEntity
  8
0
  6
Continuous
 62
     7
370
    35
100
AcDbLine
 10
149.8435498925
 20
59.415324404
 30
0.0
 11
105.0935498925
 21
59.415324404
 31
0.0
  0
LINE
  5
1C0
330
1F
100
AcDbEntity
  8
0
  6
Continuous
 62
     7
370
    35
100
AcDbLine
 10
94.0935498925
 20
59.415324404
 30
0.0
 11
94.0935498925
 21
59.815324404
 31
0.0
  0
LINE
  5
1C1
330
1F
100
AcDbEntity
  8
0
  6
Continuous
 62
     7
370
    35
100
AcDbLine
 10
105.0935498925
 20
59.815324404
 30
0.0
 11
94.0935498925
 21
59.815324404
 31
0.0
  0
LINE
  5
1C2
330
1F
100
AcDbEntity
  8
0
  6
Continuous
 62
     7
370
    35
100
AcDbLine
 10
90.3435498925
 20
59.415324404
 30
0.0
 11
90.3435498925
 21
59.815324404
 31
0.0
  0
LINE
  5
1C3
330
1F
100
AcDbEntity
  8
0
  6
Continuous
 62
     7
370
    35
100
AcDbLine
 10
94.0935498925
 20
59.815324404
 30
0.0
 11
90.3435498925
 21
59.815324404
 31
0.0
  0
LINE
  5
1C4
330
1F
100
AcDbEntity
  8
0
  6
Continuous
 62
     7
370
    35
100
AcDbLine
 10
87.8435498925
 20
59.815324404
 30
0.0
 11
87.8435498925
 21
59.415324404
 31
0.0
  0
LINE
  5
1C5
330
1F
100
AcDbEntity
  8
0
  6
Continuous
 62
     7
370
    35
100
AcDbLine
 10
90.3435498925
 20
59.815324404
 30
0.0
 11
90.0435498925
 21
59.815324404
 31
0.0
  0
LINE
  5
1C6
330
1F
100
AcDbEntity
  8
0
  6
Continuous
 62
     7
370
    35
100
AcDbLine
 10
88.1435498925
 20
59.815324404
 30
0.0
 11
87.8435498925
 21
59.815324404
 31
0.0
  0
LINE
  5
1C7
330
1F
100
AcDbEntity
  8
0
  6
Continuous
 62
     7
370
    35
100
AcDbLine
 10
153.0935498925
 20
59.815324404
 30
0.0
 11
152.3435498925
 21
59.815324404
 31
0.0
  0
LINE
  5
1C8
330
1F
100
AcDbEntity
  8
0
  6
Continuous
 62
     7
370
    35
100
AcDbLine
 10
87.8435498925
 20
59.815324404
 30
0.0
 11
87.0935498925
 21
59.815324404
 31
0.0
  0
LINE
  5
1C9
330
1F
100
AcDbEntity
  8
0
  6
Continuous
 62
     7
370
    35
100
AcDbLine
 10
152.5935498925
 20
60.815324404
 30
0.0
 11
152.5935498925
 21
61.315324404
 31
0.0
  0
LINE
  5
1CA
330
1F
100
AcDbEntity
  8
0
  6
Continuous
 62
     7
370
    35
100
AcDbLine
 10
149.5935498925
 20
61.315324404
 30
0.0
 11
149.5935498925
 21
60.815324404
 31
0.0
  0
LINE
  5
1CB
330
1F
100
AcDbEntity
  8
0
  6
Continuous
 62
     7
370
    35
100
AcDbLine
 10
152.5935498925
 20
61.315324404
 30
0.0
 11
152.2435498925
 21
61.315324404
 31
0.0
  0
LINE
  5
1CC
330
1F
100
AcDbEntity
  8
0
  6
Continuous
 62
     7
370
    35
100
AcDbLine
 10
149.9435498925
 20
61.315324404
 30
0.0
 11
149.5935498925
 21
61.315324404
 31
0.0
  0
LINE
  5
1CD
330
1F
100
AcDbEntity
  8
0
  6
Continuous
 62
     7
370
    35
100
AcDbLine
 10
152.3435498925
 20
59.815324404
 30
0.0
 11
152.3435498925
 21
60.815324404
 31
0.0
  0
LINE
  5
1CE
330
1F
100
AcDbEntity
  8
0
  6
Continuous
 62
     7
370
    35
100
AcDbLine
 10
149.8435498925
 20
60.815324404
 30
0.0
 11
149.8435498925
 21
59.815324404
 31
0.0
  0
LINE
  5
1CF
330
1F
100
AcDbEntity
  8
0
  6
Continuous
 62
     7
370
    35
100
AcDbLine
 10
149.8435498925
 20
60.815324404
 30
0.0
 11
150.1435498925
 21
60.815324404
 31
0.0
  0
LINE
  5
1D0
330
1F
100
AcDbEntity
  8
0
  6
Continuous
 62
     7
370
    35
100
AcDbLine
 10
152.0435498925
 20
60.815324404
 30
0.0
 11
152.3435498925
 21
60.815324404
 31
0.0
  0
ARC
  5
1D1
330
1F
100
AcDbEntity
  8
0
  6
Continuous
 62
     7
370
    35
100
AcDbCircle
 10
120.0935498925
 20
59.815324404
 30
0.0
 40
28.00000000000001
100
AcDbArc
 50
80.9248324276
 51
99.0751675724
  0
ARC
  5
1D2
330
1F
100
AcDbEntity
  8
0
  6
Continuous
 62
     7
370
    35
100
AcDbCircle
 10
120.0935498925
 20
59.815324404
 30
0.0
 40
28.0
100
AcDbArc
 50
140.9248324276
 51
176.9291131889
  0
ARC
  5
1D3
330
1F
100
AcDbEntity
  8
0
  6
Continuous
 62
     7
370
    35
100
AcDbCircle
 10
120.0935498925
 20
59.815324404
 30
0.0
 40
28.0
100
AcDbArc
 50
3.0708868111
 51
39.0751675724
  0
ARC
  5
1D4
330
1F
100
AcDbEntity
  8
0
  6
Continuous
 62
     7
370
    35
100
AcDbCircle
 10
120.0935498925
 20
59.815324404
 30
0.0
 40
26.00000000000001
100
AcDbArc
 50
0.0
 51
37.380135052
  0
LINE
  5
1D5
330
1F
100
AcDbEntity
  8
0
  6
Continuous
 62
     7
370
    35
100
AcDbLine
 10
140.7538039303
 20
75.5999340948
 30
0.0
 11
141.8305007609
 21
77.4648277098
 31
0.0
  0
LINE
  5
1D6
330
1F
100
AcDbEntity
  8
0
  6
Continuous
 62
     7
370
    35
100
AcDbLine
 10
146.0935498925
 20
59.815324404
 30
0.0
 11
149.8435498925
 21
59.815324404
 31
0.0
  0
LINE
  5
1D7
330
1F
100
AcDbEntity
  8
0
  6
Continuous
 62
     7
370
    35
100
AcDbLine
 10
148.0533424525
 20
61.315324404
 30
0.0
 11
149.5935498925
 21
61.315324404
 31
0.0
  0
LINE
  5
1D8
330
1F
100
AcDbEntity
  8
0
  6
Continuous
 62
     7
370
    35
100
AcDbLine
 10
149.8435498925
 20
60.815324404
 30
0.0
 11
149.5935498925
 21
60.815324404
 31
0.0
  0
LINE
  5
1D9
330
1F
100
AcDbEntity
  8
0
  6
Continuous
 62
     7
370
    35
100
AcDbLine
 10
87.0935498925
 20
61.315324404
 30
0.0
 11
87.0935498925
 21
59.815324404
 31
0.0
  0
LINE
  5
1DA
330
1F
100
AcDbEntity
  8
0
  6
Continuous
 62
     7
370
    35
100
AcDbLine
 10
87.5935498925
 20
61.315324404
 30
0.0
 11
87.5935498925
 21
60.815324404
 31
0.0
  0
LINE
  5
1DB
330
1F
100
AcDbEntity
  8
0
  6
Continuous
 62
     7
370
    35
100
AcDbLine
 10
87.8435498925
 20
60.815324404
 30
0.0
 11
87.8435498925
 21
59.815324404
 31
0.0
  0
LINE
  5
1DC
330
1F
100
AcDbEntity
  8
0
  6
Continuous
 62
     7
370
    35
100
AcDbLine
 10
87.8435498925
 20
60.815324404
 30
0.0
 11
87.5935498925
 21
60.815324404
 31
0.0
  0
LINE
  5
1DD
330
1F
100
AcDbEntity
  8
0
  6
Continuous
 62
     7
370
    35
100
AcDbLine
 10
87.0935498925
 20
61.315324404
 30
0.0
 11
87.5935498925
 21
61.315324404
 31
0.0
  0
LINE
  5
1DE
330
1F
100
AcDbEntity
  8
0
  6
Continuous
 62
     7
370
    35
100
AcDbLine
 10
90.5935498925
 20
60.815324404
 30
0.0
 11
90.5935498925
 21
61.315324404
 31
0.0
  0
LINE
  5
1DF
330
1F
100
AcDbEntity
  8
0
  6
Continuous
 62
     7
370
    35
100
AcDbLine
 10
90.5935498925
 20
61.315324404
 30
0.0
 11
90.2435498925
 21
61.315324404
 31
0.0
  0
LINE
  5
1E0
330
1F
100
AcDbEntity
  8
0
  6
Continuous
 62
     7
370
    35
100
AcDbLine
 10
87.9435498925
 20
61.315324404
 30
0.0
 11
87.5935498925
 21
61.315324404
 31
0.0
  0
LINE
  5
1E1
330
1F
100
AcDbEntity
  8
0
  6
Continuous
 62
     7
370
    35
100
AcDbLine
 10
153.0935498925
 20
59.815324404
 30
0.0
 11
153.0935498925
 21
61.315324404
 31
0.0
  0
LINE
  5
1E2
330
1F
100
AcDbEntity
  8
0
  6
Continuous
 62
     7
370
    35
100
AcDbLine
 10
124.5099926852
 20
87.4648277098
 30
0.0
 11
123.4332958546
 21
85.5999340948
 31
0.0
  0
LINE
  5
1E3
330
1F
100
AcDbEntity
  8
0
  6
Continuous
 62
     7
370
    35
100
AcDbLine
 10
140.7538039303
 20
75.5999340948
 30
0.0
 11
123.4332958546
 21
85.5999340948
 31
0.0
  0
LINE
  5
1E4
330
1F
100
AcDbEntity
  8
0
  6
Continuous
 62
     7
370
    35
100
AcDbLine
 10
152.5935498925
 20
61.315324404
 30
0.0
 11
153.0935498925
 21
61.315324404
 31
0.0
  0
LINE
  5
1E5
330
1F
100
AcDbEntity
  8
0
  6
Continuous
 62
     7
370
    35
100
AcDbLine
 10
152.5935498925
 20
60.815324404
 30
0.0
 11
152.3435498925
 21
60.815324404
 31
0.0
  0
LINE
  5
1E6
330
1F
100
AcDbEntity
  8
0
  6
Continuous
 62
     7
370
    35
100
AcDbLine
 10
90.3435498925
 20
59.815324404
 30
0.0
 11
90.3435498925
 21
60.815324404
 31
0.0
  0
LINE
  5
1E7
330
1F
100
AcDbEntity
  8
0
  6
Continuous
 62
     7
370
    35
100
AcDbLine
 10
87.8435498925
 20
60.815324404
 30
0.0
 11
88.1435498925
 21
60.815324404
 31
0.0
  0
LINE
  5
1E8
330
1F
100
AcDbEntity
  8
0
  6
Continuous
 62
     7
370
    35
100
AcDbLine
 10
90.0435498925
 20
60.815324404
 30
0.0
 11
90.3435498925
 21
60.815324404
 31
0.0
  0
LINE
  5
1E9
330
1F
100
AcDbEntity
  8
0
  6
Continuous
 62
     7
370
    35
100
AcDbLine
 10
99.4332958546
 20
75.5999340948
 30
0.0
 11
116.7538039303
 21
85.5999340948
 31
0.0
  0
LINE
  5
1EA
330
1F
100
AcDbEntity
  8
0
  6
Continuous
 62
     7
370
    35
100
AcDbLine
 10
99.4332958546
 20
75.5999340948
 30
0.0
 11
98.356599024
 21
77.4648277098
 31
0.0
  0
LINE
  5
1EB
330
1F
100
AcDbEntity
  8
0
  6
Continuous
 62
     7
370
    35
100
AcDbLine
 10
115.6771070997
 20
87.4648277098
 30
0.0
 11
116.7538039303
 21
85.5999340948
 31
0.0
  0
ARC
  5
1EC
330
1F
100
AcDbEntity
  8
0
  6
Continuous
 62
     7
370
    35
100
AcDbCircle
 10
120.0935498925
 20
59.815324404
 30
0.0
 40
26.0
100
AcDbArc
 50
142.619864948
 51
180.0
  0
ARC
  5
1ED
330
1F
100
AcDbEntity
  8
0
  6
Continuous
 62
     7
370
    35
100
AcDbCircle
 10
120.0935498925
 20
59.815324404
 30
0.0
 40
26.00000000000001
100
AcDbArc
 50
82.619864948
 51
97.380135052
  0
LINE
  5
1EE
330
1F
100
AcDbEntity
  8
0
  6
Continuous
 62
     7
370
    35
100
AcDbLine
 10
90.5935498925
 20
60.815324404
 30
0.0
 11
90.3435498925
 21
60.815324404
 31
0.0
  0
LINE
  5
1EF
330
1F
100
AcDbEntity
  8
0
  6
Continuous
 62
     7
370
    35
100
AcDbLine
 10
90.5935498925
 20
61.315324404
 30
0.0
 11
92.1337573324
 21
61.315324404
 31
0.0
  0
HATCH
  5
1F0
330
1F
100
AcDbEntity
  8
DIM
  6
Continuous
370
    18
100
AcDbHatch
 10
0.0
 20
0.0
 30
0.0
210
0.0
220
0.0
230
1.0
  2
ANSI31
 70
     0
 71
     0
 91
        1
 92
        0
 93
        6
 72
     1
 10
152.343549892458
 20
59.8153244039963
 11
153.0935498924579
 21
59.8153244039963
 72
     1
 10
153.0935498924579
 20
59.8153244039963
 11
153.0935498924579
 21
61.3153244039963
 72
     1
 10
153.0935498924579
 20
61.3153244039963
 11
152.5935498924579
 21
61.3153244039963
 72
     1
 10
152.5935498924579
 20
61.3153244039963
 11
152.5935498924579
 21
60.8153244039963
 72
     1
 10
152.5935498924579
 20
60.8153244039963
 11
152.343549892458
 21
60.8153244039963
 72
     1
 10
152.343549892458
 20
60.8153244039963
 11
152.343549892458
 21
59.8153244039963
 97
        0
 75
     0
 76
     1
 52
0.0
 41
1.0
 77
     0
 78
     1
 53
45.0
 43
0.0
 44
0.0
 45
-2.245064030267288
 46
2.245064030267288
 79
     0
 98
        1
 10
0.0
 20
0.0
  0
HATCH
  5
1F1
330
1F
100
AcDbEntity
  8
DIM
  6
Continuous
370
    18
100
AcDbHatch
 10
0.0
 20
0.0
 30
0.0
210
0.0
220
0.0
230
1.0
  2
ANSI31
 70
     0
 71
     0
 91
        1
 92
        0
 93
        8
 72
     1
 10
146.093549892458
 20
59.8153244039963
 11
149.843549892458
 21
59.8153244039963
 72
     1
 10
149.843549892458
 20
59.8153244039963
 11
149.843549892458
 21
60.8153244039963
 72
     1
 10
149.843549892458
 20
60.8153244039963
 11
149.5935498924579
 21
60.8153244039963
 72
     1
 10
149.5935498924579
 20
60.8153244039963
 11
149.5935498924579
 21
61.3153244039963
 72
     1
 10
149.5935498924579
 20
61.3153244039963
 11
148.0533424524896
 21
61.3153244039963
 72
     2
 10
120.0935498924579
 20
59.8153244039963
 40
28.0
 50
3.070886811074865
 51
39.07516757236183
 73
     1
 72
     1
 10
141.8305007609243
 20
77.4648277098086
 11
140.7538039303023
 21
75.59993409482288
 72
     2
 10
120.0935498924579
 20
59.8153244039963
 40
26.0
 50
322.6198649480411
 51
360.0000000000008
 73
     0
 97
        0
 75
     0
 76
     1
 52
0.0
 41
1.0
 77
     0
 78
     1
 53
45.0
 43
0.0
 44
0.0
 45
-2.245064030267288
 46
2.245064030267288
 79
     0
 98
        1
 10
0.0
 20
0.0
  0
HATCH
  5
1F2
330
1F
100
AcDbEntity
  8
DIM
  6
Continuous
370
    18
100
AcDbHatch
 10
0.0
 20
0.0
 30
0.0
210
0.0
220
0.0
230
1.0
  2
ANSI31
 70
     0
 71
     0
 91
        1
 92
        0
 93
        8
 72
     1
 10
99.43329585461366
 20
75.59993409482294
 11
98.35659902399166
 21
77.46482770980869
 72
     2
 10
120.0935498924579
 20
59.8153244039963
 40
28.0
 50
140.9248324276379
 51
176.9291131889251
 73
     1
 72
     1
 10
92.13375733242631
 20
61.3153244039963
 11
90.59354989245794
 21
61.3153244039963
 72
     1
 10
90.59354989245794
 20
61.3153244039963
 11
90.59354989245794
 21
60.8153244039963
 72
     1
 10
90.59354989245794
 20
60.8153244039963
 11
90.34354989245794
 21
60.8153244039963
 72
     1
 10
90.34354989245794
 20
60.8153244039963
 11
90.34354989245794
 21
59.8153244039963
 72
     1
 10
90.34354989245794
 20
59.8153244039963
 11
94.09354989245796
 21
59.8153244039963
 72
     2
 10
120.0935498924579
 20
59.8153244039963
 40
26.0
 50
180.0
 51
217.3801350519607
 73
     0
 97
        0
 75
     0
 76
     1
 52
0.0
 41
1.0
 77
     0
 78
     1
 53
45.0
 43
0.0
 44
0.0
 45
-2.245064030267288
 46
2.245064030267288
 79
     0
 98
        1
 10
0.0
 20
0.0
  0
HATCH
  5
1F3
330
1F
100
AcDbEntity
  8
DIM
  6
Continuous
370
    18
100
AcDbHatch
 10
0.0
 20
0.0
 30
0.0
210
0.0
220
0.0
230
1.0
  2
ANSI31
 70
     0
 71
     0
 91
        1
 92
        0
 93
        6
 72
     1
 10
87.09354989245794
 20
59.8153244039963
 11
87.84354989245794
 21
59.8153244039963
 72
     1
 10
87.84354989245794
 20
59.8153244039963
 11
87.84354989245794
 21
60.8153244039963
 72
     1
 10
87.84354989245794
 20
60.8153244039963
 11
87.59354989245794
 21
60.8153244039963
 72
     1
 10
87.59354989245794
 20
60.8153244039963
 11
87.59354989245794
 21
61.3153244039963
 72
     1
 10
87.59354989245794
 20
61.3153244039963
 11
87.09354989245794
 21
61.3153244039963
 72
     1
 10
87.09354989245794
 20
61.3153244039963
 11
87.09354989245794
 21
59.8153244039963
 97
        0
 75
     0
 76
     1
 52
0.0
 41
1.0
 77
     0
 78
     1
 53
45.0
 43
0.0
 44
0.0
 45
-2.245064030267288
 46
2.245064030267288
 79
     0
 98
        1
 10
0.0
 20
0.0
  0
HATCH
  5
1F4
330
1F
100
AcDbEntity
  8
DIM
  6
Continuous
370
    18
100
AcDbHatch
 10
0.0
 20
0.0
 30
0.0
210
0.0
220
0.0
230
1.0
  2
ANSI31
 70
     0
 71
     0
 91
        1
 92
        0
 93
        4
 72
     2
 10
120.0935498924579
 20
59.8153244039963
 40
28.0
 50
80.9248324276385
 51
99.07516757236132
 73
     1
 72
     1
 10
115.6771070996805
 20
87.46482770980859
 11
116.7538039303025
 21
85.59993409482286
 72
     2
 10
120.0935498924579
 20
59.8153244039963
 40
26.0
 50
262.6198649480416
 51
277.3801350519602
 73
     0
 72
     1
 10
123.4332958546135
 20
85.59993409482283
 11
124.5099926852355
 21
87.46482770980857
 97
        0
 75
     0
 76
     1
 52
0.0
 41
1.0
 77
     0
 78
     1
 53
45.0
 43
0.0
 44
0.0
 45
-2.245064030267288
 46
2.245064030267288
 79
     0
 98
        1
 10
0.0
 20
0.0
  0
HATCH
  5
1F5
330
1F
100
AcDbEntity
  8
DIM
  6
Continuous
370
    18
100
AcDbHatch
 10
0.0
 20
0.0
 30
0.0
210
0.0
220
0.0
230
1.0
  2
ANSI31
 70
     0
 71
     0
 91
        1
 92
        0
 93
        4
 72
     1
 10
153.093549892458
 20
59.8153244039963
 11
152.343549892458
 21
59.8153244039963
 72
     1
 10
152.343549892458
 20
59.8153244039963
 11
152.343549892458
 21
59.4153244039963
 72
     1
 10
152.343549892458
 20
59.4153244039963
 11
153.093549892458
 21
59.4153244039963
 72
     1
 10
153.093549892458
 20
59.4153244039963
 11
153.093549892458
 21
59.8153244039963
 97
        0
 75
     0
 76
     1
 52
0.0
 41
1.0
 77
     0
 78
     1
 53
45.0
 43
0.0
 44
0.0
 45
-2.245064030267288
 46
2.245064030267288
 79
     0
 98
        1
 10
0.0
 20
0.0
  0
HATCH
  5
1F6
330
1F
100
AcDbEntity
  8
DIM
  6
Continuous
370
    18
100
AcDbHatch
 10
0.0
 20
0.0
 30
0.0
210
0.0
220
0.0
230
1.0
  2
ANSI31
 70
     0
 71
     0
 91
        1
 92
        0
 93
        4
 72
     1
 10
105.093549892458
 20
59.8153244039963
 11
105.093549892458
 21
59.4153244039963
 72
     1
 10
105.093549892458
 20
59.4153244039963
 11
149.843549892458
 21
59.4153244039963
 72
     1
 10
149.843549892458
 20
59.4153244039963
 11
149.843549892458
 21
59.8153244039963
 72
     1
 10
149.843549892458
 20
59.8153244039963
 11
105.093549892458
 21
59.8153244039963
 97
        0
 75
     0
 76
     1
 52
0.0
 41
1.0
 77
     0
 78
     1
 53
45.0
 43
0.0
 44
0.0
 45
-2.245064030267288
 46
2.245064030267288
 79
     0
 98
        1
 10
0.0
 20
0.0
  0
HATCH
  5
1F7
330
1F
100
AcDbEntity
  8
DIM
  6
Continuous
370
    18
100
AcDbHatch
 10
0.0
 20
0.0
 30
0.0
210
0.0
220
0.0
230
1.0
  2
ANSI31
 70
     0
 71
     0
 91
        1
 92
        0
 93
        4
 72
     1
 10
94.09354989245801
 20
59.4153244039963
 11
94.09354989245801
 21
59.8153244039963
 72
     1
 10
94.09354989245801
 20
59.8153244039963
 11
90.34354989245801
 21
59.8153244039963
 72
     1
 10
90.34354989245801
 20
59.8153244039963
 11
90.34354989245801
 21
59.4153244039963
 72
     1
 10
90.34354989245801
 20
59.4153244039963
 11
94.09354989245801
 21
59.4153244039963
 97
        0
 75
     0
 76
     1
 52
0.0
 41
1.0
 77
     0
 78
     1
 53
45.0
 43
0.0
 44
0.0
 45
-2.245064030267288
 46
2.245064030267288
 79
     0
 98
        1
 10
0.0
 20
0.0
  0
HATCH
  5
1F8
330
1F
100
AcDbEntity
  8
DIM
  6
Continuous
370
    18
100
AcDbHatch
 10
0.0
 20
0.0
 30
0.0
210
0.0
220
0.0
230
1.0
  2
ANSI31
 70
     0
 71
     0
 91
        1
 92
        0
 93
        4
 72
     1
 10
87.09354989245801
 20
59.4153244039963
 11
87.84354989245801
 21
59.4153244039963
 72
     1
 10
87.84354989245801
 20
59.4153244039963
 11
87.84354989245801
 21
59.8153244039963
 72
     1
 10
87.84354989245801
 20
59.8153244039963
 11
87.09354989245801
 21
59.8153244039963
 72
     1
 10
87.09354989245801
 20
59.8153244039963
 11
87.09354989245801
 21
59.4153244039963
 97
        0
 75
     0
 76
     1
 52
0.0
 41
1.0
 77
     0
 78
     1
 53
45.0
 43
0.0
 44
0.0
 45
-2.245064030267288
 46
2.245064030267288
 79
     0
 98
        1
 10
0.0
 20
0.0
  0
HATCH
  5
1F9
330
1F
100
AcDbEntity
  8
DIM
  6
Continuous
370
    18
100
AcDbHatch
 10
0.0
 20
0.0
 30
0.0
210
0.0
220
0.0
230
1.0
  2
ANSI31
 70
     0
 71
     0
 91
        1
 92
        0
 93
        6
 72
     1
 10
149.843549892458
 20
59.4153244039963
 11
146.093549892458
 21
59.4153244039963
 72
     2
 10
120.0935498924579
 20
59.4153244039963
 40
26.0
 50
0.0
 51
67.38013505195956
 73
     0
 72
     1
 10
130.093549892458
 20
35.41532440399629
 11
130.093549892458
 21
33.26193074275226
 72
     2
 10
120.0935498924579
 20
59.4153244039963
 40
28.0
 50
290.9248324276392
 51
356.929113188926
 73
     1
 72
     1
 10
148.0533424524896
 20
57.9153244039963
 11
149.843549892458
 21
57.9153244039963
 72
     1
 10
149.843549892458
 20
57.9153244039963
 11
149.843549892458
 21
59.4153244039963
 97
        0
 75
     0
 76
     1
 52
0.0
 41
1.0
 77
     0
 78
     1
 53
45.0
 43
0.0
 44
0.0
 45
-2.245064030267288
 46
2.245064030267288
 79
     0
 98
        1
 10
0.0
 20
0.0
  0
HATCH
  5
1FA
330
1F
100
AcDbEntity
  8
DIM
  6
Continuous
370
    18
100
AcDbHatch
 10
0.0
 20
0.0
 30
0.0
210
0.0
220
0.0
230
1.0
  2
ANSI31
 70
     0
 71
     0
 91
        1
 92
        0
 93
        6
 72
     1
 10
90.34354989245789
 20
57.9153244039963
 11
92.13375733242627
 21
57.9153244039963
 72
     2
 10
120.0935498924579
 20
59.4153244039963
 40
28.0
 50
183.0708868110757
 51
249.0751675723625
 73
     1
 72
     1
 10
110.093549892458
 20
33.26193074275226
 11
110.093549892458
 21
35.41532440399629
 72
     2
 10
120.0935498924579
 20
59.4153244039963
 40
26.0
 50
112.6198649480404
 51
180.0
 73
     0
 72
     1
 10
94.09354989245792
 20
59.4153244039963
 11
90.34354989245789
 21
59.4153244039963
 72
     1
 10
90.34354989245789
 20
59.4153244039963
 11
90.34354989245789
 21
57.9153244039963
 97
        0
 75
     0
 76
     1
 52
0.0
 41
1.0
 77
     0
 78
     1
 53
45.0
 43
0.0
 44
0.0
 45
-2.245064030267288
 46
2.245064030267288
 79
     0
 98
        1
 10
0.0
 20
0.0
  0
HATCH
  5
1FB
330
1F
100
AcDbEntity
  8
DIM
  6
Continuous
370
    18
100
AcDbHatch
 10
0.0
 20
0.0
 30
0.0
210
0.0
220
0.0
230
1.0
  2
ANSI31
 70
     0
 71
     0
 91
        1
 92
        0
 93
        4
 72
     1
 10
87.09354989245792
 20
59.4153244039963
 11
87.09354989245792
 21
57.9153244039963
 72
     1
 10
87.09354989245792
 20
57.9153244039963
 11
87.84354989245789
 21
57.9153244039963
 72
     1
 10
87.84354989245789
 20
57.9153244039963
 11
87.84354989245789
 21
59.4153244039963
 72
     1
 10
87.84354989245789
 20
59.4153244039963
 11
87.09354989245792
 21
59.4153244039963
 97
        0
 75
     0
 76
     1
 52
0.0
 41
1.0
 77
     0
 78
     1
 53
45.0
 43
0.0
 44
0.0
 45
-2.245064030267288
 46
2.245064030267288
 79
     0
 98
        1
 10
0.0
 20
0.0
  0
HATCH
  5
1FC
330
1F
100
AcDbEntity
  8
DIM
  6
Continuous
370
    18
100
AcDbHatch
 10
0.0
 20
0.0
 30
0.0
210
0.0
220
0.0
230
1.0
  2
ANSI31
 70
     0
 71
     0
 91
        1
 92
        0
 93
        4
 72
     1
 10
153.093549892458
 20
57.9153244039963
 11
153.093549892458
 21
59.4153244039963
 72
     1
 10
153.093549892458
 20
59.4153244039963
 11
152.343549892458
 21
59.4153244039963
 72
     1
 10
152.343549892458
 20
59.4153244039963
 11
152.343549892458
 21
57.9153244039963
 72
     1
 10
152.343549892458
 20
57.9153244039963
 11
153.093549892458
 21
57.9153244039963
 97
        0
 75
     0
 76
     1
 52
0.0
 41
1.0
 77
     0
 78
     1
 53
45.0
 43
0.0
 44
0.0
 45
-2.245064030267288
 46
2.245064030267288
 79
     0
 98
        1
 10
0.0
 20
0.0
  0
HATCH
  5
1FD
330
1F
100
AcDbEntity
  8
DIM
  6
Continuous
370
    18
100
AcDbHatch
 10
0.0
 20
0.0
 30
0.0
210
0.0
220
0.0
230
1.0
  2
ANSI31
 70
     0
 71
     0
 91
        1
 92
        0
 93
        9
 72
     1
 10
129.302395834917
 20
89.8940848839814
 11
126.7599926852355
 21
91.36194202683853
 72
     1
 10
126.7599926852355
 20
91.36194202683853
 11
126.5099926852355
 21
90.92892932494631
 72
     2
 10
125.7599926852355
 20
89.62989121926965
 40
1.500000000000002
 50
300.0000000000008
 51
480.0000000000006
 73
     0
 72
     1
 10
125.0099926852355
 20
88.33085311359298
 11
124.5769799833433
 21
88.58085311359298
 72
     1
 10
124.5769799833433
 20
88.58085311359298
 11
124.0769799833433
 21
87.71482770980856
 72
     1
 10
124.0769799833433
 20
87.71482770980856
 11
124.3800888746678
 21
87.53982770980856
 72
     1
 10
124.3800888746678
 20
87.53982770980856
 11
123.3800888746678
 21
85.80777690223968
 72
     1
 10
123.3800888746678
 20
85.80777690223968
 11
125.3286460331828
 21
84.68277690223967
 72
     1
 10
125.3286460331828
 20
84.68277690223967
 11
129.302395834917
 21
89.8940848839814
 97
        0
 75
     0
 76
     1
 52
0.0
 41
1.0
 77
     0
 78
     1
 53
45.0
 43
0.0
 44
0.0
 45
-2.245064030267288
 46
2.245064030267288
 79
     0
 98
        1
 10
0.0
 20
0.0
  0
HATCH
  5
1FE
330
1F
100
AcDbEntity
  8
DIM
  6
Continuous
370
    18
100
AcDbHatch
 10
0.0
 20
0.0
 30
0.0
210
0.0
220
0.0
230
1.0
  2
ANSI31
 70
     0
 71
     0
 91
        1
 92
        0
 93
        9
 72
     1
 10
144.0805007609243
 20
81.36194202683858
 11
141.5380976112428
 21
82.82979916969572
 72
     1
 10
141.5380976112428
 20
82.82979916969572
 11
139.011847412977
 21
76.7827769022397
 72
     1
 10
139.011847412977
 20
76.7827769022397
 11
140.960404571492
 21
75.65777690223972
 72
     1
 10
140.960404571492
 20
75.65777690223972
 11
141.960404571492
 21
77.3898277098086
 72
     1
 10
141.960404571492
 20
77.3898277098086
 11
142.2635134628165
 21
77.2148277098086
 72
     1
 10
142.2635134628165
 20
77.2148277098086
 11
142.7635134628165
 21
78.08085311359304
 72
     1
 10
142.7635134628165
 20
78.08085311359304
 11
142.3305007609243
 21
78.33085311359304
 72
     2
 10
143.0805007609243
 20
79.6298912192697
 40
1.500000000000002
 50
120.000000000001
 51
300.0000000000008
 73
     0
 72
     1
 10
143.8305007609243
 20
80.92892932494635
 11
144.0805007609243
 21
81.36194202683858
 97
        0
 75
     0
 76
     1
 52
0.0
 41
1.0
 77
     0
 78
     1
 53
45.0
 43
0.0
 44
0.0
 45
-2.245064030267288
 46
2.245064030267288
 79
     0
 98
        1
 10
0.0
 20
0.0
  0
HATCH
  5
1FF
330
1F
100
AcDbEntity
  8
DIM
  6
Continuous
370
    18
100
AcDbHatch
 10
0.0
 20
0.0
 30
0.0
210
0.0
220
0.0
230
1.0
  2
ANSI31
 70
     0
 71
     0
 91
        1
 92
        0
 93
        9
 72
     1
 10
98.64900217367314
 20
82.82979916969579
 11
96.10659902399168
 21
81.36194202683868
 72
     1
 10
96.10659902399168
 20
81.36194202683868
 11
96.35659902399166
 21
80.92892932494645
 72
     2
 10
97.10659902399166
 20
79.6298912192698
 40
1.500000000000002
 50
240.0000000000008
 51
420.0000000000015
 73
     0
 72
     1
 10
97.85659902399165
 20
78.33085311359312
 11
97.42358632209944
 21
78.08085311359312
 72
     1
 10
97.42358632209944
 20
78.08085311359312
 11
97.92358632209942
 21
77.21482770980869
 72
     1
 10
97.92358632209942
 20
77.21482770980869
 11
98.22669521342398
 21
77.3898277098087
 72
     1
 10
98.22669521342398
 20
77.3898277098087
 11
99.22669521342398
 21
75.6577769022398
 72
     1
 10
99.22669521342398
 20
75.6577769022398
 11
101.175252371939
 21
76.78277690223979
 72
     1
 10
101.175252371939
 20
76.78277690223979
 11
98.64900217367314
 21
82.82979916969579
 97
        0
 75
     0
 76
     1
 52
0.0
 41
1.0
 77
     0
 78
     1
 53
45.0
 43
0.0
 44
0.0
 45
-2.245064030267288
 46
2.245064030267288
 79
     0
 98
        1
 10
0.0
 20
0.0
  0
HATCH
  5
200
330
1F
100
AcDbEntity
  8
DIM
  6
Continuous
370
    18
100
AcDbHatch
 10
0.0
 20
0.0
 30
0.0
210
0.0
220
0.0
230
1.0
  2
ANSI31
 70
     0
 71
     0
 91
        1
 92
        0
 93
        9
 72
     1
 10
113.4271070996805
 20
91.36194202683858
 11
110.884703949999
 21
89.89408488398145
 72
     1
 10
110.884703949999
 20
89.89408488398145
 11
114.8584537517332
 21
84.68277690223971
 72
     1
 10
114.8584537517332
 20
84.68277690223971
 11
116.8070109102481
 21
85.8077769022397
 72
     1
 10
116.8070109102481
 20
85.8077769022397
 11
115.8070109102481
 21
87.53982770980859
 72
     1
 10
115.8070109102481
 20
87.53982770980859
 11
116.1101198015727
 21
87.71482770980859
 72
     1
 10
116.1101198015727
 20
87.71482770980859
 11
115.6101198015727
 21
88.58085311359302
 72
     1
 10
115.6101198015727
 20
88.58085311359302
 11
115.1771070996805
 21
88.33085311359302
 72
     2
 10
114.4271070996805
 20
89.6298912192697
 40
1.500000000000002
 50
60.00000000000028
 51
240.0000000000013
 73
     0
 72
     1
 10
113.6771070996805
 20
90.92892932494635
 11
113.4271070996805
 21
91.36194202683858
 97
        0
 75
     0
 76
     1
 52
0.0
 41
1.0
 77
     0
 78
     1
 53
45.0
 43
0.0
 44
0.0
 45
-2.245064030267288
 46
2.245064030267288
 79
     0
 98
        1
 10
0.0
 20
0.0
  0
HATCH
  5
201
330
1F
100
AcDbEntity
  8
DIM
  6
Continuous
370
    18
100
AcDbHatch
 10
0.0
 20
0.0
 30
0.0
210
0.0
220
0.0
230
1.0
  2
ANSI31
 70
     0
 71
     0
 91
        1
 92
        0
 93
        9
 72
     1
 10
127.1578356067437
 20
28.76193074275226
 11
130.093549892458
 21
28.76193074275226
 72
     1
 10
130.093549892458
 20
28.76193074275226
 11
130.093549892458
 21
29.26193074275226
 72
     2
 10
130.093549892458
 20
30.76193074275226
 40
1.500000000000002
 50
90.0
 51
270.0000000000008
 73
     0
 72
     1
 10
130.093549892458
 20
32.26193074275226
 11
130.593549892458
 21
32.26193074275226
 72
     1
 10
130.593549892458
 20
32.26193074275226
 11
130.593549892458
 21
33.26193074275226
 72
     1
 10
130.593549892458
 20
33.26193074275226
 11
130.243549892458
 21
33.26193074275226
 72
     1
 10
130.243549892458
 20
33.26193074275226
 11
130.243549892458
 21
35.26193074275226
 72
     1
 10
130.243549892458
 20
35.26193074275226
 11
127.993549892458
 21
35.26193074275226
 72
     1
 10
127.993549892458
 20
35.26193074275226
 11
127.1578356067437
 21
28.76193074275226
 97
        0
 75
     0
 76
     1
 52
0.0
 41
1.0
 77
     0
 78
     1
 53
45.0
 43
0.0
 44
0.0
 45
-2.245064030267288
 46
2.245064030267288
 79
     0
 98
        1
 10
0.0
 20
0.0
  0
HATCH
  5
202
330
1F
100
AcDbEntity
  8
DIM
  6
Continuous
370
    18
100
AcDbHatch
 10
0.0
 20
0.0
 30
0.0
210
0.0
220
0.0
230
1.0
  2
ANSI31
 70
     0
 71
     0
 91
        1
 92
        0
 93
        9
 72
     1
 10
110.093549892458
 20
28.76193074275226
 11
113.0292641781723
 21
28.76193074275226
 72
     1
 10
113.0292641781723
 20
28.76193074275226
 11
112.193549892458
 21
35.26193074275226
 72
     1
 10
112.193549892458
 20
35.26193074275226
 11
109.943549892458
 21
35.26193074275226
 72
     1
 10
109.943549892458
 20
35.26193074275226
 11
109.943549892458
 21
33.26193074275226
 72
     1
 10
109.943549892458
 20
33.26193074275226
 11
109.593549892458
 21
33.26193074275226
 72
     1
 10
109.593549892458
 20
33.26193074275226
 11
109.593549892458
 21
32.26193074275226
 72
     1
 10
109.593549892458
 20
32.26193074275226
 11
110.093549892458
 21
32.26193074275226
 72
     2
 10
110.093549892458
 20
30.76193074275226
 40
1.500000000000002
 50
270.0000000000008
 51
450.0000000000008
 73
     0
 72
     1
 10
110.093549892458
 20
29.26193074275226
 11
110.093549892458
 21
28.76193074275226
 97
        0
 75
     0
 76
     1
 52
0.0
 41
1.0
 77
     0
 78
     1
 53
45.0
 43
0.0
 44
0.0
 45
-2.245064030267288
 46
2.245064030267288
 79
     0
 98
        1
 10
0.0
 20
0.0
  0
HATCH
  5
203
330
1F
100
AcDbEntity
  8
DIM
  6
Continuous
370
    18
100
AcDbHatch
 10
0.0
 20
0.0
 30
0.0
210
0.0
220
0.0
230
1.0
  2
ANSI31
 70
     0
 71
     0
 91
        1
 92
        0
 93
        4
 72
     1
 10
91.84354989245796
 20
56.41532440399629
 11
91.84354989245796
 21
57.9153244039963
 72
     1
 10
91.84354989245796
 20
57.9153244039963
 11
89.89354989245795
 21
57.9153244039963
 72
     1
 10
89.89354989245795
 20
57.9153244039963
 11
89.89354989245795
 21
56.41532440399629
 72
     1
 10
89.89354989245795
 20
56.41532440399629
 11
91.84354989245796
 21
56.41532440399629
 97
        0
 75
     0
 76
     1
 52
0.0
 41
1.0
 77
     0
 78
     1
 53
45.0
 43
0.0
 44
0.0
 45
-2.245064030267288
 46
2.245064030267288
 79
     0
 98
        1
 10
0.0
 20
0.0
  0
HATCH
  5
204
330
1F
100
AcDbEntity
  8
DIM
  6
Continuous
370
    18
100
AcDbHatch
 10
0.0
 20
0.0
 30
0.0
210
0.0
220
0.0
230
1.0
  2
ANSI31
 70
     0
 71
     0
 91
        1
 92
        0
 93
        6
 72
     1
 10
85.59354989245796
 20
56.41532440399629
 11
88.29354989245796
 21
56.41532440399629
 72
     1
 10
88.29354989245796
 20
56.41532440399629
 11
88.29354989245796
 21
57.9153244039963
 72
     1
 10
88.29354989245796
 20
57.9153244039963
 11
86.84354989245794
 21
57.9153244039963
 72
     1
 10
86.84354989245794
 20
57.9153244039963
 11
86.84354989245794
 21
61.91532440399629
 72
     1
 10
86.84354989245794
 20
61.91532440399629
 11
85.59354989245796
 21
61.91532440399629
 72
     1
 10
85.59354989245796
 20
61.91532440399629
 11
85.59354989245796
 21
56.41532440399629
 97
        0
 75
     0
 76
     1
 52
0.0
 41
1.0
 77
     0
 78
     1
 53
45.0
 43
0.0
 44
0.0
 45
-2.245064030267288
 46
2.245064030267288
 79
     0
 98
        1
 10
0.0
 20
0.0
  0
HATCH
  5
205
330
1F
100
AcDbEntity
  8
DIM
  6
Continuous
370
    18
100
AcDbHatch
 10
0.0
 20
0.0
 30
0.0
210
0.0
220
0.0
230
1.0
  2
ANSI31
 70
     0
 71
     0
 91
        1
 92
        0
 93
        6
 72
     1
 10
154.5935498924579
 20
61.91532440399629
 11
153.343549892458
 21
61.91532440399629
 72
     1
 10
153.343549892458
 20
61.91532440399629
 11
153.343549892458
 21
57.9153244039963
 72
     1
 10
153.343549892458
 20
57.9153244039963
 11
151.893549892458
 21
57.9153244039963
 72
     1
 10
151.893549892458
 20
57.9153244039963
 11
151.893549892458
 21
56.41532440399629
 72
     1
 10
151.893549892458
 20
56.41532440399629
 11
154.5935498924579
 21
56.41532440399629
 72
     1
 10
154.5935498924579
 20
56.41532440399629
 11
154.5935498924579
 21
61.91532440399629
 97
        0
 75
     0
 76
     1
 52
0.0
 41
1.0
 77
     0
 78
     1
 53
45.0
 43
0.0
 44
0.0
 45
-2.245064030267288
 46
2.245064030267288
 79
     0
 98
        1
 10
0.0
 20
0.0
  0
HATCH
  5
206
330
1F
100
AcDbEntity
  8
DIM
  6
Continuous
370
    18
100
AcDbHatch
 10
0.0
 20
0.0
 30
0.0
210
0.0
220
0.0
230
1.0
  2
ANSI31
 70
     0
 71
     0
 91
        1
 92
        0
 93
        4
 72
     1
 10
148.343549892458
 20
57.9153244039963
 11
148.343549892458
 21
56.41532440399629
 72
     1
 10
148.343549892458
 20
56.41532440399629
 11
150.293549892458
 21
56.41532440399629
 72
     1
 10
150.293549892458
 20
56.41532440399629
 11
150.293549892458
 21
57.9153244039963
 72
     1
 10
150.293549892458
 20
57.9153244039963
 11
148.343549892458
 21
57.9153244039963
 97
        0
 75
     0
 76
     1
 52
0.0
 41
1.0
 77
     0
 78
     1
 53
45.0
 43
0.0
 44
0.0
 45
-2.245064030267288
 46
2.245064030267288
 79
     0
 98
        1
 10
0.0
 20
0.0
  0
HATCH
  5
207
330
1F
100
AcDbEntity
  8
DIM
  6
Continuous
370
    18
100
AcDbHatch
 10
0.0
 20
0.0
 30
0.0
210
0.0
220
0.0
230
1.0
  2
ANSI31
 70
     0
 71
     0
 91
        1
 92
        0
 93
       16
 72
     1
 10
150.8814178581019
 20
61.9153244039963
 11
149.943549892458
 21
61.9153244039963
 72
     2
 10
149.943549892458
 20
61.6153244039963
 40
0.3
 50
90.0
 51
180.0
 73
     1
 72
     2
 10
149.943549892458
 20
61.6153244039963
 40
0.3
 50
180.0
 51
270.0000000000008
 73
     1
 72
     1
 10
149.943549892458
 20
61.3153244039963
 11
150.143549892458
 21
61.3153244039963
 72
     1
 10
150.143549892458
 20
61.3153244039963
 11
150.143549892458
 21
56.5153244039963
 72
     1
 10
150.143549892458
 20
56.5153244039963
 11
150.343549892458
 21
56.31532440399629
 72
     1
 10
150.343549892458
 20
56.31532440399629
 11
151.843549892458
 21
56.31532440399629
 72
     1
 10
151.843549892458
 20
56.31532440399629
 11
152.0435498924579
 21
56.5153244039963
 72
     1
 10
152.0435498924579
 20
56.5153244039963
 11
152.0435498924579
 21
61.3153244039963
 72
     1
 10
152.0435498924579
 20
61.3153244039963
 11
152.2435498924579
 21
61.3153244039963
 72
     2
 10
152.2435498924579
 20
61.6153244039963
 40
0.3
 50
270.0000000000008
 51
360.0000000000008
 73
     1
 72
     2
 10
152.2435498924579
 20
61.6153244039963
 40
0.3
 50
0.0
 51
90.0
 73
     1
 72
     1
 10
152.2435498924579
 20
61.9153244039963
 11
151.3056819268139
 21
61.9153244039963
 72
     1
 10
151.3056819268139
 20
61.9153244039963
 11
151.3056819268135
 21
61.7153244039963
 72
     1
 10
151.3056819268135
 20
61.7153244039963
 11
150.881417858102
 21
61.7153244039963
 72
     1
 10
150.881417858102
 20
61.7153244039963
 11
150.8814178581019
 21
61.9153244039963
 97
        0
 75
     0
 76
     1
 52
0.0
 41
1.0
 77
     0
 78
     1
 53
45.0
 43
0.0
 44
0.0
 45
-2.245064030267288
 46
2.245064030267288
 79
     0
 98
        1
 10
0.0
 20
0.0
  0
HATCH
  5
208
330
1F
100
AcDbEntity
  8
DIM
  6
Continuous
370
    18
100
AcDbHatch
 10
0.0
 20
0.0
 30
0.0
210
0.0
220
0.0
230
1.0
  2
ANSI31
 70
     0
 71
     0
 91
        1
 92
        0
 93
       16
 72
     1
 10
88.88141785810262
 20
61.7153244039963
 11
88.881417858102
 21
61.9153244039963
 72
     1
 10
88.881417858102
 20
61.9153244039963
 11
87.94354989245795
 21
61.9153244039963
 72
     2
 10
87.94354989245795
 20
61.6153244039963
 40
0.3
 50
90.0
 51
180.0
 73
     1
 72
     2
 10
87.94354989245795
 20
61.6153244039963
 40
0.3
 50
180.0
 51
270.0000000000008
 73
     1
 72
     1
 10
87.94354989245795
 20
61.3153244039963
 11
88.14354989245795
 21
61.3153244039963
 72
     1
 10
88.14354989245795
 20
61.3153244039963
 11
88.14354989245795
 21
56.5153244039963
 72
     1
 10
88.14354989245795
 20
56.5153244039963
 11
88.34354989245796
 21
56.31532440399629
 72
     1
 10
88.34354989245796
 20
56.31532440399629
 11
89.84354989245796
 21
56.31532440399629
 72
     1
 10
89.84354989245796
 20
56.31532440399629
 11
90.04354989245796
 21
56.5153244039963
 72
     1
 10
90.04354989245796
 20
56.5153244039963
 11
90.04354989245796
 21
61.3153244039963
 72
     1
 10
90.04354989245796
 20
61.3153244039963
 11
90.24354989245795
 21
61.3153244039963
 72
     2
 10
90.24354989245795
 20
61.6153244039963
 40
0.3
 50
270.0000000000008
 51
360.0000000000008
 73
     1
 72
     2
 10
90.24354989245795
 20
61.6153244039963
 40
0.3
 50
0.0
 51
90.0
 73
     1
 72
     1
 10
90.24354989245795
 20
61.9153244039963
 11
89.3056819268139
 21
61.9153244039963
 72
     1
 10
89.3056819268139
 20
61.9153244039963
 11
89.30568192681454
 21
61.7153244039963
 72
     1
 10
89.30568192681454
 20
61.7153244039963
 11
88.88141785810262
 21
61.7153244039963
 97
        0
 75
     0
 76
     1
 52
0.0
 41
1.0
 77
     0
 78
     1
 53
45.0
 43
0.0
 44
0.0
 45
-2.245064030267288
 46
2.245064030267288
 79
     0
 98
        1
 10
0.0
 20
0.0
  0
DIMENSION
  5
209
330
1F
100
AcDbEntity
  8
DIM
100
AcDbDimension
  2
_D
 10
130.0935498925
 20
19.325253808
 30
0.0
 11
120.0935498925
 21
19.325253808
 31
0.0
 70
   160
  1
%%c<>
 71
     2
 42
-1.0
  3
SLDDIMSTYLE0
100
AcDbAlignedDimension
 13
110.0935498925
 23
28.7619307428
 33
0.0
 14
130.0935498925
 24
28.7619307428
 34
0.0
100
AcDbRotatedDimension
  0
DIMENSION
  5
215
330
1F
100
AcDbEntity
  8
DIM
100
AcDbDimension
  2
_D_1
 10
127.1578356067
 20
24.9414320678
 30
0.0
 11
120.0935498925
 21
24.9414320678
 31
0.0
 70
   160
  1
%%c<>
 71
     2
 42
-1.0
  3
SLDDIMSTYLE0
100
AcDbAlignedDimension
 13
113.0292641782
 23
28.7619307428
 33
0.0
 14
127.1578356067
 24
28.7619307428
 34
0.0
100
AcDbRotatedDimension
  0
DIMENSION
  5
220
330
1F
100
AcDbEntity
  8
DIM
100
AcDbDimension
  2
_D_2
 10
153.318037065
 20
97.3618242422
 30
0.0
 11
144.6577830271
 21
102.3618242422
 31
0.0
 70
   160
  1
%%c<>
 71
     2
 42
-1.0
  3
SLDDIMSTYLE0
100
AcDbAlignedDimension
 13
126.7599926852
 23
91.3619420268
 33
0.0
 14
144.0805007609
 24
81.3619420268
 34
0.0
 50
-30.0
100
AcDbRotatedDimension
  0
DIMENSION
  5
22C
330
1F
100
AcDbEntity
  8
DIM
100
AcDbDimension
  2
_D_3
 10
146.61798477
 20
91.6284218254
 30
0.0
 11
140.5001338818
 21
95.1605646825
 31
0.0
 70
   160
  1
%%c<>
 71
     2
 42
-1.0
  3
SLDDIMSTYLE0
100
AcDbAlignedDimension
 13
129.3023958349
 23
89.894084884
 33
0.0
 14
141.5380976112
 24
82.8297991697
 34
0.0
 50
-30.0
100
AcDbRotatedDimension
  0
DIMENSION
  5
238
330
1F
100
AcDbEntity
  8
DIM
100
AcDbDimension
  2
_D_4
 10
104.0651839704
 20
107.5772685433
 30
0.0
 11
95.4049299325
 21
102.5772685433
 31
0.0
 70
   160
  1
%%c<>
 71
     2
 42
-1.0
  3
SLDDIMSTYLE0
100
AcDbAlignedDimension
 13
96.106599024
 23
81.3619420268
 33
0.0
 14
113.4271070997
 24
91.3619420268
 34
0.0
 50
30.0
100
AcDbRotatedDimension
  0
DIMENSION
  5
244
330
1F
100
AcDbEntity
  8
DIM
100
AcDbDimension
  2
_D_5
 10
105.6316773098
 20
98.9925939182
 30
0.0
 11
99.5138264217
 21
95.4604510611
 31
0.0
 70
   160
  1
%%c<>
 71
     2
 42
-1.0
  3
SLDDIMSTYLE0
100
AcDbAlignedDimension
 13
98.6490021737
 23
82.8297991697
 33
0.0
 14
110.88470395
 24
89.894084884
 34
0.0
 50
30.0
100
AcDbRotatedDimension
  0
DIMENSION
  5
250
330
1F
100
AcDbEntity
  8
DIM
100
AcDbDimension
  2
_D_6
 10
103.7668530618
 20
88.0939928344
 30
0.0
 11
115.1475659178
 21
96.5447692136
 31
0.0
 70
   162
  1
<>
 71
     1
 42
-1.0
  3
SLDDIMSTYLE1
100
AcDb2LineAngularDimension
 13
120.0935498925
 23
91.917348573
 33
0.0
 14
120.0935498925
 24
26.7619307428
 34
0.0
 15
109.0168530618
 25
79.0007260947
 35
0.0
 16
110.5014672048
 26
95.6134643447
 36
0.0
  0
DIMENSION
  5
25B
330
1F
100
AcDbEntity
  8
DIM
100
AcDbDimension
  2
_D_7
 10
120.0935498925
 20
26.7619307428
 30
0.0
 11
125.5410056958
 21
96.473749067
 31
0.0
 70
   162
  1
<>
 71
     1
 42
-1.0
  3
SLDDIMSTYLE1
100
AcDb2LineAngularDimension
 13
131.1702467231
 23
79.0007260947
 33
0.0
 14
136.4202467231
 24
88.0939928344
 34
0.0
 15
120.0935498925
 25
91.917348573
 35
0.0
 16
129.6856325801
 26
95.6134643447
 36
0.0
  0
DIMENSION
  5
265
330
1F
100
AcDbEntity
  8
DIM
100
AcDbDimension
  2
_D_8
 10
154.5935498925
 20
14.6599351096
 30
0.0
 11
120.0935498925
 21
14.6599351096
 31
0.0
 70
   160
  1
%%c<>
 71
     2
 42
-1.0
  3
SLDDIMSTYLE0
100
AcDbAlignedDimension
 13
85.5935498925
 23
56.415324404
 33
0.0
 14
154.5935498925
 24
56.415324404
 34
0.0
100
AcDbRotatedDimension
  0
DIMENSION
  5
270
330
1F
100
AcDbEntity
  8
DIM
100
AcDbDimension
  2
_D_9
 10
94.9282451161
 20
66.3504170211
 30
0.0
 11
67.6037860992
 21
74.245700876
 31
0.0
 70
   163
  1
<>
 71
     1
 42
-1.0
  3
SLDDIMSTYLE2
100
AcDbDiametricDimension
 15
145.2588546688
 25
53.2802317869
 35
0.0
 40
0.0
  0
DIMENSION
  5
27C
330
1F
100
AcDbEntity
  8
DIM
100
AcDbDimension
  2
_D_10
 10
144.4516168416
 20
46.0064658523
 30
0.0
 11
68.4479760769
 21
88.5879839638
 31
0.0
 70
   163
  1
<>
 71
     1
 42
-1.0
  3
SLDDIMSTYLE3
100
AcDbDiametricDimension
 15
95.7354829433
 25
73.6241829557
 35
0.0
 40
0.0
  0
INSERT
  5
28F
330
1F
100
AcDbEntity
  8
DIM
100
AcDbBlockReference
  2
SW_NOTE_0_2
 10
158.9382022472
 20
73.2294944204
 30
0.0
  0
LEADER
  5
291
330
1F
100
AcDbEntity
  8
DIM
100
AcDbLeader
  3
SLDDIMSTYLE4
 76
     2
 10
133.0613646434
 20
59.415324404
 30
0.0
 10
158.9382022472
 20
73.2294944204
 30
0.0
  0
LINE
  5
292
330
1F
100
AcDbEntity
  8
DIM
  6
CENTERX2
370
    18
100
AcDbLine
 10
131.1702467231
 20
79.0007260947
 30
0.0
 11
136.4202467231
 21
88.0939928344
 31
0.0
  0
LINE
  5
293
330
1F
100
AcDbEntity
  8
DIM
  6
CENTERX2
370
    18
100
AcDbLine
 10
109.0168530618
 20
79.0007260947
 30
0.0
 11
103.7668530618
 21
88.0939928344
 31
0.0
  0
LINE
  5
294
330
1F
100
AcDbEntity
  8
DIM
  6
CENTERX2
370
    18
100
AcDbLine
 10
120.0935498925
 20
91.917348573
 30
0.0
 11
120.0935498925
 21
26.7619307428
 31
0.0
  0
LINE
  5
295
330
1F
100
AcDbEntity
  8
0
  6
Continuous
 62
     7
370
    35
100
AcDbLine
 10
264.4257141925
 20
137.0894384721
 30
0.0
 11
264.4257141925
 21
141.5804129375
 31
0.0
  0
LINE
  5
296
330
1F
100
AcDbEntity
  8
0
  6
Continuous
 62
     7
370
    35
100
AcDbLine
 10
195.4257141925
 20
141.5804129375
 30
0.0
 11
195.4257141925
 21
137.0894384721
 31
0.0
  0
LINE
  5
297
330
1F
100
AcDbEntity
  8
0
  6
Continuous
 62
     7
370
    35
100
AcDbLine
 10
248.7679785434
 20
149.2839841942
 30
0.0
 11
248.9447552387
 21
149.5355057234
 31
0.0
  0
LINE
  5
298
330
1F
100
AcDbEntity
  8
0
  6
Continuous
 62
     7
370
    35
100
AcDbLine
 10
232.5818956705
 20
161.0358025349
 30
0.0
 11
232.4051189752
 21
160.7842810057
 31
0.0
  0
LINE
  5
299
330
1F
100
AcDbEntity
  8
0
  6
Continuous
 62
     7
370
    35
100
AcDbLine
 10
247.7628364702
 20
146.9843045405
 30
0.0
 11
248.1163898608
 21
147.4873475988
 31
0.0
  0
LINE
  5
29A
330
1F
100
AcDbEntity
  8
0
  6
Continuous
 62
     7
370
    35
100
AcDbLine
 10
230.9353873142
 20
159.5626592509
 30
0.0
 11
230.5818339236
 21
159.0596161925
 31
0.0
  0
LINE
  5
29B
330
1F
100
AcDbEntity
  8
0
  6
Continuous
 62
     7
370
    35
100
AcDbLine
 10
228.5877591048
 20
170.9600401103
 30
0.0
 11
228.4109824095
 21
171.4156636674
 31
0.0
  0
LINE
  5
29C
330
1F
100
AcDbEntity
  8
0
  6
Continuous
 62
     7
370
    35
100
AcDbLine
 10
209.7652234513
 20
164.1813238308
 30
0.0
 11
209.9420001466
 21
163.7257002736
 31
0.0
  0
SPLINE
  5
29D
330
1F
100
AcDbEntity
  8
0
  6
Continuous
 62
     7
370
    35
100
AcDbSpline
210
0.0
220
0.0
230
1.0
 70
     8
 71
     3
 72
    12
 73
     8
 74
     0
 42
0.00000001
 43
0.00000001
 40
0.0
 40
0.0
 40
0.0
 40
0.0
 40
0.1990745951604413
 40
0.4065353443382934
 40
0.6396229293584322
 40
0.881111625603296
 40
0.9999999999999999
 40
0.9999999999999999
 40
0.9999999999999999
 40
0.9999999999999999
 10
228.1636048400066
 20
168.5457728535675
 30
0.0
 10
228.1534907105355
 20
168.5488186839813
 30
0.0
 10
228.1328363869442
 20
168.5550386525066
 30
0.0
 10
227.9473218530354
 20
168.6771036725831
 30
0.0
 10
227.7332195045419
 20
168.9565013972597
 30
0.0
 10
227.6393061021182
 20
169.3001095488788
 30
0.0
 10
227.6553503115909
 20
169.438343307667
 30
0.0
 10
227.6606432953517
 20
169.4839466165563
 30
0.0
  0
SPLINE
  5
29E
330
1F
100
AcDbEntity
  8
0
  6
Continuous
 62
     7
370
    35
100
AcDbSpline
210
0.0
220
0.0
230
1.0
 70
     8
 71
     3
 72
    12
 73
     8
 74
     0
 42
0.00000001
 43
0.00000001
 40
0.0
 40
0.0
 40
0.0
 40
0.0
 40
0.16152406812244
 40
0.3985029818970532
 40
0.6191641727882023
 40
0.8381392938097059
 40
1.0
 40
1.0
 40
1.0
 40
1.0
 10
211.620113990261
 20
163.2613190471574
 30
0.0
 10
211.6688507495554
 20
163.2164916982509
 30
0.0
 10
211.789091306474
 20
163.1058962159958
 30
0.0
 10
211.9368897784653
 20
162.764429190118
 30
0.0
 10
211.9500109732936
 20
162.4301763705807
 30
0.0
 10
211.8934689598069
 20
162.2453966350465
 30
0.0
 10
211.8891559062045
 20
162.2398233074464
 30
0.0
 10
211.8873227963655
 20
162.237454563025
 30
0.0
  0
LINE
  5
29F
330
1F
100
AcDbEntity
  8
0
  6
Continuous
 62
     7
370
    35
100
AcDbLine
 10
230.4681166411
 20
167.4959101491
 30
0.0
 11
230.1145632505
 21
168.4071572634
 31
0.0
  0
LINE
  5
2A0
330
1F
100
AcDbEntity
  8
0
  6
Continuous
 62
     7
370
    35
100
AcDbLine
 10
210.5365163444
 20
160.8111004349
 30
0.0
 11
210.890069735
 21
159.8998533206
 31
0.0
  0
LINE
  5
2A1
330
1F
100
AcDbEntity
  8
0
  6
Continuous
 62
     7
370
    35
100
AcDbLine
 10
196.9257141925
 20
139.5390609078
 30
0.0
 11
196.9257141925
 21
139.2310221631
 31
0.0
  0
LINE
  5
2A2
330
1F
100
AcDbEntity
  8
0
  6
Continuous
 62
     7
370
    35
100
AcDbLine
 10
262.9257141925
 20
139.2310221631
 30
0.0
 11
262.9257141925
 21
139.5390609078
 31
0.0
  0
ARC
  5
2A3
330
1F
100
AcDbEntity
  8
0
  6
Continuous
 62
     7
370
    35
100
AcDbCircle
 10
229.9257141925
 20
139.5390609078
 30
0.0
 40
28.00000000000002
100
AcDbArc
 50
220.2216426491
 51
319.7783573509
  0
LINE
  5
2A4
330
1F
100
AcDbEntity
  8
0
  6
Continuous
 62
     7
370
    35
100
AcDbLine
 10
262.9257141925
 20
139.5390609078
 30
0.0
 11
262.9257141925
 21
139.8656772325
 31
0.0
  0
LINE
  5
2A5
330
1F
100
AcDbEntity
  8
0
  6
Continuous
 62
     7
370
    35
100
AcDbLine
 10
196.9257141925
 20
139.8656772325
 30
0.0
 11
196.9257141925
 21
139.5390609078
 31
0.0
  0
ARC
  5
2A6
330
1F
100
AcDbEntity
  8
0
  6
Continuous
 62
     7
370
    35
100
AcDbCircle
 10
229.9257141925
 20
139.8656772325
 30
0.0
 40
28.00000000000002
100
AcDbArc
 50
133.2299927072
 51
176.238249233
  0
ARC
  5
2A7
330
1F
100
AcDbEntity
  8
0
  6
Continuous
 62
     7
370
    35
100
AcDbCircle
 10
229.9257141925
 20
139.8656772325
 30
0.0
 40
28.00000000000003
100
AcDbArc
 50
3.761750767
 51
89.1813670331
  0
LINE
  5
2A8
330
1F
100
AcDbEntity
  8
0
  6
Continuous
 62
     7
370
    35
100
AcDbLine
 10
262.9257141925
 20
139.8656772325
 30
0.0
 11
262.9257141925
 21
141.0904884504
 31
0.0
  0
LINE
  5
2A9
330
1F
100
AcDbEntity
  8
0
  6
Continuous
 62
     7
370
    35
100
AcDbLine
 10
196.9257141925
 20
141.0904884504
 30
0.0
 11
196.9257141925
 21
139.8656772325
 31
0.0
  0
SPLINE
  5
2AA
330
1F
100
AcDbEntity
  8
0
  6
Continuous
 62
     7
370
    35
100
AcDbSpline
210
0.0
220
0.0
230
1.0
 70
     8
 71
     3
 72
    17
 73
    13
 74
     0
 42
0.00000001
 43
0.00000001
 40
0.0
 40
0.0
 40
0.0
 40
0.0
 40
0.0624501005377282
 40
0.1575041977100363
 40
0.2555935384336888
 40
0.362858528088529
 40
0.473580347035561
 40
0.5844263386859795
 40
0.6965617921678204
 40
0.8117253578472983
 40
0.9099054886764177
 40
1.0
 40
1.0
 40
1.0
 40
1.0
 10
262.3547114588143
 20
141.3377705035564
 30
0.0
 10
262.3561274756772
 20
141.409377316521
 30
0.0
 10
262.3596987845784
 20
141.589975482568
 30
0.0
 10
262.1883865619523
 20
141.8465667355858
 30
0.0
 10
261.907046572535
 20
142.0762701895561
 30
0.0
 10
261.5138687583746
 20
142.2385092116809
 30
0.0
 10
261.0443490145121
 20
142.3134347312915
 30
0.0
 10
260.5541908214145
 20
142.2866808234381
 30
0.0
 10
260.0985189749751
 20
142.1570974923998
 30
0.0
 10
259.7501858435386
 20
141.9395113159793
 30
0.0
 10
259.5204454428737
 20
141.6569421737501
 30
0.0
 10
259.4916251122538
 20
141.4427426161944
 30
0.0
 10
259.4778338041218
 20
141.3402423312752
 30
0.0
  0
SPLINE
  5
2AB
330
1F
100
AcDbEntity
  8
0
  6
Continuous
 62
     7
370
    35
100
AcDbSpline
210
0.0
220
0.0
230
1.0
 70
     8
 71
     3
 72
    11
 73
     7
 74
     0
 42
0.00000001
 43
0.00000001
 40
0.0
 40
0.0
 40
0.0
 40
0.0
 40
0.0107381458351786
 40
0.3846772563784697
 40
0.7459742136032298
 40
1.0
 40
1.0
 40
1.0
 40
1.0
 10
259.4778338041218
 20
141.3402423312752
 30
0.0
 10
259.477112975927
 20
141.3371364116688
 30
0.0
 10
259.4512904348153
 20
141.225871706285
 30
0.0
 10
259.5452830872268
 20
141.0003667009344
 30
0.0
 10
259.7230108197932
 20
140.7616752778981
 30
0.0
 10
259.8925585971699
 20
140.6516312303096
 30
0.0
 10
259.9625535842339
 20
140.6062013709119
 30
0.0
  0
SPLINE
  5
2AC
330
1F
100
AcDbEntity
  8
0
  6
Continuous
 62
     7
370
    35
100
AcDbSpline
210
0.0
220
0.0
230
1.0
 70
     8
 71
     3
 72
    15
 73
    11
 74
     0
 42
0.00000001
 43
0.00000001
 40
0.0
 40
0.0
 40
0.0
 40
0.0
 40
0.0809986791857003
 40
0.2301845813937215
 40
0.3791819097812882
 40
0.529196711332403
 40
0.6821963220612972
 40
0.819824618439556
 40
0.946627930156528
 40
1.0
 40
1.0
 40
1.0
 40
1.0
 10
259.9625535842339
 20
140.6062013709119
 30
0.0
 10
260.0315364536121
 20
140.5707422160069
 30
0.0
 10
260.2275741306556
 20
140.4699732798904
 30
0.0
 10
260.6173998904284
 20
140.3758320588182
 30
0.0
 10
261.107107680779
 20
140.3612227487956
 30
0.0
 10
261.5811691392715
 20
140.4510726777563
 30
0.0
 10
261.9761144280584
 20
140.6340201262516
 30
0.0
 10
262.2407608548394
 20
140.8888983743063
 30
0.0
 10
262.3791220156892
 20
141.1408621852977
 30
0.0
 10
262.3602899480618
 20
141.2927714917852
 30
0.0
 10
262.3547114588143
 20
141.3377705035564
 30
0.0
  0
LINE
  5
2AD
330
1F
100
AcDbEntity
  8
0
  6
Continuous
 62
     7
370
    35
100
AcDbLine
 10
259.9757141925
 20
140.5999322469
 30
0.0
 11
259.9757141925
 21
140.4203620924
 31
0.0
  0
LINE
  5
2AE
330
1F
100
AcDbEntity
  8
0
  6
Continuous
 62
     7
370
    35
100
AcDbLine
 10
261.8757141925
 20
140.4203620924
 30
0.0
 11
261.8757141925
 21
140.6122627683
 31
0.0
  0
SPLINE
  5
2AF
330
1F
100
AcDbEntity
  8
0
  6
Continuous
 62
     7
370
    35
100
AcDbSpline
210
0.0
220
0.0
230
1.0
 70
     8
 71
     3
 72
    15
 73
    11
 74
     0
 42
0.00000001
 43
0.00000001
 40
0.0
 40
0.0
 40
0.0
 40
0.0
 40
0.0429029315871161
 40
0.17243708166585
 40
0.3017933405581639
 40
0.4430192838833452
 40
0.5922342719956871
 40
0.7416863041064002
 40
0.8923367725461404
 40
1.0
 40
1.0
 40
1.0
 40
1.0
 10
231.3592591451021
 20
123.4450128057138
 30
0.0
 10
231.3634525950888
 20
123.4810205899019
 30
0.0
 10
231.3803070675236
 20
123.6257444349387
 30
0.0
 10
231.2536703462486
 20
123.8669072119279
 30
0.0
 10
231.0082854034812
 20
124.115448880747
 30
0.0
 10
230.6459769312382
 20
124.3004239724816
 30
0.0
 10
230.195124387401
 20
124.4050733791649
 30
0.0
 10
229.7053964118828
 20
124.409240906661
 30
0.0
 10
229.2776945878624
 20
124.3250711949999
 30
0.0
 10
229.0552618819135
 20
124.2147584669685
 30
0.0
 10
228.9625535842334
 20
124.1687809422848
 30
0.0
  0
SPLINE
  5
2B0
330
1F
100
AcDbEntity
  8
0
  6
Continuous
 62
     7
370
    35
100
AcDbSpline
210
0.0
220
0.0
230
1.0
 70
     8
 71
     3
 72
    11
 73
     7
 74
     0
 42
0.00000001
 43
0.00000001
 40
0.0
 40
0.0
 40
0.0
 40
0.0
 40
0.2315484189260517
 40
0.6055392963804842
 40
0.9565989672189761
 40
1.0
 40
1.0
 40
1.0
 40
1.0
 10
228.9625535842334
 20
124.1687809422848
 30
0.0
 10
228.8978314139905
 20
124.1271108743744
 30
0.0
 10
228.7285717074856
 20
124.018136415729
 30
0.0
 10
228.5508188956078
 20
123.7858340141716
 30
0.0
 10
228.4538176628427
 20
123.5531911980955
 30
0.0
 10
228.4812124053526
 20
123.4375407029781
 30
0.0
 10
228.4842265461955
 20
123.4248161124582
 30
0.0
  0
SPLINE
  5
2B1
330
1F
100
AcDbEntity
  8
0
  6
Continuous
 62
     7
370
    35
100
AcDbSpline
210
0.0
220
0.0
230
1.0
 70
     8
 71
     3
 72
    17
 73
    13
 74
     0
 42
0.00000001
 43
0.00000001
 40
0.0
 40
0.0
 40
0.0
 40
0.0
 40
0.0872235140995861
 40
0.18184007748965
 40
0.2827401990983171
 40
0.3919586319564038
 40
0.5027843590601876
 40
0.6139515800652894
 40
0.7268303069376657
 40
0.8433405170420092
 40
0.9389079090767624
 40
1.0
 40
1.0
 40
1.0
 40
1.0
 10
228.4842265461955
 20
123.4248161124582
 30
0.0
 10
228.4960317774295
 20
123.3254209664184
 30
0.0
 10
228.5206428491631
 20
123.118205959725
 30
0.0
 10
228.7346218155118
 20
122.8546713208797
 30
0.0
 10
229.0491864725141
 20
122.6434221691892
 30
0.0
 10
229.469415438086
 20
122.5044836238984
 30
0.0
 10
229.9516961885591
 20
122.4586457708747
 30
0.0
 10
230.4363212994895
 20
122.5157630294406
 30
0.0
 10
230.8734354187378
 20
122.6751064747379
 30
0.0
 10
231.1860290005474
 20
122.9192105170936
 30
0.0
 10
231.3616716243874
 20
123.1958344602145
 30
0.0
 10
231.3599359870704
 20
123.3751036616924
 30
0.0
 10
231.3592591451022
 20
123.4450128057138
 30
0.0
  0
LINE
  5
2B2
330
1F
100
AcDbEntity
  8
0
  6
Continuous
 62
     7
370
    35
100
AcDbLine
 10
228.9757141925
 20
122.7145033669
 30
0.0
 11
228.9757141925
 21
122.5244430177
 31
0.0
  0
LINE
  5
2B3
330
1F
100
AcDbEntity
  8
0
  6
Continuous
 62
     7
370
    35
100
AcDbLine
 10
230.8757141925
 20
122.5244430177
 30
0.0
 11
230.8757141925
 21
122.7085893007
 31
0.0
  0
SPLINE
  5
2B4
330
1F
100
AcDbEntity
  8
0
  6
Continuous
 62
     7
370
    35
100
AcDbSpline
210
0.0
220
0.0
230
1.0
 70
     8
 71
     3
 72
    11
 73
     7
 74
     0
 42
0.00000001
 43
0.00000001
 40
0.0
 40
0.0
 40
0.0
 40
0.0
 40
0.0107381458351778
 40
0.3846772563784692
 40
0.7459742136032333
 40
1.0
 40
1.0
 40
1.0
 40
1.0
 10
200.3735945808659
 20
141.3306590565737
 30
0.0
 10
200.3743154090607
 20
141.33376497618
 30
0.0
 10
200.4001379501724
 20
141.4450296815639
 30
0.0
 10
200.3061452977608
 20
141.6705346869146
 30
0.0
 10
200.1284175651945
 20
141.9092261099508
 30
0.0
 10
199.9588697878177
 20
142.0192701575393
 30
0.0
 10
199.8888748007538
 20
142.064700016937
 30
0.0
  0
SPLINE
  5
2B5
330
1F
100
AcDbEntity
  8
0
  6
Continuous
 62
     7
370
    35
100
AcDbSpline
210
0.0
220
0.0
230
1.0
 70
     8
 71
     3
 72
    15
 73
    11
 74
     0
 42
0.00000001
 43
0.00000001
 40
0.0
 40
0.0
 40
0.0
 40
0.0
 40
0.0809986791857002
 40
0.2301845813937212
 40
0.3791819097812882
 40
0.529196711332402
 40
0.6821963220612971
 40
0.8198246184395553
 40
0.9466279301565281
 40
1.0
 40
1.0
 40
1.0
 40
1.0
 10
199.8888748007538
 20
142.064700016937
 30
0.0
 10
199.8198919313756
 20
142.100159171842
 30
0.0
 10
199.6238542543321
 20
142.2009281079585
 30
0.0
 10
199.2340284945593
 20
142.2950693290308
 30
0.0
 10
198.7443207042087
 20
142.3096786390533
 30
0.0
 10
198.2702592457162
 20
142.2198287100926
 30
0.0
 10
197.8753139569293
 20
142.0368812615973
 30
0.0
 10
197.6106675301483
 20
141.7820030135426
 30
0.0
 10
197.4723063692985
 20
141.5300392025512
 30
0.0
 10
197.4911384369258
 20
141.3781298960637
 30
0.0
 10
197.4967169261733
 20
141.3331308842925
 30
0.0
  0
SPLINE
  5
2B6
330
1F
100
AcDbEntity
  8
0
  6
Continuous
 62
     7
370
    35
100
AcDbSpline
210
0.0
220
0.0
230
1.0
 70
     8
 71
     3
 72
    17
 73
    13
 74
     0
 42
0.00000001
 43
0.00000001
 40
0.0
 40
0.0
 40
0.0
 40
0.0
 40
0.0624501005377269
 40
0.1575041977100358
 40
0.2555935384336876
 40
0.3628585280885284
 40
0.4735803470355596
 40
0.5844263386859789
 40
0.6965617921678193
 40
0.8117253578472972
 40
0.9099054886764174
 40
1.0
 40
1.0
 40
1.0
 40
1.0
 10
197.4967169261733
 20
141.3331308842925
 30
0.0
 10
197.4953009093105
 20
141.2615240713279
 30
0.0
 10
197.4917296004093
 20
141.0809259052809
 30
0.0
 10
197.6630418230354
 20
140.824334652263
 30
0.0
 10
197.9443818124526
 20
140.5946311982928
 30
0.0
 10
198.337559626613
 20
140.432392176168
 30
0.0
 10
198.8070793704755
 20
140.3574666565574
 30
0.0
 10
199.2972375635732
 20
140.3842205644108
 30
0.0
 10
199.7529094100125
 20
140.5138038954491
 30
0.0
 10
200.101242541449
 20
140.7313900718696
 30
0.0
 10
200.3309829421139
 20
141.0139592140988
 30
0.0
 10
200.3598032727338
 20
141.2281587716545
 30
0.0
 10
200.3735945808659
 20
141.3306590565737
 30
0.0
  0
LINE
  5
2B7
330
1F
100
AcDbEntity
  8
0
  6
Continuous
 62
     7
370
    35
100
AcDbLine
 10
197.9757141925
 20
140.6027544919
 30
0.0
 11
197.9757141925
 21
140.4203620924
 31
0.0
  0
LINE
  5
2B8
330
1F
100
AcDbEntity
  8
0
  6
Continuous
 62
     7
370
    35
100
AcDbLine
 10
199.8757141925
 20
140.4203620924
 30
0.0
 11
199.8757141925
 21
140.6179421882
 31
0.0
  0
SPLINE
  5
2B9
330
1F
100
AcDbEntity
  8
0
  6
Continuous
 62
     7
370
    35
100
AcDbSpline
210
0.0
220
0.0
230
1.0
 70
     8
 71
     3
 72
    13
 73
     9
 74
     0
 42
0.00000001
 43
0.00000001
 40
0.0
 40
0.0
 40
0.0
 40
0.0
 40
0.0322096360538973
 40
0.2255089417218348
 40
0.4152439619543106
 40
0.620956934305436
 40
0.8407813822711049
 40
1.0
 40
1.0
 40
1.0
 40
1.0
 10
209.4450120379961
 20
128.6837546167733
 30
0.0
 10
209.4482396896501
 20
128.7018127407931
 30
0.0
 10
209.470837408778
 20
128.828242869664
 30
0.0
 10
209.3630797019021
 20
129.0610532339098
 30
0.0
 10
209.1382629823716
 20
129.3198704700924
 30
0.0
 10
208.7928599205705
 20
129.5152365089889
 30
0.0
 10
208.3965784720863
 20
129.6274978379201
 30
0.0
 10
208.1211139816831
 20
129.6398269392363
 30
0.0
 10
208.0054039757104
 20
129.645005829571
 30
0.0
  0
SPLINE
  5
2BA
330
1F
100
AcDbEntity
  8
0
  6
Continuous
 62
     7
370
    35
100
AcDbSpline
210
0.0
220
0.0
230
1.0
 70
     8
 71
     3
 72
    13
 73
     9
 74
     0
 42
0.00000001
 43
0.00000001
 40
0.0
 40
0.0
 40
0.0
 40
0.0
 40
0.1167973502591582
 40
0.3385069246707246
 40
0.565981613835399
 40
0.7663593434972201
 40
0.9525944951126232
 40
1.0
 40
1.0
 40
1.0
 40
1.0
 10
208.0054039757104
 20
129.645005829571
 30
0.0
 10
207.9204126097968
 20
129.642159529849
 30
0.0
 10
207.674087108104
 20
129.6339102659451
 30
0.0
 10
207.2798210466613
 20
129.5411358116305
 30
0.0
 10
206.9004897940565
 20
129.3453543657719
 30
0.0
 10
206.6582883809141
 20
129.0788079381711
 30
0.0
 10
206.5423157747152
 20
128.8376721348404
 30
0.0
 10
206.5659415590904
 20
128.7060712925304
 30
0.0
 10
206.570735212102
 20
128.6793695854444
 30
0.0
  0
SPLINE
  5
2BB
330
1F
100
AcDbEntity
  8
0
  6
Continuous
 62
     7
370
    35
100
AcDbSpline
210
0.0
220
0.0
230
1.0
 70
     8
 71
     3
 72
    17
 73
    13
 74
     0
 42
0.00000001
 43
0.00000001
 40
0.0
 40
0.0
 40
0.0
 40
0.0
 40
0.0763097146333333
 40
0.170742417724629
 40
0.2699224554249176
 40
0.3779618604734331
 40
0.4884767092996838
 40
0.5991955933814601
 40
0.7113987294478141
 40
0.8269312879960165
 40
0.9235210630801978
 40
1.0
 40
1.0
 40
1.0
 40
1.0
 10
206.570735212102
 20
128.6793695854444
 30
0.0
 10
206.5748497650917
 20
128.5916791584135
 30
0.0
 10
206.5840560467389
 20
128.3954724815245
 30
0.0
 10
206.776377712945
 20
128.1333016591632
 30
0.0
 10
207.0741371748732
 20
127.9125938470218
 30
0.0
 10
207.4807711231752
 20
127.7614778835995
 30
0.0
 10
207.9571881621166
 20
127.7006140768698
 30
0.0
 10
208.4452031395307
 20
127.7421797157745
 30
0.0
 10
208.8922403522138
 20
127.8862833307109
 30
0.0
 10
209.223607114944
 20
128.1166759408047
 30
0.0
 10
209.426720900864
 20
128.3975468768376
 30
0.0
 10
209.4394063481451
 20
128.5960404516313
 30
0.0
 10
209.4450120379961
 20
128.6837546167733
 30
0.0
  0
LINE
  5
2BC
330
1F
100
AcDbEntity
  8
0
  6
Continuous
 62
     7
370
    35
100
AcDbLine
 10
207.0554039757
 20
127.9489382822
 30
0.0
 11
207.0554039757
 21
127.7660363591
 31
0.0
  0
LINE
  5
2BD
330
1F
100
AcDbEntity
  8
0
  6
Continuous
 62
     7
370
    35
100
AcDbLine
 10
208.9554039757
 20
127.7660363591
 30
0.0
 11
208.9554039757
 21
127.9594471141
 31
0.0
  0
SPLINE
  5
2BE
330
1F
100
AcDbEntity
  8
0
  6
Continuous
 62
     7
370
    35
100
AcDbSpline
210
0.0
220
0.0
230
1.0
 70
     8
 71
     3
 72
    18
 73
    14
 74
     0
 42
0.00000001
 43
0.00000001
 40
0.0
 40
0.0
 40
0.0
 40
0.0
 40
0.0094320412646417
 40
0.1063650646361836
 40
0.2002699612276972
 40
0.301268459903088
 40
0.4099981594067916
 40
0.5198186323145415
 40
0.630096989412365
 40
0.7422323169923164
 40
0.8456121009416894
 40
0.9403704674371346
 40
1.0
 40
1.0
 40
1.0
 40
1.0
 10
253.2891783112943
 20
128.6629466802051
 30
0.0
 10
253.2916204932613
 20
128.6734674285353
 30
0.0
 10
253.3191609625488
 20
128.7921098352813
 30
0.0
 10
253.2244102081524
 20
129.0244353726994
 30
0.0
 10
253.0143898985031
 20
129.2905457758752
 30
0.0
 10
252.6818603905359
 20
129.4954413429625
 30
0.0
 10
252.2545623000649
 20
129.6255714344416
 30
0.0
 10
251.7685973688652
 20
129.6608902408156
 30
0.0
 10
251.2868374614899
 20
129.5930737680115
 30
0.0
 10
250.874059473268
 20
129.4292506955971
 30
0.0
 10
250.5764501687237
 20
129.1903007758032
 30
0.0
 10
250.4182384510681
 20
128.9262733202723
 30
0.0
 10
250.4022136851609
 20
128.7494281917725
 30
0.0
 10
250.3960244092764
 20
128.6811249606722
 30
0.0
  0
SPLINE
  5
2BF
330
1F
100
AcDbEntity
  8
0
  6
Continuous
 62
     7
370
    35
100
AcDbSpline
210
0.0
220
0.0
230
1.0
 70
     8
 71
     3
 72
    17
 73
    13
 74
     0
 42
0.00000001
 43
0.00000001
 40
0.0
 40
0.0
 40
0.0
 40
0.0
 40
0.0667359792092359
 40
0.1614436317565616
 40
0.260068306643902
 40
0.3678276152303229
 40
0.4788782797222967
 40
0.5900633555433356
 40
0.7025746865684525
 40
0.8181774491174263
 40
0.9163958146484295
 40
1.0
 40
1.0
 40
1.0
 40
1.0
 10
250.3960244092764
 20
128.6811249606722
 30
0.0
 10
250.4035867318079
 20
128.6055107087894
 30
0.0
 10
250.4218810436387
 20
128.4225892984623
 30
0.0
 10
250.5867904159065
 20
128.1630219831016
 30
0.0
 10
250.8739056255107
 20
127.9355239044325
 30
0.0
 10
251.2684521697535
 20
127.7750642553008
 30
0.0
 10
251.7395389080165
 20
127.7025599090041
 30
0.0
 10
252.2293020252561
 20
127.7318613763506
 30
0.0
 10
252.6836637837386
 20
127.8639129481789
 30
0.0
 10
253.0287865212845
 20
128.0838009031944
 30
0.0
 10
253.2516178167174
 20
128.3616477854613
 30
0.0
 10
253.2773474965276
 20
128.5680434726391
 30
0.0
 10
253.2891783112943
 20
128.6629466802051
 30
0.0
  0
LINE
  5
2C0
330
1F
100
AcDbEntity
  8
0
  6
Continuous
 62
     7
370
    35
100
AcDbLine
 10
250.8960244093
 20
127.947153219
 30
0.0
 11
250.8960244093
 21
127.7660363591
 31
0.0
  0
LINE
  5
2C1
330
1F
100
AcDbEntity
  8
0
  6
Continuous
 62
     7
370
    35
100
AcDbLine
 10
252.7960244093
 20
127.7660363591
 30
0.0
 11
252.7960244093
 21
127.9631816852
 31
0.0
  0
LWPOLYLINE
  5
2C2
330
1F
100
AcDbEntity
  8
0
  6
Continuous
 62
     7
370
    35
100
AcDbPolyline
 90
       46
 70
   128
 43
0.0
 10
205.5305302416
 20
127.4973730085
 10
207.3544245644
 20
126.517883677
 10
209.2959951401
 20
125.6169233986
 10
211.3451195186
 20
124.799189363
 10
213.4911145143
 20
124.0689448567
 10
215.7227919029
 20
123.4299970366
 10
218.0285167518
 20
122.8856770807
 10
220.3962680794
 20
122.4388228213
 10
222.8137015265
 20
122.0917639494
 10
225.2682137146
 20
121.8463098695
 10
227.7470079535
 20
121.7037402653
 10
230.237160958
 20
121.6647984288
 10
232.7256902232
 20
121.7296873848
 10
235.1996217099
 20
121.8980688321
 10
237.6460574848
 20
122.169064908
 10
240.0522429646
 20
122.5412627644
 10
242.4056334123
 20
123.012721934
 10
244.6939593398
 20
123.580984447
 10
246.9052904754
 20
124.2430876457
 10
249.0280979624
 20
124.9955796307
 10
251.0513144655
 20
125.8345372572
 10
252.9643918707
 20
126.7555865885
 10
254.7573562782
 20
127.7539257001
 10
256.4208600018
 20
128.8243497139
 10
257.9462303034
 20
129.9612779348
 10
259.3255146085
 20
131.1587829456
 10
260.5515219674
 20
132.4106215096
 10
261.6178605453
 20
133.7102671201
 10
262.5189709468
 20
135.0509440268
 10
263.2501551995
 20
136.425662561
 10
263.8076012471
 20
137.8272555768
 10
264.1884028242
 20
139.2484158173
 10
264.3905746075
 20
140.6817340109
 10
264.4130625672
 20
142.1197375003
 10
264.2557494613
 20
143.5549292012
 10
263.9194554476
 20
144.9798266886
 10
263.4059338072
 20
146.3870012067
 10
262.7178618044
 20
147.7691163992
 10
261.8588267278
 20
149.1189665575
 10
260.8333071887
 20
150.4295141878
 10
259.646649771
 20
151.6939267016
 10
258.305041157
 20
152.9056120376
 10
256.8154758729
 20
154.0582530294
 10
255.1857198224
 20
155.1458403407
 10
253.4242697987
 20
156.1627037948
 10
252.251244823
 20
156.76451394
  0
LWPOLYLINE
  5
2C3
330
1F
100
AcDbEntity
  8
0
  6
Continuous
 62
     7
370
    35
100
AcDbPolyline
 90
       24
 70
   128
 43
0.0
 10
207.600183562
 20
156.76451394
 10
205.9749406909
 20
155.9154147845
 10
204.2455792466
 20
154.8803584638
 10
202.6501021351
 20
153.7759623855
 10
201.1968274353
 20
152.6079843594
 10
199.8933318486
 20
151.382513682
 10
198.7464111973
 20
150.1059393901
 10
197.7620449947
 20
148.7849169509
 10
196.9453652703
 20
147.4263335637
 10
196.3006298142
 20
146.0372722532
 10
195.8311999784
 20
144.624974942
 10
195.5395231527
 20
143.1968046941
 10
195.427120005
 20
141.7602073282
 10
195.4945765534
 20
140.3226725975
 10
195.7415411105
 20
138.8916951425
 10
196.1667261176
 20
137.4747354172
 10
196.7679148569
 20
136.0791807934
 10
197.5419730087
 20
134.7123070467
 10
198.4848649922
 20
133.381240424
 10
199.5916750052
 20
132.0929204902
 10
200.8566326527
 20
130.854063949
 10
202.2731430314
 20
129.6711296248
 10
203.833821112
 20
128.5502847893
 10
205.5305302416
 20
127.4973730085
  0
LWPOLYLINE
  5
2C4
330
1F
100
AcDbEntity
  8
0
  6
Continuous
 62
     7
370
    35
100
AcDbPolyline
 90
       44
 70
   128
 43
0.0
 10
206.414413718
 20
128.0076280784
 10
208.2149879674
 20
127.0423085338
 10
210.1341386747
 20
126.1563910741
 10
212.1613841043
 20
125.3547142732
 10
214.2856521447
 20
124.6416566117
 10
216.4953407805
 20
124.0211125635
 10
218.7783814586
 20
123.4964713248
 10
221.1223050025
 20
123.0705983042
 10
223.5143097146
 20
122.7458194724
 10
225.9413312947
 20
122.5239086589
 10
228.3901141925
 20
122.4060778634
 10
230.847284005
 20
122.3929706371
 10
233.2994205228
 20
122.4846585669
 10
235.7331310265
 20
122.6806408852
 10
238.1351234333
 20
122.9798472046
 10
240.4922788936
 20
123.3806433638
 10
242.7917234417
 20
123.8808403533
 10
245.0208983088
 20
124.4777062706
 10
247.1676285149
 20
125.1679812409
 10
249.220189364
 20
125.9478952218
 10
251.1673704804
 20
126.8131885935
 10
252.9985370362
 20
127.7591354238
 10
254.7036878347
 20
128.780569279
 10
256.2735099334
 20
129.8719114417
 10
257.6994295084
 20
131.0272013793
 10
258.9736586815
 20
132.2401292989
 10
260.0892380548
 20
133.5040706088
 10
261.0400747206
 20
134.8121220999
 10
261.8209755388
 20
136.1571396485
 10
262.4276754999
 20
137.5317772351
 10
262.8568610191
 20
138.928527066
 10
263.1061880339
 20
140.3397605779
 10
263.1742948066
 20
141.7577701028
 10
263.0608093617
 20
143.1748109643
 10
262.7663515173
 20
144.5831437768
 10
262.2925295
 20
145.9750767146
 10
261.6419311614
 20
147.3430075228
 10
260.818109844
 20
148.6794650378
 10
259.8255649741
 20
149.9771499918
 10
258.6697174877
 20
151.2289748799
 10
257.3568802229
 20
152.4281026685
 10
255.8942234416
 20
153.5679841374
 10
254.2897356679
 20
154.6423936494
 10
253.3521128626
 20
155.2020342103
  0
LWPOLYLINE
  5
2C5
330
1F
100
AcDbEntity
  8
0
  6
Continuous
 62
     7
370
    35
100
AcDbPolyline
 90
       23
 70
   128
 43
0.0
 10
206.4993155224
 20
155.2020342103
 10
205.9839651749
 20
154.9000700483
 10
204.3453596573
 20
153.8429600969
 10
202.8464651657
 20
152.7188763651
 10
201.4954681419
 20
151.5339582087
 10
200.2997472632
 20
150.2946772395
 10
199.2658331425
 20
149.0078019806
 10
198.3993726601
 20
147.6803608984
 10
197.7050981227
 20
146.3196040157
 10
197.1868014171
 20
144.9329633147
 10
196.8473133001
 20
143.5280121462
 10
196.6884879382
 20
142.1124238661
 10
196.7111927803
 20
140.6939299268
 10
196.9153038206
 20
139.2802776504
 10
197.2997062752
 20
137.8791879152
 10
197.8623006713
 20
136.4983129876
 10
198.6000143133
 20
135.1451947277
 10
199.5088180653
 20
133.827223398
 10
200.5837483561
 20
132.5515973011
 10
201.8189342895
 20
131.3252834642
 10
203.207629708
 20
130.1549795882
 10
204.7422500389
 20
129.0470774673
 10
206.414413718
 20
128.0076280784
  0
LWPOLYLINE
  5
2C6
330
1F
100
AcDbEntity
  8
0
  6
Continuous
 62
     7
370
    35
100
AcDbPolyline
 90
       34
 70
   128
 43
0.0
 10
205.5305302416
 20
123.0063985432
 10
207.3544245644
 20
122.0269092117
 10
209.2959951401
 20
121.1259489332
 10
211.3451195186
 20
120.3082148976
 10
213.4911145143
 20
119.5779703914
 10
215.7227919029
 20
118.9390225713
 10
218.0285167518
 20
118.3947026154
 10
220.3962680794
 20
117.9478483559
 10
222.8137015265
 20
117.6007894841
 10
225.2682137146
 20
117.3553354041
 10
227.7470079535
 20
117.2127657999
 10
230.237160958
 20
117.1738239635
 10
232.7256902232
 20
117.2387129194
 10
235.1996217099
 20
117.4070943668
 10
237.6460574848
 20
117.6780904427
 10
240.0522429646
 20
118.0502882991
 10
242.4056334123
 20
118.5217474686
 10
244.6939593398
 20
119.0900099816
 10
246.9052904754
 20
119.7521131803
 10
249.0280979624
 20
120.5046051653
 10
251.0513144655
 20
121.3435627918
 10
252.9643918707
 20
122.2646121232
 10
254.7573562782
 20
123.2629512347
 10
256.4208600018
 20
124.3333752485
 10
257.9462303034
 20
125.4703034695
 10
259.3255146085
 20
126.6678084802
 10
260.5515219674
 20
127.9196470442
 10
261.6178605453
 20
129.2192926548
 10
262.5189709468
 20
130.5599695614
 10
263.2501551995
 20
131.9346880956
 10
263.8076012471
 20
133.3362811114
 10
264.1884028242
 20
134.7574413519
 10
264.3905746075
 20
136.1907595455
 10
264.4257141925
 20
137.0894384721
  0
LWPOLYLINE
  5
2C7
330
1F
100
AcDbEntity
  8
0
  6
Continuous
 62
     7
370
    35
100
AcDbPolyline
 90
       12
 70
   128
 43
0.0
 10
195.4257141925
 20
137.0894384721
 10
195.4945765534
 20
135.8316981321
 10
195.7415411105
 20
134.4007206772
 10
196.1667261176
 20
132.9837609519
 10
196.7679148569
 20
131.588206328
 10
197.5419730087
 20
130.2213325814
 10
198.4848649922
 20
128.8902659586
 10
199.5916750052
 20
127.6019460249
 10
200.8566326527
 20
126.3630894837
 10
202.2731430314
 20
125.1801551594
 10
203.833821112
 20
124.0593103239
 10
205.5305302416
 20
123.0063985432
  0
LINE
  5
2C8
330
1F
100
AcDbEntity
  8
0
  6
Continuous
 62
     7
370
    35
100
AcDbLine
 10
263.0551557683
 20
139.9473313137
 30
0.0
 11
262.9257141925
 21
140.6636404643
 31
0.0
  0
LWPOLYLINE
  5
2C9
330
1F
100
AcDbEntity
  8
0
  6
Continuous
 62
     7
370
    35
100
AcDbPolyline
 90
        3
 70
   128
 43
0.0
 10
196.9257141925
 20
140.6636404643
 10
196.8473133001
 20
140.2618488986
 10
196.7962726166
 20
139.9473313137
  0
ARC
  5
2CA
330
1F
100
AcDbEntity
  8
0
  6
Continuous
 62
     7
370
    35
100
AcDbCircle
 10
229.9257141925
 20
128.7346212945
 30
0.0
 40
17.43401506045262
100
AcDbArc
 50
254.6665744997
 51
285.3334255003
  0
LWPOLYLINE
  5
2CB
330
1F
100
AcDbEntity
  8
0
  6
Continuous
 62
     7
370
    35
100
AcDbPolyline
 90
       21
 70
   128
 43
0.0
 10
239.4841510609
 20
113.2210768544
 10
239.284138908
 20
112.8831151033
 10
238.7309102327
 20
112.1811844241
 10
238.0205526255
 20
111.5280848667
 10
237.1657424347
 20
110.9354710082
 10
236.1817337684
 20
110.4139180569
 10
235.0860862846
 20
109.9727331376
 10
233.8983518385
 20
109.6197892057
 10
232.6397255795
 20
109.3613845539
 10
231.332667723
 20
109.2021304193
 10
230.0005027474
 20
109.1448686959
 10
228.6670031683
 20
109.1906212203
 10
227.3559653173
 20
109.3385715378
 10
226.0907846958
 20
109.5860794714
 10
224.894038482
 20
109.9287282361
 10
223.7870826405
 20
110.3604032567
 10
222.7896708244
 20
110.8734012821
 10
221.9196018713
 20
111.4585678505
 10
221.1924021823
 20
112.1054606506
 10
220.621048653
 20
112.802535865
 10
220.3672773241
 20
113.2210768544
  0
LWPOLYLINE
  5
2CC
330
1F
100
AcDbEntity
  8
0
  6
Continuous
 62
     7
370
    35
100
AcDbPolyline
 90
       16
 70
   128
 43
0.0
 10
235.6466856501
 20
109.7744817363
 10
234.5024394445
 20
109.3765286331
 10
233.2765214683
 20
109.0701702056
 10
231.990808257
 20
108.8608734274
 10
230.6682433931
 20
108.7523732042
 10
229.332428078
 20
108.7466057252
 10
228.0071999677
 20
108.8436739112
 10
226.7162077892
 20
109.0418455781
 10
225.4824893285
 20
109.3375843479
 10
224.3280603207
 20
109.7256127551
 10
223.2735215789
 20
110.1990064236
 10
222.3376913719
 20
110.7493176322
 10
221.5372696119
 20
111.3667260644
 10
220.8865398442
 20
112.040214052
 10
220.3971143568
 20
112.757763186
 10
220.1467690356
 20
113.3022121713
  0
ARC
  5
2CD
330
1F
100
AcDbEntity
  8
0
  6
Continuous
 62
     7
370
    35
100
AcDbCircle
 10
233.6245949581
 20
116.198330595
 30
0.0
 40
6.734588697647975
100
AcDbArc
 50
287.4728907787
 51
334.5301284373
  0
LWPOLYLINE
  5
2CE
330
1F
100
AcDbEntity
  8
0
  6
Continuous
 62
     7
370
    35
100
AcDbPolyline
 90
       48
 70
   128
 43
0.0
 10
234.0151173955
 20
150.8188753071
 10
234.9387324939
 20
149.8725629426
 10
235.9662875916
 20
149.0228473187
 10
237.0794459437
 20
148.2848916306
 10
238.2583432129
 20
147.6718647152
 10
239.4819419496
 20
147.1947060523
 10
240.7284070052
 20
146.8619305494
 10
241.9754951814
 20
146.6794765934
 10
243.2009521601
 20
146.6506000794
 10
244.3829096326
 20
146.7758163095
 10
245.5002755396
 20
147.0528907971
 10
246.5331104601
 20
147.4768791414
 10
247.4629834305
 20
148.0402152603
 10
248.2733008456
 20
148.7328464075
 10
248.9496025719
 20
149.5424125637
 10
249.4798199892
 20
150.4544670017
 10
249.854491355
 20
151.4527340885
 10
250.0669306499
 20
152.5193997242
 10
250.1133468897
 20
153.6354292353
 10
249.9929117755
 20
154.7809070487
 10
249.7077744747
 20
155.9353920857
 10
249.2630232693
 20
157.0782825335
 10
248.666594755
 20
158.1891834849
 10
247.9291322128
 20
159.2482708862
 10
247.0637956793
 20
160.2366452976
 10
246.0860271053
 20
161.1366691543
 10
245.0132747943
 20
161.9322815093
 10
243.8646820366
 20
162.6092846412
 10
242.6607454973
 20
163.1555974131
 10
241.4229494523
 20
163.5614708607
 10
240.1733824015
 20
163.8196621626
 10
238.9343428984
 20
163.925563889
 10
237.7279416324
 20
163.8772862211
 10
236.5757068626
 20
163.6756906749
 10
235.4982002458
 20
163.3243747278
 10
234.514649913
 20
162.8296076212
 10
233.6426073434
 20
162.2002184858
 10
232.8976341571
 20
161.4474387857
 10
232.2930244184
 20
160.5847018924
 10
231.8395674023
 20
159.6274033662
 10
231.5453550601
 20
158.592626222
 10
231.4156376179
 20
157.4988360825
 10
231.4527298867
 20
156.3655516585
 10
231.6559699539
 20
155.2129964376
 10
232.0217309958
 20
154.0617377949
 10
232.5434859979
 20
152.9323199682
 10
233.2119242298
 20
151.8448974454
 10
234.0151173955
 20
150.8188753071
  0
LWPOLYLINE
  5
2CF
330
1F
100
AcDbEntity
  8
0
  6
Continuous
 62
     7
370
    35
100
AcDbPolyline
 90
       26
 70
   128
 43
0.0
 10
232.4051189752
 20
160.7842810057
 10
232.400271642
 20
160.7773741653
 10
231.8700542247
 20
159.8653197273
 10
231.495382859
 20
158.8670526406
 10
231.282943564
 20
157.8003870049
 10
231.2365273242
 20
156.6843574938
 10
231.3569624385
 20
155.5388796804
 10
231.6420997392
 20
154.3843946434
 10
232.0868509446
 20
153.2415041956
 10
232.6832794589
 20
152.1306032442
 10
233.4207420011
 20
151.0715158429
 10
234.2860785347
 20
150.0831414315
 10
235.2638471086
 20
149.1831175748
 10
236.3365994197
 20
148.3875052198
 10
237.4851921773
 20
147.7105020879
 10
238.6891287167
 20
147.164189316
 10
239.9269247616
 20
146.7583158684
 10
241.1764918125
 20
146.5001245665
 10
242.4155313155
 20
146.39422284
 10
243.6219325815
 20
146.442500508
 10
244.7741673514
 20
146.6440960541
 10
245.8516739682
 20
146.9954120012
 10
246.8352243009
 20
147.4901791078
 10
247.7072668706
 20
148.1195682432
 10
248.4522400569
 20
148.8723479434
 10
248.7679785434
 20
149.2839841942
  0
LWPOLYLINE
  5
2D0
330
1F
100
AcDbEntity
  8
0
  6
Continuous
 62
     7
370
    35
100
AcDbPolyline
 90
       40
 70
   128
 43
0.0
 10
235.9961984757
 20
152.130193947
 10
235.3238747663
 20
153.009484941
 10
234.7924299724
 20
153.9477275215
 10
234.4156282352
 20
154.9206216983
 10
234.2032285217
 20
155.9029700233
 10
234.1607318728
 20
156.8693301909
 10
234.2892389296
 20
157.7946739803
 10
234.5854214267
 20
158.6550354736
 10
235.041608393
 20
159.4281317599
 10
235.6459848257
 20
160.0939400515
 10
236.3828976927
 20
160.6352162634
 10
237.2332613378
 20
161.037941626
 10
238.1750517892
 20
161.2916857639
 10
239.183877169
 20
161.3898768374
 10
240.2336094298
 20
161.3299717491
 10
241.2970610574
 20
161.1135220094
 10
242.3466892132
 20
160.7461335528
 10
243.3553090794
 20
160.2373215474
 10
244.2967979312
 20
159.6002639569
 10
245.1467717019
 20
158.8514602382
 10
245.8832165173
 20
158.0103040143
 10
246.4870588436
 20
157.0985807895
 10
246.9426594816
 20
156.1399037166
 10
247.2382186142
 20
155.159102028
 10
247.366081415
 20
154.1815779724
 10
247.3229363048
 20
153.2326489093
 10
247.1099007191
 20
152.336891603
 10
246.7324921678
 20
151.5175056972
 10
246.200485334
 20
150.7957128565
 10
245.5276589154
 20
150.1902071363
 10
244.7314387628
 20
149.7166708167
 10
243.8324465598
 20
149.3873682396
 10
242.8539657323
 20
149.2108281689
 10
241.8213384198
 20
149.1916228995
 10
240.7613091273
 20
149.330249838
 10
239.7013320566
 20
149.6231186193
 10
238.668860057
 20
150.062644096
 10
237.6906336111
 20
150.637442789
 10
236.7919882699
 20
151.3326277141
 10
235.9961984757
 20
152.130193947
  0
ARC
  5
2D1
330
1F
100
AcDbEntity
  8
0
  6
Continuous
 62
     7
370
    35
100
AcDbCircle
 10
236.9926226192
 20
149.9206203408
 30
0.0
 40
8.87813000604024
100
AcDbArc
 50
3.4454799089
 51
106.3531770984
  0
LWPOLYLINE
  5
2D2
330
1F
100
AcDbEntity
  8
0
  6
Continuous
 62
     7
370
    35
100
AcDbPolyline
 90
       31
 70
   128
 43
0.0
 10
249.1669251107
 20
149.8745793535
 10
248.9591197693
 20
149.1421106914
 10
248.5213642201
 20
148.1424267915
 10
247.9296935888
 20
147.2348402701
 10
247.1942315239
 20
146.4348801842
 10
246.3275619853
 20
145.7562340728
 10
245.3445139291
 20
145.2105137589
 10
244.2619075801
 20
144.8070566683
 10
243.0982666331
 20
144.5527660639
 10
241.8735013072
 20
144.4519929282
 10
240.6085676769
 20
144.5064615177
 10
239.3251091071
 20
144.7152398596
 10
238.0450859299
 20
145.0747556987
 10
236.7903996968
 20
145.5788576192
 10
235.582518437
 20
146.2189202975
 10
234.4421093337
 20
146.9839920838
 10
233.388685103
 20
147.8609823876
 10
232.4402701255
 20
148.8348856617
 10
231.6130920443
 20
149.8890381511
 10
230.9213041059
 20
151.0054030144
 10
230.3767429936
 20
152.1648789393
 10
229.988726299
 20
153.3476269712
 10
229.7638930954
 20
154.5334099635
 10
229.7060903411
 20
155.7019388403
 10
229.8163070575
 20
156.8332197485
 10
230.0926574058
 20
157.9078961583
 10
230.530412955
 20
158.9075800582
 10
231.1220835863
 20
159.8151665796
 10
231.8575456512
 20
160.6151266655
 10
232.7242151898
 20
161.2937727769
 10
232.8256737599
 20
161.3596892772
  0
LWPOLYLINE
  5
2D3
330
1F
100
AcDbEntity
  8
0
  6
Continuous
 62
     7
370
    35
100
AcDbPolyline
 90
       26
 70
   128
 43
0.0
 10
247.7628364702
 20
146.9843045405
 10
247.5761401982
 20
146.7317972117
 10
246.8406781333
 20
145.9318371259
 10
245.9740085947
 20
145.2531910144
 10
244.9909605386
 20
144.7074707005
 10
243.9083541895
 20
144.30401361
 10
242.7447132425
 20
144.0497230055
 10
241.5199479166
 20
143.9489498699
 10
240.2550142863
 20
144.0034184594
 10
238.9715557165
 20
144.2121968013
 10
237.6915325393
 20
144.5717126403
 10
236.4368463062
 20
145.0758145608
 10
235.2289650464
 20
145.7158772391
 10
234.0885559431
 20
146.4809490254
 10
233.0351317124
 20
147.3579393292
 10
232.0867167349
 20
148.3318426033
 10
231.2595386537
 20
149.3859950927
 10
230.5677507153
 20
150.502359956
 10
230.023189603
 20
151.6618358809
 10
229.6351729084
 20
152.8445839129
 10
229.4103397048
 20
154.0303669051
 10
229.3525369505
 20
155.1988957819
 10
229.4627536669
 20
156.3301766902
 10
229.7391040152
 20
157.4048530999
 10
230.1768595644
 20
158.4045369999
 10
230.5818339236
 20
159.0596161925
  0
LWPOLYLINE
  5
2D4
330
1F
100
AcDbEntity
  8
0
  6
Continuous
 62
     7
370
    35
100
AcDbPolyline
 90
       48
 70
   128
 43
0.0
 10
210.454942214
 20
163.7503190102
 10
211.011962726
 20
163.685355793
 10
211.7131021513
 20
163.6937916201
 10
212.5458486402
 20
163.7754759539
 10
213.495341812
 20
163.9289511356
 10
214.5446379383
 20
164.1514783969
 10
215.6750123051
 20
164.4390867336
 10
216.866293355
 20
164.786643768
 10
218.0972226493
 20
165.1879473367
 10
219.3458342258
 20
165.635836168
 10
220.5898465811
 20
166.1223176751
 10
221.8070602855
 20
166.6387105839
 10
222.9757541314
 20
167.1757998507
 10
224.0750727496
 20
167.7240011049
 10
225.0853987732
 20
168.2735316822
 10
225.9887029104
 20
168.8145851962
 10
226.7688656774
 20
169.3375065343
 10
227.4119650513
 20
169.8329641528
 10
227.9065249085
 20
170.2921165988
 10
228.2437198165
 20
170.7067702859
 10
228.4175325243
 20
171.0695257093
 10
228.42486134
 20
171.3739094899
 10
228.2655754806
 20
171.6144898919
 10
227.9425174062
 20
171.7869737523
 10
227.4614520957
 20
171.8882830926
 10
226.830964171
 20
171.9166100452
 10
226.062304704
 20
171.8714491149
 10
225.1691904412
 20
171.7536061996
 10
224.1675590276
 20
171.5651842089
 10
223.0752845996
 20
171.3095455377
 10
221.9118588204
 20
170.9912520642
 10
220.6980430503
 20
170.6159837429
 10
219.4554978607
 20
170.190437246
 10
218.2063964998
 20
169.7222064606
 10
216.9730292111
 20
169.2196469764
 10
215.777405463
 20
168.6917269791
 10
214.6408611896
 20
168.1478672137
 10
213.5836780505
 20
167.5977728705
 10
212.6247215038
 20
167.0512603962
 10
211.7811041517
 20
166.5180823188
 10
211.0678803659
 20
166.0077532136
 10
210.4977776418
 20
165.5293799158
 10
210.080969476
 20
165.091499008
 10
209.8248938201
 20
164.7019244856
 10
209.7341203502
 20
164.367608315
 10
209.810268921
 20
164.0945163762
 10
210.0519806595
 20
163.8875220015
 10
210.454942214
 20
163.7503190102
  0
LWPOLYLINE
  5
2D5
330
1F
100
AcDbEntity
  8
0
  6
Continuous
 62
     7
370
    35
100
AcDbPolyline
 90
       25
 70
   128
 43
0.0
 10
209.9420001466
 20
163.7257002736
 10
210.0874070754
 20
163.5268740491
 10
210.4104651498
 20
163.3543901887
 10
210.8915304603
 20
163.2530808484
 10
211.522018385
 20
163.2247538959
 10
212.290677852
 20
163.2699148262
 10
213.1837921149
 20
163.3877577415
 10
214.1854235284
 20
163.5761797322
 10
215.2776979564
 20
163.8318184033
 10
216.4411237357
 20
164.1501118768
 10
217.6549395057
 20
164.5253801981
 10
218.8974846954
 20
164.9509266951
 10
220.1465860562
 20
165.4191574804
 10
221.3799533449
 20
165.9217169647
 10
222.575577093
 20
166.4496369619
 10
223.7121213664
 20
166.9934967273
 10
224.7693045055
 20
167.5435910705
 10
225.7282610523
 20
168.0901035448
 10
226.5718784044
 20
168.6232816223
 10
227.2851021901
 20
169.1336107274
 10
227.8552049142
 20
169.6119840253
 10
228.27201308
 20
170.049864933
 10
228.528088736
 20
170.4394394555
 10
228.6188622059
 20
170.7737556261
 10
228.5877591048
 20
170.9600401103
  0
LWPOLYLINE
  5
2D6
330
1F
100
AcDbEntity
  8
0
  6
Continuous
 62
     7
370
    35
100
AcDbPolyline
 90
       40
 70
   128
 43
0.0
 10
212.9893915386
 20
164.9387474514
 10
212.6602851215
 20
165.0617201647
 10
212.4976558094
 20
165.2555738764
 10
212.5057156158
 20
165.515287877
 10
212.6842557961
 20
165.8341357103
 10
213.0286522535
 20
166.2038593851
 10
213.5299853004
 20
166.6148832522
 10
214.1752706745
 20
167.0565620095
 10
214.9477958233
 20
167.5174564092
 10
215.8275527515
 20
167.9856295283
 10
216.7917562166
 20
168.448955929
 10
217.8154338553
 20
168.895435701
 10
218.8720729546
 20
169.3135052526
 10
219.9343071168
 20
169.692336802
 10
220.9746250351
 20
170.0221188112
 10
221.9660830218
 20
170.2943100993
 10
222.8830028358
 20
170.5018610548
 10
223.7016367357
 20
170.6393962172
 10
224.4007825334
 20
170.703353498
 10
224.96233272
 20
170.692076437
 10
225.3717434406
 20
170.6058571044
 10
225.6184111727
 20
170.4469285356
 10
225.6959473515
 20
170.2194068969
 10
225.6023438307
 20
169.9291848793
 10
225.3400248924
 20
169.5837790807
 10
224.9157844593
 20
169.1921353297
 10
224.3406101357
 20
168.7643969939
 10
223.6293986345
 20
168.3116422714
 10
222.80056996
 20
167.8455972717
 10
221.8755903395
 20
167.3783323155
 10
220.8784162593
 20
166.9219493197
 10
219.8348740043
 20
166.4882683642
 10
218.7719907707
 20
166.088521558
 10
217.717294676
 20
165.7330621333
 10
216.6981017951
 20
165.4310963025
 10
215.7408086881
 20
165.1904448221
 10
214.8702087438
 20
165.0173404389
 10
214.1088500434
 20
164.9162664656
 10
213.4764513772
 20
164.889840665
 10
212.9893915386
 20
164.9387474514
  0
LWPOLYLINE
  5
2D7
330
1F
100
AcDbEntity
  8
0
  6
Continuous
 62
     7
370
    35
100
AcDbPolyline
 90
       26
 70
   128
 43
0.0
 10
230.4681166411
 20
167.4959101491
 10
230.5009133747
 20
167.3201755321
 10
230.4200788257
 20
166.9808417915
 10
230.1725733117
 20
166.5853356941
 10
229.7626317207
 20
166.1404244589
 10
229.197268267
 20
165.6537206406
 10
228.486156476
 20
165.1335518762
 10
227.6414636676
 20
164.5888183978
 10
226.67764277
 20
164.028840746
 10
225.611185026
 20
163.4632002938
 10
224.4603378231
 20
162.9015753061
 10
223.2447924762
 20
162.3535753421
 10
221.9853473031
 20
161.8285768333
 10
220.70355176
 20
161.3355626496
 10
219.4213377238
 20
160.8829684004
 10
218.1606442325
 20
160.4785380988
 10
216.9430421009
 20
160.1291916594
 10
215.7893648393
 20
159.8409064966
 10
214.7193521855
 20
159.6186152494
 10
213.7513123525
 20
159.4661213829
 10
212.9018087704
 20
159.3860341092
 10
212.185376681
 20
159.3797237439
 10
211.6142744359
 20
159.447298259
 10
211.1982737528
 20
159.5876014358
 10
210.9444925189
 20
159.7982326482
 10
210.890069735
 20
159.8998533206
  0
LWPOLYLINE
  5
2D8
330
1F
100
AcDbEntity
  8
0
  6
Continuous
 62
     7
370
    35
100
AcDbPolyline
 90
       33
 70
   128
 43
0.0
 10
229.3903585496
 20
168.859712325
 10
229.8063592326
 20
168.7194091481
 10
230.0601404665
 20
168.5087779358
 10
230.1473599841
 20
168.2314226463
 10
230.0665254351
 20
167.8920889057
 10
229.8190199211
 20
167.4965828084
 10
229.4090783301
 20
167.0516715732
 10
228.8437148764
 20
166.5649677548
 10
228.1326030854
 20
166.0447989905
 10
227.2879102771
 20
165.5000655121
 10
226.3240893794
 20
164.9400878603
 10
225.2576316354
 20
164.374447408
 10
224.1067844325
 20
163.8128224203
 10
222.8912390856
 20
163.2648224564
 10
221.6317939125
 20
162.7398239476
 10
220.3499983694
 20
162.2468097639
 10
219.0677843333
 20
161.7942155147
 10
217.8070908419
 20
161.3897852131
 10
216.5894887103
 20
161.0404387736
 10
215.4358114488
 20
160.7521536108
 10
214.3657987949
 20
160.5298623637
 10
213.397758962
 20
160.3773684972
 10
212.5482553798
 20
160.2972812235
 10
211.8318232904
 20
160.2909708581
 10
211.2607210453
 20
160.3585453733
 10
210.8447203623
 20
160.4988485501
 10
210.5909391283
 20
160.7094797625
 10
210.5037196108
 20
160.9868350519
 10
210.5845541598
 20
161.3261687925
 10
210.8320596738
 20
161.7216748899
 10
211.2420012648
 20
162.166586125
 10
211.8073647185
 20
162.6532899434
 10
211.8504311543
 20
162.687078404
  0
ARC
  5
2D9
330
1F
100
AcDbEntity
  8
0
  6
Continuous
 62
     7
370
    35
100
AcDbCircle
 10
228.4446391215
 20
162.8254059121
 30
0.0
 40
6.107965219436786
100
AcDbArc
 50
81.0928430236
 51
95.8925077558
  0
LINE
  5
2DA
330
1F
100
AcDbEntity
  8
0
  6
Continuous
 62
     7
370
    35
100
AcDbLine
 10
196.9257141925
 20
139.5390609078
 30
0.0
 11
196.9307041306
 21
139.2077807362
 31
0.0
  0
LINE
  5
2DB
330
1F
100
AcDbEntity
  8
0
  6
Continuous
 62
     7
370
    35
100
AcDbLine
 10
262.9207242544
 20
139.2077807362
 30
0.0
 11
262.9257141925
 21
139.5390609078
 31
0.0
  0
ARC
  5
2DC
330
1F
100
AcDbEntity
  8
0
  6
Continuous
 62
     7
370
    35
100
AcDbCircle
 10
231.4447676431
 20
118.3763070062
 30
0.0
 40
36.033044682324
100
AcDbArc
 50
66.5457078808
 51
80.1386407528
  0
LINE
  5
2DD
330
1F
100
AcDbEntity
  8
0
  6
Continuous
 62
     7
370
    35
100
AcDbLine
 10
235.5410943078
 20
154.1942972295
 30
0.0
 11
234.6363712992
 21
154.3001362301
 31
0.0
  0
LWPOLYLINE
  5
2DE
330
1F
100
AcDbEntity
  8
0
  6
Continuous
 62
     7
370
    35
100
AcDbPolyline
 90
        3
 70
   128
 43
0.0
 10
262.9207242544
 20
139.2077807362
 10
262.9243054787
 20
139.363037255
 10
262.9257141925
 20
139.5390609078
  0
LWPOLYLINE
  5
2DF
330
1F
100
AcDbEntity
  8
0
  6
Continuous
 62
     7
370
    35
100
AcDbPolyline
 90
        3
 70
   128
 43
0.0
 10
196.9257141925
 20
139.8656772325
 10
196.938391895
 20
139.3376663861
 10
196.9514416178
 20
139.1135734345
  0
LWPOLYLINE
  5
2E0
330
1F
100
AcDbEntity
  8
0
  6
Continuous
 62
     7
370
    35
100
AcDbPolyline
 90
        3
 70
   128
 43
0.0
 10
262.8999867672
 20
139.1135734345
 10
262.9243054787
 20
139.6896535797
 10
262.9257141925
 20
139.8656772325
  0
ARC
  5
2E1
330
1F
100
AcDbEntity
  8
0
  6
Continuous
 62
     7
370
    35
100
AcDbCircle
 10
231.6149955334
 20
119.2651951465
 30
0.0
 40
35.44999831033685
100
AcDbArc
 50
66.5459974222
 51
80.2540655214
  0
LINE
  5
2E2
330
1F
100
AcDbEntity
  8
0
  6
Continuous
 62
     7
370
    35
100
AcDbLine
 10
236.4368616264
 20
151.6632615392
 30
0.0
 11
237.61595606
 21
154.2035816714
 31
0.0
  0
LINE
  5
2E3
330
1F
100
AcDbEntity
  8
0
  6
Continuous
 62
     7
370
    35
100
AcDbLine
 10
235.6841044075
 20
154.5024077801
 30
0.0
 11
234.506947607
 21
154.6403217765
 31
0.0
  0
LINE
  5
2E4
330
1F
100
AcDbEntity
  8
0
  6
Continuous
 62
     7
370
    35
100
AcDbLine
 10
235.6841044075
 20
154.5024077801
 30
0.0
 11
235.1322932415
 21
153.3135487929
 31
0.0
  0
LINE
  5
2E5
330
1F
100
AcDbEntity
  8
0
  6
Continuous
 62
     7
370
    35
100
AcDbLine
 10
237.61595606
 20
153.8769653466
 30
0.0
 11
237.61595606
 21
154.2035816714
 31
0.0
  0
ARC
  5
2E6
330
1F
100
AcDbEntity
  8
0
  6
Continuous
 62
     7
370
    35
100
AcDbCircle
 10
231.6237841573
 20
118.9745997962
 30
0.0
 40
35.41300954630343
100
AcDbArc
 50
66.4261344608
 51
80.2582141728
  0
LINE
  5
2E7
330
1F
100
AcDbEntity
  8
0
  6
Continuous
 62
     7
370
    35
100
AcDbLine
 10
237.61595606
 20
153.8769653466
 30
0.0
 11
236.5414725481
 21
151.5620260007
 31
0.0
  0
LWPOLYLINE
  5
2E8
330
1F
100
AcDbEntity
  8
0
  6
Continuous
 62
     7
370
    35
100
AcDbPolyline
 90
       42
 70
   128
 43
0.0
 10
201.9860405074
 20
141.7026950254
 10
201.971591068
 20
141.4155174994
 10
202.0169327579
 20
140.1159285016
 10
202.2432736049
 20
138.8226598991
 10
202.6491457018
 20
137.544099035
 10
203.2319168122
 20
136.288537867
 10
203.9878074418
 20
135.0641191913
 10
204.91191535
 20
133.8787838328
 10
205.9982473422
 20
132.740219146
 10
207.2397581386
 20
131.6558091599
 10
208.6283960654
 20
130.6325866894
 10
210.1551552727
 20
129.6771877249
 10
211.8101341412
 20
128.7958083952
 10
213.5825994978
 20
127.9941647836
 10
215.4610562246
 20
127.2774558563
 10
217.4333218089
 20
126.650329746
 10
219.4866053515
 20
126.116853606
 10
221.6075905207
 20
125.6804872338
 10
223.7825219139
 20
125.3440606328
 10
225.9972942664
 20
125.1097556586
 10
228.2375439295
 20
124.9790918689
 10
230.4887420246
 20
124.9529166685
 10
232.7362886681
 20
125.0313998135
 10
234.9656076577
 20
125.2140323108
 10
237.1622410041
 20
125.4996297184
 10
239.3119426974
 20
125.8863398276
 10
241.4007710969
 20
126.3716546749
 10
243.4151793491
 20
126.9524268073
 10
245.3421032435
 20
127.6248896947
 10
247.169045939
 20
128.3846821573
 10
248.8841590114
 20
129.2268766492
 10
250.4763192942
 20
130.1460112161
 10
251.935201017
 20
131.1361249177
 10
253.251342772
 20
132.1907964865
 10
254.4162088749
 20
133.3031859728
 10
255.422244722
 20
134.4660791039
 10
256.2629257847
 20
135.6719340717
 10
256.9327999239
 20
136.9129304438
 10
257.4275227487
 20
138.1810198827
 10
257.7438857916
 20
139.4679783417
 10
257.879837317
 20
140.7654594013
 10
257.8653878776
 20
141.7026950254
  0
ARC
  5
2E9
330
1F
100
AcDbEntity
  8
0
  6
Continuous
 62
     7
370
    35
100
AcDbCircle
 10
231.088729004
 20
117.7329125569
 30
0.0
 40
37.06536218241951
100
AcDbArc
 50
66.7424410717
 51
84.7085859881
  0
LWPOLYLINE
  5
2EA
330
1F
100
AcDbEntity
  8
0
  6
Continuous
 62
     7
370
    35
100
AcDbPolyline
 90
       16
 70
   128
 43
0.0
 10
254.040432889
 20
154.0952359815
 10
254.9198289916
 20
153.5295883155
 10
256.4429108238
 20
152.4300162857
 10
257.8211649233
 20
151.2685116871
 10
259.0470637444
 20
150.0514182549
 10
260.1139118526
 20
148.7853833316
 10
261.0158824936
 20
147.4773215608
 10
261.7480494166
 20
146.1343771224
 10
262.3064137796
 20
144.7638847131
 10
262.6879259902
 20
143.3733294872
 10
262.890502361
 20
141.9703061752
 10
262.91303649
 20
140.5624776039
 10
262.7554053037
 20
139.1575328448
 10
262.418469729
 20
137.7631452188
 10
261.9040699911
 20
136.3869303878
 10
261.5782558831
 20
135.7022999169
  0
LWPOLYLINE
  5
2EB
330
1F
100
AcDbEntity
  8
0
  6
Continuous
 62
     7
370
    35
100
AcDbPolyline
 90
       16
 70
   128
 43
0.0
 10
198.2731725019
 20
135.702299917
 10
197.8022583986
 20
136.728867258
 10
197.3319989529
 20
138.1103345347
 10
197.0397550772
 20
139.5080783786
 10
196.9271229063
 20
140.9144647976
 10
196.994717598
 20
142.3218125967
 10
197.2421699736
 20
143.7224353303
 10
197.668128534
 20
145.1086832828
 10
198.2702668413
 20
146.4729852485
 10
199.0452962247
 20
147.8078898832
 10
199.9889837427
 20
149.1061064006
 10
201.0961753012
 20
150.3605443924
 10
202.3608238038
 20
151.5643525532
 10
203.776022179
 20
152.7109561004
 10
205.334041104
 20
153.7940926828
 10
205.810995496
 20
154.0952359815
  0
LWPOLYLINE
  5
2EC
330
1F
100
AcDbEntity
  8
0
  6
Continuous
 62
     7
370
    35
100
AcDbPolyline
 90
        9
 70
   128
 43
0.0
 10
206.9447438039
 20
127.8238566332
 10
207.3714765831
 20
127.6513621939
 10
207.8746703616
 20
127.57352628
 10
208.3936325434
 20
127.5997370517
 10
208.8657686302
 20
127.7268331029
 10
209.2341320421
 20
127.9394847741
 10
209.4542927151
 20
128.2120431355
 10
209.4996960228
 20
128.5116336261
 10
209.4658671108
 20
128.6336655169
  0
LWPOLYLINE
  5
2ED
330
1F
100
AcDbEntity
  8
0
  6
Continuous
 62
     7
370
    35
100
AcDbPolyline
 90
        5
 70
   128
 43
0.0
 10
206.5667479234
 20
128.6812679328
 10
206.5565152363
 20
128.6602822987
 10
206.5111119286
 20
128.3606918081
 10
206.6459422952
 20
128.070204223
 10
206.9447438039
 20
127.8238566332
  0
LWPOLYLINE
  5
2EE
330
1F
100
AcDbEntity
  8
0
  6
Continuous
 62
     7
370
    35
100
AcDbPolyline
 90
       12
 70
   128
 43
0.0
 10
197.4905556836
 20
141.3423341791
 10
197.4257141925
 20
141.0904884504
 10
197.5161752613
 20
140.7943224113
 10
197.7766475278
 20
140.5338783675
 10
198.1757141925
 20
140.3405697144
 10
198.665241926
 20
140.2377123285
 10
199.186186459
 20
140.2377123285
 10
199.6757141925
 20
140.3405697144
 10
200.0747808572
 20
140.5338783675
 10
200.3352531237
 20
140.7943224113
 10
200.4257141925
 20
141.0904884504
 10
200.3643181927
 20
141.3356954617
  0
LINE
  5
2EF
330
1F
100
AcDbEntity
  8
0
  6
Continuous
 62
     7
370
    35
100
AcDbLine
 10
262.4257141925
 20
141.0904884504
 30
0.0
 11
262.3868478929
 21
141.2863313898
 31
0.0
  0
LWPOLYLINE
  5
2F0
330
1F
100
AcDbEntity
  8
0
  6
Continuous
 62
     7
370
    35
100
AcDbPolyline
 90
       12
 70
   128
 43
0.0
 10
259.4852287676
 20
141.3319864277
 10
259.4257141925
 20
141.0904884504
 10
259.5161752613
 20
140.7943224113
 10
259.7766475278
 20
140.5338783675
 10
260.1757141925
 20
140.3405697144
 10
260.665241926
 20
140.2377123285
 10
261.186186459
 20
140.2377123285
 10
261.6757141925
 20
140.3405697144
 10
262.0747808572
 20
140.5338783675
 10
262.3352531237
 20
140.7943224113
 10
262.4257141925
 20
141.0904884504
 10
262.4257141925
 20
141.0904884504
  0
LWPOLYLINE
  5
2F1
330
1F
100
AcDbEntity
  8
0
  6
Continuous
 62
     7
370
    35
100
AcDbPolyline
 90
        5
 70
   128
 43
0.0
 10
252.9066845811
 20
127.8238566332
 10
253.2054860898
 20
128.070204223
 10
253.3403164564
 20
128.3606918081
 10
253.2949131487
 20
128.6602822987
 10
253.2854141916
 20
128.6798280952
  0
LWPOLYLINE
  5
2F2
330
1F
100
AcDbEntity
  8
0
  6
Continuous
 62
     7
370
    35
100
AcDbPolyline
 90
        9
 70
   128
 43
0.0
 10
250.4140742218
 20
128.6940227738
 10
250.3517323621
 20
128.5116336261
 10
250.3971356698
 20
128.2120431355
 10
250.6172963428
 20
127.9394847741
 10
250.9856597547
 20
127.7268331029
 10
251.4577958416
 20
127.5997370517
 10
251.9767580234
 20
127.57352628
 10
252.4799518019
 20
127.6513621939
 10
252.9066845811
 20
127.8238566332
  0
LWPOLYLINE
  5
2F3
330
1F
100
AcDbEntity
  8
0
  6
Continuous
 62
     7
370
    35
100
AcDbPolyline
 90
        6
 70
   128
 43
0.0
 10
230.4723754228
 20
122.3881909084
 10
230.889895607
 20
122.5312273098
 10
231.2247522982
 20
122.7616035916
 10
231.402925822
 20
123.0442019369
 10
231.402925822
 20
123.3449368145
 10
231.3849160575
 20
123.3951549816
  0
LWPOLYLINE
  5
2F4
330
1F
100
AcDbEntity
  8
0
  6
Continuous
 62
     7
370
    35
100
AcDbPolyline
 90
        6
 70
   128
 43
0.0
 10
228.474044951
 20
123.4126102745
 10
228.448502563
 20
123.3449368145
 10
228.448502563
 20
123.0442019369
 10
228.6266760868
 20
122.7616035916
 10
228.961532778
 20
122.5312273098
 10
229.3790529622
 20
122.3881909084
  0
LWPOLYLINE
  5
2F5
330
1F
100
AcDbEntity
  8
0
  6
Continuous
 62
     7
370
    35
100
AcDbPolyline
 90
        3
 70
   128
 43
0.0
 10
262.9257141925
 20
139.8656772325
 10
262.91303649
 20
139.3376663861
 10
262.8999867672
 20
139.1135734345
  0
LWPOLYLINE
  5
2F6
330
1F
100
AcDbEntity
  8
0
  6
Continuous
 62
     7
370
    35
100
AcDbPolyline
 90
        3
 70
   128
 43
0.0
 10
196.9514416178
 20
139.1135734345
 10
196.9271229063
 20
139.6896535797
 10
196.9257141925
 20
139.8656772325
  0
LINE
  5
2F7
330
1F
100
AcDbEntity
  8
0
  6
Continuous
 62
     7
370
    35
100
AcDbLine
 10
231.3834382272
 20
122.9904341727
 30
0.0
 11
231.2940301274
 21
123.141089826
 31
0.0
  0
LINE
  5
2F8
330
1F
100
AcDbEntity
  8
0
  6
Continuous
 62
     7
370
    35
100
AcDbLine
 10
228.5419544454
 20
123.1205325833
 30
0.0
 11
228.4679901578
 21
122.9904341727
 31
0.0
  0
LWPOLYLINE
  5
2F9
330
1F
100
AcDbEntity
  8
0
  6
Continuous
 62
     7
370
    35
100
AcDbPolyline
 90
        3
 70
   128
 43
0.0
 10
228.6827507804
 20
122.7098394925
 10
228.6757141925
 20
122.7862989698
 10
228.6937460695
 20
122.9084257425
  0
LWPOLYLINE
  5
2FA
330
1F
100
AcDbEntity
  8
0
  6
Continuous
 62
     7
370
    35
100
AcDbPolyline
 90
        3
 70
   128
 43
0.0
 10
231.1563699884
 20
122.9127583359
 10
231.1757141925
 20
122.7862989698
 10
231.1686776046
 20
122.7098394925
  0
LWPOLYLINE
  5
2FB
330
1F
100
AcDbEntity
  8
0
  6
Continuous
 62
     7
370
    35
100
AcDbPolyline
 90
        3
 70
   128
 43
0.0
 10
253.303748444
 20
128.2320275141
 10
253.2949131487
 20
128.2520118928
 10
253.2221711321
 20
128.3724417788
  0
LINE
  5
2FC
330
1F
100
AcDbEntity
  8
0
  6
Continuous
 62
     7
370
    35
100
AcDbLine
 10
250.469384749
 20
128.3717849057
 30
0.0
 11
250.3883003746
 21
128.2320275141
 31
0.0
  0
LINE
  5
2FD
330
1F
100
AcDbEntity
  8
0
  6
Continuous
 62
     7
370
    35
100
AcDbLine
 10
209.4631280104
 20
128.2320275141
 30
0.0
 11
209.3807260314
 21
128.3735373898
 31
0.0
  0
LWPOLYLINE
  5
2FE
330
1F
100
AcDbEntity
  8
0
  6
Continuous
 62
     7
370
    35
100
AcDbPolyline
 90
        3
 70
   128
 43
0.0
 10
206.6247738278
 20
128.3664115784
 10
206.5565152363
 20
128.2520118928
 10
206.547679941
 20
128.2320275141
  0
LWPOLYLINE
  5
2FF
330
1F
100
AcDbEntity
  8
0
  6
Continuous
 62
     7
370
    35
100
AcDbPolyline
 90
        3
 70
   128
 43
0.0
 10
250.6030609972
 20
127.951432834
 10
250.5960244093
 20
128.0278923112
 10
250.6141408157
 20
128.1503029163
  0
LWPOLYLINE
  5
300
330
1F
100
AcDbEntity
  8
0
  6
Continuous
 62
     7
370
    35
100
AcDbPolyline
 90
        3
 70
   128
 43
0.0
 10
253.0779476259
 20
128.1501699547
 10
253.0960244093
 20
128.0278923112
 10
253.0889878214
 20
127.951432834
  0
LWPOLYLINE
  5
301
330
1F
100
AcDbEntity
  8
0
  6
Continuous
 62
     7
370
    35
100
AcDbPolyline
 90
        3
 70
   128
 43
0.0
 10
206.7624405636
 20
127.9514328339
 10
206.7554039757
 20
128.0278923112
 10
206.7719386912
 20
128.1448744948
  0
LWPOLYLINE
  5
302
330
1F
100
AcDbEntity
  8
0
  6
Continuous
 62
     7
370
    35
100
AcDbPolyline
 90
        3
 70
   128
 43
0.0
 10
209.2392568882
 20
128.143504161
 10
209.2554039757
 20
128.0278923112
 10
209.2483673878
 20
127.9514328339
  0
LWPOLYLINE
  5
303
330
1F
100
AcDbEntity
  8
0
  6
Continuous
 62
     7
370
    35
100
AcDbPolyline
 90
        3
 70
   128
 43
0.0
 10
262.3834382272
 20
140.8863532474
 10
262.3352531237
 20
140.9783840835
 10
262.2941239274
 20
141.0368883165
  0
LWPOLYLINE
  5
304
330
1F
100
AcDbEntity
  8
0
  6
Continuous
 62
     7
370
    35
100
AcDbPolyline
 90
        3
 70
   128
 43
0.0
 10
259.5423915775
 20
141.0170541453
 10
259.5161752613
 20
140.9783840835
 10
259.4679901578
 20
140.8863532474
  0
LWPOLYLINE
  5
305
330
1F
100
AcDbEntity
  8
0
  6
Continuous
 62
     7
370
    35
100
AcDbPolyline
 90
        3
 70
   128
 43
0.0
 10
200.3834382272
 20
140.8863532474
 10
200.3352531237
 20
140.9783840835
 10
200.3087943511
 20
141.0173877676
  0
LWPOLYLINE
  5
306
330
1F
100
AcDbEntity
  8
0
  6
Continuous
 62
     7
370
    35
100
AcDbPolyline
 90
        3
 70
   128
 43
0.0
 10
197.5467988403
 20
141.0230586299
 10
197.5161752613
 20
140.9783840835
 10
197.4679901578
 20
140.8863532474
  0
LWPOLYLINE
  5
307
330
1F
100
AcDbEntity
  8
0
  6
Continuous
 62
     7
370
    35
100
AcDbPolyline
 90
        3
 70
   128
 43
0.0
 10
259.6827507803
 20
140.6057585677
 10
259.6757141925
 20
140.6822180444
 10
259.6947840036
 20
140.8077842528
  0
LWPOLYLINE
  5
308
330
1F
100
AcDbEntity
  8
0
  6
Continuous
 62
     7
370
    35
100
AcDbPolyline
 90
        3
 70
   128
 43
0.0
 10
262.1546273368
 20
140.8142043528
 10
262.1757141925
 20
140.6822180444
 10
262.1686776047
 20
140.6057585677
  0
LWPOLYLINE
  5
309
330
1F
100
AcDbEntity
  8
0
  6
Continuous
 62
     7
370
    35
100
AcDbPolyline
 90
        3
 70
   128
 43
0.0
 10
197.6827507804
 20
140.605758567
 10
197.6757141925
 20
140.6822180444
 10
197.6941133577
 20
140.8055732089
  0
LWPOLYLINE
  5
30A
330
1F
100
AcDbEntity
  8
0
  6
Continuous
 62
     7
370
    35
100
AcDbPolyline
 90
        3
 70
   128
 43
0.0
 10
200.1571123633
 20
140.8062456527
 10
200.1757141925
 20
140.6822180444
 10
200.1686776046
 20
140.605758567
  0
LWPOLYLINE
  5
30B
330
1F
100
AcDbEntity
  8
0
  6
Continuous
 62
     7
370
    35
100
AcDbPolyline
 90
       17
 70
   128
 43
0.0
 10
260.1125413941
 20
141.1109782732
 10
260.4856282453
 20
140.9670669907
 10
260.9257141925
 20
140.9165320686
 10
261.3658001397
 20
140.9670669907
 10
261.7388869909
 20
141.1109782732
 10
261.9881756549
 20
141.3263567279
 10
262.0757141925
 20
141.5804129375
 10
261.9881756549
 20
141.8344691471
 10
261.7388869909
 20
142.0498476018
 10
261.3658001397
 20
142.1937588843
 10
260.9257141925
 20
142.2442938064
 10
260.4856282453
 20
142.1937588843
 10
260.1125413941
 20
142.0498476018
 10
259.8632527301
 20
141.8344691471
 10
259.7757141925
 20
141.5804129375
 10
259.8632527301
 20
141.3263567279
 10
260.1125413941
 20
141.1109782732
  0
LINE
  5
30C
330
1F
100
AcDbEntity
  8
0
  6
Continuous
 62
     7
370
    35
100
AcDbLine
 10
260.9257141925
 20
141.7028741543
 30
0.0
 11
261.4913996174
 21
142.029437399
 31
0.0
  0
LINE
  5
30D
330
1F
100
AcDbEntity
  8
0
  6
Continuous
 62
     7
370
    35
100
AcDbLine
 10
260.3600287675
 20
142.029437399
 30
0.0
 11
260.9257141925
 21
141.7028741543
 31
0.0
  0
LINE
  5
30E
330
1F
100
AcDbEntity
  8
0
  6
Continuous
 62
     7
370
    35
100
AcDbLine
 10
260.1478967332
 20
141.9069761822
 30
0.0
 11
260.3600287675
 21
142.029437399
 31
0.0
  0
LINE
  5
30F
330
1F
100
AcDbEntity
  8
0
  6
Continuous
 62
     7
370
    35
100
AcDbLine
 10
260.1478967332
 20
141.9069761822
 30
0.0
 11
260.7135821581
 21
141.5804129375
 31
0.0
  0
LINE
  5
310
330
1F
100
AcDbEntity
  8
0
  6
Continuous
 62
     7
370
    35
100
AcDbLine
 10
260.1478967332
 20
141.2538496928
 30
0.0
 11
260.7135821581
 21
141.5804129375
 31
0.0
  0
LINE
  5
311
330
1F
100
AcDbEntity
  8
0
  6
Continuous
 62
     7
370
    35
100
AcDbLine
 10
260.1478967332
 20
141.2538496928
 30
0.0
 11
260.3600287675
 21
141.131388476
 31
0.0
  0
LINE
  5
312
330
1F
100
AcDbEntity
  8
0
  6
Continuous
 62
     7
370
    35
100
AcDbLine
 10
260.3600287675
 20
141.131388476
 30
0.0
 11
260.9257141925
 21
141.4579517207
 31
0.0
  0
LINE
  5
313
330
1F
100
AcDbEntity
  8
0
  6
Continuous
 62
     7
370
    35
100
AcDbLine
 10
260.9257141925
 20
141.4579517207
 30
0.0
 11
261.4913996174
 21
141.131388476
 31
0.0
  0
LINE
  5
314
330
1F
100
AcDbEntity
  8
0
  6
Continuous
 62
     7
370
    35
100
AcDbLine
 10
261.4913996174
 20
141.131388476
 30
0.0
 11
261.7035316518
 21
141.2538496928
 31
0.0
  0
LINE
  5
315
330
1F
100
AcDbEntity
  8
0
  6
Continuous
 62
     7
370
    35
100
AcDbLine
 10
261.1378462268
 20
141.5804129375
 30
0.0
 11
261.7035316518
 21
141.2538496928
 31
0.0
  0
LINE
  5
316
330
1F
100
AcDbEntity
  8
0
  6
Continuous
 62
     7
370
    35
100
AcDbLine
 10
261.1378462268
 20
141.5804129375
 30
0.0
 11
261.7035316518
 21
141.9069761822
 31
0.0
  0
LINE
  5
317
330
1F
100
AcDbEntity
  8
0
  6
Continuous
 62
     7
370
    35
100
AcDbLine
 10
261.4913996174
 20
142.029437399
 30
0.0
 11
261.7035316518
 21
141.9069761822
 31
0.0
  0
LINE
  5
318
330
1F
100
AcDbEntity
  8
0
  6
Continuous
 62
     7
370
    35
100
AcDbLine
 10
261.1378462268
 20
141.4171047751
 30
0.0
 11
261.5620873087
 21
141.1721956116
 31
0.0
  0
LINE
  5
319
330
1F
100
AcDbEntity
  8
0
  6
Continuous
 62
     7
370
    35
100
AcDbLine
 10
260.2893410762
 20
141.1721956116
 30
0.0
 11
260.7135821581
 21
141.4171047751
 31
0.0
  0
LINE
  5
31A
330
1F
100
AcDbEntity
  8
0
  6
Continuous
 62
     7
370
    35
100
AcDbLine
 10
260.2893410762
 20
141.825322101
 30
0.0
 11
260.3600287675
 21
141.8661292366
 31
0.0
  0
LINE
  5
31B
330
1F
100
AcDbEntity
  8
0
  6
Continuous
 62
     7
370
    35
100
AcDbLine
 10
260.3600287675
 20
141.8661292366
 30
0.0
 11
260.9257141925
 21
141.5395659919
 31
0.0
  0
LINE
  5
31C
330
1F
100
AcDbEntity
  8
0
  6
Continuous
 62
     7
370
    35
100
AcDbLine
 10
260.9257141925
 20
141.5395659919
 30
0.0
 11
261.4913996174
 21
141.8661292366
 31
0.0
  0
LINE
  5
31D
330
1F
100
AcDbEntity
  8
0
  6
Continuous
 62
     7
370
    35
100
AcDbLine
 10
261.4913996174
 20
141.8661292366
 30
0.0
 11
261.5620873087
 21
141.825322101
 31
0.0
  0
LINE
  5
31E
330
1F
100
AcDbEntity
  8
0
  6
Continuous
 62
     7
370
    35
100
AcDbLine
 10
260.7135821581
 20
141.5804129375
 30
0.0
 11
260.7135821581
 21
141.4171047751
 31
0.0
  0
LINE
  5
31F
330
1F
100
AcDbEntity
  8
0
  6
Continuous
 62
     7
370
    35
100
AcDbLine
 10
261.1378462268
 20
141.5804129375
 30
0.0
 11
261.1378462268
 21
141.4171047751
 31
0.0
  0
LINE
  5
320
330
1F
100
AcDbEntity
  8
0
  6
Continuous
 62
     7
370
    35
100
AcDbLine
 10
261.4913996174
 20
141.8661292366
 30
0.0
 11
261.4913996174
 21
142.029437399
 31
0.0
  0
LINE
  5
321
330
1F
100
AcDbEntity
  8
0
  6
Continuous
 62
     7
370
    35
100
AcDbLine
 10
260.9257141925
 20
141.7028741543
 30
0.0
 11
260.9257141925
 21
141.5395659919
 31
0.0
  0
LINE
  5
322
330
1F
100
AcDbEntity
  8
0
  6
Continuous
 62
     7
370
    35
100
AcDbLine
 10
260.3600287675
 20
141.8661292366
 30
0.0
 11
260.3600287675
 21
142.029437399
 31
0.0
  0
LWPOLYLINE
  5
323
330
1F
100
AcDbEntity
  8
0
  6
Continuous
 62
     7
370
    35
100
AcDbPolyline
 90
       17
 70
   128
 43
0.0
 10
229.1125413941
 20
124.1539285271
 10
228.8632527301
 20
123.9385500724
 10
228.7757141925
 20
123.6844938628
 10
228.8632527301
 20
123.4304376532
 10
229.1125413941
 20
123.2150591985
 10
229.4856282453
 20
123.071147916
 10
229.9257141925
 20
123.0206129939
 10
230.3658001397
 20
123.071147916
 10
230.7388869909
 20
123.2150591985
 10
230.9881756549
 20
123.4304376532
 10
231.0757141925
 20
123.6844938628
 10
230.9881756549
 20
123.9385500724
 10
230.7388869909
 20
124.1539285271
 10
230.3658001397
 20
124.2978398096
 10
229.9257141925
 20
124.3483747317
 10
229.4856282453
 20
124.2978398096
 10
229.1125413941
 20
124.1539285271
  0
LINE
  5
324
330
1F
100
AcDbEntity
  8
0
  6
Continuous
 62
     7
370
    35
100
AcDbLine
 10
230.1378462268
 20
123.6844938628
 30
0.0
 11
230.7035316518
 21
123.3579306181
 31
0.0
  0
LINE
  5
325
330
1F
100
AcDbEntity
  8
0
  6
Continuous
 62
     7
370
    35
100
AcDbLine
 10
230.7035316518
 20
124.0110571076
 30
0.0
 11
230.1378462268
 21
123.6844938628
 31
0.0
  0
LINE
  5
326
330
1F
100
AcDbEntity
  8
0
  6
Continuous
 62
     7
370
    35
100
AcDbLine
 10
230.4913996174
 20
124.1335183243
 30
0.0
 11
230.7035316518
 21
124.0110571076
 31
0.0
  0
LINE
  5
327
330
1F
100
AcDbEntity
  8
0
  6
Continuous
 62
     7
370
    35
100
AcDbLine
 10
230.4913996174
 20
124.1335183243
 30
0.0
 11
229.9257141925
 21
123.8069550796
 31
0.0
  0
LINE
  5
328
330
1F
100
AcDbEntity
  8
0
  6
Continuous
 62
     7
370
    35
100
AcDbLine
 10
229.3600287675
 20
124.1335183243
 30
0.0
 11
229.9257141925
 21
123.8069550796
 31
0.0
  0
LINE
  5
329
330
1F
100
AcDbEntity
  8
0
  6
Continuous
 62
     7
370
    35
100
AcDbLine
 10
229.3600287675
 20
124.1335183243
 30
0.0
 11
229.1478967332
 21
124.0110571076
 31
0.0
  0
LINE
  5
32A
330
1F
100
AcDbEntity
  8
0
  6
Continuous
 62
     7
370
    35
100
AcDbLine
 10
229.1478967332
 20
124.0110571076
 30
0.0
 11
229.7135821581
 21
123.6844938628
 31
0.0
  0
LINE
  5
32B
330
1F
100
AcDbEntity
  8
0
  6
Continuous
 62
     7
370
    35
100
AcDbLine
 10
229.7135821581
 20
123.6844938628
 30
0.0
 11
229.1478967332
 21
123.3579306181
 31
0.0
  0
LINE
  5
32C
330
1F
100
AcDbEntity
  8
0
  6
Continuous
 62
     7
370
    35
100
AcDbLine
 10
229.1478967332
 20
123.3579306181
 30
0.0
 11
229.3600287675
 21
123.2354694013
 31
0.0
  0
LINE
  5
32D
330
1F
100
AcDbEntity
  8
0
  6
Continuous
 62
     7
370
    35
100
AcDbLine
 10
229.9257141925
 20
123.5620326461
 30
0.0
 11
229.3600287675
 21
123.2354694013
 31
0.0
  0
LINE
  5
32E
330
1F
100
AcDbEntity
  8
0
  6
Continuous
 62
     7
370
    35
100
AcDbLine
 10
229.9257141925
 20
123.5620326461
 30
0.0
 11
230.4913996174
 21
123.2354694013
 31
0.0
  0
LINE
  5
32F
330
1F
100
AcDbEntity
  8
0
  6
Continuous
 62
     7
370
    35
100
AcDbLine
 10
230.7035316518
 20
123.3579306181
 30
0.0
 11
230.4913996174
 21
123.2354694013
 31
0.0
  0
LINE
  5
330
330
1F
100
AcDbEntity
  8
0
  6
Continuous
 62
     7
370
    35
100
AcDbLine
 10
229.7135821581
 20
123.5211857005
 30
0.0
 11
229.2893410762
 21
123.2762765369
 31
0.0
  0
LINE
  5
331
330
1F
100
AcDbEntity
  8
0
  6
Continuous
 62
     7
370
    35
100
AcDbLine
 10
229.3600287675
 20
123.970210162
 30
0.0
 11
229.2893410762
 21
123.9294030264
 31
0.0
  0
LINE
  5
332
330
1F
100
AcDbEntity
  8
0
  6
Continuous
 62
     7
370
    35
100
AcDbLine
 10
229.3600287675
 20
123.970210162
 30
0.0
 11
229.9257141925
 21
123.6436469172
 31
0.0
  0
LINE
  5
333
330
1F
100
AcDbEntity
  8
0
  6
Continuous
 62
     7
370
    35
100
AcDbLine
 10
230.4913996174
 20
123.970210162
 30
0.0
 11
229.9257141925
 21
123.6436469172
 31
0.0
  0
LINE
  5
334
330
1F
100
AcDbEntity
  8
0
  6
Continuous
 62
     7
370
    35
100
AcDbLine
 10
230.4913996174
 20
123.970210162
 30
0.0
 11
230.5620873087
 21
123.9294030264
 31
0.0
  0
LINE
  5
335
330
1F
100
AcDbEntity
  8
0
  6
Continuous
 62
     7
370
    35
100
AcDbLine
 10
230.1378462268
 20
123.5211857005
 30
0.0
 11
230.5620873087
 21
123.2762765369
 31
0.0
  0
LINE
  5
336
330
1F
100
AcDbEntity
  8
0
  6
Continuous
 62
     7
370
    35
100
AcDbLine
 10
230.1378462268
 20
123.6844938628
 30
0.0
 11
230.1378462268
 21
123.5211857005
 31
0.0
  0
LINE
  5
337
330
1F
100
AcDbEntity
  8
0
  6
Continuous
 62
     7
370
    35
100
AcDbLine
 10
229.7135821581
 20
123.6844938628
 30
0.0
 11
229.7135821581
 21
123.5211857005
 31
0.0
  0
LINE
  5
338
330
1F
100
AcDbEntity
  8
0
  6
Continuous
 62
     7
370
    35
100
AcDbLine
 10
230.4913996174
 20
123.970210162
 30
0.0
 11
230.4913996174
 21
124.1335183243
 31
0.0
  0
LINE
  5
339
330
1F
100
AcDbEntity
  8
0
  6
Continuous
 62
     7
370
    35
100
AcDbLine
 10
229.9257141925
 20
123.8069550796
 30
0.0
 11
229.9257141925
 21
123.6436469172
 31
0.0
  0
LINE
  5
33A
330
1F
100
AcDbEntity
  8
0
  6
Continuous
 62
     7
370
    35
100
AcDbLine
 10
229.3600287675
 20
123.970210162
 30
0.0
 11
229.3600287675
 21
124.1335183243
 31
0.0
  0
LWPOLYLINE
  5
33B
330
1F
100
AcDbEntity
  8
0
  6
Continuous
 62
     7
370
    35
100
AcDbPolyline
 90
       17
 70
   128
 43
0.0
 10
199.7388869909
 20
142.0498476018
 10
199.3658001397
 20
142.1937588843
 10
198.9257141925
 20
142.2442938064
 10
198.4856282453
 20
142.1937588843
 10
198.1125413941
 20
142.0498476018
 10
197.8632527301
 20
141.8344691471
 10
197.7757141925
 20
141.5804129375
 10
197.8632527301
 20
141.3263567279
 10
198.1125413941
 20
141.1109782732
 10
198.4856282453
 20
140.9670669907
 10
198.9257141925
 20
140.9165320686
 10
199.3658001397
 20
140.9670669907
 10
199.7388869909
 20
141.1109782732
 10
199.9881756549
 20
141.3263567279
 10
200.0757141925
 20
141.5804129375
 10
199.9881756549
 20
141.8344691471
 10
199.7388869909
 20
142.0498476018
  0
LINE
  5
33C
330
1F
100
AcDbEntity
  8
0
  6
Continuous
 62
     7
370
    35
100
AcDbLine
 10
198.9257141925
 20
141.4579517207
 30
0.0
 11
198.3600287675
 21
141.131388476
 31
0.0
  0
LINE
  5
33D
330
1F
100
AcDbEntity
  8
0
  6
Continuous
 62
     7
370
    35
100
AcDbLine
 10
199.4913996174
 20
141.131388476
 30
0.0
 11
198.9257141925
 21
141.4579517207
 31
0.0
  0
LINE
  5
33E
330
1F
100
AcDbEntity
  8
0
  6
Continuous
 62
     7
370
    35
100
AcDbLine
 10
199.7035316518
 20
141.2538496928
 30
0.0
 11
199.4913996174
 21
141.131388476
 31
0.0
  0
LINE
  5
33F
330
1F
100
AcDbEntity
  8
0
  6
Continuous
 62
     7
370
    35
100
AcDbLine
 10
199.7035316518
 20
141.2538496928
 30
0.0
 11
199.1378462268
 21
141.5804129375
 31
0.0
  0
LINE
  5
340
330
1F
100
AcDbEntity
  8
0
  6
Continuous
 62
     7
370
    35
100
AcDbLine
 10
199.7035316518
 20
141.9069761822
 30
0.0
 11
199.1378462268
 21
141.5804129375
 31
0.0
  0
LINE
  5
341
330
1F
100
AcDbEntity
  8
0
  6
Continuous
 62
     7
370
    35
100
AcDbLine
 10
199.7035316518
 20
141.9069761822
 30
0.0
 11
199.4913996174
 21
142.029437399
 31
0.0
  0
LINE
  5
342
330
1F
100
AcDbEntity
  8
0
  6
Continuous
 62
     7
370
    35
100
AcDbLine
 10
199.4913996174
 20
142.029437399
 30
0.0
 11
198.9257141925
 21
141.7028741543
 31
0.0
  0
LINE
  5
343
330
1F
100
AcDbEntity
  8
0
  6
Continuous
 62
     7
370
    35
100
AcDbLine
 10
198.9257141925
 20
141.7028741543
 30
0.0
 11
198.3600287675
 21
142.029437399
 31
0.0
  0
LINE
  5
344
330
1F
100
AcDbEntity
  8
0
  6
Continuous
 62
     7
370
    35
100
AcDbLine
 10
198.3600287675
 20
142.029437399
 30
0.0
 11
198.1478967332
 21
141.9069761822
 31
0.0
  0
LINE
  5
345
330
1F
100
AcDbEntity
  8
0
  6
Continuous
 62
     7
370
    35
100
AcDbLine
 10
198.7135821581
 20
141.5804129375
 30
0.0
 11
198.1478967332
 21
141.9069761822
 31
0.0
  0
LINE
  5
346
330
1F
100
AcDbEntity
  8
0
  6
Continuous
 62
     7
370
    35
100
AcDbLine
 10
198.7135821581
 20
141.5804129375
 30
0.0
 11
198.1478967332
 21
141.2538496928
 31
0.0
  0
LINE
  5
347
330
1F
100
AcDbEntity
  8
0
  6
Continuous
 62
     7
370
    35
100
AcDbLine
 10
198.3600287675
 20
141.131388476
 30
0.0
 11
198.1478967332
 21
141.2538496928
 31
0.0
  0
LINE
  5
348
330
1F
100
AcDbEntity
  8
0
  6
Continuous
 62
     7
370
    35
100
AcDbLine
 10
198.3600287675
 20
141.8661292366
 30
0.0
 11
198.2893410762
 21
141.825322101
 31
0.0
  0
LINE
  5
349
330
1F
100
AcDbEntity
  8
0
  6
Continuous
 62
     7
370
    35
100
AcDbLine
 10
198.9257141925
 20
141.5395659919
 30
0.0
 11
198.3600287675
 21
141.8661292366
 31
0.0
  0
LINE
  5
34A
330
1F
100
AcDbEntity
  8
0
  6
Continuous
 62
     7
370
    35
100
AcDbLine
 10
199.4913996174
 20
141.8661292366
 30
0.0
 11
198.9257141925
 21
141.5395659919
 31
0.0
  0
LINE
  5
34B
330
1F
100
AcDbEntity
  8
0
  6
Continuous
 62
     7
370
    35
100
AcDbLine
 10
199.5620873087
 20
141.825322101
 30
0.0
 11
199.4913996174
 21
141.8661292366
 31
0.0
  0
LINE
  5
34C
330
1F
100
AcDbEntity
  8
0
  6
Continuous
 62
     7
370
    35
100
AcDbLine
 10
199.5620873087
 20
141.1721956116
 30
0.0
 11
199.1378462268
 21
141.4171047751
 31
0.0
  0
LINE
  5
34D
330
1F
100
AcDbEntity
  8
0
  6
Continuous
 62
     7
370
    35
100
AcDbLine
 10
198.7135821581
 20
141.4171047751
 30
0.0
 11
198.2893410762
 21
141.1721956116
 31
0.0
  0
LINE
  5
34E
330
1F
100
AcDbEntity
  8
0
  6
Continuous
 62
     7
370
    35
100
AcDbLine
 10
199.1378462268
 20
141.5804129375
 30
0.0
 11
199.1378462268
 21
141.4171047751
 31
0.0
  0
LINE
  5
34F
330
1F
100
AcDbEntity
  8
0
  6
Continuous
 62
     7
370
    35
100
AcDbLine
 10
198.7135821581
 20
141.5804129375
 30
0.0
 11
198.7135821581
 21
141.4171047751
 31
0.0
  0
LINE
  5
350
330
1F
100
AcDbEntity
  8
0
  6
Continuous
 62
     7
370
    35
100
AcDbLine
 10
198.9257141925
 20
141.7028741543
 30
0.0
 11
198.9257141925
 21
141.5395659919
 31
0.0
  0
LINE
  5
351
330
1F
100
AcDbEntity
  8
0
  6
Continuous
 62
     7
370
    35
100
AcDbLine
 10
198.3600287675
 20
141.8661292366
 30
0.0
 11
198.3600287675
 21
142.029437399
 31
0.0
  0
LINE
  5
352
330
1F
100
AcDbEntity
  8
0
  6
Continuous
 62
     7
370
    35
100
AcDbLine
 10
199.4913996174
 20
141.8661292366
 30
0.0
 11
199.4913996174
 21
142.029437399
 31
0.0
  0
LWPOLYLINE
  5
353
330
1F
100
AcDbEntity
  8
0
  6
Continuous
 62
     7
370
    35
100
AcDbPolyline
 90
       17
 70
   128
 43
0.0
 10
208.0054039757
 20
129.5899680731
 10
207.5653180285
 20
129.539433151
 10
207.1922311773
 20
129.3955218685
 10
206.9429425133
 20
129.1801434138
 10
206.8554039757
 20
128.9260872042
 10
206.9429425133
 20
128.6720309946
 10
207.1922311773
 20
128.4566525399
 10
207.5653180285
 20
128.3127412574
 10
208.0054039757
 20
128.2622063353
 10
208.4454899229
 20
128.3127412574
 10
208.8185767741
 20
128.4566525399
 10
209.0678654381
 20
128.6720309946
 10
209.1554039757
 20
128.9260872042
 10
209.0678654381
 20
129.1801434138
 10
208.8185767741
 20
129.3955218685
 10
208.4454899229
 20
129.539433151
 10
208.0054039757
 20
129.5899680731
  0
LINE
  5
354
330
1F
100
AcDbEntity
  8
0
  6
Continuous
 62
     7
370
    35
100
AcDbLine
 10
208.1554039757
 20
128.8394940474
 30
0.0
 11
208.1554039757
 21
128.3776638778
 31
0.0
  0
LINE
  5
355
330
1F
100
AcDbEntity
  8
0
  6
Continuous
 62
     7
370
    35
100
AcDbLine
 10
208.9554039757
 20
128.8394940474
 30
0.0
 11
208.1554039757
 21
128.8394940474
 31
0.0
  0
LINE
  5
356
330
1F
100
AcDbEntity
  8
0
  6
Continuous
 62
     7
370
    35
100
AcDbLine
 10
208.9554039757
 20
129.0126803611
 30
0.0
 11
208.9554039757
 21
128.8394940474
 31
0.0
  0
LINE
  5
357
330
1F
100
AcDbEntity
  8
0
  6
Continuous
 62
     7
370
    35
100
AcDbLine
 10
208.9554039757
 20
129.0126803611
 30
0.0
 11
208.1554039757
 21
129.0126803611
 31
0.0
  0
LINE
  5
358
330
1F
100
AcDbEntity
  8
0
  6
Continuous
 62
     7
370
    35
100
AcDbLine
 10
208.1554039757
 20
129.4745105307
 30
0.0
 11
208.1554039757
 21
129.0126803611
 31
0.0
  0
LINE
  5
359
330
1F
100
AcDbEntity
  8
0
  6
Continuous
 62
     7
370
    35
100
AcDbLine
 10
208.1554039757
 20
129.4745105307
 30
0.0
 11
207.8554039757
 21
129.4745105307
 31
0.0
  0
LINE
  5
35A
330
1F
100
AcDbEntity
  8
0
  6
Continuous
 62
     7
370
    35
100
AcDbLine
 10
207.8554039757
 20
129.4745105307
 30
0.0
 11
207.8554039757
 21
129.0126803611
 31
0.0
  0
LINE
  5
35B
330
1F
100
AcDbEntity
  8
0
  6
Continuous
 62
     7
370
    35
100
AcDbLine
 10
207.8554039757
 20
129.0126803611
 30
0.0
 11
207.0554039757
 21
129.0126803611
 31
0.0
  0
LINE
  5
35C
330
1F
100
AcDbEntity
  8
0
  6
Continuous
 62
     7
370
    35
100
AcDbLine
 10
207.0554039757
 20
129.0126803611
 30
0.0
 11
207.0554039757
 21
128.8394940474
 31
0.0
  0
LINE
  5
35D
330
1F
100
AcDbEntity
  8
0
  6
Continuous
 62
     7
370
    35
100
AcDbLine
 10
207.8554039757
 20
128.8394940474
 30
0.0
 11
207.0554039757
 21
128.8394940474
 31
0.0
  0
LINE
  5
35E
330
1F
100
AcDbEntity
  8
0
  6
Continuous
 62
     7
370
    35
100
AcDbLine
 10
207.8554039757
 20
128.8394940474
 30
0.0
 11
207.8554039757
 21
128.3776638778
 31
0.0
  0
LINE
  5
35F
330
1F
100
AcDbEntity
  8
0
  6
Continuous
 62
     7
370
    35
100
AcDbLine
 10
208.1554039757
 20
128.3776638778
 30
0.0
 11
207.8554039757
 21
128.3776638778
 31
0.0
  0
LINE
  5
360
330
1F
100
AcDbEntity
  8
0
  6
Continuous
 62
     7
370
    35
100
AcDbLine
 10
207.8554039757
 20
128.8493721987
 30
0.0
 11
207.0554039757
 21
128.8493721987
 31
0.0
  0
LINE
  5
361
330
1F
100
AcDbEntity
  8
0
  6
Continuous
 62
     7
370
    35
100
AcDbLine
 10
208.1554039757
 20
129.3112023683
 30
0.0
 11
207.8554039757
 21
129.3112023683
 31
0.0
  0
LINE
  5
362
330
1F
100
AcDbEntity
  8
0
  6
Continuous
 62
     7
370
    35
100
AcDbLine
 10
208.9554039757
 20
128.8493721987
 30
0.0
 11
208.1554039757
 21
128.8493721987
 31
0.0
  0
LINE
  5
363
330
1F
100
AcDbEntity
  8
0
  6
Continuous
 62
     7
370
    35
100
AcDbLine
 10
208.1554039757
 20
129.0126803611
 30
0.0
 11
208.1554039757
 21
128.8493721987
 31
0.0
  0
LINE
  5
364
330
1F
100
AcDbEntity
  8
0
  6
Continuous
 62
     7
370
    35
100
AcDbLine
 10
207.8554039757
 20
129.0126803611
 30
0.0
 11
207.8554039757
 21
128.8493721987
 31
0.0
  0
LWPOLYLINE
  5
365
330
1F
100
AcDbEntity
  8
0
  6
Continuous
 62
     7
370
    35
100
AcDbPolyline
 90
       17
 70
   128
 43
0.0
 10
250.6960244093
 20
128.9260872042
 10
250.7835629469
 20
128.6720309946
 10
251.0328516109
 20
128.4566525399
 10
251.4059384621
 20
128.3127412574
 10
251.8460244093
 20
128.2622063353
 10
252.2861103565
 20
128.3127412574
 10
252.6591972076
 20
128.4566525399
 10
252.9084858717
 20
128.6720309946
 10
252.9960244093
 20
128.9260872042
 10
252.9084858717
 20
129.1801434138
 10
252.6591972076
 20
129.3955218685
 10
252.2861103565
 20
129.539433151
 10
251.8460244093
 20
129.5899680731
 10
251.4059384621
 20
129.539433151
 10
251.0328516109
 20
129.3955218685
 10
250.7835629469
 20
129.1801434138
 10
250.6960244093
 20
128.9260872042
  0
LINE
  5
366
330
1F
100
AcDbEntity
  8
0
  6
Continuous
 62
     7
370
    35
100
AcDbLine
 10
251.9960244093
 20
129.0126803611
 30
0.0
 11
252.7960244093
 21
129.0126803611
 31
0.0
  0
LINE
  5
367
330
1F
100
AcDbEntity
  8
0
  6
Continuous
 62
     7
370
    35
100
AcDbLine
 10
251.9960244093
 20
129.4745105307
 30
0.0
 11
251.9960244093
 21
129.0126803611
 31
0.0
  0
LINE
  5
368
330
1F
100
AcDbEntity
  8
0
  6
Continuous
 62
     7
370
    35
100
AcDbLine
 10
251.6960244093
 20
129.4745105307
 30
0.0
 11
251.9960244093
 21
129.4745105307
 31
0.0
  0
LINE
  5
369
330
1F
100
AcDbEntity
  8
0
  6
Continuous
 62
     7
370
    35
100
AcDbLine
 10
251.6960244093
 20
129.4745105307
 30
0.0
 11
251.6960244093
 21
129.0126803611
 31
0.0
  0
LINE
  5
36A
330
1F
100
AcDbEntity
  8
0
  6
Continuous
 62
     7
370
    35
100
AcDbLine
 10
250.8960244093
 20
129.0126803611
 30
0.0
 11
251.6960244093
 21
129.0126803611
 31
0.0
  0
LINE
  5
36B
330
1F
100
AcDbEntity
  8
0
  6
Continuous
 62
     7
370
    35
100
AcDbLine
 10
250.8960244093
 20
129.0126803611
 30
0.0
 11
250.8960244093
 21
128.8394940474
 31
0.0
  0
LINE
  5
36C
330
1F
100
AcDbEntity
  8
0
  6
Continuous
 62
     7
370
    35
100
AcDbLine
 10
250.8960244093
 20
128.8394940474
 30
0.0
 11
251.6960244093
 21
128.8394940474
 31
0.0
  0
LINE
  5
36D
330
1F
100
AcDbEntity
  8
0
  6
Continuous
 62
     7
370
    35
100
AcDbLine
 10
251.6960244093
 20
128.8394940474
 30
0.0
 11
251.6960244093
 21
128.3776638778
 31
0.0
  0
LINE
  5
36E
330
1F
100
AcDbEntity
  8
0
  6
Continuous
 62
     7
370
    35
100
AcDbLine
 10
251.6960244093
 20
128.3776638778
 30
0.0
 11
251.9960244093
 21
128.3776638778
 31
0.0
  0
LINE
  5
36F
330
1F
100
AcDbEntity
  8
0
  6
Continuous
 62
     7
370
    35
100
AcDbLine
 10
251.9960244093
 20
128.8394940474
 30
0.0
 11
251.9960244093
 21
128.3776638778
 31
0.0
  0
LINE
  5
370
330
1F
100
AcDbEntity
  8
0
  6
Continuous
 62
     7
370
    35
100
AcDbLine
 10
251.9960244093
 20
128.8394940474
 30
0.0
 11
252.7960244093
 21
128.8394940474
 31
0.0
  0
LINE
  5
371
330
1F
100
AcDbEntity
  8
0
  6
Continuous
 62
     7
370
    35
100
AcDbLine
 10
252.7960244093
 20
129.0126803611
 30
0.0
 11
252.7960244093
 21
128.8394940474
 31
0.0
  0
LINE
  5
372
330
1F
100
AcDbEntity
  8
0
  6
Continuous
 62
     7
370
    35
100
AcDbLine
 10
250.8960244093
 20
128.8493721987
 30
0.0
 11
251.6960244093
 21
128.8493721987
 31
0.0
  0
LINE
  5
373
330
1F
100
AcDbEntity
  8
0
  6
Continuous
 62
     7
370
    35
100
AcDbLine
 10
251.6960244093
 20
129.3112023683
 30
0.0
 11
251.9960244093
 21
129.3112023683
 31
0.0
  0
LINE
  5
374
330
1F
100
AcDbEntity
  8
0
  6
Continuous
 62
     7
370
    35
100
AcDbLine
 10
251.9960244093
 20
128.8493721987
 30
0.0
 11
252.7960244093
 21
128.8493721987
 31
0.0
  0
LINE
  5
375
330
1F
100
AcDbEntity
  8
0
  6
Continuous
 62
     7
370
    35
100
AcDbLine
 10
251.9960244093
 20
129.0126803611
 30
0.0
 11
251.9960244093
 21
128.8493721987
 31
0.0
  0
LINE
  5
376
330
1F
100
AcDbEntity
  8
0
  6
Continuous
 62
     7
370
    35
100
AcDbLine
 10
251.6960244093
 20
129.0126803611
 30
0.0
 11
251.6960244093
 21
128.8493721987
 31
0.0
  0
LWPOLYLINE
  5
377
330
1F
100
AcDbEntity
  8
0
  6
Continuous
 62
     8
370
    35
100
AcDbPolyline
 90
       12
 70
   128
 43
0.0
 10
232.7776805284
 20
149.0582246028
 10
231.9744873627
 20
150.0842467411
 10
231.3060491308
 20
151.171669264
 10
230.7842941287
 20
152.3010870907
 10
230.4185330868
 20
153.4523457334
 10
230.2152930196
 20
154.6049009543
 10
230.1782007508
 20
155.7381853782
 10
230.307918193
 20
156.8319755177
 10
230.6021305352
 20
157.8667526619
 10
231.0555875513
 20
158.8240511881
 10
231.66019729
 20
159.6867880814
 10
231.9309288861
 20
159.9902595846
  0
LWPOLYLINE
  5
378
330
1F
100
AcDbEntity
  8
0
  6
Continuous
 62
     8
370
    35
100
AcDbPolyline
 90
       16
 70
   128
 43
0.0
 10
248.1815084608
 20
148.5688764402
 10
247.7121657049
 20
147.7817618594
 10
247.0358639785
 20
146.9721957032
 10
246.2255465634
 20
146.279564556
 10
245.295673593
 20
145.7162284371
 10
244.2628386725
 20
145.2922400928
 10
243.1454727655
 20
145.0151656052
 10
241.9635152931
 20
144.8899493751
 10
240.7380583143
 20
144.9188258891
 10
239.4909701381
 20
145.1012798451
 10
238.2445050825
 20
145.434055348
 10
237.0209063458
 20
145.9112140109
 10
235.8420090766
 20
146.5242409264
 10
234.7288507246
 20
147.2621966144
 10
233.7012956268
 20
148.1119122384
 10
232.7776805284
 20
149.0582246028
  0
LWPOLYLINE
  5
379
330
1F
100
AcDbEntity
  8
0
  6
Continuous
 62
     8
370
    35
100
AcDbPolyline
 90
        8
 70
   128
 43
0.0
 10
211.6923790811
 20
160.5609541102
 10
211.2894175266
 20
160.6981571015
 10
211.0477057881
 20
160.9051514763
 10
210.9715572172
 20
161.178243415
 10
211.0623306871
 20
161.5125595856
 10
211.3184063431
 20
161.9021341081
 10
211.7352145089
 20
162.3400150158
 10
211.8948655058
 20
162.4834010419
  0
LWPOLYLINE
  5
37A
330
1F
100
AcDbEntity
  8
0
  6
Continuous
 62
     8
370
    35
100
AcDbPolyline
 90
       28
 70
   128
 43
0.0
 10
227.948990399
 20
168.7248002225
 10
228.0684010381
 20
168.7272451452
 10
228.6988889628
 20
168.6989181926
 10
229.1799542733
 20
168.5976088524
 10
229.5030123477
 20
168.4251249919
 10
229.662298207
 20
168.1845445899
 10
229.6549693914
 20
167.8801608093
 10
229.4811566836
 20
167.5174053859
 10
229.1439617755
 20
167.1027516988
 10
228.6494019184
 20
166.6435992529
 10
228.0063025445
 20
166.1481416344
 10
227.2261397774
 20
165.6252202963
 10
226.3228356402
 20
165.0841667822
 10
225.3125096167
 20
164.534636205
 10
224.2131909985
 20
163.9864349508
 10
223.0444971526
 20
163.4493456839
 10
221.8272834482
 20
162.9329527751
 10
220.5832710928
 20
162.4464712681
 10
219.3346595164
 20
161.9985824368
 10
218.103730222
 20
161.5972788681
 10
216.9124491722
 20
161.2497218336
 10
215.7820748054
 20
160.962113497
 10
214.732778679
 20
160.7395862357
 10
213.7832855073
 20
160.586111054
 10
212.9505390184
 20
160.5044267201
 10
212.2493995931
 20
160.495990893
 10
211.6923790811
 20
160.5609541102
 10
211.6923790811
 20
160.5609541102
  0
ARC
  5
37B
330
1F
100
AcDbEntity
  8
0
  6
Continuous
 62
     8
370
    35
100
AcDbCircle
 10
260.1559698266
 20
141.3750045753
 30
0.0
 40
0.6812047817586697
100
AcDbArc
 50
183.0437508895
 51
247.9658268008
  0
LWPOLYLINE
  5
37C
330
1F
100
AcDbEntity
  8
0
  6
Continuous
 62
     8
370
    35
100
AcDbPolyline
 90
        8
 70
   128
 43
0.0
 10
262.3757051689
 20
141.3384038094
 10
262.3618093173
 20
141.2198045431
 10
262.1924666589
 20
140.928130054
 10
261.8520420607
 20
140.6914664744
 10
261.3865117509
 20
140.5417765321
 10
260.8587481775
 20
140.4992766832
 10
260.3400287354
 20
140.5697067678
 10
259.9004093598
 20
140.7435548129
  0
LWPOLYLINE
  5
37D
330
1F
100
AcDbEntity
  8
0
  6
Continuous
 62
     8
370
    35
100
AcDbPolyline
 90
       10
 70
   128
 43
0.0
 10
231.3756909705
 20
123.4442690068
 10
231.3371993713
 20
123.2478846275
 10
231.1219605307
 20
122.9664744731
 10
230.7451619934
 20
122.7489533076
 10
230.2576924899
 20
122.6246985697
 10
229.7253874778
 20
122.6104915504
 10
229.2201376986
 20
122.7082509861
 10
228.8101799346
 20
122.9047739236
 10
228.5508812535
 20
123.1735188511
 10
228.4758360655
 20
123.428678966
  0
LWPOLYLINE
  5
37E
330
1F
100
AcDbEntity
  8
0
  6
Continuous
 62
     8
370
    35
100
AcDbPolyline
 90
       10
 70
   128
 43
0.0
 10
200.375702351
 20
141.3320677589
 10
200.3005471315
 20
141.0694379257
 10
200.0412484504
 20
140.8006929983
 10
199.6312906864
 20
140.6041700608
 10
199.1260409072
 20
140.506410625
 10
198.5937358951
 20
140.5206176444
 10
198.1062663916
 20
140.6448723823
 10
197.7294678543
 20
140.8623935478
 10
197.5142290137
 20
141.1438037021
 10
197.4757232161
 20
141.3324975785
  0
LWPOLYLINE
  5
37F
330
1F
100
AcDbEntity
  8
0
  6
Continuous
 62
     8
370
    35
100
AcDbPolyline
 90
       10
 70
   128
 43
0.0
 10
209.455398655
 20
128.6833926043
 10
209.4000511583
 20
128.4520506526
 10
209.1625289553
 20
128.1766792835
 10
208.7687306119
 20
127.9694360983
 10
208.2718407765
 20
127.8583104376
 10
207.7389671749
 20
127.8583104376
 10
207.2420773395
 20
127.9694360983
 10
206.8482789962
 20
128.1766792835
 10
206.6107567931
 20
128.4520506526
 10
206.5554089003
 20
128.6789433606
  0
LWPOLYLINE
  5
380
330
1F
100
AcDbEntity
  8
0
  6
Continuous
 62
     8
370
    35
100
AcDbPolyline
 90
       10
 70
   128
 43
0.0
 10
253.295849673
 20
128.6681301559
 10
253.2713354038
 20
128.5273142695
 10
253.0788392561
 20
128.2404658733
 10
252.719844632
 20
128.0131309286
 10
252.2428357449
 20
127.8760122795
 10
251.7122352881
 20
127.8476285592
 10
251.1997037934
 20
127.9318131465
 10
250.7744614793
 20
128.1171964464
 10
250.4939396766
 20
128.3787414169
 10
250.3960244093
 20
128.6811249607
  0
LINE
  5
381
330
1F
100
AcDbEntity
  8
0
  6
Continuous
 62
     7
370
    35
100
AcDbLine
 10
135.1702467231
 20
137.5050643946
 30
0.0
 11
135.4202467231
 21
137.5050643946
 31
0.0
  0
LINE
  5
382
330
1F
100
AcDbEntity
  8
0
  6
Continuous
 62
     7
370
    35
100
AcDbLine
 10
135.4202467231
 20
157.5050643946
 30
0.0
 11
135.1702467231
 21
157.5050643946
 31
0.0
  0
LINE
  5
383
330
1F
100
AcDbEntity
  8
0
  6
Continuous
 62
     7
370
    35
100
AcDbLine
 10
133.1702467231
 20
137.0050643946
 30
0.0
 11
133.6702467231
 21
137.0050643946
 31
0.0
  0
LINE
  5
384
330
1F
100
AcDbEntity
  8
0
  6
Continuous
 62
     7
370
    35
100
AcDbLine
 10
133.6702467231
 20
158.0050643946
 30
0.0
 11
133.1702467231
 21
158.0050643946
 31
0.0
  0
LINE
  5
385
330
1F
100
AcDbEntity
  8
0
  6
Continuous
 62
     7
370
    35
100
AcDbLine
 10
105.0168530618
 20
157.5050643946
 30
0.0
 11
104.7668530618
 21
157.5050643946
 31
0.0
  0
LINE
  5
386
330
1F
100
AcDbEntity
  8
0
  6
Continuous
 62
     7
370
    35
100
AcDbLine
 10
104.7668530618
 20
137.5050643946
 30
0.0
 11
105.0168530618
 21
137.5050643946
 31
0.0
  0
LINE
  5
387
330
1F
100
AcDbEntity
  8
0
  6
Continuous
 62
     7
370
    35
100
AcDbLine
 10
107.0168530618
 20
158.0050643946
 30
0.0
 11
106.5168530618
 21
158.0050643946
 31
0.0
  0
LINE
  5
388
330
1F
100
AcDbEntity
  8
0
  6
Continuous
 62
     7
370
    35
100
AcDbLine
 10
106.5168530618
 20
137.0050643946
 30
0.0
 11
107.0168530618
 21
137.0050643946
 31
0.0
  0
CIRCLE
  5
389
330
1F
100
AcDbEntity
  8
0
  6
Continuous
 62
     7
370
    35
100
AcDbCircle
 10
120.0935498925
 20
147.5050643946
 30
0.0
 40
34.50000000000001
  0
CIRCLE
  5
38A
330
1F
100
AcDbEntity
  8
0
  6
Continuous
 62
     7
370
    35
100
AcDbCircle
 10
120.0935498925
 20
147.5050643946
 30
0.0
 40
33.25000000000001
  0
LWPOLYLINE
  5
38B
330
1F
100
AcDbEntity
  8
0
  6
Continuous
 62
     7
370
    35
100
AcDbPolyline
 90
       58
 70
   128
 43
0.0
 10
135.8637195479
 20
137.5181842108
 10
136.8124771846
 20
137.6351306331
 10
137.7443350294
 20
137.8718846811
 10
138.6479815904
 20
138.2255724813
 10
139.5124478225
 20
138.6919007431
 10
140.3272402768
 20
139.2652088729
 10
141.0824684765
 20
139.9385376868
 10
141.7689649744
 20
140.703713885
 10
142.3783966328
 20
141.551449265
 10
142.9033657772
 20
142.4714534678
 10
143.3374999931
 20
143.4525588884
 10
143.6755294793
 20
144.4828562363
 10
143.9133510158
 20
145.5498390972
 10
144.0480777712
 20
146.6405557446
 10
144.0780743453
 20
147.7417663559
 10
144.0029766202
 20
148.8401037261
 10
143.8236961807
 20
149.9222355272
 10
143.5424092484
 20
150.9750261452
 10
143.1625302655
 20
151.9856961281
 10
142.6886704485
 20
152.9419773113
 10
142.1265818135
 20
153.8322617368
 10
141.4830873551
 20
154.6457425576
 10
140.7659982244
 20
155.3725452185
 10
139.984018912
 20
156.0038473198
 10
139.1466415875
 20
156.5319857092
 10
138.2640308772
 20
156.9505495019
 10
137.3469004797
 20
157.2544579007
 10
136.4063831154
 20
157.4400218691
 10
135.4538953911
 20
157.5049889121
 10
134.5009992177
 20
157.4485704177
 10
133.5592614637
 20
157.27145123
 10
132.6401135498
 20
156.975781336
 10
131.7547126865
 20
156.5651497677
 10
130.913806441
 20
156.0445410362
 10
130.1276022759
 20
155.420274626
 10
129.4056436448
 20
154.6999282859
 10
128.7566941475
 20
153.8922460446
 10
128.1886311517
 20
153.0070320703
 10
127.7083501728
 20
152.0550316616
 10
127.3216811712
 20
151.0478008138
 10
127.0333177848
 20
149.9975659451
 10
126.8467603545
 20
148.9170754839
 10
126.7642734347
 20
147.8194451209
 10
126.786858305
 20
146.7179986017
 10
126.9142408155
 20
145.6261059951
 10
127.1448747152
 20
144.5570213981
 10
127.475960421
 20
143.5237220496
 10
127.9034790009
 20
142.5387508039
 10
128.4222409584
 20
141.6140638776
 10
129.0259492262
 20
140.7608857175
 10
129.7072756037
 20
139.9895727505
 10
130.4579497115
 20
139.3094876714
 10
131.268859383
 20
138.7288857917
 10
132.1301612731
 20
138.2548148317
 10
133.0314003437
 20
137.8930293707
 10
133.9616367734
 20
137.647920994
 10
134.909578752
 20
137.5224649854
 10
135.8637195479
 20
137.5181842108
  0
LWPOLYLINE
  5
38C
330
1F
100
AcDbEntity
  8
0
  6
Continuous
 62
     7
370
    35
100
AcDbPolyline
 90
       49
 70
   128
 43
0.0
 10
135.7335285972
 20
140.4500468933
 10
134.9333563159
 20
140.4631861204
 10
134.1415148644
 20
140.5968138371
 10
133.3715528695
 20
140.8486436362
 10
132.6366445945
 20
141.21436664
 10
131.9493645237
 20
141.6877252265
 10
131.3214722096
 20
142.260620099
 10
130.7637110638
 20
142.9232488674
 10
130.2856245342
 20
143.6642737698
 10
129.8953928138
 20
144.4710156647
 10
129.5996928756
 20
145.3296709746
 10
129.4035842275
 20
146.225547869
 10
129.3104223429
 20
147.1433176459
 10
129.3218012473
 20
148.0672770099
 10
129.4375262446
 20
148.9816167603
 10
129.6556172481
 20
149.8706922903
 10
129.9723426601
 20
150.7192912711
 10
130.3822832211
 20
151.5128939389
 10
130.8784247343
 20
152.237921532
 10
131.4522780811
 20
152.8819686273
 10
132.0940244714
 20
153.4340154004
 10
132.7926834467
 20
153.884616178
 10
133.5363007581
 20
154.2260610559
 10
134.3121529073
 20
154.4525078174
 10
135.1069648489
 20
154.5600818958
 10
135.9071371303
 20
154.5469426688
 10
136.6989785818
 20
154.413314952
 10
137.4689405766
 20
154.1614851529
 10
138.2038488516
 20
153.7957621492
 10
138.8911289225
 20
153.3224035627
 10
139.5190212366
 20
152.7495086902
 10
140.0767823823
 20
152.0868799218
 10
140.5548689119
 20
151.3458550193
 10
140.9451006323
 20
150.5391131245
 10
141.2408005705
 20
149.6804578146
 10
141.4369092186
 20
148.7845809202
 10
141.5300711033
 20
147.8668111433
 10
141.5186921989
 20
146.9428517793
 10
141.4029672015
 20
146.0285120289
 10
141.1848761981
 20
145.1394364989
 10
140.8681507861
 20
144.2908375181
 10
140.4582102251
 20
143.4972348503
 10
139.9620687118
 20
142.7722072572
 10
139.3882153651
 20
142.1281601619
 10
138.7464689747
 20
141.5761133887
 10
138.0478099995
 20
141.1255126111
 10
137.3041926881
 20
140.7840677333
 10
136.5283405388
 20
140.5576209717
 10
135.7335285972
 20
140.4500468933
  0
LWPOLYLINE
  5
38D
330
1F
100
AcDbEntity
  8
0
  6
Continuous
 62
     7
370
    35
100
AcDbPolyline
 90
       31
 70
   128
 43
0.0
 10
135.1702467231
 20
157.5050643946
 10
134.7267738982
 20
157.4919445784
 10
133.7780162616
 20
157.3749981561
 10
132.8461584168
 20
157.1382441081
 10
131.9425118558
 20
156.7845563079
 10
131.0780456236
 20
156.3182280461
 10
130.2632531694
 20
155.7449199163
 10
129.5080249697
 20
155.0715911024
 10
128.8215284718
 20
154.3064149042
 10
128.2120968133
 20
153.4586795242
 10
127.687127669
 20
152.5386753214
 10
127.252993453
 20
151.5575699007
 10
126.9149639668
 20
150.5272725529
 10
126.6771424303
 20
149.460289692
 10
126.5424156749
 20
148.3695730446
 10
126.5124191009
 20
147.2683624333
 10
126.5875168259
 20
146.1700250631
 10
126.7667972655
 20
145.087893262
 10
127.0480841978
 20
144.035102644
 10
127.4279631806
 20
143.0244326611
 10
127.9018229977
 20
142.0681514778
 10
128.4639116327
 20
141.1778670524
 10
129.1074060911
 20
140.3643862316
 10
129.8244952218
 20
139.6375835706
 10
130.6064745342
 20
139.0062814694
 10
131.4438518587
 20
138.47814308
 10
132.3264625689
 20
138.0595792873
 10
133.2435929665
 20
137.7556708885
 10
134.1841103308
 20
137.57010692
 10
135.136598055
 20
137.5051398771
 10
135.1702467231
 20
137.5050643946
  0
ARC
  5
38E
330
1F
100
AcDbEntity
  8
0
  6
Continuous
 62
     7
370
    35
100
AcDbCircle
 10
130.6638971778
 20
147.5050643946
 30
0.0
 40
8.413352103772105
100
AcDbArc
 50
302.9358278741
 51
57.0641721259
  0
LINE
  5
38F
330
1F
100
AcDbEntity
  8
0
  6
Continuous
 62
     7
370
    35
100
AcDbLine
 10
132.704600257
 20
157.9912885875
 30
0.0
 11
133.1702467231
 21
158.0050643946
 31
0.0
  0
LWPOLYLINE
  5
390
330
1F
100
AcDbEntity
  8
0
  6
Continuous
 62
     7
370
    35
100
AcDbPolyline
 90
       30
 70
   128
 43
0.0
 10
133.1702467231
 20
137.0050643946
 10
132.6512983569
 20
137.0221772227
 10
131.6727877197
 20
137.1484165113
 10
130.7118334202
 20
137.3960780272
 10
129.7797017689
 20
137.7622581655
 10
128.8873211572
 20
138.2426637989
 10
128.0451539318
 20
138.8316626105
 10
127.2630737335
 20
139.522349128
 10
126.5502497375
 20
140.3066256832
 10
125.9150391535
 20
141.1752973508
 10
125.3648892447
 20
142.1181797496
 10
124.9062500158
 20
143.1242184455
 10
124.5444985925
 20
144.1816185548
 10
124.2838761794
 20
145.2779830279
 10
124.1274383361
 20
146.4004579938
 10
124.0770191531
 20
147.5358834598
 10
124.1332097494
 20
148.6709476004
 10
124.2953513416
 20
149.7923428264
 10
124.5615429678
 20
150.8869218041
 10
124.9286637744
 20
151.9418515957
 10
125.3924096058
 20
152.9447641139
 10
125.9473434661
 20
153.8839011266
 10
126.586959263
 20
154.7482521107
 10
127.3037580863
 20
155.5276833414
 10
128.0893361251
 20
156.2130567001
 10
128.9344831951
 20
156.7963368108
 10
129.8292907196
 20
157.2706852476
 10
130.7632678987
 20
157.6305407086
 10
131.7254647037
 20
157.8716842176
 10
132.704600257
 20
157.9912885875
  0
ARC
  5
391
330
1F
100
AcDbEntity
  8
0
  6
Continuous
 62
     7
370
    35
100
AcDbCircle
 10
133.6630469189
 20
150.0089951855
 30
0.0
 40
7.995447535799049
100
AcDbArc
 50
67.3533008266
 51
93.287054678
  0
LWPOLYLINE
  5
392
330
1F
100
AcDbEntity
  8
0
  6
Continuous
 62
     7
370
    35
100
AcDbPolyline
 90
       34
 70
   128
 43
0.0
 10
136.7416752945
 20
137.6221615464
 10
136.0772255475
 20
137.3795880806
 10
135.1150287424
 20
137.1384445716
 10
134.1358931892
 20
137.0188402016
 10
133.1512983569
 20
137.0221772227
 10
132.1727877197
 20
137.1484165113
 10
131.2118334202
 20
137.3960780272
 10
130.2797017689
 20
137.7622581655
 10
129.3873211572
 20
138.2426637989
 10
128.5451539318
 20
138.8316626105
 10
127.7630737335
 20
139.522349128
 10
127.0502497375
 20
140.3066256832
 10
126.4150391535
 20
141.1752973508
 10
125.8648892447
 20
142.1181797496
 10
125.4062500158
 20
143.1242184455
 10
125.0444985925
 20
144.1816185548
 10
124.7838761794
 20
145.2779830279
 10
124.6274383361
 20
146.4004579938
 10
124.5770191531
 20
147.5358834598
 10
124.6332097494
 20
148.6709476004
 10
124.7953513416
 20
149.7923428264
 10
125.0615429678
 20
150.8869218041
 10
125.4286637744
 20
151.9418515957
 10
125.8924096058
 20
152.9447641139
 10
126.4473434661
 20
153.8839011266
 10
127.086959263
 20
154.7482521107
 10
127.8037580863
 20
155.5276833414
 10
128.5893361251
 20
156.2130567001
 10
129.4344831951
 20
156.7963368108
 10
130.3292907196
 20
157.2706852476
 10
131.2632678987
 20
157.6305407086
 10
132.2254647037
 20
157.8716842176
 10
133.204600257
 20
157.9912885875
 10
133.204600257
 20
157.9912885875
  0
LWPOLYLINE
  5
393
330
1F
100
AcDbEntity
  8
0
  6
Continuous
 62
     7
370
    35
100
AcDbPolyline
 90
       58
 70
   128
 43
0.0
 10
102.0546722507
 20
138.0081122346
 10
102.9759071668
 20
137.7212333248
 10
103.91888174
 20
137.5531168708
 10
104.8721495363
 20
137.5058035784
 10
105.8241391761
 20
137.579867767
 10
106.7632947947
 20
137.7744103976
 10
107.6782163152
 20
138.0870699862
 10
108.5577978295
 20
138.514051269
 10
109.3913624098
 20
139.0501712716
 10
110.1687917111
 20
139.6889222234
 10
110.8806487948
 20
140.4225505531
 10
111.5182926803
 20
141.2421510067
 10
112.0739832346
 20
142.1377747448
 10
112.5409751271
 20
143.0985501085
 10
112.9135997088
 20
144.1128145865
 10
113.1873338221
 20
145.1682563818
 10
113.3588547056
 20
146.2520638609
 10
113.4260803283
 20
147.3510810691
 10
113.388194662
 20
148.4519674263
 10
113.2456575875
 20
149.5413596634
 10
113.0001993117
 20
150.6060340344
 10
112.6547993656
 20
151.6330668346
 10
112.2136504367
 20
152.6099912772
 10
111.6821074754
 20
153.5249488227
 10
111.0666226931
 20
154.366833126
 10
110.3746672414
 20
155.1254248521
 10
109.6146405222
 20
155.7915157251
 10
108.7957682301
 20
156.357020304
 10
107.9279903656
 20
156.8150741294
 10
107.0218405764
 20
157.1601170483
 10
106.0883182935
 20
157.387960707
 10
105.1387552128
 20
157.4958393922
 10
104.1846777438
 20
157.4824436028
 10
103.2376670945
 20
157.3479359456
 10
102.3092186913
 20
157.0939491612
 10
101.4106026402
 20
156.7235663052
 10
100.5527269227
 20
156.2412833238
 10
99.746004988
 20
155.6529544789
 10
99.0002293474
 20
154.9657212858
 10
98.3244527071
 20
154.1879258245
 10
97.7268780799
 20
153.3290094783
 10
97.2147592125
 20
152.3993983282
 10
96.794312534
 20
151.4103765941
 10
96.4706416976
 20
150.3739496602
 10
96.2476756289
 20
149.3026983454
 10
96.1281208338
 20
148.2096261897
 10
96.1134285456
 20
147.1080016081
 10
96.2037771088
 20
146.011196831
 10
96.3980698143
 20
144.9325255824
 10
96.6939482117
 20
143.8850814701
 10
97.0878207381
 20
142.8815790468
 10
97.5749063147
 20
141.9341994724
 10
98.1492923823
 20
141.0544426517
 10
98.8040066721
 20
140.2529876407
 10
99.5311018397
 20
139.5395630176
 10
100.3217519345
 20
138.9228287909
 10
101.1663595356
 20
138.4102712786
 10
102.0546722507
 20
138.0081122346
  0
LWPOLYLINE
  5
394
330
1F
100
AcDbEntity
  8
0
  6
Continuous
 62
     7
370
    35
100
AcDbPolyline
 90
       49
 70
   128
 43
0.0
 10
102.8508910459
 20
140.7961460473
 10
102.1089129568
 20
141.1423130099
 10
101.4124129597
 20
141.5973484128
 10
100.7733083629
 20
142.1534664741
 10
100.202534423
 20
142.8011518595
 10
99.7098572406
 20
143.5293224926
 10
99.3037066587
 20
144.3255191719
 10
98.9910320264
 20
145.1761187515
 10
98.7771832934
 20
146.0665672368
 10
98.6658194708
 20
146.9816288073
 10
98.6588460244
 20
147.9056465058
 10
98.756382272
 20
148.8228101333
 10
98.9567593411
 20
149.7174267659
 10
99.2565487247
 20
150.5741892649
 10
99.6506209433
 20
151.3784381864
 10
100.1322333118
 20
152.1164126085
 10
100.6931453093
 20
152.7754855842
 10
101.3237595758
 20
153.344380192
 10
102.0132861265
 20
153.8133624876
 10
102.7499269709
 20
154.1744080538
 10
103.5210779799
 20
154.4213393009
 10
104.313544546
 20
154.5499311669
 10
105.1137673464
 20
154.5579834091
 10
105.9080543473
 20
154.4453582516
 10
106.6828150777
 20
154.2139827419
 10
107.4247931669
 20
153.8678157793
 10
108.1212931639
 20
153.4127803764
 10
108.7603977608
 20
152.8566623151
 10
109.3311717006
 20
152.2089769297
 10
109.8238488831
 20
151.4808062966
 10
110.229999465
 20
150.6846096172
 10
110.5426740973
 20
149.8340100376
 10
110.7565228303
 20
148.9435615524
 10
110.8678866529
 20
148.0284999819
 10
110.8748600992
 20
147.1044822834
 10
110.7773238517
 20
146.1873186559
 10
110.5769467825
 20
145.2927020233
 10
110.277157399
 20
144.4359395243
 10
109.8830851804
 20
143.6316906027
 10
109.4014728118
 20
142.8937161807
 10
108.8405608144
 20
142.234643205
 10
108.2099465478
 20
141.6657485972
 10
107.5204199971
 20
141.1967663016
 10
106.7837791527
 20
140.8357207354
 10
106.0126281437
 20
140.5887894882
 10
105.2201615777
 20
140.4601976223
 10
104.4199387772
 20
140.4521453801
 10
103.6256517764
 20
140.5647705376
 10
102.8508910459
 20
140.7961460473
  0
ARC
  5
395
330
1F
100
AcDbEntity
  8
0
  6
Continuous
 62
     7
370
    35
100
AcDbCircle
 10
105.0083359042
 20
149.8962631866
 30
0.0
 40
7.608805975011178
100
AcDbArc
 50
69.0488249837
 51
89.9358641435
  0
LWPOLYLINE
  5
396
330
1F
100
AcDbEntity
  8
0
  6
Continuous
 62
     7
370
    35
100
AcDbPolyline
 90
       27
 70
   128
 43
0.0
 10
105.0168530618
 20
137.5050643946
 10
105.5990283799
 20
137.5276851863
 10
106.5460390292
 20
137.6621928436
 10
107.4744874324
 20
137.916179628
 10
108.3731034835
 20
138.286562484
 10
109.2309792009
 20
138.7688454654
 10
110.0377011357
 20
139.3571743103
 10
110.7834767763
 20
140.0444075034
 10
111.4592534166
 20
140.8222029647
 10
112.0568280438
 20
141.6811193108
 10
112.5689469112
 20
142.610730461
 10
112.9893935897
 20
143.5997521951
 10
113.313064426
 20
144.636179129
 10
113.5360304948
 20
145.7074304437
 10
113.6555852899
 20
146.8005025995
 10
113.670277578
 20
147.902127181
 10
113.5799290148
 20
148.9989319582
 10
113.3856363094
 20
150.0776032068
 10
113.089757912
 20
151.1250473191
 10
112.6958853856
 20
152.1285497424
 10
112.208799809
 20
153.0759293168
 10
111.6344137414
 20
153.9556861375
 10
110.9796994515
 20
154.7571411484
 10
110.252604284
 20
155.4705657715
 10
109.4619541892
 20
156.0872999983
 10
108.6173465881
 20
156.5998575106
 10
107.729033873
 20
157.0020165546
  0
ARC
  5
397
330
1F
100
AcDbEntity
  8
0
  6
Continuous
 62
     7
370
    35
100
AcDbCircle
 10
109.5232600476
 20
147.5050643946
 30
0.0
 40
8.413383334263205
100
AcDbArc
 50
122.9361561786
 51
237.0638438214
  0
LWPOLYLINE
  5
398
330
1F
100
AcDbEntity
  8
0
  6
Continuous
 62
     7
370
    35
100
AcDbPolyline
 90
       28
 70
   128
 43
0.0
 10
109.8646429136
 20
157.4768641626
 10
110.781646718
 20
157.0628764683
 10
111.6545117589
 20
156.5368321661
 10
112.4730044919
 20
155.9048986447
 10
113.227528838
 20
155.1744847467
 10
113.9092386891
 20
154.3541539073
 10
114.5101416205
 20
153.4535237556
 10
115.0231925947
 20
152.4831533566
 10
115.4423765581
 20
151.454419416
 10
115.7627789621
 20
150.3793828987
 10
115.9806433814
 20
149.270647625
 10
116.0934155548
 20
148.1412125021
 10
116.0997733318
 20
147.0043191244
 10
115.9996421732
 20
145.8732965271
 10
115.7941960254
 20
144.7614049161
 10
115.4858435565
 20
143.681680204
 10
115.0781999173
 20
142.6467811757
 10
114.5760443568
 20
141.6688410762
 10
113.9852641898
 20
140.759325359
 10
113.3127857736
 20
139.9288972643
 10
112.5664933028
 20
139.1872928023
 10
111.7551363742
 20
138.5432066071
 10
110.888227406
 20
138.0041900007
 10
109.9759301134
 20
137.5765624597
 10
109.0289403477
 20
137.2653375262
 10
108.0583606984
 20
137.074164028
 10
107.0755703242
 20
137.0052832995
 10
107.0168530618
 20
137.0050643946
  0
ARC
  5
399
330
1F
100
AcDbEntity
  8
0
  6
Continuous
 62
     7
370
    35
100
AcDbCircle
 10
107.007710665
 20
150.0147481625
 30
0.0
 40
7.990321462375335
100
AcDbArc
 50
69.0502460475
 51
89.9344430797
  0
LWPOLYLINE
  5
39A
330
1F
100
AcDbEntity
  8
0
  6
Continuous
 62
     7
370
    35
100
AcDbPolyline
 90
       31
 70
   128
 43
0.0
 10
109.3646429136
 20
157.4768641626
 10
110.281646718
 20
157.0628764683
 10
111.1545117589
 20
156.5368321661
 10
111.9730044919
 20
155.9048986447
 10
112.727528838
 20
155.1744847467
 10
113.4092386891
 20
154.3541539073
 10
114.0101416205
 20
153.4535237556
 10
114.5231925947
 20
152.4831533566
 10
114.9423765581
 20
151.454419416
 10
115.2627789621
 20
150.3793828987
 10
115.4806433814
 20
149.270647625
 10
115.5934155548
 20
148.1412125021
 10
115.5997733318
 20
147.0043191244
 10
115.4996421732
 20
145.8732965271
 10
115.2941960254
 20
144.7614049161
 10
114.9858435565
 20
143.681680204
 10
114.5781999173
 20
142.6467811757
 10
114.0760443568
 20
141.6688410762
 10
113.4852641898
 20
140.759325359
 10
112.8127857736
 20
139.9288972643
 10
112.0664933028
 20
139.1872928023
 10
111.2551363742
 20
138.5432066071
 10
110.388227406
 20
138.0041900007
 10
109.4759301134
 20
137.5765624597
 10
108.5289403477
 20
137.2653375262
 10
107.5583606984
 20
137.074164028
 10
106.5755703242
 20
137.0052832995
 10
105.5920915438
 20
137.0595029043
 10
104.6194547467
 20
137.2361871672
 10
103.6690632101
 20
137.5332646266
 10
103.4454244904
 20
137.6221615464
  0
ARC
  5
39B
330
1F
100
AcDbEntity
  8
0
  6
Continuous
 62
     7
370
    35
100
AcDbCircle
 10
106.5160905782
 20
150.0376723399
 30
0.0
 40
7.965916480993219
100
AcDbArc
 50
69.0475807121
 51
112.673266556
  0
LINE
  5
39C
330
1F
100
AcDbEntity
  8
0
  6
Continuous
 62
     7
370
    35
100
AcDbLine
 10
138.9568143386
 20
148.5050643946
 30
0.0
 11
135.0601794396
 21
148.5050643946
 31
0.0
  0
ARC
  5
39D
330
1F
100
AcDbEntity
  8
0
  6
Continuous
 62
     7
370
    35
100
AcDbCircle
 10
120.0935498925
 20
147.5050643946
 30
0.0
 40
15.00000000000002
100
AcDbArc
 50
3.8225537293
 51
26.5753561202
  0
LINE
  5
39E
330
1F
100
AcDbEntity
  8
0
  6
Continuous
 62
     7
370
    35
100
AcDbLine
 10
135.0601794396
 20
146.5050643946
 30
0.0
 11
138.9568143386
 21
146.5050643946
 31
0.0
  0
ARC
  5
39F
330
1F
100
AcDbEntity
  8
0
  6
Continuous
 62
     7
370
    35
100
AcDbCircle
 10
120.0935498925
 20
147.5050643946
 30
0.0
 40
15.0
100
AcDbArc
 50
333.4246438798
 51
356.1774462707
  0
ARC
  5
3A0
330
1F
100
AcDbEntity
  8
0
  6
Continuous
 62
     7
370
    35
100
AcDbCircle
 10
120.0935498925
 20
147.5050643946
 30
0.0
 40
14.99999999999999
100
AcDbArc
 50
153.4246438798
 51
206.5753561202
  0
CIRCLE
  5
3A1
330
1F
100
AcDbEntity
  8
0
  6
Continuous
 62
     7
370
    35
100
AcDbCircle
 10
120.0935498925
 20
147.5050643946
 30
0.0
 40
27.95979256003162
  0
CIRCLE
  5
3A2
330
1F
100
AcDbEntity
  8
0
  6
Continuous
 62
     7
370
    35
100
AcDbCircle
 10
120.0935498925
 20
116.5050643946
 30
0.0
 40
1.5
  0
CIRCLE
  5
3A3
330
1F
100
AcDbEntity
  8
0
  6
Continuous
 62
     7
370
    35
100
AcDbCircle
 10
98.1732396757
 20
125.5847541778
 30
0.0
 40
1.500000000000002
  0
CIRCLE
  5
3A4
330
1F
100
AcDbEntity
  8
0
  6
Continuous
 62
     7
370
    35
100
AcDbCircle
 10
89.0935498925
 20
147.5050643946
 30
0.0
 40
1.5
  0
CIRCLE
  5
3A5
330
1F
100
AcDbEntity
  8
0
  6
Continuous
 62
     7
370
    35
100
AcDbCircle
 10
98.1732396757
 20
169.4253746114
 30
0.0
 40
1.500000000000012
  0
CIRCLE
  5
3A6
330
1F
100
AcDbEntity
  8
0
  6
Continuous
 62
     7
370
    35
100
AcDbCircle
 10
120.0935498925
 20
178.5050643946
 30
0.0
 40
1.5
  0
CIRCLE
  5
3A7
330
1F
100
AcDbEntity
  8
0
  6
Continuous
 62
     7
370
    35
100
AcDbCircle
 10
142.0138601092
 20
169.4253746114
 30
0.0
 40
1.499999999999992
  0
CIRCLE
  5
3A8
330
1F
100
AcDbEntity
  8
0
  6
Continuous
 62
     7
370
    35
100
AcDbCircle
 10
151.0935498925
 20
147.5050643946
 30
0.0
 40
1.5
  0
CIRCLE
  5
3A9
330
1F
100
AcDbEntity
  8
0
  6
Continuous
 62
     7
370
    35
100
AcDbCircle
 10
142.0138601092
 20
125.5847541778
 30
0.0
 40
1.499999999999982
  0
CIRCLE
  5
3AA
330
1F
100
AcDbEntity
  8
0
  6
Continuous
 62
     7
370
    35
100
AcDbCircle
 10
120.0935498925
 20
147.5050643946
 30
0.0
 40
33.0
  0
CIRCLE
  5
3AB
330
1F
100
AcDbEntity
  8
0
  6
Continuous
 62
     7
370
    35
100
AcDbCircle
 10
142.0138601092
 20
169.4253746114
 30
0.0
 40
1.450000000000017
  0
CIRCLE
  5
3AC
330
1F
100
AcDbEntity
  8
0
  6
Continuous
 62
     7
370
    35
100
AcDbCircle
 10
142.0138601092
 20
169.4253746114
 30
0.0
 40
1.149999999999977
  0
LINE
  5
3AD
330
1F
100
AcDbEntity
  8
0
  6
Continuous
 62
     7
370
    35
100
AcDbLine
 10
141.0638601092
 20
169.5753746114
 30
0.0
 11
141.8638601092
 21
169.5753746114
 31
0.0
  0
LINE
  5
3AE
330
1F
100
AcDbEntity
  8
0
  6
Continuous
 62
     7
370
    35
100
AcDbLine
 10
141.0638601092
 20
169.2753746114
 30
0.0
 11
141.0638601092
 21
169.5753746114
 31
0.0
  0
LINE
  5
3AF
330
1F
100
AcDbEntity
  8
0
  6
Continuous
 62
     7
370
    35
100
AcDbLine
 10
141.0638601092
 20
169.2753746114
 30
0.0
 11
141.8638601092
 21
169.2753746114
 31
0.0
  0
LINE
  5
3B0
330
1F
100
AcDbEntity
  8
0
  6
Continuous
 62
     7
370
    35
100
AcDbLine
 10
141.8638601092
 20
168.4753746114
 30
0.0
 11
141.8638601092
 21
169.2753746114
 31
0.0
  0
LINE
  5
3B1
330
1F
100
AcDbEntity
  8
0
  6
Continuous
 62
     7
370
    35
100
AcDbLine
 10
141.8638601092
 20
168.4753746114
 30
0.0
 11
142.1638601092
 21
168.4753746114
 31
0.0
  0
LINE
  5
3B2
330
1F
100
AcDbEntity
  8
0
  6
Continuous
 62
     7
370
    35
100
AcDbLine
 10
142.1638601092
 20
168.4753746114
 30
0.0
 11
142.1638601092
 21
169.2753746114
 31
0.0
  0
LINE
  5
3B3
330
1F
100
AcDbEntity
  8
0
  6
Continuous
 62
     7
370
    35
100
AcDbLine
 10
142.1638601092
 20
169.2753746114
 30
0.0
 11
142.9638601092
 21
169.2753746114
 31
0.0
  0
LINE
  5
3B4
330
1F
100
AcDbEntity
  8
0
  6
Continuous
 62
     7
370
    35
100
AcDbLine
 10
142.9638601092
 20
169.2753746114
 30
0.0
 11
142.9638601092
 21
169.5753746114
 31
0.0
  0
LINE
  5
3B5
330
1F
100
AcDbEntity
  8
0
  6
Continuous
 62
     7
370
    35
100
AcDbLine
 10
142.1638601092
 20
169.5753746114
 30
0.0
 11
142.9638601092
 21
169.5753746114
 31
0.0
  0
LINE
  5
3B6
330
1F
100
AcDbEntity
  8
0
  6
Continuous
 62
     7
370
    35
100
AcDbLine
 10
142.1638601092
 20
169.5753746114
 30
0.0
 11
142.1638601092
 21
170.3753746114
 31
0.0
  0
LINE
  5
3B7
330
1F
100
AcDbEntity
  8
0
  6
Continuous
 62
     7
370
    35
100
AcDbLine
 10
141.8638601092
 20
170.3753746114
 30
0.0
 11
142.1638601092
 21
170.3753746114
 31
0.0
  0
LINE
  5
3B8
330
1F
100
AcDbEntity
  8
0
  6
Continuous
 62
     7
370
    35
100
AcDbLine
 10
141.8638601092
 20
169.5753746114
 30
0.0
 11
141.8638601092
 21
170.3753746114
 31
0.0
  0
CIRCLE
  5
3B9
330
1F
100
AcDbEntity
  8
0
  6
Continuous
 62
     7
370
    35
100
AcDbCircle
 10
120.0935498925
 20
178.5050643946
 30
0.0
 40
1.45000000000001
  0
CIRCLE
  5
3BA
330
1F
100
AcDbEntity
  8
0
  6
Continuous
 62
     7
370
    35
100
AcDbCircle
 10
120.0935498925
 20
178.5050643946
 30
0.0
 40
1.150000000000005
  0
LINE
  5
3BB
330
1F
100
AcDbEntity
  8
0
  6
Continuous
 62
     7
370
    35
100
AcDbLine
 10
119.8814178581
 20
178.5050643946
 30
0.0
 11
119.3157324332
 21
179.0707498195
 31
0.0
  0
LINE
  5
3BC
330
1F
100
AcDbEntity
  8
0
  6
Continuous
 62
     7
370
    35
100
AcDbLine
 10
119.3157324332
 20
177.9393789696
 30
0.0
 11
119.8814178581
 21
178.5050643946
 31
0.0
  0
LINE
  5
3BD
330
1F
100
AcDbEntity
  8
0
  6
Continuous
 62
     7
370
    35
100
AcDbLine
 10
119.5278644675
 20
177.7272469353
 30
0.0
 11
119.3157324332
 21
177.9393789696
 31
0.0
  0
LINE
  5
3BE
330
1F
100
AcDbEntity
  8
0
  6
Continuous
 62
     7
370
    35
100
AcDbLine
 10
119.5278644675
 20
177.7272469353
 30
0.0
 11
120.0935498925
 21
178.2929323602
 31
0.0
  0
LINE
  5
3BF
330
1F
100
AcDbEntity
  8
0
  6
Continuous
 62
     7
370
    35
100
AcDbLine
 10
120.6592353174
 20
177.7272469353
 30
0.0
 11
120.0935498925
 21
178.2929323602
 31
0.0
  0
LINE
  5
3C0
330
1F
100
AcDbEntity
  8
0
  6
Continuous
 62
     7
370
    35
100
AcDbLine
 10
120.6592353174
 20
177.7272469353
 30
0.0
 11
120.8713673518
 21
177.9393789696
 31
0.0
  0
LINE
  5
3C1
330
1F
100
AcDbEntity
  8
0
  6
Continuous
 62
     7
370
    35
100
AcDbLine
 10
120.8713673518
 20
177.9393789696
 30
0.0
 11
120.3056819268
 21
178.5050643946
 31
0.0
  0
LINE
  5
3C2
330
1F
100
AcDbEntity
  8
0
  6
Continuous
 62
     7
370
    35
100
AcDbLine
 10
120.3056819268
 20
178.5050643946
 30
0.0
 11
120.8713673518
 21
179.0707498195
 31
0.0
  0
LINE
  5
3C3
330
1F
100
AcDbEntity
  8
0
  6
Continuous
 62
     7
370
    35
100
AcDbLine
 10
120.8713673518
 20
179.0707498195
 30
0.0
 11
120.6592353174
 21
179.2828818539
 31
0.0
  0
LINE
  5
3C4
330
1F
100
AcDbEntity
  8
0
  6
Continuous
 62
     7
370
    35
100
AcDbLine
 10
120.0935498925
 20
178.7171964289
 30
0.0
 11
120.6592353174
 21
179.2828818539
 31
0.0
  0
LINE
  5
3C5
330
1F
100
AcDbEntity
  8
0
  6
Continuous
 62
     7
370
    35
100
AcDbLine
 10
120.0935498925
 20
178.7171964289
 30
0.0
 11
119.5278644675
 21
179.2828818539
 31
0.0
  0
LINE
  5
3C6
330
1F
100
AcDbEntity
  8
0
  6
Continuous
 62
     7
370
    35
100
AcDbLine
 10
119.3157324332
 20
179.0707498195
 30
0.0
 11
119.5278644675
 21
179.2828818539
 31
0.0
  0
LINE
  5
3C7
330
1F
100
AcDbEntity
  8
0
  6
Continuous
 62
     7
370
    35
100
AcDbLine
 10
142.1638601092
 20
125.7347541778
 30
0.0
 11
142.9638601092
 21
125.7347541778
 31
0.0
  0
LINE
  5
3C8
330
1F
100
AcDbEntity
  8
0
  6
Continuous
 62
     7
370
    35
100
AcDbLine
 10
142.1638601092
 20
126.5347541778
 30
0.0
 11
142.1638601092
 21
125.7347541778
 31
0.0
  0
LINE
  5
3C9
330
1F
100
AcDbEntity
  8
0
  6
Continuous
 62
     7
370
    35
100
AcDbLine
 10
141.8638601092
 20
126.5347541778
 30
0.0
 11
141.8638601092
 21
125.7347541778
 31
0.0
  0
LINE
  5
3CA
330
1F
100
AcDbEntity
  8
0
  6
Continuous
 62
     7
370
    35
100
AcDbLine
 10
141.0638601092
 20
125.7347541778
 30
0.0
 11
141.8638601092
 21
125.7347541778
 31
0.0
  0
LINE
  5
3CB
330
1F
100
AcDbEntity
  8
0
  6
Continuous
 62
     7
370
    35
100
AcDbLine
 10
141.0638601092
 20
125.7347541778
 30
0.0
 11
141.0638601092
 21
125.4347541778
 31
0.0
  0
LINE
  5
3CC
330
1F
100
AcDbEntity
  8
0
  6
Continuous
 62
     7
370
    35
100
AcDbLine
 10
141.0638601092
 20
125.4347541778
 30
0.0
 11
141.8638601092
 21
125.4347541778
 31
0.0
  0
LINE
  5
3CD
330
1F
100
AcDbEntity
  8
0
  6
Continuous
 62
     7
370
    35
100
AcDbLine
 10
141.8638601092
 20
125.4347541778
 30
0.0
 11
141.8638601092
 21
124.6347541778
 31
0.0
  0
LINE
  5
3CE
330
1F
100
AcDbEntity
  8
0
  6
Continuous
 62
     7
370
    35
100
AcDbLine
 10
141.8638601092
 20
124.6347541778
 30
0.0
 11
142.1638601092
 21
124.6347541778
 31
0.0
  0
LINE
  5
3CF
330
1F
100
AcDbEntity
  8
0
  6
Continuous
 62
     7
370
    35
100
AcDbLine
 10
142.1638601092
 20
125.4347541778
 30
0.0
 11
142.1638601092
 21
124.6347541778
 31
0.0
  0
LINE
  5
3D0
330
1F
100
AcDbEntity
  8
0
  6
Continuous
 62
     7
370
    35
100
AcDbLine
 10
142.1638601092
 20
125.4347541778
 30
0.0
 11
142.9638601092
 21
125.4347541778
 31
0.0
  0
LINE
  5
3D1
330
1F
100
AcDbEntity
  8
0
  6
Continuous
 62
     7
370
    35
100
AcDbLine
 10
142.9638601092
 20
125.7347541778
 30
0.0
 11
142.9638601092
 21
125.4347541778
 31
0.0
  0
CIRCLE
  5
3D2
330
1F
100
AcDbEntity
  8
0
  6
Continuous
 62
     7
370
    35
100
AcDbCircle
 10
142.0138601092
 20
125.5847541778
 30
0.0
 40
1.150000000000006
  0
LINE
  5
3D3
330
1F
100
AcDbEntity
  8
0
  6
Continuous
 62
     7
370
    35
100
AcDbLine
 10
141.8638601092
 20
126.5347541778
 30
0.0
 11
142.1638601092
 21
126.5347541778
 31
0.0
  0
CIRCLE
  5
3D4
330
1F
100
AcDbEntity
  8
0
  6
Continuous
 62
     7
370
    35
100
AcDbCircle
 10
142.0138601092
 20
125.5847541778
 30
0.0
 40
1.449999999999989
  0
CIRCLE
  5
3D5
330
1F
100
AcDbEntity
  8
0
  6
Continuous
 62
     7
370
    35
100
AcDbCircle
 10
98.1732396757
 20
125.5847541778
 30
0.0
 40
1.450000000000003
  0
CIRCLE
  5
3D6
330
1F
100
AcDbEntity
  8
0
  6
Continuous
 62
     7
370
    35
100
AcDbCircle
 10
98.1732396757
 20
125.5847541778
 30
0.0
 40
1.150000000000006
  0
LINE
  5
3D7
330
1F
100
AcDbEntity
  8
0
  6
Continuous
 62
     7
370
    35
100
AcDbLine
 10
98.3232396757
 20
125.4347541778
 30
0.0
 11
98.3232396757
 21
124.6347541778
 31
0.0
  0
LINE
  5
3D8
330
1F
100
AcDbEntity
  8
0
  6
Continuous
 62
     7
370
    35
100
AcDbLine
 10
99.1232396757
 20
125.4347541778
 30
0.0
 11
98.3232396757
 21
125.4347541778
 31
0.0
  0
LINE
  5
3D9
330
1F
100
AcDbEntity
  8
0
  6
Continuous
 62
     7
370
    35
100
AcDbLine
 10
99.1232396757
 20
125.7347541778
 30
0.0
 11
99.1232396757
 21
125.4347541778
 31
0.0
  0
LINE
  5
3DA
330
1F
100
AcDbEntity
  8
0
  6
Continuous
 62
     7
370
    35
100
AcDbLine
 10
99.1232396757
 20
125.7347541778
 30
0.0
 11
98.3232396757
 21
125.7347541778
 31
0.0
  0
LINE
  5
3DB
330
1F
100
AcDbEntity
  8
0
  6
Continuous
 62
     7
370
    35
100
AcDbLine
 10
98.3232396757
 20
126.5347541778
 30
0.0
 11
98.0232396757
 21
126.5347541778
 31
0.0
  0
LINE
  5
3DC
330
1F
100
AcDbEntity
  8
0
  6
Continuous
 62
     7
370
    35
100
AcDbLine
 10
98.0232396757
 20
126.5347541778
 30
0.0
 11
98.0232396757
 21
125.7347541778
 31
0.0
  0
LINE
  5
3DD
330
1F
100
AcDbEntity
  8
0
  6
Continuous
 62
     7
370
    35
100
AcDbLine
 10
98.0232396757
 20
125.7347541778
 30
0.0
 11
97.2232396757
 21
125.7347541778
 31
0.0
  0
LINE
  5
3DE
330
1F
100
AcDbEntity
  8
0
  6
Continuous
 62
     7
370
    35
100
AcDbLine
 10
97.2232396757
 20
125.7347541778
 30
0.0
 11
97.2232396757
 21
125.4347541778
 31
0.0
  0
LINE
  5
3DF
330
1F
100
AcDbEntity
  8
0
  6
Continuous
 62
     7
370
    35
100
AcDbLine
 10
98.0232396757
 20
125.4347541778
 30
0.0
 11
97.2232396757
 21
125.4347541778
 31
0.0
  0
LINE
  5
3E0
330
1F
100
AcDbEntity
  8
0
  6
Continuous
 62
     7
370
    35
100
AcDbLine
 10
98.0232396757
 20
125.4347541778
 30
0.0
 11
98.0232396757
 21
124.6347541778
 31
0.0
  0
LINE
  5
3E1
330
1F
100
AcDbEntity
  8
0
  6
Continuous
 62
     7
370
    35
100
AcDbLine
 10
98.3232396757
 20
124.6347541778
 30
0.0
 11
98.0232396757
 21
124.6347541778
 31
0.0
  0
LINE
  5
3E2
330
1F
100
AcDbEntity
  8
0
  6
Continuous
 62
     7
370
    35
100
AcDbLine
 10
98.3232396757
 20
126.5347541778
 30
0.0
 11
98.3232396757
 21
125.7347541778
 31
0.0
  0
LINE
  5
3E3
330
1F
100
AcDbEntity
  8
0
  6
Continuous
 62
     7
370
    35
100
AcDbLine
 10
89.0935498925
 20
147.2929323602
 30
0.0
 11
88.5278644675
 21
146.7272469353
 31
0.0
  0
LINE
  5
3E4
330
1F
100
AcDbEntity
  8
0
  6
Continuous
 62
     7
370
    35
100
AcDbLine
 10
89.6592353174
 20
146.7272469353
 30
0.0
 11
89.0935498925
 21
147.2929323602
 31
0.0
  0
LINE
  5
3E5
330
1F
100
AcDbEntity
  8
0
  6
Continuous
 62
     7
370
    35
100
AcDbLine
 10
89.8713673518
 20
146.9393789696
 30
0.0
 11
89.6592353174
 21
146.7272469353
 31
0.0
  0
LINE
  5
3E6
330
1F
100
AcDbEntity
  8
0
  6
Continuous
 62
     7
370
    35
100
AcDbLine
 10
89.8713673518
 20
146.9393789696
 30
0.0
 11
89.3056819268
 21
147.5050643946
 31
0.0
  0
LINE
  5
3E7
330
1F
100
AcDbEntity
  8
0
  6
Continuous
 62
     7
370
    35
100
AcDbLine
 10
89.8713673518
 20
148.0707498195
 30
0.0
 11
89.3056819268
 21
147.5050643946
 31
0.0
  0
LINE
  5
3E8
330
1F
100
AcDbEntity
  8
0
  6
Continuous
 62
     7
370
    35
100
AcDbLine
 10
89.8713673518
 20
148.0707498195
 30
0.0
 11
89.6592353174
 21
148.2828818539
 31
0.0
  0
LINE
  5
3E9
330
1F
100
AcDbEntity
  8
0
  6
Continuous
 62
     7
370
    35
100
AcDbLine
 10
89.6592353174
 20
148.2828818539
 30
0.0
 11
89.0935498925
 21
147.7171964289
 31
0.0
  0
LINE
  5
3EA
330
1F
100
AcDbEntity
  8
0
  6
Continuous
 62
     7
370
    35
100
AcDbLine
 10
89.0935498925
 20
147.7171964289
 30
0.0
 11
88.5278644675
 21
148.2828818539
 31
0.0
  0
LINE
  5
3EB
330
1F
100
AcDbEntity
  8
0
  6
Continuous
 62
     7
370
    35
100
AcDbLine
 10
88.5278644675
 20
148.2828818539
 30
0.0
 11
88.3157324332
 21
148.0707498195
 31
0.0
  0
LINE
  5
3EC
330
1F
100
AcDbEntity
  8
0
  6
Continuous
 62
     7
370
    35
100
AcDbLine
 10
88.8814178581
 20
147.5050643946
 30
0.0
 11
88.3157324332
 21
148.0707498195
 31
0.0
  0
LINE
  5
3ED
330
1F
100
AcDbEntity
  8
0
  6
Continuous
 62
     7
370
    35
100
AcDbLine
 10
88.8814178581
 20
147.5050643946
 30
0.0
 11
88.3157324332
 21
146.9393789696
 31
0.0
  0
LINE
  5
3EE
330
1F
100
AcDbEntity
  8
0
  6
Continuous
 62
     7
370
    35
100
AcDbLine
 10
88.5278644675
 20
146.7272469353
 30
0.0
 11
88.3157324332
 21
146.9393789696
 31
0.0
  0
CIRCLE
  5
3EF
330
1F
100
AcDbEntity
  8
0
  6
Continuous
 62
     7
370
    35
100
AcDbCircle
 10
89.0935498925
 20
147.5050643946
 30
0.0
 40
1.150000000000005
  0
CIRCLE
  5
3F0
330
1F
100
AcDbEntity
  8
0
  6
Continuous
 62
     7
370
    35
100
AcDbCircle
 10
89.0935498925
 20
147.5050643946
 30
0.0
 40
1.45
  0
CIRCLE
  5
3F1
330
1F
100
AcDbEntity
  8
0
  6
Continuous
 62
     7
370
    35
100
AcDbCircle
 10
120.0935498925
 20
116.5050643946
 30
0.0
 40
1.45
  0
CIRCLE
  5
3F2
330
1F
100
AcDbEntity
  8
0
  6
Continuous
 62
     7
370
    35
100
AcDbCircle
 10
120.0935498925
 20
116.5050643946
 30
0.0
 40
1.149999999999995
  0
LINE
  5
3F3
330
1F
100
AcDbEntity
  8
0
  6
Continuous
 62
     7
370
    35
100
AcDbLine
 10
120.3056819268
 20
116.5050643946
 30
0.0
 11
120.8713673518
 21
115.9393789696
 31
0.0
  0
LINE
  5
3F4
330
1F
100
AcDbEntity
  8
0
  6
Continuous
 62
     7
370
    35
100
AcDbLine
 10
120.8713673518
 20
117.0707498195
 30
0.0
 11
120.3056819268
 21
116.5050643946
 31
0.0
  0
LINE
  5
3F5
330
1F
100
AcDbEntity
  8
0
  6
Continuous
 62
     7
370
    35
100
AcDbLine
 10
119.3157324332
 20
117.0707498195
 30
0.0
 11
119.8814178581
 21
116.5050643946
 31
0.0
  0
LINE
  5
3F6
330
1F
100
AcDbEntity
  8
0
  6
Continuous
 62
     7
370
    35
100
AcDbLine
 10
119.8814178581
 20
116.5050643946
 30
0.0
 11
119.3157324332
 21
115.9393789696
 31
0.0
  0
LINE
  5
3F7
330
1F
100
AcDbEntity
  8
0
  6
Continuous
 62
     7
370
    35
100
AcDbLine
 10
119.3157324332
 20
115.9393789696
 30
0.0
 11
119.5278644675
 21
115.7272469353
 31
0.0
  0
LINE
  5
3F8
330
1F
100
AcDbEntity
  8
0
  6
Continuous
 62
     7
370
    35
100
AcDbLine
 10
120.0935498925
 20
116.2929323602
 30
0.0
 11
119.5278644675
 21
115.7272469353
 31
0.0
  0
LINE
  5
3F9
330
1F
100
AcDbEntity
  8
0
  6
Continuous
 62
     7
370
    35
100
AcDbLine
 10
120.0935498925
 20
116.2929323602
 30
0.0
 11
120.6592353174
 21
115.7272469353
 31
0.0
  0
LINE
  5
3FA
330
1F
100
AcDbEntity
  8
0
  6
Continuous
 62
     7
370
    35
100
AcDbLine
 10
120.8713673518
 20
115.9393789696
 30
0.0
 11
120.6592353174
 21
115.7272469353
 31
0.0
  0
LINE
  5
3FB
330
1F
100
AcDbEntity
  8
0
  6
Continuous
 62
     7
370
    35
100
AcDbLine
 10
120.6592353174
 20
117.2828818539
 30
0.0
 11
120.0935498925
 21
116.7171964289
 31
0.0
  0
LINE
  5
3FC
330
1F
100
AcDbEntity
  8
0
  6
Continuous
 62
     7
370
    35
100
AcDbLine
 10
120.6592353174
 20
117.2828818539
 30
0.0
 11
120.8713673518
 21
117.0707498195
 31
0.0
  0
LINE
  5
3FD
330
1F
100
AcDbEntity
  8
0
  6
Continuous
 62
     7
370
    35
100
AcDbLine
 10
119.5278644675
 20
117.2828818539
 30
0.0
 11
120.0935498925
 21
116.7171964289
 31
0.0
  0
LINE
  5
3FE
330
1F
100
AcDbEntity
  8
0
  6
Continuous
 62
     7
370
    35
100
AcDbLine
 10
119.5278644675
 20
117.2828818539
 30
0.0
 11
119.3157324332
 21
117.0707498195
 31
0.0
  0
CIRCLE
  5
3FF
330
1F
100
AcDbEntity
  8
0
  6
Continuous
 62
     7
370
    35
100
AcDbCircle
 10
98.1732396757
 20
169.4253746114
 30
0.0
 40
1.449999999999989
  0
CIRCLE
  5
400
330
1F
100
AcDbEntity
  8
0
  6
Continuous
 62
     7
370
    35
100
AcDbCircle
 10
98.1732396757
 20
169.4253746114
 30
0.0
 40
1.150000000000006
  0
LINE
  5
401
330
1F
100
AcDbEntity
  8
0
  6
Continuous
 62
     7
370
    35
100
AcDbLine
 10
98.0232396757
 20
169.2753746114
 30
0.0
 11
97.2232396757
 21
169.2753746114
 31
0.0
  0
LINE
  5
402
330
1F
100
AcDbEntity
  8
0
  6
Continuous
 62
     7
370
    35
100
AcDbLine
 10
98.0232396757
 20
168.4753746114
 30
0.0
 11
98.0232396757
 21
169.2753746114
 31
0.0
  0
LINE
  5
403
330
1F
100
AcDbEntity
  8
0
  6
Continuous
 62
     7
370
    35
100
AcDbLine
 10
98.3232396757
 20
168.4753746114
 30
0.0
 11
98.0232396757
 21
168.4753746114
 31
0.0
  0
LINE
  5
404
330
1F
100
AcDbEntity
  8
0
  6
Continuous
 62
     7
370
    35
100
AcDbLine
 10
98.3232396757
 20
168.4753746114
 30
0.0
 11
98.3232396757
 21
169.2753746114
 31
0.0
  0
LINE
  5
405
330
1F
100
AcDbEntity
  8
0
  6
Continuous
 62
     7
370
    35
100
AcDbLine
 10
99.1232396757
 20
169.2753746114
 30
0.0
 11
98.3232396757
 21
169.2753746114
 31
0.0
  0
LINE
  5
406
330
1F
100
AcDbEntity
  8
0
  6
Continuous
 62
     7
370
    35
100
AcDbLine
 10
99.1232396757
 20
169.2753746114
 30
0.0
 11
99.1232396757
 21
169.5753746114
 31
0.0
  0
LINE
  5
407
330
1F
100
AcDbEntity
  8
0
  6
Continuous
 62
     7
370
    35
100
AcDbLine
 10
99.1232396757
 20
169.5753746114
 30
0.0
 11
98.3232396757
 21
169.5753746114
 31
0.0
  0
LINE
  5
408
330
1F
100
AcDbEntity
  8
0
  6
Continuous
 62
     7
370
    35
100
AcDbLine
 10
98.3232396757
 20
169.5753746114
 30
0.0
 11
98.3232396757
 21
170.3753746114
 31
0.0
  0
LINE
  5
409
330
1F
100
AcDbEntity
  8
0
  6
Continuous
 62
     7
370
    35
100
AcDbLine
 10
98.3232396757
 20
170.3753746114
 30
0.0
 11
98.0232396757
 21
170.3753746114
 31
0.0
  0
LINE
  5
40A
330
1F
100
AcDbEntity
  8
0
  6
Continuous
 62
     7
370
    35
100
AcDbLine
 10
98.0232396757
 20
169.5753746114
 30
0.0
 11
97.2232396757
 21
169.5753746114
 31
0.0
  0
LINE
  5
40B
330
1F
100
AcDbEntity
  8
0
  6
Continuous
 62
     7
370
    35
100
AcDbLine
 10
97.2232396757
 20
169.2753746114
 30
0.0
 11
97.2232396757
 21
169.5753746114
 31
0.0
  0
LINE
  5
40C
330
1F
100
AcDbEntity
  8
0
  6
Continuous
 62
     7
370
    35
100
AcDbLine
 10
98.0232396757
 20
169.5753746114
 30
0.0
 11
98.0232396757
 21
170.3753746114
 31
0.0
  0
LINE
  5
40D
330
1F
100
AcDbEntity
  8
0
  6
Continuous
 62
     7
370
    35
100
AcDbLine
 10
151.0935498925
 20
147.7171964289
 30
0.0
 11
151.6592353174
 21
148.2828818539
 31
0.0
  0
LINE
  5
40E
330
1F
100
AcDbEntity
  8
0
  6
Continuous
 62
     7
370
    35
100
AcDbLine
 10
150.5278644675
 20
148.2828818539
 30
0.0
 11
151.0935498925
 21
147.7171964289
 31
0.0
  0
LINE
  5
40F
330
1F
100
AcDbEntity
  8
0
  6
Continuous
 62
     7
370
    35
100
AcDbLine
 10
150.3157324332
 20
148.0707498195
 30
0.0
 11
150.5278644675
 21
148.2828818539
 31
0.0
  0
LINE
  5
410
330
1F
100
AcDbEntity
  8
0
  6
Continuous
 62
     7
370
    35
100
AcDbLine
 10
150.3157324332
 20
148.0707498195
 30
0.0
 11
150.8814178581
 21
147.5050643946
 31
0.0
  0
LINE
  5
411
330
1F
100
AcDbEntity
  8
0
  6
Continuous
 62
     7
370
    35
100
AcDbLine
 10
150.3157324332
 20
146.9393789696
 30
0.0
 11
150.8814178581
 21
147.5050643946
 31
0.0
  0
LINE
  5
412
330
1F
100
AcDbEntity
  8
0
  6
Continuous
 62
     7
370
    35
100
AcDbLine
 10
150.3157324332
 20
146.9393789696
 30
0.0
 11
150.5278644675
 21
146.7272469353
 31
0.0
  0
LINE
  5
413
330
1F
100
AcDbEntity
  8
0
  6
Continuous
 62
     7
370
    35
100
AcDbLine
 10
150.5278644675
 20
146.7272469353
 30
0.0
 11
151.0935498925
 21
147.2929323602
 31
0.0
  0
LINE
  5
414
330
1F
100
AcDbEntity
  8
0
  6
Continuous
 62
     7
370
    35
100
AcDbLine
 10
151.0935498925
 20
147.2929323602
 30
0.0
 11
151.6592353174
 21
146.7272469353
 31
0.0
  0
LINE
  5
415
330
1F
100
AcDbEntity
  8
0
  6
Continuous
 62
     7
370
    35
100
AcDbLine
 10
151.6592353174
 20
146.7272469353
 30
0.0
 11
151.8713673518
 21
146.9393789696
 31
0.0
  0
LINE
  5
416
330
1F
100
AcDbEntity
  8
0
  6
Continuous
 62
     7
370
    35
100
AcDbLine
 10
151.3056819268
 20
147.5050643946
 30
0.0
 11
151.8713673518
 21
146.9393789696
 31
0.0
  0
LINE
  5
417
330
1F
100
AcDbEntity
  8
0
  6
Continuous
 62
     7
370
    35
100
AcDbLine
 10
151.3056819268
 20
147.5050643946
 30
0.0
 11
151.8713673518
 21
148.0707498195
 31
0.0
  0
LINE
  5
418
330
1F
100
AcDbEntity
  8
0
  6
Continuous
 62
     7
370
    35
100
AcDbLine
 10
151.6592353174
 20
148.2828818539
 30
0.0
 11
151.8713673518
 21
148.0707498195
 31
0.0
  0
CIRCLE
  5
419
330
1F
100
AcDbEntity
  8
0
  6
Continuous
 62
     7
370
    35
100
AcDbCircle
 10
151.0935498925
 20
147.5050643946
 30
0.0
 40
1.149999999999985
  0
CIRCLE
  5
41A
330
1F
100
AcDbEntity
  8
0
  6
Continuous
 62
     7
370
    35
100
AcDbCircle
 10
151.0935498925
 20
147.5050643946
 30
0.0
 40
1.45
  0
LWPOLYLINE
  5
41B
330
1F
100
AcDbEntity
  8
0
  6
Continuous
 62
     8
370
    35
100
AcDbPolyline
 90
       32
 70
   128
 43
0.0
 10
134.4202467231
 20
137.542634972
 10
134.1137195479
 20
137.5181842108
 10
133.159578752
 20
137.5224649854
 10
132.2116367734
 20
137.647920994
 10
131.2814003437
 20
137.8930293707
 10
130.3801612731
 20
138.2548148317
 10
129.518859383
 20
138.7288857917
 10
128.7079497115
 20
139.3094876714
 10
127.9572756037
 20
139.9895727505
 10
127.2759492262
 20
140.7608857175
 10
126.6722409584
 20
141.6140638776
 10
126.1534790009
 20
142.5387508039
 10
125.725960421
 20
143.5237220496
 10
125.3948747152
 20
144.5570213981
 10
125.1642408155
 20
145.6261059951
 10
125.036858305
 20
146.7179986017
 10
125.0142734347
 20
147.8194451209
 10
125.0967603545
 20
148.9170754839
 10
125.2833177848
 20
149.9975659451
 10
125.5716811712
 20
151.0478008138
 10
125.9583501728
 20
152.0550316616
 10
126.4386311517
 20
153.0070320703
 10
127.0066941475
 20
153.8922460446
 10
127.6556436448
 20
154.6999282859
 10
128.3776022759
 20
155.420274626
 10
129.163806441
 20
156.0445410362
 10
130.0047126865
 20
156.5651497677
 10
130.8901135498
 20
156.975781336
 10
131.8092614637
 20
157.27145123
 10
132.7509992177
 20
157.4485704177
 10
133.7038953911
 20
157.5049889121
 10
134.4202467231
 20
157.4674938172
  0
LWPOLYLINE
  5
41C
330
1F
100
AcDbEntity
  8
0
  6
Continuous
 62
     8
370
    35
100
AcDbPolyline
 90
       32
 70
   128
 43
0.0
 10
105.7668530618
 20
157.4674938172
 10
105.9346777438
 20
157.4824436028
 10
106.8887552128
 20
157.4958393922
 10
107.8383182935
 20
157.387960707
 10
108.7718405764
 20
157.1601170483
 10
109.6779903656
 20
156.8150741294
 10
110.5457682301
 20
156.357020304
 10
111.3646405222
 20
155.7915157251
 10
112.1246672414
 20
155.1254248521
 10
112.8166226931
 20
154.366833126
 10
113.4321074754
 20
153.5249488227
 10
113.9636504367
 20
152.6099912772
 10
114.4047993656
 20
151.6330668346
 10
114.7501993117
 20
150.6060340344
 10
114.9956575875
 20
149.5413596634
 10
115.138194662
 20
148.4519674263
 10
115.1760803283
 20
147.3510810691
 10
115.1088547056
 20
146.2520638609
 10
114.9373338221
 20
145.1682563818
 10
114.6635997088
 20
144.1128145865
 10
114.2909751271
 20
143.0985501085
 10
113.8239832346
 20
142.1377747448
 10
113.2682926803
 20
141.2421510067
 10
112.6306487948
 20
140.4225505531
 10
111.9187917111
 20
139.6889222234
 10
111.1413624098
 20
139.0501712716
 10
110.3077978295
 20
138.514051269
 10
109.4282163152
 20
138.0870699862
 10
108.5132947947
 20
137.7744103976
 10
107.5741391761
 20
137.579867767
 10
106.6221495363
 20
137.5058035784
 10
105.7668530618
 20
137.542634972
  0
CIRCLE
  5
41D
330
1F
100
AcDbEntity
  8
0
  6
HIDDEN
 62
     7
370
    25
100
AcDbCircle
 10
120.0935498925
 20
147.5050643946
 30
0.0
 40
33.0
  0
CIRCLE
  5
41E
330
1F
100
AcDbEntity
  8
0
  6
HIDDEN
 62
     7
370
    25
100
AcDbCircle
 10
120.0935498925
 20
116.5050643946
 30
0.0
 40
1.250000000000014
  0
CIRCLE
  5
41F
330
1F
100
AcDbEntity
  8
0
  6
HIDDEN
 62
     7
370
    25
100
AcDbCircle
 10
98.1732396757
 20
125.5847541778
 30
0.0
 40
1.250000000000014
  0
CIRCLE
  5
420
330
1F
100
AcDbEntity
  8
0
  6
HIDDEN
 62
     7
370
    25
100
AcDbCircle
 10
89.0935498925
 20
147.5050643946
 30
0.0
 40
1.25
  0
CIRCLE
  5
421
330
1F
100
AcDbEntity
  8
0
  6
HIDDEN
 62
     7
370
    25
100
AcDbCircle
 10
98.1732396757
 20
169.4253746114
 30
0.0
 40
1.25
  0
CIRCLE
  5
422
330
1F
100
AcDbEntity
  8
0
  6
HIDDEN
 62
     7
370
    25
100
AcDbCircle
 10
120.0935498925
 20
178.5050643946
 30
0.0
 40
1.25
  0
CIRCLE
  5
423
330
1F
100
AcDbEntity
  8
0
  6
HIDDEN
 62
     7
370
    25
100
AcDbCircle
 10
142.0138601092
 20
169.4253746114
 30
0.0
 40
1.25
  0
CIRCLE
  5
424
330
1F
100
AcDbEntity
  8
0
  6
HIDDEN
 62
     7
370
    25
100
AcDbCircle
 10
151.0935498925
 20
147.5050643946
 30
0.0
 40
1.25
  0
CIRCLE
  5
425
330
1F
100
AcDbEntity
  8
0
  6
HIDDEN
 62
     7
370
    25
100
AcDbCircle
 10
142.0138601092
 20
125.5847541778
 30
0.0
 40
1.25
  0
LINE
  5
426
330
1F
100
AcDbEntity
  8
0
  6
HIDDEN
 62
     7
370
    25
100
AcDbLine
 10
146.074312006
 20
148.5050643946
 30
0.0
 11
138.9568143386
 21
148.5050643946
 31
0.0
  0
ARC
  5
427
330
1F
100
AcDbEntity
  8
0
  6
HIDDEN
 62
     7
370
    25
100
AcDbCircle
 10
120.0935498925
 20
147.5050643946
 30
0.0
 40
26.00000000000001
100
AcDbArc
 50
2.204227504
 51
117.795772496
  0
LINE
  5
428
330
1F
100
AcDbEntity
  8
0
  6
HIDDEN
 62
     7
370
    25
100
AcDbLine
 10
113.4762605227
 20
160.9665457914
 30
0.0
 11
107.9691942395
 21
170.5050643946
 31
0.0
  0
ARC
  5
429
330
1F
100
AcDbEntity
  8
0
  6
HIDDEN
 62
     7
370
    25
100
AcDbCircle
 10
120.0935498925
 20
147.5050643946
 30
0.0
 40
15.00000000000002
100
AcDbArc
 50
26.5753561202
 51
116.1774462707
  0
ARC
  5
42A
330
1F
100
AcDbEntity
  8
0
  6
HIDDEN
 62
     7
370
    25
100
AcDbCircle
 10
120.0935498925
 20
147.5050643946
 30
0.0
 40
26.00000000000002
100
AcDbArc
 50
242.204227504
 51
357.795772496
  0
LINE
  5
42B
330
1F
100
AcDbEntity
  8
0
  6
HIDDEN
 62
     7
370
    25
100
AcDbLine
 10
138.9568143386
 20
146.5050643946
 30
0.0
 11
146.074312006
 21
146.5050643946
 31
0.0
  0
ARC
  5
42C
330
1F
100
AcDbEntity
  8
0
  6
HIDDEN
 62
     7
370
    25
100
AcDbCircle
 10
120.0935498925
 20
147.5050643946
 30
0.0
 40
14.99999999999999
100
AcDbArc
 50
243.8225537293
 51
333.4246438798
  0
LINE
  5
42D
330
1F
100
AcDbEntity
  8
0
  6
HIDDEN
 62
     7
370
    25
100
AcDbLine
 10
107.9691942395
 20
124.5050643946
 30
0.0
 11
113.4762605227
 21
134.0435829978
 31
0.0
  0
ARC
  5
42E
330
1F
100
AcDbEntity
  8
0
  6
HIDDEN
 62
     7
370
    25
100
AcDbCircle
 10
120.0935498925
 20
147.5050643946
 30
0.0
 40
26.00000000000002
100
AcDbArc
 50
122.204227504
 51
237.795772496
  0
LINE
  5
42F
330
1F
100
AcDbEntity
  8
0
  6
HIDDEN
 62
     7
370
    25
100
AcDbLine
 10
111.7442097151
 20
135.0435829978
 30
0.0
 11
106.2371434319
 21
125.5050643946
 31
0.0
  0
ARC
  5
430
330
1F
100
AcDbEntity
  8
0
  6
HIDDEN
 62
     7
370
    25
100
AcDbCircle
 10
120.0935498925
 20
147.5050643946
 30
0.0
 40
15.00000000000002
100
AcDbArc
 50
123.8225537293
 51
153.4246438798
  0
ARC
  5
431
330
1F
100
AcDbEntity
  8
0
  6
HIDDEN
 62
     7
370
    25
100
AcDbCircle
 10
120.0935498925
 20
147.5050643946
 30
0.0
 40
14.99999999999998
100
AcDbArc
 50
206.5753561202
 51
236.1774462707
  0
LINE
  5
432
330
1F
100
AcDbEntity
  8
0
  6
HIDDEN
 62
     7
370
    25
100
AcDbLine
 10
106.2371434319
 20
169.5050643946
 30
0.0
 11
111.7442097151
 21
159.9665457914
 31
0.0
  0
CIRCLE
  5
433
330
1F
100
AcDbEntity
  8
0
  6
HIDDEN
 62
     7
370
    25
100
AcDbCircle
 10
120.0935498925
 20
116.5050643946
 30
0.0
 40
1.250000000000014
  0
CIRCLE
  5
434
330
1F
100
AcDbEntity
  8
0
  6
HIDDEN
 62
     7
370
    25
100
AcDbCircle
 10
98.1732396757
 20
125.5847541778
 30
0.0
 40
1.250000000000014
  0
CIRCLE
  5
435
330
1F
100
AcDbEntity
  8
0
  6
HIDDEN
 62
     7
370
    25
100
AcDbCircle
 10
142.0138601092
 20
125.5847541778
 30
0.0
 40
1.25
  0
LINE
  5
436
330
1F
100
AcDbEntity
  8
0
  6
HIDDEN
 62
     7
370
    25
100
AcDbLine
 10
146.074312006
 20
146.5050643946
 30
0.0
 11
135.0601794396
 21
146.5050643946
 31
0.0
  0
ARC
  5
437
330
1F
100
AcDbEntity
  8
0
  6
HIDDEN
 62
     7
370
    25
100
AcDbCircle
 10
120.0935498925
 20
147.5050643946
 30
0.0
 40
15.0
100
AcDbArc
 50
243.8225537293
 51
356.1774462707
  0
ARC
  5
438
330
1F
100
AcDbEntity
  8
0
  6
HIDDEN
 62
     7
370
    25
100
AcDbCircle
 10
120.0935498925
 20
147.5050643946
 30
0.0
 40
26.00000000000002
100
AcDbArc
 50
242.204227504
 51
357.795772496
  0
CIRCLE
  5
439
330
1F
100
AcDbEntity
  8
0
  6
HIDDEN
 62
     7
370
    25
100
AcDbCircle
 10
151.0935498925
 20
147.5050643946
 30
0.0
 40
1.25
  0
CIRCLE
  5
43A
330
1F
100
AcDbEntity
  8
0
  6
HIDDEN
 62
     7
370
    25
100
AcDbCircle
 10
89.0935498925
 20
147.5050643946
 30
0.0
 40
1.25
  0
LINE
  5
43B
330
1F
100
AcDbEntity
  8
0
  6
HIDDEN
 62
     7
370
    25
100
AcDbLine
 10
135.0601794396
 20
148.5050643946
 30
0.0
 11
146.074312006
 21
148.5050643946
 31
0.0
  0
ARC
  5
43C
330
1F
100
AcDbEntity
  8
0
  6
HIDDEN
 62
     7
370
    25
100
AcDbCircle
 10
120.0935498925
 20
147.5050643946
 30
0.0
 40
14.99999999999999
100
AcDbArc
 50
123.8225537293
 51
236.1774462707
  0
ARC
  5
43D
330
1F
100
AcDbEntity
  8
0
  6
HIDDEN
 62
     7
370
    25
100
AcDbCircle
 10
120.0935498925
 20
147.5050643946
 30
0.0
 40
15.00000000000002
100
AcDbArc
 50
3.8225537293
 51
116.1774462707
  0
ARC
  5
43E
330
1F
100
AcDbEntity
  8
0
  6
HIDDEN
 62
     7
370
    25
100
AcDbCircle
 10
120.0935498925
 20
147.5050643946
 30
0.0
 40
26.0
100
AcDbArc
 50
122.204227504
 51
237.795772496
  0
CIRCLE
  5
43F
330
1F
100
AcDbEntity
  8
0
  6
HIDDEN
 62
     7
370
    25
100
AcDbCircle
 10
142.0138601092
 20
169.4253746114
 30
0.0
 40
1.25
  0
CIRCLE
  5
440
330
1F
100
AcDbEntity
  8
0
  6
HIDDEN
 62
     7
370
    25
100
AcDbCircle
 10
98.1732396757
 20
169.4253746114
 30
0.0
 40
1.25
  0
ARC
  5
441
330
1F
100
AcDbEntity
  8
0
  6
HIDDEN
 62
     7
370
    25
100
AcDbCircle
 10
120.0935498925
 20
147.5050643946
 30
0.0
 40
26.00000000000001
100
AcDbArc
 50
2.204227504
 51
117.795772496
  0
CIRCLE
  5
442
330
1F
100
AcDbEntity
  8
0
  6
HIDDEN
 62
     7
370
    25
100
AcDbCircle
 10
120.0935498925
 20
178.5050643946
 30
0.0
 40
1.25
  0
CIRCLE
  5
443
330
1F
100
AcDbEntity
  8
0
  6
HIDDEN
 62
     7
370
    25
100
AcDbCircle
 10
120.0935498925
 20
147.5050643946
 30
0.0
 40
33.0
  0
DIMENSION
  5
444
330
1F
100
AcDbEntity
  8
DIM
100
AcDbDimension
  2
_D_11
 10
110.3904214711
 20
158.9440022315
 30
0.0
 11
162.6304549023
 21
109.1515776695
 31
0.0
 70
   163
  1
<> Baffle
 71
     1
 42
-1.0
  3
SLDDIMSTYLE3
100
AcDbDiametricDimension
 15
129.7966783139
 25
136.0661265576
 35
0.0
 40
0.0
  0
INSERT
  5
45A
330
1F
100
AcDbEntity
  8
DIM
100
AcDbBlockReference
  2
SW_CENTERMARKSYMBOL_0
 10
120.0935498925
 20
147.5050643946
 30
0.0
  0
ENDSEC
  0
SECTION
  2
OBJECTS
  0
DICTIONARY
  5
C
330
0
100
AcDbDictionary
281
     1
  3
ACAD_GROUP
350
D
  3
ACAD_LAYOUT
350
1A
  3
ACAD_MLINESTYLE
350
17
  3
ACAD_PLOTSETTINGS
350
19
  3
ACAD_PLOTSTYLENAME
350
E
  3
ACAD_SCALELIST
350
47
  3
DWGPROPS
350
45B
  0
DICTIONARY
  5
D
102
{ACAD_REACTORS
330
C
102
}
330
C
100
AcDbDictionary
281
     1
  0
DICTIONARY
  5
1A
102
{ACAD_REACTORS
330
C
102
}
330
C
100
AcDbDictionary
281
     1
  3
Layout1
350
1E
  3
Layout2
350
26
  3
Model
350
22
  0
DICTIONARY
  5
17
102
{ACAD_REACTORS
330
C
102
}
330
C
100
AcDbDictionary
281
     1
  3
Standard
350
18
  0
DICTIONARY
  5
19
102
{ACAD_REACTORS
330
C
102
}
330
C
100
AcDbDictionary
281
     1
  0
ACDBDICTIONARYWDFLT
  5
E
102
{ACAD_REACTORS
330
C
102
}
330
C
100
AcDbDictionary
281
     1
  3
Normal
350
F
100
AcDbDictionaryWithDefault
340
F
  0
DICTIONARY
  5
47
102
{ACAD_REACTORS
330
C
102
}
330
C
100
AcDbDictionary
281
     1
  3
A0
350
48
  3
A1
350
49
  3
A2
350
4A
  3
A3
350
4B
  3
A4
350
4C
  3
A5
350
4D
  3
A6
350
4E
  3
A7
350
4F
  3
A8
350
50
  3
A9
350
51
  3
B0
350
52
  3
B1
350
53
  3
B2
350
54
  3
B3
350
55
  3
B4
350
56
  3
B5
350
57
  3
B6
350
58
  3
B7
350
59
  3
B8
350
5A
  3
B9
350
5B
  3
C0
350
5C
  3
C1
350
5D
  3
C2
350
5E
  3
C3
350
5F
  3
C4
350
60
  3
C5
350
61
  3
C6
350
62
  3
C7
350
63
  3
C8
350
64
  3
C9
350
65
  3
D0
350
66
  3
D1
350
67
  3
D2
350
68
  0
XRECORD
  5
45B
102
{ACAD_REACTORS
330
C
102
}
330
C
100
AcDbXrecord
280
     1
  1
DWGPROPS COOKIE
  2

  3

  4

  6

  7

  8
R2591
  9

300
=
301
=
302
=
303
=
304
=
305
=
306
=
307
=
308
=
309
=
 40
0.0
 41
2459212.265710047
 42
2459212.265712396
  1

 90
        0
  0
LAYOUT
  5
1E
102
{ACAD_REACTORS
330
1A
102
}
330
1A
100
AcDbPlotSettings
  1

  2
none_device
  4

  6

 40
0.0
 41
0.0
 42
0.0
 43
0.0
 44
0.0
 45
0.0
 46
0.0
 47
0.0
 48
0.0
 49
0.0
140
0.0
141
0.0
142
1.0
143
1.0
 70
   688
 72
     1
 73
     0
 74
     5
  7

 75
    16
147
1.0
148
0.0
149
0.0
100
AcDbLayout
  1
Layout1
 70
     1
 71
     1
 10
0.0
 20
0.0
 11
420.0
 21
297.0
 12
0.0
 22
0.0
 32
0.0
 14
1.0000000000E+20
 24
1.0000000000E+20
 34
1.0000000000E+20
 15
-1.0000000000E+20
 25
-1.0000000000E+20
 35
-1.0000000000E+20
146
0.0
 13
0.0
 23
0.0
 33
0.0
 16
1.0
 26
0.0
 36
0.0
 17
0.0
 27
1.0
 37
0.0
 76
     0
330
1B
  0
LAYOUT
  5
26
102
{ACAD_REACTORS
330
1A
102
}
330
1A
100
AcDbPlotSettings
  1

  2
none_device
  4

  6

 40
0.0
 41
0.0
 42
0.0
 43
0.0
 44
0.0
 45
0.0
 46
0.0
 47
0.0
 48
0.0
 49
0.0
140
0.0
141
0.0
142
1.0
143
1.0
 70
   688
 72
     1
 73
     0
 74
     5
  7

 75
    16
147
1.0
148
0.0
149
0.0
100
AcDbLayout
  1
Layout2
 70
     1
 71
     2
 10
0.0
 20
0.0
 11
0.0
 21
0.0
 12
0.0
 22
0.0
 32
0.0
 14
0.0
 24
0.0
 34
0.0
 15
0.0
 25
0.0
 35
0.0
146
0.0
 13
0.0
 23
0.0
 33
0.0
 16
1.0
 26
0.0
 36
0.0
 17
0.0
 27
1.0
 37
0.0
 76
     0
330
23
  0
LAYOUT
  5
22
102
{ACAD_REACTORS
330
1A
102
}
330
1A
100
AcDbPlotSettings
  1

  2
none_device
  4
Letter_(8.50_x_11.00_Inches)
  6

 40
6.35
 41
6.35
 42
6.35000508
 43
6.35000508
 44
215.9
 45
279.4
 46
0.0
 47
0.0
 48
0.0
 49
0.0
140
0.0
141
0.0
142
1.0
143
1.0
 70
  1712
 72
     1
 73
     0
 74
     0
  7

 75
     0
147
1.0
148
0.0
149
0.0
100
AcDbLayout
  1
Model
 70
     1
 71
     0
 10
0.0
 20
0.0
 11
297.0
 21
210.0
 12
0.0
 22
0.0
 32
0.0
 14
0.0
 24
0.0
 34
0.0
 15
297.0
 25
210.0
 35
0.0
146
0.0
 13
0.0
 23
0.0
 33
0.0
 16
1.0
 26
0.0
 36
0.0
 17
0.0
 27
1.0
 37
0.0
 76
     0
330
1F
331
29
  0
MLINESTYLE
  5
18
102
{ACAD_REACTORS
330
17
102
}
330
17
100
AcDbMlineStyle
  2
Standard
 70
     0
  3

 62
   256
 51
90.0
 52
90.0
 71
     2
 49
0.5
 62
   256
  6
BYLAYER
 49
-0.5
 62
   256
  6
BYLAYER
  0
ACDBPLACEHOLDER
  5
F
102
{ACAD_REACTORS
330
E
102
}
330
E
  0
SCALE
  5
48
102
{ACAD_REACTORS
330
47
102
}
330
47
100
AcDbScale
 70
     0
300
1:1
140
1.0
141
1.0
290
     1
  0
SCALE
  5
49
102
{ACAD_REACTORS
330
47
102
}
330
47
100
AcDbScale
 70
     0
300
1:2
140
1.0
141
2.0
290
     0
  0
SCALE
  5
4A
102
{ACAD_REACTORS
330
47
102
}
330
47
100
AcDbScale
 70
     0
300
1:4
140
1.0
141
4.0
290
     0
  0
SCALE
  5
4B
102
{ACAD_REACTORS
330
47
102
}
330
47
100
AcDbScale
 70
     0
300
1:5
140
1.0
141
5.0
290
     0
  0
SCALE
  5
4C
102
{ACAD_REACTORS
330
47
102
}
330
47
100
AcDbScale
 70
     0
300
1:8
140
1.0
141
8.0
290
     0
  0
SCALE
  5
4D
102
{ACAD_REACTORS
330
47
102
}
330
47
100
AcDbScale
 70
     0
300
1:10
140
1.0
141
10.0
290
     0
  0
SCALE
  5
4E
102
{ACAD_REACTORS
330
47
102
}
330
47
100
AcDbScale
 70
     0
300
1:16
140
1.0
141
16.0
290
     0
  0
SCALE
  5
4F
102
{ACAD_REACTORS
330
47
102
}
330
47
100
AcDbScale
 70
     0
300
1:20
140
1.0
141
20.0
290
     0
  0
SCALE
  5
50
102
{ACAD_REACTORS
330
47
102
}
330
47
100
AcDbScale
 70
     0
300
1:30
140
1.0
141
30.0
290
     0
  0
SCALE
  5
51
102
{ACAD_REACTORS
330
47
102
}
330
47
100
AcDbScale
 70
     0
300
1:40
140
1.0
141
40.0
290
     0
  0
SCALE
  5
52
102
{ACAD_REACTORS
330
47
102
}
330
47
100
AcDbScale
 70
     0
300
1:50
140
1.0
141
50.0
290
     0
  0
SCALE
  5
53
102
{ACAD_REACTORS
330
47
102
}
330
47
100
AcDbScale
 70
     0
300
1:100
140
1.0
141
100.0
290
     0
  0
SCALE
  5
54
102
{ACAD_REACTORS
330
47
102
}
330
47
100
AcDbScale
 70
     0
300
2:1
140
2.0
141
1.0
290
     0
  0
SCALE
  5
55
102
{ACAD_REACTORS
330
47
102
}
330
47
100
AcDbScale
 70
     0
300
4:1
140
4.0
141
1.0
290
     0
  0
SCALE
  5
56
102
{ACAD_REACTORS
330
47
102
}
330
47
100
AcDbScale
 70
     0
300
8:1
140
8.0
141
1.0
290
     0
  0
SCALE
  5
57
102
{ACAD_REACTORS
330
47
102
}
330
47
100
AcDbScale
 70
     0
300
10:1
140
10.0
141
1.0
290
     0
  0
SCALE
  5
58
102
{ACAD_REACTORS
330
47
102
}
330
47
100
AcDbScale
 70
     0
300
100:1
140
100.0
141
1.0
290
     0
  0
SCALE
  5
59
102
{ACAD_REACTORS
330
47
102
}
330
47
100
AcDbScale
 70
     0
300
1/128" = 1'-0"
140
0.0078125
141
12.0
290
     0
  0
SCALE
  5
5A
102
{ACAD_REACTORS
330
47
102
}
330
47
100
AcDbScale
 70
     0
300
1/64" = 1'-0"
140
0.015625
141
12.0
290
     0
  0
SCALE
  5
5B
102
{ACAD_REACTORS
330
47
102
}
330
47
100
AcDbScale
 70
     0
300
1/32" = 1'-0"
140
0.03125
141
12.0
290
     0
  0
SCALE
  5
5C
102
{ACAD_REACTORS
330
47
102
}
330
47
100
AcDbScale
 70
     0
300
1/16" = 1'-0"
140
0.0625
141
12.0
290
     0
  0
SCALE
  5
5D
102
{ACAD_REACTORS
330
47
102
}
330
47
100
AcDbScale
 70
     0
300
3/32" = 1'-0"
140
0.09375
141
12.0
290
     0
  0
SCALE
  5
5E
102
{ACAD_REACTORS
330
47
102
}
330
47
100
AcDbScale
 70
     0
300
1/8" = 1'-0"
140
0.125
141
12.0
290
     0
  0
SCALE
  5
5F
102
{ACAD_REACTORS
330
47
102
}
330
47
100
AcDbScale
 70
     0
300
3/16" = 1'-0"
140
0.1875
141
12.0
290
     0
  0
SCALE
  5
60
102
{ACAD_REACTORS
330
47
102
}
330
47
100
AcDbScale
 70
     0
300
1/4" = 1'-0"
140
0.25
141
12.0
290
     0
  0
SCALE
  5
61
102
{ACAD_REACTORS
330
47
102
}
330
47
100
AcDbScale
 70
     0
300
3/8" = 1'-0"
140
0.375
141
12.0
290
     0
  0
SCALE
  5
62
102
{ACAD_REACTORS
330
47
102
}
330
47
100
AcDbScale
 70
     0
300
1/2" = 1'-0"
140
0.5
141
12.0
290
     0
  0
SCALE
  5
63
102
{ACAD_REACTORS
330
47
102
}
330
47
100
AcDbScale
 70
     0
300
3/4" = 1'-0"
140
0.75
141
12.0
290
     0
  0
SCALE
  5
64
102
{ACAD_REACTORS
330
47
102
}
330
47
100
AcDbScale
 70
     0
300
1" = 1'-0"
140
1.0
141
12.0
290
     0
  0
SCALE
  5
65
102
{ACAD_REACTORS
330
47
102
}
330
47
100
AcDbScale
 70
     0
300
1-1/2" = 1'-0"
140
1.5
141
12.0
290
     0
  0
SCALE
  5
66
102
{ACAD_REACTORS
330
47
102
}
330
47
100
AcDbScale
 70
     0
300
3" = 1'-0"
140
3.0
141
12.0
290
     0
  0
SCALE
  5
67
102
{ACAD_REACTORS
330
47
102
}
330
47
100
AcDbScale
 70
     0
300
6" = 1'-0"
140
6.0
141
12.0
290
     0
  0
SCALE
  5
68
102
{ACAD_REACTORS
330
47
102
}
330
47
100
AcDbScale
 70
     0
300
1'-0" = 1'-0"
140
12.0
141
12.0
290
     0
  0
ENDSEC
  0
EOF
