  0
SECTION
  2
HEADER
  9
$ACADVER
  1
AC1015
  9
$ACADMAINTVER
 70
     6
  9
$DWGCODEPAGE
  3
ANSI_950
  9
$INSBASE
 10
0.0
 20
0.0
 30
0.0
  9
$EXTMIN
 10
0.0
 20
0.0
 30
0.0
  9
$EXTMAX
 10
297.0
 20
210.0
 30
0.0
  9
$LIMMIN
 10
0.0
 20
0.0
  9
$LIMMAX
 10
297.0
 20
210.0
  9
$ORTHOMODE
 70
     0
  9
$REGENMODE
 70
     1
  9
$FILLMODE
 70
     1
  9
$QTEXTMODE
 70
     0
  9
$MIRRTEXT
 70
     1
  9
$LTSCALE
 40
1.0
  9
$ATTMODE
 70
     1
  9
$TEXTSIZE
 40
4.2333333333
  9
$TRACEWID
 40
1.0
  9
$TEXTSTYLE
  7
Standard
  9
$CLAYER
  8
0
  9
$CELTYPE
  6
ByLayer
  9
$CECOLOR
 62
   256
  9
$CELTSCALE
 40
1.0
  9
$DISPSILH
 70
     0
  9
$DIMSCALE
 40
1.0
  9
$DIMASZ
 40
2.5424804688
  9
$DIMEXO
 40
1.0
  9
$DIMDLI
 40
3.75
  9
$DIMRND
 40
0.0
  9
$DIMDLE
 40
0.0
  9
$DIMEXE
 40
1.0
  9
$DIMTP
 40
0.0
  9
$DIMTM
 40
0.0
  9
$DIMTXT
 40
3.175
  9
$DIMCEN
 40
2.5
  9
$DIMTSZ
 40
0.0
  9
$DIMTOL
 70
     0
  9
$DIMLIM
 70
     0
  9
$DIMTIH
 70
     1
  9
$DIMTOH
 70
     1
  9
$DIMSE1
 70
     0
  9
$DIMSE2
 70
     0
  9
$DIMTAD
 70
     1
  9
$DIMZIN
 70
     0
  9
$DIMBLK
  1

  9
$DIMASO
 70
     1
  9
$DIMSHO
 70
     1
  9
$DIMPOST
  1

  9
$DIMAPOST
  1

  9
$DIMALT
 70
     0
  9
$DIMALTD
 70
     3
  9
$DIMALTF
 40
0.0393700787
  9
$DIMLFAC
 40
1.0
  9
$DIMTOFL
 70
     1
  9
$DIMTVP
 40
0.0
  9
$DIMTIX
 70
     0
  9
$DIMSOXD
 70
     0
  9
$DIMSAH
 70
     0
  9
$DIMBLK1
  1

  9
$DIMBLK2
  1

  9
$DIMSTYLE
  2
ISO-25
  9
$DIMCLRD
 70
     0
  9
$DIMCLRE
 70
     0
  9
$DIMCLRT
 70
     0
  9
$DIMTFAC
 40
1.0
  9
$DIMGAP
 40
1.0
  9
$DIMJUST
 70
     0
  9
$DIMSD1
 70
     0
  9
$DIMSD2
 70
     0
  9
$DIMTOLJ
 70
     0
  9
$DIMTZIN
 70
     0
  9
$DIMALTZ
 70
     0
  9
$DIMALTTZ
 70
     0
  9
$DIMUPT
 70
     0
  9
$DIMDEC
 70
     2
  9
$DIMTDEC
 70
     2
  9
$DIMALTU
 70
     2
  9
$DIMALTTD
 70
     3
  9
$DIMTXSTY
  7
Standard
  9
$DIMAUNIT
 70
     0
  9
$DIMADEC
 70
     2
  9
$DIMALTRND
 40
0.0
  9
$DIMAZIN
 70
     0
  9
$DIMDSEP
 70
    44
  9
$DIMATFIT
 70
     3
  9
$DIMFRAC
 70
     0
  9
$DIMLDRBLK
  1

  9
$DIMLUNIT
 70
     2
  9
$DIMLWD
 70
    -2
  9
$DIMLWE
 70
    -2
  9
$DIMTMOVE
 70
     0
  9
$LUNITS
 70
     2
  9
$LUPREC
 70
     2
  9
$SKETCHINC
 40
1.0
  9
$FILLETRAD
 40
10.0
  9
$AUNITS
 70
     0
  9
$AUPREC
 70
     2
  9
$MENU
  1
.
  9
$ELEVATION
 40
0.0
  9
$PELEVATION
 40
0.0
  9
$THICKNESS
 40
0.0
  9
$LIMCHECK
 70
     0
  9
$CHAMFERA
 40
0.0
  9
$CHAMFERB
 40
0.0
  9
$CHAMFERC
 40
0.0
  9
$CHAMFERD
 40
0.0
  9
$SKPOLY
 70
     0
  9
$TDCREATE
 40
2458911.393761666
  9
$TDUCREATE
 40
2458911.060428333
  9
$TDUPDATE
 40
2458911.393765416
  9
$TDUUPDATE
 40
2458911.060432083
  9
$TDINDWG
 40
0.0000000116
  9
$TDUSRTIMER
 40
0.0000000116
  9
$USRTIMER
 70
     1
  9
$ANGBASE
 50
0.0
  9
$ANGDIR
 70
     0
  9
$PDMODE
 70
     0
  9
$PDSIZE
 40
-1.0
  9
$PLINEWID
 40
0.0
  9
$SPLFRAME
 70
     0
  9
$SPLINETYPE
 70
     6
  9
$SPLINESEGS
 70
     8
  9
$HANDSEED
  5
53F
  9
$SURFTAB1
 70
     6
  9
$SURFTAB2
 70
     6
  9
$SURFTYPE
 70
     6
  9
$SURFU
 70
     6
  9
$SURFV
 70
     6
  9
$UCSBASE
  2

  9
$UCSNAME
  2

  9
$UCSORG
 10
0.0
 20
0.0
 30
0.0
  9
$UCSXDIR
 10
1.0
 20
0.0
 30
0.0
  9
$UCSYDIR
 10
0.0
 20
1.0
 30
0.0
  9
$UCSORTHOREF
  2

  9
$UCSORTHOVIEW
 70
     0
  9
$UCSORGTOP
 10
0.0
 20
0.0
 30
0.0
  9
$UCSORGBOTTOM
 10
0.0
 20
0.0
 30
0.0
  9
$UCSORGLEFT
 10
0.0
 20
0.0
 30
0.0
  9
$UCSORGRIGHT
 10
0.0
 20
0.0
 30
0.0
  9
$UCSORGFRONT
 10
0.0
 20
0.0
 30
0.0
  9
$UCSORGBACK
 10
0.0
 20
0.0
 30
0.0
  9
$PUCSBASE
  2

  9
$PUCSNAME
  2

  9
$PUCSORG
 10
0.0
 20
0.0
 30
0.0
  9
$PUCSXDIR
 10
1.0
 20
0.0
 30
0.0
  9
$PUCSYDIR
 10
0.0
 20
1.0
 30
0.0
  9
$PUCSORTHOREF
  2

  9
$PUCSORTHOVIEW
 70
     0
  9
$PUCSORGTOP
 10
0.0
 20
0.0
 30
0.0
  9
$PUCSORGBOTTOM
 10
0.0
 20
0.0
 30
0.0
  9
$PUCSORGLEFT
 10
0.0
 20
0.0
 30
0.0
  9
$PUCSORGRIGHT
 10
0.0
 20
0.0
 30
0.0
  9
$PUCSORGFRONT
 10
0.0
 20
0.0
 30
0.0
  9
$PUCSORGBACK
 10
0.0
 20
0.0
 30
0.0
  9
$USERI1
 70
     0
  9
$USERI2
 70
     0
  9
$USERI3
 70
     0
  9
$USERI4
 70
     0
  9
$USERI5
 70
     0
  9
$USERR1
 40
0.0
  9
$USERR2
 40
0.0
  9
$USERR3
 40
0.0
  9
$USERR4
 40
0.0
  9
$USERR5
 40
0.0
  9
$WORLDVIEW
 70
     1
  9
$SHADEDGE
 70
     3
  9
$SHADEDIF
 70
    70
  9
$TILEMODE
 70
     1
  9
$MAXACTVP
 70
    64
  9
$PINSBASE
 10
0.0
 20
0.0
 30
0.0
  9
$PLIMCHECK
 70
     0
  9
$PEXTMIN
 10
1.0000000000E+20
 20
1.0000000000E+20
 30
1.0000000000E+20
  9
$PEXTMAX
 10
-1.0000000000E+20
 20
-1.0000000000E+20
 30
-1.0000000000E+20
  9
$PLIMMIN
 10
0.0
 20
0.0
  9
$PLIMMAX
 10
420.0
 20
297.0
  9
$UNITMODE
 70
     0
  9
$VISRETAIN
 70
     1
  9
$PLINEGEN
 70
     0
  9
$PSLTSCALE
 70
     1
  9
$TREEDEPTH
 70
  3020
  9
$CMLSTYLE
  2
Standard
  9
$CMLJUST
 70
     0
  9
$CMLSCALE
 40
20.0
  9
$PROXYGRAPHICS
 70
     1
  9
$MEASUREMENT
 70
     1
  9
$CELWEIGHT
370
    -1
  9
$ENDCAPS
280
     0
  9
$JOINSTYLE
280
     0
  9
$LWDISPLAY
290
     1
  9
$INSUNITS
 70
     4
  9
$HYPERLINKBASE
  1

  9
$STYLESHEET
  1

  9
$XEDIT
290
     1
  9
$CEPSNTYPE
380
     0
  9
$PSTYLEMODE
290
     1
  9
$FINGERPRINTGUID
  2
{92F61CCE-2171-421D-B97C-ABD212AFF189}
  9
$VERSIONGUID
  2
{FAEB1C32-E019-11D5-929B-00C0DF256EC4}
  9
$EXTNAMES
290
     1
  9
$PSVPSCALE
 40
0.0
  9
$OLESTARTUP
290
     0
  0
ENDSEC
  0
SECTION
  2
CLASSES
  0
CLASS
  1
ACDBDICTIONARYWDFLT
  2
AcDbDictionaryWithDefault
  3
ObjectDBX Classes
 90
        0
280
     0
281
     0
  0
CLASS
  1
VISUALSTYLE
  2
AcDbVisualStyle
  3
ObjectDBX Classes
 90
     4095
280
     0
281
     0
  0
CLASS
  1
MATERIAL
  2
AcDbMaterial
  3
ObjectDBX Classes
 90
     1153
280
     0
281
     0
  0
CLASS
  1
SCALE
  2
AcDbScale
  3
ObjectDBX Classes
 90
     1153
280
     0
281
     0
  0
CLASS
  1
TABLESTYLE
  2
AcDbTableStyle
  3
ObjectDBX Classes
 90
     4095
280
     0
281
     0
  0
CLASS
  1
MLEADERSTYLE
  2
AcDbMLeaderStyle
  3
ACDB_MLEADERSTYLE_CLASS
 90
     4095
280
     0
281
     0
  0
CLASS
  1
SUN
  2
AcDbSun
  3
SCENEOE
 90
     1153
280
     0
281
     0
  0
CLASS
  1
ACDBPLACEHOLDER
  2
AcDbPlaceHolder
  3
ObjectDBX Classes
 90
        0
280
     0
281
     0
  0
CLASS
  1
LAYOUT
  2
AcDbLayout
  3
ObjectDBX Classes
 90
        0
280
     0
281
     0
  0
ENDSEC
  0
SECTION
  2
TABLES
  0
TABLE
  2
VPORT
  5
8
330
0
100
AcDbSymbolTable
 70
     1
  0
VPORT
  5
29
330
8
100
AcDbSymbolTableRecord
100
AcDbViewportTableRecord
  2
*Active
 70
     0
 10
0.0
 20
0.0
 11
1.0
 21
1.0
 12
148.5
 22
105.0
 13
0.0
 23
0.0
 14
10.0
 24
10.0
 15
10.0
 25
10.0
 16
0.0
 26
0.0
 36
1.0
 17
0.0
 27
0.0
 37
0.0
 40
210.0
 41
1.4142857143
 42
50.0
 43
0.0
 44
0.0
 50
0.0
 51
0.0
 71
     0
 72
  2000
 73
     1
 74
     3
 75
     0
 76
     0
 77
     0
 78
     0
281
     0
 65
     1
110
0.0
120
0.0
130
0.0
111
1.0
121
0.0
131
0.0
112
0.0
122
1.0
132
0.0
 79
     0
146
0.0
  0
ENDTAB
  0
TABLE
  2
LTYPE
  5
5
330
0
100
AcDbSymbolTable
 70
     6
  0
LTYPE
  5
14
330
5
100
AcDbSymbolTableRecord
100
AcDbLinetypeTableRecord
  2
ByBlock
 70
     0
  3

 72
    65
 73
     0
 40
0.0
  0
LTYPE
  5
15
330
5
100
AcDbSymbolTableRecord
100
AcDbLinetypeTableRecord
  2
ByLayer
 70
     0
  3

 72
    65
 73
     0
 40
0.0
  0
LTYPE
  5
16
330
5
100
AcDbSymbolTableRecord
100
AcDbLinetypeTableRecord
  2
Continuous
 70
     0
  3
Solid line
 72
    65
 73
     0
 40
0.0
  0
LTYPE
  5
6E
330
5
100
AcDbSymbolTableRecord
100
AcDbLinetypeTableRecord
  2
HIDDEN
 70
     0
  3
Hidden __ __ __ __ __ __ __ __ __ __ __ __ __ __
 72
    65
 73
     2
 40
1.905
 49
1.27
 74
     0
 49
-0.635
 74
     0
  0
LTYPE
  5
6F
330
5
100
AcDbSymbolTableRecord
100
AcDbLinetypeTableRecord
  2
PHANTOM
 70
     0
  3
Phantom ______  __  __  ______  __  __  ______
 72
    65
 73
     6
 40
12.7
 49
6.35
 74
     0
 49
-1.27
 74
     0
 49
1.27
 74
     0
 49
-1.27
 74
     0
 49
1.27
 74
     0
 49
-1.27
 74
     0
  0
LTYPE
  5
70
330
5
100
AcDbSymbolTableRecord
100
AcDbLinetypeTableRecord
  2
CENTER
 70
     0
  3
Center ____ _ ____ _ ____ _ ____ _ ____ _ ____
 72
    65
 73
     4
 40
10.16
 49
6.35
 74
     0
 49
-1.27
 74
     0
 49
1.27
 74
     0
 49
-1.27
 74
     0
  0
LTYPE
  5
71
330
5
100
AcDbSymbolTableRecord
100
AcDbLinetypeTableRecord
  2
CENTERX2
 70
     0
  3
Center (2x) ________  __  ________  __  _____
 72
    65
 73
     4
 40
20.32
 49
12.7
 74
     0
 49
-2.54
 74
     0
 49
2.54
 74
     0
 49
-2.54
 74
     0
  0
LTYPE
  5
72
330
5
100
AcDbSymbolTableRecord
100
AcDbLinetypeTableRecord
  2
DOT2
 70
     0
  3
Dot (.5x) ........................................
 72
    65
 73
     2
 40
0.635
 49
0.0
 74
     0
 49
-0.635
 74
     0
  0
ENDTAB
  0
TABLE
  2
LAYER
  5
2
330
0
100
AcDbSymbolTable
 70
    10
  0
LAYER
  5
10
330
2
100
AcDbSymbolTableRecord
100
AcDbLayerTableRecord
  2
0
 70
     0
 62
     7
  6
Continuous
370
    -3
390
F
  0
LAYER
  5
73
330
2
100
AcDbSymbolTableRecord
100
AcDbLayerTableRecord
  2
SLD-0
 70
     0
 62
     7
  6
Continuous
370
    15
390
F
  0
LAYER
  5
74
330
2
100
AcDbSymbolTableRecord
100
AcDbLayerTableRecord
  2
輪廓線
 70
     0
 62
   219
  6
Continuous
370
    15
390
F
  0
LAYER
  5
75
330
2
100
AcDbSymbolTableRecord
100
AcDbLayerTableRecord
  2
DIM
 70
     0
 62
     7
  6
Continuous
370
    -3
390
F
  0
LAYER
  5
76
330
2
100
AcDbSymbolTableRecord
100
AcDbLayerTableRecord
  2
中心線
 70
     0
 62
     7
  6
CENTERX2
370
    -3
390
F
  0
LAYER
  5
77
330
2
100
AcDbSymbolTableRecord
100
AcDbLayerTableRecord
  2
虛線
 70
     0
 62
     7
  6
HIDDEN
370
    -3
390
F
  0
LAYER
  5
78
330
2
100
AcDbSymbolTableRecord
100
AcDbLayerTableRecord
  2
SECTION
 70
     0
 62
     7
  6
PHANTOM
370
    15
390
F
  0
LAYER
  5
79
330
2
100
AcDbSymbolTableRecord
100
AcDbLayerTableRecord
  2
假想線
 70
     0
 62
     7
  6
PHANTOM
370
    -3
390
F
  0
LAYER
  5
7A
330
2
100
AcDbSymbolTableRecord
100
AcDbLayerTableRecord
  2
圖層_1
 70
     0
 62
   179
  6
Continuous
370
    -3
390
F
  0
LAYER
  5
7B
330
2
100
AcDbSymbolTableRecord
100
AcDbLayerTableRecord
  2
工作區域參考線
 70
     0
 62
   179
  6
Continuous
370
    -3
390
F
  0
ENDTAB
  0
TABLE
  2
STYLE
  5
3
330
0
100
AcDbSymbolTable
 70
     5
  0
STYLE
  5
11
330
3
100
AcDbSymbolTableRecord
100
AcDbTextStyleTableRecord
  2
Standard
 70
     0
 40
0.0
 41
1.0
 50
0.0
 71
     0
 42
4.2333333333
  3
txt
  4

  0
STYLE
  5
CC
330
3
100
AcDbSymbolTableRecord
100
AcDbTextStyleTableRecord
  2
SLDTEXTSTYLE0
 70
     0
 40
0.0
 41
0.5315789474
 50
0.0
 71
     0
 42
4.2333333333
  3
TXT
  4

  0
STYLE
  5
CE
330
3
100
AcDbSymbolTableRecord
100
AcDbTextStyleTableRecord
  2
SLDTEXTSTYLE1
 70
     0
 40
0.0
 41
0.663
 50
0.0
 71
     0
 42
4.2333333333
  3
TXT
  4

  0
STYLE
  5
D0
330
3
100
AcDbSymbolTableRecord
100
AcDbTextStyleTableRecord
  2
SLDTEXTSTYLE2
 70
     0
 40
0.0
 41
0.605
 50
0.0
 71
     0
 42
4.2333333333
  3
TXT
  4

  0
STYLE
  5
107
330
3
100
AcDbSymbolTableRecord
100
AcDbTextStyleTableRecord
  2
SLDTEXTSTYLE3
 70
     0
 40
0.0
 41
0.7
 50
0.0
 71
     0
 42
4.2333333333
  3
TXT
  4

  0
ENDTAB
  0
TABLE
  2
VIEW
  5
6
330
0
100
AcDbSymbolTable
 70
     0
  0
ENDTAB
  0
TABLE
  2
UCS
  5
7
330
0
100
AcDbSymbolTable
 70
     0
  0
ENDTAB
  0
TABLE
  2
APPID
  5
9
330
0
100
AcDbSymbolTable
 70
     1
  0
APPID
  5
12
330
9
100
AcDbSymbolTableRecord
100
AcDbRegAppTableRecord
  2
ACAD
 70
     0
  0
ENDTAB
  0
TABLE
  2
DIMSTYLE
  5
A
330
0
100
AcDbSymbolTable
 70
     6
100
AcDbDimStyleTable
  0
DIMSTYLE
105
27
330
A
100
AcDbSymbolTableRecord
100
AcDbDimStyleTableRecord
  2
ISO-25
 70
     0
 41
2.5
 42
0.625
 43
3.75
 44
1.25
 73
     0
 74
     0
 77
     1
 78
     8
140
2.5
141
2.5
143
0.0393700787
147
0.625
171
     3
172
     1
178
     0
271
     2
272
     2
274
     3
278
    44
283
     0
284
     8
340
11
  0
DIMSTYLE
105
231
102
{ACAD_REACTORS
330
230
330
23B
330
25E
330
268
102
}
330
A
100
AcDbSymbolTableRecord
100
AcDbDimStyleTableRecord
  2
SLDDIMSTYLE0
 70
     0
 41
2.5424804688
 44
0.0
 45
0.000000001
 73
     0
 74
     0
 77
     1
 78
    12
 79
     3
140
2.5424804688
147
0.6356201172
173
     1
178
     0
271
     2
272
     2
276
     2
284
    12
340
107
  0
DIMSTYLE
105
246
102
{ACAD_REACTORS
330
245
330
252
102
}
330
A
100
AcDbSymbolTableRecord
100
AcDbDimStyleTableRecord
  2
SLDDIMSTYLE1
 70
     0
 41
2.5424804688
 44
0.0
 45
0.000000001
 73
     0
 74
     0
 77
     1
 78
    12
 79
     3
140
2.5424804688
147
0.6356201172
172
     1
173
     1
178
     0
271
     2
272
     2
276
     2
284
    12
289
     0
340
107
  0
DIMSTYLE
105
273
102
{ACAD_REACTORS
330
272
102
}
330
A
100
AcDbSymbolTableRecord
100
AcDbDimStyleTableRecord
  2
SLDDIMSTYLE2
 70
     0
 41
2.5424804688
 44
0.0
 45
0.000000001
 73
     0
 74
     0
 77
     1
 78
    12
 79
     3
140
2.5424804688
147
0.6356201172
173
     1
178
     0
271
     0
272
     0
276
     2
284
    12
340
107
  0
DIMSTYLE
105
27E
102
{ACAD_REACTORS
330
27D
102
}
330
A
100
AcDbSymbolTableRecord
100
AcDbDimStyleTableRecord
  2
SLDDIMSTYLE3
 70
     0
 41
2.5424804688
 44
0.0
 45
0.000000001
 78
    12
 79
     3
140
2.5424804688
141
0.0
147
0.6356201172
173
     1
178
     0
271
     2
272
     2
276
     2
284
    12
340
107
  0
DIMSTYLE
105
289
330
A
100
AcDbSymbolTableRecord
100
AcDbDimStyleTableRecord
  2
SLDDIMSTYLE4
 70
     0
 41
2.5424804688
 44
0.0
 45
0.000000001
146
2.5424804688
147
0.0
173
     1
178
     0
271
     0
272
     0
276
     2
340
11
  0
ENDTAB
  0
TABLE
  2
BLOCK_RECORD
  5
1
330
0
100
AcDbSymbolTable
 70
    17
  0
BLOCK_RECORD
  5
1F
330
1
100
AcDbSymbolTableRecord
100
AcDbBlockTableRecord
  2
*Model_Space
340
22
  0
BLOCK_RECORD
  5
1B
330
1
100
AcDbSymbolTableRecord
100
AcDbBlockTableRecord
  2
*Paper_Space
340
1E
  0
BLOCK_RECORD
  5
23
330
1
100
AcDbSymbolTableRecord
100
AcDbBlockTableRecord
  2
*Paper_Space0
340
26
  0
BLOCK_RECORD
  5
7C
330
1
100
AcDbSymbolTableRecord
100
AcDbBlockTableRecord
  2
圖塊6
340
0
102
{BLKREFS
331
CB
102
}
  0
BLOCK_RECORD
  5
D2
330
1
100
AcDbSymbolTableRecord
100
AcDbBlockTableRecord
  2
SW_NOTE_0
340
0
102
{BLKREFS
331
D8
102
}
  0
BLOCK_RECORD
  5
109
330
1
100
AcDbSymbolTableRecord
100
AcDbBlockTableRecord
  2
SW_NOTE_1
340
0
102
{BLKREFS
331
10E
102
}
  0
BLOCK_RECORD
  5
10F
330
1
100
AcDbSymbolTableRecord
100
AcDbBlockTableRecord
  2
SW_TABLEANNOTATION_0
340
0
102
{BLKREFS
331
138
102
}
  0
BLOCK_RECORD
  5
232
330
1
100
AcDbSymbolTableRecord
100
AcDbBlockTableRecord
  2
_D
340
0
  0
BLOCK_RECORD
  5
23C
330
1
100
AcDbSymbolTableRecord
100
AcDbBlockTableRecord
  2
_D_1
340
0
  0
BLOCK_RECORD
  5
247
330
1
100
AcDbSymbolTableRecord
100
AcDbBlockTableRecord
  2
_D_2
340
0
  0
BLOCK_RECORD
  5
253
330
1
100
AcDbSymbolTableRecord
100
AcDbBlockTableRecord
  2
_D_3
340
0
  0
BLOCK_RECORD
  5
25F
330
1
100
AcDbSymbolTableRecord
100
AcDbBlockTableRecord
  2
_D_4
340
0
  0
BLOCK_RECORD
  5
269
330
1
100
AcDbSymbolTableRecord
100
AcDbBlockTableRecord
  2
_D_5
340
0
  0
BLOCK_RECORD
  5
274
330
1
100
AcDbSymbolTableRecord
100
AcDbBlockTableRecord
  2
_D_6
340
0
  0
BLOCK_RECORD
  5
27F
330
1
100
AcDbSymbolTableRecord
100
AcDbBlockTableRecord
  2
_D_7
340
0
  0
BLOCK_RECORD
  5
28E
330
1
100
AcDbSymbolTableRecord
100
AcDbBlockTableRecord
  2
SW_CENTERMARKSYMBOL_0
340
0
102
{BLKREFS
331
299
102
}
  0
BLOCK_RECORD
  5
29A
330
1
100
AcDbSymbolTableRecord
100
AcDbBlockTableRecord
  2
SW_CENTERMARKSYMBOL_1
340
0
102
{BLKREFS
331
2A5
102
}
  0
BLOCK_RECORD
  5
2A6
330
1
100
AcDbSymbolTableRecord
100
AcDbBlockTableRecord
  2
SW_CENTERMARKSYMBOL_2
340
0
102
{BLKREFS
331
2B1
102
}
  0
BLOCK_RECORD
  5
2B2
330
1
100
AcDbSymbolTableRecord
100
AcDbBlockTableRecord
  2
SW_CENTERMARKSYMBOL_3
340
0
102
{BLKREFS
331
2BD
102
}
  0
ENDTAB
  0
ENDSEC
  0
SECTION
  2
BLOCKS
  0
BLOCK
  5
20
330
1F
100
AcDbEntity
  8
0
100
AcDbBlockBegin
  2
*Model_Space
 70
     0
 10
0.0
 20
0.0
 30
0.0
  3
*Model_Space
  1

  0
ENDBLK
  5
21
330
1F
100
AcDbEntity
  8
0
100
AcDbBlockEnd
  0
BLOCK
  5
1C
330
1B
100
AcDbEntity
 67
     1
  8
0
100
AcDbBlockBegin
  2
*Paper_Space
 70
     0
 10
0.0
 20
0.0
 30
0.0
  3
*Paper_Space
  1

  0
ENDBLK
  5
1D
330
1B
100
AcDbEntity
 67
     1
  8
0
100
AcDbBlockEnd
  0
BLOCK
  5
24
330
23
100
AcDbEntity
  8
0
100
AcDbBlockBegin
  2
*Paper_Space0
 70
     0
 10
0.0
 20
0.0
 30
0.0
  3
*Paper_Space0
  1

  0
ENDBLK
  5
25
330
23
100
AcDbEntity
  8
0
100
AcDbBlockEnd
  0
BLOCK
  5
7D
330
7C
100
AcDbEntity
  8
0
100
AcDbBlockBegin
  2
圖塊6
 70
     0
 10
0.0
 20
0.0
 30
0.0
  3
圖塊6
  1

  0
ARC
  5
7F
330
7C
100
AcDbEntity
  8
圖層_1
 62
     7
370
    30
100
AcDbCircle
 10
1.5301544339
 20
6.1020682891
 30
0.0
 40
1.53015443394367
100
AcDbArc
 50
130.2115225915
 51
228.588904108
  0
ARC
  5
80
330
7C
100
AcDbEntity
  8
圖層_1
 62
     7
370
    30
100
AcDbCircle
 10
4.8509135981
 20
5.9949454415
 30
0.0
 40
2.577335426817622
100
AcDbArc
 50
140.4331765613
 51
251.0865666567
  0
ARC
  5
81
330
7C
100
AcDbEntity
  8
圖層_1
 62
     7
370
    30
100
AcDbCircle
 10
5.1765041982
 20
6.3117559713
 30
0.0
 40
2.989636657769863
100
AcDbArc
 50
247.1485306747
 51
309.6030773927
  0
LINE
  5
82
330
7C
100
AcDbEntity
  8
圖層_1
 62
     7
370
    30
100
AcDbLine
 10
1.8488977269
 20
8.5321825984
 30
0.0
 11
0.542269472
 21
7.2705955219
 31
0.0
  0
LINE
  5
83
330
7C
100
AcDbEntity
  8
圖層_1
 62
     7
370
    30
100
AcDbLine
 10
0.51802289
 20
4.9544784977
 30
0.0
 11
4.5272252002
 21
1.4698746574
 31
0.0
  0
LINE
  5
84
330
7C
100
AcDbEntity
  8
圖層_1
 62
     7
370
    30
100
AcDbLine
 10
4.5272252002
 20
1.4698746574
 30
0.0
 11
3.8961732797
 21
0.853974267
 31
0.0
  0
LINE
  5
85
330
7C
100
AcDbEntity
  8
圖層_1
 62
     7
370
    30
100
AcDbLine
 10
3.8961732797
 20
0.853974267
 30
0.0
 11
4.8880526445
 21
0.0
 31
0.0
  0
LINE
  5
86
330
7C
100
AcDbEntity
  8
圖層_1
 62
     7
370
    30
100
AcDbLine
 10
8.0977170788
 20
3.1165779655
 30
0.0
 11
7.0822940472
 21
4.0083036932
 31
0.0
  0
LINE
  5
87
330
7C
100
AcDbEntity
  8
圖層_1
 62
     7
370
    30
100
AcDbLine
 10
2.8640915743
 20
7.6366506975
 30
0.0
 11
1.8488977269
 21
8.5321825984
 31
0.0
  0
LINE
  5
88
330
7C
100
AcDbEntity
  8
圖層_1
 62
     7
370
    30
100
AcDbLine
 10
4.8880526445
 20
0.0
 30
0.0
 11
8.0977170788
 21
3.1165779655
 31
0.0
  0
ENDBLK
  5
7E
330
7C
100
AcDbEntity
  8
0
100
AcDbBlockEnd
  0
BLOCK
  5
D3
330
D2
100
AcDbEntity
  8
0
100
AcDbBlockBegin
  2
SW_NOTE_0
 70
     0
 10
0.0
 20
0.0
 30
0.0
  3
SW_NOTE_0
  1

  0
MTEXT
  5
D5
330
D2
100
AcDbEntity
  8
0
  6
Continuous
 62
     0
370
     0
100
AcDbMText
 10
0.0
 20
3.4106583948
 30
0.0
 40
2.6458333333
 41
0.0
 71
     1
 72
     1
  1
PROPRIETARY AND CONFIDENTIAL
  7
SLDTEXTSTYLE2
 73
     1
 44
1.0
  0
MTEXT
  5
D6
330
D2
100
AcDbEntity
  8
0
  6
Continuous
 62
     0
370
     0
100
AcDbMText
 10
0.0
 20
-0.08198348
 30
0.0
 40
1.8520833333
 41
0.0
 71
     1
 72
     1
  1
THE INFORMATION CONTAINED IN THIS DRAWING IS THE SOLE PROPERTY OF UNICE E-O SERVICES INC. ANY REPRODUCTION IN PART OR AS A WHOLE WITHOUT THE WRITTEN PERMISSION OF UNICE E-O SERVICES INC IS
  7
SLDTEXTSTYLE2
 73
     1
 44
1.0
  0
MTEXT
  5
D7
330
D2
100
AcDbEntity
  8
0
  6
Continuous
 62
     0
370
     0
100
AcDbMText
 10
0.0
 20
-2.5514278946
 30
0.0
 40
1.8520833333
 41
0.0
 71
     1
 72
     1
  1
PROHIBITED.
  7
SLDTEXTSTYLE2
 73
     1
 44
1.0
  0
ENDBLK
  5
D4
330
D2
100
AcDbEntity
  8
0
100
AcDbBlockEnd
  0
BLOCK
  5
10A
330
109
100
AcDbEntity
  8
0
100
AcDbBlockBegin
  2
SW_NOTE_1
 70
     0
 10
0.0
 20
0.0
 30
0.0
  3
SW_NOTE_1
  1

  0
MTEXT
  5
10C
330
109
100
AcDbEntity
  8
SLD-0
 62
     0
100
AcDbMText
 10
0.0
 20
2.0463950369
 30
0.0
 40
1.5875
 41
0.0
 71
     1
 72
     1
  1
No.5, Andong Rd., Chung Li District,
  7
SLDTEXTSTYLE2
 73
     1
 44
1.0
  0
MTEXT
  5
10D
330
109
100
AcDbEntity
  8
SLD-0
 62
     0
100
AcDbMText
 10
0.0
 20
-0.0702716042
 30
0.0
 40
1.5875
 41
0.0
 71
     1
 72
     1
  1
Taoyuan City 32063, Taiwan, R.O.C.
  7
SLDTEXTSTYLE2
 73
     1
 44
1.0
  0
ENDBLK
  5
10B
330
109
100
AcDbEntity
  8
0
100
AcDbBlockEnd
  0
BLOCK
  5
110
330
10F
100
AcDbEntity
  8
0
100
AcDbBlockBegin
  2
SW_TABLEANNOTATION_0
 70
     0
 10
0.0
 20
0.0
 30
0.0
  3
SW_TABLEANNOTATION_0
  1

  0
LINE
  5
112
330
10F
100
AcDbEntity
  8
SLD-0
 62
     0
100
AcDbLine
 10
0.0
 20
0.0
 30
0.0
 11
0.0
 21
-77.0
 31
0.0
  0
LINE
  5
113
330
10F
100
AcDbEntity
  8
SLD-0
 62
     0
100
AcDbLine
 10
0.0
 20
-77.0
 30
0.0
 11
73.7895022716
 21
-77.0
 31
0.0
  0
LINE
  5
114
330
10F
100
AcDbEntity
  8
SLD-0
 62
     0
100
AcDbLine
 10
73.7895022716
 20
-77.0
 30
0.0
 11
73.7895022716
 21
0.0
 31
0.0
  0
LINE
  5
115
330
10F
100
AcDbEntity
  8
SLD-0
 62
     0
100
AcDbLine
 10
73.7895022716
 20
0.0
 30
0.0
 11
0.0
 21
0.0
 31
0.0
  0
LINE
  5
116
330
10F
100
AcDbEntity
  8
SLD-0
 62
     0
100
AcDbLine
 10
21.7895022716
 20
0.0
 30
0.0
 11
21.7895022716
 21
-77.0
 31
0.0
  0
LINE
  5
117
330
10F
100
AcDbEntity
  8
SLD-0
 62
     0
100
AcDbLine
 10
0.0
 20
-7.0
 30
0.0
 11
73.7895022716
 21
-7.0
 31
0.0
  0
LINE
  5
118
330
10F
100
AcDbEntity
  8
SLD-0
 62
     0
100
AcDbLine
 10
0.0
 20
-14.0
 30
0.0
 11
73.7895022716
 21
-14.0
 31
0.0
  0
LINE
  5
119
330
10F
100
AcDbEntity
  8
SLD-0
 62
     0
100
AcDbLine
 10
0.0
 20
-21.0
 30
0.0
 11
73.7895022716
 21
-21.0
 31
0.0
  0
LINE
  5
11A
330
10F
100
AcDbEntity
  8
SLD-0
 62
     0
100
AcDbLine
 10
0.0
 20
-28.0
 30
0.0
 11
73.7895022716
 21
-28.0
 31
0.0
  0
LINE
  5
11B
330
10F
100
AcDbEntity
  8
SLD-0
 62
     0
100
AcDbLine
 10
0.0
 20
-35.0
 30
0.0
 11
73.7895022716
 21
-35.0
 31
0.0
  0
LINE
  5
11C
330
10F
100
AcDbEntity
  8
SLD-0
 62
     0
100
AcDbLine
 10
0.0
 20
-42.0
 30
0.0
 11
73.7895022716
 21
-42.0
 31
0.0
  0
LINE
  5
11D
330
10F
100
AcDbEntity
  8
SLD-0
 62
     0
100
AcDbLine
 10
0.0
 20
-49.0
 30
0.0
 11
73.7895022716
 21
-49.0
 31
0.0
  0
LINE
  5
11E
330
10F
100
AcDbEntity
  8
SLD-0
 62
     0
100
AcDbLine
 10
0.0
 20
-56.0
 30
0.0
 11
73.7895022716
 21
-56.0
 31
0.0
  0
LINE
  5
11F
330
10F
100
AcDbEntity
  8
SLD-0
 62
     0
100
AcDbLine
 10
0.0
 20
-63.0
 30
0.0
 11
73.7895022716
 21
-63.0
 31
0.0
  0
LINE
  5
120
330
10F
100
AcDbEntity
  8
SLD-0
 62
     0
100
AcDbLine
 10
0.0
 20
-70.0
 30
0.0
 11
73.7895022716
 21
-70.0
 31
0.0
  0
MTEXT
  5
121
330
10F
100
AcDbEntity
  8
SLD-0
 62
     0
100
AcDbMText
 10
8.2614179296
 20
-1.5702968654
 30
0.0
 40
3.0
 41
0.0
 71
     1
 72
     1
  1
No
  7
SLDTEXTSTYLE2
 73
     1
 44
1.0
  0
MTEXT
  5
122
330
10F
100
AcDbEntity
  8
SLD-0
 62
     0
100
AcDbMText
 10
37.9558218058
 20
-1.5238766837
 30
0.0
 40
3.175
 41
0.0
 71
     1
 72
     1
  1
Description
  7
SLDTEXTSTYLE3
 73
     1
 44
1.0
  0
MTEXT
  5
123
330
10F
100
AcDbEntity
  8
SLD-0
 62
     0
100
AcDbMText
 10
9.7489178475
 20
-8.9529740308
 30
0.0
 40
3.0
 41
0.0
 71
     1
 72
     1
  1
1
  7
SLDTEXTSTYLE2
 73
     1
 44
1.0
  0
MTEXT
  5
124
330
10F
100
AcDbEntity
  8
SLD-0
 62
     0
100
AcDbMText
 10
39.4492478456
 20
-8.9065538491
 30
0.0
 40
3.175
 41
0.0
 71
     1
 72
     1
  1
Phase A +
  7
SLDTEXTSTYLE3
 73
     1
 44
1.0
  0
MTEXT
  5
125
330
10F
100
AcDbEntity
  8
SLD-0
 62
     0
100
AcDbMText
 10
9.7489178475
 20
-15.9529740308
 30
0.0
 40
3.0
 41
0.0
 71
     1
 72
     1
  1
2
  7
SLDTEXTSTYLE2
 73
     1
 44
1.0
  0
MTEXT
  5
126
330
10F
100
AcDbEntity
  8
SLD-0
 62
     0
100
AcDbMText
 10
44.4586920433
 20
-15.9065538491
 30
0.0
 40
3.175
 41
0.0
 71
     1
 72
     1
  1
+5V
  7
SLDTEXTSTYLE3
 73
     1
 44
1.0
  0
MTEXT
  5
127
330
10F
100
AcDbEntity
  8
SLD-0
 62
     0
100
AcDbMText
 10
9.7489178475
 20
-22.9529740308
 30
0.0
 40
3.0
 41
0.0
 71
     1
 72
     1
  1
3
  7
SLDTEXTSTYLE2
 73
     1
 44
1.0
  0
MTEXT
  5
128
330
10F
100
AcDbEntity
  8
SLD-0
 62
     0
100
AcDbMText
 10
39.5227431666
 20
-22.9065538491
 30
0.0
 40
3.175
 41
0.0
 71
     1
 72
     1
  1
Phase B +
  7
SLDTEXTSTYLE3
 73
     1
 44
1.0
  0
MTEXT
  5
129
330
10F
100
AcDbEntity
  8
SLD-0
 62
     0
100
AcDbMText
 10
9.7489178475
 20
-29.9529740308
 30
0.0
 40
3.0
 41
0.0
 71
     1
 72
     1
  1
4
  7
SLDTEXTSTYLE2
 73
     1
 44
1.0
  0
MTEXT
  5
12A
330
10F
100
AcDbEntity
  8
SLD-0
 62
     0
100
AcDbMText
 10
39.452188031
 20
-29.9065538491
 30
0.0
 40
3.175
 41
0.0
 71
     1
 72
     1
  1
Phase B -
  7
SLDTEXTSTYLE3
 73
     1
 44
1.0
  0
MTEXT
  5
12B
330
10F
100
AcDbEntity
  8
SLD-0
 62
     0
100
AcDbMText
 10
9.7489178475
 20
-36.9529740308
 30
0.0
 40
3.0
 41
0.0
 71
     1
 72
     1
  1
5
  7
SLDTEXTSTYLE2
 73
     1
 44
1.0
  0
MTEXT
  5
12C
330
10F
100
AcDbEntity
  8
SLD-0
 62
     0
100
AcDbMText
 10
41.2660532977
 20
-36.9065538491
 30
0.0
 40
3.175
 41
0.0
 71
     1
 72
     1
  1
Ground
  7
SLDTEXTSTYLE3
 73
     1
 44
1.0
  0
MTEXT
  5
12D
330
10F
100
AcDbEntity
  8
SLD-0
 62
     0
100
AcDbMText
 10
9.7489178475
 20
-43.9529740308
 30
0.0
 40
3.0
 41
0.0
 71
     1
 72
     1
  1
6
  7
SLDTEXTSTYLE2
 73
     1
 44
1.0
  0
MTEXT
  5
12E
330
10F
100
AcDbEntity
  8
SLD-0
 62
     0
100
AcDbMText
 10
39.7990861323
 20
-44.0153269707
 30
0.0
 40
3.175
 41
0.0
 71
     1
 72
     1
  1
Phase A
  7
SLDTEXTSTYLE3
 73
     1
 44
1.0
  0
MTEXT
  5
12F
330
10F
100
AcDbEntity
  8
SLD-0
 62
     0
100
AcDbMText
 10
54.3688082482
 20
-43.7977807275
 30
0.0
 40
3.175
 41
0.0
 71
     1
 72
     1
  1
-
  7
SLDTEXTSTYLE1
 73
     1
 44
1.0
  0
MTEXT
  5
130
330
10F
100
AcDbEntity
  8
SLD-0
 62
     0
100
AcDbMText
 10
9.7489178475
 20
-50.5702968654
 30
0.0
 40
3.0
 41
0.0
 71
     1
 72
     1
  1
7
  7
SLDTEXTSTYLE2
 73
     1
 44
1.0
  0
MTEXT
  5
131
330
10F
100
AcDbEntity
  8
SLD-0
 62
     0
100
AcDbMText
 10
23.1509128
 20
-50.5238766837
 30
0.0
 40
3.175
 41
0.0
 71
     1
 72
     1
  1
Reference switch (optional)
  7
SLDTEXTSTYLE3
 73
     1
 44
1.0
  0
MTEXT
  5
132
330
10F
100
AcDbEntity
  8
SLD-0
 62
     0
100
AcDbMText
 10
9.7489178475
 20
-57.9529740308
 30
0.0
 40
3.0
 41
0.0
 71
     1
 72
     1
  1
8
  7
SLDTEXTSTYLE2
 73
     1
 44
1.0
  0
MTEXT
  5
133
330
10F
100
AcDbEntity
  8
SLD-0
 62
     0
100
AcDbMText
 10
41.9951275337
 20
-57.9065538491
 30
0.0
 40
3.175
 41
0.0
 71
     1
 72
     1
  1
Limit +
  7
SLDTEXTSTYLE3
 73
     1
 44
1.0
  0
MTEXT
  5
134
330
10F
100
AcDbEntity
  8
SLD-0
 62
     0
100
AcDbMText
 10
9.7489178475
 20
-64.9529740308
 30
0.0
 40
3.0
 41
0.0
 71
     1
 72
     1
  1
9
  7
SLDTEXTSTYLE2
 73
     1
 44
1.0
  0
MTEXT
  5
135
330
10F
100
AcDbEntity
  8
SLD-0
 62
     0
100
AcDbMText
 10
42.4037616115
 20
-64.9065538491
 30
0.0
 40
3.175
 41
0.0
 71
     1
 72
     1
  1
Limit -
  7
SLDTEXTSTYLE3
 73
     1
 44
1.0
  0
MTEXT
  5
136
330
10F
100
AcDbEntity
  8
SLD-0
 62
     0
100
AcDbMText
 10
8.6030845592
 20
-71.9529740308
 30
0.0
 40
3.0
 41
0.0
 71
     1
 72
     1
  1
10
  7
SLDTEXTSTYLE2
 73
     1
 44
1.0
  0
MTEXT
  5
137
330
10F
100
AcDbEntity
  8
SLD-0
 62
     0
100
AcDbMText
 10
43.7854745772
 20
-71.9065538491
 30
0.0
 40
3.175
 41
0.0
 71
     1
 72
     1
  1
GND
  7
SLDTEXTSTYLE3
 73
     1
 44
1.0
  0
ENDBLK
  5
111
330
10F
100
AcDbEntity
  8
0
100
AcDbBlockEnd
  0
BLOCK
  5
233
330
232
100
AcDbEntity
  8
0
100
AcDbBlockBegin
  2
_D
 70
     0
 10
0.0
 20
0.0
 30
0.0
  3
_D
  1

  0
SOLID
  5
235
330
232
100
AcDbEntity
  8
DIM
100
AcDbTrace
 10
148.9689932576
 20
88.6737655217
 30
0.0
 11
148.5778424162
 21
86.1312850529
 31
0.0
 12
149.3601440989
 22
86.1312850529
 32
0.0
 13
149.3601440989
 23
86.1312850529
 33
0.0
  0
SOLID
  5
236
330
232
100
AcDbEntity
  8
DIM
100
AcDbTrace
 10
148.9689932576
 20
45.6737655217
 30
0.0
 11
149.3601440989
 21
48.2162459904
 31
0.0
 12
148.5778424162
 22
48.2162459904
 32
0.0
 13
148.5778424162
 23
48.2162459904
 33
0.0
  0
LINE
  5
237
330
232
100
AcDbEntity
  8
DIM
100
AcDbLine
 10
136.9689932576
 20
88.6737655217
 30
0.0
 11
149.9689932576
 21
88.6737655217
 31
0.0
  0
LINE
  5
238
330
232
100
AcDbEntity
  8
DIM
100
AcDbLine
 10
136.9689932576
 20
45.6737655217
 30
0.0
 11
149.9689932576
 21
45.6737655217
 31
0.0
  0
LINE
  5
239
330
232
100
AcDbEntity
  8
DIM
100
AcDbLine
 10
148.9689932576
 20
88.6737655217
 30
0.0
 11
148.9689932576
 21
45.6737655217
 31
0.0
  0
MTEXT
  5
23A
330
232
100
AcDbEntity
  8
DIM
100
AcDbMText
 10
145.8994008187
 20
65.6832794344
 30
0.0
 40
2.38125
 41
0.0
 71
     1
 72
     1
  1
43
  7
SLDTEXTSTYLE3
 11
-7.044195017643634E-15
 21
1.0
 31
0.0
 73
     1
 44
1.0
  0
ENDBLK
  5
234
330
232
100
AcDbEntity
  8
0
100
AcDbBlockEnd
  0
BLOCK
  5
23D
330
23C
100
AcDbEntity
  8
0
100
AcDbBlockBegin
  2
_D_1
 70
     0
 10
0.0
 20
0.0
 30
0.0
  3
_D_1
  1

  0
SOLID
  5
23F
330
23C
100
AcDbEntity
  8
DIM
100
AcDbTrace
 10
76.4689932576
 20
98.1737655217
 30
0.0
 11
79.0114737263
 21
97.7826146803
 31
0.0
 12
79.0114737263
 22
98.564916363
 32
0.0
 13
79.0114737263
 23
98.564916363
 33
0.0
  0
SOLID
  5
240
330
23C
100
AcDbEntity
  8
DIM
100
AcDbTrace
 10
133.4689932576
 20
98.1737655217
 30
0.0
 11
130.9265127888
 21
98.564916363
 31
0.0
 12
130.9265127888
 22
97.7826146803
 32
0.0
 13
130.9265127888
 23
97.7826146803
 33
0.0
  0
LINE
  5
241
330
23C
100
AcDbEntity
  8
DIM
100
AcDbLine
 10
76.4689932576
 20
92.1737655217
 30
0.0
 11
76.4689932576
 21
99.1737655217
 31
0.0
  0
LINE
  5
242
330
23C
100
AcDbEntity
  8
DIM
100
AcDbLine
 10
133.4689932576
 20
92.1737655217
 30
0.0
 11
133.4689932576
 21
99.1737655217
 31
0.0
  0
LINE
  5
243
330
23C
100
AcDbEntity
  8
DIM
100
AcDbLine
 10
76.4689932576
 20
98.1737655217
 30
0.0
 11
133.4689932576
 21
98.1737655217
 31
0.0
  0
MTEXT
  5
244
330
23C
100
AcDbEntity
  8
DIM
100
AcDbMText
 10
103.4785071703
 20
101.2433579606
 30
0.0
 40
2.38125
 41
0.0
 71
     1
 72
     1
  1
57
  7
SLDTEXTSTYLE3
 73
     1
 44
1.0
  0
ENDBLK
  5
23E
330
23C
100
AcDbEntity
  8
0
100
AcDbBlockEnd
  0
BLOCK
  5
248
330
247
100
AcDbEntity
  8
0
100
AcDbBlockBegin
  2
_D_2
 70
     0
 10
0.0
 20
0.0
 30
0.0
  3
_D_2
  1

  0
SOLID
  5
24A
330
247
100
AcDbEntity
  8
DIM
100
AcDbTrace
 10
133.4689932576
 20
98.1737655217
 30
0.0
 11
130.9265127888
 21
98.564916363
 31
0.0
 12
130.9265127888
 22
97.7826146803
 32
0.0
 13
130.9265127888
 23
97.7826146803
 33
0.0
  0
SOLID
  5
24B
330
247
100
AcDbEntity
  8
DIM
100
AcDbTrace
 10
136.4689932576
 20
98.1737655217
 30
0.0
 11
139.0114737263
 21
97.7826146803
 31
0.0
 12
139.0114737263
 22
98.564916363
 32
0.0
 13
139.0114737263
 23
98.564916363
 33
0.0
  0
LINE
  5
24C
330
247
100
AcDbEntity
  8
DIM
100
AcDbLine
 10
133.4689932576
 20
92.1737655217
 30
0.0
 11
133.4689932576
 21
99.1737655217
 31
0.0
  0
LINE
  5
24D
330
247
100
AcDbEntity
  8
DIM
100
AcDbLine
 10
136.4689932576
 20
93.1737655217
 30
0.0
 11
136.4689932576
 21
99.1737655217
 31
0.0
  0
LINE
  5
24E
330
247
100
AcDbEntity
  8
DIM
100
AcDbLine
 10
133.4689932576
 20
98.1737655217
 30
0.0
 11
128.5796077407
 21
98.1737655217
 31
0.0
  0
LINE
  5
24F
330
247
100
AcDbEntity
  8
DIM
100
AcDbLine
 10
133.4689932576
 20
98.1737655217
 30
0.0
 11
136.4689932576
 21
98.1737655217
 31
0.0
  0
LINE
  5
250
330
247
100
AcDbEntity
  8
DIM
100
AcDbLine
 10
136.4689932576
 20
98.1737655217
 30
0.0
 11
141.3583787744
 21
98.1737655217
 31
0.0
  0
MTEXT
  5
251
330
247
100
AcDbEntity
  8
DIM
100
AcDbMText
 10
134.2237502139
 20
101.2433579606
 30
0.0
 40
2.38125
 41
0.0
 71
     1
 72
     1
  1
3
  7
SLDTEXTSTYLE3
 73
     1
 44
1.0
  0
ENDBLK
  5
249
330
247
100
AcDbEntity
  8
0
100
AcDbBlockEnd
  0
BLOCK
  5
254
330
253
100
AcDbEntity
  8
0
100
AcDbBlockBegin
  2
_D_3
 70
     0
 10
0.0
 20
0.0
 30
0.0
  3
_D_3
  1

  0
SOLID
  5
256
330
253
100
AcDbEntity
  8
DIM
100
AcDbTrace
 10
148.9689932576
 20
92.1737655217
 30
0.0
 11
149.3601440989
 21
94.7162459904
 31
0.0
 12
148.5778424162
 22
94.7162459904
 32
0.0
 13
148.5778424162
 23
94.7162459904
 33
0.0
  0
SOLID
  5
257
330
253
100
AcDbEntity
  8
DIM
100
AcDbTrace
 10
148.9689932576
 20
88.6737655217
 30
0.0
 11
148.5778424162
 21
86.1312850529
 31
0.0
 12
149.3601440989
 22
86.1312850529
 32
0.0
 13
149.3601440989
 23
86.1312850529
 33
0.0
  0
LINE
  5
258
330
253
100
AcDbEntity
  8
DIM
100
AcDbLine
 10
137.4689932576
 20
92.1737655217
 30
0.0
 11
149.9689932576
 21
92.1737655217
 31
0.0
  0
LINE
  5
259
330
253
100
AcDbEntity
  8
DIM
100
AcDbLine
 10
136.9689932576
 20
88.6737655217
 30
0.0
 11
149.9689932576
 21
88.6737655217
 31
0.0
  0
LINE
  5
25A
330
253
100
AcDbEntity
  8
DIM
100
AcDbLine
 10
148.9689932576
 20
92.1737655217
 30
0.0
 11
148.9689932576
 21
97.0631510385
 31
0.0
  0
LINE
  5
25B
330
253
100
AcDbEntity
  8
DIM
100
AcDbLine
 10
148.9689932576
 20
92.1737655217
 30
0.0
 11
148.9689932576
 21
88.6737655217
 31
0.0
  0
LINE
  5
25C
330
253
100
AcDbEntity
  8
DIM
100
AcDbLine
 10
148.9689932576
 20
88.6737655217
 30
0.0
 11
148.9689932576
 21
83.7843800049
 31
0.0
  0
MTEXT
  5
25D
330
253
100
AcDbEntity
  8
DIM
100
AcDbMText
 10
145.8994008187
 20
88.5606578544
 30
0.0
 40
2.38125
 41
0.0
 71
     1
 72
     1
  1
3.5
  7
SLDTEXTSTYLE3
 11
-7.044195017643634E-15
 21
1.0
 31
0.0
 73
     1
 44
1.0
  0
ENDBLK
  5
255
330
253
100
AcDbEntity
  8
0
100
AcDbBlockEnd
  0
BLOCK
  5
260
330
25F
100
AcDbEntity
  8
0
100
AcDbBlockBegin
  2
_D_4
 70
     0
 10
0.0
 20
0.0
 30
0.0
  3
_D_4
  1

  0
SOLID
  5
262
330
25F
100
AcDbEntity
  8
DIM
100
AcDbTrace
 10
152.9689932576
 20
92.1737655217
 30
0.0
 11
152.5778424162
 21
89.6312850529
 31
0.0
 12
153.3601440989
 22
89.6312850529
 32
0.0
 13
153.3601440989
 23
89.6312850529
 33
0.0
  0
SOLID
  5
263
330
25F
100
AcDbEntity
  8
DIM
100
AcDbTrace
 10
152.9689932576
 20
42.1737655217
 30
0.0
 11
153.3601440989
 21
44.7162459904
 31
0.0
 12
152.5778424162
 22
44.7162459904
 32
0.0
 13
152.5778424162
 23
44.7162459904
 33
0.0
  0
LINE
  5
264
330
25F
100
AcDbEntity
  8
DIM
100
AcDbLine
 10
137.4689932576
 20
92.1737655217
 30
0.0
 11
153.9689932576
 21
92.1737655217
 31
0.0
  0
LINE
  5
265
330
25F
100
AcDbEntity
  8
DIM
100
AcDbLine
 10
137.4689932576
 20
42.1737655217
 30
0.0
 11
153.9689932576
 21
42.1737655217
 31
0.0
  0
LINE
  5
266
330
25F
100
AcDbEntity
  8
DIM
100
AcDbLine
 10
152.9689932576
 20
92.1737655217
 30
0.0
 11
152.9689932576
 21
42.1737655217
 31
0.0
  0
MTEXT
  5
267
330
25F
100
AcDbEntity
  8
DIM
100
AcDbMText
 10
149.8994008187
 20
65.6832794344
 30
0.0
 40
2.38125
 41
0.0
 71
     1
 72
     1
  1
50
  7
SLDTEXTSTYLE3
 11
-7.044195017643634E-15
 21
1.0
 31
0.0
 73
     1
 44
1.0
  0
ENDBLK
  5
261
330
25F
100
AcDbEntity
  8
0
100
AcDbBlockEnd
  0
BLOCK
  5
26A
330
269
100
AcDbEntity
  8
0
100
AcDbBlockBegin
  2
_D_5
 70
     0
 10
0.0
 20
0.0
 30
0.0
  3
_D_5
  1

  0
SOLID
  5
26C
330
269
100
AcDbEntity
  8
DIM
100
AcDbTrace
 10
57.4689932576
 20
102.1737655217
 30
0.0
 11
60.0114737263
 21
101.7826146803
 31
0.0
 12
60.0114737263
 22
102.564916363
 32
0.0
 13
60.0114737263
 23
102.564916363
 33
0.0
  0
SOLID
  5
26D
330
269
100
AcDbEntity
  8
DIM
100
AcDbTrace
 10
136.4689932576
 20
102.1737655217
 30
0.0
 11
133.9265127888
 21
102.564916363
 31
0.0
 12
133.9265127888
 22
101.7826146803
 32
0.0
 13
133.9265127888
 23
101.7826146803
 33
0.0
  0
LINE
  5
26E
330
269
100
AcDbEntity
  8
DIM
100
AcDbLine
 10
57.4689932576
 20
93.1737655217
 30
0.0
 11
57.4689932576
 21
103.1737655217
 31
0.0
  0
LINE
  5
26F
330
269
100
AcDbEntity
  8
DIM
100
AcDbLine
 10
136.4689932576
 20
93.1737655217
 30
0.0
 11
136.4689932576
 21
103.1737655217
 31
0.0
  0
LINE
  5
270
330
269
100
AcDbEntity
  8
DIM
100
AcDbLine
 10
57.4689932576
 20
102.1737655217
 30
0.0
 11
136.4689932576
 21
102.1737655217
 31
0.0
  0
MTEXT
  5
271
330
269
100
AcDbEntity
  8
DIM
100
AcDbMText
 10
95.4785071703
 20
105.2433579606
 30
0.0
 40
2.38125
 41
0.0
 71
     1
 72
     1
  1
79
  7
SLDTEXTSTYLE3
 73
     1
 44
1.0
  0
ENDBLK
  5
26B
330
269
100
AcDbEntity
  8
0
100
AcDbBlockEnd
  0
BLOCK
  5
275
330
274
100
AcDbEntity
  8
0
100
AcDbBlockBegin
  2
_D_6
 70
     0
 10
0.0
 20
0.0
 30
0.0
  3
_D_6
  1

  0
SOLID
  5
277
330
274
100
AcDbEntity
  8
DIM
100
AcDbTrace
 10
142.9689932576
 20
36.1737655217
 30
0.0
 11
140.4265127888
 21
36.564916363
 31
0.0
 12
140.4265127888
 22
35.7826146803
 32
0.0
 13
140.4265127888
 23
35.7826146803
 33
0.0
  0
SOLID
  5
278
330
274
100
AcDbEntity
  8
DIM
100
AcDbTrace
 10
54.1943203025
 20
36.1737655217
 30
0.0
 11
56.7368007712
 21
35.7826146803
 31
0.0
 12
56.7368007712
 22
36.564916363
 32
0.0
 13
56.7368007712
 23
36.564916363
 33
0.0
  0
LINE
  5
279
330
274
100
AcDbEntity
  8
DIM
100
AcDbLine
 10
142.9689932576
 20
58.7737655217
 30
0.0
 11
142.9689932576
 21
35.1737655217
 31
0.0
  0
LINE
  5
27A
330
274
100
AcDbEntity
  8
DIM
100
AcDbLine
 10
54.1943203025
 20
75.0237655217
 30
0.0
 11
54.1943203025
 21
35.1737655217
 31
0.0
  0
LINE
  5
27B
330
274
100
AcDbEntity
  8
DIM
100
AcDbLine
 10
142.9689932576
 20
36.1737655217
 30
0.0
 11
54.1943203025
 21
36.1737655217
 31
0.0
  0
MTEXT
  5
27C
330
274
100
AcDbEntity
  8
DIM
100
AcDbMText
 10
97.0911706927
 20
39.2433579606
 30
0.0
 40
2.38125
 41
0.0
 71
     1
 72
     1
  1
89
  7
SLDTEXTSTYLE3
 73
     1
 44
1.0
  0
ENDBLK
  5
276
330
274
100
AcDbEntity
  8
0
100
AcDbBlockEnd
  0
BLOCK
  5
280
330
27F
100
AcDbEntity
  8
0
100
AcDbBlockBegin
  2
_D_7
 70
     0
 10
0.0
 20
0.0
 30
0.0
  3
_D_7
  1

  0
SOLID
  5
282
330
27F
100
AcDbEntity
  8
DIM
100
AcDbTrace
 10
134.4446760617
 20
44.5344485922
 30
0.0
 11
135.8013491935
 21
42.3488951319
 31
0.0
 12
136.3955422275
 22
42.8577473315
 32
0.0
 13
136.3955422275
 23
42.8577473315
 33
0.0
  0
LINE
  5
283
330
27F
100
AcDbEntity
  8
DIM
100
AcDbLine
 10
134.4446760617
 20
44.5344485922
 30
0.0
 11
145.300069928
 21
31.8584703386
 31
0.0
  0
LINE
  5
284
330
27F
100
AcDbEntity
  8
DIM
100
AcDbLine
 10
145.300069928
 20
31.8584703386
 30
0.0
 11
153.5438889561
 21
31.8584703386
 31
0.0
  0
MTEXT
  5
285
330
27F
100
AcDbEntity
  8
DIM
100
AcDbMText
 10
146.550069928
 20
34.9280630103
 30
0.0
 40
2.38125
 41
0.0
 71
     1
 72
     1
  1
4-
  7
SLDTEXTSTYLE3
 73
     1
 44
1.0
  0
MTEXT
  5
286
330
27F
100
AcDbEntity
  8
DIM
100
AcDbMText
 10
149.0371533593
 20
34.9280630103
 30
0.0
 40
2.38125
 41
0.0
 71
     1
 72
     1
  1
%%c
  7
SLDTEXTSTYLE3
 73
     1
 44
1.0
  0
MTEXT
  5
287
330
27F
100
AcDbEntity
  8
DIM
100
AcDbMText
 10
152.0534031017
 20
34.9280630103
 30
0.0
 40
2.38125
 41
0.0
 71
     1
 72
     1
  1
3
  7
SLDTEXTSTYLE3
 73
     1
 44
1.0
  0
ENDBLK
  5
281
330
27F
100
AcDbEntity
  8
0
100
AcDbBlockEnd
  0
BLOCK
  5
28F
330
28E
100
AcDbEntity
  8
0
100
AcDbBlockBegin
  2
SW_CENTERMARKSYMBOL_0
 70
     0
 10
0.0
 20
0.0
 30
0.0
  3
SW_CENTERMARKSYMBOL_0
  1

  0
LINE
  5
291
330
28E
100
AcDbEntity
  8
DIM
 62
     0
100
AcDbLine
 10
0.0
 20
0.0
 30
0.0
 11
0.0
 21
1.0
 31
0.0
  0
LINE
  5
292
330
28E
100
AcDbEntity
  8
DIM
 62
     0
100
AcDbLine
 10
0.0
 20
0.0
 30
0.0
 11
-1.0
 21
0.0
 31
0.0
  0
LINE
  5
293
330
28E
100
AcDbEntity
  8
DIM
 62
     0
100
AcDbLine
 10
0.0
 20
0.0
 30
0.0
 11
0.0
 21
-1.0
 31
0.0
  0
LINE
  5
294
330
28E
100
AcDbEntity
  8
DIM
 62
     0
100
AcDbLine
 10
0.0
 20
0.0
 30
0.0
 11
1.0
 21
0.0
 31
0.0
  0
LINE
  5
295
330
28E
100
AcDbEntity
  8
DIM
 62
     0
100
AcDbLine
 10
0.0
 20
2.0
 30
0.0
 11
0.0
 21
2.5
 31
0.0
  0
LINE
  5
296
330
28E
100
AcDbEntity
  8
DIM
 62
     0
100
AcDbLine
 10
-2.0
 20
0.0
 30
0.0
 11
-2.5
 21
0.0
 31
0.0
  0
LINE
  5
297
330
28E
100
AcDbEntity
  8
DIM
 62
     0
100
AcDbLine
 10
0.0
 20
-2.0
 30
0.0
 11
0.0
 21
-2.5
 31
0.0
  0
LINE
  5
298
330
28E
100
AcDbEntity
  8
DIM
 62
     0
100
AcDbLine
 10
2.0
 20
0.0
 30
0.0
 11
2.5
 21
0.0
 31
0.0
  0
ENDBLK
  5
290
330
28E
100
AcDbEntity
  8
0
100
AcDbBlockEnd
  0
BLOCK
  5
29B
330
29A
100
AcDbEntity
  8
0
100
AcDbBlockBegin
  2
SW_CENTERMARKSYMBOL_1
 70
     0
 10
0.0
 20
0.0
 30
0.0
  3
SW_CENTERMARKSYMBOL_1
  1

  0
LINE
  5
29D
330
29A
100
AcDbEntity
  8
DIM
 62
     0
100
AcDbLine
 10
0.0
 20
0.0
 30
0.0
 11
0.0
 21
1.0
 31
0.0
  0
LINE
  5
29E
330
29A
100
AcDbEntity
  8
DIM
 62
     0
100
AcDbLine
 10
0.0
 20
0.0
 30
0.0
 11
-1.0
 21
0.0
 31
0.0
  0
LINE
  5
29F
330
29A
100
AcDbEntity
  8
DIM
 62
     0
100
AcDbLine
 10
0.0
 20
0.0
 30
0.0
 11
0.0
 21
-1.0
 31
0.0
  0
LINE
  5
2A0
330
29A
100
AcDbEntity
  8
DIM
 62
     0
100
AcDbLine
 10
0.0
 20
0.0
 30
0.0
 11
1.0
 21
0.0
 31
0.0
  0
LINE
  5
2A1
330
29A
100
AcDbEntity
  8
DIM
 62
     0
100
AcDbLine
 10
0.0
 20
2.0
 30
0.0
 11
0.0
 21
2.5
 31
0.0
  0
LINE
  5
2A2
330
29A
100
AcDbEntity
  8
DIM
 62
     0
100
AcDbLine
 10
-2.0
 20
0.0
 30
0.0
 11
-2.5
 21
0.0
 31
0.0
  0
LINE
  5
2A3
330
29A
100
AcDbEntity
  8
DIM
 62
     0
100
AcDbLine
 10
0.0
 20
-2.0
 30
0.0
 11
0.0
 21
-2.5
 31
0.0
  0
LINE
  5
2A4
330
29A
100
AcDbEntity
  8
DIM
 62
     0
100
AcDbLine
 10
2.0
 20
0.0
 30
0.0
 11
2.5
 21
0.0
 31
0.0
  0
ENDBLK
  5
29C
330
29A
100
AcDbEntity
  8
0
100
AcDbBlockEnd
  0
BLOCK
  5
2A7
330
2A6
100
AcDbEntity
  8
0
100
AcDbBlockBegin
  2
SW_CENTERMARKSYMBOL_2
 70
     0
 10
0.0
 20
0.0
 30
0.0
  3
SW_CENTERMARKSYMBOL_2
  1

  0
LINE
  5
2A9
330
2A6
100
AcDbEntity
  8
DIM
 62
     0
100
AcDbLine
 10
0.0
 20
0.0
 30
0.0
 11
0.0
 21
1.0
 31
0.0
  0
LINE
  5
2AA
330
2A6
100
AcDbEntity
  8
DIM
 62
     0
100
AcDbLine
 10
0.0
 20
0.0
 30
0.0
 11
-1.0
 21
0.0
 31
0.0
  0
LINE
  5
2AB
330
2A6
100
AcDbEntity
  8
DIM
 62
     0
100
AcDbLine
 10
0.0
 20
0.0
 30
0.0
 11
0.0
 21
-1.0
 31
0.0
  0
LINE
  5
2AC
330
2A6
100
AcDbEntity
  8
DIM
 62
     0
100
AcDbLine
 10
0.0
 20
0.0
 30
0.0
 11
1.0
 21
0.0
 31
0.0
  0
LINE
  5
2AD
330
2A6
100
AcDbEntity
  8
DIM
 62
     0
100
AcDbLine
 10
0.0
 20
2.0
 30
0.0
 11
0.0
 21
2.5
 31
0.0
  0
LINE
  5
2AE
330
2A6
100
AcDbEntity
  8
DIM
 62
     0
100
AcDbLine
 10
-2.0
 20
0.0
 30
0.0
 11
-2.5
 21
0.0
 31
0.0
  0
LINE
  5
2AF
330
2A6
100
AcDbEntity
  8
DIM
 62
     0
100
AcDbLine
 10
0.0
 20
-2.0
 30
0.0
 11
0.0
 21
-2.5
 31
0.0
  0
LINE
  5
2B0
330
2A6
100
AcDbEntity
  8
DIM
 62
     0
100
AcDbLine
 10
2.0
 20
0.0
 30
0.0
 11
2.5
 21
0.0
 31
0.0
  0
ENDBLK
  5
2A8
330
2A6
100
AcDbEntity
  8
0
100
AcDbBlockEnd
  0
BLOCK
  5
2B3
330
2B2
100
AcDbEntity
  8
0
100
AcDbBlockBegin
  2
SW_CENTERMARKSYMBOL_3
 70
     0
 10
0.0
 20
0.0
 30
0.0
  3
SW_CENTERMARKSYMBOL_3
  1

  0
LINE
  5
2B5
330
2B2
100
AcDbEntity
  8
DIM
 62
     0
100
AcDbLine
 10
0.0
 20
0.0
 30
0.0
 11
0.0
 21
1.0
 31
0.0
  0
LINE
  5
2B6
330
2B2
100
AcDbEntity
  8
DIM
 62
     0
100
AcDbLine
 10
0.0
 20
0.0
 30
0.0
 11
-1.0
 21
0.0
 31
0.0
  0
LINE
  5
2B7
330
2B2
100
AcDbEntity
  8
DIM
 62
     0
100
AcDbLine
 10
0.0
 20
0.0
 30
0.0
 11
0.0
 21
-1.0
 31
0.0
  0
LINE
  5
2B8
330
2B2
100
AcDbEntity
  8
DIM
 62
     0
100
AcDbLine
 10
0.0
 20
0.0
 30
0.0
 11
1.0
 21
0.0
 31
0.0
  0
LINE
  5
2B9
330
2B2
100
AcDbEntity
  8
DIM
 62
     0
100
AcDbLine
 10
0.0
 20
2.0
 30
0.0
 11
0.0
 21
2.5
 31
0.0
  0
LINE
  5
2BA
330
2B2
100
AcDbEntity
  8
DIM
 62
     0
100
AcDbLine
 10
-2.0
 20
0.0
 30
0.0
 11
-2.5
 21
0.0
 31
0.0
  0
LINE
  5
2BB
330
2B2
100
AcDbEntity
  8
DIM
 62
     0
100
AcDbLine
 10
0.0
 20
-2.0
 30
0.0
 11
0.0
 21
-2.5
 31
0.0
  0
LINE
  5
2BC
330
2B2
100
AcDbEntity
  8
DIM
 62
     0
100
AcDbLine
 10
2.0
 20
0.0
 30
0.0
 11
2.5
 21
0.0
 31
0.0
  0
ENDBLK
  5
2B4
330
2B2
100
AcDbEntity
  8
0
100
AcDbBlockEnd
  0
ENDSEC
  0
SECTION
  2
ENTITIES
  0
HATCH
  5
89
330
1F
100
AcDbEntity
  8
0
  6
Continuous
 62
     7
100
AcDbHatch
 10
0.0
 20
0.0
 30
0.0
210
0.0
220
0.0
230
1.0
  2
SOLID
 70
     1
 71
     0
 91
        1
 92
        0
 93
       10
 72
     2
 10
192.1405965629367
 20
35.75580880988856
 40
2.989636657769859
 50
50.39692260731407
 51
112.8514693252983
 73
     0
 72
     2
 10
191.815005962812
 20
35.43899828006204
 40
2.577335426817619
 50
108.9134333432861
 51
219.5668234386827
 73
     0
 72
     1
 10
189.8281839389603
 20
37.0807035361501
 11
188.8129900915579
 21
37.97623543696786
 72
     1
 10
188.8129900915579
 20
37.97623543696786
 11
187.5063618366762
 21
36.71464836046036
 72
     2
 10
188.4942467986389
 20
35.54612112772446
 40
1.530154433943661
 50
130.2115225915088
 51
228.5889041080191
 73
     1
 72
     1
 10
187.482115254651
 20
34.39853133629978
 11
191.4913175648466
 21
30.9139274960251
 72
     1
 10
191.4913175648466
 20
30.9139274960251
 11
190.8602656444315
 21
30.29802710555407
 72
     1
 10
190.8602656444315
 20
30.29802710555407
 11
191.852145009157
 21
29.44405283860024
 72
     1
 10
191.852145009157
 20
29.44405283860024
 11
195.0618094435223
 21
32.56063080411572
 72
     1
 10
195.0618094435223
 20
32.56063080411572
 11
194.0463864118641
 21
33.45235653184883
 97
        0
 75
     0
 76
     1
 98
        1
 10
0.0
 20
0.0
  0
HATCH
  5
8A
330
1F
100
AcDbEntity
  8
0
  6
Continuous
 62
     1
100
AcDbHatch
 10
0.0
 20
0.0
 30
0.0
210
0.0
220
0.0
230
1.0
  2
SOLID
 70
     1
 71
     0
 91
        1
 92
        0
 93
       10
 72
     2
 10
192.5892455627688
 20
35.6630691563161
 40
2.57756748834625
 50
317.8184992995785
 51
398.0564711573078
 73
     0
 72
     1
 10
194.6188314058163
 20
34.07415900697447
 11
195.6042802987991
 21
33.21546206708498
 72
     1
 10
195.6042802987991
 20
33.21546206708498
 11
196.8459616135929
 21
34.41989500949219
 72
     2
 10
195.9525692879308
 20
35.64784174131312
 40
1.518552937418265
 50
306.0377529468138
 51
403.4396461533871
 73
     1
 72
     1
 10
197.0551891526031
 20
36.69198371335126
 11
192.9284332942598
 21
40.28115998198521
 72
     1
 10
192.9284332942598
 20
40.28115998198521
 11
193.552684596187
 21
40.89021841282256
 72
     1
 10
193.552684596187
 20
40.89021841282256
 11
192.622178086003
 21
41.72041063266705
 72
     1
 10
192.622178086003
 20
41.72041063266705
 11
189.3865926375931
 21
38.59349038605298
 72
     1
 10
189.3865926375931
 20
38.59349038605298
 11
190.4090005149417
 21
37.70169985893218
 72
     2
 10
192.2715892720444
 20
35.12224735083792
 40
3.181636704527876
 50
234.1674444878512
 51
314.4407074583994
 73
     0
 97
        0
 75
     0
 76
     1
 98
        1
 10
0.0
 20
0.0
  0
LINE
  5
8B
330
1F
100
AcDbEntity
  8
0
  6
Continuous
 62
     7
370
     0
100
AcDbLine
 10
167.8593775185
 20
17.7745192513
 30
0.0
 11
168.8593775185
 21
17.7745192513
 31
0.0
  0
LINE
  5
8C
330
1F
100
AcDbEntity
  8
0
  6
Continuous
 62
     7
370
     0
100
AcDbLine
 10
164.8593775185
 20
17.7745192513
 30
0.0
 11
167.3593775185
 21
17.7745192513
 31
0.0
  0
LINE
  5
8D
330
1F
100
AcDbEntity
  8
0
  6
Continuous
 62
     7
370
     0
100
AcDbLine
 10
181.3593775185
 20
15.2745192513
 30
0.0
 11
181.3593775185
 21
20.2745192513
 31
0.0
  0
LINE
  5
8E
330
1F
100
AcDbEntity
  8
0
  6
Continuous
 62
     7
370
     0
100
AcDbLine
 10
174.3593775185
 20
16.2745192513
 30
0.0
 11
181.3593775185
 21
15.2745192513
 31
0.0
  0
LINE
  5
8F
330
1F
100
AcDbEntity
  8
0
  6
Continuous
 62
     7
370
     0
100
AcDbLine
 10
168.3593775185
 20
16.7745192513
 30
0.0
 11
168.3593775185
 21
14.2745192513
 31
0.0
  0
LINE
  5
90
330
1F
100
AcDbEntity
  8
0
  6
Continuous
 62
     7
370
     0
100
AcDbLine
 10
181.3593775185
 20
20.2745192513
 30
0.0
 11
174.3593775185
 21
19.2745192513
 31
0.0
  0
LINE
  5
91
330
1F
100
AcDbEntity
  8
0
  6
Continuous
 62
     7
370
     0
100
AcDbLine
 10
173.3593775185
 20
17.7745192513
 30
0.0
 11
182.3593775185
 21
17.7745192513
 31
0.0
  0
LINE
  5
92
330
1F
100
AcDbEntity
  8
0
  6
Continuous
 62
     7
370
     0
100
AcDbLine
 10
168.3593775185
 20
18.2745192513
 30
0.0
 11
168.3593775185
 21
17.2745192513
 31
0.0
  0
LINE
  5
93
330
1F
100
AcDbEntity
  8
0
  6
Continuous
 62
     7
370
     0
100
AcDbLine
 10
169.3593775185
 20
17.7745192513
 30
0.0
 11
171.8593775185
 21
17.7745192513
 31
0.0
  0
LINE
  5
94
330
1F
100
AcDbEntity
  8
0
  6
Continuous
 62
     7
370
     0
100
AcDbLine
 10
168.3593775185
 20
21.2745192513
 30
0.0
 11
168.3593775185
 21
18.7745192513
 31
0.0
  0
LINE
  5
95
330
1F
100
AcDbEntity
  8
0
  6
Continuous
 62
     7
370
     0
100
AcDbLine
 10
174.3593775185
 20
19.2745192513
 30
0.0
 11
174.3593775185
 21
16.2745192513
 31
0.0
  0
LINE
  5
96
330
1F
100
AcDbEntity
  8
工作區域參考線
 62
     1
370
    30
100
AcDbLine
 10
190.4090005149
 20
37.7016998589
 30
0.0
 11
189.3865926376
 21
38.5934903861
 31
0.0
  0
LINE
  5
97
330
1F
100
AcDbEntity
  8
工作區域參考線
 62
     1
370
    30
100
AcDbLine
 10
189.3865926376
 20
38.5934903861
 30
0.0
 11
192.622178086
 21
41.7204106327
 31
0.0
  0
LINE
  5
98
330
1F
100
AcDbEntity
  8
工作區域參考線
 62
     1
370
    30
100
AcDbLine
 10
192.622178086
 20
41.7204106327
 30
0.0
 11
193.5526845962
 21
40.8902184128
 31
0.0
  0
LINE
  5
99
330
1F
100
AcDbEntity
  8
工作區域參考線
 62
     1
370
    30
100
AcDbLine
 10
193.5526845962
 20
40.8902184128
 30
0.0
 11
192.9284332943
 21
40.281159982
 31
0.0
  0
LINE
  5
9A
330
1F
100
AcDbEntity
  8
工作區域參考線
 62
     1
370
    30
100
AcDbLine
 10
192.9284332943
 20
40.281159982
 30
0.0
 11
197.0551891526
 21
36.6919837134
 31
0.0
  0
LINE
  5
9B
330
1F
100
AcDbEntity
  8
工作區域參考線
 62
     1
370
    30
100
AcDbLine
 10
194.6188314058
 20
34.074159007
 30
0.0
 11
195.6042802988
 21
33.2154620671
 31
0.0
  0
LINE
  5
9C
330
1F
100
AcDbEntity
  8
工作區域參考線
 62
     1
370
    30
100
AcDbLine
 10
195.6042802988
 20
33.2154620671
 30
0.0
 11
196.8459616136
 21
34.4198950095
 31
0.0
  0
LINE
  5
9D
330
1F
100
AcDbEntity
  8
0
  6
Continuous
 62
     7
370
     0
100
AcDbLine
 10
185.6907965209
 20
13.1152464079
 30
0.0
 11
285.6907965209
 21
13.1152464079
 31
0.0
  0
LINE
  5
9E
330
1F
100
AcDbEntity
  8
0
  6
Continuous
 62
     7
370
     0
100
AcDbLine
 10
185.6907965209
 20
18.1152464079
 30
0.0
 11
235.6907965209
 21
18.1152464079
 31
0.0
  0
LINE
  5
9F
330
1F
100
AcDbEntity
  8
0
  6
Continuous
 62
     7
370
     0
100
AcDbLine
 10
185.6907965209
 20
23.1152464079
 30
0.0
 11
235.6907965209
 21
23.1152464079
 31
0.0
  0
LINE
  5
A0
330
1F
100
AcDbEntity
  8
0
  6
Continuous
 62
     7
370
     0
100
AcDbLine
 10
185.6907965209
 20
28.1152464079
 30
0.0
 11
285.6907965209
 21
28.1152464079
 31
0.0
  0
LINE
  5
A1
330
1F
100
AcDbEntity
  8
0
  6
Continuous
 62
     7
370
     0
100
AcDbLine
 10
235.6907965209
 20
33.1152464079
 30
0.0
 11
285.6907965209
 21
33.1152464079
 31
0.0
  0
LINE
  5
A2
330
1F
100
AcDbEntity
  8
0
  6
Continuous
 62
     7
370
    15
100
AcDbLine
 10
235.6907965209
 20
18.1152464079
 30
0.0
 11
285.6907965209
 21
18.1152464079
 31
0.0
  0
LINE
  5
A3
330
1F
100
AcDbEntity
  8
0
  6
Continuous
 62
     7
370
     0
100
AcDbLine
 10
185.6907965209
 20
43.1152464079
 30
0.0
 11
285.6907965209
 21
43.1152464079
 31
0.0
  0
LINE
  5
A4
330
1F
100
AcDbEntity
  8
0
  6
Continuous
 62
     7
370
     0
100
AcDbLine
 10
251.237217675
 20
8.1152464079
 30
0.0
 11
251.237217675
 21
18.1152464079
 31
0.0
  0
LINE
  5
A5
330
1F
100
AcDbEntity
  8
0
  6
Continuous
 62
     7
370
     0
100
AcDbLine
 10
235.6907965209
 20
8.1152464079
 30
0.0
 11
235.6907965209
 21
43.1152464079
 31
0.0
  0
LINE
  5
A6
330
1F
100
AcDbEntity
  8
0
  6
Continuous
 62
     7
370
     0
100
AcDbLine
 10
251.237217675
 20
28.1152464079
 30
0.0
 11
251.237217675
 21
33.1152464079
 31
0.0
  0
LINE
  5
A7
330
1F
100
AcDbEntity
  8
0
  6
Continuous
 62
     7
370
     0
100
AcDbLine
 10
214.4164086353
 20
8.1152464079
 30
0.0
 11
214.4164086353
 21
28.1152464079
 31
0.0
  0
LINE
  5
A8
330
1F
100
AcDbEntity
  8
0
  6
Continuous
 62
     7
370
     0
100
AcDbLine
 10
199.7785887506
 20
8.1152464079
 30
0.0
 11
199.7785887506
 21
28.1152464079
 31
0.0
  0
LINE
  5
A9
330
1F
100
AcDbEntity
  8
0
  6
Continuous
 62
     7
370
     0
100
AcDbLine
 10
185.6907965209
 20
8.1152464079
 30
0.0
 11
185.6907965209
 21
43.1152464079
 31
0.0
  0
LINE
  5
AA
330
1F
100
AcDbEntity
  8
0
  6
Continuous
 62
     7
370
    15
100
AcDbLine
 10
43.3207965209
 20
201.3720275751
 30
0.0
 11
43.3207965209
 21
202.8720275751
 31
0.0
  0
LINE
  5
AB
330
1F
100
AcDbEntity
  8
0
  6
Continuous
 62
     7
370
    15
100
AcDbLine
 10
77.9507965209
 20
201.3720275751
 30
0.0
 11
77.9507965209
 21
202.8720275751
 31
0.0
  0
LINE
  5
AC
330
1F
100
AcDbEntity
  8
0
  6
Continuous
 62
     7
370
    15
100
AcDbLine
 10
112.5807965209
 20
201.3720275751
 30
0.0
 11
112.5807965209
 21
202.8720275751
 31
0.0
  0
LINE
  5
AD
330
1F
100
AcDbEntity
  8
0
  6
Continuous
 62
     7
370
    15
100
AcDbLine
 10
147.2107965209
 20
201.3720275751
 30
0.0
 11
147.2107965209
 21
202.8720275751
 31
0.0
  0
LINE
  5
AE
330
1F
100
AcDbEntity
  8
0
  6
Continuous
 62
     7
370
    15
100
AcDbLine
 10
181.8407965209
 20
201.3720275751
 30
0.0
 11
181.8407965209
 21
202.8720275751
 31
0.0
  0
LINE
  5
AF
330
1F
100
AcDbEntity
  8
0
  6
Continuous
 62
     7
370
    15
100
AcDbLine
 10
216.4707965209
 20
201.3720275751
 30
0.0
 11
216.4707965209
 21
202.8720275751
 31
0.0
  0
LINE
  5
B0
330
1F
100
AcDbEntity
  8
0
  6
Continuous
 62
     7
370
    15
100
AcDbLine
 10
251.1007965209
 20
201.3720275751
 30
0.0
 11
251.1007965209
 21
202.8720275751
 31
0.0
  0
LINE
  5
B1
330
1F
100
AcDbEntity
  8
0
  6
Continuous
 62
     7
370
    15
100
AcDbLine
 10
43.3157965209
 20
8.1152464079
 30
0.0
 11
43.3157965209
 21
6.6152464079
 31
0.0
  0
LINE
  5
B2
330
1F
100
AcDbEntity
  8
0
  6
Continuous
 62
     7
370
    15
100
AcDbLine
 10
77.9407965209
 20
8.1152464079
 30
0.0
 11
77.9407965209
 21
6.6152464079
 31
0.0
  0
LINE
  5
B3
330
1F
100
AcDbEntity
  8
0
  6
Continuous
 62
     7
370
    15
100
AcDbLine
 10
112.5657965209
 20
8.1152464079
 30
0.0
 11
112.5657965209
 21
6.6152464079
 31
0.0
  0
LINE
  5
B4
330
1F
100
AcDbEntity
  8
0
  6
Continuous
 62
     7
370
    15
100
AcDbLine
 10
147.1907965209
 20
8.1152464079
 30
0.0
 11
147.1907965209
 21
6.6152464079
 31
0.0
  0
LINE
  5
B5
330
1F
100
AcDbEntity
  8
0
  6
Continuous
 62
     7
370
    15
100
AcDbLine
 10
181.8157965209
 20
8.1152464079
 30
0.0
 11
181.8157965209
 21
6.6152464079
 31
0.0
  0
LINE
  5
B6
330
1F
100
AcDbEntity
  8
0
  6
Continuous
 62
     7
370
    15
100
AcDbLine
 10
216.4407965209
 20
8.1152464079
 30
0.0
 11
216.4407965209
 21
6.6152464079
 31
0.0
  0
LINE
  5
B7
330
1F
100
AcDbEntity
  8
0
  6
Continuous
 62
     7
370
     0
100
AcDbLine
 10
285.6907965209
 20
201.3720275751
 30
0.0
 11
8.6907965209
 21
201.3720275751
 31
0.0
  0
LINE
  5
B8
330
1F
100
AcDbEntity
  8
0
  6
Continuous
 62
     7
370
     0
100
AcDbLine
 10
285.6907965209
 20
8.1152464079
 30
0.0
 11
285.6907965209
 21
201.3720275751
 31
0.0
  0
LINE
  5
B9
330
1F
100
AcDbEntity
  8
0
  6
Continuous
 62
     7
370
     0
100
AcDbLine
 10
8.6907965209
 20
201.3720275751
 30
0.0
 11
8.6907965209
 21
8.1152464079
 31
0.0
  0
LINE
  5
BA
330
1F
100
AcDbEntity
  8
0
  6
Continuous
 62
     7
370
     0
100
AcDbLine
 10
8.6907965209
 20
8.1152464079
 30
0.0
 11
285.6907965209
 21
8.1152464079
 31
0.0
  0
LINE
  5
BB
330
1F
100
AcDbEntity
  8
0
  6
Continuous
 62
     7
370
    15
100
AcDbLine
 10
251.0657965209
 20
8.1152464079
 30
0.0
 11
251.0657965209
 21
6.6152464079
 31
0.0
  0
LINE
  5
BC
330
1F
100
AcDbEntity
  8
0
  6
Continuous
 62
     7
370
    15
100
AcDbLine
 10
8.6907965209
 20
40.3252464079
 30
0.0
 11
7.1907965209
 21
40.3252464079
 31
0.0
  0
LINE
  5
BD
330
1F
100
AcDbEntity
  8
0
  6
Continuous
 62
     7
370
    15
100
AcDbLine
 10
8.6907965209
 20
72.5352464079
 30
0.0
 11
7.1907965209
 21
72.5352464079
 31
0.0
  0
LINE
  5
BE
330
1F
100
AcDbEntity
  8
0
  6
Continuous
 62
     7
370
    15
100
AcDbLine
 10
8.6907965209
 20
104.7452464079
 30
0.0
 11
7.1907965209
 21
104.7452464079
 31
0.0
  0
LINE
  5
BF
330
1F
100
AcDbEntity
  8
0
  6
Continuous
 62
     7
370
    15
100
AcDbLine
 10
8.6907965209
 20
136.9552464079
 30
0.0
 11
7.1907965209
 21
136.9552464079
 31
0.0
  0
LINE
  5
C0
330
1F
100
AcDbEntity
  8
0
  6
Continuous
 62
     7
370
    15
100
AcDbLine
 10
8.6907965209
 20
169.1652464079
 30
0.0
 11
7.1907965209
 21
169.1652464079
 31
0.0
  0
LINE
  5
C1
330
1F
100
AcDbEntity
  8
0
  6
Continuous
 62
     7
370
    15
100
AcDbLine
 10
285.6907965209
 20
40.3252464079
 30
0.0
 11
287.1907965209
 21
40.3252464079
 31
0.0
  0
LINE
  5
C2
330
1F
100
AcDbEntity
  8
0
  6
Continuous
 62
     7
370
    15
100
AcDbLine
 10
285.6907965209
 20
72.5352464079
 30
0.0
 11
287.1907965209
 21
72.5352464079
 31
0.0
  0
LINE
  5
C3
330
1F
100
AcDbEntity
  8
0
  6
Continuous
 62
     7
370
    15
100
AcDbLine
 10
285.6907965209
 20
104.7452464079
 30
0.0
 11
287.1907965209
 21
104.7452464079
 31
0.0
  0
LINE
  5
C4
330
1F
100
AcDbEntity
  8
0
  6
Continuous
 62
     7
370
    15
100
AcDbLine
 10
285.6907965209
 20
136.9552464079
 30
0.0
 11
287.1907965209
 21
136.9552464079
 31
0.0
  0
LINE
  5
C5
330
1F
100
AcDbEntity
  8
0
  6
Continuous
 62
     7
370
    15
100
AcDbLine
 10
285.6907965209
 20
169.1652464079
 30
0.0
 11
287.1907965209
 21
169.1652464079
 31
0.0
  0
CIRCLE
  5
C6
330
1F
100
AcDbEntity
  8
0
  6
Continuous
 62
     7
370
     0
100
AcDbCircle
 10
168.3593775185
 20
17.7745192513
 30
0.0
 40
1.5
  0
CIRCLE
  5
C7
330
1F
100
AcDbEntity
  8
0
  6
Continuous
 62
     7
370
     0
100
AcDbCircle
 10
168.3593775185
 20
17.7745192513
 30
0.0
 40
2.5
  0
ARC
  5
C8
330
1F
100
AcDbEntity
  8
工作區域參考線
 62
     1
370
    30
100
AcDbCircle
 10
195.9525692879
 20
35.6478417413
 30
0.0
 40
1.518552937418275
100
AcDbArc
 50
306.0377529468
 51
43.4396461534
  0
ARC
  5
C9
330
1F
100
AcDbEntity
  8
工作區域參考線
 62
     1
370
    30
100
AcDbCircle
 10
192.271589272
 20
35.1222473508
 30
0.0
 40
3.181636704527891
100
AcDbArc
 50
45.5592925416
 51
125.8325555121
  0
ARC
  5
CA
330
1F
100
AcDbEntity
  8
工作區域參考線
 62
     1
370
    30
100
AcDbCircle
 10
192.5892455628
 20
35.6630691563
 30
0.0
 40
2.577567488346266
100
AcDbArc
 50
321.9435288427
 51
42.1815007004
  0
INSERT
  5
CB
330
1F
100
AcDbEntity
  8
0
  6
Continuous
 62
     7
100
AcDbBlockReference
  2
圖塊6
 10
186.9640923647
 20
29.4440528386
 30
0.0
  0
MTEXT
  5
CD
330
1F
100
AcDbEntity
  8
DIM
 62
     7
100
AcDbMText
 10
212.1752510505
 20
-3.1912869634
 30
0.0
 40
2.5
 41
0.0
 71
     1
 72
     1
  1
(               g )
  7
SLDTEXTSTYLE0
 73
     1
 44
1.0
  0
MTEXT
  5
CF
330
1F
100
AcDbEntity
  8
SLD-0
100
AcDbMText
 10
222.7037726649
 20
128.4943705831
 30
0.0
 40
4.2333333333
 41
0.0
 71
     1
 72
     1
  1
Motor connector pin
  7
SLDTEXTSTYLE1
 73
     1
 44
1.0
  0
MTEXT
  5
D1
330
1F
100
AcDbEntity
  8
0
  6
Continuous
 62
     7
370
     0
100
AcDbMText
 10
165.5426850804
 20
13.2208440369
 30
0.0
 40
2.6458333333
 41
0.0
 71
     1
 72
     1
  1
UNIT:m/m
  7
SLDTEXTSTYLE2
 73
     1
 44
1.0
  0
INSERT
  5
D8
330
1F
100
AcDbEntity
  8
0
  6
Continuous
 62
     7
370
     0
100
AcDbBlockReference
  2
SW_NOTE_0
 10
12.2315076053
 20
193.8904304251
 30
0.0
  0
MTEXT
  5
D9
330
1F
100
AcDbEntity
  8
0
  6
Continuous
 62
     7
370
     0
100
AcDbMText
 10
198.7251893935
 20
40.4406774139
 30
0.0
 40
2.38125
 41
0.0
 71
     1
 72
     1
  1
Unice E-O Services Inc.
  7
SLDTEXTSTYLE2
 73
     1
 44
1.0
  0
MTEXT
  5
DA
330
1F
100
AcDbEntity
  8
0
  6
Continuous
 62
     7
370
     0
100
AcDbMText
 10
217.5590538149
 20
21.5867148511
 30
0.0
 40
1.8520833333
 41
0.0
 71
     1
 72
     1
  1
2020/3/2
  7
SLDTEXTSTYLE2
 73
     1
 44
1.0
  0
MTEXT
  5
DB
330
1F
100
AcDbEntity
  8
0
  6
Continuous
 62
     7
370
     0
100
AcDbMText
 10
252.6088982507
 20
16.87117774
 30
0.0
 40
2.5
 41
0.0
 71
     1
 72
     1
  1
1:1
  7
SLDTEXTSTYLE2
 73
     1
 44
1.0
  0
MTEXT
  5
DC
330
1F
100
AcDbEntity
  8
0
  6
Continuous
 62
     7
370
     0
100
AcDbMText
 10
252.3075599985
 20
32.1519195438
 30
0.0
 40
2.5
 41
0.0
 71
     1
 72
     1
  1
08SMC-1-PCB
  7
SLDTEXTSTYLE2
 73
     1
 44
1.0
  0
MTEXT
  5
DD
330
1F
100
AcDbEntity
  8
0
  6
Continuous
 62
     7
370
     0
100
AcDbMText
 10
252.3075599985
 20
38.1082117879
 30
0.0
 40
2.5
 41
0.0
 71
     1
 72
     1
  1
08SMC-1-PCB
  7
SLDTEXTSTYLE2
 73
     1
 44
1.0
  0
MTEXT
  5
DE
330
1F
100
AcDbEntity
  8
0
  6
Continuous
 62
     7
370
     0
100
AcDbMText
 10
236.3921866786
 20
16.5064795728
 30
0.0
 40
2.1166666667
 41
0.0
 71
     1
 72
     1
  1
SCALE:
  7
SLDTEXTSTYLE2
 73
     1
 44
1.0
  0
MTEXT
  5
DF
330
1F
100
AcDbEntity
  8
0
  6
Continuous
 62
     7
370
     0
100
AcDbMText
 10
186.3336086789
 20
21.5867148511
 30
0.0
 40
1.8520833333
 41
0.0
 71
     1
 72
     1
  1
DRAWN
  7
SLDTEXTSTYLE2
 73
     1
 44
1.0
  0
MTEXT
  5
E0
330
1F
100
AcDbEntity
  8
0
  6
Continuous
 62
     7
370
     0
100
AcDbMText
 10
203.2228367937
 20
26.683208308
 30
0.0
 40
1.8520833333
 41
0.0
 71
     1
 72
     1
  1
NAME
  7
SLDTEXTSTYLE2
 73
     1
 44
1.0
  0
MTEXT
  5
E1
330
1F
100
AcDbEntity
  8
0
  6
Continuous
 62
     7
370
     0
100
AcDbMText
 10
220.8710155758
 20
26.683208308
 30
0.0
 40
1.8520833333
 41
0.0
 71
     1
 72
     1
  1
DATE
  7
SLDTEXTSTYLE2
 73
     1
 44
1.0
  0
MTEXT
  5
E2
330
1F
100
AcDbEntity
  8
0
  6
Continuous
 62
     7
370
     0
100
AcDbMText
 10
236.2756316645
 20
31.7872213766
 30
0.0
 40
2.1166666667
 41
0.0
 71
     1
 72
     1
  1
DWG. NO.
  7
SLDTEXTSTYLE2
 73
     1
 44
1.0
  0
MTEXT
  5
E3
330
1F
100
AcDbEntity
  8
0
  6
Continuous
 62
     7
370
     0
100
AcDbMText
 10
236.3629907088
 20
41.8840658243
 30
0.0
 40
2.1166666667
 41
0.0
 71
     1
 72
     1
  1
TITLE:
  7
SLDTEXTSTYLE2
 73
     1
 44
1.0
  0
MTEXT
  5
E4
330
1F
100
AcDbEntity
  8
0
  6
Continuous
 62
     7
370
     0
100
AcDbMText
 10
203.0314209802
 20
16.2403789724
 30
0.0
 40
1.8520833333
 41
0.0
 71
     1
 72
     1
  1
Johnny
  7
SLDTEXTSTYLE2
 73
     1
 44
1.0
  0
MTEXT
  5
E5
330
1F
100
AcDbEntity
  8
0
  6
Continuous
 62
     7
370
     0
100
AcDbMText
 10
217.5590538149
 20
16.2403789724
 30
0.0
 40
1.8520833333
 41
0.0
 71
     1
 72
     1
  1
2020/3/2
  7
SLDTEXTSTYLE2
 73
     1
 44
1.0
  0
MTEXT
  5
E6
330
1F
100
AcDbEntity
  8
0
  6
Continuous
 62
     7
370
     0
100
AcDbMText
 10
186.3336086789
 20
16.2403789724
 30
0.0
 40
1.8520833333
 41
0.0
 71
     1
 72
     1
  1
ENG APPR.
  7
SLDTEXTSTYLE2
 73
     1
 44
1.0
  0
MTEXT
  5
E7
330
1F
100
AcDbEntity
  8
0
  6
Continuous
 62
     7
370
     0
100
AcDbMText
 10
236.3921866786
 20
11.6853389288
 30
0.0
 40
2.1166666667
 41
0.0
 71
     1
 72
     1
  1
REV
  7
SLDTEXTSTYLE2
 73
     1
 44
1.0
  0
MTEXT
  5
E8
330
1F
100
AcDbEntity
  8
0
  6
Continuous
 62
     7
370
     0
100
AcDbMText
 10
236.3629907088
 20
26.9493089085
 30
0.0
 40
2.1166666667
 41
0.0
 71
     1
 72
     1
  1
MATERIAL:
  7
SLDTEXTSTYLE2
 73
     1
 44
1.0
  0
MTEXT
  5
E9
330
1F
100
AcDbEntity
  8
0
  6
Continuous
 62
     7
370
     0
100
AcDbMText
 10
252.6088982507
 20
22.2175136187
 30
0.0
 40
2.5
 41
0.0
 71
     1
 72
     1
  1
N/A
  7
SLDTEXTSTYLE2
 73
     1
 44
1.0
  0
MTEXT
  5
EA
330
1F
100
AcDbEntity
  8
0
  6
Continuous
 62
     7
370
     0
100
AcDbMText
 10
26.6029931533
 20
204.453351657
 30
0.0
 40
2.1166666667
 41
0.0
 71
     1
 72
     1
  1
1
  7
SLDTEXTSTYLE2
 73
     1
 44
1.0
  0
MTEXT
  5
EB
330
1F
100
AcDbEntity
  8
0
  6
Continuous
 62
     7
370
     0
100
AcDbMText
 10
60.7170995724
 20
204.453351657
 30
0.0
 40
2.1166666667
 41
0.0
 71
     1
 72
     1
  1
2
  7
SLDTEXTSTYLE2
 73
     1
 44
1.0
  0
MTEXT
  5
EC
330
1F
100
AcDbEntity
  8
0
  6
Continuous
 62
     7
370
     0
100
AcDbMText
 10
94.9009943906
 20
204.453351657
 30
0.0
 40
2.1166666667
 41
0.0
 71
     1
 72
     1
  1
3
  7
SLDTEXTSTYLE2
 73
     1
 44
1.0
  0
MTEXT
  5
ED
330
1F
100
AcDbEntity
  8
0
  6
Continuous
 62
     7
370
     0
100
AcDbMText
 10
129.2533362851
 20
204.2992584364
 30
0.0
 40
2.1166666667
 41
0.0
 71
     1
 72
     1
  1
4
  7
SLDTEXTSTYLE2
 73
     1
 44
1.0
  0
MTEXT
  5
EE
330
1F
100
AcDbEntity
  8
0
  6
Continuous
 62
     7
370
     0
100
AcDbMText
 10
163.702323464
 20
204.453351657
 30
0.0
 40
2.1166666667
 41
0.0
 71
     1
 72
     1
  1
5
  7
SLDTEXTSTYLE2
 73
     1
 44
1.0
  0
MTEXT
  5
EF
330
1F
100
AcDbEntity
  8
0
  6
Continuous
 62
     7
370
     0
100
AcDbMText
 10
198.6382170415
 20
204.453351657
 30
0.0
 40
2.1166666667
 41
0.0
 71
     1
 72
     1
  1
6
  7
SLDTEXTSTYLE2
 73
     1
 44
1.0
  0
MTEXT
  5
F0
330
1F
100
AcDbEntity
  8
0
  6
Continuous
 62
     7
370
     0
100
AcDbMText
 10
234.3630657407
 20
204.453351657
 30
0.0
 40
2.1166666667
 41
0.0
 71
     1
 72
     1
  1
7
  7
SLDTEXTSTYLE2
 73
     1
 44
1.0
  0
MTEXT
  5
F1
330
1F
100
AcDbEntity
  8
0
  6
Continuous
 62
     7
370
     0
100
AcDbMText
 10
266.2787820494
 20
204.453351657
 30
0.0
 40
2.1166666667
 41
0.0
 71
     1
 72
     1
  1
8
  7
SLDTEXTSTYLE2
 73
     1
 44
1.0
  0
MTEXT
  5
F2
330
1F
100
AcDbEntity
  8
0
  6
Continuous
 62
     7
370
     0
100
AcDbMText
 10
5.3568236555
 20
185.8113022879
 30
0.0
 40
2.1166666667
 41
0.0
 71
     1
 72
     1
  1
A
  7
SLDTEXTSTYLE2
 73
     1
 44
1.0
  0
MTEXT
  5
F3
330
1F
100
AcDbEntity
  8
0
  6
Continuous
 62
     7
370
     0
100
AcDbMText
 10
5.5910431831
 20
154.2993048238
 30
0.0
 40
2.1166666667
 41
0.0
 71
     1
 72
     1
  1
B
  7
SLDTEXTSTYLE2
 73
     1
 44
1.0
  0
MTEXT
  5
F4
330
1F
100
AcDbEntity
  8
0
  6
Continuous
 62
     7
370
     0
100
AcDbMText
 10
5.5910431831
 20
121.274351423
 30
0.0
 40
2.1166666667
 41
0.0
 71
     1
 72
     1
  1
C
  7
SLDTEXTSTYLE2
 73
     1
 44
1.0
  0
MTEXT
  5
F5
330
1F
100
AcDbEntity
  8
0
  6
Continuous
 62
     7
370
     0
100
AcDbMText
 10
5.5910431831
 20
88.7453220221
 30
0.0
 40
2.1166666667
 41
0.0
 71
     1
 72
     1
  1
D
  7
SLDTEXTSTYLE2
 73
     1
 44
1.0
  0
MTEXT
  5
F6
330
1F
100
AcDbEntity
  8
0
  6
Continuous
 62
     7
370
     0
100
AcDbMText
 10
5.5910431831
 20
57.5558849197
 30
0.0
 40
2.1166666667
 41
0.0
 71
     1
 72
     1
  1
E
  7
SLDTEXTSTYLE2
 73
     1
 44
1.0
  0
MTEXT
  5
F7
330
1F
100
AcDbEntity
  8
0
  6
Continuous
 62
     7
370
     0
100
AcDbMText
 10
5.5910431831
 20
25.5694212252
 30
0.0
 40
2.1166666667
 41
0.0
 71
     1
 72
     1
  1
F
  7
SLDTEXTSTYLE2
 73
     1
 44
1.0
  0
MTEXT
  5
F8
330
1F
100
AcDbEntity
  8
0
  6
Continuous
 62
     7
370
     0
100
AcDbMText
 10
266.1858616964
 20
6.6236223963
 30
0.0
 40
2.1166666667
 41
0.0
 71
     1
 72
     1
  1
8
  7
SLDTEXTSTYLE2
 73
     1
 44
1.0
  0
MTEXT
  5
F9
330
1F
100
AcDbEntity
  8
0
  6
Continuous
 62
     7
370
     0
100
AcDbMText
 10
234.2701453876
 20
6.6236223963
 30
0.0
 40
2.1166666667
 41
0.0
 71
     1
 72
     1
  1
7
  7
SLDTEXTSTYLE2
 73
     1
 44
1.0
  0
MTEXT
  5
FA
330
1F
100
AcDbEntity
  8
0
  6
Continuous
 62
     7
370
     0
100
AcDbMText
 10
198.5452966885
 20
6.6236223963
 30
0.0
 40
2.1166666667
 41
0.0
 71
     1
 72
     1
  1
6
  7
SLDTEXTSTYLE2
 73
     1
 44
1.0
  0
MTEXT
  5
FB
330
1F
100
AcDbEntity
  8
0
  6
Continuous
 62
     7
370
     0
100
AcDbMText
 10
163.6094031109
 20
6.6236223963
 30
0.0
 40
2.1166666667
 41
0.0
 71
     1
 72
     1
  1
5
  7
SLDTEXTSTYLE2
 73
     1
 44
1.0
  0
MTEXT
  5
FC
330
1F
100
AcDbEntity
  8
0
  6
Continuous
 62
     7
370
     0
100
AcDbMText
 10
129.1604159321
 20
6.4695291758
 30
0.0
 40
2.1166666667
 41
0.0
 71
     1
 72
     1
  1
4
  7
SLDTEXTSTYLE2
 73
     1
 44
1.0
  0
MTEXT
  5
FD
330
1F
100
AcDbEntity
  8
0
  6
Continuous
 62
     7
370
     0
100
AcDbMText
 10
94.8080740376
 20
6.6236223963
 30
0.0
 40
2.1166666667
 41
0.0
 71
     1
 72
     1
  1
3
  7
SLDTEXTSTYLE2
 73
     1
 44
1.0
  0
MTEXT
  5
FE
330
1F
100
AcDbEntity
  8
0
  6
Continuous
 62
     7
370
     0
100
AcDbMText
 10
60.6241792194
 20
6.6236223963
 30
0.0
 40
2.1166666667
 41
0.0
 71
     1
 72
     1
  1
2
  7
SLDTEXTSTYLE2
 73
     1
 44
1.0
  0
MTEXT
  5
FF
330
1F
100
AcDbEntity
  8
0
  6
Continuous
 62
     7
370
     0
100
AcDbMText
 10
26.5100728003
 20
6.6236223963
 30
0.0
 40
2.1166666667
 41
0.0
 71
     1
 72
     1
  1
1
  7
SLDTEXTSTYLE2
 73
     1
 44
1.0
  0
MTEXT
  5
100
330
1F
100
AcDbEntity
  8
0
  6
Continuous
 62
     7
370
     0
100
AcDbMText
 10
287.1023846145
 20
186.6424909092
 30
0.0
 40
2.1166666667
 41
0.0
 71
     1
 72
     1
  1
A
  7
SLDTEXTSTYLE2
 73
     1
 44
1.0
  0
MTEXT
  5
101
330
1F
100
AcDbEntity
  8
0
  6
Continuous
 62
     7
370
     0
100
AcDbMText
 10
287.3366041421
 20
155.1304934451
 30
0.0
 40
2.1166666667
 41
0.0
 71
     1
 72
     1
  1
B
  7
SLDTEXTSTYLE2
 73
     1
 44
1.0
  0
MTEXT
  5
102
330
1F
100
AcDbEntity
  8
0
  6
Continuous
 62
     7
370
     0
100
AcDbMText
 10
287.3366041421
 20
122.1055400442
 30
0.0
 40
2.1166666667
 41
0.0
 71
     1
 72
     1
  1
C
  7
SLDTEXTSTYLE2
 73
     1
 44
1.0
  0
MTEXT
  5
103
330
1F
100
AcDbEntity
  8
0
  6
Continuous
 62
     7
370
     0
100
AcDbMText
 10
287.3366041421
 20
89.5765106433
 30
0.0
 40
2.1166666667
 41
0.0
 71
     1
 72
     1
  1
D
  7
SLDTEXTSTYLE2
 73
     1
 44
1.0
  0
MTEXT
  5
104
330
1F
100
AcDbEntity
  8
0
  6
Continuous
 62
     7
370
     0
100
AcDbMText
 10
287.3366041421
 20
58.3870735409
 30
0.0
 40
2.1166666667
 41
0.0
 71
     1
 72
     1
  1
E
  7
SLDTEXTSTYLE2
 73
     1
 44
1.0
  0
MTEXT
  5
105
330
1F
100
AcDbEntity
  8
0
  6
Continuous
 62
     7
370
     0
100
AcDbMText
 10
287.3366041421
 20
26.4006098464
 30
0.0
 40
2.1166666667
 41
0.0
 71
     1
 72
     1
  1
F
  7
SLDTEXTSTYLE2
 73
     1
 44
1.0
  0
MTEXT
  5
106
330
1F
100
AcDbEntity
  8
0
  6
Continuous
 62
     7
370
     0
100
AcDbMText
 10
203.1553128802
 20
21.5867148511
 30
0.0
 40
1.8520833333
 41
0.0
 71
     1
 72
     1
  1
Sky
  7
SLDTEXTSTYLE2
 73
     1
 44
1.0
  0
MTEXT
  5
108
330
1F
100
AcDbEntity
  8
0
  6
Continuous
 62
     7
370
     0
100
AcDbMText
 10
252.8482239645
 20
12.1868247043
 30
0.0
 40
3.175
 41
0.0
 71
     1
 72
     1
  1
0
  7
SLDTEXTSTYLE3
 73
     1
 44
1.0
  0
INSERT
  5
10E
330
1F
100
AcDbEntity
  8
SLD-0
 62
     7
100
AcDbBlockReference
  2
SW_NOTE_1
 10
198.7251893935
 20
33.5479745212
 30
0.0
  0
INSERT
  5
138
330
1F
100
AcDbEntity
  8
SLD-0
100
AcDbBlockReference
  2
SW_TABLEANNOTATION_0
 10
211.9012942493
 20
120.2740538106
 30
0.0
  0
LINE
  5
139
330
1F
100
AcDbEntity
  8
0
  6
Continuous
 62
     7
370
    30
100
AcDbLine
 10
133.0689949608
 20
81.3237651402
 30
0.0
 11
135.9189947761
 21
81.3237651402
 31
0.0
  0
LINE
  5
13A
330
1F
100
AcDbEntity
  8
0
  6
Continuous
 62
     7
370
    30
100
AcDbLine
 10
135.9189947761
 20
86.0237664694
 30
0.0
 11
133.0689949608
 21
86.0237664694
 31
0.0
  0
ARC
  5
13B
330
1F
100
AcDbEntity
  8
0
  6
Continuous
 62
     7
370
    30
100
AcDbCircle
 10
135.9189932576
 20
83.6737655217
 30
0.0
 40
2.350000000000023
100
AcDbArc
 50
270.0
 51
0.0
  0
ARC
  5
13C
330
1F
100
AcDbEntity
  8
0
  6
Continuous
 62
     7
370
    30
100
AcDbCircle
 10
135.9189932576
 20
83.6737655217
 30
0.0
 40
2.350000000000023
100
AcDbArc
 50
0.0
 51
90.0
  0
LINE
  5
13D
330
1F
100
AcDbEntity
  8
0
  6
Continuous
 62
     7
370
    30
100
AcDbLine
 10
128.4289931572
 20
66.7337662691
 30
0.0
 11
129.4289933211
 21
66.7337662691
 31
0.0
  0
LINE
  5
13E
330
1F
100
AcDbEntity
  8
0
  6
Continuous
 62
     7
370
    30
100
AcDbLine
 10
129.4289933211
 20
67.733766433
 30
0.0
 11
128.4289931572
 21
67.733766433
 31
0.0
  0
LINE
  5
13F
330
1F
100
AcDbEntity
  8
0
  6
Continuous
 62
     7
370
    30
100
AcDbLine
 10
128.4289931572
 20
69.2737660522
 30
0.0
 11
129.4289933211
 21
69.2737660522
 31
0.0
  0
LINE
  5
140
330
1F
100
AcDbEntity
  8
0
  6
Continuous
 62
     7
370
    30
100
AcDbLine
 10
129.4289933211
 20
70.2737662161
 30
0.0
 11
128.4289931572
 21
70.2737662161
 31
0.0
  0
LINE
  5
141
330
1F
100
AcDbEntity
  8
0
  6
Continuous
 62
     7
370
    30
100
AcDbLine
 10
128.4289931572
 20
71.8137658352
 30
0.0
 11
129.4289933211
 21
71.8137658352
 31
0.0
  0
LINE
  5
142
330
1F
100
AcDbEntity
  8
0
  6
Continuous
 62
     7
370
    30
100
AcDbLine
 10
129.4289933211
 20
72.8137659991
 30
0.0
 11
128.4289931572
 21
72.8137659991
 31
0.0
  0
LINE
  5
143
330
1F
100
AcDbEntity
  8
0
  6
Continuous
 62
     7
370
    30
100
AcDbLine
 10
131.9689949668
 20
67.733766433
 30
0.0
 11
129.4289933211
 21
67.733766433
 31
0.0
  0
LINE
  5
144
330
1F
100
AcDbEntity
  8
0
  6
Continuous
 62
     7
370
    30
100
AcDbLine
 10
129.4289933211
 20
66.7337662691
 30
0.0
 11
131.9689949668
 21
66.7337662691
 31
0.0
  0
LINE
  5
145
330
1F
100
AcDbEntity
  8
0
  6
Continuous
 62
     7
370
    30
100
AcDbLine
 10
128.4289931572
 20
74.3537656182
 30
0.0
 11
129.4289933211
 21
74.3537656182
 31
0.0
  0
LINE
  5
146
330
1F
100
AcDbEntity
  8
0
  6
Continuous
 62
     7
370
    30
100
AcDbLine
 10
129.4289933211
 20
75.3537639195
 30
0.0
 11
128.4289931572
 21
75.3537639195
 31
0.0
  0
LINE
  5
147
330
1F
100
AcDbEntity
  8
0
  6
Continuous
 62
     7
370
    30
100
AcDbLine
 10
131.9689949668
 20
70.2737662161
 30
0.0
 11
129.4289933211
 21
70.2737662161
 31
0.0
  0
LINE
  5
148
330
1F
100
AcDbEntity
  8
0
  6
Continuous
 62
     7
370
    30
100
AcDbLine
 10
129.4289933211
 20
69.2737660522
 30
0.0
 11
131.9689949668
 21
69.2737660522
 31
0.0
  0
LINE
  5
149
330
1F
100
AcDbEntity
  8
0
  6
Continuous
 62
     7
370
    30
100
AcDbLine
 10
131.9689949668
 20
72.8137659991
 30
0.0
 11
129.4289933211
 21
72.8137659991
 31
0.0
  0
LINE
  5
14A
330
1F
100
AcDbEntity
  8
0
  6
Continuous
 62
     7
370
    30
100
AcDbLine
 10
129.4289933211
 20
71.8137658352
 30
0.0
 11
131.9689949668
 21
71.8137658352
 31
0.0
  0
LINE
  5
14B
330
1F
100
AcDbEntity
  8
0
  6
Continuous
 62
     7
370
    30
100
AcDbLine
 10
131.9689949668
 20
65.1937647874
 30
0.0
 11
129.4289933211
 21
65.1937647874
 31
0.0
  0
LINE
  5
14C
330
1F
100
AcDbEntity
  8
0
  6
Continuous
 62
     7
370
    30
100
AcDbLine
 10
129.4289933211
 20
64.1937646234
 30
0.0
 11
131.9689949668
 21
64.1937646234
 31
0.0
  0
LINE
  5
14D
330
1F
100
AcDbEntity
  8
0
  6
Continuous
 62
     7
370
    30
100
AcDbLine
 10
131.9689949668
 20
75.3537639195
 30
0.0
 11
129.4289933211
 21
75.3537639195
 31
0.0
  0
LINE
  5
14E
330
1F
100
AcDbEntity
  8
0
  6
Continuous
 62
     7
370
    30
100
AcDbLine
 10
129.4289933211
 20
74.3537656182
 30
0.0
 11
131.9689949668
 21
74.3537656182
 31
0.0
  0
LINE
  5
14F
330
1F
100
AcDbEntity
  8
0
  6
Continuous
 62
     7
370
    30
100
AcDbLine
 10
128.4289931572
 20
64.1937646234
 30
0.0
 11
129.4289933211
 21
64.1937646234
 31
0.0
  0
LINE
  5
150
330
1F
100
AcDbEntity
  8
0
  6
Continuous
 62
     7
370
    30
100
AcDbLine
 10
129.4289933211
 20
65.1937647874
 30
0.0
 11
128.4289931572
 21
65.1937647874
 31
0.0
  0
LINE
  5
151
330
1F
100
AcDbEntity
  8
0
  6
Continuous
 62
     7
370
    30
100
AcDbLine
 10
132.0689929343
 20
75.6537652725
 30
0.0
 11
131.9689949668
 21
75.6537652725
 31
0.0
  0
LINE
  5
152
330
1F
100
AcDbEntity
  8
0
  6
Continuous
 62
     7
370
    30
100
AcDbLine
 10
131.9689949668
 20
74.6537669713
 30
0.0
 11
132.0689929343
 21
74.6537669713
 31
0.0
  0
LINE
  5
153
330
1F
100
AcDbEntity
  8
0
  6
Continuous
 62
     7
370
    30
100
AcDbLine
 10
132.0689929343
 20
73.1137654895
 30
0.0
 11
131.9689949668
 21
73.1137654895
 31
0.0
  0
LINE
  5
154
330
1F
100
AcDbEntity
  8
0
  6
Continuous
 62
     7
370
    30
100
AcDbLine
 10
131.9689949668
 20
72.1137653256
 30
0.0
 11
132.0689929343
 21
72.1137653256
 31
0.0
  0
LINE
  5
155
330
1F
100
AcDbEntity
  8
0
  6
Continuous
 62
     7
370
    30
100
AcDbLine
 10
132.0689929343
 20
70.5737657065
 30
0.0
 11
131.9689949668
 21
70.5737657065
 31
0.0
  0
LINE
  5
156
330
1F
100
AcDbEntity
  8
0
  6
Continuous
 62
     7
370
    30
100
AcDbLine
 10
131.9689949668
 20
69.5737655425
 30
0.0
 11
132.0689929343
 21
69.5737655425
 31
0.0
  0
LINE
  5
157
330
1F
100
AcDbEntity
  8
0
  6
Continuous
 62
     7
370
    30
100
AcDbLine
 10
132.0689929343
 20
68.0337659234
 30
0.0
 11
131.9689949668
 21
68.0337659234
 31
0.0
  0
LINE
  5
158
330
1F
100
AcDbEntity
  8
0
  6
Continuous
 62
     7
370
    30
100
AcDbLine
 10
131.9689949668
 20
67.0337657595
 30
0.0
 11
132.0689929343
 21
67.0337657595
 31
0.0
  0
LINE
  5
159
330
1F
100
AcDbEntity
  8
0
  6
Continuous
 62
     7
370
    30
100
AcDbLine
 10
132.0689929343
 20
65.4937661404
 30
0.0
 11
131.9689949668
 21
65.4937661404
 31
0.0
  0
LINE
  5
15A
330
1F
100
AcDbEntity
  8
0
  6
Continuous
 62
     7
370
    30
100
AcDbLine
 10
131.9689949668
 20
64.4937659765
 30
0.0
 11
132.0689929343
 21
64.4937659765
 31
0.0
  0
LINE
  5
15B
330
1F
100
AcDbEntity
  8
0
  6
Continuous
 62
     7
370
    30
100
AcDbLine
 10
142.5689918614
 20
68.0337659234
 30
0.0
 11
136.1789939619
 21
68.0337659234
 31
0.0
  0
LINE
  5
15C
330
1F
100
AcDbEntity
  8
0
  6
Continuous
 62
     7
370
    30
100
AcDbLine
 10
136.1789939619
 20
69.5737655425
 30
0.0
 11
142.5689918614
 21
69.5737655425
 31
0.0
  0
LINE
  5
15D
330
1F
100
AcDbEntity
  8
0
  6
Continuous
 62
     7
370
    30
100
AcDbLine
 10
142.5689918614
 20
70.5737657065
 30
0.0
 11
136.1789939619
 21
70.5737657065
 31
0.0
  0
LINE
  5
15E
330
1F
100
AcDbEntity
  8
0
  6
Continuous
 62
     7
370
    30
100
AcDbLine
 10
136.1789939619
 20
72.1137653256
 30
0.0
 11
142.5689918614
 21
72.1137653256
 31
0.0
  0
ARC
  5
15F
330
1F
100
AcDbEntity
  8
0
  6
Continuous
 62
     7
370
    30
100
AcDbCircle
 10
131.0689932576
 20
75.1537655217
 30
0.0
 40
0.5000000000000107
100
AcDbArc
 50
90.0
 51
156.4218215218
  0
LINE
  5
160
330
1F
100
AcDbEntity
  8
0
  6
Continuous
 62
     7
370
    30
100
AcDbLine
 10
131.9689949668
 20
75.6537652725
 30
0.0
 11
131.068994633
 21
75.6537652725
 31
0.0
  0
ARC
  5
161
330
1F
100
AcDbEntity
  8
0
  6
Continuous
 62
     7
370
    30
100
AcDbCircle
 10
131.0689932576
 20
72.6137655217
 30
0.0
 40
0.5000000000000107
100
AcDbArc
 50
90.0
 51
156.4218215218
  0
LINE
  5
162
330
1F
100
AcDbEntity
  8
0
  6
Continuous
 62
     7
370
    30
100
AcDbLine
 10
131.9689949668
 20
73.1137654895
 30
0.0
 11
131.068994633
 21
73.1137654895
 31
0.0
  0
ARC
  5
163
330
1F
100
AcDbEntity
  8
0
  6
Continuous
 62
     7
370
    30
100
AcDbCircle
 10
131.0689932576
 20
70.0737655217
 30
0.0
 40
0.5000000000000107
100
AcDbArc
 50
90.0
 51
156.4218215218
  0
LINE
  5
164
330
1F
100
AcDbEntity
  8
0
  6
Continuous
 62
     7
370
    30
100
AcDbLine
 10
131.9689949668
 20
70.5737657065
 30
0.0
 11
131.068994633
 21
70.5737657065
 31
0.0
  0
ARC
  5
165
330
1F
100
AcDbEntity
  8
0
  6
Continuous
 62
     7
370
    30
100
AcDbCircle
 10
131.0689932576
 20
67.5337655217
 30
0.0
 40
0.5000000000000163
100
AcDbArc
 50
90.0
 51
156.4218215218
  0
LINE
  5
166
330
1F
100
AcDbEntity
  8
0
  6
Continuous
 62
     7
370
    30
100
AcDbLine
 10
131.9689949668
 20
68.0337659234
 30
0.0
 11
131.068994633
 21
68.0337659234
 31
0.0
  0
ARC
  5
167
330
1F
100
AcDbEntity
  8
0
  6
Continuous
 62
     7
370
    30
100
AcDbCircle
 10
131.0689932576
 20
64.9937655217
 30
0.0
 40
0.500000000000022
100
AcDbArc
 50
90.0
 51
156.4218215218
  0
LINE
  5
168
330
1F
100
AcDbEntity
  8
0
  6
Continuous
 62
     7
370
    30
100
AcDbLine
 10
131.9689949668
 20
65.4937661404
 30
0.0
 11
131.068994633
 21
65.4937661404
 31
0.0
  0
LINE
  5
169
330
1F
100
AcDbEntity
  8
0
  6
Continuous
 62
     7
370
    30
100
AcDbLine
 10
67.468994639
 20
59.5737657661
 30
0.0
 11
68.0689936197
 21
59.5737657661
 31
0.0
  0
LINE
  5
16A
330
1F
100
AcDbEntity
  8
0
  6
Continuous
 62
     7
370
    30
100
AcDbLine
 10
68.0689936197
 20
59.5737657661
 30
0.0
 11
68.0689936197
 21
60.1737647468
 31
0.0
  0
LINE
  5
16B
330
1F
100
AcDbEntity
  8
0
  6
Continuous
 62
     7
370
    30
100
AcDbLine
 10
67.468994639
 20
60.1737647468
 30
0.0
 11
67.468994639
 21
59.5737657661
 31
0.0
  0
LINE
  5
16C
330
1F
100
AcDbEntity
  8
0
  6
Continuous
 62
     7
370
    30
100
AcDbLine
 10
68.0689936197
 20
60.1737647468
 30
0.0
 11
67.468994639
 21
60.1737647468
 31
0.0
  0
LINE
  5
16D
330
1F
100
AcDbEntity
  8
0
  6
Continuous
 62
     7
370
    30
100
AcDbLine
 10
69.0689937836
 20
61.1737649107
 30
0.0
 11
66.4689926124
 21
61.1737649107
 31
0.0
  0
LINE
  5
16E
330
1F
100
AcDbEntity
  8
0
  6
Continuous
 62
     7
370
    30
100
AcDbLine
 10
69.0689937836
 20
58.5737656021
 30
0.0
 11
69.0689937836
 21
61.1737649107
 31
0.0
  0
LINE
  5
16F
330
1F
100
AcDbEntity
  8
0
  6
Continuous
 62
     7
370
    30
100
AcDbLine
 10
66.4689926124
 20
58.5737656021
 30
0.0
 11
69.0689937836
 21
58.5737656021
 31
0.0
  0
LINE
  5
170
330
1F
100
AcDbEntity
  8
0
  6
Continuous
 62
     7
370
    30
100
AcDbLine
 10
66.4689926124
 20
61.1737649107
 30
0.0
 11
66.4689926124
 21
58.5737656021
 31
0.0
  0
LINE
  5
171
330
1F
100
AcDbEntity
  8
0
  6
Continuous
 62
     7
370
    30
100
AcDbLine
 10
68.0689936197
 20
49.1737657377
 30
0.0
 11
68.0689936197
 21
49.7737656498
 31
0.0
  0
LINE
  5
172
330
1F
100
AcDbEntity
  8
0
  6
Continuous
 62
     7
370
    30
100
AcDbLine
 10
67.468994639
 20
49.1737657377
 30
0.0
 11
68.0689936197
 21
49.1737657377
 31
0.0
  0
LINE
  5
173
330
1F
100
AcDbEntity
  8
0
  6
Continuous
 62
     7
370
    30
100
AcDbLine
 10
67.468994639
 20
49.7737656498
 30
0.0
 11
67.468994639
 21
49.1737657377
 31
0.0
  0
LINE
  5
174
330
1F
100
AcDbEntity
  8
0
  6
Continuous
 62
     7
370
    30
100
AcDbLine
 10
68.0689936197
 20
49.7737656498
 30
0.0
 11
67.468994639
 21
49.7737656498
 31
0.0
  0
LINE
  5
175
330
1F
100
AcDbEntity
  8
0
  6
Continuous
 62
     7
370
    30
100
AcDbLine
 10
69.0689937836
 20
50.7737658137
 30
0.0
 11
66.4689926124
 21
50.7737658137
 31
0.0
  0
LINE
  5
176
330
1F
100
AcDbEntity
  8
0
  6
Continuous
 62
     7
370
    30
100
AcDbLine
 10
69.0689937836
 20
48.1737655738
 30
0.0
 11
69.0689937836
 21
50.7737658137
 31
0.0
  0
LINE
  5
177
330
1F
100
AcDbEntity
  8
0
  6
Continuous
 62
     7
370
    30
100
AcDbLine
 10
66.4689926124
 20
48.1737655738
 30
0.0
 11
69.0689937836
 21
48.1737655738
 31
0.0
  0
LINE
  5
178
330
1F
100
AcDbEntity
  8
0
  6
Continuous
 62
     7
370
    30
100
AcDbLine
 10
66.4689926124
 20
50.7737658137
 30
0.0
 11
66.4689926124
 21
48.1737655738
 31
0.0
  0
LINE
  5
179
330
1F
100
AcDbEntity
  8
0
  6
Continuous
 62
     7
370
    30
100
AcDbLine
 10
67.468994639
 20
56.9737655261
 30
0.0
 11
68.0689936197
 21
56.9737655261
 31
0.0
  0
LINE
  5
17A
330
1F
100
AcDbEntity
  8
0
  6
Continuous
 62
     7
370
    30
100
AcDbLine
 10
68.0689936197
 20
57.5737654382
 30
0.0
 11
67.468994639
 21
57.5737654382
 31
0.0
  0
LINE
  5
17B
330
1F
100
AcDbEntity
  8
0
  6
Continuous
 62
     7
370
    30
100
AcDbLine
 10
68.0689936197
 20
56.9737655261
 30
0.0
 11
68.0689936197
 21
57.5737654382
 31
0.0
  0
LINE
  5
17C
330
1F
100
AcDbEntity
  8
0
  6
Continuous
 62
     7
370
    30
100
AcDbLine
 10
67.468994639
 20
57.5737654382
 30
0.0
 11
67.468994639
 21
56.9737655261
 31
0.0
  0
LINE
  5
17D
330
1F
100
AcDbEntity
  8
0
  6
Continuous
 62
     7
370
    30
100
AcDbLine
 10
66.4689926124
 20
58.5737656021
 30
0.0
 11
66.4689926124
 21
55.9737653622
 31
0.0
  0
LINE
  5
17E
330
1F
100
AcDbEntity
  8
0
  6
Continuous
 62
     7
370
    30
100
AcDbLine
 10
69.0689937836
 20
55.9737653622
 30
0.0
 11
69.0689937836
 21
58.5737656021
 31
0.0
  0
LINE
  5
17F
330
1F
100
AcDbEntity
  8
0
  6
Continuous
 62
     7
370
    30
100
AcDbLine
 10
66.4689926124
 20
55.9737653622
 30
0.0
 11
69.0689937836
 21
55.9737653622
 31
0.0
  0
LINE
  5
180
330
1F
100
AcDbEntity
  8
0
  6
Continuous
 62
     7
370
    30
100
AcDbLine
 10
68.0689936197
 20
54.9737651983
 30
0.0
 11
67.468994639
 21
54.9737651983
 31
0.0
  0
LINE
  5
181
330
1F
100
AcDbEntity
  8
0
  6
Continuous
 62
     7
370
    30
100
AcDbLine
 10
67.468994639
 20
54.3737652862
 30
0.0
 11
68.0689936197
 21
54.3737652862
 31
0.0
  0
LINE
  5
182
330
1F
100
AcDbEntity
  8
0
  6
Continuous
 62
     7
370
    30
100
AcDbLine
 10
67.468994639
 20
54.9737651983
 30
0.0
 11
67.468994639
 21
54.3737652862
 31
0.0
  0
LINE
  5
183
330
1F
100
AcDbEntity
  8
0
  6
Continuous
 62
     7
370
    30
100
AcDbLine
 10
68.0689936197
 20
54.3737652862
 30
0.0
 11
68.0689936197
 21
54.9737651983
 31
0.0
  0
LINE
  5
184
330
1F
100
AcDbEntity
  8
0
  6
Continuous
 62
     7
370
    30
100
AcDbLine
 10
69.0689937836
 20
53.3737651223
 30
0.0
 11
69.0689937836
 21
55.9737653622
 31
0.0
  0
LINE
  5
185
330
1F
100
AcDbEntity
  8
0
  6
Continuous
 62
     7
370
    30
100
AcDbLine
 10
66.4689926124
 20
53.3737651223
 30
0.0
 11
69.0689937836
 21
53.3737651223
 31
0.0
  0
LINE
  5
186
330
1F
100
AcDbEntity
  8
0
  6
Continuous
 62
     7
370
    30
100
AcDbLine
 10
66.4689926124
 20
55.9737653622
 30
0.0
 11
66.4689926124
 21
53.3737651223
 31
0.0
  0
LINE
  5
187
330
1F
100
AcDbEntity
  8
0
  6
Continuous
 62
     7
370
    30
100
AcDbLine
 10
68.0689936197
 20
52.3737658897
 30
0.0
 11
67.468994639
 21
52.3737658897
 31
0.0
  0
LINE
  5
188
330
1F
100
AcDbEntity
  8
0
  6
Continuous
 62
     7
370
    30
100
AcDbLine
 10
68.0689936197
 20
51.7737659777
 30
0.0
 11
68.0689936197
 21
52.3737658897
 31
0.0
  0
LINE
  5
189
330
1F
100
AcDbEntity
  8
0
  6
Continuous
 62
     7
370
    30
100
AcDbLine
 10
67.468994639
 20
52.3737658897
 30
0.0
 11
67.468994639
 21
51.7737659777
 31
0.0
  0
LINE
  5
18A
330
1F
100
AcDbEntity
  8
0
  6
Continuous
 62
     7
370
    30
100
AcDbLine
 10
67.468994639
 20
51.7737659777
 30
0.0
 11
68.0689936197
 21
51.7737659777
 31
0.0
  0
LINE
  5
18B
330
1F
100
AcDbEntity
  8
0
  6
Continuous
 62
     7
370
    30
100
AcDbLine
 10
66.4689926124
 20
53.3737651223
 30
0.0
 11
66.4689926124
 21
50.7737658137
 31
0.0
  0
LINE
  5
18C
330
1F
100
AcDbEntity
  8
0
  6
Continuous
 62
     7
370
    30
100
AcDbLine
 10
69.0689937836
 20
50.7737658137
 30
0.0
 11
69.0689937836
 21
53.3737651223
 31
0.0
  0
LINE
  5
18D
330
1F
100
AcDbEntity
  8
0
  6
Continuous
 62
     7
370
    30
100
AcDbLine
 10
133.0689949608
 20
86.9237668032
 30
0.0
 11
126.9189933008
 21
86.9237668032
 31
0.0
  0
LINE
  5
18E
330
1F
100
AcDbEntity
  8
0
  6
Continuous
 62
     7
370
    30
100
AcDbLine
 10
133.0689949608
 20
86.9237668032
 30
0.0
 11
133.0689949608
 21
80.4237648064
 31
0.0
  0
LINE
  5
18F
330
1F
100
AcDbEntity
  8
0
  6
Continuous
 62
     7
370
    30
100
AcDbLine
 10
126.9189933008
 20
81.270340752
 30
0.0
 11
126.9189933008
 21
80.4237648064
 31
0.0
  0
LINE
  5
190
330
1F
100
AcDbEntity
  8
0
  6
Continuous
 62
     7
370
    30
100
AcDbLine
 10
126.9189933008
 20
81.270340752
 30
0.0
 11
128.3189927853
 21
81.6203429515
 31
0.0
  0
LINE
  5
191
330
1F
100
AcDbEntity
  8
0
  6
Continuous
 62
     7
370
    30
100
AcDbLine
 10
128.3189927853
 20
81.6203429515
 30
0.0
 11
128.3189927853
 21
82.4203415925
 31
0.0
  0
LINE
  5
192
330
1F
100
AcDbEntity
  8
0
  6
Continuous
 62
     7
370
    30
100
AcDbLine
 10
128.3189927853
 20
82.4203415925
 30
0.0
 11
126.9189933008
 21
82.7703400666
 31
0.0
  0
LINE
  5
193
330
1F
100
AcDbEntity
  8
0
  6
Continuous
 62
     7
370
    30
100
AcDbLine
 10
126.9189933008
 20
84.5771878177
 30
0.0
 11
126.9189933008
 21
82.7703400666
 31
0.0
  0
LINE
  5
194
330
1F
100
AcDbEntity
  8
0
  6
Continuous
 62
     7
370
    30
100
AcDbLine
 10
126.9189933008
 20
84.5771878177
 30
0.0
 11
128.3189927853
 21
84.9271900171
 31
0.0
  0
LINE
  5
195
330
1F
100
AcDbEntity
  8
0
  6
Continuous
 62
     7
370
    30
100
AcDbLine
 10
128.3189927853
 20
84.9271900171
 30
0.0
 11
128.3189927853
 21
85.7271886582
 31
0.0
  0
LINE
  5
196
330
1F
100
AcDbEntity
  8
0
  6
Continuous
 62
     7
370
    30
100
AcDbLine
 10
128.3189927853
 20
85.7271886582
 30
0.0
 11
126.9189933008
 21
86.0771908576
 31
0.0
  0
LINE
  5
197
330
1F
100
AcDbEntity
  8
0
  6
Continuous
 62
     7
370
    30
100
AcDbLine
 10
126.9189933008
 20
86.9237668032
 30
0.0
 11
126.9189933008
 21
86.0771908576
 31
0.0
  0
LINE
  5
198
330
1F
100
AcDbEntity
  8
0
  6
Continuous
 62
     7
370
    30
100
AcDbLine
 10
133.0689949608
 20
80.4237648064
 30
0.0
 11
126.9189933008
 21
80.4237648064
 31
0.0
  0
LINE
  5
199
330
1F
100
AcDbEntity
  8
0
  6
Continuous
 62
     7
370
    30
100
AcDbLine
 10
54.4943188942
 20
76.5237658435
 30
0.0
 11
54.1943212665
 21
76.5237658435
 31
0.0
  0
LINE
  5
19A
330
1F
100
AcDbEntity
  8
0
  6
Continuous
 62
     7
370
    30
100
AcDbLine
 10
54.1943212665
 20
76.5237658435
 30
0.0
 11
54.1943212665
 21
86.9237668032
 31
0.0
  0
LINE
  5
19B
330
1F
100
AcDbEntity
  8
0
  6
Continuous
 62
     7
370
    30
100
AcDbLine
 10
54.4943188942
 20
86.9237668032
 30
0.0
 11
54.1943212665
 21
86.9237668032
 31
0.0
  0
LINE
  5
19C
330
1F
100
AcDbEntity
  8
0
  6
Continuous
 62
     7
370
    30
100
AcDbLine
 10
54.4943188942
 20
86.9237668032
 30
0.0
 11
54.4943188942
 21
76.5237658435
 31
0.0
  0
LINE
  5
19D
330
1F
100
AcDbEntity
  8
0
  6
Continuous
 62
     7
370
    30
100
AcDbLine
 10
54.9443190611
 20
87.1237664634
 30
0.0
 11
70.8943208373
 21
87.1237664634
 31
0.0
  0
LINE
  5
19E
330
1F
100
AcDbEntity
  8
0
  6
Continuous
 62
     7
370
    30
100
AcDbLine
 10
70.8943208373
 20
87.4237640912
 30
0.0
 11
54.9443190611
 21
87.4237640912
 31
0.0
  0
LINE
  5
19F
330
1F
100
AcDbEntity
  8
0
  6
Continuous
 62
     7
370
    30
100
AcDbLine
 10
70.8943208373
 20
87.1237664634
 30
0.0
 11
70.8943208373
 21
87.4237640912
 31
0.0
  0
LINE
  5
1A0
330
1F
100
AcDbEntity
  8
0
  6
Continuous
 62
     7
370
    30
100
AcDbLine
 10
54.9443190611
 20
87.4237640912
 30
0.0
 11
54.9443190611
 21
87.1237664634
 31
0.0
  0
LINE
  5
1A1
330
1F
100
AcDbEntity
  8
0
  6
Continuous
 62
     7
370
    30
100
AcDbLine
 10
70.8943208373
 20
76.0237648303
 30
0.0
 11
54.9443190611
 21
76.0237648303
 31
0.0
  0
LINE
  5
1A2
330
1F
100
AcDbEntity
  8
0
  6
Continuous
 62
     7
370
    30
100
AcDbLine
 10
54.9443190611
 20
76.3237661833
 30
0.0
 11
70.8943208373
 21
76.3237661833
 31
0.0
  0
LINE
  5
1A3
330
1F
100
AcDbEntity
  8
0
  6
Continuous
 62
     7
370
    30
100
AcDbLine
 10
70.8943208373
 20
76.3237661833
 30
0.0
 11
70.8943208373
 21
76.0237648303
 31
0.0
  0
LINE
  5
1A4
330
1F
100
AcDbEntity
  8
0
  6
Continuous
 62
     7
370
    30
100
AcDbLine
 10
54.9443190611
 20
76.0237648303
 30
0.0
 11
54.9443190611
 21
76.3237661833
 31
0.0
  0
LINE
  5
1A5
330
1F
100
AcDbEntity
  8
0
  6
Continuous
 62
     7
370
    30
100
AcDbLine
 10
71.1943203277
 20
79.3247967178
 30
0.0
 11
70.8943208373
 21
78.4248001093
 31
0.0
  0
LINE
  5
1A6
330
1F
100
AcDbEntity
  8
0
  6
Continuous
 62
     7
370
    30
100
AcDbLine
 10
70.8943208373
 20
78.4248001093
 30
0.0
 11
70.8943208373
 21
76.3237661833
 31
0.0
  0
LINE
  5
1A7
330
1F
100
AcDbEntity
  8
0
  6
Continuous
 62
     7
370
    30
100
AcDbLine
 10
54.9443190611
 20
76.5237658435
 30
0.0
 11
54.4943188942
 21
76.5237658435
 31
0.0
  0
LINE
  5
1A8
330
1F
100
AcDbEntity
  8
0
  6
Continuous
 62
     7
370
    30
100
AcDbLine
 10
70.8943208373
 20
85.0227325374
 30
0.0
 11
70.8943208373
 21
87.1237664634
 31
0.0
  0
LINE
  5
1A9
330
1F
100
AcDbEntity
  8
0
  6
Continuous
 62
     7
370
    30
100
AcDbLine
 10
71.1943203277
 20
79.3247967178
 30
0.0
 11
71.1943203277
 21
84.1227322036
 31
0.0
  0
LINE
  5
1AA
330
1F
100
AcDbEntity
  8
0
  6
Continuous
 62
     7
370
    30
100
AcDbLine
 10
71.1943203277
 20
84.1227322036
 30
0.0
 11
70.8943208373
 21
85.0227325374
 31
0.0
  0
LINE
  5
1AB
330
1F
100
AcDbEntity
  8
0
  6
Continuous
 62
     7
370
    30
100
AcDbLine
 10
54.9443190611
 20
76.5237658435
 30
0.0
 11
54.9443190611
 21
76.3237661833
 31
0.0
  0
LINE
  5
1AC
330
1F
100
AcDbEntity
  8
0
  6
Continuous
 62
     7
370
    30
100
AcDbLine
 10
54.9443190611
 20
86.9237668032
 30
0.0
 11
54.4943188942
 21
86.9237668032
 31
0.0
  0
LINE
  5
1AD
330
1F
100
AcDbEntity
  8
0
  6
Continuous
 62
     7
370
    30
100
AcDbLine
 10
54.9443190611
 20
86.9237668032
 30
0.0
 11
54.9443190611
 21
87.1237664634
 31
0.0
  0
LINE
  5
1AE
330
1F
100
AcDbEntity
  8
0
  6
Continuous
 62
     7
370
    30
100
AcDbLine
 10
54.4943188942
 20
75.7237672025
 30
0.0
 11
56.6943188823
 21
75.7237672025
 31
0.0
  0
LINE
  5
1AF
330
1F
100
AcDbEntity
  8
0
  6
Continuous
 62
     7
370
    30
100
AcDbLine
 10
56.6943188823
 20
76.0237648303
 30
0.0
 11
56.6943188823
 21
75.7237672025
 31
0.0
  0
ARC
  5
1B0
330
1F
100
AcDbEntity
  8
0
  6
Continuous
 62
     7
370
    30
100
AcDbCircle
 10
54.4943203025
 20
76.0237655217
 30
0.0
 40
0.3000000000000043
100
AcDbArc
 50
180.0
 51
270.0
  0
LINE
  5
1B1
330
1F
100
AcDbEntity
  8
0
  6
Continuous
 62
     7
370
    30
100
AcDbLine
 10
54.1943212665
 20
76.5237658435
 30
0.0
 11
54.1943212665
 21
76.0237648303
 31
0.0
  0
LINE
  5
1B2
330
1F
100
AcDbEntity
  8
0
  6
Continuous
 62
     7
370
    30
100
AcDbLine
 10
54.4943188942
 20
87.7237654442
 30
0.0
 11
56.6943188823
 21
87.7237654442
 31
0.0
  0
LINE
  5
1B3
330
1F
100
AcDbEntity
  8
0
  6
Continuous
 62
     7
370
    30
100
AcDbLine
 10
56.6943188823
 20
87.4237640912
 30
0.0
 11
56.6943188823
 21
87.7237654442
 31
0.0
  0
ARC
  5
1B4
330
1F
100
AcDbEntity
  8
0
  6
Continuous
 62
     7
370
    30
100
AcDbCircle
 10
54.4943203025
 20
87.4237655217
 30
0.0
 40
0.3000000000000043
100
AcDbArc
 50
90.0
 51
180.0
  0
LINE
  5
1B5
330
1F
100
AcDbEntity
  8
0
  6
Continuous
 62
     7
370
    30
100
AcDbLine
 10
54.1943212665
 20
86.9237668032
 30
0.0
 11
54.1943212665
 21
87.4237640912
 31
0.0
  0
LINE
  5
1B6
330
1F
100
AcDbEntity
  8
0
  6
Continuous
 62
     7
370
    30
100
AcDbLine
 10
71.1943203277
 20
78.3247984165
 30
0.0
 11
70.8943208373
 21
78.3247984165
 31
0.0
  0
LINE
  5
1B7
330
1F
100
AcDbEntity
  8
0
  6
Continuous
 62
     7
370
    30
100
AcDbLine
 10
71.1943203277
 20
76.3237661833
 30
0.0
 11
71.1943203277
 21
78.3247984165
 31
0.0
  0
ARC
  5
1B8
330
1F
100
AcDbEntity
  8
0
  6
Continuous
 62
     7
370
    30
100
AcDbCircle
 10
70.8943203025
 20
76.3237655217
 30
0.0
 40
0.2999999999999972
100
AcDbArc
 50
270.0
 51
0.0
  0
LINE
  5
1B9
330
1F
100
AcDbEntity
  8
0
  6
Continuous
 62
     7
370
    30
100
AcDbLine
 10
71.1943203277
 20
87.1237664634
 30
0.0
 11
71.1943203277
 21
85.1227342302
 31
0.0
  0
LINE
  5
1BA
330
1F
100
AcDbEntity
  8
0
  6
Continuous
 62
     7
370
    30
100
AcDbLine
 10
71.1943203277
 20
85.1227342302
 30
0.0
 11
70.8943208373
 21
85.1227342302
 31
0.0
  0
ARC
  5
1BB
330
1F
100
AcDbEntity
  8
0
  6
Continuous
 62
     7
370
    30
100
AcDbCircle
 10
70.8943203025
 20
87.1237655217
 30
0.0
 40
0.3000000000000114
100
AcDbArc
 50
0.0
 51
90.0
  0
LINE
  5
1BC
330
1F
100
AcDbEntity
  8
0
  6
Continuous
 62
     7
370
    30
100
AcDbLine
 10
136.1789939619
 20
67.9687651956
 30
0.0
 11
142.9689949072
 21
67.9687651956
 31
0.0
  0
LINE
  5
1BD
330
1F
100
AcDbEntity
  8
0
  6
Continuous
 62
     7
370
    30
100
AcDbLine
 10
142.9689949072
 20
59.7737654263
 30
0.0
 11
132.0689929343
 21
59.7737654263
 31
0.0
  0
LINE
  5
1BE
330
1F
100
AcDbEntity
  8
0
  6
Continuous
 62
     7
370
    30
100
AcDbLine
 10
132.0689929343
 20
80.0737663323
 30
0.0
 11
132.0689929343
 21
59.7737654263
 31
0.0
  0
LINE
  5
1BF
330
1F
100
AcDbEntity
  8
0
  6
Continuous
 62
     7
370
    30
100
AcDbLine
 10
142.9689949072
 20
80.0737663323
 30
0.0
 11
132.0689929343
 21
80.0737663323
 31
0.0
  0
LINE
  5
1C0
330
1F
100
AcDbEntity
  8
0
  6
Continuous
 62
     7
370
    30
100
AcDbLine
 10
136.1789939619
 20
72.1787660534
 30
0.0
 11
136.1789939619
 21
67.9687651956
 31
0.0
  0
LINE
  5
1C1
330
1F
100
AcDbEntity
  8
0
  6
Continuous
 62
     7
370
    30
100
AcDbLine
 10
142.9689949072
 20
67.9687651956
 30
0.0
 11
142.9689949072
 21
59.7737654263
 31
0.0
  0
LINE
  5
1C2
330
1F
100
AcDbEntity
  8
0
  6
Continuous
 62
     7
370
    30
100
AcDbLine
 10
142.9689949072
 20
80.0737663323
 30
0.0
 11
142.9689949072
 21
72.1787660534
 31
0.0
  0
LINE
  5
1C3
330
1F
100
AcDbEntity
  8
0
  6
Continuous
 62
     7
370
    30
100
AcDbLine
 10
142.9689949072
 20
72.1787660534
 30
0.0
 11
136.1789939619
 21
72.1787660534
 31
0.0
  0
ARC
  5
1C4
330
1F
100
AcDbEntity
  8
0
  6
Continuous
 62
     7
370
    30
100
AcDbCircle
 10
128.4289932576
 20
67.2337655217
 30
0.0
 40
0.5
100
AcDbArc
 50
90.0
 51
270.0
  0
ARC
  5
1C5
330
1F
100
AcDbEntity
  8
0
  6
Continuous
 62
     7
370
    30
100
AcDbCircle
 10
128.4289932576
 20
69.7737655217
 30
0.0
 40
0.5
100
AcDbArc
 50
90.0
 51
270.0
  0
ARC
  5
1C6
330
1F
100
AcDbEntity
  8
0
  6
Continuous
 62
     7
370
    30
100
AcDbCircle
 10
128.4289932576
 20
72.3137655217
 30
0.0
 40
0.5
100
AcDbArc
 50
90.0
 51
270.0
  0
LINE
  5
1C7
330
1F
100
AcDbEntity
  8
0
  6
Continuous
 62
     7
370
    30
100
AcDbLine
 10
131.9689949668
 20
66.7337662691
 30
0.0
 11
131.9689949668
 21
67.3837660963
 31
0.0
  0
ARC
  5
1C8
330
1F
100
AcDbEntity
  8
0
  6
Continuous
 62
     7
370
    30
100
AcDbCircle
 10
128.4289932576
 20
74.8537655217
 30
0.0
 40
0.5
100
AcDbArc
 50
90.0
 51
270.0
  0
LINE
  5
1C9
330
1F
100
AcDbEntity
  8
0
  6
Continuous
 62
     7
370
    30
100
AcDbLine
 10
131.9689949668
 20
69.2737660522
 30
0.0
 11
131.9689949668
 21
69.9237658793
 31
0.0
  0
LINE
  5
1CA
330
1F
100
AcDbEntity
  8
0
  6
Continuous
 62
     7
370
    30
100
AcDbLine
 10
131.9689949668
 20
71.8137658352
 30
0.0
 11
131.9689949668
 21
72.4637656623
 31
0.0
  0
LINE
  5
1CB
330
1F
100
AcDbEntity
  8
0
  6
Continuous
 62
     7
370
    30
100
AcDbLine
 10
131.9689949668
 20
64.1937646234
 30
0.0
 11
131.9689949668
 21
64.8437663132
 31
0.0
  0
LINE
  5
1CC
330
1F
100
AcDbEntity
  8
0
  6
Continuous
 62
     7
370
    30
100
AcDbLine
 10
131.9689949668
 20
74.3537656182
 30
0.0
 11
131.9689949668
 21
75.0037654454
 31
0.0
  0
ARC
  5
1CD
330
1F
100
AcDbEntity
  8
0
  6
Continuous
 62
     7
370
    30
100
AcDbCircle
 10
128.4289932576
 20
64.6937655217
 30
0.0
 40
0.5000000000000142
100
AcDbArc
 50
90.0
 51
270.0
  0
LINE
  5
1CE
330
1F
100
AcDbEntity
  8
0
  6
Continuous
 62
     7
370
    30
100
AcDbLine
 10
131.9689949668
 20
75.0037654454
 30
0.0
 11
131.9689949668
 21
75.6537652725
 31
0.0
  0
LINE
  5
1CF
330
1F
100
AcDbEntity
  8
0
  6
Continuous
 62
     7
370
    30
100
AcDbLine
 10
131.9689949668
 20
72.4637656623
 30
0.0
 11
131.9689949668
 21
73.1137654895
 31
0.0
  0
LINE
  5
1D0
330
1F
100
AcDbEntity
  8
0
  6
Continuous
 62
     7
370
    30
100
AcDbLine
 10
131.9689949668
 20
69.9237658793
 30
0.0
 11
131.9689949668
 21
70.5737657065
 31
0.0
  0
LINE
  5
1D1
330
1F
100
AcDbEntity
  8
0
  6
Continuous
 62
     7
370
    30
100
AcDbLine
 10
131.9689949668
 20
67.3837660963
 30
0.0
 11
131.9689949668
 21
68.0337659234
 31
0.0
  0
LINE
  5
1D2
330
1F
100
AcDbEntity
  8
0
  6
Continuous
 62
     7
370
    30
100
AcDbLine
 10
131.9689949668
 20
64.8437663132
 30
0.0
 11
131.9689949668
 21
65.4937661404
 31
0.0
  0
LINE
  5
1D3
330
1F
100
AcDbEntity
  8
0
  6
Continuous
 62
     7
370
    30
100
AcDbLine
 10
142.5689918614
 20
68.0337659234
 30
0.0
 11
142.5689918614
 21
67.9687651956
 31
0.0
  0
LINE
  5
1D4
330
1F
100
AcDbEntity
  8
0
  6
Continuous
 62
     7
370
    30
100
AcDbLine
 10
142.5689918614
 20
70.5737657065
 30
0.0
 11
142.5689918614
 21
69.5737655425
 31
0.0
  0
LINE
  5
1D5
330
1F
100
AcDbEntity
  8
0
  6
Continuous
 62
     7
370
    30
100
AcDbLine
 10
142.5689918614
 20
72.1787660534
 30
0.0
 11
142.5689918614
 21
72.1137653256
 31
0.0
  0
LINE
  5
1D6
330
1F
100
AcDbEntity
  8
0
  6
Continuous
 62
     7
370
    30
100
AcDbLine
 10
142.9689949072
 20
67.9687651956
 30
0.0
 11
142.9689949072
 21
72.1787660534
 31
0.0
  0
CIRCLE
  5
1D7
330
1F
100
AcDbEntity
  8
0
  6
Continuous
 62
     7
370
    30
100
AcDbCircle
 10
82.9008524101
 20
61.1190601611
 30
0.0
 40
3.5
  0
CIRCLE
  5
1D8
330
1F
100
AcDbEntity
  8
0
  6
Continuous
 62
     7
370
    30
100
AcDbCircle
 10
82.9008524101
 20
61.1190601611
 30
0.0
 40
4.0
  0
LINE
  5
1D9
330
1F
100
AcDbEntity
  8
0
  6
Continuous
 62
     7
370
    30
100
AcDbLine
 10
86.696573875
 20
62.6690610463
 30
0.0
 11
87.0508527077
 21
62.6690610463
 31
0.0
  0
LINE
  5
1DA
330
1F
100
AcDbEntity
  8
0
  6
Continuous
 62
     7
370
    30
100
AcDbLine
 10
87.0508527077
 20
62.6690610463
 30
0.0
 11
87.0508527077
 21
65.2690603549
 31
0.0
  0
LINE
  5
1DB
330
1F
100
AcDbEntity
  8
0
  6
Continuous
 62
     7
370
    30
100
AcDbLine
 10
87.0508527077
 20
65.2690603549
 30
0.0
 11
78.750851906
 21
65.2690603549
 31
0.0
  0
LINE
  5
1DC
330
1F
100
AcDbEntity
  8
0
  6
Continuous
 62
     7
370
    30
100
AcDbLine
 10
78.750851906
 20
65.2690603549
 30
0.0
 11
78.750851906
 21
62.6690610463
 31
0.0
  0
LINE
  5
1DD
330
1F
100
AcDbEntity
  8
0
  6
Continuous
 62
     7
370
    30
100
AcDbLine
 10
78.750851906
 20
62.6690610463
 30
0.0
 11
79.1051307387
 21
62.6690610463
 31
0.0
  0
ARC
  5
1DE
330
1F
100
AcDbEntity
  8
0
  6
Continuous
 62
     7
370
    30
100
AcDbCircle
 10
82.9008524101
 20
61.1190601611
 30
0.0
 40
4.099999999999996
100
AcDbArc
 50
22.2128718916
 51
157.7871281084
  0
LINE
  5
1DF
330
1F
100
AcDbEntity
  8
0
  6
Continuous
 62
     7
370
    30
100
AcDbLine
 10
85.0508523798
 20
56.9690604845
 30
0.0
 11
87.0508527077
 21
58.969059881
 31
0.0
  0
LINE
  5
1E0
330
1F
100
AcDbEntity
  8
0
  6
Continuous
 62
     7
370
    30
100
AcDbLine
 10
80.7508522338
 20
56.9690604845
 30
0.0
 11
85.0508523798
 21
56.9690604845
 31
0.0
  0
LINE
  5
1E1
330
1F
100
AcDbEntity
  8
0
  6
Continuous
 62
     7
370
    30
100
AcDbLine
 10
78.750851906
 20
58.969059881
 30
0.0
 11
80.7508522338
 21
56.9690604845
 31
0.0
  0
LINE
  5
1E2
330
1F
100
AcDbEntity
  8
0
  6
Continuous
 62
     7
370
    30
100
AcDbLine
 10
78.9124307848
 20
60.1690597052
 30
0.0
 11
78.750851906
 21
60.1690597052
 31
0.0
  0
ARC
  5
1E3
330
1F
100
AcDbEntity
  8
0
  6
Continuous
 62
     7
370
    30
100
AcDbCircle
 10
82.9008524101
 20
61.1190601611
 30
0.0
 40
4.099999999999997
100
AcDbArc
 50
193.3976095017
 51
346.6023904983
  0
LINE
  5
1E4
330
1F
100
AcDbEntity
  8
0
  6
Continuous
 62
     7
370
    30
100
AcDbLine
 10
87.0508527077
 20
60.1690597052
 30
0.0
 11
86.8892728976
 21
60.1690597052
 31
0.0
  0
LINE
  5
1E5
330
1F
100
AcDbEntity
  8
0
  6
Continuous
 62
     7
370
    30
100
AcDbLine
 10
87.0508527077
 20
58.969059881
 30
0.0
 11
87.0508527077
 21
60.1690597052
 31
0.0
  0
LINE
  5
1E6
330
1F
100
AcDbEntity
  8
0
  6
Continuous
 62
     7
370
    30
100
AcDbLine
 10
78.750851906
 20
60.1690597052
 30
0.0
 11
78.750851906
 21
58.969059881
 31
0.0
  0
LINE
  5
1E7
330
1F
100
AcDbEntity
  8
0
  6
Continuous
 62
     7
370
    30
100
AcDbLine
 10
87.0508527077
 20
62.6690610463
 30
0.0
 11
87.0508527077
 21
60.1690597052
 31
0.0
  0
LINE
  5
1E8
330
1F
100
AcDbEntity
  8
0
  6
Continuous
 62
     7
370
    30
100
AcDbLine
 10
78.750851906
 20
60.1690597052
 30
0.0
 11
78.750851906
 21
62.6690610463
 31
0.0
  0
LINE
  5
1E9
330
1F
100
AcDbEntity
  8
0
  6
Continuous
 62
     7
370
    30
100
AcDbLine
 10
82.4508530713
 20
65.2690603549
 30
0.0
 11
82.4508530713
 21
65.6690596754
 31
0.0
  0
LINE
  5
1EA
330
1F
100
AcDbEntity
  8
0
  6
Continuous
 62
     7
370
    30
100
AcDbLine
 10
82.4508530713
 20
65.6690596754
 30
0.0
 11
83.3508524737
 21
65.6690596754
 31
0.0
  0
LINE
  5
1EB
330
1F
100
AcDbEntity
  8
0
  6
Continuous
 62
     7
370
    30
100
AcDbLine
 10
83.3508524737
 20
65.6690596754
 30
0.0
 11
83.3508524737
 21
65.2690603549
 31
0.0
  0
LINE
  5
1EC
330
1F
100
AcDbEntity
  8
0
  6
Continuous
 62
     7
370
    30
100
AcDbLine
 10
83.3508524737
 20
56.9690604845
 30
0.0
 11
83.3508524737
 21
56.5690602327
 31
0.0
  0
LINE
  5
1ED
330
1F
100
AcDbEntity
  8
0
  6
Continuous
 62
     7
370
    30
100
AcDbLine
 10
83.3508524737
 20
56.5690602327
 30
0.0
 11
82.4508530713
 21
56.5690602327
 31
0.0
  0
LINE
  5
1EE
330
1F
100
AcDbEntity
  8
0
  6
Continuous
 62
     7
370
    30
100
AcDbLine
 10
82.4508530713
 20
56.5690602327
 30
0.0
 11
82.4508530713
 21
56.9690604845
 31
0.0
  0
CIRCLE
  5
1EF
330
1F
100
AcDbEntity
  8
0
  6
Continuous
 62
     7
370
    30
100
AcDbCircle
 10
113.7088358178
 20
85.6492063511
 30
0.0
 40
3.500000000000014
  0
CIRCLE
  5
1F0
330
1F
100
AcDbEntity
  8
0
  6
Continuous
 62
     7
370
    30
100
AcDbCircle
 10
113.7088358178
 20
85.6492063511
 30
0.0
 40
4.000000000000014
  0
ARC
  5
1F1
330
1F
100
AcDbEntity
  8
0
  6
Continuous
 62
     7
370
    30
100
AcDbCircle
 10
113.7088358178
 20
85.6492063511
 30
0.0
 40
4.099999999999993
100
AcDbArc
 50
22.2128718916
 51
157.7871281084
  0
LINE
  5
1F2
330
1F
100
AcDbEntity
  8
0
  6
Continuous
 62
     7
370
    30
100
AcDbLine
 10
109.5588359675
 20
87.1992073173
 30
0.0
 11
109.9131148002
 21
87.1992073173
 31
0.0
  0
LINE
  5
1F3
330
1F
100
AcDbEntity
  8
0
  6
Continuous
 62
     7
370
    30
100
AcDbLine
 10
117.8588358379
 20
89.7992066259
 30
0.0
 11
109.5588359675
 21
89.7992066259
 31
0.0
  0
LINE
  5
1F4
330
1F
100
AcDbEntity
  8
0
  6
Continuous
 62
     7
370
    30
100
AcDbLine
 10
117.8588358379
 20
87.1992073173
 30
0.0
 11
117.8588358379
 21
89.7992066259
 31
0.0
  0
LINE
  5
1F5
330
1F
100
AcDbEntity
  8
0
  6
Continuous
 62
     7
370
    30
100
AcDbLine
 10
117.5045570052
 20
87.1992073173
 30
0.0
 11
117.8588358379
 21
87.1992073173
 31
0.0
  0
LINE
  5
1F6
330
1F
100
AcDbEntity
  8
0
  6
Continuous
 62
     7
370
    30
100
AcDbLine
 10
109.5588359675
 20
89.7992066259
 30
0.0
 11
109.5588359675
 21
87.1992073173
 31
0.0
  0
LINE
  5
1F7
330
1F
100
AcDbEntity
  8
0
  6
Continuous
 62
     7
370
    30
100
AcDbLine
 10
117.8588358379
 20
84.6992059762
 30
0.0
 11
117.6972569591
 21
84.6992059762
 31
0.0
  0
LINE
  5
1F8
330
1F
100
AcDbEntity
  8
0
  6
Continuous
 62
     7
370
    30
100
AcDbLine
 10
115.8588355101
 20
81.4992076868
 30
0.0
 11
117.8588358379
 21
83.4992080146
 31
0.0
  0
ARC
  5
1F9
330
1F
100
AcDbEntity
  8
0
  6
Continuous
 62
     7
370
    30
100
AcDbCircle
 10
113.7088358178
 20
85.6492063511
 30
0.0
 40
4.099999999999999
100
AcDbArc
 50
193.3976095017
 51
346.6023904983
  0
LINE
  5
1FA
330
1F
100
AcDbEntity
  8
0
  6
Continuous
 62
     7
370
    30
100
AcDbLine
 10
109.7204148463
 20
84.6992059762
 30
0.0
 11
109.5588359675
 21
84.6992059762
 31
0.0
  0
LINE
  5
1FB
330
1F
100
AcDbEntity
  8
0
  6
Continuous
 62
     7
370
    30
100
AcDbLine
 10
109.5588359675
 20
83.4992080146
 30
0.0
 11
111.558835364
 21
81.4992076868
 31
0.0
  0
LINE
  5
1FC
330
1F
100
AcDbEntity
  8
0
  6
Continuous
 62
     7
370
    30
100
AcDbLine
 10
111.558835364
 20
81.4992076868
 30
0.0
 11
115.8588355101
 21
81.4992076868
 31
0.0
  0
LINE
  5
1FD
330
1F
100
AcDbEntity
  8
0
  6
Continuous
 62
     7
370
    30
100
AcDbLine
 10
117.8588358379
 20
83.4992080146
 30
0.0
 11
117.8588358379
 21
84.6992059762
 31
0.0
  0
LINE
  5
1FE
330
1F
100
AcDbEntity
  8
0
  6
Continuous
 62
     7
370
    30
100
AcDbLine
 10
109.5588359675
 20
84.6992059762
 30
0.0
 11
109.5588359675
 21
83.4992080146
 31
0.0
  0
LINE
  5
1FF
330
1F
100
AcDbEntity
  8
0
  6
Continuous
 62
     7
370
    30
100
AcDbLine
 10
117.8588358379
 20
87.1992073173
 30
0.0
 11
117.8588358379
 21
84.6992059762
 31
0.0
  0
LINE
  5
200
330
1F
100
AcDbEntity
  8
0
  6
Continuous
 62
     7
370
    30
100
AcDbLine
 10
109.5588359675
 20
84.6992059762
 30
0.0
 11
109.5588359675
 21
87.1992073173
 31
0.0
  0
LINE
  5
201
330
1F
100
AcDbEntity
  8
0
  6
Continuous
 62
     7
370
    30
100
AcDbLine
 10
114.1588356039
 20
81.4992076868
 30
0.0
 11
114.1588356039
 21
81.099204641
 31
0.0
  0
LINE
  5
202
330
1F
100
AcDbEntity
  8
0
  6
Continuous
 62
     7
370
    30
100
AcDbLine
 10
114.1588356039
 20
81.099204641
 30
0.0
 11
113.2588362015
 21
81.099204641
 31
0.0
  0
LINE
  5
203
330
1F
100
AcDbEntity
  8
0
  6
Continuous
 62
     7
370
    30
100
AcDbLine
 10
113.2588362015
 20
81.099204641
 30
0.0
 11
113.2588362015
 21
81.4992076868
 31
0.0
  0
LINE
  5
204
330
1F
100
AcDbEntity
  8
0
  6
Continuous
 62
     7
370
    30
100
AcDbLine
 10
113.2588362015
 20
89.7992066259
 30
0.0
 11
113.2588362015
 21
90.1992059464
 31
0.0
  0
LINE
  5
205
330
1F
100
AcDbEntity
  8
0
  6
Continuous
 62
     7
370
    30
100
AcDbLine
 10
113.2588362015
 20
90.1992059464
 30
0.0
 11
114.1588356039
 21
90.1992059464
 31
0.0
  0
LINE
  5
206
330
1F
100
AcDbEntity
  8
0
  6
Continuous
 62
     7
370
    30
100
AcDbLine
 10
114.1588356039
 20
90.1992059464
 30
0.0
 11
114.1588356039
 21
89.7992066259
 31
0.0
  0
CIRCLE
  5
207
330
1F
100
AcDbEntity
  8
0
  6
Continuous
 62
     7
370
    30
100
AcDbCircle
 10
97.3226985082
 20
59.7622628388
 30
0.0
 40
3.5
  0
CIRCLE
  5
208
330
1F
100
AcDbEntity
  8
0
  6
Continuous
 62
     7
370
    30
100
AcDbCircle
 10
97.3226985082
 20
59.7622628388
 30
0.0
 40
4.0
  0
ARC
  5
209
330
1F
100
AcDbEntity
  8
0
  6
Continuous
 62
     7
370
    30
100
AcDbCircle
 10
97.3226985082
 20
59.7622628388
 30
0.0
 40
4.100000000000012
100
AcDbArc
 50
22.2128718916
 51
157.7871281084
  0
LINE
  5
20A
330
1F
100
AcDbEntity
  8
0
  6
Continuous
 62
     7
370
    30
100
AcDbLine
 10
93.1726986236
 20
61.3122637534
 30
0.0
 11
93.5269774563
 21
61.3122637534
 31
0.0
  0
LINE
  5
20B
330
1F
100
AcDbEntity
  8
0
  6
Continuous
 62
     7
370
    30
100
AcDbLine
 10
93.1726986236
 20
63.912263062
 30
0.0
 11
93.1726986236
 21
61.3122637534
 31
0.0
  0
LINE
  5
20C
330
1F
100
AcDbEntity
  8
0
  6
Continuous
 62
     7
370
    30
100
AcDbLine
 10
101.4726984939
 20
63.912263062
 30
0.0
 11
93.1726986236
 21
63.912263062
 31
0.0
  0
LINE
  5
20D
330
1F
100
AcDbEntity
  8
0
  6
Continuous
 62
     7
370
    30
100
AcDbLine
 10
101.4726984939
 20
61.3122637534
 30
0.0
 11
101.4726984939
 21
63.912263062
 31
0.0
  0
LINE
  5
20E
330
1F
100
AcDbEntity
  8
0
  6
Continuous
 62
     7
370
    30
100
AcDbLine
 10
101.1184198941
 20
61.3122637534
 30
0.0
 11
101.4726984939
 21
61.3122637534
 31
0.0
  0
LINE
  5
20F
330
1F
100
AcDbEntity
  8
0
  6
Continuous
 62
     7
370
    30
100
AcDbLine
 10
93.1726986236
 20
57.6122625882
 30
0.0
 11
95.1726984858
 21
55.6122631917
 31
0.0
  0
LINE
  5
210
330
1F
100
AcDbEntity
  8
0
  6
Continuous
 62
     7
370
    30
100
AcDbLine
 10
93.334277968
 20
58.8122624123
 30
0.0
 11
93.1726986236
 21
58.8122624123
 31
0.0
  0
ARC
  5
211
330
1F
100
AcDbEntity
  8
0
  6
Continuous
 62
     7
370
    30
100
AcDbCircle
 10
97.3226985082
 20
59.7622628388
 30
0.0
 40
4.099999999999993
100
AcDbArc
 50
193.3976095017
 51
346.6023904983
  0
LINE
  5
212
330
1F
100
AcDbEntity
  8
0
  6
Continuous
 62
     7
370
    30
100
AcDbLine
 10
95.1726984858
 20
55.6122631917
 30
0.0
 11
99.4726985154
 21
55.6122631917
 31
0.0
  0
LINE
  5
213
330
1F
100
AcDbEntity
  8
0
  6
Continuous
 62
     7
370
    30
100
AcDbLine
 10
101.4726984939
 20
58.8122624123
 30
0.0
 11
101.3111191495
 21
58.8122624123
 31
0.0
  0
LINE
  5
214
330
1F
100
AcDbEntity
  8
0
  6
Continuous
 62
     7
370
    30
100
AcDbLine
 10
99.4726985154
 20
55.6122631917
 30
0.0
 11
101.4726984939
 21
57.6122625882
 31
0.0
  0
LINE
  5
215
330
1F
100
AcDbEntity
  8
0
  6
Continuous
 62
     7
370
    30
100
AcDbLine
 10
93.1726986236
 20
58.8122624123
 30
0.0
 11
93.1726986236
 21
57.6122625882
 31
0.0
  0
LINE
  5
216
330
1F
100
AcDbEntity
  8
0
  6
Continuous
 62
     7
370
    30
100
AcDbLine
 10
101.4726984939
 20
57.6122625882
 30
0.0
 11
101.4726984939
 21
58.8122624123
 31
0.0
  0
LINE
  5
217
330
1F
100
AcDbEntity
  8
0
  6
Continuous
 62
     7
370
    30
100
AcDbLine
 10
93.1726986236
 20
58.8122624123
 30
0.0
 11
93.1726986236
 21
61.3122637534
 31
0.0
  0
LINE
  5
218
330
1F
100
AcDbEntity
  8
0
  6
Continuous
 62
     7
370
    30
100
AcDbLine
 10
101.4726984939
 20
61.3122637534
 30
0.0
 11
101.4726984939
 21
58.8122624123
 31
0.0
  0
LINE
  5
219
330
1F
100
AcDbEntity
  8
0
  6
Continuous
 62
     7
370
    30
100
AcDbLine
 10
97.7726984928
 20
55.6122631917
 30
0.0
 11
97.7726984928
 21
55.2122629398
 31
0.0
  0
LINE
  5
21A
330
1F
100
AcDbEntity
  8
0
  6
Continuous
 62
     7
370
    30
100
AcDbLine
 10
97.7726984928
 20
55.2122629398
 30
0.0
 11
96.8726985083
 21
55.2122629398
 31
0.0
  0
LINE
  5
21B
330
1F
100
AcDbEntity
  8
0
  6
Continuous
 62
     7
370
    30
100
AcDbLine
 10
96.8726985083
 20
55.2122629398
 30
0.0
 11
96.8726985083
 21
55.6122631917
 31
0.0
  0
LINE
  5
21C
330
1F
100
AcDbEntity
  8
0
  6
Continuous
 62
     7
370
    30
100
AcDbLine
 10
96.8726985083
 20
63.912263062
 30
0.0
 11
96.8726985083
 21
64.3122623825
 31
0.0
  0
LINE
  5
21D
330
1F
100
AcDbEntity
  8
0
  6
Continuous
 62
     7
370
    30
100
AcDbLine
 10
97.7726984928
 20
64.3122623825
 30
0.0
 11
97.7726984928
 21
63.912263062
 31
0.0
  0
LINE
  5
21E
330
1F
100
AcDbEntity
  8
0
  6
Continuous
 62
     7
370
    30
100
AcDbLine
 10
96.8726985083
 20
64.3122623825
 30
0.0
 11
97.7726984928
 21
64.3122623825
 31
0.0
  0
LINE
  5
21F
330
1F
100
AcDbEntity
  8
0
  6
Continuous
 62
     7
370
    30
100
AcDbLine
 10
136.4689929104
 20
42.1737655217
 30
0.0
 11
136.4689929104
 21
59.7737654263
 31
0.0
  0
LINE
  5
220
330
1F
100
AcDbEntity
  8
0
  6
Continuous
 62
     7
370
    30
100
AcDbLine
 10
136.4689929104
 20
80.0737663323
 30
0.0
 11
136.4689929104
 21
81.3890322262
 31
0.0
  0
LINE
  5
221
330
1F
100
AcDbEntity
  8
0
  6
Continuous
 62
     7
370
    30
100
AcDbLine
 10
136.4689929104
 20
85.9584956581
 30
0.0
 11
136.4689929104
 21
92.1737662667
 31
0.0
  0
LINE
  5
222
330
1F
100
AcDbEntity
  8
0
  6
Continuous
 62
     7
370
    30
100
AcDbLine
 10
57.4689929998
 20
42.1737655217
 30
0.0
 11
136.4689929104
 21
42.1737655217
 31
0.0
  0
LINE
  5
223
330
1F
100
AcDbEntity
  8
0
  6
Continuous
 62
     7
370
    30
100
AcDbLine
 10
57.4689929998
 20
92.1737662667
 30
0.0
 11
57.4689929998
 21
87.4237640912
 31
0.0
  0
LINE
  5
224
330
1F
100
AcDbEntity
  8
0
  6
Continuous
 62
     7
370
    30
100
AcDbLine
 10
57.4689929998
 20
76.0237648303
 30
0.0
 11
57.4689929998
 21
42.1737655217
 31
0.0
  0
CIRCLE
  5
225
330
1F
100
AcDbEntity
  8
0
  6
Continuous
 62
     7
370
    30
100
AcDbCircle
 10
133.4689932576
 20
45.6737655217
 30
0.0
 40
1.499999999999993
  0
CIRCLE
  5
226
330
1F
100
AcDbEntity
  8
0
  6
Continuous
 62
     7
370
    30
100
AcDbCircle
 10
76.4689932576
 20
88.6737655217
 30
0.0
 40
1.5
  0
LINE
  5
227
330
1F
100
AcDbEntity
  8
0
  6
Continuous
 62
     7
370
    30
100
AcDbLine
 10
136.4689929104
 20
92.1737662667
 30
0.0
 11
57.4689929998
 21
92.1737662667
 31
0.0
  0
CIRCLE
  5
228
330
1F
100
AcDbEntity
  8
0
  6
Continuous
 62
     7
370
    30
100
AcDbCircle
 10
133.4689932576
 20
88.6737655217
 30
0.0
 40
1.499999999999986
  0
CIRCLE
  5
229
330
1F
100
AcDbEntity
  8
0
  6
Continuous
 62
     7
370
    30
100
AcDbCircle
 10
76.4689932576
 20
45.6737655217
 30
0.0
 40
1.500000000000007
  0
LINE
  5
22A
330
1F
100
AcDbEntity
  8
0
  6
Continuous
 62
     8
370
    30
100
AcDbLine
 10
135.9189947761
 20
81.3237651402
 30
0.0
 11
135.9189947761
 21
86.0237664694
 31
0.0
  0
LINE
  5
22B
330
1F
100
AcDbEntity
  8
0
  6
Continuous
 62
     8
370
    30
100
AcDbLine
 10
129.4289933211
 20
66.7337662691
 30
0.0
 11
129.4289933211
 21
67.733766433
 31
0.0
  0
LINE
  5
22C
330
1F
100
AcDbEntity
  8
0
  6
Continuous
 62
     8
370
    30
100
AcDbLine
 10
129.4289933211
 20
69.2737660522
 30
0.0
 11
129.4289933211
 21
70.2737662161
 31
0.0
  0
LINE
  5
22D
330
1F
100
AcDbEntity
  8
0
  6
Continuous
 62
     8
370
    30
100
AcDbLine
 10
129.4289933211
 20
71.8137658352
 30
0.0
 11
129.4289933211
 21
72.8137659991
 31
0.0
  0
LINE
  5
22E
330
1F
100
AcDbEntity
  8
0
  6
Continuous
 62
     8
370
    30
100
AcDbLine
 10
129.4289933211
 20
74.3537656182
 30
0.0
 11
129.4289933211
 21
75.3537639195
 31
0.0
  0
LINE
  5
22F
330
1F
100
AcDbEntity
  8
0
  6
Continuous
 62
     8
370
    30
100
AcDbLine
 10
129.4289933211
 20
64.1937646234
 30
0.0
 11
129.4289933211
 21
65.1937647874
 31
0.0
  0
DIMENSION
  5
230
330
1F
100
AcDbEntity
  8
DIM
100
AcDbDimension
  2
_D
 10
148.9689932576
 20
45.6737655217
 30
0.0
 11
148.9689932576
 21
67.1737655217
 31
0.0
 70
   160
  1
<>
 71
     2
 42
-1.0
  3
SLDDIMSTYLE0
100
AcDbAlignedDimension
 13
135.9689932576
 23
88.6737655217
 33
0.0
 14
135.9689932576
 24
45.6737655217
 34
0.0
 50
90.0
100
AcDbRotatedDimension
  0
DIMENSION
  5
23B
330
1F
100
AcDbEntity
  8
DIM
100
AcDbDimension
  2
_D_1
 10
133.4689932576
 20
98.1737655217
 30
0.0
 11
104.9689932576
 21
98.1737655217
 31
0.0
 70
   160
  1
<>
 71
     2
 42
-1.0
  3
SLDDIMSTYLE0
100
AcDbAlignedDimension
 13
76.4689932576
 23
91.1737655217
 33
0.0
 14
133.4689932576
 24
91.1737655217
 34
0.0
100
AcDbRotatedDimension
  0
DIMENSION
  5
245
330
1F
100
AcDbEntity
  8
DIM
100
AcDbDimension
  2
_D_2
 10
136.4689932576
 20
98.1737655217
 30
0.0
 11
134.9689932576
 21
98.1737655217
 31
0.0
 70
   160
  1
<>
 71
     2
 42
-1.0
  3
SLDDIMSTYLE1
100
AcDbAlignedDimension
 13
133.4689932576
 23
91.1737655217
 33
0.0
 14
136.4689932576
 24
92.1737655217
 34
0.0
100
AcDbRotatedDimension
  0
DIMENSION
  5
252
330
1F
100
AcDbEntity
  8
DIM
100
AcDbDimension
  2
_D_3
 10
148.9689932576
 20
88.6737655217
 30
0.0
 11
148.9689932576
 21
90.4237655217
 31
0.0
 70
   160
  1
<>
 71
     2
 42
-1.0
  3
SLDDIMSTYLE1
100
AcDbAlignedDimension
 13
136.4689932576
 23
92.1737655217
 33
0.0
 14
135.9689932576
 24
88.6737655217
 34
0.0
 50
90.0
100
AcDbRotatedDimension
  0
DIMENSION
  5
25E
330
1F
100
AcDbEntity
  8
DIM
100
AcDbDimension
  2
_D_4
 10
152.9689932576
 20
42.1737655217
 30
0.0
 11
152.9689932576
 21
67.1737655217
 31
0.0
 70
   160
  1
<>
 71
     2
 42
-1.0
  3
SLDDIMSTYLE0
100
AcDbAlignedDimension
 13
136.4689932576
 23
92.1737655217
 33
0.0
 14
136.4689932576
 24
42.1737655217
 34
0.0
 50
90.0
100
AcDbRotatedDimension
  0
DIMENSION
  5
268
330
1F
100
AcDbEntity
  8
DIM
100
AcDbDimension
  2
_D_5
 10
136.4689932576
 20
102.1737655217
 30
0.0
 11
96.9689932576
 21
102.1737655217
 31
0.0
 70
   160
  1
<>
 71
     2
 42
-1.0
  3
SLDDIMSTYLE0
100
AcDbAlignedDimension
 13
57.4689932576
 23
92.1737655217
 33
0.0
 14
136.4689932576
 24
92.1737655217
 34
0.0
100
AcDbRotatedDimension
  0
DIMENSION
  5
272
330
1F
100
AcDbEntity
  8
DIM
100
AcDbDimension
  2
_D_6
 10
54.1943203025
 20
36.1737655217
 30
0.0
 11
98.58165678
 21
36.1737655217
 31
0.0
 70
   160
  1
<>
 71
     2
 42
-1.0
  3
SLDDIMSTYLE2
100
AcDbAlignedDimension
 13
142.9689932576
 23
59.7737655217
 33
0.0
 14
54.1943203025
 24
76.0237655217
 34
0.0
100
AcDbRotatedDimension
  0
DIMENSION
  5
27D
330
1F
100
AcDbEntity
  8
DIM
100
AcDbDimension
  2
_D_7
 10
132.4933104534
 20
46.8130824511
 30
0.0
 11
150.0469794421
 21
33.7612655025
 31
0.0
 70
   163
  1
4-<>
 71
     1
 42
-1.0
  3
SLDDIMSTYLE3
100
AcDbDiametricDimension
 15
134.4446760617
 25
44.5344485922
 35
0.0
 40
0.0
  0
MTEXT
  5
288
330
1F
100
AcDbEntity
  8
DIM
100
AcDbMText
 10
34.6116616878
 20
74.2658007442
 30
0.0
 40
3.175
 41
0.0
 71
     1
 72
     1
  1
V+
  7
SLDTEXTSTYLE3
 73
     1
 44
1.0
  0
LEADER
  5
28A
330
1F
100
AcDbEntity
  8
DIM
100
AcDbLeader
  3
SLDDIMSTYLE4
 76
     3
 10
67.4689932576
 20
60.1737655217
 30
0.0
 10
41.2047043869
 20
73.2817921739
 30
0.0
 10
40.2047043869
 20
73.2817921739
 30
0.0
  0
MTEXT
  5
28B
330
1F
100
AcDbEntity
  8
DIM
100
AcDbMText
 10
35.0702728632
 20
39.4257685764
 30
0.0
 40
3.175
 41
0.0
 71
     1
 72
     1
  1
V-
  7
SLDTEXTSTYLE3
 73
     1
 44
1.0
  0
LEADER
  5
28C
330
1F
100
AcDbEntity
  8
DIM
100
AcDbLeader
  3
SLDDIMSTYLE4
 76
     3
 10
67.4689932576
 20
49.1737655217
 30
0.0
 10
40.7374257931
 20
38.411151004
 30
0.0
 10
39.7374257931
 20
38.411151004
 30
0.0
  0
MTEXT
  5
28D
330
1F
100
AcDbEntity
  8
DIM
100
AcDbMText
 10
29.0818696397
 20
56.7133517929
 30
0.0
 40
3.175
 41
0.0
 71
     1
 72
     1
  1
Don't use
  7
SLDTEXTSTYLE3
 73
     1
 44
1.0
  0
INSERT
  5
299
330
1F
100
AcDbEntity
  8
DIM
100
AcDbBlockReference
  2
SW_CENTERMARKSYMBOL_0
 10
76.4689932576
 20
88.6737655217
 30
0.0
  0
INSERT
  5
2A5
330
1F
100
AcDbEntity
  8
DIM
100
AcDbBlockReference
  2
SW_CENTERMARKSYMBOL_1
 10
76.4689932576
 20
45.6737655217
 30
0.0
  0
INSERT
  5
2B1
330
1F
100
AcDbEntity
  8
DIM
100
AcDbBlockReference
  2
SW_CENTERMARKSYMBOL_2
 10
133.4689932576
 20
88.6737655217
 30
0.0
  0
INSERT
  5
2BD
330
1F
100
AcDbEntity
  8
DIM
100
AcDbBlockReference
  2
SW_CENTERMARKSYMBOL_3
 10
133.4689932576
 20
45.6737655217
 30
0.0
  0
SOLID
  5
2BE
330
1F
100
AcDbEntity
  8
DIM
100
AcDbTrace
 10
67.4689932576
 20
57.2838820797
 30
0.0
 11
64.8985598115
 21
57.3842703946
 31
0.0
 12
64.9872492635
 22
56.6070123268
 32
0.0
 13
64.9872492635
 23
56.6070123268
 33
0.0
  0
LINE
  5
2BF
330
1F
100
AcDbEntity
  8
DIM
100
AcDbLine
 10
67.4689932576
 20
57.2838820797
 30
0.0
 11
45.0382452193
 21
54.7244094488
 31
0.0
  0
LINE
  5
2C0
330
1F
100
AcDbEntity
  8
DIM
100
AcDbLine
 10
45.0382452193
 20
54.7244094488
 30
0.0
 11
44.0382452193
 21
54.7244094488
 31
0.0
  0
SOLID
  5
2C1
330
1F
100
AcDbEntity
  8
DIM
100
AcDbTrace
 10
67.4689932576
 20
54.7108860205
 30
0.0
 11
64.9267490745
 21
55.1035696441
 31
0.0
 12
64.9262774273
 22
54.3212681035
 32
0.0
 13
64.9262774273
 23
54.3212681035
 33
0.0
  0
LINE
  5
2C2
330
1F
100
AcDbEntity
  8
DIM
100
AcDbLine
 10
67.4689932576
 20
54.7108860205
 30
0.0
 11
45.0382452193
 21
54.7244094488
 31
0.0
  0
LINE
  5
2C3
330
1F
100
AcDbEntity
  8
DIM
100
AcDbLine
 10
45.0382452193
 20
54.7244094488
 30
0.0
 11
44.0382452193
 21
54.7244094488
 31
0.0
  0
SOLID
  5
2C4
330
1F
100
AcDbEntity
  8
DIM
100
AcDbTrace
 10
67.4689932576
 20
52.0919436031
 30
0.0
 11
64.9894355824
 21
52.7767790944
 31
0.0
 12
64.8982507029
 22
51.9998098283
 32
0.0
 13
64.8982507029
 23
51.9998098283
 33
0.0
  0
LINE
  5
2C5
330
1F
100
AcDbEntity
  8
DIM
100
AcDbLine
 10
67.4689932576
 20
52.0919436031
 30
0.0
 11
45.0382452193
 21
54.7244094488
 31
0.0
  0
LINE
  5
2C6
330
1F
100
AcDbEntity
  8
DIM
100
AcDbLine
 10
45.0382452193
 20
54.7244094488
 30
0.0
 11
44.0382452193
 21
54.7244094488
 31
0.0
  0
LINE
  5
2C7
330
1F
100
AcDbEntity
  8
0
  6
Continuous
 62
     7
370
    30
100
AcDbLine
 10
187.129408333
 20
109.0279563727
 30
0.0
 11
187.129408333
 21
106.6278179573
 31
0.0
  0
LINE
  5
2C8
330
1F
100
AcDbEntity
  8
0
  6
Continuous
 62
     7
370
    30
100
AcDbLine
 10
188.1294084969
 20
106.6278179573
 30
0.0
 11
188.1294084969
 21
109.0279563727
 31
0.0
  0
LINE
  5
2C9
330
1F
100
AcDbEntity
  8
0
  6
Continuous
 62
     7
370
    30
100
AcDbLine
 10
176.9694087352
 20
109.0279563727
 30
0.0
 11
176.9694087352
 21
106.6278179573
 31
0.0
  0
LINE
  5
2CA
330
1F
100
AcDbEntity
  8
0
  6
Continuous
 62
     7
370
    30
100
AcDbLine
 10
177.9694084334
 20
106.6278179573
 30
0.0
 11
177.9694084334
 21
109.0279563727
 31
0.0
  0
LINE
  5
2CB
330
1F
100
AcDbEntity
  8
0
  6
Continuous
 62
     7
370
    30
100
AcDbLine
 10
182.0494087669
 20
109.0279563727
 30
0.0
 11
182.0494087669
 21
106.6278179573
 31
0.0
  0
LINE
  5
2CC
330
1F
100
AcDbEntity
  8
0
  6
Continuous
 62
     7
370
    30
100
AcDbLine
 10
183.0494089308
 20
106.6278179573
 30
0.0
 11
183.0494089308
 21
109.0279563727
 31
0.0
  0
LINE
  5
2CD
330
1F
100
AcDbEntity
  8
0
  6
Continuous
 62
     7
370
    30
100
AcDbLine
 10
179.5094085182
 20
109.0279563727
 30
0.0
 11
179.5094085182
 21
106.6278179573
 31
0.0
  0
LINE
  5
2CE
330
1F
100
AcDbEntity
  8
0
  6
Continuous
 62
     7
370
    30
100
AcDbLine
 10
180.5094082165
 20
106.6278179573
 30
0.0
 11
180.5094082165
 21
109.0279563727
 31
0.0
  0
LINE
  5
2CF
330
1F
100
AcDbEntity
  8
0
  6
Continuous
 62
     7
370
    30
100
AcDbLine
 10
184.5894085499
 20
109.0279563727
 30
0.0
 11
184.5894085499
 21
106.6278179573
 31
0.0
  0
LINE
  5
2D0
330
1F
100
AcDbEntity
  8
0
  6
Continuous
 62
     7
370
    30
100
AcDbLine
 10
185.5894087139
 20
106.6278179573
 30
0.0
 11
185.5894087139
 21
109.0279563727
 31
0.0
  0
LINE
  5
2D1
330
1F
100
AcDbEntity
  8
0
  6
Continuous
 62
     7
370
    30
100
AcDbLine
 10
181.7494083452
 20
109.0279563727
 30
0.0
 11
181.7494083452
 21
106.6329562968
 31
0.0
  0
LINE
  5
2D2
330
1F
100
AcDbEntity
  8
0
  6
Continuous
 62
     7
370
    30
100
AcDbLine
 10
179.2094085622
 20
109.0279563727
 30
0.0
 11
179.2094085622
 21
106.6329562968
 31
0.0
  0
LINE
  5
2D3
330
1F
100
AcDbEntity
  8
0
  6
Continuous
 62
     7
370
    30
100
AcDbLine
 10
184.2894090596
 20
109.0279563727
 30
0.0
 11
184.2894090596
 21
106.6329562968
 31
0.0
  0
LINE
  5
2D4
330
1F
100
AcDbEntity
  8
0
  6
Continuous
 62
     7
370
    30
100
AcDbLine
 10
176.6694087791
 20
109.0279563727
 30
0.0
 11
176.6694087791
 21
106.6329562968
 31
0.0
  0
LINE
  5
2D5
330
1F
100
AcDbEntity
  8
0
  6
Continuous
 62
     7
370
    30
100
AcDbLine
 10
186.8294088426
 20
109.0279563727
 30
0.0
 11
186.8294088426
 21
106.6329562968
 31
0.0
  0
LINE
  5
2D6
330
1F
100
AcDbEntity
  8
0
  6
Continuous
 62
     7
370
    30
100
AcDbLine
 10
192.5494095567
 20
109.0279563727
 30
0.0
 11
192.5494095567
 21
117.827956325
 31
0.0
  0
LINE
  5
2D7
330
1F
100
AcDbEntity
  8
0
  6
Continuous
 62
     7
370
    30
100
AcDbLine
 10
172.2494086507
 20
109.0279563727
 30
0.0
 11
192.5494095567
 21
109.0279563727
 31
0.0
  0
LINE
  5
2D8
330
1F
100
AcDbEntity
  8
0
  6
Continuous
 62
     7
370
    30
100
AcDbLine
 10
172.2494086507
 20
117.827956325
 30
0.0
 11
172.2494086507
 21
109.0279563727
 31
0.0
  0
LINE
  5
2D9
330
1F
100
AcDbEntity
  8
0
  6
Continuous
 62
     7
370
    30
100
AcDbLine
 10
180.44440842
 20
117.827956325
 30
0.0
 11
172.2494086507
 21
117.827956325
 31
0.0
  0
LINE
  5
2DA
330
1F
100
AcDbEntity
  8
0
  6
Continuous
 62
     7
370
    30
100
AcDbLine
 10
180.44440842
 20
117.827956325
 30
0.0
 11
180.44440842
 21
117.0279567527
 31
0.0
  0
LINE
  5
2DB
330
1F
100
AcDbEntity
  8
0
  6
Continuous
 62
     7
370
    30
100
AcDbLine
 10
180.44440842
 20
117.0279567527
 30
0.0
 11
173.0494086305
 21
117.0279567527
 31
0.0
  0
LINE
  5
2DC
330
1F
100
AcDbEntity
  8
0
  6
Continuous
 62
     7
370
    30
100
AcDbLine
 10
173.0494086305
 20
117.0279567527
 30
0.0
 11
173.0494086305
 21
109.8279563525
 31
0.0
  0
LINE
  5
2DD
330
1F
100
AcDbEntity
  8
0
  6
Continuous
 62
     7
370
    30
100
AcDbLine
 10
173.0494086305
 20
109.8279563525
 30
0.0
 11
191.749409053
 21
109.8279563525
 31
0.0
  0
LINE
  5
2DE
330
1F
100
AcDbEntity
  8
0
  6
Continuous
 62
     7
370
    30
100
AcDbLine
 10
191.749409053
 20
109.8279563525
 30
0.0
 11
191.749409053
 21
117.0279567527
 31
0.0
  0
LINE
  5
2DF
330
1F
100
AcDbEntity
  8
0
  6
Continuous
 62
     7
370
    30
100
AcDbLine
 10
191.749409053
 20
117.0279567527
 30
0.0
 11
184.6544083464
 21
117.0279567527
 31
0.0
  0
LINE
  5
2E0
330
1F
100
AcDbEntity
  8
0
  6
Continuous
 62
     7
370
    30
100
AcDbLine
 10
192.5494095567
 20
117.827956325
 30
0.0
 11
184.6544083464
 21
117.827956325
 31
0.0
  0
LINE
  5
2E1
330
1F
100
AcDbEntity
  8
0
  6
Continuous
 62
     7
370
    30
100
AcDbLine
 10
184.6544083464
 20
117.0279567527
 30
0.0
 11
184.6544083464
 21
117.827956325
 31
0.0
  0
CIRCLE
  5
2E2
330
1F
100
AcDbEntity
  8
0
  6
Continuous
 62
     7
370
    30
100
AcDbCircle
 10
177.4694086507
 20
114.7479563727
 30
0.0
 40
0.5
  0
CIRCLE
  5
2E3
330
1F
100
AcDbEntity
  8
0
  6
Continuous
 62
     7
370
    30
100
AcDbCircle
 10
185.0894086507
 20
114.7479563727
 30
0.0
 40
0.5
  0
CIRCLE
  5
2E4
330
1F
100
AcDbEntity
  8
0
  6
Continuous
 62
     7
370
    30
100
AcDbCircle
 10
187.6294086507
 20
114.7479563727
 30
0.0
 40
0.5
  0
CIRCLE
  5
2E5
330
1F
100
AcDbEntity
  8
0
  6
Continuous
 62
     7
370
    30
100
AcDbCircle
 10
177.4694086507
 20
112.2079563727
 30
0.0
 40
0.5
  0
CIRCLE
  5
2E6
330
1F
100
AcDbEntity
  8
0
  6
Continuous
 62
     7
370
    30
100
AcDbCircle
 10
182.5494086507
 20
114.7479563727
 30
0.0
 40
0.4999999999999716
  0
CIRCLE
  5
2E7
330
1F
100
AcDbEntity
  8
0
  6
Continuous
 62
     7
370
    30
100
AcDbCircle
 10
180.0094086507
 20
114.7479563727
 30
0.0
 40
0.5
  0
CIRCLE
  5
2E8
330
1F
100
AcDbEntity
  8
0
  6
Continuous
 62
     7
370
    30
100
AcDbCircle
 10
185.0894086507
 20
112.2079563727
 30
0.0
 40
0.5
  0
CIRCLE
  5
2E9
330
1F
100
AcDbEntity
  8
0
  6
Continuous
 62
     7
370
    30
100
AcDbCircle
 10
187.6294086507
 20
112.2079563727
 30
0.0
 40
0.5
  0
CIRCLE
  5
2EA
330
1F
100
AcDbEntity
  8
0
  6
Continuous
 62
     7
370
    30
100
AcDbCircle
 10
182.5494086507
 20
112.2079563727
 30
0.0
 40
0.4999999999999716
  0
CIRCLE
  5
2EB
330
1F
100
AcDbEntity
  8
0
  6
Continuous
 62
     7
370
    30
100
AcDbCircle
 10
180.0094086507
 20
112.2079563727
 30
0.0
 40
0.5
  0
LINE
  5
2EC
330
1F
100
AcDbEntity
  8
0
  6
Continuous
 62
     7
370
    30
100
AcDbLine
 10
180.44440842
 20
117.0279567527
 30
0.0
 11
184.6544083464
 21
117.0279567527
 31
0.0
  0
LINE
  5
2ED
330
1F
100
AcDbEntity
  8
0
  6
Continuous
 62
     7
370
    30
100
AcDbLine
 10
184.6544083464
 20
117.827956325
 30
0.0
 11
180.44440842
 21
117.827956325
 31
0.0
  0
LWPOLYLINE
  5
2EE
330
1F
100
AcDbEntity
  8
0
  6
Continuous
 62
     7
370
    30
100
AcDbPolyline
 90
       30
 70
   128
 43
0.0
 10
187.6294084149
 20
106.5297597019
 10
187.7368942159
 20
106.5320523853
 10
187.8393527376
 20
106.5388228675
 10
187.9319960508
 20
106.5497544991
 10
188.01048978
 20
106.5643364495
 10
188.0711654457
 20
106.5818867577
 10
188.1111843768
 20
106.601584463
 10
188.1286746147
 20
106.6225091858
 10
188.1228221836
 20
106.6436818732
 10
188.0938971671
 20
106.664112995
 10
188.0432537082
 20
106.6828467814
 10
187.9732592287
 20
106.6990075564
 10
187.8871863964
 20
106.7118395517
 10
187.789059456
 20
106.7207429955
 10
187.6834679651
 20
106.725301121
 10
187.5753488648
 20
106.725301121
 10
187.4697583052
 20
106.7207429955
 10
187.3716313648
 20
106.7118395517
 10
187.2855585325
 20
106.6990075564
 10
187.215564053
 20
106.6828467814
 10
187.1649205941
 20
106.664112995
 10
187.1359955776
 20
106.6436818732
 10
187.1301422152
 20
106.6225091858
 10
187.1476333844
 20
106.601584463
 10
187.1876523155
 20
106.5818867577
 10
187.2483279812
 20
106.5643364495
 10
187.3268217104
 20
106.5497544991
 10
187.4194640922
 20
106.5388228675
 10
187.5219235453
 20
106.5320523853
 10
187.6294084149
 20
106.5297597019
  0
LWPOLYLINE
  5
2EF
330
1F
100
AcDbEntity
  8
0
  6
Continuous
 62
     7
370
    30
100
AcDbPolyline
 90
       30
 70
   128
 43
0.0
 10
177.4694088171
 20
106.5297597019
 10
177.5768936868
 20
106.5320523853
 10
177.6793531398
 20
106.5388228675
 10
177.7719959873
 20
106.5497544991
 10
177.8504897165
 20
106.5643364495
 10
177.9111644509
 20
106.5818867577
 10
177.9511838476
 20
106.601584463
 10
177.9686754826
 20
106.6225091858
 10
177.9628221202
 20
106.6436818732
 10
177.9338971036
 20
106.664112995
 10
177.883253179
 20
106.6828467814
 10
177.8132582339
 20
106.6990075564
 10
177.7271854016
 20
106.7118395517
 10
177.6290593925
 20
106.7207429955
 10
177.5234683673
 20
106.725301121
 10
177.415349267
 20
106.725301121
 10
177.3097577761
 20
106.7207429955
 10
177.211631767
 20
106.7118395517
 10
177.1255589346
 20
106.6990075564
 10
177.0555639896
 20
106.6828467814
 10
177.0049200649
 20
106.664112995
 10
176.9759955141
 20
106.6436818732
 10
176.9701421517
 20
106.6225091858
 10
176.9876337866
 20
106.601584463
 10
177.0276527177
 20
106.5818867577
 10
177.0883274521
 20
106.5643364495
 10
177.166821647
 20
106.5497544991
 10
177.2594640288
 20
106.5388228675
 10
177.3619234818
 20
106.5320523853
 10
177.4694088171
 20
106.5297597019
  0
LWPOLYLINE
  5
2F0
330
1F
100
AcDbEntity
  8
0
  6
Continuous
 62
     7
370
    30
100
AcDbPolyline
 90
       30
 70
   128
 43
0.0
 10
182.5494088489
 20
106.5297597019
 10
182.6568937185
 20
106.5320523853
 10
182.7593531716
 20
106.5388228675
 10
182.8519955534
 20
106.5497544991
 10
182.9304892826
 20
106.5643364495
 10
182.9911649483
 20
106.5818867577
 10
183.0311838794
 20
106.601584463
 10
183.0486750486
 20
106.6225091858
 10
183.0428216862
 20
106.6436818732
 10
183.0138966697
 20
106.664112995
 10
182.9632532108
 20
106.6828467814
 10
182.8932587313
 20
106.6990075564
 10
182.807185899
 20
106.7118395517
 10
182.7090589586
 20
106.7207429955
 10
182.603468399
 20
106.725301121
 10
182.4953492987
 20
106.725301121
 10
182.3897578078
 20
106.7207429955
 10
182.2916317987
 20
106.7118395517
 10
182.2055589664
 20
106.6990075564
 10
182.135564487
 20
106.6828467814
 10
182.0849200967
 20
106.664112995
 10
182.0559950802
 20
106.6436818732
 10
182.0501417178
 20
106.6225091858
 10
182.0676338184
 20
106.601584463
 10
182.1076527494
 20
106.5818867577
 10
182.1683274838
 20
106.5643364495
 10
182.246821213
 20
106.5497544991
 10
182.3394645262
 20
106.5388228675
 10
182.4419230479
 20
106.5320523853
 10
182.5494088489
 20
106.5297597019
  0
LWPOLYLINE
  5
2F1
330
1F
100
AcDbEntity
  8
0
  6
Continuous
 62
     7
370
    30
100
AcDbPolyline
 90
       30
 70
   128
 43
0.0
 10
180.0094086002
 20
106.5297597019
 10
180.1168939355
 20
106.5320523853
 10
180.2193533885
 20
106.5388228675
 10
180.3119957703
 20
106.5497544991
 10
180.3904894995
 20
106.5643364495
 10
180.451164234
 20
106.5818867577
 10
180.4911840963
 20
106.601584463
 10
180.5086752656
 20
106.6225091858
 10
180.5028219032
 20
106.6436818732
 10
180.4738968867
 20
106.664112995
 10
180.4232534277
 20
106.6828467814
 10
180.353258017
 20
106.6990075564
 10
180.2671851846
 20
106.7118395517
 10
180.1690591755
 20
106.7207429955
 10
180.063468616
 20
106.725301121
 10
179.95534905
 20
106.725301121
 10
179.8497580248
 20
106.7207429955
 10
179.75163155
 20
106.7118395517
 10
179.6655587177
 20
106.6990075564
 10
179.5955642383
 20
106.6828467814
 10
179.5449203136
 20
106.664112995
 10
179.5159952971
 20
106.6436818732
 10
179.5101419347
 20
106.6225091858
 10
179.5276335697
 20
106.601584463
 10
179.5676525007
 20
106.5818867577
 10
179.6283277008
 20
106.5643364495
 10
179.70682143
 20
106.5497544991
 10
179.7994642775
 20
106.5388228675
 10
179.9019232648
 20
106.5320523853
 10
180.0094086002
 20
106.5297597019
  0
LWPOLYLINE
  5
2F2
330
1F
100
AcDbEntity
  8
0
  6
Continuous
 62
     7
370
    30
100
AcDbPolyline
 90
       30
 70
   128
 43
0.0
 10
185.0894086319
 20
106.5297597019
 10
185.1968935016
 20
106.5320523853
 10
185.2993529546
 20
106.5388228675
 10
185.3919953364
 20
106.5497544991
 10
185.4704899969
 20
106.5643364495
 10
185.5311647314
 20
106.5818867577
 10
185.5711836624
 20
106.601584463
 10
185.588675763
 20
106.6225091858
 10
185.5828214693
 20
106.6436818732
 10
185.5538973841
 20
106.664112995
 10
185.5032529938
 20
106.6828467814
 10
185.4332585144
 20
106.6990075564
 10
185.347185682
 20
106.7118395517
 10
185.2490596729
 20
106.7207429955
 10
185.1434681821
 20
106.725301121
 10
185.0353490817
 20
106.725301121
 10
184.9297575909
 20
106.7207429955
 10
184.8316315818
 20
106.7118395517
 10
184.7455587494
 20
106.6990075564
 10
184.67556427
 20
106.6828467814
 10
184.6249198797
 20
106.664112995
 10
184.5959957945
 20
106.6436818732
 10
184.5901415008
 20
106.6225091858
 10
184.6076336014
 20
106.601584463
 10
184.6476525324
 20
106.5818867577
 10
184.7083272669
 20
106.5643364495
 10
184.7868219274
 20
106.5497544991
 10
184.8794643092
 20
106.5388228675
 10
184.9819237622
 20
106.5320523853
 10
185.0894086319
 20
106.5297597019
  0
LINE
  5
2F3
330
1F
100
AcDbEntity
  8
0
  6
Continuous
 62
     7
370
    30
100
AcDbLine
 10
182.0494087669
 20
106.6329562968
 30
0.0
 11
181.7494083452
 21
106.6329562968
 31
0.0
  0
LINE
  5
2F4
330
1F
100
AcDbEntity
  8
0
  6
Continuous
 62
     7
370
    30
100
AcDbLine
 10
179.5094085182
 20
106.6329562968
 30
0.0
 11
179.2094085622
 21
106.6329562968
 31
0.0
  0
LINE
  5
2F5
330
1F
100
AcDbEntity
  8
0
  6
Continuous
 62
     7
370
    30
100
AcDbLine
 10
184.5894085499
 20
106.6329562968
 30
0.0
 11
184.2894090596
 21
106.6329562968
 31
0.0
  0
LINE
  5
2F6
330
1F
100
AcDbEntity
  8
0
  6
Continuous
 62
     7
370
    30
100
AcDbLine
 10
176.9694087352
 20
106.6329562968
 30
0.0
 11
176.6694087791
 21
106.6329562968
 31
0.0
  0
LINE
  5
2F7
330
1F
100
AcDbEntity
  8
0
  6
Continuous
 62
     7
370
    30
100
AcDbLine
 10
187.129408333
 20
106.6329562968
 30
0.0
 11
186.8294088426
 21
106.6329562968
 31
0.0
  0
MTEXT
  5
2F8
330
1F
100
AcDbEntity
  8
DIM
100
AcDbMText
 10
198.3176670757
 20
124.6018772824
 30
0.0
 40
3.175
 41
0.0
 71
     1
 72
     1
  1
1
  7
SLDTEXTSTYLE3
 73
     1
 44
1.0
  0
LEADER
  5
2F9
330
1F
100
AcDbEntity
  8
DIM
100
AcDbLeader
  3
SLDDIMSTYLE4
 76
     3
 10
187.9551455678
 20
115.1272919244
 30
0.0
 10
196.7564679415
 20
123.4505210828
 30
0.0
 10
197.7564679415
 20
123.4505210828
 30
0.0
  0
MTEXT
  5
2FA
330
1F
100
AcDbEntity
  8
DIM
100
AcDbMText
 10
198.3176670757
 20
106.786170928
 30
0.0
 40
3.175
 41
0.0
 71
     1
 72
     1
  1
2
  7
SLDTEXTSTYLE3
 73
     1
 44
1.0
  0
LEADER
  5
2FB
330
1F
100
AcDbEntity
  8
DIM
100
AcDbLeader
  3
SLDDIMSTYLE4
 76
     3
 10
188.0785040165
 20
112.4277593581
 30
0.0
 10
196.7564679415
 20
105.6777426801
 30
0.0
 10
197.7564679415
 20
105.6777426801
 30
0.0
  0
MTEXT
  5
2FC
330
1F
100
AcDbEntity
  8
DIM
100
AcDbMText
 10
163.1030252624
 20
124.6018772824
 30
0.0
 40
3.175
 41
0.0
 71
     1
 72
     1
  1
9
  7
SLDTEXTSTYLE3
 73
     1
 44
1.0
  0
LEADER
  5
2FD
330
1F
100
AcDbEntity
  8
DIM
100
AcDbLeader
  3
SLDDIMSTYLE4
 76
     3
 10
176.9841345565
 20
114.8684099052
 30
0.0
 10
166.5356837369
 20
123.4505210828
 30
0.0
 10
165.5356837369
 20
123.4505210828
 30
0.0
  0
MTEXT
  5
2FE
330
1F
100
AcDbEntity
  8
DIM
100
AcDbMText
 10
163.1030252624
 20
106.786170928
 30
0.0
 40
3.175
 41
0.0
 71
     1
 72
     1
  1
10
  7
SLDTEXTSTYLE3
 73
     1
 44
1.0
  0
LEADER
  5
2FF
330
1F
100
AcDbEntity
  8
DIM
100
AcDbLeader
  3
SLDDIMSTYLE4
 76
     3
 10
177.7837033
 20
112.5968250824
 30
0.0
 10
168.52299852
 20
105.6777426801
 30
0.0
 10
167.52299852
 20
105.6777426801
 30
0.0
  0
LINE
  5
300
330
1F
100
AcDbEntity
  8
0
  6
Continuous
 62
     7
370
    30
100
AcDbLine
 10
186.8294088426
 20
158.5139476355
 30
0.0
 11
186.8294088426
 21
157.5139477044
 31
0.0
  0
LINE
  5
301
330
1F
100
AcDbEntity
  8
0
  6
Continuous
 62
     7
370
    30
100
AcDbLine
 10
187.8294090065
 20
157.5139477044
 30
0.0
 11
187.8294090065
 21
158.5139476355
 31
0.0
  0
LINE
  5
302
330
1F
100
AcDbEntity
  8
0
  6
Continuous
 62
     7
370
    30
100
AcDbLine
 10
179.2094085622
 20
158.5139476355
 30
0.0
 11
179.2094085622
 21
157.5139477044
 31
0.0
  0
LINE
  5
303
330
1F
100
AcDbEntity
  8
0
  6
Continuous
 62
     7
370
    30
100
AcDbLine
 10
180.2094087261
 20
157.5139477044
 30
0.0
 11
180.2094087261
 21
158.5139476355
 31
0.0
  0
LINE
  5
304
330
1F
100
AcDbEntity
  8
0
  6
Continuous
 62
     7
370
    30
100
AcDbLine
 10
176.6694087791
 20
158.5139476355
 30
0.0
 11
176.6694087791
 21
157.5139477044
 31
0.0
  0
LINE
  5
305
330
1F
100
AcDbEntity
  8
0
  6
Continuous
 62
     7
370
    30
100
AcDbLine
 10
177.6694084774
 20
157.5139477044
 30
0.0
 11
177.6694084774
 21
158.5139476355
 31
0.0
  0
LINE
  5
306
330
1F
100
AcDbEntity
  8
0
  6
Continuous
 62
     7
370
    30
100
AcDbLine
 10
181.7494083452
 20
158.5139476355
 30
0.0
 11
181.7494083452
 21
157.5139477044
 31
0.0
  0
LINE
  5
307
330
1F
100
AcDbEntity
  8
0
  6
Continuous
 62
     7
370
    30
100
AcDbLine
 10
182.7494085091
 20
157.5139477044
 30
0.0
 11
182.7494085091
 21
158.5139476355
 31
0.0
  0
LINE
  5
308
330
1F
100
AcDbEntity
  8
0
  6
Continuous
 62
     7
370
    30
100
AcDbLine
 10
184.2894090596
 20
158.5139476355
 30
0.0
 11
184.2894090596
 21
157.5139477044
 31
0.0
  0
LINE
  5
309
330
1F
100
AcDbEntity
  8
0
  6
Continuous
 62
     7
370
    30
100
AcDbLine
 10
185.2894082922
 20
157.5139477044
 30
0.0
 11
185.2894082922
 21
158.5139476355
 31
0.0
  0
LINE
  5
30A
330
1F
100
AcDbEntity
  8
0
  6
Continuous
 62
     7
370
    30
100
AcDbLine
 10
182.7494085091
 20
154.9739476231
 30
0.0
 11
182.7494085091
 21
157.5139477044
 31
0.0
  0
LINE
  5
30B
330
1F
100
AcDbEntity
  8
0
  6
Continuous
 62
     7
370
    30
100
AcDbLine
 10
181.7494083452
 20
157.5139477044
 30
0.0
 11
181.7494083452
 21
154.9739476231
 31
0.0
  0
LINE
  5
30C
330
1F
100
AcDbEntity
  8
0
  6
Continuous
 62
     7
370
    30
100
AcDbLine
 10
177.6694084774
 20
154.9739476231
 30
0.0
 11
177.6694084774
 21
157.5139477044
 31
0.0
  0
LINE
  5
30D
330
1F
100
AcDbEntity
  8
0
  6
Continuous
 62
     7
370
    30
100
AcDbLine
 10
176.6694087791
 20
157.5139477044
 30
0.0
 11
176.6694087791
 21
154.9739476231
 31
0.0
  0
LINE
  5
30E
330
1F
100
AcDbEntity
  8
0
  6
Continuous
 62
     7
370
    30
100
AcDbLine
 10
180.2094087261
 20
154.9739476231
 30
0.0
 11
180.2094087261
 21
157.5139477044
 31
0.0
  0
LINE
  5
30F
330
1F
100
AcDbEntity
  8
0
  6
Continuous
 62
     7
370
    30
100
AcDbLine
 10
179.2094085622
 20
157.5139477044
 30
0.0
 11
179.2094085622
 21
154.9739476231
 31
0.0
  0
LINE
  5
310
330
1F
100
AcDbEntity
  8
0
  6
Continuous
 62
     7
370
    30
100
AcDbLine
 10
185.2894082922
 20
154.9739476231
 30
0.0
 11
185.2894082922
 21
157.5139477044
 31
0.0
  0
LINE
  5
311
330
1F
100
AcDbEntity
  8
0
  6
Continuous
 62
     7
370
    30
100
AcDbLine
 10
184.2894090596
 20
157.5139477044
 30
0.0
 11
184.2894090596
 21
154.9739476231
 31
0.0
  0
LINE
  5
312
330
1F
100
AcDbEntity
  8
0
  6
Continuous
 62
     7
370
    30
100
AcDbLine
 10
187.8294090065
 20
154.9739476231
 30
0.0
 11
187.8294090065
 21
157.5139477044
 31
0.0
  0
LINE
  5
313
330
1F
100
AcDbEntity
  8
0
  6
Continuous
 62
     7
370
    30
100
AcDbLine
 10
186.8294088426
 20
157.5139477044
 30
0.0
 11
186.8294088426
 21
154.9739476231
 31
0.0
  0
LINE
  5
314
330
1F
100
AcDbEntity
  8
0
  6
Continuous
 62
     7
370
    30
100
AcDbLine
 10
188.1294084969
 20
154.8739476256
 30
0.0
 11
188.1294084969
 21
154.9739476231
 31
0.0
  0
LINE
  5
315
330
1F
100
AcDbEntity
  8
0
  6
Continuous
 62
     7
370
    30
100
AcDbLine
 10
187.129408333
 20
154.9739476231
 30
0.0
 11
187.129408333
 21
154.8739476256
 31
0.0
  0
LINE
  5
316
330
1F
100
AcDbEntity
  8
0
  6
Continuous
 62
     7
370
    30
100
AcDbLine
 10
185.5894087139
 20
154.8739476256
 30
0.0
 11
185.5894087139
 21
154.9739476231
 31
0.0
  0
LINE
  5
317
330
1F
100
AcDbEntity
  8
0
  6
Continuous
 62
     7
370
    30
100
AcDbLine
 10
184.5894085499
 20
154.9739476231
 30
0.0
 11
184.5894085499
 21
154.8739476256
 31
0.0
  0
LINE
  5
318
330
1F
100
AcDbEntity
  8
0
  6
Continuous
 62
     7
370
    30
100
AcDbLine
 10
183.0494089308
 20
154.8739476256
 30
0.0
 11
183.0494089308
 21
154.9739476231
 31
0.0
  0
LINE
  5
319
330
1F
100
AcDbEntity
  8
0
  6
Continuous
 62
     7
370
    30
100
AcDbLine
 10
182.0494087669
 20
154.9739476231
 30
0.0
 11
182.0494087669
 21
154.8739476256
 31
0.0
  0
LINE
  5
31A
330
1F
100
AcDbEntity
  8
0
  6
Continuous
 62
     7
370
    30
100
AcDbLine
 10
180.5094082165
 20
154.8739476256
 30
0.0
 11
180.5094082165
 21
154.9739476231
 31
0.0
  0
LINE
  5
31B
330
1F
100
AcDbEntity
  8
0
  6
Continuous
 62
     7
370
    30
100
AcDbLine
 10
179.5094085182
 20
154.9739476231
 30
0.0
 11
179.5094085182
 21
154.8739476256
 31
0.0
  0
LINE
  5
31C
330
1F
100
AcDbEntity
  8
0
  6
Continuous
 62
     7
370
    30
100
AcDbLine
 10
177.9694084334
 20
154.8739476256
 30
0.0
 11
177.9694084334
 21
154.9739476231
 31
0.0
  0
LINE
  5
31D
330
1F
100
AcDbEntity
  8
0
  6
Continuous
 62
     7
370
    30
100
AcDbLine
 10
176.9694087352
 20
154.9739476231
 30
0.0
 11
176.9694087352
 21
154.8739476256
 31
0.0
  0
LINE
  5
31E
330
1F
100
AcDbEntity
  8
0
  6
Continuous
 62
     7
370
    30
100
AcDbLine
 10
180.5094082165
 20
144.3739477672
 30
0.0
 11
180.5094082165
 21
150.7639475293
 31
0.0
  0
LINE
  5
31F
330
1F
100
AcDbEntity
  8
0
  6
Continuous
 62
     7
370
    30
100
AcDbLine
 10
182.0494087669
 20
150.7639475293
 30
0.0
 11
182.0494087669
 21
144.3739477672
 31
0.0
  0
LINE
  5
320
330
1F
100
AcDbEntity
  8
0
  6
Continuous
 62
     7
370
    30
100
AcDbLine
 10
183.0494089308
 20
144.3739477672
 30
0.0
 11
183.0494089308
 21
150.7639475293
 31
0.0
  0
LINE
  5
321
330
1F
100
AcDbEntity
  8
0
  6
Continuous
 62
     7
370
    30
100
AcDbLine
 10
184.5894085499
 20
150.7639475293
 30
0.0
 11
184.5894085499
 21
144.3739477672
 31
0.0
  0
ARC
  5
322
330
1F
100
AcDbEntity
  8
0
  6
Continuous
 62
     7
370
    30
100
AcDbCircle
 10
187.6294086507
 20
155.8739476256
 30
0.0
 40
0.5
100
AcDbArc
 50
0.0
 51
66.4218215218
  0
LINE
  5
323
330
1F
100
AcDbEntity
  8
0
  6
Continuous
 62
     7
370
    30
100
AcDbLine
 10
188.1294084969
 20
154.9739476231
 30
0.0
 11
188.1294084969
 21
155.8739476731
 31
0.0
  0
ARC
  5
324
330
1F
100
AcDbEntity
  8
0
  6
Continuous
 62
     7
370
    30
100
AcDbCircle
 10
185.0894086507
 20
155.8739476256
 30
0.0
 40
0.5
100
AcDbArc
 50
0.0
 51
66.4218215218
  0
LINE
  5
325
330
1F
100
AcDbEntity
  8
0
  6
Continuous
 62
     7
370
    30
100
AcDbLine
 10
185.5894087139
 20
154.9739476231
 30
0.0
 11
185.5894087139
 21
155.8739476731
 31
0.0
  0
ARC
  5
326
330
1F
100
AcDbEntity
  8
0
  6
Continuous
 62
     7
370
    30
100
AcDbCircle
 10
182.5494086507
 20
155.8739476256
 30
0.0
 40
0.5
100
AcDbArc
 50
0.0
 51
66.4218215218
  0
LINE
  5
327
330
1F
100
AcDbEntity
  8
0
  6
Continuous
 62
     7
370
    30
100
AcDbLine
 10
183.0494089308
 20
154.9739476231
 30
0.0
 11
183.0494089308
 21
155.8739476731
 31
0.0
  0
ARC
  5
328
330
1F
100
AcDbEntity
  8
0
  6
Continuous
 62
     7
370
    30
100
AcDbCircle
 10
180.0094086507
 20
155.8739476256
 30
0.0
 40
0.5
100
AcDbArc
 50
0.0
 51
66.4218215218
  0
LINE
  5
329
330
1F
100
AcDbEntity
  8
0
  6
Continuous
 62
     7
370
    30
100
AcDbLine
 10
180.5094082165
 20
154.9739476231
 30
0.0
 11
180.5094082165
 21
155.8739476731
 31
0.0
  0
ARC
  5
32A
330
1F
100
AcDbEntity
  8
0
  6
Continuous
 62
     7
370
    30
100
AcDbCircle
 10
177.4694086507
 20
155.8739476256
 30
0.0
 40
0.5
100
AcDbArc
 50
0.0
 51
66.4218215218
  0
LINE
  5
32B
330
1F
100
AcDbEntity
  8
0
  6
Continuous
 62
     7
370
    30
100
AcDbLine
 10
177.9694084334
 20
154.9739476231
 30
0.0
 11
177.9694084334
 21
155.8739476731
 31
0.0
  0
LINE
  5
32C
330
1F
100
AcDbEntity
  8
0
  6
Continuous
 62
     7
370
    30
100
AcDbLine
 10
180.44440842
 20
150.7639475293
 30
0.0
 11
180.44440842
 21
143.9739475153
 31
0.0
  0
LINE
  5
32D
330
1F
100
AcDbEntity
  8
0
  6
Continuous
 62
     7
370
    30
100
AcDbLine
 10
180.44440842
 20
143.9739475153
 30
0.0
 11
172.2494086507
 21
143.9739475153
 31
0.0
  0
LINE
  5
32E
330
1F
100
AcDbEntity
  8
0
  6
Continuous
 62
     7
370
    30
100
AcDbLine
 10
172.2494086507
 20
143.9739475153
 30
0.0
 11
172.2494086507
 21
154.8739476256
 31
0.0
  0
LINE
  5
32F
330
1F
100
AcDbEntity
  8
0
  6
Continuous
 62
     7
370
    30
100
AcDbLine
 10
192.5494095567
 20
143.9739475153
 30
0.0
 11
192.5494095567
 21
154.8739476256
 31
0.0
  0
LINE
  5
330
330
1F
100
AcDbEntity
  8
0
  6
Continuous
 62
     7
370
    30
100
AcDbLine
 10
192.5494095567
 20
143.9739475153
 30
0.0
 11
184.6544083464
 21
143.9739475153
 31
0.0
  0
LINE
  5
331
330
1F
100
AcDbEntity
  8
0
  6
Continuous
 62
     7
370
    30
100
AcDbLine
 10
184.6544083464
 20
143.9739475153
 30
0.0
 11
184.6544083464
 21
150.7639475293
 31
0.0
  0
LINE
  5
332
330
1F
100
AcDbEntity
  8
0
  6
Continuous
 62
     7
370
    30
100
AcDbLine
 10
184.6544083464
 20
150.7639475293
 30
0.0
 11
180.44440842
 21
150.7639475293
 31
0.0
  0
LINE
  5
333
330
1F
100
AcDbEntity
  8
0
  6
Continuous
 62
     7
370
    30
100
AcDbLine
 10
192.5494095567
 20
154.8739476256
 30
0.0
 11
172.2494086507
 21
154.8739476256
 31
0.0
  0
ARC
  5
334
330
1F
100
AcDbEntity
  8
0
  6
Continuous
 62
     7
370
    30
100
AcDbCircle
 10
187.3294086507
 20
158.5139476256
 30
0.0
 40
0.5
100
AcDbArc
 50
0.0
 51
180.0
  0
ARC
  5
335
330
1F
100
AcDbEntity
  8
0
  6
Continuous
 62
     7
370
    30
100
AcDbCircle
 10
179.7094086507
 20
158.5139476256
 30
0.0
 40
0.5
100
AcDbArc
 50
0.0
 51
180.0
  0
ARC
  5
336
330
1F
100
AcDbEntity
  8
0
  6
Continuous
 62
     7
370
    30
100
AcDbCircle
 10
177.1694086507
 20
158.5139476256
 30
0.0
 40
0.5
100
AcDbArc
 50
0.0
 51
180.0
  0
ARC
  5
337
330
1F
100
AcDbEntity
  8
0
  6
Continuous
 62
     7
370
    30
100
AcDbCircle
 10
182.2494086507
 20
158.5139476256
 30
0.0
 40
0.5000000000000284
100
AcDbArc
 50
0.0
 51
180.0
  0
ARC
  5
338
330
1F
100
AcDbEntity
  8
0
  6
Continuous
 62
     7
370
    30
100
AcDbCircle
 10
184.7894086507
 20
158.5139476256
 30
0.0
 40
0.5
100
AcDbArc
 50
0.0
 51
180.0
  0
LINE
  5
339
330
1F
100
AcDbEntity
  8
0
  6
Continuous
 62
     7
370
    30
100
AcDbLine
 10
181.7494083452
 20
154.9739476231
 30
0.0
 11
182.3994091037
 21
154.9739476231
 31
0.0
  0
LINE
  5
33A
330
1F
100
AcDbEntity
  8
0
  6
Continuous
 62
     7
370
    30
100
AcDbLine
 10
176.6694087791
 20
154.9739476231
 30
0.0
 11
177.3194086063
 21
154.9739476231
 31
0.0
  0
LINE
  5
33B
330
1F
100
AcDbEntity
  8
0
  6
Continuous
 62
     7
370
    30
100
AcDbLine
 10
179.2094085622
 20
154.9739476231
 30
0.0
 11
179.859408855
 21
154.9739476231
 31
0.0
  0
LINE
  5
33C
330
1F
100
AcDbEntity
  8
0
  6
Continuous
 62
     7
370
    30
100
AcDbLine
 10
184.2894090596
 20
154.9739476231
 30
0.0
 11
184.9394088867
 21
154.9739476231
 31
0.0
  0
LINE
  5
33D
330
1F
100
AcDbEntity
  8
0
  6
Continuous
 62
     7
370
    30
100
AcDbLine
 10
186.8294088426
 20
154.9739476231
 30
0.0
 11
187.4794086697
 21
154.9739476231
 31
0.0
  0
LINE
  5
33E
330
1F
100
AcDbEntity
  8
0
  6
Continuous
 62
     7
370
    30
100
AcDbLine
 10
187.4794086697
 20
154.9739476231
 30
0.0
 11
188.1294084969
 21
154.9739476231
 31
0.0
  0
LINE
  5
33F
330
1F
100
AcDbEntity
  8
0
  6
Continuous
 62
     7
370
    30
100
AcDbLine
 10
184.9394088867
 20
154.9739476231
 30
0.0
 11
185.5894087139
 21
154.9739476231
 31
0.0
  0
LINE
  5
340
330
1F
100
AcDbEntity
  8
0
  6
Continuous
 62
     7
370
    30
100
AcDbLine
 10
182.3994091037
 20
154.9739476231
 30
0.0
 11
183.0494089308
 21
154.9739476231
 31
0.0
  0
LINE
  5
341
330
1F
100
AcDbEntity
  8
0
  6
Continuous
 62
     7
370
    30
100
AcDbLine
 10
179.859408855
 20
154.9739476231
 30
0.0
 11
180.5094082165
 21
154.9739476231
 31
0.0
  0
LINE
  5
342
330
1F
100
AcDbEntity
  8
0
  6
Continuous
 62
     7
370
    30
100
AcDbLine
 10
177.3194086063
 20
154.9739476231
 30
0.0
 11
177.9694084334
 21
154.9739476231
 31
0.0
  0
LINE
  5
343
330
1F
100
AcDbEntity
  8
0
  6
Continuous
 62
     7
370
    30
100
AcDbLine
 10
180.5094082165
 20
144.3739477672
 30
0.0
 11
180.44440842
 21
144.3739477672
 31
0.0
  0
LINE
  5
344
330
1F
100
AcDbEntity
  8
0
  6
Continuous
 62
     7
370
    30
100
AcDbLine
 10
183.0494089308
 20
144.3739477672
 30
0.0
 11
182.0494087669
 21
144.3739477672
 31
0.0
  0
LINE
  5
345
330
1F
100
AcDbEntity
  8
0
  6
Continuous
 62
     7
370
    30
100
AcDbLine
 10
184.6544083464
 20
144.3739477672
 30
0.0
 11
184.5894085499
 21
144.3739477672
 31
0.0
  0
LINE
  5
346
330
1F
100
AcDbEntity
  8
0
  6
Continuous
 62
     7
370
    30
100
AcDbLine
 10
180.44440842
 20
143.9739475153
 30
0.0
 11
184.6544083464
 21
143.9739475153
 31
0.0
  0
LINE
  5
347
330
1F
100
AcDbEntity
  8
0
  6
Continuous
 62
     8
370
    30
100
AcDbLine
 10
186.8294088426
 20
157.5139477044
 30
0.0
 11
187.8294090065
 21
157.5139477044
 31
0.0
  0
LINE
  5
348
330
1F
100
AcDbEntity
  8
0
  6
Continuous
 62
     8
370
    30
100
AcDbLine
 10
179.2094085622
 20
157.5139477044
 30
0.0
 11
180.2094087261
 21
157.5139477044
 31
0.0
  0
LINE
  5
349
330
1F
100
AcDbEntity
  8
0
  6
Continuous
 62
     8
370
    30
100
AcDbLine
 10
176.6694087791
 20
157.5139477044
 30
0.0
 11
177.6694084774
 21
157.5139477044
 31
0.0
  0
LINE
  5
34A
330
1F
100
AcDbEntity
  8
0
  6
Continuous
 62
     8
370
    30
100
AcDbLine
 10
181.7494083452
 20
157.5139477044
 30
0.0
 11
182.7494085091
 21
157.5139477044
 31
0.0
  0
LINE
  5
34B
330
1F
100
AcDbEntity
  8
0
  6
Continuous
 62
     8
370
    30
100
AcDbLine
 10
184.2894090596
 20
157.5139477044
 30
0.0
 11
185.2894082922
 21
157.5139477044
 31
0.0
  0
LWPOLYLINE
  5
34C
330
1F
100
AcDbEntity
  8
0
  6
Continuous
 62
     7
370
    30
100
AcDbPolyline
 90
        3
 70
   128
 43
0.0
 10
114.0961510007
 20
139.8619170097
 10
114.1244868538
 20
139.969972553
 10
114.1878309329
 20
140.5119083694
  0
ARC
  5
34D
330
1F
100
AcDbEntity
  8
0
  6
Continuous
 62
     7
370
    30
100
AcDbCircle
 10
111.8378307044
 20
140.5119082403
 30
0.0
 40
2.349999999999994
100
AcDbArc
 50
0.0
 51
60.0026882663
  0
LINE
  5
34E
330
1F
100
AcDbEntity
  8
0
  6
Continuous
 62
     7
370
    30
100
AcDbLine
 10
113.0127372837
 20
142.5471230599
 30
0.0
 11
110.997483088
 21
143.7105045439
 31
0.0
  0
LINE
  5
34F
330
1F
100
AcDbEntity
  8
0
  6
Continuous
 62
     7
370
    30
100
AcDbLine
 10
68.4479504155
 20
173.8675694317
 30
0.0
 11
57.1695959996
 21
180.3784248485
 31
0.0
  0
LINE
  5
350
330
1F
100
AcDbEntity
  8
0
  6
Continuous
 62
     7
370
    30
100
AcDbLine
 10
68.5979629032
 20
165.2790391873
 30
0.0
 11
68.5979629032
 21
173.4444475039
 31
0.0
  0
LINE
  5
351
330
1F
100
AcDbEntity
  8
0
  6
Continuous
 62
     7
370
    30
100
AcDbLine
 10
48.5525253076
 20
175.6895807882
 30
0.0
 11
48.5525253076
 21
167.4425185291
 31
0.0
  0
LINE
  5
352
330
1F
100
AcDbEntity
  8
0
  6
Continuous
 62
     7
370
    30
100
AcDbLine
 10
56.4100017882
 20
180.4804760693
 30
0.0
 11
49.0560905853
 21
176.2351534961
 31
0.0
  0
LINE
  5
353
330
1F
100
AcDbEntity
  8
0
  6
Continuous
 62
     7
370
    30
100
AcDbLine
 10
101.501672995
 20
131.7288406547
 30
0.0
 11
103.0813553165
 21
130.8169094615
 31
0.0
  0
LINE
  5
354
330
1F
100
AcDbEntity
  8
0
  6
Continuous
 62
     7
370
    30
100
AcDbLine
 10
103.5813144044
 20
131.6829582984
 30
0.0
 11
102.5017544899
 21
132.3061749715
 31
0.0
  0
LINE
  5
355
330
1F
100
AcDbEntity
  8
0
  6
Continuous
 62
     7
370
    30
100
AcDbLine
 10
100.4887656873
 20
130.2395657317
 30
0.0
 11
103.0813553165
 21
128.7428955963
 31
0.0
  0
LINE
  5
356
330
1F
100
AcDbEntity
  8
0
  6
Continuous
 62
     7
370
    30
100
AcDbLine
 10
103.5813144044
 20
129.6089444331
 30
0.0
 11
100.7054110254
 21
131.269168115
 31
0.0
  0
LINE
  5
357
330
1F
100
AcDbEntity
  8
0
  6
Continuous
 62
     7
370
    30
100
AcDbLine
 10
103.2977240658
 20
132.7656788681
 30
0.0
 11
104.8774063873
 21
131.853747675
 31
0.0
  0
LINE
  5
358
330
1F
100
AcDbEntity
  8
0
  6
Continuous
 62
     7
370
    30
100
AcDbLine
 10
105.3773654752
 20
132.7197965118
 30
0.0
 11
104.2978055607
 21
133.3430131849
 31
0.0
  0
LINE
  5
359
330
1F
100
AcDbEntity
  8
0
  6
Continuous
 62
     7
370
    30
100
AcDbLine
 10
101.5013806013
 20
131.7286720116
 30
0.0
 11
104.8774063873
 21
129.7797338097
 31
0.0
  0
LINE
  5
35A
330
1F
100
AcDbEntity
  8
0
  6
Continuous
 62
     7
370
    30
100
AcDbLine
 10
105.3773654752
 20
130.6457826466
 30
0.0
 11
103.589712164
 21
131.6777729366
 31
0.0
  0
LINE
  5
35B
330
1F
100
AcDbEntity
  8
0
  6
Continuous
 62
     7
370
    30
100
AcDbLine
 10
105.0937751366
 20
133.8025170816
 30
0.0
 11
106.6734574581
 21
132.8905858884
 31
0.0
  0
LINE
  5
35C
330
1F
100
AcDbEntity
  8
0
  6
Continuous
 62
     7
370
    30
100
AcDbLine
 10
107.1734178631
 20
133.7566354856
 30
0.0
 11
105.717821132
 21
134.5969335922
 31
0.0
  0
LINE
  5
35D
330
1F
100
AcDbEntity
  8
0
  6
Continuous
 62
     7
370
    30
100
AcDbLine
 10
103.2974316721
 20
132.7655102251
 30
0.0
 11
106.6734574581
 21
130.8165720232
 31
0.0
  0
LINE
  5
35E
330
1F
100
AcDbEntity
  8
0
  6
Continuous
 62
     7
370
    30
100
AcDbLine
 10
107.1734178631
 20
131.6826216204
 30
0.0
 11
105.3857645519
 21
132.7146119104
 31
0.0
  0
LINE
  5
35F
330
1F
100
AcDbEntity
  8
0
  6
Continuous
 62
     7
370
    30
100
AcDbLine
 10
102.8126559863
 20
137.1930555638
 30
0.0
 11
108.4695085289
 21
133.9274241019
 31
0.0
  0
LINE
  5
360
330
1F
100
AcDbEntity
  8
0
  6
Continuous
 62
     7
370
    30
100
AcDbLine
 10
108.9694689339
 20
134.7934736991
 30
0.0
 11
103.3126163913
 21
138.059105161
 31
0.0
  0
LINE
  5
361
330
1F
100
AcDbEntity
  8
0
  6
Continuous
 62
     7
370
    30
100
AcDbLine
 10
94.3169497788
 20
137.1332697753
 30
0.0
 11
94.0778006578
 21
137.2713276242
 31
0.0
  0
LINE
  5
362
330
1F
100
AcDbEntity
  8
0
  6
Continuous
 62
     7
370
    30
100
AcDbLine
 10
105.0934827429
 20
133.8023484386
 30
0.0
 11
108.4695085289
 21
131.8534102366
 31
0.0
  0
LINE
  5
363
330
1F
100
AcDbEntity
  8
0
  6
Continuous
 62
     7
370
    30
100
AcDbLine
 10
108.9694689339
 20
132.7194598338
 30
0.0
 11
107.1818156227
 21
133.7514501238
 31
0.0
  0
LINE
  5
364
330
1F
100
AcDbEntity
  8
0
  6
Continuous
 62
     7
370
    30
100
AcDbLine
 10
104.6087083742
 20
138.2298945376
 30
0.0
 11
110.2655609168
 21
134.9642630757
 31
0.0
  0
LINE
  5
365
330
1F
100
AcDbEntity
  8
0
  6
Continuous
 62
     7
370
    30
100
AcDbLine
 10
110.7655200047
 20
135.8303119125
 30
0.0
 11
109.6859600902
 21
136.4535285856
 31
0.0
  0
LINE
  5
366
330
1F
100
AcDbEntity
  8
0
  6
Continuous
 62
     7
370
    30
100
AcDbLine
 10
96.1130008496
 20
138.1701079888
 30
0.0
 11
95.8738517286
 21
138.3081658377
 31
0.0
  0
SPLINE
  5
367
330
1F
100
AcDbEntity
  8
0
  6
Continuous
 62
     7
370
    30
100
AcDbSpline
210
0.0
220
0.0
230
1.0
 70
     8
 71
     3
 72
    15
 73
    11
 74
     0
 42
0.000000001
 43
0.00000001
 40
0.0
 40
0.0
 40
0.0
 40
0.0
 40
0.1011502493069032
 40
0.2522624979431082
 40
0.3937597863723163
 40
0.5327126418881866
 40
0.6771864021468561
 40
0.8168516830254186
 40
0.9628437775520675
 40
1.0
 40
1.0
 40
1.0
 40
1.0
 10
94.07780065778826
 20
137.2713276242151
 30
0.0
 10
94.0133353158997
 20
137.3047386418948
 30
0.0
 10
93.8525627198162
 20
137.3880636641906
 30
0.0
 10
93.58173930453405
 20
137.4474958959893
 30
0.0
 10
93.27995998388896
 20
137.4221512289307
 30
0.0
 10
93.00672155089595
 20
137.2966214941323
 30
0.0
 10
92.79586855998369
 20
137.0847162701922
 30
0.0
 10
92.66448546364063
 20
136.8139195738053
 30
0.0
 10
92.62351046612783
 20
136.5887163241677
 30
0.0
 10
92.6211858962581
 20
136.4567405861354
 30
0.0
 10
92.6207142990488
 20
136.4299660027755
 30
0.0
  0
LINE
  5
368
330
1F
100
AcDbEntity
  8
0
  6
Continuous
 62
     7
370
    30
100
AcDbLine
 10
104.6087083742
 20
136.1558806723
 30
0.0
 11
110.2655609168
 21
132.8902492104
 31
0.0
  0
LINE
  5
369
330
1F
100
AcDbEntity
  8
0
  6
Continuous
 62
     7
370
    30
100
AcDbLine
 10
110.7655200047
 20
133.7562980473
 30
0.0
 11
108.9778666935
 21
134.7882883373
 31
0.0
  0
LINE
  5
36A
330
1F
100
AcDbEntity
  8
0
  6
Continuous
 62
     7
370
    30
100
AcDbLine
 10
92.620714299
 20
136.4299660028
 30
0.0
 11
92.620714299
 21
136.1540533357
 31
0.0
  0
LINE
  5
36B
330
1F
100
AcDbEntity
  8
0
  6
Continuous
 62
     7
370
    30
100
AcDbLine
 10
97.9090519204
 20
139.2069462022
 30
0.0
 11
97.6699027994
 21
139.3450040511
 31
0.0
  0
SPLINE
  5
36C
330
1F
100
AcDbEntity
  8
0
  6
Continuous
 62
     7
370
    30
100
AcDbSpline
210
0.0
220
0.0
230
1.0
 70
     8
 71
     3
 72
    15
 73
    11
 74
     0
 42
0.000000001
 43
0.00000001
 40
0.0
 40
0.0
 40
0.0
 40
0.0
 40
0.1011502551374275
 40
0.2522625124840772
 40
0.3937595313014796
 40
0.5327127227806003
 40
0.6771864913670573
 40
0.8168517802962358
 40
0.9628438832381924
 40
1.0
 40
1.0
 40
1.0
 40
1.0
 10
95.87385172858757
 20
138.3081658376656
 30
0.0
 10
95.80938640374661
 20
138.3415768693174
 30
0.0
 10
95.6486138501788
 20
138.4249019264587
 30
0.0
 10
95.3777901957879
 20
138.4843337637811
 30
0.0
 10
95.07601248079307
 20
138.4589905205545
 30
0.0
 10
94.80277250159179
 20
138.3334596093135
 30
0.0
 10
94.59191955522961
 20
138.1215544925143
 30
0.0
 10
94.46053709888812
 20
137.8507580020317
 30
0.0
 10
94.41955997152675
 20
137.6255539811399
 30
0.0
 10
94.41723779708423
 20
137.4935792863426
 30
0.0
 10
94.41676668693712
 20
137.4668049765654
 30
0.0
  0
LINE
  5
36D
330
1F
100
AcDbEntity
  8
0
  6
Continuous
 62
     7
370
    30
100
AcDbLine
 10
94.4167666869
 20
137.4668049766
 30
0.0
 11
94.4167666869
 21
137.1908923095
 31
0.0
  0
LINE
  5
36E
330
1F
100
AcDbEntity
  8
0
  6
Continuous
 62
     7
370
    30
100
AcDbLine
 10
99.7051029912
 20
140.2437844157
 30
0.0
 11
99.4659538702
 21
140.3818422646
 31
0.0
  0
SPLINE
  5
36F
330
1F
100
AcDbEntity
  8
0
  6
Continuous
 62
     7
370
    30
100
AcDbSpline
210
0.0
220
0.0
230
1.0
 70
     8
 71
     3
 72
    15
 73
    11
 74
     0
 42
0.000000001
 43
0.00000001
 40
0.0
 40
0.0
 40
0.0
 40
0.0
 40
0.1011502551374275
 40
0.2522625124840772
 40
0.3937595313014796
 40
0.5327127227806003
 40
0.6771864913670573
 40
0.8168517802962358
 40
0.9628438832381924
 40
1.0
 40
1.0
 40
1.0
 40
1.0
 10
97.66990279938686
 20
139.3450040511161
 30
0.0
 10
97.60543747454592
 20
139.3784150827679
 30
0.0
 10
97.44466492097813
 20
139.4617401399092
 30
0.0
 10
97.17384126658719
 20
139.5211719772316
 30
0.0
 10
96.87206355159238
 20
139.495828734005
 30
0.0
 10
96.5988235723911
 20
139.3702978227639
 30
0.0
 10
96.38797062602892
 20
139.1583927059649
 30
0.0
 10
96.25658816968743
 20
138.8875962154822
 30
0.0
 10
96.21561104232605
 20
138.6623921945904
 30
0.0
 10
96.21328886788352
 20
138.5304174997931
 30
0.0
 10
96.21281775773643
 20
138.5036431900159
 30
0.0
  0
LINE
  5
370
330
1F
100
AcDbEntity
  8
0
  6
Continuous
 62
     7
370
    30
100
AcDbLine
 10
96.2128177577
 20
138.50364319
 30
0.0
 11
96.2128177577
 21
138.2277305229
 31
0.0
  0
LINE
  5
371
330
1F
100
AcDbEntity
  8
0
  6
Continuous
 62
     7
370
    30
100
AcDbLine
 10
101.501154062
 20
141.2806226291
 30
0.0
 11
101.262004941
 21
141.418680478
 31
0.0
  0
SPLINE
  5
372
330
1F
100
AcDbEntity
  8
0
  6
Continuous
 62
     7
370
    30
100
AcDbSpline
210
0.0
220
0.0
230
1.0
 70
     8
 71
     3
 72
    15
 73
    11
 74
     0
 42
0.000000001
 43
0.00000001
 40
0.0
 40
0.0
 40
0.0
 40
0.0
 40
0.1011502551374275
 40
0.2522625124840772
 40
0.3937595313014796
 40
0.5327127227806003
 40
0.6771864913670573
 40
0.8168517802962358
 40
0.9628438832381924
 40
1.0
 40
1.0
 40
1.0
 40
1.0
 10
99.46595387018617
 20
140.3818422645666
 30
0.0
 10
99.40148854534522
 20
140.4152532962185
 30
0.0
 10
99.24071599177742
 20
140.4985783533597
 30
0.0
 10
98.9698923373865
 20
140.5580101906821
 30
0.0
 10
98.66811462239168
 20
140.5326669474555
 30
0.0
 10
98.39487464319039
 20
140.4071360362145
 30
0.0
 10
98.18402169682821
 20
140.1952309194154
 30
0.0
 10
98.05263924048674
 20
139.9244344289327
 30
0.0
 10
98.01166211312534
 20
139.699230408041
 30
0.0
 10
98.00933993868283
 20
139.5672557132436
 30
0.0
 10
98.00886882853574
 20
139.5404814034664
 30
0.0
  0
LINE
  5
373
330
1F
100
AcDbEntity
  8
0
  6
Continuous
 62
     7
370
    30
100
AcDbLine
 10
98.0088688285
 20
139.5404814035
 30
0.0
 11
98.0088688285
 21
139.2645687364
 31
0.0
  0
SPLINE
  5
374
330
1F
100
AcDbEntity
  8
0
  6
Continuous
 62
     7
370
    30
100
AcDbSpline
210
0.0
220
0.0
230
1.0
 70
     8
 71
     3
 72
    15
 73
    11
 74
     0
 42
0.000000001
 43
0.00000001
 40
0.0
 40
0.0
 40
0.0
 40
0.0
 40
0.1011501345747502
 40
0.2522625862805059
 40
0.3937598858058854
 40
0.5327124242682836
 40
0.677186506334029
 40
0.8168515608190596
 40
0.9628436667943613
 40
1.0
 40
1.0
 40
1.0
 40
1.0
 10
101.2620049409855
 20
141.4186804780171
 30
0.0
 10
101.1975401677182
 20
141.4520918562616
 30
0.0
 10
101.0367687510835
 20
141.5354179014772
 30
0.0
 10
100.7659433698541
 20
141.5948483945957
 30
0.0
 10
100.4641642424151
 20
141.5695040293311
 30
0.0
 10
100.1909273971953
 20
141.4439751287263
 30
0.0
 10
99.98007243780015
 20
141.2320692214755
 30
0.0
 10
99.84869096519124
 20
140.9612729680883
 30
0.0
 10
99.80771760598134
 20
140.7360704863734
 30
0.0
 10
99.80539066216257
 20
140.6040937121095
 30
0.0
 10
99.80491858224602
 20
140.5773188565776
 30
0.0
  0
LINE
  5
375
330
1F
100
AcDbEntity
  8
0
  6
Continuous
 62
     7
370
    30
100
AcDbLine
 10
99.8049185822
 20
140.5773188566
 30
0.0
 11
99.8049185822
 21
140.3014061895
 31
0.0
  0
SPLINE
  5
376
330
1F
100
AcDbEntity
  8
0
  6
Continuous
 62
     7
370
    30
100
AcDbSpline
210
0.0
220
0.0
230
1.0
 70
     8
 71
     3
 72
    27
 73
    23
 74
     0
 42
0.000000001
 43
0.00000001
 40
0.0
 40
0.0
 40
0.0
 40
0.0
 40
0.0376590825790608
 40
0.0868122115838908
 40
0.1364806044919351
 40
0.1878011334643851
 40
0.2409453500834625
 40
0.2952594240654157
 40
0.3499206983683785
 40
0.404464842827583
 40
0.4588479291312923
 40
0.5131412031279499
 40
0.5674551992604925
 40
0.6218845267832255
 40
0.6765498322133073
 40
0.7315753673526457
 40
0.7870294664072559
 40
0.8427369322797961
 40
0.8978440586645895
 40
0.945771108169312
 40
0.9968779032536564
 40
1.0
 40
1.0
 40
1.0
 40
1.0
 10
62.38926652657596
 20
157.4646752877644
 30
0.0
 10
62.38810442718518
 20
157.5743015270865
 30
0.0
 10
62.38542554041245
 20
157.8270133732449
 30
0.0
 10
62.25146141545967
 20
158.2102970582133
 30
0.0
 10
62.01946648911515
 20
158.5986796079208
 30
0.0
 10
61.68818593532052
 20
158.9545239232694
 30
0.0
 10
61.26541774791735
 20
159.2721478479845
 30
0.0
 10
60.75851531298336
 20
159.5422904772084
 30
0.0
 10
60.18353553748408
 20
159.7558480913812
 30
0.0
 10
59.55920227588489
 20
159.9066650997557
 30
0.0
 10
58.90411909261078
 20
159.9914631680103
 30
0.0
 10
58.23591685766951
 20
160.0087704355264
 30
0.0
 10
57.57209208515317
 20
159.9583289296652
 30
0.0
 10
56.92980960748957
 20
159.8409593520772
 30
0.0
 10
56.32553055604214
 20
159.6583652375822
 30
0.0
 10
55.77496220789828
 20
159.4127662039552
 30
0.0
 10
55.29315965544691
 20
159.1067587332292
 30
0.0
 10
54.89822032907598
 20
158.744808798125
 30
0.0
 10
54.6126455263453
 20
158.3486494509203
 30
0.0
 10
54.44876056568115
 20
157.9259974919581
 30
0.0
 10
54.38158210124143
 20
157.6276401540587
 30
0.0
 10
54.40195031127887
 20
157.4713529238722
 30
0.0
 10
54.40312296150534
 20
157.4623550661549
 30
0.0
  0
LINE
  5
377
330
1F
100
AcDbEntity
  8
0
  6
Continuous
 62
     7
370
    30
100
AcDbLine
 10
62.3997591162
 20
151.5999136614
 30
0.0
 11
62.3997591162
 21
157.4790077862
 31
0.0
  0
LINE
  5
378
330
1F
100
AcDbEntity
  8
0
  6
Continuous
 62
     7
370
    30
100
AcDbLine
 10
54.3997577991
 20
157.4790077862
 30
0.0
 11
54.3997577991
 21
151.5999136614
 31
0.0
  0
SPLINE
  5
379
330
1F
100
AcDbEntity
  8
0
  6
Continuous
 62
     7
370
    30
100
AcDbSpline
210
0.0
220
0.0
230
1.0
 70
     8
 71
     3
 72
    15
 73
    11
 74
     0
 42
0.000000001
 43
0.00000001
 40
0.0
 40
0.0
 40
0.0
 40
0.0
 40
0.0473349244746293
 40
0.1837964162983612
 40
0.3201097152452493
 40
0.456369539791211
 40
0.592682636178012
 40
0.729133612826552
 40
0.8658430356619563
 40
1.0
 40
1.0
 40
1.0
 40
1.0
 10
56.65801755241963
 20
149.450228894874
 30
0.0
 10
56.72587127010974
 20
149.4284790314009
 30
0.0
 10
56.98933995168858
 20
149.3440266528301
 30
0.0
 10
57.49568491111616
 20
149.2588244077103
 30
0.0
 10
58.15519784510902
 20
149.1989682280594
 30
0.0
 10
58.82454562597281
 20
149.2087721382544
 30
0.0
 10
59.4817929179112
 20
149.2825649986138
 30
0.0
 10
60.10849040134498
 20
149.421185936592
 30
0.0
 10
60.69017236355231
 20
149.6152719756341
 30
0.0
 10
61.02227195455288
 20
149.7893233638574
 30
0.0
 10
61.18675701100992
 20
149.8755289876947
 30
0.0
  0
SPLINE
  5
37A
330
1F
100
AcDbEntity
  8
0
  6
Continuous
 62
     7
370
    30
100
AcDbSpline
210
0.0
220
0.0
230
1.0
 70
     8
 71
     3
 72
    15
 73
    11
 74
     0
 42
0.000000001
 43
0.00000001
 40
0.0
 40
0.0
 40
0.0
 40
0.0
 40
0.027597464541447
 40
0.1702565382737224
 40
0.3126757073447535
 40
0.4570107620973739
 40
0.604034497989798
 40
0.752863994500702
 40
0.9023528356536311
 40
1.0
 40
1.0
 40
1.0
 40
1.0
 10
54.40932908494857
 20
151.6463254388073
 30
0.0
 10
54.40572854949274
 20
151.6204139789169
 30
0.0
 10
54.38351583130191
 20
151.4605588786078
 30
0.0
 10
54.45228570846328
 20
151.1647771431419
 30
0.0
 10
54.61698747049149
 20
150.7781366750195
 30
0.0
 10
54.89363812317006
 20
150.4165415287529
 30
0.0
 10
55.2639652542132
 20
150.0866198661076
 30
0.0
 10
55.72587562055748
 20
149.7998551708469
 30
0.0
 10
56.19465331202933
 20
149.5823673342543
 30
0.0
 10
56.52678665691543
 20
149.4876522526104
 30
0.0
 10
56.65801755241963
 20
149.450228894874
 30
0.0
  0
SPLINE
  5
37B
330
1F
100
AcDbEntity
  8
0
  6
Continuous
 62
     7
370
    30
100
AcDbSpline
210
0.0
220
0.0
230
1.0
 70
     8
 71
     3
 72
    12
 73
     8
 74
     0
 42
0.000000001
 43
0.00000001
 40
0.0
 40
0.0
 40
0.0
 40
0.0
 40
0.1226156107884317
 40
0.3556437883603988
 40
0.5886451007025312
 40
0.819270050917757
 40
1.0
 40
1.0
 40
1.0
 40
1.0
 10
61.18675701100992
 20
149.8755289876947
 30
0.0
 10
61.26934344626905
 20
149.9258630684742
 30
0.0
 10
61.50888352207078
 20
150.0718559241711
 30
0.0
 10
61.84311814670194
 20
150.3502846144794
 30
0.0
 10
62.14304088628425
 20
150.7181990365997
 30
0.0
 10
62.33369182592602
 20
151.0889051070301
 30
0.0
 10
62.36768031272697
 20
151.3385148279496
 30
0.0
 10
62.38261325141181
 20
151.4481815712636
 30
0.0
  0
LINE
  5
37C
330
1F
100
AcDbEntity
  8
0
  6
Continuous
 62
     7
370
    30
100
AcDbLine
 10
54.3997577991
 20
150.6200648307
 30
0.0
 11
54.3997577991
 21
150.2117943578
 31
0.0
  0
LINE
  5
37D
330
1F
100
AcDbEntity
  8
0
  6
Continuous
 62
     7
370
    30
100
AcDbLine
 10
62.3997591162
 20
150.2117943578
 30
0.0
 11
62.3997591162
 21
150.6200648307
 31
0.0
  0
SPLINE
  5
37E
330
1F
100
AcDbEntity
  8
0
  6
Continuous
 62
     7
370
    30
100
AcDbSpline
210
0.0
220
0.0
230
1.0
 70
     8
 71
     3
 72
    10
 73
     6
 74
     0
 42
0.000000001
 43
0.00000001
 40
0.0
 40
0.0
 40
0.0
 40
0.0
 40
0.0260732520462529
 40
0.9913216890064731
 40
1.0
 40
1.0
 40
1.0
 40
1.0
 10
61.87601669338947
 20
148.946516484658
 30
0.0
 10
61.87954625789015
 20
148.9497480137276
 30
0.0
 10
62.0137425536215
 20
149.0726128120918
 30
0.0
 10
62.11748720572257
 20
149.218069567159
 30
0.0
 10
62.17920460111367
 20
149.3700406625003
 30
0.0
 10
62.17975454262831
 20
149.3713948222769
 30
0.0
  0
LINE
  5
37F
330
1F
100
AcDbEntity
  8
0
  6
Continuous
 62
     7
370
    30
100
AcDbLine
 10
54.4090129836
 20
150.247421987
 30
0.0
 11
54.4290103461
 21
149.9033590462
 31
0.0
  0
SPLINE
  5
380
330
1F
100
AcDbEntity
  8
0
  6
Continuous
 62
     7
370
    30
100
AcDbSpline
210
0.0
220
0.0
230
1.0
 70
     8
 71
     3
 72
    27
 73
    23
 74
     0
 42
0.000000001
 43
0.00000001
 40
0.0
 40
0.0
 40
0.0
 40
0.0
 40
0.0376592853942103
 40
0.0868121910753482
 40
0.1364806996310854
 40
0.1878011936626176
 40
0.240945346467952
 40
0.2952595212904403
 40
0.3499208694569299
 40
0.4044648837851564
 40
0.4588479702418434
 40
0.513141244391226
 40
0.5674552873475157
 40
0.6218844451592177
 40
0.6765498700104817
 40
0.7315752554235814
 40
0.7870293546504861
 40
0.8427368206797292
 40
0.8978441147142926
 40
0.9457711278767363
 40
0.9968778071025234
 40
1.0
 40
1.0
 40
1.0
 40
1.0
 10
101.5192311087145
 20
154.9020364393087
 30
0.0
 10
101.5180704287218
 20
155.0116631927894
 30
0.0
 10
101.5153948290058
 20
155.2643748034988
 30
0.0
 10
101.3814236381523
 20
155.6476584515056
 30
0.0
 10
101.1494369140552
 20
156.0360420513832
 30
0.0
 10
100.8181508093353
 20
156.3918847132028
 30
0.0
 10
100.3953874852787
 20
156.7095110037566
 30
0.0
 10
99.88847955905845
 20
156.9796505467512
 30
0.0
 10
99.31350102314097
 20
157.1932089697696
 30
0.0
 10
98.68916841123132
 20
157.3440269166029
 30
0.0
 10
98.03408561892095
 20
157.4288246783527
 30
0.0
 10
97.36588324976724
 20
157.4461318411292
 30
0.0
 10
96.70205888385532
 20
157.3956910217659
 30
0.0
 10
96.05977615290118
 20
157.278321608122
 30
0.0
 10
95.45549896958472
 20
157.0957264685255
 30
0.0
 10
94.90493035842759
 20
156.8501278289816
 30
0.0
 10
94.42312745431742
 20
156.5441211373619
 30
0.0
 10
94.02818739329908
 20
156.1821706721866
 30
0.0
 10
93.74261451837323
 20
155.7860110695329
 30
0.0
 10
93.57872321803085
 20
155.3633595239668
 30
0.0
 10
93.511557597775
 20
155.0650014504013
 30
0.0
 10
93.53191732112629
 20
154.9087147078857
 30
0.0
 10
93.53308951927744
 20
154.8997165978689
 30
0.0
  0
LINE
  5
381
330
1F
100
AcDbEntity
  8
0
  6
Continuous
 62
     7
370
    30
100
AcDbLine
 10
101.529725674
 20
149.0372751931
 30
0.0
 11
101.529725674
 21
154.9163693179
 31
0.0
  0
LINE
  5
382
330
1F
100
AcDbEntity
  8
0
  6
Continuous
 62
     7
370
    30
100
AcDbLine
 10
93.5297263325
 20
154.9163696981
 30
0.0
 11
93.5297263325
 21
149.0372755733
 31
0.0
  0
SPLINE
  5
383
330
1F
100
AcDbEntity
  8
0
  6
Continuous
 62
     7
370
    30
100
AcDbSpline
210
0.0
220
0.0
230
1.0
 70
     8
 71
     3
 72
    15
 73
    11
 74
     0
 42
0.000000001
 43
0.00000001
 40
0.0
 40
0.0
 40
0.0
 40
0.0
 40
0.0473349762203389
 40
0.1837963634872595
 40
0.3201094169253966
 40
0.4563694996864749
 40
0.592682685654643
 40
0.7291332981607954
 40
0.8658430716707974
 40
1.0
 40
1.0
 40
1.0
 40
1.0
 10
95.78798411019173
 20
146.887590426588
 30
0.0
 10
95.85583806950767
 20
146.8658407132958
 30
0.0
 10
96.11930732556964
 20
146.7813890344487
 30
0.0
 10
96.62565108627419
 20
146.6961860441583
 30
0.0
 10
97.28516390515576
 20
146.6363284360676
 30
0.0
 10
97.95451188012157
 20
146.6461340995435
 30
0.0
 10
98.61175936901635
 20
146.7199259451046
 30
0.0
 10
99.23845748265781
 20
146.8585464840872
 30
0.0
 10
99.82013914033026
 20
147.0526328847143
 30
0.0
 10
100.1522387421819
 20
147.2266847717828
 30
0.0
 10
100.316723568782
 20
147.3128905194088
 30
0.0
  0
SPLINE
  5
384
330
1F
100
AcDbEntity
  8
0
  6
Continuous
 62
     7
370
    30
100
AcDbSpline
210
0.0
220
0.0
230
1.0
 70
     8
 71
     3
 72
    15
 73
    11
 74
     0
 42
0.000000001
 43
0.00000001
 40
0.0
 40
0.0
 40
0.0
 40
0.0
 40
0.0275979423746895
 40
0.1702568251611366
 40
0.3126760077297004
 40
0.457011168121067
 40
0.6040348508870396
 40
0.7528642545584948
 40
0.9023530319899206
 40
1.0
 40
1.0
 40
1.0
 40
1.0
 10
93.5392969598097
 20
149.0836877308606
 30
0.0
 10
93.53569519733362
 20
149.0577758978808
 30
0.0
 10
93.51347525659187
 20
148.897920994303
 30
0.0
 10
93.5822555378991
 20
148.6021384187972
 30
0.0
 10
93.74695215798766
 20
148.2154976715948
 30
0.0
 10
94.02360521907674
 20
147.853902561791
 30
0.0
 10
94.39393075646885
 20
147.5239801820661
 30
0.0
 10
94.8558415243654
 20
147.2372154979465
 30
0.0
 10
95.32461953195292
 20
147.0197280130296
 30
0.0
 10
95.65675320915457
 20
146.9250135170528
 30
0.0
 10
95.78798411019173
 20
146.887590426588
 30
0.0
  0
SPLINE
  5
385
330
1F
100
AcDbEntity
  8
0
  6
Continuous
 62
     7
370
    30
100
AcDbSpline
210
0.0
220
0.0
230
1.0
 70
     8
 71
     3
 72
    12
 73
     8
 74
     0
 42
0.000000001
 43
0.00000001
 40
0.0
 40
0.0
 40
0.0
 40
0.0
 40
0.1226162468528866
 40
0.3556438805853565
 40
0.5886444750324359
 40
0.8192705604182802
 40
1.0
 40
1.0
 40
1.0
 40
1.0
 10
100.316723568782
 20
147.3128905194088
 30
0.0
 10
100.3993107898959
 20
147.3632246615325
 30
0.0
 10
100.6388519645571
 20
147.5092169756855
 30
0.0
 10
100.973083261392
 20
147.7876467699832
 30
0.0
 10
101.273006341583
 20
148.1555609081644
 30
0.0
 10
101.4636602082792
 20
148.5262662746838
 30
0.0
 10
101.4976474724663
 20
148.7758765792184
 30
0.0
 10
101.5125798091839
 20
148.8855431029777
 30
0.0
  0
LINE
  5
386
330
1F
100
AcDbEntity
  8
0
  6
Continuous
 62
     7
370
    30
100
AcDbLine
 10
93.5297263325
 20
148.0574267426
 30
0.0
 11
93.5297263325
 21
147.6491562697
 31
0.0
  0
LINE
  5
387
330
1F
100
AcDbEntity
  8
0
  6
Continuous
 62
     7
370
    30
100
AcDbLine
 10
101.529725674
 20
147.6491558896
 30
0.0
 11
101.529725674
 21
148.0574263624
 31
0.0
  0
SPLINE
  5
388
330
1F
100
AcDbEntity
  8
0
  6
Continuous
 62
     7
370
    30
100
AcDbSpline
210
0.0
220
0.0
230
1.0
 70
     8
 71
     3
 72
    10
 73
     6
 74
     0
 42
0.000000001
 43
0.00000001
 40
0.0
 40
0.0
 40
0.0
 40
0.0
 40
0.0260707070641551
 40
0.9913193614682899
 40
1.0
 40
1.0
 40
1.0
 40
1.0
 10
101.0059852267951
 20
146.3838783965417
 30
0.0
 10
101.0095143570769
 20
146.3871096715585
 30
0.0
 10
101.1437069268779
 20
146.5099765151199
 30
0.0
 10
101.2474209880343
 20
146.6554424279569
 30
0.0
 10
101.3091713772978
 20
146.8074015610161
 30
0.0
 10
101.3097217589449
 20
146.8087559738213
 30
0.0
  0
LINE
  5
389
330
1F
100
AcDbEntity
  8
0
  6
Continuous
 62
     7
370
    30
100
AcDbLine
 10
93.5389795414
 20
147.6847835188
 30
0.0
 11
93.5589769039
 21
147.340720578
 31
0.0
  0
SPLINE
  5
38A
330
1F
100
AcDbEntity
  8
0
  6
Continuous
 62
     7
370
    30
100
AcDbSpline
210
0.0
220
0.0
230
1.0
 70
     8
 71
     3
 72
    27
 73
    23
 74
     0
 42
0.000000001
 43
0.00000001
 40
0.0
 40
0.0
 40
0.0
 40
0.0
 40
0.0376590765705472
 40
0.086812174949692
 40
0.1364805652084679
 40
0.1878010856013985
 40
0.24094531764303
 40
0.2952594307356422
 40
0.349920761598069
 40
0.4044648724819995
 40
0.4588479600563474
 40
0.5131412213254894
 40
0.5674552420625305
 40
0.6218845708569825
 40
0.6765498407262944
 40
0.7315753833672729
 40
0.7870294837175454
 40
0.8427369446582516
 40
0.8978440972237924
 40
0.9457710931327009
 40
0.9968778551100885
 40
1.0
 40
1.0
 40
1.0
 40
1.0
 10
71.62765083050388
 20
151.0237692336185
 30
0.0
 10
71.62648874700767
 20
151.1333954525115
 30
0.0
 10
71.62380989757841
 20
151.3861071852536
 30
0.0
 10
71.48984617081388
 20
151.7693908657025
 30
0.0
 10
71.25785122287124
 20
152.1577732687722
 30
0.0
 10
70.92657073591016
 20
152.5136176230272
 30
0.0
 10
70.5038023943274
 20
152.8312416059138
 30
0.0
 10
69.996899620816
 20
153.101384374047
 30
0.0
 10
69.42191981585884
 20
153.314942239896
 30
0.0
 10
68.7975863279948
 20
153.4657590624551
 30
0.0
 10
68.14250338098927
 20
153.5505572147542
 30
0.0
 10
67.47430108614623
 20
153.5678642376596
 30
0.0
 10
66.81047628508708
 20
153.5174230439672
 30
0.0
 10
66.16819356636633
 20
153.4000537238431
 30
0.0
 10
65.56391578385404
 20
153.2174583637291
 30
0.0
 10
65.01334670759981
 20
152.9718600908417
 30
0.0
 10
64.53154472878978
 20
152.6658523339152
 30
0.0
 10
64.13660389031483
 20
152.3039027877918
 30
0.0
 10
63.85103207441356
 20
151.9077430102815
 30
0.0
 10
63.68714207989862
 20
151.4850917138731
 30
0.0
 10
63.61997095855946
 20
151.1867340025809
 30
0.0
 10
63.64033492413567
 20
151.0304469483303
 30
0.0
 10
63.64150734775131
 20
151.0214489644878
 30
0.0
  0
LINE
  5
38B
330
1F
100
AcDbEntity
  8
0
  6
Continuous
 62
     7
370
    30
100
AcDbLine
 10
71.6381435025
 20
145.1590075597
 30
0.0
 11
71.6381435025
 21
151.0381016845
 31
0.0
  0
LINE
  5
38C
330
1F
100
AcDbEntity
  8
0
  6
Continuous
 62
     7
370
    30
100
AcDbLine
 10
63.6381435024
 20
151.0381016845
 30
0.0
 11
63.6381435024
 21
145.1590075597
 31
0.0
  0
SPLINE
  5
38D
330
1F
100
AcDbEntity
  8
0
  6
Continuous
 62
     7
370
    30
100
AcDbSpline
210
0.0
220
0.0
230
1.0
 70
     8
 71
     3
 72
    15
 73
    11
 74
     0
 42
0.000000001
 43
0.00000001
 40
0.0
 40
0.0
 40
0.0
 40
0.0
 40
0.0473349506823665
 40
0.1837963607313509
 40
0.3201096167867392
 40
0.4563696068394393
 40
0.5926826712180177
 40
0.7291336326865606
 40
0.86584305025388
 40
1.0
 40
1.0
 40
1.0
 40
1.0
 10
65.89640221648905
 20
143.0093226328229
 30
0.0
 10
65.96425596418892
 20
142.9875727418375
 30
0.0
 10
66.2277245367645
 20
142.9031203287306
 30
0.0
 10
66.73406952654467
 20
142.8179185449575
 30
0.0
 10
67.39358226149211
 20
142.7580611722642
 30
0.0
 10
68.06293029037955
 20
142.767865808614
 30
0.0
 10
68.72017774443623
 20
142.8416586340238
 30
0.0
 10
69.34687510031219
 20
142.9802796874037
 30
0.0
 10
69.92855714867746
 20
143.1743656167064
 30
0.0
 10
70.26065647681992
 20
143.3484171790208
 30
0.0
 10
70.42514139725589
 20
143.4346228860277
 30
0.0
  0
SPLINE
  5
38E
330
1F
100
AcDbEntity
  8
0
  6
Continuous
 62
     7
370
    30
100
AcDbSpline
210
0.0
220
0.0
230
1.0
 70
     8
 71
     3
 72
    15
 73
    11
 74
     0
 42
0.000000001
 43
0.00000001
 40
0.0
 40
0.0
 40
0.0
 40
0.0
 40
0.0275976390972788
 40
0.1702567156310466
 40
0.3126758126915795
 40
0.4570110360451459
 40
0.6040346419916744
 40
0.7528641366280583
 40
0.9023527950056521
 40
1.0
 40
1.0
 40
1.0
 40
1.0
 10
63.6477144590113
 20
145.205419527225
 30
0.0
 10
63.64411319055055
 20
145.1795079438561
 30
0.0
 10
63.62189606762664
 20
145.019652926344
 30
0.0
 10
63.69067226287001
 20
144.7238708943569
 30
0.0
 10
63.85537149924492
 20
144.3372302290017
 30
0.0
 10
64.1320233872524
 20
143.9756352381274
 30
0.0
 10
64.50235016627137
 20
143.6457133705226
 30
0.0
 10
64.96426038691851
 20
143.3589488341231
 30
0.0
 10
65.43303808065052
 20
143.1414611159152
 30
0.0
 10
65.76517125734235
 20
143.0467460295323
 30
0.0
 10
65.89640221648905
 20
143.0093226328229
 30
0.0
  0
SPLINE
  5
38F
330
1F
100
AcDbEntity
  8
0
  6
Continuous
 62
     7
370
    30
100
AcDbSpline
210
0.0
220
0.0
230
1.0
 70
     8
 71
     3
 72
    12
 73
     8
 74
     0
 42
0.000000001
 43
0.00000001
 40
0.0
 40
0.0
 40
0.0
 40
0.0
 40
0.1226156051437584
 40
0.3556438166491427
 40
0.5886450499963143
 40
0.8192699783803967
 40
1.0
 40
1.0
 40
1.0
 40
1.0
 10
70.42514139725589
 20
143.4346228860277
 30
0.0
 10
70.50772799272629
 20
143.4849568803647
 30
0.0
 10
70.74726856329816
 20
143.6309495036708
 30
0.0
 10
71.08150182821782
 20
143.9093787366063
 30
0.0
 10
71.38142584708417
 20
144.2772926897893
 30
0.0
 10
71.57207670943392
 20
144.647998834126
 30
0.0
 10
71.60606496225576
 20
144.897608586794
 30
0.0
 10
71.62099780229391
 20
145.0072753745541
 30
0.0
  0
LINE
  5
390
330
1F
100
AcDbEntity
  8
0
  6
Continuous
 62
     7
370
    30
100
AcDbLine
 10
63.6381435024
 20
144.179158729
 30
0.0
 11
63.6381435024
 21
143.7708882562
 31
0.0
  0
LINE
  5
391
330
1F
100
AcDbEntity
  8
0
  6
Continuous
 62
     7
370
    30
100
AcDbLine
 10
71.6381435025
 20
143.7708882562
 30
0.0
 11
71.6381435025
 21
144.179158729
 31
0.0
  0
SPLINE
  5
392
330
1F
100
AcDbEntity
  8
0
  6
Continuous
 62
     7
370
    30
100
AcDbSpline
210
0.0
220
0.0
230
1.0
 70
     8
 71
     3
 72
    10
 73
     6
 74
     0
 42
0.000000001
 43
0.00000001
 40
0.0
 40
0.0
 40
0.0
 40
0.0
 40
0.0260732535661292
 40
0.9913215287795335
 40
1.0
 40
1.0
 40
1.0
 40
1.0
 10
71.11440124427156
 20
142.5056102879485
 30
0.0
 10
71.11793080700485
 20
142.508841817214
 30
0.0
 10
71.25212700602539
 20
142.6317065960046
 30
0.0
 10
71.35587932308572
 20
142.7771624884949
 30
0.0
 10
71.41758937194105
 20
142.9291343390153
 30
0.0
 10
71.41813925814652
 20
142.930488530525
 30
0.0
  0
LINE
  5
393
330
1F
100
AcDbEntity
  8
0
  6
Continuous
 62
     7
370
    30
100
AcDbLine
 10
63.6473980284
 20
143.8065162655
 30
0.0
 11
63.6673950616
 21
143.4624535148
 31
0.0
  0
LINE
  5
394
330
1F
100
AcDbEntity
  8
0
  6
Continuous
 62
     7
370
    30
100
AcDbLine
 10
46.3950992552
 20
162.7801158198
 30
0.0
 11
46.3950992552
 21
157.0643299601
 31
0.0
  0
LINE
  5
395
330
1F
100
AcDbEntity
  8
0
  6
Continuous
 62
     7
370
    30
100
AcDbLine
 10
46.3950992552
 20
162.7801158198
 30
0.0
 11
46.8193626032
 21
162.5351938023
 31
0.0
  0
LINE
  5
396
330
1F
100
AcDbEntity
  8
0
  6
Continuous
 62
     7
370
    30
100
AcDbLine
 10
46.8193626032
 20
162.5351938023
 30
0.0
 11
46.8193626032
 21
156.8194079426
 31
0.0
  0
LINE
  5
397
330
1F
100
AcDbEntity
  8
0
  6
Continuous
 62
     7
370
    30
100
AcDbLine
 10
46.3950992552
 20
157.0643299601
 30
0.0
 11
46.8193626032
 21
156.8194079426
 31
0.0
  0
LINE
  5
398
330
1F
100
AcDbEntity
  8
0
  6
Continuous
 62
     7
370
    30
100
AcDbLine
 10
46.8193626032
 20
162.5351938023
 30
0.0
 11
47.2436259512
 21
162.7801158198
 31
0.0
  0
LINE
  5
399
330
1F
100
AcDbEntity
  8
0
  6
Continuous
 62
     7
370
    30
100
AcDbLine
 10
47.2436259512
 20
162.7801158198
 30
0.0
 11
47.2436259512
 21
157.0643299601
 31
0.0
  0
LINE
  5
39A
330
1F
100
AcDbEntity
  8
0
  6
Continuous
 62
     7
370
    30
100
AcDbLine
 10
46.8193626032
 20
156.8194079426
 30
0.0
 11
47.2436259512
 21
157.0643299601
 31
0.0
  0
LINE
  5
39B
330
1F
100
AcDbEntity
  8
0
  6
Continuous
 62
     7
370
    30
100
AcDbLine
 10
47.2436259512
 20
162.7801158198
 30
0.0
 11
46.8193626032
 21
163.0250378372
 31
0.0
  0
LINE
  5
39C
330
1F
100
AcDbEntity
  8
0
  6
Continuous
 62
     7
370
    30
100
AcDbLine
 10
46.8193626032
 20
163.0250378372
 30
0.0
 11
46.3950992552
 21
162.7801158198
 31
0.0
  0
LINE
  5
39D
330
1F
100
AcDbEntity
  8
0
  6
Continuous
 62
     7
370
    30
100
AcDbLine
 10
45.4051474919
 20
156.819408703
 30
0.0
 11
46.8193626032
 21
156.002999697
 31
0.0
  0
LINE
  5
39E
330
1F
100
AcDbEntity
  8
0
  6
Continuous
 62
     7
370
    30
100
AcDbLine
 10
46.8193626032
 20
156.002999697
 30
0.0
 11
46.8193626032
 21
153.961647808
 31
0.0
  0
LINE
  5
39F
330
1F
100
AcDbEntity
  8
0
  6
Continuous
 62
     7
370
    30
100
AcDbLine
 10
48.6578397453
 20
157.0643299601
 30
0.0
 11
47.2436246341
 21
157.8807389661
 31
0.0
  0
LINE
  5
3A0
330
1F
100
AcDbEntity
  8
0
  6
Continuous
 62
     7
370
    30
100
AcDbLine
 10
46.8193626032
 20
156.002999697
 30
0.0
 11
48.6578397453
 21
157.0643299601
 31
0.0
  0
LINE
  5
3A1
330
1F
100
AcDbEntity
  8
0
  6
Continuous
 62
     7
370
    30
100
AcDbLine
 10
46.3950979381
 20
157.8807389661
 30
0.0
 11
45.405148809
 21
157.3092534983
 31
0.0
  0
LINE
  5
3A2
330
1F
100
AcDbEntity
  8
0
  6
Continuous
 62
     7
370
    30
100
AcDbLine
 10
48.6578397453
 20
157.0643299601
 30
0.0
 11
48.6578397453
 21
155.0229780711
 31
0.0
  0
LINE
  5
3A3
330
1F
100
AcDbEntity
  8
0
  6
Continuous
 62
     7
370
    30
100
AcDbLine
 10
46.8193626032
 20
153.961647808
 30
0.0
 11
48.6578397453
 21
155.0229780711
 31
0.0
  0
LINE
  5
3A4
330
1F
100
AcDbEntity
  8
0
  6
Continuous
 62
     7
370
    30
100
AcDbLine
 10
39.8897160653
 20
158.5347940069
 30
0.0
 11
39.4654527173
 21
158.7797160244
 31
0.0
  0
LINE
  5
3A5
330
1F
100
AcDbEntity
  8
0
  6
Continuous
 62
     7
370
    30
100
AcDbLine
 10
39.4654520588
 20
158.2898716092
 30
0.0
 11
39.8897160653
 21
158.5347940069
 31
0.0
  0
LINE
  5
3A6
330
1F
100
AcDbEntity
  8
0
  6
Continuous
 62
     7
370
    30
100
AcDbLine
 10
39.0411887108
 20
158.5347936267
 30
0.0
 11
39.4654520588
 21
158.2898716092
 31
0.0
  0
LINE
  5
3A7
330
1F
100
AcDbEntity
  8
0
  6
Continuous
 62
     7
370
    30
100
AcDbLine
 10
39.4654527173
 20
158.7797160244
 30
0.0
 11
39.0411887108
 21
158.5347936267
 31
0.0
  0
LINE
  5
3A8
330
1F
100
AcDbEntity
  8
0
  6
Continuous
 62
     7
370
    30
100
AcDbLine
 10
39.4654520588
 20
158.2898716092
 30
0.0
 11
39.4654520588
 21
152.5740857496
 31
0.0
  0
LINE
  5
3A9
330
1F
100
AcDbEntity
  8
0
  6
Continuous
 62
     7
370
    30
100
AcDbLine
 10
39.8897160653
 20
158.5347940069
 30
0.0
 11
39.8897160653
 21
152.8190081473
 31
0.0
  0
LINE
  5
3AA
330
1F
100
AcDbEntity
  8
0
  6
Continuous
 62
     7
370
    30
100
AcDbLine
 10
39.4654520588
 20
152.5740857496
 30
0.0
 11
39.8897160653
 21
152.8190081473
 31
0.0
  0
LINE
  5
3AB
330
1F
100
AcDbEntity
  8
0
  6
Continuous
 62
     7
370
    30
100
AcDbLine
 10
39.0411887108
 20
158.5347936267
 30
0.0
 11
39.0411887108
 21
152.8190077671
 31
0.0
  0
LINE
  5
3AC
330
1F
100
AcDbEntity
  8
0
  6
Continuous
 62
     7
370
    30
100
AcDbLine
 10
39.0411887108
 20
152.8190077671
 30
0.0
 11
39.4654520588
 21
152.5740857496
 31
0.0
  0
LINE
  5
3AD
330
1F
100
AcDbEntity
  8
0
  6
Continuous
 62
     7
370
    30
100
AcDbLine
 10
41.3039298595
 20
152.8190081473
 30
0.0
 11
39.8897147483
 21
153.6354171532
 31
0.0
  0
LINE
  5
3AE
330
1F
100
AcDbEntity
  8
0
  6
Continuous
 62
     7
370
    30
100
AcDbLine
 10
39.4654520588
 20
151.757677504
 30
0.0
 11
41.3039298595
 21
152.8190081473
 31
0.0
  0
LINE
  5
3AF
330
1F
100
AcDbEntity
  8
0
  6
Continuous
 62
     7
370
    30
100
AcDbLine
 10
37.6269735995
 20
152.8190085274
 30
0.0
 11
39.4654520588
 21
151.757677504
 31
0.0
  0
LINE
  5
3B0
330
1F
100
AcDbEntity
  8
0
  6
Continuous
 62
     7
370
    30
100
AcDbLine
 10
39.0411873937
 20
153.6354167731
 30
0.0
 11
37.6269735995
 21
152.8190085274
 31
0.0
  0
LINE
  5
3B1
330
1F
100
AcDbEntity
  8
0
  6
Continuous
 62
     7
370
    30
100
AcDbLine
 10
37.6269735995
 20
152.8190085274
 30
0.0
 11
37.6269735995
 21
150.7776566384
 31
0.0
  0
LINE
  5
3B2
330
1F
100
AcDbEntity
  8
0
  6
Continuous
 62
     7
370
    30
100
AcDbLine
 10
39.4654520588
 20
151.757677504
 30
0.0
 11
39.4654520588
 21
149.7163256149
 31
0.0
  0
LINE
  5
3B3
330
1F
100
AcDbEntity
  8
0
  6
Continuous
 62
     7
370
    30
100
AcDbLine
 10
37.6269735995
 20
150.7776566384
 30
0.0
 11
39.4654520588
 21
149.7163256149
 31
0.0
  0
LINE
  5
3B4
330
1F
100
AcDbEntity
  8
0
  6
Continuous
 62
     7
370
    30
100
AcDbLine
 10
41.3039298595
 20
152.8190081473
 30
0.0
 11
41.3039298595
 21
150.7776562582
 31
0.0
  0
LINE
  5
3B5
330
1F
100
AcDbEntity
  8
0
  6
Continuous
 62
     7
370
    30
100
AcDbLine
 10
39.4654520588
 20
149.7163256149
 30
0.0
 11
41.3039298595
 21
150.7776562582
 31
0.0
  0
LINE
  5
3B6
330
1F
100
AcDbEntity
  8
0
  6
Continuous
 62
     7
370
    30
100
AcDbLine
 10
44.5566214544
 20
161.7187851765
 30
0.0
 11
44.5566214544
 21
156.0029993168
 31
0.0
  0
LINE
  5
3B7
330
1F
100
AcDbEntity
  8
0
  6
Continuous
 62
     7
370
    30
100
AcDbLine
 10
44.5566214544
 20
161.7187851765
 30
0.0
 11
44.9808848024
 21
161.473863159
 31
0.0
  0
LINE
  5
3B8
330
1F
100
AcDbEntity
  8
0
  6
Continuous
 62
     7
370
    30
100
AcDbLine
 10
44.9808848024
 20
161.473863159
 30
0.0
 11
44.9808848024
 21
155.7580772993
 31
0.0
  0
LINE
  5
3B9
330
1F
100
AcDbEntity
  8
0
  6
Continuous
 62
     7
370
    30
100
AcDbLine
 10
44.5566214544
 20
156.0029993168
 30
0.0
 11
44.9808848024
 21
155.7580772993
 31
0.0
  0
LINE
  5
3BA
330
1F
100
AcDbEntity
  8
0
  6
Continuous
 62
     7
370
    30
100
AcDbLine
 10
44.9808848024
 20
161.473863159
 30
0.0
 11
45.405148809
 21
161.7187855566
 31
0.0
  0
LINE
  5
3BB
330
1F
100
AcDbEntity
  8
0
  6
Continuous
 62
     7
370
    30
100
AcDbLine
 10
45.405148809
 20
161.7187855566
 30
0.0
 11
45.405148809
 21
156.002999697
 31
0.0
  0
LINE
  5
3BC
330
1F
100
AcDbEntity
  8
0
  6
Continuous
 62
     7
370
    30
100
AcDbLine
 10
44.9808848024
 20
155.7580772993
 30
0.0
 11
45.405148809
 21
156.002999697
 31
0.0
  0
LINE
  5
3BD
330
1F
100
AcDbEntity
  8
0
  6
Continuous
 62
     7
370
    30
100
AcDbLine
 10
45.405148809
 20
161.7187855566
 30
0.0
 11
44.980885461
 21
161.9637075741
 31
0.0
  0
LINE
  5
3BE
330
1F
100
AcDbEntity
  8
0
  6
Continuous
 62
     7
370
    30
100
AcDbLine
 10
44.980885461
 20
161.9637075741
 30
0.0
 11
44.5566214544
 21
161.7187851765
 31
0.0
  0
LINE
  5
3BF
330
1F
100
AcDbEntity
  8
0
  6
Continuous
 62
     7
370
    30
100
AcDbLine
 10
44.9808848024
 20
154.9416690537
 30
0.0
 11
46.8193626032
 21
156.002999697
 31
0.0
  0
LINE
  5
3C0
330
1F
100
AcDbEntity
  8
0
  6
Continuous
 62
     7
370
    30
100
AcDbLine
 10
43.5666696912
 20
155.7580780597
 30
0.0
 11
44.9808848024
 21
154.9416690537
 31
0.0
  0
LINE
  5
3C1
330
1F
100
AcDbEntity
  8
0
  6
Continuous
 62
     7
370
    30
100
AcDbLine
 10
44.5566194788
 20
156.8194079426
 30
0.0
 11
43.5666703497
 21
156.2479224748
 31
0.0
  0
LINE
  5
3C2
330
1F
100
AcDbEntity
  8
0
  6
Continuous
 62
     7
370
    30
100
AcDbLine
 10
44.9808848024
 20
154.9416690537
 30
0.0
 11
44.9808848024
 21
152.9003171647
 31
0.0
  0
LINE
  5
3C3
330
1F
100
AcDbEntity
  8
0
  6
Continuous
 62
     7
370
    30
100
AcDbLine
 10
44.9808848024
 20
152.9003171647
 30
0.0
 11
46.8193626032
 21
153.961647808
 31
0.0
  0
LINE
  5
3C4
330
1F
100
AcDbEntity
  8
0
  6
Continuous
 62
     7
370
    30
100
AcDbLine
 10
43.1424070017
 20
160.4125325157
 30
0.0
 11
43.1424070017
 21
154.696746656
 31
0.0
  0
LINE
  5
3C5
330
1F
100
AcDbEntity
  8
0
  6
Continuous
 62
     7
370
    30
100
AcDbLine
 10
43.1424070017
 20
160.4125325157
 30
0.0
 11
43.5666710083
 21
160.6574549133
 31
0.0
  0
LINE
  5
3C6
330
1F
100
AcDbEntity
  8
0
  6
Continuous
 62
     7
370
    30
100
AcDbLine
 10
43.5666710083
 20
160.6574549133
 30
0.0
 11
43.5666710083
 21
154.9416690537
 31
0.0
  0
LINE
  5
3C7
330
1F
100
AcDbEntity
  8
0
  6
Continuous
 62
     7
370
    30
100
AcDbLine
 10
43.1424070017
 20
154.696746656
 30
0.0
 11
43.5666710083
 21
154.9416690537
 31
0.0
  0
LINE
  5
3C8
330
1F
100
AcDbEntity
  8
0
  6
Continuous
 62
     7
370
    30
100
AcDbLine
 10
42.7181436537
 20
160.6574545332
 30
0.0
 11
42.7181436537
 21
154.9416686735
 31
0.0
  0
LINE
  5
3C9
330
1F
100
AcDbEntity
  8
0
  6
Continuous
 62
     7
370
    30
100
AcDbLine
 10
42.7181436537
 20
160.6574545332
 30
0.0
 11
43.1424070017
 21
160.4125325157
 31
0.0
  0
LINE
  5
3CA
330
1F
100
AcDbEntity
  8
0
  6
Continuous
 62
     7
370
    30
100
AcDbLine
 10
42.7181436537
 20
154.9416686735
 30
0.0
 11
43.1424070017
 21
154.696746656
 31
0.0
  0
LINE
  5
3CB
330
1F
100
AcDbEntity
  8
0
  6
Continuous
 62
     7
370
    30
100
AcDbLine
 10
43.5666710083
 20
160.6574549133
 30
0.0
 11
43.1424076603
 21
160.9023769308
 31
0.0
  0
LINE
  5
3CC
330
1F
100
AcDbEntity
  8
0
  6
Continuous
 62
     7
370
    30
100
AcDbLine
 10
43.1424076603
 20
160.9023769308
 30
0.0
 11
42.7181436537
 21
160.6574545332
 31
0.0
  0
LINE
  5
3CD
330
1F
100
AcDbEntity
  8
0
  6
Continuous
 62
     7
370
    30
100
AcDbLine
 10
41.7281918904
 20
154.6967474164
 30
0.0
 11
43.1424070017
 21
153.8803384104
 31
0.0
  0
LINE
  5
3CE
330
1F
100
AcDbEntity
  8
0
  6
Continuous
 62
     7
370
    30
100
AcDbLine
 10
43.1424070017
 20
153.8803384104
 30
0.0
 11
43.1424070017
 21
151.8389865214
 31
0.0
  0
LINE
  5
3CF
330
1F
100
AcDbEntity
  8
0
  6
Continuous
 62
     7
370
    30
100
AcDbLine
 10
43.1424070017
 20
153.8803384104
 30
0.0
 11
44.9808848024
 21
154.9416690537
 31
0.0
  0
LINE
  5
3D0
330
1F
100
AcDbEntity
  8
0
  6
Continuous
 62
     7
370
    30
100
AcDbLine
 10
42.7181423366
 20
155.7580776795
 30
0.0
 11
41.7281932075
 21
155.1865922117
 31
0.0
  0
LINE
  5
3D1
330
1F
100
AcDbEntity
  8
0
  6
Continuous
 62
     7
370
    30
100
AcDbLine
 10
43.1424070017
 20
151.8389865214
 30
0.0
 11
44.9808848024
 21
152.9003171647
 31
0.0
  0
LINE
  5
3D2
330
1F
100
AcDbEntity
  8
0
  6
Continuous
 62
     7
370
    30
100
AcDbLine
 10
41.3039298595
 20
159.3512022525
 30
0.0
 11
41.3039298595
 21
153.6354163929
 31
0.0
  0
LINE
  5
3D3
330
1F
100
AcDbEntity
  8
0
  6
Continuous
 62
     7
370
    30
100
AcDbLine
 10
41.3039298595
 20
159.3512022525
 30
0.0
 11
41.7281938661
 21
159.5961246502
 31
0.0
  0
LINE
  5
3D4
330
1F
100
AcDbEntity
  8
0
  6
Continuous
 62
     7
370
    30
100
AcDbLine
 10
41.7281938661
 20
159.5961246502
 30
0.0
 11
41.7281938661
 21
153.8803387906
 31
0.0
  0
LINE
  5
3D5
330
1F
100
AcDbEntity
  8
0
  6
Continuous
 62
     7
370
    30
100
AcDbLine
 10
41.3039298595
 20
153.6354163929
 30
0.0
 11
41.7281938661
 21
153.8803387906
 31
0.0
  0
LINE
  5
3D6
330
1F
100
AcDbEntity
  8
0
  6
Continuous
 62
     7
370
    30
100
AcDbLine
 10
41.7281938661
 20
159.5961246502
 30
0.0
 11
41.3039305181
 21
159.8410466677
 31
0.0
  0
LINE
  5
3D7
330
1F
100
AcDbEntity
  8
0
  6
Continuous
 62
     7
370
    30
100
AcDbLine
 10
40.8796665115
 20
159.59612427
 30
0.0
 11
41.3039298595
 21
159.3512022525
 31
0.0
  0
LINE
  5
3D8
330
1F
100
AcDbEntity
  8
0
  6
Continuous
 62
     7
370
    30
100
AcDbLine
 10
41.3039305181
 20
159.8410466677
 30
0.0
 11
40.8796665115
 21
159.59612427
 31
0.0
  0
LINE
  5
3D9
330
1F
100
AcDbEntity
  8
0
  6
Continuous
 62
     7
370
    30
100
AcDbLine
 10
40.8796665115
 20
159.59612427
 30
0.0
 11
40.8796665115
 21
153.8803384104
 31
0.0
  0
LINE
  5
3DA
330
1F
100
AcDbEntity
  8
0
  6
Continuous
 62
     7
370
    30
100
AcDbLine
 10
40.8796665115
 20
153.8803384104
 30
0.0
 11
41.3039298595
 21
153.6354163929
 31
0.0
  0
LINE
  5
3DB
330
1F
100
AcDbEntity
  8
0
  6
Continuous
 62
     7
370
    30
100
AcDbLine
 10
41.3039298595
 20
152.8190081473
 30
0.0
 11
43.1424070017
 21
153.8803384104
 31
0.0
  0
LINE
  5
3DC
330
1F
100
AcDbEntity
  8
0
  6
Continuous
 62
     7
370
    30
100
AcDbLine
 10
40.8796645359
 20
154.6967470362
 30
0.0
 11
39.8897154068
 21
154.1252615684
 31
0.0
  0
LINE
  5
3DD
330
1F
100
AcDbEntity
  8
0
  6
Continuous
 62
     7
370
    30
100
AcDbLine
 10
41.3039298595
 20
150.7776562582
 30
0.0
 11
43.1424070017
 21
151.8389865214
 31
0.0
  0
LWPOLYLINE
  5
3DE
330
1F
100
AcDbEntity
  8
0
  6
Continuous
 62
     7
370
    30
100
AcDbPolyline
 90
        8
 70
   128
 43
0.0
 10
110.997483088
 20
143.7105045439
 10
110.8148765985
 20
143.7873018142
 10
110.480744286
 20
143.8171786737
 10
110.1111295955
 20
143.7315852343
 10
109.7259574495
 20
143.5351360162
 10
109.3459957076
 20
143.2384223189
 10
108.9917277383
 20
142.8574408386
 10
108.9651409794
 20
142.8239860079
  0
LINE
  5
3DF
330
1F
100
AcDbEntity
  8
0
  6
Continuous
 62
     7
370
    30
100
AcDbLine
 10
112.1206755274
 20
145.6148837846
 30
0.0
 11
108.1256600507
 21
143.3086104403
 31
0.0
  0
LINE
  5
3E0
330
1F
100
AcDbEntity
  8
0
  6
Continuous
 62
     7
370
    30
100
AcDbLine
 10
112.1206755274
 20
143.0620992132
 30
0.0
 11
112.1206755274
 21
145.6148837846
 31
0.0
  0
LINE
  5
3E1
330
1F
100
AcDbEntity
  8
0
  6
Continuous
 62
     7
370
    30
100
AcDbLine
 10
105.9687055161
 20
143.8596861202
 30
0.0
 11
103.1757721597
 21
145.4720122276
 31
0.0
  0
LINE
  5
3E2
330
1F
100
AcDbEntity
  8
0
  6
Continuous
 62
     7
370
    30
100
AcDbLine
 10
103.1757721597
 20
145.4720122276
 30
0.0
 11
103.1757721597
 21
142.247359072
 31
0.0
  0
LINE
  5
3E3
330
1F
100
AcDbEntity
  8
0
  6
Continuous
 62
     7
370
    30
100
AcDbLine
 10
112.1206755274
 20
145.6148837846
 30
0.0
 11
107.7719676493
 21
148.1253394061
 31
0.0
  0
LINE
  5
3E4
330
1F
100
AcDbEntity
  8
0
  6
Continuous
 62
     7
370
    30
100
AcDbLine
 10
103.7743917516
 20
145.8175879622
 30
0.0
 11
103.1757721597
 21
145.4720122276
 31
0.0
  0
LINE
  5
3E5
330
1F
100
AcDbEntity
  8
0
  6
Continuous
 62
     7
370
    30
100
AcDbLine
 10
103.7743917516
 20
145.8175879622
 30
0.0
 11
105.0118298093
 21
145.3889748118
 31
0.0
  0
LINE
  5
3E6
330
1F
100
AcDbEntity
  8
0
  6
Continuous
 62
     7
370
    30
100
AcDbLine
 10
105.0118298093
 20
145.3889748118
 30
0.0
 11
105.5775142733
 21
145.7155375018
 31
0.0
  0
LINE
  5
3E7
330
1F
100
AcDbEntity
  8
0
  6
Continuous
 62
     7
370
    30
100
AcDbLine
 10
105.5775142733
 20
145.7155375018
 30
0.0
 11
104.8350514387
 21
146.4298937663
 31
0.0
  0
LINE
  5
3E8
330
1F
100
AcDbEntity
  8
0
  6
Continuous
 62
     7
370
    30
100
AcDbLine
 10
106.1126857361
 20
147.1674563467
 30
0.0
 11
104.8350514387
 21
146.4298937663
 31
0.0
  0
LINE
  5
3E9
330
1F
100
AcDbEntity
  8
0
  6
Continuous
 62
     7
370
    30
100
AcDbLine
 10
106.1126857361
 20
147.1674563467
 30
0.0
 11
107.3501237938
 21
146.7388431963
 31
0.0
  0
LINE
  5
3EA
330
1F
100
AcDbEntity
  8
0
  6
Continuous
 62
     7
370
    30
100
AcDbLine
 10
107.3501237938
 20
146.7388431963
 30
0.0
 11
107.9158082578
 21
147.0654058862
 31
0.0
  0
LINE
  5
3EB
330
1F
100
AcDbEntity
  8
0
  6
Continuous
 62
     7
370
    30
100
AcDbLine
 10
107.9158082578
 20
147.0654058862
 30
0.0
 11
107.1733480574
 21
147.7797636714
 31
0.0
  0
LINE
  5
3EC
330
1F
100
AcDbEntity
  8
0
  6
Continuous
 62
     7
370
    30
100
AcDbLine
 10
107.7719676493
 20
148.1253394061
 30
0.0
 11
107.1733480574
 21
147.7797636714
 31
0.0
  0
LINE
  5
3ED
330
1F
100
AcDbEntity
  8
0
  6
Continuous
 62
     7
370
    30
100
AcDbLine
 10
104.8350514387
 20
145.4502038723
 30
0.0
 11
104.8350514387
 21
146.4298937663
 31
0.0
  0
LINE
  5
3EE
330
1F
100
AcDbEntity
  8
0
  6
Continuous
 62
     7
370
    30
100
AcDbLine
 10
107.1733480574
 20
146.8000737775
 30
0.0
 11
107.1733480574
 21
147.7797636714
 31
0.0
  0
LINE
  5
3EF
330
1F
100
AcDbEntity
  8
0
  6
Continuous
 62
     7
370
    30
100
AcDbLine
 10
62.9953902332
 20
170.5466851256
 30
0.0
 11
62.1468648543
 21
170.3017638684
 31
0.0
  0
LINE
  5
3F0
330
1F
100
AcDbEntity
  8
0
  6
Continuous
 62
     7
370
    30
100
AcDbLine
 10
62.1468648543
 20
170.3017638684
 30
0.0
 11
60.6612095177
 21
169.4441132982
 31
0.0
  0
LINE
  5
3F1
330
1F
100
AcDbEntity
  8
0
  6
Continuous
 62
     7
370
    30
100
AcDbLine
 10
49.3828551018
 20
175.954968715
 30
0.0
 11
60.6612095177
 21
169.4441132982
 31
0.0
  0
LINE
  5
3F2
330
1F
100
AcDbEntity
  8
0
  6
Continuous
 62
     7
370
    30
100
AcDbLine
 10
49.5242762178
 20
176.0366093875
 30
0.0
 11
49.3828551018
 21
175.954968715
 31
0.0
  0
LINE
  5
3F3
330
1F
100
AcDbEntity
  8
0
  6
Continuous
 62
     7
370
    30
100
AcDbLine
 10
49.5242762178
 20
176.0366093875
 30
0.0
 11
49.2060780482
 21
176.2203012808
 31
0.0
  0
LINE
  5
3F4
330
1F
100
AcDbEntity
  8
0
  6
Continuous
 62
     7
370
    30
100
AcDbLine
 10
56.5599892511
 20
180.465623854
 30
0.0
 11
49.2060780482
 21
176.2203012808
 31
0.0
  0
LINE
  5
3F5
330
1F
100
AcDbEntity
  8
0
  6
Continuous
 62
     7
370
    30
100
AcDbLine
 10
56.8781874207
 20
180.2819319607
 30
0.0
 11
56.5599892511
 21
180.465623854
 31
0.0
  0
LINE
  5
3F6
330
1F
100
AcDbEntity
  8
0
  6
Continuous
 62
     7
370
    30
100
AcDbLine
 10
56.8781874207
 20
180.2819319607
 30
0.0
 11
57.0196085367
 21
180.3635726332
 31
0.0
  0
LINE
  5
3F7
330
1F
100
AcDbEntity
  8
0
  6
Continuous
 62
     7
370
    30
100
AcDbLine
 10
57.0196085367
 20
180.3635726332
 30
0.0
 11
68.2979629526
 21
173.8527172164
 31
0.0
  0
LINE
  5
3F8
330
1F
100
AcDbEntity
  8
0
  6
Continuous
 62
     7
370
    30
100
AcDbLine
 10
66.812307616
 20
172.9950666462
 30
0.0
 11
68.2979629526
 21
173.8527172164
 31
0.0
  0
LINE
  5
3F9
330
1F
100
AcDbEntity
  8
0
  6
Continuous
 62
     7
370
    30
100
AcDbLine
 10
66.3880429509
 20
172.5052218509
 30
0.0
 11
66.812307616
 21
172.9950666462
 31
0.0
  0
LINE
  5
3FA
330
1F
100
AcDbEntity
  8
0
  6
Continuous
 62
     7
370
    30
100
AcDbLine
 10
62.9953902332
 20
170.5466851256
 30
0.0
 11
66.3880429509
 21
172.5052218509
 31
0.0
  0
LINE
  5
3FB
330
1F
100
AcDbEntity
  8
0
  6
Continuous
 62
     7
370
    30
100
AcDbLine
 10
60.4490765266
 20
169.0766889412
 30
0.0
 11
49.1707221107
 21
175.5875443581
 31
0.0
  0
ARC
  5
3FC
330
1F
100
AcDbEntity
  8
0
  6
Continuous
 62
     7
370
    30
100
AcDbCircle
 10
49.6312877484
 20
175.5665859372
 30
0.0
 40
0.4610422562529152
100
AcDbArc
 50
122.6053915897
 51
177.3945055664
  0
ARC
  5
3FD
330
1F
100
AcDbEntity
  8
0
  6
Continuous
 62
     7
370
    30
100
AcDbCircle
 10
60.9096421643
 20
169.0557305203
 30
0.0
 40
0.4610422562529068
100
AcDbArc
 50
122.6053915897
 51
177.3945055665
  0
LINE
  5
3FE
330
1F
100
AcDbEntity
  8
0
  6
Continuous
 62
     7
370
    30
100
AcDbLine
 10
60.6612095177
 20
160.6972482108
 30
0.0
 11
60.6612095177
 21
160.462164131
 31
0.0
  0
LINE
  5
3FF
330
1F
100
AcDbEntity
  8
0
  6
Continuous
 62
     7
370
    30
100
AcDbLine
 10
62.0761529792
 20
169.852672299
 30
0.0
 11
60.4490765266
 21
168.9133810563
 31
0.0
  0
LINE
  5
400
330
1F
100
AcDbEntity
  8
0
  6
Continuous
 62
     7
370
    30
100
AcDbLine
 10
60.4490765266
 20
168.9133810563
 30
0.0
 11
60.4490765266
 21
169.0766889412
 31
0.0
  0
LINE
  5
401
330
1F
100
AcDbEntity
  8
0
  6
Continuous
 62
     7
370
    30
100
AcDbLine
 10
62.1468648543
 20
169.8118523809
 30
0.0
 11
62.1468648543
 21
170.3017638684
 31
0.0
  0
LINE
  5
402
330
1F
100
AcDbEntity
  8
0
  6
Continuous
 62
     7
370
    30
100
AcDbLine
 10
66.812307616
 20
164.4213878568
 30
0.0
 11
66.812307616
 21
172.9950666462
 31
0.0
  0
ARC
  5
403
330
1F
100
AcDbEntity
  8
0
  6
Continuous
 62
     7
370
    30
100
AcDbCircle
 10
68.3807717259
 20
173.7511942483
 30
0.0
 40
0.1310122360733376
100
AcDbArc
 50
350.7853887922
 51
129.2029352631
  0
LINE
  5
404
330
1F
100
AcDbEntity
  8
0
  6
Continuous
 62
     7
370
    30
100
AcDbLine
 10
68.5100933095
 20
173.5669069919
 30
0.0
 11
68.5100933095
 21
173.7302148769
 31
0.0
  0
LINE
  5
405
330
1F
100
AcDbEntity
  8
0
  6
Continuous
 62
     7
370
    30
100
AcDbLine
 10
66.8830194911
 20
172.6276172699
 30
0.0
 11
68.5100933095
 21
173.5669069919
 31
0.0
  0
LINE
  5
406
330
1F
100
AcDbEntity
  8
0
  6
Continuous
 62
     7
370
    30
100
AcDbLine
 10
66.8830194911
 20
164.4622089533
 30
0.0
 11
66.8830194911
 21
172.6276172699
 31
0.0
  0
LINE
  5
407
330
1F
100
AcDbEntity
  8
0
  6
Continuous
 62
     7
370
    30
100
AcDbLine
 10
68.2979629526
 20
165.0341160485
 30
0.0
 11
68.2979629526
 21
164.8707680491
 31
0.0
  0
LINE
  5
408
330
1F
100
AcDbEntity
  8
0
  6
Continuous
 62
     7
370
    30
100
AcDbLine
 10
60.6612095177
 20
160.462164131
 30
0.0
 11
68.2979629526
 21
164.8707680491
 31
0.0
  0
LINE
  5
409
330
1F
100
AcDbEntity
  8
0
  6
Continuous
 62
     7
370
    30
100
AcDbLine
 10
62.2882846532
 20
169.7302112902
 30
0.0
 11
62.0761529792
 21
169.852672299
 31
0.0
  0
LINE
  5
40A
330
1F
100
AcDbEntity
  8
0
  6
Continuous
 62
     7
370
    30
100
AcDbLine
 10
60.8733411917
 20
168.9133818166
 30
0.0
 11
62.2882846532
 21
169.7302112902
 31
0.0
  0
ARC
  5
40B
330
1F
100
AcDbEntity
  8
0
  6
Continuous
 62
     7
370
    30
100
AcDbCircle
 10
60.6612081254
 20
169.322795734
 30
0.0
 40
0.461107572646905
100
AcDbArc
 50
242.6097975876
 51
297.3904077758
  0
LINE
  5
40C
330
1F
100
AcDbEntity
  8
0
  6
Continuous
 62
     7
370
    30
100
AcDbLine
 10
60.4490765266
 20
160.7479727397
 30
0.0
 11
60.4490765266
 21
168.9133810563
 31
0.0
  0
LINE
  5
40D
330
1F
100
AcDbEntity
  8
0
  6
Continuous
 62
     7
370
    30
100
AcDbLine
 10
60.8733411917
 20
168.9133818166
 30
0.0
 11
60.8733411917
 21
160.7479735
 31
0.0
  0
ARC
  5
40E
330
1F
100
AcDbEntity
  8
0
  6
Continuous
 62
     7
370
    30
100
AcDbCircle
 10
60.6612081254
 20
161.1573874174
 30
0.0
 40
0.4611075726468483
100
AcDbArc
 50
242.6097975876
 51
297.3904077758
  0
LINE
  5
40F
330
1F
100
AcDbEntity
  8
0
  6
Continuous
 62
     7
370
    30
100
AcDbLine
 10
56.4397811708
 20
162.6574897706
 30
0.0
 11
55.3791214837
 21
163.2697955747
 31
0.0
  0
LINE
  5
410
330
1F
100
AcDbEntity
  8
0
  6
Continuous
 62
     7
370
    30
100
AcDbLine
 10
55.3791214837
 20
165.1037419516
 30
0.0
 11
55.3791214837
 21
163.2697955747
 31
0.0
  0
LWPOLYLINE
  5
411
330
1F
100
AcDbEntity
  8
0
  6
Continuous
 62
     7
370
    30
100
AcDbPolyline
 90
        9
 70
   128
 43
0.0
 10
55.3791214837
 20
165.1037419516
 10
55.3656634682
 20
165.1896302195
 10
55.3273440803
 20
165.277977963
 10
55.2699927562
 20
165.3553371331
 10
55.2023444302
 20
165.4099282188
 10
55.13469347
 20
165.4334437485
 10
55.07734478
 20
165.4222994871
 10
55.039022758
 20
165.3781958877
 10
55.0255673766
 20
165.3078443932
  0
LINE
  5
412
330
1F
100
AcDbEntity
  8
0
  6
Continuous
 62
     7
370
    30
100
AcDbLine
 10
55.0255673766
 20
165.3078443932
 30
0.0
 11
55.0255673766
 21
163.8788979283
 31
0.0
  0
LINE
  5
413
330
1F
100
AcDbEntity
  8
0
  6
Continuous
 62
     7
370
    30
100
AcDbLine
 10
55.0255673766
 20
163.8788979283
 30
0.0
 11
50.4081588513
 21
166.5444711317
 31
0.0
  0
LINE
  5
414
330
1F
100
AcDbEntity
  8
0
  6
Continuous
 62
     7
370
    30
100
AcDbLine
 10
50.4081588513
 20
174.7915333907
 30
0.0
 11
50.4081588513
 21
166.5444711317
 31
0.0
  0
LINE
  5
415
330
1F
100
AcDbEntity
  8
0
  6
Continuous
 62
     7
370
    30
100
AcDbLine
 10
49.1707221107
 20
175.5058904156
 30
0.0
 11
50.4081588513
 21
174.7915333907
 31
0.0
  0
LINE
  5
416
330
1F
100
AcDbEntity
  8
0
  6
Continuous
 62
     7
370
    30
100
AcDbLine
 10
49.1707221107
 20
175.5058904156
 30
0.0
 11
49.1707221107
 21
175.5875443581
 31
0.0
  0
LINE
  5
417
330
1F
100
AcDbEntity
  8
0
  6
Continuous
 62
     7
370
    30
100
AcDbLine
 10
60.4490765266
 20
160.7479727397
 30
0.0
 11
56.7933352779
 21
162.8583872411
 31
0.0
  0
LINE
  5
418
330
1F
100
AcDbEntity
  8
0
  6
Continuous
 62
     7
370
    30
100
AcDbLine
 10
56.7933352779
 20
164.287333706
 30
0.0
 11
56.7933352779
 21
162.8583872411
 31
0.0
  0
LWPOLYLINE
  5
419
330
1F
100
AcDbEntity
  8
0
  6
Continuous
 62
     7
370
    30
100
AcDbPolyline
 90
        9
 70
   128
 43
0.0
 10
56.4397811708
 20
164.4914361476
 10
56.4532365522
 20
164.5617876421
 10
56.4915585742
 20
164.6058912415
 10
56.5489072642
 20
164.6170355029
 10
56.6165582244
 20
164.5935199731
 10
56.6842065504
 20
164.5389288875
 10
56.7415578745
 20
164.4615697174
 10
56.7798772624
 20
164.3732219739
 10
56.7933352779
 20
164.287333706
  0
LINE
  5
41A
330
1F
100
AcDbEntity
  8
0
  6
Continuous
 62
     7
370
    30
100
AcDbLine
 10
56.4397811708
 20
164.4914361476
 30
0.0
 11
56.4397811708
 21
162.6574897706
 31
0.0
  0
LINE
  5
41B
330
1F
100
AcDbEntity
  8
0
  6
Continuous
 62
     7
370
    30
100
AcDbLine
 10
62.2882846532
 20
161.5648029736
 30
0.0
 11
62.2882846532
 21
169.7302112902
 31
0.0
  0
LINE
  5
41C
330
1F
100
AcDbEntity
  8
0
  6
Continuous
 62
     7
370
    30
100
AcDbLine
 10
62.2882846532
 20
161.5648029736
 30
0.0
 11
60.8733411917
 21
160.7479735
 31
0.0
  0
LINE
  5
41D
330
1F
100
AcDbEntity
  8
0
  6
Continuous
 62
     7
370
    30
100
AcDbLine
 10
62.9953902332
 20
161.9730063361
 30
0.0
 11
62.9953902332
 21
170.5466851256
 31
0.0
  0
LINE
  5
41E
330
1F
100
AcDbEntity
  8
0
  6
Continuous
 62
     7
370
    30
100
AcDbLine
 10
62.2882846532
 20
161.7689054152
 30
0.0
 11
62.9953902332
 21
161.9730063361
 31
0.0
  0
LINE
  5
41F
330
1F
100
AcDbEntity
  8
0
  6
Continuous
 62
     7
370
    30
100
AcDbLine
 10
66.3880429509
 20
163.9315430614
 30
0.0
 11
66.3880429509
 21
172.5052218509
 31
0.0
  0
LINE
  5
420
330
1F
100
AcDbEntity
  8
0
  6
Continuous
 62
     7
370
    30
100
AcDbLine
 10
62.9953902332
 20
161.9730063361
 30
0.0
 11
66.3880429509
 21
163.9315430614
 31
0.0
  0
LINE
  5
421
330
1F
100
AcDbEntity
  8
0
  6
Continuous
 62
     7
370
    30
100
AcDbLine
 10
66.812307616
 20
164.4213878568
 30
0.0
 11
66.3880429509
 21
163.9315430614
 31
0.0
  0
LINE
  5
422
330
1F
100
AcDbEntity
  8
0
  6
Continuous
 62
     7
370
    30
100
AcDbLine
 10
60.6612095177
 20
160.462164131
 30
0.0
 11
56.6519141619
 21
162.776681074
 31
0.0
  0
LINE
  5
423
330
1F
100
AcDbEntity
  8
0
  6
Continuous
 62
     7
370
    30
100
AcDbLine
 10
56.6519141619
 20
162.776681074
 30
0.0
 11
56.6519141619
 21
164.5689863091
 31
0.0
  0
ARC
  5
424
330
1F
100
AcDbEntity
  8
0
  6
Continuous
 62
     7
370
    30
100
AcDbCircle
 10
68.4636160659
 20
173.4444461134
 30
0.0
 40
0.1309839720754909
100
AcDbArc
 50
290.7837360139
 51
69.2168802139
  0
LINE
  5
425
330
1F
100
AcDbEntity
  8
0
  6
Continuous
 62
     7
370
    30
100
AcDbLine
 10
68.5100946266
 20
173.3219857348
 30
0.0
 11
67.0951511651
 21
172.5051562612
 31
0.0
  0
LINE
  5
426
330
1F
100
AcDbEntity
  8
0
  6
Continuous
 62
     7
370
    30
100
AcDbLine
 10
67.0951511651
 20
172.5051562612
 30
0.0
 11
66.8830194911
 21
172.6276172699
 31
0.0
  0
LINE
  5
427
330
1F
100
AcDbEntity
  8
0
  6
Continuous
 62
     7
370
    30
100
AcDbLine
 10
68.5100946266
 20
173.3219857348
 30
0.0
 11
68.5100946266
 21
165.1565774182
 31
0.0
  0
LINE
  5
428
330
1F
100
AcDbEntity
  8
0
  6
Continuous
 62
     7
370
    30
100
AcDbLine
 10
67.0951511651
 20
164.3397479446
 30
0.0
 11
68.5100946266
 21
165.1565774182
 31
0.0
  0
LINE
  5
429
330
1F
100
AcDbEntity
  8
0
  6
Continuous
 62
     7
370
    30
100
AcDbLine
 10
67.0951511651
 20
164.3397479446
 30
0.0
 11
67.0951511651
 21
172.5051562612
 31
0.0
  0
LINE
  5
42A
330
1F
100
AcDbEntity
  8
0
  6
Continuous
 62
     7
370
    30
100
AcDbLine
 10
67.0951511651
 20
164.3397479446
 30
0.0
 11
66.8830194911
 21
164.4622089533
 31
0.0
  0
ARC
  5
42B
330
1F
100
AcDbEntity
  8
0
  6
Continuous
 62
     7
370
    30
100
AcDbCircle
 10
57.1074850158
 20
180.2409002604
 30
0.0
 40
0.1508999226536021
100
AcDbArc
 50
65.6943761739
 51
125.6159570215
  0
ARC
  5
42C
330
1F
100
AcDbEntity
  8
0
  6
Continuous
 62
     7
370
    30
100
AcDbCircle
 10
68.4478167933
 20
165.2940170899
 30
0.0
 40
0.1508913247412307
100
AcDbArc
 50
294.3766353326
 51
354.3032764163
  0
LINE
  5
42D
330
1F
100
AcDbEntity
  8
0
  6
Continuous
 62
     7
370
    30
100
AcDbLine
 10
50.4081588513
 20
174.7915333907
 30
0.0
 11
50.1960284944
 21
174.6690731423
 31
0.0
  0
LINE
  5
42E
330
1F
100
AcDbEntity
  8
0
  6
Continuous
 62
     7
370
    30
100
AcDbLine
 10
50.4081588513
 20
166.5444711317
 30
0.0
 11
50.1960284944
 21
166.4220108833
 31
0.0
  0
LINE
  5
42F
330
1F
100
AcDbEntity
  8
0
  6
Continuous
 62
     7
370
    30
100
AcDbLine
 10
50.1960284944
 20
174.6690731423
 30
0.0
 11
50.1960284944
 21
166.4220108833
 31
0.0
  0
LINE
  5
430
330
1F
100
AcDbEntity
  8
0
  6
Continuous
 62
     7
370
    30
100
AcDbLine
 10
50.1960284944
 20
166.4220108833
 30
0.0
 11
48.6403935842
 21
167.3200598014
 31
0.0
  0
LINE
  5
431
330
1F
100
AcDbEntity
  8
0
  6
Continuous
 62
     7
370
    30
100
AcDbLine
 10
48.6403935842
 20
175.5671220605
 30
0.0
 11
48.6403935842
 21
167.3200598014
 31
0.0
  0
LINE
  5
432
330
1F
100
AcDbEntity
  8
0
  6
Continuous
 62
     7
370
    30
100
AcDbLine
 10
48.6403935842
 20
175.5671220605
 30
0.0
 11
50.1960284944
 21
174.6690731423
 31
0.0
  0
LINE
  5
433
330
1F
100
AcDbEntity
  8
0
  6
Continuous
 62
     7
370
    30
100
AcDbLine
 10
49.8424770215
 20
173.974979175
 30
0.0
 11
49.1353688073
 21
174.3831840582
 31
0.0
  0
LINE
  5
434
330
1F
100
AcDbEntity
  8
0
  6
Continuous
 62
     7
370
    30
100
AcDbLine
 10
49.1353688073
 20
173.5666431124
 30
0.0
 11
49.1353688073
 21
174.3831840582
 31
0.0
  0
LINE
  5
435
330
1F
100
AcDbEntity
  8
0
  6
Continuous
 62
     7
370
    30
100
AcDbLine
 10
49.8424770215
 20
173.1584382293
 30
0.0
 11
49.1353688073
 21
173.5666431124
 31
0.0
  0
LINE
  5
436
330
1F
100
AcDbEntity
  8
0
  6
Continuous
 62
     7
370
    30
100
AcDbLine
 10
49.8424770215
 20
173.1584382293
 30
0.0
 11
49.8424770215
 21
173.974979175
 31
0.0
  0
LINE
  5
437
330
1F
100
AcDbEntity
  8
0
  6
Continuous
 62
     7
370
    30
100
AcDbLine
 10
49.8424770215
 20
168.5694789052
 30
0.0
 11
49.1353688073
 21
168.9776837883
 31
0.0
  0
LINE
  5
438
330
1F
100
AcDbEntity
  8
0
  6
Continuous
 62
     7
370
    30
100
AcDbLine
 10
49.1353688073
 20
168.9776837883
 30
0.0
 11
49.1353688073
 21
168.1611430327
 31
0.0
  0
LINE
  5
439
330
1F
100
AcDbEntity
  8
0
  6
Continuous
 62
     7
370
    30
100
AcDbLine
 10
49.8424770215
 20
167.7529381496
 30
0.0
 11
49.1353688073
 21
168.1611430327
 31
0.0
  0
LINE
  5
43A
330
1F
100
AcDbEntity
  8
0
  6
Continuous
 62
     7
370
    30
100
AcDbLine
 10
49.8424770215
 20
168.5694789052
 30
0.0
 11
49.8424770215
 21
167.7529381496
 31
0.0
  0
ARC
  5
43B
330
1F
100
AcDbEntity
  8
0
  6
Continuous
 62
     7
370
    30
100
AcDbCircle
 10
48.6868709021
 20
175.6895823089
 30
0.0
 40
0.1309834093192587
100
AcDbArc
 50
110.7832479593
 51
249.2167520407
  0
LINE
  5
43C
330
1F
100
AcDbEntity
  8
0
  6
Continuous
 62
     7
370
    30
100
AcDbLine
 10
48.9939476913
 20
176.0161449988
 30
0.0
 11
48.6403935842
 21
175.8120425573
 31
0.0
  0
LINE
  5
43D
330
1F
100
AcDbEntity
  8
0
  6
Continuous
 62
     7
370
    30
100
AcDbLine
 10
48.9939476913
 20
176.0161449988
 30
0.0
 11
49.2724119194
 21
175.8553910217
 31
0.0
  0
LINE
  5
43E
330
1F
100
AcDbEntity
  8
0
  6
Continuous
 62
     7
370
    30
100
AcDbLine
 10
55.2377003677
 20
165.3853945548
 30
0.0
 11
55.2377003677
 21
164.0013596974
 31
0.0
  0
LINE
  5
43F
330
1F
100
AcDbEntity
  8
0
  6
Continuous
 62
     7
370
    30
100
AcDbLine
 10
55.3791214837
 20
163.5114486471
 30
0.0
 11
50.2666824176
 21
166.4627968988
 31
0.0
  0
LINE
  5
440
330
1F
100
AcDbEntity
  8
0
  6
Continuous
 62
     7
370
    30
100
AcDbLine
 10
55.2377003677
 20
164.0013596974
 30
0.0
 11
55.0255673766
 21
163.8788979283
 31
0.0
  0
LINE
  5
441
330
1F
100
AcDbEntity
  8
0
  6
Continuous
 62
     7
370
    30
100
AcDbLine
 10
49.8424743873
 20
173.6074958634
 30
0.0
 11
49.3474991642
 21
173.8932389775
 31
0.0
  0
LINE
  5
442
330
1F
100
AcDbEntity
  8
0
  6
Continuous
 62
     7
370
    30
100
AcDbLine
 10
49.3474991642
 20
174.2607220232
 30
0.0
 11
49.3474991642
 21
173.8932389775
 31
0.0
  0
LINE
  5
443
330
1F
100
AcDbEntity
  8
0
  6
Continuous
 62
     7
370
    30
100
AcDbLine
 10
48.9939476913
 20
176.0977989413
 30
0.0
 11
48.9939476913
 21
176.0161449988
 31
0.0
  0
ARC
  5
444
330
1F
100
AcDbEntity
  8
0
  6
Continuous
 62
     7
370
    30
100
AcDbCircle
 10
49.123269921
 20
176.1187771938
 30
0.0
 40
0.1310126947003861
100
AcDbArc
 50
50.797592982
 51
189.2140829628
  0
ARC
  5
445
330
1F
100
AcDbEntity
  8
0
  6
Continuous
 62
     7
370
    30
100
AcDbCircle
 10
48.7026605155
 20
167.4574920226
 30
0.0
 40
0.1508800389915942
100
AcDbArc
 50
185.6954684506
 51
245.625967815
  0
LINE
  5
446
330
1F
100
AcDbEntity
  8
0
  6
Continuous
 62
     7
370
    30
100
AcDbLine
 10
49.3474991642
 20
173.8932389775
 30
0.0
 11
49.1353688073
 21
173.5666431124
 31
0.0
  0
ARC
  5
447
330
1F
100
AcDbEntity
  8
0
  6
Continuous
 62
     7
370
    30
100
AcDbCircle
 10
56.472112772
 20
180.3429514811
 30
0.0
 40
0.1508999226536767
100
AcDbArc
 50
54.3840429786
 51
114.305623826
  0
LINE
  5
448
330
1F
100
AcDbEntity
  8
0
  6
Continuous
 62
     7
370
    30
100
AcDbLine
 10
49.8424743873
 20
168.2019954035
 30
0.0
 11
49.3474991642
 21
168.4877385176
 31
0.0
  0
LINE
  5
449
330
1F
100
AcDbEntity
  8
0
  6
Continuous
 62
     7
370
    30
100
AcDbLine
 10
49.3474991642
 20
168.4877385176
 30
0.0
 11
49.3474991642
 21
168.8552217534
 31
0.0
  0
LINE
  5
44A
330
1F
100
AcDbEntity
  8
0
  6
Continuous
 62
     7
370
    30
100
AcDbLine
 10
49.1353688073
 20
168.1611430327
 30
0.0
 11
49.3474991642
 21
168.4877385176
 31
0.0
  0
ARC
  5
44B
330
1F
100
AcDbEntity
  8
0
  6
Continuous
 62
     7
370
    30
100
AcDbCircle
 10
56.9135435086
 20
180.0561541952
 30
0.0
 40
0.4611079449324244
100
AcDbArc
 50
62.6100163987
 51
117.3903943295
  0
LINE
  5
44C
330
1F
100
AcDbEntity
  8
0
  6
Continuous
 62
     7
370
    30
100
AcDbLine
 10
57.1256737151
 20
180.4655700136
 30
0.0
 11
58.6813086253
 21
179.5675210955
 31
0.0
  0
LINE
  5
44D
330
1F
100
AcDbEntity
  8
0
  6
Continuous
 62
     7
370
    30
100
AcDbLine
 10
58.6277900302
 20
179.5366254682
 30
0.0
 11
58.6813086253
 21
179.5675210955
 31
0.0
  0
LINE
  5
44E
330
1F
100
AcDbEntity
  8
0
  6
Continuous
 62
     7
370
    30
100
AcDbLine
 10
56.6307459073
 20
180.4247747686
 30
0.0
 11
56.7014103671
 21
180.465568493
 31
0.0
  0
LINE
  5
44F
330
1F
100
AcDbEntity
  8
0
  6
Continuous
 62
     7
370
    30
100
AcDbLine
 10
58.6813086253
 20
179.5675210955
 30
0.0
 11
58.6813086253
 21
179.5057312042
 31
0.0
  0
LINE
  5
450
330
1F
100
AcDbEntity
  8
0
  6
Continuous
 62
     7
370
    30
100
AcDbLine
 10
100.9165667364
 20
137.5877098732
 30
0.0
 11
105.7178224491
 21
134.8160039477
 31
0.0
  0
LINE
  5
451
330
1F
100
AcDbEntity
  8
0
  6
Continuous
 62
     7
370
    30
100
AcDbLine
 10
105.7178224491
 20
134.8160039477
 30
0.0
 11
99.9230825404
 21
131.4707718036
 31
0.0
  0
LINE
  5
452
330
1F
100
AcDbEntity
  8
0
  6
Continuous
 62
     7
370
    30
100
AcDbLine
 10
99.9230825404
 20
131.4707718036
 30
0.0
 11
92.2156172304
 21
135.9201968184
 31
0.0
  0
LINE
  5
453
330
1F
100
AcDbEntity
  8
0
  6
Continuous
 62
     7
370
    30
100
AcDbLine
 10
106.5698855291
 20
144.2067395232
 30
0.0
 11
92.2156172304
 21
135.9201968184
 31
0.0
  0
LINE
  5
454
330
1F
100
AcDbEntity
  8
0
  6
Continuous
 62
     7
370
    30
100
AcDbLine
 10
114.2773508391
 20
139.7573145085
 30
0.0
 11
106.5698855291
 21
144.2067395232
 31
0.0
  0
LINE
  5
455
330
1F
100
AcDbEntity
  8
0
  6
Continuous
 62
     7
370
    30
100
AcDbLine
 10
114.2773508391
 20
139.7573145085
 30
0.0
 11
108.6947426044
 21
136.5345433732
 31
0.0
  0
LINE
  5
456
330
1F
100
AcDbEntity
  8
0
  6
Continuous
 62
     7
370
    30
100
AcDbLine
 10
108.6947426044
 20
136.5345433732
 30
0.0
 11
103.8934868917
 21
139.3062492987
 31
0.0
  0
LINE
  5
457
330
1F
100
AcDbEntity
  8
0
  6
Continuous
 62
     7
370
    30
100
AcDbLine
 10
103.8934868917
 20
139.3062492987
 30
0.0
 11
100.9165667364
 21
137.5877098732
 31
0.0
  0
LINE
  5
458
330
1F
100
AcDbEntity
  8
0
  6
Continuous
 62
     7
370
    30
100
AcDbLine
 10
99.9230825404
 20
131.4707718036
 30
0.0
 11
99.9230825404
 21
124.2852124128
 31
0.0
  0
LINE
  5
459
330
1F
100
AcDbEntity
  8
0
  6
Continuous
 62
     7
370
    30
100
AcDbLine
 10
99.9230825404
 20
124.2852124128
 30
0.0
 11
92.2156172304
 21
128.7346374276
 31
0.0
  0
LINE
  5
45A
330
1F
100
AcDbEntity
  8
0
  6
Continuous
 62
     7
370
    30
100
AcDbLine
 10
92.2156172304
 20
135.9201968184
 30
0.0
 11
92.2156172304
 21
128.7346374276
 31
0.0
  0
LINE
  5
45B
330
1F
100
AcDbEntity
  8
0
  6
Continuous
 62
     7
370
    30
100
AcDbLine
 10
114.2773508391
 20
132.5717551176
 30
0.0
 11
114.2773508391
 21
139.7573145085
 31
0.0
  0
LINE
  5
45C
330
1F
100
AcDbEntity
  8
0
  6
Continuous
 62
     7
370
    30
100
AcDbLine
 10
99.9230825404
 20
124.2852124128
 30
0.0
 11
114.2773508391
 21
132.5717551176
 31
0.0
  0
LINE
  5
45D
330
1F
100
AcDbEntity
  8
0
  6
Continuous
 62
     7
370
    30
100
AcDbLine
 10
105.7178224491
 20
134.8160039477
 30
0.0
 11
105.7178224491
 21
134.1627708869
 31
0.0
  0
LINE
  5
45E
330
1F
100
AcDbEntity
  8
0
  6
Continuous
 62
     7
370
    30
100
AcDbLine
 10
105.7178224491
 20
134.1627708869
 30
0.0
 11
100.4887683215
 21
131.1441021932
 31
0.0
  0
LINE
  5
45F
330
1F
100
AcDbEntity
  8
0
  6
Continuous
 62
     7
370
    30
100
AcDbLine
 10
100.4887683215
 20
131.1441021932
 30
0.0
 11
100.4887683215
 21
125.2650084486
 31
0.0
  0
LINE
  5
460
330
1F
100
AcDbEntity
  8
0
  6
Continuous
 62
     7
370
    30
100
AcDbLine
 10
100.4887683215
 20
125.2650084486
 30
0.0
 11
113.7116637409
 21
132.8984234924
 31
0.0
  0
LINE
  5
461
330
1F
100
AcDbEntity
  8
0
  6
Continuous
 62
     7
370
    30
100
AcDbLine
 10
113.7116637409
 20
132.8984234924
 30
0.0
 11
113.7116637409
 21
138.777517237
 31
0.0
  0
LINE
  5
462
330
1F
100
AcDbEntity
  8
0
  6
Continuous
 62
     7
370
    30
100
AcDbLine
 10
113.7116637409
 20
138.777517237
 30
0.0
 11
108.6947426044
 21
135.8813103124
 31
0.0
  0
LINE
  5
463
330
1F
100
AcDbEntity
  8
0
  6
Continuous
 62
     7
370
    30
100
AcDbLine
 10
108.6947426044
 20
135.8813103124
 30
0.0
 11
108.6947426044
 21
136.5345433732
 31
0.0
  0
LWPOLYLINE
  5
464
330
1F
100
AcDbEntity
  8
0
  6
Continuous
 62
     7
370
    30
100
AcDbPolyline
 90
       17
 70
   128
 43
0.0
 10
103.6848889675
 20
131.4540363215
 10
103.6579755706
 20
131.5947377899
 10
103.5813354778
 20
131.6829468895
 10
103.4666341467
 20
131.7052331312
 10
103.3313348604
 20
131.6582043528
 10
103.1960355742
 20
131.5490199004
 10
103.0813355601
 20
131.3943030809
 10
103.0046941503
 20
131.2176064534
 10
102.9777820704
 20
131.0458321987
 10
103.0046941503
 20
130.90512997
 10
103.0813355601
 20
130.8169216308
 10
103.1960355742
 20
130.7946346287
 10
103.3313348604
 20
130.8416634071
 10
103.4666341467
 20
130.9508478595
 10
103.5813354778
 20
131.1055654393
 10
103.6579755706
 20
131.2822613065
 10
103.6848889675
 20
131.4540363215
  0
LINE
  5
465
330
1F
100
AcDbEntity
  8
0
  6
Continuous
 62
     7
370
    30
100
AcDbLine
 10
105.4358982282
 20
134.9787544089
 30
0.0
 11
106.0418355667
 21
135.3285545888
 31
0.0
  0
LINE
  5
466
330
1F
100
AcDbEntity
  8
0
  6
Continuous
 62
     7
370
    30
100
AcDbLine
 10
107.0422068211
 20
135.9060566215
 30
0.0
 11
107.7719663322
 21
136.32733782
 31
0.0
  0
LINE
  5
467
330
1F
100
AcDbEntity
  8
0
  6
Continuous
 62
     7
370
    30
100
AcDbLine
 10
107.7719663322
 20
136.32733782
 30
0.0
 11
113.7116637409
 21
132.8984234924
 31
0.0
  0
LINE
  5
468
330
1F
100
AcDbEntity
  8
0
  6
Continuous
 62
     7
370
    30
100
AcDbLine
 10
104.6003106147
 20
136.1610640149
 30
0.0
 11
104.6087083742
 21
136.1558806723
 31
0.0
  0
LWPOLYLINE
  5
469
330
1F
100
AcDbEntity
  8
0
  6
Continuous
 62
     7
370
    30
100
AcDbPolyline
 90
        4
 70
   128
 43
0.0
 10
102.7090827403
 20
137.421978301
 10
102.7359961372
 20
137.2812768326
 10
102.81263623
 20
137.193067733
 10
102.8126559863
 20
137.1930555638
  0
LWPOLYLINE
  5
46A
330
1F
100
AcDbEntity
  8
0
  6
Continuous
 62
     7
370
    30
100
AcDbPolyline
 90
        7
 70
   128
 43
0.0
 10
103.3126163913
 20
138.059105161
 10
103.1979348165
 20
138.0813792335
 10
103.0626368474
 20
138.0343512154
 10
102.9273375611
 20
137.925166763
 10
102.81263623
 20
137.7704491832
 10
102.7359961372
 20
137.593753316
 10
102.7090827403
 20
137.421978301
  0
LINE
  5
46B
330
1F
100
AcDbEntity
  8
0
  6
Continuous
 62
     7
370
    30
100
AcDbLine
 10
107.7719663322
 20
136.32733782
 30
0.0
 11
107.7719663322
 21
136.4037825917
 31
0.0
  0
LINE
  5
46C
330
1F
100
AcDbEntity
  8
0
  6
Continuous
 62
     7
370
    30
100
AcDbLine
 10
104.5662717661
 20
138.264624297
 30
0.0
 11
104.6087083742
 21
138.2298945376
 31
0.0
  0
LWPOLYLINE
  5
46D
330
1F
100
AcDbEntity
  8
0
  6
Continuous
 62
     7
370
    30
100
AcDbPolyline
 90
       17
 70
   128
 43
0.0
 10
103.6848889675
 20
129.3800224563
 10
103.6579755706
 20
129.5207239246
 10
103.5813354778
 20
129.6089330242
 10
103.4666341467
 20
129.631219266
 10
103.3313348604
 20
129.5841904875
 10
103.1960355742
 20
129.4750060352
 10
103.0813355601
 20
129.3202892157
 10
103.0046941503
 20
129.1435925881
 10
102.9777820704
 20
128.9718183334
 10
103.0046941503
 20
128.8311161048
 10
103.0813355601
 20
128.7429077655
 10
103.1960355742
 20
128.7206207634
 10
103.3313348604
 20
128.7676495418
 10
103.4666341467
 20
128.8768339942
 10
103.5813354778
 20
129.031551574
 10
103.6579755706
 20
129.2082474412
 10
103.6848889675
 20
129.3800224563
  0
LWPOLYLINE
  5
46E
330
1F
100
AcDbEntity
  8
0
  6
Continuous
 62
     7
370
    30
100
AcDbPolyline
 90
       17
 70
   128
 43
0.0
 10
105.4809400383
 20
132.490874535
 10
105.4540266414
 20
132.6315760033
 10
105.3773865486
 20
132.7197851029
 10
105.2626852175
 20
132.7420713447
 10
105.1273859312
 20
132.6950425663
 10
104.9920879621
 20
132.5858588742
 10
104.8773866309
 20
132.4311412944
 10
104.8007452211
 20
132.2544446669
 10
104.7738331412
 20
132.0826704122
 10
104.8007452211
 20
131.9419681835
 10
104.8773866309
 20
131.8537598442
 10
104.9920879621
 20
131.8314736024
 10
105.1273859312
 20
131.8785016205
 10
105.2626852175
 20
131.9876860729
 10
105.3773865486
 20
132.1424036528
 10
105.4540266414
 20
132.3190995199
 10
105.4809400383
 20
132.490874535
  0
LINE
  5
46F
330
1F
100
AcDbEntity
  8
0
  6
Continuous
 62
     7
370
    30
100
AcDbLine
 10
103.8934868917
 20
138.6530162379
 30
0.0
 11
103.8934868917
 21
139.3062492987
 31
0.0
  0
LINE
  5
470
330
1F
100
AcDbEntity
  8
0
  6
Continuous
 62
     7
370
    30
100
AcDbLine
 10
103.8934868917
 20
138.6530162379
 30
0.0
 11
108.6947426044
 21
135.8813103124
 31
0.0
  0
LWPOLYLINE
  5
471
330
1F
100
AcDbEntity
  8
0
  6
Continuous
 62
     7
370
    30
100
AcDbPolyline
 90
       17
 70
   128
 43
0.0
 10
105.4809400383
 20
130.4168606697
 10
105.4540266414
 20
130.5575621381
 10
105.3773865486
 20
130.6457712376
 10
105.2626852175
 20
130.6680574794
 10
105.1273859312
 20
130.621028701
 10
104.9920879621
 20
130.511845009
 10
104.8773866309
 20
130.3571274291
 10
104.8007452211
 20
130.1804308016
 10
104.7738331412
 20
130.0086565469
 10
104.8007452211
 20
129.8679543182
 10
104.8773866309
 20
129.779745979
 10
104.9920879621
 20
129.7574597372
 10
105.1273859312
 20
129.8044877553
 10
105.2626852175
 20
129.9136722077
 10
105.3773865486
 20
130.0683897875
 10
105.4540266414
 20
130.2450856547
 10
105.4809400383
 20
130.4168606697
  0
LWPOLYLINE
  5
472
330
1F
100
AcDbEntity
  8
0
  6
Continuous
 62
     7
370
    30
100
AcDbPolyline
 90
       17
 70
   128
 43
0.0
 10
107.2769911091
 20
133.5277127484
 10
107.2500777122
 20
133.6684142168
 10
107.1734376194
 20
133.7566233164
 10
107.0587362883
 20
133.7789095581
 10
106.923437002
 20
133.7318807797
 10
106.7881390329
 20
133.6226970877
 10
106.6734377017
 20
133.4679795078
 10
106.5967962919
 20
133.2912828803
 10
106.569884212
 20
133.1195086256
 10
106.5967962919
 20
132.9788063969
 10
106.6734377017
 20
132.8905980577
 10
106.7881390329
 20
132.8683118159
 10
106.923437002
 20
132.915339834
 10
107.0587362883
 20
133.0245242864
 10
107.1734376194
 20
133.1792418662
 10
107.2500777122
 20
133.3559377334
 10
107.2769911091
 20
133.5277127484
  0
LINE
  5
473
330
1F
100
AcDbEntity
  8
0
  6
Continuous
 62
     7
370
    30
100
AcDbLine
 10
101.4823447137
 20
137.2610934865
 30
0.0
 11
103.8934868917
 21
138.6530162379
 31
0.0
  0
LWPOLYLINE
  5
474
330
1F
100
AcDbEntity
  8
0
  6
Continuous
 62
     7
370
    30
100
AcDbPolyline
 90
       17
 70
   128
 43
0.0
 10
107.2769911091
 20
131.4536988832
 10
107.2500777122
 20
131.5944003515
 10
107.1734376194
 20
131.6826094511
 10
107.0587362883
 20
131.7048956929
 10
106.923437002
 20
131.6578669145
 10
106.7881390329
 20
131.5486832224
 10
106.6734377017
 20
131.3939656426
 10
106.5967962919
 20
131.217269015
 10
106.569884212
 20
131.0454947603
 10
106.5967962919
 20
130.9047925317
 10
106.6734377017
 20
130.8165841924
 10
106.7881390329
 20
130.7942979506
 10
106.923437002
 20
130.8413259687
 10
107.0587362883
 20
130.9505104211
 10
107.1734376194
 20
131.1052280009
 10
107.2500777122
 20
131.2819238681
 10
107.2769911091
 20
131.4536988832
  0
LWPOLYLINE
  5
475
330
1F
100
AcDbEntity
  8
0
  6
Continuous
 62
     7
370
    30
100
AcDbPolyline
 90
       17
 70
   128
 43
0.0
 10
109.0730421799
 20
134.5645509619
 10
109.0461301001
 20
134.7052531906
 10
108.9694886902
 20
134.7934615298
 10
108.8547873591
 20
134.8157477716
 10
108.7194893899
 20
134.7687197535
 10
108.5841901037
 20
134.6595353011
 10
108.4694887725
 20
134.5048177213
 10
108.3928486798
 20
134.3281218541
 10
108.3659352828
 20
134.1563468391
 10
108.3928486798
 20
134.0156453707
 10
108.4694887725
 20
133.9274362711
 10
108.5841901037
 20
133.9051500293
 10
108.7194893899
 20
133.9521788078
 10
108.8547873591
 20
134.0613624998
 10
108.9694886902
 20
134.2160800797
 10
109.0461301001
 20
134.3927767072
 10
109.0730421799
 20
134.5645509619
  0
LWPOLYLINE
  5
476
330
1F
100
AcDbEntity
  8
0
  6
Continuous
 62
     7
370
    30
100
AcDbPolyline
 90
       17
 70
   128
 43
0.0
 10
109.0730421799
 20
132.4905370966
 10
109.0461301001
 20
132.6312393253
 10
108.9694886902
 20
132.7194476645
 10
108.8547873591
 20
132.7417339063
 10
108.7194893899
 20
132.6947058882
 10
108.5841901037
 20
132.5855214359
 10
108.4694887725
 20
132.430803856
 10
108.3928486798
 20
132.2541079888
 10
108.3659352828
 20
132.0823329738
 10
108.3928486798
 20
131.9416315055
 10
108.4694887725
 20
131.8534224059
 10
108.5841901037
 20
131.8311361641
 10
108.7194893899
 20
131.8781649425
 10
108.8547873591
 20
131.9873486346
 10
108.9694886902
 20
132.1420662144
 10
109.0461301001
 20
132.3187628419
 10
109.0730421799
 20
132.4905370966
  0
LWPOLYLINE
  5
477
330
1F
100
AcDbEntity
  8
0
  6
Continuous
 62
     7
370
    30
100
AcDbPolyline
 90
       17
 70
   128
 43
0.0
 10
110.8690932507
 20
135.6013891753
 10
110.8421798538
 20
135.7420906437
 10
110.7655410781
 20
135.8303005036
 10
110.6508384299
 20
135.852585985
 10
110.5155391436
 20
135.8055572066
 10
110.3802398574
 20
135.6963727542
 10
110.2655398433
 20
135.5416559347
 10
110.1888984335
 20
135.3649593072
 10
110.1619876707
 20
135.1931858128
 10
110.1888984335
 20
135.0524828238
 10
110.2655398433
 20
134.9642744846
 10
110.3802398574
 20
134.9419874825
 10
110.5155391436
 20
134.9890162609
 10
110.6508384299
 20
135.0982007133
 10
110.7655410781
 20
135.2529190534
 10
110.8421798538
 20
135.4296141603
 10
110.8690932507
 20
135.6013891753
  0
LWPOLYLINE
  5
478
330
1F
100
AcDbEntity
  8
0
  6
Continuous
 62
     7
370
    30
100
AcDbPolyline
 90
       17
 70
   128
 43
0.0
 10
110.8690932507
 20
133.5273753101
 10
110.8421798538
 20
133.6680767784
 10
110.7655410781
 20
133.7562866383
 10
110.6508384299
 20
133.7785721198
 10
110.5155391436
 20
133.7315433414
 10
110.3802398574
 20
133.622358889
 10
110.2655398433
 20
133.4676420695
 10
110.1888984335
 20
133.290945442
 10
110.1619876707
 20
133.1191719476
 10
110.1888984335
 20
132.9784689586
 10
110.2655398433
 20
132.8902606193
 10
110.3802398574
 20
132.8679736172
 10
110.5155391436
 20
132.9150023956
 10
110.6508384299
 20
133.024186848
 10
110.7655410781
 20
133.1789051882
 10
110.8421798538
 20
133.355600295
 10
110.8690932507
 20
133.5273753101
  0
LWPOLYLINE
  5
479
330
1F
100
AcDbEntity
  8
0
  6
Continuous
 62
     7
370
    30
100
AcDbPolyline
 90
       34
 70
   128
 43
0.0
 10
60.8746325975
 20
156.4585645895
 10
61.2982815234
 20
156.7547688319
 10
61.6171691891
 20
157.0919051805
 10
61.8197730411
 20
157.4577888176
 10
61.898766772
 20
157.8391947816
 10
61.8512988838
 20
158.2223388813
 10
61.6790829095
 20
158.5933730569
 10
61.3883427533
 20
158.9388868239
 10
60.9895874682
 20
159.2463931299
 10
60.4972306181
 20
159.5047777151
 10
59.9290647584
 20
159.7047013318
 10
59.305624624
 20
159.8389384757
 10
58.6494456078
 20
159.9026366613
 10
57.9842418978
 20
159.8934958622
 10
57.3340556367
 20
159.8118445449
 10
56.7223876439
 20
159.6606351071
 10
56.1713426243
 20
159.4453305865
 10
55.7008402322
 20
159.1737153371
 10
55.3278827698
 20
158.8556045788
 10
55.065950643
 20
158.5024954023
 10
54.9245110877
 20
158.1271508632
 10
54.9086770436
 20
157.7431369354
 10
55.019017493
 20
157.3643328525
 10
55.2515495587
 20
157.004429284
 10
55.5978642861
 20
156.6764337346
 10
56.0454466951
 20
156.3922014147
 10
56.5781216156
 20
156.1620052687
 10
57.1766338648
 20
155.9941645491
 10
57.8193535483
 20
155.8947463833
 10
58.4830505085
 20
155.8673437547
 10
59.1437366032
 20
155.9129458649
 10
59.7775343257
 20
156.0299065791
 10
60.3615348881
 20
156.21399651
 10
60.8746325975
 20
156.4585645895
  0
LINE
  5
47A
330
1F
100
AcDbEntity
  8
0
  6
Continuous
 62
     7
370
    30
100
AcDbLine
 10
62.3925981032
 20
151.4618018284
 30
0.0
 11
62.3997591162
 21
151.5999136614
 31
0.0
  0
LWPOLYLINE
  5
47B
330
1F
100
AcDbEntity
  8
0
  6
Continuous
 62
     7
370
    30
100
AcDbPolyline
 90
       21
 70
   128
 43
0.0
 10
62.3248812886
 20
151.0647698022
 10
62.3987522017
 20
150.6718777725
 10
62.3505124994
 20
150.25883409
 10
62.175292245
 20
149.8574007886
 10
61.8787226528
 20
149.480479686
 10
61.4703381299
 20
149.1401867889
 10
60.963261493
 20
148.8474576772
 10
60.3737917184
 20
148.6117015501
 10
59.7208744733
 20
148.4404955687
 10
59.0254962539
 20
148.3393430689
 10
58.3100060852
 20
148.3114948816
 10
57.597401
 20
148.3578463061
 10
56.9105845178
 20
148.4769074576
 10
56.2716303918
 20
148.6648511683
 10
55.7010766497
 20
148.9156369225
 10
55.2172604633
 20
149.2212039831
 10
54.8357333611
 20
149.5717321878
 10
54.5687548078
 20
149.9559548288
 10
54.4249089309
 20
150.3615220949
 10
54.4088193715
 20
150.7753991093
 10
54.4739388866
 20
151.0627130844
  0
ARC
  5
47C
330
1F
100
AcDbEntity
  8
0
  6
Continuous
 62
     7
370
    30
100
AcDbCircle
 10
58.4067936364
 20
154.2644415883
 30
0.0
 40
5.701154920295616
100
AcDbArc
 50
240.171972336
 51
298.1031630481
  0
LINE
  5
47D
330
1F
100
AcDbEntity
  8
0
  6
Continuous
 62
     7
370
    30
100
AcDbLine
 10
62.3982536835
 20
150.1484512507
 30
0.0
 11
62.3997591162
 21
150.2117943578
 31
0.0
  0
LINE
  5
47E
330
1F
100
AcDbEntity
  8
0
  6
Continuous
 62
     7
370
    30
100
AcDbLine
 10
56.985545322
 20
147.7625900962
 30
0.0
 11
59.8139722518
 21
147.762589716
 31
0.0
  0
LINE
  5
47F
330
1F
100
AcDbEntity
  8
0
  6
Continuous
 62
     7
370
    30
100
AcDbLine
 10
53.9449860596
 20
149.5178675962
 30
0.0
 11
56.985545322
 21
147.7625900962
 31
0.0
  0
LINE
  5
480
330
1F
100
AcDbEntity
  8
0
  6
Continuous
 62
     7
370
    30
100
AcDbLine
 10
53.9449854011
 20
151.1506837073
 30
0.0
 11
53.9449860596
 21
149.5178675962
 31
0.0
  0
LINE
  5
481
330
1F
100
AcDbEntity
  8
0
  6
Continuous
 62
     7
370
    30
100
AcDbLine
 10
54.4227541733
 20
151.4264937487
 30
0.0
 11
53.9449854011
 21
151.1506837073
 31
0.0
  0
LWPOLYLINE
  5
482
330
1F
100
AcDbEntity
  8
0
  6
Continuous
 62
     7
370
    30
100
AcDbPolyline
 90
       15
 70
   128
 43
0.0
 10
60.5482460855
 20
148.3183920452
 10
59.8950035194
 20
148.130409177
 10
59.1943707733
 20
148.0122733584
 10
58.4685546268
 20
147.9677296406
 10
57.7405573808
 20
147.9981888331
 10
57.0334531179
 20
148.1026860654
 10
56.3696514491
 20
148.2779104401
 10
55.7701902373
 20
148.518306918
 10
55.2540684915
 20
148.8162576598
 10
54.8376437988
 20
149.1623196314
 10
54.5341140496
 20
149.5455237979
 10
54.3530986036
 20
149.9537271604
 10
54.3003360176
 20
150.3739910249
 10
54.3774963605
 20
150.7929957676
 10
54.4406599985
 20
150.9494439432
  0
LINE
  5
483
330
1F
100
AcDbEntity
  8
0
  6
Continuous
 62
     7
370
    30
100
AcDbLine
 10
60.6625002649
 20
148.2524345113
 30
0.0
 11
60.5482460855
 21
148.3183920452
 31
0.0
  0
LINE
  5
484
330
1F
100
AcDbEntity
  8
0
  6
Continuous
 62
     7
370
    30
100
AcDbLine
 10
59.8139722518
 20
147.762589716
 30
0.0
 11
60.6625002649
 21
148.2524345113
 31
0.0
  0
LINE
  5
485
330
1F
100
AcDbEntity
  8
0
  6
Continuous
 62
     7
370
    30
100
AcDbLine
 10
59.8139722518
 20
146.7827407903
 30
0.0
 11
56.985545322
 21
146.7827411704
 31
0.0
  0
LINE
  5
486
330
1F
100
AcDbEntity
  8
0
  6
Continuous
 62
     7
370
    30
100
AcDbLine
 10
56.985545322
 20
146.7827411704
 30
0.0
 11
56.985545322
 21
147.7625900962
 31
0.0
  0
LINE
  5
487
330
1F
100
AcDbEntity
  8
0
  6
Continuous
 62
     7
370
    30
100
AcDbLine
 10
59.8139722518
 20
146.7827407903
 30
0.0
 11
59.8139722518
 21
147.762589716
 31
0.0
  0
LWPOLYLINE
  5
488
330
1F
100
AcDbEntity
  8
0
  6
Continuous
 62
     7
370
    30
100
AcDbPolyline
 90
        3
 70
   128
 43
0.0
 10
54.3095292989
 20
150.1709678386
 10
54.3774963605
 20
150.4663794273
 10
54.3997591162
 20
150.5272179768
  0
LWPOLYLINE
  5
489
330
1F
100
AcDbEntity
  8
0
  6
Continuous
 62
     7
370
    30
100
AcDbPolyline
 90
        3
 70
   128
 43
0.0
 10
62.3997577991
 20
150.5272179768
 10
62.454731119
 20
150.3574748882
 10
62.4605342132
 20
150.3342754153
  0
LINE
  5
48A
330
1F
100
AcDbEntity
  8
0
  6
Continuous
 62
     7
370
    30
100
AcDbLine
 10
62.1797552012
 20
149.0909469147
 30
0.0
 11
62.4302681662
 21
148.9463288583
 31
0.0
  0
LINE
  5
48B
330
1F
100
AcDbEntity
  8
0
  6
Continuous
 62
     7
370
    30
100
AcDbLine
 10
62.4302681662
 20
148.9463288583
 30
0.0
 11
60.6625002649
 21
147.9258181711
 31
0.0
  0
ARC
  5
48C
330
1F
100
AcDbEntity
  8
0
  6
Continuous
 62
     7
370
    30
100
AcDbCircle
 10
59.5110765728
 20
151.2291993817
 30
0.0
 40
3.286904290640641
100
AcDbArc
 50
290.5060708467
 51
316.3639553134
  0
LINE
  5
48D
330
1F
100
AcDbEntity
  8
0
  6
Continuous
 62
     7
370
    30
100
AcDbLine
 10
60.6625002649
 20
148.2524345113
 30
0.0
 11
60.6625002649
 21
147.9258181711
 31
0.0
  0
LINE
  5
48E
330
1F
100
AcDbEntity
  8
0
  6
Continuous
 62
     7
370
    30
100
AcDbLine
 10
62.4302681662
 20
149.5995615388
 30
0.0
 11
62.4302681662
 21
148.9463288583
 31
0.0
  0
LINE
  5
48F
330
1F
100
AcDbEntity
  8
0
  6
Continuous
 62
     7
370
    30
100
AcDbLine
 10
62.4302681662
 20
149.5995615388
 30
0.0
 11
63.6381428439
 21
150.296852748
 31
0.0
  0
LINE
  5
490
330
1F
100
AcDbEntity
  8
0
  6
Continuous
 62
     7
370
    30
100
AcDbLine
 10
63.6381428439
 20
148.990387482
 30
0.0
 11
59.8139722518
 21
146.7827407903
 31
0.0
  0
LINE
  5
491
330
1F
100
AcDbEntity
  8
0
  6
Continuous
 62
     7
370
    30
100
AcDbLine
 10
53.9449860596
 20
148.5380186705
 30
0.0
 11
53.9449860596
 21
149.5178675962
 31
0.0
  0
LINE
  5
492
330
1F
100
AcDbEntity
  8
0
  6
Continuous
 62
     7
370
    30
100
AcDbLine
 10
56.2077278669
 20
147.5583819698
 30
0.0
 11
56.2077278669
 21
147.2317656295
 31
0.0
  0
LINE
  5
493
330
1F
100
AcDbEntity
  8
0
  6
Continuous
 62
     7
370
    30
100
AcDbLine
 10
56.2077278669
 20
147.5583819698
 30
0.0
 11
55.7834638604
 21
147.8033043674
 31
0.0
  0
LINE
  5
494
330
1F
100
AcDbEntity
  8
0
  6
Continuous
 62
     7
370
    30
100
AcDbLine
 10
55.1470681798
 20
148.1706877738
 30
0.0
 11
55.7834638604
 21
147.8033043674
 31
0.0
  0
LINE
  5
495
330
1F
100
AcDbEntity
  8
0
  6
Continuous
 62
     7
370
    30
100
AcDbLine
 10
55.1470681798
 20
148.1706877738
 30
0.0
 11
54.7228035147
 21
148.4156105517
 31
0.0
  0
LINE
  5
496
330
1F
100
AcDbEntity
  8
0
  6
Continuous
 62
     7
370
    30
100
AcDbLine
 10
54.7228035147
 20
148.4156105517
 30
0.0
 11
54.7228035147
 21
148.0889942114
 31
0.0
  0
LINE
  5
497
330
1F
100
AcDbEntity
  8
0
  6
Continuous
 62
     7
370
    30
100
AcDbLine
 10
56.985545322
 20
146.7827411704
 30
0.0
 11
56.2077278669
 21
147.2317656295
 31
0.0
  0
LINE
  5
498
330
1F
100
AcDbEntity
  8
0
  6
Continuous
 62
     7
370
    30
100
AcDbLine
 10
54.7228035147
 20
148.0889942114
 30
0.0
 11
53.9449860596
 21
148.5380186705
 31
0.0
  0
LINE
  5
499
330
1F
100
AcDbEntity
  8
0
  6
Continuous
 62
     7
370
    30
100
AcDbLine
 10
55.5006209698
 20
147.313406302
 30
0.0
 11
55.5006209698
 21
147.6400226423
 31
0.0
  0
LINE
  5
49A
330
1F
100
AcDbEntity
  8
0
  6
Continuous
 62
     7
370
    30
100
AcDbLine
 10
55.5006209698
 20
147.313406302
 30
0.0
 11
54.8642252893
 21
147.6807897084
 31
0.0
  0
LINE
  5
49B
330
1F
100
AcDbEntity
  8
0
  6
Continuous
 62
     7
370
    30
100
AcDbLine
 10
54.8642252893
 20
147.6807897084
 30
0.0
 11
54.8642252893
 21
148.0074060487
 31
0.0
  0
LINE
  5
49C
330
1F
100
AcDbEntity
  8
0
  6
Continuous
 62
     7
370
    30
100
AcDbLine
 10
55.5006209698
 20
147.6400226423
 30
0.0
 11
54.8642252893
 21
148.0074060487
 31
0.0
  0
LINE
  5
49D
330
1F
100
AcDbEntity
  8
0
  6
Continuous
 62
     7
370
    30
100
AcDbLine
 10
55.7834638604
 20
147.8033043674
 30
0.0
 11
55.5006209698
 21
147.6400226423
 31
0.0
  0
LINE
  5
49E
330
1F
100
AcDbEntity
  8
0
  6
Continuous
 62
     7
370
    30
100
AcDbLine
 10
54.8642252893
 20
148.0074060487
 30
0.0
 11
55.1470681798
 21
148.1706877738
 31
0.0
  0
LINE
  5
49F
330
1F
100
AcDbEntity
  8
0
  6
Continuous
 62
     7
370
    30
100
AcDbLine
 10
56.0663521905
 20
147.639995984
 30
0.0
 11
55.5006209698
 21
147.313406302
 31
0.0
  0
LINE
  5
4A0
330
1F
100
AcDbEntity
  8
0
  6
Continuous
 62
     7
370
    30
100
AcDbLine
 10
62.1797552012
 20
149.7441795952
 30
0.0
 11
62.1797552012
 21
149.0909469147
 31
0.0
  0
LINE
  5
4A1
330
1F
100
AcDbEntity
  8
0
  6
Continuous
 62
     7
370
    30
100
AcDbLine
 10
62.1797552012
 20
149.7441795952
 30
0.0
 11
62.4302681662
 21
149.5995615388
 31
0.0
  0
ARC
  5
4A2
330
1F
100
AcDbEntity
  8
0
  6
Continuous
 62
     7
370
    30
100
AcDbCircle
 10
61.03178672
 20
150.6547952181
 30
0.0
 40
1.465282377699426
100
AcDbArc
 50
321.5771083184
 51
24.7161423256
  0
LINE
  5
4A3
330
1F
100
AcDbEntity
  8
0
  6
Continuous
 62
     7
370
    30
100
AcDbLine
 10
63.6381435024
 20
151.0249304758
 30
0.0
 11
62.3997591162
 21
151.7398345647
 31
0.0
  0
LINE
  5
4A4
330
1F
100
AcDbEntity
  8
0
  6
Continuous
 62
     7
370
    30
100
AcDbLine
 10
54.7228035147
 20
148.0889942114
 30
0.0
 11
55.1329924495
 21
148.1788130935
 31
0.0
  0
LWPOLYLINE
  5
4A5
330
1F
100
AcDbEntity
  8
0
  6
Continuous
 62
     7
370
    30
100
AcDbPolyline
 90
       34
 70
   128
 43
0.0
 10
100.0045998138
 20
153.8959257411
 10
100.4282480812
 20
154.1921303637
 10
100.7471377225
 20
154.5292670924
 10
100.9497402575
 20
154.8951499691
 10
101.0287353054
 20
155.2765566935
 10
100.9812674172
 20
155.6597007932
 10
100.8090501259
 20
156.0307342084
 10
100.518309311
 20
156.3762483556
 10
100.1195560016
 20
156.6837550417
 10
99.6271978344
 20
156.9421388666
 10
99.0590313162
 20
157.1420628635
 10
98.4355931574
 20
157.2763003876
 10
97.7794134827
 20
157.3399989534
 10
97.1142084556
 20
157.3308573939
 10
96.4640235116
 20
157.249206837
 10
95.8523528846
 20
157.0979958785
 10
95.3013091821
 20
156.8826921183
 10
94.8308054729
 20
156.6110761085
 10
94.4578480104
 20
156.2929653502
 10
94.1959172007
 20
155.9398569341
 10
94.0544789626
 20
155.5645131553
 10
94.0386436013
 20
155.1804984671
 10
94.1489847093
 20
154.801694004
 10
94.3815161165
 20
154.4417908157
 10
94.7278321609
 20
154.1137952663
 10
95.1754145699
 20
153.8295629464
 10
95.7080868563
 20
153.5993660401
 10
96.3066023982
 20
153.4315264609
 10
96.9493207646
 20
153.3321075348
 10
97.6130177248
 20
153.3047049063
 10
98.2737051366
 20
153.3503077768
 10
98.907501542
 20
153.4672677306
 10
99.4915027629
 20
153.6513588021
 10
100.0045998138
 20
153.8959257411
  0
LINE
  5
4A6
330
1F
100
AcDbEntity
  8
0
  6
Continuous
 62
     7
370
    30
100
AcDbLine
 10
101.5225633439
 20
148.8991625998
 30
0.0
 11
101.529725674
 21
149.0372751931
 31
0.0
  0
LWPOLYLINE
  5
4A7
330
1F
100
AcDbEntity
  8
0
  6
Continuous
 62
     7
370
    30
100
AcDbPolyline
 90
       21
 70
   128
 43
0.0
 10
101.4548465293
 20
148.5021305736
 10
101.5287181009
 20
148.1092396843
 10
101.4804770815
 20
147.6961952415
 10
101.3052594614
 20
147.2947619402
 10
101.0086905276
 20
146.9178419781
 10
100.6003033706
 20
146.5775475602
 10
100.0932267337
 20
146.2848184486
 10
99.5037582762
 20
146.0490630818
 10
98.8508430067
 20
145.8778574806
 10
98.1554621531
 20
145.7767049808
 10
97.4399733015
 20
145.7488575538
 10
96.7273688749
 20
145.7952085982
 10
96.040550417
 20
145.9142678488
 10
95.4015976081
 20
146.1022123199
 10
94.8310425489
 20
146.3529980741
 10
94.3472283382
 20
146.6585662752
 10
93.9657005775
 20
147.0090940997
 10
93.6987233412
 20
147.3933167407
 10
93.5548774643
 20
147.7988840068
 10
93.5387846122
 20
148.2127598807
 10
93.6039061029
 20
148.5000742359
  0
ARC
  5
4A8
330
1F
100
AcDbEntity
  8
0
  6
Continuous
 62
     7
370
    30
100
AcDbCircle
 10
97.536761582
 20
151.701805946
 30
0.0
 40
5.701157404845959
100
AcDbArc
 50
240.1719782031
 51
298.1031414043
  0
LINE
  5
4A9
330
1F
100
AcDbEntity
  8
0
  6
Continuous
 62
     7
370
    30
100
AcDbLine
 10
101.5282202412
 20
147.5858127824
 30
0.0
 11
101.529725674
 21
147.6491558896
 31
0.0
  0
LINE
  5
4AA
330
1F
100
AcDbEntity
  8
0
  6
Continuous
 62
     7
370
    30
100
AcDbLine
 10
96.1155125383
 20
145.1999520081
 30
0.0
 11
98.9439401267
 21
145.1999520081
 31
0.0
  0
LINE
  5
4AB
330
1F
100
AcDbEntity
  8
0
  6
Continuous
 62
     7
370
    30
100
AcDbLine
 10
93.074953276
 20
146.9552295081
 30
0.0
 11
96.1155125383
 21
145.1999520081
 31
0.0
  0
LINE
  5
4AC
330
1F
100
AcDbEntity
  8
0
  6
Continuous
 62
     7
370
    30
100
AcDbLine
 10
93.0749539345
 20
148.5880456192
 30
0.0
 11
93.074953276
 21
146.9552295081
 31
0.0
  0
LINE
  5
4AD
330
1F
100
AcDbEntity
  8
0
  6
Continuous
 62
     7
370
    30
100
AcDbLine
 10
93.5527227067
 20
148.8638556606
 30
0.0
 11
93.0749539345
 21
148.5880456192
 31
0.0
  0
LWPOLYLINE
  5
4AE
330
1F
100
AcDbEntity
  8
0
  6
Continuous
 62
     7
370
    30
100
AcDbPolyline
 90
       15
 70
   128
 43
0.0
 10
99.6782133018
 20
145.7557531967
 10
99.02496876
 20
145.5677699484
 10
98.3243366726
 20
145.4496337496
 10
97.598520526
 20
145.4050900318
 10
96.87052328
 20
145.4355492243
 10
96.1634190171
 20
145.5400479773
 10
95.4996180069
 20
145.7152719718
 10
94.9001561365
 20
145.9556680696
 10
94.3840343907
 20
146.2536188113
 10
93.9676110151
 20
146.599680783
 10
93.6640806074
 20
146.9828853296
 10
93.4830645028
 20
147.3910875516
 10
93.4303019168
 20
147.8113514161
 10
93.5074622597
 20
148.2303561588
 10
93.5706272148
 20
148.3868050948
  0
LINE
  5
4AF
330
1F
100
AcDbEntity
  8
0
  6
Continuous
 62
     7
370
    30
100
AcDbLine
 10
99.7924668227
 20
145.689796043
 30
0.0
 11
99.6782133018
 21
145.7557531967
 31
0.0
  0
LINE
  5
4B0
330
1F
100
AcDbEntity
  8
0
  6
Continuous
 62
     7
370
    30
100
AcDbLine
 10
98.9439401267
 20
145.1999520081
 30
0.0
 11
99.7924668227
 21
145.689796043
 31
0.0
  0
LINE
  5
4B1
330
1F
100
AcDbEntity
  8
0
  6
Continuous
 62
     7
370
    30
100
AcDbLine
 10
98.9439401267
 20
144.2201030823
 30
0.0
 11
96.1155125383
 21
144.2201030823
 31
0.0
  0
LINE
  5
4B2
330
1F
100
AcDbEntity
  8
0
  6
Continuous
 62
     7
370
    30
100
AcDbLine
 10
96.1155125383
 20
144.2201030823
 30
0.0
 11
96.1155125383
 21
145.1999520081
 31
0.0
  0
LINE
  5
4B3
330
1F
100
AcDbEntity
  8
0
  6
Continuous
 62
     7
370
    30
100
AcDbLine
 10
98.9439401267
 20
144.2201030823
 30
0.0
 11
98.9439401267
 21
145.1999520081
 31
0.0
  0
LWPOLYLINE
  5
4B4
330
1F
100
AcDbEntity
  8
0
  6
Continuous
 62
     7
370
    30
100
AcDbPolyline
 90
        3
 70
   128
 43
0.0
 10
93.4394965153
 20
147.6083289902
 10
93.5074622597
 20
147.9037398185
 10
93.5297256739
 20
147.9645795085
  0
LWPOLYLINE
  5
4B5
330
1F
100
AcDbEntity
  8
0
  6
Continuous
 62
     7
370
    30
100
AcDbPolyline
 90
        3
 70
   128
 43
0.0
 10
101.5297243569
 20
147.9645795085
 10
101.5846983353
 20
147.7948360397
 10
101.5905001125
 20
147.7716358065
  0
LINE
  5
4B6
330
1F
100
AcDbEntity
  8
0
  6
Continuous
 62
     7
370
    30
100
AcDbLine
 10
101.3097217589
 20
146.5283084464
 30
0.0
 11
101.560234724
 21
146.38369039
 31
0.0
  0
LINE
  5
4B7
330
1F
100
AcDbEntity
  8
0
  6
Continuous
 62
     7
370
    30
100
AcDbLine
 10
101.560234724
 20
146.38369039
 30
0.0
 11
99.7924668227
 21
145.3631797028
 31
0.0
  0
ARC
  5
4B8
330
1F
100
AcDbEntity
  8
0
  6
Continuous
 62
     7
370
    30
100
AcDbCircle
 10
98.6410517238
 20
148.6665492612
 30
0.0
 40
3.286890030540756
100
AcDbArc
 50
290.5059671208
 51
316.3639989483
  0
LINE
  5
4B9
330
1F
100
AcDbEntity
  8
0
  6
Continuous
 62
     7
370
    30
100
AcDbLine
 10
99.7924668227
 20
145.689796043
 30
0.0
 11
99.7924668227
 21
145.3631797028
 31
0.0
  0
LINE
  5
4BA
330
1F
100
AcDbEntity
  8
0
  6
Continuous
 62
     7
370
    30
100
AcDbLine
 10
101.560234724
 20
147.0369230705
 30
0.0
 11
101.560234724
 21
146.38369039
 31
0.0
  0
LINE
  5
4BB
330
1F
100
AcDbEntity
  8
0
  6
Continuous
 62
     7
370
    30
100
AcDbLine
 10
101.560234724
 20
147.0369230705
 30
0.0
 11
103.3987118661
 21
148.0982533337
 31
0.0
  0
LINE
  5
4BC
330
1F
100
AcDbEntity
  8
0
  6
Continuous
 62
     7
370
    30
100
AcDbLine
 10
103.3987118661
 20
146.7917880677
 30
0.0
 11
103.3987118661
 21
148.0982533337
 31
0.0
  0
LINE
  5
4BD
330
1F
100
AcDbEntity
  8
0
  6
Continuous
 62
     7
370
    30
100
AcDbLine
 10
103.3987118661
 20
146.7917880677
 30
0.0
 11
98.9439401267
 21
144.2201030823
 31
0.0
  0
LINE
  5
4BE
330
1F
100
AcDbEntity
  8
0
  6
Continuous
 62
     7
370
    30
100
AcDbLine
 10
93.074953276
 20
145.9753805823
 30
0.0
 11
93.074953276
 21
146.9552295081
 31
0.0
  0
LINE
  5
4BF
330
1F
100
AcDbEntity
  8
0
  6
Continuous
 62
     7
370
    30
100
AcDbLine
 10
95.3376950832
 20
144.9957438817
 30
0.0
 11
95.3376950832
 21
144.6691275414
 31
0.0
  0
LINE
  5
4C0
330
1F
100
AcDbEntity
  8
0
  6
Continuous
 62
     7
370
    30
100
AcDbLine
 10
95.3376950832
 20
144.9957438817
 30
0.0
 11
94.9134310767
 21
145.2406662793
 31
0.0
  0
LINE
  5
4C1
330
1F
100
AcDbEntity
  8
0
  6
Continuous
 62
     7
370
    30
100
AcDbLine
 10
94.2770353961
 20
145.6080496857
 30
0.0
 11
94.9134310767
 21
145.2406662793
 31
0.0
  0
LINE
  5
4C2
330
1F
100
AcDbEntity
  8
0
  6
Continuous
 62
     7
370
    30
100
AcDbLine
 10
94.2770353961
 20
145.6080496857
 30
0.0
 11
93.8527707311
 21
145.8529724635
 31
0.0
  0
LINE
  5
4C3
330
1F
100
AcDbEntity
  8
0
  6
Continuous
 62
     7
370
    30
100
AcDbLine
 10
93.8527707311
 20
145.8529724635
 30
0.0
 11
93.8527707311
 21
145.5263561233
 31
0.0
  0
LINE
  5
4C4
330
1F
100
AcDbEntity
  8
0
  6
Continuous
 62
     7
370
    30
100
AcDbLine
 10
96.1155125383
 20
144.2201030823
 30
0.0
 11
95.3376950832
 21
144.6691275414
 31
0.0
  0
LINE
  5
4C5
330
1F
100
AcDbEntity
  8
0
  6
Continuous
 62
     7
370
    30
100
AcDbLine
 10
93.8527707311
 20
145.5263561233
 30
0.0
 11
93.074953276
 21
145.9753805823
 31
0.0
  0
LINE
  5
4C6
330
1F
100
AcDbEntity
  8
0
  6
Continuous
 62
     7
370
    30
100
AcDbLine
 10
94.9134310767
 20
145.2406662793
 30
0.0
 11
94.6305862105
 21
145.0773834136
 31
0.0
  0
LINE
  5
4C7
330
1F
100
AcDbEntity
  8
0
  6
Continuous
 62
     7
370
    30
100
AcDbLine
 10
94.6305862105
 20
145.0773834136
 30
0.0
 11
93.99419053
 21
145.44476682
 31
0.0
  0
LINE
  5
4C8
330
1F
100
AcDbEntity
  8
0
  6
Continuous
 62
     7
370
    30
100
AcDbLine
 10
93.99419053
 20
145.44476682
 30
0.0
 11
94.2770353961
 21
145.6080496857
 31
0.0
  0
LINE
  5
4C9
330
1F
100
AcDbEntity
  8
0
  6
Continuous
 62
     7
370
    30
100
AcDbLine
 10
94.6305862105
 20
144.7507670734
 30
0.0
 11
94.6305862105
 21
145.0773834136
 31
0.0
  0
LINE
  5
4CA
330
1F
100
AcDbEntity
  8
0
  6
Continuous
 62
     7
370
    30
100
AcDbLine
 10
94.6305862105
 20
144.7507670734
 30
0.0
 11
93.99419053
 21
145.1181504798
 31
0.0
  0
LINE
  5
4CB
330
1F
100
AcDbEntity
  8
0
  6
Continuous
 62
     7
370
    30
100
AcDbLine
 10
93.99419053
 20
145.1181504798
 30
0.0
 11
93.99419053
 21
145.44476682
 31
0.0
  0
LINE
  5
4CC
330
1F
100
AcDbEntity
  8
0
  6
Continuous
 62
     7
370
    30
100
AcDbLine
 10
95.1963180897
 20
145.0773571356
 30
0.0
 11
94.6305862105
 21
144.7507670734
 31
0.0
  0
LINE
  5
4CD
330
1F
100
AcDbEntity
  8
0
  6
Continuous
 62
     7
370
    30
100
AcDbLine
 10
101.3097217589
 20
147.181541127
 30
0.0
 11
101.3097217589
 21
146.5283084464
 31
0.0
  0
LINE
  5
4CE
330
1F
100
AcDbEntity
  8
0
  6
Continuous
 62
     7
370
    30
100
AcDbLine
 10
101.3097217589
 20
147.181541127
 30
0.0
 11
101.560234724
 21
147.0369230705
 31
0.0
  0
ARC
  5
4CF
330
1F
100
AcDbEntity
  8
0
  6
Continuous
 62
     7
370
    30
100
AcDbCircle
 10
100.1617607209
 20
148.0921539761
 30
0.0
 40
1.46527482267283
100
AcDbArc
 50
321.5770124206
 51
24.7163813392
  0
LINE
  5
4D0
330
1F
100
AcDbEntity
  8
0
  6
Continuous
 62
     7
370
    30
100
AcDbLine
 10
103.3987118661
 20
148.0982533337
 30
0.0
 11
101.529725674
 21
149.1771960964
 31
0.0
  0
LINE
  5
4D1
330
1F
100
AcDbEntity
  8
0
  6
Continuous
 62
     7
370
    30
100
AcDbLine
 10
93.8527707311
 20
145.5263561233
 30
0.0
 11
94.2629576902
 21
145.6161746252
 31
0.0
  0
LWPOLYLINE
  5
4D2
330
1F
100
AcDbEntity
  8
0
  6
Continuous
 62
     7
370
    30
100
AcDbPolyline
 90
       34
 70
   128
 43
0.0
 10
70.1130174776
 20
150.0176582028
 10
70.5366660743
 20
150.3138626352
 10
70.8555539869
 20
150.6509988412
 10
71.058157592
 20
151.0168826209
 10
71.1371516521
 20
151.3982883948
 10
71.0896834347
 20
151.7814326846
 10
70.917467364
 20
152.1524669159
 10
70.6267273041
 20
152.4979806272
 10
70.2279724307
 20
152.8054866955
 10
69.7356153336
 20
153.0638714233
 10
69.1674494739
 20
153.2637950401
 10
68.5440098334
 20
153.3980318989
 10
67.8878298295
 20
153.4617306547
 10
67.222626284
 20
153.4525897605
 10
66.572440023
 20
153.3709384433
 10
65.9607723594
 20
153.2197288153
 10
65.4097270106
 20
153.0044244849
 10
64.9392246185
 20
152.7328092354
 10
64.5662674853
 20
152.4146982871
 10
64.3043350292
 20
152.0615893007
 10
64.162895474
 20
151.6862447616
 10
64.1470606066
 20
151.3022305486
 10
64.2574027024
 20
150.9234262756
 10
64.4899336157
 20
150.5635226121
 10
64.8362490016
 20
150.2355274428
 10
65.2838316576
 20
149.9512949804
 10
65.8165061665
 20
149.721099072
 10
66.4150183192
 20
149.553258408
 10
67.0577380991
 20
149.4538401866
 10
67.7214353886
 20
149.4264373679
 10
68.3821211541
 20
149.4720396682
 10
69.0159191235
 20
149.5890002398
 10
69.5999194389
 20
149.7730903133
 10
70.1130174776
 20
150.0176582028
  0
LINE
  5
4D3
330
1F
100
AcDbEntity
  8
0
  6
Continuous
 62
     7
370
    30
100
AcDbLine
 10
71.6309826541
 20
145.0208956317
 30
0.0
 11
71.6381435025
 21
145.1590075597
 31
0.0
  0
LWPOLYLINE
  5
4D4
330
1F
100
AcDbEntity
  8
0
  6
Continuous
 62
     7
370
    30
100
AcDbPolyline
 90
       21
 70
   128
 43
0.0
 10
71.5632657571
 20
144.623863653
 10
71.6371365056
 20
144.2309717183
 10
71.5888968856
 20
143.8179279883
 10
71.4136767959
 20
143.4164945919
 10
71.1171073683
 20
143.0395733943
 10
70.7087228455
 20
142.6992804971
 10
70.2016462085
 20
142.4065513855
 10
69.612176434
 20
142.1707952583
 10
68.9592590242
 20
141.999589372
 10
68.2638812987
 20
141.8984373475
 10
67.5483910477
 20
141.8705892076
 10
66.8357853451
 20
141.9169402282
 10
66.1489683123
 20
142.0360009372
 10
65.5100151485
 20
142.2239448528
 10
64.9394612829
 20
142.4747306783
 10
64.4556448495
 20
142.7802978815
 10
64.0741174181
 20
143.1308262762
 10
63.8071398526
 20
143.515048347
 10
63.6632946343
 20
143.9206159932
 10
63.6472037577
 20
144.3344930076
 10
63.7123232729
 20
144.6218062224
  0
ARC
  5
4D5
330
1F
100
AcDbEntity
  8
0
  6
Continuous
 62
     7
370
    30
100
AcDbCircle
 10
67.6451783673
 20
147.8235362852
 30
0.0
 40
5.701155785068775
100
AcDbArc
 50
240.1719752326
 51
298.1031582308
  0
LINE
  5
4D6
330
1F
100
AcDbEntity
  8
0
  6
Continuous
 62
     7
370
    30
100
AcDbLine
 10
71.6366385636
 20
143.7075448639
 30
0.0
 11
71.6381435025
 21
143.7708882562
 31
0.0
  0
LINE
  5
4D7
330
1F
100
AcDbEntity
  8
0
  6
Continuous
 62
     7
370
    30
100
AcDbLine
 10
66.2239299552
 20
141.3216838519
 30
0.0
 11
69.0523566381
 21
141.3216836143
 31
0.0
  0
LINE
  5
4D8
330
1F
100
AcDbEntity
  8
0
  6
Continuous
 62
     7
370
    30
100
AcDbLine
 10
63.1833707752
 20
143.0769613045
 30
0.0
 11
66.2239299552
 21
141.3216838519
 31
0.0
  0
LINE
  5
4D9
330
1F
100
AcDbEntity
  8
0
  6
Continuous
 62
     7
370
    30
100
AcDbLine
 10
63.1833704459
 20
144.7097772255
 30
0.0
 11
63.1833707752
 21
143.0769613045
 31
0.0
  0
LINE
  5
4DA
330
1F
100
AcDbEntity
  8
0
  6
Continuous
 62
     7
370
    30
100
AcDbLine
 10
63.6611392181
 20
144.9855872669
 30
0.0
 11
63.1833704459
 21
144.7097772255
 31
0.0
  0
LWPOLYLINE
  5
4DB
330
1F
100
AcDbEntity
  8
0
  6
Continuous
 62
     7
370
    30
100
AcDbPolyline
 90
       15
 70
   128
 43
0.0
 10
69.786630801
 20
141.8774857534
 10
69.1333882349
 20
141.6895028853
 10
68.4327549126
 20
141.571366639
 10
67.7069388484
 20
141.5268228736
 10
66.9789422198
 20
141.5572824701
 10
66.2718374424
 20
141.6617799994
 10
65.6080360411
 20
141.8370042196
 10
65.0085745412
 20
142.0774008639
 10
64.4924528777
 20
142.3753515581
 10
64.0760285143
 20
142.7214133397
 10
63.7724984358
 20
143.1046176962
 10
63.591483813
 20
143.5128205835
 10
63.5387204039
 20
143.9330841629
 10
63.615881076
 20
144.3520887155
 10
63.6790450433
 20
144.5085374614
  0
LINE
  5
4DC
330
1F
100
AcDbEntity
  8
0
  6
Continuous
 62
     7
370
    30
100
AcDbLine
 10
69.9008846512
 20
141.8115284097
 30
0.0
 11
69.786630801
 21
141.8774857534
 31
0.0
  0
LINE
  5
4DD
330
1F
100
AcDbEntity
  8
0
  6
Continuous
 62
     7
370
    30
100
AcDbLine
 10
69.0523566381
 20
141.3216836143
 30
0.0
 11
69.9008846512
 21
141.8115284097
 31
0.0
  0
LINE
  5
4DE
330
1F
100
AcDbEntity
  8
0
  6
Continuous
 62
     7
370
    30
100
AcDbLine
 10
69.0523566381
 20
140.3418346886
 30
0.0
 11
66.2239299552
 21
140.3418349262
 31
0.0
  0
LINE
  5
4DF
330
1F
100
AcDbEntity
  8
0
  6
Continuous
 62
     7
370
    30
100
AcDbLine
 10
66.2239299552
 20
140.3418349262
 30
0.0
 11
66.2239299552
 21
141.3216838519
 31
0.0
  0
LINE
  5
4E0
330
1F
100
AcDbEntity
  8
0
  6
Continuous
 62
     7
370
    30
100
AcDbLine
 10
69.0523566381
 20
140.3418346886
 30
0.0
 11
69.0523566381
 21
141.3216836143
 31
0.0
  0
LWPOLYLINE
  5
4E1
330
1F
100
AcDbEntity
  8
0
  6
Continuous
 62
     7
370
    30
100
AcDbPolyline
 90
        3
 70
   128
 43
0.0
 10
63.5479143437
 20
143.7300613568
 10
63.615881076
 20
144.0254723752
 10
63.6381435024
 20
144.0863118751
  0
LWPOLYLINE
  5
4E2
330
1F
100
AcDbEntity
  8
0
  6
Continuous
 62
     7
370
    30
100
AcDbPolyline
 90
        3
 70
   128
 43
0.0
 10
71.6381427204
 20
144.0863115662
 10
71.6931158345
 20
143.9165685964
 10
71.6989185995
 20
143.8933693137
  0
LINE
  5
4E3
330
1F
100
AcDbEntity
  8
0
  6
Continuous
 62
     7
370
    30
100
AcDbLine
 10
71.4181397521
 20
142.650040718
 30
0.0
 11
71.6686525524
 21
142.5054227566
 31
0.0
  0
LINE
  5
4E4
330
1F
100
AcDbEntity
  8
0
  6
Continuous
 62
     7
370
    30
100
AcDbLine
 10
71.6686525524
 20
142.5054227566
 30
0.0
 11
69.9008846512
 21
141.4849120694
 31
0.0
  0
ARC
  5
4E5
330
1F
100
AcDbEntity
  8
0
  6
Continuous
 62
     7
370
    30
100
AcDbCircle
 10
68.7494645998
 20
144.7882885152
 30
0.0
 40
3.286898552317511
100
AcDbArc
 50
290.5060405004
 51
316.3639724131
  0
LINE
  5
4E6
330
1F
100
AcDbEntity
  8
0
  6
Continuous
 62
     7
370
    30
100
AcDbLine
 10
69.9008846512
 20
141.8115284097
 30
0.0
 11
69.9008846512
 21
141.4849120694
 31
0.0
  0
LINE
  5
4E7
330
1F
100
AcDbEntity
  8
0
  6
Continuous
 62
     7
370
    30
100
AcDbLine
 10
71.6686525524
 20
143.1586554372
 30
0.0
 11
71.6686525524
 21
142.5054227566
 31
0.0
  0
LINE
  5
4E8
330
1F
100
AcDbEntity
  8
0
  6
Continuous
 62
     7
370
    30
100
AcDbLine
 10
71.6686525524
 20
143.1586554372
 30
0.0
 11
73.5071296946
 21
144.2199857003
 31
0.0
  0
LINE
  5
4E9
330
1F
100
AcDbEntity
  8
0
  6
Continuous
 62
     7
370
    30
100
AcDbLine
 10
73.5071296946
 20
142.9135204343
 30
0.0
 11
73.5071296946
 21
144.2199857003
 31
0.0
  0
LINE
  5
4EA
330
1F
100
AcDbEntity
  8
0
  6
Continuous
 62
     7
370
    30
100
AcDbLine
 10
73.5071296946
 20
142.9135204343
 30
0.0
 11
69.0523566381
 21
140.3418346886
 31
0.0
  0
LINE
  5
4EB
330
1F
100
AcDbEntity
  8
0
  6
Continuous
 62
     7
370
    30
100
AcDbLine
 10
63.1833707752
 20
142.0971123787
 30
0.0
 11
63.1833707752
 21
143.0769613045
 31
0.0
  0
LINE
  5
4EC
330
1F
100
AcDbEntity
  8
0
  6
Continuous
 62
     7
370
    30
100
AcDbLine
 10
65.4461125001
 20
141.1174757255
 30
0.0
 11
65.4461125001
 21
140.7908593853
 31
0.0
  0
LINE
  5
4ED
330
1F
100
AcDbEntity
  8
0
  6
Continuous
 62
     7
370
    30
100
AcDbLine
 10
65.4461125001
 20
141.1174757255
 30
0.0
 11
65.0218484113
 21
141.3623981707
 31
0.0
  0
LINE
  5
4EE
330
1F
100
AcDbEntity
  8
0
  6
Continuous
 62
     7
370
    30
100
AcDbLine
 10
64.3854523191
 20
141.7297818147
 30
0.0
 11
65.0218484113
 21
141.3623981707
 31
0.0
  0
LINE
  5
4EF
330
1F
100
AcDbEntity
  8
0
  6
Continuous
 62
     7
370
    30
100
AcDbLine
 10
64.3854523191
 20
141.7297818147
 30
0.0
 11
63.9611882303
 21
141.9747042599
 31
0.0
  0
LINE
  5
4F0
330
1F
100
AcDbEntity
  8
0
  6
Continuous
 62
     7
370
    30
100
AcDbLine
 10
63.9611882303
 20
141.9747042599
 30
0.0
 11
63.9611882303
 21
141.6480879196
 31
0.0
  0
LINE
  5
4F1
330
1F
100
AcDbEntity
  8
0
  6
Continuous
 62
     7
370
    30
100
AcDbLine
 10
66.2239299552
 20
140.3418349262
 30
0.0
 11
65.4461125001
 21
140.7908593853
 31
0.0
  0
LINE
  5
4F2
330
1F
100
AcDbEntity
  8
0
  6
Continuous
 62
     7
370
    30
100
AcDbLine
 10
63.9611882303
 20
141.6480879196
 30
0.0
 11
63.1833707752
 21
142.0971123787
 31
0.0
  0
LINE
  5
4F3
330
1F
100
AcDbEntity
  8
0
  6
Continuous
 62
     7
370
    30
100
AcDbLine
 10
65.0218484113
 20
141.3623981707
 30
0.0
 11
64.7390055207
 21
141.1991164456
 31
0.0
  0
LINE
  5
4F4
330
1F
100
AcDbEntity
  8
0
  6
Continuous
 62
     7
370
    30
100
AcDbLine
 10
64.7390055207
 20
141.1991164456
 30
0.0
 11
64.1026094286
 21
141.5665000896
 31
0.0
  0
LINE
  5
4F5
330
1F
100
AcDbEntity
  8
0
  6
Continuous
 62
     7
370
    30
100
AcDbLine
 10
64.1026094286
 20
141.5665000896
 30
0.0
 11
64.3854523191
 21
141.7297818147
 31
0.0
  0
LINE
  5
4F6
330
1F
100
AcDbEntity
  8
0
  6
Continuous
 62
     7
370
    30
100
AcDbLine
 10
64.7390055207
 20
140.8725001053
 30
0.0
 11
64.7390055207
 21
141.1991164456
 31
0.0
  0
LINE
  5
4F7
330
1F
100
AcDbEntity
  8
0
  6
Continuous
 62
     7
370
    30
100
AcDbLine
 10
64.7390055207
 20
140.8725001053
 30
0.0
 11
64.1026094286
 21
141.2398837493
 31
0.0
  0
LINE
  5
4F8
330
1F
100
AcDbEntity
  8
0
  6
Continuous
 62
     7
370
    30
100
AcDbLine
 10
64.1026094286
 20
141.2398837493
 30
0.0
 11
64.1026094286
 21
141.5665000896
 31
0.0
  0
LINE
  5
4F9
330
1F
100
AcDbEntity
  8
0
  6
Continuous
 62
     7
370
    30
100
AcDbLine
 10
65.3047367414
 20
141.1990897873
 30
0.0
 11
64.7390055207
 21
140.8725001053
 31
0.0
  0
LINE
  5
4FA
330
1F
100
AcDbEntity
  8
0
  6
Continuous
 62
     7
370
    30
100
AcDbLine
 10
71.4181397521
 20
143.3032733985
 30
0.0
 11
71.4181397521
 21
142.650040718
 31
0.0
  0
LINE
  5
4FB
330
1F
100
AcDbEntity
  8
0
  6
Continuous
 62
     7
370
    30
100
AcDbLine
 10
71.4181397521
 20
143.3032733985
 30
0.0
 11
71.6686525524
 21
143.1586554372
 31
0.0
  0
ARC
  5
4FC
330
1F
100
AcDbEntity
  8
0
  6
Continuous
 62
     7
370
    30
100
AcDbCircle
 10
70.2701719503
 20
144.2138887813
 30
0.0
 40
1.465281696213705
100
AcDbArc
 50
321.5770991642
 51
24.7161710635
  0
LINE
  5
4FD
330
1F
100
AcDbEntity
  8
0
  6
Continuous
 62
     7
370
    30
100
AcDbLine
 10
73.5071296946
 20
144.2199857003
 30
0.0
 11
71.6381434214
 21
145.2989285098
 31
0.0
  0
LINE
  5
4FE
330
1F
100
AcDbEntity
  8
0
  6
Continuous
 62
     7
370
    30
100
AcDbLine
 10
63.9611882303
 20
141.6480879196
 30
0.0
 11
64.3713765065
 21
141.7379071819
 31
0.0
  0
LINE
  5
4FF
330
1F
100
AcDbEntity
  8
0
  6
Continuous
 62
     7
370
    30
100
AcDbLine
 10
82.8818077693
 20
119.7541482462
 30
0.0
 11
82.8818077693
 21
118.3660288832
 31
0.0
  0
LINE
  5
500
330
1F
100
AcDbEntity
  8
0
  6
Continuous
 62
     7
370
    30
100
AcDbLine
 10
82.8818077693
 20
119.7541482462
 30
0.0
 11
95.3268870508
 21
126.9385395913
 31
0.0
  0
LINE
  5
501
330
1F
100
AcDbEntity
  8
0
  6
Continuous
 62
     7
370
    30
100
AcDbLine
 10
114.2773482049
 20
137.878407954
 30
0.0
 11
118.2371473555
 21
140.1643513459
 31
0.0
  0
LINE
  5
502
330
1F
100
AcDbEntity
  8
0
  6
Continuous
 62
     7
370
    30
100
AcDbLine
 10
118.2371473555
 20
140.1643513459
 30
0.0
 11
118.2371473555
 21
138.7762319829
 31
0.0
  0
LINE
  5
503
330
1F
100
AcDbEntity
  8
0
  6
Continuous
 62
     7
370
    30
100
AcDbLine
 10
82.8818077693
 20
118.3660288832
 30
0.0
 11
96.5291641001
 21
126.2444799955
 31
0.0
  0
LINE
  5
504
330
1F
100
AcDbEntity
  8
0
  6
Continuous
 62
     7
370
    30
100
AcDbLine
 10
114.2773482049
 20
136.490288591
 30
0.0
 11
118.2371473555
 21
138.7762319829
 31
0.0
  0
LINE
  5
505
330
1F
100
AcDbEntity
  8
0
  6
Continuous
 62
     7
370
    30
100
AcDbLine
 10
27.0203721188
 20
152.0022686267
 30
0.0
 11
27.0203721188
 21
150.6141492637
 31
0.0
  0
LINE
  5
506
330
1F
100
AcDbEntity
  8
0
  6
Continuous
 62
     7
370
    30
100
AcDbLine
 10
27.0203721188
 20
152.0022686267
 30
0.0
 11
82.8818077693
 21
119.7541482462
 31
0.0
  0
LINE
  5
507
330
1F
100
AcDbEntity
  8
0
  6
Continuous
 62
     7
370
    30
100
AcDbLine
 10
27.0203721188
 20
150.6141492637
 30
0.0
 11
82.8818077693
 21
118.3660288832
 31
0.0
  0
LINE
  5
508
330
1F
100
AcDbEntity
  8
0
  6
Continuous
 62
     7
370
    30
100
AcDbLine
 10
118.2371473555
 20
140.1643513459
 30
0.0
 11
112.1206742103
 21
143.6953161339
 31
0.0
  0
LINE
  5
509
330
1F
100
AcDbEntity
  8
0
  6
Continuous
 62
     7
370
    30
100
AcDbLine
 10
106.1093930136
 20
147.1655549027
 30
0.0
 11
101.529725674
 21
149.8093405833
 31
0.0
  0
LINE
  5
50A
330
1F
100
AcDbEntity
  8
0
  6
Continuous
 62
     7
370
    30
100
AcDbLine
 10
93.5297258386
 20
154.4276421849
 30
0.0
 11
68.5979615861
 21
168.8204433285
 31
0.0
  0
LINE
  5
50B
330
1F
100
AcDbEntity
  8
0
  6
Continuous
 62
     7
370
    30
100
AcDbLine
 10
51.1680691642
 20
165.9424374061
 30
0.0
 11
27.0203721188
 21
152.0022686267
 31
0.0
  0
LWPOLYLINE
  5
50C
330
1F
100
AcDbEntity
  8
0
  6
Continuous
 62
     7
370
    30
100
AcDbPolyline
 90
        9
 70
   128
 43
0.0
 10
114.2773508391
 20
139.1761140208
 10
114.6193830515
 20
139.3038966443
 10
114.9110392432
 20
139.4995441129
 10
115.0898419796
 20
139.7361282495
 10
115.139901899
 20
139.9926271933
 10
115.056777777
 20
140.2462490131
 10
114.8478505806
 20
140.474457252
 10
114.5316833623
 20
140.6569767021
 10
114.17364325
 20
140.7697365416
  0
LWPOLYLINE
  5
50D
330
1F
100
AcDbEntity
  8
0
  6
Continuous
 62
     7
370
    30
100
AcDbPolyline
 90
       22
 70
   128
 43
0.0
 10
82.1747020247
 20
121.7951680049
 10
82.5344589625
 20
121.6418908243
 10
82.9564931373
 20
121.5566396806
 10
83.4033090006
 20
121.5469871732
 10
83.8351994464
 20
121.6137942911
 10
84.2137925681
 20
121.7511228796
 10
84.5054489245
 20
121.9467704432
 10
84.6842513317
 20
122.1833543897
 10
84.734311251
 20
122.4398533335
 10
84.6511854826
 20
122.6934742029
 10
84.4422579569
 20
122.9216822517
 10
84.1260907387
 20
123.1042017018
 10
83.7307799707
 20
123.2248129951
 10
83.2914481365
 20
123.2728004797
 10
82.8471334253
 20
123.2438999827
 10
82.4373136048
 20
123.1406795502
 10
82.0984027287
 20
122.9723114402
 10
81.8605168607
 20
122.7537542831
 10
81.7447936332
 20
122.5044277151
 10
81.761511444
 20
122.2464879284
 10
81.9091893914
 20
122.0028512645
 10
82.1747020247
 20
121.7951680049
  0
LWPOLYLINE
  5
50E
330
1F
100
AcDbEntity
  8
0
  6
Continuous
 62
     7
370
    30
100
AcDbPolyline
 90
       22
 70
   128
 43
0.0
 10
72.2752069471
 20
162.6155750597
 10
72.6349632264
 20
162.4622959783
 10
73.0569993769
 20
162.3770444544
 10
73.503813923
 20
162.367394228
 10
73.9357045335
 20
162.4341999203
 10
74.3142965028
 20
162.5715278435
 10
74.6059513774
 20
162.7671760723
 10
74.7847541139
 20
163.003760209
 10
74.8348166673
 20
163.260257632
 10
74.7516925454
 20
163.5138794519
 10
74.5427640319
 20
163.7420884511
 10
74.2265981307
 20
163.9246071408
 10
73.8312857163
 20
164.0452190044
 10
73.3919522358
 20
164.0932055386
 10
72.9476375246
 20
164.0643050416
 10
72.5378173748
 20
163.961084419
 10
72.1989079804
 20
163.7927156437
 10
71.9610232649
 20
163.5741591519
 10
71.8452998727
 20
163.3248340095
 10
71.8620163665
 20
163.0668934625
 10
72.0096923382
 20
162.8232571787
 10
72.2752069471
 20
162.6155750597
  0
LWPOLYLINE
  5
50F
330
1F
100
AcDbEntity
  8
0
  6
Continuous
 62
     7
370
    30
100
AcDbPolyline
 90
       22
 70
   128
 43
0.0
 10
41.8696141589
 20
145.0627999644
 10
42.2293724138
 20
144.9095220234
 10
42.6514079057
 20
144.8242701194
 10
43.0982211348
 20
144.8146191326
 10
43.5301128977
 20
144.8814254902
 10
43.9087060194
 20
145.0187540787
 10
44.2003610587
 20
145.2144024026
 10
44.3791634659
 20
145.4509863492
 10
44.4292260194
 20
145.7074837723
 10
44.346100251
 20
145.9611046416
 10
44.1371714082
 20
146.1893134508
 10
43.821005507
 20
146.3718321405
 10
43.425693422
 20
146.4924441942
 10
42.9863615878
 20
146.5404316788
 10
42.5420468766
 20
146.5115311818
 10
42.1322270561
 20
146.4083107493
 10
41.7933174971
 20
146.2399418789
 10
41.5554316291
 20
146.0213847219
 10
41.4397070845
 20
145.7720589142
 10
41.4564248953
 20
145.5141191275
 10
41.6041015256
 20
145.2704832239
 10
41.8696141589
 20
145.0627999644
  0
ARC
  5
510
330
1F
100
AcDbEntity
  8
0
  6
Continuous
 62
     7
370
    30
100
AcDbCircle
 10
83.2353615811
 20
119.5182253085
 30
0.0
 40
2.371368246154117
100
AcDbArc
 50
67.7750400919
 51
112.2249659793
  0
LWPOLYLINE
  5
511
330
1F
100
AcDbEntity
  8
0
  6
Continuous
 62
     7
370
    30
100
AcDbPolyline
 90
        3
 70
   128
 43
0.0
 10
114.537907925
 20
139.2661885481
 10
114.3418565908
 20
139.3377121458
 10
114.2773482049
 20
139.3562629042
  0
ARC
  5
512
330
1F
100
AcDbEntity
  8
0
  6
Continuous
 62
     7
370
    30
100
AcDbCircle
 10
42.9302750324
 20
142.7858516433
 30
0.0
 40
2.371372749072032
100
AcDbArc
 50
67.7750845464
 51
112.2249215247
  0
ARC
  5
513
330
1F
100
AcDbEntity
  8
0
  6
Continuous
 62
     7
370
    30
100
AcDbCircle
 10
73.3358653171
 20
160.3386382248
 30
0.0
 40
2.371360809443394
100
AcDbArc
 50
67.7749657864
 51
112.2250342136
  0
LWPOLYLINE
  5
514
330
1F
100
AcDbEntity
  8
0
  6
Continuous
 62
     8
370
    30
100
AcDbPolyline
 90
        8
 70
   128
 43
0.0
 10
110.9803951751
 20
141.660604524
 10
111.1796654749
 20
141.8938943199
 10
111.5492801654
 20
142.2350489186
 10
111.9344523114
 20
142.4833099944
 10
112.3144140533
 20
142.6252907863
 10
112.6686820226
 20
142.653338397
 10
112.9781610629
 20
142.5659416772
 10
113.0127372837
 20
142.5471230599
  0
LINE
  5
515
330
1F
100
AcDbEntity
  8
0
  6
Continuous
 62
     8
370
    30
100
AcDbLine
 10
56.6165872003
 20
164.5935040958
 30
0.0
 11
56.4397811708
 21
164.4914361476
 31
0.0
  0
LINE
  5
516
330
1F
100
AcDbEntity
  8
0
  6
Continuous
 62
     8
370
    30
100
AcDbLine
 10
55.2023734062
 20
165.4099123415
 30
0.0
 11
55.0255673766
 21
165.3078443932
 31
0.0
  0
LWPOLYLINE
  5
517
330
1F
100
AcDbEntity
  8
0
  6
Continuous
 62
     8
370
    30
100
AcDbPolyline
 90
        7
 70
   128
 43
0.0
 10
93.4744355941
 20
136.6468966764
 10
93.5011804037
 20
136.8059761595
 10
93.5778204964
 20
136.9826716464
 10
93.6925218276
 20
137.1373892263
 10
93.8278211138
 20
137.2465736787
 10
93.9631204001
 20
137.2936024571
 10
94.0778006578
 20
137.2713276242
  0
LWPOLYLINE
  5
518
330
1F
100
AcDbEntity
  8
0
  6
Continuous
 62
     8
370
    30
100
AcDbPolyline
 90
        7
 70
   128
 43
0.0
 10
95.2704866649
 20
137.6837348898
 10
95.2972314745
 20
137.8428143729
 10
95.3738728843
 20
138.0195106202
 10
95.4885728984
 20
138.1742274397
 10
95.6238721846
 20
138.2834118921
 10
95.7591714709
 20
138.3304406705
 10
95.8738517286
 20
138.3081658377
  0
ARC
  5
519
330
1F
100
AcDbEntity
  8
0
  6
Continuous
 62
     8
370
    30
100
AcDbCircle
 10
92.8489642699
 20
136.4412262285
 30
0.0
 40
0.2285244135666716
100
AcDbArc
 50
182.8082817365
 51
246.079829174
  0
LWPOLYLINE
  5
51A
330
1F
100
AcDbEntity
  8
0
  6
Continuous
 62
     8
370
    30
100
AcDbPolyline
 90
        7
 70
   128
 43
0.0
 10
97.0665390528
 20
138.7205738636
 10
97.0932825453
 20
138.8796525864
 10
97.1699239551
 20
139.0563488337
 10
97.2846239692
 20
139.2110656532
 10
97.4199232554
 20
139.3202501056
 10
97.5552225417
 20
139.367278884
 10
97.6699027994
 20
139.3450040511
  0
ARC
  5
51B
330
1F
100
AcDbEntity
  8
0
  6
Continuous
 62
     8
370
    30
100
AcDbCircle
 10
94.648340541
 20
137.4803450115
 30
0.0
 40
0.2319669964278352
100
AcDbArc
 50
183.330672474
 51
245.5574384365
  0
LWPOLYLINE
  5
51C
330
1F
100
AcDbEntity
  8
0
  6
Continuous
 62
     8
370
    30
100
AcDbPolyline
 90
        7
 70
   128
 43
0.0
 10
98.8625901236
 20
139.757412077
 10
98.8893336161
 20
139.9164907998
 10
98.9659750259
 20
140.0931870471
 10
99.08067504
 20
140.2479038666
 10
99.2159743262
 20
140.357088319
 10
99.3512736125
 20
140.4041170974
 10
99.4659538702
 20
140.3818422646
  0
ARC
  5
51D
330
1F
100
AcDbEntity
  8
0
  6
Continuous
 62
     8
370
    30
100
AcDbCircle
 10
96.4443916118
 20
138.517183225
 30
0.0
 40
0.2319669964277101
100
AcDbArc
 50
183.330672474
 51
245.5574384365
  0
LWPOLYLINE
  5
51E
330
1F
100
AcDbEntity
  8
0
  6
Continuous
 62
     8
370
    30
100
AcDbPolyline
 90
        7
 70
   128
 43
0.0
 10
100.6586411944
 20
140.7942502905
 10
100.685386004
 20
140.9533297736
 10
100.7620247796
 20
141.1300245002
 10
100.8767274279
 20
141.2847428404
 10
101.0120267141
 20
141.3939272928
 10
101.1473260004
 20
141.4409560712
 10
101.262004941
 20
141.418680478
  0
ARC
  5
51F
330
1F
100
AcDbEntity
  8
0
  6
Continuous
 62
     8
370
    30
100
AcDbCircle
 10
98.2404426826
 20
139.5540214384
 30
0.0
 40
0.2319669964278252
100
AcDbArc
 50
183.330672474
 51
245.5574384365
  0
ARC
  5
520
330
1F
100
AcDbEntity
  8
0
  6
Continuous
 62
     8
370
    30
100
AcDbCircle
 10
100.0331734968
 20
140.5885824729
 30
0.0
 40
0.2285295174789635
100
AcDbArc
 50
182.809070067
 51
246.0790408436
  0
LWPOLYLINE
  5
521
330
1F
100
AcDbEntity
  8
0
  6
Continuous
 62
     8
370
    30
100
AcDbPolyline
 90
       15
 70
   128
 43
0.0
 10
61.228186046
 20
155.8461920553
 10
60.6776974965
 20
155.5808811592
 10
60.0539926272
 20
155.376577988
 10
59.3771208256
 20
155.2398484519
 10
58.6688344753
 20
155.1750876921
 10
57.9519001185
 20
155.1843763772
 10
57.2493615446
 20
155.2674164542
 10
56.5837969522
 20
155.4215395123
 10
55.976598501
 20
155.6417904202
 10
55.4472828159
 20
155.9210919397
 10
55.0128614189
 20
156.2504659842
 10
54.6872994047
 20
156.6193255894
 10
54.4810564357
 20
157.0158166852
 10
54.4007653722
 20
157.4271944643
 10
54.3998210193
 20
157.4661595726
  0
ARC
  5
522
330
1F
100
AcDbEntity
  8
0
  6
Continuous
 62
     8
370
    30
100
AcDbCircle
 10
60.4057184088
 20
157.6744207741
 30
0.0
 40
2.004712763108962
100
AcDbArc
 50
294.2216130035
 51
354.0711285462
  0
ARC
  5
523
330
1F
100
AcDbEntity
  8
0
  6
Continuous
 62
     8
370
    30
100
AcDbCircle
 10
60.4215047498
 20
151.7964281558
 30
0.0
 40
1.999295822801052
100
AcDbArc
 50
293.7960808191
 51
350.364937977
  0
LWPOLYLINE
  5
524
330
1F
100
AcDbEntity
  8
0
  6
Continuous
 62
     8
370
    30
100
AcDbPolyline
 90
       15
 70
   128
 43
0.0
 10
54.3997577991
 20
151.5999136614
 10
54.4007653722
 20
151.5481003395
 10
54.4810564357
 20
151.1367225604
 10
54.6872994047
 20
150.7402314646
 10
55.0128614189
 20
150.3713718594
 10
55.4472828159
 20
150.0419978148
 10
55.976598501
 20
149.7626962954
 10
56.5837969522
 20
149.5424453875
 10
57.2493615446
 20
149.3883223294
 10
57.9519001185
 20
149.3052822524
 10
58.6688344753
 20
149.2959935673
 10
59.3771208256
 20
149.360754327
 10
60.0539926272
 20
149.4974838632
 10
60.6776974965
 20
149.7017870343
 10
61.228186046
 20
149.9670979305
  0
ARC
  5
525
330
1F
100
AcDbEntity
  8
0
  6
Continuous
 62
     8
370
    30
100
AcDbCircle
 10
56.504108769
 20
150.9922191712
 30
0.0
 40
1.91617512053994
100
AcDbArc
 50
186.370140509
 51
240.8604106705
  0
ARC
  5
526
330
1F
100
AcDbEntity
  8
0
  6
Continuous
 62
     8
370
    30
100
AcDbCircle
 10
60.385326928
 20
150.9040994304
 30
0.0
 40
1.812270984651456
100
AcDbArc
 50
292.9637823592
 51
358.7459254821
  0
ARC
  5
527
330
1F
100
AcDbEntity
  8
0
  6
Continuous
 62
     8
370
    30
100
AcDbCircle
 10
55.9665730784
 20
150.2491907759
 30
0.0
 40
1.567261500764653
100
AcDbArc
 50
181.3672640418
 51
223.464546059
  0
ARC
  5
528
330
1F
100
AcDbEntity
  8
0
  6
Continuous
 62
     8
370
    30
100
AcDbCircle
 10
59.7357955641
 20
151.0982267607
 30
0.0
 40
2.944162692665729
100
AcDbArc
 50
287.1789633119
 51
326.1093442987
  0
LWPOLYLINE
  5
529
330
1F
100
AcDbEntity
  8
0
  6
Continuous
 62
     8
370
    30
100
AcDbPolyline
 90
       18
 70
   128
 43
0.0
 10
62.0873008206
 20
150.6082439537
 10
62.0014793003
 20
150.2943424339
 10
61.7844961289
 20
149.9206117149
 10
61.4522498879
 20
149.5762616473
 10
61.016054372
 20
149.2730181836
 10
60.4907630525
 20
149.0212071118
 10
59.8942666081
 20
148.8294054395
 10
59.2468758684
 20
148.7041437209
 10
58.5706382451
 20
148.6496878398
 10
57.8885797469
 20
148.6678911231
 10
57.2239298728
 20
148.758135415
 10
56.599322139
 20
148.9173462835
 10
56.0360255574
 20
149.1401028896
 10
55.5532235295
 20
149.4188185676
 10
55.1673553019
 20
149.7440031426
 10
54.891564106
 20
150.1045815122
 10
54.7352401278
 20
150.4882753372
 10
54.7060086542
 20
150.6592741262
  0
ARC
  5
52A
330
1F
100
AcDbEntity
  8
0
  6
Continuous
 62
     8
370
    30
100
AcDbCircle
 10
58.397032791
 20
153.5322221154
 30
0.0
 40
4.679633854522724
100
AcDbArc
 50
227.560971667
 51
312.7985924347
  0
LWPOLYLINE
  5
52B
330
1F
100
AcDbEntity
  8
0
  6
Continuous
 62
     8
370
    30
100
AcDbPolyline
 90
       15
 70
   128
 43
0.0
 10
100.3581526038
 20
153.283553587
 10
99.8076633958
 20
153.018243071
 10
99.1839598435
 20
152.8139391395
 10
98.5070854077
 20
152.6772096034
 10
97.7987997159
 20
152.6124484635
 10
97.0818686519
 20
152.6217382891
 10
96.3793294195
 20
152.7047787463
 10
95.7137648271
 20
152.858901044
 10
95.1065663758
 20
153.0791527122
 10
94.5772487152
 20
153.3584530912
 10
94.1428286352
 20
153.6878271358
 10
93.8172646454
 20
154.0566863608
 10
93.6110249691
 20
154.4531785971
 10
93.530733247
 20
154.8645567564
 10
93.5297882357
 20
154.9035207242
  0
ARC
  5
52C
330
1F
100
AcDbEntity
  8
0
  6
Continuous
 62
     8
370
    30
100
AcDbCircle
 10
99.5356855644
 20
155.1117818737
 30
0.0
 40
2.004712123812876
100
AcDbArc
 50
294.2216024864
 51
354.0711390632
  0
ARC
  5
52D
330
1F
100
AcDbEntity
  8
0
  6
Continuous
 62
     8
370
    30
100
AcDbCircle
 10
99.5515329385
 20
149.2337401088
 30
0.0
 40
1.99922559220402
100
AcDbArc
 50
293.7950379927
 51
350.3660153823
  0
LWPOLYLINE
  5
52E
330
1F
100
AcDbEntity
  8
0
  6
Continuous
 62
     8
370
    30
100
AcDbPolyline
 90
       15
 70
   128
 43
0.0
 10
93.5297263325
 20
149.0372755733
 10
93.530733247
 20
148.9854626315
 10
93.6110249691
 20
148.5740844723
 10
93.8172646454
 20
148.1775922359
 10
94.1428286352
 20
147.808733011
 10
94.5772487152
 20
147.4793589664
 10
95.1065663758
 20
147.2000585874
 10
95.7137648271
 20
146.9798069192
 10
96.3793294195
 20
146.8256846214
 10
97.0818686519
 20
146.7426441643
 10
97.7987997159
 20
146.7333543387
 10
98.5070854077
 20
146.7981154786
 10
99.1839598435
 20
146.9348450147
 10
99.8076633958
 20
147.1391489462
 10
100.3581526038
 20
147.4044594622
  0
ARC
  5
52F
330
1F
100
AcDbEntity
  8
0
  6
Continuous
 62
     8
370
    30
100
AcDbCircle
 10
95.6340564893
 20
148.4295708634
 30
0.0
 40
1.916156701023982
100
AcDbArc
 50
186.3699288321
 51
240.8607710473
  0
ARC
  5
530
330
1F
100
AcDbEntity
  8
0
  6
Continuous
 62
     8
370
    30
100
AcDbCircle
 10
99.5152946902
 20
148.3414587653
 30
0.0
 40
1.812269099078755
100
AcDbArc
 50
292.9637888777
 51
358.7459575788
  0
ARC
  5
531
330
1F
100
AcDbEntity
  8
0
  6
Continuous
 62
     8
370
    30
100
AcDbCircle
 10
95.09655925
 20
147.6865562965
 30
0.0
 40
1.567279219960015
100
AcDbArc
 50
181.3673805459
 51
223.464152177
  0
ARC
  5
532
330
1F
100
AcDbEntity
  8
0
  6
Continuous
 62
     8
370
    30
100
AcDbCircle
 10
98.8657625283
 20
148.5355896532
 30
0.0
 40
2.944163872673887
100
AcDbArc
 50
287.1789479328
 51
326.10931891
  0
LWPOLYLINE
  5
533
330
1F
100
AcDbEntity
  8
0
  6
Continuous
 62
     8
370
    30
100
AcDbPolyline
 90
       18
 70
   128
 43
0.0
 10
101.2172673784
 20
148.0456054855
 10
101.1314458581
 20
147.7317039656
 10
100.9144620282
 20
147.3579736268
 10
100.5822157872
 20
147.0136235591
 10
100.1460209298
 20
146.7103797153
 10
99.6207302688
 20
146.458569784
 10
99.0242338244
 20
146.2667681117
 10
98.3768411091
 20
146.1415044923
 10
97.7006054614
 20
146.0870489913
 10
97.0185469633
 20
146.1052522746
 10
96.3538977477
 20
146.195497707
 10
95.7292893553
 20
146.3547081954
 10
95.165990798
 20
146.5774636609
 10
94.6831887702
 20
146.856179339
 10
94.2973231768
 20
147.1813646743
 10
94.0215319808
 20
147.5419438043
 10
93.8652066855
 20
147.925636869
 10
93.8359752119
 20
148.0966356579
  0
ARC
  5
534
330
1F
100
AcDbEntity
  8
0
  6
Continuous
 62
     8
370
    30
100
AcDbCircle
 10
97.5269981317
 20
150.9695895823
 30
0.0
 40
4.679638699430154
100
AcDbArc
 50
227.5610351742
 51
312.7985358392
  0
LWPOLYLINE
  5
535
330
1F
100
AcDbEntity
  8
0
  6
Continuous
 62
     8
370
    30
100
AcDbPolyline
 90
       15
 70
   128
 43
0.0
 10
70.4665709262
 20
149.4052856685
 10
69.9160817181
 20
149.1399751525
 10
69.2923773427
 20
148.9356716962
 10
68.6155052118
 20
148.7989423502
 10
67.9072193554
 20
148.7341813053
 10
67.1902856572
 20
148.7434703706
 10
66.487745828
 20
148.8265104119
 10
65.8221815648
 20
148.9806332799
 10
65.214982846
 20
149.2008843423
 10
64.6856675315
 20
149.4801856479
 10
64.2512466283
 20
149.8095594073
 10
63.9256829677
 20
150.1784192026
 10
63.7194414805
 20
150.5749102034
 10
63.639150417
 20
150.9862887428
 10
63.6382050763
 20
151.0252529007
  0
ARC
  5
536
330
1F
100
AcDbEntity
  8
0
  6
Continuous
 62
     8
370
    30
100
AcDbCircle
 10
69.6441041759
 20
151.2335131024
 30
0.0
 40
2.004711227394965
100
AcDbArc
 50
294.2216049503
 51
354.0711691021
  0
ARC
  5
537
330
1F
100
AcDbEntity
  8
0
  6
Continuous
 62
     8
370
    30
100
AcDbCircle
 10
69.6599042113
 20
145.355509933
 30
0.0
 40
1.999279109708034
100
AcDbArc
 50
293.7958353293
 51
350.3652062415
  0
LWPOLYLINE
  5
538
330
1F
100
AcDbEntity
  8
0
  6
Continuous
 62
     8
370
    30
100
AcDbPolyline
 90
       15
 70
   128
 43
0.0
 10
63.6381435024
 20
145.1590075597
 10
63.639150417
 20
145.107194618
 10
63.7194414805
 20
144.6958160786
 10
63.9256829677
 20
144.2993250778
 10
64.2512466283
 20
143.9304652825
 10
64.6856675315
 20
143.6010915231
 10
65.214982846
 20
143.3217902174
 10
65.8221815648
 20
143.1015391551
 10
66.487745828
 20
142.9474162871
 10
67.1902856572
 20
142.8643762458
 10
67.9072193554
 20
142.8550871805
 10
68.6155052118
 20
142.9198482254
 10
69.2923773427
 20
143.0565775714
 10
69.9160817181
 20
143.2608810277
 10
70.4665709262
 20
143.5261915437
  0
ARC
  5
539
330
1F
100
AcDbEntity
  8
0
  6
Continuous
 62
     8
370
    30
100
AcDbCircle
 10
65.7424942531
 20
144.5513137956
 30
0.0
 40
1.91617629219331
100
AcDbArc
 50
186.3701584442
 51
240.8603982535
  0
ARC
  5
53A
330
1F
100
AcDbEntity
  8
0
  6
Continuous
 62
     8
370
    30
100
AcDbCircle
 10
69.623710957
 20
144.4631936042
 30
0.0
 40
1.812271681228252
100
AcDbArc
 50
292.9637966013
 51
358.7459112399
  0
ARC
  5
53B
330
1F
100
AcDbEntity
  8
0
  6
Continuous
 62
     8
370
    30
100
AcDbCircle
 10
65.2049602676
 20
143.8082837661
 30
0.0
 40
1.567262964522782
100
AcDbArc
 50
181.3672295546
 51
223.4644448106
  0
ARC
  5
53C
330
1F
100
AcDbEntity
  8
0
  6
Continuous
 62
     8
370
    30
100
AcDbCircle
 10
68.9741227804
 20
144.657398945
 30
0.0
 40
2.944254371834617
100
AcDbArc
 50
287.1795762508
 51
326.1087007839
  0
LWPOLYLINE
  5
53D
330
1F
100
AcDbEntity
  8
0
  6
Continuous
 62
     8
370
    30
100
AcDbPolyline
 90
       18
 70
   128
 43
0.0
 10
71.3256857008
 20
144.167337567
 10
71.2398637689
 20
143.8534362847
 10
71.0228803505
 20
143.4797057083
 10
70.6906342742
 20
143.1353555456
 10
70.2544389229
 20
142.8321119869
 10
69.7291474387
 20
142.5803010102
 10
69.1326508297
 20
142.3884994329
 10
68.485260337
 20
142.2632375718
 10
67.8090220551
 20
142.2087813104
 10
67.1269649975
 20
142.2269852828
 10
66.4623147427
 20
142.3172290341
 10
65.8377065458
 20
142.4764401699
 10
65.2744101906
 20
142.6991966453
 10
64.7916076688
 20
142.9779126085
 10
64.4057401821
 20
143.3030967558
 10
64.1299486569
 20
143.6636753155
 10
63.9736248433
 20
144.0473698058
 10
63.9443933697
 20
144.2183685948
  0
ARC
  5
53E
330
1F
100
AcDbEntity
  8
0
  6
Continuous
 62
     8
370
    30
100
AcDbCircle
 10
67.6354168617
 20
147.0913176442
 30
0.0
 40
4.679635446850912
100
AcDbArc
 50
227.5609919984
 51
312.798582396
  0
ENDSEC
  0
SECTION
  2
OBJECTS
  0
DICTIONARY
  5
C
330
0
100
AcDbDictionary
281
     1
  3
ACAD_GROUP
350
D
  3
ACAD_LAYOUT
350
1A
  3
ACAD_MLINESTYLE
350
17
  3
ACAD_PLOTSETTINGS
350
19
  3
ACAD_PLOTSTYLENAME
350
E
  3
ACAD_SCALELIST
350
47
  0
DICTIONARY
  5
D
102
{ACAD_REACTORS
330
C
102
}
330
C
100
AcDbDictionary
281
     1
  0
DICTIONARY
  5
1A
102
{ACAD_REACTORS
330
C
102
}
330
C
100
AcDbDictionary
281
     1
  3
Layout1
350
1E
  3
Layout2
350
26
  3
Model
350
22
  0
DICTIONARY
  5
17
102
{ACAD_REACTORS
330
C
102
}
330
C
100
AcDbDictionary
281
     1
  3
Standard
350
18
  0
DICTIONARY
  5
19
102
{ACAD_REACTORS
330
C
102
}
330
C
100
AcDbDictionary
281
     1
  0
ACDBDICTIONARYWDFLT
  5
E
102
{ACAD_REACTORS
330
C
102
}
330
C
100
AcDbDictionary
281
     1
  3
Normal
350
F
100
AcDbDictionaryWithDefault
340
F
  0
DICTIONARY
  5
47
102
{ACAD_REACTORS
330
C
102
}
330
C
100
AcDbDictionary
281
     1
  3
A0
350
48
  3
A1
350
49
  3
A2
350
4A
  3
A3
350
4B
  3
A4
350
4C
  3
A5
350
4D
  3
A6
350
4E
  3
A7
350
4F
  3
A8
350
50
  3
A9
350
51
  3
B0
350
52
  3
B1
350
53
  3
B2
350
54
  3
B3
350
55
  3
B4
350
56
  3
B5
350
57
  3
B6
350
58
  3
B7
350
59
  3
B8
350
5A
  3
B9
350
5B
  3
C0
350
5C
  3
C1
350
5D
  3
C2
350
5E
  3
C3
350
5F
  3
C4
350
60
  3
C5
350
61
  3
C6
350
62
  3
C7
350
63
  3
C8
350
64
  3
C9
350
65
  3
D0
350
66
  3
D1
350
67
  3
D2
350
68
  0
LAYOUT
  5
1E
102
{ACAD_REACTORS
330
1A
102
}
330
1A
100
AcDbPlotSettings
  1

  2
none_device
  4

  6

 40
0.0
 41
0.0
 42
0.0
 43
0.0
 44
0.0
 45
0.0
 46
0.0
 47
0.0
 48
0.0
 49
0.0
140
0.0
141
0.0
142
1.0
143
1.0
 70
   688
 72
     1
 73
     0
 74
     5
  7

 75
    16
147
1.0
148
0.0
149
0.0
100
AcDbLayout
  1
Layout1
 70
     1
 71
     1
 10
0.0
 20
0.0
 11
420.0
 21
297.0
 12
0.0
 22
0.0
 32
0.0
 14
1.0000000000E+20
 24
1.0000000000E+20
 34
1.0000000000E+20
 15
-1.0000000000E+20
 25
-1.0000000000E+20
 35
-1.0000000000E+20
146
0.0
 13
0.0
 23
0.0
 33
0.0
 16
1.0
 26
0.0
 36
0.0
 17
0.0
 27
1.0
 37
0.0
 76
     0
330
1B
  0
LAYOUT
  5
26
102
{ACAD_REACTORS
330
1A
102
}
330
1A
100
AcDbPlotSettings
  1

  2
none_device
  4

  6

 40
0.0
 41
0.0
 42
0.0
 43
0.0
 44
0.0
 45
0.0
 46
0.0
 47
0.0
 48
0.0
 49
0.0
140
0.0
141
0.0
142
1.0
143
1.0
 70
   688
 72
     1
 73
     0
 74
     5
  7

 75
    16
147
1.0
148
0.0
149
0.0
100
AcDbLayout
  1
Layout2
 70
     1
 71
     2
 10
0.0
 20
0.0
 11
0.0
 21
0.0
 12
0.0
 22
0.0
 32
0.0
 14
0.0
 24
0.0
 34
0.0
 15
0.0
 25
0.0
 35
0.0
146
0.0
 13
0.0
 23
0.0
 33
0.0
 16
1.0
 26
0.0
 36
0.0
 17
0.0
 27
1.0
 37
0.0
 76
     0
330
23
  0
LAYOUT
  5
22
102
{ACAD_REACTORS
330
1A
102
}
330
1A
100
AcDbPlotSettings
  1

  2
none_device
  4
Letter_(8.50_x_11.00_Inches)
  6

 40
6.35
 41
6.35
 42
6.35000508
 43
6.35000508
 44
215.9
 45
279.4
 46
0.0
 47
0.0
 48
0.0
 49
0.0
140
0.0
141
0.0
142
1.0
143
1.0
 70
  1712
 72
     1
 73
     0
 74
     0
  7

 75
     0
147
1.0
148
0.0
149
0.0
100
AcDbLayout
  1
Model
 70
     1
 71
     0
 10
0.0
 20
0.0
 11
297.0
 21
210.0
 12
0.0
 22
0.0
 32
0.0
 14
0.0
 24
0.0
 34
0.0
 15
297.0
 25
210.0
 35
0.0
146
0.0
 13
0.0
 23
0.0
 33
0.0
 16
1.0
 26
0.0
 36
0.0
 17
0.0
 27
1.0
 37
0.0
 76
     0
330
1F
331
29
  0
MLINESTYLE
  5
18
102
{ACAD_REACTORS
330
17
102
}
330
17
100
AcDbMlineStyle
  2
Standard
 70
     0
  3

 62
   256
 51
90.0
 52
90.0
 71
     2
 49
0.5
 62
   256
  6
BYLAYER
 49
-0.5
 62
   256
  6
BYLAYER
  0
ACDBPLACEHOLDER
  5
F
102
{ACAD_REACTORS
330
E
102
}
330
E
  0
SCALE
  5
48
102
{ACAD_REACTORS
330
47
102
}
330
47
100
AcDbScale
 70
     0
300
1:1
140
1.0
141
1.0
290
     1
  0
SCALE
  5
49
102
{ACAD_REACTORS
330
47
102
}
330
47
100
AcDbScale
 70
     0
300
1:2
140
1.0
141
2.0
290
     0
  0
SCALE
  5
4A
102
{ACAD_REACTORS
330
47
102
}
330
47
100
AcDbScale
 70
     0
300
1:4
140
1.0
141
4.0
290
     0
  0
SCALE
  5
4B
102
{ACAD_REACTORS
330
47
102
}
330
47
100
AcDbScale
 70
     0
300
1:5
140
1.0
141
5.0
290
     0
  0
SCALE
  5
4C
102
{ACAD_REACTORS
330
47
102
}
330
47
100
AcDbScale
 70
     0
300
1:8
140
1.0
141
8.0
290
     0
  0
SCALE
  5
4D
102
{ACAD_REACTORS
330
47
102
}
330
47
100
AcDbScale
 70
     0
300
1:10
140
1.0
141
10.0
290
     0
  0
SCALE
  5
4E
102
{ACAD_REACTORS
330
47
102
}
330
47
100
AcDbScale
 70
     0
300
1:16
140
1.0
141
16.0
290
     0
  0
SCALE
  5
4F
102
{ACAD_REACTORS
330
47
102
}
330
47
100
AcDbScale
 70
     0
300
1:20
140
1.0
141
20.0
290
     0
  0
SCALE
  5
50
102
{ACAD_REACTORS
330
47
102
}
330
47
100
AcDbScale
 70
     0
300
1:30
140
1.0
141
30.0
290
     0
  0
SCALE
  5
51
102
{ACAD_REACTORS
330
47
102
}
330
47
100
AcDbScale
 70
     0
300
1:40
140
1.0
141
40.0
290
     0
  0
SCALE
  5
52
102
{ACAD_REACTORS
330
47
102
}
330
47
100
AcDbScale
 70
     0
300
1:50
140
1.0
141
50.0
290
     0
  0
SCALE
  5
53
102
{ACAD_REACTORS
330
47
102
}
330
47
100
AcDbScale
 70
     0
300
1:100
140
1.0
141
100.0
290
     0
  0
SCALE
  5
54
102
{ACAD_REACTORS
330
47
102
}
330
47
100
AcDbScale
 70
     0
300
2:1
140
2.0
141
1.0
290
     0
  0
SCALE
  5
55
102
{ACAD_REACTORS
330
47
102
}
330
47
100
AcDbScale
 70
     0
300
4:1
140
4.0
141
1.0
290
     0
  0
SCALE
  5
56
102
{ACAD_REACTORS
330
47
102
}
330
47
100
AcDbScale
 70
     0
300
8:1
140
8.0
141
1.0
290
     0
  0
SCALE
  5
57
102
{ACAD_REACTORS
330
47
102
}
330
47
100
AcDbScale
 70
     0
300
10:1
140
10.0
141
1.0
290
     0
  0
SCALE
  5
58
102
{ACAD_REACTORS
330
47
102
}
330
47
100
AcDbScale
 70
     0
300
100:1
140
100.0
141
1.0
290
     0
  0
SCALE
  5
59
102
{ACAD_REACTORS
330
47
102
}
330
47
100
AcDbScale
 70
     0
300
1/128" = 1'-0"
140
0.0078125
141
12.0
290
     0
  0
SCALE
  5
5A
102
{ACAD_REACTORS
330
47
102
}
330
47
100
AcDbScale
 70
     0
300
1/64" = 1'-0"
140
0.015625
141
12.0
290
     0
  0
SCALE
  5
5B
102
{ACAD_REACTORS
330
47
102
}
330
47
100
AcDbScale
 70
     0
300
1/32" = 1'-0"
140
0.03125
141
12.0
290
     0
  0
SCALE
  5
5C
102
{ACAD_REACTORS
330
47
102
}
330
47
100
AcDbScale
 70
     0
300
1/16" = 1'-0"
140
0.0625
141
12.0
290
     0
  0
SCALE
  5
5D
102
{ACAD_REACTORS
330
47
102
}
330
47
100
AcDbScale
 70
     0
300
3/32" = 1'-0"
140
0.09375
141
12.0
290
     0
  0
SCALE
  5
5E
102
{ACAD_REACTORS
330
47
102
}
330
47
100
AcDbScale
 70
     0
300
1/8" = 1'-0"
140
0.125
141
12.0
290
     0
  0
SCALE
  5
5F
102
{ACAD_REACTORS
330
47
102
}
330
47
100
AcDbScale
 70
     0
300
3/16" = 1'-0"
140
0.1875
141
12.0
290
     0
  0
SCALE
  5
60
102
{ACAD_REACTORS
330
47
102
}
330
47
100
AcDbScale
 70
     0
300
1/4" = 1'-0"
140
0.25
141
12.0
290
     0
  0
SCALE
  5
61
102
{ACAD_REACTORS
330
47
102
}
330
47
100
AcDbScale
 70
     0
300
3/8" = 1'-0"
140
0.375
141
12.0
290
     0
  0
SCALE
  5
62
102
{ACAD_REACTORS
330
47
102
}
330
47
100
AcDbScale
 70
     0
300
1/2" = 1'-0"
140
0.5
141
12.0
290
     0
  0
SCALE
  5
63
102
{ACAD_REACTORS
330
47
102
}
330
47
100
AcDbScale
 70
     0
300
3/4" = 1'-0"
140
0.75
141
12.0
290
     0
  0
SCALE
  5
64
102
{ACAD_REACTORS
330
47
102
}
330
47
100
AcDbScale
 70
     0
300
1" = 1'-0"
140
1.0
141
12.0
290
     0
  0
SCALE
  5
65
102
{ACAD_REACTORS
330
47
102
}
330
47
100
AcDbScale
 70
     0
300
1-1/2" = 1'-0"
140
1.5
141
12.0
290
     0
  0
SCALE
  5
66
102
{ACAD_REACTORS
330
47
102
}
330
47
100
AcDbScale
 70
     0
300
3" = 1'-0"
140
3.0
141
12.0
290
     0
  0
SCALE
  5
67
102
{ACAD_REACTORS
330
47
102
}
330
47
100
AcDbScale
 70
     0
300
6" = 1'-0"
140
6.0
141
12.0
290
     0
  0
SCALE
  5
68
102
{ACAD_REACTORS
330
47
102
}
330
47
100
AcDbScale
 70
     0
300
1'-0" = 1'-0"
140
12.0
141
12.0
290
     0
  0
ENDSEC
  0
EOF
