  0
SECTION
  2
HEADER
  9
$ACADVER
  1
AC1015
  9
$ACADMAINTVER
 70
     6
  9
$DWGCODEPAGE
  3
ANSI_950
  9
$INSBASE
 10
0.0
 20
0.0
 30
0.0
  9
$EXTMIN
 10
0.0
 20
0.0
 30
0.0
  9
$EXTMAX
 10
297.0
 20
210.0
 30
0.0
  9
$LIMMIN
 10
0.0
 20
0.0
  9
$LIMMAX
 10
297.0
 20
210.0
  9
$ORTHOMODE
 70
     0
  9
$REGENMODE
 70
     1
  9
$FILLMODE
 70
     1
  9
$QTEXTMODE
 70
     0
  9
$MIRRTEXT
 70
     1
  9
$LTSCALE
 40
1.0
  9
$ATTMODE
 70
     1
  9
$TEXTSIZE
 40
3.5277777778
  9
$TRACEWID
 40
1.0
  9
$TEXTSTYLE
  7
Standard
  9
$CLAYER
  8
0
  9
$CELTYPE
  6
ByLayer
  9
$CECOLOR
 62
   256
  9
$CELTSCALE
 40
1.0
  9
$DISPSILH
 70
     0
  9
$DIMSCALE
 40
1.0
  9
$DIMASZ
 40
2.0
  9
$DIMEXO
 40
1.0
  9
$DIMDLI
 40
3.75
  9
$DIMRND
 40
0.0
  9
$DIMDLE
 40
0.0
  9
$DIMEXE
 40
1.0
  9
$DIMTP
 40
0.0
  9
$DIMTM
 40
0.0
  9
$DIMTXT
 40
2.5
  9
$DIMCEN
 40
2.5
  9
$DIMTSZ
 40
0.0
  9
$DIMTOL
 70
     0
  9
$DIMLIM
 70
     0
  9
$DIMTIH
 70
     1
  9
$DIMTOH
 70
     1
  9
$DIMSE1
 70
     0
  9
$DIMSE2
 70
     0
  9
$DIMTAD
 70
     1
  9
$DIMZIN
 70
     0
  9
$DIMBLK
  1

  9
$DIMASO
 70
     1
  9
$DIMSHO
 70
     1
  9
$DIMPOST
  1

  9
$DIMAPOST
  1

  9
$DIMALT
 70
     0
  9
$DIMALTD
 70
     3
  9
$DIMALTF
 40
0.0393700787
  9
$DIMLFAC
 40
1.0
  9
$DIMTOFL
 70
     1
  9
$DIMTVP
 40
0.0
  9
$DIMTIX
 70
     0
  9
$DIMSOXD
 70
     0
  9
$DIMSAH
 70
     0
  9
$DIMBLK1
  1

  9
$DIMBLK2
  1

  9
$DIMSTYLE
  2
ISO-25
  9
$DIMCLRD
 70
     0
  9
$DIMCLRE
 70
     0
  9
$DIMCLRT
 70
     0
  9
$DIMTFAC
 40
1.0
  9
$DIMGAP
 40
1.0
  9
$DIMJUST
 70
     0
  9
$DIMSD1
 70
     0
  9
$DIMSD2
 70
     0
  9
$DIMTOLJ
 70
     0
  9
$DIMTZIN
 70
     0
  9
$DIMALTZ
 70
     0
  9
$DIMALTTZ
 70
     0
  9
$DIMUPT
 70
     0
  9
$DIMDEC
 70
     2
  9
$DIMTDEC
 70
     2
  9
$DIMALTU
 70
     2
  9
$DIMALTTD
 70
     3
  9
$DIMTXSTY
  7
Standard
  9
$DIMAUNIT
 70
     0
  9
$DIMADEC
 70
     1
  9
$DIMALTRND
 40
0.0
  9
$DIMAZIN
 70
     0
  9
$DIMDSEP
 70
    44
  9
$DIMATFIT
 70
     3
  9
$DIMFRAC
 70
     0
  9
$DIMLDRBLK
  1

  9
$DIMLUNIT
 70
     2
  9
$DIMLWD
 70
    -2
  9
$DIMLWE
 70
    -2
  9
$DIMTMOVE
 70
     0
  9
$LUNITS
 70
     2
  9
$LUPREC
 70
     2
  9
$SKETCHINC
 40
1.0
  9
$FILLETRAD
 40
10.0
  9
$AUNITS
 70
     0
  9
$AUPREC
 70
     1
  9
$MENU
  1
.
  9
$ELEVATION
 40
0.0
  9
$PELEVATION
 40
0.0
  9
$THICKNESS
 40
0.0
  9
$LIMCHECK
 70
     0
  9
$CHAMFERA
 40
0.0
  9
$CHAMFERB
 40
0.0
  9
$CHAMFERC
 40
0.0
  9
$CHAMFERD
 40
0.0
  9
$SKPOLY
 70
     0
  9
$TDCREATE
 40
2457493.701005093
  9
$TDUCREATE
 40
2457493.367671759
  9
$TDUPDATE
 40
2457493.701009919
  9
$TDUUPDATE
 40
2457493.367676585
  9
$TDINDWG
 40
0.0000000116
  9
$TDUSRTIMER
 40
0.0000000116
  9
$USRTIMER
 70
     1
  9
$ANGBASE
 50
0.0
  9
$ANGDIR
 70
     0
  9
$PDMODE
 70
     0
  9
$PDSIZE
 40
-1.0
  9
$PLINEWID
 40
0.0
  9
$SPLFRAME
 70
     0
  9
$SPLINETYPE
 70
     6
  9
$SPLINESEGS
 70
     8
  9
$HANDSEED
  5
2B5
  9
$SURFTAB1
 70
     6
  9
$SURFTAB2
 70
     6
  9
$SURFTYPE
 70
     6
  9
$SURFU
 70
     6
  9
$SURFV
 70
     6
  9
$UCSBASE
  2

  9
$UCSNAME
  2

  9
$UCSORG
 10
0.0
 20
0.0
 30
0.0
  9
$UCSXDIR
 10
1.0
 20
0.0
 30
0.0
  9
$UCSYDIR
 10
0.0
 20
1.0
 30
0.0
  9
$UCSORTHOREF
  2

  9
$UCSORTHOVIEW
 70
     0
  9
$UCSORGTOP
 10
0.0
 20
0.0
 30
0.0
  9
$UCSORGBOTTOM
 10
0.0
 20
0.0
 30
0.0
  9
$UCSORGLEFT
 10
0.0
 20
0.0
 30
0.0
  9
$UCSORGRIGHT
 10
0.0
 20
0.0
 30
0.0
  9
$UCSORGFRONT
 10
0.0
 20
0.0
 30
0.0
  9
$UCSORGBACK
 10
0.0
 20
0.0
 30
0.0
  9
$PUCSBASE
  2

  9
$PUCSNAME
  2

  9
$PUCSORG
 10
0.0
 20
0.0
 30
0.0
  9
$PUCSXDIR
 10
1.0
 20
0.0
 30
0.0
  9
$PUCSYDIR
 10
0.0
 20
1.0
 30
0.0
  9
$PUCSORTHOREF
  2

  9
$PUCSORTHOVIEW
 70
     0
  9
$PUCSORGTOP
 10
0.0
 20
0.0
 30
0.0
  9
$PUCSORGBOTTOM
 10
0.0
 20
0.0
 30
0.0
  9
$PUCSORGLEFT
 10
0.0
 20
0.0
 30
0.0
  9
$PUCSORGRIGHT
 10
0.0
 20
0.0
 30
0.0
  9
$PUCSORGFRONT
 10
0.0
 20
0.0
 30
0.0
  9
$PUCSORGBACK
 10
0.0
 20
0.0
 30
0.0
  9
$USERI1
 70
     0
  9
$USERI2
 70
     0
  9
$USERI3
 70
     0
  9
$USERI4
 70
     0
  9
$USERI5
 70
     0
  9
$USERR1
 40
0.0
  9
$USERR2
 40
0.0
  9
$USERR3
 40
0.0
  9
$USERR4
 40
0.0
  9
$USERR5
 40
0.0
  9
$WORLDVIEW
 70
     1
  9
$SHADEDGE
 70
     3
  9
$SHADEDIF
 70
    70
  9
$TILEMODE
 70
     1
  9
$MAXACTVP
 70
    64
  9
$PINSBASE
 10
0.0
 20
0.0
 30
0.0
  9
$PLIMCHECK
 70
     0
  9
$PEXTMIN
 10
1.0000000000E+20
 20
1.0000000000E+20
 30
1.0000000000E+20
  9
$PEXTMAX
 10
-1.0000000000E+20
 20
-1.0000000000E+20
 30
-1.0000000000E+20
  9
$PLIMMIN
 10
0.0
 20
0.0
  9
$PLIMMAX
 10
420.0
 20
297.0
  9
$UNITMODE
 70
     0
  9
$VISRETAIN
 70
     1
  9
$PLINEGEN
 70
     0
  9
$PSLTSCALE
 70
     1
  9
$TREEDEPTH
 70
  3020
  9
$CMLSTYLE
  2
Standard
  9
$CMLJUST
 70
     0
  9
$CMLSCALE
 40
20.0
  9
$PROXYGRAPHICS
 70
     1
  9
$MEASUREMENT
 70
     1
  9
$CELWEIGHT
370
    -1
  9
$ENDCAPS
280
     0
  9
$JOINSTYLE
280
     0
  9
$LWDISPLAY
290
     1
  9
$INSUNITS
 70
     4
  9
$HYPERLINKBASE
  1

  9
$STYLESHEET
  1

  9
$XEDIT
290
     1
  9
$CEPSNTYPE
380
     0
  9
$PSTYLEMODE
290
     1
  9
$FINGERPRINTGUID
  2
{EE123677-B4A3-4215-BB7B-AFF6C95DB9CC}
  9
$VERSIONGUID
  2
{FAEB1C32-E019-11D5-929B-00C0DF256EC4}
  9
$EXTNAMES
290
     1
  9
$PSVPSCALE
 40
0.0
  9
$OLESTARTUP
290
     0
  0
ENDSEC
  0
SECTION
  2
CLASSES
  0
CLASS
  1
ACDBDICTIONARYWDFLT
  2
AcDbDictionaryWithDefault
  3
ObjectDBX Classes
 90
        0
280
     0
281
     0
  0
CLASS
  1
VISUALSTYLE
  2
AcDbVisualStyle
  3
ObjectDBX Classes
 90
     4095
280
     0
281
     0
  0
CLASS
  1
MATERIAL
  2
AcDbMaterial
  3
ObjectDBX Classes
 90
     1153
280
     0
281
     0
  0
CLASS
  1
SCALE
  2
AcDbScale
  3
ObjectDBX Classes
 90
     1153
280
     0
281
     0
  0
CLASS
  1
TABLESTYLE
  2
AcDbTableStyle
  3
ObjectDBX Classes
 90
     4095
280
     0
281
     0
  0
CLASS
  1
MLEADERSTYLE
  2
AcDbMLeaderStyle
  3
ACDB_MLEADERSTYLE_CLASS
 90
     4095
280
     0
281
     0
  0
CLASS
  1
SUN
  2
AcDbSun
  3
SCENEOE
 90
     1153
280
     0
281
     0
  0
CLASS
  1
ACDBPLACEHOLDER
  2
AcDbPlaceHolder
  3
ObjectDBX Classes
 90
        0
280
     0
281
     0
  0
CLASS
  1
LAYOUT
  2
AcDbLayout
  3
ObjectDBX Classes
 90
        0
280
     0
281
     0
  0
ENDSEC
  0
SECTION
  2
TABLES
  0
TABLE
  2
VPORT
  5
8
330
0
100
AcDbSymbolTable
 70
     1
  0
VPORT
  5
29
330
8
100
AcDbSymbolTableRecord
100
AcDbViewportTableRecord
  2
*Active
 70
     0
 10
0.0
 20
0.0
 11
1.0
 21
1.0
 12
148.5
 22
105.0
 13
0.0
 23
0.0
 14
10.0
 24
10.0
 15
10.0
 25
10.0
 16
0.0
 26
0.0
 36
1.0
 17
0.0
 27
0.0
 37
0.0
 40
210.0
 41
1.4142857143
 42
50.0
 43
0.0
 44
0.0
 50
0.0
 51
0.0
 71
     0
 72
  2000
 73
     1
 74
     3
 75
     0
 76
     0
 77
     0
 78
     0
281
     0
 65
     1
110
0.0
120
0.0
130
0.0
111
1.0
121
0.0
131
0.0
112
0.0
122
1.0
132
0.0
 79
     0
146
0.0
  0
ENDTAB
  0
TABLE
  2
LTYPE
  5
5
330
0
100
AcDbSymbolTable
 70
     6
  0
LTYPE
  5
14
330
5
100
AcDbSymbolTableRecord
100
AcDbLinetypeTableRecord
  2
ByBlock
 70
     0
  3

 72
    65
 73
     0
 40
0.0
  0
LTYPE
  5
15
330
5
100
AcDbSymbolTableRecord
100
AcDbLinetypeTableRecord
  2
ByLayer
 70
     0
  3

 72
    65
 73
     0
 40
0.0
  0
LTYPE
  5
16
330
5
100
AcDbSymbolTableRecord
100
AcDbLinetypeTableRecord
  2
Continuous
 70
     0
  3
Solid line
 72
    65
 73
     0
 40
0.0
  0
LTYPE
  5
6E
330
5
100
AcDbSymbolTableRecord
100
AcDbLinetypeTableRecord
  2
HIDDEN
 70
     0
  3
Hidden __ __ __ __ __ __ __ __ __ __ __ __ __ __
 72
    65
 73
     2
 40
1.905
 49
1.27
 74
     0
 49
-0.635
 74
     0
  0
LTYPE
  5
6F
330
5
100
AcDbSymbolTableRecord
100
AcDbLinetypeTableRecord
  2
PHANTOM
 70
     0
  3
Phantom ______  __  __  ______  __  __  ______
 72
    65
 73
     6
 40
12.7
 49
6.35
 74
     0
 49
-1.27
 74
     0
 49
1.27
 74
     0
 49
-1.27
 74
     0
 49
1.27
 74
     0
 49
-1.27
 74
     0
  0
LTYPE
  5
70
330
5
100
AcDbSymbolTableRecord
100
AcDbLinetypeTableRecord
  2
CENTER
 70
     0
  3
Center ____ _ ____ _ ____ _ ____ _ ____ _ ____
 72
    65
 73
     4
 40
10.16
 49
6.35
 74
     0
 49
-1.27
 74
     0
 49
1.27
 74
     0
 49
-1.27
 74
     0
  0
LTYPE
  5
71
330
5
100
AcDbSymbolTableRecord
100
AcDbLinetypeTableRecord
  2
CENTERX2
 70
     0
  3
Center (2x) ________  __  ________  __  _____
 72
    65
 73
     4
 40
20.32
 49
12.7
 74
     0
 49
-2.54
 74
     0
 49
2.54
 74
     0
 49
-2.54
 74
     0
  0
LTYPE
  5
72
330
5
100
AcDbSymbolTableRecord
100
AcDbLinetypeTableRecord
  2
DOT2
 70
     0
  3
Dot (.5x) ........................................
 72
    65
 73
     2
 40
0.635
 49
0.0
 74
     0
 49
-0.635
 74
     0
  0
ENDTAB
  0
TABLE
  2
LAYER
  5
2
330
0
100
AcDbSymbolTable
 70
    10
  0
LAYER
  5
10
330
2
100
AcDbSymbolTableRecord
100
AcDbLayerTableRecord
  2
0
 70
     0
 62
     7
  6
Continuous
370
    -3
390
F
  0
LAYER
  5
73
330
2
100
AcDbSymbolTableRecord
100
AcDbLayerTableRecord
  2
SLD-0
 70
     0
 62
   179
  6
Continuous
370
    15
390
F
  0
LAYER
  5
74
330
2
100
AcDbSymbolTableRecord
100
AcDbLayerTableRecord
  2
輪廓線
 70
     0
 62
   219
  6
Continuous
370
    15
390
F
  0
LAYER
  5
75
330
2
100
AcDbSymbolTableRecord
100
AcDbLayerTableRecord
  2
DIM
 70
     0
 62
     7
  6
Continuous
370
    -3
390
F
  0
LAYER
  5
76
330
2
100
AcDbSymbolTableRecord
100
AcDbLayerTableRecord
  2
中心線
 70
     0
 62
     1
  6
CENTERX2
370
    -3
390
F
  0
LAYER
  5
77
330
2
100
AcDbSymbolTableRecord
100
AcDbLayerTableRecord
  2
虛線
 70
     0
 62
     6
  6
HIDDEN
370
    -3
390
F
  0
LAYER
  5
78
330
2
100
AcDbSymbolTableRecord
100
AcDbLayerTableRecord
  2
SECTION
 70
     0
 62
     5
  6
PHANTOM
370
    15
390
F
  0
LAYER
  5
79
330
2
100
AcDbSymbolTableRecord
100
AcDbLayerTableRecord
  2
假想線
 70
     0
 62
     5
  6
PHANTOM
370
    -3
390
F
  0
LAYER
  5
7A
330
2
100
AcDbSymbolTableRecord
100
AcDbLayerTableRecord
  2
工作區域參考線
 70
     0
 62
   179
  6
Continuous
370
    -3
390
F
  0
LAYER
  5
7B
330
2
100
AcDbSymbolTableRecord
100
AcDbLayerTableRecord
  2
圖層_1
 70
     0
 62
   179
  6
Continuous
370
    -3
390
F
  0
ENDTAB
  0
TABLE
  2
STYLE
  5
3
330
0
100
AcDbSymbolTable
 70
     3
  0
STYLE
  5
11
330
3
100
AcDbSymbolTableRecord
100
AcDbTextStyleTableRecord
  2
Standard
 70
     0
 40
0.0
 41
1.0
 50
0.0
 71
     0
 42
3.5277777778
  3
txt
  4

  0
STYLE
  5
CC
330
3
100
AcDbSymbolTableRecord
100
AcDbTextStyleTableRecord
  2
SLDTEXTSTYLE0
 70
     0
 40
0.0
 41
0.605
 50
0.0
 71
     0
 42
3.5277777778
  3
TXT
  4

  0
STYLE
  5
D5
330
3
100
AcDbSymbolTableRecord
100
AcDbTextStyleTableRecord
  2
SLDTEXTSTYLE1
 70
     0
 40
0.0
 41
0.7
 50
0.0
 71
     0
 42
3.5277777778
  3
TXT
  4

  0
ENDTAB
  0
TABLE
  2
VIEW
  5
6
330
0
100
AcDbSymbolTable
 70
     0
  0
ENDTAB
  0
TABLE
  2
UCS
  5
7
330
0
100
AcDbSymbolTable
 70
     0
  0
ENDTAB
  0
TABLE
  2
APPID
  5
9
330
0
100
AcDbSymbolTable
 70
     1
  0
APPID
  5
12
330
9
100
AcDbSymbolTableRecord
100
AcDbRegAppTableRecord
  2
ACAD
 70
     0
  0
ENDTAB
  0
TABLE
  2
DIMSTYLE
  5
A
330
0
100
AcDbSymbolTable
 70
     4
100
AcDbDimStyleTable
  0
DIMSTYLE
105
27
330
A
100
AcDbSymbolTableRecord
100
AcDbDimStyleTableRecord
  2
ISO-25
 70
     0
 41
2.5
 42
0.625
 43
3.75
 44
1.25
 73
     0
 74
     0
 77
     1
 78
     8
140
2.5
141
2.5
143
0.0393700787
147
0.625
171
     3
172
     1
178
     0
271
     2
272
     2
274
     3
278
    44
283
     0
284
     8
340
11
  0
DIMSTYLE
105
130
102
{ACAD_REACTORS
330
12F
330
13A
330
144
330
14E
330
1C3
330
1CD
330
1D7
330
1E1
102
}
330
A
100
AcDbSymbolTableRecord
100
AcDbDimStyleTableRecord
  2
SLDDIMSTYLE0
 70
     0
 41
2.0
 44
0.0
 45
0.000000001
 73
     0
 74
     0
 77
     1
 78
    12
 79
     3
140
2.5
147
0.625
173
     1
178
     0
271
     2
272
     2
276
     2
284
    12
340
CC
  0
DIMSTYLE
105
15E
330
A
100
AcDbSymbolTableRecord
100
AcDbDimStyleTableRecord
  2
SLDDIMSTYLE1
 70
     0
 41
2.0
 44
0.0
 45
0.000000001
146
2.0
147
0.0
173
     1
178
     0
271
     0
272
     0
276
     2
340
11
  0
DIMSTYLE
105
1EC
102
{ACAD_REACTORS
330
1EB
330
1F3
102
}
330
A
100
AcDbSymbolTableRecord
100
AcDbDimStyleTableRecord
  2
SLDDIMSTYLE2
 70
     0
 41
2.0
 44
0.0
 45
0.000000001
 73
     0
 74
     0
 77
     1
 78
    12
 79
     3
140
2.5
141
0.0
147
0.625
173
     1
178
     0
271
     2
272
     2
276
     2
284
    12
340
CC
  0
ENDTAB
  0
TABLE
  2
BLOCK_RECORD
  5
1
330
0
100
AcDbSymbolTable
 70
    15
  0
BLOCK_RECORD
  5
1F
330
1
100
AcDbSymbolTableRecord
100
AcDbBlockTableRecord
  2
*Model_Space
340
22
  0
BLOCK_RECORD
  5
1B
330
1
100
AcDbSymbolTableRecord
100
AcDbBlockTableRecord
  2
*Paper_Space
340
1E
  0
BLOCK_RECORD
  5
23
330
1
100
AcDbSymbolTableRecord
100
AcDbBlockTableRecord
  2
*Paper_Space0
340
26
  0
BLOCK_RECORD
  5
CE
330
1
100
AcDbSymbolTableRecord
100
AcDbBlockTableRecord
  2
SW_NOTE_0
340
0
102
{BLKREFS
331
D4
102
}
  0
BLOCK_RECORD
  5
105
330
1
100
AcDbSymbolTableRecord
100
AcDbBlockTableRecord
  2
SW_NOTE_1
340
0
102
{BLKREFS
331
10A
102
}
  0
BLOCK_RECORD
  5
131
330
1
100
AcDbSymbolTableRecord
100
AcDbBlockTableRecord
  2
_D
340
0
  0
BLOCK_RECORD
  5
13B
330
1
100
AcDbSymbolTableRecord
100
AcDbBlockTableRecord
  2
_D_1
340
0
  0
BLOCK_RECORD
  5
145
330
1
100
AcDbSymbolTableRecord
100
AcDbBlockTableRecord
  2
_D_2
340
0
  0
BLOCK_RECORD
  5
14F
330
1
100
AcDbSymbolTableRecord
100
AcDbBlockTableRecord
  2
_D_3
340
0
  0
BLOCK_RECORD
  5
158
330
1
100
AcDbSymbolTableRecord
100
AcDbBlockTableRecord
  2
SW_NOTE_2
340
0
102
{BLKREFS
331
15D
102
}
  0
BLOCK_RECORD
  5
1C4
330
1
100
AcDbSymbolTableRecord
100
AcDbBlockTableRecord
  2
_D_4
340
0
  0
BLOCK_RECORD
  5
1CE
330
1
100
AcDbSymbolTableRecord
100
AcDbBlockTableRecord
  2
_D_5
340
0
  0
BLOCK_RECORD
  5
1D8
330
1
100
AcDbSymbolTableRecord
100
AcDbBlockTableRecord
  2
_D_6
340
0
  0
BLOCK_RECORD
  5
1E2
330
1
100
AcDbSymbolTableRecord
100
AcDbBlockTableRecord
  2
_D_7
340
0
  0
BLOCK_RECORD
  5
1ED
330
1
100
AcDbSymbolTableRecord
100
AcDbBlockTableRecord
  2
_D_8
340
0
  0
BLOCK_RECORD
  5
1F4
330
1
100
AcDbSymbolTableRecord
100
AcDbBlockTableRecord
  2
_D_9
340
0
  0
BLOCK_RECORD
  5
1FA
330
1
100
AcDbSymbolTableRecord
100
AcDbBlockTableRecord
  2
SW_CENTERMARKSYMBOL_0
340
0
102
{BLKREFS
331
205
102
}
  0
ENDTAB
  0
ENDSEC
  0
SECTION
  2
BLOCKS
  0
BLOCK
  5
20
330
1F
100
AcDbEntity
  8
0
100
AcDbBlockBegin
  2
*Model_Space
 70
     0
 10
0.0
 20
0.0
 30
0.0
  3
*Model_Space
  1

  0
ENDBLK
  5
21
330
1F
100
AcDbEntity
  8
0
100
AcDbBlockEnd
  0
BLOCK
  5
1C
330
1B
100
AcDbEntity
 67
     1
  8
0
100
AcDbBlockBegin
  2
*Paper_Space
 70
     0
 10
0.0
 20
0.0
 30
0.0
  3
*Paper_Space
  1

  0
ENDBLK
  5
1D
330
1B
100
AcDbEntity
 67
     1
  8
0
100
AcDbBlockEnd
  0
BLOCK
  5
24
330
23
100
AcDbEntity
  8
0
100
AcDbBlockBegin
  2
*Paper_Space0
 70
     0
 10
0.0
 20
0.0
 30
0.0
  3
*Paper_Space0
  1

  0
ENDBLK
  5
25
330
23
100
AcDbEntity
  8
0
100
AcDbBlockEnd
  0
BLOCK
  5
CF
330
CE
100
AcDbEntity
  8
0
100
AcDbBlockBegin
  2
SW_NOTE_0
 70
     0
 10
0.0
 20
0.0
 30
0.0
  3
SW_NOTE_0
  1

  0
MTEXT
  5
D1
330
CE
100
AcDbEntity
  8
0
  6
Continuous
 62
     0
370
     0
100
AcDbMText
 10
0.0
 20
3.4106583948
 30
0.0
 40
2.6458333333
 41
0.0
 71
     1
 72
     1
  1
PROPRIETARY AND CONFIDENTIAL
  7
SLDTEXTSTYLE0
 73
     1
 44
1.0
  0
MTEXT
  5
D2
330
CE
100
AcDbEntity
  8
0
  6
Continuous
 62
     0
370
     0
100
AcDbMText
 10
0.0
 20
-0.08198348
 30
0.0
 40
1.8520833333
 41
0.0
 71
     1
 72
     1
  1
THE INFORMATION CONTAINED IN THIS DRAWING IS THE SOLE PROPERTY OF UNICE E-O SERVICES INC. ANY REPRODUCTION IN PART OR AS A WHOLE WITHOUT THE WRITTEN PERMISSION OF UNICE E-O SERVICES INC IS
  7
SLDTEXTSTYLE0
 73
     1
 44
1.0
  0
MTEXT
  5
D3
330
CE
100
AcDbEntity
  8
0
  6
Continuous
 62
     0
370
     0
100
AcDbMText
 10
0.0
 20
-2.5514278946
 30
0.0
 40
1.8520833333
 41
0.0
 71
     1
 72
     1
  1
PROHIBITED.
  7
SLDTEXTSTYLE0
 73
     1
 44
1.0
  0
ENDBLK
  5
D0
330
CE
100
AcDbEntity
  8
0
100
AcDbBlockEnd
  0
BLOCK
  5
106
330
105
100
AcDbEntity
  8
0
100
AcDbBlockBegin
  2
SW_NOTE_1
 70
     0
 10
0.0
 20
0.0
 30
0.0
  3
SW_NOTE_1
  1

  0
MTEXT
  5
108
330
105
100
AcDbEntity
  8
DIM
 62
     0
100
AcDbMText
 10
0.0
 20
2.3874608764
 30
0.0
 40
1.8520833333
 41
0.0
 71
     1
 72
     1
  1
No.5, Andong Rd., Chung Li District,
  7
SLDTEXTSTYLE1
 73
     1
 44
1.0
  0
MTEXT
  5
109
330
105
100
AcDbEntity
  8
DIM
 62
     0
100
AcDbMText
 10
0.0
 20
-0.0819835382
 30
0.0
 40
1.8520833333
 41
0.0
 71
     1
 72
     1
  1
Taoyuan City 32063, Taiwan, R.O.C.
  7
SLDTEXTSTYLE1
 73
     1
 44
1.0
  0
ENDBLK
  5
107
330
105
100
AcDbEntity
  8
0
100
AcDbBlockEnd
  0
BLOCK
  5
132
330
131
100
AcDbEntity
  8
0
100
AcDbBlockBegin
  2
_D
 70
     0
 10
0.0
 20
0.0
 30
0.0
  3
_D
  1

  0
SOLID
  5
134
330
131
100
AcDbEntity
  8
DIM
100
AcDbTrace
 10
140.8732776815
 20
53.931675701
 30
0.0
 11
138.8732776815
 21
54.181675701
 31
0.0
 12
138.8732776815
 22
53.681675701
 32
0.0
 13
138.8732776815
 23
53.681675701
 33
0.0
  0
SOLID
  5
135
330
131
100
AcDbEntity
  8
DIM
100
AcDbTrace
 10
134.3732776815
 20
53.931675701
 30
0.0
 11
136.3732776815
 21
53.681675701
 31
0.0
 12
136.3732776815
 22
54.181675701
 32
0.0
 13
136.3732776815
 23
54.181675701
 33
0.0
  0
LINE
  5
136
330
131
100
AcDbEntity
  8
DIM
100
AcDbLine
 10
140.8732776815
 20
72.3750513739
 30
0.0
 11
140.8732776815
 21
52.931675701
 31
0.0
  0
LINE
  5
137
330
131
100
AcDbEntity
  8
DIM
100
AcDbLine
 10
134.3732776815
 20
60.931675701
 30
0.0
 11
134.3732776815
 21
52.931675701
 31
0.0
  0
LINE
  5
138
330
131
100
AcDbEntity
  8
DIM
100
AcDbLine
 10
140.8732776815
 20
53.931675701
 30
0.0
 11
134.3732776815
 21
53.931675701
 31
0.0
  0
MTEXT
  5
139
330
131
100
AcDbEntity
  8
DIM
100
AcDbMText
 10
135.2361249296
 20
57.1543448758
 30
0.0
 40
2.5
 41
0.0
 71
     1
 72
     1
  1
6.5
  7
SLDTEXTSTYLE0
 73
     1
 44
1.0
  0
ENDBLK
  5
133
330
131
100
AcDbEntity
  8
0
100
AcDbBlockEnd
  0
BLOCK
  5
13C
330
13B
100
AcDbEntity
  8
0
100
AcDbBlockBegin
  2
_D_1
 70
     0
 10
0.0
 20
0.0
 30
0.0
  3
_D_1
  1

  0
SOLID
  5
13E
330
13B
100
AcDbEntity
  8
DIM
100
AcDbTrace
 10
146.8732776815
 20
46.7223860855
 30
0.0
 11
144.8732776815
 21
46.9723860855
 31
0.0
 12
144.8732776815
 22
46.4723860855
 32
0.0
 13
144.8732776815
 23
46.4723860855
 33
0.0
  0
SOLID
  5
13F
330
13B
100
AcDbEntity
  8
DIM
100
AcDbTrace
 10
134.3732776815
 20
46.7223860855
 30
0.0
 11
136.3732776815
 21
46.4723860855
 31
0.0
 12
136.3732776815
 22
46.9723860855
 32
0.0
 13
136.3732776815
 23
46.9723860855
 33
0.0
  0
LINE
  5
140
330
13B
100
AcDbEntity
  8
DIM
100
AcDbLine
 10
146.8732776815
 20
60.931675701
 30
0.0
 11
146.8732776815
 21
45.7223860855
 31
0.0
  0
LINE
  5
141
330
13B
100
AcDbEntity
  8
DIM
100
AcDbLine
 10
134.3732776815
 20
60.931675701
 30
0.0
 11
134.3732776815
 21
45.7223860855
 31
0.0
  0
LINE
  5
142
330
13B
100
AcDbEntity
  8
DIM
100
AcDbLine
 10
146.8732776815
 20
46.7223860855
 30
0.0
 11
134.3732776815
 21
46.7223860855
 31
0.0
  0
MTEXT
  5
143
330
13B
100
AcDbEntity
  8
DIM
100
AcDbMText
 10
137.2812638754
 20
49.9450552603
 30
0.0
 40
2.5
 41
0.0
 71
     1
 72
     1
  1
12.5
  7
SLDTEXTSTYLE0
 73
     1
 44
1.0
  0
ENDBLK
  5
13D
330
13B
100
AcDbEntity
  8
0
100
AcDbBlockEnd
  0
BLOCK
  5
146
330
145
100
AcDbEntity
  8
0
100
AcDbBlockBegin
  2
_D_2
 70
     0
 10
0.0
 20
0.0
 30
0.0
  3
_D_2
  1

  0
SOLID
  5
148
330
145
100
AcDbEntity
  8
DIM
100
AcDbTrace
 10
154.8732776815
 20
126.931675701
 30
0.0
 11
154.6232776815
 21
124.931675701
 31
0.0
 12
155.1232776815
 22
124.931675701
 32
0.0
 13
155.1232776815
 23
124.931675701
 33
0.0
  0
SOLID
  5
149
330
145
100
AcDbEntity
  8
DIM
100
AcDbTrace
 10
154.8732776815
 20
61.931675701
 30
0.0
 11
155.1232776815
 21
63.931675701
 31
0.0
 12
154.6232776815
 22
63.931675701
 32
0.0
 13
154.6232776815
 23
63.931675701
 33
0.0
  0
LINE
  5
14A
330
145
100
AcDbEntity
  8
DIM
100
AcDbLine
 10
147.8732776815
 20
126.931675701
 30
0.0
 11
155.8732776815
 21
126.931675701
 31
0.0
  0
LINE
  5
14B
330
145
100
AcDbEntity
  8
DIM
100
AcDbLine
 10
147.8732776815
 20
61.931675701
 30
0.0
 11
155.8732776815
 21
61.931675701
 31
0.0
  0
LINE
  5
14C
330
145
100
AcDbEntity
  8
DIM
100
AcDbLine
 10
154.8732776815
 20
126.931675701
 30
0.0
 11
154.8732776815
 21
61.931675701
 31
0.0
  0
MTEXT
  5
14D
330
145
100
AcDbEntity
  8
DIM
100
AcDbMText
 10
151.6506085067
 20
92.5219534762
 30
0.0
 40
2.5
 41
0.0
 71
     1
 72
     1
  1
65
  7
SLDTEXTSTYLE0
 11
-1.414962237524464E-14
 21
1.0
 31
0.0
 73
     1
 44
1.0
  0
ENDBLK
  5
147
330
145
100
AcDbEntity
  8
0
100
AcDbBlockEnd
  0
BLOCK
  5
150
330
14F
100
AcDbEntity
  8
0
100
AcDbBlockBegin
  2
_D_3
 70
     0
 10
0.0
 20
0.0
 30
0.0
  3
_D_3
  1

  0
SOLID
  5
152
330
14F
100
AcDbEntity
  8
DIM
 62
     7
100
AcDbTrace
 10
134.3732776815
 20
137.182754057
 30
0.0
 11
136.3732776815
 21
136.932754057
 31
0.0
 12
136.3732776815
 22
137.432754057
 32
0.0
 13
136.3732776815
 23
137.432754057
 33
0.0
  0
SOLID
  5
153
330
14F
100
AcDbEntity
  8
DIM
 62
     7
100
AcDbTrace
 10
141.8732776815
 20
137.182754057
 30
0.0
 11
139.8732776815
 21
137.432754057
 31
0.0
 12
139.8732776815
 22
136.932754057
 32
0.0
 13
139.8732776815
 23
136.932754057
 33
0.0
  0
LINE
  5
154
330
14F
100
AcDbEntity
  8
DIM
 62
     7
100
AcDbLine
 10
134.3732776815
 20
89.8685110118
 30
0.0
 11
134.3732776815
 21
138.182754057
 31
0.0
  0
LINE
  5
155
330
14F
100
AcDbEntity
  8
DIM
 62
     7
100
AcDbLine
 10
141.8732776815
 20
127.931675701
 30
0.0
 11
141.8732776815
 21
138.182754057
 31
0.0
  0
LINE
  5
156
330
14F
100
AcDbEntity
  8
DIM
 62
     7
100
AcDbLine
 10
134.3732776815
 20
137.182754057
 30
0.0
 11
141.8732776815
 21
137.182754057
 31
0.0
  0
MTEXT
  5
157
330
14F
100
AcDbEntity
  8
DIM
 62
     7
100
AcDbMText
 10
135.7361249296
 20
140.4054232318
 30
0.0
 40
2.5
 41
0.0
 71
     1
 72
     1
  1
7.5
  7
SLDTEXTSTYLE0
 73
     1
 44
1.0
  0
ENDBLK
  5
151
330
14F
100
AcDbEntity
  8
0
100
AcDbBlockEnd
  0
BLOCK
  5
159
330
158
100
AcDbEntity
  8
0
100
AcDbBlockBegin
  2
SW_NOTE_2
 70
     0
 10
0.0
 20
0.0
 30
0.0
  3
SW_NOTE_2
  1

  0
MTEXT
  5
15B
330
158
100
AcDbEntity
  8
DIM
 62
     0
100
AcDbMText
 10
0.5758479321
 20
1.2424425944
 30
0.0
 40
2.6458333333
 41
0.0
 71
     1
 72
     1
  1
1 HOLE,
  7
SLDTEXTSTYLE0
 73
     1
 44
1.0
  0
MTEXT
  5
15C
330
158
100
AcDbEntity
  8
DIM
 62
     0
100
AcDbMText
 10
1.5680354321
 20
-2.2853351408
 30
0.0
 40
2.6458333333
 41
0.0
 71
     1
 72
     1
  1
M6
  7
SLDTEXTSTYLE0
 73
     1
 44
1.0
  0
ENDBLK
  5
15A
330
158
100
AcDbEntity
  8
0
100
AcDbBlockEnd
  0
BLOCK
  5
1C5
330
1C4
100
AcDbEntity
  8
0
100
AcDbBlockBegin
  2
_D_4
 70
     0
 10
0.0
 20
0.0
 30
0.0
  3
_D_4
  1

  0
SOLID
  5
1C7
330
1C4
100
AcDbEntity
  8
DIM
100
AcDbTrace
 10
106.0645264943
 20
132.864585387
 30
0.0
 11
105.8145264943
 21
130.864585387
 31
0.0
 12
106.3145264943
 22
130.864585387
 32
0.0
 13
106.3145264943
 23
130.864585387
 33
0.0
  0
SOLID
  5
1C8
330
1C4
100
AcDbEntity
  8
DIM
100
AcDbTrace
 10
106.0645264943
 20
61.931675701
 30
0.0
 11
106.3145264943
 21
63.931675701
 31
0.0
 12
105.8145264943
 22
63.931675701
 32
0.0
 13
105.8145264943
 23
63.931675701
 33
0.0
  0
LINE
  5
1C9
330
1C4
100
AcDbEntity
  8
DIM
100
AcDbLine
 10
90.1094631088
 20
132.864585387
 30
0.0
 11
107.0645264943
 21
132.864585387
 31
0.0
  0
LINE
  5
1CA
330
1C4
100
AcDbEntity
  8
DIM
100
AcDbLine
 10
92.1094631088
 20
61.931675701
 30
0.0
 11
107.0645264943
 21
61.931675701
 31
0.0
  0
LINE
  5
1CB
330
1C4
100
AcDbEntity
  8
DIM
100
AcDbLine
 10
106.0645264943
 20
132.864585387
 30
0.0
 11
106.0645264943
 21
61.931675701
 31
0.0
  0
MTEXT
  5
1CC
330
1C4
100
AcDbEntity
  8
DIM
100
AcDbMText
 10
102.8418573195
 20
95.4884083192
 30
0.0
 40
2.5
 41
0.0
 71
     1
 72
     1
  1
71
  7
SLDTEXTSTYLE0
 11
-7.044195017643634E-15
 21
1.0
 31
0.0
 73
     1
 44
1.0
  0
ENDBLK
  5
1C6
330
1C4
100
AcDbEntity
  8
0
100
AcDbBlockEnd
  0
BLOCK
  5
1CF
330
1CE
100
AcDbEntity
  8
0
100
AcDbBlockBegin
  2
_D_5
 70
     0
 10
0.0
 20
0.0
 30
0.0
  3
_D_5
  1

  0
SOLID
  5
1D1
330
1CE
100
AcDbEntity
  8
DIM
 62
     7
100
AcDbTrace
 10
39.1094631088
 20
145.126413471
 30
0.0
 11
41.1094631088
 21
144.876413471
 31
0.0
 12
41.1094631088
 22
145.376413471
 32
0.0
 13
41.1094631088
 23
145.376413471
 33
0.0
  0
SOLID
  5
1D2
330
1CE
100
AcDbEntity
  8
DIM
 62
     7
100
AcDbTrace
 10
91.1094631088
 20
145.126413471
 30
0.0
 11
89.1094631088
 21
145.376413471
 31
0.0
 12
89.1094631088
 22
144.876413471
 32
0.0
 13
89.1094631088
 23
144.876413471
 33
0.0
  0
LINE
  5
1D3
330
1CE
100
AcDbEntity
  8
DIM
 62
     7
100
AcDbLine
 10
39.1094631088
 20
127.931675701
 30
0.0
 11
39.1094631088
 21
146.126413471
 31
0.0
  0
LINE
  5
1D4
330
1CE
100
AcDbEntity
  8
DIM
 62
     7
100
AcDbLine
 10
91.1094631088
 20
131.9804704815
 30
0.0
 11
91.1094631088
 21
146.126413471
 31
0.0
  0
LINE
  5
1D5
330
1CE
100
AcDbEntity
  8
DIM
 62
     7
100
AcDbLine
 10
39.1094631088
 20
145.126413471
 30
0.0
 11
91.1094631088
 21
145.126413471
 31
0.0
  0
MTEXT
  5
1D6
330
1CE
100
AcDbEntity
  8
DIM
 62
     7
100
AcDbMText
 10
63.199740884
 20
148.3490826458
 30
0.0
 40
2.5
 41
0.0
 71
     1
 72
     1
  1
52
  7
SLDTEXTSTYLE0
 73
     1
 44
1.0
  0
ENDBLK
  5
1D0
330
1CE
100
AcDbEntity
  8
0
100
AcDbBlockEnd
  0
BLOCK
  5
1D9
330
1D8
100
AcDbEntity
  8
0
100
AcDbBlockBegin
  2
_D_6
 70
     0
 10
0.0
 20
0.0
 30
0.0
  3
_D_6
  1

  0
SOLID
  5
1DB
330
1D8
100
AcDbEntity
  8
DIM
 62
     7
100
AcDbTrace
 10
47.1094631088
 20
139.0348743457
 30
0.0
 11
49.1094631088
 21
138.7848743457
 31
0.0
 12
49.1094631088
 22
139.2848743457
 32
0.0
 13
49.1094631088
 23
139.2848743457
 33
0.0
  0
SOLID
  5
1DC
330
1D8
100
AcDbEntity
  8
DIM
 62
     7
100
AcDbTrace
 10
85.1094631088
 20
139.0348743457
 30
0.0
 11
83.1094631088
 21
139.2848743457
 31
0.0
 12
83.1094631088
 22
138.7848743457
 32
0.0
 13
83.1094631088
 23
138.7848743457
 33
0.0
  0
LINE
  5
1DD
330
1D8
100
AcDbEntity
  8
DIM
 62
     7
100
AcDbLine
 10
47.1094631088
 20
127.931675701
 30
0.0
 11
47.1094631088
 21
140.0348743457
 31
0.0
  0
LINE
  5
1DE
330
1D8
100
AcDbEntity
  8
DIM
 62
     7
100
AcDbLine
 10
85.1094631088
 20
131.9804704815
 30
0.0
 11
85.1094631088
 21
140.0348743457
 31
0.0
  0
LINE
  5
1DF
330
1D8
100
AcDbEntity
  8
DIM
 62
     7
100
AcDbLine
 10
47.1094631088
 20
139.0348743457
 30
0.0
 11
85.1094631088
 21
139.0348743457
 31
0.0
  0
MTEXT
  5
1E0
330
1D8
100
AcDbEntity
  8
DIM
 62
     7
100
AcDbMText
 10
64.199740884
 20
142.2575435205
 30
0.0
 40
2.5
 41
0.0
 71
     1
 72
     1
  1
38
  7
SLDTEXTSTYLE0
 73
     1
 44
1.0
  0
ENDBLK
  5
1DA
330
1D8
100
AcDbEntity
  8
0
100
AcDbBlockEnd
  0
BLOCK
  5
1E3
330
1E2
100
AcDbEntity
  8
0
100
AcDbBlockBegin
  2
_D_7
 70
     0
 10
0.0
 20
0.0
 30
0.0
  3
_D_7
  1

  0
SOLID
  5
1E5
330
1E2
100
AcDbEntity
  8
DIM
 62
     7
100
AcDbTrace
 10
98.2076107658
 20
86.931675701
 30
0.0
 11
98.4576107658
 21
88.931675701
 31
0.0
 12
97.9576107658
 22
88.931675701
 32
0.0
 13
97.9576107658
 23
88.931675701
 33
0.0
  0
SOLID
  5
1E6
330
1E2
100
AcDbEntity
  8
DIM
 62
     7
100
AcDbTrace
 10
98.2076107658
 20
126.931675701
 30
0.0
 11
97.9576107658
 21
124.931675701
 31
0.0
 12
98.4576107658
 22
124.931675701
 32
0.0
 13
98.4576107658
 23
124.931675701
 33
0.0
  0
LINE
  5
1E7
330
1E2
100
AcDbEntity
  8
DIM
 62
     7
100
AcDbLine
 10
83.1094631088
 20
86.931675701
 30
0.0
 11
99.2076107658
 21
86.931675701
 31
0.0
  0
LINE
  5
1E8
330
1E2
100
AcDbEntity
  8
DIM
 62
     7
100
AcDbLine
 10
48.1094631088
 20
126.931675701
 30
0.0
 11
99.2076107658
 21
126.931675701
 31
0.0
  0
LINE
  5
1E9
330
1E2
100
AcDbEntity
  8
DIM
 62
     7
100
AcDbLine
 10
98.2076107658
 20
86.931675701
 30
0.0
 11
98.2076107658
 21
126.931675701
 31
0.0
  0
MTEXT
  5
1EA
330
1E2
100
AcDbEntity
  8
DIM
 62
     7
100
AcDbMText
 10
94.984941591
 20
105.0219534762
 30
0.0
 40
2.5
 41
0.0
 71
     1
 72
     1
  1
40
  7
SLDTEXTSTYLE0
 11
6.123233995736766E-17
 21
1.0
 31
0.0
 73
     1
 44
1.0
  0
ENDBLK
  5
1E4
330
1E2
100
AcDbEntity
  8
0
100
AcDbBlockEnd
  0
BLOCK
  5
1EE
330
1ED
100
AcDbEntity
  8
0
100
AcDbBlockBegin
  2
_D_8
 70
     0
 10
0.0
 20
0.0
 30
0.0
  3
_D_8
  1

  0
SOLID
  5
1F0
330
1ED
100
AcDbEntity
  8
DIM
 62
     7
100
AcDbTrace
 10
61.4337566535
 20
84.9495650943
 30
0.0
 11
62.1946977959
 21
86.8159703498
 31
0.0
 12
61.7118613901
 22
86.9458510847
 32
0.0
 13
61.7118613901
 23
86.9458510847
 33
0.0
  0
LINE
  5
1F1
330
1ED
100
AcDbEntity
  8
DIM
 62
     7
100
AcDbLine
 10
61.4337566535
 20
84.9495650943
 30
0.0
 11
66.1094631088
 21
102.331675701
 31
0.0
  0
MTEXT
  5
1F2
330
1ED
100
AcDbEntity
  8
DIM
 62
     7
100
AcDbMText
 10
59.9335681822
 20
91.6165556711
 30
0.0
 40
2.5
 41
0.0
 71
     1
 72
     1
  1
R18
  7
SLDTEXTSTYLE0
 11
0.2597614697366661
 21
0.9656728114844318
 31
0.0
 73
     1
 44
1.0
  0
ENDBLK
  5
1EF
330
1ED
100
AcDbEntity
  8
0
100
AcDbBlockEnd
  0
BLOCK
  5
1F5
330
1F4
100
AcDbEntity
  8
0
100
AcDbBlockBegin
  2
_D_9
 70
     0
 10
0.0
 20
0.0
 30
0.0
  3
_D_9
  1

  0
SOLID
  5
1F7
330
1F4
100
AcDbEntity
  8
DIM
 62
     7
100
AcDbTrace
 10
74.5480283742
 20
78.3744092404
 30
0.0
 11
74.119374283
 21
80.3438649191
 31
0.0
 12
73.6477745495
 22
80.1777514296
 32
0.0
 13
73.6477745495
 23
80.1777514296
 33
0.0
  0
LINE
  5
1F8
330
1F4
100
AcDbEntity
  8
DIM
 62
     7
100
AcDbLine
 10
74.5480283742
 20
78.3744092404
 30
0.0
 11
66.1094631088
 21
102.331675701
 31
0.0
  0
MTEXT
  5
1F9
330
1F4
100
AcDbEntity
  8
DIM
 62
     7
100
AcDbMText
 10
71.7786097321
 20
95.8722782273
 30
0.0
 40
2.5
 41
0.0
 71
     1
 72
     1
  1
R25.4
  7
SLDTEXTSTYLE0
 11
0.3322269789514637
 21
-0.9431994669510706
 31
0.0
 73
     1
 44
1.0
  0
ENDBLK
  5
1F6
330
1F4
100
AcDbEntity
  8
0
100
AcDbBlockEnd
  0
BLOCK
  5
1FB
330
1FA
100
AcDbEntity
  8
0
100
AcDbBlockBegin
  2
SW_CENTERMARKSYMBOL_0
 70
     0
 10
0.0
 20
0.0
 30
0.0
  3
SW_CENTERMARKSYMBOL_0
  1

  0
LINE
  5
1FD
330
1FA
100
AcDbEntity
  8
DIM
 62
     0
100
AcDbLine
 10
0.0
 20
0.0
 30
0.0
 11
0.0
 21
1.0
 31
0.0
  0
LINE
  5
1FE
330
1FA
100
AcDbEntity
  8
DIM
 62
     0
100
AcDbLine
 10
0.0
 20
0.0
 30
0.0
 11
-1.0
 21
0.0
 31
0.0
  0
LINE
  5
1FF
330
1FA
100
AcDbEntity
  8
DIM
 62
     0
100
AcDbLine
 10
0.0
 20
0.0
 30
0.0
 11
0.0
 21
-1.0
 31
0.0
  0
LINE
  5
200
330
1FA
100
AcDbEntity
  8
DIM
 62
     0
100
AcDbLine
 10
0.0
 20
0.0
 30
0.0
 11
1.0
 21
0.0
 31
0.0
  0
LINE
  5
201
330
1FA
100
AcDbEntity
  8
DIM
 62
     0
100
AcDbLine
 10
0.0
 20
2.0
 30
0.0
 11
0.0
 21
19.0
 31
0.0
  0
LINE
  5
202
330
1FA
100
AcDbEntity
  8
DIM
 62
     0
100
AcDbLine
 10
-2.0
 20
0.0
 30
0.0
 11
-19.0
 21
0.0
 31
0.0
  0
LINE
  5
203
330
1FA
100
AcDbEntity
  8
DIM
 62
     0
100
AcDbLine
 10
0.0
 20
-2.0
 30
0.0
 11
0.0
 21
-19.0
 31
0.0
  0
LINE
  5
204
330
1FA
100
AcDbEntity
  8
DIM
 62
     0
100
AcDbLine
 10
2.0
 20
0.0
 30
0.0
 11
19.0
 21
0.0
 31
0.0
  0
ENDBLK
  5
1FC
330
1FA
100
AcDbEntity
  8
0
100
AcDbBlockEnd
  0
ENDSEC
  0
SECTION
  2
ENTITIES
  0
HATCH
  5
7C
330
1F
100
AcDbEntity
  8
DIM
 62
     1
100
AcDbHatch
 10
0.0
 20
0.0
 30
0.0
210
0.0
220
0.0
230
1.0
  2
SOLID
 70
     1
 71
     0
 91
        1
 92
        0
 93
       10
 72
     2
 10
195.9181335739884
 20
36.39317862024703
 40
1.518552937418269
 50
316.5603538466151
 51
413.9622470531883
 73
     0
 72
     1
 10
196.8115258996505
 20
35.16523188842609
 11
195.5698445848568
 21
33.96079894601887
 72
     1
 10
195.5698445848568
 20
33.96079894601887
 11
194.584395691874
 21
34.81949588590836
 72
     2
 10
192.5548098488265
 20
36.40840603525001
 40
2.577567488346249
 50
321.9435288426934
 51
402.1815007004193
 73
     1
 72
     2
 10
192.237153558102
 20
35.86758422977183
 40
3.181636704527865
 50
45.55929254159835
 51
125.83255551215
 73
     1
 72
     1
 10
190.3745648009993
 20
38.44703673786606
 11
189.3521569236508
 21
39.33882726498687
 72
     1
 10
189.3521569236508
 20
39.33882726498687
 11
192.5877423720606
 21
42.46574751160097
 72
     1
 10
192.5877423720606
 20
42.46574751160097
 11
193.5182488822447
 21
41.63555529175644
 72
     1
 10
193.5182488822447
 20
41.63555529175644
 11
192.8939975803174
 21
41.02649686091912
 72
     1
 10
192.8939975803174
 20
41.02649686091912
 11
197.0207534386607
 21
37.43732059228515
 97
        0
 75
     0
 76
     1
 98
        1
 10
0.0
 20
0.0
  0
HATCH
  5
7D
330
1F
100
AcDbEntity
  8
DIM
 62
     7
100
AcDbHatch
 10
0.0
 20
0.0
 30
0.0
210
0.0
220
0.0
230
1.0
  2
SOLID
 70
     1
 71
     0
 91
        1
 92
        0
 93
       10
 72
     2
 10
192.1039881191382
 20
36.62178386847388
 40
3.045751395731241
 50
51.07786460466387
 51
110.7887790856593
 73
     0
 72
     2
 10
191.7725909108416
 20
36.23314211922645
 40
2.57054436971128
 50
106.9547474925999
 51
219.8569537219352
 73
     0
 72
     1
 10
189.799320607469
 20
37.88053480662123
 11
188.7841267600665
 21
38.77606670743901
 72
     1
 10
188.7841267600665
 20
38.77606670743901
 11
187.4774985051848
 21
37.51447963093149
 72
     2
 10
188.4681933527003
 20
36.34592298253147
 40
1.531992467805808
 50
130.291064792488
 51
228.5093619070323
 73
     1
 72
     1
 10
187.4532519231594
 20
35.19836260677113
 11
191.4624542333552
 21
31.71375876649628
 72
     1
 10
191.4624542333552
 20
31.71375876649628
 11
190.8314023129401
 21
31.09785837602526
 72
     1
 10
190.8314023129401
 20
31.09785837602526
 11
191.7722027684341
 21
30.28786130591526
 72
     1
 10
191.7722027684341
 20
30.28786130591526
 11
194.9823427415898
 21
33.40490101867766
 72
     1
 10
194.9823427415898
 20
33.40490101867766
 11
194.0175230803727
 21
34.25218780231999
 97
        0
 75
     0
 76
     1
 98
        1
 10
0.0
 20
0.0
  0
LINE
  5
7E
330
1F
100
AcDbEntity
  8
0
  6
Continuous
 62
     7
370
     0
100
AcDbLine
 10
167.8593775185
 20
17.7745192513
 30
0.0
 11
168.8593775185
 21
17.7745192513
 31
0.0
  0
LINE
  5
7F
330
1F
100
AcDbEntity
  8
0
  6
Continuous
 62
     7
370
     0
100
AcDbLine
 10
164.8593775185
 20
17.7745192513
 30
0.0
 11
167.3593775185
 21
17.7745192513
 31
0.0
  0
LINE
  5
80
330
1F
100
AcDbEntity
  8
0
  6
Continuous
 62
     7
370
     0
100
AcDbLine
 10
181.3593775185
 20
15.2745192513
 30
0.0
 11
181.3593775185
 21
20.2745192513
 31
0.0
  0
LINE
  5
81
330
1F
100
AcDbEntity
  8
0
  6
Continuous
 62
     7
370
     0
100
AcDbLine
 10
174.3593775185
 20
16.2745192513
 30
0.0
 11
181.3593775185
 21
15.2745192513
 31
0.0
  0
LINE
  5
82
330
1F
100
AcDbEntity
  8
0
  6
Continuous
 62
     7
370
     0
100
AcDbLine
 10
168.3593775185
 20
16.7745192513
 30
0.0
 11
168.3593775185
 21
14.2745192513
 31
0.0
  0
LINE
  5
83
330
1F
100
AcDbEntity
  8
0
  6
Continuous
 62
     7
370
     0
100
AcDbLine
 10
181.3593775185
 20
20.2745192513
 30
0.0
 11
174.3593775185
 21
19.2745192513
 31
0.0
  0
LINE
  5
84
330
1F
100
AcDbEntity
  8
0
  6
Continuous
 62
     7
370
     0
100
AcDbLine
 10
173.3593775185
 20
17.7745192513
 30
0.0
 11
182.3593775185
 21
17.7745192513
 31
0.0
  0
LINE
  5
85
330
1F
100
AcDbEntity
  8
0
  6
Continuous
 62
     7
370
     0
100
AcDbLine
 10
168.3593775185
 20
18.2745192513
 30
0.0
 11
168.3593775185
 21
17.2745192513
 31
0.0
  0
LINE
  5
86
330
1F
100
AcDbEntity
  8
0
  6
Continuous
 62
     7
370
     0
100
AcDbLine
 10
169.3593775185
 20
17.7745192513
 30
0.0
 11
171.8593775185
 21
17.7745192513
 31
0.0
  0
LINE
  5
87
330
1F
100
AcDbEntity
  8
0
  6
Continuous
 62
     7
370
     0
100
AcDbLine
 10
168.3593775185
 20
21.2745192513
 30
0.0
 11
168.3593775185
 21
18.7745192513
 31
0.0
  0
LINE
  5
88
330
1F
100
AcDbEntity
  8
0
  6
Continuous
 62
     7
370
     0
100
AcDbLine
 10
174.3593775185
 20
19.2745192513
 30
0.0
 11
174.3593775185
 21
16.2745192513
 31
0.0
  0
LINE
  5
89
330
1F
100
AcDbEntity
  8
0
  6
Continuous
 62
     7
370
     0
100
AcDbLine
 10
185.6907965209
 20
13.1152464079
 30
0.0
 11
285.6907965209
 21
13.1152464079
 31
0.0
  0
LINE
  5
8A
330
1F
100
AcDbEntity
  8
0
  6
Continuous
 62
     7
370
     0
100
AcDbLine
 10
185.6907965209
 20
18.1152464079
 30
0.0
 11
235.6907965209
 21
18.1152464079
 31
0.0
  0
LINE
  5
8B
330
1F
100
AcDbEntity
  8
0
  6
Continuous
 62
     7
370
     0
100
AcDbLine
 10
185.6907965209
 20
23.1152464079
 30
0.0
 11
235.6907965209
 21
23.1152464079
 31
0.0
  0
LINE
  5
8C
330
1F
100
AcDbEntity
  8
0
  6
Continuous
 62
     7
370
     0
100
AcDbLine
 10
185.6907965209
 20
28.1152464079
 30
0.0
 11
285.6907965209
 21
28.1152464079
 31
0.0
  0
LINE
  5
8D
330
1F
100
AcDbEntity
  8
0
  6
Continuous
 62
     7
370
     0
100
AcDbLine
 10
235.6907965209
 20
33.1152464079
 30
0.0
 11
285.6907965209
 21
33.1152464079
 31
0.0
  0
LINE
  5
8E
330
1F
100
AcDbEntity
  8
0
  6
Continuous
 62
     7
370
    15
100
AcDbLine
 10
235.6907965209
 20
18.1152464079
 30
0.0
 11
285.6907965209
 21
18.1152464079
 31
0.0
  0
LINE
  5
8F
330
1F
100
AcDbEntity
  8
0
  6
Continuous
 62
     7
370
     0
100
AcDbLine
 10
185.6907965209
 20
43.1152464079
 30
0.0
 11
285.6907965209
 21
43.1152464079
 31
0.0
  0
LINE
  5
90
330
1F
100
AcDbEntity
  8
0
  6
Continuous
 62
     7
370
     0
100
AcDbLine
 10
251.237217675
 20
8.1152464079
 30
0.0
 11
251.237217675
 21
18.1152464079
 31
0.0
  0
LINE
  5
91
330
1F
100
AcDbEntity
  8
0
  6
Continuous
 62
     7
370
     0
100
AcDbLine
 10
235.6907965209
 20
8.1152464079
 30
0.0
 11
235.6907965209
 21
43.1152464079
 31
0.0
  0
LINE
  5
92
330
1F
100
AcDbEntity
  8
0
  6
Continuous
 62
     7
370
     0
100
AcDbLine
 10
251.237217675
 20
28.1152464079
 30
0.0
 11
251.237217675
 21
33.1152464079
 31
0.0
  0
LINE
  5
93
330
1F
100
AcDbEntity
  8
0
  6
Continuous
 62
     7
370
     0
100
AcDbLine
 10
214.4164086353
 20
8.1152464079
 30
0.0
 11
214.4164086353
 21
28.1152464079
 31
0.0
  0
LINE
  5
94
330
1F
100
AcDbEntity
  8
0
  6
Continuous
 62
     7
370
     0
100
AcDbLine
 10
199.7785887506
 20
8.1152464079
 30
0.0
 11
199.7785887506
 21
28.1152464079
 31
0.0
  0
LINE
  5
95
330
1F
100
AcDbEntity
  8
0
  6
Continuous
 62
     7
370
     0
100
AcDbLine
 10
185.6907965209
 20
8.1152464079
 30
0.0
 11
185.6907965209
 21
43.1152464079
 31
0.0
  0
LINE
  5
96
330
1F
100
AcDbEntity
  8
0
  6
Continuous
 62
     7
370
    15
100
AcDbLine
 10
8.6907965209
 20
104.7436369915
 30
0.0
 11
14.6907965209
 21
104.7436369915
 31
0.0
  0
LINE
  5
97
330
1F
100
AcDbEntity
  8
0
  6
Continuous
 62
     7
370
    15
100
AcDbLine
 10
285.6907965209
 20
104.7436369915
 30
0.0
 11
279.6907965209
 21
104.7436369915
 31
0.0
  0
LINE
  5
98
330
1F
100
AcDbEntity
  8
0
  6
Continuous
 62
     7
370
    15
100
AcDbLine
 10
147.1907965209
 20
8.1152464079
 30
0.0
 11
147.1907965209
 21
14.1152464079
 31
0.0
  0
LINE
  5
99
330
1F
100
AcDbEntity
  8
0
  6
Continuous
 62
     7
370
    15
100
AcDbLine
 10
147.1907965209
 20
201.3720275751
 30
0.0
 11
147.1907965209
 21
195.3720275751
 31
0.0
  0
LINE
  5
9A
330
1F
100
AcDbEntity
  8
工作區域參考線
 62
     1
370
     0
100
AcDbLine
 10
190.374564801
 20
38.4470367379
 30
0.0
 11
189.3521569237
 21
39.338827265
 31
0.0
  0
LINE
  5
9B
330
1F
100
AcDbEntity
  8
0
  6
Continuous
 62
     7
370
    15
100
AcDbLine
 10
43.3207965209
 20
201.3720275751
 30
0.0
 11
43.3207965209
 21
202.8720275751
 31
0.0
  0
LINE
  5
9C
330
1F
100
AcDbEntity
  8
0
  6
Continuous
 62
     7
370
    15
100
AcDbLine
 10
77.9507965209
 20
201.3720275751
 30
0.0
 11
77.9507965209
 21
202.8720275751
 31
0.0
  0
LINE
  5
9D
330
1F
100
AcDbEntity
  8
0
  6
Continuous
 62
     7
370
    15
100
AcDbLine
 10
112.5807965209
 20
201.3720275751
 30
0.0
 11
112.5807965209
 21
202.8720275751
 31
0.0
  0
LINE
  5
9E
330
1F
100
AcDbEntity
  8
0
  6
Continuous
 62
     7
370
    15
100
AcDbLine
 10
147.2107965209
 20
201.3720275751
 30
0.0
 11
147.2107965209
 21
202.8720275751
 31
0.0
  0
LINE
  5
9F
330
1F
100
AcDbEntity
  8
0
  6
Continuous
 62
     7
370
    15
100
AcDbLine
 10
181.8407965209
 20
201.3720275751
 30
0.0
 11
181.8407965209
 21
202.8720275751
 31
0.0
  0
LINE
  5
A0
330
1F
100
AcDbEntity
  8
0
  6
Continuous
 62
     7
370
    15
100
AcDbLine
 10
216.4707965209
 20
201.3720275751
 30
0.0
 11
216.4707965209
 21
202.8720275751
 31
0.0
  0
LINE
  5
A1
330
1F
100
AcDbEntity
  8
0
  6
Continuous
 62
     7
370
    15
100
AcDbLine
 10
251.1007965209
 20
201.3720275751
 30
0.0
 11
251.1007965209
 21
202.8720275751
 31
0.0
  0
LINE
  5
A2
330
1F
100
AcDbEntity
  8
0
  6
Continuous
 62
     7
370
    15
100
AcDbLine
 10
43.3157965209
 20
8.1152464079
 30
0.0
 11
43.3157965209
 21
6.6152464079
 31
0.0
  0
LINE
  5
A3
330
1F
100
AcDbEntity
  8
0
  6
Continuous
 62
     7
370
    15
100
AcDbLine
 10
77.9407965209
 20
8.1152464079
 30
0.0
 11
77.9407965209
 21
6.6152464079
 31
0.0
  0
LINE
  5
A4
330
1F
100
AcDbEntity
  8
0
  6
Continuous
 62
     7
370
    15
100
AcDbLine
 10
112.5657965209
 20
8.1152464079
 30
0.0
 11
112.5657965209
 21
6.6152464079
 31
0.0
  0
LINE
  5
A5
330
1F
100
AcDbEntity
  8
0
  6
Continuous
 62
     7
370
    15
100
AcDbLine
 10
147.1907965209
 20
8.1152464079
 30
0.0
 11
147.1907965209
 21
6.6152464079
 31
0.0
  0
LINE
  5
A6
330
1F
100
AcDbEntity
  8
0
  6
Continuous
 62
     7
370
    15
100
AcDbLine
 10
181.8157965209
 20
8.1152464079
 30
0.0
 11
181.8157965209
 21
6.6152464079
 31
0.0
  0
LINE
  5
A7
330
1F
100
AcDbEntity
  8
0
  6
Continuous
 62
     7
370
    15
100
AcDbLine
 10
216.4407965209
 20
8.1152464079
 30
0.0
 11
216.4407965209
 21
6.6152464079
 31
0.0
  0
LINE
  5
A8
330
1F
100
AcDbEntity
  8
0
  6
Continuous
 62
     7
370
     0
100
AcDbLine
 10
285.6907965209
 20
201.3720275751
 30
0.0
 11
8.6907965209
 21
201.3720275751
 31
0.0
  0
LINE
  5
A9
330
1F
100
AcDbEntity
  8
0
  6
Continuous
 62
     7
370
     0
100
AcDbLine
 10
285.6907965209
 20
8.1152464079
 30
0.0
 11
285.6907965209
 21
201.3720275751
 31
0.0
  0
LINE
  5
AA
330
1F
100
AcDbEntity
  8
0
  6
Continuous
 62
     7
370
     0
100
AcDbLine
 10
8.6907965209
 20
201.3720275751
 30
0.0
 11
8.6907965209
 21
8.1152464079
 31
0.0
  0
LINE
  5
AB
330
1F
100
AcDbEntity
  8
0
  6
Continuous
 62
     7
370
     0
100
AcDbLine
 10
8.6907965209
 20
8.1152464079
 30
0.0
 11
285.6907965209
 21
8.1152464079
 31
0.0
  0
LINE
  5
AC
330
1F
100
AcDbEntity
  8
工作區域參考線
 62
     1
370
     0
100
AcDbLine
 10
189.3521569237
 20
39.338827265
 30
0.0
 11
192.5877423721
 21
42.4657475116
 31
0.0
  0
LINE
  5
AD
330
1F
100
AcDbEntity
  8
0
  6
Continuous
 62
     7
370
    15
100
AcDbLine
 10
251.0657965209
 20
8.1152464079
 30
0.0
 11
251.0657965209
 21
6.6152464079
 31
0.0
  0
LINE
  5
AE
330
1F
100
AcDbEntity
  8
0
  6
Continuous
 62
     7
370
    15
100
AcDbLine
 10
8.6907965209
 20
40.3252464079
 30
0.0
 11
7.1907965209
 21
40.3252464079
 31
0.0
  0
LINE
  5
AF
330
1F
100
AcDbEntity
  8
工作區域參考線
 62
     1
370
     0
100
AcDbLine
 10
192.5877423721
 20
42.4657475116
 30
0.0
 11
193.5182488822
 21
41.6355552918
 31
0.0
  0
LINE
  5
B0
330
1F
100
AcDbEntity
  8
0
  6
Continuous
 62
     7
370
    15
100
AcDbLine
 10
8.6907965209
 20
72.5352464079
 30
0.0
 11
7.1907965209
 21
72.5352464079
 31
0.0
  0
LINE
  5
B1
330
1F
100
AcDbEntity
  8
0
  6
Continuous
 62
     7
370
    15
100
AcDbLine
 10
8.6907965209
 20
104.7452464079
 30
0.0
 11
7.1907965209
 21
104.7452464079
 31
0.0
  0
LINE
  5
B2
330
1F
100
AcDbEntity
  8
0
  6
Continuous
 62
     7
370
    15
100
AcDbLine
 10
8.6907965209
 20
136.9552464079
 30
0.0
 11
7.1907965209
 21
136.9552464079
 31
0.0
  0
LINE
  5
B3
330
1F
100
AcDbEntity
  8
0
  6
Continuous
 62
     7
370
    15
100
AcDbLine
 10
8.6907965209
 20
169.1652464079
 30
0.0
 11
7.1907965209
 21
169.1652464079
 31
0.0
  0
LINE
  5
B4
330
1F
100
AcDbEntity
  8
0
  6
Continuous
 62
     7
370
    15
100
AcDbLine
 10
285.6907965209
 20
40.3252464079
 30
0.0
 11
287.1907965209
 21
40.3252464079
 31
0.0
  0
LINE
  5
B5
330
1F
100
AcDbEntity
  8
工作區域參考線
 62
     1
370
     0
100
AcDbLine
 10
193.5182488822
 20
41.6355552918
 30
0.0
 11
192.8939975803
 21
41.0264968609
 31
0.0
  0
LINE
  5
B6
330
1F
100
AcDbEntity
  8
0
  6
Continuous
 62
     7
370
    15
100
AcDbLine
 10
285.6907965209
 20
72.5352464079
 30
0.0
 11
287.1907965209
 21
72.5352464079
 31
0.0
  0
LINE
  5
B7
330
1F
100
AcDbEntity
  8
0
  6
Continuous
 62
     7
370
    15
100
AcDbLine
 10
285.6907965209
 20
104.7452464079
 30
0.0
 11
287.1907965209
 21
104.7452464079
 31
0.0
  0
LINE
  5
B8
330
1F
100
AcDbEntity
  8
0
  6
Continuous
 62
     7
370
    15
100
AcDbLine
 10
285.6907965209
 20
136.9552464079
 30
0.0
 11
287.1907965209
 21
136.9552464079
 31
0.0
  0
LINE
  5
B9
330
1F
100
AcDbEntity
  8
0
  6
Continuous
 62
     7
370
    15
100
AcDbLine
 10
285.6907965209
 20
169.1652464079
 30
0.0
 11
287.1907965209
 21
169.1652464079
 31
0.0
  0
LINE
  5
BA
330
1F
100
AcDbEntity
  8
工作區域參考線
 62
     1
370
     0
100
AcDbLine
 10
192.8939975803
 20
41.0264968609
 30
0.0
 11
197.0207534387
 21
37.4373205923
 31
0.0
  0
LINE
  5
BB
330
1F
100
AcDbEntity
  8
工作區域參考線
 62
     1
370
     0
100
AcDbLine
 10
194.5843956919
 20
34.8194958859
 30
0.0
 11
195.5698445849
 21
33.960798946
 31
0.0
  0
LINE
  5
BC
330
1F
100
AcDbEntity
  8
工作區域參考線
 62
     1
370
     0
100
AcDbLine
 10
195.5698445849
 20
33.960798946
 30
0.0
 11
196.8115258997
 21
35.1652318884
 31
0.0
  0
LINE
  5
BD
330
1F
100
AcDbEntity
  8
圖層_1
370
    30
100
AcDbLine
 10
194.9823427416
 20
33.4049010187
 30
0.0
 11
191.7722027684
 21
30.2878613059
 31
0.0
  0
LINE
  5
BE
330
1F
100
AcDbEntity
  8
圖層_1
370
    30
100
AcDbLine
 10
191.7722027684
 20
30.2878613059
 30
0.0
 11
190.8314023129
 21
31.097858376
 31
0.0
  0
LINE
  5
BF
330
1F
100
AcDbEntity
  8
圖層_1
370
    30
100
AcDbLine
 10
190.8314023129
 20
31.097858376
 30
0.0
 11
191.4624542334
 21
31.7137587665
 31
0.0
  0
LINE
  5
C0
330
1F
100
AcDbEntity
  8
圖層_1
370
    30
100
AcDbLine
 10
187.4532519232
 20
35.1983626068
 30
0.0
 11
191.4624542334
 21
31.7137587665
 31
0.0
  0
LINE
  5
C1
330
1F
100
AcDbEntity
  8
圖層_1
370
    30
100
AcDbLine
 10
188.7841267601
 20
38.7760667074
 30
0.0
 11
187.4774985052
 21
37.5144796309
 31
0.0
  0
LINE
  5
C2
330
1F
100
AcDbEntity
  8
圖層_1
370
    30
100
AcDbLine
 10
188.7841267601
 20
38.7760667074
 30
0.0
 11
189.7993206075
 21
37.8805348066
 31
0.0
  0
LINE
  5
C3
330
1F
100
AcDbEntity
  8
圖層_1
370
    30
100
AcDbLine
 10
194.0175230804
 20
34.2521878023
 30
0.0
 11
194.9823427416
 21
33.4049010187
 31
0.0
  0
CIRCLE
  5
C4
330
1F
100
AcDbEntity
  8
0
  6
Continuous
 62
     7
370
     0
100
AcDbCircle
 10
168.3593775185
 20
17.7745192513
 30
0.0
 40
1.5
  0
CIRCLE
  5
C5
330
1F
100
AcDbEntity
  8
0
  6
Continuous
 62
     7
370
     0
100
AcDbCircle
 10
168.3593775185
 20
17.7745192513
 30
0.0
 40
2.5
  0
ARC
  5
C6
330
1F
100
AcDbEntity
  8
工作區域參考線
 62
     1
370
     0
100
AcDbCircle
 10
195.918133574
 20
36.3931786202
 30
0.0
 40
1.518552937418286
100
AcDbArc
 50
306.0377529468
 51
43.4396461534
  0
ARC
  5
C7
330
1F
100
AcDbEntity
  8
工作區域參考線
 62
     1
370
     0
100
AcDbCircle
 10
192.2371535581
 20
35.8675842298
 30
0.0
 40
3.181636704527879
100
AcDbArc
 50
45.5592925416
 51
125.8325555121
  0
ARC
  5
C8
330
1F
100
AcDbEntity
  8
工作區域參考線
 62
     1
370
     0
100
AcDbCircle
 10
192.5548098488
 20
36.4084060353
 30
0.0
 40
2.577567488346265
100
AcDbArc
 50
321.9435288427
 51
42.1815007004
  0
ARC
  5
C9
330
1F
100
AcDbEntity
  8
圖層_1
370
    30
100
AcDbCircle
 10
188.4681933527
 20
36.3459229825
 30
0.0
 40
1.531992467805816
100
AcDbArc
 50
130.2910647925
 51
228.509361907
  0
ARC
  5
CA
330
1F
100
AcDbEntity
  8
圖層_1
370
    30
100
AcDbCircle
 10
191.7725909108
 20
36.2331421192
 30
0.0
 40
2.570544369711281
100
AcDbArc
 50
140.1430462781
 51
253.0452525074
  0
ARC
  5
CB
330
1F
100
AcDbEntity
  8
圖層_1
370
    30
100
AcDbCircle
 10
192.1039881191
 20
36.6217838685
 30
0.0
 40
3.045751395731255
100
AcDbArc
 50
249.2112209143
 51
308.9221353953
  0
MTEXT
  5
CD
330
1F
100
AcDbEntity
  8
0
  6
Continuous
 62
     7
370
     0
100
AcDbMText
 10
165.5426850804
 20
13.2208440369
 30
0.0
 40
2.6458333333
 41
0.0
 71
     1
 72
     1
  1
UNIT:m/m
  7
SLDTEXTSTYLE0
 73
     1
 44
1.0
  0
INSERT
  5
D4
330
1F
100
AcDbEntity
  8
0
  6
Continuous
 62
     7
370
     0
100
AcDbBlockReference
  2
SW_NOTE_0
 10
12.2315076053
 20
193.8904304251
 30
0.0
  0
MTEXT
  5
D6
330
1F
100
AcDbEntity
  8
0
  6
Continuous
 62
     7
370
     0
100
AcDbMText
 10
198.7251893935
 20
40.4406774139
 30
0.0
 40
2.38125
 41
0.0
 71
     1
 72
     1
  1
Unice E-O Services Inc.
  7
SLDTEXTSTYLE1
 73
     1
 44
1.0
  0
MTEXT
  5
D7
330
1F
100
AcDbEntity
  8
0
  6
Continuous
 62
     7
370
     0
100
AcDbMText
 10
217.5590538149
 20
21.5867148511
 30
0.0
 40
1.8520833333
 41
0.0
 71
     1
 72
     1
  1
2014/05/15
  7
SLDTEXTSTYLE0
 73
     1
 44
1.0
  0
MTEXT
  5
D8
330
1F
100
AcDbEntity
  8
0
  6
Continuous
 62
     7
370
     0
100
AcDbMText
 10
252.6088982507
 20
16.87117774
 30
0.0
 40
2.5
 41
0.0
 71
     1
 72
     1
  1
1:1
  7
SLDTEXTSTYLE0
 73
     1
 44
1.0
  0
MTEXT
  5
D9
330
1F
100
AcDbEntity
  8
0
  6
Continuous
 62
     7
370
     0
100
AcDbMText
 10
252.3075599985
 20
32.1519195438
 30
0.0
 40
2.5
 41
0.0
 71
     1
 72
     1
  1
04SFH-2M
  7
SLDTEXTSTYLE0
 73
     1
 44
1.0
  0
MTEXT
  5
DA
330
1F
100
AcDbEntity
  8
0
  6
Continuous
 62
     7
370
     0
100
AcDbMText
 10
252.3075599985
 20
38.1082117879
 30
0.0
 40
2.5
 41
0.0
 71
     1
 72
     1
  1
04SFH-2M
  7
SLDTEXTSTYLE0
 73
     1
 44
1.0
  0
MTEXT
  5
DB
330
1F
100
AcDbEntity
  8
0
  6
Continuous
 62
     7
370
     0
100
AcDbMText
 10
236.3921866786
 20
16.5064795728
 30
0.0
 40
2.1166666667
 41
0.0
 71
     1
 72
     1
  1
SCALE:
  7
SLDTEXTSTYLE0
 73
     1
 44
1.0
  0
MTEXT
  5
DC
330
1F
100
AcDbEntity
  8
0
  6
Continuous
 62
     7
370
     0
100
AcDbMText
 10
186.3336086789
 20
21.5867148511
 30
0.0
 40
1.8520833333
 41
0.0
 71
     1
 72
     1
  1
DRAWN
  7
SLDTEXTSTYLE0
 73
     1
 44
1.0
  0
MTEXT
  5
DD
330
1F
100
AcDbEntity
  8
0
  6
Continuous
 62
     7
370
     0
100
AcDbMText
 10
203.2228367937
 20
26.683208308
 30
0.0
 40
1.8520833333
 41
0.0
 71
     1
 72
     1
  1
NAME
  7
SLDTEXTSTYLE0
 73
     1
 44
1.0
  0
MTEXT
  5
DE
330
1F
100
AcDbEntity
  8
0
  6
Continuous
 62
     7
370
     0
100
AcDbMText
 10
220.8710155758
 20
26.683208308
 30
0.0
 40
1.8520833333
 41
0.0
 71
     1
 72
     1
  1
DATE
  7
SLDTEXTSTYLE0
 73
     1
 44
1.0
  0
MTEXT
  5
DF
330
1F
100
AcDbEntity
  8
0
  6
Continuous
 62
     7
370
     0
100
AcDbMText
 10
236.2756316645
 20
31.7872213766
 30
0.0
 40
2.1166666667
 41
0.0
 71
     1
 72
     1
  1
DWG. NO.
  7
SLDTEXTSTYLE0
 73
     1
 44
1.0
  0
MTEXT
  5
E0
330
1F
100
AcDbEntity
  8
0
  6
Continuous
 62
     7
370
     0
100
AcDbMText
 10
236.3629907088
 20
41.8840658243
 30
0.0
 40
2.1166666667
 41
0.0
 71
     1
 72
     1
  1
TITLE:
  7
SLDTEXTSTYLE0
 73
     1
 44
1.0
  0
MTEXT
  5
E1
330
1F
100
AcDbEntity
  8
0
  6
Continuous
 62
     7
370
     0
100
AcDbMText
 10
203.0314209802
 20
16.2403789724
 30
0.0
 40
1.8520833333
 41
0.0
 71
     1
 72
     1
  1
Johnny
  7
SLDTEXTSTYLE0
 73
     1
 44
1.0
  0
MTEXT
  5
E2
330
1F
100
AcDbEntity
  8
0
  6
Continuous
 62
     7
370
     0
100
AcDbMText
 10
217.5590538149
 20
16.2403789724
 30
0.0
 40
1.8520833333
 41
0.0
 71
     1
 72
     1
  1
2014/05/15
  7
SLDTEXTSTYLE0
 73
     1
 44
1.0
  0
MTEXT
  5
E3
330
1F
100
AcDbEntity
  8
0
  6
Continuous
 62
     7
370
     0
100
AcDbMText
 10
186.3336086789
 20
16.2403789724
 30
0.0
 40
1.8520833333
 41
0.0
 71
     1
 72
     1
  1
ENG APPR.
  7
SLDTEXTSTYLE0
 73
     1
 44
1.0
  0
MTEXT
  5
E4
330
1F
100
AcDbEntity
  8
0
  6
Continuous
 62
     7
370
     0
100
AcDbMText
 10
236.3921866786
 20
11.6853389288
 30
0.0
 40
2.1166666667
 41
0.0
 71
     1
 72
     1
  1
REV
  7
SLDTEXTSTYLE0
 73
     1
 44
1.0
  0
MTEXT
  5
E5
330
1F
100
AcDbEntity
  8
0
  6
Continuous
 62
     7
370
     0
100
AcDbMText
 10
236.3629907088
 20
26.9493089085
 30
0.0
 40
2.1166666667
 41
0.0
 71
     1
 72
     1
  1
MATERIAL:
  7
SLDTEXTSTYLE0
 73
     1
 44
1.0
  0
MTEXT
  5
E6
330
1F
100
AcDbEntity
  8
0
  6
Continuous
 62
     7
370
     0
100
AcDbMText
 10
252.6088982507
 20
22.2175136187
 30
0.0
 40
2.5
 41
0.0
 71
     1
 72
     1
  1
N/A
  7
SLDTEXTSTYLE0
 73
     1
 44
1.0
  0
MTEXT
  5
E7
330
1F
100
AcDbEntity
  8
0
  6
Continuous
 62
     7
370
     0
100
AcDbMText
 10
26.6029931533
 20
204.453351657
 30
0.0
 40
2.1166666667
 41
0.0
 71
     1
 72
     1
  1
1
  7
SLDTEXTSTYLE0
 73
     1
 44
1.0
  0
MTEXT
  5
E8
330
1F
100
AcDbEntity
  8
0
  6
Continuous
 62
     7
370
     0
100
AcDbMText
 10
60.7170995724
 20
204.453351657
 30
0.0
 40
2.1166666667
 41
0.0
 71
     1
 72
     1
  1
2
  7
SLDTEXTSTYLE0
 73
     1
 44
1.0
  0
MTEXT
  5
E9
330
1F
100
AcDbEntity
  8
0
  6
Continuous
 62
     7
370
     0
100
AcDbMText
 10
94.9009943906
 20
204.453351657
 30
0.0
 40
2.1166666667
 41
0.0
 71
     1
 72
     1
  1
3
  7
SLDTEXTSTYLE0
 73
     1
 44
1.0
  0
MTEXT
  5
EA
330
1F
100
AcDbEntity
  8
0
  6
Continuous
 62
     7
370
     0
100
AcDbMText
 10
129.2533362851
 20
204.2992584364
 30
0.0
 40
2.1166666667
 41
0.0
 71
     1
 72
     1
  1
4
  7
SLDTEXTSTYLE0
 73
     1
 44
1.0
  0
MTEXT
  5
EB
330
1F
100
AcDbEntity
  8
0
  6
Continuous
 62
     7
370
     0
100
AcDbMText
 10
163.702323464
 20
204.453351657
 30
0.0
 40
2.1166666667
 41
0.0
 71
     1
 72
     1
  1
5
  7
SLDTEXTSTYLE0
 73
     1
 44
1.0
  0
MTEXT
  5
EC
330
1F
100
AcDbEntity
  8
0
  6
Continuous
 62
     7
370
     0
100
AcDbMText
 10
198.6382170415
 20
204.453351657
 30
0.0
 40
2.1166666667
 41
0.0
 71
     1
 72
     1
  1
6
  7
SLDTEXTSTYLE0
 73
     1
 44
1.0
  0
MTEXT
  5
ED
330
1F
100
AcDbEntity
  8
0
  6
Continuous
 62
     7
370
     0
100
AcDbMText
 10
234.3630657407
 20
204.453351657
 30
0.0
 40
2.1166666667
 41
0.0
 71
     1
 72
     1
  1
7
  7
SLDTEXTSTYLE0
 73
     1
 44
1.0
  0
MTEXT
  5
EE
330
1F
100
AcDbEntity
  8
0
  6
Continuous
 62
     7
370
     0
100
AcDbMText
 10
266.2787820494
 20
204.453351657
 30
0.0
 40
2.1166666667
 41
0.0
 71
     1
 72
     1
  1
8
  7
SLDTEXTSTYLE0
 73
     1
 44
1.0
  0
MTEXT
  5
EF
330
1F
100
AcDbEntity
  8
0
  6
Continuous
 62
     7
370
     0
100
AcDbMText
 10
5.3568236555
 20
185.8113022879
 30
0.0
 40
2.1166666667
 41
0.0
 71
     1
 72
     1
  1
A
  7
SLDTEXTSTYLE0
 73
     1
 44
1.0
  0
MTEXT
  5
F0
330
1F
100
AcDbEntity
  8
0
  6
Continuous
 62
     7
370
     0
100
AcDbMText
 10
5.5910431831
 20
154.2993048238
 30
0.0
 40
2.1166666667
 41
0.0
 71
     1
 72
     1
  1
B
  7
SLDTEXTSTYLE0
 73
     1
 44
1.0
  0
MTEXT
  5
F1
330
1F
100
AcDbEntity
  8
0
  6
Continuous
 62
     7
370
     0
100
AcDbMText
 10
5.5910431831
 20
121.274351423
 30
0.0
 40
2.1166666667
 41
0.0
 71
     1
 72
     1
  1
C
  7
SLDTEXTSTYLE0
 73
     1
 44
1.0
  0
MTEXT
  5
F2
330
1F
100
AcDbEntity
  8
0
  6
Continuous
 62
     7
370
     0
100
AcDbMText
 10
5.5910431831
 20
88.7453220221
 30
0.0
 40
2.1166666667
 41
0.0
 71
     1
 72
     1
  1
D
  7
SLDTEXTSTYLE0
 73
     1
 44
1.0
  0
MTEXT
  5
F3
330
1F
100
AcDbEntity
  8
0
  6
Continuous
 62
     7
370
     0
100
AcDbMText
 10
5.5910431831
 20
57.5558849197
 30
0.0
 40
2.1166666667
 41
0.0
 71
     1
 72
     1
  1
E
  7
SLDTEXTSTYLE0
 73
     1
 44
1.0
  0
MTEXT
  5
F4
330
1F
100
AcDbEntity
  8
0
  6
Continuous
 62
     7
370
     0
100
AcDbMText
 10
5.5910431831
 20
25.5694212252
 30
0.0
 40
2.1166666667
 41
0.0
 71
     1
 72
     1
  1
F
  7
SLDTEXTSTYLE0
 73
     1
 44
1.0
  0
MTEXT
  5
F5
330
1F
100
AcDbEntity
  8
0
  6
Continuous
 62
     7
370
     0
100
AcDbMText
 10
266.1858616964
 20
6.6236223963
 30
0.0
 40
2.1166666667
 41
0.0
 71
     1
 72
     1
  1
8
  7
SLDTEXTSTYLE0
 73
     1
 44
1.0
  0
MTEXT
  5
F6
330
1F
100
AcDbEntity
  8
0
  6
Continuous
 62
     7
370
     0
100
AcDbMText
 10
234.2701453876
 20
6.6236223963
 30
0.0
 40
2.1166666667
 41
0.0
 71
     1
 72
     1
  1
7
  7
SLDTEXTSTYLE0
 73
     1
 44
1.0
  0
MTEXT
  5
F7
330
1F
100
AcDbEntity
  8
0
  6
Continuous
 62
     7
370
     0
100
AcDbMText
 10
198.5452966885
 20
6.6236223963
 30
0.0
 40
2.1166666667
 41
0.0
 71
     1
 72
     1
  1
6
  7
SLDTEXTSTYLE0
 73
     1
 44
1.0
  0
MTEXT
  5
F8
330
1F
100
AcDbEntity
  8
0
  6
Continuous
 62
     7
370
     0
100
AcDbMText
 10
163.6094031109
 20
6.6236223963
 30
0.0
 40
2.1166666667
 41
0.0
 71
     1
 72
     1
  1
5
  7
SLDTEXTSTYLE0
 73
     1
 44
1.0
  0
MTEXT
  5
F9
330
1F
100
AcDbEntity
  8
0
  6
Continuous
 62
     7
370
     0
100
AcDbMText
 10
129.1604159321
 20
6.4695291758
 30
0.0
 40
2.1166666667
 41
0.0
 71
     1
 72
     1
  1
4
  7
SLDTEXTSTYLE0
 73
     1
 44
1.0
  0
MTEXT
  5
FA
330
1F
100
AcDbEntity
  8
0
  6
Continuous
 62
     7
370
     0
100
AcDbMText
 10
94.8080740376
 20
6.6236223963
 30
0.0
 40
2.1166666667
 41
0.0
 71
     1
 72
     1
  1
3
  7
SLDTEXTSTYLE0
 73
     1
 44
1.0
  0
MTEXT
  5
FB
330
1F
100
AcDbEntity
  8
0
  6
Continuous
 62
     7
370
     0
100
AcDbMText
 10
60.6241792194
 20
6.6236223963
 30
0.0
 40
2.1166666667
 41
0.0
 71
     1
 72
     1
  1
2
  7
SLDTEXTSTYLE0
 73
     1
 44
1.0
  0
MTEXT
  5
FC
330
1F
100
AcDbEntity
  8
0
  6
Continuous
 62
     7
370
     0
100
AcDbMText
 10
26.5100728003
 20
6.6236223963
 30
0.0
 40
2.1166666667
 41
0.0
 71
     1
 72
     1
  1
1
  7
SLDTEXTSTYLE0
 73
     1
 44
1.0
  0
MTEXT
  5
FD
330
1F
100
AcDbEntity
  8
0
  6
Continuous
 62
     7
370
     0
100
AcDbMText
 10
287.1023846145
 20
186.6424909092
 30
0.0
 40
2.1166666667
 41
0.0
 71
     1
 72
     1
  1
A
  7
SLDTEXTSTYLE0
 73
     1
 44
1.0
  0
MTEXT
  5
FE
330
1F
100
AcDbEntity
  8
0
  6
Continuous
 62
     7
370
     0
100
AcDbMText
 10
287.3366041421
 20
155.1304934451
 30
0.0
 40
2.1166666667
 41
0.0
 71
     1
 72
     1
  1
B
  7
SLDTEXTSTYLE0
 73
     1
 44
1.0
  0
MTEXT
  5
FF
330
1F
100
AcDbEntity
  8
0
  6
Continuous
 62
     7
370
     0
100
AcDbMText
 10
287.3366041421
 20
122.1055400442
 30
0.0
 40
2.1166666667
 41
0.0
 71
     1
 72
     1
  1
C
  7
SLDTEXTSTYLE0
 73
     1
 44
1.0
  0
MTEXT
  5
100
330
1F
100
AcDbEntity
  8
0
  6
Continuous
 62
     7
370
     0
100
AcDbMText
 10
287.3366041421
 20
89.5765106433
 30
0.0
 40
2.1166666667
 41
0.0
 71
     1
 72
     1
  1
D
  7
SLDTEXTSTYLE0
 73
     1
 44
1.0
  0
MTEXT
  5
101
330
1F
100
AcDbEntity
  8
0
  6
Continuous
 62
     7
370
     0
100
AcDbMText
 10
287.3366041421
 20
58.3870735409
 30
0.0
 40
2.1166666667
 41
0.0
 71
     1
 72
     1
  1
E
  7
SLDTEXTSTYLE0
 73
     1
 44
1.0
  0
MTEXT
  5
102
330
1F
100
AcDbEntity
  8
0
  6
Continuous
 62
     7
370
     0
100
AcDbMText
 10
287.3366041421
 20
26.4006098464
 30
0.0
 40
2.1166666667
 41
0.0
 71
     1
 72
     1
  1
F
  7
SLDTEXTSTYLE0
 73
     1
 44
1.0
  0
MTEXT
  5
103
330
1F
100
AcDbEntity
  8
0
  6
Continuous
 62
     7
370
     0
100
AcDbMText
 10
203.1553128802
 20
21.5867148511
 30
0.0
 40
1.8520833333
 41
0.0
 71
     1
 72
     1
  1
Yuhan
  7
SLDTEXTSTYLE0
 73
     1
 44
1.0
  0
MTEXT
  5
104
330
1F
100
AcDbEntity
  8
0
  6
Continuous
 62
     7
370
     0
100
AcDbMText
 10
252.8482239645
 20
12.210248456
 30
0.0
 40
2.6458333333
 41
0.0
 71
     1
 72
     1
  1
0
  7
SLDTEXTSTYLE0
 73
     1
 44
1.0
  0
INSERT
  5
10A
330
1F
100
AcDbEntity
  8
DIM
 62
     7
100
AcDbBlockReference
  2
SW_NOTE_1
 10
198.7251893935
 20
32.8005413438
 30
0.0
  0
SPLINE
  5
10B
330
1F
100
AcDbEntity
  8
0
  6
Continuous
 62
     7
370
    15
100
AcDbSpline
210
0.0
220
0.0
230
1.0
 70
     8
 71
     3
 72
    12
 73
     8
 74
     0
 42
0.000000001
 43
0.00000001
 40
0.0
 40
0.0
 40
0.0
 40
0.0
 40
0.2059394199585117
 40
0.4267390824390911
 40
0.645741789583658
 40
0.8575340142964286
 40
1.0
 40
1.0
 40
1.0
 40
1.0
 10
132.3250038126137
 20
80.33916812876839
 30
0.0
 10
132.4073513549735
 20
80.22486470625302
 30
0.0
 10
132.5779884999882
 20
79.9880099183077
 30
0.0
 10
132.9083392723515
 20
79.69136645397352
 30
0.0
 10
133.2794973781036
 20
79.44468795058394
 30
0.0
 10
133.6361469806913
 20
79.27815922994533
 30
0.0
 10
133.8688796566763
 20
79.21194133494745
 30
0.0
 10
133.9624737897541
 20
79.18531161288399
 30
0.0
  0
SPLINE
  5
10C
330
1F
100
AcDbEntity
  8
0
  6
Continuous
 62
     7
370
    15
100
AcDbSpline
210
0.0
220
0.0
230
1.0
 70
     8
 71
     3
 72
    13
 73
     9
 74
     0
 42
0.000000001
 43
0.00000001
 40
0.0
 40
0.0
 40
0.0
 40
0.0
 40
0.1690590200818273
 40
0.3521001731803968
 40
0.5522768413707234
 40
0.7636910133869813
 40
0.9826778854370375
 40
1.0
 40
1.0
 40
1.0
 40
1.0
 10
133.9676565998818
 20
84.68011852840561
 30
0.0
 10
133.8559022153339
 20
84.64757581323458
 30
0.0
 10
133.6231507292911
 20
84.57979891708356
 30
0.0
 10
133.279220122375
 20
84.4154437655318
 30
0.0
 10
132.9339710817048
 20
84.19308534096064
 30
0.0
 10
132.6139718031702
 20
83.90035217166911
 30
0.0
 10
132.4042228414951
 20
83.66977529698521
 30
0.0
 10
132.3234377536777
 20
83.52875902887963
 30
0.0
 10
132.3175159791138
 20
83.5184221390881
 30
0.0
  0
SPLINE
  5
10D
330
1F
100
AcDbEntity
  8
0
  6
Continuous
 62
     7
370
    15
100
AcDbSpline
210
0.0
220
0.0
230
1.0
 70
     8
 71
     3
 72
    12
 73
     8
 74
     0
 42
0.000000001
 43
0.00000001
 40
0.0
 40
0.0
 40
0.0
 40
0.0
 40
0.2100241677678901
 40
0.4285208340895094
 40
0.6452392877724107
 40
0.8548222786833686
 40
1.0
 40
1.0
 40
1.0
 40
1.0
 10
132.3171089911486
 20
70.3493644718327
 30
0.0
 10
132.4019193146935
 20
70.23151677148218
 30
0.0
 10
132.5749612601566
 20
69.99106732518061
 30
0.0
 10
132.9082906172657
 20
69.69133324679281
 30
0.0
 10
133.2794951342752
 20
69.44465196946118
 30
0.0
 10
133.6388333301265
 20
69.2770720053476
 30
0.0
 10
133.8743818246838
 20
69.21014474175037
 30
0.0
 10
133.9707746678616
 20
69.18275628725667
 30
0.0
  0
SPLINE
  5
10E
330
1F
100
AcDbEntity
  8
0
  6
Continuous
 62
     7
370
    15
100
AcDbSpline
210
0.0
220
0.0
230
1.0
 70
     8
 71
     3
 72
    13
 73
     9
 74
     0
 42
0.000000001
 43
0.00000001
 40
0.0
 40
0.0
 40
0.0
 40
0.0
 40
0.1682590434828995
 40
0.3520222003270035
 40
0.5529889579634333
 40
0.7652364480629774
 40
0.9850871113379387
 40
1.0
 40
1.0
 40
1.0
 40
1.0
 10
133.9647862637069
 20
74.67920046786446
 30
0.0
 10
133.8540016120066
 20
74.6469276341644
 30
0.0
 10
133.6222241333835
 20
74.57940820879078
 30
0.0
 10
133.2792290054692
 20
74.41542803096249
 30
0.0
 10
132.9339510042876
 20
74.19310006451329
 30
0.0
 10
132.6140513646952
 20
73.9002998865237
 30
0.0
 10
132.405191890146
 20
73.67116728587605
 30
0.0
 10
132.3251539188736
 20
73.53168593189766
 30
0.0
 10
132.3200696656133
 20
73.5228256557383
 30
0.0
  0
SPLINE
  5
10F
330
1F
100
AcDbEntity
  8
0
  6
Continuous
 62
     7
370
    15
100
AcDbSpline
210
0.0
220
0.0
230
1.0
 70
    24
 71
     3
 72
    18
 73
    14
 74
     0
 42
0.000000001
 43
0.00000001
 40
0.0
 40
0.0
 40
0.0
 40
0.0
 40
0.0258975086710743
 40
0.1332542755316421
 40
0.2406105996691253
 40
0.3479671458300881
 40
0.4553237287654239
 40
0.5626799974347131
 40
0.6700366798489491
 40
0.7773931514409791
 40
0.8847497101521532
 40
0.9921061351257494
 40
1.0
 40
1.0
 40
1.0
 40
1.0
 10
132.3232780718829
 20
83.51508055369038
 30
0.0
 10
132.3232780718829
 20
83.52012340980308
 30
0.0
 10
132.3232780718829
 20
83.54607116201515
 30
0.0
 10
132.3232780718829
 20
83.4125104766427
 30
0.0
 10
132.3232780718829
 20
83.1209129467096
 30
0.0
 10
132.3232780718829
 20
82.68070981699677
 30
0.0
 10
132.3232780718829
 20
82.1600444658743
 30
0.0
 10
132.3232780718829
 20
81.61221860229492
 30
0.0
 10
132.3232780718829
 20
81.10207647144729
 30
0.0
 10
132.3232780718829
 20
80.68021058348589
 30
0.0
 10
132.3232780718829
 20
80.41878776505843
 30
0.0
 10
132.3232780718829
 20
80.30612487285077
 30
0.0
 10
132.3232780718829
 20
80.335800062536
 30
0.0
 10
132.3232780718829
 20
80.3378326121964
 30
0.0
  0
SPLINE
  5
110
330
1F
100
AcDbEntity
  8
0
  6
Continuous
 62
     7
370
    15
100
AcDbSpline
210
0.0
220
0.0
230
1.0
 70
    24
 71
     3
 72
     9
 73
     5
 74
     0
 42
0.000000001
 43
0.00000001
 40
0.0
 40
0.0
 40
0.0
 40
0.0
 40
0.6444659064976456
 40
1.0
 40
1.0
 40
1.0
 40
1.0
 10
132.3232780718829
 20
70.54603465388197
 30
0.0
 10
132.3232780718829
 20
70.4647627586954
 30
0.0
 10
132.3232780718829
 20
70.33865539697592
 30
0.0
 10
132.3232780718829
 20
70.35007954957837
 30
0.0
 10
132.3232780718829
 20
70.3541412253179
 30
0.0
  0
SPLINE
  5
111
330
1F
100
AcDbEntity
  8
0
  6
Continuous
 62
     7
370
    15
100
AcDbSpline
210
0.0
220
0.0
230
1.0
 70
    24
 71
     3
 72
    16
 73
    12
 74
     0
 42
0.000000001
 43
0.00000001
 40
0.0
 40
0.0
 40
0.0
 40
0.0
 40
0.0176685996795146
 40
0.1464839046145366
 40
0.2752994809851972
 40
0.404114658317405
 40
0.5329301886972154
 40
0.6617454725895734
 40
0.790560890324946
 40
0.9193764569364306
 40
1.0
 40
1.0
 40
1.0
 40
1.0
 10
132.3232780718829
 20
73.52096487323422
 30
0.0
 10
132.3232780718829
 20
73.52442308799655
 30
0.0
 10
132.3232780718829
 20
73.55309388311181
 30
0.0
 10
132.3232780718829
 20
73.43305063876198
 30
0.0
 10
132.3232780718829
 20
73.15989730893922
 30
0.0
 10
132.3232780718829
 20
72.73091151739202
 30
0.0
 10
132.3232780718829
 20
72.21663108566803
 30
0.0
 10
132.3232780718829
 20
71.66833156338379
 30
0.0
 10
132.3232780718829
 20
71.15247931305149
 30
0.0
 10
132.3232780718829
 20
70.76985131823011
 30
0.0
 10
132.3232780718829
 20
70.60824498087872
 30
0.0
 10
132.3232780718829
 20
70.54603465388197
 30
0.0
  0
ARC
  5
112
330
1F
100
AcDbEntity
  8
0
  6
Continuous
 62
     7
370
    15
100
AcDbCircle
 10
141.3536608476
 20
118.9079578496
 30
0.0
 40
0.700000000000005
100
AcDbArc
 50
345.6
 51
19.6
  0
LINE
  5
113
330
1F
100
AcDbEntity
  8
0
  6
Continuous
 62
     7
370
    15
100
AcDbLine
 10
134.3827028336
 20
88.9431172285
 30
0.0
 11
142.0316690651
 21
118.7338763152
 31
0.0
  0
ARC
  5
114
330
1F
100
AcDbEntity
  8
0
  6
Continuous
 62
     7
370
    15
100
AcDbCircle
 10
134.6732776815
 20
88.8685110118
 30
0.0
 40
0.3000000000000114
100
AcDbArc
 50
165.6
 51
180.0
  0
LINE
  5
115
330
1F
100
AcDbEntity
  8
0
  6
Continuous
 62
     7
370
    15
100
AcDbLine
 10
134.3732778491
 20
65.931675886
 30
0.0
 11
134.3732778491
 21
88.8685108397
 31
0.0
  0
ARC
  5
116
330
1F
100
AcDbEntity
  8
0
  6
Continuous
 62
     7
370
    15
100
AcDbCircle
 10
134.6732776815
 20
88.8685110118
 30
0.0
 40
0.700000000000017
100
AcDbArc
 50
165.6
 51
180.0
  0
LINE
  5
117
330
1F
100
AcDbEntity
  8
0
  6
Continuous
 62
     7
370
    15
100
AcDbLine
 10
133.9952693829
 20
89.0425936554
 30
0.0
 11
141.644235789
 21
118.833352742
 31
0.0
  0
ARC
  5
118
330
1F
100
AcDbEntity
  8
0
  6
Continuous
 62
     7
370
    15
100
AcDbCircle
 10
141.3536608476
 20
118.9079578496
 30
0.0
 40
0.2999999999999992
100
AcDbArc
 50
345.6
 51
19.6
  0
LINE
  5
119
330
1F
100
AcDbEntity
  8
0
  6
Continuous
 62
     7
370
    15
100
AcDbLine
 10
141.6362780887
 20
119.0085941229
 30
0.0
 11
137.3732843944
 21
130.9804701481
 31
0.0
  0
LINE
  5
11A
330
1F
100
AcDbEntity
  8
0
  6
Continuous
 62
     7
370
    15
100
AcDbLine
 10
137.750107287
 20
131.1146476541
 30
0.0
 11
137.3732843944
 21
130.9804701481
 31
0.0
  0
LINE
  5
11B
330
1F
100
AcDbEntity
  8
0
  6
Continuous
 62
     7
370
    15
100
AcDbLine
 10
142.0131010686
 20
119.1427753542
 30
0.0
 11
137.750107287
 21
131.1146476541
 31
0.0
  0
LINE
  5
11C
330
1F
100
AcDbEntity
  8
0
  6
Continuous
 62
     7
370
    15
100
AcDbLine
 10
133.9732780629
 20
65.931675886
 30
0.0
 11
133.9732780629
 21
88.8685108397
 31
0.0
  0
LINE
  5
11D
330
1F
100
AcDbEntity
  8
0
  6
Continuous
 62
     7
370
    15
100
AcDbLine
 10
134.3732778491
 20
65.931675886
 30
0.0
 11
133.9732780629
 21
65.931675886
 31
0.0
  0
LINE
  5
11E
330
1F
100
AcDbEntity
  8
0
  6
Continuous
 62
     7
370
    15
100
AcDbLine
 10
136.7023810321
 20
132.8645878706
 30
0.0
 11
137.0792043903
 21
132.9987653766
 31
0.0
  0
LWPOLYLINE
  5
11F
330
1F
100
AcDbEntity
  8
0
  6
Continuous
 62
     7
370
    15
100
AcDbPolyline
 90
        9
 70
   128
 43
0.0
 10
137.3732843944
 20
130.9804701481
 10
137.2423977168
 20
131.3480445419
 10
137.1165406467
 20
131.7014926348
 10
137.0005504736
 20
132.0272320185
 10
136.8988840418
 20
132.312738267
 10
136.8154487149
 20
132.5470515762
 10
136.7534505712
 20
132.7211641941
 10
136.7152723992
 20
132.8283854995
 10
136.7023810321
 20
132.8645878706
  0
LWPOLYLINE
  5
120
330
1F
100
AcDbEntity
  8
0
  6
Continuous
 62
     7
370
    15
100
AcDbPolyline
 90
        9
 70
   128
 43
0.0
 10
137.0792043903
 20
132.9987653766
 10
137.0920952918
 20
132.9625630055
 10
137.1302734637
 20
132.8553491507
 10
137.1922716075
 20
132.6812365327
 10
137.2757074
 20
132.4469232235
 10
137.3773733662
 20
132.1614095245
 10
137.4933640049
 20
131.8356701408
 10
137.6192206094
 20
131.4822220478
 10
137.750107287
 20
131.1146476541
  0
LINE
  5
121
330
1F
100
AcDbEntity
  8
0
  6
Continuous
 62
     7
370
    15
100
AcDbLine
 10
146.8732775697
 20
126.9316756401
 30
0.0
 11
141.8732776815
 21
126.9316756401
 31
0.0
  0
LINE
  5
122
330
1F
100
AcDbEntity
  8
0
  6
Continuous
 62
     7
370
    15
100
AcDbLine
 10
146.8732775697
 20
126.9316756401
 30
0.0
 11
146.8732775697
 21
61.931675696
 31
0.0
  0
LINE
  5
123
330
1F
100
AcDbEntity
  8
0
  6
Continuous
 62
     7
370
    15
100
AcDbLine
 10
146.8732775697
 20
61.931675696
 30
0.0
 11
134.3732778491
 21
61.931675696
 31
0.0
  0
LINE
  5
124
330
1F
100
AcDbEntity
  8
0
  6
Continuous
 62
     7
370
    15
100
AcDbLine
 10
134.3732778491
 20
85.431675357
 30
0.0
 11
134.3732778491
 21
61.931675696
 31
0.0
  0
LINE
  5
125
330
1F
100
AcDbEntity
  8
0
  6
Continuous
 62
     7
370
    15
100
AcDbLine
 10
134.3732778491
 20
85.431675357
 30
0.0
 11
141.8732776815
 21
85.431675357
 31
0.0
  0
LINE
  5
126
330
1F
100
AcDbEntity
  8
0
  6
Continuous
 62
     7
370
    15
100
AcDbLine
 10
141.8732776815
 20
126.9316756401
 30
0.0
 11
141.8732776815
 21
85.431675357
 31
0.0
  0
LINE
  5
127
330
1F
100
AcDbEntity
  8
0
  6
Continuous
 62
     7
370
    15
100
AcDbLine
 10
134.3732778491
 20
126.9316756401
 30
0.0
 11
138.8149952558
 21
126.9316756401
 31
0.0
  0
LINE
  5
128
330
1F
100
AcDbEntity
  8
0
  6
Continuous
 62
     7
370
    15
100
AcDbLine
 10
139.2395980233
 20
126.9316756401
 30
0.0
 11
141.8732776815
 21
126.9316756401
 31
0.0
  0
LINE
  5
129
330
1F
100
AcDbEntity
  8
0
  6
Continuous
 62
     7
370
    15
100
AcDbLine
 10
134.3732778491
 20
126.9316756401
 30
0.0
 11
134.3732778491
 21
90.5148395572
 31
0.0
  0
LINE
  5
12A
330
1F
100
AcDbEntity
  8
DIM
  6
CENTERX2
100
AcDbLine
 10
143.3732776815
 20
61.931675701
 30
0.0
 11
143.3732776815
 21
71.931675701
 31
0.0
  0
LINE
  5
12B
330
1F
100
AcDbEntity
  8
DIM
  6
CENTERX2
100
AcDbLine
 10
138.3732776815
 20
71.931675701
 30
0.0
 11
138.3732776815
 21
61.931675701
 31
0.0
  0
LINE
  5
12C
330
1F
100
AcDbEntity
  8
DIM
  6
CENTERX2
100
AcDbLine
 10
143.3732776815
 20
71.931675701
 30
0.0
 11
138.3732776815
 21
71.931675701
 31
0.0
  0
LINE
  5
12D
330
1F
100
AcDbEntity
  8
DIM
  6
CENTERX2
100
AcDbLine
 10
140.8732776815
 20
73.3750513739
 30
0.0
 11
138.3732776815
 21
71.931675701
 31
0.0
  0
LINE
  5
12E
330
1F
100
AcDbEntity
  8
DIM
  6
CENTERX2
100
AcDbLine
 10
143.3732776815
 20
71.931675701
 30
0.0
 11
140.8732776815
 21
73.3750513739
 31
0.0
  0
DIMENSION
  5
12F
330
1F
100
AcDbEntity
  8
DIM
100
AcDbDimension
  2
_D
 10
134.3732776815
 20
53.931675701
 30
0.0
 11
137.6232776815
 21
53.931675701
 31
0.0
 70
   160
  1
<>
 71
     2
 42
-1.0
  3
SLDDIMSTYLE0
100
AcDbAlignedDimension
 13
140.8732776815
 23
73.3750513739
 33
0.0
 14
134.3732776815
 24
61.931675701
 34
0.0
 50
0.0
100
AcDbRotatedDimension
  0
DIMENSION
  5
13A
330
1F
100
AcDbEntity
  8
DIM
100
AcDbDimension
  2
_D_1
 10
134.3732776815
 20
46.7223860855
 30
0.0
 11
140.6232776815
 21
46.7223860855
 31
0.0
 70
   160
  1
<>
 71
     2
 42
-1.0
  3
SLDDIMSTYLE0
100
AcDbAlignedDimension
 13
146.8732776815
 23
61.931675701
 33
0.0
 14
134.3732776815
 24
61.931675701
 34
0.0
 50
0.0
100
AcDbRotatedDimension
  0
DIMENSION
  5
144
330
1F
100
AcDbEntity
  8
DIM
100
AcDbDimension
  2
_D_2
 10
154.8732776815
 20
61.931675701
 30
0.0
 11
154.8732776815
 21
94.431675701
 31
0.0
 70
   160
  1
<>
 71
     2
 42
-1.0
  3
SLDDIMSTYLE0
100
AcDbAlignedDimension
 13
146.8732776815
 23
126.931675701
 33
0.0
 14
146.8732776815
 24
61.931675701
 34
0.0
 50
90.0
100
AcDbRotatedDimension
  0
DIMENSION
  5
14E
330
1F
100
AcDbEntity
  8
DIM
 62
     7
100
AcDbDimension
  2
_D_3
 10
141.8732776815
 20
137.182754057
 30
0.0
 11
138.1232776815
 21
137.182754057
 31
0.0
 70
   160
  1
<>
 71
     2
 42
-1.0
  3
SLDDIMSTYLE0
100
AcDbAlignedDimension
 13
134.3732776815
 23
88.8685110118
 33
0.0
 14
141.8732776815
 24
126.931675701
 34
0.0
 50
0.0
100
AcDbRotatedDimension
  0
INSERT
  5
15D
102
{ACAD_REACTORS
330
15F
102
}
330
1F
100
AcDbEntity
  8
DIM
 62
     7
100
AcDbBlockReference
  2
SW_NOTE_2
 10
154.3207663782
 20
51.6687268232
 30
0.0
  0
LEADER
  5
15F
330
1F
100
AcDbEntity
  8
DIM
 62
     7
100
AcDbLeader
  3
SLDDIMSTYLE1
 73
     2
 76
     3
 10
141.9249404556
 20
61.931675701
 30
0.0
 10
153.3207663782
 20
51.6687268232
 30
0.0
 10
154.3207663782
 20
51.6687268232
 30
0.0
340
15D
  0
SPLINE
  5
160
330
1F
100
AcDbEntity
  8
0
  6
Continuous
 62
     7
370
    15
100
AcDbSpline
210
0.0
220
0.0
230
1.0
 70
    11
 71
     3
 72
    26
 73
    22
 74
     0
 42
0.000000001
 43
0.00000001
 40
0.0
 40
0.0
 40
0.0
 40
0.0
 40
0.0331519296223962
 40
0.0868408109699821
 40
0.1405298052452074
 40
0.1942187125087475
 40
0.2479076368244771
 40
0.3015966181925968
 40
0.3552855162252134
 40
0.4089745092783169
 40
0.4626634100952306
 40
0.5163523250007573
 40
0.5700413229565482
 40
0.6237302231268166
 40
0.6774191925799007
 40
0.731108107597093
 40
0.7847970808803146
 40
0.8384860289269472
 40
0.8921749744157023
 40
0.9458639670175559
 40
1.0
 40
1.0
 40
1.0
 40
1.0
 10
42.23446273106205
 20
69.55010623226539
 30
0.0
 10
42.07555689512224
 20
69.65545802465304
 30
0.0
 10
41.65930626301562
 20
69.93142491986221
 30
0.0
 10
41.15397890686073
 20
70.58541350910158
 30
0.0
 10
40.84442290492592
 20
71.4713095853898
 30
0.0
 10
40.84853986430235
 20
72.41324772489108
 30
0.0
 10
41.16340966769856
 20
73.29978325983394
 30
0.0
 10
41.75419284774244
 20
74.03237261038704
 30
0.0
 10
42.55410748325987
 20
74.52804369161787
 30
0.0
 10
43.47301456456878
 20
74.73101616654628
 30
0.0
 10
44.40730267344225
 20
74.61837816069826
 30
0.0
 10
45.25164154300366
 20
74.20283716929043
 30
0.0
 10
45.91083728255546
 20
73.53123972266856
 30
0.0
 10
46.31056602550003
 20
72.67929677926051
 30
0.0
 10
46.40578300890138
 20
71.74309280873068
 30
0.0
 10
46.18567824826893
 20
70.82804953367886
 30
0.0
 10
45.6753389460435
 20
70.03780452495046
 30
0.0
 10
44.9312864171378
 20
69.45968889169656
 30
0.0
 10
44.04119658624276
 20
69.16546211440655
 30
0.0
 10
43.08864561402554
 20
69.1637221919232
 30
0.0
 10
42.51997625594492
 20
69.42095605668023
 30
0.0
 10
42.23446273106205
 20
69.55010623226539
 30
0.0
  0
SPLINE
  5
161
330
1F
100
AcDbEntity
  8
0
  6
Continuous
 62
     7
370
    15
100
AcDbSpline
210
0.0
220
0.0
230
1.0
 70
    11
 71
     3
 72
    26
 73
    22
 74
     0
 42
0.000000001
 43
0.00000001
 40
0.0
 40
0.0
 40
0.0
 40
0.0
 40
0.0536887069852412
 40
0.107377502013043
 40
0.1610661753740047
 40
0.2147549036049419
 40
0.2684436635368908
 40
0.3221324054372323
 40
0.3758210761830278
 40
0.4295099330445647
 40
0.4831985890091874
 40
0.5368873589264602
 40
0.5905760848936438
 40
0.6442647726358792
 40
0.6979534528649893
 40
0.7516421804078699
 40
0.8053308690833266
 40
0.8590196013268377
 40
0.9127084136739718
 40
0.9663971659053224
 40
1.0
 40
1.0
 40
1.0
 40
1.0
 10
42.80946315127479
 20
70.54603465388195
 30
0.0
 10
42.66249569333846
 20
70.65131343439266
 30
0.0
 10
42.3685605364581
 20
70.86187116805776
 30
0.0
 10
42.09172735920778
 20
71.3401787629264
 30
0.0
 10
41.97953201951545
 20
71.8739569900754
 30
0.0
 10
42.05283253692924
 20
72.41724826049776
 30
0.0
 10
42.301169405088
 20
72.90498896716868
 30
0.0
 10
42.69712939362308
 20
73.28321183582254
 30
0.0
 10
43.19591466691959
 20
73.50900282174095
 30
0.0
 10
43.74133371620329
 20
73.55697633952151
 30
0.0
 10
44.27188292979369
 20
73.42170493323117
 30
0.0
 10
44.72774947547482
 20
73.11844565709339
 30
0.0
 10
45.05753908107506
 20
72.68138787128436
 30
0.0
 10
45.22406463210373
 20
72.15980199872554
 30
0.0
 10
45.20856536209975
 20
71.61250900933197
 30
0.0
 10
45.01275227706096
 20
71.10115601252014
 30
0.0
 10
44.65883621926908
 20
70.68359692090988
 30
0.0
 10
44.18620236006421
 20
70.40615819445436
 30
0.0
 10
43.65007407268106
 20
70.3029126242946
 30
0.0
 10
43.17180014416606
 20
70.36608480393261
 30
0.0
 10
42.91017540760654
 20
70.49601725082755
 30
0.0
 10
42.80946315127479
 20
70.54603465388195
 30
0.0
  0
LINE
  5
162
330
1F
100
AcDbEntity
  8
0
  6
Continuous
 62
     7
370
    15
100
AcDbLine
 10
42.609463491
 20
72.5090260852
 30
0.0
 11
42.609463491
 21
71.3543257911
 31
0.0
  0
LINE
  5
163
330
1F
100
AcDbEntity
  8
0
  6
Continuous
 62
     7
370
    15
100
AcDbLine
 10
43.6094636549
 20
73.0863762323
 30
0.0
 11
42.609463491
 21
72.5090260852
 31
0.0
  0
LINE
  5
164
330
1F
100
AcDbEntity
  8
0
  6
Continuous
 62
     7
370
    15
100
AcDbLine
 10
42.609463491
 20
71.3543257911
 30
0.0
 11
43.6094636549
 21
70.7769747127
 31
0.0
  0
LINE
  5
165
330
1F
100
AcDbEntity
  8
0
  6
Continuous
 62
     7
370
    15
100
AcDbLine
 10
44.6094638188
 20
71.3543257911
 30
0.0
 11
44.6094638188
 21
72.5090260852
 31
0.0
  0
LINE
  5
166
330
1F
100
AcDbEntity
  8
0
  6
Continuous
 62
     7
370
    15
100
AcDbLine
 10
43.6094636549
 20
70.7769747127
 30
0.0
 11
44.6094638188
 21
71.3543257911
 31
0.0
  0
LINE
  5
167
330
1F
100
AcDbEntity
  8
0
  6
Continuous
 62
     7
370
    15
100
AcDbLine
 10
44.6094638188
 20
72.5090260852
 30
0.0
 11
43.6094636549
 21
73.0863762323
 31
0.0
  0
SPLINE
  5
168
330
1F
100
AcDbEntity
  8
0
  6
Continuous
 62
     7
370
    15
100
AcDbSpline
210
0.0
220
0.0
230
1.0
 70
    11
 71
     3
 72
    26
 73
    22
 74
     0
 42
0.000000001
 43
0.00000001
 40
0.0
 40
0.0
 40
0.0
 40
0.0
 40
0.0331519904755676
 40
0.0868409347255748
 40
0.1405298222428661
 40
0.1942188333876619
 40
0.2479077022551069
 40
0.301596679202784
 40
0.3552856648751743
 40
0.4089745477543368
 40
0.4626635516747664
 40
0.516352462159856
 40
0.5700414556952029
 40
0.6237304004682279
 40
0.6774192577540006
 40
0.7311082463264721
 40
0.7847971696988014
 40
0.8384860609711634
 40
0.8921750020394789
 40
0.945863990220889
 40
1.0
 40
1.0
 40
1.0
 40
1.0
 10
86.73446350592242
 20
79.5501050774254
 30
0.0
 10
86.57555777795906
 20
79.6554576087857
 30
0.0
 10
86.15930759956456
 20
79.9314263264341
 30
0.0
 10
85.65397790162734
 20
80.58541290786575
 30
0.0
 10
85.34442159363448
 20
81.47130966419627
 30
0.0
 10
85.34853851193179
 20
82.4132475833091
 30
0.0
 10
85.66340886248899
 20
83.29978317626393
 30
0.0
 10
86.25419192466526
 20
84.0323730822466
 30
0.0
 10
87.05410744088479
 20
84.52804262709091
 30
0.0
 10
87.97301459190695
 20
84.73101616063857
 30
0.0
 10
88.9073029162105
 20
84.61837815232681
 30
0.0
 10
89.75164227512137
 20
84.20283695252365
 30
0.0
 10
90.41083839745703
 20
83.53123932999581
 30
0.0
 10
90.81056622192469
 20
82.67929643183348
 30
0.0
 10
90.90578430282308
 20
81.74309241481066
 30
0.0
 10
90.68567709734296
 20
80.82804984506211
 30
0.0
 10
90.17533745680085
 20
80.03780588596402
 30
0.0
 10
89.43128733476001
 20
79.45968800502114
 30
0.0
 10
88.54119722677639
 20
79.16546199119927
 30
0.0
 10
87.58864660533463
 20
79.16372213507256
 30
0.0
 10
87.01997707038029
 20
79.42095528367183
 30
0.0
 10
86.73446350592242
 20
79.5501050774254
 30
0.0
  0
SPLINE
  5
169
330
1F
100
AcDbEntity
  8
0
  6
Continuous
 62
     7
370
    15
100
AcDbSpline
210
0.0
220
0.0
230
1.0
 70
    11
 71
     3
 72
    26
 73
    22
 74
     0
 42
0.000000001
 43
0.00000001
 40
0.0
 40
0.0
 40
0.0
 40
0.0
 40
0.053688862312987
 40
0.107377493716468
 40
0.1610662702594305
 40
0.2147549182831138
 40
0.2684436902506515
 40
0.3221323095790304
 40
0.3758211619376844
 40
0.4295098454063802
 40
0.4831986937804608
 40
0.5368873207498432
 40
0.590576058752608
 40
0.6442648151461439
 40
0.6979534143760223
 40
0.7516422205187054
 40
0.805330921229735
 40
0.8590196655088288
 40
0.9127083429060971
 40
0.966397120563309
 40
0.9999999999999999
 40
0.9999999999999999
 40
0.9999999999999999
 40
0.9999999999999999
 10
87.30946392613517
 20
80.5460353616871
 30
0.0
 10
87.16249561980077
 20
80.65131394513332
 30
0.0
 10
86.86855963922538
 20
80.86187065923492
 30
0.0
 10
86.59172816254167
 20
81.34017962543658
 30
0.0
 10
86.47953277303137
 20
81.87395702065012
 30
0.0
 10
86.55283337982057
 20
82.41724842565488
 30
0.0
 10
86.8011702828754
 20
82.90498797530964
 30
0.0
 10
87.19712869416826
 20
83.28321275764056
 30
0.0
 10
87.69591454421409
 20
83.50900196399667
 30
0.0
 10
88.24133368100095
 20
83.55697593104196
 30
0.0
 10
88.7718829126036
 20
83.4217055657768
 30
0.0
 10
89.22774868381252
 20
83.11844479100323
 30
0.0
 10
89.55753755091229
 20
82.6813873465287
 30
0.0
 10
89.72406579092036
 20
82.15980250740817
 30
0.0
 10
89.70856645819852
 20
81.61250890852861
 30
0.0
 10
89.51275074547019
 20
81.10115720220563
 30
0.0
 10
89.1588353239544
 20
80.6835973467355
 30
0.0
 10
88.68620152378391
 20
80.40615997404782
 30
0.0
 10
88.15007447458584
 20
80.30291044003901
 30
0.0
 10
87.6718006825976
 20
80.36608454829951
 30
0.0
 10
87.41017615592075
 20
80.49601767139
 30
0.0
 10
87.30946392613517
 20
80.5460353616871
 30
0.0
  0
LINE
  5
16A
330
1F
100
AcDbEntity
  8
0
  6
Continuous
 62
     7
370
    15
100
AcDbLine
 10
87.1094624032
 20
82.509026793
 30
0.0
 11
87.1094624032
 21
81.3543246363
 31
0.0
  0
LINE
  5
16B
330
1F
100
AcDbEntity
  8
0
  6
Continuous
 62
     7
370
    15
100
AcDbLine
 10
87.1094624032
 20
81.3543246363
 30
0.0
 11
88.1094625671
 21
80.7769754205
 31
0.0
  0
LINE
  5
16C
330
1F
100
AcDbEntity
  8
0
  6
Continuous
 62
     7
370
    15
100
AcDbLine
 10
88.1094625671
 20
83.0863760088
 30
0.0
 11
87.1094624032
 21
82.509026793
 31
0.0
  0
LINE
  5
16D
330
1F
100
AcDbEntity
  8
0
  6
Continuous
 62
     7
370
    15
100
AcDbLine
 10
89.1094627311
 20
82.509026793
 30
0.0
 11
88.1094625671
 21
83.0863760088
 31
0.0
  0
LINE
  5
16E
330
1F
100
AcDbEntity
  8
0
  6
Continuous
 62
     7
370
    15
100
AcDbLine
 10
89.1094627311
 20
81.3543246363
 30
0.0
 11
89.1094627311
 21
82.509026793
 31
0.0
  0
LINE
  5
16F
330
1F
100
AcDbEntity
  8
0
  6
Continuous
 62
     7
370
    15
100
AcDbLine
 10
88.1094625671
 20
80.7769754205
 30
0.0
 11
89.1094627311
 21
81.3543246363
 31
0.0
  0
SPLINE
  5
170
330
1F
100
AcDbEntity
  8
0
  6
Continuous
 62
     7
370
    15
100
AcDbSpline
210
0.0
220
0.0
230
1.0
 70
    11
 71
     3
 72
    26
 73
    22
 74
     0
 42
0.000000001
 43
0.00000001
 40
0.0
 40
0.0
 40
0.0
 40
0.0
 40
0.0331519667169124
 40
0.0868408491442828
 40
0.1405298800439871
 40
0.1942188203200265
 40
0.2479077306962962
 40
0.3015966796531152
 40
0.3552856154865611
 40
0.4089745635851471
 40
0.4626635505425588
 40
0.5163524875281897
 40
0.5700413895029608
 40
0.6237303239396987
 40
0.6774192522267156
 40
0.731108195670656
 40
0.7847972100030465
 40
0.8384861221000164
 40
0.892175061176299
 40
0.9458639706223491
 40
1.0
 40
1.0
 40
1.0
 40
1.0
 10
89.48446349102126
 20
69.55010623226539
 30
0.0
 10
89.3137729541987
 20
69.46516574672951
 30
0.0
 10
88.86665283957201
 20
69.24266600927349
 30
0.0
 10
88.04761829984969
 20
69.13203266870605
 30
0.0
 10
87.12563106588603
 20
69.30689661387682
 30
0.0
 10
86.31194649939233
 20
69.78143105128
 30
0.0
 10
85.70162032943497
 20
70.49738503898993
 30
0.0
 10
85.36257053854676
 20
71.37531276076552
 30
0.0
 10
85.33326482067075
 20
72.31589448543106
 30
0.0
 10
85.61693744997545
 20
73.21317858923062
 30
0.0
 10
86.18163051790263
 20
73.96597670772897
 30
0.0
 10
86.96366987321177
 20
74.48942329781806
 30
0.0
 10
87.874887186431
 20
74.72450761319051
 30
0.0
 10
88.81255548775404
 20
74.64471083927535
 30
0.0
 10
89.67094065394168
 20
74.25906936242743
 30
0.0
 10
90.35333831747394
 20
73.61093031591005
 30
0.0
 10
90.78254119544698
 20
72.7738409108319
 30
0.0
 10
90.91117737315915
 20
71.84041469471951
 30
0.0
 10
90.72094147378957
 20
70.922461226058
 30
0.0
 10
90.24617204632493
 20
70.09665901615372
 30
0.0
 10
89.73906728343539
 20
69.73279344322496
 30
0.0
 10
89.48446349102126
 20
69.55010623226539
 30
0.0
  0
SPLINE
  5
171
330
1F
100
AcDbEntity
  8
0
  6
Continuous
 62
     7
370
    15
100
AcDbSpline
210
0.0
220
0.0
230
1.0
 70
    11
 71
     3
 72
    26
 73
    22
 74
     0
 42
0.000000001
 43
0.00000001
 40
0.0
 40
0.0
 40
0.0
 40
0.0
 40
0.053688769399718
 40
0.1073774901153947
 40
0.1610660948948087
 40
0.2147548972327091
 40
0.268443644136644
 40
0.3221323588822247
 40
0.3758210367423362
 40
0.4295098379812353
 40
0.483198498605547
 40
0.5368872687645548
 40
0.5905760338414349
 40
0.644264710627309
 40
0.6979535005443075
 40
0.7516421241468564
 40
0.8053308948954191
 40
0.8590195629109629
 40
0.9127082867106726
 40
0.9663970725601633
 40
1.0
 40
1.0
 40
1.0
 40
1.0
 10
88.90946307080851
 20
70.54603465388195
 30
0.0
 10
88.74480502520579
 20
70.47139645499415
 30
0.0
 10
88.41548908330938
 20
70.32212012489919
 30
0.0
 10
87.86284624217386
 20
70.3215298799644
 30
0.0
 10
87.34448349394732
 20
70.49125502627709
 30
0.0
 10
86.91062925784784
 20
70.82638039424413
 30
0.0
 10
86.61240280617602
 20
71.28531730918442
 30
0.0
 10
86.48283005628195
 20
71.81733949819474
 30
0.0
 10
86.53668342243857
 20
72.36219560372598
 30
0.0
 10
86.76784670783839
 20
72.85852847347412
 30
0.0
 10
87.1502687147819
 20
73.25036302886265
 30
0.0
 10
87.64083328736213
 20
73.49352344175216
 30
0.0
 10
88.18423091576003
 20
73.56060258600704
 30
0.0
 10
88.71920076912612
 20
73.44402491082236
 30
0.0
 10
89.18542165298247
 20
73.15695676854244
 30
0.0
 10
89.53035818050658
 20
72.73169943736515
 30
0.0
 10
89.7150169090301
 20
72.21641995168665
 30
0.0
 10
89.71896799382513
 20
71.6683881801486
 30
0.0
 10
89.54032019398488
 20
71.15246398001233
 30
0.0
 10
89.24647294771144
 20
70.76985353338843
 30
0.0
 10
89.00313569659058
 20
70.60824559658677
 30
0.0
 10
88.90946307080851
 20
70.54603465388195
 30
0.0
  0
LINE
  5
172
330
1F
100
AcDbEntity
  8
0
  6
Continuous
 62
     7
370
    15
100
AcDbLine
 10
88.1094625671
 20
70.7769747127
 30
0.0
 11
89.1094627311
 21
71.3543257911
 31
0.0
  0
LINE
  5
173
330
1F
100
AcDbEntity
  8
0
  6
Continuous
 62
     7
370
    15
100
AcDbLine
 10
87.1094624032
 20
71.3543257911
 30
0.0
 11
88.1094625671
 21
70.7769747127
 31
0.0
  0
LINE
  5
174
330
1F
100
AcDbEntity
  8
0
  6
Continuous
 62
     7
370
    15
100
AcDbLine
 10
87.1094624032
 20
72.5090260852
 30
0.0
 11
87.1094624032
 21
71.3543257911
 31
0.0
  0
LINE
  5
175
330
1F
100
AcDbEntity
  8
0
  6
Continuous
 62
     7
370
    15
100
AcDbLine
 10
88.1094625671
 20
73.0863762323
 30
0.0
 11
87.1094624032
 21
72.5090260852
 31
0.0
  0
LINE
  5
176
330
1F
100
AcDbEntity
  8
0
  6
Continuous
 62
     7
370
    15
100
AcDbLine
 10
89.1094627311
 20
72.5090260852
 30
0.0
 11
88.1094625671
 21
73.0863762323
 31
0.0
  0
LINE
  5
177
330
1F
100
AcDbEntity
  8
0
  6
Continuous
 62
     7
370
    15
100
AcDbLine
 10
89.1094627311
 20
71.3543257911
 30
0.0
 11
89.1094627311
 21
72.5090260852
 31
0.0
  0
SPLINE
  5
178
330
1F
100
AcDbEntity
  8
0
  6
Continuous
 62
     7
370
    15
100
AcDbSpline
210
0.0
220
0.0
230
1.0
 70
    11
 71
     3
 72
    26
 73
    22
 74
     0
 42
0.000000001
 43
0.00000001
 40
0.0
 40
0.0
 40
0.0
 40
0.0
 40
0.0331519768113917
 40
0.0868408492295006
 40
0.1405298333923518
 40
0.1942187895681904
 40
0.2479077562945016
 40
0.301596612127305
 40
0.3552855923845658
 40
0.4089745736066999
 40
0.4626635145407419
 40
0.5163523825886744
 40
0.5700413046727684
 40
0.6237302734157779
 40
0.6774192170025954
 40
0.7311082285039165
 40
0.7847971062969475
 40
0.8384860316338467
 40
0.8921749955357753
 40
0.9458639732860912
 40
1.0
 40
1.0
 40
1.0
 40
1.0
 10
46.35946364003288
 20
81.9316757146515
 30
0.0
 10
46.34767893641175
 20
81.74138306958783
 30
0.0
 10
46.31680917331435
 20
81.24291581397067
 30
0.0
 10
46.0031021669271
 20
80.47829521507965
 30
0.0
 10
45.39067285270974
 20
79.76726260223698
 30
0.0
 10
44.57287158358382
 20
79.29985792714598
 30
0.0
 10
43.6476740024806
 20
79.12927790644042
 30
0.0
 10
42.71784185644163
 20
79.27461608064715
 30
0.0
 10
41.88861981075976
 20
79.71952529619101
 30
0.0
 10
41.25338806474624
 20
80.41383781698318
 30
0.0
 10
40.88379049989818
 20
81.27927370311761
 30
0.0
 10
40.82149250617087
 20
82.21826264501017
 30
0.0
 10
41.07351188325989
 20
83.12494206290347
 30
0.0
 10
41.61145264207741
 20
83.89708831490837
 30
0.0
 10
42.37462043373277
 20
84.44765192619892
 30
0.0
 10
43.27712393886046
 20
84.71455670328767
 30
0.0
 10
44.21666546963412
 20
84.6677111678845
 30
0.0
 10
45.08935433110299
 20
84.31240164532508
 30
0.0
 10
45.78920711285316
 20
83.68867464643722
 30
0.0
 10
46.26698995651815
 20
82.86461164275974
 30
0.0
 10
46.32855399612242
 20
82.24351272852482
 30
0.0
 10
46.35946364003288
 20
81.9316757146515
 30
0.0
  0
SPLINE
  5
179
330
1F
100
AcDbEntity
  8
0
  6
Continuous
 62
     7
370
    15
100
AcDbSpline
210
0.0
220
0.0
230
1.0
 70
    11
 71
     3
 72
    26
 73
    22
 74
     0
 42
0.000000001
 43
0.00000001
 40
0.0
 40
0.0
 40
0.0
 40
0.0
 40
0.0536887709630665
 40
0.1073774953935596
 40
0.1610661234634655
 40
0.2147548665557836
 40
0.2684435991164594
 40
0.322132236291089
 40
0.3758211088414104
 40
0.4295097342065209
 40
0.4831985340674432
 40
0.5368871167230996
 40
0.5905759358534456
 40
0.6442646588453851
 40
0.6979532731557481
 40
0.7516420141076618
 40
0.8053308690939931
 40
0.859019594095971
 40
0.9127083047237053
 40
0.9663971938634892
 40
1.0
 40
1.0
 40
1.0
 40
1.0
 10
45.20946279960739
 20
81.9316757146515
 30
0.0
 10
45.19177315531862
 20
81.7517583302571
 30
0.0
 10
45.15639388207289
 20
81.39192371740442
 30
0.0
 10
44.88058094681181
 20
80.91302729673951
 30
0.0
 10
44.47441499146217
 20
80.54897247344344
 30
0.0
 10
43.96725948095658
 20
80.34081035231014
 30
0.0
 10
43.42069613649002
 20
80.31200230682222
 30
0.0
 10
42.89516492163111
 20
80.46580281399494
 30
0.0
 10
42.45023249166811
 20
80.7848685851524
 30
0.0
 10
42.13597692819411
 20
81.23322918959947
 30
0.0
 10
41.9878514338312
 20
81.76033306569924
 30
0.0
 10
42.02254608999839
 20
82.30675503484531
 30
0.0
 10
42.23615502785677
 20
82.81088989434191
 30
0.0
 10
42.60459841601068
 20
83.21589872782737
 30
0.0
 10
43.08631765788107
 20
83.47612276588173
 30
0.0
 10
43.62706925230773
 20
83.56221978501394
 30
0.0
 10
44.16564496446566
 20
83.46449975009432
 30
0.0
 10
44.64223043256737
 20
83.19390521100513
 30
0.0
 10
44.99970945819332
 20
82.7812284372669
 30
0.0
 10
45.18413595996891
 20
82.33544393014591
 30
0.0
 10
45.20242316693199
 20
82.04390368954522
 30
0.0
 10
45.20946279960739
 20
81.9316757146515
 30
0.0
  0
LINE
  5
17A
330
1F
100
AcDbEntity
  8
0
  6
Continuous
 62
     7
370
    15
100
AcDbLine
 10
43.6094636549
 20
80.7769754205
 30
0.0
 11
44.6094638188
 21
81.3543246363
 31
0.0
  0
LINE
  5
17B
330
1F
100
AcDbEntity
  8
0
  6
Continuous
 62
     7
370
    15
100
AcDbLine
 10
42.609463491
 20
82.509026793
 30
0.0
 11
42.609463491
 21
81.3543246363
 31
0.0
  0
LINE
  5
17C
330
1F
100
AcDbEntity
  8
0
  6
Continuous
 62
     7
370
    15
100
AcDbLine
 10
42.609463491
 20
81.3543246363
 30
0.0
 11
43.6094636549
 21
80.7769754205
 31
0.0
  0
LINE
  5
17D
330
1F
100
AcDbEntity
  8
0
  6
Continuous
 62
     7
370
    15
100
AcDbLine
 10
43.6094636549
 20
83.0863760088
 30
0.0
 11
42.609463491
 21
82.509026793
 31
0.0
  0
LINE
  5
17E
330
1F
100
AcDbEntity
  8
0
  6
Continuous
 62
     7
370
    15
100
AcDbLine
 10
44.6094638188
 20
82.509026793
 30
0.0
 11
43.6094636549
 21
83.0863760088
 31
0.0
  0
LINE
  5
17F
330
1F
100
AcDbEntity
  8
0
  6
Continuous
 62
     7
370
    15
100
AcDbLine
 10
44.6094638188
 20
81.3543246363
 30
0.0
 11
44.6094638188
 21
82.509026793
 31
0.0
  0
LINE
  5
180
330
1F
100
AcDbEntity
  8
0
  6
Continuous
 62
     7
370
    15
100
AcDbLine
 10
91.1094630589
 20
89.0425936554
 30
0.0
 11
85.1094639381
 21
89.0425936554
 31
0.0
  0
LINE
  5
181
330
1F
100
AcDbEntity
  8
0
  6
Continuous
 62
     7
370
    15
100
AcDbLine
 10
91.1094630589
 20
88.8685108397
 30
0.0
 11
85.1094639381
 21
88.8685108397
 31
0.0
  0
LINE
  5
182
330
1F
100
AcDbEntity
  8
0
  6
Continuous
 62
     7
370
    15
100
AcDbLine
 10
85.1094639381
 20
88.8685108397
 30
0.0
 11
85.1094639381
 21
89.0425936554
 31
0.0
  0
LINE
  5
183
330
1F
100
AcDbEntity
  8
0
  6
Continuous
 62
     7
370
    15
100
AcDbLine
 10
91.1094630589
 20
88.8685108397
 30
0.0
 11
91.1094630589
 21
89.0425936554
 31
0.0
  0
LINE
  5
184
330
1F
100
AcDbEntity
  8
0
  6
Continuous
 62
     7
370
    15
100
AcDbLine
 10
91.1094630589
 20
65.931675886
 30
0.0
 11
85.1094639381
 21
65.931675886
 31
0.0
  0
LINE
  5
185
330
1F
100
AcDbEntity
  8
0
  6
Continuous
 62
     7
370
    15
100
AcDbLine
 10
85.1094639381
 20
65.931675886
 30
0.0
 11
85.1094639381
 21
88.8685108397
 31
0.0
  0
LINE
  5
186
330
1F
100
AcDbEntity
  8
0
  6
Continuous
 62
     7
370
    15
100
AcDbLine
 10
91.1094630589
 20
65.931675886
 30
0.0
 11
91.1094630589
 21
88.8685108397
 31
0.0
  0
LINE
  5
187
330
1F
100
AcDbEntity
  8
0
  6
Continuous
 62
     7
370
    15
100
AcDbLine
 10
91.1094630589
 20
118.833352742
 30
0.0
 11
85.1094639381
 21
118.833352742
 31
0.0
  0
LINE
  5
188
330
1F
100
AcDbEntity
  8
0
  6
Continuous
 62
     7
370
    15
100
AcDbLine
 10
85.1094639381
 20
89.0425936554
 30
0.0
 11
85.1094639381
 21
118.833352742
 31
0.0
  0
LINE
  5
189
330
1F
100
AcDbEntity
  8
0
  6
Continuous
 62
     7
370
    15
100
AcDbLine
 10
91.1094630589
 20
89.0425936554
 30
0.0
 11
91.1094630589
 21
118.833352742
 31
0.0
  0
LINE
  5
18A
330
1F
100
AcDbEntity
  8
0
  6
Continuous
 62
     7
370
    15
100
AcDbLine
 10
89.1094627311
 20
132.8645878706
 30
0.0
 11
89.1094627311
 21
132.9987653766
 31
0.0
  0
ARC
  5
18B
330
1F
100
AcDbEntity
  8
0
  6
Continuous
 62
     7
370
    15
100
AcDbCircle
 10
89.1657307195
 20
131.0549301201
 30
0.0
 40
1.944649477659922
100
AcDbArc
 50
1.7597519222
 51
91.6580717103
  0
ARC
  5
18C
330
1F
100
AcDbEntity
  8
0
  6
Continuous
 62
     7
370
    15
100
AcDbCircle
 10
89.1657191228
 20
130.9207403041
 30
0.0
 40
1.944661447011801
100
AcDbArc
 50
1.7601039502
 51
91.6577196823
  0
LINE
  5
18D
330
1F
100
AcDbEntity
  8
0
  6
Continuous
 62
     7
370
    15
100
AcDbLine
 10
91.1094630589
 20
131.1146476541
 30
0.0
 11
91.1094630589
 21
130.9804701481
 31
0.0
  0
LINE
  5
18E
330
1F
100
AcDbEntity
  8
0
  6
Continuous
 62
     7
370
    15
100
AcDbLine
 10
89.1094627311
 20
132.8645878706
 30
0.0
 11
87.1094624032
 21
132.8645878706
 31
0.0
  0
LINE
  5
18F
330
1F
100
AcDbEntity
  8
0
  6
Continuous
 62
     7
370
    15
100
AcDbLine
 10
87.1094624032
 20
132.9987653766
 30
0.0
 11
87.1094624032
 21
132.8645878706
 31
0.0
  0
LINE
  5
190
330
1F
100
AcDbEntity
  8
0
  6
Continuous
 62
     7
370
    15
100
AcDbLine
 10
89.1094627311
 20
132.9987653766
 30
0.0
 11
87.1094624032
 21
132.9987653766
 31
0.0
  0
ARC
  5
191
330
1F
100
AcDbEntity
  8
0
  6
Continuous
 62
     7
370
    15
100
AcDbCircle
 10
87.0531926399
 20
131.0549339257
 30
0.0
 40
1.944645724986506
100
AcDbArc
 50
88.3418727733
 51
178.2403568601
  0
ARC
  5
192
330
1F
100
AcDbEntity
  8
0
  6
Continuous
 62
     7
370
    15
100
AcDbCircle
 10
87.0532042366
 20
130.9207441098
 30
0.0
 40
1.944657694290418
100
AcDbArc
 50
88.3422248016
 51
178.2400048319
  0
LINE
  5
193
330
1F
100
AcDbEntity
  8
0
  6
Continuous
 62
     7
370
    15
100
AcDbLine
 10
85.1094639381
 20
130.9804701481
 30
0.0
 11
85.1094639381
 21
131.1146476541
 31
0.0
  0
LINE
  5
194
330
1F
100
AcDbEntity
  8
0
  6
Continuous
 62
     7
370
    15
100
AcDbLine
 10
91.1094630589
 20
119.0085941229
 30
0.0
 11
85.1094639381
 21
119.0085941229
 31
0.0
  0
LINE
  5
195
330
1F
100
AcDbEntity
  8
0
  6
Continuous
 62
     7
370
    15
100
AcDbLine
 10
85.1094639381
 20
119.0085941229
 30
0.0
 11
85.1094639381
 21
130.9804701481
 31
0.0
  0
LINE
  5
196
330
1F
100
AcDbEntity
  8
0
  6
Continuous
 62
     7
370
    15
100
AcDbLine
 10
91.1094630589
 20
119.0085941229
 30
0.0
 11
91.1094630589
 21
130.9804701481
 31
0.0
  0
LINE
  5
197
330
1F
100
AcDbEntity
  8
0
  6
Continuous
 62
     7
370
    15
100
AcDbLine
 10
85.1094639381
 20
118.833352742
 30
0.0
 11
85.1094639381
 21
119.0085941229
 31
0.0
  0
LINE
  5
198
330
1F
100
AcDbEntity
  8
0
  6
Continuous
 62
     7
370
    15
100
AcDbLine
 10
91.1094630589
 20
118.833352742
 30
0.0
 11
91.1094630589
 21
119.0085941229
 31
0.0
  0
LINE
  5
199
330
1F
100
AcDbEntity
  8
0
  6
Continuous
 62
     7
370
    15
100
AcDbLine
 10
46.609462284
 20
88.8685108397
 30
0.0
 11
40.6094631632
 21
88.8685108397
 31
0.0
  0
LINE
  5
19A
330
1F
100
AcDbEntity
  8
0
  6
Continuous
 62
     7
370
    15
100
AcDbLine
 10
40.6094631632
 20
65.931675886
 30
0.0
 11
40.6094631632
 21
88.8685108397
 31
0.0
  0
LINE
  5
19B
330
1F
100
AcDbEntity
  8
0
  6
Continuous
 62
     7
370
    15
100
AcDbLine
 10
46.609462284
 20
65.931675886
 30
0.0
 11
46.609462284
 21
88.8685108397
 31
0.0
  0
LINE
  5
19C
330
1F
100
AcDbEntity
  8
0
  6
Continuous
 62
     7
370
    15
100
AcDbLine
 10
46.609462284
 20
65.931675886
 30
0.0
 11
40.6094631632
 21
65.931675886
 31
0.0
  0
LINE
  5
19D
330
1F
100
AcDbEntity
  8
0
  6
Continuous
 62
     7
370
    15
100
AcDbLine
 10
46.609462284
 20
89.0425936554
 30
0.0
 11
40.6094631632
 21
89.0425936554
 31
0.0
  0
LINE
  5
19E
330
1F
100
AcDbEntity
  8
0
  6
Continuous
 62
     7
370
    15
100
AcDbLine
 10
40.6094631632
 20
88.8685108397
 30
0.0
 11
40.6094631632
 21
89.0425936554
 31
0.0
  0
LINE
  5
19F
330
1F
100
AcDbEntity
  8
0
  6
Continuous
 62
     7
370
    15
100
AcDbLine
 10
46.609462284
 20
88.8685108397
 30
0.0
 11
46.609462284
 21
89.0425936554
 31
0.0
  0
LINE
  5
1A0
330
1F
100
AcDbEntity
  8
0
  6
Continuous
 62
     7
370
    15
100
AcDbLine
 10
46.609462284
 20
118.833352742
 30
0.0
 11
40.6094631632
 21
118.833352742
 31
0.0
  0
LINE
  5
1A1
330
1F
100
AcDbEntity
  8
0
  6
Continuous
 62
     7
370
    15
100
AcDbLine
 10
40.6094631632
 20
89.0425936554
 30
0.0
 11
40.6094631632
 21
118.833352742
 31
0.0
  0
LINE
  5
1A2
330
1F
100
AcDbEntity
  8
0
  6
Continuous
 62
     7
370
    15
100
AcDbLine
 10
46.609462284
 20
89.0425936554
 30
0.0
 11
46.609462284
 21
118.833352742
 31
0.0
  0
ARC
  5
1A3
330
1F
100
AcDbEntity
  8
0
  6
Continuous
 62
     7
370
    15
100
AcDbCircle
 10
42.5531955026
 20
131.0549301201
 30
0.0
 40
1.944649477659906
100
AcDbArc
 50
88.3419282897
 51
178.2402480778
  0
LINE
  5
1A4
330
1F
100
AcDbEntity
  8
0
  6
Continuous
 62
     7
370
    15
100
AcDbLine
 10
42.609463491
 20
132.9987653766
 30
0.0
 11
42.609463491
 21
132.8645878706
 31
0.0
  0
ARC
  5
1A5
330
1F
100
AcDbEntity
  8
0
  6
Continuous
 62
     7
370
    15
100
AcDbCircle
 10
42.5532070993
 20
130.9207403041
 30
0.0
 40
1.944661447011802
100
AcDbArc
 50
88.3422803177
 51
178.2398960498
  0
LINE
  5
1A6
330
1F
100
AcDbEntity
  8
0
  6
Continuous
 62
     7
370
    15
100
AcDbLine
 10
40.6094631632
 20
130.9804701481
 30
0.0
 11
40.6094631632
 21
131.1146476541
 31
0.0
  0
LINE
  5
1A7
330
1F
100
AcDbEntity
  8
0
  6
Continuous
 62
     7
370
    15
100
AcDbLine
 10
44.6094638188
 20
132.8645878706
 30
0.0
 11
44.6094638188
 21
132.9987653766
 31
0.0
  0
LINE
  5
1A8
330
1F
100
AcDbEntity
  8
0
  6
Continuous
 62
     7
370
    15
100
AcDbLine
 10
44.6094638188
 20
132.8645878706
 30
0.0
 11
42.609463491
 21
132.8645878706
 31
0.0
  0
LINE
  5
1A9
330
1F
100
AcDbEntity
  8
0
  6
Continuous
 62
     7
370
    15
100
AcDbLine
 10
44.6094638188
 20
132.9987653766
 30
0.0
 11
42.609463491
 21
132.9987653766
 31
0.0
  0
ARC
  5
1AA
330
1F
100
AcDbEntity
  8
0
  6
Continuous
 62
     7
370
    15
100
AcDbCircle
 10
44.6657219855
 20
130.9207441098
 30
0.0
 40
1.944657694290418
100
AcDbArc
 50
1.7599951681
 51
91.6577751984
  0
LINE
  5
1AB
330
1F
100
AcDbEntity
  8
0
  6
Continuous
 62
     7
370
    15
100
AcDbLine
 10
46.609462284
 20
119.0085941229
 30
0.0
 11
40.6094631632
 21
119.0085941229
 31
0.0
  0
LINE
  5
1AC
330
1F
100
AcDbEntity
  8
0
  6
Continuous
 62
     7
370
    15
100
AcDbLine
 10
40.6094631632
 20
119.0085941229
 30
0.0
 11
40.6094631632
 21
130.9804701481
 31
0.0
  0
LINE
  5
1AD
330
1F
100
AcDbEntity
  8
0
  6
Continuous
 62
     7
370
    15
100
AcDbLine
 10
46.609462284
 20
119.0085941229
 30
0.0
 11
46.609462284
 21
130.9804701481
 31
0.0
  0
ARC
  5
1AE
330
1F
100
AcDbEntity
  8
0
  6
Continuous
 62
     7
370
    15
100
AcDbCircle
 10
44.6657335822
 20
131.0549339257
 30
0.0
 40
1.944645724986492
100
AcDbArc
 50
1.7596431399
 51
91.6581272267
  0
LINE
  5
1AF
330
1F
100
AcDbEntity
  8
0
  6
Continuous
 62
     7
370
    15
100
AcDbLine
 10
46.609462284
 20
131.1146476541
 30
0.0
 11
46.609462284
 21
130.9804701481
 31
0.0
  0
LINE
  5
1B0
330
1F
100
AcDbEntity
  8
0
  6
Continuous
 62
     7
370
    15
100
AcDbLine
 10
40.6094631632
 20
118.833352742
 30
0.0
 11
40.6094631632
 21
119.0085941229
 31
0.0
  0
LINE
  5
1B1
330
1F
100
AcDbEntity
  8
0
  6
Continuous
 62
     7
370
    15
100
AcDbLine
 10
46.609462284
 20
118.833352742
 30
0.0
 11
46.609462284
 21
119.0085941229
 31
0.0
  0
LINE
  5
1B2
330
1F
100
AcDbEntity
  8
0
  6
Continuous
 62
     7
370
    15
100
AcDbLine
 10
39.1094638486
 20
126.9316756401
 30
0.0
 11
39.1094638486
 21
61.931675696
 31
0.0
  0
ARC
  5
1B3
330
1F
100
AcDbEntity
  8
0
  6
Continuous
 62
     7
370
    15
100
AcDbCircle
 10
41.6094631088
 20
85.431675701
 30
0.0
 40
1.500000000000014
100
AcDbArc
 50
180.0
 51
228.1896851042
  0
ARC
  5
1B4
330
1F
100
AcDbEntity
  8
0
  6
Continuous
 62
     7
370
    15
100
AcDbCircle
 10
66.1094631088
 20
102.331675701
 30
0.0
 40
25.4
100
AcDbArc
 50
221.7095144213
 51
318.2904855787
  0
LINE
  5
1B5
330
1F
100
AcDbEntity
  8
0
  6
Continuous
 62
     7
370
    15
100
AcDbLine
 10
39.1094638486
 20
61.931675696
 30
0.0
 11
91.1094630589
 21
61.931675696
 31
0.0
  0
LINE
  5
1B6
330
1F
100
AcDbEntity
  8
0
  6
Continuous
 62
     7
370
    15
100
AcDbLine
 10
47.1476586987
 20
85.431675357
 30
0.0
 11
46.609462284
 21
85.431675357
 31
0.0
  0
LINE
  5
1B7
330
1F
100
AcDbEntity
  8
0
  6
Continuous
 62
     7
370
    15
100
AcDbLine
 10
91.1094630589
 20
65.931675886
 30
0.0
 11
91.1094630589
 21
61.931675696
 31
0.0
  0
LINE
  5
1B8
330
1F
100
AcDbEntity
  8
0
  6
Continuous
 62
     7
370
    15
100
AcDbLine
 10
40.1094640126
 20
126.9316756401
 30
0.0
 11
40.1094640126
 21
85.431675357
 31
0.0
  0
LINE
  5
1B9
330
1F
100
AcDbEntity
  8
0
  6
Continuous
 62
     7
370
    15
100
AcDbLine
 10
85.071266674
 20
85.431675357
 30
0.0
 11
85.1094639381
 21
85.431675357
 31
0.0
  0
LINE
  5
1BA
330
1F
100
AcDbEntity
  8
0
  6
Continuous
 62
     7
370
    15
100
AcDbLine
 10
39.1094638486
 20
126.9316756401
 30
0.0
 11
40.1094640126
 21
126.9316756401
 31
0.0
  0
LINE
  5
1BB
330
1F
100
AcDbEntity
  8
0
  6
Continuous
 62
     7
370
    15
100
AcDbLine
 10
47.1094632973
 20
126.9316756401
 30
0.0
 11
47.1094632973
 21
89.9316751633
 31
0.0
  0
ARC
  5
1BC
330
1F
100
AcDbEntity
  8
0
  6
Continuous
 62
     7
370
    15
100
AcDbCircle
 10
50.1094631088
 20
89.931675701
 30
0.0
 40
3.0
100
AcDbArc
 50
180.0
 51
270.0
  0
LINE
  5
1BD
330
1F
100
AcDbEntity
  8
0
  6
Continuous
 62
     7
370
    15
100
AcDbLine
 10
50.109463789
 20
86.9316765342
 30
0.0
 11
56.7906648372
 21
86.9316765342
 31
0.0
  0
ARC
  5
1BE
330
1F
100
AcDbEntity
  8
0
  6
Continuous
 62
     7
370
    15
100
AcDbCircle
 10
66.1094631088
 20
102.331675701
 30
0.0
 40
17.99999999999999
100
AcDbArc
 50
238.8211644613
 51
301.1788355387
  0
LINE
  5
1BF
330
1F
100
AcDbEntity
  8
0
  6
Continuous
 62
     7
370
    15
100
AcDbLine
 10
75.4282614668
 20
86.9316765342
 30
0.0
 11
82.1094634463
 21
86.9316765342
 31
0.0
  0
ARC
  5
1C0
330
1F
100
AcDbEntity
  8
0
  6
Continuous
 62
     7
370
    15
100
AcDbCircle
 10
82.1094631088
 20
89.931675701
 30
0.0
 40
3.0
100
AcDbArc
 50
270.0
 51
0.0
  0
LINE
  5
1C1
330
1F
100
AcDbEntity
  8
0
  6
Continuous
 62
     7
370
    15
100
AcDbLine
 10
40.1094640126
 20
126.9316756401
 30
0.0
 11
40.6094631632
 21
126.9316756401
 31
0.0
  0
LINE
  5
1C2
330
1F
100
AcDbEntity
  8
0
  6
Continuous
 62
     7
370
    15
100
AcDbLine
 10
46.609462284
 20
126.9316756401
 30
0.0
 11
47.1094632973
 21
126.9316756401
 31
0.0
  0
DIMENSION
  5
1C3
330
1F
100
AcDbEntity
  8
DIM
100
AcDbDimension
  2
_D_4
 10
106.0645264943
 20
61.931675701
 30
0.0
 11
106.0645264943
 21
97.398130544
 31
0.0
 70
   160
  1
71
 71
     2
 42
-1.0
  3
SLDDIMSTYLE0
100
AcDbAlignedDimension
 13
89.1094631088
 23
132.864585387
 33
0.0
 14
91.1094631088
 24
61.931675701
 34
0.0
 50
90.0
100
AcDbRotatedDimension
  0
DIMENSION
  5
1CD
330
1F
100
AcDbEntity
  8
DIM
 62
     7
100
AcDbDimension
  2
_D_5
 10
91.1094631088
 20
145.126413471
 30
0.0
 11
65.1094631088
 21
145.126413471
 31
0.0
 70
   160
  1
<>
 71
     2
 42
-1.0
  3
SLDDIMSTYLE0
100
AcDbAlignedDimension
 13
39.1094631088
 23
126.931675701
 33
0.0
 14
91.1094631088
 24
130.9804704815
 34
0.0
100
AcDbRotatedDimension
  0
DIMENSION
  5
1D7
330
1F
100
AcDbEntity
  8
DIM
 62
     7
100
AcDbDimension
  2
_D_6
 10
85.1094631088
 20
139.0348743457
 30
0.0
 11
66.1094631088
 21
139.0348743457
 31
0.0
 70
   160
  1
<>
 71
     2
 42
-1.0
  3
SLDDIMSTYLE0
100
AcDbAlignedDimension
 13
47.1094631088
 23
126.931675701
 33
0.0
 14
85.1094631088
 24
130.9804704815
 34
0.0
100
AcDbRotatedDimension
  0
DIMENSION
  5
1E1
330
1F
100
AcDbEntity
  8
DIM
 62
     7
100
AcDbDimension
  2
_D_7
 10
98.2076107658
 20
126.931675701
 30
0.0
 11
98.2076107658
 21
106.931675701
 31
0.0
 70
   160
  1
<>
 71
     2
 42
-1.0
  3
SLDDIMSTYLE0
100
AcDbAlignedDimension
 13
82.1094631088
 23
86.931675701
 33
0.0
 14
47.1094631088
 24
126.931675701
 34
0.0
 50
90.0
100
AcDbRotatedDimension
  0
DIMENSION
  5
1EB
330
1F
100
AcDbEntity
  8
DIM
 62
     7
100
AcDbDimension
  2
_D_8
 10
66.1094631088
 20
102.331675701
 30
0.0
 11
63.7716198812
 21
93.6406303976
 31
0.0
 70
   164
  1
<>
 71
     1
 42
-1.0
  3
SLDDIMSTYLE2
100
AcDbRadialDimension
 15
61.4337566535
 25
84.9495650943
 35
0.0
 40
0.0
  0
DIMENSION
  5
1F3
330
1F
100
AcDbEntity
  8
DIM
 62
     7
100
AcDbDimension
  2
_D_9
 10
66.1094631088
 20
102.331675701
 30
0.0
 11
70.3287557415
 21
90.3530524707
 31
0.0
 70
   164
  1
<>
 71
     1
 42
-1.0
  3
SLDDIMSTYLE2
100
AcDbRadialDimension
 15
74.5480283742
 25
78.3744092404
 35
0.0
 40
0.0
  0
INSERT
  5
205
330
1F
100
AcDbEntity
  8
DIM
 62
     7
100
AcDbBlockReference
  2
SW_CENTERMARKSYMBOL_0
 10
66.1094631088
 20
102.331675701
 30
0.0
  0
SPLINE
  5
206
330
1F
100
AcDbEntity
  8
0
  6
Continuous
 62
     7
370
    15
100
AcDbSpline
210
0.0
220
0.0
230
1.0
 70
     8
 71
     3
 72
     9
 73
     5
 74
     0
 42
0.000000001
 43
0.00000001
 40
0.0
 40
0.0
 40
0.0
 40
0.0
 40
0.21351384990194
 40
1.0
 40
1.0
 40
1.0
 40
1.0
 10
211.2486238364211
 20
131.5997906893925
 30
0.0
 10
211.2174793796224
 20
131.5679365979487
 30
0.0
 10
211.0716131661987
 20
131.4187467844618
 30
0.0
 10
210.9615685102552
 20
131.2403288398874
 30
0.0
 10
210.8750199124634
 20
131.1000055975507
 30
0.0
  0
LINE
  5
207
330
1F
100
AcDbEntity
  8
0
  6
Continuous
 62
     7
370
    15
100
AcDbLine
 10
210.8847813859
 20
128.2733759664
 30
0.0
 11
210.9507141835
 21
128.1604247703
 31
0.0
  0
SPLINE
  5
208
330
1F
100
AcDbEntity
  8
0
  6
Continuous
 62
     7
370
    15
100
AcDbSpline
210
0.0
220
0.0
230
1.0
 70
     8
 71
     3
 72
    13
 73
     9
 74
     0
 42
0.000000001
 43
0.00000001
 40
0.0
 40
0.0
 40
0.0
 40
0.0
 40
0.0711731061480319
 40
0.2605380401290331
 40
0.4525733860513343
 40
0.6473451200971502
 40
0.8456915640047599
 40
1.0
 40
1.0
 40
1.0
 40
1.0
 10
211.2533722846178
 20
127.7711340650527
 30
0.0
 10
211.2985769969227
 20
127.7171857067924
 30
0.0
 10
211.4640544895591
 20
127.5197010066011
 30
0.0
 10
211.8334038050597
 20
127.2574081768772
 30
0.0
 10
212.3439997247305
 20
127.0018202860832
 30
0.0
 10
212.908061781217
 20
126.8603973211247
 30
0.0
 10
213.453379346913
 20
126.8267159739982
 30
0.0
 10
213.7962788152205
 20
126.8924592313506
 30
0.0
 10
213.9463186521077
 20
126.9212259939771
 30
0.0
  0
SPLINE
  5
209
330
1F
100
AcDbEntity
  8
0
  6
Continuous
 62
     7
370
    15
100
AcDbSpline
210
0.0
220
0.0
230
1.0
 70
     8
 71
     3
 72
    13
 73
     9
 74
     0
 42
0.000000001
 43
0.00000001
 40
0.0
 40
0.0
 40
0.0
 40
0.0
 40
0.249306864382816
 40
0.3541880044463028
 40
0.5312509316071682
 40
0.7217796228323381
 40
0.9302323388947727
 40
1.0
 40
1.0
 40
1.0
 40
1.0
 10
210.8750199124634
 20
131.1000055975507
 30
0.0
 10
210.7865916394501
 20
130.9245110376705
 30
0.0
 10
210.6609623928075
 20
130.6751875057693
 30
0.0
 10
210.5511076244345
 20
130.2718903249305
 30
0.0
 10
210.4917807181746
 20
129.9041083645146
 30
0.0
 10
210.4951297495008
 20
129.4513256789851
 30
0.0
 10
210.5416979221356
 20
129.081847467327
 30
0.0
 10
210.6190361541486
 20
128.8772850296884
 30
0.0
 10
210.6384298003527
 20
128.8259881298376
 30
0.0
  0
LINE
  5
20A
330
1F
100
AcDbEntity
  8
0
  6
Continuous
 62
     7
370
    15
100
AcDbLine
 10
210.8232134971
 20
128.3788495232
 30
0.0
 11
210.8847813859
 21
128.2733759664
 31
0.0
  0
SPLINE
  5
20B
330
1F
100
AcDbEntity
  8
0
  6
Continuous
 62
     7
370
    15
100
AcDbSpline
210
0.0
220
0.0
230
1.0
 70
     8
 71
     3
 72
    13
 73
     9
 74
     0
 42
0.000000001
 43
0.00000001
 40
0.0
 40
0.0
 40
0.0
 40
0.0
 40
0.2434835238734444
 40
0.3455246247910136
 40
0.5160388071102032
 40
0.6969033555640232
 40
0.8942357613485505
 40
1.0
 40
1.0
 40
1.0
 40
1.0
 10
211.7002363669488
 20
119.1971659000428
 30
0.0
 10
211.8632225629527
 20
119.0956363988128
 30
0.0
 10
212.0945143699894
 20
118.9515570695027
 30
0.0
 10
212.4746057213818
 20
118.807999048738
 30
0.0
 10
212.8203252844043
 20
118.7168039836945
 30
0.0
 10
213.2499955518189
 20
118.6732622437562
 30
0.0
 10
213.6336107717788
 20
118.6822219637976
 30
0.0
 10
213.8650377644447
 20
118.7399225046416
 30
0.0
 10
213.9457931938829
 20
118.7600568541442
 30
0.0
  0
SPLINE
  5
20C
330
1F
100
AcDbEntity
  8
0
  6
Continuous
 62
     7
370
    15
100
AcDbSpline
210
0.0
220
0.0
230
1.0
 70
     8
 71
     3
 72
    10
 73
     6
 74
     0
 42
0.000000001
 43
0.00000001
 40
0.0
 40
0.0
 40
0.0
 40
0.0
 40
0.2092234686243133
 40
0.7013877728080382
 40
1.0
 40
1.0
 40
1.0
 40
1.0
 10
211.1230513387093
 20
119.7452982013037
 30
0.0
 10
211.1572755288819
 20
119.7013099220547
 30
0.0
 10
211.2720065802271
 20
119.5538463444029
 30
0.0
 10
211.4677086410124
 20
119.3704633954889
 30
0.0
 10
211.6364982187628
 20
119.2446684565682
 30
0.0
 10
211.7002363669488
 20
119.1971659000428
 30
0.0
  0
SPLINE
  5
20D
330
1F
100
AcDbEntity
  8
0
  6
Continuous
 62
     7
370
    15
100
AcDbSpline
210
0.0
220
0.0
230
1.0
 70
     8
 71
     3
 72
    15
 73
    11
 74
     0
 42
0.000000001
 43
0.00000001
 40
0.0
 40
0.0
 40
0.0
 40
0.0
 40
0.0352107614819505
 40
0.1958636684634997
 40
0.3606204840843213
 40
0.5304227285110047
 40
0.6830206197159384
 40
0.8339113459887945
 40
0.9796650427930076
 40
1.0
 40
1.0
 40
1.0
 40
1.0
 10
211.249721366034
 20
123.4292587624951
 30
0.0
 10
211.2197848724503
 20
123.4008952854098
 30
0.0
 10
211.0532598895342
 20
123.2431203768733
 30
0.0
 10
210.82791046351
 20
122.8783838725003
 30
0.0
 10
210.5961043121602
 20
122.3458510986811
 30
0.0
 10
210.4890804314766
 20
121.7807626698512
 30
0.0
 10
210.4923793792387
 20
121.2232868522434
 30
0.0
 10
210.6011033089564
 20
120.7076895327598
 30
0.0
 10
210.7267336288094
 20
120.3538716722348
 30
0.0
 10
210.8289463010104
 20
120.1885015804199
 30
0.0
 10
210.8414606435921
 20
120.1682545999118
 30
0.0
  0
SPLINE
  5
20E
330
1F
100
AcDbEntity
  8
0
  6
Continuous
 62
     7
370
    15
100
AcDbSpline
210
0.0
220
0.0
230
1.0
 70
     8
 71
     3
 72
    13
 73
     9
 74
     0
 42
0.000000001
 43
0.00000001
 40
0.0
 40
0.0
 40
0.0
 40
0.0
 40
0.243483523873445
 40
0.3455246247910148
 40
0.5160388071101982
 40
0.6969033555640227
 40
0.8942357613485498
 40
1.0
 40
1.0
 40
1.0
 40
1.0
 10
243.1664881297502
 20
109.197493530845
 30
0.0
 10
243.3294743257541
 20
109.095964029615
 30
0.0
 10
243.5607661327908
 20
108.9518847003049
 30
0.0
 10
243.9408574841831
 20
108.8083266795402
 30
0.0
 10
244.2865770472056
 20
108.7171316144967
 30
0.0
 10
244.7162473146202
 20
108.6735898745584
 30
0.0
 10
245.0998625345801
 20
108.6825495945998
 30
0.0
 10
245.331289527246
 20
108.7402501354438
 30
0.0
 10
245.4120449566842
 20
108.7603844849464
 30
0.0
  0
SPLINE
  5
20F
330
1F
100
AcDbEntity
  8
0
  6
Continuous
 62
     7
370
    15
100
AcDbSpline
210
0.0
220
0.0
230
1.0
 70
     8
 71
     3
 72
    10
 73
     6
 74
     0
 42
0.000000001
 43
0.00000001
 40
0.0
 40
0.0
 40
0.0
 40
0.0
 40
0.2092234686243038
 40
0.7013877728080231
 40
1.0
 40
1.0
 40
1.0
 40
1.0
 10
242.5893031015106
 20
109.7456258321059
 30
0.0
 10
242.6235272916832
 20
109.701637552857
 30
0.0
 10
242.7382583430284
 20
109.5541739752051
 30
0.0
 10
242.9339604038137
 20
109.3707910262911
 30
0.0
 10
243.1027499815641
 20
109.2449960873704
 30
0.0
 10
243.1664881297502
 20
109.197493530845
 30
0.0
  0
SPLINE
  5
210
330
1F
100
AcDbEntity
  8
0
  6
Continuous
 62
     7
370
    15
100
AcDbSpline
210
0.0
220
0.0
230
1.0
 70
     8
 71
     3
 72
    15
 73
    11
 74
     0
 42
0.000000001
 43
0.00000001
 40
0.0
 40
0.0
 40
0.0
 40
0.0
 40
0.0352107614819497
 40
0.1958636684634983
 40
0.3606204840843203
 40
0.5304227285110034
 40
0.6830206197159363
 40
0.8339113459887925
 40
0.9796650427930064
 40
1.0
 40
1.0
 40
1.0
 40
1.0
 10
242.7159731288354
 20
113.4295863932973
 30
0.0
 10
242.6860366352516
 20
113.401222916212
 30
0.0
 10
242.5195116523355
 20
113.2434480076755
 30
0.0
 10
242.2941622263113
 20
112.8787115033025
 30
0.0
 10
242.0623560749615
 20
112.3461787294833
 30
0.0
 10
241.9553321942779
 20
111.7810903006534
 30
0.0
 10
241.95863114204
 20
111.2236144830457
 30
0.0
 10
242.0673550717577
 20
110.708017163562
 30
0.0
 10
242.1929853916107
 20
110.354199303037
 30
0.0
 10
242.2951980638117
 20
110.1888292112221
 30
0.0
 10
242.3077124063933
 20
110.168582230714
 30
0.0
  0
LINE
  5
211
330
1F
100
AcDbEntity
  8
0
  6
Continuous
 62
     7
370
    15
100
AcDbLine
 10
242.3528708791
 20
101.9353612733
 30
0.0
 11
242.4657845029
 21
101.7619596046
 31
0.0
  0
SPLINE
  5
212
330
1F
100
AcDbEntity
  8
0
  6
Continuous
 62
     7
370
    15
100
AcDbSpline
210
0.0
220
0.0
230
1.0
 70
     8
 71
     3
 72
    13
 73
     9
 74
     0
 42
0.000000001
 43
0.00000001
 40
0.0
 40
0.0
 40
0.0
 40
0.0
 40
0.1602638829716467
 40
0.3473097328721902
 40
0.5357096179445606
 40
0.7277298970858133
 40
0.9001800962276386
 40
0.9999999999999999
 40
0.9999999999999999
 40
0.9999999999999999
 40
0.9999999999999999
 10
242.6448332115152
 20
101.5164249015422
 30
0.0
 10
242.7556228829484
 20
101.3949436535056
 30
0.0
 10
242.9957164740746
 20
101.1316802218311
 30
0.0
 10
243.4607483756025
 20
100.8309346673038
 30
0.0
 10
244.0003888702778
 20
100.6086884061338
 30
0.0
 10
244.5607827506589
 20
100.509527030381
 30
0.0
 10
245.0396443788102
 20
100.5113627481532
 30
0.0
 10
245.3126372615203
 20
100.5679805249056
 30
0.0
 10
245.4127221514549
 20
100.5887377838435
 30
0.0
  0
SPLINE
  5
213
330
1F
100
AcDbEntity
  8
0
  6
Continuous
 62
     7
370
    15
100
AcDbSpline
210
0.0
220
0.0
230
1.0
 70
     8
 71
     3
 72
    14
 73
    10
 74
     0
 42
0.000000001
 43
0.00000001
 40
0.0
 40
0.0
 40
0.0
 40
0.0
 40
0.0328397648844574
 40
0.2131570307974099
 40
0.4003692320628296
 40
0.5902434007351446
 40
0.781314899719987
 40
0.9730212835746768
 40
1.0
 40
1.0
 40
1.0
 40
1.0
 10
242.7147643680045
 20
105.2664205955458
 30
0.0
 10
242.6912554050116
 20
105.2440246010163
 30
0.0
 10
242.5386629377294
 20
105.0986562126476
 30
0.0
 10
242.3219848186875
 20
104.7607501647934
 30
0.0
 10
242.0903723332912
 20
104.260276486432
 30
0.0
 10
241.9634997520743
 20
103.70731074744
 30
0.0
 10
241.9567556539664
 20
103.1412528684487
 30
0.0
 10
242.0058870362726
 20
102.7318436103058
 30
0.0
 10
242.0874700376522
 20
102.5316063730966
 30
0.0
 10
242.097534759284
 20
102.5069035303627
 30
0.0
  0
LINE
  5
214
330
1F
100
AcDbEntity
  8
0
  6
Continuous
 62
     7
370
    15
100
AcDbLine
 10
242.2971029631
 20
102.0210041691
 30
0.0
 11
242.3528708791
 21
101.9353612733
 31
0.0
  0
LINE
  5
215
330
1F
100
AcDbEntity
  8
0
  6
Continuous
 62
     7
370
    15
100
AcDbLine
 10
244.8658933728
 20
154.7674869216
 30
0.0
 11
244.5994392875
 21
154.5041022935
 31
0.0
  0
LINE
  5
216
330
1F
100
AcDbEntity
  8
0
  6
Continuous
 62
     7
370
    15
100
AcDbLine
 10
213.39964161
 20
172.9325674096
 30
0.0
 11
213.1331875247
 21
172.6691827815
 31
0.0
  0
SPLINE
  5
217
330
1F
100
AcDbEntity
  8
0
  6
Continuous
 62
     7
370
    15
100
AcDbSpline
210
0.0
220
0.0
230
1.0
 70
     8
 71
     3
 72
    14
 73
    10
 74
     0
 42
0.000000001
 43
0.00000001
 40
0.0
 40
0.0
 40
0.0
 40
0.0
 40
0.1071239420446883
 40
0.2154116027868072
 40
0.3877267661390759
 40
0.565039080902016
 40
0.7373542442542854
 40
0.9146665590172326
 40
1.0
 40
1.0
 40
1.0
 40
1.0
 10
214.7866673184076
 20
128.2777958297376
 30
0.0
 10
214.7846612418461
 20
128.2016396017435
 30
0.0
 10
214.7806272961271
 20
128.0484998383881
 30
0.0
 10
214.7417368782361
 20
127.7941434696604
 30
0.0
 10
214.659792442441
 20
127.5235726615585
 30
0.0
 10
214.5146406253388
 20
127.2676745659094
 30
0.0
 10
214.3190498000966
 20
127.073775739731
 30
0.0
 10
214.127810502282
 20
126.9569930962796
 30
0.0
 10
213.9905130530381
 20
126.9320236089535
 30
0.0
 10
213.945905198063
 20
126.9239110382133
 30
0.0
  0
SPLINE
  5
218
330
1F
100
AcDbEntity
  8
0
  6
Continuous
 62
     7
370
    15
100
AcDbSpline
210
0.0
220
0.0
230
1.0
 70
     8
 71
     3
 72
    22
 73
    18
 74
     0
 42
0.000000001
 43
0.00000001
 40
0.0
 40
0.0
 40
0.0
 40
0.0
 40
0.0671192925722348
 40
0.1327226238169615
 40
0.2002284561120699
 40
0.2658317873567971
 40
0.3333376196519056
 40
0.3989409508966322
 40
0.4664467831917404
 40
0.532050114436468
 40
0.5995559467315773
 40
0.6651592779763024
 40
0.7326651102714116
 40
0.7982684415161373
 40
0.8657742738112472
 40
0.9319116344032812
 40
1.0
 40
1.0
 40
1.0
 40
1.0
 10
211.2451318488778
 20
131.603099079949
 30
0.0
 10
211.3124347438544
 20
131.6653101327393
 30
0.0
 10
211.4455204256225
 20
131.7883271348607
 30
0.0
 10
211.6983231971163
 20
131.8888666283674
 30
0.0
 10
211.9783635786748
 20
131.9229029793436
 30
0.0
 10
212.2864840068662
 20
131.8840763793651
 30
0.0
 10
212.6072899687889
 20
131.7757395208391
 30
0.0
 10
212.9377778432471
 20
131.5985915032813
 30
0.0
 10
213.2625635682997
 20
131.3609467406114
 30
0.0
 10
213.5783232833154
 20
131.065223509008
 30
0.0
 10
213.8704235120787
 20
130.7251268040809
 30
0.0
 10
214.1358814254086
 20
130.3441445105109
 30
0.0
 10
214.3623074761358
 20
129.9399746423503
 30
0.0
 10
214.5477330749157
 20
129.5165703962091
 30
0.0
 10
214.6825741743934
 20
129.093192841675
 30
0.0
 10
214.7700963946091
 20
128.6711965849953
 30
0.0
 10
214.7810904102055
 20
128.4101939944607
 30
0.0
 10
214.7866673184076
 20
128.2777958297376
 30
0.0
  0
SPLINE
  5
219
330
1F
100
AcDbEntity
  8
0
  6
Continuous
 62
     7
370
    15
100
AcDbSpline
210
0.0
220
0.0
230
1.0
 70
    11
 71
     3
 72
    26
 73
    22
 74
     0
 42
0.000000001
 43
0.00000001
 40
0.0
 40
0.0
 40
0.0
 40
0.0
 40
0.0536887269337758
 40
0.1073774538675545
 40
0.1610661808014814
 40
0.214754907735354
 40
0.2684436346692003
 40
0.3221323616030388
 40
0.3758210885368772
 40
0.4295098154707219
 40
0.4831985424045625
 40
0.5368872693383607
 40
0.5905759962721919
 40
0.6442647232061183
 40
0.697953450140007
 40
0.7516421770738588
 40
0.8053309040076976
 40
0.8590196309415364
 40
0.9127083578753787
 40
0.966397084809216
 40
1.0
 40
1.0
 40
1.0
 40
1.0
 10
212.8067683310852
 20
128.0736938017819
 30
0.0
 10
212.7942594446428
 20
127.9340054316617
 30
0.0
 10
212.7692416717579
 20
127.6546286914212
 30
0.0
 10
212.5742145253531
 20
127.3761755046669
 30
0.0
 10
212.2870105033138
 20
127.2447105126975
 30
0.0
 10
211.9283978932629
 20
127.2817587381547
 30
0.0
 10
211.5419189153333
 20
127.481347119771
 30
0.0
 10
211.1703124549553
 20
127.8214548590339
 30
0.0
 10
210.8556977032985
 20
128.2636084332623
 30
0.0
 10
210.6334852478972
 20
128.7579929237661
 30
0.0
 10
210.5287438322614
 20
129.2488610136439
 30
0.0
 10
210.5532781963272
 20
129.6808733701482
 30
0.0
 10
210.7043225423829
 20
130.0053238100017
 30
0.0
 10
210.9648507634256
 20
130.1856309554105
 30
0.0
 10
211.3054780241983
 20
130.2014748183363
 30
0.0
 10
211.6878472062946
 20
130.0510380759704
 30
0.0
 10
212.0686772543146
 20
129.7513972448052
 30
0.0
 10
212.4056737706157
 20
129.3359019431309
 30
0.0
 10
212.6584495794933
 20
128.8530106490777
 30
0.0
 10
212.7888586330372
 20
128.4137260922659
 30
0.0
 10
212.8017902900719
 20
128.1682065447291
 30
0.0
 10
212.8067683310852
 20
128.0736938017819
 30
0.0
  0
LINE
  5
21A
330
1F
100
AcDbEntity
  8
0
  6
Continuous
 62
     7
370
    15
100
AcDbLine
 10
211.6753974812
 20
127.7839601761
 30
0.0
 11
212.3825042624
 21
127.8471861778
 31
0.0
  0
LINE
  5
21B
330
1F
100
AcDbEntity
  8
0
  6
Continuous
 62
     7
370
    15
100
AcDbLine
 10
212.3825042624
 20
127.8471861778
 30
0.0
 11
212.3825042624
 21
128.7900462929
 31
0.0
  0
LINE
  5
21C
330
1F
100
AcDbEntity
  8
0
  6
Continuous
 62
     7
370
    15
100
AcDbLine
 10
212.3825042624
 20
128.7900462929
 30
0.0
 11
211.6753974812
 21
129.6696804063
 31
0.0
  0
LINE
  5
21D
330
1F
100
AcDbEntity
  8
0
  6
Continuous
 62
     7
370
    15
100
AcDbLine
 10
211.6753974812
 20
129.6696804063
 30
0.0
 11
210.9682907
 21
129.6064544047
 31
0.0
  0
LINE
  5
21E
330
1F
100
AcDbEntity
  8
0
  6
Continuous
 62
     7
370
    15
100
AcDbLine
 10
210.9682907
 20
129.6064544047
 30
0.0
 11
210.9682907
 21
128.6635942896
 31
0.0
  0
LINE
  5
21F
330
1F
100
AcDbEntity
  8
0
  6
Continuous
 62
     7
370
    15
100
AcDbLine
 10
210.9682907
 20
128.6635942896
 30
0.0
 11
211.6753974812
 21
127.7839601761
 31
0.0
  0
LINE
  5
220
330
1F
100
AcDbEntity
  8
0
  6
Continuous
 62
     7
370
    15
100
AcDbLine
 10
211.7501583199
 20
129.1149568589
 30
0.0
 11
212.3825042624
 21
128.3283245181
 31
0.0
  0
LINE
  5
221
330
1F
100
AcDbEntity
  8
0
  6
Continuous
 62
     7
370
    15
100
AcDbLine
 10
211.7501583198
 20
129.5766786338
 30
0.0
 11
211.7501583198
 21
129.114956859
 31
0.0
  0
LINE
  5
222
330
1F
100
AcDbEntity
  8
0
  6
Continuous
 62
     7
370
    15
100
AcDbLine
 10
211.6753974812
 20
127.7839601761
 30
0.0
 11
212.3825042624
 21
128.1921642321
 31
0.0
  0
LINE
  5
223
330
1F
100
AcDbEntity
  8
0
  6
Continuous
 62
     7
370
    15
100
AcDbLine
 10
210.9682907
 20
128.6635942896
 30
0.0
 11
211.7501583198
 21
129.114956859
 31
0.0
  0
SPLINE
  5
224
330
1F
100
AcDbEntity
  8
0
  6
Continuous
 62
     7
370
    15
100
AcDbSpline
210
0.0
220
0.0
230
1.0
 70
     8
 71
     3
 72
    29
 73
    25
 74
     0
 42
0.000000001
 43
0.00000001
 40
0.0
 40
0.0
 40
0.0
 40
0.0
 40
0.0200102759081056
 40
0.0688925357254474
 40
0.1163971582707831
 40
0.1652794180881237
 40
0.2127840406334597
 40
0.2616663004508015
 40
0.309170922996137
 40
0.3580531828134774
 40
0.4055578053588136
 40
0.4544400651761528
 40
0.5019446877214898
 40
0.550826947538831
 40
0.5983315700841638
 40
0.6472138299015081
 40
0.6947184524468436
 40
0.7436007122641848
 40
0.7911053348095205
 40
0.8399875946268618
 40
0.8874922171721973
 40
0.9363744769895386
 40
0.9838790995348745
 40
1.0
 40
1.0
 40
1.0
 40
1.0
 10
211.2494924458971
 20
123.4294929546254
 30
0.0
 10
211.2740630049256
 20
123.4593942688684
 30
0.0
 10
211.358655947244
 20
123.5623402436857
 30
0.0
 10
211.5481140469168
 20
123.6693279480968
 30
0.0
 10
211.8111669440266
 20
123.7472902021068
 30
0.0
 10
212.1036520602977
 20
123.7499043188994
 30
0.0
 10
212.4191267054134
 20
123.6818255292003
 30
0.0
 10
212.7439000852734
 20
123.5449541027821
 30
0.0
 10
213.0743787716757
 20
123.3410368381123
 30
0.0
 10
213.3953263720838
 20
123.0794258686017
 30
0.0
 10
213.7034173110984
 20
122.7628416647529
 30
0.0
 10
213.9843907353633
 20
122.4059366235195
 30
0.0
 10
214.2353494866445
 20
122.0123909460622
 30
0.0
 10
214.4446736577139
 20
121.600426730509
 30
0.0
 10
214.6102059890731
 20
121.1742894636909
 30
0.0
 10
214.7242808220738
 20
120.7537129461539
 30
0.0
 10
214.7857262278761
 20
120.3430231599736
 30
0.0
 10
214.79168289013
 20
119.9612690428546
 30
0.0
 10
214.7421425351265
 20
119.6122628497486
 30
0.0
 10
214.6392011631692
 20
119.3126204918169
 30
0.0
 10
214.4846597618706
 20
119.0637255670435
 30
0.0
 10
214.2829175798396
 20
118.8834527838193
 30
0.0
 10
214.0997109281248
 20
118.7800284936003
 30
0.0
 10
213.9772764084473
 20
118.7624357417111
 30
0.0
 10
213.9462549784955
 20
118.7579782380444
 30
0.0
  0
SPLINE
  5
225
330
1F
100
AcDbEntity
  8
0
  6
Continuous
 62
     7
370
    15
100
AcDbSpline
210
0.0
220
0.0
230
1.0
 70
    11
 71
     3
 72
    26
 73
    22
 74
     0
 42
0.000000001
 43
0.00000001
 40
0.0
 40
0.0
 40
0.0
 40
0.0
 40
0.0536887269337758
 40
0.1073774538675545
 40
0.1610661808014816
 40
0.2147549077353542
 40
0.2684436346692006
 40
0.322132361603039
 40
0.3758210885368774
 40
0.4295098154707221
 40
0.4831985424045628
 40
0.5368872693383607
 40
0.590575996272192
 40
0.6442647232061184
 40
0.697953450140007
 40
0.7516421770738589
 40
0.8053309040076978
 40
0.8590196309415367
 40
0.912708357875379
 40
0.966397084809216
 40
1.0
 40
1.0
 40
1.0
 40
1.0
 10
211.1097120562375
 20
119.7565432789999
 30
0.0
 10
211.0057902704695
 20
119.9025004112904
 30
0.0
 10
210.7979466989335
 20
120.1944146758714
 30
0.0
 10
210.6021961873091
 20
120.6979767331588
 30
0.0
 10
210.5228620165808
 20
121.1796271277951
 30
0.0
 10
210.574694406284
 20
121.5933241766767
 30
0.0
 10
210.7502939633414
 20
121.8902132159297
 30
0.0
 10
211.030280013459
 20
122.0374153525731
 30
0.0
 10
211.3829745628859
 20
122.0181757458945
 30
0.0
 10
211.7686438949499
 20
121.834706087318
 30
0.0
 10
212.143798735285
 20
121.5076798186667
 30
0.0
 10
212.4661452342347
 20
121.0739695809622
 30
0.0
 10
212.6993412010475
 20
120.5824726440307
 30
0.0
 10
212.8170938196041
 20
120.0885997269523
 30
0.0
 10
212.8061344029669
 20
119.648038852912
 30
0.0
 10
212.667672171816
 20
119.3104313579124
 30
0.0
 10
212.4174161464534
 20
119.1139465700467
 30
0.0
 10
212.0832133494407
 20
119.0803386430509
 30
0.0
 10
211.7041139405418
 20
119.2148820341486
 30
0.0
 10
211.3659234423749
 20
119.4616996413953
 30
0.0
 10
211.1809265895504
 20
119.6745908241584
 30
0.0
 10
211.1097120562375
 20
119.7565432789999
 30
0.0
  0
LINE
  5
226
330
1F
100
AcDbEntity
  8
0
  6
Continuous
 62
     7
370
    15
100
AcDbLine
 10
210.9682907
 20
121.4410462858
 30
0.0
 11
210.9682907
 21
120.4981861707
 31
0.0
  0
LINE
  5
227
330
1F
100
AcDbEntity
  8
0
  6
Continuous
 62
     7
370
    15
100
AcDbLine
 10
210.9682907
 20
120.4981861707
 30
0.0
 11
211.6753974812
 21
119.6185520573
 31
0.0
  0
LINE
  5
228
330
1F
100
AcDbEntity
  8
0
  6
Continuous
 62
     7
370
    15
100
AcDbLine
 10
211.6753974812
 20
119.6185520573
 30
0.0
 11
212.3825042624
 21
119.6817780589
 31
0.0
  0
LINE
  5
229
330
1F
100
AcDbEntity
  8
0
  6
Continuous
 62
     7
370
    15
100
AcDbLine
 10
212.3825042624
 20
119.6817780589
 30
0.0
 11
212.3825042624
 21
120.624638174
 31
0.0
  0
LINE
  5
22A
330
1F
100
AcDbEntity
  8
0
  6
Continuous
 62
     7
370
    15
100
AcDbLine
 10
212.3825042624
 20
120.624638174
 30
0.0
 11
211.6753974812
 21
121.5042722875
 31
0.0
  0
LINE
  5
22B
330
1F
100
AcDbEntity
  8
0
  6
Continuous
 62
     7
370
    15
100
AcDbLine
 10
211.6753974812
 20
121.5042722875
 30
0.0
 11
210.9682907
 21
121.4410462858
 31
0.0
  0
LINE
  5
22C
330
1F
100
AcDbEntity
  8
0
  6
Continuous
 62
     7
370
    15
100
AcDbLine
 10
211.7501583198
 20
121.411270515
 30
0.0
 11
211.7501583198
 21
120.9495487402
 31
0.0
  0
LINE
  5
22D
330
1F
100
AcDbEntity
  8
0
  6
Continuous
 62
     7
370
    15
100
AcDbLine
 10
211.7501583199
 20
120.9495487401
 30
0.0
 11
212.3825042624
 21
120.1629163992
 31
0.0
  0
LINE
  5
22E
330
1F
100
AcDbEntity
  8
0
  6
Continuous
 62
     7
370
    15
100
AcDbLine
 10
211.6753974812
 20
119.6185520573
 30
0.0
 11
212.3825042624
 21
120.0267561132
 31
0.0
  0
LINE
  5
22F
330
1F
100
AcDbEntity
  8
0
  6
Continuous
 62
     7
370
    15
100
AcDbLine
 10
211.7501583198
 20
120.9495487401
 30
0.0
 11
210.9682907
 21
120.4981861707
 31
0.0
  0
SPLINE
  5
230
330
1F
100
AcDbEntity
  8
0
  6
Continuous
 62
     7
370
    15
100
AcDbSpline
210
0.0
220
0.0
230
1.0
 70
     8
 71
     3
 72
    29
 73
    25
 74
     0
 42
0.000000001
 43
0.00000001
 40
0.0
 40
0.0
 40
0.0
 40
0.0
 40
0.0200102759081054
 40
0.0688925357254472
 40
0.1163971582707826
 40
0.1652794180881236
 40
0.2127840406334596
 40
0.2616663004508014
 40
0.309170922996137
 40
0.3580531828134773
 40
0.4055578053588132
 40
0.4544400651761527
 40
0.5019446877214891
 40
0.550826947538831
 40
0.5983315700841638
 40
0.647213829901508
 40
0.6947184524468436
 40
0.7436007122641848
 40
0.7911053348095204
 40
0.8399875946268617
 40
0.8874922171721972
 40
0.9363744769895382
 40
0.9838790995348745
 40
1.0
 40
1.0
 40
1.0
 40
1.0
 10
242.7157442086984
 20
113.4298205854276
 30
0.0
 10
242.7403147677269
 20
113.4597218996706
 30
0.0
 10
242.8249077100453
 20
113.5626678744879
 30
0.0
 10
243.0143658097181
 20
113.669655578899
 30
0.0
 10
243.2774187068279
 20
113.747617832909
 30
0.0
 10
243.5699038230991
 20
113.7502319497016
 30
0.0
 10
243.8853784682147
 20
113.6821531600025
 30
0.0
 10
244.2101518480747
 20
113.5452817335843
 30
0.0
 10
244.5406305344771
 20
113.3413644689145
 30
0.0
 10
244.8615781348851
 20
113.0797534994039
 30
0.0
 10
245.1696690738997
 20
112.7631692955551
 30
0.0
 10
245.4506424981646
 20
112.4062642543217
 30
0.0
 10
245.7016012494458
 20
112.0127185768644
 30
0.0
 10
245.9109254205152
 20
111.6007543613112
 30
0.0
 10
246.0764577518744
 20
111.1746170944931
 30
0.0
 10
246.1905325848751
 20
110.7540405769561
 30
0.0
 10
246.2519779906774
 20
110.3433507907758
 30
0.0
 10
246.2579346529314
 20
109.9615966736568
 30
0.0
 10
246.2083942979278
 20
109.6125904805508
 30
0.0
 10
246.1054529259706
 20
109.3129481226191
 30
0.0
 10
245.950911524672
 20
109.0640531978457
 30
0.0
 10
245.7491693426409
 20
108.8837804146215
 30
0.0
 10
245.5659626909261
 20
108.7803561244025
 30
0.0
 10
245.4435281712486
 20
108.7627633725133
 30
0.0
 10
245.4125067412968
 20
108.7583058688466
 30
0.0
  0
SPLINE
  5
231
330
1F
100
AcDbEntity
  8
0
  6
Continuous
 62
     7
370
    15
100
AcDbSpline
210
0.0
220
0.0
230
1.0
 70
    11
 71
     3
 72
    26
 73
    22
 74
     0
 42
0.000000001
 43
0.00000001
 40
0.0
 40
0.0
 40
0.0
 40
0.0
 40
0.0536887269337758
 40
0.1073774538675545
 40
0.1610661808014815
 40
0.214754907735354
 40
0.2684436346692005
 40
0.322132361603039
 40
0.3758210885368774
 40
0.4295098154707218
 40
0.4831985424045628
 40
0.536887269338361
 40
0.5905759962721923
 40
0.6442647232061183
 40
0.6979534501400072
 40
0.7516421770738592
 40
0.8053309040076979
 40
0.8590196309415365
 40
0.9127083578753785
 40
0.966397084809216
 40
1.0
 40
1.0
 40
1.0
 40
1.0
 10
242.5759638190388
 20
109.7568709098021
 30
0.0
 10
242.4720420332708
 20
109.9028280420926
 30
0.0
 10
242.2641984617348
 20
110.1947423066736
 30
0.0
 10
242.0684479501103
 20
110.698304363961
 30
0.0
 10
241.9891137793821
 20
111.1799547585973
 30
0.0
 10
242.0409461690853
 20
111.5936518074789
 30
0.0
 10
242.2165457261427
 20
111.8905408467319
 30
0.0
 10
242.4965317762603
 20
112.0377429833753
 30
0.0
 10
242.8492263256872
 20
112.0185033766967
 30
0.0
 10
243.2348956577512
 20
111.8350337181202
 30
0.0
 10
243.6100504980863
 20
111.5080074494689
 30
0.0
 10
243.9323969970361
 20
111.0742972117644
 30
0.0
 10
244.1655929638488
 20
110.5828002748329
 30
0.0
 10
244.2833455824054
 20
110.0889273577545
 30
0.0
 10
244.2723861657682
 20
109.6483664837142
 30
0.0
 10
244.1339239346173
 20
109.3107589887146
 30
0.0
 10
243.8836679092547
 20
109.1142742008489
 30
0.0
 10
243.549465112242
 20
109.0806662738531
 30
0.0
 10
243.1703657033431
 20
109.2152096649507
 30
0.0
 10
242.8321752051762
 20
109.4620272721975
 30
0.0
 10
242.6471783523517
 20
109.6749184549606
 30
0.0
 10
242.5759638190388
 20
109.7568709098021
 30
0.0
  0
LINE
  5
232
330
1F
100
AcDbEntity
  8
0
  6
Continuous
 62
     7
370
    15
100
AcDbLine
 10
242.4345424628
 20
111.4413739166
 30
0.0
 11
242.4345424628
 21
110.4985138015
 31
0.0
  0
LINE
  5
233
330
1F
100
AcDbEntity
  8
0
  6
Continuous
 62
     7
370
    15
100
AcDbLine
 10
242.4345424628
 20
110.4985138015
 30
0.0
 11
243.141649244
 21
109.6188796881
 31
0.0
  0
LINE
  5
234
330
1F
100
AcDbEntity
  8
0
  6
Continuous
 62
     7
370
    15
100
AcDbLine
 10
243.141649244
 20
109.6188796881
 30
0.0
 11
243.8487560252
 21
109.6821056897
 31
0.0
  0
LINE
  5
235
330
1F
100
AcDbEntity
  8
0
  6
Continuous
 62
     7
370
    15
100
AcDbLine
 10
243.8487560252
 20
109.6821056897
 30
0.0
 11
243.8487560252
 21
110.6249658048
 31
0.0
  0
LINE
  5
236
330
1F
100
AcDbEntity
  8
0
  6
Continuous
 62
     7
370
    15
100
AcDbLine
 10
243.8487560252
 20
110.6249658048
 30
0.0
 11
243.141649244
 21
111.5045999183
 31
0.0
  0
LINE
  5
237
330
1F
100
AcDbEntity
  8
0
  6
Continuous
 62
     7
370
    15
100
AcDbLine
 10
243.141649244
 20
111.5045999183
 30
0.0
 11
242.4345424628
 21
111.4413739166
 31
0.0
  0
LINE
  5
238
330
1F
100
AcDbEntity
  8
0
  6
Continuous
 62
     7
370
    15
100
AcDbLine
 10
243.2164100826
 20
111.4115981458
 30
0.0
 11
243.2164100826
 21
110.949876371
 31
0.0
  0
LINE
  5
239
330
1F
100
AcDbEntity
  8
0
  6
Continuous
 62
     7
370
    15
100
AcDbLine
 10
243.2164100827
 20
110.9498763709
 30
0.0
 11
243.8487560252
 21
110.16324403
 31
0.0
  0
LINE
  5
23A
330
1F
100
AcDbEntity
  8
0
  6
Continuous
 62
     7
370
    15
100
AcDbLine
 10
243.141649244
 20
109.6188796881
 30
0.0
 11
243.8487560252
 21
110.027083744
 31
0.0
  0
LINE
  5
23B
330
1F
100
AcDbEntity
  8
0
  6
Continuous
 62
     7
370
    15
100
AcDbLine
 10
243.2164100826
 20
110.9498763709
 30
0.0
 11
242.4345424628
 21
110.4985138015
 31
0.0
  0
SPLINE
  5
23C
330
1F
100
AcDbEntity
  8
0
  6
Continuous
 62
     7
370
    15
100
AcDbSpline
210
0.0
220
0.0
230
1.0
 70
     8
 71
     3
 72
    29
 73
    25
 74
     0
 42
0.000000001
 43
0.00000001
 40
0.0
 40
0.0
 40
0.0
 40
0.0
 40
0.0099493064488771
 40
0.0588325087468327
 40
0.1063380472110745
 40
0.1552212495090296
 40
0.2027267879732716
 40
0.2516099902712288
 40
0.2991155287354671
 40
0.3479987310334268
 40
0.395504269497668
 40
0.4443874717956248
 40
0.4918930102598661
 40
0.540776212557823
 40
0.5882817510220637
 40
0.6371649533200205
 40
0.6846704917842621
 40
0.7335536940822197
 40
0.7810592325464593
 40
0.8299424348444167
 40
0.8774479733086569
 40
0.9263311756066147
 40
0.9742234223556058
 40
1.0
 40
1.0
 40
1.0
 40
1.0
 10
242.7142015203333
 20
105.2669969789673
 30
0.0
 10
242.7259052787587
 20
105.2825127873353
 30
0.0
 10
242.7951122605188
 20
105.3742612862093
 30
0.0
 10
242.9646088406657
 20
105.4789403309273
 30
0.0
 10
243.2196124238054
 20
105.5727888649915
 30
0.0
 10
243.5069536574866
 20
105.5899200302368
 30
0.0
 10
243.8187044068182
 20
105.5367535327307
 30
0.0
 10
244.1417576827579
 20
105.4139873359427
 30
0.0
 10
244.4724273486868
 20
105.2233602617424
 30
0.0
 10
244.7954976995378
 20
104.9735723254485
 30
0.0
 10
245.1076133533667
 20
104.6672320052354
 30
0.0
 10
245.3943292211443
 20
104.3185147334929
 30
0.0
 10
245.6526883847643
 20
103.9310170432296
 30
0.0
 10
245.8707284461055
 20
103.5226807551324
 30
0.0
 10
246.0462022012267
 20
103.0977141923115
 30
0.0
 10
246.1709839497828
 20
102.6757962735592
 30
0.0
 10
246.2437904110365
 20
102.2612692817069
 30
0.0
 10
246.2612399270528
 20
101.8733506210765
 30
0.0
 10
246.2231918960965
 20
101.5159505151926
 30
0.0
 10
246.1312618700361
 20
101.2059452798231
 30
0.0
 10
245.9869440664412
 20
100.9453049834552
 30
0.0
 10
245.7943681632901
 20
100.7501383446739
 30
0.0
 10
245.6000425275077
 20
100.6290855396701
 30
0.0
 10
245.4605613850387
 20
100.603125925793
 30
0.0
 10
245.4117572059523
 20
100.5940427076443
 30
0.0
  0
SPLINE
  5
23D
330
1F
100
AcDbEntity
  8
0
  6
Continuous
 62
     7
370
    15
100
AcDbSpline
210
0.0
220
0.0
230
1.0
 70
    11
 71
     3
 72
    26
 73
    22
 74
     0
 42
0.000000001
 43
0.00000001
 40
0.0
 40
0.0
 40
0.0
 40
0.0
 40
0.0536887269337758
 40
0.1073774538675545
 40
0.1610661808014815
 40
0.2147549077353542
 40
0.2684436346692004
 40
0.3221323616030389
 40
0.3758210885368772
 40
0.429509815470722
 40
0.4831985424045627
 40
0.5368872693383607
 40
0.5905759962721921
 40
0.6442647232061183
 40
0.6979534501400071
 40
0.7516421770738588
 40
0.8053309040076977
 40
0.8590196309415365
 40
0.9127083578753785
 40
0.9663970848092159
 40
0.9999999999999999
 40
0.9999999999999999
 40
0.9999999999999999
 40
0.9999999999999999
 10
243.7073346689373
 20
100.9383363014865
 30
0.0
 10
243.5909039967263
 20
100.9446050636564
 30
0.0
 10
243.3580426523042
 20
100.9571425879961
 30
0.0
 10
242.9672649942754
 20
101.1822514585295
 30
0.0
 10
242.6007268015088
 20
101.532436861197
 30
0.0
 10
242.2939465811612
 20
101.983182135536
 30
0.0
 10
242.0830671602892
 20
102.4796595564053
 30
0.0
 10
241.9914467500287
 20
102.9669694323116
 30
0.0
 10
242.029526547799
 20
103.3898833998614
 30
0.0
 10
242.1929834244609
 20
103.7007982317883
 30
0.0
 10
242.4633968491616
 20
103.8646400530156
 30
0.0
 10
242.8102777121746
 20
103.8629421718139
 30
0.0
 10
243.1945180250435
 20
103.6958956747362
 30
0.0
 10
243.5727988646436
 20
103.382329903067
 30
0.0
 10
243.9024667087796
 20
102.9576128919528
 30
0.0
 10
244.146373659725
 20
102.4695686545873
 30
0.0
 10
244.2769476823825
 20
101.9734430355565
 30
0.0
 10
244.279741401671
 20
101.5243398068864
 30
0.0
 10
244.1534178016492
 20
101.1759919039306
 30
0.0
 10
243.9456363570266
 20
100.9835249543657
 30
0.0
 10
243.7735711612369
 20
100.9508965895921
 30
0.0
 10
243.7073346689373
 20
100.9383363014865
 30
0.0
  0
LINE
  5
23E
330
1F
100
AcDbEntity
  8
0
  6
Continuous
 62
     7
370
    15
100
AcDbLine
 10
242.4345424628
 20
102.3331056827
 30
0.0
 11
243.141649244
 21
101.4534715692
 31
0.0
  0
LINE
  5
23F
330
1F
100
AcDbEntity
  8
0
  6
Continuous
 62
     7
370
    15
100
AcDbLine
 10
243.141649244
 20
101.4534715692
 30
0.0
 11
243.8487560252
 21
101.5166975709
 31
0.0
  0
LINE
  5
240
330
1F
100
AcDbEntity
  8
0
  6
Continuous
 62
     7
370
    15
100
AcDbLine
 10
243.8487560252
 20
101.5166975709
 30
0.0
 11
243.8487560252
 21
102.459557686
 31
0.0
  0
LINE
  5
241
330
1F
100
AcDbEntity
  8
0
  6
Continuous
 62
     7
370
    15
100
AcDbLine
 10
243.8487560252
 20
102.459557686
 30
0.0
 11
243.141649244
 21
103.3391917994
 31
0.0
  0
LINE
  5
242
330
1F
100
AcDbEntity
  8
0
  6
Continuous
 62
     7
370
    15
100
AcDbLine
 10
243.141649244
 20
103.3391917994
 30
0.0
 11
242.4345424628
 21
103.2759657978
 31
0.0
  0
LINE
  5
243
330
1F
100
AcDbEntity
  8
0
  6
Continuous
 62
     7
370
    15
100
AcDbLine
 10
242.4345424628
 20
103.2759657978
 30
0.0
 11
242.4345424628
 21
102.3331056827
 31
0.0
  0
LINE
  5
244
330
1F
100
AcDbEntity
  8
0
  6
Continuous
 62
     7
370
    15
100
AcDbLine
 10
243.2164100827
 20
102.784468252
 30
0.0
 11
243.8487560252
 21
101.9978359111
 31
0.0
  0
LINE
  5
245
330
1F
100
AcDbEntity
  8
0
  6
Continuous
 62
     7
370
    15
100
AcDbLine
 10
243.2164100826
 20
103.2461900269
 30
0.0
 11
243.2164100826
 21
102.7844682521
 31
0.0
  0
LINE
  5
246
330
1F
100
AcDbEntity
  8
0
  6
Continuous
 62
     7
370
    15
100
AcDbLine
 10
243.8487560252
 20
101.8616756251
 30
0.0
 11
243.141649244
 21
101.4534715692
 31
0.0
  0
LINE
  5
247
330
1F
100
AcDbEntity
  8
0
  6
Continuous
 62
     7
370
    15
100
AcDbLine
 10
242.4345424628
 20
102.3331056827
 30
0.0
 11
243.2164100826
 21
102.7844682521
 31
0.0
  0
ARC
  5
248
330
1F
100
AcDbEntity
  8
0
  6
Continuous
 62
     7
370
    15
100
AcDbCircle
 10
251.5340219491
 20
143.4901521755
 30
0.0
 40
0.6099877740475527
100
AcDbArc
 50
346.7777194679
 51
17.8306480122
  0
LINE
  5
249
330
1F
100
AcDbEntity
  8
0
  6
Continuous
 62
     7
370
    15
100
AcDbLine
 10
246.7192030069
 20
115.9029220637
 30
0.0
 11
252.127838966
 21
143.3506300092
 31
0.0
  0
ARC
  5
24A
330
1F
100
AcDbEntity
  8
0
  6
Continuous
 62
     7
370
    15
100
AcDbCircle
 10
247.0489296453
 20
115.8362668352
 30
0.0
 40
0.3363964559392858
100
AcDbArc
 50
168.5715036061
 51
179.6783871905
  0
LINE
  5
24B
330
1F
100
AcDbEntity
  8
0
  6
Continuous
 62
     7
370
    15
100
AcDbLine
 10
246.712538489
 20
97.1092929599
 30
0.0
 11
246.712538489
 21
115.8381550866
 31
0.0
  0
LINE
  5
24C
330
1F
100
AcDbEntity
  8
0
  6
Continuous
 62
     7
370
    15
100
AcDbLine
 10
246.712538489
 20
97.1092929599
 30
0.0
 11
246.4296957765
 21
96.9460113375
 31
0.0
  0
LINE
  5
24D
330
1F
100
AcDbEntity
  8
0
  6
Continuous
 62
     7
370
    15
100
AcDbLine
 10
246.4296957765
 20
96.9460113375
 30
0.0
 11
246.4296957765
 21
115.6748734643
 31
0.0
  0
ARC
  5
24E
330
1F
100
AcDbEntity
  8
0
  6
Continuous
 62
     7
370
    15
100
AcDbCircle
 10
247.2146084747
 20
115.6704675441
 30
0.0
 40
0.7849250638564748
100
AcDbArc
 50
168.5715036061
 51
179.6783871905
  0
LINE
  5
24F
330
1F
100
AcDbEntity
  8
0
  6
Continuous
 62
     7
370
    15
100
AcDbLine
 10
246.4452463184
 20
115.8259964107
 30
0.0
 11
251.8538822774
 21
143.2737043562
 31
0.0
  0
ARC
  5
250
330
1F
100
AcDbEntity
  8
0
  6
Continuous
 62
     7
370
    15
100
AcDbCircle
 10
251.5993892702
 20
143.3334995703
 30
0.0
 40
0.2614233317345396
100
AcDbArc
 50
346.7777194679
 51
17.8306480123
  0
LINE
  5
251
330
1F
100
AcDbEntity
  8
0
  6
Continuous
 62
     7
370
    15
100
AcDbLine
 10
251.848255325
 20
143.4135485875
 30
0.0
 11
248.8338635714
 21
151.4489035655
 31
0.0
  0
LINE
  5
252
330
1F
100
AcDbEntity
  8
0
  6
Continuous
 62
     7
370
    15
100
AcDbLine
 10
249.1003176566
 20
151.7122881936
 30
0.0
 11
248.8338635714
 21
151.4489035655
 31
0.0
  0
LINE
  5
253
330
1F
100
AcDbEntity
  8
0
  6
Continuous
 62
     7
370
    15
100
AcDbLine
 10
252.1147094102
 20
143.6769332156
 30
0.0
 11
249.1003176566
 21
151.7122881936
 31
0.0
  0
LINE
  5
254
330
1F
100
AcDbEntity
  8
0
  6
Continuous
 62
     7
370
    15
100
AcDbLine
 10
246.9452498495
 20
153.5299030094
 30
0.0
 11
247.2117039348
 21
153.7932876375
 31
0.0
  0
ARC
  5
255
330
1F
100
AcDbEntity
  8
0
  6
Continuous
 62
     7
370
    15
100
AcDbCircle
 10
244.7903982548
 20
149.6983219252
 30
0.0
 40
4.75725397485215
100
AcDbArc
 50
25.0460397233
 51
59.4046680212
  0
ARC
  5
256
330
1F
100
AcDbEntity
  8
0
  6
Continuous
 62
     7
370
    15
100
AcDbCircle
 10
244.5239441695
 20
149.4349372971
 30
0.0
 40
4.757253974852644
100
AcDbArc
 50
25.0460397233
 51
59.4046680212
  0
LINE
  5
257
330
1F
100
AcDbEntity
  8
0
  6
Continuous
 62
     7
370
    15
100
AcDbLine
 10
251.848255325
 20
143.4135485875
 30
0.0
 11
247.6056146379
 21
145.862772923
 31
0.0
  0
LINE
  5
258
330
1F
100
AcDbEntity
  8
0
  6
Continuous
 62
     7
370
    15
100
AcDbLine
 10
247.6056146379
 20
145.862772923
 30
0.0
 11
244.5912228843
 21
153.898127901
 31
0.0
  0
LWPOLYLINE
  5
259
330
1F
100
AcDbEntity
  8
0
  6
Continuous
 62
     7
370
    15
100
AcDbPolyline
 90
        9
 70
   128
 43
0.0
 10
245.5310362872
 20
154.3463111212
 10
245.2642523739
 20
154.4812856748
 10
245.0259517489
 20
154.5624756963
 10
244.8252921716
 20
154.5867610987
 10
244.6699848769
 20
154.5532086076
 10
244.5659982371
 20
154.4631076264
 10
244.5173284004
 20
154.3199206854
 10
244.5258457214
 20
154.1291503783
 10
244.5912228843
 20
153.898127901
  0
LINE
  5
25A
330
1F
100
AcDbEntity
  8
0
  6
Continuous
 62
     7
370
    15
100
AcDbLine
 10
246.9452498495
 20
153.5299030094
 30
0.0
 11
245.5310362872
 21
154.3463111212
 31
0.0
  0
LINE
  5
25B
330
1F
100
AcDbEntity
  8
0
  6
Continuous
 62
     7
370
    15
100
AcDbLine
 10
245.7974903724
 20
154.6096957493
 30
0.0
 11
245.5310362872
 21
154.3463111212
 31
0.0
  0
LINE
  5
25C
330
1F
100
AcDbEntity
  8
0
  6
Continuous
 62
     7
370
    15
100
AcDbLine
 10
247.2117039348
 20
153.7932876375
 30
0.0
 11
245.7974903724
 21
154.6096957493
 31
0.0
  0
LWPOLYLINE
  5
25D
330
1F
100
AcDbEntity
  8
0
  6
Continuous
 62
     7
370
    15
100
AcDbPolyline
 90
        6
 70
   128
 43
0.0
 10
244.8658933728
 20
154.7674869216
 10
244.9364389621
 20
154.8165932357
 10
245.0917462568
 20
154.8501457268
 10
245.2924058342
 20
154.8258603244
 10
245.5307064592
 20
154.7446703029
 10
245.7974903724
 20
154.6096957493
  0
LINE
  5
25E
330
1F
100
AcDbEntity
  8
0
  6
Continuous
 62
     7
370
    15
100
AcDbLine
 10
251.8538822774
 20
143.2737043562
 30
0.0
 11
247.6112415903
 21
145.7229286917
 31
0.0
  0
LINE
  5
25F
330
1F
100
AcDbEntity
  8
0
  6
Continuous
 62
     7
370
    15
100
AcDbLine
 10
246.4452463184
 20
115.8259964107
 30
0.0
 11
242.2026056313
 21
118.2752207461
 31
0.0
  0
LINE
  5
260
330
1F
100
AcDbEntity
  8
0
  6
Continuous
 62
     7
370
    15
100
AcDbLine
 10
242.2026056313
 20
118.2752207461
 30
0.0
 11
247.6112415903
 21
145.7229286917
 31
0.0
  0
ARC
  5
261
330
1F
100
AcDbEntity
  8
0
  6
Continuous
 62
     7
370
    15
100
AcDbCircle
 10
247.3567485831
 20
145.7827239058
 30
0.0
 40
0.2614233317351177
100
AcDbArc
 50
346.777719468
 51
17.8306480122
  0
LINE
  5
262
330
1F
100
AcDbEntity
  8
0
  6
Continuous
 62
     7
370
    15
100
AcDbLine
 10
246.4296957765
 20
115.6748734643
 30
0.0
 11
242.1870550894
 21
118.1240977998
 31
0.0
  0
ARC
  5
263
330
1F
100
AcDbEntity
  8
0
  6
Continuous
 62
     7
370
    15
100
AcDbCircle
 10
242.9719677875
 20
118.1196918796
 30
0.0
 40
0.7849250638529196
100
AcDbArc
 50
168.5715036061
 51
179.6783871906
  0
LINE
  5
264
330
1F
100
AcDbEntity
  8
0
  6
Continuous
 62
     7
370
    15
100
AcDbLine
 10
246.4296957765
 20
96.9460113375
 30
0.0
 11
242.1870550894
 21
99.395235673
 31
0.0
  0
LINE
  5
265
330
1F
100
AcDbEntity
  8
0
  6
Continuous
 62
     7
370
    15
100
AcDbLine
 10
242.1870550894
 20
99.395235673
 30
0.0
 11
242.1870550894
 21
102.2800298041
 31
0.0
  0
LINE
  5
266
330
1F
100
AcDbEntity
  8
0
  6
Continuous
 62
     7
370
    15
100
AcDbLine
 10
242.1870550894
 20
104.4285585671
 30
0.0
 11
242.1870550894
 21
110.4384359415
 31
0.0
  0
LINE
  5
267
330
1F
100
AcDbEntity
  8
0
  6
Continuous
 62
     7
370
    15
100
AcDbLine
 10
242.1870550894
 20
112.5875877728
 30
0.0
 11
242.1870550894
 21
118.1240977998
 31
0.0
  0
LINE
  5
268
330
1F
100
AcDbEntity
  8
0
  6
Continuous
 62
     7
370
    15
100
AcDbLine
 10
215.2529512441
 20
134.0680025517
 30
0.0
 11
220.5495875851
 21
160.9473356184
 31
0.0
  0
ARC
  5
269
330
1F
100
AcDbEntity
  8
0
  6
Continuous
 62
     7
370
    15
100
AcDbCircle
 10
215.5826778825
 20
134.0013473232
 30
0.0
 40
0.3363964559385742
100
AcDbArc
 50
168.5715036061
 51
179.6783871905
  0
LINE
  5
26A
330
1F
100
AcDbEntity
  8
0
  6
Continuous
 62
     7
370
    15
100
AcDbLine
 10
215.2462867262
 20
115.274373448
 30
0.0
 11
215.2462867262
 21
134.0032355747
 31
0.0
  0
LINE
  5
26B
330
1F
100
AcDbEntity
  8
0
  6
Continuous
 62
     7
370
    15
100
AcDbLine
 10
215.2462867262
 20
115.274373448
 30
0.0
 11
214.9634440137
 21
115.1110918256
 31
0.0
  0
LINE
  5
26C
330
1F
100
AcDbEntity
  8
0
  6
Continuous
 62
     7
370
    15
100
AcDbLine
 10
214.9634440137
 20
115.1110918256
 30
0.0
 11
214.9634440137
 21
133.8399539523
 31
0.0
  0
ARC
  5
26D
330
1F
100
AcDbEntity
  8
0
  6
Continuous
 62
     7
370
    15
100
AcDbCircle
 10
215.7483567119
 20
133.8355480322
 30
0.0
 40
0.7849250638537162
100
AcDbArc
 50
168.5715036061
 51
179.6783871906
  0
LINE
  5
26E
330
1F
100
AcDbEntity
  8
0
  6
Continuous
 62
     7
370
    15
100
AcDbLine
 10
214.9789945556
 20
133.9910768987
 30
0.0
 11
220.3876305146
 21
161.4387848443
 31
0.0
  0
ARC
  5
26F
330
1F
100
AcDbEntity
  8
0
  6
Continuous
 62
     7
370
    15
100
AcDbCircle
 10
220.1331375074
 20
161.4985800584
 30
0.0
 40
0.2614233317357476
100
AcDbArc
 50
346.777719468
 51
17.8306480122
  0
LINE
  5
270
330
1F
100
AcDbEntity
  8
0
  6
Continuous
 62
     7
370
    15
100
AcDbLine
 10
220.3820035622
 20
161.5786290756
 30
0.0
 11
217.3676118086
 21
169.6139840536
 31
0.0
  0
LINE
  5
271
330
1F
100
AcDbEntity
  8
0
  6
Continuous
 62
     7
370
    15
100
AcDbLine
 10
217.6340658938
 20
169.8773686817
 30
0.0
 11
217.3676118086
 21
169.6139840536
 31
0.0
  0
LINE
  5
272
330
1F
100
AcDbEntity
  8
0
  6
Continuous
 62
     7
370
    15
100
AcDbLine
 10
220.5495875851
 20
162.1055680498
 30
0.0
 11
217.6340658938
 21
169.8773686817
 31
0.0
  0
LINE
  5
273
330
1F
100
AcDbEntity
  8
0
  6
Continuous
 62
     7
370
    15
100
AcDbLine
 10
215.4789980867
 20
171.6949834974
 30
0.0
 11
215.745452172
 21
171.9583681255
 31
0.0
  0
ARC
  5
274
330
1F
100
AcDbEntity
  8
0
  6
Continuous
 62
     7
370
    15
100
AcDbCircle
 10
213.324146492
 20
167.8634024132
 30
0.0
 40
4.75725397485262
100
AcDbArc
 50
25.0460397233
 51
59.4046680212
  0
ARC
  5
275
330
1F
100
AcDbEntity
  8
0
  6
Continuous
 62
     7
370
    15
100
AcDbCircle
 10
213.0576924067
 20
167.6000177851
 30
0.0
 40
4.757253974852468
100
AcDbArc
 50
25.0460397233
 51
59.4046680212
  0
LINE
  5
276
330
1F
100
AcDbEntity
  8
0
  6
Continuous
 62
     7
370
    15
100
AcDbLine
 10
220.3820035622
 20
161.5786290756
 30
0.0
 11
216.1393628751
 21
164.0278534111
 31
0.0
  0
LINE
  5
277
330
1F
100
AcDbEntity
  8
0
  6
Continuous
 62
     7
370
    15
100
AcDbLine
 10
216.1393628751
 20
164.0278534111
 30
0.0
 11
213.1249711215
 21
172.0632083891
 31
0.0
  0
LWPOLYLINE
  5
278
330
1F
100
AcDbEntity
  8
0
  6
Continuous
 62
     7
370
    15
100
AcDbPolyline
 90
        9
 70
   128
 43
0.0
 10
214.0647845244
 20
172.5113916093
 10
213.7980006111
 20
172.6463661628
 10
213.5596999861
 20
172.7275561843
 10
213.3590404088
 20
172.7518415867
 10
213.2037331141
 20
172.7182890956
 10
213.0997464743
 20
172.6281881145
 10
213.0510766376
 20
172.4850011734
 10
213.0595939586
 20
172.2942308663
 10
213.1249711215
 20
172.0632083891
  0
LINE
  5
279
330
1F
100
AcDbEntity
  8
0
  6
Continuous
 62
     7
370
    15
100
AcDbLine
 10
215.4789980867
 20
171.6949834974
 30
0.0
 11
214.0647845244
 21
172.5113916093
 31
0.0
  0
LINE
  5
27A
330
1F
100
AcDbEntity
  8
0
  6
Continuous
 62
     7
370
    15
100
AcDbLine
 10
214.3312386096
 20
172.7747762374
 30
0.0
 11
214.0647845244
 21
172.5113916093
 31
0.0
  0
LINE
  5
27B
330
1F
100
AcDbEntity
  8
0
  6
Continuous
 62
     7
370
    15
100
AcDbLine
 10
215.745452172
 20
171.9583681255
 30
0.0
 11
214.3312386096
 21
172.7747762374
 31
0.0
  0
LWPOLYLINE
  5
27C
330
1F
100
AcDbEntity
  8
0
  6
Continuous
 62
     7
370
    15
100
AcDbPolyline
 90
        6
 70
   128
 43
0.0
 10
213.39964161
 20
172.9325674096
 10
213.4701871993
 20
172.9816737237
 10
213.625494494
 20
173.0152262148
 10
213.8261540714
 20
172.9909408124
 10
214.0644546964
 20
172.9097507909
 10
214.3312386096
 20
172.7747762374
  0
LINE
  5
27D
330
1F
100
AcDbEntity
  8
0
  6
Continuous
 62
     7
370
    15
100
AcDbLine
 10
220.3876305146
 20
161.4387848443
 30
0.0
 11
216.1449898275
 21
163.8880091797
 31
0.0
  0
LINE
  5
27E
330
1F
100
AcDbEntity
  8
0
  6
Continuous
 62
     7
370
    15
100
AcDbLine
 10
214.9789945556
 20
133.9910768987
 30
0.0
 11
210.7363538685
 21
136.4403012342
 31
0.0
  0
LINE
  5
27F
330
1F
100
AcDbEntity
  8
0
  6
Continuous
 62
     7
370
    15
100
AcDbLine
 10
210.7363538685
 20
136.4403012342
 30
0.0
 11
216.1449898275
 21
163.8880091797
 31
0.0
  0
ARC
  5
280
330
1F
100
AcDbEntity
  8
0
  6
Continuous
 62
     7
370
    15
100
AcDbCircle
 10
215.8904968203
 20
163.9478043939
 30
0.0
 40
0.2614233317346392
100
AcDbArc
 50
346.7777194679
 51
17.8306480123
  0
LINE
  5
281
330
1F
100
AcDbEntity
  8
0
  6
Continuous
 62
     7
370
    15
100
AcDbLine
 10
214.9634440137
 20
133.8399539523
 30
0.0
 11
210.7208033266
 21
136.2891782878
 31
0.0
  0
ARC
  5
282
330
1F
100
AcDbEntity
  8
0
  6
Continuous
 62
     7
370
    15
100
AcDbCircle
 10
211.5057160247
 20
136.2847723677
 30
0.0
 40
0.7849250638570155
100
AcDbArc
 50
168.5715036061
 51
179.6783871905
  0
LINE
  5
283
330
1F
100
AcDbEntity
  8
0
  6
Continuous
 62
     7
370
    15
100
AcDbLine
 10
214.9634440137
 20
115.1110918256
 30
0.0
 11
210.7208033266
 21
117.5603161611
 31
0.0
  0
LINE
  5
284
330
1F
100
AcDbEntity
  8
0
  6
Continuous
 62
     7
370
    15
100
AcDbLine
 10
210.7208033266
 20
117.5603161611
 30
0.0
 11
210.7208033266
 21
120.4381083107
 31
0.0
  0
LINE
  5
285
330
1F
100
AcDbEntity
  8
0
  6
Continuous
 62
     7
370
    15
100
AcDbLine
 10
210.7208033266
 20
122.587260142
 30
0.0
 11
210.7208033266
 21
128.5943529784
 31
0.0
  0
LINE
  5
286
330
1F
100
AcDbEntity
  8
0
  6
Continuous
 62
     7
370
    15
100
AcDbLine
 10
210.7208033266
 20
130.7545111762
 30
0.0
 11
210.7208033266
 21
136.2891782878
 31
0.0
  0
LINE
  5
287
330
1F
100
AcDbEntity
  8
0
  6
Continuous
 62
     7
370
    15
100
AcDbLine
 10
255.5513732538
 20
152.0208331838
 30
0.0
 11
252.0158393479
 21
149.9798129043
 31
0.0
  0
LINE
  5
288
330
1F
100
AcDbEntity
  8
0
  6
Continuous
 62
     7
370
    15
100
AcDbLine
 10
255.5513732538
 20
152.0208331838
 30
0.0
 11
255.5513732538
 21
98.9456804112
 31
0.0
  0
LINE
  5
289
330
1F
100
AcDbEntity
  8
0
  6
Continuous
 62
     7
370
    15
100
AcDbLine
 10
255.5513732538
 20
98.9456804112
 30
0.0
 11
246.712538489
 21
93.8431297124
 31
0.0
  0
LINE
  5
28A
330
1F
100
AcDbEntity
  8
0
  6
Continuous
 62
     7
370
    15
100
AcDbLine
 10
246.712538489
 20
113.0318387917
 30
0.0
 11
246.712538489
 21
93.8431297124
 31
0.0
  0
LINE
  5
28B
330
1F
100
AcDbEntity
  8
0
  6
Continuous
 62
     7
370
    15
100
AcDbLine
 10
246.712538489
 20
113.0318387917
 30
0.0
 11
252.0158393479
 21
116.093369211
 31
0.0
  0
LINE
  5
28C
330
1F
100
AcDbEntity
  8
0
  6
Continuous
 62
     7
370
    15
100
AcDbLine
 10
252.0158393479
 20
149.9798129043
 30
0.0
 11
252.0158393479
 21
116.093369211
 31
0.0
  0
LINE
  5
28D
330
1F
100
AcDbEntity
  8
0
  6
Continuous
 62
     7
370
    15
100
AcDbLine
 10
209.9429858673
 20
115.0697406197
 30
0.0
 11
246.712538489
 21
93.8431297124
 31
0.0
  0
LINE
  5
28E
330
1F
100
AcDbEntity
  8
0
  6
Continuous
 62
     7
370
    15
100
AcDbLine
 10
209.9429858673
 20
168.1448933923
 30
0.0
 11
209.9429858673
 21
115.0697406197
 31
0.0
  0
LINE
  5
28F
330
1F
100
AcDbEntity
  8
0
  6
Continuous
 62
     7
370
    15
100
AcDbLine
 10
209.9429858673
 20
168.1448933923
 30
0.0
 11
210.6500926485
 21
167.7366893364
 31
0.0
  0
LINE
  5
290
330
1F
100
AcDbEntity
  8
0
  6
Continuous
 62
     7
370
    15
100
AcDbLine
 10
210.6500926485
 20
167.7366893364
 30
0.0
 11
210.6500926485
 21
133.8502456431
 31
0.0
  0
LWPOLYLINE
  5
291
330
1F
100
AcDbEntity
  8
0
  6
Continuous
 62
     7
370
    15
100
AcDbPolyline
 90
        3
 70
   128
 43
0.0
 10
210.6500926485
 20
133.8502456431
 10
210.7020050523
 20
133.4417897691
 10
210.7208033266
 20
133.3697045532
  0
LINE
  5
292
330
1F
100
AcDbEntity
  8
0
  6
Continuous
 62
     7
370
    15
100
AcDbLine
 10
215.6268489713
 20
130.977225372
 30
0.0
 11
215.2462867262
 21
131.1969192797
 31
0.0
  0
LWPOLYLINE
  5
293
330
1F
100
AcDbEntity
  8
0
  6
Continuous
 62
     7
370
    15
100
AcDbPolyline
 90
       24
 70
   128
 43
0.0
 10
215.6268489713
 20
130.977225372
 10
216.5378743586
 20
129.3546156208
 10
217.5159952434
 20
127.7732492665
 10
218.5559601625
 20
126.2416165552
 10
219.6521856165
 20
124.7679407168
 10
220.7987860467
 20
123.3601338147
 10
221.9896054351
 20
122.0257542666
 10
223.2182503549
 20
120.7719662637
 10
224.4781242966
 20
119.6055013068
 10
225.7624630845
 20
118.5326220655
 10
227.0643711927
 20
117.5590887541
 10
228.3768587667
 20
116.6901282053
 10
229.6928791519
 20
115.9304058081
 10
231.0053667259
 20
115.2840004593
 10
232.3072748341
 20
114.7543826646
 10
233.591613622
 20
114.344395905
 10
234.8514875638
 20
114.0562413712
 10
236.0801324835
 20
113.8914661447
 10
237.2709518719
 20
113.8509548924
 10
238.4175523022
 20
113.9349251164
 10
239.5137777561
 20
114.1429259863
 10
240.5537426753
 20
114.4738407599
 10
241.5318635601
 20
114.9258927788
 10
242.1870550894
 20
115.3198525345
  0
LINE
  5
294
330
1F
100
AcDbEntity
  8
0
  6
Continuous
 62
     7
370
    15
100
AcDbLine
 10
220.9301498302
 20
134.0387557913
 30
0.0
 11
218.0747138509
 21
135.6871638947
 31
0.0
  0
ARC
  5
295
330
1F
100
AcDbEntity
  8
0
  6
Continuous
 62
     7
370
    15
100
AcDbCircle
 10
218.2367496697
 20
137.0053173496
 30
0.0
 40
2.285271392286206
100
AcDbArc
 50
182.3459002324
 51
237.6487232349
  0
LINE
  5
296
330
1F
100
AcDbEntity
  8
0
  6
Continuous
 62
     7
370
    15
100
AcDbLine
 10
215.9533935074
 20
164.5235852225
 30
0.0
 11
215.9533935074
 21
162.9156975139
 31
0.0
  0
LINE
  5
297
330
1F
100
AcDbEntity
  8
0
  6
Continuous
 62
     7
370
    15
100
AcDbLine
 10
215.9533935074
 20
137.6226020514
 30
0.0
 11
215.9533935074
 21
136.9117760625
 31
0.0
  0
LINE
  5
298
330
1F
100
AcDbEntity
  8
0
  6
Continuous
 62
     7
370
    15
100
AcDbLine
 10
217.6577112722
 20
169.8143380526
 30
0.0
 11
220.9031409757
 21
167.9407913644
 31
0.0
  0
LINE
  5
299
330
1F
100
AcDbEntity
  8
0
  6
Continuous
 62
     7
370
    15
100
AcDbLine
 10
220.9031409757
 20
167.9407913644
 30
0.0
 11
220.9031409757
 21
137.7287813246
 31
0.0
  0
ARC
  5
29A
330
1F
100
AcDbEntity
  8
0
  6
Continuous
 62
     7
370
    15
100
AcDbCircle
 10
225.5087892798
 20
137.9383638814
 30
0.0
 40
4.610414422716196
100
AcDbArc
 50
182.6054784857
 51
237.39452166
  0
LINE
  5
29B
330
1F
100
AcDbEntity
  8
0
  6
Continuous
 62
     7
370
    15
100
AcDbLine
 10
223.0244613192
 20
134.0545467212
 30
0.0
 11
227.7487844144
 21
131.3272530504
 31
0.0
  0
LWPOLYLINE
  5
29C
330
1F
100
AcDbEntity
  8
0
  6
Continuous
 62
     7
370
    15
100
AcDbPolyline
 90
       13
 70
   128
 43
0.0
 10
227.7487844144
 20
131.3272530504
 10
228.7621377382
 20
130.1047660591
 10
229.8213263077
 20
128.9644240051
 10
230.9176435429
 20
127.9156005535
 10
232.0420776648
 20
126.9669170825
 10
233.185385772
 20
126.1261718147
 10
234.3381698182
 20
125.4002757157
 10
235.4909538644
 20
124.7951956856
 10
236.6342619716
 20
124.3159055105
 10
237.7586960935
 20
123.9663449783
 10
238.8550133287
 20
123.749387493
 10
239.9142018982
 20
123.6668164552
 10
240.927555222
 20
123.7193106028
  0
LINE
  5
29D
330
1F
100
AcDbEntity
  8
0
  6
Continuous
 62
     7
370
    15
100
AcDbLine
 10
240.927555222
 20
123.7193106028
 30
0.0
 11
243.0355765594
 21
122.5023757879
 31
0.0
  0
LINE
  5
29E
330
1F
100
AcDbEntity
  8
0
  6
Continuous
 62
     7
370
    15
100
AcDbLine
 10
249.123963035
 20
151.6492575646
 30
0.0
 11
252.0158393479
 21
149.9798129043
 31
0.0
  0
LINE
  5
29F
330
1F
100
AcDbEntity
  8
0
  6
Continuous
 62
     7
370
    15
100
AcDbLine
 10
247.7461898063
 20
118.5581854263
 30
0.0
 11
252.0158393479
 21
116.093369211
 31
0.0
  0
LWPOLYLINE
  5
2A0
330
1F
100
AcDbEntity
  8
0
  6
Continuous
 62
     7
370
    15
100
AcDbPolyline
 90
       19
 70
   128
 43
0.0
 10
220.9301498302
 20
134.0387557913
 10
221.8411752175
 20
132.4161460402
 10
222.8192961023
 20
130.8347796858
 10
223.8592610214
 20
129.3031469745
 10
224.9554864754
 20
127.8294711361
 10
226.1020869056
 20
126.4216642341
 10
227.292906294
 20
125.0872846859
 10
228.5215512138
 20
123.833496683
 10
229.7814251555
 20
122.6670317261
 10
231.0657639434
 20
121.5941524849
 10
232.3676720516
 20
120.6206191734
 10
233.6801596256
 20
119.7516586246
 10
234.9961800108
 20
118.9919362274
 10
236.3086675848
 20
118.3455308787
 10
237.610575693
 20
117.8159130839
 10
238.8949144809
 20
117.4059263244
 10
240.1547884227
 20
117.1177717905
 10
241.3834333424
 20
116.9529965641
 10
242.1870550894
 20
116.9120701409
  0
LINE
  5
2A1
330
1F
100
AcDbEntity
  8
0
  6
Continuous
 62
     7
370
    15
100
AcDbLine
 10
251.3087325667
 20
154.4700575193
 30
0.0
 11
248.3997796417
 21
152.7907547406
 31
0.0
  0
LINE
  5
2A2
330
1F
100
AcDbEntity
  8
0
  6
Continuous
 62
     7
370
    15
100
AcDbLine
 10
251.3087325667
 20
154.4700575193
 30
0.0
 11
255.5513732538
 21
152.0208331838
 31
0.0
  0
LINE
  5
2A3
330
1F
100
AcDbEntity
  8
0
  6
Continuous
 62
     7
370
    15
100
AcDbLine
 10
247.1777675594
 20
118.2300422479
 30
0.0
 11
247.7461898063
 21
118.5581854263
 31
0.0
  0
LINE
  5
2A4
330
1F
100
AcDbEntity
  8
0
  6
Continuous
 62
     7
370
    15
100
AcDbLine
 10
224.4386748816
 20
169.9818116439
 30
0.0
 11
220.9031409757
 21
167.9407913644
 31
0.0
  0
LINE
  5
2A5
330
1F
100
AcDbEntity
  8
0
  6
Continuous
 62
     7
370
    15
100
AcDbLine
 10
210.6500926485
 20
167.7366893364
 30
0.0
 11
214.0185404857
 21
169.6812528816
 31
0.0
  0
LINE
  5
2A6
330
1F
100
AcDbEntity
  8
0
  6
Continuous
 62
     7
370
    15
100
AcDbLine
 10
218.7818206321
 20
173.2474440912
 30
0.0
 11
216.1191568553
 21
171.7103210114
 31
0.0
  0
LINE
  5
2A7
330
1F
100
AcDbEntity
  8
0
  6
Continuous
 62
     7
370
    15
100
AcDbLine
 10
213.7667920064
 20
170.3523296898
 30
0.0
 11
209.9429858673
 21
168.1448933923
 31
0.0
  0
LINE
  5
2A8
330
1F
100
AcDbEntity
  8
0
  6
Continuous
 62
     7
370
    15
100
AcDbLine
 10
218.7818206321
 20
173.2474440912
 30
0.0
 11
224.4386748816
 21
169.9818116439
 31
0.0
  0
LINE
  5
2A9
330
1F
100
AcDbEntity
  8
0
  6
Continuous
 62
     7
370
    15
100
AcDbLine
 10
215.6268489713
 20
130.977225372
 30
0.0
 11
220.9301498302
 21
134.0387557913
 31
0.0
  0
LINE
  5
2AA
330
1F
100
AcDbEntity
  8
0
  6
Continuous
 62
     7
370
    15
100
AcDbLine
 10
224.4386748816
 20
139.7698016041
 30
0.0
 11
220.9031409757
 21
137.7287813246
 31
0.0
  0
LINE
  5
2AB
330
1F
100
AcDbEntity
  8
0
  6
Continuous
 62
     7
370
    15
100
AcDbLine
 10
224.4386748816
 20
169.9818116439
 30
0.0
 11
224.4386748816
 21
139.7698016041
 31
0.0
  0
LINE
  5
2AC
330
1F
100
AcDbEntity
  8
0
  6
Continuous
 62
     7
370
    15
100
AcDbLine
 10
243.5767364847
 20
125.2486503928
 30
0.0
 11
240.927555222
 21
123.7193106028
 31
0.0
  0
LINE
  5
2AD
330
1F
100
AcDbEntity
  8
0
  6
Continuous
 62
     7
370
    15
100
AcDbLine
 10
231.2843183203
 20
133.36827333
 30
0.0
 11
227.7487844144
 21
131.3272530504
 31
0.0
  0
LWPOLYLINE
  5
2AE
330
1F
100
AcDbEntity
  8
0
  6
Continuous
 62
     7
370
    15
100
AcDbPolyline
 90
       13
 70
   128
 43
0.0
 10
231.2843183203
 20
133.36827333
 10
232.2976716442
 20
132.1457863387
 10
233.3568602136
 20
131.0054442846
 10
234.4531774489
 20
129.9566208331
 10
235.5776115707
 20
129.0079373621
 10
236.7209196779
 20
128.1671920943
 10
237.8737037241
 20
127.4412959953
 10
239.0264877704
 20
126.8362159651
 10
240.1697958776
 20
126.3569257901
 10
241.2942299994
 20
126.0073652579
 10
242.3905472347
 20
125.7904077725
 10
243.4497358041
 20
125.7078367348
 10
243.6671857959
 20
125.7076619247
  0
LINE
  5
2AF
330
1F
100
AcDbEntity
  8
0
  6
Continuous
 62
     7
370
    15
100
AcDbLine
 10
226.5599952252
 20
136.0955670008
 30
0.0
 11
223.0244613192
 21
134.0545467212
 31
0.0
  0
LINE
  5
2B0
330
1F
100
AcDbEntity
  8
0
  6
Continuous
 62
     7
370
    15
100
AcDbLine
 10
226.5599952252
 20
136.0955670008
 30
0.0
 11
231.2843183203
 21
133.36827333
 31
0.0
  0
LINE
  5
2B1
330
1F
100
AcDbEntity
  8
0
  6
Continuous
 62
     7
370
    15
100
AcDbLine
 10
215.2509558061
 20
134.0570430736
 30
0.0
 11
218.0747138509
 21
135.6871638947
 31
0.0
  0
ARC
  5
2B2
330
1F
100
AcDbEntity
  8
0
  6
Continuous
 62
     7
370
    15
100
AcDbCircle
 10
229.0443231857
 20
139.9793841609
 30
0.0
 40
4.610414422716199
100
AcDbArc
 50
182.6054784857
 51
237.39452166
  0
LINE
  5
2B3
330
1F
100
AcDbEntity
  8
0
  6
Continuous
 62
     8
370
    15
100
AcDbLine
 10
210.6500926485
 20
133.8502456431
 30
0.0
 11
210.7208033266
 21
133.8910660487
 31
0.0
  0
LINE
  5
2B4
330
1F
100
AcDbEntity
  8
0
  6
Continuous
 62
     8
370
    15
100
AcDbLine
 10
215.7953445575
 20
136.8205363458
 30
0.0
 11
215.9533935074
 21
136.9117760625
 31
0.0
  0
ENDSEC
  0
SECTION
  2
OBJECTS
  0
DICTIONARY
  5
C
330
0
100
AcDbDictionary
281
     1
  3
ACAD_GROUP
350
D
  3
ACAD_LAYOUT
350
1A
  3
ACAD_MLINESTYLE
350
17
  3
ACAD_PLOTSETTINGS
350
19
  3
ACAD_PLOTSTYLENAME
350
E
  3
ACAD_SCALELIST
350
47
  0
DICTIONARY
  5
D
102
{ACAD_REACTORS
330
C
102
}
330
C
100
AcDbDictionary
281
     1
  0
DICTIONARY
  5
1A
102
{ACAD_REACTORS
330
C
102
}
330
C
100
AcDbDictionary
281
     1
  3
Layout1
350
1E
  3
Layout2
350
26
  3
Model
350
22
  0
DICTIONARY
  5
17
102
{ACAD_REACTORS
330
C
102
}
330
C
100
AcDbDictionary
281
     1
  3
Standard
350
18
  0
DICTIONARY
  5
19
102
{ACAD_REACTORS
330
C
102
}
330
C
100
AcDbDictionary
281
     1
  0
ACDBDICTIONARYWDFLT
  5
E
102
{ACAD_REACTORS
330
C
102
}
330
C
100
AcDbDictionary
281
     1
  3
Normal
350
F
100
AcDbDictionaryWithDefault
340
F
  0
DICTIONARY
  5
47
102
{ACAD_REACTORS
330
C
102
}
330
C
100
AcDbDictionary
281
     1
  3
A0
350
48
  3
A1
350
49
  3
A2
350
4A
  3
A3
350
4B
  3
A4
350
4C
  3
A5
350
4D
  3
A6
350
4E
  3
A7
350
4F
  3
A8
350
50
  3
A9
350
51
  3
B0
350
52
  3
B1
350
53
  3
B2
350
54
  3
B3
350
55
  3
B4
350
56
  3
B5
350
57
  3
B6
350
58
  3
B7
350
59
  3
B8
350
5A
  3
B9
350
5B
  3
C0
350
5C
  3
C1
350
5D
  3
C2
350
5E
  3
C3
350
5F
  3
C4
350
60
  3
C5
350
61
  3
C6
350
62
  3
C7
350
63
  3
C8
350
64
  3
C9
350
65
  3
D0
350
66
  3
D1
350
67
  3
D2
350
68
  0
LAYOUT
  5
1E
102
{ACAD_REACTORS
330
1A
102
}
330
1A
100
AcDbPlotSettings
  1

  2
none_device
  4

  6

 40
0.0
 41
0.0
 42
0.0
 43
0.0
 44
0.0
 45
0.0
 46
0.0
 47
0.0
 48
0.0
 49
0.0
140
0.0
141
0.0
142
1.0
143
1.0
 70
   688
 72
     1
 73
     0
 74
     5
  7

 75
    16
147
1.0
148
0.0
149
0.0
100
AcDbLayout
  1
Layout1
 70
     1
 71
     1
 10
0.0
 20
0.0
 11
420.0
 21
297.0
 12
0.0
 22
0.0
 32
0.0
 14
1.0000000000E+20
 24
1.0000000000E+20
 34
1.0000000000E+20
 15
-1.0000000000E+20
 25
-1.0000000000E+20
 35
-1.0000000000E+20
146
0.0
 13
0.0
 23
0.0
 33
0.0
 16
1.0
 26
0.0
 36
0.0
 17
0.0
 27
1.0
 37
0.0
 76
     0
330
1B
  0
LAYOUT
  5
26
102
{ACAD_REACTORS
330
1A
102
}
330
1A
100
AcDbPlotSettings
  1

  2
none_device
  4

  6

 40
0.0
 41
0.0
 42
0.0
 43
0.0
 44
0.0
 45
0.0
 46
0.0
 47
0.0
 48
0.0
 49
0.0
140
0.0
141
0.0
142
1.0
143
1.0
 70
   688
 72
     1
 73
     0
 74
     5
  7

 75
    16
147
1.0
148
0.0
149
0.0
100
AcDbLayout
  1
Layout2
 70
     1
 71
     2
 10
0.0
 20
0.0
 11
0.0
 21
0.0
 12
0.0
 22
0.0
 32
0.0
 14
0.0
 24
0.0
 34
0.0
 15
0.0
 25
0.0
 35
0.0
146
0.0
 13
0.0
 23
0.0
 33
0.0
 16
1.0
 26
0.0
 36
0.0
 17
0.0
 27
1.0
 37
0.0
 76
     0
330
23
  0
LAYOUT
  5
22
102
{ACAD_REACTORS
330
1A
102
}
330
1A
100
AcDbPlotSettings
  1

  2
none_device
  4
Letter_(8.50_x_11.00_Inches)
  6

 40
6.35
 41
6.35
 42
6.35000508
 43
6.35000508
 44
215.9
 45
279.4
 46
0.0
 47
0.0
 48
0.0
 49
0.0
140
0.0
141
0.0
142
1.0
143
1.0
 70
  1712
 72
     1
 73
     0
 74
     0
  7

 75
     0
147
1.0
148
0.0
149
0.0
100
AcDbLayout
  1
Model
 70
     1
 71
     0
 10
0.0
 20
0.0
 11
297.0
 21
210.0
 12
0.0
 22
0.0
 32
0.0
 14
0.0
 24
0.0
 34
0.0
 15
297.0
 25
210.0
 35
0.0
146
0.0
 13
0.0
 23
0.0
 33
0.0
 16
1.0
 26
0.0
 36
0.0
 17
0.0
 27
1.0
 37
0.0
 76
     0
330
1F
331
29
  0
MLINESTYLE
  5
18
102
{ACAD_REACTORS
330
17
102
}
330
17
100
AcDbMlineStyle
  2
Standard
 70
     0
  3

 62
   256
 51
90.0
 52
90.0
 71
     2
 49
0.5
 62
   256
  6
BYLAYER
 49
-0.5
 62
   256
  6
BYLAYER
  0
ACDBPLACEHOLDER
  5
F
102
{ACAD_REACTORS
330
E
102
}
330
E
  0
SCALE
  5
48
102
{ACAD_REACTORS
330
47
102
}
330
47
100
AcDbScale
 70
     0
300
1:1
140
1.0
141
1.0
290
     1
  0
SCALE
  5
49
102
{ACAD_REACTORS
330
47
102
}
330
47
100
AcDbScale
 70
     0
300
1:2
140
1.0
141
2.0
290
     0
  0
SCALE
  5
4A
102
{ACAD_REACTORS
330
47
102
}
330
47
100
AcDbScale
 70
     0
300
1:4
140
1.0
141
4.0
290
     0
  0
SCALE
  5
4B
102
{ACAD_REACTORS
330
47
102
}
330
47
100
AcDbScale
 70
     0
300
1:5
140
1.0
141
5.0
290
     0
  0
SCALE
  5
4C
102
{ACAD_REACTORS
330
47
102
}
330
47
100
AcDbScale
 70
     0
300
1:8
140
1.0
141
8.0
290
     0
  0
SCALE
  5
4D
102
{ACAD_REACTORS
330
47
102
}
330
47
100
AcDbScale
 70
     0
300
1:10
140
1.0
141
10.0
290
     0
  0
SCALE
  5
4E
102
{ACAD_REACTORS
330
47
102
}
330
47
100
AcDbScale
 70
     0
300
1:16
140
1.0
141
16.0
290
     0
  0
SCALE
  5
4F
102
{ACAD_REACTORS
330
47
102
}
330
47
100
AcDbScale
 70
     0
300
1:20
140
1.0
141
20.0
290
     0
  0
SCALE
  5
50
102
{ACAD_REACTORS
330
47
102
}
330
47
100
AcDbScale
 70
     0
300
1:30
140
1.0
141
30.0
290
     0
  0
SCALE
  5
51
102
{ACAD_REACTORS
330
47
102
}
330
47
100
AcDbScale
 70
     0
300
1:40
140
1.0
141
40.0
290
     0
  0
SCALE
  5
52
102
{ACAD_REACTORS
330
47
102
}
330
47
100
AcDbScale
 70
     0
300
1:50
140
1.0
141
50.0
290
     0
  0
SCALE
  5
53
102
{ACAD_REACTORS
330
47
102
}
330
47
100
AcDbScale
 70
     0
300
1:100
140
1.0
141
100.0
290
     0
  0
SCALE
  5
54
102
{ACAD_REACTORS
330
47
102
}
330
47
100
AcDbScale
 70
     0
300
2:1
140
2.0
141
1.0
290
     0
  0
SCALE
  5
55
102
{ACAD_REACTORS
330
47
102
}
330
47
100
AcDbScale
 70
     0
300
4:1
140
4.0
141
1.0
290
     0
  0
SCALE
  5
56
102
{ACAD_REACTORS
330
47
102
}
330
47
100
AcDbScale
 70
     0
300
8:1
140
8.0
141
1.0
290
     0
  0
SCALE
  5
57
102
{ACAD_REACTORS
330
47
102
}
330
47
100
AcDbScale
 70
     0
300
10:1
140
10.0
141
1.0
290
     0
  0
SCALE
  5
58
102
{ACAD_REACTORS
330
47
102
}
330
47
100
AcDbScale
 70
     0
300
100:1
140
100.0
141
1.0
290
     0
  0
SCALE
  5
59
102
{ACAD_REACTORS
330
47
102
}
330
47
100
AcDbScale
 70
     0
300
1/128" = 1'-0"
140
0.0078125
141
12.0
290
     0
  0
SCALE
  5
5A
102
{ACAD_REACTORS
330
47
102
}
330
47
100
AcDbScale
 70
     0
300
1/64" = 1'-0"
140
0.015625
141
12.0
290
     0
  0
SCALE
  5
5B
102
{ACAD_REACTORS
330
47
102
}
330
47
100
AcDbScale
 70
     0
300
1/32" = 1'-0"
140
0.03125
141
12.0
290
     0
  0
SCALE
  5
5C
102
{ACAD_REACTORS
330
47
102
}
330
47
100
AcDbScale
 70
     0
300
1/16" = 1'-0"
140
0.0625
141
12.0
290
     0
  0
SCALE
  5
5D
102
{ACAD_REACTORS
330
47
102
}
330
47
100
AcDbScale
 70
     0
300
3/32" = 1'-0"
140
0.09375
141
12.0
290
     0
  0
SCALE
  5
5E
102
{ACAD_REACTORS
330
47
102
}
330
47
100
AcDbScale
 70
     0
300
1/8" = 1'-0"
140
0.125
141
12.0
290
     0
  0
SCALE
  5
5F
102
{ACAD_REACTORS
330
47
102
}
330
47
100
AcDbScale
 70
     0
300
3/16" = 1'-0"
140
0.1875
141
12.0
290
     0
  0
SCALE
  5
60
102
{ACAD_REACTORS
330
47
102
}
330
47
100
AcDbScale
 70
     0
300
1/4" = 1'-0"
140
0.25
141
12.0
290
     0
  0
SCALE
  5
61
102
{ACAD_REACTORS
330
47
102
}
330
47
100
AcDbScale
 70
     0
300
3/8" = 1'-0"
140
0.375
141
12.0
290
     0
  0
SCALE
  5
62
102
{ACAD_REACTORS
330
47
102
}
330
47
100
AcDbScale
 70
     0
300
1/2" = 1'-0"
140
0.5
141
12.0
290
     0
  0
SCALE
  5
63
102
{ACAD_REACTORS
330
47
102
}
330
47
100
AcDbScale
 70
     0
300
3/4" = 1'-0"
140
0.75
141
12.0
290
     0
  0
SCALE
  5
64
102
{ACAD_REACTORS
330
47
102
}
330
47
100
AcDbScale
 70
     0
300
1" = 1'-0"
140
1.0
141
12.0
290
     0
  0
SCALE
  5
65
102
{ACAD_REACTORS
330
47
102
}
330
47
100
AcDbScale
 70
     0
300
1-1/2" = 1'-0"
140
1.5
141
12.0
290
     0
  0
SCALE
  5
66
102
{ACAD_REACTORS
330
47
102
}
330
47
100
AcDbScale
 70
     0
300
3" = 1'-0"
140
3.0
141
12.0
290
     0
  0
SCALE
  5
67
102
{ACAD_REACTORS
330
47
102
}
330
47
100
AcDbScale
 70
     0
300
6" = 1'-0"
140
6.0
141
12.0
290
     0
  0
SCALE
  5
68
102
{ACAD_REACTORS
330
47
102
}
330
47
100
AcDbScale
 70
     0
300
1'-0" = 1'-0"
140
12.0
141
12.0
290
     0
  0
ENDSEC
  0
EOF
