  0
SECTION
  2
HEADER
  9
$ACADVER
  1
AC1015
  9
$ACADMAINTVER
 70
     6
  9
$DWGCODEPAGE
  3
ANSI_950
  9
$INSBASE
 10
0.0
 20
0.0
 30
0.0
  9
$EXTMIN
 10
0.0
 20
0.0
 30
0.0
  9
$EXTMAX
 10
742.5
 20
525.0
 30
0.0
  9
$LIMMIN
 10
0.0
 20
0.0
  9
$LIMMAX
 10
742.5
 20
525.0
  9
$ORTHOMODE
 70
     0
  9
$REGENMODE
 70
     1
  9
$FILLMODE
 70
     1
  9
$QTEXTMODE
 70
     0
  9
$MIRRTEXT
 70
     1
  9
$LTSCALE
 40
2.5
  9
$ATTMODE
 70
     1
  9
$TEXTSIZE
 40
7.9375
  9
$TRACEWID
 40
1.0
  9
$TEXTSTYLE
  7
Standard
  9
$CLAYER
  8
0
  9
$CELTYPE
  6
ByLayer
  9
$CECOLOR
 62
   256
  9
$CELTSCALE
 40
1.0
  9
$DISPSILH
 70
     0
  9
$DIMSCALE
 40
1.0
  9
$DIMASZ
 40
5.0
  9
$DIMEXO
 40
2.5
  9
$DIMDLI
 40
3.75
  9
$DIMRND
 40
0.0
  9
$DIMDLE
 40
0.0
  9
$DIMEXE
 40
2.5
  9
$DIMTP
 40
0.0
  9
$DIMTM
 40
0.0
  9
$DIMTXT
 40
7.9375
  9
$DIMCEN
 40
2.5
  9
$DIMTSZ
 40
0.0
  9
$DIMTOL
 70
     0
  9
$DIMLIM
 70
     0
  9
$DIMTIH
 70
     1
  9
$DIMTOH
 70
     1
  9
$DIMSE1
 70
     0
  9
$DIMSE2
 70
     0
  9
$DIMTAD
 70
     1
  9
$DIMZIN
 70
     0
  9
$DIMBLK
  1

  9
$DIMASO
 70
     1
  9
$DIMSHO
 70
     1
  9
$DIMPOST
  1

  9
$DIMAPOST
  1

  9
$DIMALT
 70
     0
  9
$DIMALTD
 70
     3
  9
$DIMALTF
 40
0.0393700787
  9
$DIMLFAC
 40
1.0
  9
$DIMTOFL
 70
     1
  9
$DIMTVP
 40
0.0
  9
$DIMTIX
 70
     0
  9
$DIMSOXD
 70
     0
  9
$DIMSAH
 70
     0
  9
$DIMBLK1
  1

  9
$DIMBLK2
  1

  9
$DIMSTYLE
  2
ISO-25
  9
$DIMCLRD
 70
     0
  9
$DIMCLRE
 70
     0
  9
$DIMCLRT
 70
     0
  9
$DIMTFAC
 40
1.0
  9
$DIMGAP
 40
2.5
  9
$DIMJUST
 70
     0
  9
$DIMSD1
 70
     0
  9
$DIMSD2
 70
     0
  9
$DIMTOLJ
 70
     0
  9
$DIMTZIN
 70
     0
  9
$DIMALTZ
 70
     0
  9
$DIMALTTZ
 70
     0
  9
$DIMUPT
 70
     0
  9
$DIMDEC
 70
     2
  9
$DIMTDEC
 70
     2
  9
$DIMALTU
 70
     2
  9
$DIMALTTD
 70
     3
  9
$DIMTXSTY
  7
Standard
  9
$DIMAUNIT
 70
     0
  9
$DIMADEC
 70
     2
  9
$DIMALTRND
 40
0.0
  9
$DIMAZIN
 70
     0
  9
$DIMDSEP
 70
    44
  9
$DIMATFIT
 70
     3
  9
$DIMFRAC
 70
     0
  9
$DIMLDRBLK
  1

  9
$DIMLUNIT
 70
     2
  9
$DIMLWD
 70
    -2
  9
$DIMLWE
 70
    -2
  9
$DIMTMOVE
 70
     0
  9
$LUNITS
 70
     2
  9
$LUPREC
 70
     2
  9
$SKETCHINC
 40
1.0
  9
$FILLETRAD
 40
10.0
  9
$AUNITS
 70
     0
  9
$AUPREC
 70
     2
  9
$MENU
  1
.
  9
$ELEVATION
 40
0.0
  9
$PELEVATION
 40
0.0
  9
$THICKNESS
 40
0.0
  9
$LIMCHECK
 70
     0
  9
$CHAMFERA
 40
0.0
  9
$CHAMFERB
 40
0.0
  9
$CHAMFERC
 40
0.0
  9
$CHAMFERD
 40
0.0
  9
$SKPOLY
 70
     0
  9
$TDCREATE
 40
2458159.441599387
  9
$TDUCREATE
 40
2458159.108266053
  9
$TDUPDATE
 40
2458159.441605
  9
$TDUUPDATE
 40
2458159.108271667
  9
$TDINDWG
 40
0.0000000116
  9
$TDUSRTIMER
 40
0.0000000116
  9
$USRTIMER
 70
     1
  9
$ANGBASE
 50
0.0
  9
$ANGDIR
 70
     0
  9
$PDMODE
 70
     0
  9
$PDSIZE
 40
-1.0
  9
$PLINEWID
 40
0.0
  9
$SPLFRAME
 70
     0
  9
$SPLINETYPE
 70
     6
  9
$SPLINESEGS
 70
     8
  9
$HANDSEED
  5
630
  9
$SURFTAB1
 70
     6
  9
$SURFTAB2
 70
     6
  9
$SURFTYPE
 70
     6
  9
$SURFU
 70
     6
  9
$SURFV
 70
     6
  9
$UCSBASE
  2

  9
$UCSNAME
  2

  9
$UCSORG
 10
0.0
 20
0.0
 30
0.0
  9
$UCSXDIR
 10
1.0
 20
0.0
 30
0.0
  9
$UCSYDIR
 10
0.0
 20
1.0
 30
0.0
  9
$UCSORTHOREF
  2

  9
$UCSORTHOVIEW
 70
     0
  9
$UCSORGTOP
 10
0.0
 20
0.0
 30
0.0
  9
$UCSORGBOTTOM
 10
0.0
 20
0.0
 30
0.0
  9
$UCSORGLEFT
 10
0.0
 20
0.0
 30
0.0
  9
$UCSORGRIGHT
 10
0.0
 20
0.0
 30
0.0
  9
$UCSORGFRONT
 10
0.0
 20
0.0
 30
0.0
  9
$UCSORGBACK
 10
0.0
 20
0.0
 30
0.0
  9
$PUCSBASE
  2

  9
$PUCSNAME
  2

  9
$PUCSORG
 10
0.0
 20
0.0
 30
0.0
  9
$PUCSXDIR
 10
1.0
 20
0.0
 30
0.0
  9
$PUCSYDIR
 10
0.0
 20
1.0
 30
0.0
  9
$PUCSORTHOREF
  2

  9
$PUCSORTHOVIEW
 70
     0
  9
$PUCSORGTOP
 10
0.0
 20
0.0
 30
0.0
  9
$PUCSORGBOTTOM
 10
0.0
 20
0.0
 30
0.0
  9
$PUCSORGLEFT
 10
0.0
 20
0.0
 30
0.0
  9
$PUCSORGRIGHT
 10
0.0
 20
0.0
 30
0.0
  9
$PUCSORGFRONT
 10
0.0
 20
0.0
 30
0.0
  9
$PUCSORGBACK
 10
0.0
 20
0.0
 30
0.0
  9
$USERI1
 70
     0
  9
$USERI2
 70
     0
  9
$USERI3
 70
     0
  9
$USERI4
 70
     0
  9
$USERI5
 70
     0
  9
$USERR1
 40
0.0
  9
$USERR2
 40
0.0
  9
$USERR3
 40
0.0
  9
$USERR4
 40
0.0
  9
$USERR5
 40
0.0
  9
$WORLDVIEW
 70
     1
  9
$SHADEDGE
 70
     3
  9
$SHADEDIF
 70
    70
  9
$TILEMODE
 70
     1
  9
$MAXACTVP
 70
    64
  9
$PINSBASE
 10
0.0
 20
0.0
 30
0.0
  9
$PLIMCHECK
 70
     0
  9
$PEXTMIN
 10
1.0000000000E+20
 20
1.0000000000E+20
 30
1.0000000000E+20
  9
$PEXTMAX
 10
-1.0000000000E+20
 20
-1.0000000000E+20
 30
-1.0000000000E+20
  9
$PLIMMIN
 10
0.0
 20
0.0
  9
$PLIMMAX
 10
420.0
 20
297.0
  9
$UNITMODE
 70
     0
  9
$VISRETAIN
 70
     1
  9
$PLINEGEN
 70
     0
  9
$PSLTSCALE
 70
     1
  9
$TREEDEPTH
 70
  3020
  9
$CMLSTYLE
  2
Standard
  9
$CMLJUST
 70
     0
  9
$CMLSCALE
 40
20.0
  9
$PROXYGRAPHICS
 70
     1
  9
$MEASUREMENT
 70
     1
  9
$CELWEIGHT
370
    -1
  9
$ENDCAPS
280
     0
  9
$JOINSTYLE
280
     0
  9
$LWDISPLAY
290
     1
  9
$INSUNITS
 70
     4
  9
$HYPERLINKBASE
  1

  9
$STYLESHEET
  1

  9
$XEDIT
290
     1
  9
$CEPSNTYPE
380
     0
  9
$PSTYLEMODE
290
     1
  9
$FINGERPRINTGUID
  2
{E2022CB8-8C37-439D-B0D2-1B056BFBFB8B}
  9
$VERSIONGUID
  2
{FAEB1C32-E019-11D5-929B-00C0DF256EC4}
  9
$EXTNAMES
290
     1
  9
$PSVPSCALE
 40
0.0
  9
$OLESTARTUP
290
     0
  0
ENDSEC
  0
SECTION
  2
CLASSES
  0
CLASS
  1
ACDBDICTIONARYWDFLT
  2
AcDbDictionaryWithDefault
  3
ObjectDBX Classes
 90
        0
280
     0
281
     0
  0
CLASS
  1
VISUALSTYLE
  2
AcDbVisualStyle
  3
ObjectDBX Classes
 90
     4095
280
     0
281
     0
  0
CLASS
  1
MATERIAL
  2
AcDbMaterial
  3
ObjectDBX Classes
 90
     1153
280
     0
281
     0
  0
CLASS
  1
SCALE
  2
AcDbScale
  3
ObjectDBX Classes
 90
     1153
280
     0
281
     0
  0
CLASS
  1
TABLESTYLE
  2
AcDbTableStyle
  3
ObjectDBX Classes
 90
     4095
280
     0
281
     0
  0
CLASS
  1
MLEADERSTYLE
  2
AcDbMLeaderStyle
  3
ACDB_MLEADERSTYLE_CLASS
 90
     4095
280
     0
281
     0
  0
CLASS
  1
SUN
  2
AcDbSun
  3
SCENEOE
 90
     1153
280
     0
281
     0
  0
CLASS
  1
ACDBPLACEHOLDER
  2
AcDbPlaceHolder
  3
ObjectDBX Classes
 90
        0
280
     0
281
     0
  0
CLASS
  1
LAYOUT
  2
AcDbLayout
  3
ObjectDBX Classes
 90
        0
280
     0
281
     0
  0
ENDSEC
  0
SECTION
  2
TABLES
  0
TABLE
  2
VPORT
  5
8
330
0
100
AcDbSymbolTable
 70
     1
  0
VPORT
  5
29
330
8
100
AcDbSymbolTableRecord
100
AcDbViewportTableRecord
  2
*Active
 70
     0
 10
0.0
 20
0.0
 11
1.0
 21
1.0
 12
371.25
 22
262.5
 13
0.0
 23
0.0
 14
10.0
 24
10.0
 15
10.0
 25
10.0
 16
0.0
 26
0.0
 36
1.0
 17
0.0
 27
0.0
 37
0.0
 40
525.0
 41
1.4142857143
 42
50.0
 43
0.0
 44
0.0
 50
0.0
 51
0.0
 71
     0
 72
  2000
 73
     1
 74
     3
 75
     0
 76
     0
 77
     0
 78
     0
281
     0
 65
     1
110
0.0
120
0.0
130
0.0
111
1.0
121
0.0
131
0.0
112
0.0
122
1.0
132
0.0
 79
     0
146
0.0
  0
ENDTAB
  0
TABLE
  2
LTYPE
  5
5
330
0
100
AcDbSymbolTable
 70
     6
  0
LTYPE
  5
14
330
5
100
AcDbSymbolTableRecord
100
AcDbLinetypeTableRecord
  2
ByBlock
 70
     0
  3

 72
    65
 73
     0
 40
0.0
  0
LTYPE
  5
15
330
5
100
AcDbSymbolTableRecord
100
AcDbLinetypeTableRecord
  2
ByLayer
 70
     0
  3

 72
    65
 73
     0
 40
0.0
  0
LTYPE
  5
16
330
5
100
AcDbSymbolTableRecord
100
AcDbLinetypeTableRecord
  2
Continuous
 70
     0
  3
Solid line
 72
    65
 73
     0
 40
0.0
  0
LTYPE
  5
6E
330
5
100
AcDbSymbolTableRecord
100
AcDbLinetypeTableRecord
  2
HIDDEN
 70
     0
  3
Hidden __ __ __ __ __ __ __ __ __ __ __ __ __ __
 72
    65
 73
     2
 40
1.905
 49
1.27
 74
     0
 49
-0.635
 74
     0
  0
LTYPE
  5
6F
330
5
100
AcDbSymbolTableRecord
100
AcDbLinetypeTableRecord
  2
PHANTOM
 70
     0
  3
Phantom ______  __  __  ______  __  __  ______
 72
    65
 73
     6
 40
12.7
 49
6.35
 74
     0
 49
-1.27
 74
     0
 49
1.27
 74
     0
 49
-1.27
 74
     0
 49
1.27
 74
     0
 49
-1.27
 74
     0
  0
LTYPE
  5
70
330
5
100
AcDbSymbolTableRecord
100
AcDbLinetypeTableRecord
  2
CENTER
 70
     0
  3
Center ____ _ ____ _ ____ _ ____ _ ____ _ ____
 72
    65
 73
     4
 40
10.16
 49
6.35
 74
     0
 49
-1.27
 74
     0
 49
1.27
 74
     0
 49
-1.27
 74
     0
  0
LTYPE
  5
71
330
5
100
AcDbSymbolTableRecord
100
AcDbLinetypeTableRecord
  2
CENTERX2
 70
     0
  3
Center (2x) ________  __  ________  __  _____
 72
    65
 73
     4
 40
20.32
 49
12.7
 74
     0
 49
-2.54
 74
     0
 49
2.54
 74
     0
 49
-2.54
 74
     0
  0
LTYPE
  5
72
330
5
100
AcDbSymbolTableRecord
100
AcDbLinetypeTableRecord
  2
DOT2
 70
     0
  3
Dot (.5x) ........................................
 72
    65
 73
     2
 40
0.635
 49
0.0
 74
     0
 49
-0.635
 74
     0
  0
ENDTAB
  0
TABLE
  2
LAYER
  5
2
330
0
100
AcDbSymbolTable
 70
    10
  0
LAYER
  5
10
330
2
100
AcDbSymbolTableRecord
100
AcDbLayerTableRecord
  2
0
 70
     0
 62
     7
  6
Continuous
370
    -3
390
F
  0
LAYER
  5
73
330
2
100
AcDbSymbolTableRecord
100
AcDbLayerTableRecord
  2
SLD-0
 70
     0
 62
     7
  6
Continuous
370
    15
390
F
  0
LAYER
  5
74
330
2
100
AcDbSymbolTableRecord
100
AcDbLayerTableRecord
  2
輪廓線
 70
     0
 62
   219
  6
Continuous
370
    15
390
F
  0
LAYER
  5
75
330
2
100
AcDbSymbolTableRecord
100
AcDbLayerTableRecord
  2
DIM
 70
     0
 62
     7
  6
Continuous
370
    -3
390
F
  0
LAYER
  5
76
330
2
100
AcDbSymbolTableRecord
100
AcDbLayerTableRecord
  2
中心線
 70
     0
 62
     7
  6
CENTERX2
370
    -3
390
F
  0
LAYER
  5
77
330
2
100
AcDbSymbolTableRecord
100
AcDbLayerTableRecord
  2
虛線
 70
     0
 62
     7
  6
HIDDEN
370
    -3
390
F
  0
LAYER
  5
78
330
2
100
AcDbSymbolTableRecord
100
AcDbLayerTableRecord
  2
SECTION
 70
     0
 62
     7
  6
PHANTOM
370
    15
390
F
  0
LAYER
  5
79
330
2
100
AcDbSymbolTableRecord
100
AcDbLayerTableRecord
  2
假想線
 70
     0
 62
     7
  6
PHANTOM
370
    -3
390
F
  0
LAYER
  5
7A
330
2
100
AcDbSymbolTableRecord
100
AcDbLayerTableRecord
  2
圖層_1
 70
     0
 62
   179
  6
Continuous
370
    -3
390
F
  0
LAYER
  5
7B
330
2
100
AcDbSymbolTableRecord
100
AcDbLayerTableRecord
  2
工作區域參考線
 70
     0
 62
   179
  6
Continuous
370
    -3
390
F
  0
ENDTAB
  0
TABLE
  2
STYLE
  5
3
330
0
100
AcDbSymbolTable
 70
     3
  0
STYLE
  5
11
330
3
100
AcDbSymbolTableRecord
100
AcDbTextStyleTableRecord
  2
Standard
 70
     0
 40
0.0
 41
1.0
 50
0.0
 71
     0
 42
7.9375
  3
txt
  4

  0
STYLE
  5
CC
330
3
100
AcDbSymbolTableRecord
100
AcDbTextStyleTableRecord
  2
SLDTEXTSTYLE0
 70
     0
 40
0.0
 41
0.605
 50
0.0
 71
     0
 42
7.9375
  3
TXT
  4

  0
STYLE
  5
103
330
3
100
AcDbSymbolTableRecord
100
AcDbTextStyleTableRecord
  2
SLDTEXTSTYLE1
 70
     0
 40
0.0
 41
0.7
 50
0.0
 71
     0
 42
7.9375
  3
TXT
  4

  0
ENDTAB
  0
TABLE
  2
VIEW
  5
6
330
0
100
AcDbSymbolTable
 70
     0
  0
ENDTAB
  0
TABLE
  2
UCS
  5
7
330
0
100
AcDbSymbolTable
 70
     0
  0
ENDTAB
  0
TABLE
  2
APPID
  5
9
330
0
100
AcDbSymbolTable
 70
     1
  0
APPID
  5
12
330
9
100
AcDbSymbolTableRecord
100
AcDbRegAppTableRecord
  2
ACAD
 70
     0
  0
ENDTAB
  0
TABLE
  2
DIMSTYLE
  5
A
330
0
100
AcDbSymbolTable
 70
     5
100
AcDbDimStyleTable
  0
DIMSTYLE
105
27
330
A
100
AcDbSymbolTableRecord
100
AcDbDimStyleTableRecord
  2
ISO-25
 70
     0
 41
2.5
 42
0.625
 43
3.75
 44
1.25
 73
     0
 74
     0
 77
     1
 78
     8
140
2.5
141
2.5
143
0.0393700787
147
0.625
171
     3
172
     1
178
     0
271
     2
272
     2
274
     3
278
    44
283
     0
284
     8
340
11
  0
DIMSTYLE
105
21E
102
{ACAD_REACTORS
330
21D
330
228
330
23C
330
267
330
271
330
27B
330
285
330
28F
330
299
330
2A3
330
2BA
330
2C4
330
2CE
330
2D8
330
2E2
330
3C9
330
3FE
330
408
330
412
330
41C
330
426
330
430
330
43A
330
4DD
330
4E7
330
4FD
330
507
330
511
330
51B
102
}
330
A
100
AcDbSymbolTableRecord
100
AcDbDimStyleTableRecord
  2
SLDDIMSTYLE0
 70
     0
 41
5.0
 44
0.0
 45
0.000000001
 73
     0
 74
     0
 77
     1
 78
    12
 79
     3
140
6.3562011719
147
1.589050293
173
     1
178
     0
271
     2
272
     2
276
     2
284
    12
340
103
  0
DIMSTYLE
105
233
102
{ACAD_REACTORS
330
232
102
}
330
A
100
AcDbSymbolTableRecord
100
AcDbDimStyleTableRecord
  2
SLDDIMSTYLE1
 70
     0
 41
5.0
 44
0.0
 73
     0
 74
     0
 77
     1
 78
    12
 79
     3
140
6.3562011719
144
2.5
147
1.589050293
173
     1
178
     0
179
     2
272
     2
276
     2
284
    12
340
103
  0
DIMSTYLE
105
2AE
102
{ACAD_REACTORS
330
2AD
330
3B1
330
3BD
330
444
330
4F1
102
}
330
A
100
AcDbSymbolTableRecord
100
AcDbDimStyleTableRecord
  2
SLDDIMSTYLE2
 70
     0
 41
5.0
 44
0.0
 45
0.000000001
 73
     0
 74
     0
 77
     1
 78
    12
 79
     3
140
6.3562011719
147
1.589050293
172
     1
173
     1
178
     0
271
     2
272
     2
276
     2
284
    12
289
     0
340
103
  0
DIMSTYLE
105
2F3
330
A
100
AcDbSymbolTableRecord
100
AcDbDimStyleTableRecord
  2
SLDDIMSTYLE3
 70
     0
 41
5.0
 44
0.0
 45
0.000000001
146
5.0
147
0.0
173
     1
178
     0
271
     0
272
     0
276
     2
340
11
  0
ENDTAB
  0
TABLE
  2
BLOCK_RECORD
  5
1
330
0
100
AcDbSymbolTable
 70
    72
  0
BLOCK_RECORD
  5
1F
330
1
100
AcDbSymbolTableRecord
100
AcDbBlockTableRecord
  2
*Model_Space
340
22
  0
BLOCK_RECORD
  5
1B
330
1
100
AcDbSymbolTableRecord
100
AcDbBlockTableRecord
  2
*Paper_Space
340
1E
  0
BLOCK_RECORD
  5
23
330
1
100
AcDbSymbolTableRecord
100
AcDbBlockTableRecord
  2
*Paper_Space0
340
26
  0
BLOCK_RECORD
  5
7C
330
1
100
AcDbSymbolTableRecord
100
AcDbBlockTableRecord
  2
圖塊6
340
0
102
{BLKREFS
331
CB
102
}
  0
BLOCK_RECORD
  5
CE
330
1
100
AcDbSymbolTableRecord
100
AcDbBlockTableRecord
  2
SW_NOTE_0
340
0
102
{BLKREFS
331
D4
102
}
  0
BLOCK_RECORD
  5
105
330
1
100
AcDbSymbolTableRecord
100
AcDbBlockTableRecord
  2
SW_NOTE_1
340
0
102
{BLKREFS
331
10A
102
}
  0
BLOCK_RECORD
  5
21F
330
1
100
AcDbSymbolTableRecord
100
AcDbBlockTableRecord
  2
_D
340
0
  0
BLOCK_RECORD
  5
229
330
1
100
AcDbSymbolTableRecord
100
AcDbBlockTableRecord
  2
_D_1
340
0
  0
BLOCK_RECORD
  5
234
330
1
100
AcDbSymbolTableRecord
100
AcDbBlockTableRecord
  2
_D_2
340
0
  0
BLOCK_RECORD
  5
23D
330
1
100
AcDbSymbolTableRecord
100
AcDbBlockTableRecord
  2
_D_3
340
0
  0
BLOCK_RECORD
  5
268
330
1
100
AcDbSymbolTableRecord
100
AcDbBlockTableRecord
  2
_D_4
340
0
  0
BLOCK_RECORD
  5
272
330
1
100
AcDbSymbolTableRecord
100
AcDbBlockTableRecord
  2
_D_5
340
0
  0
BLOCK_RECORD
  5
27C
330
1
100
AcDbSymbolTableRecord
100
AcDbBlockTableRecord
  2
_D_6
340
0
  0
BLOCK_RECORD
  5
286
330
1
100
AcDbSymbolTableRecord
100
AcDbBlockTableRecord
  2
_D_7
340
0
  0
BLOCK_RECORD
  5
290
330
1
100
AcDbSymbolTableRecord
100
AcDbBlockTableRecord
  2
_D_8
340
0
  0
BLOCK_RECORD
  5
29A
330
1
100
AcDbSymbolTableRecord
100
AcDbBlockTableRecord
  2
_D_9
340
0
  0
BLOCK_RECORD
  5
2A4
330
1
100
AcDbSymbolTableRecord
100
AcDbBlockTableRecord
  2
_D_10
340
0
  0
BLOCK_RECORD
  5
2AF
330
1
100
AcDbSymbolTableRecord
100
AcDbBlockTableRecord
  2
_D_11
340
0
  0
BLOCK_RECORD
  5
2BB
330
1
100
AcDbSymbolTableRecord
100
AcDbBlockTableRecord
  2
_D_12
340
0
  0
BLOCK_RECORD
  5
2C5
330
1
100
AcDbSymbolTableRecord
100
AcDbBlockTableRecord
  2
_D_13
340
0
  0
BLOCK_RECORD
  5
2CF
330
1
100
AcDbSymbolTableRecord
100
AcDbBlockTableRecord
  2
_D_14
340
0
  0
BLOCK_RECORD
  5
2D9
330
1
100
AcDbSymbolTableRecord
100
AcDbBlockTableRecord
  2
_D_15
340
0
  0
BLOCK_RECORD
  5
2E3
330
1
100
AcDbSymbolTableRecord
100
AcDbBlockTableRecord
  2
_D_16
340
0
  0
BLOCK_RECORD
  5
2EC
330
1
100
AcDbSymbolTableRecord
100
AcDbBlockTableRecord
  2
SW_NOTE_2
340
0
102
{BLKREFS
331
2F2
102
}
  0
BLOCK_RECORD
  5
2F5
330
1
100
AcDbSymbolTableRecord
100
AcDbBlockTableRecord
  2
SW_NOTE_3
340
0
102
{BLKREFS
331
2FB
102
}
  0
BLOCK_RECORD
  5
2FD
330
1
100
AcDbSymbolTableRecord
100
AcDbBlockTableRecord
  2
SW_CENTERMARKSYMBOL_0
340
0
102
{BLKREFS
331
308
102
}
  0
BLOCK_RECORD
  5
309
330
1
100
AcDbSymbolTableRecord
100
AcDbBlockTableRecord
  2
SW_CENTERMARKSYMBOL_1
340
0
102
{BLKREFS
331
314
102
}
  0
BLOCK_RECORD
  5
315
330
1
100
AcDbSymbolTableRecord
100
AcDbBlockTableRecord
  2
SW_CENTERMARKSYMBOL_2
340
0
102
{BLKREFS
331
320
102
}
  0
BLOCK_RECORD
  5
321
330
1
100
AcDbSymbolTableRecord
100
AcDbBlockTableRecord
  2
SW_CENTERMARKSYMBOL_3
340
0
102
{BLKREFS
331
32C
102
}
  0
BLOCK_RECORD
  5
32D
330
1
100
AcDbSymbolTableRecord
100
AcDbBlockTableRecord
  2
SW_CENTERMARKSYMBOL_4
340
0
102
{BLKREFS
331
338
102
}
  0
BLOCK_RECORD
  5
339
330
1
100
AcDbSymbolTableRecord
100
AcDbBlockTableRecord
  2
SW_CENTERMARKSYMBOL_5
340
0
102
{BLKREFS
331
344
102
}
  0
BLOCK_RECORD
  5
345
330
1
100
AcDbSymbolTableRecord
100
AcDbBlockTableRecord
  2
SW_CENTERMARKSYMBOL_6
340
0
102
{BLKREFS
331
350
102
}
  0
BLOCK_RECORD
  5
351
330
1
100
AcDbSymbolTableRecord
100
AcDbBlockTableRecord
  2
SW_CENTERMARKSYMBOL_7
340
0
102
{BLKREFS
331
35C
102
}
  0
BLOCK_RECORD
  5
35D
330
1
100
AcDbSymbolTableRecord
100
AcDbBlockTableRecord
  2
SW_CENTERMARKSYMBOL_8
340
0
102
{BLKREFS
331
368
102
}
  0
BLOCK_RECORD
  5
369
330
1
100
AcDbSymbolTableRecord
100
AcDbBlockTableRecord
  2
SW_CENTERMARKSYMBOL_9
340
0
102
{BLKREFS
331
374
102
}
  0
BLOCK_RECORD
  5
375
330
1
100
AcDbSymbolTableRecord
100
AcDbBlockTableRecord
  2
SW_CENTERMARKSYMBOL_10
340
0
102
{BLKREFS
331
380
102
}
  0
BLOCK_RECORD
  5
381
330
1
100
AcDbSymbolTableRecord
100
AcDbBlockTableRecord
  2
SW_CENTERMARKSYMBOL_11
340
0
102
{BLKREFS
331
38C
102
}
  0
BLOCK_RECORD
  5
3B2
330
1
100
AcDbSymbolTableRecord
100
AcDbBlockTableRecord
  2
_D_17
340
0
  0
BLOCK_RECORD
  5
3BE
330
1
100
AcDbSymbolTableRecord
100
AcDbBlockTableRecord
  2
_D_18
340
0
  0
BLOCK_RECORD
  5
3CA
330
1
100
AcDbSymbolTableRecord
100
AcDbBlockTableRecord
  2
_D_19
340
0
  0
BLOCK_RECORD
  5
3D3
330
1
100
AcDbSymbolTableRecord
100
AcDbBlockTableRecord
  2
SW_NOTE_4
340
0
102
{BLKREFS
331
3D8
102
}
  0
BLOCK_RECORD
  5
3DA
330
1
100
AcDbSymbolTableRecord
100
AcDbBlockTableRecord
  2
SW_CENTERMARKSYMBOL_12
340
0
102
{BLKREFS
331
3E5
102
}
  0
BLOCK_RECORD
  5
3FF
330
1
100
AcDbSymbolTableRecord
100
AcDbBlockTableRecord
  2
_D_20
340
0
  0
BLOCK_RECORD
  5
409
330
1
100
AcDbSymbolTableRecord
100
AcDbBlockTableRecord
  2
_D_21
340
0
  0
BLOCK_RECORD
  5
413
330
1
100
AcDbSymbolTableRecord
100
AcDbBlockTableRecord
  2
_D_22
340
0
  0
BLOCK_RECORD
  5
41D
330
1
100
AcDbSymbolTableRecord
100
AcDbBlockTableRecord
  2
_D_23
340
0
  0
BLOCK_RECORD
  5
427
330
1
100
AcDbSymbolTableRecord
100
AcDbBlockTableRecord
  2
_D_24
340
0
  0
BLOCK_RECORD
  5
431
330
1
100
AcDbSymbolTableRecord
100
AcDbBlockTableRecord
  2
_D_25
340
0
  0
BLOCK_RECORD
  5
43B
330
1
100
AcDbSymbolTableRecord
100
AcDbBlockTableRecord
  2
_D_26
340
0
  0
BLOCK_RECORD
  5
445
330
1
100
AcDbSymbolTableRecord
100
AcDbBlockTableRecord
  2
_D_27
340
0
  0
BLOCK_RECORD
  5
450
330
1
100
AcDbSymbolTableRecord
100
AcDbBlockTableRecord
  2
SW_NOTE_5
340
0
102
{BLKREFS
331
456
102
}
  0
BLOCK_RECORD
  5
458
330
1
100
AcDbSymbolTableRecord
100
AcDbBlockTableRecord
  2
SW_NOTE_6
340
0
102
{BLKREFS
331
45E
102
}
  0
BLOCK_RECORD
  5
460
330
1
100
AcDbSymbolTableRecord
100
AcDbBlockTableRecord
  2
SW_CENTERMARKSYMBOL_13
340
0
102
{BLKREFS
331
46B
102
}
  0
BLOCK_RECORD
  5
46C
330
1
100
AcDbSymbolTableRecord
100
AcDbBlockTableRecord
  2
SW_CENTERMARKSYMBOL_14
340
0
102
{BLKREFS
331
477
102
}
  0
BLOCK_RECORD
  5
478
330
1
100
AcDbSymbolTableRecord
100
AcDbBlockTableRecord
  2
SW_CENTERMARKSYMBOL_15
340
0
102
{BLKREFS
331
483
102
}
  0
BLOCK_RECORD
  5
484
330
1
100
AcDbSymbolTableRecord
100
AcDbBlockTableRecord
  2
SW_CENTERMARKSYMBOL_16
340
0
102
{BLKREFS
331
48F
102
}
  0
BLOCK_RECORD
  5
490
330
1
100
AcDbSymbolTableRecord
100
AcDbBlockTableRecord
  2
SW_CENTERMARKSYMBOL_17
340
0
102
{BLKREFS
331
49B
102
}
  0
BLOCK_RECORD
  5
49C
330
1
100
AcDbSymbolTableRecord
100
AcDbBlockTableRecord
  2
SW_CENTERMARKSYMBOL_18
340
0
102
{BLKREFS
331
4A7
102
}
  0
BLOCK_RECORD
  5
4A8
330
1
100
AcDbSymbolTableRecord
100
AcDbBlockTableRecord
  2
SW_CENTERMARKSYMBOL_19
340
0
102
{BLKREFS
331
4B3
102
}
  0
BLOCK_RECORD
  5
4DE
330
1
100
AcDbSymbolTableRecord
100
AcDbBlockTableRecord
  2
_D_28
340
0
  0
BLOCK_RECORD
  5
4E8
330
1
100
AcDbSymbolTableRecord
100
AcDbBlockTableRecord
  2
_D_29
340
0
  0
BLOCK_RECORD
  5
4F2
330
1
100
AcDbSymbolTableRecord
100
AcDbBlockTableRecord
  2
_D_30
340
0
  0
BLOCK_RECORD
  5
4FE
330
1
100
AcDbSymbolTableRecord
100
AcDbBlockTableRecord
  2
_D_31
340
0
  0
BLOCK_RECORD
  5
508
330
1
100
AcDbSymbolTableRecord
100
AcDbBlockTableRecord
  2
_D_32
340
0
  0
BLOCK_RECORD
  5
512
330
1
100
AcDbSymbolTableRecord
100
AcDbBlockTableRecord
  2
_D_33
340
0
  0
BLOCK_RECORD
  5
51C
330
1
100
AcDbSymbolTableRecord
100
AcDbBlockTableRecord
  2
_D_34
340
0
  0
BLOCK_RECORD
  5
525
330
1
100
AcDbSymbolTableRecord
100
AcDbBlockTableRecord
  2
SW_NOTE_7
340
0
102
{BLKREFS
331
52B
102
}
  0
BLOCK_RECORD
  5
52D
330
1
100
AcDbSymbolTableRecord
100
AcDbBlockTableRecord
  2
SW_NOTE_8
340
0
102
{BLKREFS
331
533
102
}
  0
BLOCK_RECORD
  5
535
330
1
100
AcDbSymbolTableRecord
100
AcDbBlockTableRecord
  2
SW_CENTERMARKSYMBOL_20
340
0
102
{BLKREFS
331
540
102
}
  0
BLOCK_RECORD
  5
541
330
1
100
AcDbSymbolTableRecord
100
AcDbBlockTableRecord
  2
SW_CENTERMARKSYMBOL_21
340
0
102
{BLKREFS
331
54C
102
}
  0
BLOCK_RECORD
  5
54D
330
1
100
AcDbSymbolTableRecord
100
AcDbBlockTableRecord
  2
SW_CENTERMARKSYMBOL_22
340
0
102
{BLKREFS
331
558
102
}
  0
BLOCK_RECORD
  5
559
330
1
100
AcDbSymbolTableRecord
100
AcDbBlockTableRecord
  2
SW_CENTERMARKSYMBOL_23
340
0
102
{BLKREFS
331
564
102
}
  0
BLOCK_RECORD
  5
565
330
1
100
AcDbSymbolTableRecord
100
AcDbBlockTableRecord
  2
SW_CENTERMARKSYMBOL_24
340
0
102
{BLKREFS
331
570
102
}
  0
BLOCK_RECORD
  5
571
330
1
100
AcDbSymbolTableRecord
100
AcDbBlockTableRecord
  2
SW_CENTERMARKSYMBOL_25
340
0
102
{BLKREFS
331
57C
102
}
  0
ENDTAB
  0
ENDSEC
  0
SECTION
  2
BLOCKS
  0
BLOCK
  5
20
330
1F
100
AcDbEntity
  8
0
100
AcDbBlockBegin
  2
*Model_Space
 70
     0
 10
0.0
 20
0.0
 30
0.0
  3
*Model_Space
  1

  0
ENDBLK
  5
21
330
1F
100
AcDbEntity
  8
0
100
AcDbBlockEnd
  0
BLOCK
  5
1C
330
1B
100
AcDbEntity
 67
     1
  8
0
100
AcDbBlockBegin
  2
*Paper_Space
 70
     0
 10
0.0
 20
0.0
 30
0.0
  3
*Paper_Space
  1

  0
ENDBLK
  5
1D
330
1B
100
AcDbEntity
 67
     1
  8
0
100
AcDbBlockEnd
  0
BLOCK
  5
24
330
23
100
AcDbEntity
  8
0
100
AcDbBlockBegin
  2
*Paper_Space0
 70
     0
 10
0.0
 20
0.0
 30
0.0
  3
*Paper_Space0
  1

  0
ENDBLK
  5
25
330
23
100
AcDbEntity
  8
0
100
AcDbBlockEnd
  0
BLOCK
  5
7D
330
7C
100
AcDbEntity
  8
0
100
AcDbBlockBegin
  2
圖塊6
 70
     0
 10
0.0
 20
0.0
 30
0.0
  3
圖塊6
  1

  0
ARC
  5
7F
330
7C
100
AcDbEntity
  8
圖層_1
 62
     7
370
    30
100
AcDbCircle
 10
3.8253860849
 20
15.2551707228
 30
0.0
 40
3.825386084859177
100
AcDbArc
 50
130.2115225915
 51
228.588904108
  0
ARC
  5
80
330
7C
100
AcDbEntity
  8
圖層_1
 62
     7
370
    30
100
AcDbCircle
 10
12.1272839953
 20
14.9873636037
 30
0.0
 40
6.443338567044052
100
AcDbArc
 50
140.4331765613
 51
251.0865666567
  0
ARC
  5
81
330
7C
100
AcDbEntity
  8
圖層_1
 62
     7
370
    30
100
AcDbCircle
 10
12.9412604956
 20
15.7793899282
 30
0.0
 40
7.474091644424656
100
AcDbArc
 50
247.1485306747
 51
309.6030773927
  0
LINE
  5
82
330
7C
100
AcDbEntity
  8
圖層_1
 62
     7
370
    30
100
AcDbLine
 10
4.6222443172
 20
21.3304564959
 30
0.0
 11
1.35567368
 21
18.1764888047
 31
0.0
  0
LINE
  5
83
330
7C
100
AcDbEntity
  8
圖層_1
 62
     7
370
    30
100
AcDbLine
 10
1.2950572249
 20
12.3861962442
 30
0.0
 11
11.3180630004
 21
3.6746866436
 31
0.0
  0
LINE
  5
84
330
7C
100
AcDbEntity
  8
圖層_1
 62
     7
370
    30
100
AcDbLine
 10
11.3180630004
 20
3.6746866436
 30
0.0
 11
9.7404331993
 21
2.1349356674
 31
0.0
  0
LINE
  5
85
330
7C
100
AcDbEntity
  8
圖層_1
 62
     7
370
    30
100
AcDbLine
 10
9.7404331993
 20
2.1349356674
 30
0.0
 11
12.2201316112
 21
0.0
 31
0.0
  0
LINE
  5
86
330
7C
100
AcDbEntity
  8
圖層_1
 62
     7
370
    30
100
AcDbLine
 10
20.2442926971
 20
7.7914449138
 30
0.0
 11
17.7057351179
 21
10.0207592331
 31
0.0
  0
LINE
  5
87
330
7C
100
AcDbEntity
  8
圖層_1
 62
     7
370
    30
100
AcDbLine
 10
7.1602289357
 20
19.0916267439
 30
0.0
 11
4.6222443172
 21
21.3304564959
 31
0.0
  0
LINE
  5
88
330
7C
100
AcDbEntity
  8
圖層_1
 62
     7
370
    30
100
AcDbLine
 10
12.2201316112
 20
0.0
 30
0.0
 11
20.2442926971
 21
7.7914449138
 31
0.0
  0
ENDBLK
  5
7E
330
7C
100
AcDbEntity
  8
0
100
AcDbBlockEnd
  0
BLOCK
  5
CF
330
CE
100
AcDbEntity
  8
0
100
AcDbBlockBegin
  2
SW_NOTE_0
 70
     0
 10
0.0
 20
0.0
 30
0.0
  3
SW_NOTE_0
  1

  0
MTEXT
  5
D1
330
CE
100
AcDbEntity
  8
0
  6
Continuous
 62
     0
370
     0
100
AcDbMText
 10
0.0
 20
8.526645987
 30
0.0
 40
6.6145833333
 41
0.0
 71
     1
 72
     1
  1
PROPRIETARY AND CONFIDENTIAL
  7
SLDTEXTSTYLE0
 73
     1
 44
1.0
  0
MTEXT
  5
D2
330
CE
100
AcDbEntity
  8
0
  6
Continuous
 62
     0
370
     0
100
AcDbMText
 10
0.0
 20
-0.2049587001
 30
0.0
 40
4.6302083333
 41
0.0
 71
     1
 72
     1
  1
THE INFORMATION CONTAINED IN THIS DRAWING IS THE SOLE PROPERTY OF UNICE E-O SERVICES INC. ANY REPRODUCTION IN PART OR AS A WHOLE WITHOUT THE WRITTEN PERMISSION OF UNICE E-O SERVICES INC IS
  7
SLDTEXTSTYLE0
 73
     1
 44
1.0
  0
MTEXT
  5
D3
330
CE
100
AcDbEntity
  8
0
  6
Continuous
 62
     0
370
     0
100
AcDbMText
 10
0.0
 20
-6.3785697366
 30
0.0
 40
4.6302083333
 41
0.0
 71
     1
 72
     1
  1
PROHIBITED.
  7
SLDTEXTSTYLE0
 73
     1
 44
1.0
  0
ENDBLK
  5
D0
330
CE
100
AcDbEntity
  8
0
100
AcDbBlockEnd
  0
BLOCK
  5
106
330
105
100
AcDbEntity
  8
0
100
AcDbBlockBegin
  2
SW_NOTE_1
 70
     0
 10
0.0
 20
0.0
 30
0.0
  3
SW_NOTE_1
  1

  0
MTEXT
  5
108
330
105
100
AcDbEntity
  8
SLD-0
 62
     0
100
AcDbMText
 10
0.0
 20
5.1159875922
 30
0.0
 40
3.96875
 41
0.0
 71
     1
 72
     1
  1
No.5, Andong Rd., Chung Li District,
  7
SLDTEXTSTYLE0
 73
     1
 44
1.0
  0
MTEXT
  5
109
330
105
100
AcDbEntity
  8
SLD-0
 62
     0
100
AcDbMText
 10
0.0
 20
-0.1756790105
 30
0.0
 40
3.96875
 41
0.0
 71
     1
 72
     1
  1
Taoyuan City 32063, Taiwan, R.O.C.
  7
SLDTEXTSTYLE0
 73
     1
 44
1.0
  0
ENDBLK
  5
107
330
105
100
AcDbEntity
  8
0
100
AcDbBlockEnd
  0
BLOCK
  5
220
330
21F
100
AcDbEntity
  8
0
100
AcDbBlockBegin
  2
_D
 70
     0
 10
0.0
 20
0.0
 30
0.0
  3
_D
  1

  0
SOLID
  5
222
330
21F
100
AcDbEntity
  8
DIM
100
AcDbTrace
 10
131.9338103671
 20
258.7081452469
 30
0.0
 11
131.3088103671
 21
253.7081452469
 31
0.0
 12
132.5588103671
 22
253.7081452469
 32
0.0
 13
132.5588103671
 23
253.7081452469
 33
0.0
  0
SOLID
  5
223
330
21F
100
AcDbEntity
  8
DIM
100
AcDbTrace
 10
131.9338103671
 20
218.7081452469
 30
0.0
 11
132.5588103671
 21
223.7081452469
 31
0.0
 12
131.3088103671
 22
223.7081452469
 32
0.0
 13
131.3088103671
 23
223.7081452469
 33
0.0
  0
LINE
  5
224
330
21F
100
AcDbEntity
  8
DIM
100
AcDbLine
 10
146.9338103671
 20
258.7081452469
 30
0.0
 11
129.4338103671
 21
258.7081452469
 31
0.0
  0
LINE
  5
225
330
21F
100
AcDbEntity
  8
DIM
100
AcDbLine
 10
146.9338103671
 20
218.7081452469
 30
0.0
 11
129.4338103671
 21
218.7081452469
 31
0.0
  0
LINE
  5
226
330
21F
100
AcDbEntity
  8
DIM
100
AcDbLine
 10
131.9338103671
 20
258.7081452469
 30
0.0
 11
131.9338103671
 21
218.7081452469
 31
0.0
  0
MTEXT
  5
227
330
21F
100
AcDbEntity
  8
DIM
100
AcDbMText
 10
124.2598292698
 20
234.9819300287
 30
0.0
 40
5.953125
 41
0.0
 71
     1
 72
     1
  1
40
  7
SLDTEXTSTYLE1
 11
-1.059690869644414E-14
 21
1.0
 31
0.0
 73
     1
 44
1.0
  0
ENDBLK
  5
221
330
21F
100
AcDbEntity
  8
0
100
AcDbBlockEnd
  0
BLOCK
  5
22A
330
229
100
AcDbEntity
  8
0
100
AcDbBlockBegin
  2
_D_1
 70
     0
 10
0.0
 20
0.0
 30
0.0
  3
_D_1
  1

  0
SOLID
  5
22C
330
229
100
AcDbEntity
  8
DIM
100
AcDbTrace
 10
149.4338103671
 20
201.2081452469
 30
0.0
 11
154.4338103671
 21
200.5831452469
 31
0.0
 12
154.4338103671
 22
201.8331452469
 32
0.0
 13
154.4338103671
 23
201.8331452469
 33
0.0
  0
SOLID
  5
22D
330
229
100
AcDbEntity
  8
DIM
100
AcDbTrace
 10
499.4338103671
 20
201.2081452469
 30
0.0
 11
494.4338103671
 21
201.8331452469
 31
0.0
 12
494.4338103671
 22
200.5831452469
 32
0.0
 13
494.4338103671
 23
200.5831452469
 33
0.0
  0
LINE
  5
22E
330
229
100
AcDbEntity
  8
DIM
100
AcDbLine
 10
149.4338103671
 20
216.2081452469
 30
0.0
 11
149.4338103671
 21
198.7081452469
 31
0.0
  0
LINE
  5
22F
330
229
100
AcDbEntity
  8
DIM
100
AcDbLine
 10
499.4338103671
 20
221.2081452469
 30
0.0
 11
499.4338103671
 21
198.7081452469
 31
0.0
  0
LINE
  5
230
330
229
100
AcDbEntity
  8
DIM
100
AcDbLine
 10
149.4338103671
 20
201.2081452469
 30
0.0
 11
499.4338103671
 21
201.2081452469
 31
0.0
  0
MTEXT
  5
231
330
229
100
AcDbEntity
  8
DIM
100
AcDbMText
 10
318.8444872488
 20
208.8821263442
 30
0.0
 40
5.953125
 41
0.0
 71
     1
 72
     1
  1
350
  7
SLDTEXTSTYLE1
 73
     1
 44
1.0
  0
ENDBLK
  5
22B
330
229
100
AcDbEntity
  8
0
100
AcDbBlockEnd
  0
BLOCK
  5
235
330
234
100
AcDbEntity
  8
0
100
AcDbBlockBegin
  2
_D_2
 70
     0
 10
0.0
 20
0.0
 30
0.0
  3
_D_2
  1

  0
ARC
  5
237
330
234
100
AcDbEntity
  8
DIM
100
AcDbCircle
 10
421.6933642429
 20
368.7081452469
 30
0.0
 40
98.87415667240182
100
AcDbArc
 50
180.0
 51
202.0
  0
SOLID
  5
238
330
234
100
AcDbEntity
  8
DIM
100
AcDbTrace
 10
322.8192075705
 20
368.7081452469
 30
0.0
 11
322.3207092978
 21
363.6939529418
 31
0.0
 12
323.5703104274
 22
363.7255285149
 32
0.0
 13
323.5703104274
 23
363.7255285149
 33
0.0
  0
SOLID
  5
239
330
234
100
AcDbEntity
  8
DIM
100
AcDbTrace
 10
330.0188425424
 20
331.669234239
 30
0.0
 11
328.8487319041
 21
336.5704041089
 31
0.0
 12
327.6782934942
 22
336.1315716481
 32
0.0
 13
327.6782934942
 23
336.1315716481
 33
0.0
  0
LINE
  5
23A
330
234
100
AcDbEntity
  8
DIM
100
AcDbLine
 10
420.1652657886
 20
368.7081452469
 30
0.0
 11
320.3192075705
 21
368.7081452469
 31
0.0
  0
MTEXT
  5
23B
330
234
100
AcDbEntity
  8
DIM
100
AcDbMText
 10
331.2747897249
 20
355.9055782882
 30
0.0
 40
5.953125
 41
0.0
 71
     1
 72
     1
  1
22°
  7
SLDTEXTSTYLE1
 11
0.1908089953765329
 21
-0.9816271834476663
 31
0.0
 73
     1
 44
1.0
  0
ENDBLK
  5
236
330
234
100
AcDbEntity
  8
0
100
AcDbBlockEnd
  0
BLOCK
  5
23E
330
23D
100
AcDbEntity
  8
0
100
AcDbBlockBegin
  2
_D_3
 70
     0
 10
0.0
 20
0.0
 30
0.0
  3
_D_3
  1

  0
SOLID
  5
240
330
23D
100
AcDbEntity
  8
DIM
100
AcDbTrace
 10
516.9338103671
 20
368.7081452469
 30
0.0
 11
516.3088103671
 21
363.7081452469
 31
0.0
 12
517.5588103671
 22
363.7081452469
 32
0.0
 13
517.5588103671
 23
363.7081452469
 33
0.0
  0
SOLID
  5
241
330
23D
100
AcDbEntity
  8
DIM
100
AcDbTrace
 10
516.9338103671
 20
218.7081452469
 30
0.0
 11
517.5588103671
 21
223.7081452469
 31
0.0
 12
516.3088103671
 22
223.7081452469
 32
0.0
 13
516.3088103671
 23
223.7081452469
 33
0.0
  0
LINE
  5
242
330
23D
100
AcDbEntity
  8
DIM
100
AcDbLine
 10
501.9338103671
 20
368.7081452469
 30
0.0
 11
519.4338103671
 21
368.7081452469
 31
0.0
  0
LINE
  5
243
330
23D
100
AcDbEntity
  8
DIM
100
AcDbLine
 10
496.9338103671
 20
218.7081452469
 30
0.0
 11
519.4338103671
 21
218.7081452469
 31
0.0
  0
LINE
  5
244
330
23D
100
AcDbEntity
  8
DIM
100
AcDbLine
 10
516.9338103671
 20
368.7081452469
 30
0.0
 11
516.9338103671
 21
218.7081452469
 31
0.0
  0
MTEXT
  5
245
330
23D
100
AcDbEntity
  8
DIM
100
AcDbMText
 10
509.2598292698
 20
288.1188221286
 30
0.0
 40
5.953125
 41
0.0
 71
     1
 72
     1
  1
150
  7
SLDTEXTSTYLE1
 11
-1.059690869644414E-14
 21
1.0
 31
0.0
 73
     1
 44
1.0
  0
ENDBLK
  5
23F
330
23D
100
AcDbEntity
  8
0
100
AcDbBlockEnd
  0
BLOCK
  5
269
330
268
100
AcDbEntity
  8
0
100
AcDbBlockBegin
  2
_D_4
 70
     0
 10
0.0
 20
0.0
 30
0.0
  3
_D_4
  1

  0
SOLID
  5
26B
330
268
100
AcDbEntity
  8
DIM
100
AcDbTrace
 10
411.9338103671
 20
125.908583257
 30
0.0
 11
416.9338103671
 21
125.283583257
 31
0.0
 12
416.9338103671
 22
126.533583257
 32
0.0
 13
416.9338103671
 23
126.533583257
 33
0.0
  0
SOLID
  5
26C
330
268
100
AcDbEntity
  8
DIM
100
AcDbTrace
 10
499.4338103671
 20
125.908583257
 30
0.0
 11
494.4338103671
 21
126.533583257
 31
0.0
 12
494.4338103671
 22
125.283583257
 32
0.0
 13
494.4338103671
 23
125.283583257
 33
0.0
  0
LINE
  5
26D
330
268
100
AcDbEntity
  8
DIM
100
AcDbLine
 10
411.9338103671
 20
146.408583257
 30
0.0
 11
411.9338103671
 21
123.408583257
 31
0.0
  0
LINE
  5
26E
330
268
100
AcDbEntity
  8
DIM
100
AcDbLine
 10
499.4338103671
 20
141.908583257
 30
0.0
 11
499.4338103671
 21
123.408583257
 31
0.0
  0
LINE
  5
26F
330
268
100
AcDbEntity
  8
DIM
100
AcDbLine
 10
411.9338103671
 20
125.908583257
 30
0.0
 11
499.4338103671
 21
125.908583257
 31
0.0
  0
MTEXT
  5
270
330
268
100
AcDbEntity
  8
DIM
100
AcDbMText
 10
449.1629341719
 20
133.5825643543
 30
0.0
 40
5.953125
 41
0.0
 71
     1
 72
     1
  1
87.5
  7
SLDTEXTSTYLE1
 73
     1
 44
1.0
  0
ENDBLK
  5
26A
330
268
100
AcDbEntity
  8
0
100
AcDbBlockEnd
  0
BLOCK
  5
273
330
272
100
AcDbEntity
  8
0
100
AcDbBlockBegin
  2
_D_5
 70
     0
 10
0.0
 20
0.0
 30
0.0
  3
_D_5
  1

  0
SOLID
  5
275
330
272
100
AcDbEntity
  8
DIM
100
AcDbTrace
 10
411.9338103671
 20
125.908583257
 30
0.0
 11
406.9338103671
 21
126.533583257
 31
0.0
 12
406.9338103671
 22
125.283583257
 32
0.0
 13
406.9338103671
 23
125.283583257
 33
0.0
  0
SOLID
  5
276
330
272
100
AcDbEntity
  8
DIM
100
AcDbTrace
 10
386.9338103671
 20
125.908583257
 30
0.0
 11
391.9338103671
 21
125.283583257
 31
0.0
 12
391.9338103671
 22
126.533583257
 32
0.0
 13
391.9338103671
 23
126.533583257
 33
0.0
  0
LINE
  5
277
330
272
100
AcDbEntity
  8
DIM
100
AcDbLine
 10
411.9338103671
 20
146.408583257
 30
0.0
 11
411.9338103671
 21
123.408583257
 31
0.0
  0
LINE
  5
278
330
272
100
AcDbEntity
  8
DIM
100
AcDbLine
 10
386.9338103671
 20
146.408583257
 30
0.0
 11
386.9338103671
 21
123.408583257
 31
0.0
  0
LINE
  5
279
330
272
100
AcDbEntity
  8
DIM
100
AcDbLine
 10
411.9338103671
 20
125.908583257
 30
0.0
 11
386.9338103671
 21
125.908583257
 31
0.0
  0
MTEXT
  5
27A
330
272
100
AcDbEntity
  8
DIM
100
AcDbMText
 10
395.7075951489
 20
133.5825643543
 30
0.0
 40
5.953125
 41
0.0
 71
     1
 72
     1
  1
25
  7
SLDTEXTSTYLE1
 73
     1
 44
1.0
  0
ENDBLK
  5
274
330
272
100
AcDbEntity
  8
0
100
AcDbBlockEnd
  0
BLOCK
  5
27D
330
27C
100
AcDbEntity
  8
0
100
AcDbBlockBegin
  2
_D_6
 70
     0
 10
0.0
 20
0.0
 30
0.0
  3
_D_6
  1

  0
SOLID
  5
27F
330
27C
100
AcDbEntity
  8
DIM
100
AcDbTrace
 10
311.9338103671
 20
125.908583257
 30
0.0
 11
316.9338103671
 21
125.283583257
 31
0.0
 12
316.9338103671
 22
126.533583257
 32
0.0
 13
316.9338103671
 23
126.533583257
 33
0.0
  0
SOLID
  5
280
330
27C
100
AcDbEntity
  8
DIM
100
AcDbTrace
 10
386.9338103671
 20
125.908583257
 30
0.0
 11
381.9338103671
 21
126.533583257
 31
0.0
 12
381.9338103671
 22
125.283583257
 32
0.0
 13
381.9338103671
 23
125.283583257
 33
0.0
  0
LINE
  5
281
330
27C
100
AcDbEntity
  8
DIM
100
AcDbLine
 10
311.9338103671
 20
146.408583257
 30
0.0
 11
311.9338103671
 21
123.408583257
 31
0.0
  0
LINE
  5
282
330
27C
100
AcDbEntity
  8
DIM
100
AcDbLine
 10
386.9338103671
 20
146.408583257
 30
0.0
 11
386.9338103671
 21
123.408583257
 31
0.0
  0
LINE
  5
283
330
27C
100
AcDbEntity
  8
DIM
100
AcDbLine
 10
311.9338103671
 20
125.908583257
 30
0.0
 11
386.9338103671
 21
125.908583257
 31
0.0
  0
MTEXT
  5
284
330
27C
100
AcDbEntity
  8
DIM
100
AcDbMText
 10
345.7075951489
 20
133.5825643543
 30
0.0
 40
5.953125
 41
0.0
 71
     1
 72
     1
  1
75
  7
SLDTEXTSTYLE1
 73
     1
 44
1.0
  0
ENDBLK
  5
27E
330
27C
100
AcDbEntity
  8
0
100
AcDbBlockEnd
  0
BLOCK
  5
287
330
286
100
AcDbEntity
  8
0
100
AcDbBlockBegin
  2
_D_7
 70
     0
 10
0.0
 20
0.0
 30
0.0
  3
_D_7
  1

  0
SOLID
  5
289
330
286
100
AcDbEntity
  8
DIM
100
AcDbTrace
 10
311.9338103671
 20
125.908583257
 30
0.0
 11
306.9338103671
 21
126.533583257
 31
0.0
 12
306.9338103671
 22
125.283583257
 32
0.0
 13
306.9338103671
 23
125.283583257
 33
0.0
  0
SOLID
  5
28A
330
286
100
AcDbEntity
  8
DIM
100
AcDbTrace
 10
286.9338103671
 20
125.908583257
 30
0.0
 11
291.9338103671
 21
125.283583257
 31
0.0
 12
291.9338103671
 22
126.533583257
 32
0.0
 13
291.9338103671
 23
126.533583257
 33
0.0
  0
LINE
  5
28B
330
286
100
AcDbEntity
  8
DIM
100
AcDbLine
 10
311.9338103671
 20
146.408583257
 30
0.0
 11
311.9338103671
 21
123.408583257
 31
0.0
  0
LINE
  5
28C
330
286
100
AcDbEntity
  8
DIM
100
AcDbLine
 10
286.9338103671
 20
146.408583257
 30
0.0
 11
286.9338103671
 21
123.408583257
 31
0.0
  0
LINE
  5
28D
330
286
100
AcDbEntity
  8
DIM
100
AcDbLine
 10
311.9338103671
 20
125.908583257
 30
0.0
 11
286.9338103671
 21
125.908583257
 31
0.0
  0
MTEXT
  5
28E
330
286
100
AcDbEntity
  8
DIM
100
AcDbMText
 10
295.7075951489
 20
133.5825643543
 30
0.0
 40
5.953125
 41
0.0
 71
     1
 72
     1
  1
25
  7
SLDTEXTSTYLE1
 73
     1
 44
1.0
  0
ENDBLK
  5
288
330
286
100
AcDbEntity
  8
0
100
AcDbBlockEnd
  0
BLOCK
  5
291
330
290
100
AcDbEntity
  8
0
100
AcDbBlockBegin
  2
_D_8
 70
     0
 10
0.0
 20
0.0
 30
0.0
  3
_D_8
  1

  0
SOLID
  5
293
330
290
100
AcDbEntity
  8
DIM
100
AcDbTrace
 10
286.9338103671
 20
125.908583257
 30
0.0
 11
281.9338103671
 21
126.533583257
 31
0.0
 12
281.9338103671
 22
125.283583257
 32
0.0
 13
281.9338103671
 23
125.283583257
 33
0.0
  0
SOLID
  5
294
330
290
100
AcDbEntity
  8
DIM
100
AcDbTrace
 10
261.9338103671
 20
125.908583257
 30
0.0
 11
266.9338103671
 21
125.283583257
 31
0.0
 12
266.9338103671
 22
126.533583257
 32
0.0
 13
266.9338103671
 23
126.533583257
 33
0.0
  0
LINE
  5
295
330
290
100
AcDbEntity
  8
DIM
100
AcDbLine
 10
286.9338103671
 20
146.408583257
 30
0.0
 11
286.9338103671
 21
123.408583257
 31
0.0
  0
LINE
  5
296
330
290
100
AcDbEntity
  8
DIM
100
AcDbLine
 10
261.9338103671
 20
146.408583257
 30
0.0
 11
261.9338103671
 21
123.408583257
 31
0.0
  0
LINE
  5
297
330
290
100
AcDbEntity
  8
DIM
100
AcDbLine
 10
286.9338103671
 20
125.908583257
 30
0.0
 11
261.9338103671
 21
125.908583257
 31
0.0
  0
MTEXT
  5
298
330
290
100
AcDbEntity
  8
DIM
100
AcDbMText
 10
270.7075951489
 20
133.5825643543
 30
0.0
 40
5.953125
 41
0.0
 71
     1
 72
     1
  1
25
  7
SLDTEXTSTYLE1
 73
     1
 44
1.0
  0
ENDBLK
  5
292
330
290
100
AcDbEntity
  8
0
100
AcDbBlockEnd
  0
BLOCK
  5
29B
330
29A
100
AcDbEntity
  8
0
100
AcDbBlockBegin
  2
_D_9
 70
     0
 10
0.0
 20
0.0
 30
0.0
  3
_D_9
  1

  0
SOLID
  5
29D
330
29A
100
AcDbEntity
  8
DIM
100
AcDbTrace
 10
261.9338103671
 20
125.908583257
 30
0.0
 11
256.9338103671
 21
126.533583257
 31
0.0
 12
256.9338103671
 22
125.283583257
 32
0.0
 13
256.9338103671
 23
125.283583257
 33
0.0
  0
SOLID
  5
29E
330
29A
100
AcDbEntity
  8
DIM
100
AcDbTrace
 10
211.9338103671
 20
125.908583257
 30
0.0
 11
216.9338103671
 21
125.283583257
 31
0.0
 12
216.9338103671
 22
126.533583257
 32
0.0
 13
216.9338103671
 23
126.533583257
 33
0.0
  0
LINE
  5
29F
330
29A
100
AcDbEntity
  8
DIM
100
AcDbLine
 10
261.9338103671
 20
146.408583257
 30
0.0
 11
261.9338103671
 21
123.408583257
 31
0.0
  0
LINE
  5
2A0
330
29A
100
AcDbEntity
  8
DIM
100
AcDbLine
 10
211.9338103671
 20
146.408583257
 30
0.0
 11
211.9338103671
 21
123.408583257
 31
0.0
  0
LINE
  5
2A1
330
29A
100
AcDbEntity
  8
DIM
100
AcDbLine
 10
261.9338103671
 20
125.908583257
 30
0.0
 11
211.9338103671
 21
125.908583257
 31
0.0
  0
MTEXT
  5
2A2
330
29A
100
AcDbEntity
  8
DIM
100
AcDbMText
 10
233.2075951489
 20
133.5825643543
 30
0.0
 40
5.953125
 41
0.0
 71
     1
 72
     1
  1
50
  7
SLDTEXTSTYLE1
 73
     1
 44
1.0
  0
ENDBLK
  5
29C
330
29A
100
AcDbEntity
  8
0
100
AcDbBlockEnd
  0
BLOCK
  5
2A5
330
2A4
100
AcDbEntity
  8
0
100
AcDbBlockBegin
  2
_D_10
 70
     0
 10
0.0
 20
0.0
 30
0.0
  3
_D_10
  1

  0
SOLID
  5
2A7
330
2A4
100
AcDbEntity
  8
DIM
100
AcDbTrace
 10
186.9338103671
 20
125.908583257
 30
0.0
 11
191.9338103671
 21
125.283583257
 31
0.0
 12
191.9338103671
 22
126.533583257
 32
0.0
 13
191.9338103671
 23
126.533583257
 33
0.0
  0
SOLID
  5
2A8
330
2A4
100
AcDbEntity
  8
DIM
100
AcDbTrace
 10
211.9338103671
 20
125.908583257
 30
0.0
 11
206.9338103671
 21
126.533583257
 31
0.0
 12
206.9338103671
 22
125.283583257
 32
0.0
 13
206.9338103671
 23
125.283583257
 33
0.0
  0
LINE
  5
2A9
330
2A4
100
AcDbEntity
  8
DIM
100
AcDbLine
 10
186.9338103671
 20
146.408583257
 30
0.0
 11
186.9338103671
 21
123.408583257
 31
0.0
  0
LINE
  5
2AA
330
2A4
100
AcDbEntity
  8
DIM
100
AcDbLine
 10
211.9338103671
 20
146.408583257
 30
0.0
 11
211.9338103671
 21
123.408583257
 31
0.0
  0
LINE
  5
2AB
330
2A4
100
AcDbEntity
  8
DIM
100
AcDbLine
 10
186.9338103671
 20
125.908583257
 30
0.0
 11
211.9338103671
 21
125.908583257
 31
0.0
  0
MTEXT
  5
2AC
330
2A4
100
AcDbEntity
  8
DIM
100
AcDbMText
 10
195.7075951489
 20
133.5825643543
 30
0.0
 40
5.953125
 41
0.0
 71
     1
 72
     1
  1
25
  7
SLDTEXTSTYLE1
 73
     1
 44
1.0
  0
ENDBLK
  5
2A6
330
2A4
100
AcDbEntity
  8
0
100
AcDbBlockEnd
  0
BLOCK
  5
2B0
330
2AF
100
AcDbEntity
  8
0
100
AcDbBlockBegin
  2
_D_11
 70
     0
 10
0.0
 20
0.0
 30
0.0
  3
_D_11
  1

  0
SOLID
  5
2B2
330
2AF
100
AcDbEntity
  8
DIM
100
AcDbTrace
 10
516.9338103671
 20
152.408583257
 30
0.0
 11
516.3088103671
 21
147.408583257
 31
0.0
 12
517.5588103671
 22
147.408583257
 32
0.0
 13
517.5588103671
 23
147.408583257
 33
0.0
  0
SOLID
  5
2B3
330
2AF
100
AcDbEntity
  8
DIM
100
AcDbTrace
 10
516.9338103671
 20
161.408583257
 30
0.0
 11
517.5588103671
 21
166.408583257
 31
0.0
 12
516.3088103671
 22
166.408583257
 32
0.0
 13
516.3088103671
 23
166.408583257
 33
0.0
  0
LINE
  5
2B4
330
2AF
100
AcDbEntity
  8
DIM
100
AcDbLine
 10
417.9338103671
 20
152.408583257
 30
0.0
 11
519.4338103671
 21
152.408583257
 31
0.0
  0
LINE
  5
2B5
330
2AF
100
AcDbEntity
  8
DIM
100
AcDbLine
 10
500.9338103671
 20
161.408583257
 30
0.0
 11
519.4338103671
 21
161.408583257
 31
0.0
  0
LINE
  5
2B6
330
2AF
100
AcDbEntity
  8
DIM
100
AcDbLine
 10
516.9338103671
 20
152.408583257
 30
0.0
 11
516.9338103671
 21
144.908583257
 31
0.0
  0
LINE
  5
2B7
330
2AF
100
AcDbEntity
  8
DIM
100
AcDbLine
 10
516.9338103671
 20
152.408583257
 30
0.0
 11
516.9338103671
 21
161.408583257
 31
0.0
  0
LINE
  5
2B8
330
2AF
100
AcDbEntity
  8
DIM
100
AcDbLine
 10
516.9338103671
 20
161.408583257
 30
0.0
 11
516.9338103671
 21
168.908583257
 31
0.0
  0
MTEXT
  5
2B9
330
2AF
100
AcDbEntity
  8
DIM
100
AcDbMText
 10
509.2598292698
 20
155.0454756479
 30
0.0
 40
5.953125
 41
0.0
 71
     1
 72
     1
  1
9
  7
SLDTEXTSTYLE1
 11
6.123233995736766E-17
 21
1.0
 31
0.0
 73
     1
 44
1.0
  0
ENDBLK
  5
2B1
330
2AF
100
AcDbEntity
  8
0
100
AcDbBlockEnd
  0
BLOCK
  5
2BC
330
2BB
100
AcDbEntity
  8
0
100
AcDbBlockBegin
  2
_D_12
 70
     0
 10
0.0
 20
0.0
 30
0.0
  3
_D_12
  1

  0
SOLID
  5
2BE
330
2BB
100
AcDbEntity
  8
DIM
100
AcDbTrace
 10
399.4338103671
 20
178.908583257
 30
0.0
 11
404.4338103671
 21
178.283583257
 31
0.0
 12
404.4338103671
 22
179.533583257
 32
0.0
 13
404.4338103671
 23
179.533583257
 33
0.0
  0
SOLID
  5
2BF
330
2BB
100
AcDbEntity
  8
DIM
100
AcDbTrace
 10
499.4338103671
 20
178.908583257
 30
0.0
 11
494.4338103671
 21
179.533583257
 31
0.0
 12
494.4338103671
 22
178.283583257
 32
0.0
 13
494.4338103671
 23
178.283583257
 33
0.0
  0
LINE
  5
2C0
330
2BB
100
AcDbEntity
  8
DIM
100
AcDbLine
 10
399.4338103671
 20
159.208583257
 30
0.0
 11
399.4338103671
 21
181.408583257
 31
0.0
  0
LINE
  5
2C1
330
2BB
100
AcDbEntity
  8
DIM
100
AcDbLine
 10
499.4338103671
 20
162.908583257
 30
0.0
 11
499.4338103671
 21
181.408583257
 31
0.0
  0
LINE
  5
2C2
330
2BB
100
AcDbEntity
  8
DIM
100
AcDbLine
 10
399.4338103671
 20
178.908583257
 30
0.0
 11
499.4338103671
 21
178.908583257
 31
0.0
  0
MTEXT
  5
2C3
330
2BB
100
AcDbEntity
  8
DIM
100
AcDbMText
 10
443.8444872488
 20
186.5825643543
 30
0.0
 40
5.953125
 41
0.0
 71
     1
 72
     1
  1
100
  7
SLDTEXTSTYLE1
 73
     1
 44
1.0
  0
ENDBLK
  5
2BD
330
2BB
100
AcDbEntity
  8
0
100
AcDbBlockEnd
  0
BLOCK
  5
2C6
330
2C5
100
AcDbEntity
  8
0
100
AcDbBlockBegin
  2
_D_13
 70
     0
 10
0.0
 20
0.0
 30
0.0
  3
_D_13
  1

  0
SOLID
  5
2C8
330
2C5
100
AcDbEntity
  8
DIM
100
AcDbTrace
 10
399.4338103671
 20
178.908583257
 30
0.0
 11
394.4338103671
 21
179.533583257
 31
0.0
 12
394.4338103671
 22
178.283583257
 32
0.0
 13
394.4338103671
 23
178.283583257
 33
0.0
  0
SOLID
  5
2C9
330
2C5
100
AcDbEntity
  8
DIM
100
AcDbTrace
 10
374.4338103671
 20
178.908583257
 30
0.0
 11
379.4338103671
 21
178.283583257
 31
0.0
 12
379.4338103671
 22
179.533583257
 32
0.0
 13
379.4338103671
 23
179.533583257
 33
0.0
  0
LINE
  5
2CA
330
2C5
100
AcDbEntity
  8
DIM
100
AcDbLine
 10
399.4338103671
 20
159.208583257
 30
0.0
 11
399.4338103671
 21
181.408583257
 31
0.0
  0
LINE
  5
2CB
330
2C5
100
AcDbEntity
  8
DIM
100
AcDbLine
 10
374.4338103671
 20
159.208583257
 30
0.0
 11
374.4338103671
 21
181.408583257
 31
0.0
  0
LINE
  5
2CC
330
2C5
100
AcDbEntity
  8
DIM
100
AcDbLine
 10
399.4338103671
 20
178.908583257
 30
0.0
 11
374.4338103671
 21
178.908583257
 31
0.0
  0
MTEXT
  5
2CD
330
2C5
100
AcDbEntity
  8
DIM
100
AcDbMText
 10
383.2075951489
 20
186.5825643543
 30
0.0
 40
5.953125
 41
0.0
 71
     1
 72
     1
  1
25
  7
SLDTEXTSTYLE1
 73
     1
 44
1.0
  0
ENDBLK
  5
2C7
330
2C5
100
AcDbEntity
  8
0
100
AcDbBlockEnd
  0
BLOCK
  5
2D0
330
2CF
100
AcDbEntity
  8
0
100
AcDbBlockBegin
  2
_D_14
 70
     0
 10
0.0
 20
0.0
 30
0.0
  3
_D_14
  1

  0
SOLID
  5
2D2
330
2CF
100
AcDbEntity
  8
DIM
100
AcDbTrace
 10
324.4338103671
 20
178.908583257
 30
0.0
 11
329.4338103671
 21
178.283583257
 31
0.0
 12
329.4338103671
 22
179.533583257
 32
0.0
 13
329.4338103671
 23
179.533583257
 33
0.0
  0
SOLID
  5
2D3
330
2CF
100
AcDbEntity
  8
DIM
100
AcDbTrace
 10
374.4338103671
 20
178.908583257
 30
0.0
 11
369.4338103671
 21
179.533583257
 31
0.0
 12
369.4338103671
 22
178.283583257
 32
0.0
 13
369.4338103671
 23
178.283583257
 33
0.0
  0
LINE
  5
2D4
330
2CF
100
AcDbEntity
  8
DIM
100
AcDbLine
 10
324.4338103671
 20
159.208583257
 30
0.0
 11
324.4338103671
 21
181.408583257
 31
0.0
  0
LINE
  5
2D5
330
2CF
100
AcDbEntity
  8
DIM
100
AcDbLine
 10
374.4338103671
 20
159.208583257
 30
0.0
 11
374.4338103671
 21
181.408583257
 31
0.0
  0
LINE
  5
2D6
330
2CF
100
AcDbEntity
  8
DIM
100
AcDbLine
 10
324.4338103671
 20
178.908583257
 30
0.0
 11
374.4338103671
 21
178.908583257
 31
0.0
  0
MTEXT
  5
2D7
330
2CF
100
AcDbEntity
  8
DIM
100
AcDbMText
 10
345.7075951489
 20
186.5825643543
 30
0.0
 40
5.953125
 41
0.0
 71
     1
 72
     1
  1
50
  7
SLDTEXTSTYLE1
 73
     1
 44
1.0
  0
ENDBLK
  5
2D1
330
2CF
100
AcDbEntity
  8
0
100
AcDbBlockEnd
  0
BLOCK
  5
2DA
330
2D9
100
AcDbEntity
  8
0
100
AcDbBlockBegin
  2
_D_15
 70
     0
 10
0.0
 20
0.0
 30
0.0
  3
_D_15
  1

  0
SOLID
  5
2DC
330
2D9
100
AcDbEntity
  8
DIM
100
AcDbTrace
 10
324.4338103671
 20
178.908583257
 30
0.0
 11
319.4338103671
 21
179.533583257
 31
0.0
 12
319.4338103671
 22
178.283583257
 32
0.0
 13
319.4338103671
 23
178.283583257
 33
0.0
  0
SOLID
  5
2DD
330
2D9
100
AcDbEntity
  8
DIM
100
AcDbTrace
 10
299.4338103671
 20
178.908583257
 30
0.0
 11
304.4338103671
 21
178.283583257
 31
0.0
 12
304.4338103671
 22
179.533583257
 32
0.0
 13
304.4338103671
 23
179.533583257
 33
0.0
  0
LINE
  5
2DE
330
2D9
100
AcDbEntity
  8
DIM
100
AcDbLine
 10
324.4338103671
 20
159.208583257
 30
0.0
 11
324.4338103671
 21
181.408583257
 31
0.0
  0
LINE
  5
2DF
330
2D9
100
AcDbEntity
  8
DIM
100
AcDbLine
 10
299.4338103671
 20
159.208583257
 30
0.0
 11
299.4338103671
 21
181.408583257
 31
0.0
  0
LINE
  5
2E0
330
2D9
100
AcDbEntity
  8
DIM
100
AcDbLine
 10
324.4338103671
 20
178.908583257
 30
0.0
 11
299.4338103671
 21
178.908583257
 31
0.0
  0
MTEXT
  5
2E1
330
2D9
100
AcDbEntity
  8
DIM
100
AcDbMText
 10
308.2075951489
 20
186.5825643543
 30
0.0
 40
5.953125
 41
0.0
 71
     1
 72
     1
  1
25
  7
SLDTEXTSTYLE1
 73
     1
 44
1.0
  0
ENDBLK
  5
2DB
330
2D9
100
AcDbEntity
  8
0
100
AcDbBlockEnd
  0
BLOCK
  5
2E4
330
2E3
100
AcDbEntity
  8
0
100
AcDbBlockBegin
  2
_D_16
 70
     0
 10
0.0
 20
0.0
 30
0.0
  3
_D_16
  1

  0
SOLID
  5
2E6
330
2E3
100
AcDbEntity
  8
DIM
100
AcDbTrace
 10
274.4338103671
 20
178.908583257
 30
0.0
 11
279.4338103671
 21
178.283583257
 31
0.0
 12
279.4338103671
 22
179.533583257
 32
0.0
 13
279.4338103671
 23
179.533583257
 33
0.0
  0
SOLID
  5
2E7
330
2E3
100
AcDbEntity
  8
DIM
100
AcDbTrace
 10
299.4338103671
 20
178.908583257
 30
0.0
 11
294.4338103671
 21
179.533583257
 31
0.0
 12
294.4338103671
 22
178.283583257
 32
0.0
 13
294.4338103671
 23
178.283583257
 33
0.0
  0
LINE
  5
2E8
330
2E3
100
AcDbEntity
  8
DIM
100
AcDbLine
 10
274.4338103671
 20
159.208583257
 30
0.0
 11
274.4338103671
 21
181.408583257
 31
0.0
  0
LINE
  5
2E9
330
2E3
100
AcDbEntity
  8
DIM
100
AcDbLine
 10
299.4338103671
 20
159.208583257
 30
0.0
 11
299.4338103671
 21
181.408583257
 31
0.0
  0
LINE
  5
2EA
330
2E3
100
AcDbEntity
  8
DIM
100
AcDbLine
 10
274.4338103671
 20
178.908583257
 30
0.0
 11
299.4338103671
 21
178.908583257
 31
0.0
  0
MTEXT
  5
2EB
330
2E3
100
AcDbEntity
  8
DIM
100
AcDbMText
 10
283.2075951489
 20
186.5825643543
 30
0.0
 40
5.953125
 41
0.0
 71
     1
 72
     1
  1
25
  7
SLDTEXTSTYLE1
 73
     1
 44
1.0
  0
ENDBLK
  5
2E5
330
2E3
100
AcDbEntity
  8
0
100
AcDbBlockEnd
  0
BLOCK
  5
2ED
330
2EC
100
AcDbEntity
  8
0
100
AcDbBlockBegin
  2
SW_NOTE_2
 70
     0
 10
0.0
 20
0.0
 30
0.0
  3
SW_NOTE_2
  1

  0
LINE
  5
2EF
330
2EC
100
AcDbEntity
  8
DIM
 62
     0
100
AcDbLine
 10
-31.9508253661
 20
0.0
 30
0.0
 11
0.0
 21
0.0
 31
0.0
  0
MTEXT
  5
2F0
330
2EC
100
AcDbEntity
  8
DIM
 62
     0
100
AcDbMText
 10
-33.0647758497
 20
17.8973407021
 30
0.0
 40
5.953125
 41
0.0
 71
     1
 72
     1
  1
5 HOLES,
  7
SLDTEXTSTYLE1
 73
     1
 44
1.0
  0
MTEXT
  5
2F1
330
2EC
100
AcDbEntity
  8
DIM
 62
     0
100
AcDbMText
 10
-33.0647758497
 20
7.4598409704
 30
0.0
 40
5.953125
 41
0.0
 71
     1
 72
     1
  1
M6 CLR
  7
SLDTEXTSTYLE1
 73
     1
 44
1.0
  0
ENDBLK
  5
2EE
330
2EC
100
AcDbEntity
  8
0
100
AcDbBlockEnd
  0
BLOCK
  5
2F6
330
2F5
100
AcDbEntity
  8
0
100
AcDbBlockBegin
  2
SW_NOTE_3
 70
     0
 10
0.0
 20
0.0
 30
0.0
  3
SW_NOTE_3
  1

  0
LINE
  5
2F8
330
2F5
100
AcDbEntity
  8
DIM
 62
     0
100
AcDbLine
 10
-31.9508253661
 20
0.0
 30
0.0
 11
0.0
 21
0.0
 31
0.0
  0
MTEXT
  5
2F9
330
2F5
100
AcDbEntity
  8
DIM
 62
     0
100
AcDbMText
 10
-33.1815854057
 20
17.9170944658
 30
0.0
 40
5.953125
 41
0.0
 71
     1
 72
     1
  1
5 HOLES,
  7
SLDTEXTSTYLE1
 73
     1
 44
1.0
  0
MTEXT
  5
2FA
330
2F5
100
AcDbEntity
  8
DIM
 62
     0
100
AcDbMText
 10
-33.1815854057
 20
7.479594734
 30
0.0
 40
5.953125
 41
0.0
 71
     1
 72
     1
  1
M6
  7
SLDTEXTSTYLE1
 73
     1
 44
1.0
  0
ENDBLK
  5
2F7
330
2F5
100
AcDbEntity
  8
0
100
AcDbBlockEnd
  0
BLOCK
  5
2FE
330
2FD
100
AcDbEntity
  8
0
100
AcDbBlockBegin
  2
SW_CENTERMARKSYMBOL_0
 70
     0
 10
0.0
 20
0.0
 30
0.0
  3
SW_CENTERMARKSYMBOL_0
  1

  0
LINE
  5
300
330
2FD
100
AcDbEntity
  8
DIM
 62
     0
100
AcDbLine
 10
0.0
 20
0.0
 30
0.0
 11
0.0
 21
1.0
 31
0.0
  0
LINE
  5
301
330
2FD
100
AcDbEntity
  8
DIM
 62
     0
100
AcDbLine
 10
0.0
 20
0.0
 30
0.0
 11
-1.0
 21
0.0
 31
0.0
  0
LINE
  5
302
330
2FD
100
AcDbEntity
  8
DIM
 62
     0
100
AcDbLine
 10
0.0
 20
0.0
 30
0.0
 11
0.0
 21
-1.0
 31
0.0
  0
LINE
  5
303
330
2FD
100
AcDbEntity
  8
DIM
 62
     0
100
AcDbLine
 10
0.0
 20
0.0
 30
0.0
 11
1.0
 21
0.0
 31
0.0
  0
LINE
  5
304
330
2FD
100
AcDbEntity
  8
DIM
 62
     0
100
AcDbLine
 10
0.0
 20
2.0
 30
0.0
 11
0.0
 21
3.5
 31
0.0
  0
LINE
  5
305
330
2FD
100
AcDbEntity
  8
DIM
 62
     0
100
AcDbLine
 10
-2.0
 20
0.0
 30
0.0
 11
-3.5
 21
0.0
 31
0.0
  0
LINE
  5
306
330
2FD
100
AcDbEntity
  8
DIM
 62
     0
100
AcDbLine
 10
0.0
 20
-2.0
 30
0.0
 11
0.0
 21
-3.5
 31
0.0
  0
LINE
  5
307
330
2FD
100
AcDbEntity
  8
DIM
 62
     0
100
AcDbLine
 10
2.0
 20
0.0
 30
0.0
 11
3.5
 21
0.0
 31
0.0
  0
ENDBLK
  5
2FF
330
2FD
100
AcDbEntity
  8
0
100
AcDbBlockEnd
  0
BLOCK
  5
30A
330
309
100
AcDbEntity
  8
0
100
AcDbBlockBegin
  2
SW_CENTERMARKSYMBOL_1
 70
     0
 10
0.0
 20
0.0
 30
0.0
  3
SW_CENTERMARKSYMBOL_1
  1

  0
LINE
  5
30C
330
309
100
AcDbEntity
  8
DIM
 62
     0
100
AcDbLine
 10
0.0
 20
0.0
 30
0.0
 11
0.0
 21
1.0
 31
0.0
  0
LINE
  5
30D
330
309
100
AcDbEntity
  8
DIM
 62
     0
100
AcDbLine
 10
0.0
 20
0.0
 30
0.0
 11
-1.0
 21
0.0
 31
0.0
  0
LINE
  5
30E
330
309
100
AcDbEntity
  8
DIM
 62
     0
100
AcDbLine
 10
0.0
 20
0.0
 30
0.0
 11
0.0
 21
-1.0
 31
0.0
  0
LINE
  5
30F
330
309
100
AcDbEntity
  8
DIM
 62
     0
100
AcDbLine
 10
0.0
 20
0.0
 30
0.0
 11
1.0
 21
0.0
 31
0.0
  0
LINE
  5
310
330
309
100
AcDbEntity
  8
DIM
 62
     0
100
AcDbLine
 10
0.0
 20
2.0
 30
0.0
 11
0.0
 21
3.5
 31
0.0
  0
LINE
  5
311
330
309
100
AcDbEntity
  8
DIM
 62
     0
100
AcDbLine
 10
-2.0
 20
0.0
 30
0.0
 11
-3.5
 21
0.0
 31
0.0
  0
LINE
  5
312
330
309
100
AcDbEntity
  8
DIM
 62
     0
100
AcDbLine
 10
0.0
 20
-2.0
 30
0.0
 11
0.0
 21
-3.5
 31
0.0
  0
LINE
  5
313
330
309
100
AcDbEntity
  8
DIM
 62
     0
100
AcDbLine
 10
2.0
 20
0.0
 30
0.0
 11
3.5
 21
0.0
 31
0.0
  0
ENDBLK
  5
30B
330
309
100
AcDbEntity
  8
0
100
AcDbBlockEnd
  0
BLOCK
  5
316
330
315
100
AcDbEntity
  8
0
100
AcDbBlockBegin
  2
SW_CENTERMARKSYMBOL_2
 70
     0
 10
0.0
 20
0.0
 30
0.0
  3
SW_CENTERMARKSYMBOL_2
  1

  0
LINE
  5
318
330
315
100
AcDbEntity
  8
DIM
 62
     0
100
AcDbLine
 10
0.0
 20
0.0
 30
0.0
 11
0.0
 21
1.0
 31
0.0
  0
LINE
  5
319
330
315
100
AcDbEntity
  8
DIM
 62
     0
100
AcDbLine
 10
0.0
 20
0.0
 30
0.0
 11
-1.0
 21
0.0
 31
0.0
  0
LINE
  5
31A
330
315
100
AcDbEntity
  8
DIM
 62
     0
100
AcDbLine
 10
0.0
 20
0.0
 30
0.0
 11
0.0
 21
-1.0
 31
0.0
  0
LINE
  5
31B
330
315
100
AcDbEntity
  8
DIM
 62
     0
100
AcDbLine
 10
0.0
 20
0.0
 30
0.0
 11
1.0
 21
0.0
 31
0.0
  0
LINE
  5
31C
330
315
100
AcDbEntity
  8
DIM
 62
     0
100
AcDbLine
 10
0.0
 20
2.0
 30
0.0
 11
0.0
 21
3.5
 31
0.0
  0
LINE
  5
31D
330
315
100
AcDbEntity
  8
DIM
 62
     0
100
AcDbLine
 10
-2.0
 20
0.0
 30
0.0
 11
-3.5
 21
0.0
 31
0.0
  0
LINE
  5
31E
330
315
100
AcDbEntity
  8
DIM
 62
     0
100
AcDbLine
 10
0.0
 20
-2.0
 30
0.0
 11
0.0
 21
-3.5
 31
0.0
  0
LINE
  5
31F
330
315
100
AcDbEntity
  8
DIM
 62
     0
100
AcDbLine
 10
2.0
 20
0.0
 30
0.0
 11
3.5
 21
0.0
 31
0.0
  0
ENDBLK
  5
317
330
315
100
AcDbEntity
  8
0
100
AcDbBlockEnd
  0
BLOCK
  5
322
330
321
100
AcDbEntity
  8
0
100
AcDbBlockBegin
  2
SW_CENTERMARKSYMBOL_3
 70
     0
 10
0.0
 20
0.0
 30
0.0
  3
SW_CENTERMARKSYMBOL_3
  1

  0
LINE
  5
324
330
321
100
AcDbEntity
  8
DIM
 62
     0
100
AcDbLine
 10
0.0
 20
0.0
 30
0.0
 11
0.0
 21
1.0
 31
0.0
  0
LINE
  5
325
330
321
100
AcDbEntity
  8
DIM
 62
     0
100
AcDbLine
 10
0.0
 20
0.0
 30
0.0
 11
-1.0
 21
0.0
 31
0.0
  0
LINE
  5
326
330
321
100
AcDbEntity
  8
DIM
 62
     0
100
AcDbLine
 10
0.0
 20
0.0
 30
0.0
 11
0.0
 21
-1.0
 31
0.0
  0
LINE
  5
327
330
321
100
AcDbEntity
  8
DIM
 62
     0
100
AcDbLine
 10
0.0
 20
0.0
 30
0.0
 11
1.0
 21
0.0
 31
0.0
  0
LINE
  5
328
330
321
100
AcDbEntity
  8
DIM
 62
     0
100
AcDbLine
 10
0.0
 20
2.0
 30
0.0
 11
0.0
 21
4.3
 31
0.0
  0
LINE
  5
329
330
321
100
AcDbEntity
  8
DIM
 62
     0
100
AcDbLine
 10
-2.0
 20
0.0
 30
0.0
 11
-4.3
 21
0.0
 31
0.0
  0
LINE
  5
32A
330
321
100
AcDbEntity
  8
DIM
 62
     0
100
AcDbLine
 10
0.0
 20
-2.0
 30
0.0
 11
0.0
 21
-4.3
 31
0.0
  0
LINE
  5
32B
330
321
100
AcDbEntity
  8
DIM
 62
     0
100
AcDbLine
 10
2.0
 20
0.0
 30
0.0
 11
4.3
 21
0.0
 31
0.0
  0
ENDBLK
  5
323
330
321
100
AcDbEntity
  8
0
100
AcDbBlockEnd
  0
BLOCK
  5
32E
330
32D
100
AcDbEntity
  8
0
100
AcDbBlockBegin
  2
SW_CENTERMARKSYMBOL_4
 70
     0
 10
0.0
 20
0.0
 30
0.0
  3
SW_CENTERMARKSYMBOL_4
  1

  0
LINE
  5
330
330
32D
100
AcDbEntity
  8
DIM
 62
     0
100
AcDbLine
 10
0.0
 20
0.0
 30
0.0
 11
0.0
 21
1.0
 31
0.0
  0
LINE
  5
331
330
32D
100
AcDbEntity
  8
DIM
 62
     0
100
AcDbLine
 10
0.0
 20
0.0
 30
0.0
 11
-1.0
 21
0.0
 31
0.0
  0
LINE
  5
332
330
32D
100
AcDbEntity
  8
DIM
 62
     0
100
AcDbLine
 10
0.0
 20
0.0
 30
0.0
 11
0.0
 21
-1.0
 31
0.0
  0
LINE
  5
333
330
32D
100
AcDbEntity
  8
DIM
 62
     0
100
AcDbLine
 10
0.0
 20
0.0
 30
0.0
 11
1.0
 21
0.0
 31
0.0
  0
LINE
  5
334
330
32D
100
AcDbEntity
  8
DIM
 62
     0
100
AcDbLine
 10
0.0
 20
2.0
 30
0.0
 11
0.0
 21
3.5
 31
0.0
  0
LINE
  5
335
330
32D
100
AcDbEntity
  8
DIM
 62
     0
100
AcDbLine
 10
-2.0
 20
0.0
 30
0.0
 11
-3.5
 21
0.0
 31
0.0
  0
LINE
  5
336
330
32D
100
AcDbEntity
  8
DIM
 62
     0
100
AcDbLine
 10
0.0
 20
-2.0
 30
0.0
 11
0.0
 21
-3.5
 31
0.0
  0
LINE
  5
337
330
32D
100
AcDbEntity
  8
DIM
 62
     0
100
AcDbLine
 10
2.0
 20
0.0
 30
0.0
 11
3.5
 21
0.0
 31
0.0
  0
ENDBLK
  5
32F
330
32D
100
AcDbEntity
  8
0
100
AcDbBlockEnd
  0
BLOCK
  5
33A
330
339
100
AcDbEntity
  8
0
100
AcDbBlockBegin
  2
SW_CENTERMARKSYMBOL_5
 70
     0
 10
0.0
 20
0.0
 30
0.0
  3
SW_CENTERMARKSYMBOL_5
  1

  0
LINE
  5
33C
330
339
100
AcDbEntity
  8
DIM
 62
     0
100
AcDbLine
 10
0.0
 20
0.0
 30
0.0
 11
0.0
 21
1.0
 31
0.0
  0
LINE
  5
33D
330
339
100
AcDbEntity
  8
DIM
 62
     0
100
AcDbLine
 10
0.0
 20
0.0
 30
0.0
 11
-1.0
 21
0.0
 31
0.0
  0
LINE
  5
33E
330
339
100
AcDbEntity
  8
DIM
 62
     0
100
AcDbLine
 10
0.0
 20
0.0
 30
0.0
 11
0.0
 21
-1.0
 31
0.0
  0
LINE
  5
33F
330
339
100
AcDbEntity
  8
DIM
 62
     0
100
AcDbLine
 10
0.0
 20
0.0
 30
0.0
 11
1.0
 21
0.0
 31
0.0
  0
LINE
  5
340
330
339
100
AcDbEntity
  8
DIM
 62
     0
100
AcDbLine
 10
0.0
 20
2.0
 30
0.0
 11
0.0
 21
4.3
 31
0.0
  0
LINE
  5
341
330
339
100
AcDbEntity
  8
DIM
 62
     0
100
AcDbLine
 10
-2.0
 20
0.0
 30
0.0
 11
-4.3
 21
0.0
 31
0.0
  0
LINE
  5
342
330
339
100
AcDbEntity
  8
DIM
 62
     0
100
AcDbLine
 10
0.0
 20
-2.0
 30
0.0
 11
0.0
 21
-4.3
 31
0.0
  0
LINE
  5
343
330
339
100
AcDbEntity
  8
DIM
 62
     0
100
AcDbLine
 10
2.0
 20
0.0
 30
0.0
 11
4.3
 21
0.0
 31
0.0
  0
ENDBLK
  5
33B
330
339
100
AcDbEntity
  8
0
100
AcDbBlockEnd
  0
BLOCK
  5
346
330
345
100
AcDbEntity
  8
0
100
AcDbBlockBegin
  2
SW_CENTERMARKSYMBOL_6
 70
     0
 10
0.0
 20
0.0
 30
0.0
  3
SW_CENTERMARKSYMBOL_6
  1

  0
LINE
  5
348
330
345
100
AcDbEntity
  8
DIM
 62
     0
100
AcDbLine
 10
0.0
 20
0.0
 30
0.0
 11
0.0
 21
1.0
 31
0.0
  0
LINE
  5
349
330
345
100
AcDbEntity
  8
DIM
 62
     0
100
AcDbLine
 10
0.0
 20
0.0
 30
0.0
 11
-1.0
 21
0.0
 31
0.0
  0
LINE
  5
34A
330
345
100
AcDbEntity
  8
DIM
 62
     0
100
AcDbLine
 10
0.0
 20
0.0
 30
0.0
 11
0.0
 21
-1.0
 31
0.0
  0
LINE
  5
34B
330
345
100
AcDbEntity
  8
DIM
 62
     0
100
AcDbLine
 10
0.0
 20
0.0
 30
0.0
 11
1.0
 21
0.0
 31
0.0
  0
LINE
  5
34C
330
345
100
AcDbEntity
  8
DIM
 62
     0
100
AcDbLine
 10
0.0
 20
2.0
 30
0.0
 11
0.0
 21
3.5
 31
0.0
  0
LINE
  5
34D
330
345
100
AcDbEntity
  8
DIM
 62
     0
100
AcDbLine
 10
-2.0
 20
0.0
 30
0.0
 11
-3.5
 21
0.0
 31
0.0
  0
LINE
  5
34E
330
345
100
AcDbEntity
  8
DIM
 62
     0
100
AcDbLine
 10
0.0
 20
-2.0
 30
0.0
 11
0.0
 21
-3.5
 31
0.0
  0
LINE
  5
34F
330
345
100
AcDbEntity
  8
DIM
 62
     0
100
AcDbLine
 10
2.0
 20
0.0
 30
0.0
 11
3.5
 21
0.0
 31
0.0
  0
ENDBLK
  5
347
330
345
100
AcDbEntity
  8
0
100
AcDbBlockEnd
  0
BLOCK
  5
352
330
351
100
AcDbEntity
  8
0
100
AcDbBlockBegin
  2
SW_CENTERMARKSYMBOL_7
 70
     0
 10
0.0
 20
0.0
 30
0.0
  3
SW_CENTERMARKSYMBOL_7
  1

  0
LINE
  5
354
330
351
100
AcDbEntity
  8
DIM
 62
     0
100
AcDbLine
 10
0.0
 20
0.0
 30
0.0
 11
0.0
 21
1.0
 31
0.0
  0
LINE
  5
355
330
351
100
AcDbEntity
  8
DIM
 62
     0
100
AcDbLine
 10
0.0
 20
0.0
 30
0.0
 11
-1.0
 21
0.0
 31
0.0
  0
LINE
  5
356
330
351
100
AcDbEntity
  8
DIM
 62
     0
100
AcDbLine
 10
0.0
 20
0.0
 30
0.0
 11
0.0
 21
-1.0
 31
0.0
  0
LINE
  5
357
330
351
100
AcDbEntity
  8
DIM
 62
     0
100
AcDbLine
 10
0.0
 20
0.0
 30
0.0
 11
1.0
 21
0.0
 31
0.0
  0
LINE
  5
358
330
351
100
AcDbEntity
  8
DIM
 62
     0
100
AcDbLine
 10
0.0
 20
2.0
 30
0.0
 11
0.0
 21
4.3
 31
0.0
  0
LINE
  5
359
330
351
100
AcDbEntity
  8
DIM
 62
     0
100
AcDbLine
 10
-2.0
 20
0.0
 30
0.0
 11
-4.3
 21
0.0
 31
0.0
  0
LINE
  5
35A
330
351
100
AcDbEntity
  8
DIM
 62
     0
100
AcDbLine
 10
0.0
 20
-2.0
 30
0.0
 11
0.0
 21
-4.3
 31
0.0
  0
LINE
  5
35B
330
351
100
AcDbEntity
  8
DIM
 62
     0
100
AcDbLine
 10
2.0
 20
0.0
 30
0.0
 11
4.3
 21
0.0
 31
0.0
  0
ENDBLK
  5
353
330
351
100
AcDbEntity
  8
0
100
AcDbBlockEnd
  0
BLOCK
  5
35E
330
35D
100
AcDbEntity
  8
0
100
AcDbBlockBegin
  2
SW_CENTERMARKSYMBOL_8
 70
     0
 10
0.0
 20
0.0
 30
0.0
  3
SW_CENTERMARKSYMBOL_8
  1

  0
LINE
  5
360
330
35D
100
AcDbEntity
  8
DIM
 62
     0
100
AcDbLine
 10
0.0
 20
0.0
 30
0.0
 11
0.0
 21
1.0
 31
0.0
  0
LINE
  5
361
330
35D
100
AcDbEntity
  8
DIM
 62
     0
100
AcDbLine
 10
0.0
 20
0.0
 30
0.0
 11
-1.0
 21
0.0
 31
0.0
  0
LINE
  5
362
330
35D
100
AcDbEntity
  8
DIM
 62
     0
100
AcDbLine
 10
0.0
 20
0.0
 30
0.0
 11
0.0
 21
-1.0
 31
0.0
  0
LINE
  5
363
330
35D
100
AcDbEntity
  8
DIM
 62
     0
100
AcDbLine
 10
0.0
 20
0.0
 30
0.0
 11
1.0
 21
0.0
 31
0.0
  0
LINE
  5
364
330
35D
100
AcDbEntity
  8
DIM
 62
     0
100
AcDbLine
 10
0.0
 20
2.0
 30
0.0
 11
0.0
 21
4.3
 31
0.0
  0
LINE
  5
365
330
35D
100
AcDbEntity
  8
DIM
 62
     0
100
AcDbLine
 10
-2.0
 20
0.0
 30
0.0
 11
-4.3
 21
0.0
 31
0.0
  0
LINE
  5
366
330
35D
100
AcDbEntity
  8
DIM
 62
     0
100
AcDbLine
 10
0.0
 20
-2.0
 30
0.0
 11
0.0
 21
-4.3
 31
0.0
  0
LINE
  5
367
330
35D
100
AcDbEntity
  8
DIM
 62
     0
100
AcDbLine
 10
2.0
 20
0.0
 30
0.0
 11
4.3
 21
0.0
 31
0.0
  0
ENDBLK
  5
35F
330
35D
100
AcDbEntity
  8
0
100
AcDbBlockEnd
  0
BLOCK
  5
36A
330
369
100
AcDbEntity
  8
0
100
AcDbBlockBegin
  2
SW_CENTERMARKSYMBOL_9
 70
     0
 10
0.0
 20
0.0
 30
0.0
  3
SW_CENTERMARKSYMBOL_9
  1

  0
LINE
  5
36C
330
369
100
AcDbEntity
  8
DIM
 62
     0
100
AcDbLine
 10
0.0
 20
0.0
 30
0.0
 11
0.0
 21
1.0
 31
0.0
  0
LINE
  5
36D
330
369
100
AcDbEntity
  8
DIM
 62
     0
100
AcDbLine
 10
0.0
 20
0.0
 30
0.0
 11
-1.0
 21
0.0
 31
0.0
  0
LINE
  5
36E
330
369
100
AcDbEntity
  8
DIM
 62
     0
100
AcDbLine
 10
0.0
 20
0.0
 30
0.0
 11
0.0
 21
-1.0
 31
0.0
  0
LINE
  5
36F
330
369
100
AcDbEntity
  8
DIM
 62
     0
100
AcDbLine
 10
0.0
 20
0.0
 30
0.0
 11
1.0
 21
0.0
 31
0.0
  0
LINE
  5
370
330
369
100
AcDbEntity
  8
DIM
 62
     0
100
AcDbLine
 10
0.0
 20
2.0
 30
0.0
 11
0.0
 21
3.5
 31
0.0
  0
LINE
  5
371
330
369
100
AcDbEntity
  8
DIM
 62
     0
100
AcDbLine
 10
-2.0
 20
0.0
 30
0.0
 11
-3.5
 21
0.0
 31
0.0
  0
LINE
  5
372
330
369
100
AcDbEntity
  8
DIM
 62
     0
100
AcDbLine
 10
0.0
 20
-2.0
 30
0.0
 11
0.0
 21
-3.5
 31
0.0
  0
LINE
  5
373
330
369
100
AcDbEntity
  8
DIM
 62
     0
100
AcDbLine
 10
2.0
 20
0.0
 30
0.0
 11
3.5
 21
0.0
 31
0.0
  0
ENDBLK
  5
36B
330
369
100
AcDbEntity
  8
0
100
AcDbBlockEnd
  0
BLOCK
  5
376
330
375
100
AcDbEntity
  8
0
100
AcDbBlockBegin
  2
SW_CENTERMARKSYMBOL_10
 70
     0
 10
0.0
 20
0.0
 30
0.0
  3
SW_CENTERMARKSYMBOL_10
  1

  0
LINE
  5
378
330
375
100
AcDbEntity
  8
DIM
 62
     0
100
AcDbLine
 10
0.0
 20
0.0
 30
0.0
 11
0.0
 21
1.0
 31
0.0
  0
LINE
  5
379
330
375
100
AcDbEntity
  8
DIM
 62
     0
100
AcDbLine
 10
0.0
 20
0.0
 30
0.0
 11
-1.0
 21
0.0
 31
0.0
  0
LINE
  5
37A
330
375
100
AcDbEntity
  8
DIM
 62
     0
100
AcDbLine
 10
0.0
 20
0.0
 30
0.0
 11
0.0
 21
-1.0
 31
0.0
  0
LINE
  5
37B
330
375
100
AcDbEntity
  8
DIM
 62
     0
100
AcDbLine
 10
0.0
 20
0.0
 30
0.0
 11
1.0
 21
0.0
 31
0.0
  0
LINE
  5
37C
330
375
100
AcDbEntity
  8
DIM
 62
     0
100
AcDbLine
 10
0.0
 20
2.0
 30
0.0
 11
0.0
 21
4.3
 31
0.0
  0
LINE
  5
37D
330
375
100
AcDbEntity
  8
DIM
 62
     0
100
AcDbLine
 10
-2.0
 20
0.0
 30
0.0
 11
-4.3
 21
0.0
 31
0.0
  0
LINE
  5
37E
330
375
100
AcDbEntity
  8
DIM
 62
     0
100
AcDbLine
 10
0.0
 20
-2.0
 30
0.0
 11
0.0
 21
-4.3
 31
0.0
  0
LINE
  5
37F
330
375
100
AcDbEntity
  8
DIM
 62
     0
100
AcDbLine
 10
2.0
 20
0.0
 30
0.0
 11
4.3
 21
0.0
 31
0.0
  0
ENDBLK
  5
377
330
375
100
AcDbEntity
  8
0
100
AcDbBlockEnd
  0
BLOCK
  5
382
330
381
100
AcDbEntity
  8
0
100
AcDbBlockBegin
  2
SW_CENTERMARKSYMBOL_11
 70
     0
 10
0.0
 20
0.0
 30
0.0
  3
SW_CENTERMARKSYMBOL_11
  1

  0
LINE
  5
384
330
381
100
AcDbEntity
  8
DIM
 62
     0
100
AcDbLine
 10
0.0
 20
0.0
 30
0.0
 11
0.0
 21
1.0
 31
0.0
  0
LINE
  5
385
330
381
100
AcDbEntity
  8
DIM
 62
     0
100
AcDbLine
 10
0.0
 20
0.0
 30
0.0
 11
-1.0
 21
0.0
 31
0.0
  0
LINE
  5
386
330
381
100
AcDbEntity
  8
DIM
 62
     0
100
AcDbLine
 10
0.0
 20
0.0
 30
0.0
 11
0.0
 21
-1.0
 31
0.0
  0
LINE
  5
387
330
381
100
AcDbEntity
  8
DIM
 62
     0
100
AcDbLine
 10
0.0
 20
0.0
 30
0.0
 11
1.0
 21
0.0
 31
0.0
  0
LINE
  5
388
330
381
100
AcDbEntity
  8
DIM
 62
     0
100
AcDbLine
 10
0.0
 20
2.0
 30
0.0
 11
0.0
 21
3.5
 31
0.0
  0
LINE
  5
389
330
381
100
AcDbEntity
  8
DIM
 62
     0
100
AcDbLine
 10
-2.0
 20
0.0
 30
0.0
 11
-3.5
 21
0.0
 31
0.0
  0
LINE
  5
38A
330
381
100
AcDbEntity
  8
DIM
 62
     0
100
AcDbLine
 10
0.0
 20
-2.0
 30
0.0
 11
0.0
 21
-3.5
 31
0.0
  0
LINE
  5
38B
330
381
100
AcDbEntity
  8
DIM
 62
     0
100
AcDbLine
 10
2.0
 20
0.0
 30
0.0
 11
3.5
 21
0.0
 31
0.0
  0
ENDBLK
  5
383
330
381
100
AcDbEntity
  8
0
100
AcDbBlockEnd
  0
BLOCK
  5
3B3
330
3B2
100
AcDbEntity
  8
0
100
AcDbBlockBegin
  2
_D_17
 70
     0
 10
0.0
 20
0.0
 30
0.0
  3
_D_17
  1

  0
SOLID
  5
3B5
330
3B2
100
AcDbEntity
  8
DIM
100
AcDbTrace
 10
90.5847127682
 20
201.2081452469
 30
0.0
 11
85.5847127682
 21
201.8331452469
 31
0.0
 12
85.5847127682
 22
200.5831452469
 32
0.0
 13
85.5847127682
 23
200.5831452469
 33
0.0
  0
SOLID
  5
3B6
330
3B2
100
AcDbEntity
  8
DIM
100
AcDbTrace
 10
99.5847127682
 20
201.2081452469
 30
0.0
 11
104.5847127682
 21
200.5831452469
 31
0.0
 12
104.5847127682
 22
201.8331452469
 32
0.0
 13
104.5847127682
 23
201.8331452469
 33
0.0
  0
LINE
  5
3B7
330
3B2
100
AcDbEntity
  8
DIM
100
AcDbLine
 10
90.5847127682
 20
225.2081452469
 30
0.0
 11
90.5847127682
 21
198.7081452469
 31
0.0
  0
LINE
  5
3B8
330
3B2
100
AcDbEntity
  8
DIM
100
AcDbLine
 10
99.5847127682
 20
217.2081452469
 30
0.0
 11
99.5847127682
 21
198.7081452469
 31
0.0
  0
LINE
  5
3B9
330
3B2
100
AcDbEntity
  8
DIM
100
AcDbLine
 10
90.5847127682
 20
201.2081452469
 30
0.0
 11
83.0847127682
 21
201.2081452469
 31
0.0
  0
LINE
  5
3BA
330
3B2
100
AcDbEntity
  8
DIM
100
AcDbLine
 10
90.5847127682
 20
201.2081452469
 30
0.0
 11
99.5847127682
 21
201.2081452469
 31
0.0
  0
LINE
  5
3BB
330
3B2
100
AcDbEntity
  8
DIM
100
AcDbLine
 10
99.5847127682
 20
201.2081452469
 30
0.0
 11
107.0847127682
 21
201.2081452469
 31
0.0
  0
MTEXT
  5
3BC
330
3B2
100
AcDbEntity
  8
DIM
100
AcDbMText
 10
93.2216051591
 20
208.8821263442
 30
0.0
 40
5.953125
 41
0.0
 71
     1
 72
     1
  1
9
  7
SLDTEXTSTYLE1
 73
     1
 44
1.0
  0
ENDBLK
  5
3B4
330
3B2
100
AcDbEntity
  8
0
100
AcDbBlockEnd
  0
BLOCK
  5
3BF
330
3BE
100
AcDbEntity
  8
0
100
AcDbBlockBegin
  2
_D_18
 70
     0
 10
0.0
 20
0.0
 30
0.0
  3
_D_18
  1

  0
SOLID
  5
3C1
330
3BE
100
AcDbEntity
  8
DIM
100
AcDbTrace
 10
64.0847127681
 20
231.2081452469
 30
0.0
 11
64.7097127681
 21
236.2081452469
 31
0.0
 12
63.4597127681
 22
236.2081452469
 32
0.0
 13
63.4597127681
 23
236.2081452469
 33
0.0
  0
SOLID
  5
3C2
330
3BE
100
AcDbEntity
  8
DIM
100
AcDbTrace
 10
64.0847127681
 20
218.7081452469
 30
0.0
 11
63.4597127681
 21
213.7081452469
 31
0.0
 12
64.7097127681
 22
213.7081452469
 32
0.0
 13
64.7097127681
 23
213.7081452469
 33
0.0
  0
LINE
  5
3C3
330
3BE
100
AcDbEntity
  8
DIM
100
AcDbLine
 10
84.5847127682
 20
231.2081452469
 30
0.0
 11
61.5847127681
 21
231.2081452469
 31
0.0
  0
LINE
  5
3C4
330
3BE
100
AcDbEntity
  8
DIM
100
AcDbLine
 10
80.0847127682
 20
218.7081452469
 30
0.0
 11
61.5847127681
 21
218.7081452469
 31
0.0
  0
LINE
  5
3C5
330
3BE
100
AcDbEntity
  8
DIM
100
AcDbLine
 10
64.0847127681
 20
231.2081452469
 30
0.0
 11
64.0847127681
 21
238.7081452469
 31
0.0
  0
LINE
  5
3C6
330
3BE
100
AcDbEntity
  8
DIM
100
AcDbLine
 10
64.0847127681
 20
231.2081452469
 30
0.0
 11
64.0847127681
 21
218.7081452469
 31
0.0
  0
LINE
  5
3C7
330
3BE
100
AcDbEntity
  8
DIM
100
AcDbLine
 10
64.0847127681
 20
218.7081452469
 30
0.0
 11
64.0847127681
 21
211.2081452469
 31
0.0
  0
MTEXT
  5
3C8
330
3BE
100
AcDbEntity
  8
DIM
100
AcDbMText
 10
56.4107316709
 20
218.4372690516
 30
0.0
 40
5.953125
 41
0.0
 71
     1
 72
     1
  1
12.5
  7
SLDTEXTSTYLE1
 11
-7.044195017643634E-15
 21
1.0
 31
0.0
 73
     1
 44
1.0
  0
ENDBLK
  5
3C0
330
3BE
100
AcDbEntity
  8
0
100
AcDbBlockEnd
  0
BLOCK
  5
3CB
330
3CA
100
AcDbEntity
  8
0
100
AcDbBlockBegin
  2
_D_19
 70
     0
 10
0.0
 20
0.0
 30
0.0
  3
_D_19
  1

  0
SOLID
  5
3CD
330
3CA
100
AcDbEntity
  8
DIM
100
AcDbTrace
 10
81.5847127681
 20
386.2081452469
 30
0.0
 11
86.5847127681
 21
385.5831452469
 31
0.0
 12
86.5847127681
 22
386.8331452469
 32
0.0
 13
86.5847127681
 23
386.8331452469
 33
0.0
  0
SOLID
  5
3CE
330
3CA
100
AcDbEntity
  8
DIM
100
AcDbTrace
 10
99.5847127682
 20
386.2081452469
 30
0.0
 11
94.5847127682
 21
386.8331452469
 31
0.0
 12
94.5847127682
 22
385.5831452469
 32
0.0
 13
94.5847127682
 23
385.5831452469
 33
0.0
  0
LINE
  5
3CF
330
3CA
100
AcDbEntity
  8
DIM
100
AcDbLine
 10
81.5847127682
 20
369.9168806652
 30
0.0
 11
81.5847127681
 21
388.7081452469
 31
0.0
  0
LINE
  5
3D0
330
3CA
100
AcDbEntity
  8
DIM
100
AcDbLine
 10
99.5847127682
 20
369.9168806652
 30
0.0
 11
99.5847127682
 21
388.7081452469
 31
0.0
  0
LINE
  5
3D1
330
3CA
100
AcDbEntity
  8
DIM
100
AcDbLine
 10
81.5847127681
 20
386.2081452469
 30
0.0
 11
99.5847127682
 21
386.2081452469
 31
0.0
  0
MTEXT
  5
3D2
330
3CA
100
AcDbEntity
  8
DIM
100
AcDbMText
 10
86.85849755
 20
393.8821263442
 30
0.0
 40
5.953125
 41
0.0
 71
     1
 72
     1
  1
18
  7
SLDTEXTSTYLE1
 73
     1
 44
1.0
  0
ENDBLK
  5
3CC
330
3CA
100
AcDbEntity
  8
0
100
AcDbBlockEnd
  0
BLOCK
  5
3D4
330
3D3
100
AcDbEntity
  8
0
100
AcDbBlockBegin
  2
SW_NOTE_4
 70
     0
 10
0.0
 20
0.0
 30
0.0
  3
SW_NOTE_4
  1

  0
LINE
  5
3D6
330
3D3
100
AcDbEntity
  8
DIM
 62
     0
100
AcDbLine
 10
-10.6408400526
 20
0.0
 30
0.0
 11
0.0
 21
0.0
 31
0.0
  0
MTEXT
  5
3D7
330
3D3
100
AcDbEntity
  8
DIM
 62
     0
100
AcDbMText
 10
-11.6525588714
 20
7.6275438061
 30
0.0
 40
5.953125
 41
0.0
 71
     1
 72
     1
  1
M6
  7
SLDTEXTSTYLE1
 73
     1
 44
1.0
  0
ENDBLK
  5
3D5
330
3D3
100
AcDbEntity
  8
0
100
AcDbBlockEnd
  0
BLOCK
  5
3DB
330
3DA
100
AcDbEntity
  8
0
100
AcDbBlockBegin
  2
SW_CENTERMARKSYMBOL_12
 70
     0
 10
0.0
 20
0.0
 30
0.0
  3
SW_CENTERMARKSYMBOL_12
  1

  0
LINE
  5
3DD
330
3DA
100
AcDbEntity
  8
DIM
 62
     0
100
AcDbLine
 10
0.0
 20
0.0
 30
0.0
 11
0.0
 21
1.0
 31
0.0
  0
LINE
  5
3DE
330
3DA
100
AcDbEntity
  8
DIM
 62
     0
100
AcDbLine
 10
0.0
 20
0.0
 30
0.0
 11
-1.0
 21
0.0
 31
0.0
  0
LINE
  5
3DF
330
3DA
100
AcDbEntity
  8
DIM
 62
     0
100
AcDbLine
 10
0.0
 20
0.0
 30
0.0
 11
0.0
 21
-1.0
 31
0.0
  0
LINE
  5
3E0
330
3DA
100
AcDbEntity
  8
DIM
 62
     0
100
AcDbLine
 10
0.0
 20
0.0
 30
0.0
 11
1.0
 21
0.0
 31
0.0
  0
LINE
  5
3E1
330
3DA
100
AcDbEntity
  8
DIM
 62
     0
100
AcDbLine
 10
0.0
 20
2.0
 30
0.0
 11
0.0
 21
3.5
 31
0.0
  0
LINE
  5
3E2
330
3DA
100
AcDbEntity
  8
DIM
 62
     0
100
AcDbLine
 10
-2.0
 20
0.0
 30
0.0
 11
-3.5
 21
0.0
 31
0.0
  0
LINE
  5
3E3
330
3DA
100
AcDbEntity
  8
DIM
 62
     0
100
AcDbLine
 10
0.0
 20
-2.0
 30
0.0
 11
0.0
 21
-3.5
 31
0.0
  0
LINE
  5
3E4
330
3DA
100
AcDbEntity
  8
DIM
 62
     0
100
AcDbLine
 10
2.0
 20
0.0
 30
0.0
 11
3.5
 21
0.0
 31
0.0
  0
ENDBLK
  5
3DC
330
3DA
100
AcDbEntity
  8
0
100
AcDbBlockEnd
  0
BLOCK
  5
400
330
3FF
100
AcDbEntity
  8
0
100
AcDbBlockBegin
  2
_D_20
 70
     0
 10
0.0
 20
0.0
 30
0.0
  3
_D_20
  1

  0
SOLID
  5
402
330
3FF
100
AcDbEntity
  8
DIM
100
AcDbTrace
 10
628.4519125431
 20
243.7081452469
 30
0.0
 11
627.8269125431
 21
238.7081452469
 31
0.0
 12
629.0769125431
 22
238.7081452469
 32
0.0
 13
629.0769125431
 23
238.7081452469
 33
0.0
  0
SOLID
  5
403
330
3FF
100
AcDbEntity
  8
DIM
100
AcDbTrace
 10
628.4519125431
 20
218.7081452469
 30
0.0
 11
629.0769125431
 21
223.7081452469
 31
0.0
 12
627.8269125431
 22
223.7081452469
 32
0.0
 13
627.8269125431
 23
223.7081452469
 33
0.0
  0
LINE
  5
404
330
3FF
100
AcDbEntity
  8
DIM
100
AcDbLine
 10
607.9519125431
 20
243.7081452469
 30
0.0
 11
630.9519125431
 21
243.7081452469
 31
0.0
  0
LINE
  5
405
330
3FF
100
AcDbEntity
  8
DIM
100
AcDbLine
 10
612.4519125431
 20
218.7081452469
 30
0.0
 11
630.9519125431
 21
218.7081452469
 31
0.0
  0
LINE
  5
406
330
3FF
100
AcDbEntity
  8
DIM
100
AcDbLine
 10
628.4519125431
 20
243.7081452469
 30
0.0
 11
628.4519125431
 21
218.7081452469
 31
0.0
  0
MTEXT
  5
407
330
3FF
100
AcDbEntity
  8
DIM
100
AcDbMText
 10
620.7779314458
 20
227.4819300287
 30
0.0
 40
5.953125
 41
0.0
 71
     1
 72
     1
  1
25
  7
SLDTEXTSTYLE1
 11
-7.044195017643634E-15
 21
1.0
 31
0.0
 73
     1
 44
1.0
  0
ENDBLK
  5
401
330
3FF
100
AcDbEntity
  8
0
100
AcDbBlockEnd
  0
BLOCK
  5
40A
330
409
100
AcDbEntity
  8
0
100
AcDbBlockBegin
  2
_D_21
 70
     0
 10
0.0
 20
0.0
 30
0.0
  3
_D_21
  1

  0
SOLID
  5
40C
330
409
100
AcDbEntity
  8
DIM
100
AcDbTrace
 10
628.4519125431
 20
293.7081452469
 30
0.0
 11
627.8269125431
 21
288.7081452469
 31
0.0
 12
629.0769125431
 22
288.7081452469
 32
0.0
 13
629.0769125431
 23
288.7081452469
 33
0.0
  0
SOLID
  5
40D
330
409
100
AcDbEntity
  8
DIM
100
AcDbTrace
 10
628.4519125431
 20
243.7081452469
 30
0.0
 11
629.0769125431
 21
248.7081452469
 31
0.0
 12
627.8269125431
 22
248.7081452469
 32
0.0
 13
627.8269125431
 23
248.7081452469
 33
0.0
  0
LINE
  5
40E
330
409
100
AcDbEntity
  8
DIM
100
AcDbLine
 10
607.9519125431
 20
293.7081452469
 30
0.0
 11
630.9519125431
 21
293.7081452469
 31
0.0
  0
LINE
  5
40F
330
409
100
AcDbEntity
  8
DIM
100
AcDbLine
 10
607.9519125431
 20
243.7081452469
 30
0.0
 11
630.9519125431
 21
243.7081452469
 31
0.0
  0
LINE
  5
410
330
409
100
AcDbEntity
  8
DIM
100
AcDbLine
 10
628.4519125431
 20
293.7081452469
 30
0.0
 11
628.4519125431
 21
243.7081452469
 31
0.0
  0
MTEXT
  5
411
330
409
100
AcDbEntity
  8
DIM
100
AcDbMText
 10
620.7779314458
 20
264.9819300287
 30
0.0
 40
5.953125
 41
0.0
 71
     1
 72
     1
  1
50
  7
SLDTEXTSTYLE1
 11
-7.044195017643634E-15
 21
1.0
 31
0.0
 73
     1
 44
1.0
  0
ENDBLK
  5
40B
330
409
100
AcDbEntity
  8
0
100
AcDbBlockEnd
  0
BLOCK
  5
414
330
413
100
AcDbEntity
  8
0
100
AcDbBlockBegin
  2
_D_22
 70
     0
 10
0.0
 20
0.0
 30
0.0
  3
_D_22
  1

  0
SOLID
  5
416
330
413
100
AcDbEntity
  8
DIM
100
AcDbTrace
 10
628.4519125431
 20
318.7081452469
 30
0.0
 11
627.8269125431
 21
313.7081452469
 31
0.0
 12
629.0769125431
 22
313.7081452469
 32
0.0
 13
629.0769125431
 23
313.7081452469
 33
0.0
  0
SOLID
  5
417
330
413
100
AcDbEntity
  8
DIM
100
AcDbTrace
 10
628.4519125431
 20
293.7081452469
 30
0.0
 11
629.0769125431
 21
298.7081452469
 31
0.0
 12
627.8269125431
 22
298.7081452469
 32
0.0
 13
627.8269125431
 23
298.7081452469
 33
0.0
  0
LINE
  5
418
330
413
100
AcDbEntity
  8
DIM
100
AcDbLine
 10
607.9519125431
 20
318.7081452469
 30
0.0
 11
630.9519125431
 21
318.7081452469
 31
0.0
  0
LINE
  5
419
330
413
100
AcDbEntity
  8
DIM
100
AcDbLine
 10
607.9519125431
 20
293.7081452469
 30
0.0
 11
630.9519125431
 21
293.7081452469
 31
0.0
  0
LINE
  5
41A
330
413
100
AcDbEntity
  8
DIM
100
AcDbLine
 10
628.4519125431
 20
318.7081452469
 30
0.0
 11
628.4519125431
 21
293.7081452469
 31
0.0
  0
MTEXT
  5
41B
330
413
100
AcDbEntity
  8
DIM
100
AcDbMText
 10
620.7779314458
 20
302.4819300287
 30
0.0
 40
5.953125
 41
0.0
 71
     1
 72
     1
  1
25
  7
SLDTEXTSTYLE1
 11
-7.044195017643634E-15
 21
1.0
 31
0.0
 73
     1
 44
1.0
  0
ENDBLK
  5
415
330
413
100
AcDbEntity
  8
0
100
AcDbBlockEnd
  0
BLOCK
  5
41E
330
41D
100
AcDbEntity
  8
0
100
AcDbBlockBegin
  2
_D_23
 70
     0
 10
0.0
 20
0.0
 30
0.0
  3
_D_23
  1

  0
SOLID
  5
420
330
41D
100
AcDbEntity
  8
DIM
100
AcDbTrace
 10
628.4519125431
 20
356.2081452469
 30
0.0
 11
627.8269125431
 21
351.2081452469
 31
0.0
 12
629.0769125431
 22
351.2081452469
 32
0.0
 13
629.0769125431
 23
351.2081452469
 33
0.0
  0
SOLID
  5
421
330
41D
100
AcDbEntity
  8
DIM
100
AcDbTrace
 10
628.4519125431
 20
318.7081452469
 30
0.0
 11
629.0769125431
 21
323.7081452469
 31
0.0
 12
627.8269125431
 22
323.7081452469
 32
0.0
 13
627.8269125431
 23
323.7081452469
 33
0.0
  0
LINE
  5
422
330
41D
100
AcDbEntity
  8
DIM
100
AcDbLine
 10
607.9519125431
 20
356.2081452469
 30
0.0
 11
630.9519125431
 21
356.2081452469
 31
0.0
  0
LINE
  5
423
330
41D
100
AcDbEntity
  8
DIM
100
AcDbLine
 10
607.9519125431
 20
318.7081452469
 30
0.0
 11
630.9519125431
 21
318.7081452469
 31
0.0
  0
LINE
  5
424
330
41D
100
AcDbEntity
  8
DIM
100
AcDbLine
 10
628.4519125431
 20
356.2081452469
 30
0.0
 11
628.4519125431
 21
318.7081452469
 31
0.0
  0
MTEXT
  5
425
330
41D
100
AcDbEntity
  8
DIM
100
AcDbMText
 10
620.7779314458
 20
330.9372690516
 30
0.0
 40
5.953125
 41
0.0
 71
     1
 72
     1
  1
37.5
  7
SLDTEXTSTYLE1
 11
-7.044195017643634E-15
 21
1.0
 31
0.0
 73
     1
 44
1.0
  0
ENDBLK
  5
41F
330
41D
100
AcDbEntity
  8
0
100
AcDbBlockEnd
  0
BLOCK
  5
428
330
427
100
AcDbEntity
  8
0
100
AcDbBlockBegin
  2
_D_24
 70
     0
 10
0.0
 20
0.0
 30
0.0
  3
_D_24
  1

  0
SOLID
  5
42A
330
427
100
AcDbEntity
  8
DIM
100
AcDbTrace
 10
575.4519125431
 20
281.2081452469
 30
0.0
 11
574.8269125431
 21
276.2081452469
 31
0.0
 12
576.0769125431
 22
276.2081452469
 32
0.0
 13
576.0769125431
 23
276.2081452469
 33
0.0
  0
SOLID
  5
42B
330
427
100
AcDbEntity
  8
DIM
100
AcDbTrace
 10
575.4519125431
 20
218.7081452469
 30
0.0
 11
576.0769125431
 21
223.7081452469
 31
0.0
 12
574.8269125431
 22
223.7081452469
 32
0.0
 13
574.8269125431
 23
223.7081452469
 33
0.0
  0
LINE
  5
42C
330
427
100
AcDbEntity
  8
DIM
100
AcDbLine
 10
595.1519125431
 20
281.2081452469
 30
0.0
 11
572.9519125431
 21
281.2081452469
 31
0.0
  0
LINE
  5
42D
330
427
100
AcDbEntity
  8
DIM
100
AcDbLine
 10
591.4519125431
 20
218.7081452469
 30
0.0
 11
572.9519125431
 21
218.7081452469
 31
0.0
  0
LINE
  5
42E
330
427
100
AcDbEntity
  8
DIM
100
AcDbLine
 10
575.4519125431
 20
281.2081452469
 30
0.0
 11
575.4519125431
 21
218.7081452469
 31
0.0
  0
MTEXT
  5
42F
330
427
100
AcDbEntity
  8
DIM
100
AcDbMText
 10
567.7779314458
 20
243.4372690516
 30
0.0
 40
5.953125
 41
0.0
 71
     1
 72
     1
  1
62.5
  7
SLDTEXTSTYLE1
 11
-7.044195017643634E-15
 21
1.0
 31
0.0
 73
     1
 44
1.0
  0
ENDBLK
  5
429
330
427
100
AcDbEntity
  8
0
100
AcDbBlockEnd
  0
BLOCK
  5
432
330
431
100
AcDbEntity
  8
0
100
AcDbBlockBegin
  2
_D_25
 70
     0
 10
0.0
 20
0.0
 30
0.0
  3
_D_25
  1

  0
SOLID
  5
434
330
431
100
AcDbEntity
  8
DIM
100
AcDbTrace
 10
575.4519125431
 20
306.2081452469
 30
0.0
 11
574.8269125431
 21
301.2081452469
 31
0.0
 12
576.0769125431
 22
301.2081452469
 32
0.0
 13
576.0769125431
 23
301.2081452469
 33
0.0
  0
SOLID
  5
435
330
431
100
AcDbEntity
  8
DIM
100
AcDbTrace
 10
575.4519125431
 20
281.2081452469
 30
0.0
 11
576.0769125431
 21
286.2081452469
 31
0.0
 12
574.8269125431
 22
286.2081452469
 32
0.0
 13
574.8269125431
 23
286.2081452469
 33
0.0
  0
LINE
  5
436
330
431
100
AcDbEntity
  8
DIM
100
AcDbLine
 10
595.1519125431
 20
306.2081452469
 30
0.0
 11
572.9519125431
 21
306.2081452469
 31
0.0
  0
LINE
  5
437
330
431
100
AcDbEntity
  8
DIM
100
AcDbLine
 10
595.1519125431
 20
281.2081452469
 30
0.0
 11
572.9519125431
 21
281.2081452469
 31
0.0
  0
LINE
  5
438
330
431
100
AcDbEntity
  8
DIM
100
AcDbLine
 10
575.4519125431
 20
306.2081452469
 30
0.0
 11
575.4519125431
 21
281.2081452469
 31
0.0
  0
MTEXT
  5
439
330
431
100
AcDbEntity
  8
DIM
100
AcDbMText
 10
567.7779314458
 20
289.9819300287
 30
0.0
 40
5.953125
 41
0.0
 71
     1
 72
     1
  1
25
  7
SLDTEXTSTYLE1
 11
-7.044195017643634E-15
 21
1.0
 31
0.0
 73
     1
 44
1.0
  0
ENDBLK
  5
433
330
431
100
AcDbEntity
  8
0
100
AcDbBlockEnd
  0
BLOCK
  5
43C
330
43B
100
AcDbEntity
  8
0
100
AcDbBlockBegin
  2
_D_26
 70
     0
 10
0.0
 20
0.0
 30
0.0
  3
_D_26
  1

  0
SOLID
  5
43E
330
43B
100
AcDbEntity
  8
DIM
100
AcDbTrace
 10
575.4519125431
 20
331.2081452469
 30
0.0
 11
574.8269125431
 21
326.2081452469
 31
0.0
 12
576.0769125431
 22
326.2081452469
 32
0.0
 13
576.0769125431
 23
326.2081452469
 33
0.0
  0
SOLID
  5
43F
330
43B
100
AcDbEntity
  8
DIM
100
AcDbTrace
 10
575.4519125431
 20
306.2081452469
 30
0.0
 11
576.0769125431
 21
311.2081452469
 31
0.0
 12
574.8269125431
 22
311.2081452469
 32
0.0
 13
574.8269125431
 23
311.2081452469
 33
0.0
  0
LINE
  5
440
330
43B
100
AcDbEntity
  8
DIM
100
AcDbLine
 10
595.1519125431
 20
331.2081452469
 30
0.0
 11
572.9519125431
 21
331.2081452469
 31
0.0
  0
LINE
  5
441
330
43B
100
AcDbEntity
  8
DIM
100
AcDbLine
 10
595.1519125431
 20
306.2081452469
 30
0.0
 11
572.9519125431
 21
306.2081452469
 31
0.0
  0
LINE
  5
442
330
43B
100
AcDbEntity
  8
DIM
100
AcDbLine
 10
575.4519125431
 20
331.2081452469
 30
0.0
 11
575.4519125431
 21
306.2081452469
 31
0.0
  0
MTEXT
  5
443
330
43B
100
AcDbEntity
  8
DIM
100
AcDbMText
 10
567.7779314458
 20
314.9819300287
 30
0.0
 40
5.953125
 41
0.0
 71
     1
 72
     1
  1
25
  7
SLDTEXTSTYLE1
 11
-7.044195017643634E-15
 21
1.0
 31
0.0
 73
     1
 44
1.0
  0
ENDBLK
  5
43D
330
43B
100
AcDbEntity
  8
0
100
AcDbBlockEnd
  0
BLOCK
  5
446
330
445
100
AcDbEntity
  8
0
100
AcDbBlockBegin
  2
_D_27
 70
     0
 10
0.0
 20
0.0
 30
0.0
  3
_D_27
  1

  0
SOLID
  5
448
330
445
100
AcDbEntity
  8
DIM
100
AcDbTrace
 10
601.9519125431
 20
201.2081452469
 30
0.0
 11
606.9519125431
 21
200.5831452469
 31
0.0
 12
606.9519125431
 22
201.8331452469
 32
0.0
 13
606.9519125431
 23
201.8331452469
 33
0.0
  0
SOLID
  5
449
330
445
100
AcDbEntity
  8
DIM
100
AcDbTrace
 10
592.9519125431
 20
201.2081452469
 30
0.0
 11
587.9519125431
 21
201.8331452469
 31
0.0
 12
587.9519125431
 22
200.5831452469
 32
0.0
 13
587.9519125431
 23
200.5831452469
 33
0.0
  0
LINE
  5
44A
330
445
100
AcDbEntity
  8
DIM
100
AcDbLine
 10
601.9519125431
 20
237.7081452469
 30
0.0
 11
601.9519125431
 21
198.7081452469
 31
0.0
  0
LINE
  5
44B
330
445
100
AcDbEntity
  8
DIM
100
AcDbLine
 10
592.9519125431
 20
217.2081452469
 30
0.0
 11
592.9519125431
 21
198.7081452469
 31
0.0
  0
LINE
  5
44C
330
445
100
AcDbEntity
  8
DIM
100
AcDbLine
 10
601.9519125431
 20
201.2081452469
 30
0.0
 11
609.4519125431
 21
201.2081452469
 31
0.0
  0
LINE
  5
44D
330
445
100
AcDbEntity
  8
DIM
100
AcDbLine
 10
601.9519125431
 20
201.2081452469
 30
0.0
 11
592.9519125431
 21
201.2081452469
 31
0.0
  0
LINE
  5
44E
330
445
100
AcDbEntity
  8
DIM
100
AcDbLine
 10
592.9519125431
 20
201.2081452469
 30
0.0
 11
585.4519125431
 21
201.2081452469
 31
0.0
  0
MTEXT
  5
44F
330
445
100
AcDbEntity
  8
DIM
100
AcDbMText
 10
595.588804934
 20
208.8821263442
 30
0.0
 40
5.953125
 41
0.0
 71
     1
 72
     1
  1
9
  7
SLDTEXTSTYLE1
 73
     1
 44
1.0
  0
ENDBLK
  5
447
330
445
100
AcDbEntity
  8
0
100
AcDbBlockEnd
  0
BLOCK
  5
451
330
450
100
AcDbEntity
  8
0
100
AcDbBlockBegin
  2
SW_NOTE_5
 70
     0
 10
0.0
 20
0.0
 30
0.0
  3
SW_NOTE_5
  1

  0
LINE
  5
453
330
450
100
AcDbEntity
  8
DIM
 62
     0
100
AcDbLine
 10
31.3727906841
 20
0.0
 30
0.0
 11
0.0
 21
0.0
 31
0.0
  0
MTEXT
  5
454
330
450
100
AcDbEntity
  8
DIM
 62
     0
100
AcDbMText
 10
1.0004646111
 20
17.9162267939
 30
0.0
 40
5.953125
 41
0.0
 71
     1
 72
     1
  1
4 HOLES,
  7
SLDTEXTSTYLE1
 73
     1
 44
1.0
  0
MTEXT
  5
455
330
450
100
AcDbEntity
  8
DIM
 62
     0
100
AcDbMText
 10
1.0004646111
 20
7.4787270621
 30
0.0
 40
5.953125
 41
0.0
 71
     1
 72
     1
  1
M6
  7
SLDTEXTSTYLE1
 73
     1
 44
1.0
  0
ENDBLK
  5
452
330
450
100
AcDbEntity
  8
0
100
AcDbBlockEnd
  0
BLOCK
  5
459
330
458
100
AcDbEntity
  8
0
100
AcDbBlockBegin
  2
SW_NOTE_6
 70
     0
 10
0.0
 20
0.0
 30
0.0
  3
SW_NOTE_6
  1

  0
LINE
  5
45B
330
458
100
AcDbEntity
  8
DIM
 62
     0
100
AcDbLine
 10
-31.9508253661
 20
0.0
 30
0.0
 11
0.0
 21
0.0
 31
0.0
  0
MTEXT
  5
45C
330
458
100
AcDbEntity
  8
DIM
 62
     0
100
AcDbMText
 10
-32.9518299117
 20
18.3446056697
 30
0.0
 40
5.953125
 41
0.0
 71
     1
 72
     1
  1
3 HOLES,
  7
SLDTEXTSTYLE1
 73
     1
 44
1.0
  0
MTEXT
  5
45D
330
458
100
AcDbEntity
  8
DIM
 62
     0
100
AcDbMText
 10
-32.9518299117
 20
7.9071059379
 30
0.0
 40
5.953125
 41
0.0
 71
     1
 72
     1
  1
M6 CLR
  7
SLDTEXTSTYLE1
 73
     1
 44
1.0
  0
ENDBLK
  5
45A
330
458
100
AcDbEntity
  8
0
100
AcDbBlockEnd
  0
BLOCK
  5
461
330
460
100
AcDbEntity
  8
0
100
AcDbBlockBegin
  2
SW_CENTERMARKSYMBOL_13
 70
     0
 10
0.0
 20
0.0
 30
0.0
  3
SW_CENTERMARKSYMBOL_13
  1

  0
LINE
  5
463
330
460
100
AcDbEntity
  8
DIM
 62
     0
100
AcDbLine
 10
0.0
 20
0.0
 30
0.0
 11
0.0
 21
1.0
 31
0.0
  0
LINE
  5
464
330
460
100
AcDbEntity
  8
DIM
 62
     0
100
AcDbLine
 10
0.0
 20
0.0
 30
0.0
 11
-1.0
 21
0.0
 31
0.0
  0
LINE
  5
465
330
460
100
AcDbEntity
  8
DIM
 62
     0
100
AcDbLine
 10
0.0
 20
0.0
 30
0.0
 11
0.0
 21
-1.0
 31
0.0
  0
LINE
  5
466
330
460
100
AcDbEntity
  8
DIM
 62
     0
100
AcDbLine
 10
0.0
 20
0.0
 30
0.0
 11
1.0
 21
0.0
 31
0.0
  0
LINE
  5
467
330
460
100
AcDbEntity
  8
DIM
 62
     0
100
AcDbLine
 10
0.0
 20
2.0
 30
0.0
 11
0.0
 21
3.5
 31
0.0
  0
LINE
  5
468
330
460
100
AcDbEntity
  8
DIM
 62
     0
100
AcDbLine
 10
-2.0
 20
0.0
 30
0.0
 11
-3.5
 21
0.0
 31
0.0
  0
LINE
  5
469
330
460
100
AcDbEntity
  8
DIM
 62
     0
100
AcDbLine
 10
0.0
 20
-2.0
 30
0.0
 11
0.0
 21
-3.5
 31
0.0
  0
LINE
  5
46A
330
460
100
AcDbEntity
  8
DIM
 62
     0
100
AcDbLine
 10
2.0
 20
0.0
 30
0.0
 11
3.5
 21
0.0
 31
0.0
  0
ENDBLK
  5
462
330
460
100
AcDbEntity
  8
0
100
AcDbBlockEnd
  0
BLOCK
  5
46D
330
46C
100
AcDbEntity
  8
0
100
AcDbBlockBegin
  2
SW_CENTERMARKSYMBOL_14
 70
     0
 10
0.0
 20
0.0
 30
0.0
  3
SW_CENTERMARKSYMBOL_14
  1

  0
LINE
  5
46F
330
46C
100
AcDbEntity
  8
DIM
 62
     0
100
AcDbLine
 10
0.0
 20
0.0
 30
0.0
 11
0.0
 21
1.0
 31
0.0
  0
LINE
  5
470
330
46C
100
AcDbEntity
  8
DIM
 62
     0
100
AcDbLine
 10
0.0
 20
0.0
 30
0.0
 11
-1.0
 21
0.0
 31
0.0
  0
LINE
  5
471
330
46C
100
AcDbEntity
  8
DIM
 62
     0
100
AcDbLine
 10
0.0
 20
0.0
 30
0.0
 11
0.0
 21
-1.0
 31
0.0
  0
LINE
  5
472
330
46C
100
AcDbEntity
  8
DIM
 62
     0
100
AcDbLine
 10
0.0
 20
0.0
 30
0.0
 11
1.0
 21
0.0
 31
0.0
  0
LINE
  5
473
330
46C
100
AcDbEntity
  8
DIM
 62
     0
100
AcDbLine
 10
0.0
 20
2.0
 30
0.0
 11
0.0
 21
4.3
 31
0.0
  0
LINE
  5
474
330
46C
100
AcDbEntity
  8
DIM
 62
     0
100
AcDbLine
 10
-2.0
 20
0.0
 30
0.0
 11
-4.3
 21
0.0
 31
0.0
  0
LINE
  5
475
330
46C
100
AcDbEntity
  8
DIM
 62
     0
100
AcDbLine
 10
0.0
 20
-2.0
 30
0.0
 11
0.0
 21
-4.3
 31
0.0
  0
LINE
  5
476
330
46C
100
AcDbEntity
  8
DIM
 62
     0
100
AcDbLine
 10
2.0
 20
0.0
 30
0.0
 11
4.3
 21
0.0
 31
0.0
  0
ENDBLK
  5
46E
330
46C
100
AcDbEntity
  8
0
100
AcDbBlockEnd
  0
BLOCK
  5
479
330
478
100
AcDbEntity
  8
0
100
AcDbBlockBegin
  2
SW_CENTERMARKSYMBOL_15
 70
     0
 10
0.0
 20
0.0
 30
0.0
  3
SW_CENTERMARKSYMBOL_15
  1

  0
LINE
  5
47B
330
478
100
AcDbEntity
  8
DIM
 62
     0
100
AcDbLine
 10
0.0
 20
0.0
 30
0.0
 11
0.0
 21
1.0
 31
0.0
  0
LINE
  5
47C
330
478
100
AcDbEntity
  8
DIM
 62
     0
100
AcDbLine
 10
0.0
 20
0.0
 30
0.0
 11
-1.0
 21
0.0
 31
0.0
  0
LINE
  5
47D
330
478
100
AcDbEntity
  8
DIM
 62
     0
100
AcDbLine
 10
0.0
 20
0.0
 30
0.0
 11
0.0
 21
-1.0
 31
0.0
  0
LINE
  5
47E
330
478
100
AcDbEntity
  8
DIM
 62
     0
100
AcDbLine
 10
0.0
 20
0.0
 30
0.0
 11
1.0
 21
0.0
 31
0.0
  0
LINE
  5
47F
330
478
100
AcDbEntity
  8
DIM
 62
     0
100
AcDbLine
 10
0.0
 20
2.0
 30
0.0
 11
0.0
 21
3.5
 31
0.0
  0
LINE
  5
480
330
478
100
AcDbEntity
  8
DIM
 62
     0
100
AcDbLine
 10
-2.0
 20
0.0
 30
0.0
 11
-3.5
 21
0.0
 31
0.0
  0
LINE
  5
481
330
478
100
AcDbEntity
  8
DIM
 62
     0
100
AcDbLine
 10
0.0
 20
-2.0
 30
0.0
 11
0.0
 21
-3.5
 31
0.0
  0
LINE
  5
482
330
478
100
AcDbEntity
  8
DIM
 62
     0
100
AcDbLine
 10
2.0
 20
0.0
 30
0.0
 11
3.5
 21
0.0
 31
0.0
  0
ENDBLK
  5
47A
330
478
100
AcDbEntity
  8
0
100
AcDbBlockEnd
  0
BLOCK
  5
485
330
484
100
AcDbEntity
  8
0
100
AcDbBlockBegin
  2
SW_CENTERMARKSYMBOL_16
 70
     0
 10
0.0
 20
0.0
 30
0.0
  3
SW_CENTERMARKSYMBOL_16
  1

  0
LINE
  5
487
330
484
100
AcDbEntity
  8
DIM
 62
     0
100
AcDbLine
 10
0.0
 20
0.0
 30
0.0
 11
0.0
 21
1.0
 31
0.0
  0
LINE
  5
488
330
484
100
AcDbEntity
  8
DIM
 62
     0
100
AcDbLine
 10
0.0
 20
0.0
 30
0.0
 11
-1.0
 21
0.0
 31
0.0
  0
LINE
  5
489
330
484
100
AcDbEntity
  8
DIM
 62
     0
100
AcDbLine
 10
0.0
 20
0.0
 30
0.0
 11
0.0
 21
-1.0
 31
0.0
  0
LINE
  5
48A
330
484
100
AcDbEntity
  8
DIM
 62
     0
100
AcDbLine
 10
0.0
 20
0.0
 30
0.0
 11
1.0
 21
0.0
 31
0.0
  0
LINE
  5
48B
330
484
100
AcDbEntity
  8
DIM
 62
     0
100
AcDbLine
 10
0.0
 20
2.0
 30
0.0
 11
0.0
 21
4.3
 31
0.0
  0
LINE
  5
48C
330
484
100
AcDbEntity
  8
DIM
 62
     0
100
AcDbLine
 10
-2.0
 20
0.0
 30
0.0
 11
-4.3
 21
0.0
 31
0.0
  0
LINE
  5
48D
330
484
100
AcDbEntity
  8
DIM
 62
     0
100
AcDbLine
 10
0.0
 20
-2.0
 30
0.0
 11
0.0
 21
-4.3
 31
0.0
  0
LINE
  5
48E
330
484
100
AcDbEntity
  8
DIM
 62
     0
100
AcDbLine
 10
2.0
 20
0.0
 30
0.0
 11
4.3
 21
0.0
 31
0.0
  0
ENDBLK
  5
486
330
484
100
AcDbEntity
  8
0
100
AcDbBlockEnd
  0
BLOCK
  5
491
330
490
100
AcDbEntity
  8
0
100
AcDbBlockBegin
  2
SW_CENTERMARKSYMBOL_17
 70
     0
 10
0.0
 20
0.0
 30
0.0
  3
SW_CENTERMARKSYMBOL_17
  1

  0
LINE
  5
493
330
490
100
AcDbEntity
  8
DIM
 62
     0
100
AcDbLine
 10
0.0
 20
0.0
 30
0.0
 11
0.0
 21
1.0
 31
0.0
  0
LINE
  5
494
330
490
100
AcDbEntity
  8
DIM
 62
     0
100
AcDbLine
 10
0.0
 20
0.0
 30
0.0
 11
-1.0
 21
0.0
 31
0.0
  0
LINE
  5
495
330
490
100
AcDbEntity
  8
DIM
 62
     0
100
AcDbLine
 10
0.0
 20
0.0
 30
0.0
 11
0.0
 21
-1.0
 31
0.0
  0
LINE
  5
496
330
490
100
AcDbEntity
  8
DIM
 62
     0
100
AcDbLine
 10
0.0
 20
0.0
 30
0.0
 11
1.0
 21
0.0
 31
0.0
  0
LINE
  5
497
330
490
100
AcDbEntity
  8
DIM
 62
     0
100
AcDbLine
 10
0.0
 20
2.0
 30
0.0
 11
0.0
 21
3.5
 31
0.0
  0
LINE
  5
498
330
490
100
AcDbEntity
  8
DIM
 62
     0
100
AcDbLine
 10
-2.0
 20
0.0
 30
0.0
 11
-3.5
 21
0.0
 31
0.0
  0
LINE
  5
499
330
490
100
AcDbEntity
  8
DIM
 62
     0
100
AcDbLine
 10
0.0
 20
-2.0
 30
0.0
 11
0.0
 21
-3.5
 31
0.0
  0
LINE
  5
49A
330
490
100
AcDbEntity
  8
DIM
 62
     0
100
AcDbLine
 10
2.0
 20
0.0
 30
0.0
 11
3.5
 21
0.0
 31
0.0
  0
ENDBLK
  5
492
330
490
100
AcDbEntity
  8
0
100
AcDbBlockEnd
  0
BLOCK
  5
49D
330
49C
100
AcDbEntity
  8
0
100
AcDbBlockBegin
  2
SW_CENTERMARKSYMBOL_18
 70
     0
 10
0.0
 20
0.0
 30
0.0
  3
SW_CENTERMARKSYMBOL_18
  1

  0
LINE
  5
49F
330
49C
100
AcDbEntity
  8
DIM
 62
     0
100
AcDbLine
 10
0.0
 20
0.0
 30
0.0
 11
0.0
 21
1.0
 31
0.0
  0
LINE
  5
4A0
330
49C
100
AcDbEntity
  8
DIM
 62
     0
100
AcDbLine
 10
0.0
 20
0.0
 30
0.0
 11
-1.0
 21
0.0
 31
0.0
  0
LINE
  5
4A1
330
49C
100
AcDbEntity
  8
DIM
 62
     0
100
AcDbLine
 10
0.0
 20
0.0
 30
0.0
 11
0.0
 21
-1.0
 31
0.0
  0
LINE
  5
4A2
330
49C
100
AcDbEntity
  8
DIM
 62
     0
100
AcDbLine
 10
0.0
 20
0.0
 30
0.0
 11
1.0
 21
0.0
 31
0.0
  0
LINE
  5
4A3
330
49C
100
AcDbEntity
  8
DIM
 62
     0
100
AcDbLine
 10
0.0
 20
2.0
 30
0.0
 11
0.0
 21
4.3
 31
0.0
  0
LINE
  5
4A4
330
49C
100
AcDbEntity
  8
DIM
 62
     0
100
AcDbLine
 10
-2.0
 20
0.0
 30
0.0
 11
-4.3
 21
0.0
 31
0.0
  0
LINE
  5
4A5
330
49C
100
AcDbEntity
  8
DIM
 62
     0
100
AcDbLine
 10
0.0
 20
-2.0
 30
0.0
 11
0.0
 21
-4.3
 31
0.0
  0
LINE
  5
4A6
330
49C
100
AcDbEntity
  8
DIM
 62
     0
100
AcDbLine
 10
2.0
 20
0.0
 30
0.0
 11
4.3
 21
0.0
 31
0.0
  0
ENDBLK
  5
49E
330
49C
100
AcDbEntity
  8
0
100
AcDbBlockEnd
  0
BLOCK
  5
4A9
330
4A8
100
AcDbEntity
  8
0
100
AcDbBlockBegin
  2
SW_CENTERMARKSYMBOL_19
 70
     0
 10
0.0
 20
0.0
 30
0.0
  3
SW_CENTERMARKSYMBOL_19
  1

  0
LINE
  5
4AB
330
4A8
100
AcDbEntity
  8
DIM
 62
     0
100
AcDbLine
 10
0.0
 20
0.0
 30
0.0
 11
0.0
 21
1.0
 31
0.0
  0
LINE
  5
4AC
330
4A8
100
AcDbEntity
  8
DIM
 62
     0
100
AcDbLine
 10
0.0
 20
0.0
 30
0.0
 11
-1.0
 21
0.0
 31
0.0
  0
LINE
  5
4AD
330
4A8
100
AcDbEntity
  8
DIM
 62
     0
100
AcDbLine
 10
0.0
 20
0.0
 30
0.0
 11
0.0
 21
-1.0
 31
0.0
  0
LINE
  5
4AE
330
4A8
100
AcDbEntity
  8
DIM
 62
     0
100
AcDbLine
 10
0.0
 20
0.0
 30
0.0
 11
1.0
 21
0.0
 31
0.0
  0
LINE
  5
4AF
330
4A8
100
AcDbEntity
  8
DIM
 62
     0
100
AcDbLine
 10
0.0
 20
2.0
 30
0.0
 11
0.0
 21
3.5
 31
0.0
  0
LINE
  5
4B0
330
4A8
100
AcDbEntity
  8
DIM
 62
     0
100
AcDbLine
 10
-2.0
 20
0.0
 30
0.0
 11
-3.5
 21
0.0
 31
0.0
  0
LINE
  5
4B1
330
4A8
100
AcDbEntity
  8
DIM
 62
     0
100
AcDbLine
 10
0.0
 20
-2.0
 30
0.0
 11
0.0
 21
-3.5
 31
0.0
  0
LINE
  5
4B2
330
4A8
100
AcDbEntity
  8
DIM
 62
     0
100
AcDbLine
 10
2.0
 20
0.0
 30
0.0
 11
3.5
 21
0.0
 31
0.0
  0
ENDBLK
  5
4AA
330
4A8
100
AcDbEntity
  8
0
100
AcDbBlockEnd
  0
BLOCK
  5
4DF
330
4DE
100
AcDbEntity
  8
0
100
AcDbBlockBegin
  2
_D_28
 70
     0
 10
0.0
 20
0.0
 30
0.0
  3
_D_28
  1

  0
SOLID
  5
4E1
330
4DE
100
AcDbEntity
  8
DIM
100
AcDbTrace
 10
474.4338103671
 20
449.0044311159
 30
0.0
 11
479.4338103671
 21
448.3794311159
 31
0.0
 12
479.4338103671
 22
449.6294311159
 32
0.0
 13
479.4338103671
 23
449.6294311159
 33
0.0
  0
SOLID
  5
4E2
330
4DE
100
AcDbEntity
  8
DIM
100
AcDbTrace
 10
499.4338103671
 20
449.0044311159
 30
0.0
 11
494.4338103671
 21
449.6294311159
 31
0.0
 12
494.4338103671
 22
448.3794311159
 32
0.0
 13
494.4338103671
 23
448.3794311159
 33
0.0
  0
LINE
  5
4E3
330
4DE
100
AcDbEntity
  8
DIM
100
AcDbLine
 10
474.4338103671
 20
428.5044311159
 30
0.0
 11
474.4338103671
 21
451.5044311159
 31
0.0
  0
LINE
  5
4E4
330
4DE
100
AcDbEntity
  8
DIM
100
AcDbLine
 10
499.4338103671
 20
433.0044311159
 30
0.0
 11
499.4338103671
 21
451.5044311159
 31
0.0
  0
LINE
  5
4E5
330
4DE
100
AcDbEntity
  8
DIM
100
AcDbLine
 10
474.4338103671
 20
449.0044311159
 30
0.0
 11
499.4338103671
 21
449.0044311159
 31
0.0
  0
MTEXT
  5
4E6
330
4DE
100
AcDbEntity
  8
DIM
100
AcDbMText
 10
483.2075951489
 20
456.6784122132
 30
0.0
 40
5.953125
 41
0.0
 71
     1
 72
     1
  1
25
  7
SLDTEXTSTYLE1
 73
     1
 44
1.0
  0
ENDBLK
  5
4E0
330
4DE
100
AcDbEntity
  8
0
100
AcDbBlockEnd
  0
BLOCK
  5
4E9
330
4E8
100
AcDbEntity
  8
0
100
AcDbBlockBegin
  2
_D_29
 70
     0
 10
0.0
 20
0.0
 30
0.0
  3
_D_29
  1

  0
SOLID
  5
4EB
330
4E8
100
AcDbEntity
  8
DIM
100
AcDbTrace
 10
474.4338103671
 20
449.0044311159
 30
0.0
 11
469.4338103671
 21
449.6294311159
 31
0.0
 12
469.4338103671
 22
448.3794311159
 32
0.0
 13
469.4338103671
 23
448.3794311159
 33
0.0
  0
SOLID
  5
4EC
330
4E8
100
AcDbEntity
  8
DIM
100
AcDbTrace
 10
449.4338103671
 20
449.0044311159
 30
0.0
 11
454.4338103671
 21
448.3794311159
 31
0.0
 12
454.4338103671
 22
449.6294311159
 32
0.0
 13
454.4338103671
 23
449.6294311159
 33
0.0
  0
LINE
  5
4ED
330
4E8
100
AcDbEntity
  8
DIM
100
AcDbLine
 10
474.4338103671
 20
428.5044311159
 30
0.0
 11
474.4338103671
 21
451.5044311159
 31
0.0
  0
LINE
  5
4EE
330
4E8
100
AcDbEntity
  8
DIM
100
AcDbLine
 10
449.4338103671
 20
428.5044311159
 30
0.0
 11
449.4338103671
 21
451.5044311159
 31
0.0
  0
LINE
  5
4EF
330
4E8
100
AcDbEntity
  8
DIM
100
AcDbLine
 10
474.4338103671
 20
449.0044311159
 30
0.0
 11
449.4338103671
 21
449.0044311159
 31
0.0
  0
MTEXT
  5
4F0
330
4E8
100
AcDbEntity
  8
DIM
100
AcDbMText
 10
458.2075951489
 20
456.6784122132
 30
0.0
 40
5.953125
 41
0.0
 71
     1
 72
     1
  1
25
  7
SLDTEXTSTYLE1
 73
     1
 44
1.0
  0
ENDBLK
  5
4EA
330
4E8
100
AcDbEntity
  8
0
100
AcDbBlockEnd
  0
BLOCK
  5
4F3
330
4F2
100
AcDbEntity
  8
0
100
AcDbBlockBegin
  2
_D_30
 70
     0
 10
0.0
 20
0.0
 30
0.0
  3
_D_30
  1

  0
SOLID
  5
4F5
330
4F2
100
AcDbEntity
  8
DIM
100
AcDbTrace
 10
516.9338103671
 20
422.5044311159
 30
0.0
 11
517.5588103671
 21
427.5044311159
 31
0.0
 12
516.3088103671
 22
427.5044311159
 32
0.0
 13
516.3088103671
 23
427.5044311159
 33
0.0
  0
SOLID
  5
4F6
330
4F2
100
AcDbEntity
  8
DIM
100
AcDbTrace
 10
516.9338103671
 20
413.5044311159
 30
0.0
 11
516.3088103671
 21
408.5044311159
 31
0.0
 12
517.5588103671
 22
408.5044311159
 32
0.0
 13
517.5588103671
 23
408.5044311159
 33
0.0
  0
LINE
  5
4F7
330
4F2
100
AcDbEntity
  8
DIM
100
AcDbLine
 10
480.4338103671
 20
422.5044311159
 30
0.0
 11
519.4338103671
 21
422.5044311159
 31
0.0
  0
LINE
  5
4F8
330
4F2
100
AcDbEntity
  8
DIM
100
AcDbLine
 10
500.9338103671
 20
413.5044311159
 30
0.0
 11
519.4338103671
 21
413.5044311159
 31
0.0
  0
LINE
  5
4F9
330
4F2
100
AcDbEntity
  8
DIM
100
AcDbLine
 10
516.9338103671
 20
422.5044311159
 30
0.0
 11
516.9338103671
 21
430.0044311159
 31
0.0
  0
LINE
  5
4FA
330
4F2
100
AcDbEntity
  8
DIM
100
AcDbLine
 10
516.9338103671
 20
422.5044311159
 30
0.0
 11
516.9338103671
 21
413.5044311159
 31
0.0
  0
LINE
  5
4FB
330
4F2
100
AcDbEntity
  8
DIM
100
AcDbLine
 10
516.9338103671
 20
413.5044311159
 30
0.0
 11
516.9338103671
 21
406.0044311159
 31
0.0
  0
MTEXT
  5
4FC
330
4F2
100
AcDbEntity
  8
DIM
100
AcDbMText
 10
509.2598292698
 20
416.1413235068
 30
0.0
 40
5.953125
 41
0.0
 71
     1
 72
     1
  1
9
  7
SLDTEXTSTYLE1
 11
-7.044195017643634E-15
 21
1.0
 31
0.0
 73
     1
 44
1.0
  0
ENDBLK
  5
4F4
330
4F2
100
AcDbEntity
  8
0
100
AcDbBlockEnd
  0
BLOCK
  5
4FF
330
4FE
100
AcDbEntity
  8
0
100
AcDbBlockBegin
  2
_D_31
 70
     0
 10
0.0
 20
0.0
 30
0.0
  3
_D_31
  1

  0
SOLID
  5
501
330
4FE
100
AcDbEntity
  8
DIM
100
AcDbTrace
 10
249.4338103671
 20
396.0044311159
 30
0.0
 11
254.4338103671
 21
395.3794311159
 31
0.0
 12
254.4338103671
 22
396.6294311159
 32
0.0
 13
254.4338103671
 23
396.6294311159
 33
0.0
  0
SOLID
  5
502
330
4FE
100
AcDbEntity
  8
DIM
100
AcDbTrace
 10
499.4338103671
 20
396.0044311159
 30
0.0
 11
494.4338103671
 21
396.6294311159
 31
0.0
 12
494.4338103671
 22
395.3794311159
 32
0.0
 13
494.4338103671
 23
395.3794311159
 33
0.0
  0
LINE
  5
503
330
4FE
100
AcDbEntity
  8
DIM
100
AcDbLine
 10
249.4338103671
 20
413.5044311159
 30
0.0
 11
249.4338103671
 21
393.5044311159
 31
0.0
  0
LINE
  5
504
330
4FE
100
AcDbEntity
  8
DIM
100
AcDbLine
 10
499.4338103671
 20
412.0044311159
 30
0.0
 11
499.4338103671
 21
393.5044311159
 31
0.0
  0
LINE
  5
505
330
4FE
100
AcDbEntity
  8
DIM
100
AcDbLine
 10
249.4338103671
 20
396.0044311159
 30
0.0
 11
499.4338103671
 21
396.0044311159
 31
0.0
  0
MTEXT
  5
506
330
4FE
100
AcDbEntity
  8
DIM
100
AcDbMText
 10
368.8444872488
 20
403.6784122132
 30
0.0
 40
5.953125
 41
0.0
 71
     1
 72
     1
  1
250
  7
SLDTEXTSTYLE1
 73
     1
 44
1.0
  0
ENDBLK
  5
500
330
4FE
100
AcDbEntity
  8
0
100
AcDbBlockEnd
  0
BLOCK
  5
509
330
508
100
AcDbEntity
  8
0
100
AcDbBlockBegin
  2
_D_32
 70
     0
 10
0.0
 20
0.0
 30
0.0
  3
_D_32
  1

  0
SOLID
  5
50B
330
508
100
AcDbEntity
  8
DIM
100
AcDbTrace
 10
249.4338103671
 20
396.0044311159
 30
0.0
 11
244.4338103671
 21
396.6294311159
 31
0.0
 12
244.4338103671
 22
395.3794311159
 32
0.0
 13
244.4338103671
 23
395.3794311159
 33
0.0
  0
SOLID
  5
50C
330
508
100
AcDbEntity
  8
DIM
100
AcDbTrace
 10
224.4338103671
 20
396.0044311159
 30
0.0
 11
229.4338103671
 21
395.3794311159
 31
0.0
 12
229.4338103671
 22
396.6294311159
 32
0.0
 13
229.4338103671
 23
396.6294311159
 33
0.0
  0
LINE
  5
50D
330
508
100
AcDbEntity
  8
DIM
100
AcDbLine
 10
249.4338103671
 20
413.5044311159
 30
0.0
 11
249.4338103671
 21
393.5044311159
 31
0.0
  0
LINE
  5
50E
330
508
100
AcDbEntity
  8
DIM
100
AcDbLine
 10
224.4338103671
 20
413.5044311159
 30
0.0
 11
224.4338103671
 21
393.5044311159
 31
0.0
  0
LINE
  5
50F
330
508
100
AcDbEntity
  8
DIM
100
AcDbLine
 10
249.4338103671
 20
396.0044311159
 30
0.0
 11
224.4338103671
 21
396.0044311159
 31
0.0
  0
MTEXT
  5
510
330
508
100
AcDbEntity
  8
DIM
100
AcDbMText
 10
233.2075951489
 20
403.6784122132
 30
0.0
 40
5.953125
 41
0.0
 71
     1
 72
     1
  1
25
  7
SLDTEXTSTYLE1
 73
     1
 44
1.0
  0
ENDBLK
  5
50A
330
508
100
AcDbEntity
  8
0
100
AcDbBlockEnd
  0
BLOCK
  5
513
330
512
100
AcDbEntity
  8
0
100
AcDbBlockBegin
  2
_D_33
 70
     0
 10
0.0
 20
0.0
 30
0.0
  3
_D_33
  1

  0
SOLID
  5
515
330
512
100
AcDbEntity
  8
DIM
100
AcDbTrace
 10
199.4338103671
 20
396.0044311159
 30
0.0
 11
204.4338103671
 21
395.3794311159
 31
0.0
 12
204.4338103671
 22
396.6294311159
 32
0.0
 13
204.4338103671
 23
396.6294311159
 33
0.0
  0
SOLID
  5
516
330
512
100
AcDbEntity
  8
DIM
100
AcDbTrace
 10
224.4338103671
 20
396.0044311159
 30
0.0
 11
219.4338103671
 21
396.6294311159
 31
0.0
 12
219.4338103671
 22
395.3794311159
 32
0.0
 13
219.4338103671
 23
395.3794311159
 33
0.0
  0
LINE
  5
517
330
512
100
AcDbEntity
  8
DIM
100
AcDbLine
 10
199.4338103671
 20
413.5044311159
 30
0.0
 11
199.4338103671
 21
393.5044311159
 31
0.0
  0
LINE
  5
518
330
512
100
AcDbEntity
  8
DIM
100
AcDbLine
 10
224.4338103671
 20
413.5044311159
 30
0.0
 11
224.4338103671
 21
393.5044311159
 31
0.0
  0
LINE
  5
519
330
512
100
AcDbEntity
  8
DIM
100
AcDbLine
 10
199.4338103671
 20
396.0044311159
 30
0.0
 11
224.4338103671
 21
396.0044311159
 31
0.0
  0
MTEXT
  5
51A
330
512
100
AcDbEntity
  8
DIM
100
AcDbMText
 10
208.2075951489
 20
403.6784122132
 30
0.0
 40
5.953125
 41
0.0
 71
     1
 72
     1
  1
25
  7
SLDTEXTSTYLE1
 73
     1
 44
1.0
  0
ENDBLK
  5
514
330
512
100
AcDbEntity
  8
0
100
AcDbBlockEnd
  0
BLOCK
  5
51D
330
51C
100
AcDbEntity
  8
0
100
AcDbBlockBegin
  2
_D_34
 70
     0
 10
0.0
 20
0.0
 30
0.0
  3
_D_34
  1

  0
SOLID
  5
51F
330
51C
100
AcDbEntity
  8
DIM
100
AcDbTrace
 10
174.4338103671
 20
396.0044311159
 30
0.0
 11
179.4338103671
 21
395.3794311159
 31
0.0
 12
179.4338103671
 22
396.6294311159
 32
0.0
 13
179.4338103671
 23
396.6294311159
 33
0.0
  0
SOLID
  5
520
330
51C
100
AcDbEntity
  8
DIM
100
AcDbTrace
 10
199.4338103671
 20
396.0044311159
 30
0.0
 11
194.4338103671
 21
396.6294311159
 31
0.0
 12
194.4338103671
 22
395.3794311159
 32
0.0
 13
194.4338103671
 23
395.3794311159
 33
0.0
  0
LINE
  5
521
330
51C
100
AcDbEntity
  8
DIM
100
AcDbLine
 10
174.4338103671
 20
413.5044311159
 30
0.0
 11
174.4338103671
 21
393.5044311159
 31
0.0
  0
LINE
  5
522
330
51C
100
AcDbEntity
  8
DIM
100
AcDbLine
 10
199.4338103671
 20
413.5044311159
 30
0.0
 11
199.4338103671
 21
393.5044311159
 31
0.0
  0
LINE
  5
523
330
51C
100
AcDbEntity
  8
DIM
100
AcDbLine
 10
174.4338103671
 20
396.0044311159
 30
0.0
 11
199.4338103671
 21
396.0044311159
 31
0.0
  0
MTEXT
  5
524
330
51C
100
AcDbEntity
  8
DIM
100
AcDbMText
 10
183.2075951489
 20
403.6784122132
 30
0.0
 40
5.953125
 41
0.0
 71
     1
 72
     1
  1
25
  7
SLDTEXTSTYLE1
 73
     1
 44
1.0
  0
ENDBLK
  5
51E
330
51C
100
AcDbEntity
  8
0
100
AcDbBlockEnd
  0
BLOCK
  5
526
330
525
100
AcDbEntity
  8
0
100
AcDbBlockBegin
  2
SW_NOTE_7
 70
     0
 10
0.0
 20
0.0
 30
0.0
  3
SW_NOTE_7
  1

  0
LINE
  5
528
330
525
100
AcDbEntity
  8
DIM
 62
     0
100
AcDbLine
 10
-31.9508253661
 20
0.0
 30
0.0
 11
0.0
 21
0.0
 31
0.0
  0
MTEXT
  5
529
330
525
100
AcDbEntity
  8
DIM
 62
     0
100
AcDbMText
 10
-32.9823099828
 20
18.2063435895
 30
0.0
 40
5.953125
 41
0.0
 71
     1
 72
     1
  1
2 HOLES,
  7
SLDTEXTSTYLE1
 73
     1
 44
1.0
  0
MTEXT
  5
52A
330
525
100
AcDbEntity
  8
DIM
 62
     0
100
AcDbMText
 10
-32.9823099828
 20
7.7688438578
 30
0.0
 40
5.953125
 41
0.0
 71
     1
 72
     1
  1
M6
  7
SLDTEXTSTYLE1
 73
     1
 44
1.0
  0
ENDBLK
  5
527
330
525
100
AcDbEntity
  8
0
100
AcDbBlockEnd
  0
BLOCK
  5
52E
330
52D
100
AcDbEntity
  8
0
100
AcDbBlockBegin
  2
SW_NOTE_8
 70
     0
 10
0.0
 20
0.0
 30
0.0
  3
SW_NOTE_8
  1

  0
LINE
  5
530
330
52D
100
AcDbEntity
  8
DIM
 62
     0
100
AcDbLine
 10
31.3727906841
 20
0.0
 30
0.0
 11
0.0
 21
0.0
 31
0.0
  0
MTEXT
  5
531
330
52D
100
AcDbEntity
  8
DIM
 62
     0
100
AcDbMText
 10
1.117726691
 20
18.2063435895
 30
0.0
 40
5.953125
 41
0.0
 71
     1
 72
     1
  1
4 HOLES,
  7
SLDTEXTSTYLE1
 73
     1
 44
1.0
  0
MTEXT
  5
532
330
52D
100
AcDbEntity
  8
DIM
 62
     0
100
AcDbMText
 10
1.117726691
 20
7.7688438578
 30
0.0
 40
5.953125
 41
0.0
 71
     1
 72
     1
  1
M6 CLR
  7
SLDTEXTSTYLE1
 73
     1
 44
1.0
  0
ENDBLK
  5
52F
330
52D
100
AcDbEntity
  8
0
100
AcDbBlockEnd
  0
BLOCK
  5
536
330
535
100
AcDbEntity
  8
0
100
AcDbBlockBegin
  2
SW_CENTERMARKSYMBOL_20
 70
     0
 10
0.0
 20
0.0
 30
0.0
  3
SW_CENTERMARKSYMBOL_20
  1

  0
LINE
  5
538
330
535
100
AcDbEntity
  8
DIM
 62
     0
100
AcDbLine
 10
0.0
 20
0.0
 30
0.0
 11
0.0
 21
1.0
 31
0.0
  0
LINE
  5
539
330
535
100
AcDbEntity
  8
DIM
 62
     0
100
AcDbLine
 10
0.0
 20
0.0
 30
0.0
 11
-1.0
 21
0.0
 31
0.0
  0
LINE
  5
53A
330
535
100
AcDbEntity
  8
DIM
 62
     0
100
AcDbLine
 10
0.0
 20
0.0
 30
0.0
 11
0.0
 21
-1.0
 31
0.0
  0
LINE
  5
53B
330
535
100
AcDbEntity
  8
DIM
 62
     0
100
AcDbLine
 10
0.0
 20
0.0
 30
0.0
 11
1.0
 21
0.0
 31
0.0
  0
LINE
  5
53C
330
535
100
AcDbEntity
  8
DIM
 62
     0
100
AcDbLine
 10
0.0
 20
2.0
 30
0.0
 11
0.0
 21
6.5
 31
0.0
  0
LINE
  5
53D
330
535
100
AcDbEntity
  8
DIM
 62
     0
100
AcDbLine
 10
-2.0
 20
0.0
 30
0.0
 11
-6.5
 21
0.0
 31
0.0
  0
LINE
  5
53E
330
535
100
AcDbEntity
  8
DIM
 62
     0
100
AcDbLine
 10
0.0
 20
-2.0
 30
0.0
 11
0.0
 21
-6.5
 31
0.0
  0
LINE
  5
53F
330
535
100
AcDbEntity
  8
DIM
 62
     0
100
AcDbLine
 10
2.0
 20
0.0
 30
0.0
 11
6.5
 21
0.0
 31
0.0
  0
ENDBLK
  5
537
330
535
100
AcDbEntity
  8
0
100
AcDbBlockEnd
  0
BLOCK
  5
542
330
541
100
AcDbEntity
  8
0
100
AcDbBlockBegin
  2
SW_CENTERMARKSYMBOL_21
 70
     0
 10
0.0
 20
0.0
 30
0.0
  3
SW_CENTERMARKSYMBOL_21
  1

  0
LINE
  5
544
330
541
100
AcDbEntity
  8
DIM
 62
     0
100
AcDbLine
 10
0.0
 20
0.0
 30
0.0
 11
0.0
 21
1.0
 31
0.0
  0
LINE
  5
545
330
541
100
AcDbEntity
  8
DIM
 62
     0
100
AcDbLine
 10
0.0
 20
0.0
 30
0.0
 11
-1.0
 21
0.0
 31
0.0
  0
LINE
  5
546
330
541
100
AcDbEntity
  8
DIM
 62
     0
100
AcDbLine
 10
0.0
 20
0.0
 30
0.0
 11
0.0
 21
-1.0
 31
0.0
  0
LINE
  5
547
330
541
100
AcDbEntity
  8
DIM
 62
     0
100
AcDbLine
 10
0.0
 20
0.0
 30
0.0
 11
1.0
 21
0.0
 31
0.0
  0
LINE
  5
548
330
541
100
AcDbEntity
  8
DIM
 62
     0
100
AcDbLine
 10
0.0
 20
2.0
 30
0.0
 11
0.0
 21
6.5
 31
0.0
  0
LINE
  5
549
330
541
100
AcDbEntity
  8
DIM
 62
     0
100
AcDbLine
 10
-2.0
 20
0.0
 30
0.0
 11
-6.5
 21
0.0
 31
0.0
  0
LINE
  5
54A
330
541
100
AcDbEntity
  8
DIM
 62
     0
100
AcDbLine
 10
0.0
 20
-2.0
 30
0.0
 11
0.0
 21
-6.5
 31
0.0
  0
LINE
  5
54B
330
541
100
AcDbEntity
  8
DIM
 62
     0
100
AcDbLine
 10
2.0
 20
0.0
 30
0.0
 11
6.5
 21
0.0
 31
0.0
  0
ENDBLK
  5
543
330
541
100
AcDbEntity
  8
0
100
AcDbBlockEnd
  0
BLOCK
  5
54E
330
54D
100
AcDbEntity
  8
0
100
AcDbBlockBegin
  2
SW_CENTERMARKSYMBOL_22
 70
     0
 10
0.0
 20
0.0
 30
0.0
  3
SW_CENTERMARKSYMBOL_22
  1

  0
LINE
  5
550
330
54D
100
AcDbEntity
  8
DIM
 62
     0
100
AcDbLine
 10
0.0
 20
0.0
 30
0.0
 11
0.0
 21
1.0
 31
0.0
  0
LINE
  5
551
330
54D
100
AcDbEntity
  8
DIM
 62
     0
100
AcDbLine
 10
0.0
 20
0.0
 30
0.0
 11
-1.0
 21
0.0
 31
0.0
  0
LINE
  5
552
330
54D
100
AcDbEntity
  8
DIM
 62
     0
100
AcDbLine
 10
0.0
 20
0.0
 30
0.0
 11
0.0
 21
-1.0
 31
0.0
  0
LINE
  5
553
330
54D
100
AcDbEntity
  8
DIM
 62
     0
100
AcDbLine
 10
0.0
 20
0.0
 30
0.0
 11
1.0
 21
0.0
 31
0.0
  0
LINE
  5
554
330
54D
100
AcDbEntity
  8
DIM
 62
     0
100
AcDbLine
 10
0.0
 20
2.0
 30
0.0
 11
0.0
 21
6.5
 31
0.0
  0
LINE
  5
555
330
54D
100
AcDbEntity
  8
DIM
 62
     0
100
AcDbLine
 10
-2.0
 20
0.0
 30
0.0
 11
-6.5
 21
0.0
 31
0.0
  0
LINE
  5
556
330
54D
100
AcDbEntity
  8
DIM
 62
     0
100
AcDbLine
 10
0.0
 20
-2.0
 30
0.0
 11
0.0
 21
-6.5
 31
0.0
  0
LINE
  5
557
330
54D
100
AcDbEntity
  8
DIM
 62
     0
100
AcDbLine
 10
2.0
 20
0.0
 30
0.0
 11
6.5
 21
0.0
 31
0.0
  0
ENDBLK
  5
54F
330
54D
100
AcDbEntity
  8
0
100
AcDbBlockEnd
  0
BLOCK
  5
55A
330
559
100
AcDbEntity
  8
0
100
AcDbBlockBegin
  2
SW_CENTERMARKSYMBOL_23
 70
     0
 10
0.0
 20
0.0
 30
0.0
  3
SW_CENTERMARKSYMBOL_23
  1

  0
LINE
  5
55C
330
559
100
AcDbEntity
  8
DIM
 62
     0
100
AcDbLine
 10
0.0
 20
0.0
 30
0.0
 11
0.0
 21
1.0
 31
0.0
  0
LINE
  5
55D
330
559
100
AcDbEntity
  8
DIM
 62
     0
100
AcDbLine
 10
0.0
 20
0.0
 30
0.0
 11
-1.0
 21
0.0
 31
0.0
  0
LINE
  5
55E
330
559
100
AcDbEntity
  8
DIM
 62
     0
100
AcDbLine
 10
0.0
 20
0.0
 30
0.0
 11
0.0
 21
-1.0
 31
0.0
  0
LINE
  5
55F
330
559
100
AcDbEntity
  8
DIM
 62
     0
100
AcDbLine
 10
0.0
 20
0.0
 30
0.0
 11
1.0
 21
0.0
 31
0.0
  0
LINE
  5
560
330
559
100
AcDbEntity
  8
DIM
 62
     0
100
AcDbLine
 10
0.0
 20
2.0
 30
0.0
 11
0.0
 21
6.5
 31
0.0
  0
LINE
  5
561
330
559
100
AcDbEntity
  8
DIM
 62
     0
100
AcDbLine
 10
-2.0
 20
0.0
 30
0.0
 11
-6.5
 21
0.0
 31
0.0
  0
LINE
  5
562
330
559
100
AcDbEntity
  8
DIM
 62
     0
100
AcDbLine
 10
0.0
 20
-2.0
 30
0.0
 11
0.0
 21
-6.5
 31
0.0
  0
LINE
  5
563
330
559
100
AcDbEntity
  8
DIM
 62
     0
100
AcDbLine
 10
2.0
 20
0.0
 30
0.0
 11
6.5
 21
0.0
 31
0.0
  0
ENDBLK
  5
55B
330
559
100
AcDbEntity
  8
0
100
AcDbBlockEnd
  0
BLOCK
  5
566
330
565
100
AcDbEntity
  8
0
100
AcDbBlockBegin
  2
SW_CENTERMARKSYMBOL_24
 70
     0
 10
0.0
 20
0.0
 30
0.0
  3
SW_CENTERMARKSYMBOL_24
  1

  0
LINE
  5
568
330
565
100
AcDbEntity
  8
DIM
 62
     0
100
AcDbLine
 10
0.0
 20
0.0
 30
0.0
 11
0.0
 21
1.0
 31
0.0
  0
LINE
  5
569
330
565
100
AcDbEntity
  8
DIM
 62
     0
100
AcDbLine
 10
0.0
 20
0.0
 30
0.0
 11
-1.0
 21
0.0
 31
0.0
  0
LINE
  5
56A
330
565
100
AcDbEntity
  8
DIM
 62
     0
100
AcDbLine
 10
0.0
 20
0.0
 30
0.0
 11
0.0
 21
-1.0
 31
0.0
  0
LINE
  5
56B
330
565
100
AcDbEntity
  8
DIM
 62
     0
100
AcDbLine
 10
0.0
 20
0.0
 30
0.0
 11
1.0
 21
0.0
 31
0.0
  0
LINE
  5
56C
330
565
100
AcDbEntity
  8
DIM
 62
     0
100
AcDbLine
 10
0.0
 20
2.0
 30
0.0
 11
0.0
 21
3.5
 31
0.0
  0
LINE
  5
56D
330
565
100
AcDbEntity
  8
DIM
 62
     0
100
AcDbLine
 10
-2.0
 20
0.0
 30
0.0
 11
-3.5
 21
0.0
 31
0.0
  0
LINE
  5
56E
330
565
100
AcDbEntity
  8
DIM
 62
     0
100
AcDbLine
 10
0.0
 20
-2.0
 30
0.0
 11
0.0
 21
-3.5
 31
0.0
  0
LINE
  5
56F
330
565
100
AcDbEntity
  8
DIM
 62
     0
100
AcDbLine
 10
2.0
 20
0.0
 30
0.0
 11
3.5
 21
0.0
 31
0.0
  0
ENDBLK
  5
567
330
565
100
AcDbEntity
  8
0
100
AcDbBlockEnd
  0
BLOCK
  5
572
330
571
100
AcDbEntity
  8
0
100
AcDbBlockBegin
  2
SW_CENTERMARKSYMBOL_25
 70
     0
 10
0.0
 20
0.0
 30
0.0
  3
SW_CENTERMARKSYMBOL_25
  1

  0
LINE
  5
574
330
571
100
AcDbEntity
  8
DIM
 62
     0
100
AcDbLine
 10
0.0
 20
0.0
 30
0.0
 11
0.0
 21
1.0
 31
0.0
  0
LINE
  5
575
330
571
100
AcDbEntity
  8
DIM
 62
     0
100
AcDbLine
 10
0.0
 20
0.0
 30
0.0
 11
-1.0
 21
0.0
 31
0.0
  0
LINE
  5
576
330
571
100
AcDbEntity
  8
DIM
 62
     0
100
AcDbLine
 10
0.0
 20
0.0
 30
0.0
 11
0.0
 21
-1.0
 31
0.0
  0
LINE
  5
577
330
571
100
AcDbEntity
  8
DIM
 62
     0
100
AcDbLine
 10
0.0
 20
0.0
 30
0.0
 11
1.0
 21
0.0
 31
0.0
  0
LINE
  5
578
330
571
100
AcDbEntity
  8
DIM
 62
     0
100
AcDbLine
 10
0.0
 20
2.0
 30
0.0
 11
0.0
 21
3.5
 31
0.0
  0
LINE
  5
579
330
571
100
AcDbEntity
  8
DIM
 62
     0
100
AcDbLine
 10
-2.0
 20
0.0
 30
0.0
 11
-3.5
 21
0.0
 31
0.0
  0
LINE
  5
57A
330
571
100
AcDbEntity
  8
DIM
 62
     0
100
AcDbLine
 10
0.0
 20
-2.0
 30
0.0
 11
0.0
 21
-3.5
 31
0.0
  0
LINE
  5
57B
330
571
100
AcDbEntity
  8
DIM
 62
     0
100
AcDbLine
 10
2.0
 20
0.0
 30
0.0
 11
3.5
 21
0.0
 31
0.0
  0
ENDBLK
  5
573
330
571
100
AcDbEntity
  8
0
100
AcDbBlockEnd
  0
ENDSEC
  0
SECTION
  2
ENTITIES
  0
HATCH
  5
89
330
1F
100
AcDbEntity
  8
0
  6
Continuous
 62
     7
100
AcDbHatch
 10
0.0
 20
0.0
 30
0.0
210
0.0
220
0.0
230
1.0
  2
SOLID
 70
     1
 71
     0
 91
        1
 92
        0
 93
       10
 72
     2
 10
480.3514914073417
 20
89.3895220247214
 40
7.474091644424647
 50
50.39692260731395
 51
112.8514693252979
 73
     0
 72
     2
 10
479.53751490703
 20
88.59749570015511
 40
6.443338567044046
 50
108.9134333432862
 51
219.5668234386827
 73
     0
 72
     1
 10
474.5704598474009
 20
92.70175884037526
 11
472.0324752288947
 21
94.94058859241966
 72
     1
 10
472.0324752288947
 20
94.94058859241966
 11
468.7659045916906
 21
91.7866209011509
 72
     2
 10
471.2356169965973
 20
88.86530281931115
 40
3.825386084859154
 50
130.2115225915094
 51
228.5889041080181
 73
     1
 72
     1
 10
468.7052881366275
 20
85.99632834074944
 11
478.7282939121165
 21
77.28481874006276
 72
     1
 10
478.7282939121165
 20
77.28481874006276
 11
477.1506641110787
 21
75.74506776388517
 72
     1
 10
477.1506641110787
 20
75.74506776388517
 11
479.6303625228926
 21
73.6101320965006
 72
     1
 10
479.6303625228926
 20
73.6101320965006
 11
487.6545236088058
 21
81.40157701028932
 72
     1
 10
487.6545236088058
 20
81.40157701028932
 11
485.1159660296603
 21
83.63089132962207
 97
        0
 75
     0
 76
     1
 98
        1
 10
0.0
 20
0.0
  0
HATCH
  5
8A
330
1F
100
AcDbEntity
  8
0
  6
Continuous
 62
     1
100
AcDbHatch
 10
0.0
 20
0.0
 30
0.0
210
0.0
220
0.0
230
1.0
  2
SOLID
 70
     1
 71
     0
 91
        1
 92
        0
 93
       10
 72
     2
 10
481.4731139069222
 20
89.15767289079024
 40
6.443918720865625
 50
317.818499299578
 51
398.0564711573081
 73
     0
 72
     1
 10
486.5470785145408
 20
85.18539751743617
 11
489.0107007469978
 21
83.03865516771245
 72
     1
 10
489.0107007469978
 20
83.03865516771245
 11
492.1149040339822
 21
86.04973752373047
 72
     2
 10
489.881423219827
 20
89.11960435328278
 40
3.796382343545663
 50
306.0377529468132
 51
403.4396461533873
 73
     1
 72
     1
 10
492.6379728815077
 20
91.72995928337816
 11
482.3210832356494
 21
100.702899954963
 72
     1
 10
482.3210832356494
 20
100.702899954963
 11
483.8817114904676
 21
102.2255460320564
 72
     1
 10
483.8817114904676
 20
102.2255460320564
 11
481.5554452150075
 21
104.3010265816676
 72
     1
 10
481.5554452150075
 20
104.3010265816676
 11
473.4664815939828
 21
96.48372596513244
 72
     1
 10
473.4664815939828
 20
96.48372596513244
 11
476.0225012873543
 21
94.25424964733045
 72
     2
 10
480.678973180111
 20
87.80561837709479
 40
7.95409176131969
 50
234.1674444878512
 51
314.4407074583989
 73
     0
 97
        0
 75
     0
 76
     1
 98
        1
 10
0.0
 20
0.0
  0
LINE
  5
8B
330
1F
100
AcDbEntity
  8
0
  6
Continuous
 62
     7
370
     0
100
AcDbLine
 10
419.6484437962
 20
44.4362981281
 30
0.0
 11
422.1484437962
 21
44.4362981281
 31
0.0
  0
LINE
  5
8C
330
1F
100
AcDbEntity
  8
0
  6
Continuous
 62
     7
370
     0
100
AcDbLine
 10
412.1484437962
 20
44.4362981281
 30
0.0
 11
418.3984437962
 21
44.4362981281
 31
0.0
  0
LINE
  5
8D
330
1F
100
AcDbEntity
  8
0
  6
Continuous
 62
     7
370
     0
100
AcDbLine
 10
453.3984437962
 20
38.1862981281
 30
0.0
 11
453.3984437962
 21
50.6862981281
 31
0.0
  0
LINE
  5
8E
330
1F
100
AcDbEntity
  8
0
  6
Continuous
 62
     7
370
     0
100
AcDbLine
 10
435.8984437962
 20
40.6862981281
 30
0.0
 11
453.3984437962
 21
38.1862981281
 31
0.0
  0
LINE
  5
8F
330
1F
100
AcDbEntity
  8
0
  6
Continuous
 62
     7
370
     0
100
AcDbLine
 10
420.8984437962
 20
41.9362981281
 30
0.0
 11
420.8984437962
 21
35.6862981281
 31
0.0
  0
LINE
  5
90
330
1F
100
AcDbEntity
  8
0
  6
Continuous
 62
     7
370
     0
100
AcDbLine
 10
453.3984437962
 20
50.6862981281
 30
0.0
 11
435.8984437962
 21
48.1862981281
 31
0.0
  0
LINE
  5
91
330
1F
100
AcDbEntity
  8
0
  6
Continuous
 62
     7
370
     0
100
AcDbLine
 10
433.3984437962
 20
44.4362981281
 30
0.0
 11
455.8984437962
 21
44.4362981281
 31
0.0
  0
LINE
  5
92
330
1F
100
AcDbEntity
  8
0
  6
Continuous
 62
     7
370
     0
100
AcDbLine
 10
420.8984437962
 20
45.6862981281
 30
0.0
 11
420.8984437962
 21
43.1862981281
 31
0.0
  0
LINE
  5
93
330
1F
100
AcDbEntity
  8
0
  6
Continuous
 62
     7
370
     0
100
AcDbLine
 10
423.3984437962
 20
44.4362981281
 30
0.0
 11
429.6484437962
 21
44.4362981281
 31
0.0
  0
LINE
  5
94
330
1F
100
AcDbEntity
  8
0
  6
Continuous
 62
     7
370
     0
100
AcDbLine
 10
420.8984437962
 20
53.1862981281
 30
0.0
 11
420.8984437962
 21
46.9362981281
 31
0.0
  0
LINE
  5
95
330
1F
100
AcDbEntity
  8
0
  6
Continuous
 62
     7
370
     0
100
AcDbLine
 10
435.8984437962
 20
48.1862981281
 30
0.0
 11
435.8984437962
 21
40.6862981281
 31
0.0
  0
LINE
  5
96
330
1F
100
AcDbEntity
  8
工作區域參考線
 62
     1
370
    30
100
AcDbLine
 10
476.0225012874
 20
94.2542496473
 30
0.0
 11
473.466481594
 21
96.4837259651
 31
0.0
  0
LINE
  5
97
330
1F
100
AcDbEntity
  8
工作區域參考線
 62
     1
370
    30
100
AcDbLine
 10
473.466481594
 20
96.4837259651
 30
0.0
 11
481.555445215
 21
104.3010265817
 31
0.0
  0
LINE
  5
98
330
1F
100
AcDbEntity
  8
工作區域參考線
 62
     1
370
    30
100
AcDbLine
 10
481.555445215
 20
104.3010265817
 30
0.0
 11
483.8817114905
 21
102.2255460321
 31
0.0
  0
LINE
  5
99
330
1F
100
AcDbEntity
  8
工作區域參考線
 62
     1
370
    30
100
AcDbLine
 10
483.8817114905
 20
102.2255460321
 30
0.0
 11
482.3210832356
 21
100.702899955
 31
0.0
  0
LINE
  5
9A
330
1F
100
AcDbEntity
  8
工作區域參考線
 62
     1
370
    30
100
AcDbLine
 10
482.3210832356
 20
100.702899955
 30
0.0
 11
492.6379728815
 21
91.7299592834
 31
0.0
  0
LINE
  5
9B
330
1F
100
AcDbEntity
  8
工作區域參考線
 62
     1
370
    30
100
AcDbLine
 10
486.5470785145
 20
85.1853975174
 30
0.0
 11
489.010700747
 21
83.0386551677
 31
0.0
  0
LINE
  5
9C
330
1F
100
AcDbEntity
  8
工作區域參考線
 62
     1
370
    30
100
AcDbLine
 10
489.010700747
 20
83.0386551677
 30
0.0
 11
492.114904034
 21
86.0497375237
 31
0.0
  0
LINE
  5
9D
330
1F
100
AcDbEntity
  8
0
  6
Continuous
 62
     7
370
     0
100
AcDbLine
 10
464.2269913023
 20
32.7881160198
 30
0.0
 11
714.2269913023
 21
32.7881160198
 31
0.0
  0
LINE
  5
9E
330
1F
100
AcDbEntity
  8
0
  6
Continuous
 62
     7
370
     0
100
AcDbLine
 10
464.2269913023
 20
45.2881160198
 30
0.0
 11
589.2269913023
 21
45.2881160198
 31
0.0
  0
LINE
  5
9F
330
1F
100
AcDbEntity
  8
0
  6
Continuous
 62
     7
370
     0
100
AcDbLine
 10
464.2269913023
 20
57.7881160198
 30
0.0
 11
589.2269913023
 21
57.7881160198
 31
0.0
  0
LINE
  5
A0
330
1F
100
AcDbEntity
  8
0
  6
Continuous
 62
     7
370
     0
100
AcDbLine
 10
464.2269913023
 20
70.2881160198
 30
0.0
 11
714.2269913023
 21
70.2881160198
 31
0.0
  0
LINE
  5
A1
330
1F
100
AcDbEntity
  8
0
  6
Continuous
 62
     7
370
     0
100
AcDbLine
 10
589.2269913023
 20
82.7881160198
 30
0.0
 11
714.2269913023
 21
82.7881160198
 31
0.0
  0
LINE
  5
A2
330
1F
100
AcDbEntity
  8
0
  6
Continuous
 62
     7
370
    15
100
AcDbLine
 10
589.2269913023
 20
45.2881160198
 30
0.0
 11
714.2269913023
 21
45.2881160198
 31
0.0
  0
LINE
  5
A3
330
1F
100
AcDbEntity
  8
0
  6
Continuous
 62
     7
370
     0
100
AcDbLine
 10
464.2269913023
 20
107.7881160198
 30
0.0
 11
714.2269913023
 21
107.7881160198
 31
0.0
  0
LINE
  5
A4
330
1F
100
AcDbEntity
  8
0
  6
Continuous
 62
     7
370
     0
100
AcDbLine
 10
628.0930441876
 20
20.2881160198
 30
0.0
 11
628.0930441876
 21
45.2881160198
 31
0.0
  0
LINE
  5
A5
330
1F
100
AcDbEntity
  8
0
  6
Continuous
 62
     7
370
     0
100
AcDbLine
 10
589.2269913023
 20
20.2881160198
 30
0.0
 11
589.2269913023
 21
107.7881160198
 31
0.0
  0
LINE
  5
A6
330
1F
100
AcDbEntity
  8
0
  6
Continuous
 62
     7
370
     0
100
AcDbLine
 10
628.0930441876
 20
70.2881160198
 30
0.0
 11
628.0930441876
 21
82.7881160198
 31
0.0
  0
LINE
  5
A7
330
1F
100
AcDbEntity
  8
0
  6
Continuous
 62
     7
370
     0
100
AcDbLine
 10
536.0410215883
 20
20.2881160198
 30
0.0
 11
536.0410215883
 21
70.2881160198
 31
0.0
  0
LINE
  5
A8
330
1F
100
AcDbEntity
  8
0
  6
Continuous
 62
     7
370
     0
100
AcDbLine
 10
499.4464718764
 20
20.2881160198
 30
0.0
 11
499.4464718764
 21
70.2881160198
 31
0.0
  0
LINE
  5
A9
330
1F
100
AcDbEntity
  8
0
  6
Continuous
 62
     7
370
     0
100
AcDbLine
 10
464.2269913023
 20
20.2881160198
 30
0.0
 11
464.2269913023
 21
107.7881160198
 31
0.0
  0
LINE
  5
AA
330
1F
100
AcDbEntity
  8
0
  6
Continuous
 62
     7
370
    15
100
AcDbLine
 10
108.3019913023
 20
503.4300689377
 30
0.0
 11
108.3019913023
 21
507.1800689377
 31
0.0
  0
LINE
  5
AB
330
1F
100
AcDbEntity
  8
0
  6
Continuous
 62
     7
370
    15
100
AcDbLine
 10
194.8769913023
 20
503.4300689377
 30
0.0
 11
194.8769913023
 21
507.1800689377
 31
0.0
  0
LINE
  5
AC
330
1F
100
AcDbEntity
  8
0
  6
Continuous
 62
     7
370
    15
100
AcDbLine
 10
281.4519913023
 20
503.4300689377
 30
0.0
 11
281.4519913023
 21
507.1800689377
 31
0.0
  0
LINE
  5
AD
330
1F
100
AcDbEntity
  8
0
  6
Continuous
 62
     7
370
    15
100
AcDbLine
 10
368.0269913023
 20
503.4300689377
 30
0.0
 11
368.0269913023
 21
507.1800689377
 31
0.0
  0
LINE
  5
AE
330
1F
100
AcDbEntity
  8
0
  6
Continuous
 62
     7
370
    15
100
AcDbLine
 10
454.6019913023
 20
503.4300689377
 30
0.0
 11
454.6019913023
 21
507.1800689377
 31
0.0
  0
LINE
  5
AF
330
1F
100
AcDbEntity
  8
0
  6
Continuous
 62
     7
370
    15
100
AcDbLine
 10
541.1769913023
 20
503.4300689377
 30
0.0
 11
541.1769913023
 21
507.1800689377
 31
0.0
  0
LINE
  5
B0
330
1F
100
AcDbEntity
  8
0
  6
Continuous
 62
     7
370
    15
100
AcDbLine
 10
627.7519913023
 20
503.4300689377
 30
0.0
 11
627.7519913023
 21
507.1800689377
 31
0.0
  0
LINE
  5
B1
330
1F
100
AcDbEntity
  8
0
  6
Continuous
 62
     7
370
    15
100
AcDbLine
 10
108.2894913023
 20
20.2881160198
 30
0.0
 11
108.2894913023
 21
16.5381160198
 31
0.0
  0
LINE
  5
B2
330
1F
100
AcDbEntity
  8
0
  6
Continuous
 62
     7
370
    15
100
AcDbLine
 10
194.8519913023
 20
20.2881160198
 30
0.0
 11
194.8519913023
 21
16.5381160198
 31
0.0
  0
LINE
  5
B3
330
1F
100
AcDbEntity
  8
0
  6
Continuous
 62
     7
370
    15
100
AcDbLine
 10
281.4144913023
 20
20.2881160198
 30
0.0
 11
281.4144913023
 21
16.5381160198
 31
0.0
  0
LINE
  5
B4
330
1F
100
AcDbEntity
  8
0
  6
Continuous
 62
     7
370
    15
100
AcDbLine
 10
367.9769913023
 20
20.2881160198
 30
0.0
 11
367.9769913023
 21
16.5381160198
 31
0.0
  0
LINE
  5
B5
330
1F
100
AcDbEntity
  8
0
  6
Continuous
 62
     7
370
    15
100
AcDbLine
 10
454.5394913023
 20
20.2881160198
 30
0.0
 11
454.5394913023
 21
16.5381160198
 31
0.0
  0
LINE
  5
B6
330
1F
100
AcDbEntity
  8
0
  6
Continuous
 62
     7
370
    15
100
AcDbLine
 10
541.1019913023
 20
20.2881160198
 30
0.0
 11
541.1019913023
 21
16.5381160198
 31
0.0
  0
LINE
  5
B7
330
1F
100
AcDbEntity
  8
0
  6
Continuous
 62
     7
370
     0
100
AcDbLine
 10
714.2269913023
 20
503.4300689377
 30
0.0
 11
21.7269913023
 21
503.4300689377
 31
0.0
  0
LINE
  5
B8
330
1F
100
AcDbEntity
  8
0
  6
Continuous
 62
     7
370
     0
100
AcDbLine
 10
714.2269913023
 20
20.2881160198
 30
0.0
 11
714.2269913023
 21
503.4300689377
 31
0.0
  0
LINE
  5
B9
330
1F
100
AcDbEntity
  8
0
  6
Continuous
 62
     7
370
     0
100
AcDbLine
 10
21.7269913023
 20
503.4300689377
 30
0.0
 11
21.7269913023
 21
20.2881160198
 31
0.0
  0
LINE
  5
BA
330
1F
100
AcDbEntity
  8
0
  6
Continuous
 62
     7
370
     0
100
AcDbLine
 10
21.7269913023
 20
20.2881160198
 30
0.0
 11
714.2269913023
 21
20.2881160198
 31
0.0
  0
LINE
  5
BB
330
1F
100
AcDbEntity
  8
0
  6
Continuous
 62
     7
370
    15
100
AcDbLine
 10
627.6644913023
 20
20.2881160198
 30
0.0
 11
627.6644913023
 21
16.5381160198
 31
0.0
  0
LINE
  5
BC
330
1F
100
AcDbEntity
  8
0
  6
Continuous
 62
     7
370
    15
100
AcDbLine
 10
21.7269913023
 20
100.8131160198
 30
0.0
 11
17.9769913023
 21
100.8131160198
 31
0.0
  0
LINE
  5
BD
330
1F
100
AcDbEntity
  8
0
  6
Continuous
 62
     7
370
    15
100
AcDbLine
 10
21.7269913023
 20
181.3381160198
 30
0.0
 11
17.9769913023
 21
181.3381160198
 31
0.0
  0
LINE
  5
BE
330
1F
100
AcDbEntity
  8
0
  6
Continuous
 62
     7
370
    15
100
AcDbLine
 10
21.7269913023
 20
261.8631160198
 30
0.0
 11
17.9769913023
 21
261.8631160198
 31
0.0
  0
LINE
  5
BF
330
1F
100
AcDbEntity
  8
0
  6
Continuous
 62
     7
370
    15
100
AcDbLine
 10
21.7269913023
 20
342.3881160198
 30
0.0
 11
17.9769913023
 21
342.3881160198
 31
0.0
  0
LINE
  5
C0
330
1F
100
AcDbEntity
  8
0
  6
Continuous
 62
     7
370
    15
100
AcDbLine
 10
21.7269913023
 20
422.9131160198
 30
0.0
 11
17.9769913023
 21
422.9131160198
 31
0.0
  0
LINE
  5
C1
330
1F
100
AcDbEntity
  8
0
  6
Continuous
 62
     7
370
    15
100
AcDbLine
 10
714.2269913023
 20
100.8131160198
 30
0.0
 11
717.9769913023
 21
100.8131160198
 31
0.0
  0
LINE
  5
C2
330
1F
100
AcDbEntity
  8
0
  6
Continuous
 62
     7
370
    15
100
AcDbLine
 10
714.2269913023
 20
181.3381160198
 30
0.0
 11
717.9769913023
 21
181.3381160198
 31
0.0
  0
LINE
  5
C3
330
1F
100
AcDbEntity
  8
0
  6
Continuous
 62
     7
370
    15
100
AcDbLine
 10
714.2269913023
 20
261.8631160198
 30
0.0
 11
717.9769913023
 21
261.8631160198
 31
0.0
  0
LINE
  5
C4
330
1F
100
AcDbEntity
  8
0
  6
Continuous
 62
     7
370
    15
100
AcDbLine
 10
714.2269913023
 20
342.3881160198
 30
0.0
 11
717.9769913023
 21
342.3881160198
 31
0.0
  0
LINE
  5
C5
330
1F
100
AcDbEntity
  8
0
  6
Continuous
 62
     7
370
    15
100
AcDbLine
 10
714.2269913023
 20
422.9131160198
 30
0.0
 11
717.9769913023
 21
422.9131160198
 31
0.0
  0
CIRCLE
  5
C6
330
1F
100
AcDbEntity
  8
0
  6
Continuous
 62
     7
370
     0
100
AcDbCircle
 10
420.8984437962
 20
44.4362981281
 30
0.0
 40
3.750000000000057
  0
CIRCLE
  5
C7
330
1F
100
AcDbEntity
  8
0
  6
Continuous
 62
     7
370
     0
100
AcDbCircle
 10
420.8984437962
 20
44.4362981281
 30
0.0
 40
6.250000000000057
  0
ARC
  5
C8
330
1F
100
AcDbEntity
  8
工作區域參考線
 62
     1
370
    30
100
AcDbCircle
 10
489.8814232198
 20
89.1196043533
 30
0.0
 40
3.7963823435457
100
AcDbArc
 50
306.0377529468
 51
43.4396461534
  0
ARC
  5
C9
330
1F
100
AcDbEntity
  8
工作區域參考線
 62
     1
370
    30
100
AcDbCircle
 10
480.6789731801
 20
87.8056183771
 30
0.0
 40
7.954091761319693
100
AcDbArc
 50
45.5592925416
 51
125.8325555121
  0
ARC
  5
CA
330
1F
100
AcDbEntity
  8
工作區域參考線
 62
     1
370
    30
100
AcDbCircle
 10
481.4731139069
 20
89.1576728908
 30
0.0
 40
6.443918720865634
100
AcDbArc
 50
321.9435288427
 51
42.1815007004
  0
INSERT
  5
CB
330
1F
100
AcDbEntity
  8
0
  6
Continuous
 62
     7
100
AcDbBlockReference
  2
圖塊6
 10
467.4102309117
 20
73.6101320965
 30
0.0
  0
MTEXT
  5
CD
330
1F
100
AcDbEntity
  8
0
  6
Continuous
 62
     7
370
     0
100
AcDbMText
 10
413.8567127011
 20
33.0521100923
 30
0.0
 40
6.6145833333
 41
0.0
 71
     1
 72
     1
  1
UNIT:m/m
  7
SLDTEXTSTYLE0
 73
     1
 44
1.0
  0
INSERT
  5
D4
330
1F
100
AcDbEntity
  8
0
  6
Continuous
 62
     7
370
     0
100
AcDbBlockReference
  2
SW_NOTE_0
 10
30.5787690133
 20
484.7260760628
 30
0.0
  0
MTEXT
  5
D5
330
1F
100
AcDbEntity
  8
0
  6
Continuous
 62
     7
370
     0
100
AcDbMText
 10
496.8129734837
 20
101.1016935347
 30
0.0
 40
5.953125
 41
0.0
 71
     1
 72
     1
  1
Unice E-O Services Inc.
  7
SLDTEXTSTYLE0
 73
     1
 44
1.0
  0
MTEXT
  5
D6
330
1F
100
AcDbEntity
  8
0
  6
Continuous
 62
     7
370
     0
100
AcDbMText
 10
543.8976345373
 20
53.9667871277
 30
0.0
 40
4.6302083333
 41
0.0
 71
     1
 72
     1
  1
2018/2/9
  7
SLDTEXTSTYLE0
 73
     1
 44
1.0
  0
MTEXT
  5
D7
330
1F
100
AcDbEntity
  8
0
  6
Continuous
 62
     7
370
     0
100
AcDbMText
 10
631.5222456267
 20
42.1779443499
 30
0.0
 40
6.25
 41
0.0
 71
     1
 72
     1
  1
1:2.5
  7
SLDTEXTSTYLE0
 73
     1
 44
1.0
  0
MTEXT
  5
D8
330
1F
100
AcDbEntity
  8
0
  6
Continuous
 62
     7
370
     0
100
AcDbMText
 10
630.7688999962
 20
80.3797988594
 30
0.0
 40
6.25
 41
0.0
 71
     1
 72
     1
  1
VBT1535M
  7
SLDTEXTSTYLE0
 73
     1
 44
1.0
  0
MTEXT
  5
D9
330
1F
100
AcDbEntity
  8
0
  6
Continuous
 62
     7
370
     0
100
AcDbMText
 10
630.7688999962
 20
95.2705294697
 30
0.0
 40
6.25
 41
0.0
 71
     1
 72
     1
  1
VBT1535M
  7
SLDTEXTSTYLE0
 73
     1
 44
1.0
  0
MTEXT
  5
DA
330
1F
100
AcDbEntity
  8
0
  6
Continuous
 62
     7
370
     0
100
AcDbMText
 10
590.9804666966
 20
41.2661989321
 30
0.0
 40
5.2916666667
 41
0.0
 71
     1
 72
     1
  1
SCALE:
  7
SLDTEXTSTYLE0
 73
     1
 44
1.0
  0
MTEXT
  5
DB
330
1F
100
AcDbEntity
  8
0
  6
Continuous
 62
     7
370
     0
100
AcDbMText
 10
465.8340216973
 20
53.9667871277
 30
0.0
 40
4.6302083333
 41
0.0
 71
     1
 72
     1
  1
DRAWN
  7
SLDTEXTSTYLE0
 73
     1
 44
1.0
  0
MTEXT
  5
DC
330
1F
100
AcDbEntity
  8
0
  6
Continuous
 62
     7
370
     0
100
AcDbMText
 10
508.0570919842
 20
66.70802077
 30
0.0
 40
4.6302083333
 41
0.0
 71
     1
 72
     1
  1
NAME
  7
SLDTEXTSTYLE0
 73
     1
 44
1.0
  0
MTEXT
  5
DD
330
1F
100
AcDbEntity
  8
0
  6
Continuous
 62
     7
370
     0
100
AcDbMText
 10
552.1775389394
 20
66.70802077
 30
0.0
 40
4.6302083333
 41
0.0
 71
     1
 72
     1
  1
DATE
  7
SLDTEXTSTYLE0
 73
     1
 44
1.0
  0
MTEXT
  5
DE
330
1F
100
AcDbEntity
  8
0
  6
Continuous
 62
     7
370
     0
100
AcDbMText
 10
590.6890791613
 20
79.4680534415
 30
0.0
 40
5.2916666667
 41
0.0
 71
     1
 72
     1
  1
DWG. NO.
  7
SLDTEXTSTYLE0
 73
     1
 44
1.0
  0
MTEXT
  5
DF
330
1F
100
AcDbEntity
  8
0
  6
Continuous
 62
     7
370
     0
100
AcDbMText
 10
590.9074767721
 20
104.7101645608
 30
0.0
 40
5.2916666667
 41
0.0
 71
     1
 72
     1
  1
TITLE:
  7
SLDTEXTSTYLE0
 73
     1
 44
1.0
  0
MTEXT
  5
E0
330
1F
100
AcDbEntity
  8
0
  6
Continuous
 62
     7
370
     0
100
AcDbMText
 10
507.5785524505
 20
40.600947431
 30
0.0
 40
4.6302083333
 41
0.0
 71
     1
 72
     1
  1
Johnny
  7
SLDTEXTSTYLE0
 73
     1
 44
1.0
  0
MTEXT
  5
E1
330
1F
100
AcDbEntity
  8
0
  6
Continuous
 62
     7
370
     0
100
AcDbMText
 10
543.8976345373
 20
40.600947431
 30
0.0
 40
4.6302083333
 41
0.0
 71
     1
 72
     1
  1
2018/2/9
  7
SLDTEXTSTYLE0
 73
     1
 44
1.0
  0
MTEXT
  5
E2
330
1F
100
AcDbEntity
  8
0
  6
Continuous
 62
     7
370
     0
100
AcDbMText
 10
465.8340216973
 20
40.600947431
 30
0.0
 40
4.6302083333
 41
0.0
 71
     1
 72
     1
  1
ENG APPR.
  7
SLDTEXTSTYLE0
 73
     1
 44
1.0
  0
MTEXT
  5
E3
330
1F
100
AcDbEntity
  8
0
  6
Continuous
 62
     7
370
     0
100
AcDbMText
 10
590.9804666966
 20
29.2133473219
 30
0.0
 40
5.2916666667
 41
0.0
 71
     1
 72
     1
  1
REV
  7
SLDTEXTSTYLE0
 73
     1
 44
1.0
  0
MTEXT
  5
E4
330
1F
100
AcDbEntity
  8
0
  6
Continuous
 62
     7
370
     0
100
AcDbMText
 10
590.9074767721
 20
67.3732722711
 30
0.0
 40
5.2916666667
 41
0.0
 71
     1
 72
     1
  1
MATERIAL:
  7
SLDTEXTSTYLE0
 73
     1
 44
1.0
  0
MTEXT
  5
E5
330
1F
100
AcDbEntity
  8
0
  6
Continuous
 62
     7
370
     0
100
AcDbMText
 10
631.5222456267
 20
55.5437840467
 30
0.0
 40
6.25
 41
0.0
 71
     1
 72
     1
  1
N/A
  7
SLDTEXTSTYLE0
 73
     1
 44
1.0
  0
MTEXT
  5
E6
330
1F
100
AcDbEntity
  8
0
  6
Continuous
 62
     7
370
     0
100
AcDbMText
 10
66.5074828833
 20
511.1333791424
 30
0.0
 40
5.2916666667
 41
0.0
 71
     1
 72
     1
  1
1
  7
SLDTEXTSTYLE0
 73
     1
 44
1.0
  0
MTEXT
  5
E7
330
1F
100
AcDbEntity
  8
0
  6
Continuous
 62
     7
370
     0
100
AcDbMText
 10
151.792748931
 20
511.1333791424
 30
0.0
 40
5.2916666667
 41
0.0
 71
     1
 72
     1
  1
2
  7
SLDTEXTSTYLE0
 73
     1
 44
1.0
  0
MTEXT
  5
E8
330
1F
100
AcDbEntity
  8
0
  6
Continuous
 62
     7
370
     0
100
AcDbMText
 10
237.2524859765
 20
511.1333791424
 30
0.0
 40
5.2916666667
 41
0.0
 71
     1
 72
     1
  1
3
  7
SLDTEXTSTYLE0
 73
     1
 44
1.0
  0
MTEXT
  5
E9
330
1F
100
AcDbEntity
  8
0
  6
Continuous
 62
     7
370
     0
100
AcDbMText
 10
323.1333407128
 20
510.7481460911
 30
0.0
 40
5.2916666667
 41
0.0
 71
     1
 72
     1
  1
4
  7
SLDTEXTSTYLE0
 73
     1
 44
1.0
  0
MTEXT
  5
EA
330
1F
100
AcDbEntity
  8
0
  6
Continuous
 62
     7
370
     0
100
AcDbMText
 10
409.2558086599
 20
511.1333791424
 30
0.0
 40
5.2916666667
 41
0.0
 71
     1
 72
     1
  1
5
  7
SLDTEXTSTYLE0
 73
     1
 44
1.0
  0
MTEXT
  5
EB
330
1F
100
AcDbEntity
  8
0
  6
Continuous
 62
     7
370
     0
100
AcDbMText
 10
496.5955426038
 20
511.1333791424
 30
0.0
 40
5.2916666667
 41
0.0
 71
     1
 72
     1
  1
6
  7
SLDTEXTSTYLE0
 73
     1
 44
1.0
  0
MTEXT
  5
EC
330
1F
100
AcDbEntity
  8
0
  6
Continuous
 62
     7
370
     0
100
AcDbMText
 10
585.9076643516
 20
511.1333791424
 30
0.0
 40
5.2916666667
 41
0.0
 71
     1
 72
     1
  1
7
  7
SLDTEXTSTYLE0
 73
     1
 44
1.0
  0
MTEXT
  5
ED
330
1F
100
AcDbEntity
  8
0
  6
Continuous
 62
     7
370
     0
100
AcDbMText
 10
665.6969551234
 20
511.1333791424
 30
0.0
 40
5.2916666667
 41
0.0
 71
     1
 72
     1
  1
8
  7
SLDTEXTSTYLE0
 73
     1
 44
1.0
  0
MTEXT
  5
EE
330
1F
100
AcDbEntity
  8
0
  6
Continuous
 62
     7
370
     0
100
AcDbMText
 10
13.3920591386
 20
464.5282557198
 30
0.0
 40
5.2916666667
 41
0.0
 71
     1
 72
     1
  1
A
  7
SLDTEXTSTYLE0
 73
     1
 44
1.0
  0
MTEXT
  5
EF
330
1F
100
AcDbEntity
  8
0
  6
Continuous
 62
     7
370
     0
100
AcDbMText
 10
13.9776079578
 20
385.7482620595
 30
0.0
 40
5.2916666667
 41
0.0
 71
     1
 72
     1
  1
B
  7
SLDTEXTSTYLE0
 73
     1
 44
1.0
  0
MTEXT
  5
F0
330
1F
100
AcDbEntity
  8
0
  6
Continuous
 62
     7
370
     0
100
AcDbMText
 10
13.9776079578
 20
303.1858785575
 30
0.0
 40
5.2916666667
 41
0.0
 71
     1
 72
     1
  1
C
  7
SLDTEXTSTYLE0
 73
     1
 44
1.0
  0
MTEXT
  5
F1
330
1F
100
AcDbEntity
  8
0
  6
Continuous
 62
     7
370
     0
100
AcDbMText
 10
13.9776079578
 20
221.8633050552
 30
0.0
 40
5.2916666667
 41
0.0
 71
     1
 72
     1
  1
D
  7
SLDTEXTSTYLE0
 73
     1
 44
1.0
  0
MTEXT
  5
F2
330
1F
100
AcDbEntity
  8
0
  6
Continuous
 62
     7
370
     0
100
AcDbMText
 10
13.9776079578
 20
143.8897122993
 30
0.0
 40
5.2916666667
 41
0.0
 71
     1
 72
     1
  1
E
  7
SLDTEXTSTYLE0
 73
     1
 44
1.0
  0
MTEXT
  5
F3
330
1F
100
AcDbEntity
  8
0
  6
Continuous
 62
     7
370
     0
100
AcDbMText
 10
13.9776079578
 20
63.923553063
 30
0.0
 40
5.2916666667
 41
0.0
 71
     1
 72
     1
  1
F
  7
SLDTEXTSTYLE0
 73
     1
 44
1.0
  0
MTEXT
  5
F4
330
1F
100
AcDbEntity
  8
0
  6
Continuous
 62
     7
370
     0
100
AcDbMText
 10
665.4646542409
 20
16.5590559908
 30
0.0
 40
5.2916666667
 41
0.0
 71
     1
 72
     1
  1
8
  7
SLDTEXTSTYLE0
 73
     1
 44
1.0
  0
MTEXT
  5
F5
330
1F
100
AcDbEntity
  8
0
  6
Continuous
 62
     7
370
     0
100
AcDbMText
 10
585.6753634691
 20
16.5590559908
 30
0.0
 40
5.2916666667
 41
0.0
 71
     1
 72
     1
  1
7
  7
SLDTEXTSTYLE0
 73
     1
 44
1.0
  0
MTEXT
  5
F6
330
1F
100
AcDbEntity
  8
0
  6
Continuous
 62
     7
370
     0
100
AcDbMText
 10
496.3632417212
 20
16.5590559908
 30
0.0
 40
5.2916666667
 41
0.0
 71
     1
 72
     1
  1
6
  7
SLDTEXTSTYLE0
 73
     1
 44
1.0
  0
MTEXT
  5
F7
330
1F
100
AcDbEntity
  8
0
  6
Continuous
 62
     7
370
     0
100
AcDbMText
 10
409.0235077774
 20
16.5590559908
 30
0.0
 40
5.2916666667
 41
0.0
 71
     1
 72
     1
  1
5
  7
SLDTEXTSTYLE0
 73
     1
 44
1.0
  0
MTEXT
  5
F8
330
1F
100
AcDbEntity
  8
0
  6
Continuous
 62
     7
370
     0
100
AcDbMText
 10
322.9010398302
 20
16.1738229395
 30
0.0
 40
5.2916666667
 41
0.0
 71
     1
 72
     1
  1
4
  7
SLDTEXTSTYLE0
 73
     1
 44
1.0
  0
MTEXT
  5
F9
330
1F
100
AcDbEntity
  8
0
  6
Continuous
 62
     7
370
     0
100
AcDbMText
 10
237.020185094
 20
16.5590559908
 30
0.0
 40
5.2916666667
 41
0.0
 71
     1
 72
     1
  1
3
  7
SLDTEXTSTYLE0
 73
     1
 44
1.0
  0
MTEXT
  5
FA
330
1F
100
AcDbEntity
  8
0
  6
Continuous
 62
     7
370
     0
100
AcDbMText
 10
151.5604480484
 20
16.5590559908
 30
0.0
 40
5.2916666667
 41
0.0
 71
     1
 72
     1
  1
2
  7
SLDTEXTSTYLE0
 73
     1
 44
1.0
  0
MTEXT
  5
FB
330
1F
100
AcDbEntity
  8
0
  6
Continuous
 62
     7
370
     0
100
AcDbMText
 10
66.2751820007
 20
16.5590559908
 30
0.0
 40
5.2916666667
 41
0.0
 71
     1
 72
     1
  1
1
  7
SLDTEXTSTYLE0
 73
     1
 44
1.0
  0
MTEXT
  5
FC
330
1F
100
AcDbEntity
  8
0
  6
Continuous
 62
     7
370
     0
100
AcDbMText
 10
717.7559615361
 20
466.6062272729
 30
0.0
 40
5.2916666667
 41
0.0
 71
     1
 72
     1
  1
A
  7
SLDTEXTSTYLE0
 73
     1
 44
1.0
  0
MTEXT
  5
FD
330
1F
100
AcDbEntity
  8
0
  6
Continuous
 62
     7
370
     0
100
AcDbMText
 10
718.3415103553
 20
387.8262336126
 30
0.0
 40
5.2916666667
 41
0.0
 71
     1
 72
     1
  1
B
  7
SLDTEXTSTYLE0
 73
     1
 44
1.0
  0
MTEXT
  5
FE
330
1F
100
AcDbEntity
  8
0
  6
Continuous
 62
     7
370
     0
100
AcDbMText
 10
718.3415103553
 20
305.2638501106
 30
0.0
 40
5.2916666667
 41
0.0
 71
     1
 72
     1
  1
C
  7
SLDTEXTSTYLE0
 73
     1
 44
1.0
  0
MTEXT
  5
FF
330
1F
100
AcDbEntity
  8
0
  6
Continuous
 62
     7
370
     0
100
AcDbMText
 10
718.3415103553
 20
223.9412766083
 30
0.0
 40
5.2916666667
 41
0.0
 71
     1
 72
     1
  1
D
  7
SLDTEXTSTYLE0
 73
     1
 44
1.0
  0
MTEXT
  5
100
330
1F
100
AcDbEntity
  8
0
  6
Continuous
 62
     7
370
     0
100
AcDbMText
 10
718.3415103553
 20
145.9676838524
 30
0.0
 40
5.2916666667
 41
0.0
 71
     1
 72
     1
  1
E
  7
SLDTEXTSTYLE0
 73
     1
 44
1.0
  0
MTEXT
  5
101
330
1F
100
AcDbEntity
  8
0
  6
Continuous
 62
     7
370
     0
100
AcDbMText
 10
718.3415103553
 20
66.0015246161
 30
0.0
 40
5.2916666667
 41
0.0
 71
     1
 72
     1
  1
F
  7
SLDTEXTSTYLE0
 73
     1
 44
1.0
  0
MTEXT
  5
102
330
1F
100
AcDbEntity
  8
0
  6
Continuous
 62
     7
370
     0
100
AcDbMText
 10
507.8882822005
 20
53.9667871277
 30
0.0
 40
4.6302083333
 41
0.0
 71
     1
 72
     1
  1
Sky
  7
SLDTEXTSTYLE0
 73
     1
 44
1.0
  0
MTEXT
  5
104
330
1F
100
AcDbEntity
  8
0
  6
Continuous
 62
     7
370
     0
100
AcDbMText
 10
632.1205599113
 20
30.5549008295
 30
0.0
 40
5.953125
 41
0.0
 71
     1
 72
     1
  1
0
  7
SLDTEXTSTYLE1
 73
     1
 44
1.0
  0
INSERT
  5
10A
330
1F
100
AcDbEntity
  8
SLD-0
 62
     7
100
AcDbBlockReference
  2
SW_NOTE_1
 10
496.8129734837
 20
83.8699363031
 30
0.0
  0
ARC
  5
10B
330
1F
100
AcDbEntity
  8
0
  6
Continuous
 62
     7
370
    30
100
AcDbCircle
 10
334.4338103671
 20
241.7081452469
 30
0.0
 40
6.000000000000057
100
AcDbArc
 50
270.0
 51
0.0
  0
LINE
  5
10C
330
1F
100
AcDbEntity
  8
0
  6
Continuous
 62
     7
370
    30
100
AcDbLine
 10
334.4338103671
 20
235.7081452469
 30
0.0
 11
334.4338103671
 21
236.7081452469
 31
0.0
  0
ARC
  5
10D
330
1F
100
AcDbEntity
  8
0
  6
Continuous
 62
     7
370
    30
100
AcDbCircle
 10
334.4338103671
 20
241.7081452469
 30
0.0
 40
5.0
100
AcDbArc
 50
270.0
 51
0.0
  0
LINE
  5
10E
330
1F
100
AcDbEntity
  8
0
  6
Continuous
 62
     7
370
    30
100
AcDbLine
 10
340.4338103671
 20
241.7081452469
 30
0.0
 11
339.4338103671
 21
241.7081452469
 31
0.0
  0
ARC
  5
10F
330
1F
100
AcDbEntity
  8
0
  6
Continuous
 62
     7
370
    30
100
AcDbCircle
 10
239.4338103671
 20
267.7625673023
 30
0.0
 40
5.0
100
AcDbArc
 50
112.0
 51
180.0
  0
LINE
  5
110
330
1F
100
AcDbEntity
  8
0
  6
Continuous
 62
     7
370
    30
100
AcDbLine
 10
234.4338103671
 20
267.7625673023
 30
0.0
 11
233.4338103671
 21
267.7625673023
 31
0.0
  0
ARC
  5
111
330
1F
100
AcDbEntity
  8
0
  6
Continuous
 62
     7
370
    30
100
AcDbCircle
 10
239.4338103671
 20
267.7625673023
 30
0.0
 40
6.000000000000028
100
AcDbArc
 50
112.0
 51
180.0
  0
LINE
  5
112
330
1F
100
AcDbEntity
  8
0
  6
Continuous
 62
     7
370
    30
100
AcDbLine
 10
237.5607774001
 20
272.3984865752
 30
0.0
 11
237.1861708066
 21
273.3256704297
 31
0.0
  0
LINE
  5
113
330
1F
100
AcDbEntity
  8
0
  6
Continuous
 62
     7
370
    30
100
AcDbLine
 10
334.4338103671
 20
235.7081452469
 30
0.0
 11
239.4338103671
 21
235.7081452469
 31
0.0
  0
LINE
  5
114
330
1F
100
AcDbEntity
  8
0
  6
Continuous
 62
     7
370
    30
100
AcDbLine
 10
239.4338103671
 20
235.7081452469
 30
0.0
 11
239.4338103671
 21
236.7081452469
 31
0.0
  0
LINE
  5
115
330
1F
100
AcDbEntity
  8
0
  6
Continuous
 62
     7
370
    30
100
AcDbLine
 10
239.4338103671
 20
236.7081452469
 30
0.0
 11
334.4338103671
 21
236.7081452469
 31
0.0
  0
LINE
  5
116
330
1F
100
AcDbEntity
  8
0
  6
Continuous
 62
     7
370
    30
100
AcDbLine
 10
234.4338103671
 20
267.7625673023
 30
0.0
 11
234.4338103671
 21
241.7081452469
 31
0.0
  0
LINE
  5
117
330
1F
100
AcDbEntity
  8
0
  6
Continuous
 62
     7
370
    30
100
AcDbLine
 10
234.4338103671
 20
241.7081452469
 30
0.0
 11
233.4338103671
 21
241.7081452469
 31
0.0
  0
LINE
  5
118
330
1F
100
AcDbEntity
  8
0
  6
Continuous
 62
     7
370
    30
100
AcDbLine
 10
233.4338103671
 20
241.7081452469
 30
0.0
 11
233.4338103671
 21
267.7625673023
 31
0.0
  0
ARC
  5
119
330
1F
100
AcDbEntity
  8
0
  6
Continuous
 62
     7
370
    30
100
AcDbCircle
 10
239.4338103671
 20
241.7081452469
 30
0.0
 40
6.000000000000028
100
AcDbArc
 50
180.0
 51
270.0
  0
ARC
  5
11A
330
1F
100
AcDbEntity
  8
0
  6
Continuous
 62
     7
370
    30
100
AcDbCircle
 10
239.4338103671
 20
241.7081452469
 30
0.0
 40
5.0
100
AcDbArc
 50
180.0
 51
270.0
  0
LINE
  5
11B
330
1F
100
AcDbEntity
  8
0
  6
Continuous
 62
     7
370
    30
100
AcDbLine
 10
429.4338103671
 20
240.7081452469
 30
0.0
 11
429.4338103671
 21
248.5029363087
 31
0.0
  0
LINE
  5
11C
330
1F
100
AcDbEntity
  8
0
  6
Continuous
 62
     7
370
    30
100
AcDbLine
 10
429.4338103671
 20
248.5029363087
 30
0.0
 11
430.4338103671
 21
248.5029363087
 31
0.0
  0
LINE
  5
11D
330
1F
100
AcDbEntity
  8
0
  6
Continuous
 62
     7
370
    30
100
AcDbLine
 10
430.4338103671
 20
248.5029363087
 30
0.0
 11
430.4338103671
 21
240.7081452469
 31
0.0
  0
LINE
  5
11E
330
1F
100
AcDbEntity
  8
0
  6
Continuous
 62
     7
370
    30
100
AcDbLine
 10
429.4338103671
 20
240.7081452469
 30
0.0
 11
430.4338103671
 21
240.7081452469
 31
0.0
  0
ARC
  5
11F
330
1F
100
AcDbEntity
  8
0
  6
Continuous
 62
     7
370
    30
100
AcDbCircle
 10
427.2113316037
 20
344.7081452469
 30
0.0
 40
5.0
100
AcDbArc
 50
90.0
 51
112.0
  0
LINE
  5
120
330
1F
100
AcDbEntity
  8
0
  6
Continuous
 62
     7
370
    30
100
AcDbLine
 10
427.2113316037
 20
349.7081452469
 30
0.0
 11
427.2113316037
 21
348.7081452469
 31
0.0
  0
ARC
  5
121
330
1F
100
AcDbEntity
  8
0
  6
Continuous
 62
     7
370
    30
100
AcDbCircle
 10
427.2113316037
 20
344.7081452469
 30
0.0
 40
3.999999999999943
100
AcDbArc
 50
90.0
 51
112.0
  0
LINE
  5
122
330
1F
100
AcDbEntity
  8
0
  6
Continuous
 62
     7
370
    30
100
AcDbLine
 10
425.3382986366
 20
349.3440645197
 30
0.0
 11
425.71290523
 21
348.4168806652
 31
0.0
  0
ARC
  5
123
330
1F
100
AcDbEntity
  8
0
  6
Continuous
 62
     7
370
    30
100
AcDbCircle
 10
434.4338103671
 20
248.5029363087
 30
0.0
 40
5.000000000000018
100
AcDbArc
 50
114.6768631703
 51
180.0
  0
LINE
  5
124
330
1F
100
AcDbEntity
  8
0
  6
Continuous
 62
     7
370
    30
100
AcDbLine
 10
432.3463095094
 20
253.0463205285
 30
0.0
 11
432.7638096809
 21
252.1376436845
 31
0.0
  0
ARC
  5
125
330
1F
100
AcDbEntity
  8
0
  6
Continuous
 62
     7
370
    30
100
AcDbCircle
 10
434.4338103671
 20
248.5029363087
 30
0.0
 40
4.000000000000057
100
AcDbArc
 50
114.6768631703
 51
180.0
  0
LINE
  5
126
330
1F
100
AcDbEntity
  8
0
  6
Continuous
 62
     7
370
    30
100
AcDbLine
 10
340.4338103671
 20
306.1450587567
 30
0.0
 11
340.4338103671
 21
241.7081452469
 31
0.0
  0
ARC
  5
127
330
1F
100
AcDbEntity
  8
0
  6
Continuous
 62
     7
370
    30
100
AcDbCircle
 10
334.4338103671
 20
306.1450587567
 30
0.0
 40
6.000000000000056
100
AcDbArc
 50
0.0
 51
112.0
  0
LINE
  5
128
330
1F
100
AcDbEntity
  8
0
  6
Continuous
 62
     7
370
    30
100
AcDbLine
 10
237.1861708066
 20
273.3256704297
 30
0.0
 11
332.1861708066
 21
311.7081618841
 31
0.0
  0
ARC
  5
129
330
1F
100
AcDbEntity
  8
0
  6
Continuous
 62
     7
370
    30
100
AcDbCircle
 10
477.4338103671
 20
344.7081452469
 30
0.0
 40
5.0
100
AcDbArc
 50
0.0
 51
90.0
  0
LINE
  5
12A
330
1F
100
AcDbEntity
  8
0
  6
Continuous
 62
     7
370
    30
100
AcDbLine
 10
427.2113316037
 20
349.7081452469
 30
0.0
 11
477.4338103671
 21
349.7081452469
 31
0.0
  0
LINE
  5
12B
330
1F
100
AcDbEntity
  8
0
  6
Continuous
 62
     7
370
    30
100
AcDbLine
 10
361.5607774001
 20
323.5762733214
 30
0.0
 11
425.3382986366
 21
349.3440645197
 31
0.0
  0
ARC
  5
12C
330
1F
100
AcDbEntity
  8
0
  6
Continuous
 62
     7
370
    30
100
AcDbCircle
 10
363.4338103671
 20
318.9403540486
 30
0.0
 40
5.000000000000083
100
AcDbArc
 50
112.0
 51
180.0
  0
LINE
  5
12D
330
1F
100
AcDbEntity
  8
0
  6
Continuous
 62
     7
370
    30
100
AcDbLine
 10
358.4338103671
 20
240.7081452469
 30
0.0
 11
358.4338103671
 21
318.9403540486
 31
0.0
  0
ARC
  5
12E
330
1F
100
AcDbEntity
  8
0
  6
Continuous
 62
     7
370
    30
100
AcDbCircle
 10
363.4338103671
 20
240.7081452469
 30
0.0
 40
5.0
100
AcDbArc
 50
180.0
 51
270.0
  0
LINE
  5
12F
330
1F
100
AcDbEntity
  8
0
  6
Continuous
 62
     7
370
    30
100
AcDbLine
 10
425.4338103671
 20
235.7081452469
 30
0.0
 11
363.4338103671
 21
235.7081452469
 31
0.0
  0
ARC
  5
130
330
1F
100
AcDbEntity
  8
0
  6
Continuous
 62
     7
370
    30
100
AcDbCircle
 10
425.4338103671
 20
240.7081452469
 30
0.0
 40
5.0
100
AcDbArc
 50
270.0
 51
0.0
  0
LINE
  5
131
330
1F
100
AcDbEntity
  8
0
  6
Continuous
 62
     7
370
    30
100
AcDbLine
 10
465.857499723
 20
267.3428526227
 30
0.0
 11
432.7638096809
 21
252.1376436845
 31
0.0
  0
ARC
  5
132
330
1F
100
AcDbEntity
  8
0
  6
Continuous
 62
     7
370
    30
100
AcDbCircle
 10
467.5275004092
 20
263.7081452469
 30
0.0
 40
4.000000000000004
100
AcDbArc
 50
90.0
 51
114.6768631703
  0
LINE
  5
133
330
1F
100
AcDbEntity
  8
0
  6
Continuous
 62
     7
370
    30
100
AcDbLine
 10
477.4338103671
 20
267.7081452469
 30
0.0
 11
467.5275004092
 21
267.7081452469
 31
0.0
  0
ARC
  5
134
330
1F
100
AcDbEntity
  8
0
  6
Continuous
 62
     7
370
    30
100
AcDbCircle
 10
477.4338103671
 20
272.7081452469
 30
0.0
 40
5.000000000000057
100
AcDbArc
 50
270.0
 51
0.0
  0
LINE
  5
135
330
1F
100
AcDbEntity
  8
0
  6
Continuous
 62
     7
370
    30
100
AcDbLine
 10
482.4338103671
 20
344.7081452469
 30
0.0
 11
482.4338103671
 21
272.7081452469
 31
0.0
  0
LINE
  5
136
330
1F
100
AcDbEntity
  8
0
  6
Continuous
 62
     7
370
    30
100
AcDbLine
 10
498.4338103671
 20
224.1223588093
 30
0.0
 11
498.4338103671
 21
367.7081452469
 31
0.0
  0
LINE
  5
137
330
1F
100
AcDbEntity
  8
0
  6
Continuous
 62
     7
370
    30
100
AcDbLine
 10
494.0195968048
 20
219.7081452469
 30
0.0
 11
498.4338103671
 21
224.1223588093
 31
0.0
  0
LINE
  5
138
330
1F
100
AcDbEntity
  8
0
  6
Continuous
 62
     7
370
    30
100
AcDbLine
 10
150.4338103671
 20
219.7081452469
 30
0.0
 11
494.0195968048
 21
219.7081452469
 31
0.0
  0
LINE
  5
139
330
1F
100
AcDbEntity
  8
0
  6
Continuous
 62
     7
370
    30
100
AcDbLine
 10
150.4338103671
 20
255.3356026627
 30
0.0
 11
150.4338103671
 21
219.7081452469
 31
0.0
  0
ARC
  5
13A
330
1F
100
AcDbEntity
  8
0
  6
Continuous
 62
     7
370
    30
100
AcDbCircle
 10
154.4338103671
 20
255.3356026627
 30
0.0
 40
4.000000000000028
100
AcDbArc
 50
112.0
 51
180.0
  0
LINE
  5
13B
330
1F
100
AcDbEntity
  8
0
  6
Continuous
 62
     7
370
    30
100
AcDbLine
 10
421.166839415
 20
367.4168806652
 30
0.0
 11
152.9353839935
 21
259.0443380809
 31
0.0
  0
ARC
  5
13C
330
1F
100
AcDbEntity
  8
0
  6
Continuous
 62
     7
370
    30
100
AcDbCircle
 10
422.6652657886
 20
363.7081452469
 30
0.0
 40
3.999999999999943
100
AcDbArc
 50
90.0
 51
112.0
  0
LINE
  5
13D
330
1F
100
AcDbEntity
  8
0
  6
Continuous
 62
     7
370
    30
100
AcDbLine
 10
498.4338103671
 20
367.7081452469
 30
0.0
 11
422.6652657886
 21
367.7081452469
 31
0.0
  0
LINE
  5
13E
330
1F
100
AcDbEntity
  8
0
  6
Continuous
 62
     7
370
    30
100
AcDbLine
 10
494.0195968048
 20
219.7081452469
 30
0.0
 11
494.4338103671
 21
218.7081452469
 31
0.0
  0
LINE
  5
13F
330
1F
100
AcDbEntity
  8
0
  6
Continuous
 62
     7
370
    30
100
AcDbLine
 10
494.4338103671
 20
218.7081452469
 30
0.0
 11
149.4338103671
 21
218.7081452469
 31
0.0
  0
LINE
  5
140
330
1F
100
AcDbEntity
  8
0
  6
Continuous
 62
     7
370
    30
100
AcDbLine
 10
149.4338103671
 20
218.7081452469
 30
0.0
 11
150.4338103671
 21
219.7081452469
 31
0.0
  0
LINE
  5
141
330
1F
100
AcDbEntity
  8
0
  6
Continuous
 62
     7
370
    30
100
AcDbLine
 10
498.4338103671
 20
224.1223588093
 30
0.0
 11
499.4338103671
 21
223.7081452469
 31
0.0
  0
LINE
  5
142
330
1F
100
AcDbEntity
  8
0
  6
Continuous
 62
     7
370
    30
100
AcDbLine
 10
499.4338103671
 20
223.7081452469
 30
0.0
 11
494.4338103671
 21
218.7081452469
 31
0.0
  0
LINE
  5
143
330
1F
100
AcDbEntity
  8
0
  6
Continuous
 62
     7
370
    30
100
AcDbLine
 10
149.4338103671
 20
218.7081452469
 30
0.0
 11
149.4338103671
 21
255.3356026627
 31
0.0
  0
LINE
  5
144
330
1F
100
AcDbEntity
  8
0
  6
Continuous
 62
     7
370
    30
100
AcDbLine
 10
149.4338103671
 20
255.3356026627
 30
0.0
 11
150.4338103671
 21
255.3356026627
 31
0.0
  0
LINE
  5
145
330
1F
100
AcDbEntity
  8
0
  6
Continuous
 62
     7
370
    30
100
AcDbLine
 10
498.4338103671
 20
367.7081452469
 30
0.0
 11
499.4338103671
 21
368.7081452469
 31
0.0
  0
LINE
  5
146
330
1F
100
AcDbEntity
  8
0
  6
Continuous
 62
     7
370
    30
100
AcDbLine
 10
499.4338103671
 20
368.7081452469
 30
0.0
 11
499.4338103671
 21
223.7081452469
 31
0.0
  0
ARC
  5
147
330
1F
100
AcDbEntity
  8
0
  6
Continuous
 62
     7
370
    30
100
AcDbCircle
 10
154.4338103671
 20
255.3356026627
 30
0.0
 40
5.0
100
AcDbArc
 50
112.0
 51
180.0
  0
LINE
  5
148
330
1F
100
AcDbEntity
  8
0
  6
Continuous
 62
     7
370
    30
100
AcDbLine
 10
152.5607774001
 20
259.9715219355
 30
0.0
 11
152.9353839935
 21
259.0443380809
 31
0.0
  0
LINE
  5
149
330
1F
100
AcDbEntity
  8
0
  6
Continuous
 62
     7
370
    30
100
AcDbLine
 10
422.6652657886
 20
367.7081452469
 30
0.0
 11
422.6652657886
 21
368.7081452469
 31
0.0
  0
LINE
  5
14A
330
1F
100
AcDbEntity
  8
0
  6
Continuous
 62
     7
370
    30
100
AcDbLine
 10
422.6652657886
 20
368.7081452469
 30
0.0
 11
499.4338103671
 21
368.7081452469
 31
0.0
  0
LINE
  5
14B
330
1F
100
AcDbEntity
  8
0
  6
Continuous
 62
     7
370
    30
100
AcDbLine
 10
152.5607774001
 20
259.9715219355
 30
0.0
 11
420.7922328215
 21
368.3440645197
 31
0.0
  0
LINE
  5
14C
330
1F
100
AcDbEntity
  8
0
  6
Continuous
 62
     7
370
    30
100
AcDbLine
 10
420.7922328215
 20
368.3440645197
 30
0.0
 11
421.166839415
 21
367.4168806652
 31
0.0
  0
ARC
  5
14D
330
1F
100
AcDbEntity
  8
0
  6
Continuous
 62
     7
370
    30
100
AcDbCircle
 10
422.6652657886
 20
363.7081452469
 30
0.0
 40
5.0
100
AcDbArc
 50
90.0
 51
112.0
  0
LINE
  5
14E
330
1F
100
AcDbEntity
  8
0
  6
Continuous
 62
     7
370
    30
100
AcDbLine
 10
358.4338103671
 20
240.7081452469
 30
0.0
 11
359.4338103671
 21
240.7081452469
 31
0.0
  0
ARC
  5
14F
330
1F
100
AcDbEntity
  8
0
  6
Continuous
 62
     7
370
    30
100
AcDbCircle
 10
363.4338103671
 20
240.7081452469
 30
0.0
 40
4.000000000000057
100
AcDbArc
 50
180.0
 51
270.0
  0
LINE
  5
150
330
1F
100
AcDbEntity
  8
0
  6
Continuous
 62
     7
370
    30
100
AcDbLine
 10
363.4338103671
 20
236.7081452469
 30
0.0
 11
363.4338103671
 21
235.7081452469
 31
0.0
  0
LINE
  5
151
330
1F
100
AcDbEntity
  8
0
  6
Continuous
 62
     7
370
    30
100
AcDbLine
 10
358.4338103671
 20
318.9403540486
 30
0.0
 11
359.4338103671
 21
318.9403540486
 31
0.0
  0
LINE
  5
152
330
1F
100
AcDbEntity
  8
0
  6
Continuous
 62
     7
370
    30
100
AcDbLine
 10
359.4338103671
 20
318.9403540486
 30
0.0
 11
359.4338103671
 21
240.7081452469
 31
0.0
  0
LINE
  5
153
330
1F
100
AcDbEntity
  8
0
  6
Continuous
 62
     7
370
    30
100
AcDbLine
 10
363.4338103671
 20
236.7081452469
 30
0.0
 11
425.4338103671
 21
236.7081452469
 31
0.0
  0
LINE
  5
154
330
1F
100
AcDbEntity
  8
0
  6
Continuous
 62
     7
370
    30
100
AcDbLine
 10
425.4338103671
 20
236.7081452469
 30
0.0
 11
425.4338103671
 21
235.7081452469
 31
0.0
  0
LINE
  5
155
330
1F
100
AcDbEntity
  8
0
  6
Continuous
 62
     7
370
    30
100
AcDbLine
 10
361.5607774001
 20
323.5762733214
 30
0.0
 11
361.9353839935
 21
322.6490894668
 31
0.0
  0
ARC
  5
156
330
1F
100
AcDbEntity
  8
0
  6
Continuous
 62
     7
370
    30
100
AcDbCircle
 10
363.4338103671
 20
318.9403540486
 30
0.0
 40
4.000000000000057
100
AcDbArc
 50
112.0
 51
180.0
  0
ARC
  5
157
330
1F
100
AcDbEntity
  8
0
  6
Continuous
 62
     7
370
    30
100
AcDbCircle
 10
425.4338103671
 20
240.7081452469
 30
0.0
 40
4.000000000000057
100
AcDbArc
 50
270.0
 51
0.0
  0
LINE
  5
158
330
1F
100
AcDbEntity
  8
0
  6
Continuous
 62
     7
370
    30
100
AcDbLine
 10
425.71290523
 20
348.4168806652
 30
0.0
 11
361.9353839935
 21
322.6490894668
 31
0.0
  0
LINE
  5
159
330
1F
100
AcDbEntity
  8
0
  6
Continuous
 62
     7
370
    30
100
AcDbLine
 10
477.4338103671
 20
268.7081452469
 30
0.0
 11
477.4338103671
 21
267.7081452469
 31
0.0
  0
ARC
  5
15A
330
1F
100
AcDbEntity
  8
0
  6
Continuous
 62
     7
370
    30
100
AcDbCircle
 10
477.4338103671
 20
272.7081452469
 30
0.0
 40
4.000000000000057
100
AcDbArc
 50
270.0
 51
0.0
  0
LINE
  5
15B
330
1F
100
AcDbEntity
  8
0
  6
Continuous
 62
     7
370
    30
100
AcDbLine
 10
482.4338103671
 20
272.7081452469
 30
0.0
 11
481.4338103671
 21
272.7081452469
 31
0.0
  0
LINE
  5
15C
330
1F
100
AcDbEntity
  8
0
  6
Continuous
 62
     7
370
    30
100
AcDbLine
 10
340.4338103671
 20
306.1450587567
 30
0.0
 11
339.4338103671
 21
306.1450587567
 31
0.0
  0
ARC
  5
15D
330
1F
100
AcDbEntity
  8
0
  6
Continuous
 62
     7
370
    30
100
AcDbCircle
 10
334.4338103671
 20
306.1450587567
 30
0.0
 40
5.000000000000031
100
AcDbArc
 50
0.0
 51
112.0
  0
LINE
  5
15E
330
1F
100
AcDbEntity
  8
0
  6
Continuous
 62
     7
370
    30
100
AcDbLine
 10
332.5607774001
 20
310.7809780295
 30
0.0
 11
332.1861708066
 21
311.7081618841
 31
0.0
  0
LINE
  5
15F
330
1F
100
AcDbEntity
  8
0
  6
Continuous
 62
     7
370
    30
100
AcDbLine
 10
339.4338103671
 20
241.7081452469
 30
0.0
 11
339.4338103671
 21
306.1450587567
 31
0.0
  0
LINE
  5
160
330
1F
100
AcDbEntity
  8
0
  6
Continuous
 62
     7
370
    30
100
AcDbLine
 10
477.4338103671
 20
349.7081452469
 30
0.0
 11
477.4338103671
 21
348.7081452469
 31
0.0
  0
LINE
  5
161
330
1F
100
AcDbEntity
  8
0
  6
Continuous
 62
     7
370
    30
100
AcDbLine
 10
477.4338103671
 20
348.7081452469
 30
0.0
 11
427.2113316037
 21
348.7081452469
 31
0.0
  0
LINE
  5
162
330
1F
100
AcDbEntity
  8
0
  6
Continuous
 62
     7
370
    30
100
AcDbLine
 10
432.3463095094
 20
253.0463205285
 30
0.0
 11
465.4399995514
 21
268.2515294667
 31
0.0
  0
LINE
  5
163
330
1F
100
AcDbEntity
  8
0
  6
Continuous
 62
     7
370
    30
100
AcDbLine
 10
465.4399995514
 20
268.2515294667
 30
0.0
 11
465.857499723
 21
267.3428526227
 31
0.0
  0
LINE
  5
164
330
1F
100
AcDbEntity
  8
0
  6
Continuous
 62
     7
370
    30
100
AcDbLine
 10
482.4338103671
 20
344.7081452469
 30
0.0
 11
481.4338103671
 21
344.7081452469
 31
0.0
  0
ARC
  5
165
330
1F
100
AcDbEntity
  8
0
  6
Continuous
 62
     7
370
    30
100
AcDbCircle
 10
477.4338103671
 20
344.7081452469
 30
0.0
 40
4.0
100
AcDbArc
 50
0.0
 51
90.0
  0
ARC
  5
166
330
1F
100
AcDbEntity
  8
0
  6
Continuous
 62
     7
370
    30
100
AcDbCircle
 10
467.5275004092
 20
263.7081452469
 30
0.0
 40
5.0
100
AcDbArc
 50
90.0
 51
114.6768631703
  0
LINE
  5
167
330
1F
100
AcDbEntity
  8
0
  6
Continuous
 62
     7
370
    30
100
AcDbLine
 10
467.5275004092
 20
268.7081452469
 30
0.0
 11
467.5275004092
 21
267.7081452469
 31
0.0
  0
LINE
  5
168
330
1F
100
AcDbEntity
  8
0
  6
Continuous
 62
     7
370
    30
100
AcDbLine
 10
481.4338103671
 20
272.7081452469
 30
0.0
 11
481.4338103671
 21
344.7081452469
 31
0.0
  0
LINE
  5
169
330
1F
100
AcDbEntity
  8
0
  6
Continuous
 62
     7
370
    30
100
AcDbLine
 10
467.5275004092
 20
268.7081452469
 30
0.0
 11
477.4338103671
 21
268.7081452469
 31
0.0
  0
LINE
  5
16A
330
1F
100
AcDbEntity
  8
0
  6
Continuous
 62
     7
370
    30
100
AcDbLine
 10
332.5607774001
 20
310.7809780295
 30
0.0
 11
237.5607774001
 21
272.3984865752
 31
0.0
  0
LINE
  5
16B
330
1F
100
AcDbEntity
  8
0
  6
HIDDEN
 62
     7
370
    15
100
AcDbLine
 10
168.9338103671
 20
236.7081452469
 30
0.0
 11
179.9338103671
 21
236.7081452469
 31
0.0
  0
LINE
  5
16C
330
1F
100
AcDbEntity
  8
0
  6
HIDDEN
 62
     7
370
    15
100
AcDbLine
 10
218.9338103671
 20
236.7081452469
 30
0.0
 11
229.9338103671
 21
236.7081452469
 31
0.0
  0
LINE
  5
16D
330
1F
100
AcDbEntity
  8
0
  6
HIDDEN
 62
     7
370
    15
100
AcDbLine
 10
193.9338103671
 20
236.7081452469
 30
0.0
 11
204.9338103671
 21
236.7081452469
 31
0.0
  0
LINE
  5
16E
330
1F
100
AcDbEntity
  8
0
  6
HIDDEN
 62
     7
370
    15
100
AcDbLine
 10
386.9338103671
 20
233.7081452469
 30
0.0
 11
384.4338103671
 21
233.7081452469
 31
0.0
  0
LINE
  5
16F
330
1F
100
AcDbEntity
  8
0
  6
HIDDEN
 62
     7
370
    15
100
AcDbLine
 10
389.4338103671
 20
233.7081452469
 30
0.0
 11
386.9338103671
 21
233.7081452469
 31
0.0
  0
LINE
  5
170
330
1F
100
AcDbEntity
  8
0
  6
HIDDEN
 62
     7
370
    15
100
AcDbLine
 10
311.9338103671
 20
233.7081452469
 30
0.0
 11
309.4338103671
 21
233.7081452469
 31
0.0
  0
LINE
  5
171
330
1F
100
AcDbEntity
  8
0
  6
HIDDEN
 62
     7
370
    15
100
AcDbLine
 10
314.4338103671
 20
233.7081452469
 30
0.0
 11
311.9338103671
 21
233.7081452469
 31
0.0
  0
LINE
  5
172
330
1F
100
AcDbEntity
  8
0
  6
HIDDEN
 62
     7
370
    15
100
AcDbLine
 10
484.4338103671
 20
318.7081452469
 30
0.0
 11
484.4338103671
 21
316.2081452469
 31
0.0
  0
LINE
  5
173
330
1F
100
AcDbEntity
  8
0
  6
HIDDEN
 62
     7
370
    15
100
AcDbLine
 10
484.4338103671
 20
321.2081452469
 30
0.0
 11
484.4338103671
 21
318.7081452469
 31
0.0
  0
LINE
  5
174
330
1F
100
AcDbEntity
  8
0
  6
HIDDEN
 62
     7
370
    15
100
AcDbLine
 10
484.4338103671
 20
356.2081452469
 30
0.0
 11
484.4338103671
 21
353.7081452469
 31
0.0
  0
LINE
  5
175
330
1F
100
AcDbEntity
  8
0
  6
HIDDEN
 62
     7
370
    15
100
AcDbLine
 10
484.4338103671
 20
358.7081452469
 30
0.0
 11
484.4338103671
 21
356.2081452469
 31
0.0
  0
LINE
  5
176
330
1F
100
AcDbEntity
  8
0
  6
HIDDEN
 62
     7
370
    15
100
AcDbLine
 10
164.4338103671
 20
228.7081452469
 30
0.0
 11
164.4338103671
 21
233.7081452469
 31
0.0
  0
LINE
  5
177
330
1F
100
AcDbEntity
  8
0
  6
HIDDEN
 62
     7
370
    15
100
AcDbLine
 10
446.9338103671
 20
353.7081452469
 30
0.0
 11
451.9338103671
 21
353.7081452469
 31
0.0
  0
LINE
  5
178
330
1F
100
AcDbEntity
  8
0
  6
HIDDEN
 62
     7
370
    15
100
AcDbLine
 10
471.9338103671
 20
353.7081452469
 30
0.0
 11
476.9338103671
 21
353.7081452469
 31
0.0
  0
LINE
  5
179
330
1F
100
AcDbEntity
  8
0
  6
HIDDEN
 62
     7
370
    15
100
AcDbLine
 10
484.4338103671
 20
243.7081452469
 30
0.0
 11
484.4338103671
 21
241.2081452469
 31
0.0
  0
LINE
  5
17A
330
1F
100
AcDbEntity
  8
0
  6
HIDDEN
 62
     7
370
    15
100
AcDbLine
 10
484.4338103671
 20
246.2081452469
 30
0.0
 11
484.4338103671
 21
243.7081452469
 31
0.0
  0
LINE
  5
17B
330
1F
100
AcDbEntity
  8
0
  6
HIDDEN
 62
     7
370
    15
100
AcDbLine
 10
286.9338103671
 20
233.7081452469
 30
0.0
 11
284.4338103671
 21
233.7081452469
 31
0.0
  0
LINE
  5
17C
330
1F
100
AcDbEntity
  8
0
  6
HIDDEN
 62
     7
370
    15
100
AcDbLine
 10
289.4338103671
 20
233.7081452469
 30
0.0
 11
286.9338103671
 21
233.7081452469
 31
0.0
  0
LINE
  5
17D
330
1F
100
AcDbEntity
  8
0
  6
HIDDEN
 62
     7
370
    15
100
AcDbLine
 10
261.9338103671
 20
233.7081452469
 30
0.0
 11
259.4338103671
 21
233.7081452469
 31
0.0
  0
LINE
  5
17E
330
1F
100
AcDbEntity
  8
0
  6
HIDDEN
 62
     7
370
    15
100
AcDbLine
 10
264.4338103671
 20
233.7081452469
 30
0.0
 11
261.9338103671
 21
233.7081452469
 31
0.0
  0
LINE
  5
17F
330
1F
100
AcDbEntity
  8
0
  6
HIDDEN
 62
     7
370
    15
100
AcDbLine
 10
484.4338103671
 20
293.7081452469
 30
0.0
 11
484.4338103671
 21
291.2081452469
 31
0.0
  0
LINE
  5
180
330
1F
100
AcDbEntity
  8
0
  6
HIDDEN
 62
     7
370
    15
100
AcDbLine
 10
484.4338103671
 20
296.2081452469
 30
0.0
 11
484.4338103671
 21
293.7081452469
 31
0.0
  0
LINE
  5
181
330
1F
100
AcDbEntity
  8
0
  6
HIDDEN
 62
     7
370
    15
100
AcDbLine
 10
211.9338103671
 20
233.7081452469
 30
0.0
 11
209.4338103671
 21
233.7081452469
 31
0.0
  0
LINE
  5
182
330
1F
100
AcDbEntity
  8
0
  6
HIDDEN
 62
     7
370
    15
100
AcDbLine
 10
214.4338103671
 20
233.7081452469
 30
0.0
 11
211.9338103671
 21
233.7081452469
 31
0.0
  0
LINE
  5
183
330
1F
100
AcDbEntity
  8
0
  6
HIDDEN
 62
     7
370
    15
100
AcDbLine
 10
411.9338103671
 20
233.7081452469
 30
0.0
 11
409.4338103671
 21
233.7081452469
 31
0.0
  0
LINE
  5
184
330
1F
100
AcDbEntity
  8
0
  6
HIDDEN
 62
     7
370
    15
100
AcDbLine
 10
414.4338103671
 20
233.7081452469
 30
0.0
 11
411.9338103671
 21
233.7081452469
 31
0.0
  0
LINE
  5
185
330
1F
100
AcDbEntity
  8
0
  6
HIDDEN
 62
     7
370
    15
100
AcDbLine
 10
186.9338103671
 20
233.7081452469
 30
0.0
 11
184.4338103671
 21
233.7081452469
 31
0.0
  0
LINE
  5
186
330
1F
100
AcDbEntity
  8
0
  6
HIDDEN
 62
     7
370
    15
100
AcDbLine
 10
189.4338103671
 20
233.7081452469
 30
0.0
 11
186.9338103671
 21
233.7081452469
 31
0.0
  0
LINE
  5
187
330
1F
100
AcDbEntity
  8
0
  6
HIDDEN
 62
     7
370
    15
100
AcDbLine
 10
152.5607774001
 20
259.9715219355
 30
0.0
 11
152.9353839935
 21
259.0443380809
 31
0.0
  0
LINE
  5
188
330
1F
100
AcDbEntity
  8
0
  6
HIDDEN
 62
     7
370
    15
100
AcDbLine
 10
152.9353839935
 20
259.0443380809
 30
0.0
 11
421.166839415
 21
367.4168806652
 31
0.0
  0
LINE
  5
189
330
1F
100
AcDbEntity
  8
0
  6
HIDDEN
 62
     7
370
    15
100
AcDbLine
 10
420.7922328215
 20
368.3440645197
 30
0.0
 11
421.166839415
 21
367.4168806652
 31
0.0
  0
ARC
  5
18A
330
1F
100
AcDbEntity
  8
0
  6
HIDDEN
 62
     7
370
    15
100
AcDbCircle
 10
422.6652657886
 20
363.7081452469
 30
0.0
 40
3.999999999999943
100
AcDbArc
 50
90.0
 51
112.0
  0
LINE
  5
18B
330
1F
100
AcDbEntity
  8
0
  6
HIDDEN
 62
     7
370
    15
100
AcDbLine
 10
422.6652657886
 20
367.7081452469
 30
0.0
 11
422.6652657886
 21
368.7081452469
 31
0.0
  0
LINE
  5
18C
330
1F
100
AcDbEntity
  8
0
  6
HIDDEN
 62
     7
370
    15
100
AcDbLine
 10
422.6652657886
 20
367.7081452469
 30
0.0
 11
498.4338103671
 21
367.7081452469
 31
0.0
  0
LINE
  5
18D
330
1F
100
AcDbEntity
  8
0
  6
HIDDEN
 62
     7
370
    15
100
AcDbLine
 10
465.4399995514
 20
268.2515294667
 30
0.0
 11
465.857499723
 21
267.3428526227
 31
0.0
  0
ARC
  5
18E
330
1F
100
AcDbEntity
  8
0
  6
HIDDEN
 62
     7
370
    15
100
AcDbCircle
 10
467.5275004092
 20
263.7081452469
 30
0.0
 40
4.000000000000004
100
AcDbArc
 50
90.0
 51
114.6768631703
  0
LINE
  5
18F
330
1F
100
AcDbEntity
  8
0
  6
HIDDEN
 62
     7
370
    15
100
AcDbLine
 10
467.5275004092
 20
268.7081452469
 30
0.0
 11
467.5275004092
 21
267.7081452469
 31
0.0
  0
LINE
  5
190
330
1F
100
AcDbEntity
  8
0
  6
HIDDEN
 62
     7
370
    15
100
AcDbLine
 10
498.4338103671
 20
367.7081452469
 30
0.0
 11
498.4338103671
 21
224.1223588093
 31
0.0
  0
LINE
  5
191
330
1F
100
AcDbEntity
  8
0
  6
HIDDEN
 62
     7
370
    15
100
AcDbLine
 10
149.4338103671
 20
255.3356026627
 30
0.0
 11
150.4338103671
 21
255.3356026627
 31
0.0
  0
ARC
  5
192
330
1F
100
AcDbEntity
  8
0
  6
HIDDEN
 62
     7
370
    15
100
AcDbCircle
 10
154.4338103671
 20
255.3356026627
 30
0.0
 40
4.000000000000028
100
AcDbArc
 50
112.0
 51
180.0
  0
LINE
  5
193
330
1F
100
AcDbEntity
  8
0
  6
HIDDEN
 62
     7
370
    15
100
AcDbLine
 10
498.4338103671
 20
224.1223588093
 30
0.0
 11
494.0195968048
 21
219.7081452469
 31
0.0
  0
LINE
  5
194
330
1F
100
AcDbEntity
  8
0
  6
HIDDEN
 62
     7
370
    15
100
AcDbLine
 10
150.4338103671
 20
219.7081452469
 30
0.0
 11
150.4338103671
 21
255.3356026627
 31
0.0
  0
LINE
  5
195
330
1F
100
AcDbEntity
  8
0
  6
HIDDEN
 62
     7
370
    15
100
AcDbLine
 10
494.0195968048
 20
219.7081452469
 30
0.0
 11
150.4338103671
 21
219.7081452469
 31
0.0
  0
ARC
  5
196
330
1F
100
AcDbEntity
  8
0
  6
HIDDEN
 62
     7
370
    15
100
AcDbCircle
 10
427.2113316037
 20
344.7081452469
 30
0.0
 40
5.0
100
AcDbArc
 50
90.0
 51
112.0
  0
LINE
  5
197
330
1F
100
AcDbEntity
  8
0
  6
HIDDEN
 62
     7
370
    15
100
AcDbLine
 10
425.3382986366
 20
349.3440645197
 30
0.0
 11
425.71290523
 21
348.4168806652
 31
0.0
  0
LINE
  5
198
330
1F
100
AcDbEntity
  8
0
  6
HIDDEN
 62
     7
370
    15
100
AcDbLine
 10
427.2113316037
 20
348.7081452469
 30
0.0
 11
427.2113316037
 21
349.7081452469
 31
0.0
  0
LINE
  5
199
330
1F
100
AcDbEntity
  8
0
  6
HIDDEN
 62
     7
370
    15
100
AcDbLine
 10
425.3382986366
 20
349.3440645197
 30
0.0
 11
361.5607774001
 21
323.5762733214
 31
0.0
  0
LINE
  5
19A
330
1F
100
AcDbEntity
  8
0
  6
HIDDEN
 62
     7
370
    15
100
AcDbLine
 10
361.5607774001
 20
323.5762733214
 30
0.0
 11
361.9353839935
 21
322.6490894668
 31
0.0
  0
LINE
  5
19B
330
1F
100
AcDbEntity
  8
0
  6
HIDDEN
 62
     7
370
    15
100
AcDbLine
 10
477.4338103671
 20
348.7081452469
 30
0.0
 11
477.4338103671
 21
349.7081452469
 31
0.0
  0
LINE
  5
19C
330
1F
100
AcDbEntity
  8
0
  6
HIDDEN
 62
     7
370
    15
100
AcDbLine
 10
477.4338103671
 20
349.7081452469
 30
0.0
 11
427.2113316037
 21
349.7081452469
 31
0.0
  0
ARC
  5
19D
330
1F
100
AcDbEntity
  8
0
  6
HIDDEN
 62
     7
370
    15
100
AcDbCircle
 10
363.4338103671
 20
318.9403540486
 30
0.0
 40
5.000000000000031
100
AcDbArc
 50
112.0
 51
180.0
  0
LINE
  5
19E
330
1F
100
AcDbEntity
  8
0
  6
HIDDEN
 62
     7
370
    15
100
AcDbLine
 10
358.4338103671
 20
318.9403540486
 30
0.0
 11
359.4338103671
 21
318.9403540486
 31
0.0
  0
LINE
  5
19F
330
1F
100
AcDbEntity
  8
0
  6
HIDDEN
 62
     7
370
    15
100
AcDbLine
 10
481.4338103671
 20
344.7081452469
 30
0.0
 11
482.4338103671
 21
344.7081452469
 31
0.0
  0
ARC
  5
1A0
330
1F
100
AcDbEntity
  8
0
  6
HIDDEN
 62
     7
370
    15
100
AcDbCircle
 10
477.4338103671
 20
344.7081452469
 30
0.0
 40
5.0
100
AcDbArc
 50
0.0
 51
90.0
  0
LINE
  5
1A1
330
1F
100
AcDbEntity
  8
0
  6
HIDDEN
 62
     7
370
    15
100
AcDbLine
 10
358.4338103671
 20
318.9403540486
 30
0.0
 11
358.4338103671
 21
240.7081452469
 31
0.0
  0
LINE
  5
1A2
330
1F
100
AcDbEntity
  8
0
  6
HIDDEN
 62
     7
370
    15
100
AcDbLine
 10
358.4338103671
 20
240.7081452469
 30
0.0
 11
359.4338103671
 21
240.7081452469
 31
0.0
  0
LINE
  5
1A3
330
1F
100
AcDbEntity
  8
0
  6
HIDDEN
 62
     7
370
    15
100
AcDbLine
 10
481.4338103671
 20
272.7081452469
 30
0.0
 11
482.4338103671
 21
272.7081452469
 31
0.0
  0
LINE
  5
1A4
330
1F
100
AcDbEntity
  8
0
  6
HIDDEN
 62
     7
370
    15
100
AcDbLine
 10
482.4338103671
 20
272.7081452469
 30
0.0
 11
482.4338103671
 21
344.7081452469
 31
0.0
  0
ARC
  5
1A5
330
1F
100
AcDbEntity
  8
0
  6
HIDDEN
 62
     7
370
    15
100
AcDbCircle
 10
363.4338103671
 20
240.7081452469
 30
0.0
 40
5.0
100
AcDbArc
 50
180.0
 51
270.0
  0
LINE
  5
1A6
330
1F
100
AcDbEntity
  8
0
  6
HIDDEN
 62
     7
370
    15
100
AcDbLine
 10
363.4338103671
 20
235.7081452469
 30
0.0
 11
363.4338103671
 21
236.7081452469
 31
0.0
  0
LINE
  5
1A7
330
1F
100
AcDbEntity
  8
0
  6
HIDDEN
 62
     7
370
    15
100
AcDbLine
 10
477.4338103671
 20
268.7081452469
 30
0.0
 11
477.4338103671
 21
267.7081452469
 31
0.0
  0
ARC
  5
1A8
330
1F
100
AcDbEntity
  8
0
  6
HIDDEN
 62
     7
370
    15
100
AcDbCircle
 10
477.4338103671
 20
272.7081452469
 30
0.0
 40
5.000000000000057
100
AcDbArc
 50
270.0
 51
0.0
  0
LINE
  5
1A9
330
1F
100
AcDbEntity
  8
0
  6
HIDDEN
 62
     7
370
    15
100
AcDbLine
 10
363.4338103671
 20
235.7081452469
 30
0.0
 11
425.4338103671
 21
235.7081452469
 31
0.0
  0
LINE
  5
1AA
330
1F
100
AcDbEntity
  8
0
  6
HIDDEN
 62
     7
370
    15
100
AcDbLine
 10
425.4338103671
 20
235.7081452469
 30
0.0
 11
425.4338103671
 21
236.7081452469
 31
0.0
  0
LINE
  5
1AB
330
1F
100
AcDbEntity
  8
0
  6
HIDDEN
 62
     7
370
    15
100
AcDbLine
 10
467.5275004092
 20
267.7081452469
 30
0.0
 11
477.4338103671
 21
267.7081452469
 31
0.0
  0
ARC
  5
1AC
330
1F
100
AcDbEntity
  8
0
  6
HIDDEN
 62
     7
370
    15
100
AcDbCircle
 10
425.4338103671
 20
240.7081452469
 30
0.0
 40
5.0
100
AcDbArc
 50
270.0
 51
0.0
  0
LINE
  5
1AD
330
1F
100
AcDbEntity
  8
0
  6
HIDDEN
 62
     7
370
    15
100
AcDbLine
 10
430.4338103671
 20
240.7081452469
 30
0.0
 11
429.4338103671
 21
240.7081452469
 31
0.0
  0
LINE
  5
1AE
330
1F
100
AcDbEntity
  8
0
  6
HIDDEN
 62
     7
370
    15
100
AcDbLine
 10
239.4338103671
 20
235.7081452469
 30
0.0
 11
334.4338103671
 21
235.7081452469
 31
0.0
  0
LINE
  5
1AF
330
1F
100
AcDbEntity
  8
0
  6
HIDDEN
 62
     7
370
    15
100
AcDbLine
 10
334.4338103671
 20
235.7081452469
 30
0.0
 11
334.4338103671
 21
236.7081452469
 31
0.0
  0
LINE
  5
1B0
330
1F
100
AcDbEntity
  8
0
  6
HIDDEN
 62
     7
370
    15
100
AcDbLine
 10
239.4338103671
 20
235.7081452469
 30
0.0
 11
239.4338103671
 21
236.7081452469
 31
0.0
  0
LINE
  5
1B1
330
1F
100
AcDbEntity
  8
0
  6
HIDDEN
 62
     7
370
    15
100
AcDbLine
 10
430.4338103671
 20
240.7081452469
 30
0.0
 11
430.4338103671
 21
248.5029363087
 31
0.0
  0
LINE
  5
1B2
330
1F
100
AcDbEntity
  8
0
  6
HIDDEN
 62
     7
370
    15
100
AcDbLine
 10
430.4338103671
 20
248.5029363087
 30
0.0
 11
429.4338103671
 21
248.5029363087
 31
0.0
  0
LINE
  5
1B3
330
1F
100
AcDbEntity
  8
0
  6
HIDDEN
 62
     7
370
    15
100
AcDbLine
 10
432.3463095094
 20
253.0463205285
 30
0.0
 11
432.7638096809
 21
252.1376436845
 31
0.0
  0
LINE
  5
1B4
330
1F
100
AcDbEntity
  8
0
  6
HIDDEN
 62
     7
370
    15
100
AcDbLine
 10
432.7638096809
 20
252.1376436845
 30
0.0
 11
465.857499723
 21
267.3428526227
 31
0.0
  0
ARC
  5
1B5
330
1F
100
AcDbEntity
  8
0
  6
HIDDEN
 62
     7
370
    15
100
AcDbCircle
 10
434.4338103671
 20
248.5029363087
 30
0.0
 40
4.000000000000057
100
AcDbArc
 50
114.6768631703
 51
180.0
  0
ARC
  5
1B6
330
1F
100
AcDbEntity
  8
0
  6
HIDDEN
 62
     7
370
    15
100
AcDbCircle
 10
239.4338103671
 20
267.7625673023
 30
0.0
 40
6.000000000000028
100
AcDbArc
 50
112.0
 51
180.0
  0
LINE
  5
1B7
330
1F
100
AcDbEntity
  8
0
  6
HIDDEN
 62
     7
370
    15
100
AcDbLine
 10
233.4338103671
 20
267.7625673023
 30
0.0
 11
234.4338103671
 21
267.7625673023
 31
0.0
  0
LINE
  5
1B8
330
1F
100
AcDbEntity
  8
0
  6
HIDDEN
 62
     7
370
    15
100
AcDbLine
 10
237.5607774001
 20
272.3984865752
 30
0.0
 11
237.1861708066
 21
273.3256704297
 31
0.0
  0
LINE
  5
1B9
330
1F
100
AcDbEntity
  8
0
  6
HIDDEN
 62
     7
370
    15
100
AcDbLine
 10
233.4338103671
 20
267.7625673023
 30
0.0
 11
233.4338103671
 21
241.7081452469
 31
0.0
  0
LINE
  5
1BA
330
1F
100
AcDbEntity
  8
0
  6
HIDDEN
 62
     7
370
    15
100
AcDbLine
 10
233.4338103671
 20
241.7081452469
 30
0.0
 11
234.4338103671
 21
241.7081452469
 31
0.0
  0
LINE
  5
1BB
330
1F
100
AcDbEntity
  8
0
  6
HIDDEN
 62
     7
370
    15
100
AcDbLine
 10
332.5607774001
 20
310.7809780295
 30
0.0
 11
332.1861708066
 21
311.7081618841
 31
0.0
  0
LINE
  5
1BC
330
1F
100
AcDbEntity
  8
0
  6
HIDDEN
 62
     7
370
    15
100
AcDbLine
 10
332.1861708066
 20
311.7081618841
 30
0.0
 11
237.1861708066
 21
273.3256704297
 31
0.0
  0
ARC
  5
1BD
330
1F
100
AcDbEntity
  8
0
  6
HIDDEN
 62
     7
370
    15
100
AcDbCircle
 10
239.4338103671
 20
241.7081452469
 30
0.0
 40
6.000000000000028
100
AcDbArc
 50
180.0
 51
270.0
  0
LINE
  5
1BE
330
1F
100
AcDbEntity
  8
0
  6
HIDDEN
 62
     7
370
    15
100
AcDbLine
 10
339.4338103671
 20
306.1450587567
 30
0.0
 11
340.4338103671
 21
306.1450587567
 31
0.0
  0
ARC
  5
1BF
330
1F
100
AcDbEntity
  8
0
  6
HIDDEN
 62
     7
370
    15
100
AcDbCircle
 10
334.4338103671
 20
306.1450587567
 30
0.0
 40
6.000000000000004
100
AcDbArc
 50
0.0
 51
112.0
  0
ARC
  5
1C0
330
1F
100
AcDbEntity
  8
0
  6
HIDDEN
 62
     7
370
    15
100
AcDbCircle
 10
334.4338103671
 20
241.7081452469
 30
0.0
 40
6.000000000000057
100
AcDbArc
 50
270.0
 51
0.0
  0
LINE
  5
1C1
330
1F
100
AcDbEntity
  8
0
  6
HIDDEN
 62
     7
370
    15
100
AcDbLine
 10
339.4338103671
 20
241.7081452469
 30
0.0
 11
340.4338103671
 21
241.7081452469
 31
0.0
  0
LINE
  5
1C2
330
1F
100
AcDbEntity
  8
0
  6
HIDDEN
 62
     7
370
    15
100
AcDbLine
 10
340.4338103671
 20
241.7081452469
 30
0.0
 11
340.4338103671
 21
306.1450587567
 31
0.0
  0
LINE
  5
1C3
330
1F
100
AcDbEntity
  8
0
  6
HIDDEN
 62
     7
370
    15
100
AcDbLine
 10
179.9338103671
 20
236.7081452469
 30
0.0
 11
179.9338103671
 21
271.0309451349
 31
0.0
  0
LINE
  5
1C4
330
1F
100
AcDbEntity
  8
0
  6
HIDDEN
 62
     7
370
    15
100
AcDbLine
 10
168.9338103671
 20
266.5866566507
 30
0.0
 11
168.9338103671
 21
236.7081452469
 31
0.0
  0
LINE
  5
1C5
330
1F
100
AcDbEntity
  8
0
  6
HIDDEN
 62
     7
370
    15
100
AcDbLine
 10
229.9338103671
 20
236.7081452469
 30
0.0
 11
229.9338103671
 21
291.2322564266
 31
0.0
  0
LINE
  5
1C6
330
1F
100
AcDbEntity
  8
0
  6
HIDDEN
 62
     7
370
    15
100
AcDbLine
 10
218.9338103671
 20
286.7879679424
 30
0.0
 11
218.9338103671
 21
236.7081452469
 31
0.0
  0
LINE
  5
1C7
330
1F
100
AcDbEntity
  8
0
  6
HIDDEN
 62
     7
370
    15
100
AcDbLine
 10
254.9338103671
 20
279.4176475162
 30
0.0
 11
254.9338103671
 21
301.3329120725
 31
0.0
  0
LINE
  5
1C8
330
1F
100
AcDbEntity
  8
0
  6
HIDDEN
 62
     7
370
    15
100
AcDbLine
 10
243.9338103671
 20
296.8886235883
 30
0.0
 11
243.9338103671
 21
274.973359032
 31
0.0
  0
LINE
  5
1C9
330
1F
100
AcDbEntity
  8
0
  6
HIDDEN
 62
     7
370
    15
100
AcDbLine
 10
204.9338103671
 20
236.7081452469
 30
0.0
 11
204.9338103671
 21
281.1316007807
 31
0.0
  0
LINE
  5
1CA
330
1F
100
AcDbEntity
  8
0
  6
HIDDEN
 62
     7
370
    15
100
AcDbLine
 10
193.9338103671
 20
276.6873122966
 30
0.0
 11
193.9338103671
 21
236.7081452469
 31
0.0
  0
LINE
  5
1CB
330
1F
100
AcDbEntity
  8
0
  6
HIDDEN
 62
     7
370
    15
100
AcDbLine
 10
171.1338103671
 20
236.7081452469
 30
0.0
 11
171.1338103671
 21
218.7081452469
 31
0.0
  0
LINE
  5
1CC
330
1F
100
AcDbEntity
  8
0
  6
HIDDEN
 62
     7
370
    15
100
AcDbLine
 10
177.7338103671
 20
218.7081452469
 30
0.0
 11
177.7338103671
 21
236.7081452469
 31
0.0
  0
LINE
  5
1CD
330
1F
100
AcDbEntity
  8
0
  6
HIDDEN
 62
     7
370
    15
100
AcDbLine
 10
246.1338103671
 20
236.7081452469
 30
0.0
 11
246.1338103671
 21
218.7081452469
 31
0.0
  0
LINE
  5
1CE
330
1F
100
AcDbEntity
  8
0
  6
HIDDEN
 62
     7
370
    15
100
AcDbLine
 10
252.7338103671
 20
218.7081452469
 30
0.0
 11
252.7338103671
 21
236.7081452469
 31
0.0
  0
LINE
  5
1CF
330
1F
100
AcDbEntity
  8
0
  6
HIDDEN
 62
     7
370
    15
100
AcDbLine
 10
271.1338103671
 20
236.7081452469
 30
0.0
 11
271.1338103671
 21
218.7081452469
 31
0.0
  0
LINE
  5
1D0
330
1F
100
AcDbEntity
  8
0
  6
HIDDEN
 62
     7
370
    15
100
AcDbLine
 10
277.7338103671
 20
218.7081452469
 30
0.0
 11
277.7338103671
 21
236.7081452469
 31
0.0
  0
LINE
  5
1D1
330
1F
100
AcDbEntity
  8
0
  6
HIDDEN
 62
     7
370
    15
100
AcDbLine
 10
221.1338103671
 20
236.7081452469
 30
0.0
 11
221.1338103671
 21
218.7081452469
 31
0.0
  0
LINE
  5
1D2
330
1F
100
AcDbEntity
  8
0
  6
HIDDEN
 62
     7
370
    15
100
AcDbLine
 10
227.7338103671
 20
218.7081452469
 30
0.0
 11
227.7338103671
 21
236.7081452469
 31
0.0
  0
LINE
  5
1D3
330
1F
100
AcDbEntity
  8
0
  6
HIDDEN
 62
     7
370
    15
100
AcDbLine
 10
196.1338103671
 20
236.7081452469
 30
0.0
 11
196.1338103671
 21
218.7081452469
 31
0.0
  0
LINE
  5
1D4
330
1F
100
AcDbEntity
  8
0
  6
HIDDEN
 62
     7
370
    15
100
AcDbLine
 10
202.7338103671
 20
218.7081452469
 30
0.0
 11
202.7338103671
 21
236.7081452469
 31
0.0
  0
LINE
  5
1D5
330
1F
100
AcDbEntity
  8
0
  6
HIDDEN
 62
     7
370
    15
100
AcDbLine
 10
481.4338103671
 20
277.9081452469
 30
0.0
 11
499.4338103671
 21
277.9081452469
 31
0.0
  0
LINE
  5
1D6
330
1F
100
AcDbEntity
  8
0
  6
HIDDEN
 62
     7
370
    15
100
AcDbLine
 10
499.4338103671
 20
284.5081452469
 30
0.0
 11
481.4338103671
 21
284.5081452469
 31
0.0
  0
LINE
  5
1D7
330
1F
100
AcDbEntity
  8
0
  6
HIDDEN
 62
     7
370
    15
100
AcDbLine
 10
371.1338103671
 20
236.7081452469
 30
0.0
 11
371.1338103671
 21
218.7081452469
 31
0.0
  0
LINE
  5
1D8
330
1F
100
AcDbEntity
  8
0
  6
HIDDEN
 62
     7
370
    15
100
AcDbLine
 10
377.7338103671
 20
218.7081452469
 30
0.0
 11
377.7338103671
 21
236.7081452469
 31
0.0
  0
LINE
  5
1D9
330
1F
100
AcDbEntity
  8
0
  6
HIDDEN
 62
     7
370
    15
100
AcDbLine
 10
321.1338103671
 20
236.7081452469
 30
0.0
 11
321.1338103671
 21
218.7081452469
 31
0.0
  0
LINE
  5
1DA
330
1F
100
AcDbEntity
  8
0
  6
HIDDEN
 62
     7
370
    15
100
AcDbLine
 10
327.7338103671
 20
218.7081452469
 30
0.0
 11
327.7338103671
 21
236.7081452469
 31
0.0
  0
LINE
  5
1DB
330
1F
100
AcDbEntity
  8
0
  6
HIDDEN
 62
     7
370
    15
100
AcDbLine
 10
296.1338103671
 20
236.7081452469
 30
0.0
 11
296.1338103671
 21
218.7081452469
 31
0.0
  0
LINE
  5
1DC
330
1F
100
AcDbEntity
  8
0
  6
HIDDEN
 62
     7
370
    15
100
AcDbLine
 10
302.7338103671
 20
218.7081452469
 30
0.0
 11
302.7338103671
 21
236.7081452469
 31
0.0
  0
LINE
  5
1DD
330
1F
100
AcDbEntity
  8
0
  6
HIDDEN
 62
     7
370
    15
100
AcDbLine
 10
396.1338103671
 20
236.7081452469
 30
0.0
 11
396.1338103671
 21
218.7081452469
 31
0.0
  0
LINE
  5
1DE
330
1F
100
AcDbEntity
  8
0
  6
HIDDEN
 62
     7
370
    15
100
AcDbLine
 10
402.7338103671
 20
218.7081452469
 30
0.0
 11
402.7338103671
 21
236.7081452469
 31
0.0
  0
LINE
  5
1DF
330
1F
100
AcDbEntity
  8
0
  6
HIDDEN
 62
     7
370
    15
100
AcDbLine
 10
481.4338103671
 20
327.9081452469
 30
0.0
 11
499.4338103671
 21
327.9081452469
 31
0.0
  0
LINE
  5
1E0
330
1F
100
AcDbEntity
  8
0
  6
HIDDEN
 62
     7
370
    15
100
AcDbLine
 10
499.4338103671
 20
334.5081452469
 30
0.0
 11
481.4338103671
 21
334.5081452469
 31
0.0
  0
LINE
  5
1E1
330
1F
100
AcDbEntity
  8
0
  6
HIDDEN
 62
     7
370
    15
100
AcDbLine
 10
481.4338103671
 20
302.9081452469
 30
0.0
 11
499.4338103671
 21
302.9081452469
 31
0.0
  0
LINE
  5
1E2
330
1F
100
AcDbEntity
  8
0
  6
HIDDEN
 62
     7
370
    15
100
AcDbLine
 10
499.4338103671
 20
309.5081452469
 30
0.0
 11
481.4338103671
 21
309.5081452469
 31
0.0
  0
LINE
  5
1E3
330
1F
100
AcDbEntity
  8
0
  6
HIDDEN
 62
     7
370
    15
100
AcDbLine
 10
389.4338103671
 20
218.7081452469
 30
0.0
 11
389.4338103671
 21
233.7081452469
 31
0.0
  0
LINE
  5
1E4
330
1F
100
AcDbEntity
  8
0
  6
HIDDEN
 62
     7
370
    15
100
AcDbLine
 10
384.4338103671
 20
233.7081452469
 30
0.0
 11
384.4338103671
 21
218.7081452469
 31
0.0
  0
LINE
  5
1E5
330
1F
100
AcDbEntity
  8
0
  6
HIDDEN
 62
     7
370
    15
100
AcDbLine
 10
314.4338103671
 20
233.7081452469
 30
0.0
 11
311.9338103671
 21
235.2102967945
 31
0.0
  0
LINE
  5
1E6
330
1F
100
AcDbEntity
  8
0
  6
HIDDEN
 62
     7
370
    15
100
AcDbLine
 10
311.9338103671
 20
235.2102967945
 30
0.0
 11
309.4338103671
 21
233.7081452469
 31
0.0
  0
LINE
  5
1E7
330
1F
100
AcDbEntity
  8
0
  6
HIDDEN
 62
     7
370
    15
100
AcDbLine
 10
389.4338103671
 20
233.7081452469
 30
0.0
 11
386.9338103671
 21
235.2102967945
 31
0.0
  0
LINE
  5
1E8
330
1F
100
AcDbEntity
  8
0
  6
HIDDEN
 62
     7
370
    15
100
AcDbLine
 10
386.9338103671
 20
235.2102967945
 30
0.0
 11
384.4338103671
 21
233.7081452469
 31
0.0
  0
LINE
  5
1E9
330
1F
100
AcDbEntity
  8
0
  6
HIDDEN
 62
     7
370
    15
100
AcDbLine
 10
484.4338103671
 20
321.2081452469
 30
0.0
 11
482.9316588196
 21
318.7081452469
 31
0.0
  0
LINE
  5
1EA
330
1F
100
AcDbEntity
  8
0
  6
HIDDEN
 62
     7
370
    15
100
AcDbLine
 10
482.9316588196
 20
318.7081452469
 30
0.0
 11
484.4338103671
 21
316.2081452469
 31
0.0
  0
LINE
  5
1EB
330
1F
100
AcDbEntity
  8
0
  6
HIDDEN
 62
     7
370
    15
100
AcDbLine
 10
499.4338103671
 20
321.2081452469
 30
0.0
 11
484.4338103671
 21
321.2081452469
 31
0.0
  0
LINE
  5
1EC
330
1F
100
AcDbEntity
  8
0
  6
HIDDEN
 62
     7
370
    15
100
AcDbLine
 10
484.4338103671
 20
316.2081452469
 30
0.0
 11
499.4338103671
 21
316.2081452469
 31
0.0
  0
LINE
  5
1ED
330
1F
100
AcDbEntity
  8
0
  6
HIDDEN
 62
     7
370
    15
100
AcDbLine
 10
484.4338103671
 20
358.7081452469
 30
0.0
 11
482.9316588196
 21
356.2081452469
 31
0.0
  0
LINE
  5
1EE
330
1F
100
AcDbEntity
  8
0
  6
HIDDEN
 62
     7
370
    15
100
AcDbLine
 10
482.9316588196
 20
356.2081452469
 30
0.0
 11
484.4338103671
 21
353.7081452469
 31
0.0
  0
LINE
  5
1EF
330
1F
100
AcDbEntity
  8
0
  6
HIDDEN
 62
     7
370
    15
100
AcDbLine
 10
499.4338103671
 20
358.7081452469
 30
0.0
 11
484.4338103671
 21
358.7081452469
 31
0.0
  0
LINE
  5
1F0
330
1F
100
AcDbEntity
  8
0
  6
HIDDEN
 62
     7
370
    15
100
AcDbLine
 10
484.4338103671
 20
353.7081452469
 30
0.0
 11
499.4338103671
 21
353.7081452469
 31
0.0
  0
LINE
  5
1F1
330
1F
100
AcDbEntity
  8
0
  6
HIDDEN
 62
     7
370
    15
100
AcDbLine
 10
164.4338103671
 20
228.7081452469
 30
0.0
 11
165.9359619147
 21
231.2081452469
 31
0.0
  0
LINE
  5
1F2
330
1F
100
AcDbEntity
  8
0
  6
HIDDEN
 62
     7
370
    15
100
AcDbLine
 10
165.9359619147
 20
231.2081452469
 30
0.0
 11
164.4338103671
 21
233.7081452469
 31
0.0
  0
LINE
  5
1F3
330
1F
100
AcDbEntity
  8
0
  6
HIDDEN
 62
     7
370
    15
100
AcDbLine
 10
149.4338103671
 20
228.7081452469
 30
0.0
 11
164.4338103671
 21
228.7081452469
 31
0.0
  0
LINE
  5
1F4
330
1F
100
AcDbEntity
  8
0
  6
HIDDEN
 62
     7
370
    15
100
AcDbLine
 10
164.4338103671
 20
233.7081452469
 30
0.0
 11
149.4338103671
 21
233.7081452469
 31
0.0
  0
LINE
  5
1F5
330
1F
100
AcDbEntity
  8
0
  6
HIDDEN
 62
     7
370
    15
100
AcDbLine
 10
446.9338103671
 20
353.7081452469
 30
0.0
 11
449.4338103671
 21
352.2059936993
 31
0.0
  0
LINE
  5
1F6
330
1F
100
AcDbEntity
  8
0
  6
HIDDEN
 62
     7
370
    15
100
AcDbLine
 10
449.4338103671
 20
352.2059936993
 30
0.0
 11
451.9338103671
 21
353.7081452469
 31
0.0
  0
LINE
  5
1F7
330
1F
100
AcDbEntity
  8
0
  6
HIDDEN
 62
     7
370
    15
100
AcDbLine
 10
446.9338103671
 20
368.7081452469
 30
0.0
 11
446.9338103671
 21
353.7081452469
 31
0.0
  0
LINE
  5
1F8
330
1F
100
AcDbEntity
  8
0
  6
HIDDEN
 62
     7
370
    15
100
AcDbLine
 10
451.9338103671
 20
353.7081452469
 30
0.0
 11
451.9338103671
 21
368.7081452469
 31
0.0
  0
LINE
  5
1F9
330
1F
100
AcDbEntity
  8
0
  6
HIDDEN
 62
     7
370
    15
100
AcDbLine
 10
471.9338103671
 20
353.7081452469
 30
0.0
 11
474.4338103671
 21
352.2059936993
 31
0.0
  0
LINE
  5
1FA
330
1F
100
AcDbEntity
  8
0
  6
HIDDEN
 62
     7
370
    15
100
AcDbLine
 10
474.4338103671
 20
352.2059936993
 30
0.0
 11
476.9338103671
 21
353.7081452469
 31
0.0
  0
LINE
  5
1FB
330
1F
100
AcDbEntity
  8
0
  6
HIDDEN
 62
     7
370
    15
100
AcDbLine
 10
471.9338103671
 20
368.7081452469
 30
0.0
 11
471.9338103671
 21
353.7081452469
 31
0.0
  0
LINE
  5
1FC
330
1F
100
AcDbEntity
  8
0
  6
HIDDEN
 62
     7
370
    15
100
AcDbLine
 10
476.9338103671
 20
353.7081452469
 30
0.0
 11
476.9338103671
 21
368.7081452469
 31
0.0
  0
LINE
  5
1FD
330
1F
100
AcDbEntity
  8
0
  6
HIDDEN
 62
     7
370
    15
100
AcDbLine
 10
484.4338103671
 20
246.2081452469
 30
0.0
 11
482.9316588196
 21
243.7081452469
 31
0.0
  0
LINE
  5
1FE
330
1F
100
AcDbEntity
  8
0
  6
HIDDEN
 62
     7
370
    15
100
AcDbLine
 10
482.9316588196
 20
243.7081452469
 30
0.0
 11
484.4338103671
 21
241.2081452469
 31
0.0
  0
LINE
  5
1FF
330
1F
100
AcDbEntity
  8
0
  6
HIDDEN
 62
     7
370
    15
100
AcDbLine
 10
314.4338103671
 20
218.7081452469
 30
0.0
 11
314.4338103671
 21
233.7081452469
 31
0.0
  0
LINE
  5
200
330
1F
100
AcDbEntity
  8
0
  6
HIDDEN
 62
     7
370
    15
100
AcDbLine
 10
309.4338103671
 20
233.7081452469
 30
0.0
 11
309.4338103671
 21
218.7081452469
 31
0.0
  0
LINE
  5
201
330
1F
100
AcDbEntity
  8
0
  6
HIDDEN
 62
     7
370
    15
100
AcDbLine
 10
289.4338103671
 20
233.7081452469
 30
0.0
 11
286.9338103671
 21
235.2102967945
 31
0.0
  0
LINE
  5
202
330
1F
100
AcDbEntity
  8
0
  6
HIDDEN
 62
     7
370
    15
100
AcDbLine
 10
286.9338103671
 20
235.2102967945
 30
0.0
 11
284.4338103671
 21
233.7081452469
 31
0.0
  0
LINE
  5
203
330
1F
100
AcDbEntity
  8
0
  6
HIDDEN
 62
     7
370
    15
100
AcDbLine
 10
289.4338103671
 20
218.7081452469
 30
0.0
 11
289.4338103671
 21
233.7081452469
 31
0.0
  0
LINE
  5
204
330
1F
100
AcDbEntity
  8
0
  6
HIDDEN
 62
     7
370
    15
100
AcDbLine
 10
284.4338103671
 20
233.7081452469
 30
0.0
 11
284.4338103671
 21
218.7081452469
 31
0.0
  0
LINE
  5
205
330
1F
100
AcDbEntity
  8
0
  6
HIDDEN
 62
     7
370
    15
100
AcDbLine
 10
264.4338103671
 20
233.7081452469
 30
0.0
 11
261.9338103671
 21
235.2102967945
 31
0.0
  0
LINE
  5
206
330
1F
100
AcDbEntity
  8
0
  6
HIDDEN
 62
     7
370
    15
100
AcDbLine
 10
261.9338103671
 20
235.2102967945
 30
0.0
 11
259.4338103671
 21
233.7081452469
 31
0.0
  0
LINE
  5
207
330
1F
100
AcDbEntity
  8
0
  6
HIDDEN
 62
     7
370
    15
100
AcDbLine
 10
499.4338103671
 20
246.2081452469
 30
0.0
 11
484.4338103671
 21
246.2081452469
 31
0.0
  0
LINE
  5
208
330
1F
100
AcDbEntity
  8
0
  6
HIDDEN
 62
     7
370
    15
100
AcDbLine
 10
484.4338103671
 20
241.2081452469
 30
0.0
 11
499.4338103671
 21
241.2081452469
 31
0.0
  0
LINE
  5
209
330
1F
100
AcDbEntity
  8
0
  6
HIDDEN
 62
     7
370
    15
100
AcDbLine
 10
484.4338103671
 20
296.2081452469
 30
0.0
 11
482.9316588196
 21
293.7081452469
 31
0.0
  0
LINE
  5
20A
330
1F
100
AcDbEntity
  8
0
  6
HIDDEN
 62
     7
370
    15
100
AcDbLine
 10
482.9316588196
 20
293.7081452469
 30
0.0
 11
484.4338103671
 21
291.2081452469
 31
0.0
  0
LINE
  5
20B
330
1F
100
AcDbEntity
  8
0
  6
HIDDEN
 62
     7
370
    15
100
AcDbLine
 10
499.4338103671
 20
296.2081452469
 30
0.0
 11
484.4338103671
 21
296.2081452469
 31
0.0
  0
LINE
  5
20C
330
1F
100
AcDbEntity
  8
0
  6
HIDDEN
 62
     7
370
    15
100
AcDbLine
 10
484.4338103671
 20
291.2081452469
 30
0.0
 11
499.4338103671
 21
291.2081452469
 31
0.0
  0
LINE
  5
20D
330
1F
100
AcDbEntity
  8
0
  6
HIDDEN
 62
     7
370
    15
100
AcDbLine
 10
214.4338103671
 20
233.7081452469
 30
0.0
 11
211.9338103671
 21
235.2102967945
 31
0.0
  0
LINE
  5
20E
330
1F
100
AcDbEntity
  8
0
  6
HIDDEN
 62
     7
370
    15
100
AcDbLine
 10
211.9338103671
 20
235.2102967945
 30
0.0
 11
209.4338103671
 21
233.7081452469
 31
0.0
  0
LINE
  5
20F
330
1F
100
AcDbEntity
  8
0
  6
HIDDEN
 62
     7
370
    15
100
AcDbLine
 10
264.4338103671
 20
218.7081452469
 30
0.0
 11
264.4338103671
 21
233.7081452469
 31
0.0
  0
LINE
  5
210
330
1F
100
AcDbEntity
  8
0
  6
HIDDEN
 62
     7
370
    15
100
AcDbLine
 10
259.4338103671
 20
233.7081452469
 30
0.0
 11
259.4338103671
 21
218.7081452469
 31
0.0
  0
LINE
  5
211
330
1F
100
AcDbEntity
  8
0
  6
HIDDEN
 62
     7
370
    15
100
AcDbLine
 10
414.4338103671
 20
233.7081452469
 30
0.0
 11
411.9338103671
 21
235.2102967945
 31
0.0
  0
LINE
  5
212
330
1F
100
AcDbEntity
  8
0
  6
HIDDEN
 62
     7
370
    15
100
AcDbLine
 10
411.9338103671
 20
235.2102967945
 30
0.0
 11
409.4338103671
 21
233.7081452469
 31
0.0
  0
LINE
  5
213
330
1F
100
AcDbEntity
  8
0
  6
HIDDEN
 62
     7
370
    15
100
AcDbLine
 10
214.4338103671
 20
218.7081452469
 30
0.0
 11
214.4338103671
 21
233.7081452469
 31
0.0
  0
LINE
  5
214
330
1F
100
AcDbEntity
  8
0
  6
HIDDEN
 62
     7
370
    15
100
AcDbLine
 10
209.4338103671
 20
233.7081452469
 30
0.0
 11
209.4338103671
 21
218.7081452469
 31
0.0
  0
LINE
  5
215
330
1F
100
AcDbEntity
  8
0
  6
HIDDEN
 62
     7
370
    15
100
AcDbLine
 10
414.4338103671
 20
218.7081452469
 30
0.0
 11
414.4338103671
 21
233.7081452469
 31
0.0
  0
LINE
  5
216
330
1F
100
AcDbEntity
  8
0
  6
HIDDEN
 62
     7
370
    15
100
AcDbLine
 10
409.4338103671
 20
233.7081452469
 30
0.0
 11
409.4338103671
 21
218.7081452469
 31
0.0
  0
LINE
  5
217
330
1F
100
AcDbEntity
  8
0
  6
HIDDEN
 62
     7
370
    15
100
AcDbLine
 10
189.4338103671
 20
218.7081452469
 30
0.0
 11
189.4338103671
 21
233.7081452469
 31
0.0
  0
LINE
  5
218
330
1F
100
AcDbEntity
  8
0
  6
HIDDEN
 62
     7
370
    15
100
AcDbLine
 10
184.4338103671
 20
233.7081452469
 30
0.0
 11
184.4338103671
 21
218.7081452469
 31
0.0
  0
LINE
  5
219
330
1F
100
AcDbEntity
  8
0
  6
HIDDEN
 62
     7
370
    15
100
AcDbLine
 10
189.4338103671
 20
233.7081452469
 30
0.0
 11
186.9338103671
 21
235.2102967945
 31
0.0
  0
LINE
  5
21A
330
1F
100
AcDbEntity
  8
0
  6
HIDDEN
 62
     7
370
    15
100
AcDbLine
 10
186.9338103671
 20
235.2102967945
 30
0.0
 11
184.4338103671
 21
233.7081452469
 31
0.0
  0
LINE
  5
21B
330
1F
100
AcDbEntity
  8
DIM
100
AcDbLine
 10
151.6335935455
 20
259.5969153421
 30
0.0
 11
148.5066265126
 21
258.3335386535
 31
0.0
  0
LINE
  5
21C
330
1F
100
AcDbEntity
  8
DIM
100
AcDbLine
 10
149.4338103671
 20
256.3356026627
 30
0.0
 11
149.4338103671
 21
259.7081452469
 31
0.0
  0
DIMENSION
  5
21D
330
1F
100
AcDbEntity
  8
DIM
100
AcDbDimension
  2
_D
 10
131.9338103671
 20
218.7081452469
 30
0.0
 11
131.9338103671
 21
238.7081452469
 31
0.0
 70
   160
  1
<>
 71
     2
 42
-1.0
  3
SLDDIMSTYLE0
100
AcDbAlignedDimension
 13
149.4338103671
 23
258.7081452469
 33
0.0
 14
149.4338103671
 24
218.7081452469
 34
0.0
 50
90.0
100
AcDbRotatedDimension
  0
DIMENSION
  5
228
330
1F
100
AcDbEntity
  8
DIM
100
AcDbDimension
  2
_D_1
 10
499.4338103671
 20
201.2081452469
 30
0.0
 11
324.4338103671
 21
201.2081452469
 31
0.0
 70
   160
  1
<>
 71
     2
 42
-1.0
  3
SLDDIMSTYLE0
100
AcDbAlignedDimension
 13
149.4338103671
 23
218.7081452469
 33
0.0
 14
499.4338103671
 24
223.7081452469
 34
0.0
 50
0.0
100
AcDbRotatedDimension
  0
DIMENSION
  5
232
330
1F
100
AcDbEntity
  8
DIM
100
AcDbDimension
  2
_D_2
 10
152.5607774001
 20
259.9715219355
 30
0.0
 11
324.6358043128
 21
349.8420667435
 31
0.0
 70
   162
  1
<>
 71
     1
 42
-1.0
  3
SLDDIMSTYLE1
100
AcDb2LineAngularDimension
 13
422.6652657886
 23
368.7081452469
 33
0.0
 14
499.4338103671
 24
368.7081452469
 34
0.0
 15
420.7922328215
 25
368.3440645197
 35
0.0
 16
324.6358043128
 26
349.8420667435
 36
0.0
  0
DIMENSION
  5
23C
330
1F
100
AcDbEntity
  8
DIM
100
AcDbDimension
  2
_D_3
 10
516.9338103671
 20
218.7081452469
 30
0.0
 11
516.9338103671
 21
293.7081452469
 31
0.0
 70
   160
  1
<>
 71
     2
 42
-1.0
  3
SLDDIMSTYLE0
100
AcDbAlignedDimension
 13
499.4338103671
 23
368.7081452469
 33
0.0
 14
494.4338103671
 24
218.7081452469
 34
0.0
 50
90.0
100
AcDbRotatedDimension
  0
LINE
  5
246
330
1F
100
AcDbEntity
  8
0
  6
Continuous
 62
     7
370
    30
100
AcDbLine
 10
494.0195968048
 20
143.408583257
 30
0.0
 11
150.4338103671
 21
143.408583257
 31
0.0
  0
LINE
  5
247
330
1F
100
AcDbEntity
  8
0
  6
Continuous
 62
     7
370
    30
100
AcDbLine
 10
149.4338103671
 20
144.408583257
 30
0.0
 11
494.4338103671
 21
144.408583257
 31
0.0
  0
ELLIPSE
  5
248
330
1F
100
AcDbEntity
  8
0
  6
Continuous
 62
     7
370
    30
100
AcDbEllipse
 10
494.0195968048
 20
144.408583257
 30
0.0
 11
0.0
 21
0.9999999999999716
 31
0.0
210
0.0
220
0.0
230
1.0
 40
0.4142135624
 41
3.141592653589793
 42
4.712388980384695
  0
ARC
  5
249
330
1F
100
AcDbEntity
  8
0
  6
Continuous
 62
     7
370
    30
100
AcDbCircle
 10
150.4338103671
 20
144.408583257
 30
0.0
 40
1.000000000000028
100
AcDbArc
 50
180.0
 51
270.0
  0
LINE
  5
24A
330
1F
100
AcDbEntity
  8
0
  6
Continuous
 62
     7
370
    30
100
AcDbLine
 10
149.4338103671
 20
144.408583257
 30
0.0
 11
149.4338103671
 21
160.408583257
 31
0.0
  0
LINE
  5
24B
330
1F
100
AcDbEntity
  8
0
  6
Continuous
 62
     7
370
    30
100
AcDbLine
 10
494.4338103671
 20
160.408583257
 30
0.0
 11
149.4338103671
 21
160.408583257
 31
0.0
  0
LINE
  5
24C
330
1F
100
AcDbEntity
  8
0
  6
Continuous
 62
     7
370
    30
100
AcDbLine
 10
494.4338103671
 20
144.408583257
 30
0.0
 11
494.4338103671
 21
160.408583257
 31
0.0
  0
CIRCLE
  5
24D
330
1F
100
AcDbEntity
  8
0
  6
Continuous
 62
     7
370
    30
100
AcDbCircle
 10
174.4338103671
 20
152.408583257
 30
0.0
 40
3.299999999999983
  0
CIRCLE
  5
24E
330
1F
100
AcDbEntity
  8
0
  6
Continuous
 62
     7
370
    30
100
AcDbCircle
 10
199.4338103671
 20
152.408583257
 30
0.0
 40
3.299999999999983
  0
CIRCLE
  5
24F
330
1F
100
AcDbEntity
  8
0
  6
Continuous
 62
     7
370
    30
100
AcDbCircle
 10
224.4338103671
 20
152.408583257
 30
0.0
 40
3.299999999999983
  0
CIRCLE
  5
250
330
1F
100
AcDbEntity
  8
0
  6
Continuous
 62
     7
370
    30
100
AcDbCircle
 10
249.4338103671
 20
152.408583257
 30
0.0
 40
3.30000000000004
  0
CIRCLE
  5
251
330
1F
100
AcDbEntity
  8
0
  6
Continuous
 62
     7
370
    30
100
AcDbCircle
 10
274.4338103671
 20
152.408583257
 30
0.0
 40
3.30000000000004
  0
CIRCLE
  5
252
330
1F
100
AcDbEntity
  8
0
  6
Continuous
 62
     7
370
    30
100
AcDbCircle
 10
299.4338103671
 20
152.408583257
 30
0.0
 40
3.30000000000004
  0
CIRCLE
  5
253
330
1F
100
AcDbEntity
  8
0
  6
Continuous
 62
     7
370
    30
100
AcDbCircle
 10
399.4338103671
 20
152.408583257
 30
0.0
 40
3.299999999999983
  0
CIRCLE
  5
254
330
1F
100
AcDbEntity
  8
0
  6
Continuous
 62
     7
370
    30
100
AcDbCircle
 10
374.4338103671
 20
152.408583257
 30
0.0
 40
3.299999999999983
  0
CIRCLE
  5
255
330
1F
100
AcDbEntity
  8
0
  6
Continuous
 62
     7
370
    30
100
AcDbCircle
 10
324.4338103671
 20
152.408583257
 30
0.0
 40
3.30000000000004
  0
CIRCLE
  5
256
330
1F
100
AcDbEntity
  8
0
  6
Continuous
 62
     7
370
    30
100
AcDbCircle
 10
186.9338103671
 20
152.408583257
 30
0.0
 40
2.5
  0
CIRCLE
  5
257
330
1F
100
AcDbEntity
  8
0
  6
Continuous
 62
     7
370
    30
100
AcDbCircle
 10
211.9338103671
 20
152.408583257
 30
0.0
 40
2.5
  0
CIRCLE
  5
258
330
1F
100
AcDbEntity
  8
0
  6
Continuous
 62
     7
370
    30
100
AcDbCircle
 10
261.9338103671
 20
152.408583257
 30
0.0
 40
2.5
  0
CIRCLE
  5
259
330
1F
100
AcDbEntity
  8
0
  6
Continuous
 62
     7
370
    30
100
AcDbCircle
 10
411.9338103671
 20
152.408583257
 30
0.0
 40
2.5
  0
CIRCLE
  5
25A
330
1F
100
AcDbEntity
  8
0
  6
Continuous
 62
     7
370
    30
100
AcDbCircle
 10
386.9338103671
 20
152.408583257
 30
0.0
 40
2.5
  0
CIRCLE
  5
25B
330
1F
100
AcDbEntity
  8
0
  6
Continuous
 62
     7
370
    30
100
AcDbCircle
 10
311.9338103671
 20
152.408583257
 30
0.0
 40
2.5
  0
CIRCLE
  5
25C
330
1F
100
AcDbEntity
  8
0
  6
Continuous
 62
     7
370
    30
100
AcDbCircle
 10
286.9338103671
 20
152.408583257
 30
0.0
 40
2.5
  0
LINE
  5
25D
330
1F
100
AcDbEntity
  8
0
  6
Continuous
 62
     7
370
    30
100
AcDbLine
 10
150.4338103671
 20
161.408583257
 30
0.0
 11
494.0195968048
 21
161.408583257
 31
0.0
  0
ELLIPSE
  5
25E
330
1F
100
AcDbEntity
  8
0
  6
Continuous
 62
     7
370
    30
100
AcDbEllipse
 10
494.0195968048
 20
160.408583257
 30
0.0
 11
0.0
 21
1.0
 31
0.0
210
0.0
220
0.0
230
1.0
 40
0.4142135624
 41
4.712388980384695
 42
6.283185307179586
  0
ARC
  5
25F
330
1F
100
AcDbEntity
  8
0
  6
Continuous
 62
     7
370
    30
100
AcDbCircle
 10
150.4338103671
 20
160.408583257
 30
0.0
 40
1.0
100
AcDbArc
 50
90.0
 51
180.0
  0
LINE
  5
260
330
1F
100
AcDbEntity
  8
0
  6
Continuous
 62
     7
370
    30
100
AcDbLine
 10
498.4338103671
 20
143.408583257
 30
0.0
 11
494.0195968048
 21
143.408583257
 31
0.0
  0
LINE
  5
261
330
1F
100
AcDbEntity
  8
0
  6
Continuous
 62
     7
370
    30
100
AcDbLine
 10
494.4338103671
 20
144.408583257
 30
0.0
 11
499.4338103671
 21
144.408583257
 31
0.0
  0
ARC
  5
262
330
1F
100
AcDbEntity
  8
0
  6
Continuous
 62
     7
370
    30
100
AcDbCircle
 10
498.4338103671
 20
144.408583257
 30
0.0
 40
1.000000000000028
100
AcDbArc
 50
270.0
 51
0.0
  0
LINE
  5
263
330
1F
100
AcDbEntity
  8
0
  6
Continuous
 62
     7
370
    30
100
AcDbLine
 10
499.4338103671
 20
160.408583257
 30
0.0
 11
494.4338103671
 21
160.408583257
 31
0.0
  0
LINE
  5
264
330
1F
100
AcDbEntity
  8
0
  6
Continuous
 62
     7
370
    30
100
AcDbLine
 10
499.4338103671
 20
160.408583257
 30
0.0
 11
499.4338103671
 21
144.408583257
 31
0.0
  0
LINE
  5
265
330
1F
100
AcDbEntity
  8
0
  6
Continuous
 62
     7
370
    30
100
AcDbLine
 10
494.0195968048
 20
161.408583257
 30
0.0
 11
498.4338103671
 21
161.408583257
 31
0.0
  0
ARC
  5
266
330
1F
100
AcDbEntity
  8
0
  6
Continuous
 62
     7
370
    30
100
AcDbCircle
 10
498.4338103671
 20
160.408583257
 30
0.0
 40
1.0
100
AcDbArc
 50
0.0
 51
90.0
  0
DIMENSION
  5
267
330
1F
100
AcDbEntity
  8
DIM
100
AcDbDimension
  2
_D_4
 10
499.4338103671
 20
125.908583257
 30
0.0
 11
455.6838103671
 21
125.908583257
 31
0.0
 70
   160
  1
<>
 71
     2
 42
-1.0
  3
SLDDIMSTYLE0
100
AcDbAlignedDimension
 13
411.9338103671
 23
148.908583257
 33
0.0
 14
499.4338103671
 24
144.408583257
 34
0.0
100
AcDbRotatedDimension
  0
DIMENSION
  5
271
330
1F
100
AcDbEntity
  8
DIM
100
AcDbDimension
  2
_D_5
 10
386.9338103671
 20
125.908583257
 30
0.0
 11
399.4338103671
 21
125.908583257
 31
0.0
 70
   160
  1
<>
 71
     2
 42
-1.0
  3
SLDDIMSTYLE0
100
AcDbAlignedDimension
 13
411.9338103671
 23
148.908583257
 33
0.0
 14
386.9338103671
 24
148.908583257
 34
0.0
100
AcDbRotatedDimension
  0
DIMENSION
  5
27B
330
1F
100
AcDbEntity
  8
DIM
100
AcDbDimension
  2
_D_6
 10
386.9338103671
 20
125.908583257
 30
0.0
 11
349.4338103671
 21
125.908583257
 31
0.0
 70
   160
  1
<>
 71
     2
 42
-1.0
  3
SLDDIMSTYLE0
100
AcDbAlignedDimension
 13
311.9338103671
 23
148.908583257
 33
0.0
 14
386.9338103671
 24
148.908583257
 34
0.0
100
AcDbRotatedDimension
  0
DIMENSION
  5
285
330
1F
100
AcDbEntity
  8
DIM
100
AcDbDimension
  2
_D_7
 10
286.9338103671
 20
125.908583257
 30
0.0
 11
299.4338103671
 21
125.908583257
 31
0.0
 70
   160
  1
<>
 71
     2
 42
-1.0
  3
SLDDIMSTYLE0
100
AcDbAlignedDimension
 13
311.9338103671
 23
148.908583257
 33
0.0
 14
286.9338103671
 24
148.908583257
 34
0.0
100
AcDbRotatedDimension
  0
DIMENSION
  5
28F
330
1F
100
AcDbEntity
  8
DIM
100
AcDbDimension
  2
_D_8
 10
261.9338103671
 20
125.908583257
 30
0.0
 11
274.4338103671
 21
125.908583257
 31
0.0
 70
   160
  1
<>
 71
     2
 42
-1.0
  3
SLDDIMSTYLE0
100
AcDbAlignedDimension
 13
286.9338103671
 23
148.908583257
 33
0.0
 14
261.9338103671
 24
148.908583257
 34
0.0
100
AcDbRotatedDimension
  0
DIMENSION
  5
299
330
1F
100
AcDbEntity
  8
DIM
100
AcDbDimension
  2
_D_9
 10
211.9338103671
 20
125.908583257
 30
0.0
 11
236.9338103671
 21
125.908583257
 31
0.0
 70
   160
  1
<>
 71
     2
 42
-1.0
  3
SLDDIMSTYLE0
100
AcDbAlignedDimension
 13
261.9338103671
 23
148.908583257
 33
0.0
 14
211.9338103671
 24
148.908583257
 34
0.0
100
AcDbRotatedDimension
  0
DIMENSION
  5
2A3
330
1F
100
AcDbEntity
  8
DIM
100
AcDbDimension
  2
_D_10
 10
211.9338103671
 20
125.908583257
 30
0.0
 11
199.4338103671
 21
125.908583257
 31
0.0
 70
   160
  1
<>
 71
     2
 42
-1.0
  3
SLDDIMSTYLE0
100
AcDbAlignedDimension
 13
186.9338103671
 23
148.908583257
 33
0.0
 14
211.9338103671
 24
148.908583257
 34
0.0
100
AcDbRotatedDimension
  0
DIMENSION
  5
2AD
330
1F
100
AcDbEntity
  8
DIM
100
AcDbDimension
  2
_D_11
 10
516.9338103671
 20
161.408583257
 30
0.0
 11
516.9338103671
 21
156.908583257
 31
0.0
 70
   160
  1
<>
 71
     2
 42
-1.0
  3
SLDDIMSTYLE2
100
AcDbAlignedDimension
 13
415.4338103671
 23
152.408583257
 33
0.0
 14
498.4338103671
 24
161.408583257
 34
0.0
 50
90.0
100
AcDbRotatedDimension
  0
DIMENSION
  5
2BA
330
1F
100
AcDbEntity
  8
DIM
100
AcDbDimension
  2
_D_12
 10
499.4338103671
 20
178.908583257
 30
0.0
 11
449.4338103671
 21
178.908583257
 31
0.0
 70
   160
  1
<>
 71
     2
 42
-1.0
  3
SLDDIMSTYLE0
100
AcDbAlignedDimension
 13
399.4338103671
 23
156.708583257
 33
0.0
 14
499.4338103671
 24
160.408583257
 34
0.0
100
AcDbRotatedDimension
  0
DIMENSION
  5
2C4
330
1F
100
AcDbEntity
  8
DIM
100
AcDbDimension
  2
_D_13
 10
374.4338103671
 20
178.908583257
 30
0.0
 11
386.9338103671
 21
178.908583257
 31
0.0
 70
   160
  1
<>
 71
     2
 42
-1.0
  3
SLDDIMSTYLE0
100
AcDbAlignedDimension
 13
399.4338103671
 23
156.708583257
 33
0.0
 14
374.4338103671
 24
156.708583257
 34
0.0
100
AcDbRotatedDimension
  0
DIMENSION
  5
2CE
330
1F
100
AcDbEntity
  8
DIM
100
AcDbDimension
  2
_D_14
 10
374.4338103671
 20
178.908583257
 30
0.0
 11
349.4338103671
 21
178.908583257
 31
0.0
 70
   160
  1
<>
 71
     2
 42
-1.0
  3
SLDDIMSTYLE0
100
AcDbAlignedDimension
 13
324.4338103671
 23
156.708583257
 33
0.0
 14
374.4338103671
 24
156.708583257
 34
0.0
100
AcDbRotatedDimension
  0
DIMENSION
  5
2D8
330
1F
100
AcDbEntity
  8
DIM
100
AcDbDimension
  2
_D_15
 10
299.4338103671
 20
178.908583257
 30
0.0
 11
311.9338103671
 21
178.908583257
 31
0.0
 70
   160
  1
<>
 71
     2
 42
-1.0
  3
SLDDIMSTYLE0
100
AcDbAlignedDimension
 13
324.4338103671
 23
156.708583257
 33
0.0
 14
299.4338103671
 24
156.708583257
 34
0.0
100
AcDbRotatedDimension
  0
DIMENSION
  5
2E2
330
1F
100
AcDbEntity
  8
DIM
100
AcDbDimension
  2
_D_16
 10
299.4338103671
 20
178.908583257
 30
0.0
 11
286.9338103671
 21
178.908583257
 31
0.0
 70
   160
  1
<>
 71
     2
 42
-1.0
  3
SLDDIMSTYLE0
100
AcDbAlignedDimension
 13
274.4338103671
 23
156.708583257
 33
0.0
 14
299.4338103671
 24
156.708583257
 34
0.0
100
AcDbRotatedDimension
  0
INSERT
  5
2F2
330
1F
100
AcDbEntity
  8
DIM
100
AcDbBlockReference
  2
SW_NOTE_2
 10
252.8540045569
 20
172.4776016925
 30
0.0
  0
LEADER
  5
2F4
330
1F
100
AcDbEntity
  8
DIM
100
AcDbLeader
  3
SLDDIMSTYLE3
 76
     2
 10
272.4757262887
 20
155.0648789374
 30
0.0
 10
252.8540045569
 20
172.4776016925
 30
0.0
  0
INSERT
  5
2FB
330
1F
100
AcDbEntity
  8
DIM
100
AcDbBlockReference
  2
SW_NOTE_3
 10
167.5938889499
 20
120.1654629642
 30
0.0
  0
LEADER
  5
2FC
330
1F
100
AcDbEntity
  8
DIM
100
AcDbLeader
  3
SLDDIMSTYLE3
 76
     2
 10
185.0588977076
 20
150.7548896581
 30
0.0
 10
167.5938889499
 20
120.1654629642
 30
0.0
  0
INSERT
  5
308
330
1F
100
AcDbEntity
  8
DIM
100
AcDbBlockReference
  2
SW_CENTERMARKSYMBOL_0
 10
186.9338103671
 20
152.408583257
 30
0.0
  0
INSERT
  5
314
330
1F
100
AcDbEntity
  8
DIM
100
AcDbBlockReference
  2
SW_CENTERMARKSYMBOL_1
 10
211.9338103671
 20
152.408583257
 30
0.0
  0
INSERT
  5
320
330
1F
100
AcDbEntity
  8
DIM
100
AcDbBlockReference
  2
SW_CENTERMARKSYMBOL_2
 10
261.9338103671
 20
152.408583257
 30
0.0
  0
INSERT
  5
32C
330
1F
100
AcDbEntity
  8
DIM
100
AcDbBlockReference
  2
SW_CENTERMARKSYMBOL_3
 10
274.4338103671
 20
152.408583257
 30
0.0
  0
INSERT
  5
338
330
1F
100
AcDbEntity
  8
DIM
100
AcDbBlockReference
  2
SW_CENTERMARKSYMBOL_4
 10
286.9338103671
 20
152.408583257
 30
0.0
  0
INSERT
  5
344
330
1F
100
AcDbEntity
  8
DIM
100
AcDbBlockReference
  2
SW_CENTERMARKSYMBOL_5
 10
299.4338103671
 20
152.408583257
 30
0.0
  0
INSERT
  5
350
330
1F
100
AcDbEntity
  8
DIM
100
AcDbBlockReference
  2
SW_CENTERMARKSYMBOL_6
 10
311.9338103671
 20
152.408583257
 30
0.0
  0
INSERT
  5
35C
330
1F
100
AcDbEntity
  8
DIM
100
AcDbBlockReference
  2
SW_CENTERMARKSYMBOL_7
 10
324.4338103671
 20
152.408583257
 30
0.0
  0
INSERT
  5
368
330
1F
100
AcDbEntity
  8
DIM
100
AcDbBlockReference
  2
SW_CENTERMARKSYMBOL_8
 10
374.4338103671
 20
152.408583257
 30
0.0
  0
INSERT
  5
374
330
1F
100
AcDbEntity
  8
DIM
100
AcDbBlockReference
  2
SW_CENTERMARKSYMBOL_9
 10
386.9338103671
 20
152.408583257
 30
0.0
  0
INSERT
  5
380
330
1F
100
AcDbEntity
  8
DIM
100
AcDbBlockReference
  2
SW_CENTERMARKSYMBOL_10
 10
399.4338103671
 20
152.408583257
 30
0.0
  0
INSERT
  5
38C
330
1F
100
AcDbEntity
  8
DIM
100
AcDbBlockReference
  2
SW_CENTERMARKSYMBOL_11
 10
411.9338103671
 20
152.408583257
 30
0.0
  0
LINE
  5
38D
330
1F
100
AcDbEntity
  8
0
  6
Continuous
 62
     7
370
    30
100
AcDbLine
 10
82.5847127682
 20
259.9715219355
 30
0.0
 11
82.5847127682
 21
255.3356026627
 31
0.0
  0
LINE
  5
38E
330
1F
100
AcDbEntity
  8
0
  6
Continuous
 62
     7
370
    30
100
AcDbLine
 10
82.5847127682
 20
255.3356026627
 30
0.0
 11
81.5847127682
 21
255.3356026627
 31
0.0
  0
LINE
  5
38F
330
1F
100
AcDbEntity
  8
0
  6
Continuous
 62
     7
370
    30
100
AcDbLine
 10
81.5847127682
 20
255.3356026627
 30
0.0
 11
81.5847127682
 21
259.0443380809
 31
0.0
  0
ARC
  5
390
330
1F
100
AcDbEntity
  8
0
  6
Continuous
 62
     7
370
    30
100
AcDbCircle
 10
82.5496302432
 20
259.0065003589
 30
0.0
 40
0.9656590634640534
100
AcDbArc
 50
87.9179783727
 51
177.7543866195
  0
LINE
  5
391
330
1F
100
AcDbEntity
  8
0
  6
Continuous
 62
     7
370
    30
100
AcDbLine
 10
82.5847127682
 20
259.9715219355
 30
0.0
 11
98.5847127682
 21
259.9715219355
 31
0.0
  0
LINE
  5
392
330
1F
100
AcDbEntity
  8
0
  6
Continuous
 62
     7
370
    30
100
AcDbLine
 10
98.5847127682
 20
255.3356026627
 30
0.0
 11
98.5847127682
 21
259.9715219355
 31
0.0
  0
LINE
  5
393
330
1F
100
AcDbEntity
  8
0
  6
Continuous
 62
     7
370
    30
100
AcDbLine
 10
98.5847127682
 20
255.3356026627
 30
0.0
 11
82.5847127682
 21
255.3356026627
 31
0.0
  0
LINE
  5
394
330
1F
100
AcDbEntity
  8
0
  6
Continuous
 62
     7
370
    30
100
AcDbLine
 10
82.5847127682
 20
255.3356026627
 30
0.0
 11
82.5847127682
 21
218.7081452469
 31
0.0
  0
ARC
  5
395
330
1F
100
AcDbEntity
  8
0
  6
Continuous
 62
     7
370
    30
100
AcDbCircle
 10
82.5847127682
 20
219.7081452469
 30
0.0
 40
1.0
100
AcDbArc
 50
180.0
 51
270.0
  0
LINE
  5
396
330
1F
100
AcDbEntity
  8
0
  6
Continuous
 62
     7
370
    30
100
AcDbLine
 10
81.5847127682
 20
219.7081452469
 30
0.0
 11
81.5847127682
 21
255.3356026627
 31
0.0
  0
LINE
  5
397
330
1F
100
AcDbEntity
  8
0
  6
Continuous
 62
     7
370
    30
100
AcDbLine
 10
98.5847127682
 20
218.7081452469
 30
0.0
 11
98.5847127682
 21
255.3356026627
 31
0.0
  0
LINE
  5
398
330
1F
100
AcDbEntity
  8
0
  6
Continuous
 62
     7
370
    30
100
AcDbLine
 10
82.5847127682
 20
218.7081452469
 30
0.0
 11
98.5847127682
 21
218.7081452469
 31
0.0
  0
CIRCLE
  5
399
330
1F
100
AcDbEntity
  8
0
  6
Continuous
 62
     7
370
    30
100
AcDbCircle
 10
90.5847127682
 20
231.2081452469
 30
0.0
 40
2.5
  0
ARC
  5
39A
330
1F
100
AcDbEntity
  8
0
  6
Continuous
 62
     7
370
    30
100
AcDbCircle
 10
98.6197952931
 20
259.0065003589
 30
0.0
 40
0.9656590634640534
100
AcDbArc
 50
2.2456133805
 51
92.0820216273
  0
LINE
  5
39B
330
1F
100
AcDbEntity
  8
0
  6
Continuous
 62
     7
370
    30
100
AcDbLine
 10
99.5847127682
 20
259.0443380809
 30
0.0
 11
99.5847127682
 21
255.3356026627
 31
0.0
  0
LINE
  5
39C
330
1F
100
AcDbEntity
  8
0
  6
Continuous
 62
     7
370
    30
100
AcDbLine
 10
98.5847127682
 20
255.3356026627
 30
0.0
 11
99.5847127682
 21
255.3356026627
 31
0.0
  0
LINE
  5
39D
330
1F
100
AcDbEntity
  8
0
  6
Continuous
 62
     7
370
    30
100
AcDbLine
 10
99.5847127682
 20
255.3356026627
 30
0.0
 11
99.5847127682
 21
219.7081452469
 31
0.0
  0
ARC
  5
39E
330
1F
100
AcDbEntity
  8
0
  6
Continuous
 62
     7
370
    30
100
AcDbCircle
 10
98.5847127682
 20
219.7081452469
 30
0.0
 40
1.0
100
AcDbArc
 50
270.0
 51
0.0
  0
LINE
  5
39F
330
1F
100
AcDbEntity
  8
0
  6
Continuous
 62
     7
370
    30
100
AcDbLine
 10
82.5847127682
 20
368.3440645197
 30
0.0
 11
82.5847127682
 21
259.9715219355
 31
0.0
  0
LINE
  5
3A0
330
1F
100
AcDbEntity
  8
0
  6
Continuous
 62
     7
370
    30
100
AcDbLine
 10
98.5847127682
 20
368.3440645197
 30
0.0
 11
82.5847127682
 21
368.3440645197
 31
0.0
  0
LINE
  5
3A1
330
1F
100
AcDbEntity
  8
0
  6
Continuous
 62
     7
370
    30
100
AcDbLine
 10
98.5847127682
 20
259.9715219355
 30
0.0
 11
98.5847127682
 21
368.3440645197
 31
0.0
  0
ELLIPSE
  5
3A2
330
1F
100
AcDbEntity
  8
0
  6
Continuous
 62
     7
370
    30
100
AcDbEllipse
 10
90.5847127682
 20
268.8088008928
 30
0.0
 11
5.5
 21
0.0
 31
0.0
210
0.0
220
0.0
230
1.0
 40
0.4040262258
 41
0.0
 42
6.283185307179586
  0
ELLIPSE
  5
3A3
330
1F
100
AcDbEntity
  8
0
  6
Continuous
 62
     7
370
    30
100
AcDbEllipse
 10
90.5847127682
 20
299.1107678304
 30
0.0
 11
5.5
 21
0.0
 31
0.0
210
0.0
220
0.0
230
1.0
 40
0.4040262258
 41
0.0
 42
6.283185307179586
  0
ELLIPSE
  5
3A4
330
1F
100
AcDbEntity
  8
0
  6
Continuous
 62
     7
370
    30
100
AcDbEllipse
 10
90.5847127682
 20
289.0101121845
 30
0.0
 11
5.5
 21
0.0
 31
0.0
210
0.0
220
0.0
230
1.0
 40
0.4040262258
 41
0.0
 42
6.283185307179586
  0
ELLIPSE
  5
3A5
330
1F
100
AcDbEntity
  8
0
  6
Continuous
 62
     7
370
    30
100
AcDbEllipse
 10
90.5847127682
 20
278.9094565387
 30
0.0
 11
5.5
 21
0.0
 31
0.0
210
0.0
220
0.0
230
1.0
 40
0.4040262258
 41
0.0
 42
6.283185307179586
  0
ARC
  5
3A6
330
1F
100
AcDbEntity
  8
0
  6
Continuous
 62
     7
370
    30
100
AcDbCircle
 10
82.5496302432
 20
367.3790429431
 30
0.0
 40
0.9656590634640982
100
AcDbArc
 50
87.9179783727
 51
177.7543866195
  0
LINE
  5
3A7
330
1F
100
AcDbEntity
  8
0
  6
Continuous
 62
     7
370
    30
100
AcDbLine
 10
81.5847127682
 20
259.0443380809
 30
0.0
 11
81.5847127682
 21
367.4168806652
 31
0.0
  0
ARC
  5
3A8
330
1F
100
AcDbEntity
  8
0
  6
Continuous
 62
     7
370
    30
100
AcDbCircle
 10
98.6197952931
 20
367.3790429431
 30
0.0
 40
0.9656590634640818
100
AcDbArc
 50
2.2456133805
 51
92.0820216273
  0
LINE
  5
3A9
330
1F
100
AcDbEntity
  8
0
  6
Continuous
 62
     7
370
    30
100
AcDbLine
 10
99.5847127682
 20
367.4168806652
 30
0.0
 11
99.5847127682
 21
259.0443380809
 31
0.0
  0
ARC
  5
3AA
330
1F
100
AcDbEntity
  8
0
  6
Continuous
 62
     7
370
    30
100
AcDbCircle
 10
82.5847127682
 20
367.7081452469
 30
0.0
 40
1.000000000000057
100
AcDbArc
 50
90.0
 51
180.0
  0
LINE
  5
3AB
330
1F
100
AcDbEntity
  8
0
  6
Continuous
 62
     7
370
    30
100
AcDbLine
 10
82.5847127682
 20
368.7081452469
 30
0.0
 11
82.5847127682
 21
368.3440645197
 31
0.0
  0
LINE
  5
3AC
330
1F
100
AcDbEntity
  8
0
  6
Continuous
 62
     7
370
    30
100
AcDbLine
 10
81.5847127682
 20
367.4168806652
 30
0.0
 11
81.5847127682
 21
367.7081452469
 31
0.0
  0
LINE
  5
3AD
330
1F
100
AcDbEntity
  8
0
  6
Continuous
 62
     7
370
    30
100
AcDbLine
 10
82.5847127682
 20
368.7081452469
 30
0.0
 11
98.5847127682
 21
368.7081452469
 31
0.0
  0
LINE
  5
3AE
330
1F
100
AcDbEntity
  8
0
  6
Continuous
 62
     7
370
    30
100
AcDbLine
 10
98.5847127682
 20
368.3440645197
 30
0.0
 11
98.5847127682
 21
368.7081452469
 31
0.0
  0
ARC
  5
3AF
330
1F
100
AcDbEntity
  8
0
  6
Continuous
 62
     7
370
    30
100
AcDbCircle
 10
98.5847127682
 20
367.7081452469
 30
0.0
 40
1.000000000000057
100
AcDbArc
 50
0.0
 51
90.0
  0
LINE
  5
3B0
330
1F
100
AcDbEntity
  8
0
  6
Continuous
 62
     7
370
    30
100
AcDbLine
 10
99.5847127682
 20
367.7081452469
 30
0.0
 11
99.5847127682
 21
367.4168806652
 31
0.0
  0
DIMENSION
  5
3B1
330
1F
100
AcDbEntity
  8
DIM
100
AcDbDimension
  2
_D_17
 10
99.5847127682
 20
201.2081452469
 30
0.0
 11
95.0847127682
 21
201.2081452469
 31
0.0
 70
   160
  1
<>
 71
     2
 42
-1.0
  3
SLDDIMSTYLE2
100
AcDbAlignedDimension
 13
90.5847127682
 23
227.7081452469
 33
0.0
 14
99.5847127682
 24
219.7081452469
 34
0.0
100
AcDbRotatedDimension
  0
DIMENSION
  5
3BD
330
1F
100
AcDbEntity
  8
DIM
100
AcDbDimension
  2
_D_18
 10
64.0847127681
 20
218.7081452469
 30
0.0
 11
64.0847127681
 21
224.9581452469
 31
0.0
 70
   160
  1
<>
 71
     2
 42
-1.0
  3
SLDDIMSTYLE2
100
AcDbAlignedDimension
 13
87.0847127682
 23
231.2081452469
 33
0.0
 14
82.5847127682
 24
218.7081452469
 34
0.0
 50
90.0
100
AcDbRotatedDimension
  0
DIMENSION
  5
3C9
330
1F
100
AcDbEntity
  8
DIM
100
AcDbDimension
  2
_D_19
 10
99.5847127682
 20
386.2081452469
 30
0.0
 11
90.5847127681
 21
386.2081452469
 31
0.0
 70
   160
  1
<>
 71
     2
 42
-1.0
  3
SLDDIMSTYLE0
100
AcDbAlignedDimension
 13
81.5847127682
 23
367.4168806652
 33
0.0
 14
99.5847127682
 24
367.4168806652
 34
0.0
 50
0.0
100
AcDbRotatedDimension
  0
INSERT
  5
3D8
330
1F
100
AcDbEntity
  8
DIM
100
AcDbBlockReference
  2
SW_NOTE_4
 10
70.5613602838
 20
199.6781072046
 30
0.0
  0
LEADER
  5
3D9
330
1F
100
AcDbEntity
  8
DIM
100
AcDbLeader
  3
SLDDIMSTYLE3
 76
     2
 10
88.9535000068
 20
229.3136413732
 30
0.0
 10
70.5613602838
 20
199.6781072046
 30
0.0
  0
INSERT
  5
3E5
330
1F
100
AcDbEntity
  8
DIM
100
AcDbBlockReference
  2
SW_CENTERMARKSYMBOL_12
 10
90.5847127682
 20
231.2081452469
 30
0.0
  0
LINE
  5
3E6
330
1F
100
AcDbEntity
  8
0
  6
Continuous
 62
     7
370
    30
100
AcDbLine
 10
609.9519125431
 20
218.7081452469
 30
0.0
 11
609.9519125431
 21
223.7081452469
 31
0.0
  0
LINE
  5
3E7
330
1F
100
AcDbEntity
  8
0
  6
Continuous
 62
     7
370
    30
100
AcDbLine
 10
609.9519125431
 20
218.7081452469
 30
0.0
 11
593.9519125431
 21
218.7081452469
 31
0.0
  0
LINE
  5
3E8
330
1F
100
AcDbEntity
  8
0
  6
Continuous
 62
     7
370
    30
100
AcDbLine
 10
593.9519125431
 20
223.7081452469
 30
0.0
 11
593.9519125431
 21
218.7081452469
 31
0.0
  0
LINE
  5
3E9
330
1F
100
AcDbEntity
  8
0
  6
Continuous
 62
     7
370
    30
100
AcDbLine
 10
593.9519125431
 20
223.7081452469
 30
0.0
 11
609.9519125431
 21
223.7081452469
 31
0.0
  0
LINE
  5
3EA
330
1F
100
AcDbEntity
  8
0
  6
Continuous
 62
     7
370
    30
100
AcDbLine
 10
610.9519125431
 20
224.1223588093
 30
0.0
 11
610.9519125431
 21
219.7081452469
 31
0.0
  0
ARC
  5
3EB
330
1F
100
AcDbEntity
  8
0
  6
Continuous
 62
     7
370
    30
100
AcDbCircle
 10
609.9519125431
 20
219.7081452469
 30
0.0
 40
1.0
100
AcDbArc
 50
270.0
 51
0.0
  0
ELLIPSE
  5
3EC
330
1F
100
AcDbEntity
  8
0
  6
Continuous
 62
     7
370
    30
100
AcDbEllipse
 10
609.9519125431
 20
224.1223588093
 30
0.0
 11
1.0
 21
0.0
 31
0.0
210
0.0
220
0.0
230
1.0
 40
0.4142135624
 41
4.712388980384695
 42
6.283185307179586
  0
LINE
  5
3ED
330
1F
100
AcDbEntity
  8
0
  6
Continuous
 62
     7
370
    30
100
AcDbLine
 10
609.9519125431
 20
223.7081452469
 30
0.0
 11
609.9519125431
 21
368.7081452469
 31
0.0
  0
LINE
  5
3EE
330
1F
100
AcDbEntity
  8
0
  6
Continuous
 62
     7
370
    30
100
AcDbLine
 10
593.9519125431
 20
368.7081452469
 30
0.0
 11
593.9519125431
 21
223.7081452469
 31
0.0
  0
LINE
  5
3EF
330
1F
100
AcDbEntity
  8
0
  6
Continuous
 62
     7
370
    30
100
AcDbLine
 10
609.9519125431
 20
368.7081452469
 30
0.0
 11
593.9519125431
 21
368.7081452469
 31
0.0
  0
CIRCLE
  5
3F0
330
1F
100
AcDbEntity
  8
0
  6
Continuous
 62
     7
370
    30
100
AcDbCircle
 10
601.9519125431
 20
331.2081452469
 30
0.0
 40
3.300000000000068
  0
CIRCLE
  5
3F1
330
1F
100
AcDbEntity
  8
0
  6
Continuous
 62
     7
370
    30
100
AcDbCircle
 10
601.9519125431
 20
306.2081452469
 30
0.0
 40
3.300000000000068
  0
CIRCLE
  5
3F2
330
1F
100
AcDbEntity
  8
0
  6
Continuous
 62
     7
370
    30
100
AcDbCircle
 10
601.9519125431
 20
281.2081452469
 30
0.0
 40
3.300000000000068
  0
CIRCLE
  5
3F3
330
1F
100
AcDbEntity
  8
0
  6
Continuous
 62
     7
370
    30
100
AcDbCircle
 10
601.9519125431
 20
243.7081452469
 30
0.0
 40
2.5
  0
CIRCLE
  5
3F4
330
1F
100
AcDbEntity
  8
0
  6
Continuous
 62
     7
370
    30
100
AcDbCircle
 10
601.9519125431
 20
293.7081452469
 30
0.0
 40
2.5
  0
CIRCLE
  5
3F5
330
1F
100
AcDbEntity
  8
0
  6
Continuous
 62
     7
370
    30
100
AcDbCircle
 10
601.9519125431
 20
318.7081452469
 30
0.0
 40
2.5
  0
CIRCLE
  5
3F6
330
1F
100
AcDbEntity
  8
0
  6
Continuous
 62
     7
370
    30
100
AcDbCircle
 10
601.9519125431
 20
356.2081452469
 30
0.0
 40
2.5
  0
LINE
  5
3F7
330
1F
100
AcDbEntity
  8
0
  6
Continuous
 62
     7
370
    30
100
AcDbLine
 10
610.9519125431
 20
367.7081452469
 30
0.0
 11
610.9519125431
 21
224.1223588093
 31
0.0
  0
ARC
  5
3F8
330
1F
100
AcDbEntity
  8
0
  6
Continuous
 62
     7
370
    30
100
AcDbCircle
 10
609.9519125431
 20
367.7081452469
 30
0.0
 40
1.000000000000057
100
AcDbArc
 50
0.0
 51
90.0
  0
LINE
  5
3F9
330
1F
100
AcDbEntity
  8
0
  6
Continuous
 62
     7
370
    30
100
AcDbLine
 10
592.9519125431
 20
219.7081452469
 30
0.0
 11
592.9519125431
 21
224.1223588093
 31
0.0
  0
ELLIPSE
  5
3FA
330
1F
100
AcDbEntity
  8
0
  6
Continuous
 62
     7
370
    30
100
AcDbEllipse
 10
593.9519125431
 20
224.1223588093
 30
0.0
 11
1.000000000000114
 21
0.0
 31
0.0
210
0.0
220
0.0
230
1.0
 40
0.4142135624
 41
3.141592653589793
 42
4.712388980384695
  0
ARC
  5
3FB
330
1F
100
AcDbEntity
  8
0
  6
Continuous
 62
     7
370
    30
100
AcDbCircle
 10
593.9519125431
 20
219.7081452469
 30
0.0
 40
0.9999999999999716
100
AcDbArc
 50
180.0
 51
270.0
  0
LINE
  5
3FC
330
1F
100
AcDbEntity
  8
0
  6
Continuous
 62
     7
370
    30
100
AcDbLine
 10
592.9519125431
 20
224.1223588093
 30
0.0
 11
592.9519125431
 21
367.7081452469
 31
0.0
  0
ARC
  5
3FD
330
1F
100
AcDbEntity
  8
0
  6
Continuous
 62
     7
370
    30
100
AcDbCircle
 10
593.9519125431
 20
367.7081452469
 30
0.0
 40
1.000000000000057
100
AcDbArc
 50
90.0
 51
180.0
  0
DIMENSION
  5
3FE
330
1F
100
AcDbEntity
  8
DIM
100
AcDbDimension
  2
_D_20
 10
628.4519125431
 20
218.7081452469
 30
0.0
 11
628.4519125431
 21
231.2081452469
 31
0.0
 70
   160
  1
<>
 71
     2
 42
-1.0
  3
SLDDIMSTYLE0
100
AcDbAlignedDimension
 13
605.4519125431
 23
243.7081452469
 33
0.0
 14
609.9519125431
 24
218.7081452469
 34
0.0
 50
90.0
100
AcDbRotatedDimension
  0
DIMENSION
  5
408
330
1F
100
AcDbEntity
  8
DIM
100
AcDbDimension
  2
_D_21
 10
628.4519125431
 20
243.7081452469
 30
0.0
 11
628.4519125431
 21
268.7081452469
 31
0.0
 70
   160
  1
<>
 71
     2
 42
-1.0
  3
SLDDIMSTYLE0
100
AcDbAlignedDimension
 13
605.4519125431
 23
293.7081452469
 33
0.0
 14
605.4519125431
 24
243.7081452469
 34
0.0
 50
90.0
100
AcDbRotatedDimension
  0
DIMENSION
  5
412
330
1F
100
AcDbEntity
  8
DIM
100
AcDbDimension
  2
_D_22
 10
628.4519125431
 20
293.7081452469
 30
0.0
 11
628.4519125431
 21
306.2081452469
 31
0.0
 70
   160
  1
<>
 71
     2
 42
-1.0
  3
SLDDIMSTYLE0
100
AcDbAlignedDimension
 13
605.4519125431
 23
318.7081452469
 33
0.0
 14
605.4519125431
 24
293.7081452469
 34
0.0
 50
90.0
100
AcDbRotatedDimension
  0
DIMENSION
  5
41C
330
1F
100
AcDbEntity
  8
DIM
100
AcDbDimension
  2
_D_23
 10
628.4519125431
 20
318.7081452469
 30
0.0
 11
628.4519125431
 21
337.4581452469
 31
0.0
 70
   160
  1
<>
 71
     2
 42
-1.0
  3
SLDDIMSTYLE0
100
AcDbAlignedDimension
 13
605.4519125431
 23
356.2081452469
 33
0.0
 14
605.4519125431
 24
318.7081452469
 34
0.0
 50
90.0
100
AcDbRotatedDimension
  0
DIMENSION
  5
426
330
1F
100
AcDbEntity
  8
DIM
100
AcDbDimension
  2
_D_24
 10
575.4519125431
 20
218.7081452469
 30
0.0
 11
575.4519125431
 21
249.9581452469
 31
0.0
 70
   160
  1
<>
 71
     2
 42
-1.0
  3
SLDDIMSTYLE0
100
AcDbAlignedDimension
 13
597.6519125431
 23
281.2081452469
 33
0.0
 14
593.9519125431
 24
218.7081452469
 34
0.0
 50
90.0
100
AcDbRotatedDimension
  0
DIMENSION
  5
430
330
1F
100
AcDbEntity
  8
DIM
100
AcDbDimension
  2
_D_25
 10
575.4519125431
 20
281.2081452469
 30
0.0
 11
575.4519125431
 21
293.7081452469
 31
0.0
 70
   160
  1
<>
 71
     2
 42
-1.0
  3
SLDDIMSTYLE0
100
AcDbAlignedDimension
 13
597.6519125431
 23
306.2081452469
 33
0.0
 14
597.6519125431
 24
281.2081452469
 34
0.0
 50
90.0
100
AcDbRotatedDimension
  0
DIMENSION
  5
43A
330
1F
100
AcDbEntity
  8
DIM
100
AcDbDimension
  2
_D_26
 10
575.4519125431
 20
306.2081452469
 30
0.0
 11
575.4519125431
 21
318.7081452469
 31
0.0
 70
   160
  1
<>
 71
     2
 42
-1.0
  3
SLDDIMSTYLE0
100
AcDbAlignedDimension
 13
597.6519125431
 23
331.2081452469
 33
0.0
 14
597.6519125431
 24
306.2081452469
 34
0.0
 50
90.0
100
AcDbRotatedDimension
  0
DIMENSION
  5
444
330
1F
100
AcDbEntity
  8
DIM
100
AcDbDimension
  2
_D_27
 10
592.9519125431
 20
201.2081452469
 30
0.0
 11
597.4519125431
 21
201.2081452469
 31
0.0
 70
   160
  1
<>
 71
     2
 42
-1.0
  3
SLDDIMSTYLE2
100
AcDbAlignedDimension
 13
601.9519125431
 23
240.2081452469
 33
0.0
 14
592.9519125431
 24
219.7081452469
 34
0.0
100
AcDbRotatedDimension
  0
INSERT
  5
456
330
1F
100
AcDbEntity
  8
DIM
100
AcDbBlockReference
  2
SW_NOTE_5
 10
622.4494219653
 20
194.1539022705
 30
0.0
  0
LEADER
  5
457
330
1F
100
AcDbEntity
  8
DIM
100
AcDbLeader
  3
SLDDIMSTYLE3
 76
     2
 10
603.5823174612
 20
241.8129461009
 30
0.0
 10
622.4494219653
 20
194.1539022705
 30
0.0
  0
INSERT
  5
45E
330
1F
100
AcDbEntity
  8
DIM
100
AcDbBlockReference
  2
SW_NOTE_6
 10
582.044756002
 20
347.044075681
 30
0.0
  0
LEADER
  5
45F
330
1F
100
AcDbEntity
  8
DIM
100
AcDbLeader
  3
SLDDIMSTYLE3
 76
     2
 10
599.8422948527
 20
333.7457648402
 30
0.0
 10
582.044756002
 20
347.044075681
 30
0.0
  0
INSERT
  5
46B
330
1F
100
AcDbEntity
  8
DIM
100
AcDbBlockReference
  2
SW_CENTERMARKSYMBOL_13
 10
601.9519125431
 20
356.2081452469
 30
0.0
  0
INSERT
  5
477
330
1F
100
AcDbEntity
  8
DIM
100
AcDbBlockReference
  2
SW_CENTERMARKSYMBOL_14
 10
601.9519125431
 20
331.2081452469
 30
0.0
  0
INSERT
  5
483
330
1F
100
AcDbEntity
  8
DIM
100
AcDbBlockReference
  2
SW_CENTERMARKSYMBOL_15
 10
601.9519125431
 20
318.7081452469
 30
0.0
  0
INSERT
  5
48F
330
1F
100
AcDbEntity
  8
DIM
100
AcDbBlockReference
  2
SW_CENTERMARKSYMBOL_16
 10
601.9519125431
 20
306.2081452469
 30
0.0
  0
INSERT
  5
49B
330
1F
100
AcDbEntity
  8
DIM
100
AcDbBlockReference
  2
SW_CENTERMARKSYMBOL_17
 10
601.9519125431
 20
293.7081452469
 30
0.0
  0
INSERT
  5
4A7
330
1F
100
AcDbEntity
  8
DIM
100
AcDbBlockReference
  2
SW_CENTERMARKSYMBOL_18
 10
601.9519125431
 20
281.2081452469
 30
0.0
  0
INSERT
  5
4B3
330
1F
100
AcDbEntity
  8
DIM
100
AcDbBlockReference
  2
SW_CENTERMARKSYMBOL_19
 10
601.9519125431
 20
243.7081452469
 30
0.0
  0
LINE
  5
4B4
330
1F
100
AcDbEntity
  8
0
  6
Continuous
 62
     7
370
    30
100
AcDbLine
 10
499.4338103671
 20
430.5044311159
 30
0.0
 11
422.6652657886
 21
430.5044311159
 31
0.0
  0
LINE
  5
4B5
330
1F
100
AcDbEntity
  8
0
  6
Continuous
 62
     7
370
    30
100
AcDbLine
 10
422.6652657886
 20
414.5044311159
 30
0.0
 11
499.4338103671
 21
414.5044311159
 31
0.0
  0
LINE
  5
4B6
330
1F
100
AcDbEntity
  8
0
  6
Continuous
 62
     7
370
    30
100
AcDbLine
 10
422.6652657886
 20
430.5044311159
 30
0.0
 11
422.6652657886
 21
414.5044311159
 31
0.0
  0
CIRCLE
  5
4B7
330
1F
100
AcDbEntity
  8
0
  6
Continuous
 62
     7
370
    30
100
AcDbCircle
 10
449.4338103671
 20
422.5044311159
 30
0.0
 40
2.5
  0
CIRCLE
  5
4B8
330
1F
100
AcDbEntity
  8
0
  6
Continuous
 62
     7
370
    30
100
AcDbCircle
 10
474.4338103671
 20
422.5044311159
 30
0.0
 40
2.5
  0
LINE
  5
4B9
330
1F
100
AcDbEntity
  8
0
  6
Continuous
 62
     7
370
    30
100
AcDbLine
 10
499.4338103671
 20
430.5044311159
 30
0.0
 11
499.4338103671
 21
414.5044311159
 31
0.0
  0
LINE
  5
4BA
330
1F
100
AcDbEntity
  8
0
  6
Continuous
 62
     7
370
    30
100
AcDbLine
 10
422.6652657886
 20
431.5044311159
 30
0.0
 11
498.4338103671
 21
431.5044311159
 31
0.0
  0
LINE
  5
4BB
330
1F
100
AcDbEntity
  8
0
  6
Continuous
 62
     7
370
    30
100
AcDbLine
 10
422.6652657886
 20
431.5044311159
 30
0.0
 11
422.6652657886
 21
430.5044311159
 31
0.0
  0
ARC
  5
4BC
330
1F
100
AcDbEntity
  8
0
  6
Continuous
 62
     7
370
    30
100
AcDbCircle
 10
498.4338103671
 20
430.5044311159
 30
0.0
 40
1.0
100
AcDbArc
 50
0.0
 51
90.0
  0
LINE
  5
4BD
330
1F
100
AcDbEntity
  8
0
  6
Continuous
 62
     7
370
    30
100
AcDbLine
 10
498.4338103671
 20
413.5044311159
 30
0.0
 11
422.6652657886
 21
413.5044311159
 31
0.0
  0
LINE
  5
4BE
330
1F
100
AcDbEntity
  8
0
  6
Continuous
 62
     7
370
    30
100
AcDbLine
 10
422.6652657886
 20
413.5044311159
 30
0.0
 11
422.6652657886
 21
414.5044311159
 31
0.0
  0
ARC
  5
4BF
330
1F
100
AcDbEntity
  8
0
  6
Continuous
 62
     7
370
    30
100
AcDbCircle
 10
498.4338103671
 20
414.5044311159
 30
0.0
 40
0.9999999999999432
100
AcDbArc
 50
270.0
 51
0.0
  0
LINE
  5
4C0
330
1F
100
AcDbEntity
  8
0
  6
Continuous
 62
     7
370
    30
100
AcDbLine
 10
421.166839415
 20
431.5044311159
 30
0.0
 11
422.6652657886
 21
431.5044311159
 31
0.0
  0
LINE
  5
4C1
330
1F
100
AcDbEntity
  8
0
  6
Continuous
 62
     7
370
    30
100
AcDbLine
 10
422.6652657886
 20
430.5044311159
 30
0.0
 11
420.7922328215
 21
430.5044311159
 31
0.0
  0
LWPOLYLINE
  5
4C2
330
1F
100
AcDbEntity
  8
0
  6
Continuous
 62
     7
370
    30
100
AcDbPolyline
 90
        9
 70
   128
 43
0.0
 10
420.7922328215
 20
430.5044311159
 10
420.7994307822
 20
430.6995214379
 10
420.8207480506
 20
430.8871145482
 10
420.855365416
 20
431.0600013489
 10
420.9019525525
 20
431.2115378971
 10
420.9587191426
 20
431.3359007282
 10
421.023483678
 20
431.4283106484
 10
421.093757294
 20
431.4852163963
 10
421.166839415
 20
431.5044311159
  0
LINE
  5
4C3
330
1F
100
AcDbEntity
  8
0
  6
Continuous
 62
     7
370
    30
100
AcDbLine
 10
420.7922328215
 20
414.5044311159
 30
0.0
 11
422.6652657886
 21
414.5044311159
 31
0.0
  0
LINE
  5
4C4
330
1F
100
AcDbEntity
  8
0
  6
Continuous
 62
     7
370
    30
100
AcDbLine
 10
420.7922328215
 20
414.5044311159
 30
0.0
 11
420.7922328215
 21
430.5044311159
 31
0.0
  0
LINE
  5
4C5
330
1F
100
AcDbEntity
  8
0
  6
Continuous
 62
     7
370
    30
100
AcDbLine
 10
422.6652657886
 20
413.5044311159
 30
0.0
 11
421.166839415
 21
413.5044311159
 31
0.0
  0
LWPOLYLINE
  5
4C6
330
1F
100
AcDbEntity
  8
0
  6
Continuous
 62
     7
370
    30
100
AcDbPolyline
 90
        9
 70
   128
 43
0.0
 10
420.7922328215
 20
414.5044311159
 10
420.7994307822
 20
414.3093407939
 10
420.8207480506
 20
414.1217476835
 10
420.855365416
 20
413.9488608829
 10
420.9019525525
 20
413.7973243347
 10
420.9587191426
 20
413.6729615036
 10
421.023483678
 20
413.5805515834
 10
421.093757294
 20
413.5236458355
 10
421.166839415
 20
413.5044311159
  0
LINE
  5
4C7
330
1F
100
AcDbEntity
  8
0
  6
Continuous
 62
     7
370
    30
100
AcDbLine
 10
420.7922328215
 20
430.5044311159
 30
0.0
 11
152.5607774001
 21
430.5044311159
 31
0.0
  0
LWPOLYLINE
  5
4C8
330
1F
100
AcDbEntity
  8
0
  6
Continuous
 62
     7
370
    30
100
AcDbPolyline
 90
        9
 70
   128
 43
0.0
 10
152.5607774001
 20
430.5044311159
 10
152.5679753607
 20
430.6995214379
 10
152.5892926291
 20
430.8871145482
 10
152.6239099945
 20
431.0600013489
 10
152.670497131
 20
431.2115378971
 10
152.7272637211
 20
431.3359007282
 10
152.7920282565
 20
431.4283106484
 10
152.8623018725
 20
431.4852163963
 10
152.9353839935
 20
431.5044311159
  0
LINE
  5
4C9
330
1F
100
AcDbEntity
  8
0
  6
Continuous
 62
     7
370
    30
100
AcDbLine
 10
152.9353839935
 20
431.5044311159
 30
0.0
 11
421.166839415
 21
431.5044311159
 31
0.0
  0
LINE
  5
4CA
330
1F
100
AcDbEntity
  8
0
  6
Continuous
 62
     7
370
    30
100
AcDbLine
 10
152.5607774001
 20
414.5044311159
 30
0.0
 11
420.7922328215
 21
414.5044311159
 31
0.0
  0
LINE
  5
4CB
330
1F
100
AcDbEntity
  8
0
  6
Continuous
 62
     7
370
    30
100
AcDbLine
 10
152.5607774001
 20
430.5044311159
 30
0.0
 11
152.5607774001
 21
414.5044311159
 31
0.0
  0
CIRCLE
  5
4CC
330
1F
100
AcDbEntity
  8
0
  6
Continuous
 62
     7
370
    30
100
AcDbCircle
 10
174.4338103671
 20
422.5044311159
 30
0.0
 40
5.5
  0
CIRCLE
  5
4CD
330
1F
100
AcDbEntity
  8
0
  6
Continuous
 62
     7
370
    30
100
AcDbCircle
 10
249.4338103671
 20
422.5044311159
 30
0.0
 40
5.5
  0
CIRCLE
  5
4CE
330
1F
100
AcDbEntity
  8
0
  6
Continuous
 62
     7
370
    30
100
AcDbCircle
 10
224.4338103671
 20
422.5044311159
 30
0.0
 40
5.499999999999972
  0
CIRCLE
  5
4CF
330
1F
100
AcDbEntity
  8
0
  6
Continuous
 62
     7
370
    30
100
AcDbCircle
 10
199.4338103671
 20
422.5044311159
 30
0.0
 40
5.5
  0
LINE
  5
4D0
330
1F
100
AcDbEntity
  8
0
  6
Continuous
 62
     7
370
    30
100
AcDbLine
 10
421.166839415
 20
413.5044311159
 30
0.0
 11
152.9353839935
 21
413.5044311159
 31
0.0
  0
LWPOLYLINE
  5
4D1
330
1F
100
AcDbEntity
  8
0
  6
Continuous
 62
     7
370
    30
100
AcDbPolyline
 90
        9
 70
   128
 43
0.0
 10
152.5607774001
 20
414.5044311159
 10
152.5679753607
 20
414.3093407939
 10
152.5892926291
 20
414.1217476835
 10
152.6239099945
 20
413.9488608829
 10
152.670497131
 20
413.7973243347
 10
152.7272637211
 20
413.6729615036
 10
152.7920282565
 20
413.5805515834
 10
152.8623018725
 20
413.5236458355
 10
152.9353839935
 20
413.5044311159
  0
LINE
  5
4D2
330
1F
100
AcDbEntity
  8
0
  6
Continuous
 62
     7
370
    30
100
AcDbLine
 10
152.5607774001
 20
430.5044311159
 30
0.0
 11
149.4338103671
 21
430.5044311159
 31
0.0
  0
ARC
  5
4D3
330
1F
100
AcDbEntity
  8
0
  6
Continuous
 62
     7
370
    30
100
AcDbCircle
 10
150.4338103671
 20
430.5044311159
 30
0.0
 40
1.0
100
AcDbArc
 50
90.0
 51
180.0
  0
LINE
  5
4D4
330
1F
100
AcDbEntity
  8
0
  6
Continuous
 62
     7
370
    30
100
AcDbLine
 10
150.4338103671
 20
431.5044311159
 30
0.0
 11
152.9353839935
 21
431.5044311159
 31
0.0
  0
LINE
  5
4D5
330
1F
100
AcDbEntity
  8
0
  6
Continuous
 62
     7
370
    30
100
AcDbLine
 10
149.4338103671
 20
414.5044311159
 30
0.0
 11
152.5607774001
 21
414.5044311159
 31
0.0
  0
LINE
  5
4D6
330
1F
100
AcDbEntity
  8
0
  6
Continuous
 62
     7
370
    30
100
AcDbLine
 10
149.4338103671
 20
414.5044311159
 30
0.0
 11
149.4338103671
 21
430.5044311159
 31
0.0
  0
ARC
  5
4D7
330
1F
100
AcDbEntity
  8
0
  6
Continuous
 62
     7
370
    30
100
AcDbCircle
 10
150.4338103671
 20
414.5044311159
 30
0.0
 40
0.9999999999999716
100
AcDbArc
 50
180.0
 51
270.0
  0
LINE
  5
4D8
330
1F
100
AcDbEntity
  8
0
  6
Continuous
 62
     7
370
    30
100
AcDbLine
 10
152.9353839935
 20
413.5044311159
 30
0.0
 11
150.4338103671
 21
413.5044311159
 31
0.0
  0
CIRCLE
  5
4D9
330
1F
100
AcDbEntity
  8
0
  6
Continuous
 62
     7
370
    30
100
AcDbCircle
 10
249.4338103671
 20
422.5044311159
 30
0.0
 40
3.299999999999955
  0
CIRCLE
  5
4DA
330
1F
100
AcDbEntity
  8
0
  6
Continuous
 62
     7
370
    30
100
AcDbCircle
 10
224.4338103671
 20
422.5044311159
 30
0.0
 40
3.299999999999955
  0
CIRCLE
  5
4DB
330
1F
100
AcDbEntity
  8
0
  6
Continuous
 62
     7
370
    30
100
AcDbCircle
 10
199.4338103671
 20
422.5044311159
 30
0.0
 40
3.299999999999983
  0
CIRCLE
  5
4DC
330
1F
100
AcDbEntity
  8
0
  6
Continuous
 62
     7
370
    30
100
AcDbCircle
 10
174.4338103671
 20
422.5044311159
 30
0.0
 40
3.299999999999983
  0
DIMENSION
  5
4DD
330
1F
100
AcDbEntity
  8
DIM
100
AcDbDimension
  2
_D_28
 10
499.4338103671
 20
449.0044311159
 30
0.0
 11
486.9338103671
 21
449.0044311159
 31
0.0
 70
   160
  1
<>
 71
     2
 42
-1.0
  3
SLDDIMSTYLE0
100
AcDbAlignedDimension
 13
474.4338103671
 23
426.0044311159
 33
0.0
 14
499.4338103671
 24
430.5044311159
 34
0.0
100
AcDbRotatedDimension
  0
DIMENSION
  5
4E7
330
1F
100
AcDbEntity
  8
DIM
100
AcDbDimension
  2
_D_29
 10
449.4338103671
 20
449.0044311159
 30
0.0
 11
461.9338103671
 21
449.0044311159
 31
0.0
 70
   160
  1
<>
 71
     2
 42
-1.0
  3
SLDDIMSTYLE0
100
AcDbAlignedDimension
 13
474.4338103671
 23
426.0044311159
 33
0.0
 14
449.4338103671
 24
426.0044311159
 34
0.0
100
AcDbRotatedDimension
  0
DIMENSION
  5
4F1
330
1F
100
AcDbEntity
  8
DIM
100
AcDbDimension
  2
_D_30
 10
516.9338103671
 20
413.5044311159
 30
0.0
 11
516.9338103671
 21
418.0044311159
 31
0.0
 70
   160
  1
<>
 71
     2
 42
-1.0
  3
SLDDIMSTYLE2
100
AcDbAlignedDimension
 13
477.9338103671
 23
422.5044311159
 33
0.0
 14
498.4338103671
 24
413.5044311159
 34
0.0
 50
90.0
100
AcDbRotatedDimension
  0
DIMENSION
  5
4FD
330
1F
100
AcDbEntity
  8
DIM
100
AcDbDimension
  2
_D_31
 10
499.4338103671
 20
396.0044311159
 30
0.0
 11
374.4338103671
 21
396.0044311159
 31
0.0
 70
   160
  1
<>
 71
     2
 42
-1.0
  3
SLDDIMSTYLE0
100
AcDbAlignedDimension
 13
249.4338103671
 23
416.0044311159
 33
0.0
 14
499.4338103671
 24
414.5044311159
 34
0.0
100
AcDbRotatedDimension
  0
DIMENSION
  5
507
330
1F
100
AcDbEntity
  8
DIM
100
AcDbDimension
  2
_D_32
 10
224.4338103671
 20
396.0044311159
 30
0.0
 11
236.9338103671
 21
396.0044311159
 31
0.0
 70
   160
  1
<>
 71
     2
 42
-1.0
  3
SLDDIMSTYLE0
100
AcDbAlignedDimension
 13
249.4338103671
 23
416.0044311159
 33
0.0
 14
224.4338103671
 24
416.0044311159
 34
0.0
100
AcDbRotatedDimension
  0
DIMENSION
  5
511
330
1F
100
AcDbEntity
  8
DIM
100
AcDbDimension
  2
_D_33
 10
224.4338103671
 20
396.0044311159
 30
0.0
 11
211.9338103671
 21
396.0044311159
 31
0.0
 70
   160
  1
<>
 71
     2
 42
-1.0
  3
SLDDIMSTYLE0
100
AcDbAlignedDimension
 13
199.4338103671
 23
416.0044311159
 33
0.0
 14
224.4338103671
 24
416.0044311159
 34
0.0
100
AcDbRotatedDimension
  0
DIMENSION
  5
51B
330
1F
100
AcDbEntity
  8
DIM
100
AcDbDimension
  2
_D_34
 10
199.4338103671
 20
396.0044311159
 30
0.0
 11
186.9338103671
 21
396.0044311159
 31
0.0
 70
   160
  1
<>
 71
     2
 42
-1.0
  3
SLDDIMSTYLE0
100
AcDbAlignedDimension
 13
174.4338103671
 23
416.0044311159
 33
0.0
 14
199.4338103671
 24
416.0044311159
 34
0.0
100
AcDbRotatedDimension
  0
INSERT
  5
52B
330
1F
100
AcDbEntity
  8
DIM
100
AcDbBlockReference
  2
SW_NOTE_7
 10
428.5765479095
 20
447.333093022
 30
0.0
  0
LEADER
  5
52C
330
1F
100
AcDbEntity
  8
DIM
100
AcDbLeader
  3
SLDDIMSTYLE3
 76
     2
 10
447.4812272734
 20
424.0656547584
 30
0.0
 10
428.5765479095
 20
447.333093022
 30
0.0
  0
INSERT
  5
533
330
1F
100
AcDbEntity
  8
DIM
100
AcDbBlockReference
  2
SW_NOTE_8
 10
272.4494219653
 20
447.333093022
 30
0.0
  0
LEADER
  5
534
330
1F
100
AcDbEntity
  8
DIM
100
AcDbLeader
  3
SLDDIMSTYLE3
 76
     2
 10
254.11270202
 20
425.3954470102
 30
0.0
 10
272.4494219653
 20
447.333093022
 30
0.0
  0
INSERT
  5
540
330
1F
100
AcDbEntity
  8
DIM
100
AcDbBlockReference
  2
SW_CENTERMARKSYMBOL_20
 10
174.4338103671
 20
422.5044311159
 30
0.0
  0
INSERT
  5
54C
330
1F
100
AcDbEntity
  8
DIM
100
AcDbBlockReference
  2
SW_CENTERMARKSYMBOL_21
 10
199.4338103671
 20
422.5044311159
 30
0.0
  0
INSERT
  5
558
330
1F
100
AcDbEntity
  8
DIM
100
AcDbBlockReference
  2
SW_CENTERMARKSYMBOL_22
 10
224.4338103671
 20
422.5044311159
 30
0.0
  0
INSERT
  5
564
330
1F
100
AcDbEntity
  8
DIM
100
AcDbBlockReference
  2
SW_CENTERMARKSYMBOL_23
 10
249.4338103671
 20
422.5044311159
 30
0.0
  0
INSERT
  5
570
330
1F
100
AcDbEntity
  8
DIM
100
AcDbBlockReference
  2
SW_CENTERMARKSYMBOL_24
 10
449.4338103671
 20
422.5044311159
 30
0.0
  0
INSERT
  5
57C
330
1F
100
AcDbEntity
  8
DIM
100
AcDbBlockReference
  2
SW_CENTERMARKSYMBOL_25
 10
474.4338103671
 20
422.5044311159
 30
0.0
  0
LINE
  5
57D
330
1F
100
AcDbEntity
  8
0
  6
Continuous
 62
     7
370
    30
100
AcDbLine
 10
689.475878656
 20
369.8308331738
 30
0.0
 11
689.475878656
 21
428.8609308963
 31
0.0
  0
LINE
  5
57E
330
1F
100
AcDbEntity
  8
0
  6
Continuous
 62
     7
370
    30
100
AcDbLine
 10
689.4758786543
 20
428.8609308991
 30
0.0
 11
662.4376325031
 21
444.4697781586
 31
0.0
  0
SPLINE
  5
57F
330
1F
100
AcDbEntity
  8
0
  6
Continuous
 62
     7
370
    30
100
AcDbSpline
210
0.0
220
0.0
230
1.0
 70
     8
 71
     3
 72
    14
 73
    10
 74
     0
 42
0.000000001
 43
0.00000001
 40
0.0
 40
0.0
 40
0.0
 40
0.0
 40
0.0826604916499085
 40
0.2430208646410641
 40
0.4056041353872947
 40
0.5697344971803581
 40
0.7340975478030465
 40
0.8968189457025592
 40
1.0
 40
1.0
 40
1.0
 40
1.0
 10
675.644423520869
 20
421.8108585252774
 30
0.0
 10
675.706327381005
 20
421.7723198029533
 30
0.0
 10
675.8883239952834
 20
421.6590164166026
 30
0.0
 10
676.202288198208
 20
421.3799068799673
 30
0.0
 10
676.5480106564634
 20
420.9575382424332
 30
0.0
 10
676.8387972568986
 20
420.4666181923382
 30
0.0
 10
677.0465312600552
 20
419.9519662288937
 30
0.0
 10
677.1487566670337
 20
419.5101160022917
 30
0.0
 10
677.1584202792252
 20
419.2737431469034
 30
0.0
 10
677.1621701569945
 20
419.182020786975
 30
0.0
  0
LINE
  5
580
330
1F
100
AcDbEntity
  8
0
  6
Continuous
 62
     7
370
    30
100
AcDbLine
 10
677.162170157
 20
419.182020787
 30
0.0
 11
677.162170157
 21
389.7865515591
 31
0.0
  0
LINE
  5
581
330
1F
100
AcDbEntity
  8
0
  6
Continuous
 62
     7
370
    30
100
AcDbLine
 10
657.8880958701
 20
432.0613682899
 30
0.0
 11
675.6444235209
 21
421.8108585253
 31
0.0
  0
SPLINE
  5
582
330
1F
100
AcDbEntity
  8
0
  6
Continuous
 62
     7
370
    30
100
AcDbSpline
210
0.0
220
0.0
230
1.0
 70
     8
 71
     3
 72
     9
 73
     5
 74
     0
 42
0.000000001
 43
0.00000001
 40
0.0
 40
0.0
 40
0.0
 40
0.0
 40
0.3400214028944598
 40
1.0
 40
1.0
 40
1.0
 40
1.0
 10
657.4208281850895
 20
432.2310767127208
 30
0.0
 10
657.4661609230392
 20
432.2243298755375
 30
0.0
 10
657.5994841125911
 20
432.204487485835
 30
0.0
 10
657.7733488587783
 20
432.1182699910876
 30
0.0
 10
657.888095870053
 20
432.0613682898583
 30
0.0
  0
LINE
  5
583
330
1F
100
AcDbEntity
  8
0
  6
Continuous
 62
     7
370
    30
100
AcDbLine
 10
634.8720693083
 20
434.7279715623
 30
0.0
 11
657.4208281851
 21
432.2310767127
 31
0.0
  0
SPLINE
  5
584
330
1F
100
AcDbEntity
  8
0
  6
Continuous
 62
     7
370
    30
100
AcDbSpline
210
0.0
220
0.0
230
1.0
 70
     8
 71
     3
 72
     9
 73
     5
 74
     0
 42
0.000000001
 43
0.00000001
 40
0.0
 40
0.0
 40
0.0
 40
0.0
 40
0.3755194622557105
 40
1.0
 40
1.0
 40
1.0
 40
1.0
 10
662.4376325030861
 20
444.4697781585768
 30
0.0
 10
662.3489066901155
 20
444.5174003572656
 30
0.0
 10
662.1126318178691
 20
444.6442172162448
 30
0.0
 10
661.8665700758543
 20
444.6912575537637
 30
0.0
 10
661.7129093068825
 20
444.7206333290331
 30
0.0
  0
LINE
  5
585
330
1F
100
AcDbEntity
  8
0
  6
Continuous
 62
     7
370
    30
100
AcDbLine
 10
661.7129093069
 20
444.720633329
 30
0.0
 11
566.8787687788
 21
455.2219153881
 31
0.0
  0
SPLINE
  5
586
330
1F
100
AcDbEntity
  8
0
  6
Continuous
 62
     7
370
    30
100
AcDbSpline
210
0.0
220
0.0
230
1.0
 70
     8
 71
     3
 72
    11
 73
     7
 74
     0
 42
0.000000001
 43
0.00000001
 40
0.0
 40
0.0
 40
0.0
 40
0.0
 40
0.1685360123540813
 40
0.4895021244990054
 40
0.813867457874258
 40
1.0
 40
1.0
 40
1.0
 40
1.0
 10
677.1621701569944
 20
389.7865515590879
 30
0.0
 10
677.1598344592555
 20
389.7188045491555
 30
0.0
 10
677.1530505737853
 20
389.5220376693225
 30
0.0
 10
677.0790423971179
 20
389.2759232416956
 30
0.0
 10
676.9836648507394
 20
389.1288698422625
 30
0.0
 10
676.9137050229817
 20
389.0954120638343
 30
0.0
 10
676.8881969822785
 20
389.0832130290261
 30
0.0
  0
LINE
  5
587
330
1F
100
AcDbEntity
  8
0
  6
Continuous
 62
     7
370
    30
100
AcDbLine
 10
677.162170157
 20
394.7593385952
 30
0.0
 11
665.7813622421
 21
395.2910600331
 31
0.0
  0
LINE
  5
588
330
1F
100
AcDbEntity
  8
0
  6
Continuous
 62
     7
370
    30
100
AcDbLine
 10
559.7824444817
 20
435.6214025499
 30
0.0
 11
681.611946357
 21
365.2907281478
 31
0.0
  0
SPLINE
  5
589
330
1F
100
AcDbEntity
  8
0
  6
Continuous
 62
     7
370
    30
100
AcDbSpline
210
0.0
220
0.0
230
1.0
 70
     8
 71
     3
 72
    12
 73
     8
 74
     0
 42
0.000000001
 43
0.00000001
 40
0.0
 40
0.0
 40
0.0
 40
0.0
 40
0.0028179902528993
 40
0.2847688380171026
 40
0.5598432221267846
 40
0.8457636833991001
 40
1.0
 40
1.0
 40
1.0
 40
1.0
 10
659.4534724565665
 20
391.8721542575764
 30
0.0
 10
659.4521171815041
 20
391.8716739754844
 30
0.0
 10
659.3151613832019
 20
391.82313960845
 30
0.0
 10
659.1069163795408
 20
391.6016679544816
 30
0.0
 10
658.88194244476
 20
391.2324910334389
 30
0.0
 10
658.788935611096
 20
390.8540901460875
 30
0.0
 10
658.7803887653818
 20
390.6049043005972
 30
0.0
 10
658.7773938461443
 20
390.5175865336342
 30
0.0
  0
SPLINE
  5
58A
330
1F
100
AcDbEntity
  8
0
  6
Continuous
 62
     7
370
    30
100
AcDbSpline
210
0.0
220
0.0
230
1.0
 70
     8
 71
     3
 72
     9
 73
     5
 74
     0
 42
0.000000001
 43
0.00000001
 40
0.0
 40
0.0
 40
0.0
 40
0.0
 40
0.3275888113313015
 40
1.0
 40
1.0
 40
1.0
 40
1.0
 10
634.5976276458134
 20
434.6750231207568
 30
0.0
 10
634.6176520339146
 20
434.6896985706924
 30
0.0
 10
634.6787786274018
 20
434.7344969564369
 30
0.0
 10
634.7943546784234
 20
434.7305951682969
 30
0.0
 10
634.8720693082724
 20
434.7279715622957
 30
0.0
  0
LINE
  5
58B
330
1F
100
AcDbEntity
  8
0
  6
Continuous
 62
     7
370
    30
100
AcDbLine
 10
665.0985632422
 20
395.1319330251
 30
0.0
 11
659.4417089927
 21
391.8663005778
 31
0.0
  0
LINE
  5
58C
330
1F
100
AcDbEntity
  8
0
  6
Continuous
 62
     7
370
    30
100
AcDbLine
 10
658.7773938461
 20
390.5175865336
 30
0.0
 11
658.7773938461
 21
387.3352040226
 31
0.0
  0
SPLINE
  5
58D
330
1F
100
AcDbEntity
  8
0
  6
Continuous
 62
     7
370
    30
100
AcDbSpline
210
0.0
220
0.0
230
1.0
 70
     8
 71
     3
 72
    11
 73
     7
 74
     0
 42
0.000000001
 43
0.00000001
 40
0.0
 40
0.0
 40
0.0
 40
0.0
 40
0.1685360123540852
 40
0.4895021244989934
 40
0.8138674578742411
 40
1.0
 40
1.0
 40
1.0
 40
1.0
 10
658.7773938461443
 20
387.3352040226112
 30
0.0
 10
658.7750581484053
 20
387.2674570126786
 30
0.0
 10
658.7682742629353
 20
387.0706901328457
 30
0.0
 10
658.6942660862678
 20
386.8245757052188
 30
0.0
 10
658.5988885398891
 20
386.6775223057857
 30
0.0
 10
658.5289287121316
 20
386.6440645273574
 30
0.0
 10
658.5034206714282
 20
386.6318654925493
 30
0.0
  0
SPLINE
  5
58E
330
1F
100
AcDbEntity
  8
0
  6
Continuous
 62
     7
370
    30
100
AcDbSpline
210
0.0
220
0.0
230
1.0
 70
     8
 71
     3
 72
    10
 73
     6
 74
     0
 42
0.000000001
 43
0.00000001
 40
0.0
 40
0.0
 40
0.0
 40
0.0
 40
0.3925258113121395
 40
0.9497720194595741
 40
0.9999999999999999
 40
0.9999999999999999
 40
0.9999999999999999
 40
0.9999999999999999
 10
665.7813622420878
 20
395.291060033129
 30
0.0
 10
665.6849811976135
 20
395.2882335675862
 30
0.0
 10
665.451773554677
 20
395.281394532269
 30
0.0
 10
665.1998401637791
 20
395.2178709964325
 30
0.0
 10
665.0873910697705
 20
395.1206658187388
 30
0.0
 10
665.0780934057532
 20
395.1126285722771
 30
0.0
  0
LINE
  5
58F
330
1F
100
AcDbEntity
  8
0
  6
Continuous
 62
     7
370
    30
100
AcDbLine
 10
639.9784039729
 20
405.2961824827
 30
0.0
 11
639.9784039729
 21
434.1625310964
 31
0.0
  0
SPLINE
  5
590
330
1F
100
AcDbEntity
  8
0
  6
Continuous
 62
     7
370
    30
100
AcDbSpline
210
0.0
220
0.0
230
1.0
 70
     8
 71
     3
 72
    16
 73
    12
 74
     0
 42
0.000000001
 43
0.00000001
 40
0.0
 40
0.0
 40
0.0
 40
0.0
 40
0.0599478620001547
 40
0.1792036284895531
 40
0.2976338862972819
 40
0.4163729042859691
 40
0.5362211354010886
 40
0.656790733434124
 40
0.7774112630702059
 40
0.8971300739429197
 40
0.9999999999999999
 40
0.9999999999999999
 40
0.9999999999999999
 40
0.9999999999999999
 10
624.4865775498267
 20
435.877989664118
 30
0.0
 10
624.5412276297911
 20
435.8693899284244
 30
0.0
 10
624.7045944672415
 20
435.8436825255422
 30
0.0
 10
625.0339445893721
 20
435.70909601792
 30
0.0
 10
625.4540206689193
 20
435.4245909245395
 30
0.0
 10
625.8687923523937
 20
435.0261798162395
 30
0.0
 10
626.2477890209178
 20
434.5374532382046
 30
0.0
 10
626.5660607328851
 20
433.9864136551335
 30
0.0
 10
626.7992616471305
 20
433.4119518083466
 30
0.0
 10
626.9352932910623
 20
432.8712428907782
 30
0.0
 10
626.9505416339867
 20
432.5628611515884
 30
0.0
 10
626.9575886927496
 20
432.4203417809079
 30
0.0
  0
LINE
  5
591
330
1F
100
AcDbEntity
  8
0
  6
Continuous
 62
     7
370
    30
100
AcDbLine
 10
626.9575886927
 20
432.4203417809
 30
0.0
 11
626.9575886927
 21
406.1126569446
 31
0.0
  0
LINE
  5
592
330
1F
100
AcDbEntity
  8
0
  6
Continuous
 62
     7
370
    30
100
AcDbLine
 10
659.8239220695
 20
392.0869474904
 30
0.0
 11
641.496150609
 21
402.6673447444
 31
0.0
  0
LINE
  5
593
330
1F
100
AcDbEntity
  8
0
  6
Continuous
 62
     7
370
    30
100
AcDbLine
 10
590.8990054435
 20
439.5972469527
 30
0.0
 11
624.4865775498
 21
435.8779896641
 31
0.0
  0
SPLINE
  5
594
330
1F
100
AcDbEntity
  8
0
  6
Continuous
 62
     7
370
    30
100
AcDbSpline
210
0.0
220
0.0
230
1.0
 70
     8
 71
     3
 72
    14
 73
    10
 74
     0
 42
0.000000001
 43
0.00000001
 40
0.0
 40
0.0
 40
0.0
 40
0.0
 40
0.0826604916499084
 40
0.2430208646410892
 40
0.4056041353873287
 40
0.5697344971803845
 40
0.7340975478030792
 40
0.8968189457025956
 40
1.0
 40
1.0
 40
1.0
 40
1.0
 10
641.4961506090464
 20
402.6673447444082
 30
0.0
 10
641.4342467489104
 20
402.7058834667323
 30
0.0
 10
641.2522501346322
 20
402.8191868530831
 30
0.0
 10
640.9382859317074
 20
403.0982963897184
 30
0.0
 10
640.592563473452
 20
403.5206650272526
 30
0.0
 10
640.3017768730168
 20
404.0115850773475
 30
0.0
 10
640.0940428698602
 20
404.5262370407921
 30
0.0
 10
639.9918174628816
 20
404.968087267394
 30
0.0
 10
639.98215385069
 20
405.2044601227823
 30
0.0
 10
639.978403972921
 20
405.2961824827107
 30
0.0
  0
SPLINE
  5
595
330
1F
100
AcDbEntity
  8
0
  6
Continuous
 62
     7
370
    30
100
AcDbSpline
210
0.0
220
0.0
230
1.0
 70
     8
 71
     3
 72
    11
 73
     7
 74
     0
 42
0.000000001
 43
0.00000001
 40
0.0
 40
0.0
 40
0.0
 40
0.0
 40
0.1549643675113084
 40
0.4505124859310641
 40
0.7475054463771694
 40
1.0
 40
1.0
 40
1.0
 40
1.0
 10
626.9575886927496
 20
406.1126569445648
 30
0.0
 10
626.9551123124169
 20
406.0345316196319
 30
0.0
 10
626.947912978288
 20
405.8074056363172
 30
0.0
 10
626.8694516360041
 20
405.505877829999
 30
0.0
 10
626.7380355842148
 20
405.277163668738
 30
0.0
 10
626.6325402322378
 20
405.2104236361348
 30
0.0
 10
626.5840641502074
 20
405.1797559788915
 30
0.0
  0
LINE
  5
596
330
1F
100
AcDbEntity
  8
0
  6
Continuous
 62
     7
370
    30
100
AcDbLine
 10
626.9575886927
 20
411.0602778901
 30
0.0
 11
597.6555301755
 21
427.9759962109
 31
0.0
  0
SPLINE
  5
597
330
1F
100
AcDbEntity
  8
0
  6
Continuous
 62
     7
370
    30
100
AcDbSpline
210
0.0
220
0.0
230
1.0
 70
     8
 71
     3
 72
    10
 73
     6
 74
     0
 42
0.000000001
 43
0.00000001
 40
0.0
 40
0.0
 40
0.0
 40
0.0
 40
0.1086146805028149
 40
0.7297348238997773
 40
1.0
 40
1.0
 40
1.0
 40
1.0
 10
590.5050599514014
 20
439.5249446358491
 30
0.0
 10
590.5150642970812
 20
439.5331284939307
 30
0.0
 10
590.5822791468515
 20
439.5881122788887
 30
0.0
 10
590.7076299320942
 20
439.6078121211777
 30
0.0
 10
590.8544807465125
 20
439.5997050045583
 30
0.0
 10
590.8990054434659
 20
439.5972469527452
 30
0.0
  0
LINE
  5
598
330
1F
100
AcDbEntity
  8
0
  6
Continuous
 62
     7
370
    30
100
AcDbLine
 10
595.7842301488
 20
431.2172063831
 30
0.0
 11
595.7842301488
 21
439.0562906867
 31
0.0
  0
SPLINE
  5
599
330
1F
100
AcDbEntity
  8
0
  6
Continuous
 62
     7
370
    30
100
AcDbSpline
210
0.0
220
0.0
230
1.0
 70
     8
 71
     3
 72
    15
 73
    11
 74
     0
 42
0.000000001
 43
0.00000001
 40
0.0
 40
0.0
 40
0.0
 40
0.0
 40
0.0756509658974582
 40
0.2220997344487198
 40
0.3700700198121988
 40
0.5191867705453689
 40
0.668689091959255
 40
0.8175135471118857
 40
0.9564505081281324
 40
1.0
 40
1.0
 40
1.0
 40
1.0
 10
597.6555301754804
 20
427.9759962109122
 30
0.0
 10
597.5848852104286
 20
428.0197108851336
 30
0.0
 10
597.3774823333865
 20
428.1480505225846
 30
0.0
 10
597.0239831116953
 20
428.4527588401903
 30
0.0
 10
596.6291624233764
 20
428.9091723817378
 30
0.0
 10
596.2855853150045
 20
429.4411299835048
 30
0.0
 10
596.0177373988088
 20
430.0122146402295
 30
0.0
 10
595.847285658381
 20
430.5717160162727
 30
0.0
 10
595.7887083811964
 20
430.9719338133766
 30
0.0
 10
595.7850929528934
 20
431.1699506433525
 30
0.0
 10
595.7842301487618
 20
431.2172063831131
 30
0.0
  0
SPLINE
  5
59A
330
1F
100
AcDbEntity
  8
0
  6
Continuous
 62
     7
370
    30
100
AcDbSpline
210
0.0
220
0.0
230
1.0
 70
     8
 71
     3
 72
    11
 73
     7
 74
     0
 42
0.000000001
 43
0.00000001
 40
0.0
 40
0.0
 40
0.0
 40
0.0
 40
0.218215601217508
 40
0.4974858856025472
 40
0.7838739626212601
 40
1.0
 40
1.0
 40
1.0
 40
1.0
 10
560.4481932502118
 20
451.7877702803821
 30
0.0
 10
560.3542987717314
 20
451.7291950236775
 30
0.0
 10
560.1402390183524
 20
451.5956557015872
 30
0.0
 10
559.9252742037124
 20
451.2476509387296
 30
0.0
 10
559.8004749579035
 20
450.8565217629862
 30
0.0
 10
559.7878670210946
 20
450.5762652199263
 30
0.0
 10
559.7824444800277
 20
450.4557298272565
 30
0.0
  0
LINE
  5
59B
330
1F
100
AcDbEntity
  8
0
  6
Continuous
 62
     7
370
    30
100
AcDbLine
 10
566.1036138761
 20
455.0700763187
 30
0.0
 11
560.4467596266
 21
451.8044438714
 31
0.0
  0
LINE
  5
59C
330
1F
100
AcDbEntity
  8
0
  6
Continuous
 62
     7
370
    30
100
AcDbLine
 10
559.78244448
 20
450.4557298273
 30
0.0
 11
559.78244448
 21
435.6214025528
 31
0.0
  0
SPLINE
  5
59D
330
1F
100
AcDbEntity
  8
0
  6
Continuous
 62
     7
370
    30
100
AcDbSpline
210
0.0
220
0.0
230
1.0
 70
     8
 71
     3
 72
    10
 73
     6
 74
     0
 42
0.000000001
 43
0.00000001
 40
0.0
 40
0.0
 40
0.0
 40
0.0
 40
0.368389054376995
 40
0.8973495361049904
 40
1.0
 40
1.0
 40
1.0
 40
1.0
 10
566.8787687788486
 20
455.2219153881427
 30
0.0
 10
566.7824470257226
 20
455.2257270724235
 30
0.0
 10
566.5478193149979
 20
455.2350118573008
 30
0.0
 10
566.2789074023663
 20
455.1849445637685
 30
0.0
 10
566.1487399091784
 20
455.0857848619332
 30
0.0
 10
566.1275848711722
 20
455.0696692618734
 30
0.0
  0
LINE
  5
59E
330
1F
100
AcDbEntity
  8
0
  6
Continuous
 62
     7
370
    30
100
AcDbLine
 10
682.9654710159
 20
425.1025056484
 30
0.0
 11
656.1772451798
 21
440.5670192521
 31
0.0
  0
ARC
  5
59F
330
1F
100
AcDbEntity
  8
0
  6
Continuous
 62
     7
370
    30
100
AcDbCircle
 10
656.9448532305
 20
440.532088826
 30
0.0
 40
0.7684024037866117
100
AcDbArc
 50
122.6054783401
 51
177.3945215143
  0
LINE
  5
5A0
330
1F
100
AcDbEntity
  8
0
  6
Continuous
 62
     7
370
    30
100
AcDbLine
 10
656.5307985704
 20
441.179391686
 30
0.0
 11
683.6725777971
 21
425.5107760544
 31
0.0
  0
ELLIPSE
  5
5A1
330
1F
100
AcDbEntity
  8
0
  6
Continuous
 62
     7
370
    30
100
AcDbEllipse
 10
683.3190244065
 20
425.3066076764
 30
0.0
 11
0.500000000892328
 21
0.2886907750215073
 31
0.0
210
0.0
220
0.0
230
1.0
 40
0.0000703729
 41
0.7853575346764536
 42
2.356153855805646
  0
LINE
  5
5A2
330
1F
100
AcDbEntity
  8
0
  6
Continuous
 62
     7
370
    30
100
AcDbLine
 10
682.9654710159
 20
366.4806783319
 30
0.0
 11
682.9654710159
 21
425.1025056484
 31
0.0
  0
LINE
  5
5A3
330
1F
100
AcDbEntity
  8
0
  6
Continuous
 62
     7
370
    30
100
AcDbLine
 10
683.6725777971
 20
425.5107760544
 30
0.0
 11
683.6725777971
 21
366.3115671926
 31
0.0
  0
ELLIPSE
  5
5A4
330
1F
100
AcDbEntity
  8
0
  6
Continuous
 62
     7
370
    30
100
AcDbEllipse
 10
683.3190244065
 20
366.6847803599
 30
0.0
 11
0.4619507595480173
 21
-0.2666785005977773
 31
0.0
210
0.0
220
0.0
230
1.0
 40
0.7174000658
 41
4.319632440985711
 42
5.890428767780813
  0
LINE
  5
5A5
330
1F
100
AcDbEntity
  8
0
  6
Continuous
 62
     7
370
    30
100
AcDbLine
 10
689.3294320466
 20
369.5771996399
 30
0.0
 11
689.3294320466
 21
428.7764085016
 31
0.0
  0
LINE
  5
5A6
330
1F
100
AcDbEntity
  8
0
  6
Continuous
 62
     7
370
    30
100
AcDbLine
 10
683.6725777971
 20
366.3115671926
 30
0.0
 11
689.3294320466
 21
369.5771996399
 31
0.0
  0
LINE
  5
5A7
330
1F
100
AcDbEntity
  8
0
  6
Continuous
 62
     7
370
    30
100
AcDbLine
 10
689.3294320466
 20
428.7764085016
 30
0.0
 11
683.6725777971
 21
425.5107760544
 31
0.0
  0
LWPOLYLINE
  5
5A8
330
1F
100
AcDbEntity
  8
0
  6
Continuous
 62
     7
370
    30
100
AcDbPolyline
 90
       20
 70
   128
 43
0.0
 10
687.6677311108
 20
412.5069887474
 10
687.6045146677
 20
412.0330295641
 10
687.4217158209
 20
411.5374430609
 10
687.1391436619
 20
411.0739337253
 10
686.7874192687
 20
410.6927299858
 10
686.4046574368
 20
410.4351411827
 10
686.0323363499
 20
410.3290810597
 10
685.7108027749
 20
410.3860428767
 10
685.4748998638
 20
410.5998539371
 10
685.3501913574
 20
410.9473444949
 10
685.3501913574
 20
411.3908585561
 10
685.4748998638
 20
411.8823344905
 10
685.7108027749
 20
412.3685132546
 10
686.0323363499
 20
412.7967098354
 10
686.4046574368
 20
413.1205224892
 10
686.7874192687
 20
413.3048610905
 10
687.1391436619
 20
413.3297496915
 10
687.4217158209
 20
413.1924912263
 10
687.6045146677
 20
412.9079597791
 10
687.6677311108
 20
412.5069887474
  0
LWPOLYLINE
  5
5A9
330
1F
100
AcDbEntity
  8
0
  6
Continuous
 62
     7
370
    30
100
AcDbPolyline
 90
       20
 70
   128
 43
0.0
 10
687.6677311108
 20
402.3002285988
 10
687.6045146677
 20
401.8262694155
 10
687.4217158209
 20
401.3306829123
 10
687.1391436619
 20
400.8671735767
 10
686.7874192687
 20
400.4859698373
 10
686.4046574368
 20
400.2283810342
 10
686.0323363499
 20
400.1223209111
 10
685.7108027749
 20
400.1792827282
 10
685.4748998638
 20
400.3930937886
 10
685.3501913574
 20
400.7405843463
 10
685.3501913574
 20
401.1840984075
 10
685.4748998638
 20
401.675574342
 10
685.7108027749
 20
402.161753106
 10
686.0323363499
 20
402.5899496868
 10
686.4046574368
 20
402.9137623406
 10
686.7874192687
 20
403.0981009419
 10
687.1391436619
 20
403.122989543
 10
687.4217158209
 20
402.9857310777
 10
687.6045146677
 20
402.7011996306
 10
687.6677311108
 20
402.3002285988
  0
LWPOLYLINE
  5
5AA
330
1F
100
AcDbEntity
  8
0
  6
Continuous
 62
     7
370
    30
100
AcDbPolyline
 90
       20
 70
   128
 43
0.0
 10
687.6677311108
 20
392.0934684503
 10
687.6045146677
 20
391.6195092669
 10
687.4217158209
 20
391.1239227637
 10
687.1391436619
 20
390.6604134281
 10
686.7874192687
 20
390.2792096887
 10
686.4046574368
 20
390.0216208856
 10
686.0323363499
 20
389.9155607626
 10
685.7108027749
 20
389.9725225796
 10
685.4748998638
 20
390.18633364
 10
685.3501913574
 20
390.5338241977
 10
685.3501913574
 20
390.977338259
 10
685.4748998638
 20
391.4688141934
 10
685.7108027749
 20
391.9549929574
 10
686.0323363499
 20
392.3831895382
 10
686.4046574368
 20
392.707002192
 10
686.7874192687
 20
392.8913407933
 10
687.1391436619
 20
392.9162293944
 10
687.4217158209
 20
392.7789709291
 10
687.6045146677
 20
392.494439482
 10
687.6677311108
 20
392.0934684503
  0
LWPOLYLINE
  5
5AB
330
1F
100
AcDbEntity
  8
0
  6
Continuous
 62
     7
370
    30
100
AcDbPolyline
 90
       17
 70
   128
 43
0.0
 10
685.6171214453
 20
375.5995364653
 10
685.6844030688
 20
375.247781519
 10
685.8760049218
 20
375.0272597836
 10
686.1627573592
 20
374.9715436942
 10
686.5010049218
 20
375.0891155203
 10
686.8392524844
 20
375.3620760172
 10
687.1260049218
 20
375.7488694237
 10
687.3176067749
 20
376.1906099499
 10
687.3848883983
 20
376.620046605
 10
687.3176067749
 20
376.9718015513
 10
687.1260049218
 20
377.1923232867
 10
686.8392524844
 20
377.2480393761
 10
686.5010049218
 20
377.13046755
 10
686.1627573592
 20
376.8575070531
 10
685.8760049218
 20
376.4707136466
 10
685.6844030688
 20
376.0289731204
 10
685.6171214453
 20
375.5995364653
  0
LWPOLYLINE
  5
5AC
330
1F
100
AcDbEntity
  8
0
  6
Continuous
 62
     7
370
    30
100
AcDbPolyline
 90
       17
 70
   128
 43
0.0
 10
685.6171214453
 20
396.0130567624
 10
685.6844030688
 20
395.6613018162
 10
685.8760049218
 20
395.4407800807
 10
686.1627573592
 20
395.3850639913
 10
686.5010049218
 20
395.5026358174
 10
686.8392524844
 20
395.7755963144
 10
687.1260049218
 20
396.1623897208
 10
687.3176067749
 20
396.604130247
 10
687.3848883983
 20
397.0335669022
 10
687.3176067749
 20
397.3853218484
 10
687.1260049218
 20
397.6058435838
 10
686.8392524844
 20
397.6615596733
 10
686.5010049218
 20
397.5439878471
 10
686.1627573592
 20
397.2710273502
 10
685.8760049218
 20
396.8842339437
 10
685.6844030688
 20
396.4424934176
 10
685.6171214453
 20
396.0130567624
  0
LWPOLYLINE
  5
5AD
330
1F
100
AcDbEntity
  8
0
  6
Continuous
 62
     7
370
    30
100
AcDbPolyline
 90
       17
 70
   128
 43
0.0
 10
685.6171214453
 20
406.219816911
 10
685.6844030688
 20
405.8680619647
 10
685.8760049218
 20
405.6475402293
 10
686.1627573592
 20
405.5918241399
 10
686.5010049218
 20
405.709395966
 10
686.8392524844
 20
405.9823564629
 10
687.1260049218
 20
406.3691498694
 10
687.3176067749
 20
406.8108903956
 10
687.3848883983
 20
407.2403270507
 10
687.3176067749
 20
407.592081997
 10
687.1260049218
 20
407.8126037324
 10
686.8392524844
 20
407.8683198218
 10
686.5010049218
 20
407.7507479957
 10
686.1627573592
 20
407.4777874988
 10
685.8760049218
 20
407.0909940923
 10
685.6844030688
 20
406.6492535661
 10
685.6171214453
 20
406.219816911
  0
LWPOLYLINE
  5
5AE
330
1F
100
AcDbEntity
  8
0
  6
Continuous
 62
     7
370
    30
100
AcDbPolyline
 90
       17
 70
   128
 43
0.0
 10
685.6171214453
 20
421.5299571338
 10
685.6844030688
 20
421.1782021876
 10
685.8760049218
 20
420.9576804522
 10
686.1627573592
 20
420.9019643627
 10
686.5010049218
 20
421.0195361889
 10
686.8392524844
 20
421.2924966858
 10
687.1260049218
 20
421.6792900923
 10
687.3176067749
 20
422.1210306184
 10
687.3848883983
 20
422.5504672736
 10
687.3176067749
 20
422.9022222198
 10
687.1260049218
 20
423.1227439553
 10
686.8392524844
 20
423.1784600447
 10
686.5010049218
 20
423.0608882186
 10
686.1627573592
 20
422.7879277216
 10
685.8760049218
 20
422.4011343152
 10
685.6844030688
 20
421.959393789
 10
685.6171214453
 20
421.5299571338
  0
LINE
  5
5AF
330
1F
100
AcDbEntity
  8
0
  6
Continuous
 62
     7
370
    30
100
AcDbLine
 10
689.3294320466
 20
428.7764085016
 30
0.0
 11
662.1876528199
 21
444.4450241333
 31
0.0
  0
LINE
  5
5B0
330
1F
100
AcDbEntity
  8
0
  6
Continuous
 62
     7
370
    30
100
AcDbLine
 10
662.1876528199
 20
444.4450241333
 30
0.0
 11
656.5307985704
 21
441.179391686
 31
0.0
  0
LWPOLYLINE
  5
5B1
330
1F
100
AcDbEntity
  8
0
  6
Continuous
 62
     7
370
    30
100
AcDbPolyline
 90
       17
 70
   128
 43
0.0
 10
669.7072188686
 20
437.8589487457
 10
669.3016896826
 20
438.0153740527
 10
668.8233353922
 20
438.0703033159
 10
668.3449811017
 20
438.0153740527
 10
667.9394519157
 20
437.8589487457
 10
667.6684859765
 20
437.6248417297
 10
667.5733353922
 20
437.3486936758
 10
667.6684859765
 20
437.0725456219
 10
667.9394519157
 20
436.8384386059
 10
668.3449811017
 20
436.6820132988
 10
668.8233353922
 20
436.6270840357
 10
669.3016896826
 20
436.6820132988
 10
669.7072188686
 20
436.8384386059
 10
669.9781848078
 20
437.0725456219
 10
670.0733353922
 20
437.3486936758
 10
669.9781848078
 20
437.6248417297
 10
669.7072188686
 20
437.8589487457
  0
LWPOLYLINE
  5
5B2
330
1F
100
AcDbEntity
  8
0
  6
Continuous
 62
     7
370
    30
100
AcDbPolyline
 90
       17
 70
   128
 43
0.0
 10
678.5460536335
 20
432.7563980468
 10
678.1405244475
 20
432.9128233539
 10
677.662170157
 20
432.967752617
 10
677.1838158665
 20
432.9128233539
 10
676.7782866805
 20
432.7563980468
 10
676.5073207414
 20
432.5222910308
 10
676.412170157
 20
432.2461429769
 10
676.5073207414
 20
431.969994923
 10
676.7782866805
 20
431.735887907
 10
677.1838158665
 20
431.5794625999
 10
677.662170157
 20
431.5245333368
 10
678.1405244475
 20
431.5794625999
 10
678.5460536335
 20
431.735887907
 10
678.8170195726
 20
431.969994923
 10
678.912170157
 20
432.2461429769
 10
678.8170195726
 20
432.5222910308
 10
678.5460536335
 20
432.7563980468
  0
ARC
  5
5B3
330
1F
100
AcDbEntity
  8
0
  6
Continuous
 62
     7
370
    30
100
AcDbCircle
 10
625.8108121999
 20
405.6987733259
 30
0.0
 40
1.310127592285579
100
AcDbArc
 50
230.7967147643
 51
9.2140369905
  0
LINE
  5
5B4
330
1F
100
AcDbEntity
  8
0
  6
Continuous
 62
     7
370
    30
100
AcDbLine
 10
627.1040353022
 20
432.216239753
 30
0.0
 11
627.1040353022
 21
405.9085549166
 31
0.0
  0
LWPOLYLINE
  5
5B5
330
1F
100
AcDbEntity
  8
0
  6
Continuous
 62
     7
370
    30
100
AcDbPolyline
 90
        9
 70
   128
 43
0.0
 10
624.1880543712
 20
436.1708500852
 10
624.6874842283
 20
436.037067872
 10
625.2044533142
 20
435.7490482403
 10
625.7082492465
 20
435.3239020181
 10
626.1689422407
 20
434.7868865247
 10
626.5591631951
 20
434.1699050707
 10
626.8557296496
 20
433.5096116281
 10
627.041023022
 20
432.8452332711
 10
627.1040353022
 20
432.216239753
  0
LINE
  5
5B6
330
1F
100
AcDbEntity
  8
0
  6
Continuous
 62
     7
370
    30
100
AcDbLine
 10
590.6004822648
 20
439.8901073738
 30
0.0
 11
624.1880543712
 21
436.1708500852
 31
0.0
  0
LWPOLYLINE
  5
5B7
330
1F
100
AcDbEntity
  8
0
  6
Continuous
 62
     7
370
    30
100
AcDbPolyline
 90
        9
 70
   128
 43
0.0
 10
589.2738225087
 20
438.384721377
 10
589.2971233812
 20
438.7333473194
 10
589.3665141188
 20
439.047411937
 10
589.4804703267
 20
439.3200157725
 10
589.636488584
 20
439.5451701904
 10
589.8311414388
 20
439.7179289369
 10
590.0601527041
 20
439.8344968006
 10
590.3184913978
 20
439.8923129868
 10
590.6004822648
 20
439.8901073738
  0
LINE
  5
5B8
330
1F
100
AcDbEntity
  8
0
  6
Continuous
 62
     7
370
    30
100
AcDbLine
 10
589.2738225087
 20
427.7474719079
 30
0.0
 11
589.2738225087
 21
438.384721377
 31
0.0
  0
ARC
  5
5B9
330
1F
100
AcDbEntity
  8
0
  6
Continuous
 62
     7
370
    30
100
AcDbCircle
 10
593.8794708128
 20
427.9570544646
 30
0.0
 40
4.610414422716431
100
AcDbArc
 50
182.6054784857
 51
237.39452166
  0
LINE
  5
5BA
330
1F
100
AcDbEntity
  8
0
  6
Continuous
 62
     7
370
    30
100
AcDbLine
 10
624.9827149586
 20
404.6835446487
 30
0.0
 11
591.3951428522
 21
424.0732373045
 31
0.0
  0
ARC
  5
5BB
330
1F
100
AcDbEntity
  8
0
  6
Continuous
 62
     7
370
    30
100
AcDbCircle
 10
673.470576513
 20
418.8032666284
 30
0.0
 40
3.842012018930133
100
AcDbArc
 50
2.6054784857
 51
57.39452166
  0
LINE
  5
5BC
330
1F
100
AcDbEntity
  8
0
  6
Continuous
 62
     7
370
    30
100
AcDbLine
 10
657.7845221626
 20
432.2902906931
 30
0.0
 11
675.5408498134
 21
422.0397809285
 31
0.0
  0
ARC
  5
5BD
330
1F
100
AcDbEntity
  8
0
  6
Continuous
 62
     7
370
    30
100
AcDbCircle
 10
656.8915032661
 20
430.8145082143
 30
0.0
 40
1.724939614693841
100
AcDbArc
 50
58.8212163326
 51
82.3106030152
  0
LINE
  5
5BE
330
1F
100
AcDbEntity
  8
0
  6
Continuous
 62
     7
370
    30
100
AcDbLine
 10
634.5735461296
 20
435.0208319834
 30
0.0
 11
657.1223050064
 21
432.5239371338
 31
0.0
  0
LWPOLYLINE
  5
5BF
330
1F
100
AcDbEntity
  8
0
  6
Continuous
 62
     7
370
    30
100
AcDbPolyline
 90
        9
 70
   128
 43
0.0
 10
633.4679963328
 20
433.7663436527
 10
633.4874137266
 20
434.0568652713
 10
633.5452393412
 20
434.318585786
 10
633.6402028479
 20
434.5457556489
 10
633.7702180623
 20
434.7333843305
 10
633.9324287746
 20
434.8773499526
 10
634.1232714957
 20
434.974489839
 10
634.3385537404
 20
435.0226699942
 10
634.5735461296
 20
435.0208319834
  0
LINE
  5
5C0
330
1F
100
AcDbEntity
  8
0
  6
Continuous
 62
     7
370
    30
100
AcDbLine
 10
633.4679963328
 20
401.8264480075
 30
0.0
 11
633.4679963328
 21
433.7663436527
 31
0.0
  0
ARC
  5
5C1
330
1F
100
AcDbEntity
  8
0
  6
Continuous
 62
     7
370
    30
100
AcDbCircle
 10
637.3060365863
 20
402.0011001381
 30
0.0
 40
3.842012018931142
100
AcDbArc
 50
182.6054784857
 51
237.39452166
  0
LINE
  5
5C2
330
1F
100
AcDbEntity
  8
0
  6
Continuous
 62
     7
370
    30
100
AcDbLine
 10
657.1560735026
 20
386.1102601047
 30
0.0
 11
635.2357632858
 21
398.764585838
 31
0.0
  0
ARC
  5
5C3
330
1F
100
AcDbEntity
  8
0
  6
Continuous
 62
     7
370
    30
100
AcDbCircle
 10
657.846154537
 20
386.9562840024
 30
0.0
 40
1.091772993571255
100
AcDbArc
 50
230.7967147643
 51
9.2140369905
  0
LINE
  5
5C4
330
1F
100
AcDbEntity
  8
0
  6
Continuous
 62
     7
370
    30
100
AcDbLine
 10
658.9238404556
 20
390.3134845057
 30
0.0
 11
658.9238404556
 21
387.1311019947
 31
0.0
  0
ARC
  5
5C5
330
1F
100
AcDbEntity
  8
0
  6
Continuous
 62
     7
370
    30
100
AcDbCircle
 10
659.7670406789
 20
390.4653274828
 30
0.0
 40
0.8567630397804497
100
AcDbArc
 50
91.2988893921
 51
190.2083793104
  0
LINE
  5
5C6
330
1F
100
AcDbEntity
  8
0
  6
Continuous
 62
     7
370
    30
100
AcDbLine
 10
671.4480059346
 20
390.775217952
 30
0.0
 11
659.747619613
 21
391.3218703764
 31
0.0
  0
ARC
  5
5C7
330
1F
100
AcDbEntity
  8
0
  6
Continuous
 62
     7
370
    30
100
AcDbCircle
 10
671.3449572933
 20
389.4527853644
 30
0.0
 40
1.326441469195539
100
AcDbArc
 50
58.4787565663
 51
85.5443133554
  0
LINE
  5
5C8
330
1F
100
AcDbEntity
  8
0
  6
Continuous
 62
     7
370
    30
100
AcDbLine
 10
675.5408498134
 20
388.5616076412
 30
0.0
 11
672.0384403395
 21
390.5835055932
 31
0.0
  0
ARC
  5
5C9
330
1F
100
AcDbEntity
  8
0
  6
Continuous
 62
     7
370
    30
100
AcDbCircle
 10
676.2309308478
 20
389.4076315389
 30
0.0
 40
1.091772993571283
100
AcDbArc
 50
230.7967147643
 51
9.2140369905
  0
LINE
  5
5CA
330
1F
100
AcDbEntity
  8
0
  6
Continuous
 62
     7
370
    30
100
AcDbLine
 10
677.3086167664
 20
418.977918759
 30
0.0
 11
677.3086167664
 21
389.5824495311
 31
0.0
  0
LINE
  5
5CB
330
1F
100
AcDbEntity
  8
0
  6
Continuous
 62
     7
370
    30
100
AcDbLine
 10
681.4048108441
 20
365.5794355088
 30
0.0
 11
682.9654710159
 21
366.4806783319
 31
0.0
  0
LINE
  5
5CC
330
1F
100
AcDbEntity
  8
0
  6
Continuous
 62
     7
370
    30
100
AcDbLine
 10
559.9288910894
 20
435.7059912974
 30
0.0
 11
681.4048108441
 21
365.5794355088
 31
0.0
  0
LINE
  5
5CD
330
1F
100
AcDbEntity
  8
0
  6
Continuous
 62
     7
370
    30
100
AcDbLine
 10
559.9288910894
 20
450.2516277993
 30
0.0
 11
559.9288910894
 21
435.7059912974
 31
0.0
  0
LWPOLYLINE
  5
5CE
330
1F
100
AcDbEntity
  8
0
  6
Continuous
 62
     7
370
    30
100
AcDbPolyline
 90
        9
 70
   128
 43
0.0
 10
560.8133309268
 20
451.2552184638
 10
560.6253370155
 20
451.2566888725
 10
560.4531112197
 20
451.2181447483
 10
560.3004370429
 20
451.1404328392
 10
560.170668473
 20
451.0252603415
 10
560.0666563015
 20
450.8751573963
 10
559.9906854962
 20
450.6934215059
 10
559.9444250044
 20
450.4840450942
 10
559.9288910894
 20
450.2516277993
  0
LINE
  5
5CF
330
1F
100
AcDbEntity
  8
0
  6
Continuous
 62
     7
370
    30
100
AcDbLine
 10
655.6474714549
 20
440.7539364047
 30
0.0
 11
560.8133309268
 21
451.2552184638
 31
0.0
  0
ARC
  5
5D0
330
1F
100
AcDbEntity
  8
0
  6
Continuous
 62
     7
370
    30
100
AcDbCircle
 10
655.4628300626
 20
439.3863932691
 30
0.0
 40
1.379951691752625
100
AcDbArc
 50
58.8212163326
 51
82.3106030152
  0
ELLIPSE
  5
5D1
330
1F
100
AcDbEntity
  8
0
  6
Continuous
 62
     7
370
    30
100
AcDbEllipse
 10
688.975878656
 20
369.9504128071
 30
0.0
 11
0.4619507595479035
 21
-0.2666785005978909
 31
0.0
210
0.0
220
0.0
230
1.0
 40
0.7174000658
 41
5.890428767780983
 42
6.675826931178199
  0
LINE
  5
5D2
330
1F
100
AcDbEntity
  8
0
  6
Continuous
 62
     7
370
    30
100
AcDbLine
 10
689.475878656
 20
428.8609308963
 30
0.0
 11
689.3294320466
 21
428.7764085016
 31
0.0
  0
ARC
  5
5D3
330
1F
100
AcDbEntity
  8
0
  6
Continuous
 62
     7
370
    30
100
AcDbCircle
 10
656.2095069165
 20
440.9320283518
 30
0.0
 40
0.5895766292501212
100
AcDbArc
 50
125.3278863443
 51
197.5818252446
  0
ARC
  5
5D4
330
1F
100
AcDbEntity
  8
0
  6
Continuous
 62
     7
370
    30
100
AcDbCircle
 10
655.6377796739
 20
439.7036092072
 30
0.0
 40
1.724939614690432
100
AcDbArc
 50
58.8212163325
 51
82.3106030152
  0
ARC
  5
5D5
330
1F
100
AcDbEntity
  8
0
  6
Continuous
 62
     7
370
    30
100
AcDbCircle
 10
661.2946339234
 20
442.9692416545
 30
0.0
 40
1.724939614690857
100
AcDbArc
 50
58.8212163326
 51
82.3106030152
  0
LINE
  5
5D6
330
1F
100
AcDbEntity
  8
0
  6
Continuous
 62
     7
370
    30
100
AcDbLine
 10
655.8685814142
 20
441.4130381268
 30
0.0
 11
661.5254356637
 21
444.6786705741
 31
0.0
  0
LINE
  5
5D7
330
1F
100
AcDbEntity
  8
0
  6
Continuous
 62
     7
370
    30
100
AcDbLine
 10
561.0344408862
 20
451.9143201859
 30
0.0
 11
655.8685814142
 21
441.4130381268
 31
0.0
  0
ARC
  5
5D8
330
1F
100
AcDbEntity
  8
0
  6
Continuous
 62
     7
370
    30
100
AcDbCircle
 10
561.3753663885
 20
451.4333104109
 30
0.0
 40
0.5895766292497577
100
AcDbArc
 50
125.3278863443
 51
197.5818252447
  0
LINE
  5
5D9
330
1F
100
AcDbEntity
  8
0
  6
Continuous
 62
     7
370
    30
100
AcDbLine
 10
661.5254356637
 20
444.6786705741
 30
0.0
 11
566.6912951357
 21
455.1799526332
 31
0.0
  0
LINE
  5
5DA
330
1F
100
AcDbEntity
  8
0
  6
Continuous
 62
     7
370
    30
100
AcDbLine
 10
566.6912951357
 20
455.1799526332
 30
0.0
 11
561.0344408862
 21
451.9143201859
 31
0.0
  0
ELLIPSE
  5
5DB
330
1F
100
AcDbEntity
  8
0
  6
Continuous
 62
     7
370
    30
100
AcDbEllipse
 10
571.596152979
 20
452.6908054907
 30
0.0
 11
2.740093887495618
 21
0.7194272936937409
 31
0.0
210
0.0
220
0.0
230
1.0
 40
0.3241564023
 41
0.0
 42
6.283185307179586
  0
ELLIPSE
  5
5DC
330
1F
100
AcDbEntity
  8
0
  6
Continuous
 62
     7
370
    30
100
AcDbEllipse
 10
598.1126572735
 20
449.7545497365
 30
0.0
 11
2.740093887495505
 21
0.7194272936936841
 31
0.0
210
0.0
220
0.0
230
1.0
 40
0.3241564023
 41
0.0
 42
6.283185307179586
  0
ELLIPSE
  5
5DD
330
1F
100
AcDbEntity
  8
0
  6
Continuous
 62
     7
370
    30
100
AcDbEllipse
 10
589.2738225087
 20
450.7333016546
 30
0.0
 11
2.740093887495618
 21
0.7194272936936842
 31
0.0
210
0.0
220
0.0
230
1.0
 40
0.3241564023
 41
0.0
 42
6.283185307179586
  0
ELLIPSE
  5
5DE
330
1F
100
AcDbEntity
  8
0
  6
Continuous
 62
     7
370
    30
100
AcDbEllipse
 10
580.4349877438
 20
451.7120535727
 30
0.0
 11
2.740093887495505
 21
0.7194272936937977
 31
0.0
210
0.0
220
0.0
230
1.0
 40
0.3241564023
 41
0.0
 42
6.283185307179586
  0
ARC
  5
5DF
330
1F
100
AcDbEntity
  8
0
  6
Continuous
 62
     7
370
    30
100
AcDbCircle
 10
676.3084578641
 20
388.5266772151
 30
0.0
 40
0.768402403786153
100
AcDbArc
 50
122.60547834
 51
177.3945215143
  0
LINE
  5
5E0
330
1F
100
AcDbEntity
  8
0
  6
Continuous
 62
     7
370
    30
100
AcDbLine
 10
672.3919937301
 20
391.1958780271
 30
0.0
 11
675.894403204
 21
389.1739800751
 31
0.0
  0
ARC
  5
5E1
330
1F
100
AcDbEntity
  8
0
  6
Continuous
 62
     7
370
    30
100
AcDbCircle
 10
672.8060483902
 20
390.548575167
 30
0.0
 40
0.7684024037865027
100
AcDbArc
 50
122.60547834
 51
177.3945215143
  0
ARC
  5
5E2
330
1F
100
AcDbEntity
  8
0
  6
Continuous
 62
     7
370
    30
100
AcDbCircle
 10
671.5251399224
 20
389.7824777411
 30
0.0
 40
1.658051836496784
100
AcDbArc
 50
58.4787565663
 51
85.5443133554
  0
ARC
  5
5E3
330
1F
100
AcDbEntity
  8
0
  6
Continuous
 62
     7
370
    30
100
AcDbCircle
 10
671.9877213575
 20
390.9691500105
 30
0.0
 40
0.5735001142292488
100
AcDbArc
 50
125.5905449541
 51
199.7645200273
  0
LINE
  5
5E4
330
1F
100
AcDbEntity
  8
0
  6
Continuous
 62
     7
370
    30
100
AcDbLine
 10
659.9535644024
 20
391.9821709
 30
0.0
 11
671.653950724
 21
391.4355184756
 31
0.0
  0
ARC
  5
5E5
330
1F
100
AcDbEntity
  8
0
  6
Continuous
 62
     7
370
    30
100
AcDbCircle
 10
660.2873350359
 20
391.5158024349
 30
0.0
 40
0.5735001142286273
100
AcDbArc
 50
125.5905449541
 51
199.7645200273
  0
LINE
  5
5E6
330
1F
100
AcDbEntity
  8
0
  6
Continuous
 62
     7
370
    30
100
AcDbLine
 10
665.6104186519
 20
395.2478033473
 30
0.0
 11
659.9535644024
 21
391.9821709
 31
0.0
  0
LINE
  5
5E7
330
1F
100
AcDbEntity
  8
0
  6
Continuous
 62
     7
370
    30
100
AcDbLine
 10
683.6725777971
 20
366.3115671926
 30
0.0
 11
681.9048108441
 21
365.2907253027
 31
0.0
  0
ELLIPSE
  5
5E8
330
1F
100
AcDbEntity
  8
0
  6
Continuous
 62
     7
370
    30
100
AcDbEllipse
 10
681.7583642347
 20
365.7835375367
 30
0.0
 11
-3.753731482447620E-5
 21
0.5334056009266419
 31
0.0
210
0.0
220
0.0
230
1.0
 40
0.7174342186
 41
1.963397318762736
 42
3.534193645557822
  0
LINE
  5
5E9
330
1F
100
AcDbEntity
  8
0
  6
Continuous
 62
     7
370
    30
100
AcDbLine
 10
687.5616650936
 20
368.55635775
 30
0.0
 11
689.3294320466
 21
369.5771996399
 31
0.0
  0
LINE
  5
5EA
330
1F
100
AcDbEntity
  8
0
  6
Continuous
 62
     7
370
    30
100
AcDbLine
 10
687.5616650936
 20
368.55635775
 30
0.0
 11
681.9048108441
 21
365.2907253027
 31
0.0
  0
ELLIPSE
  5
5EB
330
1F
100
AcDbEntity
  8
0
  6
Continuous
 62
     7
370
    30
100
AcDbEllipse
 10
560.28244448
 20
435.9100933254
 30
0.0
 11
0.4999999974271532
 21
0.2886907730208463
 31
0.0
210
0.0
220
0.0
230
1.0
 40
0.0000703729
 41
2.356153857570248
 42
3.141633284336301
  0
ARC
  5
5EC
330
1F
100
AcDbEntity
  8
0
  6
Continuous
 62
     7
370
    30
100
AcDbCircle
 10
633.8215497234
 20
434.4486991952
 30
0.0
 40
0.7685109539557099
100
AcDbArc
 50
242.6096722366
 51
297.3903277634
  0
LINE
  5
5ED
330
1F
100
AcDbEntity
  8
0
  6
Continuous
 62
     7
370
    30
100
AcDbLine
 10
634.175103114
 20
433.7663436527
 30
0.0
 11
634.175103114
 21
401.8264480075
 31
0.0
  0
ARC
  5
5EE
330
1F
100
AcDbEntity
  8
0
  6
Continuous
 62
     7
370
    30
100
AcDbCircle
 10
633.8215497234
 20
402.5088035499
 30
0.0
 40
0.7685109539554575
100
AcDbArc
 50
242.6096722366
 51
297.3903277634
  0
LINE
  5
5EF
330
1F
100
AcDbEntity
  8
0
  6
Continuous
 62
     7
370
    30
100
AcDbLine
 10
634.175103114
 20
401.8264480075
 30
0.0
 11
639.8319573635
 21
405.0920804548
 31
0.0
  0
ARC
  5
5F0
330
1F
100
AcDbEntity
  8
0
  6
Continuous
 62
     7
370
    30
100
AcDbCircle
 10
657.9236815533
 20
386.0753296786
 30
0.0
 40
0.7684024037854112
100
AcDbArc
 50
122.60547834
 51
177.3945215144
  0
LINE
  5
5F1
330
1F
100
AcDbEntity
  8
0
  6
Continuous
 62
     7
370
    30
100
AcDbLine
 10
635.5893166764
 20
399.3769582719
 30
0.0
 11
657.5096268932
 21
386.7226325386
 31
0.0
  0
ARC
  5
5F2
330
1F
100
AcDbEntity
  8
0
  6
Continuous
 62
     7
370
    30
100
AcDbCircle
 10
636.0033713365
 20
398.7296554118
 30
0.0
 40
0.7684024037866808
100
AcDbArc
 50
122.60547834
 51
177.3945215143
  0
LINE
  5
5F3
330
1F
100
AcDbEntity
  8
0
  6
Continuous
 62
     7
370
    30
100
AcDbLine
 10
641.2461709259
 20
402.6425907192
 30
0.0
 11
635.5893166764
 21
399.3769582719
 31
0.0
  0
LWPOLYLINE
  5
5F4
330
1F
100
AcDbEntity
  8
0
  6
Continuous
 62
     7
370
    30
100
AcDbPolyline
 90
       20
 70
   128
 43
0.0
 10
652.3123920515
 20
394.3356381814
 10
651.8703402341
 20
394.517841112
 10
651.3497587041
 20
394.6073113764
 10
650.8070605479
 20
394.594353483
 10
650.3010555315
 20
394.4803716207
 10
649.88657715
 20
394.2777174929
 10
649.6085405672
 20
394.0083518188
 10
649.4970753612
 20
393.7014645488
 10
649.5642605164
 20
393.3903116806
 10
649.802815479
 20
393.1086114554
 10
650.1868891171
 20
392.8868904635
 10
650.6748610925
 20
392.749175615
 10
651.21385207
 20
392.7103904504
 10
651.7454540139
 20
392.7747379442
 10
652.212059605
 20
392.9352450469
 10
652.5631048872
 20
393.1745183235
 10
652.7605486573
 20
393.4666288017
 10
652.7829948191
 20
393.7799217787
 10
652.6280109826
 20
394.0804470991
 10
652.3123920515
 20
394.3356381814
  0
LWPOLYLINE
  5
5F5
330
1F
100
AcDbEntity
  8
0
  6
Continuous
 62
     7
370
    30
100
AcDbPolyline
 90
       20
 70
   128
 43
0.0
 10
643.4735572866
 20
399.4381888803
 10
643.0315054693
 20
399.6203918109
 10
642.5109239393
 20
399.7098620753
 10
641.968225783
 20
399.6969041819
 10
641.4622207667
 20
399.5829223196
 10
641.0477423851
 20
399.3802681918
 10
640.7697058024
 20
399.1109025177
 10
640.6582405963
 20
398.8040152477
 10
640.7254257516
 20
398.4928623795
 10
640.9639807142
 20
398.2111621542
 10
641.3480543523
 20
397.9894411624
 10
641.8360263277
 20
397.8517263139
 10
642.3750173052
 20
397.8129411493
 10
642.9066192491
 20
397.8772886431
 10
643.3732248401
 20
398.0377957458
 10
643.7242701224
 20
398.2770690224
 10
643.9217138925
 20
398.5691795006
 10
643.9441600542
 20
398.8824724776
 10
643.7891762178
 20
399.182997798
 10
643.4735572866
 20
399.4381888803
  0
ARC
  5
5F6
330
1F
100
AcDbEntity
  8
0
  6
Continuous
 62
     7
370
    30
100
AcDbCircle
 10
637.2455353168
 20
401.966169712
 30
0.0
 40
3.073609615143174
100
AcDbArc
 50
182.6054784856
 51
237.39452166
  0
ARC
  5
5F7
330
1F
100
AcDbEntity
  8
0
  6
Continuous
 62
     7
370
    30
100
AcDbCircle
 10
642.9023895662
 20
405.2318021593
 30
0.0
 40
3.073609615144094
100
AcDbArc
 50
182.6054784857
 51
237.39452166
  0
ARC
  5
5F8
330
1F
100
AcDbEntity
  8
0
  6
Continuous
 62
     7
370
    30
100
AcDbCircle
 10
625.7503230093
 20
404.6486142226
 30
0.0
 40
0.768402403786428
100
AcDbArc
 50
122.60547834
 51
177.3945215143
  0
ARC
  5
5F9
330
1F
100
AcDbEntity
  8
0
  6
Continuous
 62
     7
370
    30
100
AcDbCircle
 10
592.1627509029
 20
424.0383068783
 30
0.0
 40
0.7684024037860214
100
AcDbArc
 50
122.60547834
 51
177.3945215144
  0
LINE
  5
5FA
330
1F
100
AcDbEntity
  8
0
  6
Continuous
 62
     7
370
    30
100
AcDbLine
 10
591.7486962428
 20
424.6856097384
 30
0.0
 11
625.3362683492
 21
405.2959170826
 31
0.0
  0
LWPOLYLINE
  5
5FB
330
1F
100
AcDbEntity
  8
0
  6
Continuous
 62
     7
370
    30
100
AcDbPolyline
 90
       20
 70
   128
 43
0.0
 10
596.9459310846
 20
424.9509423747
 10
596.6303121534
 20
424.6957512924
 10
596.4753283169
 20
424.395225972
 10
596.4977744787
 20
424.0819329951
 10
596.6952182488
 20
423.7898225169
 10
597.046263531
 20
423.5505492403
 10
597.5128691221
 20
423.3900421376
 10
598.044471066
 20
423.3256946438
 10
598.5834620435
 20
423.3644798084
 10
599.0714340189
 20
423.5021946569
 10
599.455507657
 20
423.7239156487
 10
599.6940626196
 20
424.0056158739
 10
599.7612477748
 20
424.3167687422
 10
599.6497825688
 20
424.6236560121
 10
599.371745986
 20
424.8930216862
 10
598.9572676045
 20
425.0956758141
 10
598.4512625881
 20
425.2096576764
 10
597.9085644319
 20
425.2226155697
 10
597.3879829019
 20
425.1331453054
 10
596.9459310846
 20
424.9509423747
  0
LWPOLYLINE
  5
5FC
330
1F
100
AcDbEntity
  8
0
  6
Continuous
 62
     7
370
    30
100
AcDbPolyline
 90
       20
 70
   128
 43
0.0
 10
614.6236006142
 20
414.7458409769
 10
614.307981683
 20
414.4906498947
 10
614.1529978466
 20
414.1901245743
 10
614.1754440084
 20
413.8768315973
 10
614.3728877785
 20
413.5847211191
 10
614.7239330607
 20
413.3454478425
 10
615.1905386517
 20
413.1849407398
 10
615.7221405957
 20
413.120593246
 10
616.2611315732
 20
413.1593784106
 10
616.7491035486
 20
413.2970932591
 10
617.1331771867
 20
413.5188142509
 10
617.3717321492
 20
413.8005144762
 10
617.4389173045
 20
414.1116673444
 10
617.3274520985
 20
414.4185546144
 10
617.0494155157
 20
414.6879202885
 10
616.6349371342
 20
414.8905744163
 10
616.1289321178
 20
415.0045562786
 10
615.5862339616
 20
415.0175141719
 10
615.0656524316
 20
414.9280439076
 10
614.6236006142
 20
414.7458409769
  0
LINE
  5
5FD
330
1F
100
AcDbEntity
  8
0
  6
Continuous
 62
     7
370
    30
100
AcDbLine
 10
597.4055504923
 20
427.9512421857
 30
0.0
 11
591.7486962428
 21
424.6856097384
 31
0.0
  0
LWPOLYLINE
  5
5FE
330
1F
100
AcDbEntity
  8
0
  6
Continuous
 62
     7
370
    30
100
AcDbPolyline
 90
       20
 70
   128
 43
0.0
 10
623.462435379
 20
409.643290278
 10
623.1468164479
 20
409.3880991958
 10
622.9918326114
 20
409.0875738754
 10
623.0142787732
 20
408.7742808984
 10
623.2117225433
 20
408.4821704202
 10
623.5627678255
 20
408.2428971436
 10
624.0293734166
 20
408.0823900409
 10
624.5609753605
 20
408.0180425471
 10
625.099966338
 20
408.0568277117
 10
625.5879383134
 20
408.1945425602
 10
625.9720119515
 20
408.416263552
 10
626.2105669141
 20
408.6979637773
 10
626.2777520693
 20
409.0091166455
 10
626.1662868633
 20
409.3160039155
 10
625.8882502805
 20
409.5853695896
 10
625.473771899
 20
409.7880237174
 10
624.9677668826
 20
409.9020055797
 10
624.4250687264
 20
409.9149634731
 10
623.9044871964
 20
409.8254932087
 10
623.462435379
 20
409.643290278
  0
LWPOLYLINE
  5
5FF
330
1F
100
AcDbEntity
  8
0
  6
Continuous
 62
     7
370
    30
100
AcDbPolyline
 90
       20
 70
   128
 43
0.0
 10
605.7847658494
 20
419.8483916758
 10
605.4691469182
 20
419.5932005936
 10
605.3141630818
 20
419.2926752731
 10
605.3366092435
 20
418.9793822962
 10
605.5340530136
 20
418.687271818
 10
605.8850982959
 20
418.4479985414
 10
606.3517038869
 20
418.2874914387
 10
606.8833058308
 20
418.2231439449
 10
607.4222968084
 20
418.2619291095
 10
607.9102687838
 20
418.399643958
 10
608.2943424218
 20
418.6213649498
 10
608.5328973844
 20
418.9030651751
 10
608.6000825397
 20
419.2142180433
 10
608.4886173336
 20
419.5211053132
 10
608.2105807509
 20
419.7904709873
 10
607.7961023693
 20
419.9931251152
 10
607.290097353
 20
420.1071069775
 10
606.7473991967
 20
420.1200648708
 10
606.2268176667
 20
420.0305946065
 10
605.7847658494
 20
419.8483916758
  0
ARC
  5
600
330
1F
100
AcDbEntity
  8
0
  6
Continuous
 62
     7
370
    30
100
AcDbCircle
 10
589.6273758993
 20
439.0670769195
 30
0.0
 40
0.7685109539560145
100
AcDbArc
 50
242.6096722366
 51
297.3903277634
  0
LINE
  5
601
330
1F
100
AcDbEntity
  8
0
  6
Continuous
 62
     7
370
    30
100
AcDbLine
 10
589.9809292899
 20
438.384721377
 30
0.0
 11
589.9809292899
 21
427.7474719079
 31
0.0
  0
ARC
  5
602
330
1F
100
AcDbEntity
  8
0
  6
Continuous
 62
     7
370
    30
100
AcDbCircle
 10
589.6273758993
 20
428.4298274503
 30
0.0
 40
0.7685109539554594
100
AcDbArc
 50
242.6096722366
 51
297.3903277634
  0
LINE
  5
603
330
1F
100
AcDbEntity
  8
0
  6
Continuous
 62
     7
370
    30
100
AcDbLine
 10
589.9809292899
 20
427.7474719079
 30
0.0
 11
595.6377835394
 21
431.0131043552
 31
0.0
  0
ARC
  5
604
330
1F
100
AcDbEntity
  8
0
  6
Continuous
 62
     7
370
    30
100
AcDbCircle
 10
593.8189695433
 20
427.9221240385
 30
0.0
 40
3.842012018930439
100
AcDbArc
 50
182.6054784857
 51
237.39452166
  0
ARC
  5
605
330
1F
100
AcDbEntity
  8
0
  6
Continuous
 62
     7
370
    30
100
AcDbCircle
 10
599.4758237928
 20
431.1877564858
 30
0.0
 40
3.842012018929671
100
AcDbArc
 50
182.6054784856
 51
237.39452166
  0
ARC
  5
606
330
1F
100
AcDbEntity
  8
0
  6
Continuous
 62
     8
370
    30
100
AcDbCircle
 10
662.3341128474
 20
444.2405834688
 30
0.0
 40
0.2514886179506904
100
AcDbArc
 50
65.6928809538
 51
125.6175774752
  0
ARC
  5
607
330
1F
100
AcDbEntity
  8
0
  6
Continuous
 62
     8
370
    30
100
AcDbCircle
 10
677.4126034566
 20
419.2072159508
 30
0.0
 40
0.2517745696412075
100
AcDbArc
 50
185.9207319372
 51
245.6056222872
  0
ARC
  5
608
330
1F
100
AcDbEntity
  8
0
  6
Continuous
 62
     8
370
    30
100
AcDbCircle
 10
675.7783450939
 20
422.0094166627
 30
0.0
 40
0.2394284796949793
100
AcDbArc
 50
172.7141423714
 51
236.2434308274
  0
ARC
  5
609
330
1F
100
AcDbEntity
  8
0
  6
Continuous
 62
     8
370
    30
100
AcDbCircle
 10
677.4123986882
 20
389.8115047475
 30
0.0
 40
0.2514696392464653
100
AcDbArc
 50
185.6947992512
 51
245.6253417065
  0
ARC
  5
60A
330
1F
100
AcDbEntity
  8
0
  6
Continuous
 62
     8
370
    30
100
AcDbCircle
 10
658.0223649402
 20
432.2600086786
 30
0.0
 40
0.239762772885149
100
AcDbArc
 50
172.7441703908
 51
235.9436492159
  0
ARC
  5
60B
330
1F
100
AcDbEntity
  8
0
  6
Continuous
 62
     8
370
    30
100
AcDbCircle
 10
657.4891331309
 20
432.5987019628
 30
0.0
 40
0.3743696736576435
100
AcDbArc
 50
191.5199170267
 51
258.4943492245
  0
ARC
  5
60C
330
1F
100
AcDbEntity
  8
0
  6
Continuous
 62
     8
370
    30
100
AcDbCircle
 10
634.9390708063
 20
435.0948465295
 30
0.0
 40
0.3729429478285868
100
AcDbArc
 50
191.4469637134
 51
259.6502672332
  0
ARC
  5
60D
330
1F
100
AcDbEntity
  8
0
  6
Continuous
 62
     8
370
    30
100
AcDbCircle
 10
661.6822224058
 20
444.417972169
 30
0.0
 40
0.304213314806212
100
AcDbArc
 50
84.2198429838
 51
121.0231402702
  0
ARC
  5
60E
330
1F
100
AcDbEntity
  8
0
  6
Continuous
 62
     8
370
    30
100
AcDbCircle
 10
566.8480800435
 20
454.9192591198
 30
0.0
 40
0.3042081774588466
100
AcDbArc
 50
84.2101123864
 51
121.0233190547
  0
ARC
  5
60F
330
1F
100
AcDbEntity
  8
0
  6
Continuous
 62
     8
370
    30
100
AcDbCircle
 10
676.4807104056
 20
389.9930434061
 30
0.0
 40
1.007283909732446
100
AcDbArc
 50
234.4039104375
 51
294.0608321792
  0
LINE
  5
610
330
1F
100
AcDbEntity
  8
0
  6
Continuous
 62
     8
370
    30
100
AcDbLine
 10
675.894403204
 20
389.1739800751
 30
0.0
 11
677.162170157
 21
389.9058463588
 31
0.0
  0
LINE
  5
611
330
1F
100
AcDbEntity
  8
0
  6
Continuous
 62
     8
370
    30
100
AcDbLine
 10
677.162170157
 20
393.9496422628
 30
0.0
 11
672.3919937301
 21
391.1958780271
 31
0.0
  0
LINE
  5
612
330
1F
100
AcDbEntity
  8
0
  6
Continuous
 62
     8
370
    30
100
AcDbLine
 10
671.653950724
 20
391.4355184756
 30
0.0
 11
677.162170157
 21
394.6153458697
 31
0.0
  0
LINE
  5
613
330
1F
100
AcDbEntity
  8
0
  6
Continuous
 62
     8
370
    30
100
AcDbLine
 10
677.162170157
 20
394.7080952733
 30
0.0
 11
665.6104186519
 21
395.2478033473
 31
0.0
  0
ARC
  5
614
330
1F
100
AcDbEntity
  8
0
  6
Continuous
 62
     8
370
    30
100
AcDbCircle
 10
665.7685740596
 20
394.9821975332
 30
0.0
 40
0.3091271283722011
100
AcDbArc
 50
87.6290724195
 51
120.7717513969
  0
ARC
  5
615
330
1F
100
AcDbEntity
  8
0
  6
Continuous
 62
     8
370
    30
100
AcDbCircle
 10
659.8914586868
 20
391.0672513954
 30
0.0
 40
0.917024983163497
100
AcDbArc
 50
86.1166584344
 51
118.7806448768
  0
ARC
  5
616
330
1F
100
AcDbEntity
  8
0
  6
Continuous
 62
     8
370
    30
100
AcDbCircle
 10
659.0276360786
 20
390.5425559137
 30
0.0
 40
0.2514900422568775
100
AcDbArc
 50
185.709953588
 51
245.6240208586
  0
ARC
  5
617
330
1F
100
AcDbEntity
  8
0
  6
Continuous
 62
     8
370
    30
100
AcDbCircle
 10
635.1570228959
 20
433.8728328896
 30
0.0
 40
0.9876772830975529
100
AcDbArc
 50
124.5627383098
 51
186.1895391548
  0
ARC
  5
618
330
1F
100
AcDbEntity
  8
0
  6
Continuous
 62
     8
370
    30
100
AcDbCircle
 10
665.5481647788
 20
394.334316941
 30
0.0
 40
0.915605242000547
100
AcDbArc
 50
86.1013349506
 51
119.4091574202
  0
LINE
  5
619
330
1F
100
AcDbEntity
  8
0
  6
Continuous
 62
     8
370
    30
100
AcDbLine
 10
635.6849485823
 20
434.6379588887
 30
0.0
 11
634.175103114
 21
433.7663436527
 31
0.0
  0
ARC
  5
61A
330
1F
100
AcDbEntity
  8
0
  6
Continuous
 62
     8
370
    30
100
AcDbCircle
 10
659.0276223774
 20
387.3601572111
 30
0.0
 40
0.2514696392473799
100
AcDbArc
 50
185.6947992512
 51
245.6253417064
  0
LINE
  5
61B
330
1F
100
AcDbEntity
  8
0
  6
Continuous
 62
     8
370
    30
100
AcDbLine
 10
639.8319573635
 20
405.0920804548
 30
0.0
 11
639.8319573635
 21
434.1787475892
 31
0.0
  0
ARC
  5
61C
330
1F
100
AcDbEntity
  8
0
  6
Continuous
 62
     8
370
    30
100
AcDbCircle
 10
658.0959340948
 20
387.5416958696
 30
0.0
 40
1.007283909732938
100
AcDbArc
 50
234.4039104375
 51
294.0608321792
  0
LINE
  5
61D
330
1F
100
AcDbEntity
  8
0
  6
Continuous
 62
     8
370
    30
100
AcDbLine
 10
657.5096268932
 20
386.7226325386
 30
0.0
 11
658.7773938461
 21
387.4544988224
 31
0.0
  0
ARC
  5
61E
330
1F
100
AcDbEntity
  8
0
  6
Continuous
 62
     8
370
    30
100
AcDbCircle
 10
639.7281754417
 20
405.3211356712
 30
0.0
 40
0.2514696392468083
100
AcDbArc
 50
294.3746582936
 51
354.3052007488
  0
LINE
  5
61F
330
1F
100
AcDbEntity
  8
0
  6
Continuous
 62
     8
370
    30
100
AcDbLine
 10
659.6774922901
 20
392.0024153781
 30
0.0
 11
641.2461709259
 21
402.6425907192
 31
0.0
  0
ARC
  5
620
330
1F
100
AcDbEntity
  8
0
  6
Continuous
 62
     8
370
    30
100
AcDbCircle
 10
627.1966251823
 20
432.4372423321
 30
0.0
 40
0.2396143273934032
100
AcDbArc
 50
183.9806296248
 51
247.2685656054
  0
ARC
  5
621
330
1F
100
AcDbEntity
  8
0
  6
Continuous
 62
     8
370
    30
100
AcDbCircle
 10
624.5545888589
 20
436.2454457637
 30
0.0
 40
0.3740481866553557
100
AcDbArc
 50
191.5035115133
 51
258.7527203098
  0
ARC
  5
622
330
1F
100
AcDbEntity
  8
0
  6
Continuous
 62
     8
370
    30
100
AcDbCircle
 10
627.207817224
 20
406.137610133
 30
0.0
 40
0.2514696392470672
100
AcDbArc
 50
185.6947992513
 51
245.6253417064
  0
ARC
  5
623
330
1F
100
AcDbEntity
  8
0
  6
Continuous
 62
     8
370
    30
100
AcDbCircle
 10
641.3926309533
 20
402.4381500546
 30
0.0
 40
0.2514886179508654
100
AcDbArc
 50
65.6928809539
 51
125.6175774752
  0
ARC
  5
624
330
1F
100
AcDbEntity
  8
0
  6
Continuous
 62
     8
370
    30
100
AcDbCircle
 10
590.9660069415
 20
439.96412192
 30
0.0
 40
0.3729429478274377
100
AcDbArc
 50
191.4469637133
 51
259.6502672333
  0
ARC
  5
625
330
1F
100
AcDbEntity
  8
0
  6
Continuous
 62
     8
370
    30
100
AcDbCircle
 10
626.0617068865
 20
406.2496160581
 30
0.0
 40
1.198249893552848
100
AcDbArc
 50
232.7412844342
 51
296.0094676849
  0
LINE
  5
626
330
1F
100
AcDbEntity
  8
0
  6
Continuous
 62
     8
370
    30
100
AcDbLine
 10
625.3362683492
 20
405.2959170826
 30
0.0
 11
626.9575886927
 21
406.2318853943
 31
0.0
  0
LINE
  5
627
330
1F
100
AcDbEntity
  8
0
  6
Continuous
 62
     8
370
    30
100
AcDbLine
 10
626.9575886927
 20
410.8912136655
 30
0.0
 11
597.4055504923
 21
427.9512421857
 31
0.0
  0
ARC
  5
628
330
1F
100
AcDbEntity
  8
0
  6
Continuous
 62
     8
370
    30
100
AcDbCircle
 10
597.5520105197
 20
427.7468015211
 30
0.0
 40
0.2514886179503896
100
AcDbArc
 50
65.6928809538
 51
125.6175774752
  0
ARC
  5
629
330
1F
100
AcDbEntity
  8
0
  6
Continuous
 62
     8
370
    30
100
AcDbCircle
 10
591.2094579621
 20
438.5176139263
 30
0.0
 40
1.235695402678827
100
AcDbArc
 50
124.739156732
 51
186.173800233
  0
LINE
  5
62A
330
1F
100
AcDbEntity
  8
0
  6
Continuous
 62
     8
370
    30
100
AcDbLine
 10
591.8910269679
 20
439.4873972955
 30
0.0
 11
589.9809292899
 21
438.384721377
 31
0.0
  0
LINE
  5
62B
330
1F
100
AcDbEntity
  8
0
  6
Continuous
 62
     8
370
    30
100
AcDbLine
 10
595.6377835394
 20
431.0131043552
 30
0.0
 11
595.6377835394
 21
439.0725071795
 31
0.0
  0
ARC
  5
62C
330
1F
100
AcDbEntity
  8
0
  6
Continuous
 62
     8
370
    30
100
AcDbCircle
 10
595.5340016175
 20
431.2421595716
 30
0.0
 40
0.2514696392470575
100
AcDbArc
 50
294.3746582936
 51
354.3052007488
  0
ARC
  5
62D
330
1F
100
AcDbEntity
  8
0
  6
Continuous
 62
     8
370
    30
100
AcDbCircle
 10
560.9050295362
 20
450.9808530879
 30
0.0
 40
0.9423948856995353
100
AcDbArc
 50
82.1071008941
 51
119.4996045961
  0
ARC
  5
62E
330
1F
100
AcDbEntity
  8
0
  6
Continuous
 62
     8
370
    30
100
AcDbCircle
 10
560.032686411
 20
450.4806988511
 30
0.0
 40
0.2514895932774346
100
AcDbArc
 50
185.7096201666
 51
245.6240499224
  0
ARC
  5
62F
330
1F
100
AcDbEntity
  8
0
  6
Continuous
 62
     8
370
    30
100
AcDbCircle
 10
566.5619305238
 20
454.2453028309
 30
0.0
 40
0.9435599905294981
100
AcDbArc
 50
82.119774167
 51
119.0603981762
  0
ENDSEC
  0
SECTION
  2
OBJECTS
  0
DICTIONARY
  5
C
330
0
100
AcDbDictionary
281
     1
  3
ACAD_GROUP
350
D
  3
ACAD_LAYOUT
350
1A
  3
ACAD_MLINESTYLE
350
17
  3
ACAD_PLOTSETTINGS
350
19
  3
ACAD_PLOTSTYLENAME
350
E
  3
ACAD_SCALELIST
350
47
  0
DICTIONARY
  5
D
102
{ACAD_REACTORS
330
C
102
}
330
C
100
AcDbDictionary
281
     1
  0
DICTIONARY
  5
1A
102
{ACAD_REACTORS
330
C
102
}
330
C
100
AcDbDictionary
281
     1
  3
Layout1
350
1E
  3
Layout2
350
26
  3
Model
350
22
  0
DICTIONARY
  5
17
102
{ACAD_REACTORS
330
C
102
}
330
C
100
AcDbDictionary
281
     1
  3
Standard
350
18
  0
DICTIONARY
  5
19
102
{ACAD_REACTORS
330
C
102
}
330
C
100
AcDbDictionary
281
     1
  0
ACDBDICTIONARYWDFLT
  5
E
102
{ACAD_REACTORS
330
C
102
}
330
C
100
AcDbDictionary
281
     1
  3
Normal
350
F
100
AcDbDictionaryWithDefault
340
F
  0
DICTIONARY
  5
47
102
{ACAD_REACTORS
330
C
102
}
330
C
100
AcDbDictionary
281
     1
  3
A0
350
48
  3
A1
350
49
  3
A2
350
4A
  3
A3
350
4B
  3
A4
350
4C
  3
A5
350
4D
  3
A6
350
4E
  3
A7
350
4F
  3
A8
350
50
  3
A9
350
51
  3
B0
350
52
  3
B1
350
53
  3
B2
350
54
  3
B3
350
55
  3
B4
350
56
  3
B5
350
57
  3
B6
350
58
  3
B7
350
59
  3
B8
350
5A
  3
B9
350
5B
  3
C0
350
5C
  3
C1
350
5D
  3
C2
350
5E
  3
C3
350
5F
  3
C4
350
60
  3
C5
350
61
  3
C6
350
62
  3
C7
350
63
  3
C8
350
64
  3
C9
350
65
  3
D0
350
66
  3
D1
350
67
  3
D2
350
68
  0
LAYOUT
  5
1E
102
{ACAD_REACTORS
330
1A
102
}
330
1A
100
AcDbPlotSettings
  1

  2
none_device
  4

  6

 40
0.0
 41
0.0
 42
0.0
 43
0.0
 44
0.0
 45
0.0
 46
0.0
 47
0.0
 48
0.0
 49
0.0
140
0.0
141
0.0
142
1.0
143
1.0
 70
   688
 72
     1
 73
     0
 74
     5
  7

 75
    16
147
1.0
148
0.0
149
0.0
100
AcDbLayout
  1
Layout1
 70
     1
 71
     1
 10
0.0
 20
0.0
 11
420.0
 21
297.0
 12
0.0
 22
0.0
 32
0.0
 14
1.0000000000E+20
 24
1.0000000000E+20
 34
1.0000000000E+20
 15
-1.0000000000E+20
 25
-1.0000000000E+20
 35
-1.0000000000E+20
146
0.0
 13
0.0
 23
0.0
 33
0.0
 16
1.0
 26
0.0
 36
0.0
 17
0.0
 27
1.0
 37
0.0
 76
     0
330
1B
  0
LAYOUT
  5
26
102
{ACAD_REACTORS
330
1A
102
}
330
1A
100
AcDbPlotSettings
  1

  2
none_device
  4

  6

 40
0.0
 41
0.0
 42
0.0
 43
0.0
 44
0.0
 45
0.0
 46
0.0
 47
0.0
 48
0.0
 49
0.0
140
0.0
141
0.0
142
1.0
143
1.0
 70
   688
 72
     1
 73
     0
 74
     5
  7

 75
    16
147
1.0
148
0.0
149
0.0
100
AcDbLayout
  1
Layout2
 70
     1
 71
     2
 10
0.0
 20
0.0
 11
0.0
 21
0.0
 12
0.0
 22
0.0
 32
0.0
 14
0.0
 24
0.0
 34
0.0
 15
0.0
 25
0.0
 35
0.0
146
0.0
 13
0.0
 23
0.0
 33
0.0
 16
1.0
 26
0.0
 36
0.0
 17
0.0
 27
1.0
 37
0.0
 76
     0
330
23
  0
LAYOUT
  5
22
102
{ACAD_REACTORS
330
1A
102
}
330
1A
100
AcDbPlotSettings
  1

  2
none_device
  4
Letter_(8.50_x_11.00_Inches)
  6

 40
6.35
 41
6.35
 42
6.35000508
 43
6.35000508
 44
215.9
 45
279.4
 46
0.0
 47
0.0
 48
0.0
 49
0.0
140
0.0
141
0.0
142
1.0
143
1.0
 70
  1712
 72
     1
 73
     0
 74
     0
  7

 75
     0
147
1.0
148
0.0
149
0.0
100
AcDbLayout
  1
Model
 70
     1
 71
     0
 10
0.0
 20
0.0
 11
742.5
 21
525.0
 12
0.0
 22
0.0
 32
0.0
 14
0.0
 24
0.0
 34
0.0
 15
742.5
 25
525.0
 35
0.0
146
0.0
 13
0.0
 23
0.0
 33
0.0
 16
1.0
 26
0.0
 36
0.0
 17
0.0
 27
1.0
 37
0.0
 76
     0
330
1F
331
29
  0
MLINESTYLE
  5
18
102
{ACAD_REACTORS
330
17
102
}
330
17
100
AcDbMlineStyle
  2
Standard
 70
     0
  3

 62
   256
 51
90.0
 52
90.0
 71
     2
 49
0.5
 62
   256
  6
BYLAYER
 49
-0.5
 62
   256
  6
BYLAYER
  0
ACDBPLACEHOLDER
  5
F
102
{ACAD_REACTORS
330
E
102
}
330
E
  0
SCALE
  5
48
102
{ACAD_REACTORS
330
47
102
}
330
47
100
AcDbScale
 70
     0
300
1:1
140
1.0
141
1.0
290
     1
  0
SCALE
  5
49
102
{ACAD_REACTORS
330
47
102
}
330
47
100
AcDbScale
 70
     0
300
1:2
140
1.0
141
2.0
290
     0
  0
SCALE
  5
4A
102
{ACAD_REACTORS
330
47
102
}
330
47
100
AcDbScale
 70
     0
300
1:4
140
1.0
141
4.0
290
     0
  0
SCALE
  5
4B
102
{ACAD_REACTORS
330
47
102
}
330
47
100
AcDbScale
 70
     0
300
1:5
140
1.0
141
5.0
290
     0
  0
SCALE
  5
4C
102
{ACAD_REACTORS
330
47
102
}
330
47
100
AcDbScale
 70
     0
300
1:8
140
1.0
141
8.0
290
     0
  0
SCALE
  5
4D
102
{ACAD_REACTORS
330
47
102
}
330
47
100
AcDbScale
 70
     0
300
1:10
140
1.0
141
10.0
290
     0
  0
SCALE
  5
4E
102
{ACAD_REACTORS
330
47
102
}
330
47
100
AcDbScale
 70
     0
300
1:16
140
1.0
141
16.0
290
     0
  0
SCALE
  5
4F
102
{ACAD_REACTORS
330
47
102
}
330
47
100
AcDbScale
 70
     0
300
1:20
140
1.0
141
20.0
290
     0
  0
SCALE
  5
50
102
{ACAD_REACTORS
330
47
102
}
330
47
100
AcDbScale
 70
     0
300
1:30
140
1.0
141
30.0
290
     0
  0
SCALE
  5
51
102
{ACAD_REACTORS
330
47
102
}
330
47
100
AcDbScale
 70
     0
300
1:40
140
1.0
141
40.0
290
     0
  0
SCALE
  5
52
102
{ACAD_REACTORS
330
47
102
}
330
47
100
AcDbScale
 70
     0
300
1:50
140
1.0
141
50.0
290
     0
  0
SCALE
  5
53
102
{ACAD_REACTORS
330
47
102
}
330
47
100
AcDbScale
 70
     0
300
1:100
140
1.0
141
100.0
290
     0
  0
SCALE
  5
54
102
{ACAD_REACTORS
330
47
102
}
330
47
100
AcDbScale
 70
     0
300
2:1
140
2.0
141
1.0
290
     0
  0
SCALE
  5
55
102
{ACAD_REACTORS
330
47
102
}
330
47
100
AcDbScale
 70
     0
300
4:1
140
4.0
141
1.0
290
     0
  0
SCALE
  5
56
102
{ACAD_REACTORS
330
47
102
}
330
47
100
AcDbScale
 70
     0
300
8:1
140
8.0
141
1.0
290
     0
  0
SCALE
  5
57
102
{ACAD_REACTORS
330
47
102
}
330
47
100
AcDbScale
 70
     0
300
10:1
140
10.0
141
1.0
290
     0
  0
SCALE
  5
58
102
{ACAD_REACTORS
330
47
102
}
330
47
100
AcDbScale
 70
     0
300
100:1
140
100.0
141
1.0
290
     0
  0
SCALE
  5
59
102
{ACAD_REACTORS
330
47
102
}
330
47
100
AcDbScale
 70
     0
300
1/128" = 1'-0"
140
0.0078125
141
12.0
290
     0
  0
SCALE
  5
5A
102
{ACAD_REACTORS
330
47
102
}
330
47
100
AcDbScale
 70
     0
300
1/64" = 1'-0"
140
0.015625
141
12.0
290
     0
  0
SCALE
  5
5B
102
{ACAD_REACTORS
330
47
102
}
330
47
100
AcDbScale
 70
     0
300
1/32" = 1'-0"
140
0.03125
141
12.0
290
     0
  0
SCALE
  5
5C
102
{ACAD_REACTORS
330
47
102
}
330
47
100
AcDbScale
 70
     0
300
1/16" = 1'-0"
140
0.0625
141
12.0
290
     0
  0
SCALE
  5
5D
102
{ACAD_REACTORS
330
47
102
}
330
47
100
AcDbScale
 70
     0
300
3/32" = 1'-0"
140
0.09375
141
12.0
290
     0
  0
SCALE
  5
5E
102
{ACAD_REACTORS
330
47
102
}
330
47
100
AcDbScale
 70
     0
300
1/8" = 1'-0"
140
0.125
141
12.0
290
     0
  0
SCALE
  5
5F
102
{ACAD_REACTORS
330
47
102
}
330
47
100
AcDbScale
 70
     0
300
3/16" = 1'-0"
140
0.1875
141
12.0
290
     0
  0
SCALE
  5
60
102
{ACAD_REACTORS
330
47
102
}
330
47
100
AcDbScale
 70
     0
300
1/4" = 1'-0"
140
0.25
141
12.0
290
     0
  0
SCALE
  5
61
102
{ACAD_REACTORS
330
47
102
}
330
47
100
AcDbScale
 70
     0
300
3/8" = 1'-0"
140
0.375
141
12.0
290
     0
  0
SCALE
  5
62
102
{ACAD_REACTORS
330
47
102
}
330
47
100
AcDbScale
 70
     0
300
1/2" = 1'-0"
140
0.5
141
12.0
290
     0
  0
SCALE
  5
63
102
{ACAD_REACTORS
330
47
102
}
330
47
100
AcDbScale
 70
     0
300
3/4" = 1'-0"
140
0.75
141
12.0
290
     0
  0
SCALE
  5
64
102
{ACAD_REACTORS
330
47
102
}
330
47
100
AcDbScale
 70
     0
300
1" = 1'-0"
140
1.0
141
12.0
290
     0
  0
SCALE
  5
65
102
{ACAD_REACTORS
330
47
102
}
330
47
100
AcDbScale
 70
     0
300
1-1/2" = 1'-0"
140
1.5
141
12.0
290
     0
  0
SCALE
  5
66
102
{ACAD_REACTORS
330
47
102
}
330
47
100
AcDbScale
 70
     0
300
3" = 1'-0"
140
3.0
141
12.0
290
     0
  0
SCALE
  5
67
102
{ACAD_REACTORS
330
47
102
}
330
47
100
AcDbScale
 70
     0
300
6" = 1'-0"
140
6.0
141
12.0
290
     0
  0
SCALE
  5
68
102
{ACAD_REACTORS
330
47
102
}
330
47
100
AcDbScale
 70
     0
300
1'-0" = 1'-0"
140
12.0
141
12.0
290
     0
  0
ENDSEC
  0
EOF
