  0
SECTION
  2
HEADER
  9
$ACADVER
  1
AC1015
  9
$ACADMAINTVER
 70
     6
  9
$DWGCODEPAGE
  3
ANSI_950
  9
$INSBASE
 10
0.0
 20
0.0
 30
0.0
  9
$EXTMIN
 10
0.0
 20
0.0
 30
0.0
  9
$EXTMAX
 10
742.5
 20
525.0
 30
0.0
  9
$LIMMIN
 10
0.0
 20
0.0
  9
$LIMMAX
 10
742.5
 20
525.0
  9
$ORTHOMODE
 70
     0
  9
$REGENMODE
 70
     1
  9
$FILLMODE
 70
     1
  9
$QTEXTMODE
 70
     0
  9
$MIRRTEXT
 70
     1
  9
$LTSCALE
 40
2.5
  9
$ATTMODE
 70
     1
  9
$TEXTSIZE
 40
7.9375
  9
$TRACEWID
 40
1.0
  9
$TEXTSTYLE
  7
Standard
  9
$CLAYER
  8
0
  9
$CELTYPE
  6
ByLayer
  9
$CECOLOR
 62
   256
  9
$CELTSCALE
 40
1.0
  9
$DISPSILH
 70
     0
  9
$DIMSCALE
 40
1.0
  9
$DIMASZ
 40
5.0
  9
$DIMEXO
 40
2.5
  9
$DIMDLI
 40
3.75
  9
$DIMRND
 40
0.0
  9
$DIMDLE
 40
0.0
  9
$DIMEXE
 40
2.5
  9
$DIMTP
 40
0.0
  9
$DIMTM
 40
0.0
  9
$DIMTXT
 40
7.9375
  9
$DIMCEN
 40
2.5
  9
$DIMTSZ
 40
0.0
  9
$DIMTOL
 70
     0
  9
$DIMLIM
 70
     0
  9
$DIMTIH
 70
     1
  9
$DIMTOH
 70
     1
  9
$DIMSE1
 70
     0
  9
$DIMSE2
 70
     0
  9
$DIMTAD
 70
     1
  9
$DIMZIN
 70
     0
  9
$DIMBLK
  1

  9
$DIMASO
 70
     1
  9
$DIMSHO
 70
     1
  9
$DIMPOST
  1

  9
$DIMAPOST
  1

  9
$DIMALT
 70
     0
  9
$DIMALTD
 70
     3
  9
$DIMALTF
 40
0.0393700787
  9
$DIMLFAC
 40
1.0
  9
$DIMTOFL
 70
     1
  9
$DIMTVP
 40
0.0
  9
$DIMTIX
 70
     0
  9
$DIMSOXD
 70
     0
  9
$DIMSAH
 70
     0
  9
$DIMBLK1
  1

  9
$DIMBLK2
  1

  9
$DIMSTYLE
  2
ISO-25
  9
$DIMCLRD
 70
     0
  9
$DIMCLRE
 70
     0
  9
$DIMCLRT
 70
     0
  9
$DIMTFAC
 40
1.0
  9
$DIMGAP
 40
2.5
  9
$DIMJUST
 70
     0
  9
$DIMSD1
 70
     0
  9
$DIMSD2
 70
     0
  9
$DIMTOLJ
 70
     0
  9
$DIMTZIN
 70
     0
  9
$DIMALTZ
 70
     0
  9
$DIMALTTZ
 70
     0
  9
$DIMUPT
 70
     0
  9
$DIMDEC
 70
     2
  9
$DIMTDEC
 70
     2
  9
$DIMALTU
 70
     2
  9
$DIMALTTD
 70
     3
  9
$DIMTXSTY
  7
Standard
  9
$DIMAUNIT
 70
     0
  9
$DIMADEC
 70
     2
  9
$DIMALTRND
 40
0.0
  9
$DIMAZIN
 70
     0
  9
$DIMDSEP
 70
    44
  9
$DIMATFIT
 70
     3
  9
$DIMFRAC
 70
     0
  9
$DIMLDRBLK
  1

  9
$DIMLUNIT
 70
     2
  9
$DIMLWD
 70
    -2
  9
$DIMLWE
 70
    -2
  9
$DIMTMOVE
 70
     0
  9
$LUNITS
 70
     2
  9
$LUPREC
 70
     2
  9
$SKETCHINC
 40
1.0
  9
$FILLETRAD
 40
10.0
  9
$AUNITS
 70
     0
  9
$AUPREC
 70
     2
  9
$MENU
  1
.
  9
$ELEVATION
 40
0.0
  9
$PELEVATION
 40
0.0
  9
$THICKNESS
 40
0.0
  9
$LIMCHECK
 70
     0
  9
$CHAMFERA
 40
0.0
  9
$CHAMFERB
 40
0.0
  9
$CHAMFERC
 40
0.0
  9
$CHAMFERD
 40
0.0
  9
$SKPOLY
 70
     0
  9
$TDCREATE
 40
2458159.414549259
  9
$TDUCREATE
 40
2458159.081215926
  9
$TDUPDATE
 40
2458159.414555764
  9
$TDUUPDATE
 40
2458159.08122243
  9
$TDINDWG
 40
0.0000000116
  9
$TDUSRTIMER
 40
0.0000000116
  9
$USRTIMER
 70
     1
  9
$ANGBASE
 50
0.0
  9
$ANGDIR
 70
     0
  9
$PDMODE
 70
     0
  9
$PDSIZE
 40
-1.0
  9
$PLINEWID
 40
0.0
  9
$SPLFRAME
 70
     0
  9
$SPLINETYPE
 70
     6
  9
$SPLINESEGS
 70
     8
  9
$HANDSEED
  5
619
  9
$SURFTAB1
 70
     6
  9
$SURFTAB2
 70
     6
  9
$SURFTYPE
 70
     6
  9
$SURFU
 70
     6
  9
$SURFV
 70
     6
  9
$UCSBASE
  2

  9
$UCSNAME
  2

  9
$UCSORG
 10
0.0
 20
0.0
 30
0.0
  9
$UCSXDIR
 10
1.0
 20
0.0
 30
0.0
  9
$UCSYDIR
 10
0.0
 20
1.0
 30
0.0
  9
$UCSORTHOREF
  2

  9
$UCSORTHOVIEW
 70
     0
  9
$UCSORGTOP
 10
0.0
 20
0.0
 30
0.0
  9
$UCSORGBOTTOM
 10
0.0
 20
0.0
 30
0.0
  9
$UCSORGLEFT
 10
0.0
 20
0.0
 30
0.0
  9
$UCSORGRIGHT
 10
0.0
 20
0.0
 30
0.0
  9
$UCSORGFRONT
 10
0.0
 20
0.0
 30
0.0
  9
$UCSORGBACK
 10
0.0
 20
0.0
 30
0.0
  9
$PUCSBASE
  2

  9
$PUCSNAME
  2

  9
$PUCSORG
 10
0.0
 20
0.0
 30
0.0
  9
$PUCSXDIR
 10
1.0
 20
0.0
 30
0.0
  9
$PUCSYDIR
 10
0.0
 20
1.0
 30
0.0
  9
$PUCSORTHOREF
  2

  9
$PUCSORTHOVIEW
 70
     0
  9
$PUCSORGTOP
 10
0.0
 20
0.0
 30
0.0
  9
$PUCSORGBOTTOM
 10
0.0
 20
0.0
 30
0.0
  9
$PUCSORGLEFT
 10
0.0
 20
0.0
 30
0.0
  9
$PUCSORGRIGHT
 10
0.0
 20
0.0
 30
0.0
  9
$PUCSORGFRONT
 10
0.0
 20
0.0
 30
0.0
  9
$PUCSORGBACK
 10
0.0
 20
0.0
 30
0.0
  9
$USERI1
 70
     0
  9
$USERI2
 70
     0
  9
$USERI3
 70
     0
  9
$USERI4
 70
     0
  9
$USERI5
 70
     0
  9
$USERR1
 40
0.0
  9
$USERR2
 40
0.0
  9
$USERR3
 40
0.0
  9
$USERR4
 40
0.0
  9
$USERR5
 40
0.0
  9
$WORLDVIEW
 70
     1
  9
$SHADEDGE
 70
     3
  9
$SHADEDIF
 70
    70
  9
$TILEMODE
 70
     1
  9
$MAXACTVP
 70
    64
  9
$PINSBASE
 10
0.0
 20
0.0
 30
0.0
  9
$PLIMCHECK
 70
     0
  9
$PEXTMIN
 10
1.0000000000E+20
 20
1.0000000000E+20
 30
1.0000000000E+20
  9
$PEXTMAX
 10
-1.0000000000E+20
 20
-1.0000000000E+20
 30
-1.0000000000E+20
  9
$PLIMMIN
 10
0.0
 20
0.0
  9
$PLIMMAX
 10
420.0
 20
297.0
  9
$UNITMODE
 70
     0
  9
$VISRETAIN
 70
     1
  9
$PLINEGEN
 70
     0
  9
$PSLTSCALE
 70
     1
  9
$TREEDEPTH
 70
  3020
  9
$CMLSTYLE
  2
Standard
  9
$CMLJUST
 70
     0
  9
$CMLSCALE
 40
20.0
  9
$PROXYGRAPHICS
 70
     1
  9
$MEASUREMENT
 70
     1
  9
$CELWEIGHT
370
    -1
  9
$ENDCAPS
280
     0
  9
$JOINSTYLE
280
     0
  9
$LWDISPLAY
290
     1
  9
$INSUNITS
 70
     4
  9
$HYPERLINKBASE
  1

  9
$STYLESHEET
  1

  9
$XEDIT
290
     1
  9
$CEPSNTYPE
380
     0
  9
$PSTYLEMODE
290
     1
  9
$FINGERPRINTGUID
  2
{65066604-7F9B-42E2-8B15-3337EE002289}
  9
$VERSIONGUID
  2
{FAEB1C32-E019-11D5-929B-00C0DF256EC4}
  9
$EXTNAMES
290
     1
  9
$PSVPSCALE
 40
0.0
  9
$OLESTARTUP
290
     0
  0
ENDSEC
  0
SECTION
  2
CLASSES
  0
CLASS
  1
ACDBDICTIONARYWDFLT
  2
AcDbDictionaryWithDefault
  3
ObjectDBX Classes
 90
        0
280
     0
281
     0
  0
CLASS
  1
VISUALSTYLE
  2
AcDbVisualStyle
  3
ObjectDBX Classes
 90
     4095
280
     0
281
     0
  0
CLASS
  1
MATERIAL
  2
AcDbMaterial
  3
ObjectDBX Classes
 90
     1153
280
     0
281
     0
  0
CLASS
  1
SCALE
  2
AcDbScale
  3
ObjectDBX Classes
 90
     1153
280
     0
281
     0
  0
CLASS
  1
TABLESTYLE
  2
AcDbTableStyle
  3
ObjectDBX Classes
 90
     4095
280
     0
281
     0
  0
CLASS
  1
MLEADERSTYLE
  2
AcDbMLeaderStyle
  3
ACDB_MLEADERSTYLE_CLASS
 90
     4095
280
     0
281
     0
  0
CLASS
  1
SUN
  2
AcDbSun
  3
SCENEOE
 90
     1153
280
     0
281
     0
  0
CLASS
  1
ACDBPLACEHOLDER
  2
AcDbPlaceHolder
  3
ObjectDBX Classes
 90
        0
280
     0
281
     0
  0
CLASS
  1
LAYOUT
  2
AcDbLayout
  3
ObjectDBX Classes
 90
        0
280
     0
281
     0
  0
ENDSEC
  0
SECTION
  2
TABLES
  0
TABLE
  2
VPORT
  5
8
330
0
100
AcDbSymbolTable
 70
     1
  0
VPORT
  5
29
330
8
100
AcDbSymbolTableRecord
100
AcDbViewportTableRecord
  2
*Active
 70
     0
 10
0.0
 20
0.0
 11
1.0
 21
1.0
 12
371.25
 22
262.5
 13
0.0
 23
0.0
 14
10.0
 24
10.0
 15
10.0
 25
10.0
 16
0.0
 26
0.0
 36
1.0
 17
0.0
 27
0.0
 37
0.0
 40
525.0
 41
1.4142857143
 42
50.0
 43
0.0
 44
0.0
 50
0.0
 51
0.0
 71
     0
 72
  2000
 73
     1
 74
     3
 75
     0
 76
     0
 77
     0
 78
     0
281
     0
 65
     1
110
0.0
120
0.0
130
0.0
111
1.0
121
0.0
131
0.0
112
0.0
122
1.0
132
0.0
 79
     0
146
0.0
  0
ENDTAB
  0
TABLE
  2
LTYPE
  5
5
330
0
100
AcDbSymbolTable
 70
     6
  0
LTYPE
  5
14
330
5
100
AcDbSymbolTableRecord
100
AcDbLinetypeTableRecord
  2
ByBlock
 70
     0
  3

 72
    65
 73
     0
 40
0.0
  0
LTYPE
  5
15
330
5
100
AcDbSymbolTableRecord
100
AcDbLinetypeTableRecord
  2
ByLayer
 70
     0
  3

 72
    65
 73
     0
 40
0.0
  0
LTYPE
  5
16
330
5
100
AcDbSymbolTableRecord
100
AcDbLinetypeTableRecord
  2
Continuous
 70
     0
  3
Solid line
 72
    65
 73
     0
 40
0.0
  0
LTYPE
  5
6E
330
5
100
AcDbSymbolTableRecord
100
AcDbLinetypeTableRecord
  2
HIDDEN
 70
     0
  3
Hidden __ __ __ __ __ __ __ __ __ __ __ __ __ __
 72
    65
 73
     2
 40
1.905
 49
1.27
 74
     0
 49
-0.635
 74
     0
  0
LTYPE
  5
6F
330
5
100
AcDbSymbolTableRecord
100
AcDbLinetypeTableRecord
  2
PHANTOM
 70
     0
  3
Phantom ______  __  __  ______  __  __  ______
 72
    65
 73
     6
 40
12.7
 49
6.35
 74
     0
 49
-1.27
 74
     0
 49
1.27
 74
     0
 49
-1.27
 74
     0
 49
1.27
 74
     0
 49
-1.27
 74
     0
  0
LTYPE
  5
70
330
5
100
AcDbSymbolTableRecord
100
AcDbLinetypeTableRecord
  2
CENTER
 70
     0
  3
Center ____ _ ____ _ ____ _ ____ _ ____ _ ____
 72
    65
 73
     4
 40
10.16
 49
6.35
 74
     0
 49
-1.27
 74
     0
 49
1.27
 74
     0
 49
-1.27
 74
     0
  0
LTYPE
  5
71
330
5
100
AcDbSymbolTableRecord
100
AcDbLinetypeTableRecord
  2
CENTERX2
 70
     0
  3
Center (2x) ________  __  ________  __  _____
 72
    65
 73
     4
 40
20.32
 49
12.7
 74
     0
 49
-2.54
 74
     0
 49
2.54
 74
     0
 49
-2.54
 74
     0
  0
LTYPE
  5
72
330
5
100
AcDbSymbolTableRecord
100
AcDbLinetypeTableRecord
  2
DOT2
 70
     0
  3
Dot (.5x) ........................................
 72
    65
 73
     2
 40
0.635
 49
0.0
 74
     0
 49
-0.635
 74
     0
  0
ENDTAB
  0
TABLE
  2
LAYER
  5
2
330
0
100
AcDbSymbolTable
 70
    10
  0
LAYER
  5
10
330
2
100
AcDbSymbolTableRecord
100
AcDbLayerTableRecord
  2
0
 70
     0
 62
     7
  6
Continuous
370
    -3
390
F
  0
LAYER
  5
73
330
2
100
AcDbSymbolTableRecord
100
AcDbLayerTableRecord
  2
SLD-0
 70
     0
 62
     7
  6
Continuous
370
    15
390
F
  0
LAYER
  5
74
330
2
100
AcDbSymbolTableRecord
100
AcDbLayerTableRecord
  2
輪廓線
 70
     0
 62
   219
  6
Continuous
370
    15
390
F
  0
LAYER
  5
75
330
2
100
AcDbSymbolTableRecord
100
AcDbLayerTableRecord
  2
DIM
 70
     0
 62
     7
  6
Continuous
370
    -3
390
F
  0
LAYER
  5
76
330
2
100
AcDbSymbolTableRecord
100
AcDbLayerTableRecord
  2
中心線
 70
     0
 62
     7
  6
CENTERX2
370
    -3
390
F
  0
LAYER
  5
77
330
2
100
AcDbSymbolTableRecord
100
AcDbLayerTableRecord
  2
虛線
 70
     0
 62
     7
  6
HIDDEN
370
    -3
390
F
  0
LAYER
  5
78
330
2
100
AcDbSymbolTableRecord
100
AcDbLayerTableRecord
  2
SECTION
 70
     0
 62
     7
  6
PHANTOM
370
    15
390
F
  0
LAYER
  5
79
330
2
100
AcDbSymbolTableRecord
100
AcDbLayerTableRecord
  2
假想線
 70
     0
 62
     7
  6
PHANTOM
370
    -3
390
F
  0
LAYER
  5
7A
330
2
100
AcDbSymbolTableRecord
100
AcDbLayerTableRecord
  2
圖層_1
 70
     0
 62
   179
  6
Continuous
370
    -3
390
F
  0
LAYER
  5
7B
330
2
100
AcDbSymbolTableRecord
100
AcDbLayerTableRecord
  2
工作區域參考線
 70
     0
 62
   179
  6
Continuous
370
    -3
390
F
  0
ENDTAB
  0
TABLE
  2
STYLE
  5
3
330
0
100
AcDbSymbolTable
 70
     3
  0
STYLE
  5
11
330
3
100
AcDbSymbolTableRecord
100
AcDbTextStyleTableRecord
  2
Standard
 70
     0
 40
0.0
 41
1.0
 50
0.0
 71
     0
 42
7.9375
  3
txt
  4

  0
STYLE
  5
CC
330
3
100
AcDbSymbolTableRecord
100
AcDbTextStyleTableRecord
  2
SLDTEXTSTYLE0
 70
     0
 40
0.0
 41
0.605
 50
0.0
 71
     0
 42
7.9375
  3
TXT
  4

  0
STYLE
  5
103
330
3
100
AcDbSymbolTableRecord
100
AcDbTextStyleTableRecord
  2
SLDTEXTSTYLE1
 70
     0
 40
0.0
 41
0.7
 50
0.0
 71
     0
 42
7.9375
  3
TXT
  4

  0
ENDTAB
  0
TABLE
  2
VIEW
  5
6
330
0
100
AcDbSymbolTable
 70
     0
  0
ENDTAB
  0
TABLE
  2
UCS
  5
7
330
0
100
AcDbSymbolTable
 70
     0
  0
ENDTAB
  0
TABLE
  2
APPID
  5
9
330
0
100
AcDbSymbolTable
 70
     1
  0
APPID
  5
12
330
9
100
AcDbSymbolTableRecord
100
AcDbRegAppTableRecord
  2
ACAD
 70
     0
  0
ENDTAB
  0
TABLE
  2
DIMSTYLE
  5
A
330
0
100
AcDbSymbolTable
 70
     6
100
AcDbDimStyleTable
  0
DIMSTYLE
105
27
330
A
100
AcDbSymbolTableRecord
100
AcDbDimStyleTableRecord
  2
ISO-25
 70
     0
 41
2.5
 42
0.625
 43
3.75
 44
1.25
 73
     0
 74
     0
 77
     1
 78
     8
140
2.5
141
2.5
143
0.0393700787
147
0.625
171
     3
172
     1
178
     0
271
     2
272
     2
274
     3
278
    44
283
     0
284
     8
340
11
  0
DIMSTYLE
105
212
102
{ACAD_REACTORS
330
211
330
21C
330
226
330
25E
330
2B9
330
2C3
330
2CD
330
2D7
330
2E1
330
2EB
330
2F5
330
38C
330
396
330
3A0
330
3AA
330
3B4
330
3BE
330
3C8
330
3D2
330
3DC
330
3F2
330
579
330
583
330
58D
330
597
330
5A1
330
5AB
102
}
330
A
100
AcDbSymbolTableRecord
100
AcDbDimStyleTableRecord
  2
SLDDIMSTYLE0
 70
     0
 41
5.0
 44
0.0
 45
0.000000001
 73
     0
 74
     0
 77
     1
 78
    12
 79
     3
140
6.3562011719
147
1.589050293
173
     1
178
     0
271
     2
272
     2
276
     2
284
    12
340
103
  0
DIMSTYLE
105
231
102
{ACAD_REACTORS
330
230
102
}
330
A
100
AcDbSymbolTableRecord
100
AcDbDimStyleTableRecord
  2
SLDDIMSTYLE1
 70
     0
 41
5.0
 44
0.0
 73
     0
 74
     0
 77
     1
 78
    12
 79
     3
140
6.3562011719
144
2.5
147
1.589050293
173
     1
178
     0
179
     2
272
     2
276
     2
284
    12
340
103
  0
DIMSTYLE
105
269
102
{ACAD_REACTORS
330
268
330
275
330
2AD
330
3E6
330
405
330
5B5
102
}
330
A
100
AcDbSymbolTableRecord
100
AcDbDimStyleTableRecord
  2
SLDDIMSTYLE2
 70
     0
 41
5.0
 44
0.0
 45
0.000000001
 73
     0
 74
     0
 77
     1
 78
    12
 79
     3
140
6.3562011719
147
1.589050293
172
     1
173
     1
178
     0
271
     2
272
     2
276
     2
284
    12
289
     0
340
103
  0
DIMSTYLE
105
287
330
A
100
AcDbSymbolTableRecord
100
AcDbDimStyleTableRecord
  2
SLDDIMSTYLE3
 70
     0
 41
5.0
 44
0.0
 45
0.000000001
146
5.0
147
0.0
173
     1
178
     0
271
     0
272
     0
276
     2
340
11
  0
DIMSTYLE
105
3FD
102
{ACAD_REACTORS
330
3FC
102
}
330
A
100
AcDbSymbolTableRecord
100
AcDbDimStyleTableRecord
  2
SLDDIMSTYLE4
 70
     0
 41
5.0
 44
0.0
 45
0.000000001
 78
    12
 79
     3
140
6.3562011719
141
0.0
147
1.589050293
173
     1
178
     0
271
     2
272
     2
276
     2
284
    12
340
103
  0
ENDTAB
  0
TABLE
  2
BLOCK_RECORD
  5
1
330
0
100
AcDbSymbolTable
 70
    67
  0
BLOCK_RECORD
  5
1F
330
1
100
AcDbSymbolTableRecord
100
AcDbBlockTableRecord
  2
*Model_Space
340
22
  0
BLOCK_RECORD
  5
1B
330
1
100
AcDbSymbolTableRecord
100
AcDbBlockTableRecord
  2
*Paper_Space
340
1E
  0
BLOCK_RECORD
  5
23
330
1
100
AcDbSymbolTableRecord
100
AcDbBlockTableRecord
  2
*Paper_Space0
340
26
  0
BLOCK_RECORD
  5
7C
330
1
100
AcDbSymbolTableRecord
100
AcDbBlockTableRecord
  2
圖塊6
340
0
102
{BLKREFS
331
CB
102
}
  0
BLOCK_RECORD
  5
CE
330
1
100
AcDbSymbolTableRecord
100
AcDbBlockTableRecord
  2
SW_NOTE_0
340
0
102
{BLKREFS
331
D4
102
}
  0
BLOCK_RECORD
  5
105
330
1
100
AcDbSymbolTableRecord
100
AcDbBlockTableRecord
  2
SW_NOTE_1
340
0
102
{BLKREFS
331
10A
102
}
  0
BLOCK_RECORD
  5
213
330
1
100
AcDbSymbolTableRecord
100
AcDbBlockTableRecord
  2
_D
340
0
  0
BLOCK_RECORD
  5
21D
330
1
100
AcDbSymbolTableRecord
100
AcDbBlockTableRecord
  2
_D_1
340
0
  0
BLOCK_RECORD
  5
227
330
1
100
AcDbSymbolTableRecord
100
AcDbBlockTableRecord
  2
_D_2
340
0
  0
BLOCK_RECORD
  5
232
330
1
100
AcDbSymbolTableRecord
100
AcDbBlockTableRecord
  2
_D_3
340
0
  0
BLOCK_RECORD
  5
25F
330
1
100
AcDbSymbolTableRecord
100
AcDbBlockTableRecord
  2
_D_4
340
0
  0
BLOCK_RECORD
  5
26A
330
1
100
AcDbSymbolTableRecord
100
AcDbBlockTableRecord
  2
_D_5
340
0
  0
BLOCK_RECORD
  5
276
330
1
100
AcDbSymbolTableRecord
100
AcDbBlockTableRecord
  2
_D_6
340
0
  0
BLOCK_RECORD
  5
281
330
1
100
AcDbSymbolTableRecord
100
AcDbBlockTableRecord
  2
SW_NOTE_2
340
0
102
{BLKREFS
331
286
102
}
  0
BLOCK_RECORD
  5
289
330
1
100
AcDbSymbolTableRecord
100
AcDbBlockTableRecord
  2
SW_CENTERMARKSYMBOL_0
340
0
102
{BLKREFS
331
294
102
}
  0
BLOCK_RECORD
  5
2AE
330
1
100
AcDbSymbolTableRecord
100
AcDbBlockTableRecord
  2
_D_7
340
0
  0
BLOCK_RECORD
  5
2BA
330
1
100
AcDbSymbolTableRecord
100
AcDbBlockTableRecord
  2
_D_8
340
0
  0
BLOCK_RECORD
  5
2C4
330
1
100
AcDbSymbolTableRecord
100
AcDbBlockTableRecord
  2
_D_9
340
0
  0
BLOCK_RECORD
  5
2CE
330
1
100
AcDbSymbolTableRecord
100
AcDbBlockTableRecord
  2
_D_10
340
0
  0
BLOCK_RECORD
  5
2D8
330
1
100
AcDbSymbolTableRecord
100
AcDbBlockTableRecord
  2
_D_11
340
0
  0
BLOCK_RECORD
  5
2E2
330
1
100
AcDbSymbolTableRecord
100
AcDbBlockTableRecord
  2
_D_12
340
0
  0
BLOCK_RECORD
  5
2EC
330
1
100
AcDbSymbolTableRecord
100
AcDbBlockTableRecord
  2
_D_13
340
0
  0
BLOCK_RECORD
  5
2F6
330
1
100
AcDbSymbolTableRecord
100
AcDbBlockTableRecord
  2
_D_14
340
0
  0
BLOCK_RECORD
  5
2FF
330
1
100
AcDbSymbolTableRecord
100
AcDbBlockTableRecord
  2
SW_NOTE_3
340
0
102
{BLKREFS
331
305
102
}
  0
BLOCK_RECORD
  5
307
330
1
100
AcDbSymbolTableRecord
100
AcDbBlockTableRecord
  2
SW_NOTE_4
340
0
102
{BLKREFS
331
30D
102
}
  0
BLOCK_RECORD
  5
30F
330
1
100
AcDbSymbolTableRecord
100
AcDbBlockTableRecord
  2
SW_CENTERMARKSYMBOL_1
340
0
102
{BLKREFS
331
31A
102
}
  0
BLOCK_RECORD
  5
31B
330
1
100
AcDbSymbolTableRecord
100
AcDbBlockTableRecord
  2
SW_CENTERMARKSYMBOL_2
340
0
102
{BLKREFS
331
326
102
}
  0
BLOCK_RECORD
  5
327
330
1
100
AcDbSymbolTableRecord
100
AcDbBlockTableRecord
  2
SW_CENTERMARKSYMBOL_3
340
0
102
{BLKREFS
331
332
102
}
  0
BLOCK_RECORD
  5
333
330
1
100
AcDbSymbolTableRecord
100
AcDbBlockTableRecord
  2
SW_CENTERMARKSYMBOL_4
340
0
102
{BLKREFS
331
33E
102
}
  0
BLOCK_RECORD
  5
33F
330
1
100
AcDbSymbolTableRecord
100
AcDbBlockTableRecord
  2
SW_CENTERMARKSYMBOL_5
340
0
102
{BLKREFS
331
34A
102
}
  0
BLOCK_RECORD
  5
34B
330
1
100
AcDbSymbolTableRecord
100
AcDbBlockTableRecord
  2
SW_CENTERMARKSYMBOL_6
340
0
102
{BLKREFS
331
356
102
}
  0
BLOCK_RECORD
  5
357
330
1
100
AcDbSymbolTableRecord
100
AcDbBlockTableRecord
  2
SW_CENTERMARKSYMBOL_7
340
0
102
{BLKREFS
331
362
102
}
  0
BLOCK_RECORD
  5
38D
330
1
100
AcDbSymbolTableRecord
100
AcDbBlockTableRecord
  2
_D_15
340
0
  0
BLOCK_RECORD
  5
397
330
1
100
AcDbSymbolTableRecord
100
AcDbBlockTableRecord
  2
_D_16
340
0
  0
BLOCK_RECORD
  5
3A1
330
1
100
AcDbSymbolTableRecord
100
AcDbBlockTableRecord
  2
_D_17
340
0
  0
BLOCK_RECORD
  5
3AB
330
1
100
AcDbSymbolTableRecord
100
AcDbBlockTableRecord
  2
_D_18
340
0
  0
BLOCK_RECORD
  5
3B5
330
1
100
AcDbSymbolTableRecord
100
AcDbBlockTableRecord
  2
_D_19
340
0
  0
BLOCK_RECORD
  5
3BF
330
1
100
AcDbSymbolTableRecord
100
AcDbBlockTableRecord
  2
_D_20
340
0
  0
BLOCK_RECORD
  5
3C9
330
1
100
AcDbSymbolTableRecord
100
AcDbBlockTableRecord
  2
_D_21
340
0
  0
BLOCK_RECORD
  5
3D3
330
1
100
AcDbSymbolTableRecord
100
AcDbBlockTableRecord
  2
_D_22
340
0
  0
BLOCK_RECORD
  5
3DD
330
1
100
AcDbSymbolTableRecord
100
AcDbBlockTableRecord
  2
_D_23
340
0
  0
BLOCK_RECORD
  5
3E7
330
1
100
AcDbSymbolTableRecord
100
AcDbBlockTableRecord
  2
_D_24
340
0
  0
BLOCK_RECORD
  5
3F3
330
1
100
AcDbSymbolTableRecord
100
AcDbBlockTableRecord
  2
_D_25
340
0
  0
BLOCK_RECORD
  5
3FE
330
1
100
AcDbSymbolTableRecord
100
AcDbBlockTableRecord
  2
_D_26
340
0
  0
BLOCK_RECORD
  5
406
330
1
100
AcDbSymbolTableRecord
100
AcDbBlockTableRecord
  2
_D_27
340
0
  0
BLOCK_RECORD
  5
411
330
1
100
AcDbSymbolTableRecord
100
AcDbBlockTableRecord
  2
SW_NOTE_5
340
0
102
{BLKREFS
331
417
102
}
  0
BLOCK_RECORD
  5
419
330
1
100
AcDbSymbolTableRecord
100
AcDbBlockTableRecord
  2
SW_CENTERMARKSYMBOL_8
340
0
102
{BLKREFS
331
42C
102
}
  0
BLOCK_RECORD
  5
42D
330
1
100
AcDbSymbolTableRecord
100
AcDbBlockTableRecord
  2
SW_CENTERMARKSYMBOL_9
340
0
102
{BLKREFS
331
438
102
}
  0
BLOCK_RECORD
  5
439
330
1
100
AcDbSymbolTableRecord
100
AcDbBlockTableRecord
  2
SW_CENTERMARKSYMBOL_10
340
0
102
{BLKREFS
331
44C
102
}
  0
BLOCK_RECORD
  5
44D
330
1
100
AcDbSymbolTableRecord
100
AcDbBlockTableRecord
  2
SW_CENTERMARKSYMBOL_11
340
0
102
{BLKREFS
331
458
102
}
  0
BLOCK_RECORD
  5
459
330
1
100
AcDbSymbolTableRecord
100
AcDbBlockTableRecord
  2
SW_CENTERMARKSYMBOL_12
340
0
102
{BLKREFS
331
46C
102
}
  0
BLOCK_RECORD
  5
46D
330
1
100
AcDbSymbolTableRecord
100
AcDbBlockTableRecord
  2
SW_CENTERMARKSYMBOL_13
340
0
102
{BLKREFS
331
478
102
}
  0
BLOCK_RECORD
  5
479
330
1
100
AcDbSymbolTableRecord
100
AcDbBlockTableRecord
  2
SW_CENTERMARKSYMBOL_14
340
0
102
{BLKREFS
331
484
102
}
  0
BLOCK_RECORD
  5
485
330
1
100
AcDbSymbolTableRecord
100
AcDbBlockTableRecord
  2
SW_CENTERMARKSYMBOL_15
340
0
102
{BLKREFS
331
490
102
}
  0
BLOCK_RECORD
  5
57A
330
1
100
AcDbSymbolTableRecord
100
AcDbBlockTableRecord
  2
_D_28
340
0
  0
BLOCK_RECORD
  5
584
330
1
100
AcDbSymbolTableRecord
100
AcDbBlockTableRecord
  2
_D_29
340
0
  0
BLOCK_RECORD
  5
58E
330
1
100
AcDbSymbolTableRecord
100
AcDbBlockTableRecord
  2
_D_30
340
0
  0
BLOCK_RECORD
  5
598
330
1
100
AcDbSymbolTableRecord
100
AcDbBlockTableRecord
  2
_D_31
340
0
  0
BLOCK_RECORD
  5
5A2
330
1
100
AcDbSymbolTableRecord
100
AcDbBlockTableRecord
  2
_D_32
340
0
  0
BLOCK_RECORD
  5
5AC
330
1
100
AcDbSymbolTableRecord
100
AcDbBlockTableRecord
  2
_D_33
340
0
  0
BLOCK_RECORD
  5
5B6
330
1
100
AcDbSymbolTableRecord
100
AcDbBlockTableRecord
  2
_D_34
340
0
  0
BLOCK_RECORD
  5
5C1
330
1
100
AcDbSymbolTableRecord
100
AcDbBlockTableRecord
  2
SW_NOTE_6
340
0
102
{BLKREFS
331
5C7
102
}
  0
BLOCK_RECORD
  5
5C9
330
1
100
AcDbSymbolTableRecord
100
AcDbBlockTableRecord
  2
SW_NOTE_7
340
0
102
{BLKREFS
331
5CF
102
}
  0
BLOCK_RECORD
  5
5D1
330
1
100
AcDbSymbolTableRecord
100
AcDbBlockTableRecord
  2
SW_CENTERMARKSYMBOL_16
340
0
102
{BLKREFS
331
5DC
102
}
  0
BLOCK_RECORD
  5
5DD
330
1
100
AcDbSymbolTableRecord
100
AcDbBlockTableRecord
  2
SW_CENTERMARKSYMBOL_17
340
0
102
{BLKREFS
331
5E8
102
}
  0
BLOCK_RECORD
  5
5E9
330
1
100
AcDbSymbolTableRecord
100
AcDbBlockTableRecord
  2
SW_CENTERMARKSYMBOL_18
340
0
102
{BLKREFS
331
5F4
102
}
  0
BLOCK_RECORD
  5
5F5
330
1
100
AcDbSymbolTableRecord
100
AcDbBlockTableRecord
  2
SW_CENTERMARKSYMBOL_19
340
0
102
{BLKREFS
331
600
102
}
  0
BLOCK_RECORD
  5
601
330
1
100
AcDbSymbolTableRecord
100
AcDbBlockTableRecord
  2
SW_CENTERMARKSYMBOL_20
340
0
102
{BLKREFS
331
60C
102
}
  0
BLOCK_RECORD
  5
60D
330
1
100
AcDbSymbolTableRecord
100
AcDbBlockTableRecord
  2
SW_CENTERMARKSYMBOL_21
340
0
102
{BLKREFS
331
618
102
}
  0
ENDTAB
  0
ENDSEC
  0
SECTION
  2
BLOCKS
  0
BLOCK
  5
20
330
1F
100
AcDbEntity
  8
0
100
AcDbBlockBegin
  2
*Model_Space
 70
     0
 10
0.0
 20
0.0
 30
0.0
  3
*Model_Space
  1

  0
ENDBLK
  5
21
330
1F
100
AcDbEntity
  8
0
100
AcDbBlockEnd
  0
BLOCK
  5
1C
330
1B
100
AcDbEntity
 67
     1
  8
0
100
AcDbBlockBegin
  2
*Paper_Space
 70
     0
 10
0.0
 20
0.0
 30
0.0
  3
*Paper_Space
  1

  0
ENDBLK
  5
1D
330
1B
100
AcDbEntity
 67
     1
  8
0
100
AcDbBlockEnd
  0
BLOCK
  5
24
330
23
100
AcDbEntity
  8
0
100
AcDbBlockBegin
  2
*Paper_Space0
 70
     0
 10
0.0
 20
0.0
 30
0.0
  3
*Paper_Space0
  1

  0
ENDBLK
  5
25
330
23
100
AcDbEntity
  8
0
100
AcDbBlockEnd
  0
BLOCK
  5
7D
330
7C
100
AcDbEntity
  8
0
100
AcDbBlockBegin
  2
圖塊6
 70
     0
 10
0.0
 20
0.0
 30
0.0
  3
圖塊6
  1

  0
ARC
  5
7F
330
7C
100
AcDbEntity
  8
圖層_1
 62
     7
370
    30
100
AcDbCircle
 10
3.8253860849
 20
15.2551707228
 30
0.0
 40
3.825386084859177
100
AcDbArc
 50
130.2115225915
 51
228.588904108
  0
ARC
  5
80
330
7C
100
AcDbEntity
  8
圖層_1
 62
     7
370
    30
100
AcDbCircle
 10
12.1272839953
 20
14.9873636037
 30
0.0
 40
6.443338567044052
100
AcDbArc
 50
140.4331765613
 51
251.0865666567
  0
ARC
  5
81
330
7C
100
AcDbEntity
  8
圖層_1
 62
     7
370
    30
100
AcDbCircle
 10
12.9412604956
 20
15.7793899282
 30
0.0
 40
7.474091644424656
100
AcDbArc
 50
247.1485306747
 51
309.6030773927
  0
LINE
  5
82
330
7C
100
AcDbEntity
  8
圖層_1
 62
     7
370
    30
100
AcDbLine
 10
4.6222443172
 20
21.3304564959
 30
0.0
 11
1.35567368
 21
18.1764888047
 31
0.0
  0
LINE
  5
83
330
7C
100
AcDbEntity
  8
圖層_1
 62
     7
370
    30
100
AcDbLine
 10
1.2950572249
 20
12.3861962442
 30
0.0
 11
11.3180630004
 21
3.6746866436
 31
0.0
  0
LINE
  5
84
330
7C
100
AcDbEntity
  8
圖層_1
 62
     7
370
    30
100
AcDbLine
 10
11.3180630004
 20
3.6746866436
 30
0.0
 11
9.7404331993
 21
2.1349356674
 31
0.0
  0
LINE
  5
85
330
7C
100
AcDbEntity
  8
圖層_1
 62
     7
370
    30
100
AcDbLine
 10
9.7404331993
 20
2.1349356674
 30
0.0
 11
12.2201316112
 21
0.0
 31
0.0
  0
LINE
  5
86
330
7C
100
AcDbEntity
  8
圖層_1
 62
     7
370
    30
100
AcDbLine
 10
20.2442926971
 20
7.7914449138
 30
0.0
 11
17.7057351179
 21
10.0207592331
 31
0.0
  0
LINE
  5
87
330
7C
100
AcDbEntity
  8
圖層_1
 62
     7
370
    30
100
AcDbLine
 10
7.1602289357
 20
19.0916267439
 30
0.0
 11
4.6222443172
 21
21.3304564959
 31
0.0
  0
LINE
  5
88
330
7C
100
AcDbEntity
  8
圖層_1
 62
     7
370
    30
100
AcDbLine
 10
12.2201316112
 20
0.0
 30
0.0
 11
20.2442926971
 21
7.7914449138
 31
0.0
  0
ENDBLK
  5
7E
330
7C
100
AcDbEntity
  8
0
100
AcDbBlockEnd
  0
BLOCK
  5
CF
330
CE
100
AcDbEntity
  8
0
100
AcDbBlockBegin
  2
SW_NOTE_0
 70
     0
 10
0.0
 20
0.0
 30
0.0
  3
SW_NOTE_0
  1

  0
MTEXT
  5
D1
330
CE
100
AcDbEntity
  8
0
  6
Continuous
 62
     0
370
     0
100
AcDbMText
 10
0.0
 20
8.526645987
 30
0.0
 40
6.6145833333
 41
0.0
 71
     1
 72
     1
  1
PROPRIETARY AND CONFIDENTIAL
  7
SLDTEXTSTYLE0
 73
     1
 44
1.0
  0
MTEXT
  5
D2
330
CE
100
AcDbEntity
  8
0
  6
Continuous
 62
     0
370
     0
100
AcDbMText
 10
0.0
 20
-0.2049587001
 30
0.0
 40
4.6302083333
 41
0.0
 71
     1
 72
     1
  1
THE INFORMATION CONTAINED IN THIS DRAWING IS THE SOLE PROPERTY OF UNICE E-O SERVICES INC. ANY REPRODUCTION IN PART OR AS A WHOLE WITHOUT THE WRITTEN PERMISSION OF UNICE E-O SERVICES INC IS
  7
SLDTEXTSTYLE0
 73
     1
 44
1.0
  0
MTEXT
  5
D3
330
CE
100
AcDbEntity
  8
0
  6
Continuous
 62
     0
370
     0
100
AcDbMText
 10
0.0
 20
-6.3785697366
 30
0.0
 40
4.6302083333
 41
0.0
 71
     1
 72
     1
  1
PROHIBITED.
  7
SLDTEXTSTYLE0
 73
     1
 44
1.0
  0
ENDBLK
  5
D0
330
CE
100
AcDbEntity
  8
0
100
AcDbBlockEnd
  0
BLOCK
  5
106
330
105
100
AcDbEntity
  8
0
100
AcDbBlockBegin
  2
SW_NOTE_1
 70
     0
 10
0.0
 20
0.0
 30
0.0
  3
SW_NOTE_1
  1

  0
MTEXT
  5
108
330
105
100
AcDbEntity
  8
SLD-0
 62
     0
100
AcDbMText
 10
0.0
 20
5.1159875922
 30
0.0
 40
3.96875
 41
0.0
 71
     1
 72
     1
  1
No.5, Andong Rd., Chung Li District,
  7
SLDTEXTSTYLE0
 73
     1
 44
1.0
  0
MTEXT
  5
109
330
105
100
AcDbEntity
  8
SLD-0
 62
     0
100
AcDbMText
 10
0.0
 20
-0.1756790105
 30
0.0
 40
3.96875
 41
0.0
 71
     1
 72
     1
  1
Taoyuan City 32063, Taiwan, R.O.C.
  7
SLDTEXTSTYLE0
 73
     1
 44
1.0
  0
ENDBLK
  5
107
330
105
100
AcDbEntity
  8
0
100
AcDbBlockEnd
  0
BLOCK
  5
214
330
213
100
AcDbEntity
  8
0
100
AcDbBlockBegin
  2
_D
 70
     0
 10
0.0
 20
0.0
 30
0.0
  3
_D
  1

  0
SOLID
  5
216
330
213
100
AcDbEntity
  8
DIM
100
AcDbTrace
 10
129.3524562297
 20
262.543074112
 30
0.0
 11
128.7274562297
 21
257.543074112
 31
0.0
 12
129.9774562297
 22
257.543074112
 32
0.0
 13
129.9774562297
 23
257.543074112
 33
0.0
  0
SOLID
  5
217
330
213
100
AcDbEntity
  8
DIM
100
AcDbTrace
 10
129.3524562297
 20
222.543074112
 30
0.0
 11
129.9774562297
 21
227.543074112
 31
0.0
 12
128.7274562297
 22
227.543074112
 32
0.0
 13
128.7274562297
 23
227.543074112
 33
0.0
  0
LINE
  5
218
330
213
100
AcDbEntity
  8
DIM
100
AcDbLine
 10
144.3524562297
 20
262.543074112
 30
0.0
 11
126.8524562297
 21
262.543074112
 31
0.0
  0
LINE
  5
219
330
213
100
AcDbEntity
  8
DIM
100
AcDbLine
 10
144.3524562297
 20
222.543074112
 30
0.0
 11
126.8524562297
 21
222.543074112
 31
0.0
  0
LINE
  5
21A
330
213
100
AcDbEntity
  8
DIM
100
AcDbLine
 10
129.3524562297
 20
262.543074112
 30
0.0
 11
129.3524562297
 21
222.543074112
 31
0.0
  0
MTEXT
  5
21B
330
213
100
AcDbEntity
  8
DIM
100
AcDbMText
 10
121.6784751324
 20
238.8168588938
 30
0.0
 40
5.953125
 41
0.0
 71
     1
 72
     1
  1
40
  7
SLDTEXTSTYLE1
 11
-1.059690869644414E-14
 21
1.0
 31
0.0
 73
     1
 44
1.0
  0
ENDBLK
  5
215
330
213
100
AcDbEntity
  8
0
100
AcDbBlockEnd
  0
BLOCK
  5
21E
330
21D
100
AcDbEntity
  8
0
100
AcDbBlockBegin
  2
_D_1
 70
     0
 10
0.0
 20
0.0
 30
0.0
  3
_D_1
  1

  0
SOLID
  5
220
330
21D
100
AcDbEntity
  8
DIM
100
AcDbTrace
 10
146.8524562297
 20
205.0430741119
 30
0.0
 11
151.8524562297
 21
204.4180741119
 31
0.0
 12
151.8524562297
 22
205.6680741119
 32
0.0
 13
151.8524562297
 23
205.6680741119
 33
0.0
  0
SOLID
  5
221
330
21D
100
AcDbEntity
  8
DIM
100
AcDbTrace
 10
496.8524562297
 20
205.043074112
 30
0.0
 11
491.8524562297
 21
205.668074112
 31
0.0
 12
491.8524562297
 22
204.418074112
 32
0.0
 13
491.8524562297
 23
204.418074112
 33
0.0
  0
LINE
  5
222
330
21D
100
AcDbEntity
  8
DIM
100
AcDbLine
 10
146.8524562297
 20
220.0430741119
 30
0.0
 11
146.8524562297
 21
202.5430741119
 31
0.0
  0
LINE
  5
223
330
21D
100
AcDbEntity
  8
DIM
100
AcDbLine
 10
496.8524562297
 20
225.043074112
 30
0.0
 11
496.8524562297
 21
202.543074112
 31
0.0
  0
LINE
  5
224
330
21D
100
AcDbEntity
  8
DIM
100
AcDbLine
 10
146.8524562297
 20
205.0430741119
 30
0.0
 11
496.8524562297
 21
205.043074112
 31
0.0
  0
MTEXT
  5
225
330
21D
100
AcDbEntity
  8
DIM
100
AcDbMText
 10
316.2631331114
 20
212.7170552092
 30
0.0
 40
5.953125
 41
0.0
 71
     1
 72
     1
  1
350
  7
SLDTEXTSTYLE1
 73
     1
 44
1.0
  0
ENDBLK
  5
21F
330
21D
100
AcDbEntity
  8
0
100
AcDbBlockEnd
  0
BLOCK
  5
228
330
227
100
AcDbEntity
  8
0
100
AcDbBlockBegin
  2
_D_2
 70
     0
 10
0.0
 20
0.0
 30
0.0
  3
_D_2
  1

  0
SOLID
  5
22A
330
227
100
AcDbEntity
  8
DIM
100
AcDbTrace
 10
514.3524562297
 20
372.543074112
 30
0.0
 11
513.7274562297
 21
367.543074112
 31
0.0
 12
514.9774562297
 22
367.543074112
 32
0.0
 13
514.9774562297
 23
367.543074112
 33
0.0
  0
SOLID
  5
22B
330
227
100
AcDbEntity
  8
DIM
100
AcDbTrace
 10
514.3524562297
 20
222.543074112
 30
0.0
 11
514.9774562297
 21
227.543074112
 31
0.0
 12
513.7274562297
 22
227.543074112
 32
0.0
 13
513.7274562297
 23
227.543074112
 33
0.0
  0
LINE
  5
22C
330
227
100
AcDbEntity
  8
DIM
100
AcDbLine
 10
499.3524562297
 20
372.543074112
 30
0.0
 11
516.8524562297
 21
372.543074112
 31
0.0
  0
LINE
  5
22D
330
227
100
AcDbEntity
  8
DIM
100
AcDbLine
 10
494.3524562297
 20
222.543074112
 30
0.0
 11
516.8524562297
 21
222.543074112
 31
0.0
  0
LINE
  5
22E
330
227
100
AcDbEntity
  8
DIM
100
AcDbLine
 10
514.3524562297
 20
372.543074112
 30
0.0
 11
514.3524562297
 21
222.543074112
 31
0.0
  0
MTEXT
  5
22F
330
227
100
AcDbEntity
  8
DIM
100
AcDbMText
 10
506.6784751324
 20
291.9537509936
 30
0.0
 40
5.953125
 41
0.0
 71
     1
 72
     1
  1
150
  7
SLDTEXTSTYLE1
 11
-1.059690869644414E-14
 21
1.0
 31
0.0
 73
     1
 44
1.0
  0
ENDBLK
  5
229
330
227
100
AcDbEntity
  8
0
100
AcDbBlockEnd
  0
BLOCK
  5
233
330
232
100
AcDbEntity
  8
0
100
AcDbBlockBegin
  2
_D_3
 70
     0
 10
0.0
 20
0.0
 30
0.0
  3
_D_3
  1

  0
ARC
  5
235
330
232
100
AcDbEntity
  8
DIM
100
AcDbCircle
 10
419.1120101055
 20
372.543074112
 30
0.0
 40
97.89129903719777
100
AcDbArc
 50
180.0
 51
202.0
  0
SOLID
  5
236
330
232
100
AcDbEntity
  8
DIM
100
AcDbTrace
 10
321.2207110683
 20
372.5430741119
 30
0.0
 11
320.7234824626
 21
367.5287557422
 31
0.0
 12
321.9730755569
 22
367.5606477275
 32
0.0
 13
321.9730755569
 23
367.5606477275
 33
0.0
  0
SOLID
  5
237
330
232
100
AcDbEntity
  8
DIM
100
AcDbTrace
 10
328.3487781357
 20
335.8723480546
 30
0.0
 11
327.1799085674
 21
340.7738140529
 31
0.0
 12
326.0093590776
 22
340.3352779746
 32
0.0
 13
326.0093590776
 23
340.3352779746
 33
0.0
  0
LINE
  5
238
330
232
100
AcDbEntity
  8
DIM
100
AcDbLine
 10
417.5839116512
 20
372.543074112
 30
0.0
 11
318.7207110683
 21
372.5430741119
 31
0.0
  0
MTEXT
  5
239
330
232
100
AcDbEntity
  8
DIM
100
AcDbMText
 10
329.6582353597
 20
359.9280452312
 30
0.0
 40
5.953125
 41
0.0
 71
     1
 72
     1
  1
22°
  7
SLDTEXTSTYLE1
 11
0.1908089953765538
 21
-0.9816271834476622
 31
0.0
 73
     1
 44
1.0
  0
ENDBLK
  5
234
330
232
100
AcDbEntity
  8
0
100
AcDbBlockEnd
  0
BLOCK
  5
260
330
25F
100
AcDbEntity
  8
0
100
AcDbBlockBegin
  2
_D_4
 70
     0
 10
0.0
 20
0.0
 30
0.0
  3
_D_4
  1

  0
SOLID
  5
262
330
25F
100
AcDbEntity
  8
DIM
100
AcDbTrace
 10
73.1746546639
 20
390.043074112
 30
0.0
 11
78.1746546639
 21
389.418074112
 31
0.0
 12
78.1746546639
 22
390.668074112
 32
0.0
 13
78.1746546639
 23
390.668074112
 33
0.0
  0
SOLID
  5
263
330
25F
100
AcDbEntity
  8
DIM
100
AcDbTrace
 10
91.1746546639
 20
390.043074112
 30
0.0
 11
86.1746546639
 21
390.668074112
 31
0.0
 12
86.1746546639
 22
389.418074112
 32
0.0
 13
86.1746546639
 23
389.418074112
 33
0.0
  0
LINE
  5
264
330
25F
100
AcDbEntity
  8
DIM
100
AcDbLine
 10
73.1746546639
 20
373.7518095302
 30
0.0
 11
73.1746546639
 21
392.543074112
 31
0.0
  0
LINE
  5
265
330
25F
100
AcDbEntity
  8
DIM
100
AcDbLine
 10
91.1746546639
 20
373.7518095302
 30
0.0
 11
91.1746546639
 21
392.543074112
 31
0.0
  0
LINE
  5
266
330
25F
100
AcDbEntity
  8
DIM
100
AcDbLine
 10
73.1746546639
 20
390.043074112
 30
0.0
 11
91.1746546639
 21
390.043074112
 31
0.0
  0
MTEXT
  5
267
330
25F
100
AcDbEntity
  8
DIM
100
AcDbMText
 10
78.4484394457
 20
397.7170552092
 30
0.0
 40
5.953125
 41
0.0
 71
     1
 72
     1
  1
18
  7
SLDTEXTSTYLE1
 73
     1
 44
1.0
  0
ENDBLK
  5
261
330
25F
100
AcDbEntity
  8
0
100
AcDbBlockEnd
  0
BLOCK
  5
26B
330
26A
100
AcDbEntity
  8
0
100
AcDbBlockBegin
  2
_D_5
 70
     0
 10
0.0
 20
0.0
 30
0.0
  3
_D_5
  1

  0
SOLID
  5
26D
330
26A
100
AcDbEntity
  8
DIM
100
AcDbTrace
 10
82.1746546639
 20
205.0430741119
 30
0.0
 11
77.1746546639
 21
205.6680741119
 31
0.0
 12
77.1746546639
 22
204.4180741119
 32
0.0
 13
77.1746546639
 23
204.4180741119
 33
0.0
  0
SOLID
  5
26E
330
26A
100
AcDbEntity
  8
DIM
100
AcDbTrace
 10
91.1746546639
 20
205.0430741119
 30
0.0
 11
96.1746546639
 21
204.4180741119
 31
0.0
 12
96.1746546639
 22
205.6680741119
 32
0.0
 13
96.1746546639
 23
205.6680741119
 33
0.0
  0
LINE
  5
26F
330
26A
100
AcDbEntity
  8
DIM
100
AcDbLine
 10
82.1746546639
 20
229.1903741119
 30
0.0
 11
82.1746546639
 21
202.5430741119
 31
0.0
  0
LINE
  5
270
330
26A
100
AcDbEntity
  8
DIM
100
AcDbLine
 10
91.1746546639
 20
221.0430741119
 30
0.0
 11
91.1746546639
 21
202.5430741119
 31
0.0
  0
LINE
  5
271
330
26A
100
AcDbEntity
  8
DIM
100
AcDbLine
 10
82.1746546639
 20
205.0430741119
 30
0.0
 11
74.6746546639
 21
205.0430741119
 31
0.0
  0
LINE
  5
272
330
26A
100
AcDbEntity
  8
DIM
100
AcDbLine
 10
82.1746546639
 20
205.0430741119
 30
0.0
 11
91.1746546639
 21
205.0430741119
 31
0.0
  0
LINE
  5
273
330
26A
100
AcDbEntity
  8
DIM
100
AcDbLine
 10
91.1746546639
 20
205.0430741119
 30
0.0
 11
98.6746546639
 21
205.0430741119
 31
0.0
  0
MTEXT
  5
274
330
26A
100
AcDbEntity
  8
DIM
100
AcDbMText
 10
84.8115470548
 20
212.7170552092
 30
0.0
 40
5.953125
 41
0.0
 71
     1
 72
     1
  1
9
  7
SLDTEXTSTYLE1
 73
     1
 44
1.0
  0
ENDBLK
  5
26C
330
26A
100
AcDbEntity
  8
0
100
AcDbBlockEnd
  0
BLOCK
  5
277
330
276
100
AcDbEntity
  8
0
100
AcDbBlockBegin
  2
_D_6
 70
     0
 10
0.0
 20
0.0
 30
0.0
  3
_D_6
  1

  0
SOLID
  5
279
330
276
100
AcDbEntity
  8
DIM
100
AcDbTrace
 10
55.6746546639
 20
235.2430741119
 30
0.0
 11
56.2996546639
 21
240.2430741119
 31
0.0
 12
55.0496546639
 22
240.2430741119
 32
0.0
 13
55.0496546639
 23
240.2430741119
 33
0.0
  0
SOLID
  5
27A
330
276
100
AcDbEntity
  8
DIM
100
AcDbTrace
 10
55.6746546639
 20
222.5430741119
 30
0.0
 11
55.0496546639
 21
217.5430741119
 31
0.0
 12
56.2996546639
 22
217.5430741119
 32
0.0
 13
56.2996546639
 23
217.5430741119
 33
0.0
  0
LINE
  5
27B
330
276
100
AcDbEntity
  8
DIM
100
AcDbLine
 10
76.1219546639
 20
235.2430741119
 30
0.0
 11
53.1746546639
 21
235.2430741119
 31
0.0
  0
LINE
  5
27C
330
276
100
AcDbEntity
  8
DIM
100
AcDbLine
 10
71.6746546639
 20
222.5430741119
 30
0.0
 11
53.1746546639
 21
222.5430741119
 31
0.0
  0
LINE
  5
27D
330
276
100
AcDbEntity
  8
DIM
100
AcDbLine
 10
55.6746546639
 20
235.2430741119
 30
0.0
 11
55.6746546639
 21
242.7430741119
 31
0.0
  0
LINE
  5
27E
330
276
100
AcDbEntity
  8
DIM
100
AcDbLine
 10
55.6746546639
 20
235.2430741119
 30
0.0
 11
55.6746546639
 21
222.5430741119
 31
0.0
  0
LINE
  5
27F
330
276
100
AcDbEntity
  8
DIM
100
AcDbLine
 10
55.6746546639
 20
222.5430741119
 30
0.0
 11
55.6746546639
 21
215.0430741119
 31
0.0
  0
MTEXT
  5
280
330
276
100
AcDbEntity
  8
DIM
100
AcDbMText
 10
48.0006735666
 20
222.3721979167
 30
0.0
 40
5.953125
 41
0.0
 71
     1
 72
     1
  1
12.7
  7
SLDTEXTSTYLE1
 11
-7.044195017643634E-15
 21
1.0
 31
0.0
 73
     1
 44
1.0
  0
ENDBLK
  5
278
330
276
100
AcDbEntity
  8
0
100
AcDbBlockEnd
  0
BLOCK
  5
282
330
281
100
AcDbEntity
  8
0
100
AcDbBlockBegin
  2
SW_NOTE_2
 70
     0
 10
0.0
 20
0.0
 30
0.0
  3
SW_NOTE_2
  1

  0
LINE
  5
284
330
281
100
AcDbEntity
  8
DIM
 62
     0
100
AcDbLine
 10
-22.8006485914
 20
0.0
 30
0.0
 11
0.0
 21
0.0
 31
0.0
  0
MTEXT
  5
285
330
281
100
AcDbEntity
  8
DIM
 62
     0
100
AcDbMText
 10
-23.8356020565
 20
7.4162298966
 30
0.0
 40
5.953125
 41
0.0
 71
     1
 72
     1
  1
1/4"-20
  7
SLDTEXTSTYLE1
 73
     1
 44
1.0
  0
ENDBLK
  5
283
330
281
100
AcDbEntity
  8
0
100
AcDbBlockEnd
  0
BLOCK
  5
28A
330
289
100
AcDbEntity
  8
0
100
AcDbBlockBegin
  2
SW_CENTERMARKSYMBOL_0
 70
     0
 10
0.0
 20
0.0
 30
0.0
  3
SW_CENTERMARKSYMBOL_0
  1

  0
LINE
  5
28C
330
289
100
AcDbEntity
  8
DIM
 62
     0
100
AcDbLine
 10
0.0
 20
0.0
 30
0.0
 11
0.0
 21
1.0
 31
0.0
  0
LINE
  5
28D
330
289
100
AcDbEntity
  8
DIM
 62
     0
100
AcDbLine
 10
0.0
 20
0.0
 30
0.0
 11
-1.0
 21
0.0
 31
0.0
  0
LINE
  5
28E
330
289
100
AcDbEntity
  8
DIM
 62
     0
100
AcDbLine
 10
0.0
 20
0.0
 30
0.0
 11
0.0
 21
-1.0
 31
0.0
  0
LINE
  5
28F
330
289
100
AcDbEntity
  8
DIM
 62
     0
100
AcDbLine
 10
0.0
 20
0.0
 30
0.0
 11
1.0
 21
0.0
 31
0.0
  0
LINE
  5
290
330
289
100
AcDbEntity
  8
DIM
 62
     0
100
AcDbLine
 10
0.0
 20
2.0
 30
0.0
 11
0.0
 21
3.5527
 31
0.0
  0
LINE
  5
291
330
289
100
AcDbEntity
  8
DIM
 62
     0
100
AcDbLine
 10
-2.0
 20
0.0
 30
0.0
 11
-3.5527
 21
0.0
 31
0.0
  0
LINE
  5
292
330
289
100
AcDbEntity
  8
DIM
 62
     0
100
AcDbLine
 10
0.0
 20
-2.0
 30
0.0
 11
0.0
 21
-3.5527
 31
0.0
  0
LINE
  5
293
330
289
100
AcDbEntity
  8
DIM
 62
     0
100
AcDbLine
 10
2.0
 20
0.0
 30
0.0
 11
3.5527
 21
0.0
 31
0.0
  0
ENDBLK
  5
28B
330
289
100
AcDbEntity
  8
0
100
AcDbBlockEnd
  0
BLOCK
  5
2AF
330
2AE
100
AcDbEntity
  8
0
100
AcDbBlockBegin
  2
_D_7
 70
     0
 10
0.0
 20
0.0
 30
0.0
  3
_D_7
  1

  0
SOLID
  5
2B1
330
2AE
100
AcDbEntity
  8
DIM
100
AcDbTrace
 10
589.0422322255
 20
205.0430741119
 30
0.0
 11
594.0422322255
 21
204.4180741119
 31
0.0
 12
594.0422322255
 22
205.6680741119
 32
0.0
 13
594.0422322255
 23
205.6680741119
 33
0.0
  0
SOLID
  5
2B2
330
2AE
100
AcDbEntity
  8
DIM
100
AcDbTrace
 10
580.0422322255
 20
205.0430741119
 30
0.0
 11
575.0422322255
 21
205.6680741119
 31
0.0
 12
575.0422322255
 22
204.4180741119
 32
0.0
 13
575.0422322255
 23
204.4180741119
 33
0.0
  0
LINE
  5
2B3
330
2AE
100
AcDbEntity
  8
DIM
100
AcDbLine
 10
589.0422322255
 20
241.890374112
 30
0.0
 11
589.0422322255
 21
202.5430741119
 31
0.0
  0
LINE
  5
2B4
330
2AE
100
AcDbEntity
  8
DIM
100
AcDbLine
 10
580.0422322255
 20
221.043074112
 30
0.0
 11
580.0422322255
 21
202.5430741119
 31
0.0
  0
LINE
  5
2B5
330
2AE
100
AcDbEntity
  8
DIM
100
AcDbLine
 10
589.0422322255
 20
205.0430741119
 30
0.0
 11
596.5422322255
 21
205.0430741119
 31
0.0
  0
LINE
  5
2B6
330
2AE
100
AcDbEntity
  8
DIM
100
AcDbLine
 10
589.0422322255
 20
205.0430741119
 30
0.0
 11
580.0422322255
 21
205.0430741119
 31
0.0
  0
LINE
  5
2B7
330
2AE
100
AcDbEntity
  8
DIM
100
AcDbLine
 10
580.0422322255
 20
205.0430741119
 30
0.0
 11
572.5422322255
 21
205.0430741119
 31
0.0
  0
MTEXT
  5
2B8
330
2AE
100
AcDbEntity
  8
DIM
100
AcDbMText
 10
582.6791246164
 20
212.7170552092
 30
0.0
 40
5.953125
 41
0.0
 71
     1
 72
     1
  1
9
  7
SLDTEXTSTYLE1
 73
     1
 44
1.0
  0
ENDBLK
  5
2B0
330
2AE
100
AcDbEntity
  8
0
100
AcDbBlockEnd
  0
BLOCK
  5
2BB
330
2BA
100
AcDbEntity
  8
0
100
AcDbBlockBegin
  2
_D_8
 70
     0
 10
0.0
 20
0.0
 30
0.0
  3
_D_8
  1

  0
SOLID
  5
2BD
330
2BA
100
AcDbEntity
  8
DIM
100
AcDbTrace
 10
615.5422322255
 20
247.943074112
 30
0.0
 11
614.9172322255
 21
242.943074112
 31
0.0
 12
616.1672322255
 22
242.943074112
 32
0.0
 13
616.1672322255
 23
242.943074112
 33
0.0
  0
SOLID
  5
2BE
330
2BA
100
AcDbEntity
  8
DIM
100
AcDbTrace
 10
615.5422322255
 20
222.543074112
 30
0.0
 11
616.1672322255
 21
227.543074112
 31
0.0
 12
614.9172322255
 22
227.543074112
 32
0.0
 13
614.9172322255
 23
227.543074112
 33
0.0
  0
LINE
  5
2BF
330
2BA
100
AcDbEntity
  8
DIM
100
AcDbLine
 10
595.0949322255
 20
247.943074112
 30
0.0
 11
618.0422322255
 21
247.943074112
 31
0.0
  0
LINE
  5
2C0
330
2BA
100
AcDbEntity
  8
DIM
100
AcDbLine
 10
599.5422322255
 20
222.543074112
 30
0.0
 11
618.0422322255
 21
222.543074112
 31
0.0
  0
LINE
  5
2C1
330
2BA
100
AcDbEntity
  8
DIM
100
AcDbLine
 10
615.5422322255
 20
247.943074112
 30
0.0
 11
615.5422322255
 21
222.543074112
 31
0.0
  0
MTEXT
  5
2C2
330
2BA
100
AcDbEntity
  8
DIM
100
AcDbMText
 10
607.8682511282
 20
228.7221979167
 30
0.0
 40
5.953125
 41
0.0
 71
     1
 72
     1
  1
25.4
  7
SLDTEXTSTYLE1
 11
-7.044195017643634E-15
 21
1.0
 31
0.0
 73
     1
 44
1.0
  0
ENDBLK
  5
2BC
330
2BA
100
AcDbEntity
  8
0
100
AcDbBlockEnd
  0
BLOCK
  5
2C5
330
2C4
100
AcDbEntity
  8
0
100
AcDbBlockBegin
  2
_D_9
 70
     0
 10
0.0
 20
0.0
 30
0.0
  3
_D_9
  1

  0
SOLID
  5
2C7
330
2C4
100
AcDbEntity
  8
DIM
100
AcDbTrace
 10
615.5422322255
 20
247.943074112
 30
0.0
 11
616.1672322255
 21
252.943074112
 31
0.0
 12
614.9172322255
 22
252.943074112
 32
0.0
 13
614.9172322255
 23
252.943074112
 33
0.0
  0
SOLID
  5
2C8
330
2C4
100
AcDbEntity
  8
DIM
100
AcDbTrace
 10
615.5422322255
 20
298.743074112
 30
0.0
 11
614.9172322255
 21
293.743074112
 31
0.0
 12
616.1672322255
 22
293.743074112
 32
0.0
 13
616.1672322255
 23
293.743074112
 33
0.0
  0
LINE
  5
2C9
330
2C4
100
AcDbEntity
  8
DIM
100
AcDbLine
 10
595.0949322255
 20
247.943074112
 30
0.0
 11
618.0422322255
 21
247.943074112
 31
0.0
  0
LINE
  5
2CA
330
2C4
100
AcDbEntity
  8
DIM
100
AcDbLine
 10
595.0949322255
 20
298.743074112
 30
0.0
 11
618.0422322255
 21
298.743074112
 31
0.0
  0
LINE
  5
2CB
330
2C4
100
AcDbEntity
  8
DIM
100
AcDbLine
 10
615.5422322255
 20
247.943074112
 30
0.0
 11
615.5422322255
 21
298.743074112
 31
0.0
  0
MTEXT
  5
2CC
330
2C4
100
AcDbEntity
  8
DIM
100
AcDbMText
 10
607.8682511282
 20
266.8221979167
 30
0.0
 40
5.953125
 41
0.0
 71
     1
 72
     1
  1
50.8
  7
SLDTEXTSTYLE1
 11
6.123233995736766E-17
 21
1.0
 31
0.0
 73
     1
 44
1.0
  0
ENDBLK
  5
2C6
330
2C4
100
AcDbEntity
  8
0
100
AcDbBlockEnd
  0
BLOCK
  5
2CF
330
2CE
100
AcDbEntity
  8
0
100
AcDbBlockBegin
  2
_D_10
 70
     0
 10
0.0
 20
0.0
 30
0.0
  3
_D_10
  1

  0
SOLID
  5
2D1
330
2CE
100
AcDbEntity
  8
DIM
100
AcDbTrace
 10
615.5422322255
 20
298.743074112
 30
0.0
 11
616.1672322255
 21
303.743074112
 31
0.0
 12
614.9172322255
 22
303.743074112
 32
0.0
 13
614.9172322255
 23
303.743074112
 33
0.0
  0
SOLID
  5
2D2
330
2CE
100
AcDbEntity
  8
DIM
100
AcDbTrace
 10
615.5422322255
 20
324.143074112
 30
0.0
 11
614.9172322255
 21
319.143074112
 31
0.0
 12
616.1672322255
 22
319.143074112
 32
0.0
 13
616.1672322255
 23
319.143074112
 33
0.0
  0
LINE
  5
2D3
330
2CE
100
AcDbEntity
  8
DIM
100
AcDbLine
 10
595.0949322255
 20
298.743074112
 30
0.0
 11
618.0422322255
 21
298.743074112
 31
0.0
  0
LINE
  5
2D4
330
2CE
100
AcDbEntity
  8
DIM
100
AcDbLine
 10
595.0949322255
 20
324.143074112
 30
0.0
 11
618.0422322255
 21
324.143074112
 31
0.0
  0
LINE
  5
2D5
330
2CE
100
AcDbEntity
  8
DIM
100
AcDbLine
 10
615.5422322255
 20
298.743074112
 30
0.0
 11
615.5422322255
 21
324.143074112
 31
0.0
  0
MTEXT
  5
2D6
330
2CE
100
AcDbEntity
  8
DIM
100
AcDbMText
 10
607.8682511282
 20
304.9221979167
 30
0.0
 40
5.953125
 41
0.0
 71
     1
 72
     1
  1
25.4
  7
SLDTEXTSTYLE1
 11
6.123233995736766E-17
 21
1.0
 31
0.0
 73
     1
 44
1.0
  0
ENDBLK
  5
2D0
330
2CE
100
AcDbEntity
  8
0
100
AcDbBlockEnd
  0
BLOCK
  5
2D9
330
2D8
100
AcDbEntity
  8
0
100
AcDbBlockBegin
  2
_D_11
 70
     0
 10
0.0
 20
0.0
 30
0.0
  3
_D_11
  1

  0
SOLID
  5
2DB
330
2D8
100
AcDbEntity
  8
DIM
100
AcDbTrace
 10
615.5422322255
 20
362.243074112
 30
0.0
 11
614.9172322255
 21
357.243074112
 31
0.0
 12
616.1672322255
 22
357.243074112
 32
0.0
 13
616.1672322255
 23
357.243074112
 33
0.0
  0
SOLID
  5
2DC
330
2D8
100
AcDbEntity
  8
DIM
100
AcDbTrace
 10
615.5422322255
 20
324.143074112
 30
0.0
 11
616.1672322255
 21
329.143074112
 31
0.0
 12
614.9172322255
 22
329.143074112
 32
0.0
 13
614.9172322255
 23
329.143074112
 33
0.0
  0
LINE
  5
2DD
330
2D8
100
AcDbEntity
  8
DIM
100
AcDbLine
 10
595.0949322255
 20
362.243074112
 30
0.0
 11
618.0422322255
 21
362.243074112
 31
0.0
  0
LINE
  5
2DE
330
2D8
100
AcDbEntity
  8
DIM
100
AcDbLine
 10
595.0949322255
 20
324.143074112
 30
0.0
 11
618.0422322255
 21
324.143074112
 31
0.0
  0
LINE
  5
2DF
330
2D8
100
AcDbEntity
  8
DIM
100
AcDbLine
 10
615.5422322255
 20
362.243074112
 30
0.0
 11
615.5422322255
 21
324.143074112
 31
0.0
  0
MTEXT
  5
2E0
330
2D8
100
AcDbEntity
  8
DIM
100
AcDbMText
 10
607.8682511282
 20
336.6721979167
 30
0.0
 40
5.953125
 41
0.0
 71
     1
 72
     1
  1
38.1
  7
SLDTEXTSTYLE1
 11
-7.044195017643634E-15
 21
1.0
 31
0.0
 73
     1
 44
1.0
  0
ENDBLK
  5
2DA
330
2D8
100
AcDbEntity
  8
0
100
AcDbBlockEnd
  0
BLOCK
  5
2E3
330
2E2
100
AcDbEntity
  8
0
100
AcDbBlockBegin
  2
_D_12
 70
     0
 10
0.0
 20
0.0
 30
0.0
  3
_D_12
  1

  0
SOLID
  5
2E5
330
2E2
100
AcDbEntity
  8
DIM
100
AcDbTrace
 10
562.5422322255
 20
286.043074112
 30
0.0
 11
561.9172322255
 21
281.043074112
 31
0.0
 12
563.1672322255
 22
281.043074112
 32
0.0
 13
563.1672322255
 23
281.043074112
 33
0.0
  0
SOLID
  5
2E6
330
2E2
100
AcDbEntity
  8
DIM
100
AcDbTrace
 10
562.5422322255
 20
222.543074112
 30
0.0
 11
563.1672322255
 21
227.543074112
 31
0.0
 12
561.9172322255
 22
227.543074112
 32
0.0
 13
561.9172322255
 23
227.543074112
 33
0.0
  0
LINE
  5
2E7
330
2E2
100
AcDbEntity
  8
DIM
100
AcDbLine
 10
582.3672322255
 20
286.043074112
 30
0.0
 11
560.0422322255
 21
286.043074112
 31
0.0
  0
LINE
  5
2E8
330
2E2
100
AcDbEntity
  8
DIM
100
AcDbLine
 10
578.5422322255
 20
222.543074112
 30
0.0
 11
560.0422322255
 21
222.543074112
 31
0.0
  0
LINE
  5
2E9
330
2E2
100
AcDbEntity
  8
DIM
100
AcDbLine
 10
562.5422322255
 20
286.043074112
 30
0.0
 11
562.5422322255
 21
222.543074112
 31
0.0
  0
MTEXT
  5
2EA
330
2E2
100
AcDbEntity
  8
DIM
100
AcDbMText
 10
554.8682511282
 20
247.7721979167
 30
0.0
 40
5.953125
 41
0.0
 71
     1
 72
     1
  1
63.5
  7
SLDTEXTSTYLE1
 11
-7.044195017643634E-15
 21
1.0
 31
0.0
 73
     1
 44
1.0
  0
ENDBLK
  5
2E4
330
2E2
100
AcDbEntity
  8
0
100
AcDbBlockEnd
  0
BLOCK
  5
2ED
330
2EC
100
AcDbEntity
  8
0
100
AcDbBlockBegin
  2
_D_13
 70
     0
 10
0.0
 20
0.0
 30
0.0
  3
_D_13
  1

  0
SOLID
  5
2EF
330
2EC
100
AcDbEntity
  8
DIM
100
AcDbTrace
 10
562.5422322255
 20
286.043074112
 30
0.0
 11
563.1672322255
 21
291.043074112
 31
0.0
 12
561.9172322255
 22
291.043074112
 32
0.0
 13
561.9172322255
 23
291.043074112
 33
0.0
  0
SOLID
  5
2F0
330
2EC
100
AcDbEntity
  8
DIM
100
AcDbTrace
 10
562.5422322255
 20
311.443074112
 30
0.0
 11
561.9172322255
 21
306.443074112
 31
0.0
 12
563.1672322255
 22
306.443074112
 32
0.0
 13
563.1672322255
 23
306.443074112
 33
0.0
  0
LINE
  5
2F1
330
2EC
100
AcDbEntity
  8
DIM
100
AcDbLine
 10
582.3672322255
 20
286.043074112
 30
0.0
 11
560.0422322255
 21
286.043074112
 31
0.0
  0
LINE
  5
2F2
330
2EC
100
AcDbEntity
  8
DIM
100
AcDbLine
 10
582.3672322255
 20
311.443074112
 30
0.0
 11
560.0422322255
 21
311.443074112
 31
0.0
  0
LINE
  5
2F3
330
2EC
100
AcDbEntity
  8
DIM
100
AcDbLine
 10
562.5422322255
 20
286.043074112
 30
0.0
 11
562.5422322255
 21
311.443074112
 31
0.0
  0
MTEXT
  5
2F4
330
2EC
100
AcDbEntity
  8
DIM
100
AcDbMText
 10
554.8682511282
 20
292.2221979167
 30
0.0
 40
5.953125
 41
0.0
 71
     1
 72
     1
  1
25.4
  7
SLDTEXTSTYLE1
 11
6.123233995736766E-17
 21
1.0
 31
0.0
 73
     1
 44
1.0
  0
ENDBLK
  5
2EE
330
2EC
100
AcDbEntity
  8
0
100
AcDbBlockEnd
  0
BLOCK
  5
2F7
330
2F6
100
AcDbEntity
  8
0
100
AcDbBlockBegin
  2
_D_14
 70
     0
 10
0.0
 20
0.0
 30
0.0
  3
_D_14
  1

  0
SOLID
  5
2F9
330
2F6
100
AcDbEntity
  8
DIM
100
AcDbTrace
 10
562.5422322255
 20
311.443074112
 30
0.0
 11
563.1672322255
 21
316.443074112
 31
0.0
 12
561.9172322255
 22
316.443074112
 32
0.0
 13
561.9172322255
 23
316.443074112
 33
0.0
  0
SOLID
  5
2FA
330
2F6
100
AcDbEntity
  8
DIM
100
AcDbTrace
 10
562.5422322255
 20
336.843074112
 30
0.0
 11
561.9172322255
 21
331.843074112
 31
0.0
 12
563.1672322255
 22
331.843074112
 32
0.0
 13
563.1672322255
 23
331.843074112
 33
0.0
  0
LINE
  5
2FB
330
2F6
100
AcDbEntity
  8
DIM
100
AcDbLine
 10
582.3672322255
 20
311.443074112
 30
0.0
 11
560.0422322255
 21
311.443074112
 31
0.0
  0
LINE
  5
2FC
330
2F6
100
AcDbEntity
  8
DIM
100
AcDbLine
 10
582.3672322255
 20
336.843074112
 30
0.0
 11
560.0422322255
 21
336.843074112
 31
0.0
  0
LINE
  5
2FD
330
2F6
100
AcDbEntity
  8
DIM
100
AcDbLine
 10
562.5422322255
 20
311.443074112
 30
0.0
 11
562.5422322255
 21
336.843074112
 31
0.0
  0
MTEXT
  5
2FE
330
2F6
100
AcDbEntity
  8
DIM
100
AcDbMText
 10
554.8682511282
 20
317.6221979167
 30
0.0
 40
5.953125
 41
0.0
 71
     1
 72
     1
  1
25.4
  7
SLDTEXTSTYLE1
 11
6.123233995736766E-17
 21
1.0
 31
0.0
 73
     1
 44
1.0
  0
ENDBLK
  5
2F8
330
2F6
100
AcDbEntity
  8
0
100
AcDbBlockEnd
  0
BLOCK
  5
300
330
2FF
100
AcDbEntity
  8
0
100
AcDbBlockBegin
  2
SW_NOTE_3
 70
     0
 10
0.0
 20
0.0
 30
0.0
  3
SW_NOTE_3
  1

  0
LINE
  5
302
330
2FF
100
AcDbEntity
  8
DIM
 62
     0
100
AcDbLine
 10
31.3727906841
 20
0.0
 30
0.0
 11
0.0
 21
0.0
 31
0.0
  0
MTEXT
  5
303
330
2FF
100
AcDbEntity
  8
DIM
 62
     0
100
AcDbMText
 10
1.058659939
 20
17.871820467
 30
0.0
 40
5.953125
 41
0.0
 71
     1
 72
     1
  1
4 HOLES,
  7
SLDTEXTSTYLE1
 73
     1
 44
1.0
  0
MTEXT
  5
304
330
2FF
100
AcDbEntity
  8
DIM
 62
     0
100
AcDbMText
 10
1.058659939
 20
7.4343207352
 30
0.0
 40
5.953125
 41
0.0
 71
     1
 72
     1
  1
1/4"-20
  7
SLDTEXTSTYLE1
 73
     1
 44
1.0
  0
ENDBLK
  5
301
330
2FF
100
AcDbEntity
  8
0
100
AcDbBlockEnd
  0
BLOCK
  5
308
330
307
100
AcDbEntity
  8
0
100
AcDbBlockBegin
  2
SW_NOTE_4
 70
     0
 10
0.0
 20
0.0
 30
0.0
  3
SW_NOTE_4
  1

  0
LINE
  5
30A
330
307
100
AcDbEntity
  8
DIM
 62
     0
100
AcDbLine
 10
-39.3591541862
 20
0.0
 30
0.0
 11
0.0
 21
0.0
 31
0.0
  0
MTEXT
  5
30B
330
307
100
AcDbEntity
  8
DIM
 62
     0
100
AcDbMText
 10
-40.4325014859
 20
18.3053965772
 30
0.0
 40
5.953125
 41
0.0
 71
     1
 72
     1
  1
3 HOLES,
  7
SLDTEXTSTYLE1
 73
     1
 44
1.0
  0
MTEXT
  5
30C
330
307
100
AcDbEntity
  8
DIM
 62
     0
100
AcDbMText
 10
-40.4325014859
 20
7.8678968454
 30
0.0
 40
5.953125
 41
0.0
 71
     1
 72
     1
  1
1/4"-20 CLR
  7
SLDTEXTSTYLE1
 73
     1
 44
1.0
  0
ENDBLK
  5
309
330
307
100
AcDbEntity
  8
0
100
AcDbBlockEnd
  0
BLOCK
  5
310
330
30F
100
AcDbEntity
  8
0
100
AcDbBlockBegin
  2
SW_CENTERMARKSYMBOL_1
 70
     0
 10
0.0
 20
0.0
 30
0.0
  3
SW_CENTERMARKSYMBOL_1
  1

  0
LINE
  5
312
330
30F
100
AcDbEntity
  8
DIM
 62
     0
100
AcDbLine
 10
0.0
 20
0.0
 30
0.0
 11
0.0
 21
1.0
 31
0.0
  0
LINE
  5
313
330
30F
100
AcDbEntity
  8
DIM
 62
     0
100
AcDbLine
 10
0.0
 20
0.0
 30
0.0
 11
-1.0
 21
0.0
 31
0.0
  0
LINE
  5
314
330
30F
100
AcDbEntity
  8
DIM
 62
     0
100
AcDbLine
 10
0.0
 20
0.0
 30
0.0
 11
0.0
 21
-1.0
 31
0.0
  0
LINE
  5
315
330
30F
100
AcDbEntity
  8
DIM
 62
     0
100
AcDbLine
 10
0.0
 20
0.0
 30
0.0
 11
1.0
 21
0.0
 31
0.0
  0
LINE
  5
316
330
30F
100
AcDbEntity
  8
DIM
 62
     0
100
AcDbLine
 10
0.0
 20
2.0
 30
0.0
 11
0.0
 21
3.5527
 31
0.0
  0
LINE
  5
317
330
30F
100
AcDbEntity
  8
DIM
 62
     0
100
AcDbLine
 10
-2.0
 20
0.0
 30
0.0
 11
-3.5527
 21
0.0
 31
0.0
  0
LINE
  5
318
330
30F
100
AcDbEntity
  8
DIM
 62
     0
100
AcDbLine
 10
0.0
 20
-2.0
 30
0.0
 11
0.0
 21
-3.5527
 31
0.0
  0
LINE
  5
319
330
30F
100
AcDbEntity
  8
DIM
 62
     0
100
AcDbLine
 10
2.0
 20
0.0
 30
0.0
 11
3.5527
 21
0.0
 31
0.0
  0
ENDBLK
  5
311
330
30F
100
AcDbEntity
  8
0
100
AcDbBlockEnd
  0
BLOCK
  5
31C
330
31B
100
AcDbEntity
  8
0
100
AcDbBlockBegin
  2
SW_CENTERMARKSYMBOL_2
 70
     0
 10
0.0
 20
0.0
 30
0.0
  3
SW_CENTERMARKSYMBOL_2
  1

  0
LINE
  5
31E
330
31B
100
AcDbEntity
  8
DIM
 62
     0
100
AcDbLine
 10
0.0
 20
0.0
 30
0.0
 11
0.0
 21
1.0
 31
0.0
  0
LINE
  5
31F
330
31B
100
AcDbEntity
  8
DIM
 62
     0
100
AcDbLine
 10
0.0
 20
0.0
 30
0.0
 11
-1.0
 21
0.0
 31
0.0
  0
LINE
  5
320
330
31B
100
AcDbEntity
  8
DIM
 62
     0
100
AcDbLine
 10
0.0
 20
0.0
 30
0.0
 11
0.0
 21
-1.0
 31
0.0
  0
LINE
  5
321
330
31B
100
AcDbEntity
  8
DIM
 62
     0
100
AcDbLine
 10
0.0
 20
0.0
 30
0.0
 11
1.0
 21
0.0
 31
0.0
  0
LINE
  5
322
330
31B
100
AcDbEntity
  8
DIM
 62
     0
100
AcDbLine
 10
0.0
 20
2.0
 30
0.0
 11
0.0
 21
4.175
 31
0.0
  0
LINE
  5
323
330
31B
100
AcDbEntity
  8
DIM
 62
     0
100
AcDbLine
 10
-2.0
 20
0.0
 30
0.0
 11
-4.175
 21
0.0
 31
0.0
  0
LINE
  5
324
330
31B
100
AcDbEntity
  8
DIM
 62
     0
100
AcDbLine
 10
0.0
 20
-2.0
 30
0.0
 11
0.0
 21
-4.175
 31
0.0
  0
LINE
  5
325
330
31B
100
AcDbEntity
  8
DIM
 62
     0
100
AcDbLine
 10
2.0
 20
0.0
 30
0.0
 11
4.175
 21
0.0
 31
0.0
  0
ENDBLK
  5
31D
330
31B
100
AcDbEntity
  8
0
100
AcDbBlockEnd
  0
BLOCK
  5
328
330
327
100
AcDbEntity
  8
0
100
AcDbBlockBegin
  2
SW_CENTERMARKSYMBOL_3
 70
     0
 10
0.0
 20
0.0
 30
0.0
  3
SW_CENTERMARKSYMBOL_3
  1

  0
LINE
  5
32A
330
327
100
AcDbEntity
  8
DIM
 62
     0
100
AcDbLine
 10
0.0
 20
0.0
 30
0.0
 11
0.0
 21
1.0
 31
0.0
  0
LINE
  5
32B
330
327
100
AcDbEntity
  8
DIM
 62
     0
100
AcDbLine
 10
0.0
 20
0.0
 30
0.0
 11
-1.0
 21
0.0
 31
0.0
  0
LINE
  5
32C
330
327
100
AcDbEntity
  8
DIM
 62
     0
100
AcDbLine
 10
0.0
 20
0.0
 30
0.0
 11
0.0
 21
-1.0
 31
0.0
  0
LINE
  5
32D
330
327
100
AcDbEntity
  8
DIM
 62
     0
100
AcDbLine
 10
0.0
 20
0.0
 30
0.0
 11
1.0
 21
0.0
 31
0.0
  0
LINE
  5
32E
330
327
100
AcDbEntity
  8
DIM
 62
     0
100
AcDbLine
 10
0.0
 20
2.0
 30
0.0
 11
0.0
 21
3.5527
 31
0.0
  0
LINE
  5
32F
330
327
100
AcDbEntity
  8
DIM
 62
     0
100
AcDbLine
 10
-2.0
 20
0.0
 30
0.0
 11
-3.5527
 21
0.0
 31
0.0
  0
LINE
  5
330
330
327
100
AcDbEntity
  8
DIM
 62
     0
100
AcDbLine
 10
0.0
 20
-2.0
 30
0.0
 11
0.0
 21
-3.5527
 31
0.0
  0
LINE
  5
331
330
327
100
AcDbEntity
  8
DIM
 62
     0
100
AcDbLine
 10
2.0
 20
0.0
 30
0.0
 11
3.5527
 21
0.0
 31
0.0
  0
ENDBLK
  5
329
330
327
100
AcDbEntity
  8
0
100
AcDbBlockEnd
  0
BLOCK
  5
334
330
333
100
AcDbEntity
  8
0
100
AcDbBlockBegin
  2
SW_CENTERMARKSYMBOL_4
 70
     0
 10
0.0
 20
0.0
 30
0.0
  3
SW_CENTERMARKSYMBOL_4
  1

  0
LINE
  5
336
330
333
100
AcDbEntity
  8
DIM
 62
     0
100
AcDbLine
 10
0.0
 20
0.0
 30
0.0
 11
0.0
 21
1.0
 31
0.0
  0
LINE
  5
337
330
333
100
AcDbEntity
  8
DIM
 62
     0
100
AcDbLine
 10
0.0
 20
0.0
 30
0.0
 11
-1.0
 21
0.0
 31
0.0
  0
LINE
  5
338
330
333
100
AcDbEntity
  8
DIM
 62
     0
100
AcDbLine
 10
0.0
 20
0.0
 30
0.0
 11
0.0
 21
-1.0
 31
0.0
  0
LINE
  5
339
330
333
100
AcDbEntity
  8
DIM
 62
     0
100
AcDbLine
 10
0.0
 20
0.0
 30
0.0
 11
1.0
 21
0.0
 31
0.0
  0
LINE
  5
33A
330
333
100
AcDbEntity
  8
DIM
 62
     0
100
AcDbLine
 10
0.0
 20
2.0
 30
0.0
 11
0.0
 21
4.175
 31
0.0
  0
LINE
  5
33B
330
333
100
AcDbEntity
  8
DIM
 62
     0
100
AcDbLine
 10
-2.0
 20
0.0
 30
0.0
 11
-4.175
 21
0.0
 31
0.0
  0
LINE
  5
33C
330
333
100
AcDbEntity
  8
DIM
 62
     0
100
AcDbLine
 10
0.0
 20
-2.0
 30
0.0
 11
0.0
 21
-4.175
 31
0.0
  0
LINE
  5
33D
330
333
100
AcDbEntity
  8
DIM
 62
     0
100
AcDbLine
 10
2.0
 20
0.0
 30
0.0
 11
4.175
 21
0.0
 31
0.0
  0
ENDBLK
  5
335
330
333
100
AcDbEntity
  8
0
100
AcDbBlockEnd
  0
BLOCK
  5
340
330
33F
100
AcDbEntity
  8
0
100
AcDbBlockBegin
  2
SW_CENTERMARKSYMBOL_5
 70
     0
 10
0.0
 20
0.0
 30
0.0
  3
SW_CENTERMARKSYMBOL_5
  1

  0
LINE
  5
342
330
33F
100
AcDbEntity
  8
DIM
 62
     0
100
AcDbLine
 10
0.0
 20
0.0
 30
0.0
 11
0.0
 21
1.0
 31
0.0
  0
LINE
  5
343
330
33F
100
AcDbEntity
  8
DIM
 62
     0
100
AcDbLine
 10
0.0
 20
0.0
 30
0.0
 11
-1.0
 21
0.0
 31
0.0
  0
LINE
  5
344
330
33F
100
AcDbEntity
  8
DIM
 62
     0
100
AcDbLine
 10
0.0
 20
0.0
 30
0.0
 11
0.0
 21
-1.0
 31
0.0
  0
LINE
  5
345
330
33F
100
AcDbEntity
  8
DIM
 62
     0
100
AcDbLine
 10
0.0
 20
0.0
 30
0.0
 11
1.0
 21
0.0
 31
0.0
  0
LINE
  5
346
330
33F
100
AcDbEntity
  8
DIM
 62
     0
100
AcDbLine
 10
0.0
 20
2.0
 30
0.0
 11
0.0
 21
3.5527
 31
0.0
  0
LINE
  5
347
330
33F
100
AcDbEntity
  8
DIM
 62
     0
100
AcDbLine
 10
-2.0
 20
0.0
 30
0.0
 11
-3.5527
 21
0.0
 31
0.0
  0
LINE
  5
348
330
33F
100
AcDbEntity
  8
DIM
 62
     0
100
AcDbLine
 10
0.0
 20
-2.0
 30
0.0
 11
0.0
 21
-3.5527
 31
0.0
  0
LINE
  5
349
330
33F
100
AcDbEntity
  8
DIM
 62
     0
100
AcDbLine
 10
2.0
 20
0.0
 30
0.0
 11
3.5527
 21
0.0
 31
0.0
  0
ENDBLK
  5
341
330
33F
100
AcDbEntity
  8
0
100
AcDbBlockEnd
  0
BLOCK
  5
34C
330
34B
100
AcDbEntity
  8
0
100
AcDbBlockBegin
  2
SW_CENTERMARKSYMBOL_6
 70
     0
 10
0.0
 20
0.0
 30
0.0
  3
SW_CENTERMARKSYMBOL_6
  1

  0
LINE
  5
34E
330
34B
100
AcDbEntity
  8
DIM
 62
     0
100
AcDbLine
 10
0.0
 20
0.0
 30
0.0
 11
0.0
 21
1.0
 31
0.0
  0
LINE
  5
34F
330
34B
100
AcDbEntity
  8
DIM
 62
     0
100
AcDbLine
 10
0.0
 20
0.0
 30
0.0
 11
-1.0
 21
0.0
 31
0.0
  0
LINE
  5
350
330
34B
100
AcDbEntity
  8
DIM
 62
     0
100
AcDbLine
 10
0.0
 20
0.0
 30
0.0
 11
0.0
 21
-1.0
 31
0.0
  0
LINE
  5
351
330
34B
100
AcDbEntity
  8
DIM
 62
     0
100
AcDbLine
 10
0.0
 20
0.0
 30
0.0
 11
1.0
 21
0.0
 31
0.0
  0
LINE
  5
352
330
34B
100
AcDbEntity
  8
DIM
 62
     0
100
AcDbLine
 10
0.0
 20
2.0
 30
0.0
 11
0.0
 21
4.175
 31
0.0
  0
LINE
  5
353
330
34B
100
AcDbEntity
  8
DIM
 62
     0
100
AcDbLine
 10
-2.0
 20
0.0
 30
0.0
 11
-4.175
 21
0.0
 31
0.0
  0
LINE
  5
354
330
34B
100
AcDbEntity
  8
DIM
 62
     0
100
AcDbLine
 10
0.0
 20
-2.0
 30
0.0
 11
0.0
 21
-4.175
 31
0.0
  0
LINE
  5
355
330
34B
100
AcDbEntity
  8
DIM
 62
     0
100
AcDbLine
 10
2.0
 20
0.0
 30
0.0
 11
4.175
 21
0.0
 31
0.0
  0
ENDBLK
  5
34D
330
34B
100
AcDbEntity
  8
0
100
AcDbBlockEnd
  0
BLOCK
  5
358
330
357
100
AcDbEntity
  8
0
100
AcDbBlockBegin
  2
SW_CENTERMARKSYMBOL_7
 70
     0
 10
0.0
 20
0.0
 30
0.0
  3
SW_CENTERMARKSYMBOL_7
  1

  0
LINE
  5
35A
330
357
100
AcDbEntity
  8
DIM
 62
     0
100
AcDbLine
 10
0.0
 20
0.0
 30
0.0
 11
0.0
 21
1.0
 31
0.0
  0
LINE
  5
35B
330
357
100
AcDbEntity
  8
DIM
 62
     0
100
AcDbLine
 10
0.0
 20
0.0
 30
0.0
 11
-1.0
 21
0.0
 31
0.0
  0
LINE
  5
35C
330
357
100
AcDbEntity
  8
DIM
 62
     0
100
AcDbLine
 10
0.0
 20
0.0
 30
0.0
 11
0.0
 21
-1.0
 31
0.0
  0
LINE
  5
35D
330
357
100
AcDbEntity
  8
DIM
 62
     0
100
AcDbLine
 10
0.0
 20
0.0
 30
0.0
 11
1.0
 21
0.0
 31
0.0
  0
LINE
  5
35E
330
357
100
AcDbEntity
  8
DIM
 62
     0
100
AcDbLine
 10
0.0
 20
2.0
 30
0.0
 11
0.0
 21
3.5527
 31
0.0
  0
LINE
  5
35F
330
357
100
AcDbEntity
  8
DIM
 62
     0
100
AcDbLine
 10
-2.0
 20
0.0
 30
0.0
 11
-3.5527
 21
0.0
 31
0.0
  0
LINE
  5
360
330
357
100
AcDbEntity
  8
DIM
 62
     0
100
AcDbLine
 10
0.0
 20
-2.0
 30
0.0
 11
0.0
 21
-3.5527
 31
0.0
  0
LINE
  5
361
330
357
100
AcDbEntity
  8
DIM
 62
     0
100
AcDbLine
 10
2.0
 20
0.0
 30
0.0
 11
3.5527
 21
0.0
 31
0.0
  0
ENDBLK
  5
359
330
357
100
AcDbEntity
  8
0
100
AcDbBlockEnd
  0
BLOCK
  5
38E
330
38D
100
AcDbEntity
  8
0
100
AcDbBlockBegin
  2
_D_15
 70
     0
 10
0.0
 20
0.0
 30
0.0
  3
_D_15
  1

  0
SOLID
  5
390
330
38D
100
AcDbEntity
  8
DIM
100
AcDbTrace
 10
412.7524562297
 20
126.8471569619
 30
0.0
 11
417.7524562297
 21
126.2221569619
 31
0.0
 12
417.7524562297
 22
127.4721569619
 32
0.0
 13
417.7524562297
 23
127.4721569619
 33
0.0
  0
SOLID
  5
391
330
38D
100
AcDbEntity
  8
DIM
100
AcDbTrace
 10
496.8524562297
 20
126.8471569619
 30
0.0
 11
491.8524562297
 21
127.4721569619
 31
0.0
 12
491.8524562297
 22
126.2221569619
 32
0.0
 13
491.8524562297
 23
126.2221569619
 33
0.0
  0
LINE
  5
392
330
38D
100
AcDbEntity
  8
DIM
100
AcDbLine
 10
412.7524562297
 20
147.2944569619
 30
0.0
 11
412.7524562297
 21
124.3471569619
 31
0.0
  0
LINE
  5
393
330
38D
100
AcDbEntity
  8
DIM
100
AcDbLine
 10
496.8524562297
 20
142.8471569619
 30
0.0
 11
496.8524562297
 21
124.3471569619
 31
0.0
  0
LINE
  5
394
330
38D
100
AcDbEntity
  8
DIM
100
AcDbLine
 10
412.7524562297
 20
126.8471569619
 30
0.0
 11
496.8524562297
 21
126.8471569619
 31
0.0
  0
MTEXT
  5
395
330
38D
100
AcDbEntity
  8
DIM
100
AcDbMText
 10
448.2815800344
 20
134.5211380591
 30
0.0
 40
5.953125
 41
0.0
 71
     1
 72
     1
  1
84.1
  7
SLDTEXTSTYLE1
 73
     1
 44
1.0
  0
ENDBLK
  5
38F
330
38D
100
AcDbEntity
  8
0
100
AcDbBlockEnd
  0
BLOCK
  5
398
330
397
100
AcDbEntity
  8
0
100
AcDbBlockBegin
  2
_D_16
 70
     0
 10
0.0
 20
0.0
 30
0.0
  3
_D_16
  1

  0
SOLID
  5
39A
330
397
100
AcDbEntity
  8
DIM
100
AcDbTrace
 10
412.7524562297
 20
126.8471569619
 30
0.0
 11
407.7524562297
 21
127.4721569619
 31
0.0
 12
407.7524562297
 22
126.2221569619
 32
0.0
 13
407.7524562297
 23
126.2221569619
 33
0.0
  0
SOLID
  5
39B
330
397
100
AcDbEntity
  8
DIM
100
AcDbTrace
 10
336.5524562297
 20
126.8471569619
 30
0.0
 11
341.5524562297
 21
126.2221569619
 31
0.0
 12
341.5524562297
 22
127.4721569619
 32
0.0
 13
341.5524562297
 23
127.4721569619
 33
0.0
  0
LINE
  5
39C
330
397
100
AcDbEntity
  8
DIM
100
AcDbLine
 10
412.7524562297
 20
147.2944569619
 30
0.0
 11
412.7524562297
 21
124.3471569619
 31
0.0
  0
LINE
  5
39D
330
397
100
AcDbEntity
  8
DIM
100
AcDbLine
 10
336.5524562297
 20
147.2944569619
 30
0.0
 11
336.5524562297
 21
124.3471569619
 31
0.0
  0
LINE
  5
39E
330
397
100
AcDbEntity
  8
DIM
100
AcDbLine
 10
412.7524562297
 20
126.8471569619
 30
0.0
 11
336.5524562297
 21
126.8471569619
 31
0.0
  0
MTEXT
  5
39F
330
397
100
AcDbEntity
  8
DIM
100
AcDbMText
 10
368.1315800344
 20
134.5211380592
 30
0.0
 40
5.953125
 41
0.0
 71
     1
 72
     1
  1
76.2
  7
SLDTEXTSTYLE1
 73
     1
 44
1.0
  0
ENDBLK
  5
399
330
397
100
AcDbEntity
  8
0
100
AcDbBlockEnd
  0
BLOCK
  5
3A2
330
3A1
100
AcDbEntity
  8
0
100
AcDbBlockBegin
  2
_D_17
 70
     0
 10
0.0
 20
0.0
 30
0.0
  3
_D_17
  1

  0
SOLID
  5
3A4
330
3A1
100
AcDbEntity
  8
DIM
100
AcDbTrace
 10
336.5524562297
 20
126.8471569619
 30
0.0
 11
331.5524562297
 21
127.4721569619
 31
0.0
 12
331.5524562297
 22
126.2221569619
 32
0.0
 13
331.5524562297
 23
126.2221569619
 33
0.0
  0
SOLID
  5
3A5
330
3A1
100
AcDbEntity
  8
DIM
100
AcDbTrace
 10
285.7524562297
 20
126.8471569619
 30
0.0
 11
290.7524562297
 21
126.2221569619
 31
0.0
 12
290.7524562297
 22
127.4721569619
 32
0.0
 13
290.7524562297
 23
127.4721569619
 33
0.0
  0
LINE
  5
3A6
330
3A1
100
AcDbEntity
  8
DIM
100
AcDbLine
 10
336.5524562297
 20
147.2944569619
 30
0.0
 11
336.5524562297
 21
124.3471569619
 31
0.0
  0
LINE
  5
3A7
330
3A1
100
AcDbEntity
  8
DIM
100
AcDbLine
 10
285.7524562297
 20
147.2944569619
 30
0.0
 11
285.7524562297
 21
124.3471569619
 31
0.0
  0
LINE
  5
3A8
330
3A1
100
AcDbEntity
  8
DIM
100
AcDbLine
 10
336.5524562297
 20
126.8471569619
 30
0.0
 11
285.7524562297
 21
126.8471569619
 31
0.0
  0
MTEXT
  5
3A9
330
3A1
100
AcDbEntity
  8
DIM
100
AcDbMText
 10
304.6315800344
 20
134.5211380592
 30
0.0
 40
5.953125
 41
0.0
 71
     1
 72
     1
  1
50.8
  7
SLDTEXTSTYLE1
 73
     1
 44
1.0
  0
ENDBLK
  5
3A3
330
3A1
100
AcDbEntity
  8
0
100
AcDbBlockEnd
  0
BLOCK
  5
3AC
330
3AB
100
AcDbEntity
  8
0
100
AcDbBlockBegin
  2
_D_18
 70
     0
 10
0.0
 20
0.0
 30
0.0
  3
_D_18
  1

  0
SOLID
  5
3AE
330
3AB
100
AcDbEntity
  8
DIM
100
AcDbTrace
 10
285.7524562297
 20
126.8471569619
 30
0.0
 11
280.7524562297
 21
127.4721569619
 31
0.0
 12
280.7524562297
 22
126.2221569619
 32
0.0
 13
280.7524562297
 23
126.2221569619
 33
0.0
  0
SOLID
  5
3AF
330
3AB
100
AcDbEntity
  8
DIM
100
AcDbTrace
 10
209.5524562297
 20
126.8471569619
 30
0.0
 11
214.5524562297
 21
126.2221569619
 31
0.0
 12
214.5524562297
 22
127.4721569619
 32
0.0
 13
214.5524562297
 23
127.4721569619
 33
0.0
  0
LINE
  5
3B0
330
3AB
100
AcDbEntity
  8
DIM
100
AcDbLine
 10
285.7524562297
 20
147.2944569619
 30
0.0
 11
285.7524562297
 21
124.3471569619
 31
0.0
  0
LINE
  5
3B1
330
3AB
100
AcDbEntity
  8
DIM
100
AcDbLine
 10
209.5524562297
 20
147.2944569619
 30
0.0
 11
209.5524562297
 21
124.3471569619
 31
0.0
  0
LINE
  5
3B2
330
3AB
100
AcDbEntity
  8
DIM
100
AcDbLine
 10
285.7524562297
 20
126.8471569619
 30
0.0
 11
209.5524562297
 21
126.8471569619
 31
0.0
  0
MTEXT
  5
3B3
330
3AB
100
AcDbEntity
  8
DIM
100
AcDbMText
 10
241.1315800344
 20
134.5211380592
 30
0.0
 40
5.953125
 41
0.0
 71
     1
 72
     1
  1
76.2
  7
SLDTEXTSTYLE1
 73
     1
 44
1.0
  0
ENDBLK
  5
3AD
330
3AB
100
AcDbEntity
  8
0
100
AcDbBlockEnd
  0
BLOCK
  5
3B6
330
3B5
100
AcDbEntity
  8
0
100
AcDbBlockBegin
  2
_D_19
 70
     0
 10
0.0
 20
0.0
 30
0.0
  3
_D_19
  1

  0
SOLID
  5
3B8
330
3B5
100
AcDbEntity
  8
DIM
100
AcDbTrace
 10
209.5524562297
 20
126.8471569619
 30
0.0
 11
204.5524562297
 21
127.4721569619
 31
0.0
 12
204.5524562297
 22
126.2221569619
 32
0.0
 13
204.5524562297
 23
126.2221569619
 33
0.0
  0
SOLID
  5
3B9
330
3B5
100
AcDbEntity
  8
DIM
100
AcDbTrace
 10
184.1524562297
 20
126.8471569619
 30
0.0
 11
189.1524562297
 21
126.2221569619
 31
0.0
 12
189.1524562297
 22
127.4721569619
 32
0.0
 13
189.1524562297
 23
127.4721569619
 33
0.0
  0
LINE
  5
3BA
330
3B5
100
AcDbEntity
  8
DIM
100
AcDbLine
 10
209.5524562297
 20
147.2944569619
 30
0.0
 11
209.5524562297
 21
124.3471569619
 31
0.0
  0
LINE
  5
3BB
330
3B5
100
AcDbEntity
  8
DIM
100
AcDbLine
 10
184.1524562297
 20
147.2944569619
 30
0.0
 11
184.1524562297
 21
124.3471569619
 31
0.0
  0
LINE
  5
3BC
330
3B5
100
AcDbEntity
  8
DIM
100
AcDbLine
 10
209.5524562297
 20
126.8471569619
 30
0.0
 11
184.1524562297
 21
126.8471569619
 31
0.0
  0
MTEXT
  5
3BD
330
3B5
100
AcDbEntity
  8
DIM
100
AcDbMText
 10
190.3315800344
 20
134.5211380592
 30
0.0
 40
5.953125
 41
0.0
 71
     1
 72
     1
  1
25.4
  7
SLDTEXTSTYLE1
 73
     1
 44
1.0
  0
ENDBLK
  5
3B7
330
3B5
100
AcDbEntity
  8
0
100
AcDbBlockEnd
  0
BLOCK
  5
3C0
330
3BF
100
AcDbEntity
  8
0
100
AcDbBlockBegin
  2
_D_20
 70
     0
 10
0.0
 20
0.0
 30
0.0
  3
_D_20
  1

  0
SOLID
  5
3C2
330
3BF
100
AcDbEntity
  8
DIM
100
AcDbTrace
 10
405.0524562297
 20
179.8471569619
 30
0.0
 11
410.0524562297
 21
179.2221569619
 31
0.0
 12
410.0524562297
 22
180.4721569619
 32
0.0
 13
410.0524562297
 23
180.4721569619
 33
0.0
  0
SOLID
  5
3C3
330
3BF
100
AcDbEntity
  8
DIM
100
AcDbTrace
 10
496.8524562297
 20
179.8471569619
 30
0.0
 11
491.8524562297
 21
180.4721569619
 31
0.0
 12
491.8524562297
 22
179.2221569619
 32
0.0
 13
491.8524562297
 23
179.2221569619
 33
0.0
  0
LINE
  5
3C4
330
3BF
100
AcDbEntity
  8
DIM
100
AcDbLine
 10
405.0524562297
 20
155.8471569619
 30
0.0
 11
405.0524562297
 21
182.3471569619
 31
0.0
  0
LINE
  5
3C5
330
3BF
100
AcDbEntity
  8
DIM
100
AcDbLine
 10
496.8524562297
 20
163.8471569619
 30
0.0
 11
496.8524562297
 21
182.3471569619
 31
0.0
  0
LINE
  5
3C6
330
3BF
100
AcDbEntity
  8
DIM
100
AcDbLine
 10
405.0524562297
 20
179.8471569619
 30
0.0
 11
496.8524562297
 21
179.8471569619
 31
0.0
  0
MTEXT
  5
3C7
330
3BF
100
AcDbEntity
  8
DIM
100
AcDbMText
 10
444.4315800344
 20
187.5211380591
 30
0.0
 40
5.953125
 41
0.0
 71
     1
 72
     1
  1
91.8
  7
SLDTEXTSTYLE1
 73
     1
 44
1.0
  0
ENDBLK
  5
3C1
330
3BF
100
AcDbEntity
  8
0
100
AcDbBlockEnd
  0
BLOCK
  5
3CA
330
3C9
100
AcDbEntity
  8
0
100
AcDbBlockBegin
  2
_D_21
 70
     0
 10
0.0
 20
0.0
 30
0.0
  3
_D_21
  1

  0
SOLID
  5
3CC
330
3C9
100
AcDbEntity
  8
DIM
100
AcDbTrace
 10
405.0524562297
 20
179.8471569619
 30
0.0
 11
400.0524562297
 21
180.4721569619
 31
0.0
 12
400.0524562297
 22
179.2221569619
 32
0.0
 13
400.0524562297
 23
179.2221569619
 33
0.0
  0
SOLID
  5
3CD
330
3C9
100
AcDbEntity
  8
DIM
100
AcDbTrace
 10
369.6524562297
 20
179.8471569619
 30
0.0
 11
374.6524562297
 21
179.2221569619
 31
0.0
 12
374.6524562297
 22
180.4721569619
 32
0.0
 13
374.6524562297
 23
180.4721569619
 33
0.0
  0
LINE
  5
3CE
330
3C9
100
AcDbEntity
  8
DIM
100
AcDbLine
 10
405.0524562297
 20
155.8471569619
 30
0.0
 11
405.0524562297
 21
182.3471569619
 31
0.0
  0
LINE
  5
3CF
330
3C9
100
AcDbEntity
  8
DIM
100
AcDbLine
 10
369.6524562297
 20
160.0471569619
 30
0.0
 11
369.6524562297
 21
182.3471569619
 31
0.0
  0
LINE
  5
3D0
330
3C9
100
AcDbEntity
  8
DIM
100
AcDbLine
 10
405.0524562297
 20
179.8471569619
 30
0.0
 11
369.6524562297
 21
179.8471569619
 31
0.0
  0
MTEXT
  5
3D1
330
3C9
100
AcDbEntity
  8
DIM
100
AcDbMText
 10
380.8315800344
 20
187.5211380592
 30
0.0
 40
5.953125
 41
0.0
 71
     1
 72
     1
  1
35.4
  7
SLDTEXTSTYLE1
 73
     1
 44
1.0
  0
ENDBLK
  5
3CB
330
3C9
100
AcDbEntity
  8
0
100
AcDbBlockEnd
  0
BLOCK
  5
3D4
330
3D3
100
AcDbEntity
  8
0
100
AcDbBlockBegin
  2
_D_22
 70
     0
 10
0.0
 20
0.0
 30
0.0
  3
_D_22
  1

  0
SOLID
  5
3D6
330
3D3
100
AcDbEntity
  8
DIM
100
AcDbTrace
 10
369.6524562297
 20
179.8471569619
 30
0.0
 11
364.6524562297
 21
180.4721569619
 31
0.0
 12
364.6524562297
 22
179.2221569619
 32
0.0
 13
364.6524562297
 23
179.2221569619
 33
0.0
  0
SOLID
  5
3D7
330
3D3
100
AcDbEntity
  8
DIM
100
AcDbTrace
 10
328.8524562297
 20
179.8471569619
 30
0.0
 11
333.8524562297
 21
179.2221569619
 31
0.0
 12
333.8524562297
 22
180.4721569619
 32
0.0
 13
333.8524562297
 23
180.4721569619
 33
0.0
  0
LINE
  5
3D8
330
3D3
100
AcDbEntity
  8
DIM
100
AcDbLine
 10
369.6524562297
 20
160.0471569619
 30
0.0
 11
369.6524562297
 21
182.3471569619
 31
0.0
  0
LINE
  5
3D9
330
3D3
100
AcDbEntity
  8
DIM
100
AcDbLine
 10
328.8524562297
 20
155.8471569619
 30
0.0
 11
328.8524562297
 21
182.3471569619
 31
0.0
  0
LINE
  5
3DA
330
3D3
100
AcDbEntity
  8
DIM
100
AcDbLine
 10
369.6524562297
 20
179.8471569619
 30
0.0
 11
328.8524562297
 21
179.8471569619
 31
0.0
  0
MTEXT
  5
3DB
330
3D3
100
AcDbEntity
  8
DIM
100
AcDbMText
 10
342.7315800344
 20
187.5211380592
 30
0.0
 40
5.953125
 41
0.0
 71
     1
 72
     1
  1
40.8
  7
SLDTEXTSTYLE1
 73
     1
 44
1.0
  0
ENDBLK
  5
3D5
330
3D3
100
AcDbEntity
  8
0
100
AcDbBlockEnd
  0
BLOCK
  5
3DE
330
3DD
100
AcDbEntity
  8
0
100
AcDbBlockBegin
  2
_D_23
 70
     0
 10
0.0
 20
0.0
 30
0.0
  3
_D_23
  1

  0
SOLID
  5
3E0
330
3DD
100
AcDbEntity
  8
DIM
100
AcDbTrace
 10
328.8524562297
 20
179.8471569619
 30
0.0
 11
323.8524562297
 21
180.4721569619
 31
0.0
 12
323.8524562297
 22
179.2221569619
 32
0.0
 13
323.8524562297
 23
179.2221569619
 33
0.0
  0
SOLID
  5
3E1
330
3DD
100
AcDbEntity
  8
DIM
100
AcDbTrace
 10
293.4524562297
 20
179.8471569619
 30
0.0
 11
298.4524562297
 21
179.2221569619
 31
0.0
 12
298.4524562297
 22
180.4721569619
 32
0.0
 13
298.4524562297
 23
180.4721569619
 33
0.0
  0
LINE
  5
3E2
330
3DD
100
AcDbEntity
  8
DIM
100
AcDbLine
 10
328.8524562297
 20
155.8471569619
 30
0.0
 11
328.8524562297
 21
182.3471569619
 31
0.0
  0
LINE
  5
3E3
330
3DD
100
AcDbEntity
  8
DIM
100
AcDbLine
 10
293.4524562297
 20
160.0471569619
 30
0.0
 11
293.4524562297
 21
182.3471569619
 31
0.0
  0
LINE
  5
3E4
330
3DD
100
AcDbEntity
  8
DIM
100
AcDbLine
 10
328.8524562297
 20
179.8471569619
 30
0.0
 11
293.4524562297
 21
179.8471569619
 31
0.0
  0
MTEXT
  5
3E5
330
3DD
100
AcDbEntity
  8
DIM
100
AcDbMText
 10
304.6315800344
 20
187.5211380592
 30
0.0
 40
5.953125
 41
0.0
 71
     1
 72
     1
  1
35.4
  7
SLDTEXTSTYLE1
 73
     1
 44
1.0
  0
ENDBLK
  5
3DF
330
3DD
100
AcDbEntity
  8
0
100
AcDbBlockEnd
  0
BLOCK
  5
3E8
330
3E7
100
AcDbEntity
  8
0
100
AcDbBlockBegin
  2
_D_24
 70
     0
 10
0.0
 20
0.0
 30
0.0
  3
_D_24
  1

  0
SOLID
  5
3EA
330
3E7
100
AcDbEntity
  8
DIM
100
AcDbTrace
 10
293.4524562297
 20
179.8471569619
 30
0.0
 11
298.4524562297
 21
179.2221569619
 31
0.0
 12
298.4524562297
 22
180.4721569619
 32
0.0
 13
298.4524562297
 23
180.4721569619
 33
0.0
  0
SOLID
  5
3EB
330
3E7
100
AcDbEntity
  8
DIM
100
AcDbTrace
 10
278.0524562297
 20
179.8471569619
 30
0.0
 11
273.0524562297
 21
180.4721569619
 31
0.0
 12
273.0524562297
 22
179.2221569619
 32
0.0
 13
273.0524562297
 23
179.2221569619
 33
0.0
  0
LINE
  5
3EC
330
3E7
100
AcDbEntity
  8
DIM
100
AcDbLine
 10
293.4524562297
 20
160.0471569619
 30
0.0
 11
293.4524562297
 21
182.3471569619
 31
0.0
  0
LINE
  5
3ED
330
3E7
100
AcDbEntity
  8
DIM
100
AcDbLine
 10
278.0524562297
 20
155.8471569619
 30
0.0
 11
278.0524562297
 21
182.3471569619
 31
0.0
  0
LINE
  5
3EE
330
3E7
100
AcDbEntity
  8
DIM
100
AcDbLine
 10
293.4524562297
 20
179.8471569619
 30
0.0
 11
300.9524562297
 21
179.8471569619
 31
0.0
  0
LINE
  5
3EF
330
3E7
100
AcDbEntity
  8
DIM
100
AcDbLine
 10
293.4524562297
 20
179.8471569619
 30
0.0
 11
278.0524562297
 21
179.8471569619
 31
0.0
  0
LINE
  5
3F0
330
3E7
100
AcDbEntity
  8
DIM
100
AcDbLine
 10
278.0524562297
 20
179.8471569619
 30
0.0
 11
270.5524562297
 21
179.8471569619
 31
0.0
  0
MTEXT
  5
3F1
330
3E7
100
AcDbEntity
  8
DIM
100
AcDbMText
 10
279.2315800344
 20
187.5211380592
 30
0.0
 40
5.953125
 41
0.0
 71
     1
 72
     1
  1
15.4
  7
SLDTEXTSTYLE1
 73
     1
 44
1.0
  0
ENDBLK
  5
3E9
330
3E7
100
AcDbEntity
  8
0
100
AcDbBlockEnd
  0
BLOCK
  5
3F4
330
3F3
100
AcDbEntity
  8
0
100
AcDbBlockBegin
  2
_D_25
 70
     0
 10
0.0
 20
0.0
 30
0.0
  3
_D_25
  1

  0
SOLID
  5
3F6
330
3F3
100
AcDbEntity
  8
DIM
100
AcDbTrace
 10
278.0524562297
 20
179.8471569619
 30
0.0
 11
273.0524562297
 21
180.4721569619
 31
0.0
 12
273.0524562297
 22
179.2221569619
 32
0.0
 13
273.0524562297
 23
179.2221569619
 33
0.0
  0
SOLID
  5
3F7
330
3F3
100
AcDbEntity
  8
DIM
100
AcDbTrace
 10
242.6524562297
 20
179.8471569619
 30
0.0
 11
247.6524562297
 21
179.2221569619
 31
0.0
 12
247.6524562297
 22
180.4721569619
 32
0.0
 13
247.6524562297
 23
180.4721569619
 33
0.0
  0
LINE
  5
3F8
330
3F3
100
AcDbEntity
  8
DIM
100
AcDbLine
 10
278.0524562297
 20
155.8471569619
 30
0.0
 11
278.0524562297
 21
182.3471569619
 31
0.0
  0
LINE
  5
3F9
330
3F3
100
AcDbEntity
  8
DIM
100
AcDbLine
 10
242.6524562297
 20
160.0471569619
 30
0.0
 11
242.6524562297
 21
182.3471569619
 31
0.0
  0
LINE
  5
3FA
330
3F3
100
AcDbEntity
  8
DIM
100
AcDbLine
 10
278.0524562297
 20
179.8471569619
 30
0.0
 11
242.6524562297
 21
179.8471569619
 31
0.0
  0
MTEXT
  5
3FB
330
3F3
100
AcDbEntity
  8
DIM
100
AcDbMText
 10
253.8315800344
 20
187.5211380592
 30
0.0
 40
5.953125
 41
0.0
 71
     1
 72
     1
  1
35.4
  7
SLDTEXTSTYLE1
 73
     1
 44
1.0
  0
ENDBLK
  5
3F5
330
3F3
100
AcDbEntity
  8
0
100
AcDbBlockEnd
  0
BLOCK
  5
3FF
330
3FE
100
AcDbEntity
  8
0
100
AcDbBlockBegin
  2
_D_26
 70
     0
 10
0.0
 20
0.0
 30
0.0
  3
_D_26
  1

  0
SOLID
  5
401
330
3FE
100
AcDbEntity
  8
DIM
100
AcDbTrace
 10
240.0873215955
 20
155.260291643
 30
0.0
 11
236.4529578469
 21
158.7505674406
 31
0.0
 12
235.7056396121
 22
157.7485617241
 32
0.0
 13
235.7056396121
 23
157.7485617241
 33
0.0
  0
LINE
  5
402
330
3FE
100
AcDbEntity
  8
DIM
100
AcDbLine
 10
240.0873215955
 20
155.260291643
 30
0.0
 11
207.1212056195
 21
179.8471569619
 31
0.0
  0
LINE
  5
403
330
3FE
100
AcDbEntity
  8
DIM
100
AcDbLine
 10
207.1212056195
 20
179.8471569619
 30
0.0
 11
189.7087068399
 21
179.8471569619
 31
0.0
  0
MTEXT
  5
404
330
3FE
100
AcDbEntity
  8
DIM
100
AcDbMText
 10
189.7087068399
 20
187.5211380592
 30
0.0
 40
5.953125
 41
0.0
 71
     1
 72
     1
  1
R3.2
  7
SLDTEXTSTYLE1
 73
     1
 44
1.0
  0
ENDBLK
  5
400
330
3FE
100
AcDbEntity
  8
0
100
AcDbBlockEnd
  0
BLOCK
  5
407
330
406
100
AcDbEntity
  8
0
100
AcDbBlockBegin
  2
_D_27
 70
     0
 10
0.0
 20
0.0
 30
0.0
  3
_D_27
  1

  0
SOLID
  5
409
330
406
100
AcDbEntity
  8
DIM
100
AcDbTrace
 10
514.3524562297
 20
153.3471569619
 30
0.0
 11
513.7274562297
 21
148.3471569619
 31
0.0
 12
514.9774562297
 22
148.3471569619
 32
0.0
 13
514.9774562297
 23
148.3471569619
 33
0.0
  0
SOLID
  5
40A
330
406
100
AcDbEntity
  8
DIM
100
AcDbTrace
 10
514.3524562297
 20
162.3471569619
 30
0.0
 11
514.9774562297
 21
167.3471569619
 31
0.0
 12
513.7274562297
 22
167.3471569619
 32
0.0
 13
513.7274562297
 23
167.3471569619
 33
0.0
  0
LINE
  5
40B
330
406
100
AcDbEntity
  8
DIM
100
AcDbLine
 10
418.8051562297
 20
153.3471569619
 30
0.0
 11
516.8524562297
 21
153.3471569619
 31
0.0
  0
LINE
  5
40C
330
406
100
AcDbEntity
  8
DIM
100
AcDbLine
 10
498.3524562297
 20
162.3471569619
 30
0.0
 11
516.8524562297
 21
162.3471569619
 31
0.0
  0
LINE
  5
40D
330
406
100
AcDbEntity
  8
DIM
100
AcDbLine
 10
514.3524562297
 20
153.3471569619
 30
0.0
 11
514.3524562297
 21
145.8471569619
 31
0.0
  0
LINE
  5
40E
330
406
100
AcDbEntity
  8
DIM
100
AcDbLine
 10
514.3524562297
 20
153.3471569619
 30
0.0
 11
514.3524562297
 21
162.3471569619
 31
0.0
  0
LINE
  5
40F
330
406
100
AcDbEntity
  8
DIM
100
AcDbLine
 10
514.3524562297
 20
162.3471569619
 30
0.0
 11
514.3524562297
 21
169.8471569619
 31
0.0
  0
MTEXT
  5
410
330
406
100
AcDbEntity
  8
DIM
100
AcDbMText
 10
506.6784751324
 20
155.9840493528
 30
0.0
 40
5.953125
 41
0.0
 71
     1
 72
     1
  1
9
  7
SLDTEXTSTYLE1
 11
6.123233995736766E-17
 21
1.0
 31
0.0
 73
     1
 44
1.0
  0
ENDBLK
  5
408
330
406
100
AcDbEntity
  8
0
100
AcDbBlockEnd
  0
BLOCK
  5
412
330
411
100
AcDbEntity
  8
0
100
AcDbBlockBegin
  2
SW_NOTE_5
 70
     0
 10
0.0
 20
0.0
 30
0.0
  3
SW_NOTE_5
  1

  0
LINE
  5
414
330
411
100
AcDbEntity
  8
DIM
 62
     0
100
AcDbLine
 10
-31.9508253661
 20
0.0
 30
0.0
 11
0.0
 21
0.0
 31
0.0
  0
MTEXT
  5
415
330
411
100
AcDbEntity
  8
DIM
 62
     0
100
AcDbMText
 10
-32.9224049138
 20
17.9808943578
 30
0.0
 40
5.953125
 41
0.0
 71
     1
 72
     1
  1
5 HOLES,
  7
SLDTEXTSTYLE1
 73
     1
 44
1.0
  0
MTEXT
  5
416
330
411
100
AcDbEntity
  8
DIM
 62
     0
100
AcDbMText
 10
-32.9224049138
 20
7.543394626
 30
0.0
 40
5.953125
 41
0.0
 71
     1
 72
     1
  1
1/4"-20
  7
SLDTEXTSTYLE1
 73
     1
 44
1.0
  0
ENDBLK
  5
413
330
411
100
AcDbEntity
  8
0
100
AcDbBlockEnd
  0
BLOCK
  5
41A
330
419
100
AcDbEntity
  8
0
100
AcDbBlockBegin
  2
SW_CENTERMARKSYMBOL_8
 70
     0
 10
0.0
 20
0.0
 30
0.0
  3
SW_CENTERMARKSYMBOL_8
  1

  0
LINE
  5
41C
330
419
100
AcDbEntity
  8
DIM
 62
     0
100
AcDbLine
 10
0.0
 20
0.0
 30
0.0
 11
1.0
 21
0.0
 31
0.0
  0
LINE
  5
41D
330
419
100
AcDbEntity
  8
DIM
 62
     0
100
AcDbLine
 10
0.0
 20
0.0
 30
0.0
 11
0.0
 21
1.0
 31
0.0
  0
LINE
  5
41E
330
419
100
AcDbEntity
  8
DIM
 62
     0
100
AcDbLine
 10
0.0
 20
0.0
 30
0.0
 11
-1.0
 21
0.0
 31
0.0
  0
LINE
  5
41F
330
419
100
AcDbEntity
  8
DIM
 62
     0
100
AcDbLine
 10
0.0
 20
0.0
 30
0.0
 11
0.0
 21
-1.0
 31
0.0
  0
LINE
  5
420
330
419
100
AcDbEntity
  8
DIM
 62
     0
100
AcDbLine
 10
2.0
 20
0.0
 30
0.0
 11
4.2
 21
0.0
 31
0.0
  0
LINE
  5
421
330
419
100
AcDbEntity
  8
DIM
 62
     0
100
AcDbLine
 10
0.0
 20
2.0
 30
0.0
 11
0.0
 21
4.2
 31
0.0
  0
LINE
  5
422
330
419
100
AcDbEntity
  8
DIM
 62
     0
100
AcDbLine
 10
-2.0
 20
0.0
 30
0.0
 11
-4.2
 21
0.0
 31
0.0
  0
LINE
  5
423
330
419
100
AcDbEntity
  8
DIM
 62
     0
100
AcDbLine
 10
0.0
 20
-2.0
 30
0.0
 11
0.0
 21
-4.2
 31
0.0
  0
LINE
  5
424
330
419
100
AcDbEntity
  8
DIM
 62
     0
100
AcDbLine
 10
35.4
 20
0.0
 30
0.0
 11
36.4
 21
0.0
 31
0.0
  0
LINE
  5
425
330
419
100
AcDbEntity
  8
DIM
 62
     0
100
AcDbLine
 10
35.4
 20
0.0
 30
0.0
 11
35.4
 21
1.0
 31
0.0
  0
LINE
  5
426
330
419
100
AcDbEntity
  8
DIM
 62
     0
100
AcDbLine
 10
35.4
 20
0.0
 30
0.0
 11
34.4
 21
0.0
 31
0.0
  0
LINE
  5
427
330
419
100
AcDbEntity
  8
DIM
 62
     0
100
AcDbLine
 10
35.4
 20
0.0
 30
0.0
 11
35.4
 21
-1.0
 31
0.0
  0
LINE
  5
428
330
419
100
AcDbEntity
  8
DIM
 62
     0
100
AcDbLine
 10
37.4
 20
0.0
 30
0.0
 11
39.6
 21
0.0
 31
0.0
  0
LINE
  5
429
330
419
100
AcDbEntity
  8
DIM
 62
     0
100
AcDbLine
 10
35.4
 20
2.0
 30
0.0
 11
35.4
 21
4.2
 31
0.0
  0
LINE
  5
42A
330
419
100
AcDbEntity
  8
DIM
 62
     0
100
AcDbLine
 10
33.4
 20
0.0
 30
0.0
 11
31.2
 21
0.0
 31
0.0
  0
LINE
  5
42B
330
419
100
AcDbEntity
  8
DIM
 62
     0
100
AcDbLine
 10
35.4
 20
-2.0
 30
0.0
 11
35.4
 21
-4.2
 31
0.0
  0
ENDBLK
  5
41B
330
419
100
AcDbEntity
  8
0
100
AcDbBlockEnd
  0
BLOCK
  5
42E
330
42D
100
AcDbEntity
  8
0
100
AcDbBlockBegin
  2
SW_CENTERMARKSYMBOL_9
 70
     0
 10
0.0
 20
0.0
 30
0.0
  3
SW_CENTERMARKSYMBOL_9
  1

  0
LINE
  5
430
330
42D
100
AcDbEntity
  8
DIM
 62
     0
100
AcDbLine
 10
0.0
 20
0.0
 30
0.0
 11
0.0
 21
1.0
 31
0.0
  0
LINE
  5
431
330
42D
100
AcDbEntity
  8
DIM
 62
     0
100
AcDbLine
 10
0.0
 20
0.0
 30
0.0
 11
-1.0
 21
0.0
 31
0.0
  0
LINE
  5
432
330
42D
100
AcDbEntity
  8
DIM
 62
     0
100
AcDbLine
 10
0.0
 20
0.0
 30
0.0
 11
0.0
 21
-1.0
 31
0.0
  0
LINE
  5
433
330
42D
100
AcDbEntity
  8
DIM
 62
     0
100
AcDbLine
 10
0.0
 20
0.0
 30
0.0
 11
1.0
 21
0.0
 31
0.0
  0
LINE
  5
434
330
42D
100
AcDbEntity
  8
DIM
 62
     0
100
AcDbLine
 10
0.0
 20
2.0
 30
0.0
 11
0.0
 21
3.5527
 31
0.0
  0
LINE
  5
435
330
42D
100
AcDbEntity
  8
DIM
 62
     0
100
AcDbLine
 10
-2.0
 20
0.0
 30
0.0
 11
-3.5527
 21
0.0
 31
0.0
  0
LINE
  5
436
330
42D
100
AcDbEntity
  8
DIM
 62
     0
100
AcDbLine
 10
0.0
 20
-2.0
 30
0.0
 11
0.0
 21
-3.5527
 31
0.0
  0
LINE
  5
437
330
42D
100
AcDbEntity
  8
DIM
 62
     0
100
AcDbLine
 10
2.0
 20
0.0
 30
0.0
 11
3.5527
 21
0.0
 31
0.0
  0
ENDBLK
  5
42F
330
42D
100
AcDbEntity
  8
0
100
AcDbBlockEnd
  0
BLOCK
  5
43A
330
439
100
AcDbEntity
  8
0
100
AcDbBlockBegin
  2
SW_CENTERMARKSYMBOL_10
 70
     0
 10
0.0
 20
0.0
 30
0.0
  3
SW_CENTERMARKSYMBOL_10
  1

  0
LINE
  5
43C
330
439
100
AcDbEntity
  8
DIM
 62
     0
100
AcDbLine
 10
0.0
 20
0.0
 30
0.0
 11
1.0
 21
0.0
 31
0.0
  0
LINE
  5
43D
330
439
100
AcDbEntity
  8
DIM
 62
     0
100
AcDbLine
 10
0.0
 20
0.0
 30
0.0
 11
0.0
 21
1.0
 31
0.0
  0
LINE
  5
43E
330
439
100
AcDbEntity
  8
DIM
 62
     0
100
AcDbLine
 10
0.0
 20
0.0
 30
0.0
 11
-1.0
 21
0.0
 31
0.0
  0
LINE
  5
43F
330
439
100
AcDbEntity
  8
DIM
 62
     0
100
AcDbLine
 10
0.0
 20
0.0
 30
0.0
 11
0.0
 21
-1.0
 31
0.0
  0
LINE
  5
440
330
439
100
AcDbEntity
  8
DIM
 62
     0
100
AcDbLine
 10
2.0
 20
0.0
 30
0.0
 11
4.2
 21
0.0
 31
0.0
  0
LINE
  5
441
330
439
100
AcDbEntity
  8
DIM
 62
     0
100
AcDbLine
 10
0.0
 20
2.0
 30
0.0
 11
0.0
 21
4.2
 31
0.0
  0
LINE
  5
442
330
439
100
AcDbEntity
  8
DIM
 62
     0
100
AcDbLine
 10
-2.0
 20
0.0
 30
0.0
 11
-4.2
 21
0.0
 31
0.0
  0
LINE
  5
443
330
439
100
AcDbEntity
  8
DIM
 62
     0
100
AcDbLine
 10
0.0
 20
-2.0
 30
0.0
 11
0.0
 21
-4.2
 31
0.0
  0
LINE
  5
444
330
439
100
AcDbEntity
  8
DIM
 62
     0
100
AcDbLine
 10
35.4
 20
0.0
 30
0.0
 11
36.4
 21
0.0
 31
0.0
  0
LINE
  5
445
330
439
100
AcDbEntity
  8
DIM
 62
     0
100
AcDbLine
 10
35.4
 20
0.0
 30
0.0
 11
35.4
 21
1.0
 31
0.0
  0
LINE
  5
446
330
439
100
AcDbEntity
  8
DIM
 62
     0
100
AcDbLine
 10
35.4
 20
0.0
 30
0.0
 11
34.4
 21
0.0
 31
0.0
  0
LINE
  5
447
330
439
100
AcDbEntity
  8
DIM
 62
     0
100
AcDbLine
 10
35.4
 20
0.0
 30
0.0
 11
35.4
 21
-1.0
 31
0.0
  0
LINE
  5
448
330
439
100
AcDbEntity
  8
DIM
 62
     0
100
AcDbLine
 10
37.4
 20
0.0
 30
0.0
 11
39.6
 21
0.0
 31
0.0
  0
LINE
  5
449
330
439
100
AcDbEntity
  8
DIM
 62
     0
100
AcDbLine
 10
35.4
 20
2.0
 30
0.0
 11
35.4
 21
4.2
 31
0.0
  0
LINE
  5
44A
330
439
100
AcDbEntity
  8
DIM
 62
     0
100
AcDbLine
 10
33.4
 20
0.0
 30
0.0
 11
31.2
 21
0.0
 31
0.0
  0
LINE
  5
44B
330
439
100
AcDbEntity
  8
DIM
 62
     0
100
AcDbLine
 10
35.4
 20
-2.0
 30
0.0
 11
35.4
 21
-4.2
 31
0.0
  0
ENDBLK
  5
43B
330
439
100
AcDbEntity
  8
0
100
AcDbBlockEnd
  0
BLOCK
  5
44E
330
44D
100
AcDbEntity
  8
0
100
AcDbBlockBegin
  2
SW_CENTERMARKSYMBOL_11
 70
     0
 10
0.0
 20
0.0
 30
0.0
  3
SW_CENTERMARKSYMBOL_11
  1

  0
LINE
  5
450
330
44D
100
AcDbEntity
  8
DIM
 62
     0
100
AcDbLine
 10
0.0
 20
0.0
 30
0.0
 11
0.0
 21
1.0
 31
0.0
  0
LINE
  5
451
330
44D
100
AcDbEntity
  8
DIM
 62
     0
100
AcDbLine
 10
0.0
 20
0.0
 30
0.0
 11
-1.0
 21
0.0
 31
0.0
  0
LINE
  5
452
330
44D
100
AcDbEntity
  8
DIM
 62
     0
100
AcDbLine
 10
0.0
 20
0.0
 30
0.0
 11
0.0
 21
-1.0
 31
0.0
  0
LINE
  5
453
330
44D
100
AcDbEntity
  8
DIM
 62
     0
100
AcDbLine
 10
0.0
 20
0.0
 30
0.0
 11
1.0
 21
0.0
 31
0.0
  0
LINE
  5
454
330
44D
100
AcDbEntity
  8
DIM
 62
     0
100
AcDbLine
 10
0.0
 20
2.0
 30
0.0
 11
0.0
 21
3.5527
 31
0.0
  0
LINE
  5
455
330
44D
100
AcDbEntity
  8
DIM
 62
     0
100
AcDbLine
 10
-2.0
 20
0.0
 30
0.0
 11
-3.5527
 21
0.0
 31
0.0
  0
LINE
  5
456
330
44D
100
AcDbEntity
  8
DIM
 62
     0
100
AcDbLine
 10
0.0
 20
-2.0
 30
0.0
 11
0.0
 21
-3.5527
 31
0.0
  0
LINE
  5
457
330
44D
100
AcDbEntity
  8
DIM
 62
     0
100
AcDbLine
 10
2.0
 20
0.0
 30
0.0
 11
3.5527
 21
0.0
 31
0.0
  0
ENDBLK
  5
44F
330
44D
100
AcDbEntity
  8
0
100
AcDbBlockEnd
  0
BLOCK
  5
45A
330
459
100
AcDbEntity
  8
0
100
AcDbBlockBegin
  2
SW_CENTERMARKSYMBOL_12
 70
     0
 10
0.0
 20
0.0
 30
0.0
  3
SW_CENTERMARKSYMBOL_12
  1

  0
LINE
  5
45C
330
459
100
AcDbEntity
  8
DIM
 62
     0
100
AcDbLine
 10
0.0
 20
0.0
 30
0.0
 11
1.0
 21
0.0
 31
0.0
  0
LINE
  5
45D
330
459
100
AcDbEntity
  8
DIM
 62
     0
100
AcDbLine
 10
0.0
 20
0.0
 30
0.0
 11
0.0
 21
1.0
 31
0.0
  0
LINE
  5
45E
330
459
100
AcDbEntity
  8
DIM
 62
     0
100
AcDbLine
 10
0.0
 20
0.0
 30
0.0
 11
-1.0
 21
0.0
 31
0.0
  0
LINE
  5
45F
330
459
100
AcDbEntity
  8
DIM
 62
     0
100
AcDbLine
 10
0.0
 20
0.0
 30
0.0
 11
0.0
 21
-1.0
 31
0.0
  0
LINE
  5
460
330
459
100
AcDbEntity
  8
DIM
 62
     0
100
AcDbLine
 10
2.0
 20
0.0
 30
0.0
 11
4.2
 21
0.0
 31
0.0
  0
LINE
  5
461
330
459
100
AcDbEntity
  8
DIM
 62
     0
100
AcDbLine
 10
0.0
 20
2.0
 30
0.0
 11
0.0
 21
4.2
 31
0.0
  0
LINE
  5
462
330
459
100
AcDbEntity
  8
DIM
 62
     0
100
AcDbLine
 10
-2.0
 20
0.0
 30
0.0
 11
-4.2
 21
0.0
 31
0.0
  0
LINE
  5
463
330
459
100
AcDbEntity
  8
DIM
 62
     0
100
AcDbLine
 10
0.0
 20
-2.0
 30
0.0
 11
0.0
 21
-4.2
 31
0.0
  0
LINE
  5
464
330
459
100
AcDbEntity
  8
DIM
 62
     0
100
AcDbLine
 10
35.4
 20
0.0
 30
0.0
 11
36.4
 21
0.0
 31
0.0
  0
LINE
  5
465
330
459
100
AcDbEntity
  8
DIM
 62
     0
100
AcDbLine
 10
35.4
 20
0.0
 30
0.0
 11
35.4
 21
1.0
 31
0.0
  0
LINE
  5
466
330
459
100
AcDbEntity
  8
DIM
 62
     0
100
AcDbLine
 10
35.4
 20
0.0
 30
0.0
 11
34.4
 21
0.0
 31
0.0
  0
LINE
  5
467
330
459
100
AcDbEntity
  8
DIM
 62
     0
100
AcDbLine
 10
35.4
 20
0.0
 30
0.0
 11
35.4
 21
-1.0
 31
0.0
  0
LINE
  5
468
330
459
100
AcDbEntity
  8
DIM
 62
     0
100
AcDbLine
 10
37.4
 20
0.0
 30
0.0
 11
39.6
 21
0.0
 31
0.0
  0
LINE
  5
469
330
459
100
AcDbEntity
  8
DIM
 62
     0
100
AcDbLine
 10
35.4
 20
2.0
 30
0.0
 11
35.4
 21
4.2
 31
0.0
  0
LINE
  5
46A
330
459
100
AcDbEntity
  8
DIM
 62
     0
100
AcDbLine
 10
33.4
 20
0.0
 30
0.0
 11
31.2
 21
0.0
 31
0.0
  0
LINE
  5
46B
330
459
100
AcDbEntity
  8
DIM
 62
     0
100
AcDbLine
 10
35.4
 20
-2.0
 30
0.0
 11
35.4
 21
-4.2
 31
0.0
  0
ENDBLK
  5
45B
330
459
100
AcDbEntity
  8
0
100
AcDbBlockEnd
  0
BLOCK
  5
46E
330
46D
100
AcDbEntity
  8
0
100
AcDbBlockBegin
  2
SW_CENTERMARKSYMBOL_13
 70
     0
 10
0.0
 20
0.0
 30
0.0
  3
SW_CENTERMARKSYMBOL_13
  1

  0
LINE
  5
470
330
46D
100
AcDbEntity
  8
DIM
 62
     0
100
AcDbLine
 10
0.0
 20
0.0
 30
0.0
 11
0.0
 21
1.0
 31
0.0
  0
LINE
  5
471
330
46D
100
AcDbEntity
  8
DIM
 62
     0
100
AcDbLine
 10
0.0
 20
0.0
 30
0.0
 11
-1.0
 21
0.0
 31
0.0
  0
LINE
  5
472
330
46D
100
AcDbEntity
  8
DIM
 62
     0
100
AcDbLine
 10
0.0
 20
0.0
 30
0.0
 11
0.0
 21
-1.0
 31
0.0
  0
LINE
  5
473
330
46D
100
AcDbEntity
  8
DIM
 62
     0
100
AcDbLine
 10
0.0
 20
0.0
 30
0.0
 11
1.0
 21
0.0
 31
0.0
  0
LINE
  5
474
330
46D
100
AcDbEntity
  8
DIM
 62
     0
100
AcDbLine
 10
0.0
 20
2.0
 30
0.0
 11
0.0
 21
3.5527
 31
0.0
  0
LINE
  5
475
330
46D
100
AcDbEntity
  8
DIM
 62
     0
100
AcDbLine
 10
-2.0
 20
0.0
 30
0.0
 11
-3.5527
 21
0.0
 31
0.0
  0
LINE
  5
476
330
46D
100
AcDbEntity
  8
DIM
 62
     0
100
AcDbLine
 10
0.0
 20
-2.0
 30
0.0
 11
0.0
 21
-3.5527
 31
0.0
  0
LINE
  5
477
330
46D
100
AcDbEntity
  8
DIM
 62
     0
100
AcDbLine
 10
2.0
 20
0.0
 30
0.0
 11
3.5527
 21
0.0
 31
0.0
  0
ENDBLK
  5
46F
330
46D
100
AcDbEntity
  8
0
100
AcDbBlockEnd
  0
BLOCK
  5
47A
330
479
100
AcDbEntity
  8
0
100
AcDbBlockBegin
  2
SW_CENTERMARKSYMBOL_14
 70
     0
 10
0.0
 20
0.0
 30
0.0
  3
SW_CENTERMARKSYMBOL_14
  1

  0
LINE
  5
47C
330
479
100
AcDbEntity
  8
DIM
 62
     0
100
AcDbLine
 10
0.0
 20
0.0
 30
0.0
 11
0.0
 21
1.0
 31
0.0
  0
LINE
  5
47D
330
479
100
AcDbEntity
  8
DIM
 62
     0
100
AcDbLine
 10
0.0
 20
0.0
 30
0.0
 11
-1.0
 21
0.0
 31
0.0
  0
LINE
  5
47E
330
479
100
AcDbEntity
  8
DIM
 62
     0
100
AcDbLine
 10
0.0
 20
0.0
 30
0.0
 11
0.0
 21
-1.0
 31
0.0
  0
LINE
  5
47F
330
479
100
AcDbEntity
  8
DIM
 62
     0
100
AcDbLine
 10
0.0
 20
0.0
 30
0.0
 11
1.0
 21
0.0
 31
0.0
  0
LINE
  5
480
330
479
100
AcDbEntity
  8
DIM
 62
     0
100
AcDbLine
 10
0.0
 20
2.0
 30
0.0
 11
0.0
 21
3.5527
 31
0.0
  0
LINE
  5
481
330
479
100
AcDbEntity
  8
DIM
 62
     0
100
AcDbLine
 10
-2.0
 20
0.0
 30
0.0
 11
-3.5527
 21
0.0
 31
0.0
  0
LINE
  5
482
330
479
100
AcDbEntity
  8
DIM
 62
     0
100
AcDbLine
 10
0.0
 20
-2.0
 30
0.0
 11
0.0
 21
-3.5527
 31
0.0
  0
LINE
  5
483
330
479
100
AcDbEntity
  8
DIM
 62
     0
100
AcDbLine
 10
2.0
 20
0.0
 30
0.0
 11
3.5527
 21
0.0
 31
0.0
  0
ENDBLK
  5
47B
330
479
100
AcDbEntity
  8
0
100
AcDbBlockEnd
  0
BLOCK
  5
486
330
485
100
AcDbEntity
  8
0
100
AcDbBlockBegin
  2
SW_CENTERMARKSYMBOL_15
 70
     0
 10
0.0
 20
0.0
 30
0.0
  3
SW_CENTERMARKSYMBOL_15
  1

  0
LINE
  5
488
330
485
100
AcDbEntity
  8
DIM
 62
     0
100
AcDbLine
 10
0.0
 20
0.0
 30
0.0
 11
0.0
 21
1.0
 31
0.0
  0
LINE
  5
489
330
485
100
AcDbEntity
  8
DIM
 62
     0
100
AcDbLine
 10
0.0
 20
0.0
 30
0.0
 11
-1.0
 21
0.0
 31
0.0
  0
LINE
  5
48A
330
485
100
AcDbEntity
  8
DIM
 62
     0
100
AcDbLine
 10
0.0
 20
0.0
 30
0.0
 11
0.0
 21
-1.0
 31
0.0
  0
LINE
  5
48B
330
485
100
AcDbEntity
  8
DIM
 62
     0
100
AcDbLine
 10
0.0
 20
0.0
 30
0.0
 11
1.0
 21
0.0
 31
0.0
  0
LINE
  5
48C
330
485
100
AcDbEntity
  8
DIM
 62
     0
100
AcDbLine
 10
0.0
 20
2.0
 30
0.0
 11
0.0
 21
3.5527
 31
0.0
  0
LINE
  5
48D
330
485
100
AcDbEntity
  8
DIM
 62
     0
100
AcDbLine
 10
-2.0
 20
0.0
 30
0.0
 11
-3.5527
 21
0.0
 31
0.0
  0
LINE
  5
48E
330
485
100
AcDbEntity
  8
DIM
 62
     0
100
AcDbLine
 10
0.0
 20
-2.0
 30
0.0
 11
0.0
 21
-3.5527
 31
0.0
  0
LINE
  5
48F
330
485
100
AcDbEntity
  8
DIM
 62
     0
100
AcDbLine
 10
2.0
 20
0.0
 30
0.0
 11
3.5527
 21
0.0
 31
0.0
  0
ENDBLK
  5
487
330
485
100
AcDbEntity
  8
0
100
AcDbBlockEnd
  0
BLOCK
  5
57B
330
57A
100
AcDbEntity
  8
0
100
AcDbBlockBegin
  2
_D_28
 70
     0
 10
0.0
 20
0.0
 30
0.0
  3
_D_28
  1

  0
SOLID
  5
57D
330
57A
100
AcDbEntity
  8
DIM
100
AcDbTrace
 10
171.4524562297
 20
395.6942003731
 30
0.0
 11
176.4524562297
 21
395.0692003731
 31
0.0
 12
176.4524562297
 22
396.3192003731
 32
0.0
 13
176.4524562297
 23
396.3192003731
 33
0.0
  0
SOLID
  5
57E
330
57A
100
AcDbEntity
  8
DIM
100
AcDbTrace
 10
196.8524562297
 20
395.6942003731
 30
0.0
 11
191.8524562297
 21
396.3192003731
 31
0.0
 12
191.8524562297
 22
395.0692003731
 32
0.0
 13
191.8524562297
 23
395.0692003731
 33
0.0
  0
LINE
  5
57F
330
57A
100
AcDbEntity
  8
DIM
100
AcDbLine
 10
171.4524562297
 20
413.1442003731
 30
0.0
 11
171.4524562297
 21
393.1942003731
 31
0.0
  0
LINE
  5
580
330
57A
100
AcDbEntity
  8
DIM
100
AcDbLine
 10
196.8524562297
 20
413.1442003731
 30
0.0
 11
196.8524562297
 21
393.1942003731
 31
0.0
  0
LINE
  5
581
330
57A
100
AcDbEntity
  8
DIM
100
AcDbLine
 10
171.4524562297
 20
395.6942003731
 30
0.0
 11
196.8524562297
 21
395.6942003731
 31
0.0
  0
MTEXT
  5
582
330
57A
100
AcDbEntity
  8
DIM
100
AcDbMText
 10
177.6315800344
 20
403.3681814704
 30
0.0
 40
5.953125
 41
0.0
 71
     1
 72
     1
  1
25.4
  7
SLDTEXTSTYLE1
 73
     1
 44
1.0
  0
ENDBLK
  5
57C
330
57A
100
AcDbEntity
  8
0
100
AcDbBlockEnd
  0
BLOCK
  5
585
330
584
100
AcDbEntity
  8
0
100
AcDbBlockBegin
  2
_D_29
 70
     0
 10
0.0
 20
0.0
 30
0.0
  3
_D_29
  1

  0
SOLID
  5
587
330
584
100
AcDbEntity
  8
DIM
100
AcDbTrace
 10
196.8524562297
 20
395.6942003731
 30
0.0
 11
201.8524562297
 21
395.0692003731
 31
0.0
 12
201.8524562297
 22
396.3192003731
 32
0.0
 13
201.8524562297
 23
396.3192003731
 33
0.0
  0
SOLID
  5
588
330
584
100
AcDbEntity
  8
DIM
100
AcDbTrace
 10
222.2524562297
 20
395.6942003731
 30
0.0
 11
217.2524562297
 21
396.3192003731
 31
0.0
 12
217.2524562297
 22
395.0692003731
 32
0.0
 13
217.2524562297
 23
395.0692003731
 33
0.0
  0
LINE
  5
589
330
584
100
AcDbEntity
  8
DIM
100
AcDbLine
 10
196.8524562297
 20
413.1442003731
 30
0.0
 11
196.8524562297
 21
393.1942003731
 31
0.0
  0
LINE
  5
58A
330
584
100
AcDbEntity
  8
DIM
100
AcDbLine
 10
222.2524562297
 20
413.1442003731
 30
0.0
 11
222.2524562297
 21
393.1942003731
 31
0.0
  0
LINE
  5
58B
330
584
100
AcDbEntity
  8
DIM
100
AcDbLine
 10
196.8524562297
 20
395.6942003731
 30
0.0
 11
222.2524562297
 21
395.6942003731
 31
0.0
  0
MTEXT
  5
58C
330
584
100
AcDbEntity
  8
DIM
100
AcDbMText
 10
203.0315800344
 20
403.3681814704
 30
0.0
 40
5.953125
 41
0.0
 71
     1
 72
     1
  1
25.4
  7
SLDTEXTSTYLE1
 73
     1
 44
1.0
  0
ENDBLK
  5
586
330
584
100
AcDbEntity
  8
0
100
AcDbBlockEnd
  0
BLOCK
  5
58F
330
58E
100
AcDbEntity
  8
0
100
AcDbBlockBegin
  2
_D_30
 70
     0
 10
0.0
 20
0.0
 30
0.0
  3
_D_30
  1

  0
SOLID
  5
591
330
58E
100
AcDbEntity
  8
DIM
100
AcDbTrace
 10
222.2524562297
 20
395.6942003731
 30
0.0
 11
227.2524562297
 21
395.0692003731
 31
0.0
 12
227.2524562297
 22
396.3192003731
 32
0.0
 13
227.2524562297
 23
396.3192003731
 33
0.0
  0
SOLID
  5
592
330
58E
100
AcDbEntity
  8
DIM
100
AcDbTrace
 10
247.6524562297
 20
395.6942003731
 30
0.0
 11
242.6524562297
 21
396.3192003731
 31
0.0
 12
242.6524562297
 22
395.0692003731
 32
0.0
 13
242.6524562297
 23
395.0692003731
 33
0.0
  0
LINE
  5
593
330
58E
100
AcDbEntity
  8
DIM
100
AcDbLine
 10
222.2524562297
 20
413.1442003731
 30
0.0
 11
222.2524562297
 21
393.1942003731
 31
0.0
  0
LINE
  5
594
330
58E
100
AcDbEntity
  8
DIM
100
AcDbLine
 10
247.6524562297
 20
413.1442003731
 30
0.0
 11
247.6524562297
 21
393.1942003731
 31
0.0
  0
LINE
  5
595
330
58E
100
AcDbEntity
  8
DIM
100
AcDbLine
 10
222.2524562297
 20
395.6942003731
 30
0.0
 11
247.6524562297
 21
395.6942003731
 31
0.0
  0
MTEXT
  5
596
330
58E
100
AcDbEntity
  8
DIM
100
AcDbMText
 10
228.4315800344
 20
403.3681814704
 30
0.0
 40
5.953125
 41
0.0
 71
     1
 72
     1
  1
25.4
  7
SLDTEXTSTYLE1
 73
     1
 44
1.0
  0
ENDBLK
  5
590
330
58E
100
AcDbEntity
  8
0
100
AcDbBlockEnd
  0
BLOCK
  5
599
330
598
100
AcDbEntity
  8
0
100
AcDbBlockBegin
  2
_D_31
 70
     0
 10
0.0
 20
0.0
 30
0.0
  3
_D_31
  1

  0
SOLID
  5
59B
330
598
100
AcDbEntity
  8
DIM
100
AcDbTrace
 10
247.6524562297
 20
395.6942003731
 30
0.0
 11
252.6524562297
 21
395.0692003731
 31
0.0
 12
252.6524562297
 22
396.3192003731
 32
0.0
 13
252.6524562297
 23
396.3192003731
 33
0.0
  0
SOLID
  5
59C
330
598
100
AcDbEntity
  8
DIM
100
AcDbTrace
 10
496.8524562297
 20
395.6942003731
 30
0.0
 11
491.8524562297
 21
396.3192003731
 31
0.0
 12
491.8524562297
 22
395.0692003731
 32
0.0
 13
491.8524562297
 23
395.0692003731
 33
0.0
  0
LINE
  5
59D
330
598
100
AcDbEntity
  8
DIM
100
AcDbLine
 10
247.6524562297
 20
413.1442003731
 30
0.0
 11
247.6524562297
 21
393.1942003731
 31
0.0
  0
LINE
  5
59E
330
598
100
AcDbEntity
  8
DIM
100
AcDbLine
 10
496.8524562297
 20
411.6942003731
 30
0.0
 11
496.8524562297
 21
393.1942003731
 31
0.0
  0
LINE
  5
59F
330
598
100
AcDbEntity
  8
DIM
100
AcDbLine
 10
247.6524562297
 20
395.6942003731
 30
0.0
 11
496.8524562297
 21
395.6942003731
 31
0.0
  0
MTEXT
  5
5A0
330
598
100
AcDbEntity
  8
DIM
100
AcDbMText
 10
363.8684715522
 20
403.3681814704
 30
0.0
 40
5.953125
 41
0.0
 71
     1
 72
     1
  1
249.2
  7
SLDTEXTSTYLE1
 73
     1
 44
1.0
  0
ENDBLK
  5
59A
330
598
100
AcDbEntity
  8
0
100
AcDbBlockEnd
  0
BLOCK
  5
5A3
330
5A2
100
AcDbEntity
  8
0
100
AcDbBlockBegin
  2
_D_32
 70
     0
 10
0.0
 20
0.0
 30
0.0
  3
_D_32
  1

  0
SOLID
  5
5A5
330
5A2
100
AcDbEntity
  8
DIM
100
AcDbTrace
 10
471.4524562297
 20
448.6942003731
 30
0.0
 11
476.4524562297
 21
448.0692003731
 31
0.0
 12
476.4524562297
 22
449.3192003731
 32
0.0
 13
476.4524562297
 23
449.3192003731
 33
0.0
  0
SOLID
  5
5A6
330
5A2
100
AcDbEntity
  8
DIM
100
AcDbTrace
 10
496.8524562297
 20
448.6942003731
 30
0.0
 11
491.8524562297
 21
449.3192003731
 31
0.0
 12
491.8524562297
 22
448.0692003731
 32
0.0
 13
491.8524562297
 23
448.0692003731
 33
0.0
  0
LINE
  5
5A7
330
5A2
100
AcDbEntity
  8
DIM
100
AcDbLine
 10
471.4524562297
 20
428.2469003731
 30
0.0
 11
471.4524562297
 21
451.1942003731
 31
0.0
  0
LINE
  5
5A8
330
5A2
100
AcDbEntity
  8
DIM
100
AcDbLine
 10
496.8524562297
 20
432.6942003731
 30
0.0
 11
496.8524562297
 21
451.1942003731
 31
0.0
  0
LINE
  5
5A9
330
5A2
100
AcDbEntity
  8
DIM
100
AcDbLine
 10
471.4524562297
 20
448.6942003731
 30
0.0
 11
496.8524562297
 21
448.6942003731
 31
0.0
  0
MTEXT
  5
5AA
330
5A2
100
AcDbEntity
  8
DIM
100
AcDbMText
 10
477.6315800344
 20
456.3681814704
 30
0.0
 40
5.953125
 41
0.0
 71
     1
 72
     1
  1
25.4
  7
SLDTEXTSTYLE1
 73
     1
 44
1.0
  0
ENDBLK
  5
5A4
330
5A2
100
AcDbEntity
  8
0
100
AcDbBlockEnd
  0
BLOCK
  5
5AD
330
5AC
100
AcDbEntity
  8
0
100
AcDbBlockBegin
  2
_D_33
 70
     0
 10
0.0
 20
0.0
 30
0.0
  3
_D_33
  1

  0
SOLID
  5
5AF
330
5AC
100
AcDbEntity
  8
DIM
100
AcDbTrace
 10
446.0524562297
 20
448.6942003731
 30
0.0
 11
451.0524562297
 21
448.0692003731
 31
0.0
 12
451.0524562297
 22
449.3192003731
 32
0.0
 13
451.0524562297
 23
449.3192003731
 33
0.0
  0
SOLID
  5
5B0
330
5AC
100
AcDbEntity
  8
DIM
100
AcDbTrace
 10
471.4524562297
 20
448.6942003731
 30
0.0
 11
466.4524562297
 21
449.3192003731
 31
0.0
 12
466.4524562297
 22
448.0692003731
 32
0.0
 13
466.4524562297
 23
448.0692003731
 33
0.0
  0
LINE
  5
5B1
330
5AC
100
AcDbEntity
  8
DIM
100
AcDbLine
 10
446.0524562297
 20
428.2469003731
 30
0.0
 11
446.0524562297
 21
451.1942003731
 31
0.0
  0
LINE
  5
5B2
330
5AC
100
AcDbEntity
  8
DIM
100
AcDbLine
 10
471.4524562297
 20
428.2469003731
 30
0.0
 11
471.4524562297
 21
451.1942003731
 31
0.0
  0
LINE
  5
5B3
330
5AC
100
AcDbEntity
  8
DIM
100
AcDbLine
 10
446.0524562297
 20
448.6942003731
 30
0.0
 11
471.4524562297
 21
448.6942003731
 31
0.0
  0
MTEXT
  5
5B4
330
5AC
100
AcDbEntity
  8
DIM
100
AcDbMText
 10
452.2315800344
 20
456.3681814704
 30
0.0
 40
5.953125
 41
0.0
 71
     1
 72
     1
  1
25.4
  7
SLDTEXTSTYLE1
 73
     1
 44
1.0
  0
ENDBLK
  5
5AE
330
5AC
100
AcDbEntity
  8
0
100
AcDbBlockEnd
  0
BLOCK
  5
5B7
330
5B6
100
AcDbEntity
  8
0
100
AcDbBlockBegin
  2
_D_34
 70
     0
 10
0.0
 20
0.0
 30
0.0
  3
_D_34
  1

  0
SOLID
  5
5B9
330
5B6
100
AcDbEntity
  8
DIM
100
AcDbTrace
 10
514.3524562297
 20
422.1942003731
 30
0.0
 11
514.9774562297
 21
427.1942003731
 31
0.0
 12
513.7274562297
 22
427.1942003731
 32
0.0
 13
513.7274562297
 23
427.1942003731
 33
0.0
  0
SOLID
  5
5BA
330
5B6
100
AcDbEntity
  8
DIM
100
AcDbTrace
 10
514.3524562297
 20
413.1942003731
 30
0.0
 11
513.7274562297
 21
408.1942003731
 31
0.0
 12
514.9774562297
 22
408.1942003731
 32
0.0
 13
514.9774562297
 23
408.1942003731
 33
0.0
  0
LINE
  5
5BB
330
5B6
100
AcDbEntity
  8
DIM
100
AcDbLine
 10
477.5051562297
 20
422.1942003731
 30
0.0
 11
516.8524562297
 21
422.1942003731
 31
0.0
  0
LINE
  5
5BC
330
5B6
100
AcDbEntity
  8
DIM
100
AcDbLine
 10
498.3524562297
 20
413.1942003731
 30
0.0
 11
516.8524562297
 21
413.1942003731
 31
0.0
  0
LINE
  5
5BD
330
5B6
100
AcDbEntity
  8
DIM
100
AcDbLine
 10
514.3524562297
 20
422.1942003731
 30
0.0
 11
514.3524562297
 21
429.6942003731
 31
0.0
  0
LINE
  5
5BE
330
5B6
100
AcDbEntity
  8
DIM
100
AcDbLine
 10
514.3524562297
 20
422.1942003731
 30
0.0
 11
514.3524562297
 21
413.1942003731
 31
0.0
  0
LINE
  5
5BF
330
5B6
100
AcDbEntity
  8
DIM
100
AcDbLine
 10
514.3524562297
 20
413.1942003731
 30
0.0
 11
514.3524562297
 21
405.6942003731
 31
0.0
  0
MTEXT
  5
5C0
330
5B6
100
AcDbEntity
  8
DIM
100
AcDbMText
 10
506.6784751324
 20
415.831092764
 30
0.0
 40
5.953125
 41
0.0
 71
     1
 72
     1
  1
9
  7
SLDTEXTSTYLE1
 11
-7.044195017643634E-15
 21
1.0
 31
0.0
 73
     1
 44
1.0
  0
ENDBLK
  5
5B8
330
5B6
100
AcDbEntity
  8
0
100
AcDbBlockEnd
  0
BLOCK
  5
5C2
330
5C1
100
AcDbEntity
  8
0
100
AcDbBlockBegin
  2
SW_NOTE_6
 70
     0
 10
0.0
 20
0.0
 30
0.0
  3
SW_NOTE_6
  1

  0
LINE
  5
5C4
330
5C1
100
AcDbEntity
  8
DIM
 62
     0
100
AcDbLine
 10
38.7811195041
 20
0.0
 30
0.0
 11
0.0
 21
0.0
 31
0.0
  0
MTEXT
  5
5C5
330
5C1
100
AcDbEntity
  8
DIM
 62
     0
100
AcDbMText
 10
1.0952136511
 20
18.3591022413
 30
0.0
 40
5.953125
 41
0.0
 71
     1
 72
     1
  1
4 HOLES,
  7
SLDTEXTSTYLE1
 73
     1
 44
1.0
  0
MTEXT
  5
5C6
330
5C1
100
AcDbEntity
  8
DIM
 62
     0
100
AcDbMText
 10
1.0952136511
 20
7.9216025095
 30
0.0
 40
5.953125
 41
0.0
 71
     1
 72
     1
  1
1/4"-20 CLR
  7
SLDTEXTSTYLE1
 73
     1
 44
1.0
  0
ENDBLK
  5
5C3
330
5C1
100
AcDbEntity
  8
0
100
AcDbBlockEnd
  0
BLOCK
  5
5CA
330
5C9
100
AcDbEntity
  8
0
100
AcDbBlockBegin
  2
SW_NOTE_7
 70
     0
 10
0.0
 20
0.0
 30
0.0
  3
SW_NOTE_7
  1

  0
LINE
  5
5CC
330
5C9
100
AcDbEntity
  8
DIM
 62
     0
100
AcDbLine
 10
-31.9508253661
 20
0.0
 30
0.0
 11
0.0
 21
0.0
 31
0.0
  0
MTEXT
  5
5CD
330
5C9
100
AcDbEntity
  8
DIM
 62
     0
100
AcDbMText
 10
-33.1647354643
 20
18.1851301878
 30
0.0
 40
5.953125
 41
0.0
 71
     1
 72
     1
  1
2 HOLES,
  7
SLDTEXTSTYLE1
 73
     1
 44
1.0
  0
MTEXT
  5
5CE
330
5C9
100
AcDbEntity
  8
DIM
 62
     0
100
AcDbMText
 10
-33.1647354643
 20
7.747630456
 30
0.0
 40
5.953125
 41
0.0
 71
     1
 72
     1
  1
1/4"-20
  7
SLDTEXTSTYLE1
 73
     1
 44
1.0
  0
ENDBLK
  5
5CB
330
5C9
100
AcDbEntity
  8
0
100
AcDbBlockEnd
  0
BLOCK
  5
5D2
330
5D1
100
AcDbEntity
  8
0
100
AcDbBlockBegin
  2
SW_CENTERMARKSYMBOL_16
 70
     0
 10
0.0
 20
0.0
 30
0.0
  3
SW_CENTERMARKSYMBOL_16
  1

  0
LINE
  5
5D4
330
5D1
100
AcDbEntity
  8
DIM
 62
     0
100
AcDbLine
 10
0.0
 20
0.0
 30
0.0
 11
0.0
 21
1.0
 31
0.0
  0
LINE
  5
5D5
330
5D1
100
AcDbEntity
  8
DIM
 62
     0
100
AcDbLine
 10
0.0
 20
0.0
 30
0.0
 11
-1.0
 21
0.0
 31
0.0
  0
LINE
  5
5D6
330
5D1
100
AcDbEntity
  8
DIM
 62
     0
100
AcDbLine
 10
0.0
 20
0.0
 30
0.0
 11
0.0
 21
-1.0
 31
0.0
  0
LINE
  5
5D7
330
5D1
100
AcDbEntity
  8
DIM
 62
     0
100
AcDbLine
 10
0.0
 20
0.0
 30
0.0
 11
1.0
 21
0.0
 31
0.0
  0
LINE
  5
5D8
330
5D1
100
AcDbEntity
  8
DIM
 62
     0
100
AcDbLine
 10
0.0
 20
2.0
 30
0.0
 11
0.0
 21
6.55
 31
0.0
  0
LINE
  5
5D9
330
5D1
100
AcDbEntity
  8
DIM
 62
     0
100
AcDbLine
 10
-2.0
 20
0.0
 30
0.0
 11
-6.55
 21
0.0
 31
0.0
  0
LINE
  5
5DA
330
5D1
100
AcDbEntity
  8
DIM
 62
     0
100
AcDbLine
 10
0.0
 20
-2.0
 30
0.0
 11
0.0
 21
-6.55
 31
0.0
  0
LINE
  5
5DB
330
5D1
100
AcDbEntity
  8
DIM
 62
     0
100
AcDbLine
 10
2.0
 20
0.0
 30
0.0
 11
6.55
 21
0.0
 31
0.0
  0
ENDBLK
  5
5D3
330
5D1
100
AcDbEntity
  8
0
100
AcDbBlockEnd
  0
BLOCK
  5
5DE
330
5DD
100
AcDbEntity
  8
0
100
AcDbBlockBegin
  2
SW_CENTERMARKSYMBOL_17
 70
     0
 10
0.0
 20
0.0
 30
0.0
  3
SW_CENTERMARKSYMBOL_17
  1

  0
LINE
  5
5E0
330
5DD
100
AcDbEntity
  8
DIM
 62
     0
100
AcDbLine
 10
0.0
 20
0.0
 30
0.0
 11
0.0
 21
1.0
 31
0.0
  0
LINE
  5
5E1
330
5DD
100
AcDbEntity
  8
DIM
 62
     0
100
AcDbLine
 10
0.0
 20
0.0
 30
0.0
 11
-1.0
 21
0.0
 31
0.0
  0
LINE
  5
5E2
330
5DD
100
AcDbEntity
  8
DIM
 62
     0
100
AcDbLine
 10
0.0
 20
0.0
 30
0.0
 11
0.0
 21
-1.0
 31
0.0
  0
LINE
  5
5E3
330
5DD
100
AcDbEntity
  8
DIM
 62
     0
100
AcDbLine
 10
0.0
 20
0.0
 30
0.0
 11
1.0
 21
0.0
 31
0.0
  0
LINE
  5
5E4
330
5DD
100
AcDbEntity
  8
DIM
 62
     0
100
AcDbLine
 10
0.0
 20
2.0
 30
0.0
 11
0.0
 21
6.55
 31
0.0
  0
LINE
  5
5E5
330
5DD
100
AcDbEntity
  8
DIM
 62
     0
100
AcDbLine
 10
-2.0
 20
0.0
 30
0.0
 11
-6.55
 21
0.0
 31
0.0
  0
LINE
  5
5E6
330
5DD
100
AcDbEntity
  8
DIM
 62
     0
100
AcDbLine
 10
0.0
 20
-2.0
 30
0.0
 11
0.0
 21
-6.55
 31
0.0
  0
LINE
  5
5E7
330
5DD
100
AcDbEntity
  8
DIM
 62
     0
100
AcDbLine
 10
2.0
 20
0.0
 30
0.0
 11
6.55
 21
0.0
 31
0.0
  0
ENDBLK
  5
5DF
330
5DD
100
AcDbEntity
  8
0
100
AcDbBlockEnd
  0
BLOCK
  5
5EA
330
5E9
100
AcDbEntity
  8
0
100
AcDbBlockBegin
  2
SW_CENTERMARKSYMBOL_18
 70
     0
 10
0.0
 20
0.0
 30
0.0
  3
SW_CENTERMARKSYMBOL_18
  1

  0
LINE
  5
5EC
330
5E9
100
AcDbEntity
  8
DIM
 62
     0
100
AcDbLine
 10
0.0
 20
0.0
 30
0.0
 11
0.0
 21
1.0
 31
0.0
  0
LINE
  5
5ED
330
5E9
100
AcDbEntity
  8
DIM
 62
     0
100
AcDbLine
 10
0.0
 20
0.0
 30
0.0
 11
-1.0
 21
0.0
 31
0.0
  0
LINE
  5
5EE
330
5E9
100
AcDbEntity
  8
DIM
 62
     0
100
AcDbLine
 10
0.0
 20
0.0
 30
0.0
 11
0.0
 21
-1.0
 31
0.0
  0
LINE
  5
5EF
330
5E9
100
AcDbEntity
  8
DIM
 62
     0
100
AcDbLine
 10
0.0
 20
0.0
 30
0.0
 11
1.0
 21
0.0
 31
0.0
  0
LINE
  5
5F0
330
5E9
100
AcDbEntity
  8
DIM
 62
     0
100
AcDbLine
 10
0.0
 20
2.0
 30
0.0
 11
0.0
 21
6.55
 31
0.0
  0
LINE
  5
5F1
330
5E9
100
AcDbEntity
  8
DIM
 62
     0
100
AcDbLine
 10
-2.0
 20
0.0
 30
0.0
 11
-6.55
 21
0.0
 31
0.0
  0
LINE
  5
5F2
330
5E9
100
AcDbEntity
  8
DIM
 62
     0
100
AcDbLine
 10
0.0
 20
-2.0
 30
0.0
 11
0.0
 21
-6.55
 31
0.0
  0
LINE
  5
5F3
330
5E9
100
AcDbEntity
  8
DIM
 62
     0
100
AcDbLine
 10
2.0
 20
0.0
 30
0.0
 11
6.55
 21
0.0
 31
0.0
  0
ENDBLK
  5
5EB
330
5E9
100
AcDbEntity
  8
0
100
AcDbBlockEnd
  0
BLOCK
  5
5F6
330
5F5
100
AcDbEntity
  8
0
100
AcDbBlockBegin
  2
SW_CENTERMARKSYMBOL_19
 70
     0
 10
0.0
 20
0.0
 30
0.0
  3
SW_CENTERMARKSYMBOL_19
  1

  0
LINE
  5
5F8
330
5F5
100
AcDbEntity
  8
DIM
 62
     0
100
AcDbLine
 10
0.0
 20
0.0
 30
0.0
 11
0.0
 21
1.0
 31
0.0
  0
LINE
  5
5F9
330
5F5
100
AcDbEntity
  8
DIM
 62
     0
100
AcDbLine
 10
0.0
 20
0.0
 30
0.0
 11
-1.0
 21
0.0
 31
0.0
  0
LINE
  5
5FA
330
5F5
100
AcDbEntity
  8
DIM
 62
     0
100
AcDbLine
 10
0.0
 20
0.0
 30
0.0
 11
0.0
 21
-1.0
 31
0.0
  0
LINE
  5
5FB
330
5F5
100
AcDbEntity
  8
DIM
 62
     0
100
AcDbLine
 10
0.0
 20
0.0
 30
0.0
 11
1.0
 21
0.0
 31
0.0
  0
LINE
  5
5FC
330
5F5
100
AcDbEntity
  8
DIM
 62
     0
100
AcDbLine
 10
0.0
 20
2.0
 30
0.0
 11
0.0
 21
6.55
 31
0.0
  0
LINE
  5
5FD
330
5F5
100
AcDbEntity
  8
DIM
 62
     0
100
AcDbLine
 10
-2.0
 20
0.0
 30
0.0
 11
-6.55
 21
0.0
 31
0.0
  0
LINE
  5
5FE
330
5F5
100
AcDbEntity
  8
DIM
 62
     0
100
AcDbLine
 10
0.0
 20
-2.0
 30
0.0
 11
0.0
 21
-6.55
 31
0.0
  0
LINE
  5
5FF
330
5F5
100
AcDbEntity
  8
DIM
 62
     0
100
AcDbLine
 10
2.0
 20
0.0
 30
0.0
 11
6.55
 21
0.0
 31
0.0
  0
ENDBLK
  5
5F7
330
5F5
100
AcDbEntity
  8
0
100
AcDbBlockEnd
  0
BLOCK
  5
602
330
601
100
AcDbEntity
  8
0
100
AcDbBlockBegin
  2
SW_CENTERMARKSYMBOL_20
 70
     0
 10
0.0
 20
0.0
 30
0.0
  3
SW_CENTERMARKSYMBOL_20
  1

  0
LINE
  5
604
330
601
100
AcDbEntity
  8
DIM
 62
     0
100
AcDbLine
 10
0.0
 20
0.0
 30
0.0
 11
0.0
 21
1.0
 31
0.0
  0
LINE
  5
605
330
601
100
AcDbEntity
  8
DIM
 62
     0
100
AcDbLine
 10
0.0
 20
0.0
 30
0.0
 11
-1.0
 21
0.0
 31
0.0
  0
LINE
  5
606
330
601
100
AcDbEntity
  8
DIM
 62
     0
100
AcDbLine
 10
0.0
 20
0.0
 30
0.0
 11
0.0
 21
-1.0
 31
0.0
  0
LINE
  5
607
330
601
100
AcDbEntity
  8
DIM
 62
     0
100
AcDbLine
 10
0.0
 20
0.0
 30
0.0
 11
1.0
 21
0.0
 31
0.0
  0
LINE
  5
608
330
601
100
AcDbEntity
  8
DIM
 62
     0
100
AcDbLine
 10
0.0
 20
2.0
 30
0.0
 11
0.0
 21
3.5527
 31
0.0
  0
LINE
  5
609
330
601
100
AcDbEntity
  8
DIM
 62
     0
100
AcDbLine
 10
-2.0
 20
0.0
 30
0.0
 11
-3.5527
 21
0.0
 31
0.0
  0
LINE
  5
60A
330
601
100
AcDbEntity
  8
DIM
 62
     0
100
AcDbLine
 10
0.0
 20
-2.0
 30
0.0
 11
0.0
 21
-3.5527
 31
0.0
  0
LINE
  5
60B
330
601
100
AcDbEntity
  8
DIM
 62
     0
100
AcDbLine
 10
2.0
 20
0.0
 30
0.0
 11
3.5527
 21
0.0
 31
0.0
  0
ENDBLK
  5
603
330
601
100
AcDbEntity
  8
0
100
AcDbBlockEnd
  0
BLOCK
  5
60E
330
60D
100
AcDbEntity
  8
0
100
AcDbBlockBegin
  2
SW_CENTERMARKSYMBOL_21
 70
     0
 10
0.0
 20
0.0
 30
0.0
  3
SW_CENTERMARKSYMBOL_21
  1

  0
LINE
  5
610
330
60D
100
AcDbEntity
  8
DIM
 62
     0
100
AcDbLine
 10
0.0
 20
0.0
 30
0.0
 11
0.0
 21
1.0
 31
0.0
  0
LINE
  5
611
330
60D
100
AcDbEntity
  8
DIM
 62
     0
100
AcDbLine
 10
0.0
 20
0.0
 30
0.0
 11
-1.0
 21
0.0
 31
0.0
  0
LINE
  5
612
330
60D
100
AcDbEntity
  8
DIM
 62
     0
100
AcDbLine
 10
0.0
 20
0.0
 30
0.0
 11
0.0
 21
-1.0
 31
0.0
  0
LINE
  5
613
330
60D
100
AcDbEntity
  8
DIM
 62
     0
100
AcDbLine
 10
0.0
 20
0.0
 30
0.0
 11
1.0
 21
0.0
 31
0.0
  0
LINE
  5
614
330
60D
100
AcDbEntity
  8
DIM
 62
     0
100
AcDbLine
 10
0.0
 20
2.0
 30
0.0
 11
0.0
 21
3.5527
 31
0.0
  0
LINE
  5
615
330
60D
100
AcDbEntity
  8
DIM
 62
     0
100
AcDbLine
 10
-2.0
 20
0.0
 30
0.0
 11
-3.5527
 21
0.0
 31
0.0
  0
LINE
  5
616
330
60D
100
AcDbEntity
  8
DIM
 62
     0
100
AcDbLine
 10
0.0
 20
-2.0
 30
0.0
 11
0.0
 21
-3.5527
 31
0.0
  0
LINE
  5
617
330
60D
100
AcDbEntity
  8
DIM
 62
     0
100
AcDbLine
 10
2.0
 20
0.0
 30
0.0
 11
3.5527
 21
0.0
 31
0.0
  0
ENDBLK
  5
60F
330
60D
100
AcDbEntity
  8
0
100
AcDbBlockEnd
  0
ENDSEC
  0
SECTION
  2
ENTITIES
  0
HATCH
  5
89
330
1F
100
AcDbEntity
  8
0
  6
Continuous
 62
     7
100
AcDbHatch
 10
0.0
 20
0.0
 30
0.0
210
0.0
220
0.0
230
1.0
  2
SOLID
 70
     1
 71
     0
 91
        1
 92
        0
 93
       10
 72
     2
 10
480.3514914073417
 20
89.3895220247214
 40
7.474091644424647
 50
50.39692260731395
 51
112.8514693252979
 73
     0
 72
     2
 10
479.53751490703
 20
88.59749570015511
 40
6.443338567044046
 50
108.9134333432862
 51
219.5668234386827
 73
     0
 72
     1
 10
474.5704598474009
 20
92.70175884037526
 11
472.0324752288947
 21
94.94058859241966
 72
     1
 10
472.0324752288947
 20
94.94058859241966
 11
468.7659045916906
 21
91.7866209011509
 72
     2
 10
471.2356169965973
 20
88.86530281931115
 40
3.825386084859154
 50
130.2115225915094
 51
228.5889041080181
 73
     1
 72
     1
 10
468.7052881366275
 20
85.99632834074944
 11
478.7282939121165
 21
77.28481874006276
 72
     1
 10
478.7282939121165
 20
77.28481874006276
 11
477.1506641110787
 21
75.74506776388517
 72
     1
 10
477.1506641110787
 20
75.74506776388517
 11
479.6303625228926
 21
73.6101320965006
 72
     1
 10
479.6303625228926
 20
73.6101320965006
 11
487.6545236088058
 21
81.40157701028932
 72
     1
 10
487.6545236088058
 20
81.40157701028932
 11
485.1159660296603
 21
83.63089132962207
 97
        0
 75
     0
 76
     1
 98
        1
 10
0.0
 20
0.0
  0
HATCH
  5
8A
330
1F
100
AcDbEntity
  8
0
  6
Continuous
 62
     1
100
AcDbHatch
 10
0.0
 20
0.0
 30
0.0
210
0.0
220
0.0
230
1.0
  2
SOLID
 70
     1
 71
     0
 91
        1
 92
        0
 93
       10
 72
     2
 10
481.4731139069222
 20
89.15767289079024
 40
6.443918720865625
 50
317.818499299578
 51
398.0564711573081
 73
     0
 72
     1
 10
486.5470785145408
 20
85.18539751743617
 11
489.0107007469978
 21
83.03865516771245
 72
     1
 10
489.0107007469978
 20
83.03865516771245
 11
492.1149040339822
 21
86.04973752373047
 72
     2
 10
489.881423219827
 20
89.11960435328278
 40
3.796382343545663
 50
306.0377529468132
 51
403.4396461533873
 73
     1
 72
     1
 10
492.6379728815077
 20
91.72995928337816
 11
482.3210832356494
 21
100.702899954963
 72
     1
 10
482.3210832356494
 20
100.702899954963
 11
483.8817114904676
 21
102.2255460320564
 72
     1
 10
483.8817114904676
 20
102.2255460320564
 11
481.5554452150075
 21
104.3010265816676
 72
     1
 10
481.5554452150075
 20
104.3010265816676
 11
473.4664815939828
 21
96.48372596513244
 72
     1
 10
473.4664815939828
 20
96.48372596513244
 11
476.0225012873543
 21
94.25424964733045
 72
     2
 10
480.678973180111
 20
87.80561837709479
 40
7.95409176131969
 50
234.1674444878512
 51
314.4407074583989
 73
     0
 97
        0
 75
     0
 76
     1
 98
        1
 10
0.0
 20
0.0
  0
LINE
  5
8B
330
1F
100
AcDbEntity
  8
0
  6
Continuous
 62
     7
370
     0
100
AcDbLine
 10
419.6484437962
 20
44.4362981281
 30
0.0
 11
422.1484437962
 21
44.4362981281
 31
0.0
  0
LINE
  5
8C
330
1F
100
AcDbEntity
  8
0
  6
Continuous
 62
     7
370
     0
100
AcDbLine
 10
412.1484437962
 20
44.4362981281
 30
0.0
 11
418.3984437962
 21
44.4362981281
 31
0.0
  0
LINE
  5
8D
330
1F
100
AcDbEntity
  8
0
  6
Continuous
 62
     7
370
     0
100
AcDbLine
 10
453.3984437962
 20
38.1862981281
 30
0.0
 11
453.3984437962
 21
50.6862981281
 31
0.0
  0
LINE
  5
8E
330
1F
100
AcDbEntity
  8
0
  6
Continuous
 62
     7
370
     0
100
AcDbLine
 10
435.8984437962
 20
40.6862981281
 30
0.0
 11
453.3984437962
 21
38.1862981281
 31
0.0
  0
LINE
  5
8F
330
1F
100
AcDbEntity
  8
0
  6
Continuous
 62
     7
370
     0
100
AcDbLine
 10
420.8984437962
 20
41.9362981281
 30
0.0
 11
420.8984437962
 21
35.6862981281
 31
0.0
  0
LINE
  5
90
330
1F
100
AcDbEntity
  8
0
  6
Continuous
 62
     7
370
     0
100
AcDbLine
 10
453.3984437962
 20
50.6862981281
 30
0.0
 11
435.8984437962
 21
48.1862981281
 31
0.0
  0
LINE
  5
91
330
1F
100
AcDbEntity
  8
0
  6
Continuous
 62
     7
370
     0
100
AcDbLine
 10
433.3984437962
 20
44.4362981281
 30
0.0
 11
455.8984437962
 21
44.4362981281
 31
0.0
  0
LINE
  5
92
330
1F
100
AcDbEntity
  8
0
  6
Continuous
 62
     7
370
     0
100
AcDbLine
 10
420.8984437962
 20
45.6862981281
 30
0.0
 11
420.8984437962
 21
43.1862981281
 31
0.0
  0
LINE
  5
93
330
1F
100
AcDbEntity
  8
0
  6
Continuous
 62
     7
370
     0
100
AcDbLine
 10
423.3984437962
 20
44.4362981281
 30
0.0
 11
429.6484437962
 21
44.4362981281
 31
0.0
  0
LINE
  5
94
330
1F
100
AcDbEntity
  8
0
  6
Continuous
 62
     7
370
     0
100
AcDbLine
 10
420.8984437962
 20
53.1862981281
 30
0.0
 11
420.8984437962
 21
46.9362981281
 31
0.0
  0
LINE
  5
95
330
1F
100
AcDbEntity
  8
0
  6
Continuous
 62
     7
370
     0
100
AcDbLine
 10
435.8984437962
 20
48.1862981281
 30
0.0
 11
435.8984437962
 21
40.6862981281
 31
0.0
  0
LINE
  5
96
330
1F
100
AcDbEntity
  8
工作區域參考線
 62
     1
370
    30
100
AcDbLine
 10
476.0225012874
 20
94.2542496473
 30
0.0
 11
473.466481594
 21
96.4837259651
 31
0.0
  0
LINE
  5
97
330
1F
100
AcDbEntity
  8
工作區域參考線
 62
     1
370
    30
100
AcDbLine
 10
473.466481594
 20
96.4837259651
 30
0.0
 11
481.555445215
 21
104.3010265817
 31
0.0
  0
LINE
  5
98
330
1F
100
AcDbEntity
  8
工作區域參考線
 62
     1
370
    30
100
AcDbLine
 10
481.555445215
 20
104.3010265817
 30
0.0
 11
483.8817114905
 21
102.2255460321
 31
0.0
  0
LINE
  5
99
330
1F
100
AcDbEntity
  8
工作區域參考線
 62
     1
370
    30
100
AcDbLine
 10
483.8817114905
 20
102.2255460321
 30
0.0
 11
482.3210832356
 21
100.702899955
 31
0.0
  0
LINE
  5
9A
330
1F
100
AcDbEntity
  8
工作區域參考線
 62
     1
370
    30
100
AcDbLine
 10
482.3210832356
 20
100.702899955
 30
0.0
 11
492.6379728815
 21
91.7299592834
 31
0.0
  0
LINE
  5
9B
330
1F
100
AcDbEntity
  8
工作區域參考線
 62
     1
370
    30
100
AcDbLine
 10
486.5470785145
 20
85.1853975174
 30
0.0
 11
489.010700747
 21
83.0386551677
 31
0.0
  0
LINE
  5
9C
330
1F
100
AcDbEntity
  8
工作區域參考線
 62
     1
370
    30
100
AcDbLine
 10
489.010700747
 20
83.0386551677
 30
0.0
 11
492.114904034
 21
86.0497375237
 31
0.0
  0
LINE
  5
9D
330
1F
100
AcDbEntity
  8
0
  6
Continuous
 62
     7
370
     0
100
AcDbLine
 10
464.2269913023
 20
32.7881160198
 30
0.0
 11
714.2269913023
 21
32.7881160198
 31
0.0
  0
LINE
  5
9E
330
1F
100
AcDbEntity
  8
0
  6
Continuous
 62
     7
370
     0
100
AcDbLine
 10
464.2269913023
 20
45.2881160198
 30
0.0
 11
589.2269913023
 21
45.2881160198
 31
0.0
  0
LINE
  5
9F
330
1F
100
AcDbEntity
  8
0
  6
Continuous
 62
     7
370
     0
100
AcDbLine
 10
464.2269913023
 20
57.7881160198
 30
0.0
 11
589.2269913023
 21
57.7881160198
 31
0.0
  0
LINE
  5
A0
330
1F
100
AcDbEntity
  8
0
  6
Continuous
 62
     7
370
     0
100
AcDbLine
 10
464.2269913023
 20
70.2881160198
 30
0.0
 11
714.2269913023
 21
70.2881160198
 31
0.0
  0
LINE
  5
A1
330
1F
100
AcDbEntity
  8
0
  6
Continuous
 62
     7
370
     0
100
AcDbLine
 10
589.2269913023
 20
82.7881160198
 30
0.0
 11
714.2269913023
 21
82.7881160198
 31
0.0
  0
LINE
  5
A2
330
1F
100
AcDbEntity
  8
0
  6
Continuous
 62
     7
370
    15
100
AcDbLine
 10
589.2269913023
 20
45.2881160198
 30
0.0
 11
714.2269913023
 21
45.2881160198
 31
0.0
  0
LINE
  5
A3
330
1F
100
AcDbEntity
  8
0
  6
Continuous
 62
     7
370
     0
100
AcDbLine
 10
464.2269913023
 20
107.7881160198
 30
0.0
 11
714.2269913023
 21
107.7881160198
 31
0.0
  0
LINE
  5
A4
330
1F
100
AcDbEntity
  8
0
  6
Continuous
 62
     7
370
     0
100
AcDbLine
 10
628.0930441876
 20
20.2881160198
 30
0.0
 11
628.0930441876
 21
45.2881160198
 31
0.0
  0
LINE
  5
A5
330
1F
100
AcDbEntity
  8
0
  6
Continuous
 62
     7
370
     0
100
AcDbLine
 10
589.2269913023
 20
20.2881160198
 30
0.0
 11
589.2269913023
 21
107.7881160198
 31
0.0
  0
LINE
  5
A6
330
1F
100
AcDbEntity
  8
0
  6
Continuous
 62
     7
370
     0
100
AcDbLine
 10
628.0930441876
 20
70.2881160198
 30
0.0
 11
628.0930441876
 21
82.7881160198
 31
0.0
  0
LINE
  5
A7
330
1F
100
AcDbEntity
  8
0
  6
Continuous
 62
     7
370
     0
100
AcDbLine
 10
536.0410215883
 20
20.2881160198
 30
0.0
 11
536.0410215883
 21
70.2881160198
 31
0.0
  0
LINE
  5
A8
330
1F
100
AcDbEntity
  8
0
  6
Continuous
 62
     7
370
     0
100
AcDbLine
 10
499.4464718764
 20
20.2881160198
 30
0.0
 11
499.4464718764
 21
70.2881160198
 31
0.0
  0
LINE
  5
A9
330
1F
100
AcDbEntity
  8
0
  6
Continuous
 62
     7
370
     0
100
AcDbLine
 10
464.2269913023
 20
20.2881160198
 30
0.0
 11
464.2269913023
 21
107.7881160198
 31
0.0
  0
LINE
  5
AA
330
1F
100
AcDbEntity
  8
0
  6
Continuous
 62
     7
370
    15
100
AcDbLine
 10
108.3019913023
 20
503.4300689377
 30
0.0
 11
108.3019913023
 21
507.1800689377
 31
0.0
  0
LINE
  5
AB
330
1F
100
AcDbEntity
  8
0
  6
Continuous
 62
     7
370
    15
100
AcDbLine
 10
194.8769913023
 20
503.4300689377
 30
0.0
 11
194.8769913023
 21
507.1800689377
 31
0.0
  0
LINE
  5
AC
330
1F
100
AcDbEntity
  8
0
  6
Continuous
 62
     7
370
    15
100
AcDbLine
 10
281.4519913023
 20
503.4300689377
 30
0.0
 11
281.4519913023
 21
507.1800689377
 31
0.0
  0
LINE
  5
AD
330
1F
100
AcDbEntity
  8
0
  6
Continuous
 62
     7
370
    15
100
AcDbLine
 10
368.0269913023
 20
503.4300689377
 30
0.0
 11
368.0269913023
 21
507.1800689377
 31
0.0
  0
LINE
  5
AE
330
1F
100
AcDbEntity
  8
0
  6
Continuous
 62
     7
370
    15
100
AcDbLine
 10
454.6019913023
 20
503.4300689377
 30
0.0
 11
454.6019913023
 21
507.1800689377
 31
0.0
  0
LINE
  5
AF
330
1F
100
AcDbEntity
  8
0
  6
Continuous
 62
     7
370
    15
100
AcDbLine
 10
541.1769913023
 20
503.4300689377
 30
0.0
 11
541.1769913023
 21
507.1800689377
 31
0.0
  0
LINE
  5
B0
330
1F
100
AcDbEntity
  8
0
  6
Continuous
 62
     7
370
    15
100
AcDbLine
 10
627.7519913023
 20
503.4300689377
 30
0.0
 11
627.7519913023
 21
507.1800689377
 31
0.0
  0
LINE
  5
B1
330
1F
100
AcDbEntity
  8
0
  6
Continuous
 62
     7
370
    15
100
AcDbLine
 10
108.2894913023
 20
20.2881160198
 30
0.0
 11
108.2894913023
 21
16.5381160198
 31
0.0
  0
LINE
  5
B2
330
1F
100
AcDbEntity
  8
0
  6
Continuous
 62
     7
370
    15
100
AcDbLine
 10
194.8519913023
 20
20.2881160198
 30
0.0
 11
194.8519913023
 21
16.5381160198
 31
0.0
  0
LINE
  5
B3
330
1F
100
AcDbEntity
  8
0
  6
Continuous
 62
     7
370
    15
100
AcDbLine
 10
281.4144913023
 20
20.2881160198
 30
0.0
 11
281.4144913023
 21
16.5381160198
 31
0.0
  0
LINE
  5
B4
330
1F
100
AcDbEntity
  8
0
  6
Continuous
 62
     7
370
    15
100
AcDbLine
 10
367.9769913023
 20
20.2881160198
 30
0.0
 11
367.9769913023
 21
16.5381160198
 31
0.0
  0
LINE
  5
B5
330
1F
100
AcDbEntity
  8
0
  6
Continuous
 62
     7
370
    15
100
AcDbLine
 10
454.5394913023
 20
20.2881160198
 30
0.0
 11
454.5394913023
 21
16.5381160198
 31
0.0
  0
LINE
  5
B6
330
1F
100
AcDbEntity
  8
0
  6
Continuous
 62
     7
370
    15
100
AcDbLine
 10
541.1019913023
 20
20.2881160198
 30
0.0
 11
541.1019913023
 21
16.5381160198
 31
0.0
  0
LINE
  5
B7
330
1F
100
AcDbEntity
  8
0
  6
Continuous
 62
     7
370
     0
100
AcDbLine
 10
714.2269913023
 20
503.4300689377
 30
0.0
 11
21.7269913023
 21
503.4300689377
 31
0.0
  0
LINE
  5
B8
330
1F
100
AcDbEntity
  8
0
  6
Continuous
 62
     7
370
     0
100
AcDbLine
 10
714.2269913023
 20
20.2881160198
 30
0.0
 11
714.2269913023
 21
503.4300689377
 31
0.0
  0
LINE
  5
B9
330
1F
100
AcDbEntity
  8
0
  6
Continuous
 62
     7
370
     0
100
AcDbLine
 10
21.7269913023
 20
503.4300689377
 30
0.0
 11
21.7269913023
 21
20.2881160198
 31
0.0
  0
LINE
  5
BA
330
1F
100
AcDbEntity
  8
0
  6
Continuous
 62
     7
370
     0
100
AcDbLine
 10
21.7269913023
 20
20.2881160198
 30
0.0
 11
714.2269913023
 21
20.2881160198
 31
0.0
  0
LINE
  5
BB
330
1F
100
AcDbEntity
  8
0
  6
Continuous
 62
     7
370
    15
100
AcDbLine
 10
627.6644913023
 20
20.2881160198
 30
0.0
 11
627.6644913023
 21
16.5381160198
 31
0.0
  0
LINE
  5
BC
330
1F
100
AcDbEntity
  8
0
  6
Continuous
 62
     7
370
    15
100
AcDbLine
 10
21.7269913023
 20
100.8131160198
 30
0.0
 11
17.9769913023
 21
100.8131160198
 31
0.0
  0
LINE
  5
BD
330
1F
100
AcDbEntity
  8
0
  6
Continuous
 62
     7
370
    15
100
AcDbLine
 10
21.7269913023
 20
181.3381160198
 30
0.0
 11
17.9769913023
 21
181.3381160198
 31
0.0
  0
LINE
  5
BE
330
1F
100
AcDbEntity
  8
0
  6
Continuous
 62
     7
370
    15
100
AcDbLine
 10
21.7269913023
 20
261.8631160198
 30
0.0
 11
17.9769913023
 21
261.8631160198
 31
0.0
  0
LINE
  5
BF
330
1F
100
AcDbEntity
  8
0
  6
Continuous
 62
     7
370
    15
100
AcDbLine
 10
21.7269913023
 20
342.3881160198
 30
0.0
 11
17.9769913023
 21
342.3881160198
 31
0.0
  0
LINE
  5
C0
330
1F
100
AcDbEntity
  8
0
  6
Continuous
 62
     7
370
    15
100
AcDbLine
 10
21.7269913023
 20
422.9131160198
 30
0.0
 11
17.9769913023
 21
422.9131160198
 31
0.0
  0
LINE
  5
C1
330
1F
100
AcDbEntity
  8
0
  6
Continuous
 62
     7
370
    15
100
AcDbLine
 10
714.2269913023
 20
100.8131160198
 30
0.0
 11
717.9769913023
 21
100.8131160198
 31
0.0
  0
LINE
  5
C2
330
1F
100
AcDbEntity
  8
0
  6
Continuous
 62
     7
370
    15
100
AcDbLine
 10
714.2269913023
 20
181.3381160198
 30
0.0
 11
717.9769913023
 21
181.3381160198
 31
0.0
  0
LINE
  5
C3
330
1F
100
AcDbEntity
  8
0
  6
Continuous
 62
     7
370
    15
100
AcDbLine
 10
714.2269913023
 20
261.8631160198
 30
0.0
 11
717.9769913023
 21
261.8631160198
 31
0.0
  0
LINE
  5
C4
330
1F
100
AcDbEntity
  8
0
  6
Continuous
 62
     7
370
    15
100
AcDbLine
 10
714.2269913023
 20
342.3881160198
 30
0.0
 11
717.9769913023
 21
342.3881160198
 31
0.0
  0
LINE
  5
C5
330
1F
100
AcDbEntity
  8
0
  6
Continuous
 62
     7
370
    15
100
AcDbLine
 10
714.2269913023
 20
422.9131160198
 30
0.0
 11
717.9769913023
 21
422.9131160198
 31
0.0
  0
CIRCLE
  5
C6
330
1F
100
AcDbEntity
  8
0
  6
Continuous
 62
     7
370
     0
100
AcDbCircle
 10
420.8984437962
 20
44.4362981281
 30
0.0
 40
3.750000000000057
  0
CIRCLE
  5
C7
330
1F
100
AcDbEntity
  8
0
  6
Continuous
 62
     7
370
     0
100
AcDbCircle
 10
420.8984437962
 20
44.4362981281
 30
0.0
 40
6.250000000000057
  0
ARC
  5
C8
330
1F
100
AcDbEntity
  8
工作區域參考線
 62
     1
370
    30
100
AcDbCircle
 10
489.8814232198
 20
89.1196043533
 30
0.0
 40
3.7963823435457
100
AcDbArc
 50
306.0377529468
 51
43.4396461534
  0
ARC
  5
C9
330
1F
100
AcDbEntity
  8
工作區域參考線
 62
     1
370
    30
100
AcDbCircle
 10
480.6789731801
 20
87.8056183771
 30
0.0
 40
7.954091761319693
100
AcDbArc
 50
45.5592925416
 51
125.8325555121
  0
ARC
  5
CA
330
1F
100
AcDbEntity
  8
工作區域參考線
 62
     1
370
    30
100
AcDbCircle
 10
481.4731139069
 20
89.1576728908
 30
0.0
 40
6.443918720865634
100
AcDbArc
 50
321.9435288427
 51
42.1815007004
  0
INSERT
  5
CB
330
1F
100
AcDbEntity
  8
0
  6
Continuous
 62
     7
100
AcDbBlockReference
  2
圖塊6
 10
467.4102309117
 20
73.6101320965
 30
0.0
  0
MTEXT
  5
CD
330
1F
100
AcDbEntity
  8
0
  6
Continuous
 62
     7
370
     0
100
AcDbMText
 10
413.8567127011
 20
33.0521100923
 30
0.0
 40
6.6145833333
 41
0.0
 71
     1
 72
     1
  1
UNIT:m/m
  7
SLDTEXTSTYLE0
 73
     1
 44
1.0
  0
INSERT
  5
D4
330
1F
100
AcDbEntity
  8
0
  6
Continuous
 62
     7
370
     0
100
AcDbBlockReference
  2
SW_NOTE_0
 10
30.5787690133
 20
484.7260760628
 30
0.0
  0
MTEXT
  5
D5
330
1F
100
AcDbEntity
  8
0
  6
Continuous
 62
     7
370
     0
100
AcDbMText
 10
496.8129734837
 20
101.1016935347
 30
0.0
 40
5.953125
 41
0.0
 71
     1
 72
     1
  1
Unice E-O Services Inc.
  7
SLDTEXTSTYLE0
 73
     1
 44
1.0
  0
MTEXT
  5
D6
330
1F
100
AcDbEntity
  8
0
  6
Continuous
 62
     7
370
     0
100
AcDbMText
 10
543.8976345373
 20
53.9667871277
 30
0.0
 40
4.6302083333
 41
0.0
 71
     1
 72
     1
  1
2018/2/9
  7
SLDTEXTSTYLE0
 73
     1
 44
1.0
  0
MTEXT
  5
D7
330
1F
100
AcDbEntity
  8
0
  6
Continuous
 62
     7
370
     0
100
AcDbMText
 10
631.5222456267
 20
42.1779443499
 30
0.0
 40
6.25
 41
0.0
 71
     1
 72
     1
  1
1:2.5
  7
SLDTEXTSTYLE0
 73
     1
 44
1.0
  0
MTEXT
  5
D8
330
1F
100
AcDbEntity
  8
0
  6
Continuous
 62
     7
370
     0
100
AcDbMText
 10
630.7688999962
 20
80.3797988594
 30
0.0
 40
6.25
 41
0.0
 71
     1
 72
     1
  1
VBT1535
  7
SLDTEXTSTYLE0
 73
     1
 44
1.0
  0
MTEXT
  5
D9
330
1F
100
AcDbEntity
  8
0
  6
Continuous
 62
     7
370
     0
100
AcDbMText
 10
630.7688999962
 20
95.2705294697
 30
0.0
 40
6.25
 41
0.0
 71
     1
 72
     1
  1
VBT1535
  7
SLDTEXTSTYLE0
 73
     1
 44
1.0
  0
MTEXT
  5
DA
330
1F
100
AcDbEntity
  8
0
  6
Continuous
 62
     7
370
     0
100
AcDbMText
 10
590.9804666966
 20
41.2661989321
 30
0.0
 40
5.2916666667
 41
0.0
 71
     1
 72
     1
  1
SCALE:
  7
SLDTEXTSTYLE0
 73
     1
 44
1.0
  0
MTEXT
  5
DB
330
1F
100
AcDbEntity
  8
0
  6
Continuous
 62
     7
370
     0
100
AcDbMText
 10
465.8340216973
 20
53.9667871277
 30
0.0
 40
4.6302083333
 41
0.0
 71
     1
 72
     1
  1
DRAWN
  7
SLDTEXTSTYLE0
 73
     1
 44
1.0
  0
MTEXT
  5
DC
330
1F
100
AcDbEntity
  8
0
  6
Continuous
 62
     7
370
     0
100
AcDbMText
 10
508.0570919842
 20
66.70802077
 30
0.0
 40
4.6302083333
 41
0.0
 71
     1
 72
     1
  1
NAME
  7
SLDTEXTSTYLE0
 73
     1
 44
1.0
  0
MTEXT
  5
DD
330
1F
100
AcDbEntity
  8
0
  6
Continuous
 62
     7
370
     0
100
AcDbMText
 10
552.1775389394
 20
66.70802077
 30
0.0
 40
4.6302083333
 41
0.0
 71
     1
 72
     1
  1
DATE
  7
SLDTEXTSTYLE0
 73
     1
 44
1.0
  0
MTEXT
  5
DE
330
1F
100
AcDbEntity
  8
0
  6
Continuous
 62
     7
370
     0
100
AcDbMText
 10
590.6890791613
 20
79.4680534415
 30
0.0
 40
5.2916666667
 41
0.0
 71
     1
 72
     1
  1
DWG. NO.
  7
SLDTEXTSTYLE0
 73
     1
 44
1.0
  0
MTEXT
  5
DF
330
1F
100
AcDbEntity
  8
0
  6
Continuous
 62
     7
370
     0
100
AcDbMText
 10
590.9074767721
 20
104.7101645608
 30
0.0
 40
5.2916666667
 41
0.0
 71
     1
 72
     1
  1
TITLE:
  7
SLDTEXTSTYLE0
 73
     1
 44
1.0
  0
MTEXT
  5
E0
330
1F
100
AcDbEntity
  8
0
  6
Continuous
 62
     7
370
     0
100
AcDbMText
 10
507.5785524505
 20
40.600947431
 30
0.0
 40
4.6302083333
 41
0.0
 71
     1
 72
     1
  1
Johnny
  7
SLDTEXTSTYLE0
 73
     1
 44
1.0
  0
MTEXT
  5
E1
330
1F
100
AcDbEntity
  8
0
  6
Continuous
 62
     7
370
     0
100
AcDbMText
 10
543.8976345373
 20
40.600947431
 30
0.0
 40
4.6302083333
 41
0.0
 71
     1
 72
     1
  1
2018/2/9
  7
SLDTEXTSTYLE0
 73
     1
 44
1.0
  0
MTEXT
  5
E2
330
1F
100
AcDbEntity
  8
0
  6
Continuous
 62
     7
370
     0
100
AcDbMText
 10
465.8340216973
 20
40.600947431
 30
0.0
 40
4.6302083333
 41
0.0
 71
     1
 72
     1
  1
ENG APPR.
  7
SLDTEXTSTYLE0
 73
     1
 44
1.0
  0
MTEXT
  5
E3
330
1F
100
AcDbEntity
  8
0
  6
Continuous
 62
     7
370
     0
100
AcDbMText
 10
590.9804666966
 20
29.2133473219
 30
0.0
 40
5.2916666667
 41
0.0
 71
     1
 72
     1
  1
REV
  7
SLDTEXTSTYLE0
 73
     1
 44
1.0
  0
MTEXT
  5
E4
330
1F
100
AcDbEntity
  8
0
  6
Continuous
 62
     7
370
     0
100
AcDbMText
 10
590.9074767721
 20
67.3732722711
 30
0.0
 40
5.2916666667
 41
0.0
 71
     1
 72
     1
  1
MATERIAL:
  7
SLDTEXTSTYLE0
 73
     1
 44
1.0
  0
MTEXT
  5
E5
330
1F
100
AcDbEntity
  8
0
  6
Continuous
 62
     7
370
     0
100
AcDbMText
 10
631.5222456267
 20
55.5437840467
 30
0.0
 40
6.25
 41
0.0
 71
     1
 72
     1
  1
N/A
  7
SLDTEXTSTYLE0
 73
     1
 44
1.0
  0
MTEXT
  5
E6
330
1F
100
AcDbEntity
  8
0
  6
Continuous
 62
     7
370
     0
100
AcDbMText
 10
66.5074828833
 20
511.1333791424
 30
0.0
 40
5.2916666667
 41
0.0
 71
     1
 72
     1
  1
1
  7
SLDTEXTSTYLE0
 73
     1
 44
1.0
  0
MTEXT
  5
E7
330
1F
100
AcDbEntity
  8
0
  6
Continuous
 62
     7
370
     0
100
AcDbMText
 10
151.792748931
 20
511.1333791424
 30
0.0
 40
5.2916666667
 41
0.0
 71
     1
 72
     1
  1
2
  7
SLDTEXTSTYLE0
 73
     1
 44
1.0
  0
MTEXT
  5
E8
330
1F
100
AcDbEntity
  8
0
  6
Continuous
 62
     7
370
     0
100
AcDbMText
 10
237.2524859765
 20
511.1333791424
 30
0.0
 40
5.2916666667
 41
0.0
 71
     1
 72
     1
  1
3
  7
SLDTEXTSTYLE0
 73
     1
 44
1.0
  0
MTEXT
  5
E9
330
1F
100
AcDbEntity
  8
0
  6
Continuous
 62
     7
370
     0
100
AcDbMText
 10
323.1333407128
 20
510.7481460911
 30
0.0
 40
5.2916666667
 41
0.0
 71
     1
 72
     1
  1
4
  7
SLDTEXTSTYLE0
 73
     1
 44
1.0
  0
MTEXT
  5
EA
330
1F
100
AcDbEntity
  8
0
  6
Continuous
 62
     7
370
     0
100
AcDbMText
 10
409.2558086599
 20
511.1333791424
 30
0.0
 40
5.2916666667
 41
0.0
 71
     1
 72
     1
  1
5
  7
SLDTEXTSTYLE0
 73
     1
 44
1.0
  0
MTEXT
  5
EB
330
1F
100
AcDbEntity
  8
0
  6
Continuous
 62
     7
370
     0
100
AcDbMText
 10
496.5955426038
 20
511.1333791424
 30
0.0
 40
5.2916666667
 41
0.0
 71
     1
 72
     1
  1
6
  7
SLDTEXTSTYLE0
 73
     1
 44
1.0
  0
MTEXT
  5
EC
330
1F
100
AcDbEntity
  8
0
  6
Continuous
 62
     7
370
     0
100
AcDbMText
 10
585.9076643516
 20
511.1333791424
 30
0.0
 40
5.2916666667
 41
0.0
 71
     1
 72
     1
  1
7
  7
SLDTEXTSTYLE0
 73
     1
 44
1.0
  0
MTEXT
  5
ED
330
1F
100
AcDbEntity
  8
0
  6
Continuous
 62
     7
370
     0
100
AcDbMText
 10
665.6969551234
 20
511.1333791424
 30
0.0
 40
5.2916666667
 41
0.0
 71
     1
 72
     1
  1
8
  7
SLDTEXTSTYLE0
 73
     1
 44
1.0
  0
MTEXT
  5
EE
330
1F
100
AcDbEntity
  8
0
  6
Continuous
 62
     7
370
     0
100
AcDbMText
 10
13.3920591386
 20
464.5282557198
 30
0.0
 40
5.2916666667
 41
0.0
 71
     1
 72
     1
  1
A
  7
SLDTEXTSTYLE0
 73
     1
 44
1.0
  0
MTEXT
  5
EF
330
1F
100
AcDbEntity
  8
0
  6
Continuous
 62
     7
370
     0
100
AcDbMText
 10
13.9776079578
 20
385.7482620595
 30
0.0
 40
5.2916666667
 41
0.0
 71
     1
 72
     1
  1
B
  7
SLDTEXTSTYLE0
 73
     1
 44
1.0
  0
MTEXT
  5
F0
330
1F
100
AcDbEntity
  8
0
  6
Continuous
 62
     7
370
     0
100
AcDbMText
 10
13.9776079578
 20
303.1858785575
 30
0.0
 40
5.2916666667
 41
0.0
 71
     1
 72
     1
  1
C
  7
SLDTEXTSTYLE0
 73
     1
 44
1.0
  0
MTEXT
  5
F1
330
1F
100
AcDbEntity
  8
0
  6
Continuous
 62
     7
370
     0
100
AcDbMText
 10
13.9776079578
 20
221.8633050552
 30
0.0
 40
5.2916666667
 41
0.0
 71
     1
 72
     1
  1
D
  7
SLDTEXTSTYLE0
 73
     1
 44
1.0
  0
MTEXT
  5
F2
330
1F
100
AcDbEntity
  8
0
  6
Continuous
 62
     7
370
     0
100
AcDbMText
 10
13.9776079578
 20
143.8897122993
 30
0.0
 40
5.2916666667
 41
0.0
 71
     1
 72
     1
  1
E
  7
SLDTEXTSTYLE0
 73
     1
 44
1.0
  0
MTEXT
  5
F3
330
1F
100
AcDbEntity
  8
0
  6
Continuous
 62
     7
370
     0
100
AcDbMText
 10
13.9776079578
 20
63.923553063
 30
0.0
 40
5.2916666667
 41
0.0
 71
     1
 72
     1
  1
F
  7
SLDTEXTSTYLE0
 73
     1
 44
1.0
  0
MTEXT
  5
F4
330
1F
100
AcDbEntity
  8
0
  6
Continuous
 62
     7
370
     0
100
AcDbMText
 10
665.4646542409
 20
16.5590559908
 30
0.0
 40
5.2916666667
 41
0.0
 71
     1
 72
     1
  1
8
  7
SLDTEXTSTYLE0
 73
     1
 44
1.0
  0
MTEXT
  5
F5
330
1F
100
AcDbEntity
  8
0
  6
Continuous
 62
     7
370
     0
100
AcDbMText
 10
585.6753634691
 20
16.5590559908
 30
0.0
 40
5.2916666667
 41
0.0
 71
     1
 72
     1
  1
7
  7
SLDTEXTSTYLE0
 73
     1
 44
1.0
  0
MTEXT
  5
F6
330
1F
100
AcDbEntity
  8
0
  6
Continuous
 62
     7
370
     0
100
AcDbMText
 10
496.3632417212
 20
16.5590559908
 30
0.0
 40
5.2916666667
 41
0.0
 71
     1
 72
     1
  1
6
  7
SLDTEXTSTYLE0
 73
     1
 44
1.0
  0
MTEXT
  5
F7
330
1F
100
AcDbEntity
  8
0
  6
Continuous
 62
     7
370
     0
100
AcDbMText
 10
409.0235077774
 20
16.5590559908
 30
0.0
 40
5.2916666667
 41
0.0
 71
     1
 72
     1
  1
5
  7
SLDTEXTSTYLE0
 73
     1
 44
1.0
  0
MTEXT
  5
F8
330
1F
100
AcDbEntity
  8
0
  6
Continuous
 62
     7
370
     0
100
AcDbMText
 10
322.9010398302
 20
16.1738229395
 30
0.0
 40
5.2916666667
 41
0.0
 71
     1
 72
     1
  1
4
  7
SLDTEXTSTYLE0
 73
     1
 44
1.0
  0
MTEXT
  5
F9
330
1F
100
AcDbEntity
  8
0
  6
Continuous
 62
     7
370
     0
100
AcDbMText
 10
237.020185094
 20
16.5590559908
 30
0.0
 40
5.2916666667
 41
0.0
 71
     1
 72
     1
  1
3
  7
SLDTEXTSTYLE0
 73
     1
 44
1.0
  0
MTEXT
  5
FA
330
1F
100
AcDbEntity
  8
0
  6
Continuous
 62
     7
370
     0
100
AcDbMText
 10
151.5604480484
 20
16.5590559908
 30
0.0
 40
5.2916666667
 41
0.0
 71
     1
 72
     1
  1
2
  7
SLDTEXTSTYLE0
 73
     1
 44
1.0
  0
MTEXT
  5
FB
330
1F
100
AcDbEntity
  8
0
  6
Continuous
 62
     7
370
     0
100
AcDbMText
 10
66.2751820007
 20
16.5590559908
 30
0.0
 40
5.2916666667
 41
0.0
 71
     1
 72
     1
  1
1
  7
SLDTEXTSTYLE0
 73
     1
 44
1.0
  0
MTEXT
  5
FC
330
1F
100
AcDbEntity
  8
0
  6
Continuous
 62
     7
370
     0
100
AcDbMText
 10
717.7559615361
 20
466.6062272729
 30
0.0
 40
5.2916666667
 41
0.0
 71
     1
 72
     1
  1
A
  7
SLDTEXTSTYLE0
 73
     1
 44
1.0
  0
MTEXT
  5
FD
330
1F
100
AcDbEntity
  8
0
  6
Continuous
 62
     7
370
     0
100
AcDbMText
 10
718.3415103553
 20
387.8262336126
 30
0.0
 40
5.2916666667
 41
0.0
 71
     1
 72
     1
  1
B
  7
SLDTEXTSTYLE0
 73
     1
 44
1.0
  0
MTEXT
  5
FE
330
1F
100
AcDbEntity
  8
0
  6
Continuous
 62
     7
370
     0
100
AcDbMText
 10
718.3415103553
 20
305.2638501106
 30
0.0
 40
5.2916666667
 41
0.0
 71
     1
 72
     1
  1
C
  7
SLDTEXTSTYLE0
 73
     1
 44
1.0
  0
MTEXT
  5
FF
330
1F
100
AcDbEntity
  8
0
  6
Continuous
 62
     7
370
     0
100
AcDbMText
 10
718.3415103553
 20
223.9412766083
 30
0.0
 40
5.2916666667
 41
0.0
 71
     1
 72
     1
  1
D
  7
SLDTEXTSTYLE0
 73
     1
 44
1.0
  0
MTEXT
  5
100
330
1F
100
AcDbEntity
  8
0
  6
Continuous
 62
     7
370
     0
100
AcDbMText
 10
718.3415103553
 20
145.9676838524
 30
0.0
 40
5.2916666667
 41
0.0
 71
     1
 72
     1
  1
E
  7
SLDTEXTSTYLE0
 73
     1
 44
1.0
  0
MTEXT
  5
101
330
1F
100
AcDbEntity
  8
0
  6
Continuous
 62
     7
370
     0
100
AcDbMText
 10
718.3415103553
 20
66.0015246161
 30
0.0
 40
5.2916666667
 41
0.0
 71
     1
 72
     1
  1
F
  7
SLDTEXTSTYLE0
 73
     1
 44
1.0
  0
MTEXT
  5
102
330
1F
100
AcDbEntity
  8
0
  6
Continuous
 62
     7
370
     0
100
AcDbMText
 10
507.8882822005
 20
53.9667871277
 30
0.0
 40
4.6302083333
 41
0.0
 71
     1
 72
     1
  1
Sky
  7
SLDTEXTSTYLE0
 73
     1
 44
1.0
  0
MTEXT
  5
104
330
1F
100
AcDbEntity
  8
0
  6
Continuous
 62
     7
370
     0
100
AcDbMText
 10
632.1205599113
 20
30.5549008295
 30
0.0
 40
5.953125
 41
0.0
 71
     1
 72
     1
  1
0
  7
SLDTEXTSTYLE1
 73
     1
 44
1.0
  0
INSERT
  5
10A
330
1F
100
AcDbEntity
  8
SLD-0
 62
     7
100
AcDbBlockReference
  2
SW_NOTE_1
 10
496.8129734837
 20
83.8699363031
 30
0.0
  0
LINE
  5
10B
330
1F
100
AcDbEntity
  8
0
  6
Continuous
 62
     7
370
    30
100
AcDbLine
 10
329.9794232626
 20
314.6159068946
 30
0.0
 11
234.9794232626
 21
276.2334154402
 31
0.0
  0
LINE
  5
10C
330
1F
100
AcDbEntity
  8
0
  6
Continuous
 62
     7
370
    30
100
AcDbLine
 10
234.9794232626
 20
276.2334154402
 30
0.0
 11
234.6048166692
 21
277.1605992948
 31
0.0
  0
LINE
  5
10D
330
1F
100
AcDbEntity
  8
0
  6
Continuous
 62
     7
370
    30
100
AcDbLine
 10
234.6048166692
 20
277.1605992948
 30
0.0
 11
329.6048166692
 21
315.5430907491
 31
0.0
  0
LINE
  5
10E
330
1F
100
AcDbEntity
  8
0
  6
Continuous
 62
     7
370
    30
100
AcDbLine
 10
329.9794232626
 20
314.6159068946
 30
0.0
 11
329.6048166692
 21
315.5430907491
 31
0.0
  0
ARC
  5
10F
330
1F
100
AcDbEntity
  8
0
  6
Continuous
 62
     7
370
    30
100
AcDbCircle
 10
331.8524562297
 20
245.543074112
 30
0.0
 40
6.000000000000057
100
AcDbArc
 50
270.0
 51
0.0
  0
LINE
  5
110
330
1F
100
AcDbEntity
  8
0
  6
Continuous
 62
     7
370
    30
100
AcDbLine
 10
331.8524562297
 20
239.543074112
 30
0.0
 11
331.8524562297
 21
240.543074112
 31
0.0
  0
ARC
  5
111
330
1F
100
AcDbEntity
  8
0
  6
Continuous
 62
     7
370
    30
100
AcDbCircle
 10
331.8524562297
 20
245.543074112
 30
0.0
 40
5.0
100
AcDbArc
 50
270.0
 51
0.0
  0
LINE
  5
112
330
1F
100
AcDbEntity
  8
0
  6
Continuous
 62
     7
370
    30
100
AcDbLine
 10
337.8524562297
 20
245.543074112
 30
0.0
 11
336.8524562297
 21
245.543074112
 31
0.0
  0
ARC
  5
113
330
1F
100
AcDbEntity
  8
0
  6
Continuous
 62
     7
370
    30
100
AcDbCircle
 10
236.8524562297
 20
271.5974961674
 30
0.0
 40
5.00000000000001
100
AcDbArc
 50
112.0
 51
180.0
  0
LINE
  5
114
330
1F
100
AcDbEntity
  8
0
  6
Continuous
 62
     7
370
    30
100
AcDbLine
 10
231.8524562297
 20
271.5974961674
 30
0.0
 11
230.8524562297
 21
271.5974961674
 31
0.0
  0
ARC
  5
115
330
1F
100
AcDbEntity
  8
0
  6
Continuous
 62
     7
370
    30
100
AcDbCircle
 10
236.8524562297
 20
271.5974961674
 30
0.0
 40
6.000000000000045
100
AcDbArc
 50
112.0
 51
180.0
  0
LINE
  5
116
330
1F
100
AcDbEntity
  8
0
  6
Continuous
 62
     7
370
    30
100
AcDbLine
 10
331.8524562297
 20
239.543074112
 30
0.0
 11
236.8524562297
 21
239.543074112
 31
0.0
  0
LINE
  5
117
330
1F
100
AcDbEntity
  8
0
  6
Continuous
 62
     7
370
    30
100
AcDbLine
 10
236.8524562297
 20
239.543074112
 30
0.0
 11
236.8524562297
 21
240.543074112
 31
0.0
  0
LINE
  5
118
330
1F
100
AcDbEntity
  8
0
  6
Continuous
 62
     7
370
    30
100
AcDbLine
 10
236.8524562297
 20
240.543074112
 30
0.0
 11
331.8524562297
 21
240.543074112
 31
0.0
  0
LINE
  5
119
330
1F
100
AcDbEntity
  8
0
  6
Continuous
 62
     7
370
    30
100
AcDbLine
 10
231.8524562297
 20
271.5974961674
 30
0.0
 11
231.8524562297
 21
245.543074112
 31
0.0
  0
LINE
  5
11A
330
1F
100
AcDbEntity
  8
0
  6
Continuous
 62
     7
370
    30
100
AcDbLine
 10
231.8524562297
 20
245.543074112
 30
0.0
 11
230.8524562297
 21
245.543074112
 31
0.0
  0
LINE
  5
11B
330
1F
100
AcDbEntity
  8
0
  6
Continuous
 62
     7
370
    30
100
AcDbLine
 10
230.8524562297
 20
245.543074112
 30
0.0
 11
230.8524562297
 21
271.5974961674
 31
0.0
  0
ARC
  5
11C
330
1F
100
AcDbEntity
  8
0
  6
Continuous
 62
     7
370
    30
100
AcDbCircle
 10
236.8524562297
 20
245.543074112
 30
0.0
 40
6.000000000000028
100
AcDbArc
 50
180.0
 51
270.0
  0
ARC
  5
11D
330
1F
100
AcDbEntity
  8
0
  6
Continuous
 62
     7
370
    30
100
AcDbCircle
 10
236.8524562297
 20
245.543074112
 30
0.0
 40
5.0
100
AcDbArc
 50
180.0
 51
270.0
  0
LINE
  5
11E
330
1F
100
AcDbEntity
  8
0
  6
Continuous
 62
     7
370
    30
100
AcDbLine
 10
426.8524562297
 20
244.543074112
 30
0.0
 11
426.8524562297
 21
252.3378651737
 31
0.0
  0
LINE
  5
11F
330
1F
100
AcDbEntity
  8
0
  6
Continuous
 62
     7
370
    30
100
AcDbLine
 10
426.8524562297
 20
252.3378651737
 30
0.0
 11
427.8524562297
 21
252.3378651737
 31
0.0
  0
LINE
  5
120
330
1F
100
AcDbEntity
  8
0
  6
Continuous
 62
     7
370
    30
100
AcDbLine
 10
427.8524562297
 20
252.3378651737
 30
0.0
 11
427.8524562297
 21
244.543074112
 31
0.0
  0
LINE
  5
121
330
1F
100
AcDbEntity
  8
0
  6
Continuous
 62
     7
370
    30
100
AcDbLine
 10
426.8524562297
 20
244.543074112
 30
0.0
 11
427.8524562297
 21
244.543074112
 31
0.0
  0
ARC
  5
122
330
1F
100
AcDbEntity
  8
0
  6
Continuous
 62
     7
370
    30
100
AcDbCircle
 10
424.6299774663
 20
348.543074112
 30
0.0
 40
5.000000000000052
100
AcDbArc
 50
90.0
 51
112.0
  0
LINE
  5
123
330
1F
100
AcDbEntity
  8
0
  6
Continuous
 62
     7
370
    30
100
AcDbLine
 10
424.6299774663
 20
353.543074112
 30
0.0
 11
424.6299774663
 21
352.543074112
 31
0.0
  0
ARC
  5
124
330
1F
100
AcDbEntity
  8
0
  6
Continuous
 62
     7
370
    30
100
AcDbCircle
 10
424.6299774663
 20
348.543074112
 30
0.0
 40
4.0
100
AcDbArc
 50
90.0
 51
112.0
  0
LINE
  5
125
330
1F
100
AcDbEntity
  8
0
  6
Continuous
 62
     7
370
    30
100
AcDbLine
 10
422.7569444992
 20
353.1789933848
 30
0.0
 11
423.1315510926
 21
352.2518095302
 31
0.0
  0
LINE
  5
126
330
1F
100
AcDbEntity
  8
0
  6
Continuous
 62
     7
370
    30
100
AcDbLine
 10
337.8524562297
 20
309.9799876217
 30
0.0
 11
337.8524562297
 21
245.543074112
 31
0.0
  0
ARC
  5
127
330
1F
100
AcDbEntity
  8
0
  6
Continuous
 62
     7
370
    30
100
AcDbCircle
 10
331.8524562297
 20
309.9799876217
 30
0.0
 40
6.000000000000057
100
AcDbArc
 50
0.0
 51
112.0
  0
ARC
  5
128
330
1F
100
AcDbEntity
  8
0
  6
Continuous
 62
     7
370
    30
100
AcDbCircle
 10
474.8524562297
 20
348.543074112
 30
0.0
 40
5.0
100
AcDbArc
 50
0.0
 51
90.0
  0
LINE
  5
129
330
1F
100
AcDbEntity
  8
0
  6
Continuous
 62
     7
370
    30
100
AcDbLine
 10
424.6299774663
 20
353.543074112
 30
0.0
 11
474.8524562297
 21
353.543074112
 31
0.0
  0
LINE
  5
12A
330
1F
100
AcDbEntity
  8
0
  6
Continuous
 62
     7
370
    30
100
AcDbLine
 10
358.9794232626
 20
327.4112021865
 30
0.0
 11
422.7569444992
 21
353.1789933848
 31
0.0
  0
ARC
  5
12B
330
1F
100
AcDbEntity
  8
0
  6
Continuous
 62
     7
370
    30
100
AcDbCircle
 10
360.8524562297
 20
322.7752829136
 30
0.0
 40
5.0
100
AcDbArc
 50
112.0
 51
180.0
  0
LINE
  5
12C
330
1F
100
AcDbEntity
  8
0
  6
Continuous
 62
     7
370
    30
100
AcDbLine
 10
355.8524562297
 20
244.543074112
 30
0.0
 11
355.8524562297
 21
322.7752829136
 31
0.0
  0
ARC
  5
12D
330
1F
100
AcDbEntity
  8
0
  6
Continuous
 62
     7
370
    30
100
AcDbCircle
 10
360.8524562297
 20
244.543074112
 30
0.0
 40
5.0
100
AcDbArc
 50
180.0
 51
270.0
  0
LINE
  5
12E
330
1F
100
AcDbEntity
  8
0
  6
Continuous
 62
     7
370
    30
100
AcDbLine
 10
422.8524562297
 20
239.543074112
 30
0.0
 11
360.8524562297
 21
239.543074112
 31
0.0
  0
ARC
  5
12F
330
1F
100
AcDbEntity
  8
0
  6
Continuous
 62
     7
370
    30
100
AcDbCircle
 10
422.8524562297
 20
244.543074112
 30
0.0
 40
5.0
100
AcDbArc
 50
270.0
 51
0.0
  0
ARC
  5
130
330
1F
100
AcDbEntity
  8
0
  6
Continuous
 62
     7
370
    30
100
AcDbCircle
 10
431.8524562297
 20
252.3378651737
 30
0.0
 40
3.999999999999956
100
AcDbArc
 50
114.6768631703
 51
180.0
  0
LINE
  5
131
330
1F
100
AcDbEntity
  8
0
  6
Continuous
 62
     7
370
    30
100
AcDbLine
 10
463.2761455856
 20
271.1777814878
 30
0.0
 11
430.1824555435
 21
255.9725725496
 31
0.0
  0
ARC
  5
132
330
1F
100
AcDbEntity
  8
0
  6
Continuous
 62
     7
370
    30
100
AcDbCircle
 10
464.9461462718
 20
267.543074112
 30
0.0
 40
3.99999999999998
100
AcDbArc
 50
90.0
 51
114.6768631703
  0
LINE
  5
133
330
1F
100
AcDbEntity
  8
0
  6
Continuous
 62
     7
370
    30
100
AcDbLine
 10
474.8524562297
 20
271.543074112
 30
0.0
 11
464.9461462718
 21
271.543074112
 31
0.0
  0
ARC
  5
134
330
1F
100
AcDbEntity
  8
0
  6
Continuous
 62
     7
370
    30
100
AcDbCircle
 10
474.8524562297
 20
276.543074112
 30
0.0
 40
5.0
100
AcDbArc
 50
270.0
 51
0.0
  0
LINE
  5
135
330
1F
100
AcDbEntity
  8
0
  6
Continuous
 62
     7
370
    30
100
AcDbLine
 10
479.8524562297
 20
348.543074112
 30
0.0
 11
479.8524562297
 21
276.543074112
 31
0.0
  0
LINE
  5
136
330
1F
100
AcDbEntity
  8
0
  6
Continuous
 62
     7
370
    30
100
AcDbLine
 10
147.8524562297
 20
223.543074112
 30
0.0
 11
491.4382426674
 21
223.543074112
 31
0.0
  0
LINE
  5
137
330
1F
100
AcDbEntity
  8
0
  6
Continuous
 62
     7
370
    30
100
AcDbLine
 10
147.8524562297
 20
259.1705315277
 30
0.0
 11
147.8524562297
 21
223.543074112
 31
0.0
  0
ARC
  5
138
330
1F
100
AcDbEntity
  8
0
  6
Continuous
 62
     7
370
    30
100
AcDbCircle
 10
151.8524562297
 20
259.1705315277
 30
0.0
 40
3.999999999999972
100
AcDbArc
 50
112.0
 51
180.0
  0
LINE
  5
139
330
1F
100
AcDbEntity
  8
0
  6
Continuous
 62
     7
370
    30
100
AcDbLine
 10
418.5854852775
 20
371.2518095302
 30
0.0
 11
150.3540298561
 21
262.879266946
 31
0.0
  0
ARC
  5
13A
330
1F
100
AcDbEntity
  8
0
  6
Continuous
 62
     7
370
    30
100
AcDbCircle
 10
420.0839116512
 20
367.543074112
 30
0.0
 40
4.0
100
AcDbArc
 50
90.0
 51
112.0
  0
LINE
  5
13B
330
1F
100
AcDbEntity
  8
0
  6
Continuous
 62
     7
370
    30
100
AcDbLine
 10
495.8524562297
 20
371.543074112
 30
0.0
 11
420.0839116512
 21
371.543074112
 31
0.0
  0
LINE
  5
13C
330
1F
100
AcDbEntity
  8
0
  6
Continuous
 62
     7
370
    30
100
AcDbLine
 10
495.8524562297
 20
227.9572876743
 30
0.0
 11
495.8524562297
 21
371.543074112
 31
0.0
  0
LINE
  5
13D
330
1F
100
AcDbEntity
  8
0
  6
Continuous
 62
     7
370
    30
100
AcDbLine
 10
491.4382426674
 20
223.543074112
 30
0.0
 11
495.8524562297
 21
227.9572876743
 31
0.0
  0
LINE
  5
13E
330
1F
100
AcDbEntity
  8
0
  6
Continuous
 62
     7
370
    30
100
AcDbLine
 10
474.8524562297
 20
353.543074112
 30
0.0
 11
474.8524562297
 21
352.543074112
 31
0.0
  0
LINE
  5
13F
330
1F
100
AcDbEntity
  8
0
  6
Continuous
 62
     7
370
    30
100
AcDbLine
 10
474.8524562297
 20
352.543074112
 30
0.0
 11
424.6299774663
 21
352.543074112
 31
0.0
  0
ARC
  5
140
330
1F
100
AcDbEntity
  8
0
  6
Continuous
 62
     7
370
    30
100
AcDbCircle
 10
151.8524562297
 20
259.1705315277
 30
0.0
 40
5.0
100
AcDbArc
 50
112.0
 51
180.0
  0
LINE
  5
141
330
1F
100
AcDbEntity
  8
0
  6
Continuous
 62
     7
370
    30
100
AcDbLine
 10
149.9794232626
 20
263.8064508006
 30
0.0
 11
150.3540298561
 21
262.879266946
 31
0.0
  0
LINE
  5
142
330
1F
100
AcDbEntity
  8
0
  6
Continuous
 62
     7
370
    30
100
AcDbLine
 10
147.8524562297
 20
259.1705315277
 30
0.0
 11
146.8524562297
 21
259.1705315277
 31
0.0
  0
LINE
  5
143
330
1F
100
AcDbEntity
  8
0
  6
Continuous
 62
     7
370
    30
100
AcDbLine
 10
149.9794232626
 20
263.8064508006
 30
0.0
 11
418.2108786841
 21
372.1789933848
 31
0.0
  0
LINE
  5
144
330
1F
100
AcDbEntity
  8
0
  6
Continuous
 62
     7
370
    30
100
AcDbLine
 10
418.2108786841
 20
372.1789933848
 30
0.0
 11
418.5854852775
 21
371.2518095302
 31
0.0
  0
LINE
  5
145
330
1F
100
AcDbEntity
  8
0
  6
Continuous
 62
     7
370
    30
100
AcDbLine
 10
147.8524562297
 20
223.543074112
 30
0.0
 11
146.8524562297
 21
222.543074112
 31
0.0
  0
LINE
  5
146
330
1F
100
AcDbEntity
  8
0
  6
Continuous
 62
     7
370
    30
100
AcDbLine
 10
146.8524562297
 20
222.543074112
 30
0.0
 11
146.8524562297
 21
259.1705315277
 31
0.0
  0
ARC
  5
147
330
1F
100
AcDbEntity
  8
0
  6
Continuous
 62
     7
370
    30
100
AcDbCircle
 10
420.0839116512
 20
367.543074112
 30
0.0
 40
5.00000000000001
100
AcDbArc
 50
90.0
 51
112.0
  0
LINE
  5
148
330
1F
100
AcDbEntity
  8
0
  6
Continuous
 62
     7
370
    30
100
AcDbLine
 10
420.0839116512
 20
372.543074112
 30
0.0
 11
420.0839116512
 21
371.543074112
 31
0.0
  0
LINE
  5
149
330
1F
100
AcDbEntity
  8
0
  6
Continuous
 62
     7
370
    30
100
AcDbLine
 10
491.4382426674
 20
223.543074112
 30
0.0
 11
491.8524562297
 21
222.543074112
 31
0.0
  0
LINE
  5
14A
330
1F
100
AcDbEntity
  8
0
  6
Continuous
 62
     7
370
    30
100
AcDbLine
 10
491.8524562297
 20
222.543074112
 30
0.0
 11
146.8524562297
 21
222.543074112
 31
0.0
  0
LINE
  5
14B
330
1F
100
AcDbEntity
  8
0
  6
Continuous
 62
     7
370
    30
100
AcDbLine
 10
420.0839116512
 20
372.543074112
 30
0.0
 11
496.8524562297
 21
372.543074112
 31
0.0
  0
LINE
  5
14C
330
1F
100
AcDbEntity
  8
0
  6
Continuous
 62
     7
370
    30
100
AcDbLine
 10
496.8524562297
 20
372.543074112
 30
0.0
 11
495.8524562297
 21
371.543074112
 31
0.0
  0
LINE
  5
14D
330
1F
100
AcDbEntity
  8
0
  6
Continuous
 62
     7
370
    30
100
AcDbLine
 10
495.8524562297
 20
227.9572876743
 30
0.0
 11
496.8524562297
 21
227.543074112
 31
0.0
  0
LINE
  5
14E
330
1F
100
AcDbEntity
  8
0
  6
Continuous
 62
     7
370
    30
100
AcDbLine
 10
496.8524562297
 20
227.543074112
 30
0.0
 11
491.8524562297
 21
222.543074112
 31
0.0
  0
LINE
  5
14F
330
1F
100
AcDbEntity
  8
0
  6
Continuous
 62
     7
370
    30
100
AcDbLine
 10
496.8524562297
 20
372.543074112
 30
0.0
 11
496.8524562297
 21
227.543074112
 31
0.0
  0
LINE
  5
150
330
1F
100
AcDbEntity
  8
0
  6
Continuous
 62
     7
370
    30
100
AcDbLine
 10
355.8524562297
 20
244.543074112
 30
0.0
 11
356.8524562297
 21
244.543074112
 31
0.0
  0
ARC
  5
151
330
1F
100
AcDbEntity
  8
0
  6
Continuous
 62
     7
370
    30
100
AcDbCircle
 10
360.8524562297
 20
244.543074112
 30
0.0
 40
4.0
100
AcDbArc
 50
180.0
 51
270.0
  0
LINE
  5
152
330
1F
100
AcDbEntity
  8
0
  6
Continuous
 62
     7
370
    30
100
AcDbLine
 10
360.8524562297
 20
240.543074112
 30
0.0
 11
360.8524562297
 21
239.543074112
 31
0.0
  0
LINE
  5
153
330
1F
100
AcDbEntity
  8
0
  6
Continuous
 62
     7
370
    30
100
AcDbLine
 10
355.8524562297
 20
322.7752829136
 30
0.0
 11
356.8524562297
 21
322.7752829136
 31
0.0
  0
LINE
  5
154
330
1F
100
AcDbEntity
  8
0
  6
Continuous
 62
     7
370
    30
100
AcDbLine
 10
356.8524562297
 20
322.7752829136
 30
0.0
 11
356.8524562297
 21
244.543074112
 31
0.0
  0
LINE
  5
155
330
1F
100
AcDbEntity
  8
0
  6
Continuous
 62
     7
370
    30
100
AcDbLine
 10
360.8524562297
 20
240.543074112
 30
0.0
 11
422.8524562297
 21
240.543074112
 31
0.0
  0
LINE
  5
156
330
1F
100
AcDbEntity
  8
0
  6
Continuous
 62
     7
370
    30
100
AcDbLine
 10
422.8524562297
 20
240.543074112
 30
0.0
 11
422.8524562297
 21
239.543074112
 31
0.0
  0
LINE
  5
157
330
1F
100
AcDbEntity
  8
0
  6
Continuous
 62
     7
370
    30
100
AcDbLine
 10
358.9794232626
 20
327.4112021865
 30
0.0
 11
359.3540298561
 21
326.4840183319
 31
0.0
  0
ARC
  5
158
330
1F
100
AcDbEntity
  8
0
  6
Continuous
 62
     7
370
    30
100
AcDbCircle
 10
360.8524562297
 20
322.7752829136
 30
0.0
 40
4.000000000000005
100
AcDbArc
 50
112.0
 51
180.0
  0
ARC
  5
159
330
1F
100
AcDbEntity
  8
0
  6
Continuous
 62
     7
370
    30
100
AcDbCircle
 10
422.8524562297
 20
244.543074112
 30
0.0
 40
4.0
100
AcDbArc
 50
270.0
 51
0.0
  0
LINE
  5
15A
330
1F
100
AcDbEntity
  8
0
  6
Continuous
 62
     7
370
    30
100
AcDbLine
 10
423.1315510926
 20
352.2518095302
 30
0.0
 11
359.3540298561
 21
326.4840183319
 31
0.0
  0
LINE
  5
15B
330
1F
100
AcDbEntity
  8
0
  6
Continuous
 62
     7
370
    30
100
AcDbLine
 10
474.8524562297
 20
272.543074112
 30
0.0
 11
474.8524562297
 21
271.543074112
 31
0.0
  0
ARC
  5
15C
330
1F
100
AcDbEntity
  8
0
  6
Continuous
 62
     7
370
    30
100
AcDbCircle
 10
474.8524562297
 20
276.543074112
 30
0.0
 40
4.0
100
AcDbArc
 50
270.0
 51
0.0
  0
LINE
  5
15D
330
1F
100
AcDbEntity
  8
0
  6
Continuous
 62
     7
370
    30
100
AcDbLine
 10
479.8524562297
 20
276.543074112
 30
0.0
 11
478.8524562297
 21
276.543074112
 31
0.0
  0
LINE
  5
15E
330
1F
100
AcDbEntity
  8
0
  6
Continuous
 62
     7
370
    30
100
AcDbLine
 10
337.8524562297
 20
309.9799876217
 30
0.0
 11
336.8524562297
 21
309.9799876217
 31
0.0
  0
ARC
  5
15F
330
1F
100
AcDbEntity
  8
0
  6
Continuous
 62
     7
370
    30
100
AcDbCircle
 10
331.8524562297
 20
309.9799876217
 30
0.0
 40
5.0
100
AcDbArc
 50
0.0
 51
112.0
  0
ARC
  5
160
330
1F
100
AcDbEntity
  8
0
  6
Continuous
 62
     7
370
    30
100
AcDbCircle
 10
431.8524562297
 20
252.3378651737
 30
0.0
 40
5.0
100
AcDbArc
 50
114.6768631703
 51
180.0
  0
LINE
  5
161
330
1F
100
AcDbEntity
  8
0
  6
Continuous
 62
     7
370
    30
100
AcDbLine
 10
429.764955372
 20
256.8812493935
 30
0.0
 11
430.1824555435
 21
255.9725725496
 31
0.0
  0
LINE
  5
162
330
1F
100
AcDbEntity
  8
0
  6
Continuous
 62
     7
370
    30
100
AcDbLine
 10
478.8524562297
 20
276.543074112
 30
0.0
 11
478.8524562297
 21
348.543074112
 31
0.0
  0
LINE
  5
163
330
1F
100
AcDbEntity
  8
0
  6
Continuous
 62
     7
370
    30
100
AcDbLine
 10
479.8524562297
 20
348.543074112
 30
0.0
 11
478.8524562297
 21
348.543074112
 31
0.0
  0
LINE
  5
164
330
1F
100
AcDbEntity
  8
0
  6
Continuous
 62
     7
370
    30
100
AcDbLine
 10
429.764955372
 20
256.8812493935
 30
0.0
 11
462.858645414
 21
272.0864583318
 31
0.0
  0
LINE
  5
165
330
1F
100
AcDbEntity
  8
0
  6
Continuous
 62
     7
370
    30
100
AcDbLine
 10
462.858645414
 20
272.0864583318
 30
0.0
 11
463.2761455856
 21
271.1777814878
 31
0.0
  0
ARC
  5
166
330
1F
100
AcDbEntity
  8
0
  6
Continuous
 62
     7
370
    30
100
AcDbCircle
 10
474.8524562297
 20
348.543074112
 30
0.0
 40
4.0
100
AcDbArc
 50
0.0
 51
90.0
  0
ARC
  5
167
330
1F
100
AcDbEntity
  8
0
  6
Continuous
 62
     7
370
    30
100
AcDbCircle
 10
464.9461462718
 20
267.543074112
 30
0.0
 40
5.0
100
AcDbArc
 50
90.0
 51
114.6768631703
  0
LINE
  5
168
330
1F
100
AcDbEntity
  8
0
  6
Continuous
 62
     7
370
    30
100
AcDbLine
 10
464.9461462718
 20
272.543074112
 30
0.0
 11
464.9461462718
 21
271.543074112
 31
0.0
  0
LINE
  5
169
330
1F
100
AcDbEntity
  8
0
  6
Continuous
 62
     7
370
    30
100
AcDbLine
 10
336.8524562297
 20
245.543074112
 30
0.0
 11
336.8524562297
 21
309.9799876217
 31
0.0
  0
LINE
  5
16A
330
1F
100
AcDbEntity
  8
0
  6
Continuous
 62
     7
370
    30
100
AcDbLine
 10
464.9461462718
 20
272.543074112
 30
0.0
 11
474.8524562297
 21
272.543074112
 31
0.0
  0
LINE
  5
16B
330
1F
100
AcDbEntity
  8
0
  6
HIDDEN
 62
     7
370
    15
100
AcDbLine
 10
165.9024562297
 20
240.543074112
 30
0.0
 11
177.0024562297
 21
240.543074112
 31
0.0
  0
LINE
  5
16C
330
1F
100
AcDbEntity
  8
0
  6
HIDDEN
 62
     7
370
    15
100
AcDbLine
 10
191.3024562297
 20
240.543074112
 30
0.0
 11
202.4024562297
 21
240.543074112
 31
0.0
  0
LINE
  5
16D
330
1F
100
AcDbEntity
  8
0
  6
HIDDEN
 62
     7
370
    15
100
AcDbLine
 10
216.7024562297
 20
240.543074112
 30
0.0
 11
227.8024562297
 21
240.543074112
 31
0.0
  0
LINE
  5
16E
330
1F
100
AcDbEntity
  8
0
  6
HIDDEN
 62
     7
370
    15
100
AcDbLine
 10
405.0524562297
 20
240.543074112
 30
0.0
 11
405.0524562297
 21
222.543074112
 31
0.0
  0
LINE
  5
16F
330
1F
100
AcDbEntity
  8
0
  6
HIDDEN
 62
     7
370
    15
100
AcDbLine
 10
369.6524562297
 20
240.543074112
 30
0.0
 11
369.6524562297
 21
222.543074112
 31
0.0
  0
LINE
  5
170
330
1F
100
AcDbEntity
  8
0
  6
HIDDEN
 62
     7
370
    15
100
AcDbLine
 10
328.8524562297
 20
240.543074112
 30
0.0
 11
328.8524562297
 21
222.543074112
 31
0.0
  0
LINE
  5
171
330
1F
100
AcDbEntity
  8
0
  6
HIDDEN
 62
     7
370
    15
100
AcDbLine
 10
293.4524562297
 20
240.543074112
 30
0.0
 11
293.4524562297
 21
222.543074112
 31
0.0
  0
LINE
  5
172
330
1F
100
AcDbEntity
  8
0
  6
HIDDEN
 62
     7
370
    15
100
AcDbLine
 10
278.0524562297
 20
240.543074112
 30
0.0
 11
278.0524562297
 21
222.543074112
 31
0.0
  0
LINE
  5
173
330
1F
100
AcDbEntity
  8
0
  6
HIDDEN
 62
     7
370
    15
100
AcDbLine
 10
242.6524562297
 20
240.543074112
 30
0.0
 11
242.6524562297
 21
222.543074112
 31
0.0
  0
LINE
  5
174
330
1F
100
AcDbEntity
  8
0
  6
HIDDEN
 62
     7
370
    15
100
AcDbLine
 10
412.7524562297
 20
237.543074112
 30
0.0
 11
410.1997562297
 21
237.543074112
 31
0.0
  0
LINE
  5
175
330
1F
100
AcDbEntity
  8
0
  6
HIDDEN
 62
     7
370
    15
100
AcDbLine
 10
415.3051562297
 20
237.543074112
 30
0.0
 11
412.7524562297
 21
237.543074112
 31
0.0
  0
LINE
  5
176
330
1F
100
AcDbEntity
  8
0
  6
HIDDEN
 62
     7
370
    15
100
AcDbLine
 10
468.8997562297
 20
357.543074112
 30
0.0
 11
474.0051562297
 21
357.543074112
 31
0.0
  0
LINE
  5
177
330
1F
100
AcDbEntity
  8
0
  6
HIDDEN
 62
     7
370
    15
100
AcDbLine
 10
209.5524562297
 20
237.543074112
 30
0.0
 11
206.9997562297
 21
237.543074112
 31
0.0
  0
LINE
  5
178
330
1F
100
AcDbEntity
  8
0
  6
HIDDEN
 62
     7
370
    15
100
AcDbLine
 10
212.1051562297
 20
237.543074112
 30
0.0
 11
209.5524562297
 21
237.543074112
 31
0.0
  0
LINE
  5
179
330
1F
100
AcDbEntity
  8
0
  6
HIDDEN
 62
     7
370
    15
100
AcDbLine
 10
481.8524562297
 20
362.243074112
 30
0.0
 11
481.8524562297
 21
359.690374112
 31
0.0
  0
LINE
  5
17A
330
1F
100
AcDbEntity
  8
0
  6
HIDDEN
 62
     7
370
    15
100
AcDbLine
 10
481.8524562297
 20
364.795774112
 30
0.0
 11
481.8524562297
 21
362.243074112
 31
0.0
  0
LINE
  5
17B
330
1F
100
AcDbEntity
  8
0
  6
HIDDEN
 62
     7
370
    15
100
AcDbLine
 10
161.8524562297
 20
232.690374112
 30
0.0
 11
161.8524562297
 21
237.795774112
 31
0.0
  0
LINE
  5
17C
330
1F
100
AcDbEntity
  8
0
  6
HIDDEN
 62
     7
370
    15
100
AcDbLine
 10
443.4997562297
 20
357.543074112
 30
0.0
 11
448.6051562297
 21
357.543074112
 31
0.0
  0
LINE
  5
17D
330
1F
100
AcDbEntity
  8
0
  6
HIDDEN
 62
     7
370
    15
100
AcDbLine
 10
184.1524562297
 20
237.543074112
 30
0.0
 11
181.5997562297
 21
237.543074112
 31
0.0
  0
LINE
  5
17E
330
1F
100
AcDbEntity
  8
0
  6
HIDDEN
 62
     7
370
    15
100
AcDbLine
 10
186.7051562297
 20
237.543074112
 30
0.0
 11
184.1524562297
 21
237.543074112
 31
0.0
  0
LINE
  5
17F
330
1F
100
AcDbEntity
  8
0
  6
HIDDEN
 62
     7
370
    15
100
AcDbLine
 10
481.8524562297
 20
324.143074112
 30
0.0
 11
481.8524562297
 21
321.590374112
 31
0.0
  0
LINE
  5
180
330
1F
100
AcDbEntity
  8
0
  6
HIDDEN
 62
     7
370
    15
100
AcDbLine
 10
481.8524562297
 20
326.695774112
 30
0.0
 11
481.8524562297
 21
324.143074112
 31
0.0
  0
LINE
  5
181
330
1F
100
AcDbEntity
  8
0
  6
HIDDEN
 62
     7
370
    15
100
AcDbLine
 10
336.5524562297
 20
237.543074112
 30
0.0
 11
333.9997562297
 21
237.543074112
 31
0.0
  0
LINE
  5
182
330
1F
100
AcDbEntity
  8
0
  6
HIDDEN
 62
     7
370
    15
100
AcDbLine
 10
339.1051562297
 20
237.543074112
 30
0.0
 11
336.5524562297
 21
237.543074112
 31
0.0
  0
LINE
  5
183
330
1F
100
AcDbEntity
  8
0
  6
HIDDEN
 62
     7
370
    15
100
AcDbLine
 10
285.7524562297
 20
237.543074112
 30
0.0
 11
283.1997562297
 21
237.543074112
 31
0.0
  0
LINE
  5
184
330
1F
100
AcDbEntity
  8
0
  6
HIDDEN
 62
     7
370
    15
100
AcDbLine
 10
288.3051562297
 20
237.543074112
 30
0.0
 11
285.7524562297
 21
237.543074112
 31
0.0
  0
LINE
  5
185
330
1F
100
AcDbEntity
  8
0
  6
HIDDEN
 62
     7
370
    15
100
AcDbLine
 10
481.8524562297
 20
298.743074112
 30
0.0
 11
481.8524562297
 21
296.190374112
 31
0.0
  0
LINE
  5
186
330
1F
100
AcDbEntity
  8
0
  6
HIDDEN
 62
     7
370
    15
100
AcDbLine
 10
481.8524562297
 20
301.295774112
 30
0.0
 11
481.8524562297
 21
298.743074112
 31
0.0
  0
LINE
  5
187
330
1F
100
AcDbEntity
  8
0
  6
HIDDEN
 62
     7
370
    15
100
AcDbLine
 10
481.8524562297
 20
247.943074112
 30
0.0
 11
481.8524562297
 21
245.390374112
 31
0.0
  0
LINE
  5
188
330
1F
100
AcDbEntity
  8
0
  6
HIDDEN
 62
     7
370
    15
100
AcDbLine
 10
481.8524562297
 20
250.495774112
 30
0.0
 11
481.8524562297
 21
247.943074112
 31
0.0
  0
LINE
  5
189
330
1F
100
AcDbEntity
  8
0
  6
HIDDEN
 62
     7
370
    15
100
AcDbLine
 10
495.8524562297
 20
227.9572876743
 30
0.0
 11
491.4382426674
 21
223.543074112
 31
0.0
  0
LINE
  5
18A
330
1F
100
AcDbEntity
  8
0
  6
HIDDEN
 62
     7
370
    15
100
AcDbLine
 10
495.8524562297
 20
371.543074112
 30
0.0
 11
495.8524562297
 21
227.9572876743
 31
0.0
  0
ARC
  5
18B
330
1F
100
AcDbEntity
  8
0
  6
HIDDEN
 62
     7
370
    15
100
AcDbCircle
 10
422.8524562297
 20
244.543074112
 30
0.0
 40
5.0
100
AcDbArc
 50
270.0
 51
0.0
  0
LINE
  5
18C
330
1F
100
AcDbEntity
  8
0
  6
HIDDEN
 62
     7
370
    15
100
AcDbLine
 10
427.8524562297
 20
244.543074112
 30
0.0
 11
426.8524562297
 21
244.543074112
 31
0.0
  0
LINE
  5
18D
330
1F
100
AcDbEntity
  8
0
  6
HIDDEN
 62
     7
370
    15
100
AcDbLine
 10
422.8524562297
 20
239.543074112
 30
0.0
 11
422.8524562297
 21
240.543074112
 31
0.0
  0
LINE
  5
18E
330
1F
100
AcDbEntity
  8
0
  6
HIDDEN
 62
     7
370
    15
100
AcDbLine
 10
420.0839116512
 20
372.543074112
 30
0.0
 11
420.0839116512
 21
371.543074112
 31
0.0
  0
LINE
  5
18F
330
1F
100
AcDbEntity
  8
0
  6
HIDDEN
 62
     7
370
    15
100
AcDbLine
 10
420.0839116512
 20
371.543074112
 30
0.0
 11
495.8524562297
 21
371.543074112
 31
0.0
  0
LINE
  5
190
330
1F
100
AcDbEntity
  8
0
  6
HIDDEN
 62
     7
370
    15
100
AcDbLine
 10
491.4382426674
 20
223.543074112
 30
0.0
 11
147.8524562297
 21
223.543074112
 31
0.0
  0
LINE
  5
191
330
1F
100
AcDbEntity
  8
0
  6
HIDDEN
 62
     7
370
    15
100
AcDbLine
 10
418.2108786841
 20
372.1789933848
 30
0.0
 11
418.5854852775
 21
371.2518095302
 31
0.0
  0
ARC
  5
192
330
1F
100
AcDbEntity
  8
0
  6
HIDDEN
 62
     7
370
    15
100
AcDbCircle
 10
420.0839116512
 20
367.543074112
 30
0.0
 40
4.0
100
AcDbArc
 50
90.0
 51
112.0
  0
LINE
  5
193
330
1F
100
AcDbEntity
  8
0
  6
HIDDEN
 62
     7
370
    15
100
AcDbLine
 10
147.8524562297
 20
223.543074112
 30
0.0
 11
147.8524562297
 21
259.1705315277
 31
0.0
  0
LINE
  5
194
330
1F
100
AcDbEntity
  8
0
  6
HIDDEN
 62
     7
370
    15
100
AcDbLine
 10
147.8524562297
 20
259.1705315277
 30
0.0
 11
146.8524562297
 21
259.1705315277
 31
0.0
  0
LINE
  5
195
330
1F
100
AcDbEntity
  8
0
  6
HIDDEN
 62
     7
370
    15
100
AcDbLine
 10
149.9794232626
 20
263.8064508006
 30
0.0
 11
150.3540298561
 21
262.879266946
 31
0.0
  0
LINE
  5
196
330
1F
100
AcDbEntity
  8
0
  6
HIDDEN
 62
     7
370
    15
100
AcDbLine
 10
150.3540298561
 20
262.879266946
 30
0.0
 11
418.5854852775
 21
371.2518095302
 31
0.0
  0
ARC
  5
197
330
1F
100
AcDbEntity
  8
0
  6
HIDDEN
 62
     7
370
    15
100
AcDbCircle
 10
151.8524562297
 20
259.1705315277
 30
0.0
 40
3.999999999999995
100
AcDbArc
 50
112.0
 51
180.0
  0
ARC
  5
198
330
1F
100
AcDbEntity
  8
0
  6
HIDDEN
 62
     7
370
    15
100
AcDbCircle
 10
424.6299774663
 20
348.543074112
 30
0.0
 40
5.000000000000052
100
AcDbArc
 50
90.0
 51
112.0
  0
LINE
  5
199
330
1F
100
AcDbEntity
  8
0
  6
HIDDEN
 62
     7
370
    15
100
AcDbLine
 10
422.7569444992
 20
353.1789933848
 30
0.0
 11
423.1315510926
 21
352.2518095302
 31
0.0
  0
LINE
  5
19A
330
1F
100
AcDbEntity
  8
0
  6
HIDDEN
 62
     7
370
    15
100
AcDbLine
 10
424.6299774663
 20
352.543074112
 30
0.0
 11
424.6299774663
 21
353.543074112
 31
0.0
  0
LINE
  5
19B
330
1F
100
AcDbEntity
  8
0
  6
HIDDEN
 62
     7
370
    15
100
AcDbLine
 10
422.7569444992
 20
353.1789933848
 30
0.0
 11
358.9794232626
 21
327.4112021865
 31
0.0
  0
LINE
  5
19C
330
1F
100
AcDbEntity
  8
0
  6
HIDDEN
 62
     7
370
    15
100
AcDbLine
 10
358.9794232626
 20
327.4112021865
 30
0.0
 11
359.3540298561
 21
326.4840183319
 31
0.0
  0
LINE
  5
19D
330
1F
100
AcDbEntity
  8
0
  6
HIDDEN
 62
     7
370
    15
100
AcDbLine
 10
474.8524562297
 20
352.543074112
 30
0.0
 11
474.8524562297
 21
353.543074112
 31
0.0
  0
LINE
  5
19E
330
1F
100
AcDbEntity
  8
0
  6
HIDDEN
 62
     7
370
    15
100
AcDbLine
 10
474.8524562297
 20
353.543074112
 30
0.0
 11
424.6299774663
 21
353.543074112
 31
0.0
  0
ARC
  5
19F
330
1F
100
AcDbEntity
  8
0
  6
HIDDEN
 62
     7
370
    15
100
AcDbCircle
 10
360.8524562297
 20
322.7752829136
 30
0.0
 40
5.0
100
AcDbArc
 50
112.0
 51
180.0
  0
LINE
  5
1A0
330
1F
100
AcDbEntity
  8
0
  6
HIDDEN
 62
     7
370
    15
100
AcDbLine
 10
355.8524562297
 20
322.7752829136
 30
0.0
 11
356.8524562297
 21
322.7752829136
 31
0.0
  0
LINE
  5
1A1
330
1F
100
AcDbEntity
  8
0
  6
HIDDEN
 62
     7
370
    15
100
AcDbLine
 10
478.8524562297
 20
348.543074112
 30
0.0
 11
479.8524562297
 21
348.543074112
 31
0.0
  0
ARC
  5
1A2
330
1F
100
AcDbEntity
  8
0
  6
HIDDEN
 62
     7
370
    15
100
AcDbCircle
 10
474.8524562297
 20
348.543074112
 30
0.0
 40
5.0
100
AcDbArc
 50
0.0
 51
90.0
  0
LINE
  5
1A3
330
1F
100
AcDbEntity
  8
0
  6
HIDDEN
 62
     7
370
    15
100
AcDbLine
 10
355.8524562297
 20
322.7752829136
 30
0.0
 11
355.8524562297
 21
244.543074112
 31
0.0
  0
LINE
  5
1A4
330
1F
100
AcDbEntity
  8
0
  6
HIDDEN
 62
     7
370
    15
100
AcDbLine
 10
355.8524562297
 20
244.543074112
 30
0.0
 11
356.8524562297
 21
244.543074112
 31
0.0
  0
LINE
  5
1A5
330
1F
100
AcDbEntity
  8
0
  6
HIDDEN
 62
     7
370
    15
100
AcDbLine
 10
478.8524562297
 20
276.543074112
 30
0.0
 11
479.8524562297
 21
276.543074112
 31
0.0
  0
LINE
  5
1A6
330
1F
100
AcDbEntity
  8
0
  6
HIDDEN
 62
     7
370
    15
100
AcDbLine
 10
479.8524562297
 20
276.543074112
 30
0.0
 11
479.8524562297
 21
348.543074112
 31
0.0
  0
ARC
  5
1A7
330
1F
100
AcDbEntity
  8
0
  6
HIDDEN
 62
     7
370
    15
100
AcDbCircle
 10
360.8524562297
 20
244.543074112
 30
0.0
 40
5.0
100
AcDbArc
 50
180.0
 51
270.0
  0
LINE
  5
1A8
330
1F
100
AcDbEntity
  8
0
  6
HIDDEN
 62
     7
370
    15
100
AcDbLine
 10
360.8524562297
 20
239.543074112
 30
0.0
 11
360.8524562297
 21
240.543074112
 31
0.0
  0
LINE
  5
1A9
330
1F
100
AcDbEntity
  8
0
  6
HIDDEN
 62
     7
370
    15
100
AcDbLine
 10
474.8524562297
 20
272.543074112
 30
0.0
 11
474.8524562297
 21
271.543074112
 31
0.0
  0
ARC
  5
1AA
330
1F
100
AcDbEntity
  8
0
  6
HIDDEN
 62
     7
370
    15
100
AcDbCircle
 10
474.8524562297
 20
276.543074112
 30
0.0
 40
5.0
100
AcDbArc
 50
270.0
 51
0.0
  0
LINE
  5
1AB
330
1F
100
AcDbEntity
  8
0
  6
HIDDEN
 62
     7
370
    15
100
AcDbLine
 10
360.8524562297
 20
239.543074112
 30
0.0
 11
422.8524562297
 21
239.543074112
 31
0.0
  0
LINE
  5
1AC
330
1F
100
AcDbEntity
  8
0
  6
HIDDEN
 62
     7
370
    15
100
AcDbLine
 10
464.9461462718
 20
272.543074112
 30
0.0
 11
464.9461462718
 21
271.543074112
 31
0.0
  0
LINE
  5
1AD
330
1F
100
AcDbEntity
  8
0
  6
HIDDEN
 62
     7
370
    15
100
AcDbLine
 10
464.9461462718
 20
271.543074112
 30
0.0
 11
474.8524562297
 21
271.543074112
 31
0.0
  0
LINE
  5
1AE
330
1F
100
AcDbEntity
  8
0
  6
HIDDEN
 62
     7
370
    15
100
AcDbLine
 10
336.8524562297
 20
309.9799876217
 30
0.0
 11
337.8524562297
 21
309.9799876217
 31
0.0
  0
ARC
  5
1AF
330
1F
100
AcDbEntity
  8
0
  6
HIDDEN
 62
     7
370
    15
100
AcDbCircle
 10
331.8524562297
 20
309.9799876217
 30
0.0
 40
6.000000000000057
100
AcDbArc
 50
0.0
 51
112.0
  0
LINE
  5
1B0
330
1F
100
AcDbEntity
  8
0
  6
HIDDEN
 62
     7
370
    15
100
AcDbLine
 10
329.9794232626
 20
314.6159068946
 30
0.0
 11
329.6048166692
 21
315.5430907491
 31
0.0
  0
LINE
  5
1B1
330
1F
100
AcDbEntity
  8
0
  6
HIDDEN
 62
     7
370
    15
100
AcDbLine
 10
462.858645414
 20
272.0864583318
 30
0.0
 11
463.2761455856
 21
271.1777814878
 31
0.0
  0
ARC
  5
1B2
330
1F
100
AcDbEntity
  8
0
  6
HIDDEN
 62
     7
370
    15
100
AcDbCircle
 10
464.9461462718
 20
267.543074112
 30
0.0
 40
3.99999999999998
100
AcDbArc
 50
90.0
 51
114.6768631703
  0
LINE
  5
1B3
330
1F
100
AcDbEntity
  8
0
  6
HIDDEN
 62
     7
370
    15
100
AcDbLine
 10
427.8524562297
 20
244.543074112
 30
0.0
 11
427.8524562297
 21
252.3378651737
 31
0.0
  0
LINE
  5
1B4
330
1F
100
AcDbEntity
  8
0
  6
HIDDEN
 62
     7
370
    15
100
AcDbLine
 10
427.8524562297
 20
252.3378651737
 30
0.0
 11
426.8524562297
 21
252.3378651737
 31
0.0
  0
LINE
  5
1B5
330
1F
100
AcDbEntity
  8
0
  6
HIDDEN
 62
     7
370
    15
100
AcDbLine
 10
429.764955372
 20
256.8812493935
 30
0.0
 11
430.1824555435
 21
255.9725725496
 31
0.0
  0
LINE
  5
1B6
330
1F
100
AcDbEntity
  8
0
  6
HIDDEN
 62
     7
370
    15
100
AcDbLine
 10
430.1824555435
 20
255.9725725496
 30
0.0
 11
463.2761455856
 21
271.1777814878
 31
0.0
  0
ARC
  5
1B7
330
1F
100
AcDbEntity
  8
0
  6
HIDDEN
 62
     7
370
    15
100
AcDbCircle
 10
431.8524562297
 20
252.3378651737
 30
0.0
 40
3.999999999999956
100
AcDbArc
 50
114.6768631703
 51
180.0
  0
ARC
  5
1B8
330
1F
100
AcDbEntity
  8
0
  6
HIDDEN
 62
     7
370
    15
100
AcDbCircle
 10
236.8524562297
 20
271.5974961674
 30
0.0
 40
6.0
100
AcDbArc
 50
112.0
 51
180.0
  0
LINE
  5
1B9
330
1F
100
AcDbEntity
  8
0
  6
HIDDEN
 62
     7
370
    15
100
AcDbLine
 10
230.8524562297
 20
271.5974961674
 30
0.0
 11
231.8524562297
 21
271.5974961674
 31
0.0
  0
LINE
  5
1BA
330
1F
100
AcDbEntity
  8
0
  6
HIDDEN
 62
     7
370
    15
100
AcDbLine
 10
234.9794232626
 20
276.2334154402
 30
0.0
 11
234.6048166692
 21
277.1605992948
 31
0.0
  0
LINE
  5
1BB
330
1F
100
AcDbEntity
  8
0
  6
HIDDEN
 62
     7
370
    15
100
AcDbLine
 10
230.8524562297
 20
271.5974961674
 30
0.0
 11
230.8524562297
 21
245.543074112
 31
0.0
  0
LINE
  5
1BC
330
1F
100
AcDbEntity
  8
0
  6
HIDDEN
 62
     7
370
    15
100
AcDbLine
 10
230.8524562297
 20
245.543074112
 30
0.0
 11
231.8524562297
 21
245.543074112
 31
0.0
  0
LINE
  5
1BD
330
1F
100
AcDbEntity
  8
0
  6
HIDDEN
 62
     7
370
    15
100
AcDbLine
 10
329.6048166692
 20
315.5430907491
 30
0.0
 11
234.6048166692
 21
277.1605992948
 31
0.0
  0
ARC
  5
1BE
330
1F
100
AcDbEntity
  8
0
  6
HIDDEN
 62
     7
370
    15
100
AcDbCircle
 10
236.8524562297
 20
245.543074112
 30
0.0
 40
6.0
100
AcDbArc
 50
180.0
 51
270.0
  0
LINE
  5
1BF
330
1F
100
AcDbEntity
  8
0
  6
HIDDEN
 62
     7
370
    15
100
AcDbLine
 10
236.8524562297
 20
239.543074112
 30
0.0
 11
236.8524562297
 21
240.543074112
 31
0.0
  0
LINE
  5
1C0
330
1F
100
AcDbEntity
  8
0
  6
HIDDEN
 62
     7
370
    15
100
AcDbLine
 10
336.8524562297
 20
245.543074112
 30
0.0
 11
337.8524562297
 21
245.543074112
 31
0.0
  0
LINE
  5
1C1
330
1F
100
AcDbEntity
  8
0
  6
HIDDEN
 62
     7
370
    15
100
AcDbLine
 10
337.8524562297
 20
245.543074112
 30
0.0
 11
337.8524562297
 21
309.9799876217
 31
0.0
  0
LINE
  5
1C2
330
1F
100
AcDbEntity
  8
0
  6
HIDDEN
 62
     7
370
    15
100
AcDbLine
 10
236.8524562297
 20
239.543074112
 30
0.0
 11
331.8524562297
 21
239.543074112
 31
0.0
  0
LINE
  5
1C3
330
1F
100
AcDbEntity
  8
0
  6
HIDDEN
 62
     7
370
    15
100
AcDbLine
 10
331.8524562297
 20
239.543074112
 30
0.0
 11
331.8524562297
 21
240.543074112
 31
0.0
  0
ARC
  5
1C4
330
1F
100
AcDbEntity
  8
0
  6
HIDDEN
 62
     7
370
    15
100
AcDbCircle
 10
331.8524562297
 20
245.543074112
 30
0.0
 40
6.000000000000057
100
AcDbArc
 50
270.0
 51
0.0
  0
LINE
  5
1C5
330
1F
100
AcDbEntity
  8
0
  6
HIDDEN
 62
     7
370
    15
100
AcDbLine
 10
177.0024562297
 20
240.543074112
 30
0.0
 11
177.0024562297
 21
274.7244648209
 31
0.0
  0
LINE
  5
1C6
330
1F
100
AcDbEntity
  8
0
  6
HIDDEN
 62
     7
370
    15
100
AcDbLine
 10
165.9024562297
 20
270.2397737141
 30
0.0
 11
165.9024562297
 21
240.543074112
 31
0.0
  0
LINE
  5
1C7
330
1F
100
AcDbEntity
  8
0
  6
HIDDEN
 62
     7
370
    15
100
AcDbLine
 10
202.4024562297
 20
240.543074112
 30
0.0
 11
202.4024562297
 21
284.9867309571
 31
0.0
  0
LINE
  5
1C8
330
1F
100
AcDbEntity
  8
0
  6
HIDDEN
 62
     7
370
    15
100
AcDbLine
 10
191.3024562297
 20
280.5020398503
 30
0.0
 11
191.3024562297
 21
240.543074112
 31
0.0
  0
LINE
  5
1C9
330
1F
100
AcDbEntity
  8
0
  6
HIDDEN
 62
     7
370
    15
100
AcDbLine
 10
227.8024562297
 20
240.543074112
 30
0.0
 11
227.8024562297
 21
295.2489970933
 31
0.0
  0
LINE
  5
1CA
330
1F
100
AcDbEntity
  8
0
  6
HIDDEN
 62
     7
370
    15
100
AcDbLine
 10
216.7024562297
 20
290.7643059865
 30
0.0
 11
216.7024562297
 21
240.543074112
 31
0.0
  0
LINE
  5
1CB
330
1F
100
AcDbEntity
  8
0
  6
HIDDEN
 62
     7
370
    15
100
AcDbLine
 10
253.2024562297
 20
283.5959986732
 30
0.0
 11
253.2024562297
 21
305.5112632295
 31
0.0
  0
LINE
  5
1CC
330
1F
100
AcDbEntity
  8
0
  6
HIDDEN
 62
     7
370
    15
100
AcDbLine
 10
242.1024562297
 20
301.0265721227
 30
0.0
 11
242.1024562297
 21
279.1113075664
 31
0.0
  0
LINE
  5
1CD
330
1F
100
AcDbEntity
  8
0
  6
HIDDEN
 62
     7
370
    15
100
AcDbLine
 10
225.5524562297
 20
222.543074112
 30
0.0
 11
225.5524562297
 21
240.543074112
 31
0.0
  0
LINE
  5
1CE
330
1F
100
AcDbEntity
  8
0
  6
HIDDEN
 62
     7
370
    15
100
AcDbLine
 10
218.9524562297
 20
240.543074112
 30
0.0
 11
218.9524562297
 21
222.543074112
 31
0.0
  0
LINE
  5
1CF
330
1F
100
AcDbEntity
  8
0
  6
HIDDEN
 62
     7
370
    15
100
AcDbLine
 10
200.1524562297
 20
222.543074112
 30
0.0
 11
200.1524562297
 21
240.543074112
 31
0.0
  0
LINE
  5
1D0
330
1F
100
AcDbEntity
  8
0
  6
HIDDEN
 62
     7
370
    15
100
AcDbLine
 10
193.5524562297
 20
240.543074112
 30
0.0
 11
193.5524562297
 21
222.543074112
 31
0.0
  0
LINE
  5
1D1
330
1F
100
AcDbEntity
  8
0
  6
HIDDEN
 62
     7
370
    15
100
AcDbLine
 10
408.2524562297
 20
222.543074112
 30
0.0
 11
408.2524562297
 21
240.543074112
 31
0.0
  0
LINE
  5
1D2
330
1F
100
AcDbEntity
  8
0
  6
HIDDEN
 62
     7
370
    15
100
AcDbLine
 10
366.4524562297
 20
240.543074112
 30
0.0
 11
366.4524562297
 21
222.543074112
 31
0.0
  0
LINE
  5
1D3
330
1F
100
AcDbEntity
  8
0
  6
HIDDEN
 62
     7
370
    15
100
AcDbLine
 10
332.0524562297
 20
222.543074112
 30
0.0
 11
332.0524562297
 21
240.545762843
 31
0.0
  0
LINE
  5
1D4
330
1F
100
AcDbEntity
  8
0
  6
HIDDEN
 62
     7
370
    15
100
AcDbLine
 10
290.2524562297
 20
240.543074112
 30
0.0
 11
290.2524562297
 21
222.543074112
 31
0.0
  0
LINE
  5
1D5
330
1F
100
AcDbEntity
  8
0
  6
HIDDEN
 62
     7
370
    15
100
AcDbLine
 10
281.2524562297
 20
222.543074112
 30
0.0
 11
281.2524562297
 21
240.543074112
 31
0.0
  0
LINE
  5
1D6
330
1F
100
AcDbEntity
  8
0
  6
HIDDEN
 62
     7
370
    15
100
AcDbLine
 10
239.4524562297
 20
240.543074112
 30
0.0
 11
239.4524562297
 21
222.543074112
 31
0.0
  0
LINE
  5
1D7
330
1F
100
AcDbEntity
  8
0
  6
HIDDEN
 62
     7
370
    15
100
AcDbLine
 10
478.8524562297
 20
308.268074112
 30
0.0
 11
496.8524562297
 21
308.268074112
 31
0.0
  0
LINE
  5
1D8
330
1F
100
AcDbEntity
  8
0
  6
HIDDEN
 62
     7
370
    15
100
AcDbLine
 10
496.8524562297
 20
314.618074112
 30
0.0
 11
478.8524562297
 21
314.618074112
 31
0.0
  0
LINE
  5
1D9
330
1F
100
AcDbEntity
  8
0
  6
HIDDEN
 62
     7
370
    15
100
AcDbLine
 10
478.8524562297
 20
333.668074112
 30
0.0
 11
496.8524562297
 21
333.668074112
 31
0.0
  0
LINE
  5
1DA
330
1F
100
AcDbEntity
  8
0
  6
HIDDEN
 62
     7
370
    15
100
AcDbLine
 10
496.8524562297
 20
340.018074112
 30
0.0
 11
478.8524562297
 21
340.018074112
 31
0.0
  0
LINE
  5
1DB
330
1F
100
AcDbEntity
  8
0
  6
HIDDEN
 62
     7
370
    15
100
AcDbLine
 10
168.2774562297
 20
240.543074112
 30
0.0
 11
168.2774562297
 21
222.543074112
 31
0.0
  0
LINE
  5
1DC
330
1F
100
AcDbEntity
  8
0
  6
HIDDEN
 62
     7
370
    15
100
AcDbLine
 10
174.6274562297
 20
222.543074112
 30
0.0
 11
174.6274562297
 21
240.543074112
 31
0.0
  0
LINE
  5
1DD
330
1F
100
AcDbEntity
  8
0
  6
HIDDEN
 62
     7
370
    15
100
AcDbLine
 10
478.8524562297
 20
282.868074112
 30
0.0
 11
496.8524562297
 21
282.868074112
 31
0.0
  0
LINE
  5
1DE
330
1F
100
AcDbEntity
  8
0
  6
HIDDEN
 62
     7
370
    15
100
AcDbLine
 10
496.8524562297
 20
289.218074112
 30
0.0
 11
478.8524562297
 21
289.218074112
 31
0.0
  0
LINE
  5
1DF
330
1F
100
AcDbEntity
  8
0
  6
HIDDEN
 62
     7
370
    15
100
AcDbLine
 10
415.3051562297
 20
222.543074112
 30
0.0
 11
415.3051562297
 21
237.543074112
 31
0.0
  0
LINE
  5
1E0
330
1F
100
AcDbEntity
  8
0
  6
HIDDEN
 62
     7
370
    15
100
AcDbLine
 10
410.1997562297
 20
237.543074112
 30
0.0
 11
410.1997562297
 21
222.543074112
 31
0.0
  0
LINE
  5
1E1
330
1F
100
AcDbEntity
  8
0
  6
HIDDEN
 62
     7
370
    15
100
AcDbLine
 10
468.8997562297
 20
357.543074112
 30
0.0
 11
471.4524562297
 21
356.0092572098
 31
0.0
  0
LINE
  5
1E2
330
1F
100
AcDbEntity
  8
0
  6
HIDDEN
 62
     7
370
    15
100
AcDbLine
 10
471.4524562297
 20
356.0092572098
 30
0.0
 11
474.0051562297
 21
357.543074112
 31
0.0
  0
LINE
  5
1E3
330
1F
100
AcDbEntity
  8
0
  6
HIDDEN
 62
     7
370
    15
100
AcDbLine
 10
212.1051562297
 20
222.543074112
 30
0.0
 11
212.1051562297
 21
237.543074112
 31
0.0
  0
LINE
  5
1E4
330
1F
100
AcDbEntity
  8
0
  6
HIDDEN
 62
     7
370
    15
100
AcDbLine
 10
206.9997562297
 20
237.543074112
 30
0.0
 11
206.9997562297
 21
222.543074112
 31
0.0
  0
LINE
  5
1E5
330
1F
100
AcDbEntity
  8
0
  6
HIDDEN
 62
     7
370
    15
100
AcDbLine
 10
496.8524562297
 20
364.795774112
 30
0.0
 11
481.8524562297
 21
364.795774112
 31
0.0
  0
LINE
  5
1E6
330
1F
100
AcDbEntity
  8
0
  6
HIDDEN
 62
     7
370
    15
100
AcDbLine
 10
481.8524562297
 20
359.690374112
 30
0.0
 11
496.8524562297
 21
359.690374112
 31
0.0
  0
LINE
  5
1E7
330
1F
100
AcDbEntity
  8
0
  6
HIDDEN
 62
     7
370
    15
100
AcDbLine
 10
146.8524562297
 20
232.690374112
 30
0.0
 11
161.8524562297
 21
232.690374112
 31
0.0
  0
LINE
  5
1E8
330
1F
100
AcDbEntity
  8
0
  6
HIDDEN
 62
     7
370
    15
100
AcDbLine
 10
161.8524562297
 20
237.795774112
 30
0.0
 11
146.8524562297
 21
237.795774112
 31
0.0
  0
LINE
  5
1E9
330
1F
100
AcDbEntity
  8
0
  6
HIDDEN
 62
     7
370
    15
100
AcDbLine
 10
443.4997562297
 20
357.543074112
 30
0.0
 11
446.0524562297
 21
356.0092572098
 31
0.0
  0
LINE
  5
1EA
330
1F
100
AcDbEntity
  8
0
  6
HIDDEN
 62
     7
370
    15
100
AcDbLine
 10
446.0524562297
 20
356.0092572098
 30
0.0
 11
448.6051562297
 21
357.543074112
 31
0.0
  0
LINE
  5
1EB
330
1F
100
AcDbEntity
  8
0
  6
HIDDEN
 62
     7
370
    15
100
AcDbLine
 10
443.4997562297
 20
372.543074112
 30
0.0
 11
443.4997562297
 21
357.543074112
 31
0.0
  0
LINE
  5
1EC
330
1F
100
AcDbEntity
  8
0
  6
HIDDEN
 62
     7
370
    15
100
AcDbLine
 10
448.6051562297
 20
357.543074112
 30
0.0
 11
448.6051562297
 21
372.543074112
 31
0.0
  0
LINE
  5
1ED
330
1F
100
AcDbEntity
  8
0
  6
HIDDEN
 62
     7
370
    15
100
AcDbLine
 10
186.7051562297
 20
222.543074112
 30
0.0
 11
186.7051562297
 21
237.543074112
 31
0.0
  0
LINE
  5
1EE
330
1F
100
AcDbEntity
  8
0
  6
HIDDEN
 62
     7
370
    15
100
AcDbLine
 10
181.5997562297
 20
237.543074112
 30
0.0
 11
181.5997562297
 21
222.543074112
 31
0.0
  0
LINE
  5
1EF
330
1F
100
AcDbEntity
  8
0
  6
HIDDEN
 62
     7
370
    15
100
AcDbLine
 10
468.8997562297
 20
372.543074112
 30
0.0
 11
468.8997562297
 21
357.543074112
 31
0.0
  0
LINE
  5
1F0
330
1F
100
AcDbEntity
  8
0
  6
HIDDEN
 62
     7
370
    15
100
AcDbLine
 10
474.0051562297
 20
357.543074112
 30
0.0
 11
474.0051562297
 21
372.543074112
 31
0.0
  0
LINE
  5
1F1
330
1F
100
AcDbEntity
  8
0
  6
HIDDEN
 62
     7
370
    15
100
AcDbLine
 10
496.8524562297
 20
326.695774112
 30
0.0
 11
481.8524562297
 21
326.695774112
 31
0.0
  0
LINE
  5
1F2
330
1F
100
AcDbEntity
  8
0
  6
HIDDEN
 62
     7
370
    15
100
AcDbLine
 10
481.8524562297
 20
321.590374112
 30
0.0
 11
496.8524562297
 21
321.590374112
 31
0.0
  0
LINE
  5
1F3
330
1F
100
AcDbEntity
  8
0
  6
HIDDEN
 62
     7
370
    15
100
AcDbLine
 10
481.8524562297
 20
364.795774112
 30
0.0
 11
480.3186393275
 21
362.243074112
 31
0.0
  0
LINE
  5
1F4
330
1F
100
AcDbEntity
  8
0
  6
HIDDEN
 62
     7
370
    15
100
AcDbLine
 10
480.3186393275
 20
362.243074112
 30
0.0
 11
481.8524562297
 21
359.690374112
 31
0.0
  0
LINE
  5
1F5
330
1F
100
AcDbEntity
  8
0
  6
HIDDEN
 62
     7
370
    15
100
AcDbLine
 10
186.7051562297
 20
237.543074112
 30
0.0
 11
184.1524562297
 21
239.0768910141
 31
0.0
  0
LINE
  5
1F6
330
1F
100
AcDbEntity
  8
0
  6
HIDDEN
 62
     7
370
    15
100
AcDbLine
 10
184.1524562297
 20
239.0768910141
 30
0.0
 11
181.5997562297
 21
237.543074112
 31
0.0
  0
LINE
  5
1F7
330
1F
100
AcDbEntity
  8
0
  6
HIDDEN
 62
     7
370
    15
100
AcDbLine
 10
161.8524562297
 20
232.690374112
 30
0.0
 11
163.3862731319
 21
235.243074112
 31
0.0
  0
LINE
  5
1F8
330
1F
100
AcDbEntity
  8
0
  6
HIDDEN
 62
     7
370
    15
100
AcDbLine
 10
163.3862731319
 20
235.243074112
 30
0.0
 11
161.8524562297
 21
237.795774112
 31
0.0
  0
LINE
  5
1F9
330
1F
100
AcDbEntity
  8
0
  6
HIDDEN
 62
     7
370
    15
100
AcDbLine
 10
339.1051562297
 20
237.543074112
 30
0.0
 11
336.5524562297
 21
239.0768910141
 31
0.0
  0
LINE
  5
1FA
330
1F
100
AcDbEntity
  8
0
  6
HIDDEN
 62
     7
370
    15
100
AcDbLine
 10
336.5524562297
 20
239.0768910141
 30
0.0
 11
333.9997562297
 21
237.543074112
 31
0.0
  0
LINE
  5
1FB
330
1F
100
AcDbEntity
  8
0
  6
HIDDEN
 62
     7
370
    15
100
AcDbLine
 10
339.1051562297
 20
222.543074112
 30
0.0
 11
339.1051562297
 21
237.543074112
 31
0.0
  0
LINE
  5
1FC
330
1F
100
AcDbEntity
  8
0
  6
HIDDEN
 62
     7
370
    15
100
AcDbLine
 10
333.9997562297
 20
237.543074112
 30
0.0
 11
333.9997562297
 21
222.543074112
 31
0.0
  0
LINE
  5
1FD
330
1F
100
AcDbEntity
  8
0
  6
HIDDEN
 62
     7
370
    15
100
AcDbLine
 10
415.3051562297
 20
237.543074112
 30
0.0
 11
412.7524562297
 21
239.0768910141
 31
0.0
  0
LINE
  5
1FE
330
1F
100
AcDbEntity
  8
0
  6
HIDDEN
 62
     7
370
    15
100
AcDbLine
 10
412.7524562297
 20
239.0768910141
 30
0.0
 11
410.1997562297
 21
237.543074112
 31
0.0
  0
LINE
  5
1FF
330
1F
100
AcDbEntity
  8
0
  6
HIDDEN
 62
     7
370
    15
100
AcDbLine
 10
481.8524562297
 20
326.695774112
 30
0.0
 11
480.3186393275
 21
324.143074112
 31
0.0
  0
LINE
  5
200
330
1F
100
AcDbEntity
  8
0
  6
HIDDEN
 62
     7
370
    15
100
AcDbLine
 10
480.3186393275
 20
324.143074112
 30
0.0
 11
481.8524562297
 21
321.590374112
 31
0.0
  0
LINE
  5
201
330
1F
100
AcDbEntity
  8
0
  6
HIDDEN
 62
     7
370
    15
100
AcDbLine
 10
212.1051562297
 20
237.543074112
 30
0.0
 11
209.5524562297
 21
239.0768910141
 31
0.0
  0
LINE
  5
202
330
1F
100
AcDbEntity
  8
0
  6
HIDDEN
 62
     7
370
    15
100
AcDbLine
 10
209.5524562297
 20
239.0768910141
 30
0.0
 11
206.9997562297
 21
237.543074112
 31
0.0
  0
LINE
  5
203
330
1F
100
AcDbEntity
  8
0
  6
HIDDEN
 62
     7
370
    15
100
AcDbLine
 10
288.3051562297
 20
222.543074112
 30
0.0
 11
288.3051562297
 21
237.543074112
 31
0.0
  0
LINE
  5
204
330
1F
100
AcDbEntity
  8
0
  6
HIDDEN
 62
     7
370
    15
100
AcDbLine
 10
283.1997562297
 20
237.543074112
 30
0.0
 11
283.1997562297
 21
222.543074112
 31
0.0
  0
LINE
  5
205
330
1F
100
AcDbEntity
  8
0
  6
HIDDEN
 62
     7
370
    15
100
AcDbLine
 10
288.3051562297
 20
237.543074112
 30
0.0
 11
285.7524562297
 21
239.0768910141
 31
0.0
  0
LINE
  5
206
330
1F
100
AcDbEntity
  8
0
  6
HIDDEN
 62
     7
370
    15
100
AcDbLine
 10
285.7524562297
 20
239.0768910141
 30
0.0
 11
283.1997562297
 21
237.543074112
 31
0.0
  0
LINE
  5
207
330
1F
100
AcDbEntity
  8
0
  6
HIDDEN
 62
     7
370
    15
100
AcDbLine
 10
496.8524562297
 20
301.295774112
 30
0.0
 11
481.8524562297
 21
301.295774112
 31
0.0
  0
LINE
  5
208
330
1F
100
AcDbEntity
  8
0
  6
HIDDEN
 62
     7
370
    15
100
AcDbLine
 10
481.8524562297
 20
296.190374112
 30
0.0
 11
496.8524562297
 21
296.190374112
 31
0.0
  0
LINE
  5
209
330
1F
100
AcDbEntity
  8
0
  6
HIDDEN
 62
     7
370
    15
100
AcDbLine
 10
481.8524562297
 20
250.495774112
 30
0.0
 11
480.3186393275
 21
247.943074112
 31
0.0
  0
LINE
  5
20A
330
1F
100
AcDbEntity
  8
0
  6
HIDDEN
 62
     7
370
    15
100
AcDbLine
 10
480.3186393275
 20
247.943074112
 30
0.0
 11
481.8524562297
 21
245.390374112
 31
0.0
  0
LINE
  5
20B
330
1F
100
AcDbEntity
  8
0
  6
HIDDEN
 62
     7
370
    15
100
AcDbLine
 10
481.8524562297
 20
301.295774112
 30
0.0
 11
480.3186393275
 21
298.743074112
 31
0.0
  0
LINE
  5
20C
330
1F
100
AcDbEntity
  8
0
  6
HIDDEN
 62
     7
370
    15
100
AcDbLine
 10
480.3186393275
 20
298.743074112
 30
0.0
 11
481.8524562297
 21
296.190374112
 31
0.0
  0
LINE
  5
20D
330
1F
100
AcDbEntity
  8
0
  6
HIDDEN
 62
     7
370
    15
100
AcDbLine
 10
496.8524562297
 20
250.495774112
 30
0.0
 11
481.8524562297
 21
250.495774112
 31
0.0
  0
LINE
  5
20E
330
1F
100
AcDbEntity
  8
0
  6
HIDDEN
 62
     7
370
    15
100
AcDbLine
 10
481.8524562297
 20
245.390374112
 30
0.0
 11
496.8524562297
 21
245.390374112
 31
0.0
  0
LINE
  5
20F
330
1F
100
AcDbEntity
  8
DIM
100
AcDbLine
 10
146.8524562297
 20
260.1705315277
 30
0.0
 11
146.8524562297
 21
263.5430741119
 31
0.0
  0
LINE
  5
210
330
1F
100
AcDbEntity
  8
DIM
100
AcDbLine
 10
149.0522394081
 20
263.4318442072
 30
0.0
 11
145.9252723752
 21
262.1684675185
 31
0.0
  0
DIMENSION
  5
211
330
1F
100
AcDbEntity
  8
DIM
100
AcDbDimension
  2
_D
 10
129.3524562297
 20
222.543074112
 30
0.0
 11
129.3524562297
 21
242.543074112
 31
0.0
 70
   160
  1
<>
 71
     2
 42
-1.0
  3
SLDDIMSTYLE0
100
AcDbAlignedDimension
 13
146.8524562297
 23
262.543074112
 33
0.0
 14
146.8524562297
 24
222.543074112
 34
0.0
 50
90.0
100
AcDbRotatedDimension
  0
DIMENSION
  5
21C
330
1F
100
AcDbEntity
  8
DIM
100
AcDbDimension
  2
_D_1
 10
496.8524562297
 20
205.043074112
 30
0.0
 11
321.8524562297
 21
205.0430741119
 31
0.0
 70
   160
  1
<>
 71
     2
 42
-1.0
  3
SLDDIMSTYLE0
100
AcDbAlignedDimension
 13
146.8524562297
 23
222.5430741119
 33
0.0
 14
496.8524562297
 24
227.543074112
 34
0.0
 50
0.0
100
AcDbRotatedDimension
  0
DIMENSION
  5
226
330
1F
100
AcDbEntity
  8
DIM
100
AcDbDimension
  2
_D_2
 10
514.3524562297
 20
222.543074112
 30
0.0
 11
514.3524562297
 21
297.543074112
 31
0.0
 70
   160
  1
<>
 71
     2
 42
-1.0
  3
SLDDIMSTYLE0
100
AcDbAlignedDimension
 13
496.8524562297
 23
372.543074112
 33
0.0
 14
491.8524562297
 24
222.543074112
 34
0.0
 50
90.0
100
AcDbRotatedDimension
  0
DIMENSION
  5
230
330
1F
100
AcDbEntity
  8
DIM
100
AcDbDimension
  2
_D_3
 10
496.8524562297
 20
372.543074112
 30
0.0
 11
323.0192499476
 21
353.8645336866
 31
0.0
 70
   162
  1
<>
 71
     1
 42
-1.0
  3
SLDDIMSTYLE1
100
AcDb2LineAngularDimension
 13
418.2108786841
 23
372.1789933848
 33
0.0
 14
149.9794232626
 24
263.8064508006
 34
0.0
 15
420.0839116512
 25
372.543074112
 35
0.0
 16
323.0192499476
 26
353.8645336866
 36
0.0
  0
LINE
  5
23A
330
1F
100
AcDbEntity
  8
0
  6
Continuous
 62
     7
370
    30
100
AcDbLine
 10
74.1746546639
 20
263.8064508006
 30
0.0
 11
74.1746546639
 21
259.1705315277
 31
0.0
  0
LINE
  5
23B
330
1F
100
AcDbEntity
  8
0
  6
Continuous
 62
     7
370
    30
100
AcDbLine
 10
74.1746546639
 20
263.8064508006
 30
0.0
 11
90.1746546639
 21
263.8064508006
 31
0.0
  0
LINE
  5
23C
330
1F
100
AcDbEntity
  8
0
  6
Continuous
 62
     7
370
    30
100
AcDbLine
 10
90.1746546639
 20
259.1705315277
 30
0.0
 11
90.1746546639
 21
263.8064508006
 31
0.0
  0
LINE
  5
23D
330
1F
100
AcDbEntity
  8
0
  6
Continuous
 62
     7
370
    30
100
AcDbLine
 10
90.1746546639
 20
259.1705315277
 30
0.0
 11
74.1746546639
 21
259.1705315277
 31
0.0
  0
LINE
  5
23E
330
1F
100
AcDbEntity
  8
0
  6
Continuous
 62
     7
370
    30
100
AcDbLine
 10
74.1746546639
 20
259.1705315277
 30
0.0
 11
74.1746546639
 21
222.543074112
 31
0.0
  0
LINE
  5
23F
330
1F
100
AcDbEntity
  8
0
  6
Continuous
 62
     7
370
    30
100
AcDbLine
 10
90.1746546639
 20
222.543074112
 30
0.0
 11
90.1746546639
 21
259.1705315277
 31
0.0
  0
LINE
  5
240
330
1F
100
AcDbEntity
  8
0
  6
Continuous
 62
     7
370
    30
100
AcDbLine
 10
74.1746546639
 20
222.543074112
 30
0.0
 11
90.1746546639
 21
222.543074112
 31
0.0
  0
CIRCLE
  5
241
330
1F
100
AcDbEntity
  8
0
  6
Continuous
 62
     7
370
    30
100
AcDbCircle
 10
82.1746546639
 20
235.243074112
 30
0.0
 40
2.552699999999973
  0
LINE
  5
242
330
1F
100
AcDbEntity
  8
0
  6
Continuous
 62
     7
370
    30
100
AcDbLine
 10
73.1746546639
 20
223.543074112
 30
0.0
 11
73.1746546639
 21
259.1705315277
 31
0.0
  0
LINE
  5
243
330
1F
100
AcDbEntity
  8
0
  6
Continuous
 62
     7
370
    30
100
AcDbLine
 10
73.1746546639
 20
259.1705315277
 30
0.0
 11
74.1746546639
 21
259.1705315277
 31
0.0
  0
ARC
  5
244
330
1F
100
AcDbEntity
  8
0
  6
Continuous
 62
     7
370
    30
100
AcDbCircle
 10
74.1746546639
 20
223.543074112
 30
0.0
 40
1.000000000000028
100
AcDbArc
 50
180.0
 51
270.0
  0
LINE
  5
245
330
1F
100
AcDbEntity
  8
0
  6
Continuous
 62
     7
370
    30
100
AcDbLine
 10
73.1746546639
 20
259.1705315277
 30
0.0
 11
73.1746546639
 21
262.879266946
 31
0.0
  0
ARC
  5
246
330
1F
100
AcDbEntity
  8
0
  6
Continuous
 62
     7
370
    30
100
AcDbCircle
 10
74.139572139
 20
262.841429224
 30
0.0
 40
0.9656590634640837
100
AcDbArc
 50
87.9179783727
 51
177.7543866194
  0
LINE
  5
247
330
1F
100
AcDbEntity
  8
0
  6
Continuous
 62
     7
370
    30
100
AcDbLine
 10
91.1746546639
 20
259.1705315277
 30
0.0
 11
91.1746546639
 21
223.543074112
 31
0.0
  0
ARC
  5
248
330
1F
100
AcDbEntity
  8
0
  6
Continuous
 62
     7
370
    30
100
AcDbCircle
 10
90.1746546639
 20
223.543074112
 30
0.0
 40
1.000000000000028
100
AcDbArc
 50
270.0
 51
0.0
  0
LINE
  5
249
330
1F
100
AcDbEntity
  8
0
  6
Continuous
 62
     7
370
    30
100
AcDbLine
 10
91.1746546639
 20
259.1705315277
 30
0.0
 11
90.1746546639
 21
259.1705315277
 31
0.0
  0
ARC
  5
24A
330
1F
100
AcDbEntity
  8
0
  6
Continuous
 62
     7
370
    30
100
AcDbCircle
 10
90.2097371889
 20
262.841429224
 30
0.0
 40
0.9656590634640837
100
AcDbArc
 50
2.2456133806
 51
92.0820216273
  0
LINE
  5
24B
330
1F
100
AcDbEntity
  8
0
  6
Continuous
 62
     7
370
    30
100
AcDbLine
 10
91.1746546639
 20
262.879266946
 30
0.0
 11
91.1746546639
 21
259.1705315277
 31
0.0
  0
LINE
  5
24C
330
1F
100
AcDbEntity
  8
0
  6
Continuous
 62
     7
370
    30
100
AcDbLine
 10
74.1746546639
 20
372.1789933848
 30
0.0
 11
74.1746546639
 21
263.8064508006
 31
0.0
  0
ARC
  5
24D
330
1F
100
AcDbEntity
  8
0
  6
Continuous
 62
     7
370
    30
100
AcDbCircle
 10
74.139572139
 20
371.2139718082
 30
0.0
 40
0.9656590634641407
100
AcDbArc
 50
87.9179783727
 51
177.7543866194
  0
LINE
  5
24E
330
1F
100
AcDbEntity
  8
0
  6
Continuous
 62
     7
370
    30
100
AcDbLine
 10
73.1746546639
 20
262.879266946
 30
0.0
 11
73.1746546639
 21
371.2518095302
 31
0.0
  0
LINE
  5
24F
330
1F
100
AcDbEntity
  8
0
  6
Continuous
 62
     7
370
    30
100
AcDbLine
 10
90.1746546639
 20
372.1789933848
 30
0.0
 11
74.1746546639
 21
372.1789933848
 31
0.0
  0
LINE
  5
250
330
1F
100
AcDbEntity
  8
0
  6
Continuous
 62
     7
370
    30
100
AcDbLine
 10
90.1746546639
 20
263.8064508006
 30
0.0
 11
90.1746546639
 21
372.1789933848
 31
0.0
  0
ELLIPSE
  5
251
330
1F
100
AcDbEntity
  8
0
  6
Continuous
 62
     7
370
    30
100
AcDbEllipse
 10
82.1746546639
 20
272.4821192675
 30
0.0
 11
5.550000000000011
 21
0.0
 31
0.0
210
0.0
220
0.0
230
1.0
 40
0.4040262258
 41
0.0
 42
6.283185307179586
  0
ELLIPSE
  5
252
330
1F
100
AcDbEntity
  8
0
  6
Continuous
 62
     7
370
    30
100
AcDbEllipse
 10
82.1746546639
 20
303.2689176761
 30
0.0
 11
5.550000000000011
 21
0.0
 31
0.0
210
0.0
220
0.0
230
1.0
 40
0.4040262258
 41
0.0
 42
6.283185307179586
  0
ELLIPSE
  5
253
330
1F
100
AcDbEntity
  8
0
  6
Continuous
 62
     7
370
    30
100
AcDbEllipse
 10
82.1746546639
 20
293.0066515399
 30
0.0
 11
5.550000000000011
 21
0.0
 31
0.0
210
0.0
220
0.0
230
1.0
 40
0.4040262258
 41
0.0
 42
6.283185307179586
  0
ELLIPSE
  5
254
330
1F
100
AcDbEntity
  8
0
  6
Continuous
 62
     7
370
    30
100
AcDbEllipse
 10
82.1746546639
 20
282.7443854037
 30
0.0
 11
5.550000000000011
 21
0.0
 31
0.0
210
0.0
220
0.0
230
1.0
 40
0.4040262258
 41
0.0
 42
6.283185307179586
  0
ARC
  5
255
330
1F
100
AcDbEntity
  8
0
  6
Continuous
 62
     7
370
    30
100
AcDbCircle
 10
90.2097371889
 20
371.2139718082
 30
0.0
 40
0.9656590634641407
100
AcDbArc
 50
2.2456133806
 51
92.0820216273
  0
LINE
  5
256
330
1F
100
AcDbEntity
  8
0
  6
Continuous
 62
     7
370
    30
100
AcDbLine
 10
91.1746546639
 20
371.2518095302
 30
0.0
 11
91.1746546639
 21
262.879266946
 31
0.0
  0
LINE
  5
257
330
1F
100
AcDbEntity
  8
0
  6
Continuous
 62
     7
370
    30
100
AcDbLine
 10
74.1746546639
 20
372.543074112
 30
0.0
 11
74.1746546639
 21
372.1789933848
 31
0.0
  0
ARC
  5
258
330
1F
100
AcDbEntity
  8
0
  6
Continuous
 62
     7
370
    30
100
AcDbCircle
 10
74.1746546639
 20
371.543074112
 30
0.0
 40
1.0
100
AcDbArc
 50
90.0
 51
180.0
  0
LINE
  5
259
330
1F
100
AcDbEntity
  8
0
  6
Continuous
 62
     7
370
    30
100
AcDbLine
 10
73.1746546639
 20
371.2518095302
 30
0.0
 11
73.1746546639
 21
371.543074112
 31
0.0
  0
LINE
  5
25A
330
1F
100
AcDbEntity
  8
0
  6
Continuous
 62
     7
370
    30
100
AcDbLine
 10
74.1746546639
 20
372.543074112
 30
0.0
 11
90.1746546639
 21
372.543074112
 31
0.0
  0
LINE
  5
25B
330
1F
100
AcDbEntity
  8
0
  6
Continuous
 62
     7
370
    30
100
AcDbLine
 10
90.1746546639
 20
372.1789933848
 30
0.0
 11
90.1746546639
 21
372.543074112
 31
0.0
  0
ARC
  5
25C
330
1F
100
AcDbEntity
  8
0
  6
Continuous
 62
     7
370
    30
100
AcDbCircle
 10
90.1746546639
 20
371.543074112
 30
0.0
 40
1.000000000000014
100
AcDbArc
 50
0.0
 51
90.0
  0
LINE
  5
25D
330
1F
100
AcDbEntity
  8
0
  6
Continuous
 62
     7
370
    30
100
AcDbLine
 10
91.1746546639
 20
371.543074112
 30
0.0
 11
91.1746546639
 21
371.2518095302
 31
0.0
  0
DIMENSION
  5
25E
330
1F
100
AcDbEntity
  8
DIM
100
AcDbDimension
  2
_D_4
 10
91.1746546639
 20
390.043074112
 30
0.0
 11
82.1746546639
 21
390.043074112
 31
0.0
 70
   160
  1
<>
 71
     2
 42
-1.0
  3
SLDDIMSTYLE0
100
AcDbAlignedDimension
 13
73.1746546639
 23
371.2518095302
 33
0.0
 14
91.1746546639
 24
371.2518095302
 34
0.0
 50
0.0
100
AcDbRotatedDimension
  0
DIMENSION
  5
268
330
1F
100
AcDbEntity
  8
DIM
100
AcDbDimension
  2
_D_5
 10
91.1746546639
 20
205.0430741119
 30
0.0
 11
86.6746546639
 21
205.0430741119
 31
0.0
 70
   160
  1
<>
 71
     2
 42
-1.0
  3
SLDDIMSTYLE2
100
AcDbAlignedDimension
 13
82.1746546639
 23
231.6903741119
 33
0.0
 14
91.1746546639
 24
223.5430741119
 34
0.0
100
AcDbRotatedDimension
  0
DIMENSION
  5
275
330
1F
100
AcDbEntity
  8
DIM
100
AcDbDimension
  2
_D_6
 10
55.6746546639
 20
222.5430741119
 30
0.0
 11
55.6746546639
 21
228.8930741119
 31
0.0
 70
   160
  1
<>
 71
     2
 42
-1.0
  3
SLDDIMSTYLE2
100
AcDbAlignedDimension
 13
78.6219546639
 23
235.2430741119
 33
0.0
 14
74.1746546639
 24
222.5430741119
 34
0.0
 50
90.0
100
AcDbRotatedDimension
  0
INSERT
  5
286
330
1F
100
AcDbEntity
  8
DIM
100
AcDbBlockReference
  2
SW_NOTE_2
 10
56.99862547
 20
203.7243499792
 30
0.0
  0
LEADER
  5
288
330
1F
100
AcDbEntity
  8
DIM
100
AcDbLeader
  3
SLDDIMSTYLE3
 76
     2
 10
80.3116411276
 20
233.4979500896
 30
0.0
 10
56.99862547
 20
203.7243499792
 30
0.0
  0
INSERT
  5
294
330
1F
100
AcDbEntity
  8
DIM
100
AcDbBlockReference
  2
SW_CENTERMARKSYMBOL_0
 10
82.1746546639
 20
235.2430741119
 30
0.0
  0
LINE
  5
295
330
1F
100
AcDbEntity
  8
0
  6
Continuous
 62
     7
370
    30
100
AcDbLine
 10
597.0422322255
 20
222.543074112
 30
0.0
 11
597.0422322255
 21
227.543074112
 31
0.0
  0
LINE
  5
296
330
1F
100
AcDbEntity
  8
0
  6
Continuous
 62
     7
370
    30
100
AcDbLine
 10
597.0422322255
 20
222.543074112
 30
0.0
 11
581.0422322255
 21
222.543074112
 31
0.0
  0
LINE
  5
297
330
1F
100
AcDbEntity
  8
0
  6
Continuous
 62
     7
370
    30
100
AcDbLine
 10
581.0422322255
 20
227.543074112
 30
0.0
 11
581.0422322255
 21
222.543074112
 31
0.0
  0
LINE
  5
298
330
1F
100
AcDbEntity
  8
0
  6
Continuous
 62
     7
370
    30
100
AcDbLine
 10
581.0422322255
 20
227.543074112
 30
0.0
 11
597.0422322255
 21
227.543074112
 31
0.0
  0
LINE
  5
299
330
1F
100
AcDbEntity
  8
0
  6
Continuous
 62
     7
370
    30
100
AcDbLine
 10
598.0422322255
 20
227.9572876743
 30
0.0
 11
598.0422322255
 21
223.543074112
 31
0.0
  0
ARC
  5
29A
330
1F
100
AcDbEntity
  8
0
  6
Continuous
 62
     7
370
    30
100
AcDbCircle
 10
597.0422322255
 20
223.543074112
 30
0.0
 40
1.000000000000028
100
AcDbArc
 50
270.0
 51
0.0
  0
ELLIPSE
  5
29B
330
1F
100
AcDbEntity
  8
0
  6
Continuous
 62
     7
370
    30
100
AcDbEllipse
 10
597.0422322255
 20
227.9572876743
 30
0.0
 11
1.0
 21
0.0
 31
0.0
210
0.0
220
0.0
230
1.0
 40
0.4142135624
 41
4.712388980384695
 42
6.283185307179586
  0
LINE
  5
29C
330
1F
100
AcDbEntity
  8
0
  6
Continuous
 62
     7
370
    30
100
AcDbLine
 10
597.0422322255
 20
227.543074112
 30
0.0
 11
597.0422322255
 21
372.543074112
 31
0.0
  0
LINE
  5
29D
330
1F
100
AcDbEntity
  8
0
  6
Continuous
 62
     7
370
    30
100
AcDbLine
 10
581.0422322255
 20
372.543074112
 30
0.0
 11
581.0422322255
 21
227.543074112
 31
0.0
  0
LINE
  5
29E
330
1F
100
AcDbEntity
  8
0
  6
Continuous
 62
     7
370
    30
100
AcDbLine
 10
597.0422322255
 20
372.543074112
 30
0.0
 11
581.0422322255
 21
372.543074112
 31
0.0
  0
CIRCLE
  5
29F
330
1F
100
AcDbEntity
  8
0
  6
Continuous
 62
     7
370
    30
100
AcDbCircle
 10
589.0422322255
 20
336.843074112
 30
0.0
 40
3.174999999999955
  0
CIRCLE
  5
2A0
330
1F
100
AcDbEntity
  8
0
  6
Continuous
 62
     7
370
    30
100
AcDbCircle
 10
589.0422322255
 20
311.443074112
 30
0.0
 40
3.174999999999955
  0
CIRCLE
  5
2A1
330
1F
100
AcDbEntity
  8
0
  6
Continuous
 62
     7
370
    30
100
AcDbCircle
 10
589.0422322255
 20
286.043074112
 30
0.0
 40
3.174999999999955
  0
CIRCLE
  5
2A2
330
1F
100
AcDbEntity
  8
0
  6
Continuous
 62
     7
370
    30
100
AcDbCircle
 10
589.0422322255
 20
247.943074112
 30
0.0
 40
2.552699999999959
  0
CIRCLE
  5
2A3
330
1F
100
AcDbEntity
  8
0
  6
Continuous
 62
     7
370
    30
100
AcDbCircle
 10
589.0422322255
 20
298.743074112
 30
0.0
 40
2.552699999999959
  0
CIRCLE
  5
2A4
330
1F
100
AcDbEntity
  8
0
  6
Continuous
 62
     7
370
    30
100
AcDbCircle
 10
589.0422322255
 20
324.143074112
 30
0.0
 40
2.552699999999959
  0
CIRCLE
  5
2A5
330
1F
100
AcDbEntity
  8
0
  6
Continuous
 62
     7
370
    30
100
AcDbCircle
 10
589.0422322255
 20
362.243074112
 30
0.0
 40
2.552699999999959
  0
LINE
  5
2A6
330
1F
100
AcDbEntity
  8
0
  6
Continuous
 62
     7
370
    30
100
AcDbLine
 10
598.0422322255
 20
371.543074112
 30
0.0
 11
598.0422322255
 21
227.9572876743
 31
0.0
  0
ARC
  5
2A7
330
1F
100
AcDbEntity
  8
0
  6
Continuous
 62
     7
370
    30
100
AcDbCircle
 10
597.0422322255
 20
371.543074112
 30
0.0
 40
1.0
100
AcDbArc
 50
0.0
 51
90.0
  0
LINE
  5
2A8
330
1F
100
AcDbEntity
  8
0
  6
Continuous
 62
     7
370
    30
100
AcDbLine
 10
580.0422322255
 20
223.543074112
 30
0.0
 11
580.0422322255
 21
227.9572876743
 31
0.0
  0
ELLIPSE
  5
2A9
330
1F
100
AcDbEntity
  8
0
  6
Continuous
 62
     7
370
    30
100
AcDbEllipse
 10
581.0422322255
 20
227.9572876743
 30
0.0
 11
1.0
 21
0.0
 31
0.0
210
0.0
220
0.0
230
1.0
 40
0.4142135624
 41
3.141592653589793
 42
4.712388980384695
  0
ARC
  5
2AA
330
1F
100
AcDbEntity
  8
0
  6
Continuous
 62
     7
370
    30
100
AcDbCircle
 10
581.0422322255
 20
223.543074112
 30
0.0
 40
1.0
100
AcDbArc
 50
180.0
 51
270.0
  0
LINE
  5
2AB
330
1F
100
AcDbEntity
  8
0
  6
Continuous
 62
     7
370
    30
100
AcDbLine
 10
580.0422322255
 20
227.9572876743
 30
0.0
 11
580.0422322255
 21
371.543074112
 31
0.0
  0
ARC
  5
2AC
330
1F
100
AcDbEntity
  8
0
  6
Continuous
 62
     7
370
    30
100
AcDbCircle
 10
581.0422322255
 20
371.543074112
 30
0.0
 40
1.0
100
AcDbArc
 50
90.0
 51
180.0
  0
DIMENSION
  5
2AD
330
1F
100
AcDbEntity
  8
DIM
100
AcDbDimension
  2
_D_7
 10
580.0422322255
 20
205.0430741119
 30
0.0
 11
584.5422322255
 21
205.0430741119
 31
0.0
 70
   160
  1
<>
 71
     2
 42
-1.0
  3
SLDDIMSTYLE2
100
AcDbAlignedDimension
 13
589.0422322255
 23
244.390374112
 33
0.0
 14
580.0422322255
 24
223.543074112
 34
0.0
100
AcDbRotatedDimension
  0
DIMENSION
  5
2B9
330
1F
100
AcDbEntity
  8
DIM
100
AcDbDimension
  2
_D_8
 10
615.5422322255
 20
222.543074112
 30
0.0
 11
615.5422322255
 21
235.243074112
 31
0.0
 70
   160
  1
<>
 71
     2
 42
-1.0
  3
SLDDIMSTYLE0
100
AcDbAlignedDimension
 13
592.5949322255
 23
247.943074112
 33
0.0
 14
597.0422322255
 24
222.543074112
 34
0.0
 50
90.0
100
AcDbRotatedDimension
  0
DIMENSION
  5
2C3
330
1F
100
AcDbEntity
  8
DIM
100
AcDbDimension
  2
_D_9
 10
615.5422322255
 20
298.743074112
 30
0.0
 11
615.5422322255
 21
273.343074112
 31
0.0
 70
   160
  1
<>
 71
     2
 42
-1.0
  3
SLDDIMSTYLE0
100
AcDbAlignedDimension
 13
592.5949322255
 23
247.943074112
 33
0.0
 14
592.5949322255
 24
298.743074112
 34
0.0
 50
90.0
100
AcDbRotatedDimension
  0
DIMENSION
  5
2CD
330
1F
100
AcDbEntity
  8
DIM
100
AcDbDimension
  2
_D_10
 10
615.5422322255
 20
324.143074112
 30
0.0
 11
615.5422322255
 21
311.443074112
 31
0.0
 70
   160
  1
<>
 71
     2
 42
-1.0
  3
SLDDIMSTYLE0
100
AcDbAlignedDimension
 13
592.5949322255
 23
298.743074112
 33
0.0
 14
592.5949322255
 24
324.143074112
 34
0.0
 50
90.0
100
AcDbRotatedDimension
  0
DIMENSION
  5
2D7
330
1F
100
AcDbEntity
  8
DIM
100
AcDbDimension
  2
_D_11
 10
615.5422322255
 20
324.143074112
 30
0.0
 11
615.5422322255
 21
343.193074112
 31
0.0
 70
   160
  1
<>
 71
     2
 42
-1.0
  3
SLDDIMSTYLE0
100
AcDbAlignedDimension
 13
592.5949322255
 23
362.243074112
 33
0.0
 14
592.5949322255
 24
324.143074112
 34
0.0
 50
90.0
100
AcDbRotatedDimension
  0
DIMENSION
  5
2E1
330
1F
100
AcDbEntity
  8
DIM
100
AcDbDimension
  2
_D_12
 10
562.5422322255
 20
222.543074112
 30
0.0
 11
562.5422322255
 21
254.293074112
 31
0.0
 70
   160
  1
<>
 71
     2
 42
-1.0
  3
SLDDIMSTYLE0
100
AcDbAlignedDimension
 13
584.8672322255
 23
286.043074112
 33
0.0
 14
581.0422322255
 24
222.543074112
 34
0.0
 50
90.0
100
AcDbRotatedDimension
  0
DIMENSION
  5
2EB
330
1F
100
AcDbEntity
  8
DIM
100
AcDbDimension
  2
_D_13
 10
562.5422322255
 20
311.443074112
 30
0.0
 11
562.5422322255
 21
298.743074112
 31
0.0
 70
   160
  1
<>
 71
     2
 42
-1.0
  3
SLDDIMSTYLE0
100
AcDbAlignedDimension
 13
584.8672322255
 23
286.043074112
 33
0.0
 14
584.8672322255
 24
311.443074112
 34
0.0
 50
90.0
100
AcDbRotatedDimension
  0
DIMENSION
  5
2F5
330
1F
100
AcDbEntity
  8
DIM
100
AcDbDimension
  2
_D_14
 10
562.5422322255
 20
336.843074112
 30
0.0
 11
562.5422322255
 21
324.143074112
 31
0.0
 70
   160
  1
<>
 71
     2
 42
-1.0
  3
SLDDIMSTYLE0
100
AcDbAlignedDimension
 13
584.8672322255
 23
311.443074112
 33
0.0
 14
584.8672322255
 24
336.843074112
 34
0.0
 50
90.0
100
AcDbRotatedDimension
  0
INSERT
  5
305
330
1F
100
AcDbEntity
  8
DIM
100
AcDbBlockReference
  2
SW_NOTE_3
 10
616.3800578035
 20
192.9978329064
 30
0.0
  0
LEADER
  5
306
330
1F
100
AcDbEntity
  8
DIM
100
AcDbLeader
  3
SLDDIMSTYLE3
 76
     2
 10
591.1234536105
 20
246.4649689612
 30
0.0
 10
616.3800578035
 20
192.9978329064
 30
0.0
  0
INSERT
  5
30D
330
1F
100
AcDbEntity
  8
DIM
100
AcDbBlockReference
  2
SW_NOTE_4
 10
569.5108882902
 20
362.0729774151
 30
0.0
  0
LEADER
  5
30E
330
1F
100
AcDbEntity
  8
DIM
100
AcDbLeader
  3
SLDDIMSTYLE3
 76
     2
 10
586.9385339977
 20
339.2211150633
 30
0.0
 10
569.5108882902
 20
362.0729774151
 30
0.0
  0
INSERT
  5
31A
330
1F
100
AcDbEntity
  8
DIM
100
AcDbBlockReference
  2
SW_CENTERMARKSYMBOL_1
 10
589.0422322255
 20
362.243074112
 30
0.0
  0
INSERT
  5
326
330
1F
100
AcDbEntity
  8
DIM
100
AcDbBlockReference
  2
SW_CENTERMARKSYMBOL_2
 10
589.0422322255
 20
336.843074112
 30
0.0
  0
INSERT
  5
332
330
1F
100
AcDbEntity
  8
DIM
100
AcDbBlockReference
  2
SW_CENTERMARKSYMBOL_3
 10
589.0422322255
 20
324.143074112
 30
0.0
  0
INSERT
  5
33E
330
1F
100
AcDbEntity
  8
DIM
100
AcDbBlockReference
  2
SW_CENTERMARKSYMBOL_4
 10
589.0422322255
 20
311.443074112
 30
0.0
  0
INSERT
  5
34A
330
1F
100
AcDbEntity
  8
DIM
100
AcDbBlockReference
  2
SW_CENTERMARKSYMBOL_5
 10
589.0422322255
 20
298.743074112
 30
0.0
  0
INSERT
  5
356
330
1F
100
AcDbEntity
  8
DIM
100
AcDbBlockReference
  2
SW_CENTERMARKSYMBOL_6
 10
589.0422322255
 20
286.043074112
 30
0.0
  0
INSERT
  5
362
330
1F
100
AcDbEntity
  8
DIM
100
AcDbBlockReference
  2
SW_CENTERMARKSYMBOL_7
 10
589.0422322255
 20
247.943074112
 30
0.0
  0
LINE
  5
363
330
1F
100
AcDbEntity
  8
0
  6
Continuous
 62
     7
370
    30
100
AcDbLine
 10
491.4382426674
 20
144.3471569619
 30
0.0
 11
147.8524562297
 21
144.3471569619
 31
0.0
  0
ARC
  5
364
330
1F
100
AcDbEntity
  8
0
  6
Continuous
 62
     7
370
    30
100
AcDbCircle
 10
147.8524562297
 20
145.3471569619
 30
0.0
 40
1.000000000000028
100
AcDbArc
 50
180.0
 51
270.0
  0
LINE
  5
365
330
1F
100
AcDbEntity
  8
0
  6
Continuous
 62
     7
370
    30
100
AcDbLine
 10
146.8524562297
 20
145.3471569619
 30
0.0
 11
491.8524562297
 21
145.3471569619
 31
0.0
  0
ELLIPSE
  5
366
330
1F
100
AcDbEntity
  8
0
  6
Continuous
 62
     7
370
    30
100
AcDbEllipse
 10
491.4382426674
 20
145.3471569619
 30
0.0
 11
0.0
 21
1.0
 31
0.0
210
0.0
220
0.0
230
1.0
 40
0.4142135624
 41
3.141592653589793
 42
4.712388980384695
  0
LINE
  5
367
330
1F
100
AcDbEntity
  8
0
  6
Continuous
 62
     7
370
    30
100
AcDbLine
 10
491.8524562297
 20
161.3471569619
 30
0.0
 11
146.8524562297
 21
161.3471569619
 31
0.0
  0
LINE
  5
368
330
1F
100
AcDbEntity
  8
0
  6
Continuous
 62
     7
370
    30
100
AcDbLine
 10
491.8524562297
 20
145.3471569619
 30
0.0
 11
491.8524562297
 21
161.3471569619
 31
0.0
  0
CIRCLE
  5
369
330
1F
100
AcDbEntity
  8
0
  6
Continuous
 62
     7
370
    30
100
AcDbCircle
 10
171.4524562297
 20
153.3471569619
 30
0.0
 40
3.174999999999983
  0
CIRCLE
  5
36A
330
1F
100
AcDbEntity
  8
0
  6
Continuous
 62
     7
370
    30
100
AcDbCircle
 10
336.5524562297
 20
153.3471569619
 30
0.0
 40
2.552700000000016
  0
CIRCLE
  5
36B
330
1F
100
AcDbEntity
  8
0
  6
Continuous
 62
     7
370
    30
100
AcDbCircle
 10
184.1524562297
 20
153.3471569619
 30
0.0
 40
2.552700000000016
  0
CIRCLE
  5
36C
330
1F
100
AcDbEntity
  8
0
  6
Continuous
 62
     7
370
    30
100
AcDbCircle
 10
209.5524562297
 20
153.3471569619
 30
0.0
 40
2.552700000000016
  0
CIRCLE
  5
36D
330
1F
100
AcDbEntity
  8
0
  6
Continuous
 62
     7
370
    30
100
AcDbCircle
 10
412.7524562297
 20
153.3471569619
 30
0.0
 40
2.552700000000016
  0
CIRCLE
  5
36E
330
1F
100
AcDbEntity
  8
0
  6
Continuous
 62
     7
370
    30
100
AcDbCircle
 10
285.7524562297
 20
153.3471569619
 30
0.0
 40
2.552699999999959
  0
CIRCLE
  5
36F
330
1F
100
AcDbEntity
  8
0
  6
Continuous
 62
     7
370
    30
100
AcDbCircle
 10
196.8524562297
 20
153.3471569619
 30
0.0
 40
3.299999999999983
  0
CIRCLE
  5
370
330
1F
100
AcDbEntity
  8
0
  6
Continuous
 62
     7
370
    30
100
AcDbCircle
 10
222.2524562297
 20
153.3471569619
 30
0.0
 40
3.299999999999983
  0
ARC
  5
371
330
1F
100
AcDbEntity
  8
0
  6
Continuous
 62
     7
370
    30
100
AcDbCircle
 10
278.0524562297
 20
153.3471569619
 30
0.0
 40
3.199999999999989
100
AcDbArc
 50
270.0
 51
90.0
  0
LINE
  5
372
330
1F
100
AcDbEntity
  8
0
  6
Continuous
 62
     7
370
    30
100
AcDbLine
 10
278.0524562297
 20
156.5471569619
 30
0.0
 11
242.6524562297
 21
156.5471569619
 31
0.0
  0
ARC
  5
373
330
1F
100
AcDbEntity
  8
0
  6
Continuous
 62
     7
370
    30
100
AcDbCircle
 10
242.6524562297
 20
153.3471569619
 30
0.0
 40
3.19999999999996
100
AcDbArc
 50
90.0
 51
270.0
  0
LINE
  5
374
330
1F
100
AcDbEntity
  8
0
  6
Continuous
 62
     7
370
    30
100
AcDbLine
 10
242.6524562297
 20
150.1471569619
 30
0.0
 11
278.0524562297
 21
150.1471569619
 31
0.0
  0
ARC
  5
375
330
1F
100
AcDbEntity
  8
0
  6
Continuous
 62
     7
370
    30
100
AcDbCircle
 10
328.8524562297
 20
153.3471569619
 30
0.0
 40
3.199999999999989
100
AcDbArc
 50
270.0
 51
90.0
  0
LINE
  5
376
330
1F
100
AcDbEntity
  8
0
  6
Continuous
 62
     7
370
    30
100
AcDbLine
 10
328.8524562297
 20
156.5471569619
 30
0.0
 11
293.4524562297
 21
156.5471569619
 31
0.0
  0
ARC
  5
377
330
1F
100
AcDbEntity
  8
0
  6
Continuous
 62
     7
370
    30
100
AcDbCircle
 10
293.4524562297
 20
153.3471569619
 30
0.0
 40
3.200000000000045
100
AcDbArc
 50
90.0
 51
270.0
  0
LINE
  5
378
330
1F
100
AcDbEntity
  8
0
  6
Continuous
 62
     7
370
    30
100
AcDbLine
 10
293.4524562297
 20
150.1471569619
 30
0.0
 11
328.8524562297
 21
150.1471569619
 31
0.0
  0
ARC
  5
379
330
1F
100
AcDbEntity
  8
0
  6
Continuous
 62
     7
370
    30
100
AcDbCircle
 10
405.0524562297
 20
153.3471569619
 30
0.0
 40
3.199999999999989
100
AcDbArc
 50
270.0
 51
90.0
  0
LINE
  5
37A
330
1F
100
AcDbEntity
  8
0
  6
Continuous
 62
     7
370
    30
100
AcDbLine
 10
405.0524562297
 20
156.5471569619
 30
0.0
 11
369.6524562297
 21
156.5471569619
 31
0.0
  0
ARC
  5
37B
330
1F
100
AcDbEntity
  8
0
  6
Continuous
 62
     7
370
    30
100
AcDbCircle
 10
369.6524562297
 20
153.3471569619
 30
0.0
 40
3.199999999999989
100
AcDbArc
 50
90.0
 51
270.0
  0
LINE
  5
37C
330
1F
100
AcDbEntity
  8
0
  6
Continuous
 62
     7
370
    30
100
AcDbLine
 10
369.6524562297
 20
150.1471569619
 30
0.0
 11
405.0524562297
 21
150.1471569619
 31
0.0
  0
LINE
  5
37D
330
1F
100
AcDbEntity
  8
0
  6
Continuous
 62
     7
370
    30
100
AcDbLine
 10
146.8524562297
 20
145.3471569619
 30
0.0
 11
146.8524562297
 21
161.3471569619
 31
0.0
  0
LINE
  5
37E
330
1F
100
AcDbEntity
  8
0
  6
Continuous
 62
     7
370
    30
100
AcDbLine
 10
147.8524562297
 20
162.3471569619
 30
0.0
 11
491.4382426674
 21
162.3471569619
 31
0.0
  0
ELLIPSE
  5
37F
330
1F
100
AcDbEntity
  8
0
  6
Continuous
 62
     7
370
    30
100
AcDbEllipse
 10
491.4382426674
 20
161.3471569619
 30
0.0
 11
0.0
 21
1.0
 31
0.0
210
0.0
220
0.0
230
1.0
 40
0.4142135624
 41
4.712388980384695
 42
6.283185307179586
  0
ARC
  5
380
330
1F
100
AcDbEntity
  8
0
  6
Continuous
 62
     7
370
    30
100
AcDbCircle
 10
147.8524562297
 20
161.3471569619
 30
0.0
 40
1.000000000000028
100
AcDbArc
 50
90.0
 51
180.0
  0
LINE
  5
381
330
1F
100
AcDbEntity
  8
0
  6
Continuous
 62
     7
370
    30
100
AcDbLine
 10
491.8524562297
 20
145.3471569619
 30
0.0
 11
496.8524562297
 21
145.3471569619
 31
0.0
  0
LINE
  5
382
330
1F
100
AcDbEntity
  8
0
  6
Continuous
 62
     7
370
    30
100
AcDbLine
 10
496.8524562297
 20
161.3471569619
 30
0.0
 11
491.8524562297
 21
161.3471569619
 31
0.0
  0
LINE
  5
383
330
1F
100
AcDbEntity
  8
0
  6
Continuous
 62
     7
370
    30
100
AcDbLine
 10
496.8524562297
 20
161.3471569619
 30
0.0
 11
496.8524562297
 21
145.3471569619
 31
0.0
  0
LINE
  5
384
330
1F
100
AcDbEntity
  8
0
  6
Continuous
 62
     7
370
    30
100
AcDbLine
 10
495.8524562297
 20
144.3471569619
 30
0.0
 11
491.4382426674
 21
144.3471569619
 31
0.0
  0
ARC
  5
385
330
1F
100
AcDbEntity
  8
0
  6
Continuous
 62
     7
370
    30
100
AcDbCircle
 10
495.8524562297
 20
145.3471569619
 30
0.0
 40
1.0
100
AcDbArc
 50
270.0
 51
0.0
  0
LINE
  5
386
330
1F
100
AcDbEntity
  8
0
  6
Continuous
 62
     7
370
    30
100
AcDbLine
 10
491.4382426674
 20
162.3471569619
 30
0.0
 11
495.8524562297
 21
162.3471569619
 31
0.0
  0
ARC
  5
387
330
1F
100
AcDbEntity
  8
0
  6
Continuous
 62
     7
370
    30
100
AcDbCircle
 10
495.8524562297
 20
161.3471569619
 30
0.0
 40
1.0
100
AcDbArc
 50
0.0
 51
90.0
  0
ARC
  5
388
330
1F
100
AcDbEntity
  8
0
  6
Continuous
 62
     7
370
    30
100
AcDbCircle
 10
247.6524562297
 20
153.3471569619
 30
0.0
 40
5.55000000000005
100
AcDbArc
 50
144.7898842577
 51
180.0
  0
ARC
  5
389
330
1F
100
AcDbEntity
  8
0
  6
Continuous
 62
     7
370
    30
100
AcDbCircle
 10
247.6524562297
 20
153.3471569619
 30
0.0
 40
5.550000000000035
100
AcDbArc
 50
324.7898842577
 51
35.2101157423
  0
ARC
  5
38A
330
1F
100
AcDbEntity
  8
0
  6
Continuous
 62
     7
370
    30
100
AcDbCircle
 10
247.6524562297
 20
153.3471569619
 30
0.0
 40
5.55000000000004
100
AcDbArc
 50
180.0
 51
215.2101157423
  0
LINE
  5
38B
330
1F
100
AcDbEntity
  8
0
  6
Continuous
 62
     8
370
    30
100
AcDbLine
 10
329.9794232626
 20
150.3521702663
 30
0.0
 11
329.9794232626
 21
156.3421436574
 31
0.0
  0
DIMENSION
  5
38C
330
1F
100
AcDbEntity
  8
DIM
100
AcDbDimension
  2
_D_15
 10
496.8524562297
 20
126.8471569619
 30
0.0
 11
454.8024562297
 21
126.8471569619
 31
0.0
 70
   160
  1
<>
 71
     2
 42
-1.0
  3
SLDDIMSTYLE0
100
AcDbAlignedDimension
 13
412.7524562297
 23
149.7944569619
 33
0.0
 14
496.8524562297
 24
145.3471569619
 34
0.0
100
AcDbRotatedDimension
  0
DIMENSION
  5
396
330
1F
100
AcDbEntity
  8
DIM
100
AcDbDimension
  2
_D_16
 10
336.5524562297
 20
126.8471569619
 30
0.0
 11
374.6524562297
 21
126.8471569619
 31
0.0
 70
   160
  1
<>
 71
     2
 42
-1.0
  3
SLDDIMSTYLE0
100
AcDbAlignedDimension
 13
412.7524562297
 23
149.7944569619
 33
0.0
 14
336.5524562297
 24
149.7944569619
 34
0.0
100
AcDbRotatedDimension
  0
DIMENSION
  5
3A0
330
1F
100
AcDbEntity
  8
DIM
100
AcDbDimension
  2
_D_17
 10
285.7524562297
 20
126.8471569619
 30
0.0
 11
311.1524562297
 21
126.8471569619
 31
0.0
 70
   160
  1
<>
 71
     2
 42
-1.0
  3
SLDDIMSTYLE0
100
AcDbAlignedDimension
 13
336.5524562297
 23
149.7944569619
 33
0.0
 14
285.7524562297
 24
149.7944569619
 34
0.0
100
AcDbRotatedDimension
  0
DIMENSION
  5
3AA
330
1F
100
AcDbEntity
  8
DIM
100
AcDbDimension
  2
_D_18
 10
209.5524562297
 20
126.8471569619
 30
0.0
 11
247.6524562297
 21
126.8471569619
 31
0.0
 70
   160
  1
<>
 71
     2
 42
-1.0
  3
SLDDIMSTYLE0
100
AcDbAlignedDimension
 13
285.7524562297
 23
149.7944569619
 33
0.0
 14
209.5524562297
 24
149.7944569619
 34
0.0
100
AcDbRotatedDimension
  0
DIMENSION
  5
3B4
330
1F
100
AcDbEntity
  8
DIM
100
AcDbDimension
  2
_D_19
 10
184.1524562297
 20
126.8471569619
 30
0.0
 11
196.8524562297
 21
126.8471569619
 31
0.0
 70
   160
  1
<>
 71
     2
 42
-1.0
  3
SLDDIMSTYLE0
100
AcDbAlignedDimension
 13
209.5524562297
 23
149.7944569619
 33
0.0
 14
184.1524562297
 24
149.7944569619
 34
0.0
100
AcDbRotatedDimension
  0
DIMENSION
  5
3BE
330
1F
100
AcDbEntity
  8
DIM
100
AcDbDimension
  2
_D_20
 10
496.8524562297
 20
179.8471569619
 30
0.0
 11
450.9524562297
 21
179.8471569619
 31
0.0
 70
   160
  1
<>
 71
     2
 42
-1.0
  3
SLDDIMSTYLE0
100
AcDbAlignedDimension
 13
405.0524562297
 23
153.3471569619
 33
0.0
 14
496.8524562297
 24
161.3471569619
 34
0.0
100
AcDbRotatedDimension
  0
DIMENSION
  5
3C8
330
1F
100
AcDbEntity
  8
DIM
100
AcDbDimension
  2
_D_21
 10
369.6524562297
 20
179.8471569619
 30
0.0
 11
387.3524562297
 21
179.8471569619
 31
0.0
 70
   160
  1
<>
 71
     2
 42
-1.0
  3
SLDDIMSTYLE0
100
AcDbAlignedDimension
 13
405.0524562297
 23
153.3471569619
 33
0.0
 14
369.6524562297
 24
157.5471569619
 34
0.0
 50
0.0
100
AcDbRotatedDimension
  0
DIMENSION
  5
3D2
330
1F
100
AcDbEntity
  8
DIM
100
AcDbDimension
  2
_D_22
 10
328.8524562297
 20
179.8471569619
 30
0.0
 11
349.2524562297
 21
179.8471569619
 31
0.0
 70
   160
  1
<>
 71
     2
 42
-1.0
  3
SLDDIMSTYLE0
100
AcDbAlignedDimension
 13
369.6524562297
 23
157.5471569619
 33
0.0
 14
328.8524562297
 24
153.3471569619
 34
0.0
 50
0.0
100
AcDbRotatedDimension
  0
DIMENSION
  5
3DC
330
1F
100
AcDbEntity
  8
DIM
100
AcDbDimension
  2
_D_23
 10
293.4524562297
 20
179.8471569619
 30
0.0
 11
311.1524562297
 21
179.8471569619
 31
0.0
 70
   160
  1
<>
 71
     2
 42
-1.0
  3
SLDDIMSTYLE0
100
AcDbAlignedDimension
 13
328.8524562297
 23
153.3471569619
 33
0.0
 14
293.4524562297
 24
157.5471569619
 34
0.0
 50
0.0
100
AcDbRotatedDimension
  0
DIMENSION
  5
3E6
330
1F
100
AcDbEntity
  8
DIM
100
AcDbDimension
  2
_D_24
 10
278.0524562297
 20
179.8471569619
 30
0.0
 11
285.7524562297
 21
179.8471569619
 31
0.0
 70
   160
  1
<>
 71
     2
 42
-1.0
  3
SLDDIMSTYLE2
100
AcDbAlignedDimension
 13
293.4524562297
 23
157.5471569619
 33
0.0
 14
278.0524562297
 24
153.3471569619
 34
0.0
 50
0.0
100
AcDbRotatedDimension
  0
DIMENSION
  5
3F2
330
1F
100
AcDbEntity
  8
DIM
100
AcDbDimension
  2
_D_25
 10
242.6524562297
 20
179.8471569619
 30
0.0
 11
260.3524562297
 21
179.8471569619
 31
0.0
 70
   160
  1
<>
 71
     2
 42
-1.0
  3
SLDDIMSTYLE0
100
AcDbAlignedDimension
 13
278.0524562297
 23
153.3471569619
 33
0.0
 14
242.6524562297
 24
157.5471569619
 34
0.0
100
AcDbRotatedDimension
  0
DIMENSION
  5
3FC
330
1F
100
AcDbEntity
  8
DIM
100
AcDbDimension
  2
_D_26
 10
242.6524562297
 20
153.3471569619
 30
0.0
 11
196.8524562297
 21
183.8159069139
 31
0.0
 70
   164
  1
<>
 71
     1
 42
-1.0
  3
SLDDIMSTYLE4
100
AcDbRadialDimension
 15
240.0873215955
 25
155.260291643
 35
0.0
 40
0.0
  0
DIMENSION
  5
405
330
1F
100
AcDbEntity
  8
DIM
100
AcDbDimension
  2
_D_27
 10
514.3524562297
 20
162.3471569619
 30
0.0
 11
514.3524562297
 21
157.8471569619
 31
0.0
 70
   160
  1
<>
 71
     2
 42
-1.0
  3
SLDDIMSTYLE2
100
AcDbAlignedDimension
 13
416.3051562297
 23
153.3471569619
 33
0.0
 14
495.8524562297
 24
162.3471569619
 34
0.0
 50
90.0
100
AcDbRotatedDimension
  0
INSERT
  5
417
330
1F
100
AcDbEntity
  8
DIM
100
AcDbBlockReference
  2
SW_NOTE_5
 10
157.1892646725
 20
123.3446537156
 30
0.0
  0
LEADER
  5
418
330
1F
100
AcDbEntity
  8
DIM
100
AcDbLeader
  3
SLDDIMSTYLE3
 76
     2
 10
182.1961230984
 20
151.7073283217
 30
0.0
 10
157.1892646725
 20
123.3446537156
 30
0.0
  0
INSERT
  5
42C
330
1F
100
AcDbEntity
  8
DIM
100
AcDbBlockReference
  2
SW_CENTERMARKSYMBOL_8
 10
242.6524562297
 20
153.3471569619
 30
0.0
  0
INSERT
  5
438
330
1F
100
AcDbEntity
  8
DIM
100
AcDbBlockReference
  2
SW_CENTERMARKSYMBOL_9
 10
285.7524562297
 20
153.3471569619
 30
0.0
  0
INSERT
  5
44C
330
1F
100
AcDbEntity
  8
DIM
100
AcDbBlockReference
  2
SW_CENTERMARKSYMBOL_10
 10
293.4524562297
 20
153.3471569619
 30
0.0
  0
INSERT
  5
458
330
1F
100
AcDbEntity
  8
DIM
100
AcDbBlockReference
  2
SW_CENTERMARKSYMBOL_11
 10
336.5524562297
 20
153.3471569619
 30
0.0
  0
INSERT
  5
46C
330
1F
100
AcDbEntity
  8
DIM
100
AcDbBlockReference
  2
SW_CENTERMARKSYMBOL_12
 10
369.6524562297
 20
153.3471569619
 30
0.0
  0
INSERT
  5
478
330
1F
100
AcDbEntity
  8
DIM
100
AcDbBlockReference
  2
SW_CENTERMARKSYMBOL_13
 10
412.7524562297
 20
153.3471569619
 30
0.0
  0
INSERT
  5
484
330
1F
100
AcDbEntity
  8
DIM
100
AcDbBlockReference
  2
SW_CENTERMARKSYMBOL_14
 10
209.5524562297
 20
153.3471569619
 30
0.0
  0
INSERT
  5
490
330
1F
100
AcDbEntity
  8
DIM
100
AcDbBlockReference
  2
SW_CENTERMARKSYMBOL_15
 10
184.1524562297
 20
153.3471569619
 30
0.0
  0
LINE
  5
491
330
1F
100
AcDbEntity
  8
0
  6
Continuous
 62
     7
370
    30
100
AcDbLine
 10
681.7944345629
 20
367.1994104141
 30
0.0
 11
681.7944345629
 21
426.2295081366
 31
0.0
  0
LINE
  5
492
330
1F
100
AcDbEntity
  8
0
  6
Continuous
 62
     7
370
    30
100
AcDbLine
 10
681.7944345613
 20
426.2295081394
 30
0.0
 11
654.75618841
 21
441.8383553989
 31
0.0
  0
SPLINE
  5
493
330
1F
100
AcDbEntity
  8
0
  6
Continuous
 62
     7
370
    30
100
AcDbSpline
210
0.0
220
0.0
230
1.0
 70
     8
 71
     3
 72
    14
 73
    10
 74
     0
 42
0.000000001
 43
0.00000001
 40
0.0
 40
0.0
 40
0.0
 40
0.0
 40
0.0826604916499106
 40
0.2430208646410641
 40
0.4056041353872962
 40
0.5697344971803598
 40
0.7340975478030459
 40
0.896818945702558
 40
0.9999999999999999
 40
0.9999999999999999
 40
0.9999999999999999
 40
0.9999999999999999
 10
667.9629794278036
 20
419.1794357655816
 30
0.0
 10
668.0248832879396
 20
419.1408970432575
 30
0.0
 10
668.2068799022178
 20
419.0275936569067
 30
0.0
 10
668.5208441051425
 20
418.7484841202715
 30
0.0
 10
668.8665665633979
 20
418.3261154827374
 30
0.0
 10
669.1573531638331
 20
417.8351954326424
 30
0.0
 10
669.3650871669897
 20
417.3205434691979
 30
0.0
 10
669.4673125739682
 20
416.8786932425959
 30
0.0
 10
669.4769761861597
 20
416.6423203872076
 30
0.0
 10
669.480726063929
 20
416.5505980272791
 30
0.0
  0
LINE
  5
494
330
1F
100
AcDbEntity
  8
0
  6
Continuous
 62
     7
370
    30
100
AcDbLine
 10
669.4807260639
 20
416.5505980273
 30
0.0
 11
669.4807260639
 21
387.1551287994
 31
0.0
  0
LINE
  5
495
330
1F
100
AcDbEntity
  8
0
  6
Continuous
 62
     7
370
    30
100
AcDbLine
 10
650.206651777
 20
429.4299455302
 30
0.0
 11
667.9629794278
 21
419.1794357656
 31
0.0
  0
SPLINE
  5
496
330
1F
100
AcDbEntity
  8
0
  6
Continuous
 62
     7
370
    30
100
AcDbSpline
210
0.0
220
0.0
230
1.0
 70
     8
 71
     3
 72
     9
 73
     5
 74
     0
 42
0.000000001
 43
0.00000001
 40
0.0
 40
0.0
 40
0.0
 40
0.0
 40
0.3400214028944612
 40
1.0
 40
1.0
 40
1.0
 40
1.0
 10
649.739384092024
 20
429.599653953025
 30
0.0
 10
649.7847168299737
 20
429.5929071158416
 30
0.0
 10
649.9180400195256
 20
429.5730647261392
 30
0.0
 10
650.0919047657128
 20
429.4868472313918
 30
0.0
 10
650.2066517769875
 20
429.4299455301624
 30
0.0
  0
LINE
  5
497
330
1F
100
AcDbEntity
  8
0
  6
Continuous
 62
     7
370
    30
100
AcDbLine
 10
627.1906252152
 20
432.0965488026
 30
0.0
 11
649.739384092
 21
429.599653953
 31
0.0
  0
SPLINE
  5
498
330
1F
100
AcDbEntity
  8
0
  6
Continuous
 62
     7
370
    30
100
AcDbSpline
210
0.0
220
0.0
230
1.0
 70
     8
 71
     3
 72
     9
 73
     5
 74
     0
 42
0.000000001
 43
0.00000001
 40
0.0
 40
0.0
 40
0.0
 40
0.0
 40
0.3755194622557104
 40
1.0
 40
1.0
 40
1.0
 40
1.0
 10
654.7561884100206
 20
441.838355398881
 30
0.0
 10
654.6674625970502
 20
441.8859775975698
 30
0.0
 10
654.4311877248036
 20
442.012794456549
 30
0.0
 10
654.1851259827888
 20
442.0598347940678
 30
0.0
 10
654.031465213817
 20
442.0892105693374
 30
0.0
  0
LINE
  5
499
330
1F
100
AcDbEntity
  8
0
  6
Continuous
 62
     7
370
    30
100
AcDbLine
 10
654.0314652138
 20
442.0892105693
 30
0.0
 11
559.1973246858
 21
452.5904926284
 31
0.0
  0
SPLINE
  5
49A
330
1F
100
AcDbEntity
  8
0
  6
Continuous
 62
     7
370
    30
100
AcDbSpline
210
0.0
220
0.0
230
1.0
 70
     8
 71
     3
 72
    11
 73
     7
 74
     0
 42
0.000000001
 43
0.00000001
 40
0.0
 40
0.0
 40
0.0
 40
0.0
 40
0.16853601235408
 40
0.489502124499003
 40
0.8138674578742587
 40
1.0
 40
1.0
 40
1.0
 40
1.0
 10
669.4807260639291
 20
387.1551287993921
 30
0.0
 10
669.4783903661901
 20
387.0873817894596
 30
0.0
 10
669.4716064807199
 20
386.8906149096267
 30
0.0
 10
669.3975983040525
 20
386.6445004819997
 30
0.0
 10
669.3022207576739
 20
386.4974470825667
 30
0.0
 10
669.2322609299162
 20
386.4639893041384
 30
0.0
 10
669.2067528892129
 20
386.4517902693303
 30
0.0
  0
LINE
  5
49B
330
1F
100
AcDbEntity
  8
0
  6
Continuous
 62
     7
370
    30
100
AcDbLine
 10
669.4807260639
 20
392.1279158355
 30
0.0
 11
658.099918149
 21
392.6596372734
 31
0.0
  0
LINE
  5
49C
330
1F
100
AcDbEntity
  8
0
  6
Continuous
 62
     7
370
    30
100
AcDbLine
 10
552.1010003886
 20
432.9899797902
 30
0.0
 11
673.9305022639
 21
362.6593053881
 31
0.0
  0
SPLINE
  5
49D
330
1F
100
AcDbEntity
  8
0
  6
Continuous
 62
     7
370
    30
100
AcDbSpline
210
0.0
220
0.0
230
1.0
 70
     8
 71
     3
 72
    12
 73
     8
 74
     0
 42
0.000000001
 43
0.00000001
 40
0.0
 40
0.0
 40
0.0
 40
0.0
 40
0.0028179902528993
 40
0.2847688380171026
 40
0.5598432221267846
 40
0.8457636833991001
 40
1.0
 40
1.0
 40
1.0
 40
1.0
 10
651.772028363501
 20
389.2407314978805
 30
0.0
 10
651.7706730884387
 20
389.2402512157886
 30
0.0
 10
651.6337172901364
 20
389.1917168487541
 30
0.0
 10
651.4254722864754
 20
388.9702451947858
 30
0.0
 10
651.2004983516945
 20
388.601068273743
 30
0.0
 10
651.1074915180305
 20
388.2226673863917
 30
0.0
 10
651.0989446723162
 20
387.9734815409014
 30
0.0
 10
651.0959497530788
 20
387.8861637739384
 30
0.0
  0
SPLINE
  5
49E
330
1F
100
AcDbEntity
  8
0
  6
Continuous
 62
     7
370
    30
100
AcDbSpline
210
0.0
220
0.0
230
1.0
 70
     8
 71
     3
 72
     9
 73
     5
 74
     0
 42
0.000000001
 43
0.00000001
 40
0.0
 40
0.0
 40
0.0
 40
0.0
 40
0.3275888113312937
 40
1.0
 40
1.0
 40
1.0
 40
1.0
 10
626.9161835527478
 20
432.043600361061
 30
0.0
 10
626.9362079408492
 20
432.0582758109966
 30
0.0
 10
626.9973345343363
 20
432.103074196741
 30
0.0
 10
627.1129105853579
 20
432.099172408601
 30
0.0
 10
627.190625215207
 20
432.0965488025999
 30
0.0
  0
LINE
  5
49F
330
1F
100
AcDbEntity
  8
0
  6
Continuous
 62
     7
370
    30
100
AcDbLine
 10
657.4171191491
 20
392.5005102654
 30
0.0
 11
651.7602648997
 21
389.2348778181
 31
0.0
  0
LINE
  5
4A0
330
1F
100
AcDbEntity
  8
0
  6
Continuous
 62
     7
370
    30
100
AcDbLine
 10
651.0959497531
 20
387.8861637739
 30
0.0
 11
651.0959497531
 21
384.7037812629
 31
0.0
  0
SPLINE
  5
4A1
330
1F
100
AcDbEntity
  8
0
  6
Continuous
 62
     7
370
    30
100
AcDbSpline
210
0.0
220
0.0
230
1.0
 70
     8
 71
     3
 72
    11
 73
     7
 74
     0
 42
0.000000001
 43
0.00000001
 40
0.0
 40
0.0
 40
0.0
 40
0.0
 40
0.1685360123540852
 40
0.4895021244989934
 40
0.8138674578742411
 40
1.0
 40
1.0
 40
1.0
 40
1.0
 10
651.0959497530788
 20
384.7037812629152
 30
0.0
 10
651.0936140553399
 20
384.6360342529828
 30
0.0
 10
651.0868301698697
 20
384.4392673731499
 30
0.0
 10
651.0128219932022
 20
384.193152945523
 30
0.0
 10
650.9174444468235
 20
384.0460995460899
 30
0.0
 10
650.847484619066
 20
384.0126417676616
 30
0.0
 10
650.8219765783628
 20
384.0004427328535
 30
0.0
  0
SPLINE
  5
4A2
330
1F
100
AcDbEntity
  8
0
  6
Continuous
 62
     7
370
    30
100
AcDbSpline
210
0.0
220
0.0
230
1.0
 70
     8
 71
     3
 72
    10
 73
     6
 74
     0
 42
0.000000001
 43
0.00000001
 40
0.0
 40
0.0
 40
0.0
 40
0.0
 40
0.3925258113121395
 40
0.9497720194595741
 40
0.9999999999999999
 40
0.9999999999999999
 40
0.9999999999999999
 40
0.9999999999999999
 10
658.0999181490223
 20
392.6596372734332
 30
0.0
 10
658.0035371045482
 20
392.6568108078904
 30
0.0
 10
657.7703294616115
 20
392.6499717725732
 30
0.0
 10
657.5183960707136
 20
392.5864482367366
 30
0.0
 10
657.4059469767051
 20
392.489243059043
 30
0.0
 10
657.3966493126876
 20
392.4812058125812
 30
0.0
  0
LINE
  5
4A3
330
1F
100
AcDbEntity
  8
0
  6
Continuous
 62
     7
370
    30
100
AcDbLine
 10
632.2969598799
 20
402.664759723
 30
0.0
 11
632.2969598799
 21
431.5311083367
 31
0.0
  0
SPLINE
  5
4A4
330
1F
100
AcDbEntity
  8
0
  6
Continuous
 62
     7
370
    30
100
AcDbSpline
210
0.0
220
0.0
230
1.0
 70
     8
 71
     3
 72
    16
 73
    12
 74
     0
 42
0.000000001
 43
0.00000001
 40
0.0
 40
0.0
 40
0.0
 40
0.0
 40
0.0599478620001544
 40
0.1792036284895532
 40
0.297633886297282
 40
0.4163729042859692
 40
0.5362211354010891
 40
0.6567907334341235
 40
0.7774112630702066
 40
0.8971300739429204
 40
1.0
 40
1.0
 40
1.0
 40
1.0
 10
616.8051334567613
 20
433.2465669044222
 30
0.0
 10
616.8597835367257
 20
433.2379671687285
 30
0.0
 10
617.0231503741761
 20
433.2122597658465
 30
0.0
 10
617.3525004963066
 20
433.0776732582242
 30
0.0
 10
617.7725765758537
 20
432.7931681648436
 30
0.0
 10
618.1873482593282
 20
432.3947570565437
 30
0.0
 10
618.5663449278525
 20
431.9060304785089
 30
0.0
 10
618.8846166398197
 20
431.3549908954376
 30
0.0
 10
619.117817554065
 20
430.7805290486507
 30
0.0
 10
619.2538491979967
 20
430.2398201310823
 30
0.0
 10
619.2690975409212
 20
429.9314383918926
 30
0.0
 10
619.2761445996842
 20
429.7889190212121
 30
0.0
  0
LINE
  5
4A5
330
1F
100
AcDbEntity
  8
0
  6
Continuous
 62
     7
370
    30
100
AcDbLine
 10
619.2761445997
 20
429.7889190212
 30
0.0
 11
619.2761445997
 21
403.4812341849
 31
0.0
  0
LINE
  5
4A6
330
1F
100
AcDbEntity
  8
0
  6
Continuous
 62
     7
370
    30
100
AcDbLine
 10
652.1424779764
 20
389.4555247307
 30
0.0
 11
633.814706516
 21
400.0359219847
 31
0.0
  0
LINE
  5
4A7
330
1F
100
AcDbEntity
  8
0
  6
Continuous
 62
     7
370
    30
100
AcDbLine
 10
583.2175613504
 20
436.965824193
 30
0.0
 11
616.8051334568
 21
433.2465669044
 31
0.0
  0
SPLINE
  5
4A8
330
1F
100
AcDbEntity
  8
0
  6
Continuous
 62
     7
370
    30
100
AcDbSpline
210
0.0
220
0.0
230
1.0
 70
     8
 71
     3
 72
    14
 73
    10
 74
     0
 42
0.000000001
 43
0.00000001
 40
0.0
 40
0.0
 40
0.0
 40
0.0
 40
0.0826604916499084
 40
0.2430208646410892
 40
0.4056041353873287
 40
0.5697344971803845
 40
0.7340975478030792
 40
0.8968189457025956
 40
1.0
 40
1.0
 40
1.0
 40
1.0
 10
633.8147065159809
 20
400.0359219847124
 30
0.0
 10
633.7528026558449
 20
400.0744607070365
 30
0.0
 10
633.5708060415665
 20
400.1877640933873
 30
0.0
 10
633.256841838642
 20
400.4668736300225
 30
0.0
 10
632.9111193803865
 20
400.8892422675568
 30
0.0
 10
632.6203327799514
 20
401.3801623176517
 30
0.0
 10
632.4125987767948
 20
401.8948142810962
 30
0.0
 10
632.3103733698161
 20
402.3366645076982
 30
0.0
 10
632.3007097576245
 20
402.5730373630865
 30
0.0
 10
632.2969598798555
 20
402.6647597230149
 30
0.0
  0
SPLINE
  5
4A9
330
1F
100
AcDbEntity
  8
0
  6
Continuous
 62
     7
370
    30
100
AcDbSpline
210
0.0
220
0.0
230
1.0
 70
     8
 71
     3
 72
    11
 73
     7
 74
     0
 42
0.000000001
 43
0.00000001
 40
0.0
 40
0.0
 40
0.0
 40
0.0
 40
0.1549643675113084
 40
0.4505124859310641
 40
0.7475054463771694
 40
1.0
 40
1.0
 40
1.0
 40
1.0
 10
619.2761445996842
 20
403.481234184869
 30
0.0
 10
619.2736682193514
 20
403.403108859936
 30
0.0
 10
619.2664688852224
 20
403.1759828766214
 30
0.0
 10
619.1880075429386
 20
402.8744550703031
 30
0.0
 10
619.0565914911493
 20
402.6457409090422
 30
0.0
 10
618.9510961391724
 20
402.579000876439
 30
0.0
 10
618.902620057142
 20
402.5483332191957
 30
0.0
  0
LINE
  5
4AA
330
1F
100
AcDbEntity
  8
0
  6
Continuous
 62
     7
370
    30
100
AcDbLine
 10
619.2761445997
 20
408.4288551304
 30
0.0
 11
589.9740860824
 21
425.3445734512
 31
0.0
  0
SPLINE
  5
4AB
330
1F
100
AcDbEntity
  8
0
  6
Continuous
 62
     7
370
    30
100
AcDbSpline
210
0.0
220
0.0
230
1.0
 70
     8
 71
     3
 72
    10
 73
     6
 74
     0
 42
0.000000001
 43
0.00000001
 40
0.0
 40
0.0
 40
0.0
 40
0.0
 40
0.1086146805028149
 40
0.7297348238997773
 40
1.0
 40
1.0
 40
1.0
 40
1.0
 10
582.823615858336
 20
436.8935218761532
 30
0.0
 10
582.8336202040157
 20
436.9017057342349
 30
0.0
 10
582.9008350537861
 20
436.9566895191929
 30
0.0
 10
583.0261858390286
 20
436.9763893614819
 30
0.0
 10
583.1730366534471
 20
436.9682822448625
 30
0.0
 10
583.2175613504003
 20
436.9658241930493
 30
0.0
  0
LINE
  5
4AC
330
1F
100
AcDbEntity
  8
0
  6
Continuous
 62
     7
370
    30
100
AcDbLine
 10
588.1027860557
 20
428.5857836234
 30
0.0
 11
588.1027860557
 21
436.424867927
 31
0.0
  0
SPLINE
  5
4AD
330
1F
100
AcDbEntity
  8
0
  6
Continuous
 62
     7
370
    30
100
AcDbSpline
210
0.0
220
0.0
230
1.0
 70
     8
 71
     3
 72
    15
 73
    11
 74
     0
 42
0.000000001
 43
0.00000001
 40
0.0
 40
0.0
 40
0.0
 40
0.0
 40
0.0756509658974582
 40
0.2220997344487198
 40
0.3700700198121988
 40
0.5191867705453689
 40
0.668689091959255
 40
0.8175135471118857
 40
0.9564505081281324
 40
1.0
 40
1.0
 40
1.0
 40
1.0
 10
589.974086082415
 20
425.3445734512164
 30
0.0
 10
589.9034411173632
 20
425.3882881254378
 30
0.0
 10
589.6960382403211
 20
425.5166277628888
 30
0.0
 10
589.3425390186299
 20
425.8213360804945
 30
0.0
 10
588.947718330311
 20
426.277749622042
 30
0.0
 10
588.6041412219391
 20
426.8097072238089
 30
0.0
 10
588.3362933057433
 20
427.3807918805337
 30
0.0
 10
588.1658415653155
 20
427.9402932565769
 30
0.0
 10
588.1072642881309
 20
428.3405110536806
 30
0.0
 10
588.1036488598279
 20
428.5385278836566
 30
0.0
 10
588.1027860556964
 20
428.5857836234173
 30
0.0
  0
SPLINE
  5
4AE
330
1F
100
AcDbEntity
  8
0
  6
Continuous
 62
     7
370
    30
100
AcDbSpline
210
0.0
220
0.0
230
1.0
 70
     8
 71
     3
 72
    11
 73
     7
 74
     0
 42
0.000000001
 43
0.00000001
 40
0.0
 40
0.0
 40
0.0
 40
0.0
 40
0.218215601217508
 40
0.4974858856025472
 40
0.7838739626212601
 40
1.0
 40
1.0
 40
1.0
 40
1.0
 10
552.7667491571464
 20
449.1563475206863
 30
0.0
 10
552.6728546786659
 20
449.0977722639817
 30
0.0
 10
552.458794925287
 20
448.9642329418915
 30
0.0
 10
552.243830110647
 20
448.6162281790338
 30
0.0
 10
552.119030864838
 20
448.2250990032904
 30
0.0
 10
552.1064229280291
 20
447.9448424602305
 30
0.0
 10
552.1010003869624
 20
447.8243070675606
 30
0.0
  0
LINE
  5
4AF
330
1F
100
AcDbEntity
  8
0
  6
Continuous
 62
     7
370
    30
100
AcDbLine
 10
558.422169783
 20
452.438653559
 30
0.0
 11
552.7653155335
 21
449.1730211117
 31
0.0
  0
LINE
  5
4B0
330
1F
100
AcDbEntity
  8
0
  6
Continuous
 62
     7
370
    30
100
AcDbLine
 10
552.101000387
 20
447.8243070676
 30
0.0
 11
552.101000387
 21
432.9899797931
 31
0.0
  0
SPLINE
  5
4B1
330
1F
100
AcDbEntity
  8
0
  6
Continuous
 62
     7
370
    30
100
AcDbSpline
210
0.0
220
0.0
230
1.0
 70
     8
 71
     3
 72
    10
 73
     6
 74
     0
 42
0.000000001
 43
0.00000001
 40
0.0
 40
0.0
 40
0.0
 40
0.0
 40
0.368389054376995
 40
0.8973495361049904
 40
1.0
 40
1.0
 40
1.0
 40
1.0
 10
559.1973246857832
 20
452.590492628447
 30
0.0
 10
559.101002932657
 20
452.5943043127276
 30
0.0
 10
558.8663752219325
 20
452.603589097605
 30
0.0
 10
558.5974633093008
 20
452.5535218040727
 30
0.0
 10
558.4672958161129
 20
452.4543621022374
 30
0.0
 10
558.4461407781067
 20
452.4382465021775
 30
0.0
  0
LINE
  5
4B2
330
1F
100
AcDbEntity
  8
0
  6
Continuous
 62
     7
370
    30
100
AcDbLine
 10
675.991133704
 20
422.8793532947
 30
0.0
 11
675.991133704
 21
363.6801444329
 31
0.0
  0
ELLIPSE
  5
4B3
330
1F
100
AcDbEntity
  8
0
  6
Continuous
 62
     7
370
    30
100
AcDbEllipse
 10
675.6375803134
 20
364.0533576002
 30
0.0
 11
0.4619507595480173
 21
-0.2666785005978909
 31
0.0
210
0.0
220
0.0
230
1.0
 40
0.7174000658
 41
4.319632440985974
 42
5.890428767780826
  0
LINE
  5
4B4
330
1F
100
AcDbEntity
  8
0
  6
Continuous
 62
     7
370
    30
100
AcDbLine
 10
675.2840269228
 20
363.8492555722
 30
0.0
 11
675.2840269228
 21
422.4710828887
 31
0.0
  0
ELLIPSE
  5
4B5
330
1F
100
AcDbEntity
  8
0
  6
Continuous
 62
     7
370
    30
100
AcDbEllipse
 10
675.6375803134
 20
422.6751849167
 30
0.0
 11
0.5000000008921007
 21
0.2886907750214505
 31
0.0
210
0.0
220
0.0
230
1.0
 40
0.0000703729
 41
0.7853575330266399
 42
2.356153855739587
  0
LINE
  5
4B6
330
1F
100
AcDbEntity
  8
0
  6
Continuous
 62
     7
370
    30
100
AcDbLine
 10
648.8493544774
 20
438.5479689263
 30
0.0
 11
675.991133704
 21
422.8793532947
 31
0.0
  0
LINE
  5
4B7
330
1F
100
AcDbEntity
  8
0
  6
Continuous
 62
     7
370
    30
100
AcDbLine
 10
675.2840269228
 20
422.4710828887
 30
0.0
 11
648.4958010868
 21
437.9355964924
 31
0.0
  0
ARC
  5
4B8
330
1F
100
AcDbEntity
  8
0
  6
Continuous
 62
     7
370
    30
100
AcDbCircle
 10
649.2634091375
 20
437.9006660663
 30
0.0
 40
0.7684024037867261
100
AcDbArc
 50
122.6054783401
 51
177.3945215143
  0
LINE
  5
4B9
330
1F
100
AcDbEntity
  8
0
  6
Continuous
 62
     7
370
    30
100
AcDbLine
 10
681.6479879535
 20
366.9457768802
 30
0.0
 11
681.6479879535
 21
426.144985742
 31
0.0
  0
LINE
  5
4BA
330
1F
100
AcDbEntity
  8
0
  6
Continuous
 62
     7
370
    30
100
AcDbLine
 10
675.991133704
 20
363.6801444329
 30
0.0
 11
681.6479879535
 21
366.9457768802
 31
0.0
  0
LINE
  5
4BB
330
1F
100
AcDbEntity
  8
0
  6
Continuous
 62
     7
370
    30
100
AcDbLine
 10
681.6479879535
 20
426.144985742
 30
0.0
 11
675.991133704
 21
422.8793532947
 31
0.0
  0
LWPOLYLINE
  5
4BC
330
1F
100
AcDbEntity
  8
0
  6
Continuous
 62
     7
370
    30
100
AcDbPolyline
 90
       19
 70
   128
 43
0.0
 10
679.9420928439
 20
410.5849399649
 10
679.87439588
 20
410.1025128082
 10
679.6794702412
 20
409.6001122357
 10
679.3808268363
 20
409.138335171
 10
679.0144864676
 20
408.7728787432
 10
678.62463519
 20
408.5478223911
 10
678.2582948212
 20
408.4903112322
 10
677.9596514163
 20
408.6072819611
 10
677.7647257775
 20
408.8846261816
 10
677.6970288136
 20
409.2888920874
 10
677.7647257775
 20
409.7713192441
 10
677.9596514163
 20
410.2737198166
 10
678.2582948212
 20
410.7354968813
 10
678.62463519
 20
411.1009533091
 10
679.0144864676
 20
411.3260096612
 10
679.3808268363
 20
411.3835208201
 10
679.6794702412
 20
411.2665500912
 10
679.87439588
 20
410.9892058707
 10
679.9420928439
 20
410.5849399649
  0
LWPOLYLINE
  5
4BD
330
1F
100
AcDbEntity
  8
0
  6
Continuous
 62
     7
370
    30
100
AcDbPolyline
 90
       19
 70
   128
 43
0.0
 10
679.9420928439
 20
400.214871654
 10
679.87439588
 20
399.7324444973
 10
679.6794702412
 20
399.2300439248
 10
679.3808268363
 20
398.76826686
 10
679.0144864676
 20
398.4028104323
 10
678.62463519
 20
398.1777540802
 10
678.2582948212
 20
398.1202429213
 10
677.9596514163
 20
398.2372136502
 10
677.7647257775
 20
398.5145578706
 10
677.6970288136
 20
398.9188237764
 10
677.7647257775
 20
399.4012509331
 10
677.9596514163
 20
399.9036515056
 10
678.2582948212
 20
400.3654285704
 10
678.62463519
 20
400.7308849981
 10
679.0144864676
 20
400.9559413502
 10
679.3808268363
 20
401.0134525091
 10
679.6794702412
 20
400.8964817802
 10
679.87439588
 20
400.6191375598
 10
679.9420928439
 20
400.214871654
  0
LWPOLYLINE
  5
4BE
330
1F
100
AcDbEntity
  8
0
  6
Continuous
 62
     7
370
    30
100
AcDbPolyline
 90
       19
 70
   128
 43
0.0
 10
679.9420928439
 20
389.844803343
 10
679.87439588
 20
389.3623761863
 10
679.6794702412
 20
388.8599756138
 10
679.3808268363
 20
388.3981985491
 10
679.0144864676
 20
388.0327421213
 10
678.62463519
 20
387.8076857692
 10
678.2582948212
 20
387.7501746103
 10
677.9596514163
 20
387.8671453392
 10
677.7647257775
 20
388.1444895597
 10
677.6970288136
 20
388.5487554655
 10
677.7647257775
 20
389.0311826222
 10
677.9596514163
 20
389.5335831947
 10
678.2582948212
 20
389.9953602594
 10
678.62463519
 20
390.3608166872
 10
679.0144864676
 20
390.5858730393
 10
679.3808268363
 20
390.6433841982
 10
679.6794702412
 20
390.5264134693
 10
679.87439588
 20
390.2490692488
 10
679.9420928439
 20
389.844803343
  0
LWPOLYLINE
  5
4BF
330
1F
100
AcDbEntity
  8
0
  6
Continuous
 62
     7
370
    30
100
AcDbPolyline
 90
       17
 70
   128
 43
0.0
 10
677.9170450886
 20
373.1206656911
 10
677.9857450087
 20
372.7614957506
 10
678.1813858288
 20
372.5363254169
 10
678.4741830075
 20
372.4794348324
 10
678.8195608288
 20
372.5994850726
 10
679.16493865
 20
372.8781995768
 10
679.4577358288
 20
373.2731465883
 10
679.6533766489
 20
373.7241990047
 10
679.7220765689
 20
374.1626881846
 10
679.6533766489
 20
374.5218581251
 10
679.4577358288
 20
374.7470284587
 10
679.16493865
 20
374.8039190433
 10
678.8195608288
 20
374.6838688031
 10
678.4741830075
 20
374.4051542989
 10
678.1813858288
 20
374.0102072874
 10
677.9857450087
 20
373.5591548709
 10
677.9170450886
 20
373.1206656911
  0
LWPOLYLINE
  5
4C0
330
1F
100
AcDbEntity
  8
0
  6
Continuous
 62
     7
370
    30
100
AcDbPolyline
 90
       17
 70
   128
 43
0.0
 10
677.9170450886
 20
393.860802313
 10
677.9857450087
 20
393.5016323725
 10
678.1813858288
 20
393.2764620388
 10
678.4741830075
 20
393.2195714543
 10
678.8195608288
 20
393.3396216945
 10
679.16493865
 20
393.6183361987
 10
679.4577358288
 20
394.0132832102
 10
679.6533766489
 20
394.4643356266
 10
679.7220765689
 20
394.9028248065
 10
679.6533766489
 20
395.261994747
 10
679.4577358288
 20
395.4871650806
 10
679.16493865
 20
395.5440556652
 10
678.8195608288
 20
395.424005425
 10
678.4741830075
 20
395.1452909208
 10
678.1813858288
 20
394.7503439093
 10
677.9857450087
 20
394.2992914928
 10
677.9170450886
 20
393.860802313
  0
LWPOLYLINE
  5
4C1
330
1F
100
AcDbEntity
  8
0
  6
Continuous
 62
     7
370
    30
100
AcDbPolyline
 90
       17
 70
   128
 43
0.0
 10
677.9170450886
 20
404.2308706239
 10
677.9857450087
 20
403.8717006834
 10
678.1813858288
 20
403.6465303498
 10
678.4741830075
 20
403.5896397652
 10
678.8195608288
 20
403.7096900054
 10
679.16493865
 20
403.9884045096
 10
679.4577358288
 20
404.3833515211
 10
679.6533766489
 20
404.8344039376
 10
679.7220765689
 20
405.2728931174
 10
679.6533766489
 20
405.6320630579
 10
679.4577358288
 20
405.8572333915
 10
679.16493865
 20
405.9141239761
 10
678.8195608288
 20
405.7940737359
 10
678.4741830075
 20
405.5153592317
 10
678.1813858288
 20
405.1204122202
 10
677.9857450087
 20
404.6693598038
 10
677.9170450886
 20
404.2308706239
  0
LWPOLYLINE
  5
4C2
330
1F
100
AcDbEntity
  8
0
  6
Continuous
 62
     7
370
    30
100
AcDbPolyline
 90
       17
 70
   128
 43
0.0
 10
677.9170450886
 20
419.7859730903
 10
677.9857450087
 20
419.4268031498
 10
678.1813858288
 20
419.2016328162
 10
678.4741830075
 20
419.1447422316
 10
678.8195608288
 20
419.2647924718
 10
679.16493865
 20
419.5435069761
 10
679.4577358288
 20
419.9384539875
 10
679.6533766489
 20
420.389506404
 10
679.7220765689
 20
420.8279955839
 10
679.6533766489
 20
421.1871655244
 10
679.4577358288
 20
421.412335858
 10
679.16493865
 20
421.4692264426
 10
678.8195608288
 20
421.3491762023
 10
678.4741830075
 20
421.0704616981
 10
678.1813858288
 20
420.6755146867
 10
677.9857450087
 20
420.2244622702
 10
677.9170450886
 20
419.7859730903
  0
LINE
  5
4C3
330
1F
100
AcDbEntity
  8
0
  6
Continuous
 62
     7
370
    30
100
AcDbLine
 10
681.6479879535
 20
426.144985742
 30
0.0
 11
654.5062087269
 21
441.8136013736
 31
0.0
  0
LINE
  5
4C4
330
1F
100
AcDbEntity
  8
0
  6
Continuous
 62
     7
370
    30
100
AcDbLine
 10
654.5062087269
 20
441.8136013736
 30
0.0
 11
648.8493544774
 21
438.5479689263
 31
0.0
  0
LWPOLYLINE
  5
4C5
330
1F
100
AcDbEntity
  8
0
  6
Continuous
 62
     7
370
    30
100
AcDbPolyline
 90
       17
 70
   128
 43
0.0
 10
661.7615643268
 20
435.4015637852
 10
661.3474865855
 20
435.5612865378
 10
660.8590485866
 20
435.6173737098
 10
660.3706105877
 20
435.5612865378
 10
659.9565328465
 20
435.4015637852
 10
659.6798549453
 20
435.1625217933
 10
659.5826985866
 20
434.8805525385
 10
659.6798549453
 20
434.5985832836
 10
659.9565328465
 20
434.3595412917
 10
660.3706105877
 20
434.1998185392
 10
660.8590485866
 20
434.1437313671
 10
661.3474865855
 20
434.1998185392
 10
661.7615643268
 20
434.3595412917
 10
662.0382422279
 20
434.5985832836
 10
662.1353985866
 20
434.8805525385
 10
662.0382422279
 20
435.1625217933
 10
661.7615643268
 20
435.4015637852
  0
LWPOLYLINE
  5
4C6
330
1F
100
AcDbEntity
  8
0
  6
Continuous
 62
     7
370
    30
100
AcDbPolyline
 90
       17
 70
   128
 43
0.0
 10
670.7418204479
 20
430.2173722751
 10
670.3277427066
 20
430.3770950277
 10
669.8393047077
 20
430.4331821997
 10
669.3508667088
 20
430.3770950277
 10
668.9367889675
 20
430.2173722751
 10
668.6601110664
 20
429.9783302833
 10
668.5629547077
 20
429.6963610284
 10
668.6601110664
 20
429.4143917735
 10
668.9367889675
 20
429.1753497816
 10
669.3508667088
 20
429.0156270291
 10
669.8393047077
 20
428.9595398571
 10
670.3277427066
 20
429.0156270291
 10
670.7418204479
 20
429.1753497816
 10
671.018498349
 20
429.4143917735
 10
671.1156547077
 20
429.6963610284
 10
671.018498349
 20
429.9783302833
 10
670.7418204479
 20
430.2173722751
  0
ARC
  5
4C7
330
1F
100
AcDbEntity
  8
0
  6
Continuous
 62
     7
370
    30
100
AcDbCircle
 10
618.1293681068
 20
403.0673505662
 30
0.0
 40
1.310127592285494
100
AcDbArc
 50
230.7967147643
 51
9.2140369905
  0
LINE
  5
4C8
330
1F
100
AcDbEntity
  8
0
  6
Continuous
 62
     7
370
    30
100
AcDbLine
 10
619.4225912091
 20
429.5848169933
 30
0.0
 11
619.4225912091
 21
403.2771321569
 31
0.0
  0
LWPOLYLINE
  5
4C9
330
1F
100
AcDbEntity
  8
0
  6
Continuous
 62
     7
370
    30
100
AcDbPolyline
 90
        9
 70
   128
 43
0.0
 10
616.5066102781
 20
433.5394273255
 10
617.0060401352
 20
433.4056451124
 10
617.5230092211
 20
433.1176254806
 10
618.0268051535
 20
432.6924792584
 10
618.4874981476
 20
432.155463765
 10
618.877719102
 20
431.538482311
 10
619.1742855566
 20
430.8781888684
 10
619.3595789289
 20
430.2138105114
 10
619.4225912091
 20
429.5848169933
  0
LINE
  5
4CA
330
1F
100
AcDbEntity
  8
0
  6
Continuous
 62
     7
370
    30
100
AcDbLine
 10
582.9190381717
 20
437.2586846142
 30
0.0
 11
616.5066102781
 21
433.5394273255
 31
0.0
  0
LWPOLYLINE
  5
4CB
330
1F
100
AcDbEntity
  8
0
  6
Continuous
 62
     7
370
    30
100
AcDbPolyline
 90
        9
 70
   128
 43
0.0
 10
581.5923784156
 20
435.7532986174
 10
581.6156792881
 20
436.1019245597
 10
581.6850700257
 20
436.4159891773
 10
581.7990262337
 20
436.6885930128
 10
581.9550444909
 20
436.9137474307
 10
582.1496973457
 20
437.0865061772
 10
582.378708611
 20
437.2030740409
 10
582.6370473047
 20
437.2608902271
 10
582.9190381717
 20
437.2586846142
  0
LINE
  5
4CC
330
1F
100
AcDbEntity
  8
0
  6
Continuous
 62
     7
370
    30
100
AcDbLine
 10
581.5923784156
 20
425.1160491482
 30
0.0
 11
581.5923784156
 21
435.7532986174
 31
0.0
  0
ARC
  5
4CD
330
1F
100
AcDbEntity
  8
0
  6
Continuous
 62
     7
370
    30
100
AcDbCircle
 10
586.1980267197
 20
425.325631705
 30
0.0
 40
4.610414422716278
100
AcDbArc
 50
182.6054784857
 51
237.39452166
  0
LINE
  5
4CE
330
1F
100
AcDbEntity
  8
0
  6
Continuous
 62
     7
370
    30
100
AcDbLine
 10
617.3012708655
 20
402.052121889
 30
0.0
 11
583.7136987592
 21
421.4418145448
 31
0.0
  0
ARC
  5
4CF
330
1F
100
AcDbEntity
  8
0
  6
Continuous
 62
     7
370
    30
100
AcDbCircle
 10
665.7891324199
 20
416.1718438687
 30
0.0
 40
3.842012018930038
100
AcDbArc
 50
2.6054784857
 51
57.39452166
  0
LINE
  5
4D0
330
1F
100
AcDbEntity
  8
0
  6
Continuous
 62
     7
370
    30
100
AcDbLine
 10
650.1030780696
 20
429.6588679334
 30
0.0
 11
667.8594057204
 21
419.4083581688
 31
0.0
  0
ARC
  5
4D1
330
1F
100
AcDbEntity
  8
0
  6
Continuous
 62
     7
370
    30
100
AcDbCircle
 10
649.210059173
 20
428.1830854546
 30
0.0
 40
1.724939614692078
100
AcDbArc
 50
58.8212163326
 51
82.3106030152
  0
LINE
  5
4D2
330
1F
100
AcDbEntity
  8
0
  6
Continuous
 62
     7
370
    30
100
AcDbLine
 10
626.8921020365
 20
432.3894092237
 30
0.0
 11
649.4408609133
 21
429.8925143741
 31
0.0
  0
LWPOLYLINE
  5
4D3
330
1F
100
AcDbEntity
  8
0
  6
Continuous
 62
     7
370
    30
100
AcDbPolyline
 90
        9
 70
   128
 43
0.0
 10
625.7865522398
 20
431.134920893
 10
625.8059696335
 20
431.4254425116
 10
625.8637952482
 20
431.6871630263
 10
625.9587587548
 20
431.9143328892
 10
626.0887739692
 20
432.1019615708
 10
626.2509846816
 20
432.2459271929
 10
626.4418274026
 20
432.3430670793
 10
626.6571096473
 20
432.3912472345
 10
626.8921020365
 20
432.3894092237
  0
LINE
  5
4D4
330
1F
100
AcDbEntity
  8
0
  6
Continuous
 62
     7
370
    30
100
AcDbLine
 10
625.7865522398
 20
399.1950252478
 30
0.0
 11
625.7865522398
 21
431.134920893
 31
0.0
  0
ARC
  5
4D5
330
1F
100
AcDbEntity
  8
0
  6
Continuous
 62
     7
370
    30
100
AcDbCircle
 10
629.6245924932
 20
399.3696773784
 30
0.0
 40
3.842012018930254
100
AcDbArc
 50
182.6054784857
 51
237.39452166
  0
LINE
  5
4D6
330
1F
100
AcDbEntity
  8
0
  6
Continuous
 62
     7
370
    30
100
AcDbLine
 10
649.4746294095
 20
383.478837345
 30
0.0
 11
627.5543191927
 21
396.1331630783
 31
0.0
  0
ARC
  5
4D7
330
1F
100
AcDbEntity
  8
0
  6
Continuous
 62
     7
370
    30
100
AcDbCircle
 10
650.1647104439
 20
384.3248612427
 30
0.0
 40
1.091772993571239
100
AcDbArc
 50
230.7967147643
 51
9.2140369905
  0
LINE
  5
4D8
330
1F
100
AcDbEntity
  8
0
  6
Continuous
 62
     7
370
    30
100
AcDbLine
 10
651.2423963625
 20
387.682061746
 30
0.0
 11
651.2423963625
 21
384.499679235
 31
0.0
  0
ARC
  5
4D9
330
1F
100
AcDbEntity
  8
0
  6
Continuous
 62
     7
370
    30
100
AcDbCircle
 10
652.0855965858
 20
387.8339047231
 30
0.0
 40
0.8567630397807818
100
AcDbArc
 50
91.2988893921
 51
190.2083793104
  0
LINE
  5
4DA
330
1F
100
AcDbEntity
  8
0
  6
Continuous
 62
     7
370
    30
100
AcDbLine
 10
663.7665618416
 20
388.1437951923
 30
0.0
 11
652.06617552
 21
388.6904476167
 31
0.0
  0
ARC
  5
4DB
330
1F
100
AcDbEntity
  8
0
  6
Continuous
 62
     7
370
    30
100
AcDbCircle
 10
663.6635132003
 20
386.8213626047
 30
0.0
 40
1.326441469198525
100
AcDbArc
 50
58.4787565663
 51
85.5443133554
  0
LINE
  5
4DC
330
1F
100
AcDbEntity
  8
0
  6
Continuous
 62
     7
370
    30
100
AcDbLine
 10
667.8594057204
 20
385.9301848815
 30
0.0
 11
664.3569962465
 21
387.9520828335
 31
0.0
  0
ARC
  5
4DD
330
1F
100
AcDbEntity
  8
0
  6
Continuous
 62
     7
370
    30
100
AcDbCircle
 10
668.5494867548
 20
386.7762087792
 30
0.0
 40
1.091772993571211
100
AcDbArc
 50
230.7967147643
 51
9.2140369905
  0
LINE
  5
4DE
330
1F
100
AcDbEntity
  8
0
  6
Continuous
 62
     7
370
    30
100
AcDbLine
 10
669.6271726733
 20
416.3464959993
 30
0.0
 11
669.6271726733
 21
386.9510267714
 31
0.0
  0
LINE
  5
4DF
330
1F
100
AcDbEntity
  8
0
  6
Continuous
 62
     7
370
    30
100
AcDbLine
 10
552.2474469964
 20
433.0745685377
 30
0.0
 11
673.723366751
 21
362.9480127491
 31
0.0
  0
LINE
  5
4E0
330
1F
100
AcDbEntity
  8
0
  6
Continuous
 62
     7
370
    30
100
AcDbLine
 10
552.2474469964
 20
447.6202050396
 30
0.0
 11
552.2474469964
 21
433.0745685377
 31
0.0
  0
LWPOLYLINE
  5
4E1
330
1F
100
AcDbEntity
  8
0
  6
Continuous
 62
     7
370
    30
100
AcDbPolyline
 90
        9
 70
   128
 43
0.0
 10
553.1318868338
 20
448.6237957041
 10
552.9438929224
 20
448.6252661128
 10
552.7716671266
 20
448.5867219886
 10
552.6189929498
 20
448.5090100795
 10
552.4892243799
 20
448.3938375818
 10
552.3852122084
 20
448.2437346366
 10
552.3092414031
 20
448.0619987462
 10
552.2629809114
 20
447.8526223345
 10
552.2474469964
 20
447.6202050396
  0
LINE
  5
4E2
330
1F
100
AcDbEntity
  8
0
  6
Continuous
 62
     7
370
    30
100
AcDbLine
 10
647.9660273618
 20
438.122513645
 30
0.0
 11
553.1318868338
 21
448.6237957041
 31
0.0
  0
ARC
  5
4E3
330
1F
100
AcDbEntity
  8
0
  6
Continuous
 62
     7
370
    30
100
AcDbCircle
 10
647.7813859696
 20
436.7549705094
 30
0.0
 40
1.379951691754662
100
AcDbArc
 50
58.8212163326
 51
82.3106030152
  0
LINE
  5
4E4
330
1F
100
AcDbEntity
  8
0
  6
Continuous
 62
     7
370
    30
100
AcDbLine
 10
673.723366751
 20
362.9480127491
 30
0.0
 11
675.2840269228
 21
363.8492555722
 31
0.0
  0
ELLIPSE
  5
4E5
330
1F
100
AcDbEntity
  8
0
  6
Continuous
 62
     7
370
    30
100
AcDbEllipse
 10
681.2944345629
 20
367.3189900474
 30
0.0
 11
0.4619507595479035
 21
-0.2666785005977772
 31
0.0
210
0.0
220
0.0
230
1.0
 40
0.7174000658
 41
5.890428767780978
 42
6.675826931178062
  0
LWPOLYLINE
  5
4E6
330
1F
100
AcDbEntity
  8
0
  6
Continuous
 62
     7
370
    30
100
AcDbPolyline
 90
        5
 70
   128
 43
0.0
 10
681.6479879535
 20
426.144985742
 10
681.7101693691
 20
426.1808810342
 10
681.7563743292
 20
426.2075508142
 10
681.7848272031
 20
426.2239701773
 10
681.7944345629
 20
426.2295081366
  0
ARC
  5
4E7
330
1F
100
AcDbEntity
  8
0
  6
Continuous
 62
     7
370
    30
100
AcDbCircle
 10
647.9563355808
 20
437.0721864475
 30
0.0
 40
1.724939614691338
100
AcDbArc
 50
58.8212163326
 51
82.3106030152
  0
ARC
  5
4E8
330
1F
100
AcDbEntity
  8
0
  6
Continuous
 62
     7
370
    30
100
AcDbCircle
 10
648.5280628235
 20
438.3006055921
 30
0.0
 40
0.5895766292498118
100
AcDbArc
 50
125.3278863442
 51
197.5818252446
  0
ARC
  5
4E9
330
1F
100
AcDbEntity
  8
0
  6
Continuous
 62
     7
370
    30
100
AcDbCircle
 10
653.6131898303
 20
440.3378188948
 30
0.0
 40
1.72493961468789
100
AcDbArc
 50
58.8212163325
 51
82.3106030152
  0
LINE
  5
4EA
330
1F
100
AcDbEntity
  8
0
  6
Continuous
 62
     7
370
    30
100
AcDbLine
 10
648.1871373212
 20
438.7816153671
 30
0.0
 11
653.8439915707
 21
442.0472478144
 31
0.0
  0
LINE
  5
4EB
330
1F
100
AcDbEntity
  8
0
  6
Continuous
 62
     7
370
    30
100
AcDbLine
 10
553.3529967931
 20
449.2828974262
 30
0.0
 11
648.1871373212
 21
438.7816153671
 31
0.0
  0
ARC
  5
4EC
330
1F
100
AcDbEntity
  8
0
  6
Continuous
 62
     7
370
    30
100
AcDbCircle
 10
553.6939222954
 20
448.8018876512
 30
0.0
 40
0.589576629250147
100
AcDbArc
 50
125.3278863443
 51
197.5818252446
  0
LINE
  5
4ED
330
1F
100
AcDbEntity
  8
0
  6
Continuous
 62
     7
370
    30
100
AcDbLine
 10
653.8439915707
 20
442.0472478144
 30
0.0
 11
559.0098510426
 21
452.5485298735
 31
0.0
  0
LINE
  5
4EE
330
1F
100
AcDbEntity
  8
0
  6
Continuous
 62
     7
370
    30
100
AcDbLine
 10
559.0098510426
 20
452.5485298735
 30
0.0
 11
553.3529967931
 21
449.2828974262
 31
0.0
  0
ELLIPSE
  5
4EF
330
1F
100
AcDbEntity
  8
0
  6
Continuous
 62
     7
370
    30
100
AcDbEllipse
 10
563.7732875297
 20
450.0750427617
 30
0.0
 11
2.765003831927402
 21
0.7259675418181927
 31
0.0
210
0.0
220
0.0
230
1.0
 40
0.3241564023
 41
0.0
 42
6.283185307179586
  0
ELLIPSE
  5
4F0
330
1F
100
AcDbEntity
  8
0
  6
Continuous
 62
     7
370
    30
100
AcDbEllipse
 10
590.7140558929
 20
447.0918069155
 30
0.0
 11
2.765003831927402
 21
0.7259675418181927
 31
0.0
210
0.0
220
0.0
230
1.0
 40
0.3241564023
 41
0.0
 42
6.283185307179586
  0
ELLIPSE
  5
4F1
330
1F
100
AcDbEntity
  8
0
  6
Continuous
 62
     7
370
    30
100
AcDbEllipse
 10
581.7337997718
 20
448.0862188642
 30
0.0
 11
2.765003831927402
 21
0.7259675418182496
 31
0.0
210
0.0
220
0.0
230
1.0
 40
0.3241564023
 41
0.0
 42
6.283185307179586
  0
ELLIPSE
  5
4F2
330
1F
100
AcDbEntity
  8
0
  6
Continuous
 62
     7
370
    30
100
AcDbEllipse
 10
572.7535436508
 20
449.080630813
 30
0.0
 11
2.765003831927402
 21
0.7259675418182496
 31
0.0
210
0.0
220
0.0
230
1.0
 40
0.3241564023
 41
0.0
 42
6.283185307179586
  0
ARC
  5
4F3
330
1F
100
AcDbEntity
  8
0
  6
Continuous
 62
     7
370
    30
100
AcDbCircle
 10
668.6270137711
 20
385.8952544554
 30
0.0
 40
0.768402403786375
100
AcDbArc
 50
122.60547834
 51
177.3945215143
  0
LINE
  5
4F4
330
1F
100
AcDbEntity
  8
0
  6
Continuous
 62
     7
370
    30
100
AcDbLine
 10
664.7105496371
 20
388.5644552674
 30
0.0
 11
668.212959111
 21
386.5425573154
 31
0.0
  0
ARC
  5
4F5
330
1F
100
AcDbEntity
  8
0
  6
Continuous
 62
     7
370
    30
100
AcDbCircle
 10
665.1246042972
 20
387.9171524073
 30
0.0
 40
0.7684024037867688
100
AcDbArc
 50
122.6054783401
 51
177.3945215143
  0
ARC
  5
4F6
330
1F
100
AcDbEntity
  8
0
  6
Continuous
 62
     7
370
    30
100
AcDbCircle
 10
663.8436958293
 20
387.1510549814
 30
0.0
 40
1.658051836495735
100
AcDbArc
 50
58.4787565663
 51
85.5443133554
  0
ARC
  5
4F7
330
1F
100
AcDbEntity
  8
0
  6
Continuous
 62
     7
370
    30
100
AcDbCircle
 10
664.3062772645
 20
388.3377272508
 30
0.0
 40
0.573500114228892
100
AcDbArc
 50
125.5905449541
 51
199.7645200273
  0
LINE
  5
4F8
330
1F
100
AcDbEntity
  8
0
  6
Continuous
 62
     7
370
    30
100
AcDbLine
 10
652.2721203093
 20
389.3507481403
 30
0.0
 11
663.9725066309
 21
388.8040957159
 31
0.0
  0
ARC
  5
4F9
330
1F
100
AcDbEntity
  8
0
  6
Continuous
 62
     7
370
    30
100
AcDbCircle
 10
652.6058909428
 20
388.8843796752
 30
0.0
 40
0.5735001142283628
100
AcDbArc
 50
125.5905449541
 51
199.7645200273
  0
LINE
  5
4FA
330
1F
100
AcDbEntity
  8
0
  6
Continuous
 62
     7
370
    30
100
AcDbLine
 10
657.9289745588
 20
392.6163805876
 30
0.0
 11
652.2721203093
 21
389.3507481403
 31
0.0
  0
LINE
  5
4FB
330
1F
100
AcDbEntity
  8
0
  6
Continuous
 62
     7
370
    30
100
AcDbLine
 10
675.991133704
 20
363.6801444329
 30
0.0
 11
674.223366751
 21
362.659302543
 31
0.0
  0
ELLIPSE
  5
4FC
330
1F
100
AcDbEntity
  8
0
  6
Continuous
 62
     7
370
    30
100
AcDbEllipse
 10
674.0769201416
 20
363.152114777
 30
0.0
 11
-3.753731493816304E-5
 21
0.5334056009267556
 31
0.0
210
0.0
220
0.0
230
1.0
 40
0.7174342186
 41
1.963397318762389
 42
3.534193645557388
  0
LINE
  5
4FD
330
1F
100
AcDbEntity
  8
0
  6
Continuous
 62
     7
370
    30
100
AcDbLine
 10
679.8802210005
 20
365.9249349903
 30
0.0
 11
681.6479879535
 21
366.9457768802
 31
0.0
  0
LINE
  5
4FE
330
1F
100
AcDbEntity
  8
0
  6
Continuous
 62
     7
370
    30
100
AcDbLine
 10
679.8802210005
 20
365.9249349903
 30
0.0
 11
674.223366751
 21
362.659302543
 31
0.0
  0
ELLIPSE
  5
4FF
330
1F
100
AcDbEntity
  8
0
  6
Continuous
 62
     7
370
    30
100
AcDbEllipse
 10
552.601000387
 20
433.2786705657
 30
0.0
 11
0.4999999974271532
 21
0.2886907730207895
 31
0.0
210
0.0
220
0.0
230
1.0
 40
0.0000703729
 41
2.356153861800329
 42
3.141633286759383
  0
ARC
  5
500
330
1F
100
AcDbEntity
  8
0
  6
Continuous
 62
     7
370
    30
100
AcDbCircle
 10
626.1401056304
 20
431.8172764355
 30
0.0
 40
0.7685109539553548
100
AcDbArc
 50
242.6096722366
 51
297.3903277634
  0
LINE
  5
501
330
1F
100
AcDbEntity
  8
0
  6
Continuous
 62
     7
370
    30
100
AcDbLine
 10
626.493659021
 20
431.134920893
 30
0.0
 11
626.493659021
 21
399.1950252478
 31
0.0
  0
ARC
  5
502
330
1F
100
AcDbEntity
  8
0
  6
Continuous
 62
     7
370
    30
100
AcDbCircle
 10
626.1401056304
 20
399.8773807902
 30
0.0
 40
0.7685109539558594
100
AcDbArc
 50
242.6096722366
 51
297.3903277634
  0
LINE
  5
503
330
1F
100
AcDbEntity
  8
0
  6
Continuous
 62
     7
370
    30
100
AcDbLine
 10
626.493659021
 20
399.1950252478
 30
0.0
 11
632.1505132704
 21
402.4606576951
 31
0.0
  0
ARC
  5
504
330
1F
100
AcDbEntity
  8
0
  6
Continuous
 62
     7
370
    30
100
AcDbCircle
 10
650.2422374602
 20
383.4439069189
 30
0.0
 40
0.7684024037856781
100
AcDbArc
 50
122.60547834
 51
177.3945215144
  0
LINE
  5
505
330
1F
100
AcDbEntity
  8
0
  6
Continuous
 62
     7
370
    30
100
AcDbLine
 10
627.9078725833
 20
396.7455355122
 30
0.0
 11
649.8281828001
 21
384.0912097789
 31
0.0
  0
ARC
  5
506
330
1F
100
AcDbEntity
  8
0
  6
Continuous
 62
     7
370
    30
100
AcDbCircle
 10
628.3219272434
 20
396.0982326521
 30
0.0
 40
0.7684024037853021
100
AcDbArc
 50
122.60547834
 51
177.3945215144
  0
LINE
  5
507
330
1F
100
AcDbEntity
  8
0
  6
Continuous
 62
     7
370
    30
100
AcDbLine
 10
633.5647268328
 20
400.0111679595
 30
0.0
 11
627.9078725833
 21
396.7455355122
 31
0.0
  0
LINE
  5
508
330
1F
100
AcDbEntity
  8
0
  6
Continuous
 62
     7
370
    30
100
AcDbLine
 10
645.2319887224
 20
388.7039156107
 30
0.0
 11
632.7161986954
 21
395.9291274004
 31
0.0
  0
LWPOLYLINE
  5
509
330
1F
100
AcDbEntity
  8
0
  6
Continuous
 62
     7
370
    30
100
AcDbPolyline
 90
       10
 70
   128
 43
0.0
 10
647.4947304222
 20
390.0101685896
 10
647.8134520316
 20
389.7473978272
 10
647.9572710892
 20
389.4375444031
 10
647.9088408944
 20
389.1179812132
 10
647.6740028432
 20
388.8272522943
 10
647.2810818705
 20
388.600423845
 10
646.7774700445
 20
388.4648547237
 10
646.2239103839
 20
388.4368965673
 10
645.6871703535
 20
388.5199215421
 10
645.2319887224
 20
388.7039156107
  0
LINE
  5
50A
330
1F
100
AcDbEntity
  8
0
  6
Continuous
 62
     7
370
    30
100
AcDbLine
 10
634.9789403952
 20
397.2353803793
 30
0.0
 11
647.4947304222
 21
390.0101685896
 31
0.0
  0
LWPOLYLINE
  5
50B
330
1F
100
AcDbEntity
  8
0
  6
Continuous
 62
     7
370
    30
100
AcDbPolyline
 90
       10
 70
   128
 43
0.0
 10
632.7161986954
 20
395.9291274004
 10
632.397477086
 20
396.1918981628
 10
632.2536580283
 20
396.5017515869
 10
632.3020882232
 20
396.8213147768
 10
632.5369262744
 20
397.1120436956
 10
632.9298472471
 20
397.338872145
 10
633.4334590731
 20
397.4744412663
 10
633.9870187337
 20
397.5023994227
 10
634.5237587641
 20
397.4193744479
 10
634.9789403952
 20
397.2353803793
  0
ARC
  5
50C
330
1F
100
AcDbEntity
  8
0
  6
Continuous
 62
     7
370
    30
100
AcDbCircle
 10
629.5640912237
 20
399.3347469523
 30
0.0
 40
3.073609615144613
100
AcDbArc
 50
182.6054784857
 51
237.39452166
  0
ARC
  5
50D
330
1F
100
AcDbEntity
  8
0
  6
Continuous
 62
     7
370
    30
100
AcDbCircle
 10
635.2209454732
 20
402.6003793996
 30
0.0
 40
3.07360961514436
100
AcDbArc
 50
182.6054784857
 51
237.39452166
  0
ARC
  5
50E
330
1F
100
AcDbEntity
  8
0
  6
Continuous
 62
     7
370
    30
100
AcDbCircle
 10
618.0688789162
 20
402.0171914629
 30
0.0
 40
0.7684024037863776
100
AcDbArc
 50
122.60547834
 51
177.3945215143
  0
ARC
  5
50F
330
1F
100
AcDbEntity
  8
0
  6
Continuous
 62
     7
370
    30
100
AcDbCircle
 10
584.4813068099
 20
421.4068841186
 30
0.0
 40
0.768402403786024
100
AcDbArc
 50
122.60547834
 51
177.3945215144
  0
LINE
  5
510
330
1F
100
AcDbEntity
  8
0
  6
Continuous
 62
     7
370
    30
100
AcDbLine
 10
584.0672521498
 20
422.0541869787
 30
0.0
 11
617.6548242561
 21
402.6644943229
 31
0.0
  0
LWPOLYLINE
  5
511
330
1F
100
AcDbEntity
  8
0
  6
Continuous
 62
     7
370
    30
100
AcDbPolyline
 90
       10
 70
   128
 43
0.0
 10
587.8149180901
 20
421.8500849507
 10
587.4961964807
 20
422.1128557131
 10
587.352377423
 20
422.4227091373
 10
587.4008076179
 20
422.7422723272
 10
587.6356456691
 20
423.033001246
 10
588.0285666418
 20
423.2598296954
 10
588.5321784678
 20
423.3953988167
 10
589.0857381283
 20
423.4233569731
 10
589.6224781587
 20
423.3403319983
 10
590.0776597898
 20
423.1563379296
  0
LINE
  5
512
330
1F
100
AcDbEntity
  8
0
  6
Continuous
 62
     7
370
    30
100
AcDbLine
 10
600.3307081171
 20
414.6248731611
 30
0.0
 11
587.8149180901
 21
421.8500849507
 31
0.0
  0
LWPOLYLINE
  5
513
330
1F
100
AcDbEntity
  8
0
  6
Continuous
 62
     7
370
    30
100
AcDbPolyline
 90
       10
 70
   128
 43
0.0
 10
602.5934498169
 20
415.93112614
 10
602.9121714262
 20
415.6683553776
 10
603.0559904839
 20
415.3585019535
 10
603.007560289
 20
415.0389387635
 10
602.7727222378
 20
414.7482098447
 10
602.3798012651
 20
414.5213813954
 10
601.8761894391
 20
414.3858122741
 10
601.3226297786
 20
414.3578541177
 10
600.7858897482
 20
414.4408790924
 10
600.3307081171
 20
414.6248731611
  0
LINE
  5
514
330
1F
100
AcDbEntity
  8
0
  6
Continuous
 62
     7
370
    30
100
AcDbLine
 10
590.0776597898
 20
423.1563379296
 30
0.0
 11
602.5934498169
 21
415.93112614
 31
0.0
  0
LINE
  5
515
330
1F
100
AcDbEntity
  8
0
  6
Continuous
 62
     7
370
    30
100
AcDbLine
 10
608.038172032
 20
412.7879549095
 30
0.0
 11
619.2761445997
 21
406.3004114374
 31
0.0
  0
LWPOLYLINE
  5
516
330
1F
100
AcDbEntity
  8
0
  6
Continuous
 62
     7
370
    30
100
AcDbPolyline
 90
       10
 70
   128
 43
0.0
 10
605.7754303322
 20
411.4817019306
 10
605.4567087228
 20
411.744472693
 10
605.3128896651
 20
412.0543261171
 10
605.36131986
 20
412.3738893071
 10
605.5961579112
 20
412.6646182259
 10
605.9890788839
 20
412.8914466752
 10
606.4926907099
 20
413.0270157965
 10
607.0462503705
 20
413.0549739529
 10
607.5829904009
 20
412.9719489782
 10
608.038172032
 20
412.7879549095
  0
LINE
  5
517
330
1F
100
AcDbEntity
  8
0
  6
Continuous
 62
     7
370
    30
100
AcDbLine
 10
618.2912203592
 20
404.2564901409
 30
0.0
 11
605.7754303322
 21
411.4817019306
 31
0.0
  0
ARC
  5
518
330
1F
100
AcDbEntity
  8
0
  6
Continuous
 62
     7
370
    30
100
AcDbCircle
 10
619.3530503808
 20
406.2261813838
 30
0.0
 40
2.237669901240351
100
AcDbArc
 50
241.6715810525
 51
268.0304312928
  0
LINE
  5
519
330
1F
100
AcDbEntity
  8
0
  6
Continuous
 62
     7
370
    30
100
AcDbLine
 10
589.7241063993
 20
425.319819426
 30
0.0
 11
584.0672521498
 21
422.0541869787
 31
0.0
  0
ARC
  5
51A
330
1F
100
AcDbEntity
  8
0
  6
Continuous
 62
     7
370
    30
100
AcDbCircle
 10
581.9459318062
 20
436.4356541598
 30
0.0
 40
0.7685109539554594
100
AcDbArc
 50
242.6096722366
 51
297.3903277634
  0
LINE
  5
51B
330
1F
100
AcDbEntity
  8
0
  6
Continuous
 62
     7
370
    30
100
AcDbLine
 10
582.2994851968
 20
435.7532986174
 30
0.0
 11
582.2994851968
 21
425.1160491482
 31
0.0
  0
ARC
  5
51C
330
1F
100
AcDbEntity
  8
0
  6
Continuous
 62
     7
370
    30
100
AcDbCircle
 10
581.9459318062
 20
425.7984046906
 30
0.0
 40
0.7685109539554594
100
AcDbArc
 50
242.6096722366
 51
297.3903277634
  0
LINE
  5
51D
330
1F
100
AcDbEntity
  8
0
  6
Continuous
 62
     7
370
    30
100
AcDbLine
 10
582.2994851968
 20
425.1160491482
 30
0.0
 11
587.9563394463
 21
428.3816815955
 31
0.0
  0
ARC
  5
51E
330
1F
100
AcDbEntity
  8
0
  6
Continuous
 62
     7
370
    30
100
AcDbCircle
 10
586.1375254502
 20
425.2907012788
 30
0.0
 40
3.842012018929942
100
AcDbArc
 50
182.6054784857
 51
237.39452166
  0
ARC
  5
51F
330
1F
100
AcDbEntity
  8
0
  6
Continuous
 62
     7
370
    30
100
AcDbCircle
 10
591.7943796997
 20
428.5563337261
 30
0.0
 40
3.84201201892999
100
AcDbArc
 50
182.6054784857
 51
237.39452166
  0
ARC
  5
520
330
1F
100
AcDbEntity
  8
0
  6
Continuous
 62
     8
370
    30
100
AcDbCircle
 10
654.6526687543
 20
441.6091607091
 30
0.0
 40
0.2514886179508854
100
AcDbArc
 50
65.6928809539
 51
125.6175774752
  0
ARC
  5
521
330
1F
100
AcDbEntity
  8
0
  6
Continuous
 62
     8
370
    30
100
AcDbCircle
 10
669.7311593635
 20
416.5757931912
 30
0.0
 40
0.2517745696409583
100
AcDbArc
 50
185.9207319372
 51
245.6056222872
  0
ARC
  5
522
330
1F
100
AcDbEntity
  8
0
  6
Continuous
 62
     8
370
    30
100
AcDbCircle
 10
668.0969010008
 20
419.377993903
 30
0.0
 40
0.2394284796898717
100
AcDbArc
 50
172.7141423707
 51
236.2434308282
  0
ARC
  5
523
330
1F
100
AcDbEntity
  8
0
  6
Continuous
 62
     8
370
    30
100
AcDbCircle
 10
669.7309545952
 20
387.1800819878
 30
0.0
 40
0.2514696392467096
100
AcDbArc
 50
185.6947992512
 51
245.6253417064
  0
ARC
  5
524
330
1F
100
AcDbEntity
  8
0
  6
Continuous
 62
     8
370
    30
100
AcDbCircle
 10
650.3409208476
 20
429.6285859192
 30
0.0
 40
0.2397627733255937
100
AcDbArc
 50
172.7441704555
 51
235.9436491511
  0
ARC
  5
525
330
1F
100
AcDbEntity
  8
0
  6
Continuous
 62
     8
370
    30
100
AcDbCircle
 10
649.8076890378
 20
429.9672792031
 30
0.0
 40
0.3743696736587595
100
AcDbArc
 50
191.5199170268
 51
258.4943492244
  0
ARC
  5
526
330
1F
100
AcDbEntity
  8
0
  6
Continuous
 62
     8
370
    30
100
AcDbCircle
 10
627.2576267133
 20
432.4634237698
 30
0.0
 40
0.3729429478286986
100
AcDbArc
 50
191.4469637133
 51
259.6502672332
  0
ARC
  5
527
330
1F
100
AcDbEntity
  8
0
  6
Continuous
 62
     8
370
    30
100
AcDbCircle
 10
654.0007783127
 20
441.7865494093
 30
0.0
 40
0.3042133148078552
100
AcDbArc
 50
84.2198429839
 51
121.0231402701
  0
ARC
  5
528
330
1F
100
AcDbEntity
  8
0
  6
Continuous
 62
     8
370
    30
100
AcDbCircle
 10
559.1666359505
 20
452.2878363601
 30
0.0
 40
0.3042081774586884
100
AcDbArc
 50
84.2101123864
 51
121.0233190547
  0
ARC
  5
529
330
1F
100
AcDbEntity
  8
0
  6
Continuous
 62
     8
370
    30
100
AcDbCircle
 10
668.7992663126
 20
387.3616206464
 30
0.0
 40
1.007283909733344
100
AcDbArc
 50
234.4039104375
 51
294.0608321792
  0
LINE
  5
52A
330
1F
100
AcDbEntity
  8
0
  6
Continuous
 62
     8
370
    30
100
AcDbLine
 10
668.212959111
 20
386.5425573154
 30
0.0
 11
669.4807260639
 21
387.2744235991
 31
0.0
  0
LINE
  5
52B
330
1F
100
AcDbEntity
  8
0
  6
Continuous
 62
     8
370
    30
100
AcDbLine
 10
669.4807260639
 20
391.3182195031
 30
0.0
 11
664.7105496371
 21
388.5644552674
 31
0.0
  0
LINE
  5
52C
330
1F
100
AcDbEntity
  8
0
  6
Continuous
 62
     8
370
    30
100
AcDbLine
 10
663.9725066309
 20
388.8040957159
 30
0.0
 11
669.4807260639
 21
391.98392311
 31
0.0
  0
LINE
  5
52D
330
1F
100
AcDbEntity
  8
0
  6
Continuous
 62
     8
370
    30
100
AcDbLine
 10
669.4807260639
 20
392.0766725136
 30
0.0
 11
657.9289745588
 21
392.6163805876
 31
0.0
  0
ARC
  5
52E
330
1F
100
AcDbEntity
  8
0
  6
Continuous
 62
     8
370
    30
100
AcDbCircle
 10
658.0871299665
 20
392.3507747735
 30
0.0
 40
0.3091271283731664
100
AcDbArc
 50
87.6290724196
 51
120.7717513969
  0
ARC
  5
52F
330
1F
100
AcDbEntity
  8
0
  6
Continuous
 62
     8
370
    30
100
AcDbCircle
 10
652.2100145938
 20
388.4358286358
 30
0.0
 40
0.9170249831606424
100
AcDbArc
 50
86.1166584343
 51
118.7806448769
  0
ARC
  5
530
330
1F
100
AcDbEntity
  8
0
  6
Continuous
 62
     8
370
    30
100
AcDbCircle
 10
651.3461919855
 20
387.911133154
 30
0.0
 40
0.2514900422567418
100
AcDbArc
 50
185.709953588
 51
245.6240208586
  0
ARC
  5
531
330
1F
100
AcDbEntity
  8
0
  6
Continuous
 62
     8
370
    30
100
AcDbCircle
 10
627.4755788028
 20
431.2414101299
 30
0.0
 40
0.9876772830983956
100
AcDbArc
 50
124.5627383098
 51
186.1895391548
  0
ARC
  5
532
330
1F
100
AcDbEntity
  8
0
  6
Continuous
 62
     8
370
    30
100
AcDbCircle
 10
657.8667206857
 20
391.7028941813
 30
0.0
 40
0.9156052419999834
100
AcDbArc
 50
86.1013349506
 51
119.4091574202
  0
LINE
  5
533
330
1F
100
AcDbEntity
  8
0
  6
Continuous
 62
     8
370
    30
100
AcDbLine
 10
628.0035044892
 20
432.006536129
 30
0.0
 11
626.493659021
 21
431.134920893
 31
0.0
  0
ARC
  5
534
330
1F
100
AcDbEntity
  8
0
  6
Continuous
 62
     8
370
    30
100
AcDbCircle
 10
651.3461782843
 20
384.7287344514
 30
0.0
 40
0.2514696392471536
100
AcDbArc
 50
185.6947992512
 51
245.6253417064
  0
LINE
  5
535
330
1F
100
AcDbEntity
  8
0
  6
Continuous
 62
     8
370
    30
100
AcDbLine
 10
632.1505132704
 20
402.4606576951
 30
0.0
 11
632.1505132704
 21
431.5473248295
 31
0.0
  0
ARC
  5
536
330
1F
100
AcDbEntity
  8
0
  6
Continuous
 62
     8
370
    30
100
AcDbCircle
 10
650.4144900017
 20
384.9102731099
 30
0.0
 40
1.007283909733094
100
AcDbArc
 50
234.4039104375
 51
294.0608321792
  0
LINE
  5
537
330
1F
100
AcDbEntity
  8
0
  6
Continuous
 62
     8
370
    30
100
AcDbLine
 10
649.8281828001
 20
384.0912097789
 30
0.0
 11
651.0959497531
 21
384.8230760627
 31
0.0
  0
ARC
  5
538
330
1F
100
AcDbEntity
  8
0
  6
Continuous
 62
     8
370
    30
100
AcDbCircle
 10
632.0467313486
 20
402.6897129115
 30
0.0
 40
0.2514696392468992
100
AcDbArc
 50
294.3746582936
 51
354.3052007488
  0
LINE
  5
539
330
1F
100
AcDbEntity
  8
0
  6
Continuous
 62
     8
370
    30
100
AcDbLine
 10
651.9960481971
 20
389.3709926184
 30
0.0
 11
633.5647268328
 21
400.0111679595
 31
0.0
  0
ARC
  5
53A
330
1F
100
AcDbEntity
  8
0
  6
Continuous
 62
     8
370
    30
100
AcDbCircle
 10
619.5151810892
 20
429.8058195724
 30
0.0
 40
0.2396143273932443
100
AcDbArc
 50
183.9806296248
 51
247.2685656054
  0
ARC
  5
53B
330
1F
100
AcDbEntity
  8
0
  6
Continuous
 62
     8
370
    30
100
AcDbCircle
 10
616.8731447658
 20
433.614023004
 30
0.0
 40
0.374048186656024
100
AcDbArc
 50
191.5035115133
 51
258.7527203097
  0
ARC
  5
53C
330
1F
100
AcDbEntity
  8
0
  6
Continuous
 62
     8
370
    30
100
AcDbCircle
 10
619.5263731309
 20
403.5061873733
 30
0.0
 40
0.2514696392466578
100
AcDbArc
 50
185.6947992512
 51
245.6253417064
  0
ARC
  5
53D
330
1F
100
AcDbEntity
  8
0
  6
Continuous
 62
     8
370
    30
100
AcDbCircle
 10
633.7111868602
 20
399.8067272949
 30
0.0
 40
0.2514886179509778
100
AcDbArc
 50
65.6928809539
 51
125.6175774752
  0
ARC
  5
53E
330
1F
100
AcDbEntity
  8
0
  6
Continuous
 62
     8
370
    30
100
AcDbCircle
 10
583.2845628484
 20
437.3326991603
 30
0.0
 40
0.3729429478284954
100
AcDbArc
 50
191.4469637133
 51
259.6502672332
  0
LINE
  5
53F
330
1F
100
AcDbEntity
  8
0
  6
Continuous
 62
     8
370
    30
100
AcDbLine
 10
647.4947304222
 20
390.0101685896
 30
0.0
 11
647.4947304222
 21
388.7039156107
 31
0.0
  0
LINE
  5
540
330
1F
100
AcDbEntity
  8
0
  6
Continuous
 62
     8
370
    30
100
AcDbLine
 10
634.9789403952
 20
397.2353803793
 30
0.0
 11
634.9789403952
 21
394.6228744214
 31
0.0
  0
ARC
  5
541
330
1F
100
AcDbEntity
  8
0
  6
Continuous
 62
     8
370
    30
100
AcDbCircle
 10
618.3802627935
 20
403.6181932984
 30
0.0
 40
1.198249893556478
100
AcDbArc
 50
232.7412844343
 51
296.0094676848
  0
LINE
  5
542
330
1F
100
AcDbEntity
  8
0
  6
Continuous
 62
     8
370
    30
100
AcDbLine
 10
617.6548242561
 20
402.6644943229
 30
0.0
 11
619.2761445997
 21
403.6004626346
 31
0.0
  0
LINE
  5
543
330
1F
100
AcDbEntity
  8
0
  6
Continuous
 62
     8
370
    30
100
AcDbLine
 10
619.2761445997
 20
408.2597909058
 30
0.0
 11
589.7241063993
 21
425.319819426
 31
0.0
  0
LINE
  5
544
330
1F
100
AcDbEntity
  8
0
  6
Continuous
 62
     8
370
    30
100
AcDbLine
 10
608.038172032
 20
412.7879549095
 30
0.0
 11
608.038172032
 21
410.1754489517
 31
0.0
  0
ARC
  5
545
330
1F
100
AcDbEntity
  8
0
  6
Continuous
 62
     8
370
    30
100
AcDbCircle
 10
589.8705664267
 20
425.1153787614
 30
0.0
 40
0.2514886179509316
100
AcDbArc
 50
65.6928809539
 51
125.6175774752
  0
LINE
  5
546
330
1F
100
AcDbEntity
  8
0
  6
Continuous
 62
     8
370
    30
100
AcDbLine
 10
602.5934498169
 20
415.93112614
 30
0.0
 11
602.5934498169
 21
414.6248731611
 31
0.0
  0
ARC
  5
547
330
1F
100
AcDbEntity
  8
0
  6
Continuous
 62
     8
370
    30
100
AcDbCircle
 10
583.5280138691
 20
435.8861911666
 30
0.0
 40
1.235695402678205
100
AcDbArc
 50
124.739156732
 51
186.173800233
  0
LINE
  5
548
330
1F
100
AcDbEntity
  8
0
  6
Continuous
 62
     8
370
    30
100
AcDbLine
 10
584.2095828748
 20
436.8559745358
 30
0.0
 11
582.2994851968
 21
435.7532986174
 31
0.0
  0
LINE
  5
549
330
1F
100
AcDbEntity
  8
0
  6
Continuous
 62
     8
370
    30
100
AcDbLine
 10
590.0776597898
 20
423.1563379296
 30
0.0
 11
590.0776597898
 21
420.5438319718
 31
0.0
  0
LINE
  5
54A
330
1F
100
AcDbEntity
  8
0
  6
Continuous
 62
     8
370
    30
100
AcDbLine
 10
587.9563394463
 20
428.3816815955
 30
0.0
 11
587.9563394463
 21
436.4410844198
 31
0.0
  0
ARC
  5
54B
330
1F
100
AcDbEntity
  8
0
  6
Continuous
 62
     8
370
    30
100
AcDbCircle
 10
587.8525575245
 20
428.6107368119
 30
0.0
 40
0.2514696392467917
100
AcDbArc
 50
294.3746582936
 51
354.3052007488
  0
ARC
  5
54C
330
1F
100
AcDbEntity
  8
0
  6
Continuous
 62
     8
370
    30
100
AcDbCircle
 10
553.2235854432
 20
448.3494303282
 30
0.0
 40
0.9423948857001684
100
AcDbArc
 50
82.1071008941
 51
119.4996045961
  0
ARC
  5
54D
330
1F
100
AcDbEntity
  8
0
  6
Continuous
 62
     8
370
    30
100
AcDbCircle
 10
552.340087436
 20
447.8412612357
 30
0.0
 40
0.2396833179099198
100
AcDbArc
 50
184.0423466861
 51
247.2623709056
  0
ARC
  5
54E
330
1F
100
AcDbEntity
  8
0
  6
Continuous
 62
     8
370
    30
100
AcDbCircle
 10
558.8804864307
 20
451.6138800712
 30
0.0
 40
0.943559990529736
100
AcDbArc
 50
82.119774167
 51
119.0603981762
  0
LINE
  5
54F
330
1F
100
AcDbEntity
  8
0
  6
Continuous
 62
     7
370
    30
100
AcDbLine
 10
496.8524562297
 20
430.1942003731
 30
0.0
 11
420.0839116512
 21
430.1942003731
 31
0.0
  0
LINE
  5
550
330
1F
100
AcDbEntity
  8
0
  6
Continuous
 62
     7
370
    30
100
AcDbLine
 10
420.0839116512
 20
430.1942003731
 30
0.0
 11
420.0839116512
 21
431.1942003731
 31
0.0
  0
LINE
  5
551
330
1F
100
AcDbEntity
  8
0
  6
Continuous
 62
     7
370
    30
100
AcDbLine
 10
420.0839116512
 20
431.1942003731
 30
0.0
 11
495.8524562297
 21
431.1942003731
 31
0.0
  0
ARC
  5
552
330
1F
100
AcDbEntity
  8
0
  6
Continuous
 62
     7
370
    30
100
AcDbCircle
 10
495.8524562297
 20
430.1942003731
 30
0.0
 40
1.0
100
AcDbArc
 50
0.0
 51
90.0
  0
LINE
  5
553
330
1F
100
AcDbEntity
  8
0
  6
Continuous
 62
     7
370
    30
100
AcDbLine
 10
496.8524562297
 20
430.1942003731
 30
0.0
 11
496.8524562297
 21
414.1942003731
 31
0.0
  0
LINE
  5
554
330
1F
100
AcDbEntity
  8
0
  6
Continuous
 62
     7
370
    30
100
AcDbLine
 10
420.0839116512
 20
414.1942003731
 30
0.0
 11
496.8524562297
 21
414.1942003731
 31
0.0
  0
LINE
  5
555
330
1F
100
AcDbEntity
  8
0
  6
Continuous
 62
     7
370
    30
100
AcDbLine
 10
420.0839116512
 20
430.1942003731
 30
0.0
 11
420.0839116512
 21
414.1942003731
 31
0.0
  0
CIRCLE
  5
556
330
1F
100
AcDbEntity
  8
0
  6
Continuous
 62
     7
370
    30
100
AcDbCircle
 10
446.0524562297
 20
422.1942003731
 30
0.0
 40
2.552700000000016
  0
CIRCLE
  5
557
330
1F
100
AcDbEntity
  8
0
  6
Continuous
 62
     7
370
    30
100
AcDbCircle
 10
471.4524562297
 20
422.1942003731
 30
0.0
 40
2.552700000000016
  0
ARC
  5
558
330
1F
100
AcDbEntity
  8
0
  6
Continuous
 62
     7
370
    30
100
AcDbCircle
 10
495.8524562297
 20
414.1942003731
 30
0.0
 40
1.0
100
AcDbArc
 50
270.0
 51
0.0
  0
LINE
  5
559
330
1F
100
AcDbEntity
  8
0
  6
Continuous
 62
     7
370
    30
100
AcDbLine
 10
495.8524562297
 20
413.1942003731
 30
0.0
 11
420.0839116512
 21
413.1942003731
 31
0.0
  0
LINE
  5
55A
330
1F
100
AcDbEntity
  8
0
  6
Continuous
 62
     7
370
    30
100
AcDbLine
 10
420.0839116512
 20
414.1942003731
 30
0.0
 11
420.0839116512
 21
413.1942003731
 31
0.0
  0
LINE
  5
55B
330
1F
100
AcDbEntity
  8
0
  6
Continuous
 62
     7
370
    30
100
AcDbLine
 10
420.0839116512
 20
430.1942003731
 30
0.0
 11
418.2108786841
 21
430.1942003731
 31
0.0
  0
LWPOLYLINE
  5
55C
330
1F
100
AcDbEntity
  8
0
  6
Continuous
 62
     7
370
    30
100
AcDbPolyline
 90
        9
 70
   128
 43
0.0
 10
418.2108786841
 20
430.1942003731
 10
418.2180766448
 20
430.3892906951
 10
418.2393939131
 20
430.5768838055
 10
418.2740112785
 20
430.7497706061
 10
418.3205984151
 20
430.9013071543
 10
418.3773650051
 20
431.0256699854
 10
418.4421295406
 20
431.1180799056
 10
418.5124031566
 20
431.1749856535
 10
418.5854852775
 20
431.1942003731
  0
LINE
  5
55D
330
1F
100
AcDbEntity
  8
0
  6
Continuous
 62
     7
370
    30
100
AcDbLine
 10
418.5854852775
 20
431.1942003731
 30
0.0
 11
420.0839116512
 21
431.1942003731
 31
0.0
  0
LINE
  5
55E
330
1F
100
AcDbEntity
  8
0
  6
Continuous
 62
     7
370
    30
100
AcDbLine
 10
418.2108786841
 20
414.1942003731
 30
0.0
 11
420.0839116512
 21
414.1942003731
 31
0.0
  0
LINE
  5
55F
330
1F
100
AcDbEntity
  8
0
  6
Continuous
 62
     7
370
    30
100
AcDbLine
 10
418.2108786841
 20
414.1942003731
 30
0.0
 11
418.2108786841
 21
430.1942003731
 31
0.0
  0
LINE
  5
560
330
1F
100
AcDbEntity
  8
0
  6
Continuous
 62
     7
370
    30
100
AcDbLine
 10
420.0839116512
 20
413.1942003731
 30
0.0
 11
418.5854852775
 21
413.1942003731
 31
0.0
  0
LWPOLYLINE
  5
561
330
1F
100
AcDbEntity
  8
0
  6
Continuous
 62
     7
370
    30
100
AcDbPolyline
 90
        9
 70
   128
 43
0.0
 10
418.2108786841
 20
414.1942003731
 10
418.2180766448
 20
413.9991100511
 10
418.2393939131
 20
413.8115169407
 10
418.2740112785
 20
413.6386301401
 10
418.3205984151
 20
413.4870935919
 10
418.3773650051
 20
413.3627307608
 10
418.4421295406
 20
413.2703208406
 10
418.5124031566
 20
413.2134150927
 10
418.5854852775
 20
413.1942003731
  0
LINE
  5
562
330
1F
100
AcDbEntity
  8
0
  6
Continuous
 62
     7
370
    30
100
AcDbLine
 10
418.2108786841
 20
430.1942003731
 30
0.0
 11
149.9794232626
 21
430.1942003731
 31
0.0
  0
LWPOLYLINE
  5
563
330
1F
100
AcDbEntity
  8
0
  6
Continuous
 62
     7
370
    30
100
AcDbPolyline
 90
        9
 70
   128
 43
0.0
 10
149.9794232626
 20
430.1942003731
 10
149.9866212233
 20
430.3892906951
 10
150.0079384917
 20
430.5768838055
 10
150.0425558571
 20
430.7497706061
 10
150.0891429936
 20
430.9013071543
 10
150.1459095837
 20
431.0256699854
 10
150.2106741191
 20
431.1180799056
 10
150.2809477351
 20
431.1749856535
 10
150.3540298561
 20
431.1942003731
  0
LINE
  5
564
330
1F
100
AcDbEntity
  8
0
  6
Continuous
 62
     7
370
    30
100
AcDbLine
 10
150.3540298561
 20
431.1942003731
 30
0.0
 11
418.5854852775
 21
431.1942003731
 31
0.0
  0
LINE
  5
565
330
1F
100
AcDbEntity
  8
0
  6
Continuous
 62
     7
370
    30
100
AcDbLine
 10
149.9794232626
 20
414.1942003731
 30
0.0
 11
418.2108786841
 21
414.1942003731
 31
0.0
  0
LINE
  5
566
330
1F
100
AcDbEntity
  8
0
  6
Continuous
 62
     7
370
    30
100
AcDbLine
 10
149.9794232626
 20
430.1942003731
 30
0.0
 11
149.9794232626
 21
414.1942003731
 31
0.0
  0
CIRCLE
  5
567
330
1F
100
AcDbEntity
  8
0
  6
Continuous
 62
     7
370
    30
100
AcDbCircle
 10
171.4524562297
 20
422.1942003731
 30
0.0
 40
5.550000000000011
  0
CIRCLE
  5
568
330
1F
100
AcDbEntity
  8
0
  6
Continuous
 62
     7
370
    30
100
AcDbCircle
 10
247.6524562297
 20
422.1942003731
 30
0.0
 40
5.55000000000004
  0
CIRCLE
  5
569
330
1F
100
AcDbEntity
  8
0
  6
Continuous
 62
     7
370
    30
100
AcDbCircle
 10
222.2524562297
 20
422.1942003731
 30
0.0
 40
5.550000000000011
  0
CIRCLE
  5
56A
330
1F
100
AcDbEntity
  8
0
  6
Continuous
 62
     7
370
    30
100
AcDbCircle
 10
196.8524562297
 20
422.1942003731
 30
0.0
 40
5.549999999999983
  0
LINE
  5
56B
330
1F
100
AcDbEntity
  8
0
  6
Continuous
 62
     7
370
    30
100
AcDbLine
 10
418.5854852775
 20
413.1942003731
 30
0.0
 11
150.3540298561
 21
413.1942003731
 31
0.0
  0
LWPOLYLINE
  5
56C
330
1F
100
AcDbEntity
  8
0
  6
Continuous
 62
     7
370
    30
100
AcDbPolyline
 90
        9
 70
   128
 43
0.0
 10
149.9794232626
 20
414.1942003731
 10
149.9866212233
 20
413.9991100511
 10
150.0079384917
 20
413.8115169407
 10
150.0425558571
 20
413.6386301401
 10
150.0891429936
 20
413.4870935919
 10
150.1459095837
 20
413.3627307608
 10
150.2106741191
 20
413.2703208406
 10
150.2809477351
 20
413.2134150927
 10
150.3540298561
 20
413.1942003731
  0
LINE
  5
56D
330
1F
100
AcDbEntity
  8
0
  6
Continuous
 62
     7
370
    30
100
AcDbLine
 10
149.9794232626
 20
430.1942003731
 30
0.0
 11
146.8524562297
 21
430.1942003731
 31
0.0
  0
ARC
  5
56E
330
1F
100
AcDbEntity
  8
0
  6
Continuous
 62
     7
370
    30
100
AcDbCircle
 10
147.8524562297
 20
430.1942003731
 30
0.0
 40
1.000000000000028
100
AcDbArc
 50
90.0
 51
180.0
  0
LINE
  5
56F
330
1F
100
AcDbEntity
  8
0
  6
Continuous
 62
     7
370
    30
100
AcDbLine
 10
147.8524562297
 20
431.1942003731
 30
0.0
 11
150.3540298561
 21
431.1942003731
 31
0.0
  0
LINE
  5
570
330
1F
100
AcDbEntity
  8
0
  6
Continuous
 62
     7
370
    30
100
AcDbLine
 10
146.8524562297
 20
414.1942003731
 30
0.0
 11
149.9794232626
 21
414.1942003731
 31
0.0
  0
LINE
  5
571
330
1F
100
AcDbEntity
  8
0
  6
Continuous
 62
     7
370
    30
100
AcDbLine
 10
146.8524562297
 20
414.1942003731
 30
0.0
 11
146.8524562297
 21
430.1942003731
 31
0.0
  0
ARC
  5
572
330
1F
100
AcDbEntity
  8
0
  6
Continuous
 62
     7
370
    30
100
AcDbCircle
 10
147.8524562297
 20
414.1942003731
 30
0.0
 40
1.000000000000028
100
AcDbArc
 50
180.0
 51
270.0
  0
LINE
  5
573
330
1F
100
AcDbEntity
  8
0
  6
Continuous
 62
     7
370
    30
100
AcDbLine
 10
150.3540298561
 20
413.1942003731
 30
0.0
 11
147.8524562297
 21
413.1942003731
 31
0.0
  0
LINE
  5
574
330
1F
100
AcDbEntity
  8
0
  6
Continuous
 62
     7
370
    30
100
AcDbLine
 10
252.1870455165
 20
418.9942003731
 30
0.0
 11
243.1178669429
 21
418.9942003731
 31
0.0
  0
LINE
  5
575
330
1F
100
AcDbEntity
  8
0
  6
Continuous
 62
     7
370
    30
100
AcDbLine
 10
243.1178669429
 20
425.3942003731
 30
0.0
 11
252.1870455165
 21
425.3942003731
 31
0.0
  0
CIRCLE
  5
576
330
1F
100
AcDbEntity
  8
0
  6
Continuous
 62
     7
370
    30
100
AcDbCircle
 10
222.2524562297
 20
422.1942003731
 30
0.0
 40
3.299999999999955
  0
CIRCLE
  5
577
330
1F
100
AcDbEntity
  8
0
  6
Continuous
 62
     7
370
    30
100
AcDbCircle
 10
196.8524562297
 20
422.1942003731
 30
0.0
 40
3.299999999999983
  0
CIRCLE
  5
578
330
1F
100
AcDbEntity
  8
0
  6
Continuous
 62
     7
370
    30
100
AcDbCircle
 10
171.4524562297
 20
422.1942003731
 30
0.0
 40
3.174999999999983
  0
DIMENSION
  5
579
330
1F
100
AcDbEntity
  8
DIM
100
AcDbDimension
  2
_D_28
 10
196.8524562297
 20
395.6942003731
 30
0.0
 11
184.1524562297
 21
395.6942003731
 31
0.0
 70
   160
  1
<>
 71
     2
 42
-1.0
  3
SLDDIMSTYLE0
100
AcDbAlignedDimension
 13
171.4524562297
 23
415.6442003731
 33
0.0
 14
196.8524562297
 24
415.6442003731
 34
0.0
100
AcDbRotatedDimension
  0
DIMENSION
  5
583
330
1F
100
AcDbEntity
  8
DIM
100
AcDbDimension
  2
_D_29
 10
222.2524562297
 20
395.6942003731
 30
0.0
 11
209.5524562297
 21
395.6942003731
 31
0.0
 70
   160
  1
<>
 71
     2
 42
-1.0
  3
SLDDIMSTYLE0
100
AcDbAlignedDimension
 13
196.8524562297
 23
415.6442003731
 33
0.0
 14
222.2524562297
 24
415.6442003731
 34
0.0
100
AcDbRotatedDimension
  0
DIMENSION
  5
58D
330
1F
100
AcDbEntity
  8
DIM
100
AcDbDimension
  2
_D_30
 10
247.6524562297
 20
395.6942003731
 30
0.0
 11
234.9524562297
 21
395.6942003731
 31
0.0
 70
   160
  1
<>
 71
     2
 42
-1.0
  3
SLDDIMSTYLE0
100
AcDbAlignedDimension
 13
222.2524562297
 23
415.6442003731
 33
0.0
 14
247.6524562297
 24
415.6442003731
 34
0.0
100
AcDbRotatedDimension
  0
DIMENSION
  5
597
330
1F
100
AcDbEntity
  8
DIM
100
AcDbDimension
  2
_D_31
 10
496.8524562297
 20
395.6942003731
 30
0.0
 11
372.2524562297
 21
395.6942003731
 31
0.0
 70
   160
  1
<>
 71
     2
 42
-1.0
  3
SLDDIMSTYLE0
100
AcDbAlignedDimension
 13
247.6524562297
 23
415.6442003731
 33
0.0
 14
496.8524562297
 24
414.1942003731
 34
0.0
100
AcDbRotatedDimension
  0
DIMENSION
  5
5A1
330
1F
100
AcDbEntity
  8
DIM
100
AcDbDimension
  2
_D_32
 10
496.8524562297
 20
448.6942003731
 30
0.0
 11
484.1524562297
 21
448.6942003731
 31
0.0
 70
   160
  1
<>
 71
     2
 42
-1.0
  3
SLDDIMSTYLE0
100
AcDbAlignedDimension
 13
471.4524562297
 23
425.7469003731
 33
0.0
 14
496.8524562297
 24
430.1942003731
 34
0.0
100
AcDbRotatedDimension
  0
DIMENSION
  5
5AB
330
1F
100
AcDbEntity
  8
DIM
100
AcDbDimension
  2
_D_33
 10
471.4524562297
 20
448.6942003731
 30
0.0
 11
458.7524562297
 21
448.6942003731
 31
0.0
 70
   160
  1
<>
 71
     2
 42
-1.0
  3
SLDDIMSTYLE0
100
AcDbAlignedDimension
 13
446.0524562297
 23
425.7469003731
 33
0.0
 14
471.4524562297
 24
425.7469003731
 34
0.0
100
AcDbRotatedDimension
  0
DIMENSION
  5
5B5
330
1F
100
AcDbEntity
  8
DIM
100
AcDbDimension
  2
_D_34
 10
514.3524562297
 20
413.1942003731
 30
0.0
 11
514.3524562297
 21
417.6942003731
 31
0.0
 70
   160
  1
<>
 71
     2
 42
-1.0
  3
SLDDIMSTYLE2
100
AcDbAlignedDimension
 13
475.0051562297
 23
422.1942003731
 33
0.0
 14
495.8524562297
 24
413.1942003731
 34
0.0
 50
90.0
100
AcDbRotatedDimension
  0
INSERT
  5
5C7
330
1F
100
AcDbEntity
  8
DIM
100
AcDbBlockReference
  2
SW_NOTE_6
 10
286.9002890173
 20
447.333093022
 30
0.0
  0
LEADER
  5
5C8
330
1F
100
AcDbEntity
  8
DIM
100
AcDbLeader
  3
SLDDIMSTYLE3
 76
     2
 10
251.8220396304
 20
425.857132841
 30
0.0
 10
286.9002890173
 20
447.333093022
 30
0.0
  0
INSERT
  5
5CF
330
1F
100
AcDbEntity
  8
DIM
100
AcDbBlockReference
  2
SW_NOTE_7
 10
411.2355074471
 20
447.044075681
 30
0.0
  0
LEADER
  5
5D0
330
1F
100
AcDbEntity
  8
DIM
100
AcDbLeader
  3
SLDDIMSTYLE3
 76
     2
 10
444.6241819335
 20
424.3099295204
 30
0.0
 10
411.2355074471
 20
447.044075681
 30
0.0
  0
INSERT
  5
5DC
330
1F
100
AcDbEntity
  8
DIM
100
AcDbBlockReference
  2
SW_CENTERMARKSYMBOL_16
 10
171.4524562297
 20
422.1942003731
 30
0.0
  0
INSERT
  5
5E8
330
1F
100
AcDbEntity
  8
DIM
100
AcDbBlockReference
  2
SW_CENTERMARKSYMBOL_17
 10
196.8524562297
 20
422.1942003731
 30
0.0
  0
INSERT
  5
5F4
330
1F
100
AcDbEntity
  8
DIM
100
AcDbBlockReference
  2
SW_CENTERMARKSYMBOL_18
 10
222.2524562297
 20
422.1942003731
 30
0.0
  0
INSERT
  5
600
330
1F
100
AcDbEntity
  8
DIM
100
AcDbBlockReference
  2
SW_CENTERMARKSYMBOL_19
 10
247.6524562297
 20
422.1942003731
 30
0.0
  0
INSERT
  5
60C
330
1F
100
AcDbEntity
  8
DIM
100
AcDbBlockReference
  2
SW_CENTERMARKSYMBOL_20
 10
446.0524562297
 20
422.1942003731
 30
0.0
  0
INSERT
  5
618
330
1F
100
AcDbEntity
  8
DIM
100
AcDbBlockReference
  2
SW_CENTERMARKSYMBOL_21
 10
471.4524562297
 20
422.1942003731
 30
0.0
  0
ENDSEC
  0
SECTION
  2
OBJECTS
  0
DICTIONARY
  5
C
330
0
100
AcDbDictionary
281
     1
  3
ACAD_GROUP
350
D
  3
ACAD_LAYOUT
350
1A
  3
ACAD_MLINESTYLE
350
17
  3
ACAD_PLOTSETTINGS
350
19
  3
ACAD_PLOTSTYLENAME
350
E
  3
ACAD_SCALELIST
350
47
  0
DICTIONARY
  5
D
102
{ACAD_REACTORS
330
C
102
}
330
C
100
AcDbDictionary
281
     1
  0
DICTIONARY
  5
1A
102
{ACAD_REACTORS
330
C
102
}
330
C
100
AcDbDictionary
281
     1
  3
Layout1
350
1E
  3
Layout2
350
26
  3
Model
350
22
  0
DICTIONARY
  5
17
102
{ACAD_REACTORS
330
C
102
}
330
C
100
AcDbDictionary
281
     1
  3
Standard
350
18
  0
DICTIONARY
  5
19
102
{ACAD_REACTORS
330
C
102
}
330
C
100
AcDbDictionary
281
     1
  0
ACDBDICTIONARYWDFLT
  5
E
102
{ACAD_REACTORS
330
C
102
}
330
C
100
AcDbDictionary
281
     1
  3
Normal
350
F
100
AcDbDictionaryWithDefault
340
F
  0
DICTIONARY
  5
47
102
{ACAD_REACTORS
330
C
102
}
330
C
100
AcDbDictionary
281
     1
  3
A0
350
48
  3
A1
350
49
  3
A2
350
4A
  3
A3
350
4B
  3
A4
350
4C
  3
A5
350
4D
  3
A6
350
4E
  3
A7
350
4F
  3
A8
350
50
  3
A9
350
51
  3
B0
350
52
  3
B1
350
53
  3
B2
350
54
  3
B3
350
55
  3
B4
350
56
  3
B5
350
57
  3
B6
350
58
  3
B7
350
59
  3
B8
350
5A
  3
B9
350
5B
  3
C0
350
5C
  3
C1
350
5D
  3
C2
350
5E
  3
C3
350
5F
  3
C4
350
60
  3
C5
350
61
  3
C6
350
62
  3
C7
350
63
  3
C8
350
64
  3
C9
350
65
  3
D0
350
66
  3
D1
350
67
  3
D2
350
68
  0
LAYOUT
  5
1E
102
{ACAD_REACTORS
330
1A
102
}
330
1A
100
AcDbPlotSettings
  1

  2
none_device
  4

  6

 40
0.0
 41
0.0
 42
0.0
 43
0.0
 44
0.0
 45
0.0
 46
0.0
 47
0.0
 48
0.0
 49
0.0
140
0.0
141
0.0
142
1.0
143
1.0
 70
   688
 72
     1
 73
     0
 74
     5
  7

 75
    16
147
1.0
148
0.0
149
0.0
100
AcDbLayout
  1
Layout1
 70
     1
 71
     1
 10
0.0
 20
0.0
 11
420.0
 21
297.0
 12
0.0
 22
0.0
 32
0.0
 14
1.0000000000E+20
 24
1.0000000000E+20
 34
1.0000000000E+20
 15
-1.0000000000E+20
 25
-1.0000000000E+20
 35
-1.0000000000E+20
146
0.0
 13
0.0
 23
0.0
 33
0.0
 16
1.0
 26
0.0
 36
0.0
 17
0.0
 27
1.0
 37
0.0
 76
     0
330
1B
  0
LAYOUT
  5
26
102
{ACAD_REACTORS
330
1A
102
}
330
1A
100
AcDbPlotSettings
  1

  2
none_device
  4

  6

 40
0.0
 41
0.0
 42
0.0
 43
0.0
 44
0.0
 45
0.0
 46
0.0
 47
0.0
 48
0.0
 49
0.0
140
0.0
141
0.0
142
1.0
143
1.0
 70
   688
 72
     1
 73
     0
 74
     5
  7

 75
    16
147
1.0
148
0.0
149
0.0
100
AcDbLayout
  1
Layout2
 70
     1
 71
     2
 10
0.0
 20
0.0
 11
0.0
 21
0.0
 12
0.0
 22
0.0
 32
0.0
 14
0.0
 24
0.0
 34
0.0
 15
0.0
 25
0.0
 35
0.0
146
0.0
 13
0.0
 23
0.0
 33
0.0
 16
1.0
 26
0.0
 36
0.0
 17
0.0
 27
1.0
 37
0.0
 76
     0
330
23
  0
LAYOUT
  5
22
102
{ACAD_REACTORS
330
1A
102
}
330
1A
100
AcDbPlotSettings
  1

  2
none_device
  4
Letter_(8.50_x_11.00_Inches)
  6

 40
6.35
 41
6.35
 42
6.35000508
 43
6.35000508
 44
215.9
 45
279.4
 46
0.0
 47
0.0
 48
0.0
 49
0.0
140
0.0
141
0.0
142
1.0
143
1.0
 70
  1712
 72
     1
 73
     0
 74
     0
  7

 75
     0
147
1.0
148
0.0
149
0.0
100
AcDbLayout
  1
Model
 70
     1
 71
     0
 10
0.0
 20
0.0
 11
742.5
 21
525.0
 12
0.0
 22
0.0
 32
0.0
 14
0.0
 24
0.0
 34
0.0
 15
742.5
 25
525.0
 35
0.0
146
0.0
 13
0.0
 23
0.0
 33
0.0
 16
1.0
 26
0.0
 36
0.0
 17
0.0
 27
1.0
 37
0.0
 76
     0
330
1F
331
29
  0
MLINESTYLE
  5
18
102
{ACAD_REACTORS
330
17
102
}
330
17
100
AcDbMlineStyle
  2
Standard
 70
     0
  3

 62
   256
 51
90.0
 52
90.0
 71
     2
 49
0.5
 62
   256
  6
BYLAYER
 49
-0.5
 62
   256
  6
BYLAYER
  0
ACDBPLACEHOLDER
  5
F
102
{ACAD_REACTORS
330
E
102
}
330
E
  0
SCALE
  5
48
102
{ACAD_REACTORS
330
47
102
}
330
47
100
AcDbScale
 70
     0
300
1:1
140
1.0
141
1.0
290
     1
  0
SCALE
  5
49
102
{ACAD_REACTORS
330
47
102
}
330
47
100
AcDbScale
 70
     0
300
1:2
140
1.0
141
2.0
290
     0
  0
SCALE
  5
4A
102
{ACAD_REACTORS
330
47
102
}
330
47
100
AcDbScale
 70
     0
300
1:4
140
1.0
141
4.0
290
     0
  0
SCALE
  5
4B
102
{ACAD_REACTORS
330
47
102
}
330
47
100
AcDbScale
 70
     0
300
1:5
140
1.0
141
5.0
290
     0
  0
SCALE
  5
4C
102
{ACAD_REACTORS
330
47
102
}
330
47
100
AcDbScale
 70
     0
300
1:8
140
1.0
141
8.0
290
     0
  0
SCALE
  5
4D
102
{ACAD_REACTORS
330
47
102
}
330
47
100
AcDbScale
 70
     0
300
1:10
140
1.0
141
10.0
290
     0
  0
SCALE
  5
4E
102
{ACAD_REACTORS
330
47
102
}
330
47
100
AcDbScale
 70
     0
300
1:16
140
1.0
141
16.0
290
     0
  0
SCALE
  5
4F
102
{ACAD_REACTORS
330
47
102
}
330
47
100
AcDbScale
 70
     0
300
1:20
140
1.0
141
20.0
290
     0
  0
SCALE
  5
50
102
{ACAD_REACTORS
330
47
102
}
330
47
100
AcDbScale
 70
     0
300
1:30
140
1.0
141
30.0
290
     0
  0
SCALE
  5
51
102
{ACAD_REACTORS
330
47
102
}
330
47
100
AcDbScale
 70
     0
300
1:40
140
1.0
141
40.0
290
     0
  0
SCALE
  5
52
102
{ACAD_REACTORS
330
47
102
}
330
47
100
AcDbScale
 70
     0
300
1:50
140
1.0
141
50.0
290
     0
  0
SCALE
  5
53
102
{ACAD_REACTORS
330
47
102
}
330
47
100
AcDbScale
 70
     0
300
1:100
140
1.0
141
100.0
290
     0
  0
SCALE
  5
54
102
{ACAD_REACTORS
330
47
102
}
330
47
100
AcDbScale
 70
     0
300
2:1
140
2.0
141
1.0
290
     0
  0
SCALE
  5
55
102
{ACAD_REACTORS
330
47
102
}
330
47
100
AcDbScale
 70
     0
300
4:1
140
4.0
141
1.0
290
     0
  0
SCALE
  5
56
102
{ACAD_REACTORS
330
47
102
}
330
47
100
AcDbScale
 70
     0
300
8:1
140
8.0
141
1.0
290
     0
  0
SCALE
  5
57
102
{ACAD_REACTORS
330
47
102
}
330
47
100
AcDbScale
 70
     0
300
10:1
140
10.0
141
1.0
290
     0
  0
SCALE
  5
58
102
{ACAD_REACTORS
330
47
102
}
330
47
100
AcDbScale
 70
     0
300
100:1
140
100.0
141
1.0
290
     0
  0
SCALE
  5
59
102
{ACAD_REACTORS
330
47
102
}
330
47
100
AcDbScale
 70
     0
300
1/128" = 1'-0"
140
0.0078125
141
12.0
290
     0
  0
SCALE
  5
5A
102
{ACAD_REACTORS
330
47
102
}
330
47
100
AcDbScale
 70
     0
300
1/64" = 1'-0"
140
0.015625
141
12.0
290
     0
  0
SCALE
  5
5B
102
{ACAD_REACTORS
330
47
102
}
330
47
100
AcDbScale
 70
     0
300
1/32" = 1'-0"
140
0.03125
141
12.0
290
     0
  0
SCALE
  5
5C
102
{ACAD_REACTORS
330
47
102
}
330
47
100
AcDbScale
 70
     0
300
1/16" = 1'-0"
140
0.0625
141
12.0
290
     0
  0
SCALE
  5
5D
102
{ACAD_REACTORS
330
47
102
}
330
47
100
AcDbScale
 70
     0
300
3/32" = 1'-0"
140
0.09375
141
12.0
290
     0
  0
SCALE
  5
5E
102
{ACAD_REACTORS
330
47
102
}
330
47
100
AcDbScale
 70
     0
300
1/8" = 1'-0"
140
0.125
141
12.0
290
     0
  0
SCALE
  5
5F
102
{ACAD_REACTORS
330
47
102
}
330
47
100
AcDbScale
 70
     0
300
3/16" = 1'-0"
140
0.1875
141
12.0
290
     0
  0
SCALE
  5
60
102
{ACAD_REACTORS
330
47
102
}
330
47
100
AcDbScale
 70
     0
300
1/4" = 1'-0"
140
0.25
141
12.0
290
     0
  0
SCALE
  5
61
102
{ACAD_REACTORS
330
47
102
}
330
47
100
AcDbScale
 70
     0
300
3/8" = 1'-0"
140
0.375
141
12.0
290
     0
  0
SCALE
  5
62
102
{ACAD_REACTORS
330
47
102
}
330
47
100
AcDbScale
 70
     0
300
1/2" = 1'-0"
140
0.5
141
12.0
290
     0
  0
SCALE
  5
63
102
{ACAD_REACTORS
330
47
102
}
330
47
100
AcDbScale
 70
     0
300
3/4" = 1'-0"
140
0.75
141
12.0
290
     0
  0
SCALE
  5
64
102
{ACAD_REACTORS
330
47
102
}
330
47
100
AcDbScale
 70
     0
300
1" = 1'-0"
140
1.0
141
12.0
290
     0
  0
SCALE
  5
65
102
{ACAD_REACTORS
330
47
102
}
330
47
100
AcDbScale
 70
     0
300
1-1/2" = 1'-0"
140
1.5
141
12.0
290
     0
  0
SCALE
  5
66
102
{ACAD_REACTORS
330
47
102
}
330
47
100
AcDbScale
 70
     0
300
3" = 1'-0"
140
3.0
141
12.0
290
     0
  0
SCALE
  5
67
102
{ACAD_REACTORS
330
47
102
}
330
47
100
AcDbScale
 70
     0
300
6" = 1'-0"
140
6.0
141
12.0
290
     0
  0
SCALE
  5
68
102
{ACAD_REACTORS
330
47
102
}
330
47
100
AcDbScale
 70
     0
300
1'-0" = 1'-0"
140
12.0
141
12.0
290
     0
  0
ENDSEC
  0
EOF
