  0
SECTION
  2
HEADER
  9
$ACADVER
  1
AC1015
  9
$ACADMAINTVER
 70
     6
  9
$DWGCODEPAGE
  3
ANSI_950
  9
$INSBASE
 10
0.0
 20
0.0
 30
0.0
  9
$EXTMIN
 10
0.0
 20
0.0
 30
0.0
  9
$EXTMAX
 10
742.5
 20
525.0
 30
0.0
  9
$LIMMIN
 10
0.0
 20
0.0
  9
$LIMMAX
 10
742.5
 20
525.0
  9
$ORTHOMODE
 70
     0
  9
$REGENMODE
 70
     1
  9
$FILLMODE
 70
     1
  9
$QTEXTMODE
 70
     0
  9
$MIRRTEXT
 70
     1
  9
$LTSCALE
 40
2.5
  9
$ATTMODE
 70
     1
  9
$TEXTSIZE
 40
7.9375
  9
$TRACEWID
 40
1.0
  9
$TEXTSTYLE
  7
Standard
  9
$CLAYER
  8
0
  9
$CELTYPE
  6
ByLayer
  9
$CECOLOR
 62
   256
  9
$CELTSCALE
 40
1.0
  9
$DISPSILH
 70
     0
  9
$DIMSCALE
 40
1.0
  9
$DIMASZ
 40
5.0
  9
$DIMEXO
 40
2.5
  9
$DIMDLI
 40
3.75
  9
$DIMRND
 40
0.0
  9
$DIMDLE
 40
0.0
  9
$DIMEXE
 40
2.5
  9
$DIMTP
 40
0.0
  9
$DIMTM
 40
0.0
  9
$DIMTXT
 40
7.9375
  9
$DIMCEN
 40
2.5
  9
$DIMTSZ
 40
0.0
  9
$DIMTOL
 70
     0
  9
$DIMLIM
 70
     0
  9
$DIMTIH
 70
     1
  9
$DIMTOH
 70
     1
  9
$DIMSE1
 70
     0
  9
$DIMSE2
 70
     0
  9
$DIMTAD
 70
     1
  9
$DIMZIN
 70
     0
  9
$DIMBLK
  1

  9
$DIMASO
 70
     1
  9
$DIMSHO
 70
     1
  9
$DIMPOST
  1

  9
$DIMAPOST
  1

  9
$DIMALT
 70
     0
  9
$DIMALTD
 70
     3
  9
$DIMALTF
 40
0.0393700787
  9
$DIMLFAC
 40
1.0
  9
$DIMTOFL
 70
     1
  9
$DIMTVP
 40
0.0
  9
$DIMTIX
 70
     0
  9
$DIMSOXD
 70
     0
  9
$DIMSAH
 70
     0
  9
$DIMBLK1
  1

  9
$DIMBLK2
  1

  9
$DIMSTYLE
  2
ISO-25
  9
$DIMCLRD
 70
     0
  9
$DIMCLRE
 70
     0
  9
$DIMCLRT
 70
     0
  9
$DIMTFAC
 40
1.0
  9
$DIMGAP
 40
2.5
  9
$DIMJUST
 70
     0
  9
$DIMSD1
 70
     0
  9
$DIMSD2
 70
     0
  9
$DIMTOLJ
 70
     0
  9
$DIMTZIN
 70
     0
  9
$DIMALTZ
 70
     0
  9
$DIMALTTZ
 70
     0
  9
$DIMUPT
 70
     0
  9
$DIMDEC
 70
     2
  9
$DIMTDEC
 70
     2
  9
$DIMALTU
 70
     2
  9
$DIMALTTD
 70
     3
  9
$DIMTXSTY
  7
Standard
  9
$DIMAUNIT
 70
     0
  9
$DIMADEC
 70
     2
  9
$DIMALTRND
 40
0.0
  9
$DIMAZIN
 70
     0
  9
$DIMDSEP
 70
    44
  9
$DIMATFIT
 70
     3
  9
$DIMFRAC
 70
     0
  9
$DIMLDRBLK
  1

  9
$DIMLUNIT
 70
     2
  9
$DIMLWD
 70
    -2
  9
$DIMLWE
 70
    -2
  9
$DIMTMOVE
 70
     0
  9
$LUNITS
 70
     2
  9
$LUPREC
 70
     2
  9
$SKETCHINC
 40
1.0
  9
$FILLETRAD
 40
10.0
  9
$AUNITS
 70
     0
  9
$AUPREC
 70
     2
  9
$MENU
  1
.
  9
$ELEVATION
 40
0.0
  9
$PELEVATION
 40
0.0
  9
$THICKNESS
 40
0.0
  9
$LIMCHECK
 70
     0
  9
$CHAMFERA
 40
0.0
  9
$CHAMFERB
 40
0.0
  9
$CHAMFERC
 40
0.0
  9
$CHAMFERD
 40
0.0
  9
$SKPOLY
 70
     0
  9
$TDCREATE
 40
2458159.396247743
  9
$TDUCREATE
 40
2458159.06291441
  9
$TDUPDATE
 40
2458159.396253518
  9
$TDUUPDATE
 40
2458159.062920185
  9
$TDINDWG
 40
0.0000000116
  9
$TDUSRTIMER
 40
0.0000000116
  9
$USRTIMER
 70
     1
  9
$ANGBASE
 50
0.0
  9
$ANGDIR
 70
     0
  9
$PDMODE
 70
     0
  9
$PDSIZE
 40
-1.0
  9
$PLINEWID
 40
0.0
  9
$SPLFRAME
 70
     0
  9
$SPLINETYPE
 70
     6
  9
$SPLINESEGS
 70
     8
  9
$HANDSEED
  5
538
  9
$SURFTAB1
 70
     6
  9
$SURFTAB2
 70
     6
  9
$SURFTYPE
 70
     6
  9
$SURFU
 70
     6
  9
$SURFV
 70
     6
  9
$UCSBASE
  2

  9
$UCSNAME
  2

  9
$UCSORG
 10
0.0
 20
0.0
 30
0.0
  9
$UCSXDIR
 10
1.0
 20
0.0
 30
0.0
  9
$UCSYDIR
 10
0.0
 20
1.0
 30
0.0
  9
$UCSORTHOREF
  2

  9
$UCSORTHOVIEW
 70
     0
  9
$UCSORGTOP
 10
0.0
 20
0.0
 30
0.0
  9
$UCSORGBOTTOM
 10
0.0
 20
0.0
 30
0.0
  9
$UCSORGLEFT
 10
0.0
 20
0.0
 30
0.0
  9
$UCSORGRIGHT
 10
0.0
 20
0.0
 30
0.0
  9
$UCSORGFRONT
 10
0.0
 20
0.0
 30
0.0
  9
$UCSORGBACK
 10
0.0
 20
0.0
 30
0.0
  9
$PUCSBASE
  2

  9
$PUCSNAME
  2

  9
$PUCSORG
 10
0.0
 20
0.0
 30
0.0
  9
$PUCSXDIR
 10
1.0
 20
0.0
 30
0.0
  9
$PUCSYDIR
 10
0.0
 20
1.0
 30
0.0
  9
$PUCSORTHOREF
  2

  9
$PUCSORTHOVIEW
 70
     0
  9
$PUCSORGTOP
 10
0.0
 20
0.0
 30
0.0
  9
$PUCSORGBOTTOM
 10
0.0
 20
0.0
 30
0.0
  9
$PUCSORGLEFT
 10
0.0
 20
0.0
 30
0.0
  9
$PUCSORGRIGHT
 10
0.0
 20
0.0
 30
0.0
  9
$PUCSORGFRONT
 10
0.0
 20
0.0
 30
0.0
  9
$PUCSORGBACK
 10
0.0
 20
0.0
 30
0.0
  9
$USERI1
 70
     0
  9
$USERI2
 70
     0
  9
$USERI3
 70
     0
  9
$USERI4
 70
     0
  9
$USERI5
 70
     0
  9
$USERR1
 40
0.0
  9
$USERR2
 40
0.0
  9
$USERR3
 40
0.0
  9
$USERR4
 40
0.0
  9
$USERR5
 40
0.0
  9
$WORLDVIEW
 70
     1
  9
$SHADEDGE
 70
     3
  9
$SHADEDIF
 70
    70
  9
$TILEMODE
 70
     1
  9
$MAXACTVP
 70
    64
  9
$PINSBASE
 10
0.0
 20
0.0
 30
0.0
  9
$PLIMCHECK
 70
     0
  9
$PEXTMIN
 10
1.0000000000E+20
 20
1.0000000000E+20
 30
1.0000000000E+20
  9
$PEXTMAX
 10
-1.0000000000E+20
 20
-1.0000000000E+20
 30
-1.0000000000E+20
  9
$PLIMMIN
 10
0.0
 20
0.0
  9
$PLIMMAX
 10
420.0
 20
297.0
  9
$UNITMODE
 70
     0
  9
$VISRETAIN
 70
     1
  9
$PLINEGEN
 70
     0
  9
$PSLTSCALE
 70
     1
  9
$TREEDEPTH
 70
  3020
  9
$CMLSTYLE
  2
Standard
  9
$CMLJUST
 70
     0
  9
$CMLSCALE
 40
20.0
  9
$PROXYGRAPHICS
 70
     1
  9
$MEASUREMENT
 70
     1
  9
$CELWEIGHT
370
    -1
  9
$ENDCAPS
280
     0
  9
$JOINSTYLE
280
     0
  9
$LWDISPLAY
290
     1
  9
$INSUNITS
 70
     4
  9
$HYPERLINKBASE
  1

  9
$STYLESHEET
  1

  9
$XEDIT
290
     1
  9
$CEPSNTYPE
380
     0
  9
$PSTYLEMODE
290
     1
  9
$FINGERPRINTGUID
  2
{8AE31EDF-7EC0-4C1A-9D84-35C829A30F3A}
  9
$VERSIONGUID
  2
{FAEB1C32-E019-11D5-929B-00C0DF256EC4}
  9
$EXTNAMES
290
     1
  9
$PSVPSCALE
 40
0.0
  9
$OLESTARTUP
290
     0
  0
ENDSEC
  0
SECTION
  2
CLASSES
  0
CLASS
  1
ACDBDICTIONARYWDFLT
  2
AcDbDictionaryWithDefault
  3
ObjectDBX Classes
 90
        0
280
     0
281
     0
  0
CLASS
  1
VISUALSTYLE
  2
AcDbVisualStyle
  3
ObjectDBX Classes
 90
     4095
280
     0
281
     0
  0
CLASS
  1
MATERIAL
  2
AcDbMaterial
  3
ObjectDBX Classes
 90
     1153
280
     0
281
     0
  0
CLASS
  1
SCALE
  2
AcDbScale
  3
ObjectDBX Classes
 90
     1153
280
     0
281
     0
  0
CLASS
  1
TABLESTYLE
  2
AcDbTableStyle
  3
ObjectDBX Classes
 90
     4095
280
     0
281
     0
  0
CLASS
  1
MLEADERSTYLE
  2
AcDbMLeaderStyle
  3
ACDB_MLEADERSTYLE_CLASS
 90
     4095
280
     0
281
     0
  0
CLASS
  1
SUN
  2
AcDbSun
  3
SCENEOE
 90
     1153
280
     0
281
     0
  0
CLASS
  1
ACDBPLACEHOLDER
  2
AcDbPlaceHolder
  3
ObjectDBX Classes
 90
        0
280
     0
281
     0
  0
CLASS
  1
LAYOUT
  2
AcDbLayout
  3
ObjectDBX Classes
 90
        0
280
     0
281
     0
  0
ENDSEC
  0
SECTION
  2
TABLES
  0
TABLE
  2
VPORT
  5
8
330
0
100
AcDbSymbolTable
 70
     1
  0
VPORT
  5
29
330
8
100
AcDbSymbolTableRecord
100
AcDbViewportTableRecord
  2
*Active
 70
     0
 10
0.0
 20
0.0
 11
1.0
 21
1.0
 12
371.25
 22
262.5
 13
0.0
 23
0.0
 14
10.0
 24
10.0
 15
10.0
 25
10.0
 16
0.0
 26
0.0
 36
1.0
 17
0.0
 27
0.0
 37
0.0
 40
525.0
 41
1.4142857143
 42
50.0
 43
0.0
 44
0.0
 50
0.0
 51
0.0
 71
     0
 72
  2000
 73
     1
 74
     3
 75
     0
 76
     0
 77
     0
 78
     0
281
     0
 65
     1
110
0.0
120
0.0
130
0.0
111
1.0
121
0.0
131
0.0
112
0.0
122
1.0
132
0.0
 79
     0
146
0.0
  0
ENDTAB
  0
TABLE
  2
LTYPE
  5
5
330
0
100
AcDbSymbolTable
 70
     6
  0
LTYPE
  5
14
330
5
100
AcDbSymbolTableRecord
100
AcDbLinetypeTableRecord
  2
ByBlock
 70
     0
  3

 72
    65
 73
     0
 40
0.0
  0
LTYPE
  5
15
330
5
100
AcDbSymbolTableRecord
100
AcDbLinetypeTableRecord
  2
ByLayer
 70
     0
  3

 72
    65
 73
     0
 40
0.0
  0
LTYPE
  5
16
330
5
100
AcDbSymbolTableRecord
100
AcDbLinetypeTableRecord
  2
Continuous
 70
     0
  3
Solid line
 72
    65
 73
     0
 40
0.0
  0
LTYPE
  5
6E
330
5
100
AcDbSymbolTableRecord
100
AcDbLinetypeTableRecord
  2
HIDDEN
 70
     0
  3
Hidden __ __ __ __ __ __ __ __ __ __ __ __ __ __
 72
    65
 73
     2
 40
1.905
 49
1.27
 74
     0
 49
-0.635
 74
     0
  0
LTYPE
  5
6F
330
5
100
AcDbSymbolTableRecord
100
AcDbLinetypeTableRecord
  2
PHANTOM
 70
     0
  3
Phantom ______  __  __  ______  __  __  ______
 72
    65
 73
     6
 40
12.7
 49
6.35
 74
     0
 49
-1.27
 74
     0
 49
1.27
 74
     0
 49
-1.27
 74
     0
 49
1.27
 74
     0
 49
-1.27
 74
     0
  0
LTYPE
  5
70
330
5
100
AcDbSymbolTableRecord
100
AcDbLinetypeTableRecord
  2
CENTER
 70
     0
  3
Center ____ _ ____ _ ____ _ ____ _ ____ _ ____
 72
    65
 73
     4
 40
10.16
 49
6.35
 74
     0
 49
-1.27
 74
     0
 49
1.27
 74
     0
 49
-1.27
 74
     0
  0
LTYPE
  5
71
330
5
100
AcDbSymbolTableRecord
100
AcDbLinetypeTableRecord
  2
CENTERX2
 70
     0
  3
Center (2x) ________  __  ________  __  _____
 72
    65
 73
     4
 40
20.32
 49
12.7
 74
     0
 49
-2.54
 74
     0
 49
2.54
 74
     0
 49
-2.54
 74
     0
  0
LTYPE
  5
72
330
5
100
AcDbSymbolTableRecord
100
AcDbLinetypeTableRecord
  2
DOT2
 70
     0
  3
Dot (.5x) ........................................
 72
    65
 73
     2
 40
0.635
 49
0.0
 74
     0
 49
-0.635
 74
     0
  0
ENDTAB
  0
TABLE
  2
LAYER
  5
2
330
0
100
AcDbSymbolTable
 70
    10
  0
LAYER
  5
10
330
2
100
AcDbSymbolTableRecord
100
AcDbLayerTableRecord
  2
0
 70
     0
 62
     7
  6
Continuous
370
    -3
390
F
  0
LAYER
  5
73
330
2
100
AcDbSymbolTableRecord
100
AcDbLayerTableRecord
  2
SLD-0
 70
     0
 62
     7
  6
Continuous
370
    15
390
F
  0
LAYER
  5
74
330
2
100
AcDbSymbolTableRecord
100
AcDbLayerTableRecord
  2
輪廓線
 70
     0
 62
   219
  6
Continuous
370
    15
390
F
  0
LAYER
  5
75
330
2
100
AcDbSymbolTableRecord
100
AcDbLayerTableRecord
  2
DIM
 70
     0
 62
     7
  6
Continuous
370
    -3
390
F
  0
LAYER
  5
76
330
2
100
AcDbSymbolTableRecord
100
AcDbLayerTableRecord
  2
中心線
 70
     0
 62
     7
  6
CENTERX2
370
    -3
390
F
  0
LAYER
  5
77
330
2
100
AcDbSymbolTableRecord
100
AcDbLayerTableRecord
  2
虛線
 70
     0
 62
     7
  6
HIDDEN
370
    -3
390
F
  0
LAYER
  5
78
330
2
100
AcDbSymbolTableRecord
100
AcDbLayerTableRecord
  2
SECTION
 70
     0
 62
     7
  6
PHANTOM
370
    15
390
F
  0
LAYER
  5
79
330
2
100
AcDbSymbolTableRecord
100
AcDbLayerTableRecord
  2
假想線
 70
     0
 62
     7
  6
PHANTOM
370
    -3
390
F
  0
LAYER
  5
7A
330
2
100
AcDbSymbolTableRecord
100
AcDbLayerTableRecord
  2
圖層_1
 70
     0
 62
   179
  6
Continuous
370
    -3
390
F
  0
LAYER
  5
7B
330
2
100
AcDbSymbolTableRecord
100
AcDbLayerTableRecord
  2
工作區域參考線
 70
     0
 62
   179
  6
Continuous
370
    -3
390
F
  0
ENDTAB
  0
TABLE
  2
STYLE
  5
3
330
0
100
AcDbSymbolTable
 70
     3
  0
STYLE
  5
11
330
3
100
AcDbSymbolTableRecord
100
AcDbTextStyleTableRecord
  2
Standard
 70
     0
 40
0.0
 41
1.0
 50
0.0
 71
     0
 42
7.9375
  3
txt
  4

  0
STYLE
  5
CC
330
3
100
AcDbSymbolTableRecord
100
AcDbTextStyleTableRecord
  2
SLDTEXTSTYLE0
 70
     0
 40
0.0
 41
0.605
 50
0.0
 71
     0
 42
7.9375
  3
TXT
  4

  0
STYLE
  5
103
330
3
100
AcDbSymbolTableRecord
100
AcDbTextStyleTableRecord
  2
SLDTEXTSTYLE1
 70
     0
 40
0.0
 41
0.7
 50
0.0
 71
     0
 42
7.9375
  3
TXT
  4

  0
ENDTAB
  0
TABLE
  2
VIEW
  5
6
330
0
100
AcDbSymbolTable
 70
     0
  0
ENDTAB
  0
TABLE
  2
UCS
  5
7
330
0
100
AcDbSymbolTable
 70
     0
  0
ENDTAB
  0
TABLE
  2
APPID
  5
9
330
0
100
AcDbSymbolTable
 70
     1
  0
APPID
  5
12
330
9
100
AcDbSymbolTableRecord
100
AcDbRegAppTableRecord
  2
ACAD
 70
     0
  0
ENDTAB
  0
TABLE
  2
DIMSTYLE
  5
A
330
0
100
AcDbSymbolTable
 70
     5
100
AcDbDimStyleTable
  0
DIMSTYLE
105
27
330
A
100
AcDbSymbolTableRecord
100
AcDbDimStyleTableRecord
  2
ISO-25
 70
     0
 41
2.5
 42
0.625
 43
3.75
 44
1.25
 73
     0
 74
     0
 77
     1
 78
     8
140
2.5
141
2.5
143
0.0393700787
147
0.625
171
     3
172
     1
178
     0
271
     2
272
     2
274
     3
278
    44
283
     0
284
     8
340
11
  0
DIMSTYLE
105
1DC
102
{ACAD_REACTORS
330
1DB
330
1E6
330
1F0
330
1FA
330
204
330
20E
330
218
330
25E
330
268
330
272
330
27C
330
286
330
290
330
29A
330
2A4
330
345
330
34F
330
359
330
363
330
377
330
416
330
465
330
46F
102
}
330
A
100
AcDbSymbolTableRecord
100
AcDbDimStyleTableRecord
  2
SLDDIMSTYLE0
 70
     0
 41
5.0
 44
0.0
 45
0.000000001
 73
     0
 74
     0
 77
     1
 78
    12
 79
     3
140
6.3562011719
147
1.589050293
173
     1
178
     0
271
     2
272
     2
276
     2
284
    12
340
103
  0
DIMSTYLE
105
223
102
{ACAD_REACTORS
330
222
102
}
330
A
100
AcDbSymbolTableRecord
100
AcDbDimStyleTableRecord
  2
SLDDIMSTYLE1
 70
     0
 41
5.0
 44
0.0
 73
     0
 74
     0
 77
     1
 78
    12
 79
     3
140
6.3562011719
144
2.5
147
1.589050293
173
     1
178
     0
179
     2
272
     2
276
     2
284
    12
340
103
  0
DIMSTYLE
105
234
330
A
100
AcDbSymbolTableRecord
100
AcDbDimStyleTableRecord
  2
SLDDIMSTYLE2
 70
     0
 41
5.0
 44
0.0
 45
0.000000001
146
5.0
147
0.0
173
     1
178
     0
271
     0
272
     0
276
     2
340
11
  0
DIMSTYLE
105
2AF
102
{ACAD_REACTORS
330
2AE
330
36D
330
381
330
40A
330
420
330
479
102
}
330
A
100
AcDbSymbolTableRecord
100
AcDbDimStyleTableRecord
  2
SLDDIMSTYLE3
 70
     0
 41
5.0
 44
0.0
 45
0.000000001
 73
     0
 74
     0
 77
     1
 78
    12
 79
     3
140
6.3562011719
147
1.589050293
172
     1
173
     1
178
     0
271
     2
272
     2
276
     2
284
    12
289
     0
340
103
  0
ENDTAB
  0
TABLE
  2
BLOCK_RECORD
  5
1
330
0
100
AcDbSymbolTable
 70
    59
  0
BLOCK_RECORD
  5
1F
330
1
100
AcDbSymbolTableRecord
100
AcDbBlockTableRecord
  2
*Model_Space
340
22
  0
BLOCK_RECORD
  5
1B
330
1
100
AcDbSymbolTableRecord
100
AcDbBlockTableRecord
  2
*Paper_Space
340
1E
  0
BLOCK_RECORD
  5
23
330
1
100
AcDbSymbolTableRecord
100
AcDbBlockTableRecord
  2
*Paper_Space0
340
26
  0
BLOCK_RECORD
  5
7C
330
1
100
AcDbSymbolTableRecord
100
AcDbBlockTableRecord
  2
圖塊6
340
0
102
{BLKREFS
331
CB
102
}
  0
BLOCK_RECORD
  5
CE
330
1
100
AcDbSymbolTableRecord
100
AcDbBlockTableRecord
  2
SW_NOTE_0
340
0
102
{BLKREFS
331
D4
102
}
  0
BLOCK_RECORD
  5
105
330
1
100
AcDbSymbolTableRecord
100
AcDbBlockTableRecord
  2
SW_NOTE_1
340
0
102
{BLKREFS
331
10A
102
}
  0
BLOCK_RECORD
  5
1DD
330
1
100
AcDbSymbolTableRecord
100
AcDbBlockTableRecord
  2
_D
340
0
  0
BLOCK_RECORD
  5
1E7
330
1
100
AcDbSymbolTableRecord
100
AcDbBlockTableRecord
  2
_D_1
340
0
  0
BLOCK_RECORD
  5
1F1
330
1
100
AcDbSymbolTableRecord
100
AcDbBlockTableRecord
  2
_D_2
340
0
  0
BLOCK_RECORD
  5
1FB
330
1
100
AcDbSymbolTableRecord
100
AcDbBlockTableRecord
  2
_D_3
340
0
  0
BLOCK_RECORD
  5
205
330
1
100
AcDbSymbolTableRecord
100
AcDbBlockTableRecord
  2
_D_4
340
0
  0
BLOCK_RECORD
  5
20F
330
1
100
AcDbSymbolTableRecord
100
AcDbBlockTableRecord
  2
_D_5
340
0
  0
BLOCK_RECORD
  5
219
330
1
100
AcDbSymbolTableRecord
100
AcDbBlockTableRecord
  2
_D_6
340
0
  0
BLOCK_RECORD
  5
224
330
1
100
AcDbSymbolTableRecord
100
AcDbBlockTableRecord
  2
_D_7
340
0
  0
BLOCK_RECORD
  5
22D
330
1
100
AcDbSymbolTableRecord
100
AcDbBlockTableRecord
  2
SW_NOTE_2
340
0
102
{BLKREFS
331
233
102
}
  0
BLOCK_RECORD
  5
236
330
1
100
AcDbSymbolTableRecord
100
AcDbBlockTableRecord
  2
SW_NOTE_3
340
0
102
{BLKREFS
331
23B
102
}
  0
BLOCK_RECORD
  5
25F
330
1
100
AcDbSymbolTableRecord
100
AcDbBlockTableRecord
  2
_D_8
340
0
  0
BLOCK_RECORD
  5
269
330
1
100
AcDbSymbolTableRecord
100
AcDbBlockTableRecord
  2
_D_9
340
0
  0
BLOCK_RECORD
  5
273
330
1
100
AcDbSymbolTableRecord
100
AcDbBlockTableRecord
  2
_D_10
340
0
  0
BLOCK_RECORD
  5
27D
330
1
100
AcDbSymbolTableRecord
100
AcDbBlockTableRecord
  2
_D_11
340
0
  0
BLOCK_RECORD
  5
287
330
1
100
AcDbSymbolTableRecord
100
AcDbBlockTableRecord
  2
_D_12
340
0
  0
BLOCK_RECORD
  5
291
330
1
100
AcDbSymbolTableRecord
100
AcDbBlockTableRecord
  2
_D_13
340
0
  0
BLOCK_RECORD
  5
29B
330
1
100
AcDbSymbolTableRecord
100
AcDbBlockTableRecord
  2
_D_14
340
0
  0
BLOCK_RECORD
  5
2A5
330
1
100
AcDbSymbolTableRecord
100
AcDbBlockTableRecord
  2
_D_15
340
0
  0
BLOCK_RECORD
  5
2B0
330
1
100
AcDbSymbolTableRecord
100
AcDbBlockTableRecord
  2
_D_16
340
0
  0
BLOCK_RECORD
  5
2BB
330
1
100
AcDbSymbolTableRecord
100
AcDbBlockTableRecord
  2
SW_NOTE_4
340
0
102
{BLKREFS
331
2C1
102
}
  0
BLOCK_RECORD
  5
2C3
330
1
100
AcDbSymbolTableRecord
100
AcDbBlockTableRecord
  2
SW_NOTE_5
340
0
102
{BLKREFS
331
2C9
102
}
  0
BLOCK_RECORD
  5
2CB
330
1
100
AcDbSymbolTableRecord
100
AcDbBlockTableRecord
  2
SW_CENTERMARKSYMBOL_0
340
0
102
{BLKREFS
331
2D6
102
}
  0
BLOCK_RECORD
  5
2D7
330
1
100
AcDbSymbolTableRecord
100
AcDbBlockTableRecord
  2
SW_CENTERMARKSYMBOL_1
340
0
102
{BLKREFS
331
2E2
102
}
  0
BLOCK_RECORD
  5
2E3
330
1
100
AcDbSymbolTableRecord
100
AcDbBlockTableRecord
  2
SW_CENTERMARKSYMBOL_2
340
0
102
{BLKREFS
331
2EE
102
}
  0
BLOCK_RECORD
  5
2EF
330
1
100
AcDbSymbolTableRecord
100
AcDbBlockTableRecord
  2
SW_CENTERMARKSYMBOL_3
340
0
102
{BLKREFS
331
2FA
102
}
  0
BLOCK_RECORD
  5
2FB
330
1
100
AcDbSymbolTableRecord
100
AcDbBlockTableRecord
  2
SW_CENTERMARKSYMBOL_4
340
0
102
{BLKREFS
331
306
102
}
  0
BLOCK_RECORD
  5
307
330
1
100
AcDbSymbolTableRecord
100
AcDbBlockTableRecord
  2
SW_CENTERMARKSYMBOL_5
340
0
102
{BLKREFS
331
312
102
}
  0
BLOCK_RECORD
  5
313
330
1
100
AcDbSymbolTableRecord
100
AcDbBlockTableRecord
  2
SW_CENTERMARKSYMBOL_6
340
0
102
{BLKREFS
331
31E
102
}
  0
BLOCK_RECORD
  5
31F
330
1
100
AcDbSymbolTableRecord
100
AcDbBlockTableRecord
  2
SW_CENTERMARKSYMBOL_7
340
0
102
{BLKREFS
331
32A
102
}
  0
BLOCK_RECORD
  5
346
330
1
100
AcDbSymbolTableRecord
100
AcDbBlockTableRecord
  2
_D_17
340
0
  0
BLOCK_RECORD
  5
350
330
1
100
AcDbSymbolTableRecord
100
AcDbBlockTableRecord
  2
_D_18
340
0
  0
BLOCK_RECORD
  5
35A
330
1
100
AcDbSymbolTableRecord
100
AcDbBlockTableRecord
  2
_D_19
340
0
  0
BLOCK_RECORD
  5
364
330
1
100
AcDbSymbolTableRecord
100
AcDbBlockTableRecord
  2
_D_20
340
0
  0
BLOCK_RECORD
  5
36E
330
1
100
AcDbSymbolTableRecord
100
AcDbBlockTableRecord
  2
_D_21
340
0
  0
BLOCK_RECORD
  5
378
330
1
100
AcDbSymbolTableRecord
100
AcDbBlockTableRecord
  2
_D_22
340
0
  0
BLOCK_RECORD
  5
382
330
1
100
AcDbSymbolTableRecord
100
AcDbBlockTableRecord
  2
_D_23
340
0
  0
BLOCK_RECORD
  5
38D
330
1
100
AcDbSymbolTableRecord
100
AcDbBlockTableRecord
  2
SW_NOTE_6
340
0
102
{BLKREFS
331
393
102
}
  0
BLOCK_RECORD
  5
395
330
1
100
AcDbSymbolTableRecord
100
AcDbBlockTableRecord
  2
SW_NOTE_7
340
0
102
{BLKREFS
331
39B
102
}
  0
BLOCK_RECORD
  5
39D
330
1
100
AcDbSymbolTableRecord
100
AcDbBlockTableRecord
  2
SW_CENTERMARKSYMBOL_8
340
0
102
{BLKREFS
331
3A8
102
}
  0
BLOCK_RECORD
  5
3A9
330
1
100
AcDbSymbolTableRecord
100
AcDbBlockTableRecord
  2
SW_CENTERMARKSYMBOL_9
340
0
102
{BLKREFS
331
3B4
102
}
  0
BLOCK_RECORD
  5
3B5
330
1
100
AcDbSymbolTableRecord
100
AcDbBlockTableRecord
  2
SW_CENTERMARKSYMBOL_10
340
0
102
{BLKREFS
331
3C0
102
}
  0
BLOCK_RECORD
  5
3C1
330
1
100
AcDbSymbolTableRecord
100
AcDbBlockTableRecord
  2
SW_CENTERMARKSYMBOL_11
340
0
102
{BLKREFS
331
3CC
102
}
  0
BLOCK_RECORD
  5
3CD
330
1
100
AcDbSymbolTableRecord
100
AcDbBlockTableRecord
  2
SW_CENTERMARKSYMBOL_12
340
0
102
{BLKREFS
331
3D8
102
}
  0
BLOCK_RECORD
  5
3D9
330
1
100
AcDbSymbolTableRecord
100
AcDbBlockTableRecord
  2
SW_CENTERMARKSYMBOL_13
340
0
102
{BLKREFS
331
3E4
102
}
  0
BLOCK_RECORD
  5
40B
330
1
100
AcDbSymbolTableRecord
100
AcDbBlockTableRecord
  2
_D_24
340
0
  0
BLOCK_RECORD
  5
417
330
1
100
AcDbSymbolTableRecord
100
AcDbBlockTableRecord
  2
_D_25
340
0
  0
BLOCK_RECORD
  5
421
330
1
100
AcDbSymbolTableRecord
100
AcDbBlockTableRecord
  2
_D_26
340
0
  0
BLOCK_RECORD
  5
42C
330
1
100
AcDbSymbolTableRecord
100
AcDbBlockTableRecord
  2
SW_NOTE_8
340
0
102
{BLKREFS
331
431
102
}
  0
BLOCK_RECORD
  5
433
330
1
100
AcDbSymbolTableRecord
100
AcDbBlockTableRecord
  2
SW_CENTERMARKSYMBOL_14
340
0
102
{BLKREFS
331
43E
102
}
  0
BLOCK_RECORD
  5
466
330
1
100
AcDbSymbolTableRecord
100
AcDbBlockTableRecord
  2
_D_27
340
0
  0
BLOCK_RECORD
  5
470
330
1
100
AcDbSymbolTableRecord
100
AcDbBlockTableRecord
  2
_D_28
340
0
  0
BLOCK_RECORD
  5
47A
330
1
100
AcDbSymbolTableRecord
100
AcDbBlockTableRecord
  2
_D_29
340
0
  0
BLOCK_RECORD
  5
485
330
1
100
AcDbSymbolTableRecord
100
AcDbBlockTableRecord
  2
SW_NOTE_9
340
0
102
{BLKREFS
331
48A
102
}
  0
BLOCK_RECORD
  5
48C
330
1
100
AcDbSymbolTableRecord
100
AcDbBlockTableRecord
  2
SW_CENTERMARKSYMBOL_15
340
0
102
{BLKREFS
331
497
102
}
  0
BLOCK_RECORD
  5
498
330
1
100
AcDbSymbolTableRecord
100
AcDbBlockTableRecord
  2
SW_CENTERMARKSYMBOL_16
340
0
102
{BLKREFS
331
4A3
102
}
  0
ENDTAB
  0
ENDSEC
  0
SECTION
  2
BLOCKS
  0
BLOCK
  5
20
330
1F
100
AcDbEntity
  8
0
100
AcDbBlockBegin
  2
*Model_Space
 70
     0
 10
0.0
 20
0.0
 30
0.0
  3
*Model_Space
  1

  0
ENDBLK
  5
21
330
1F
100
AcDbEntity
  8
0
100
AcDbBlockEnd
  0
BLOCK
  5
1C
330
1B
100
AcDbEntity
 67
     1
  8
0
100
AcDbBlockBegin
  2
*Paper_Space
 70
     0
 10
0.0
 20
0.0
 30
0.0
  3
*Paper_Space
  1

  0
ENDBLK
  5
1D
330
1B
100
AcDbEntity
 67
     1
  8
0
100
AcDbBlockEnd
  0
BLOCK
  5
24
330
23
100
AcDbEntity
  8
0
100
AcDbBlockBegin
  2
*Paper_Space0
 70
     0
 10
0.0
 20
0.0
 30
0.0
  3
*Paper_Space0
  1

  0
ENDBLK
  5
25
330
23
100
AcDbEntity
  8
0
100
AcDbBlockEnd
  0
BLOCK
  5
7D
330
7C
100
AcDbEntity
  8
0
100
AcDbBlockBegin
  2
圖塊6
 70
     0
 10
0.0
 20
0.0
 30
0.0
  3
圖塊6
  1

  0
ARC
  5
7F
330
7C
100
AcDbEntity
  8
圖層_1
 62
     7
370
    30
100
AcDbCircle
 10
3.8253860849
 20
15.2551707228
 30
0.0
 40
3.825386084859177
100
AcDbArc
 50
130.2115225915
 51
228.588904108
  0
ARC
  5
80
330
7C
100
AcDbEntity
  8
圖層_1
 62
     7
370
    30
100
AcDbCircle
 10
12.1272839953
 20
14.9873636037
 30
0.0
 40
6.443338567044052
100
AcDbArc
 50
140.4331765613
 51
251.0865666567
  0
ARC
  5
81
330
7C
100
AcDbEntity
  8
圖層_1
 62
     7
370
    30
100
AcDbCircle
 10
12.9412604956
 20
15.7793899282
 30
0.0
 40
7.474091644424656
100
AcDbArc
 50
247.1485306747
 51
309.6030773927
  0
LINE
  5
82
330
7C
100
AcDbEntity
  8
圖層_1
 62
     7
370
    30
100
AcDbLine
 10
4.6222443172
 20
21.3304564959
 30
0.0
 11
1.35567368
 21
18.1764888047
 31
0.0
  0
LINE
  5
83
330
7C
100
AcDbEntity
  8
圖層_1
 62
     7
370
    30
100
AcDbLine
 10
1.2950572249
 20
12.3861962442
 30
0.0
 11
11.3180630004
 21
3.6746866436
 31
0.0
  0
LINE
  5
84
330
7C
100
AcDbEntity
  8
圖層_1
 62
     7
370
    30
100
AcDbLine
 10
11.3180630004
 20
3.6746866436
 30
0.0
 11
9.7404331993
 21
2.1349356674
 31
0.0
  0
LINE
  5
85
330
7C
100
AcDbEntity
  8
圖層_1
 62
     7
370
    30
100
AcDbLine
 10
9.7404331993
 20
2.1349356674
 30
0.0
 11
12.2201316112
 21
0.0
 31
0.0
  0
LINE
  5
86
330
7C
100
AcDbEntity
  8
圖層_1
 62
     7
370
    30
100
AcDbLine
 10
20.2442926971
 20
7.7914449138
 30
0.0
 11
17.7057351179
 21
10.0207592331
 31
0.0
  0
LINE
  5
87
330
7C
100
AcDbEntity
  8
圖層_1
 62
     7
370
    30
100
AcDbLine
 10
7.1602289357
 20
19.0916267439
 30
0.0
 11
4.6222443172
 21
21.3304564959
 31
0.0
  0
LINE
  5
88
330
7C
100
AcDbEntity
  8
圖層_1
 62
     7
370
    30
100
AcDbLine
 10
12.2201316112
 20
0.0
 30
0.0
 11
20.2442926971
 21
7.7914449138
 31
0.0
  0
ENDBLK
  5
7E
330
7C
100
AcDbEntity
  8
0
100
AcDbBlockEnd
  0
BLOCK
  5
CF
330
CE
100
AcDbEntity
  8
0
100
AcDbBlockBegin
  2
SW_NOTE_0
 70
     0
 10
0.0
 20
0.0
 30
0.0
  3
SW_NOTE_0
  1

  0
MTEXT
  5
D1
330
CE
100
AcDbEntity
  8
0
  6
Continuous
 62
     0
370
     0
100
AcDbMText
 10
0.0
 20
8.526645987
 30
0.0
 40
6.6145833333
 41
0.0
 71
     1
 72
     1
  1
PROPRIETARY AND CONFIDENTIAL
  7
SLDTEXTSTYLE0
 73
     1
 44
1.0
  0
MTEXT
  5
D2
330
CE
100
AcDbEntity
  8
0
  6
Continuous
 62
     0
370
     0
100
AcDbMText
 10
0.0
 20
-0.2049587001
 30
0.0
 40
4.6302083333
 41
0.0
 71
     1
 72
     1
  1
THE INFORMATION CONTAINED IN THIS DRAWING IS THE SOLE PROPERTY OF UNICE E-O SERVICES INC. ANY REPRODUCTION IN PART OR AS A WHOLE WITHOUT THE WRITTEN PERMISSION OF UNICE E-O SERVICES INC IS
  7
SLDTEXTSTYLE0
 73
     1
 44
1.0
  0
MTEXT
  5
D3
330
CE
100
AcDbEntity
  8
0
  6
Continuous
 62
     0
370
     0
100
AcDbMText
 10
0.0
 20
-6.3785697366
 30
0.0
 40
4.6302083333
 41
0.0
 71
     1
 72
     1
  1
PROHIBITED.
  7
SLDTEXTSTYLE0
 73
     1
 44
1.0
  0
ENDBLK
  5
D0
330
CE
100
AcDbEntity
  8
0
100
AcDbBlockEnd
  0
BLOCK
  5
106
330
105
100
AcDbEntity
  8
0
100
AcDbBlockBegin
  2
SW_NOTE_1
 70
     0
 10
0.0
 20
0.0
 30
0.0
  3
SW_NOTE_1
  1

  0
MTEXT
  5
108
330
105
100
AcDbEntity
  8
SLD-0
 62
     0
100
AcDbMText
 10
0.0
 20
5.1159875922
 30
0.0
 40
3.96875
 41
0.0
 71
     1
 72
     1
  1
No.5, Andong Rd., Chung Li District,
  7
SLDTEXTSTYLE0
 73
     1
 44
1.0
  0
MTEXT
  5
109
330
105
100
AcDbEntity
  8
SLD-0
 62
     0
100
AcDbMText
 10
0.0
 20
-0.1756790105
 30
0.0
 40
3.96875
 41
0.0
 71
     1
 72
     1
  1
Taoyuan City 32063, Taiwan, R.O.C.
  7
SLDTEXTSTYLE0
 73
     1
 44
1.0
  0
ENDBLK
  5
107
330
105
100
AcDbEntity
  8
0
100
AcDbBlockEnd
  0
BLOCK
  5
1DE
330
1DD
100
AcDbEntity
  8
0
100
AcDbBlockBegin
  2
_D
 70
     0
 10
0.0
 20
0.0
 30
0.0
  3
_D
  1

  0
SOLID
  5
1E0
330
1DD
100
AcDbEntity
  8
DIM
100
AcDbTrace
 10
227.0365439164
 20
383.1328158808
 30
0.0
 11
222.0365439164
 21
383.7578158808
 31
0.0
 12
222.0365439164
 22
382.5078158808
 32
0.0
 13
222.0365439164
 23
382.5078158808
 33
0.0
  0
SOLID
  5
1E1
330
1DD
100
AcDbEntity
  8
DIM
100
AcDbTrace
 10
192.0365439164
 20
383.1328158808
 30
0.0
 11
197.0365439164
 21
382.5078158808
 31
0.0
 12
197.0365439164
 22
383.7578158808
 32
0.0
 13
197.0365439164
 23
383.7578158808
 33
0.0
  0
LINE
  5
1E2
330
1DD
100
AcDbEntity
  8
DIM
100
AcDbLine
 10
227.0365439164
 20
368.1328158808
 30
0.0
 11
227.0365439164
 21
385.6328158808
 31
0.0
  0
LINE
  5
1E3
330
1DD
100
AcDbEntity
  8
DIM
100
AcDbLine
 10
192.0365439164
 20
368.1328158808
 30
0.0
 11
192.0365439164
 21
385.6328158808
 31
0.0
  0
LINE
  5
1E4
330
1DD
100
AcDbEntity
  8
DIM
100
AcDbLine
 10
227.0365439164
 20
383.1328158808
 30
0.0
 11
192.0365439164
 21
383.1328158808
 31
0.0
  0
MTEXT
  5
1E5
330
1DD
100
AcDbEntity
  8
DIM
100
AcDbMText
 10
205.8103286982
 20
390.8067969781
 30
0.0
 40
5.953125
 41
0.0
 71
     1
 72
     1
  1
35
  7
SLDTEXTSTYLE1
 73
     1
 44
1.0
  0
ENDBLK
  5
1DF
330
1DD
100
AcDbEntity
  8
0
100
AcDbBlockEnd
  0
BLOCK
  5
1E8
330
1E7
100
AcDbEntity
  8
0
100
AcDbBlockBegin
  2
_D_1
 70
     0
 10
0.0
 20
0.0
 30
0.0
  3
_D_1
  1

  0
SOLID
  5
1EA
330
1E7
100
AcDbEntity
  8
DIM
100
AcDbTrace
 10
174.5365439164
 20
365.6328158808
 30
0.0
 11
173.9115439164
 21
360.6328158808
 31
0.0
 12
175.1615439164
 22
360.6328158808
 32
0.0
 13
175.1615439164
 23
360.6328158808
 33
0.0
  0
SOLID
  5
1EB
330
1E7
100
AcDbEntity
  8
DIM
100
AcDbTrace
 10
174.5365439164
 20
165.6328158808
 30
0.0
 11
175.1615439164
 21
170.6328158808
 31
0.0
 12
173.9115439164
 22
170.6328158808
 32
0.0
 13
173.9115439164
 23
170.6328158808
 33
0.0
  0
LINE
  5
1EC
330
1E7
100
AcDbEntity
  8
DIM
100
AcDbLine
 10
189.5365439164
 20
365.6328158808
 30
0.0
 11
172.0365439164
 21
365.6328158808
 31
0.0
  0
LINE
  5
1ED
330
1E7
100
AcDbEntity
  8
DIM
100
AcDbLine
 10
194.5365439164
 20
165.6328158808
 30
0.0
 11
172.0365439164
 21
165.6328158808
 31
0.0
  0
LINE
  5
1EE
330
1E7
100
AcDbEntity
  8
DIM
100
AcDbLine
 10
174.5365439164
 20
365.6328158808
 30
0.0
 11
174.5365439164
 21
165.6328158808
 31
0.0
  0
MTEXT
  5
1EF
330
1E7
100
AcDbEntity
  8
DIM
100
AcDbMText
 10
166.8625628191
 20
260.0434927625
 30
0.0
 40
5.953125
 41
0.0
 71
     1
 72
     1
  1
200
  7
SLDTEXTSTYLE1
 11
-7.044195017643634E-15
 21
1.0
 31
0.0
 73
     1
 44
1.0
  0
ENDBLK
  5
1E9
330
1E7
100
AcDbEntity
  8
0
100
AcDbBlockEnd
  0
BLOCK
  5
1F2
330
1F1
100
AcDbEntity
  8
0
100
AcDbBlockBegin
  2
_D_2
 70
     0
 10
0.0
 20
0.0
 30
0.0
  3
_D_2
  1

  0
SOLID
  5
1F4
330
1F1
100
AcDbEntity
  8
DIM
100
AcDbTrace
 10
192.0365439164
 20
148.1328158808
 30
0.0
 11
197.0365439164
 21
147.5078158808
 31
0.0
 12
197.0365439164
 22
148.7578158808
 32
0.0
 13
197.0365439164
 23
148.7578158808
 33
0.0
  0
SOLID
  5
1F5
330
1F1
100
AcDbEntity
  8
DIM
100
AcDbTrace
 10
342.0365439164
 20
148.1328158808
 30
0.0
 11
337.0365439164
 21
148.7578158808
 31
0.0
 12
337.0365439164
 22
147.5078158808
 32
0.0
 13
337.0365439164
 23
147.5078158808
 33
0.0
  0
LINE
  5
1F6
330
1F1
100
AcDbEntity
  8
DIM
100
AcDbLine
 10
192.0365439164
 20
168.1328158808
 30
0.0
 11
192.0365439164
 21
145.6328158808
 31
0.0
  0
LINE
  5
1F7
330
1F1
100
AcDbEntity
  8
DIM
100
AcDbLine
 10
342.0365439164
 20
163.1328158808
 30
0.0
 11
342.0365439164
 21
145.6328158808
 31
0.0
  0
LINE
  5
1F8
330
1F1
100
AcDbEntity
  8
DIM
100
AcDbLine
 10
192.0365439164
 20
148.1328158808
 30
0.0
 11
342.0365439164
 21
148.1328158808
 31
0.0
  0
MTEXT
  5
1F9
330
1F1
100
AcDbEntity
  8
DIM
100
AcDbMText
 10
261.4472207981
 20
155.8067969781
 30
0.0
 40
5.953125
 41
0.0
 71
     1
 72
     1
  1
150
  7
SLDTEXTSTYLE1
 73
     1
 44
1.0
  0
ENDBLK
  5
1F3
330
1F1
100
AcDbEntity
  8
0
100
AcDbBlockEnd
  0
BLOCK
  5
1FC
330
1FB
100
AcDbEntity
  8
0
100
AcDbBlockBegin
  2
_D_3
 70
     0
 10
0.0
 20
0.0
 30
0.0
  3
_D_3
  1

  0
SOLID
  5
1FE
330
1FB
100
AcDbEntity
  8
DIM
100
AcDbTrace
 10
302.2948783607
 20
312.0079961892
 30
0.0
 11
299.5597180892
 21
316.2399606608
 31
0.0
 12
298.6021625353
 22
315.4364761487
 32
0.0
 13
298.6021625353
 23
315.4364761487
 33
0.0
  0
SOLID
  5
1FF
330
1FB
100
AcDbEntity
  8
DIM
100
AcDbTrace
 10
286.2251881186
 20
331.1591072671
 30
0.0
 11
288.96034839
 21
326.9271427955
 31
0.0
 12
289.9179039439
 22
327.7306273076
 32
0.0
 13
289.9179039439
 23
327.7306273076
 33
0.0
  0
LINE
  5
200
330
1FB
100
AcDbEntity
  8
DIM
100
AcDbLine
 10
290.2818772398
 20
301.9278913793
 30
0.0
 11
304.2099894685
 21
313.6149652134
 31
0.0
  0
LINE
  5
201
330
1FB
100
AcDbEntity
  8
DIM
100
AcDbLine
 10
274.2121869976
 20
321.0790024573
 30
0.0
 11
288.1402992264
 21
332.7660762914
 31
0.0
  0
LINE
  5
202
330
1FB
100
AcDbEntity
  8
DIM
100
AcDbLine
 10
302.2948783607
 20
312.0079961892
 30
0.0
 11
286.2251881186
 21
331.1591072671
 31
0.0
  0
MTEXT
  5
203
330
1FB
100
AcDbEntity
  8
DIM
100
AcDbMText
 10
297.7434788425
 20
329.3707381562
 30
0.0
 40
5.953125
 41
0.0
 71
     1
 72
     1
  1
25
  7
SLDTEXTSTYLE1
 11
0.6427876096865319
 21
-0.7660444431189842
 31
0.0
 73
     1
 44
1.0
  0
ENDBLK
  5
1FD
330
1FB
100
AcDbEntity
  8
0
100
AcDbBlockEnd
  0
BLOCK
  5
206
330
205
100
AcDbEntity
  8
0
100
AcDbBlockBegin
  2
_D_4
 70
     0
 10
0.0
 20
0.0
 30
0.0
  3
_D_4
  1

  0
SOLID
  5
208
330
205
100
AcDbEntity
  8
DIM
100
AcDbTrace
 10
302.3031103542
 20
312.0149036518
 30
0.0
 11
305.0382706256
 21
307.7829391802
 31
0.0
 12
305.9958261795
 22
308.5864236923
 32
0.0
 13
305.9958261795
 23
308.5864236923
 33
0.0
  0
SOLID
  5
209
330
205
100
AcDbEntity
  8
DIM
100
AcDbTrace
 10
318.3728005963
 20
292.8637925738
 30
0.0
 11
315.6376403248
 21
297.0957570455
 31
0.0
 12
314.6800847709
 22
296.2922725334
 32
0.0
 13
314.6800847709
 23
296.2922725334
 33
0.0
  0
LINE
  5
20A
330
205
100
AcDbEntity
  8
DIM
100
AcDbLine
 10
290.2818772398
 20
301.9278913793
 30
0.0
 11
304.218221462
 21
313.621872676
 31
0.0
  0
LINE
  5
20B
330
205
100
AcDbEntity
  8
DIM
100
AcDbLine
 10
306.351567482
 20
282.7767803013
 30
0.0
 11
320.2879117041
 21
294.4707615981
 31
0.0
  0
LINE
  5
20C
330
205
100
AcDbEntity
  8
DIM
100
AcDbLine
 10
302.3031103542
 20
312.0149036518
 30
0.0
 11
318.3728005963
 21
292.8637925738
 31
0.0
  0
MTEXT
  5
20D
330
205
100
AcDbEntity
  8
DIM
100
AcDbMText
 10
313.8214010781
 20
310.2265345409
 30
0.0
 40
5.953125
 41
0.0
 71
     1
 72
     1
  1
25
  7
SLDTEXTSTYLE1
 11
0.6427876096865481
 21
-0.7660444431189707
 31
0.0
 73
     1
 44
1.0
  0
ENDBLK
  5
207
330
205
100
AcDbEntity
  8
0
100
AcDbBlockEnd
  0
BLOCK
  5
210
330
20F
100
AcDbEntity
  8
0
100
AcDbBlockBegin
  2
_D_5
 70
     0
 10
0.0
 20
0.0
 30
0.0
  3
_D_5
  1

  0
SOLID
  5
212
330
20F
100
AcDbEntity
  8
DIM
100
AcDbTrace
 10
313.3555203863
 20
321.2889768334
 30
0.0
 11
310.6203601148
 21
325.5209413051
 31
0.0
 12
309.6628045609
 22
324.7174567929
 32
0.0
 13
309.6628045609
 23
324.7174567929
 33
0.0
  0
SOLID
  5
213
330
20F
100
AcDbEntity
  8
DIM
100
AcDbTrace
 10
281.216139902
 20
359.5911989894
 30
0.0
 11
283.9513001734
 21
355.3592345177
 31
0.0
 12
284.9088557273
 22
356.1627190298
 32
0.0
 13
284.9088557273
 23
356.1627190298
 33
0.0
  0
LINE
  5
214
330
20F
100
AcDbEntity
  8
DIM
100
AcDbLine
 10
290.2818772398
 20
301.9278913793
 30
0.0
 11
315.2706314941
 21
322.8959458576
 31
0.0
  0
LINE
  5
215
330
20F
100
AcDbEntity
  8
DIM
100
AcDbLine
 10
258.1424967555
 20
340.2301135352
 30
0.0
 11
283.1312510098
 21
361.1981680136
 31
0.0
  0
LINE
  5
216
330
20F
100
AcDbEntity
  8
DIM
100
AcDbLine
 10
313.3555203863
 20
321.2889768334
 30
0.0
 11
281.216139902
 21
359.5911989894
 31
0.0
  0
MTEXT
  5
217
330
20F
100
AcDbEntity
  8
DIM
100
AcDbMText
 10
300.769275747
 20
348.2272743394
 30
0.0
 40
5.953125
 41
0.0
 71
     1
 72
     1
  1
50
  7
SLDTEXTSTYLE1
 11
0.6427876096865316
 21
-0.7660444431189845
 31
0.0
 73
     1
 44
1.0
  0
ENDBLK
  5
211
330
20F
100
AcDbEntity
  8
0
100
AcDbBlockEnd
  0
BLOCK
  5
21A
330
219
100
AcDbEntity
  8
0
100
AcDbBlockBegin
  2
_D_6
 70
     0
 10
0.0
 20
0.0
 30
0.0
  3
_D_6
  1

  0
SOLID
  5
21C
330
219
100
AcDbEntity
  8
DIM
100
AcDbTrace
 10
313.3562110361
 20
321.2895563574
 30
0.0
 11
316.0913713076
 21
317.0575918857
 31
0.0
 12
317.0489268615
 22
317.8610763979
 32
0.0
 13
317.0489268615
 23
317.8610763979
 33
0.0
  0
SOLID
  5
21D
330
219
100
AcDbEntity
  8
DIM
100
AcDbTrace
 10
345.4955915204
 20
282.9873342014
 30
0.0
 11
342.7604312489
 21
287.2192986731
 31
0.0
 12
341.802875695
 22
286.415814161
 32
0.0
 13
341.802875695
 23
286.415814161
 33
0.0
  0
LINE
  5
21E
330
219
100
AcDbEntity
  8
DIM
100
AcDbLine
 10
290.2818772398
 20
301.9278913793
 30
0.0
 11
315.2713221439
 21
322.8965253816
 31
0.0
  0
LINE
  5
21F
330
219
100
AcDbEntity
  8
DIM
100
AcDbLine
 10
322.4212577241
 20
263.6256692233
 30
0.0
 11
347.4107026282
 21
284.5943032257
 31
0.0
  0
LINE
  5
220
330
219
100
AcDbEntity
  8
DIM
100
AcDbLine
 10
313.3562110361
 20
321.2895563574
 30
0.0
 11
345.4955915204
 21
282.9873342014
 31
0.0
  0
MTEXT
  5
221
330
219
100
AcDbEntity
  8
DIM
100
AcDbMText
 10
332.9093468811
 20
309.9256317075
 30
0.0
 40
5.953125
 41
0.0
 71
     1
 72
     1
  1
50
  7
SLDTEXTSTYLE1
 11
0.6427876096865475
 21
-0.7660444431189712
 31
0.0
 73
     1
 44
1.0
  0
ENDBLK
  5
21B
330
219
100
AcDbEntity
  8
0
100
AcDbBlockEnd
  0
BLOCK
  5
225
330
224
100
AcDbEntity
  8
0
100
AcDbBlockBegin
  2
_D_7
 70
     0
 10
0.0
 20
0.0
 30
0.0
  3
_D_7
  1

  0
ARC
  5
227
330
224
100
AcDbEntity
  8
DIM
100
AcDbCircle
 10
394.8564701519
 20
165.6328158808
 30
0.0
 40
38.97122670758603
100
AcDbArc
 50
130.0
 51
180.0
  0
SOLID
  5
228
330
224
100
AcDbEntity
  8
DIM
100
AcDbTrace
 10
369.80624849
 20
195.4865075417
 30
0.0
 11
365.7572829649
 21
192.4870904021
 31
0.0
 12
366.6201845846
 22
191.5827117233
 32
0.0
 13
366.6201845846
 23
191.5827117233
 33
0.0
  0
SOLID
  5
229
330
224
100
AcDbEntity
  8
DIM
100
AcDbTrace
 10
355.8852434443
 20
165.6328158808
 30
0.0
 11
356.827762136
 21
170.5827940137
 31
0.0
 12
355.5803054051
 22
170.6624915952
 32
0.0
 13
355.5803054051
 23
170.6624915952
 33
0.0
  0
LINE
  5
22A
330
224
100
AcDbEntity
  8
DIM
100
AcDbLine
 10
342.4737351562
 20
228.0601285018
 30
0.0
 11
371.4132175142
 21
193.5713964339
 31
0.0
  0
LINE
  5
22B
330
224
100
AcDbEntity
  8
DIM
100
AcDbLine
 10
344.5365439164
 20
165.6328158808
 30
0.0
 11
358.3852434443
 21
165.6328158808
 31
0.0
  0
MTEXT
  5
22C
330
224
100
AcDbEntity
  8
DIM
100
AcDbMText
 10
350.6014492296
 20
181.0995818
 30
0.0
 40
5.953125
 41
0.0
 71
     1
 72
     1
  1
50°
  7
SLDTEXTSTYLE1
 11
0.422618261740691
 21
0.9063077870366539
 31
0.0
 73
     1
 44
1.0
  0
ENDBLK
  5
226
330
224
100
AcDbEntity
  8
0
100
AcDbBlockEnd
  0
BLOCK
  5
22E
330
22D
100
AcDbEntity
  8
0
100
AcDbBlockBegin
  2
SW_NOTE_2
 70
     0
 10
0.0
 20
0.0
 30
0.0
  3
SW_NOTE_2
  1

  0
LINE
  5
230
330
22D
100
AcDbEntity
  8
DIM
 62
     0
100
AcDbLine
 10
-31.9508253661
 20
0.0
 30
0.0
 11
0.0
 21
0.0
 31
0.0
  0
MTEXT
  5
231
330
22D
100
AcDbEntity
  8
DIM
 62
     0
100
AcDbMText
 10
-32.9472548101
 20
17.9348293162
 30
0.0
 40
5.953125
 41
0.0
 71
     1
 72
     1
  1
3 HOLES,
  7
SLDTEXTSTYLE1
 73
     1
 44
1.0
  0
MTEXT
  5
232
330
22D
100
AcDbEntity
  8
DIM
 62
     0
100
AcDbMText
 10
-32.9472548101
 20
7.4973295844
 30
0.0
 40
5.953125
 41
0.0
 71
     1
 72
     1
  1
M6
  7
SLDTEXTSTYLE1
 73
     1
 44
1.0
  0
ENDBLK
  5
22F
330
22D
100
AcDbEntity
  8
0
100
AcDbBlockEnd
  0
BLOCK
  5
237
330
236
100
AcDbEntity
  8
0
100
AcDbBlockBegin
  2
SW_NOTE_3
 70
     0
 10
0.0
 20
0.0
 30
0.0
  3
SW_NOTE_3
  1

  0
MTEXT
  5
239
330
236
100
AcDbEntity
  8
DIM
 62
     0
100
AcDbMText
 10
-28.1492460779
 20
12.3746311607
 30
0.0
 40
5.953125
 41
0.0
 71
     1
 72
     1
  1
2 HOLES,
  7
SLDTEXTSTYLE1
 73
     1
 44
1.0
  0
MTEXT
  5
23A
330
236
100
AcDbEntity
  8
DIM
 62
     0
100
AcDbMText
 10
-28.1492460779
 20
1.9371314289
 30
0.0
 40
5.953125
 41
0.0
 71
     1
 72
     1
  1
M6 CLR
  7
SLDTEXTSTYLE1
 73
     1
 44
1.0
  0
ENDBLK
  5
238
330
236
100
AcDbEntity
  8
0
100
AcDbBlockEnd
  0
BLOCK
  5
260
330
25F
100
AcDbEntity
  8
0
100
AcDbBlockBegin
  2
_D_8
 70
     0
 10
0.0
 20
0.0
 30
0.0
  3
_D_8
  1

  0
SOLID
  5
262
330
25F
100
AcDbEntity
  8
DIM
100
AcDbTrace
 10
63.3139073116
 20
240.6328158808
 30
0.0
 11
62.6889073116
 21
235.6328158808
 31
0.0
 12
63.9389073116
 22
235.6328158808
 32
0.0
 13
63.9389073116
 23
235.6328158808
 33
0.0
  0
SOLID
  5
263
330
25F
100
AcDbEntity
  8
DIM
100
AcDbTrace
 10
63.3139073116
 20
165.6328158808
 30
0.0
 11
63.9389073116
 21
170.6328158808
 31
0.0
 12
62.6889073116
 22
170.6328158808
 32
0.0
 13
62.6889073116
 23
170.6328158808
 33
0.0
  0
LINE
  5
264
330
25F
100
AcDbEntity
  8
DIM
100
AcDbLine
 10
83.0139073116
 20
240.6328158808
 30
0.0
 11
60.8139073116
 21
240.6328158808
 31
0.0
  0
LINE
  5
265
330
25F
100
AcDbEntity
  8
DIM
100
AcDbLine
 10
79.3139073116
 20
165.6328158808
 30
0.0
 11
60.8139073116
 21
165.6328158808
 31
0.0
  0
LINE
  5
266
330
25F
100
AcDbEntity
  8
DIM
100
AcDbLine
 10
63.3139073116
 20
240.6328158808
 30
0.0
 11
63.3139073116
 21
165.6328158808
 31
0.0
  0
MTEXT
  5
267
330
25F
100
AcDbEntity
  8
DIM
100
AcDbMText
 10
55.6399262143
 20
199.4066006626
 30
0.0
 40
5.953125
 41
0.0
 71
     1
 72
     1
  1
75
  7
SLDTEXTSTYLE1
 11
-7.044195017643634E-15
 21
1.0
 31
0.0
 73
     1
 44
1.0
  0
ENDBLK
  5
261
330
25F
100
AcDbEntity
  8
0
100
AcDbBlockEnd
  0
BLOCK
  5
26A
330
269
100
AcDbEntity
  8
0
100
AcDbBlockBegin
  2
_D_9
 70
     0
 10
0.0
 20
0.0
 30
0.0
  3
_D_9
  1

  0
SOLID
  5
26C
330
269
100
AcDbEntity
  8
DIM
100
AcDbTrace
 10
63.3139073116
 20
240.6328158808
 30
0.0
 11
63.9389073116
 21
245.6328158808
 31
0.0
 12
62.6889073116
 22
245.6328158808
 32
0.0
 13
62.6889073116
 23
245.6328158808
 33
0.0
  0
SOLID
  5
26D
330
269
100
AcDbEntity
  8
DIM
100
AcDbTrace
 10
63.3139073116
 20
265.6328158808
 30
0.0
 11
62.6889073116
 21
260.6328158808
 31
0.0
 12
63.9389073116
 22
260.6328158808
 32
0.0
 13
63.9389073116
 23
260.6328158808
 33
0.0
  0
LINE
  5
26E
330
269
100
AcDbEntity
  8
DIM
100
AcDbLine
 10
83.0139073116
 20
240.6328158808
 30
0.0
 11
60.8139073116
 21
240.6328158808
 31
0.0
  0
LINE
  5
26F
330
269
100
AcDbEntity
  8
DIM
100
AcDbLine
 10
83.0139073116
 20
265.6328158808
 30
0.0
 11
60.8139073116
 21
265.6328158808
 31
0.0
  0
LINE
  5
270
330
269
100
AcDbEntity
  8
DIM
100
AcDbLine
 10
63.3139073116
 20
240.6328158808
 30
0.0
 11
63.3139073116
 21
265.6328158808
 31
0.0
  0
MTEXT
  5
271
330
269
100
AcDbEntity
  8
DIM
100
AcDbMText
 10
55.6399262143
 20
249.4066006626
 30
0.0
 40
5.953125
 41
0.0
 71
     1
 72
     1
  1
25
  7
SLDTEXTSTYLE1
 11
6.123233995736766E-17
 21
1.0
 31
0.0
 73
     1
 44
1.0
  0
ENDBLK
  5
26B
330
269
100
AcDbEntity
  8
0
100
AcDbBlockEnd
  0
BLOCK
  5
274
330
273
100
AcDbEntity
  8
0
100
AcDbBlockBegin
  2
_D_10
 70
     0
 10
0.0
 20
0.0
 30
0.0
  3
_D_10
  1

  0
SOLID
  5
276
330
273
100
AcDbEntity
  8
DIM
100
AcDbTrace
 10
63.3139073116
 20
265.6328158808
 30
0.0
 11
63.9389073116
 21
270.6328158808
 31
0.0
 12
62.6889073116
 22
270.6328158808
 32
0.0
 13
62.6889073116
 23
270.6328158808
 33
0.0
  0
SOLID
  5
277
330
273
100
AcDbEntity
  8
DIM
100
AcDbTrace
 10
63.3139073116
 20
290.6328158808
 30
0.0
 11
62.6889073116
 21
285.6328158808
 31
0.0
 12
63.9389073116
 22
285.6328158808
 32
0.0
 13
63.9389073116
 23
285.6328158808
 33
0.0
  0
LINE
  5
278
330
273
100
AcDbEntity
  8
DIM
100
AcDbLine
 10
83.0139073116
 20
265.6328158808
 30
0.0
 11
60.8139073116
 21
265.6328158808
 31
0.0
  0
LINE
  5
279
330
273
100
AcDbEntity
  8
DIM
100
AcDbLine
 10
83.0139073116
 20
290.6328158808
 30
0.0
 11
60.8139073116
 21
290.6328158808
 31
0.0
  0
LINE
  5
27A
330
273
100
AcDbEntity
  8
DIM
100
AcDbLine
 10
63.3139073116
 20
265.6328158808
 30
0.0
 11
63.3139073116
 21
290.6328158808
 31
0.0
  0
MTEXT
  5
27B
330
273
100
AcDbEntity
  8
DIM
100
AcDbMText
 10
55.6399262143
 20
274.4066006626
 30
0.0
 40
5.953125
 41
0.0
 71
     1
 72
     1
  1
25
  7
SLDTEXTSTYLE1
 11
6.123233995736766E-17
 21
1.0
 31
0.0
 73
     1
 44
1.0
  0
ENDBLK
  5
275
330
273
100
AcDbEntity
  8
0
100
AcDbBlockEnd
  0
BLOCK
  5
27E
330
27D
100
AcDbEntity
  8
0
100
AcDbBlockBegin
  2
_D_11
 70
     0
 10
0.0
 20
0.0
 30
0.0
  3
_D_11
  1

  0
SOLID
  5
280
330
27D
100
AcDbEntity
  8
DIM
100
AcDbTrace
 10
63.3139073116
 20
315.6328158808
 30
0.0
 11
62.6889073116
 21
310.6328158808
 31
0.0
 12
63.9389073116
 22
310.6328158808
 32
0.0
 13
63.9389073116
 23
310.6328158808
 33
0.0
  0
SOLID
  5
281
330
27D
100
AcDbEntity
  8
DIM
100
AcDbTrace
 10
63.3139073116
 20
290.6328158808
 30
0.0
 11
63.9389073116
 21
295.6328158808
 31
0.0
 12
62.6889073116
 22
295.6328158808
 32
0.0
 13
62.6889073116
 23
295.6328158808
 33
0.0
  0
LINE
  5
282
330
27D
100
AcDbEntity
  8
DIM
100
AcDbLine
 10
83.0139073116
 20
315.6328158808
 30
0.0
 11
60.8139073116
 21
315.6328158808
 31
0.0
  0
LINE
  5
283
330
27D
100
AcDbEntity
  8
DIM
100
AcDbLine
 10
83.0139073116
 20
290.6328158808
 30
0.0
 11
60.8139073116
 21
290.6328158808
 31
0.0
  0
LINE
  5
284
330
27D
100
AcDbEntity
  8
DIM
100
AcDbLine
 10
63.3139073116
 20
315.6328158808
 30
0.0
 11
63.3139073116
 21
290.6328158808
 31
0.0
  0
MTEXT
  5
285
330
27D
100
AcDbEntity
  8
DIM
100
AcDbMText
 10
55.6399262143
 20
299.4066006626
 30
0.0
 40
5.953125
 41
0.0
 71
     1
 72
     1
  1
25
  7
SLDTEXTSTYLE1
 11
-7.044195017643634E-15
 21
1.0
 31
0.0
 73
     1
 44
1.0
  0
ENDBLK
  5
27F
330
27D
100
AcDbEntity
  8
0
100
AcDbBlockEnd
  0
BLOCK
  5
288
330
287
100
AcDbEntity
  8
0
100
AcDbBlockBegin
  2
_D_12
 70
     0
 10
0.0
 20
0.0
 30
0.0
  3
_D_12
  1

  0
SOLID
  5
28A
330
287
100
AcDbEntity
  8
DIM
100
AcDbTrace
 10
116.3139073116
 20
253.1328158808
 30
0.0
 11
115.6889073116
 21
248.1328158808
 31
0.0
 12
116.9389073116
 22
248.1328158808
 32
0.0
 13
116.9389073116
 23
248.1328158808
 33
0.0
  0
SOLID
  5
28B
330
287
100
AcDbEntity
  8
DIM
100
AcDbTrace
 10
116.3139073116
 20
165.6328158808
 30
0.0
 11
116.9389073116
 21
170.6328158808
 31
0.0
 12
115.6889073116
 22
170.6328158808
 32
0.0
 13
115.6889073116
 23
170.6328158808
 33
0.0
  0
LINE
  5
28C
330
287
100
AcDbEntity
  8
DIM
100
AcDbLine
 10
95.8139073116
 20
253.1328158808
 30
0.0
 11
118.8139073116
 21
253.1328158808
 31
0.0
  0
LINE
  5
28D
330
287
100
AcDbEntity
  8
DIM
100
AcDbLine
 10
100.3139073116
 20
165.6328158808
 30
0.0
 11
118.8139073116
 21
165.6328158808
 31
0.0
  0
LINE
  5
28E
330
287
100
AcDbEntity
  8
DIM
100
AcDbLine
 10
116.3139073116
 20
253.1328158808
 30
0.0
 11
116.3139073116
 21
165.6328158808
 31
0.0
  0
MTEXT
  5
28F
330
287
100
AcDbEntity
  8
DIM
100
AcDbMText
 10
108.6399262143
 20
202.8619396855
 30
0.0
 40
5.953125
 41
0.0
 71
     1
 72
     1
  1
87.5
  7
SLDTEXTSTYLE1
 11
-7.044195017643634E-15
 21
1.0
 31
0.0
 73
     1
 44
1.0
  0
ENDBLK
  5
289
330
287
100
AcDbEntity
  8
0
100
AcDbBlockEnd
  0
BLOCK
  5
292
330
291
100
AcDbEntity
  8
0
100
AcDbBlockBegin
  2
_D_13
 70
     0
 10
0.0
 20
0.0
 30
0.0
  3
_D_13
  1

  0
SOLID
  5
294
330
291
100
AcDbEntity
  8
DIM
100
AcDbTrace
 10
116.3139073116
 20
253.1328158808
 30
0.0
 11
116.9389073116
 21
258.1328158808
 31
0.0
 12
115.6889073116
 22
258.1328158808
 32
0.0
 13
115.6889073116
 23
258.1328158808
 33
0.0
  0
SOLID
  5
295
330
291
100
AcDbEntity
  8
DIM
100
AcDbTrace
 10
116.3139073116
 20
278.1328158808
 30
0.0
 11
115.6889073116
 21
273.1328158808
 31
0.0
 12
116.9389073116
 22
273.1328158808
 32
0.0
 13
116.9389073116
 23
273.1328158808
 33
0.0
  0
LINE
  5
296
330
291
100
AcDbEntity
  8
DIM
100
AcDbLine
 10
95.8139073116
 20
253.1328158808
 30
0.0
 11
118.8139073116
 21
253.1328158808
 31
0.0
  0
LINE
  5
297
330
291
100
AcDbEntity
  8
DIM
100
AcDbLine
 10
95.8139073116
 20
278.1328158808
 30
0.0
 11
118.8139073116
 21
278.1328158808
 31
0.0
  0
LINE
  5
298
330
291
100
AcDbEntity
  8
DIM
100
AcDbLine
 10
116.3139073116
 20
253.1328158808
 30
0.0
 11
116.3139073116
 21
278.1328158808
 31
0.0
  0
MTEXT
  5
299
330
291
100
AcDbEntity
  8
DIM
100
AcDbMText
 10
108.6399262143
 20
261.9066006626
 30
0.0
 40
5.953125
 41
0.0
 71
     1
 72
     1
  1
25
  7
SLDTEXTSTYLE1
 11
6.123233995736766E-17
 21
1.0
 31
0.0
 73
     1
 44
1.0
  0
ENDBLK
  5
293
330
291
100
AcDbEntity
  8
0
100
AcDbBlockEnd
  0
BLOCK
  5
29C
330
29B
100
AcDbEntity
  8
0
100
AcDbBlockBegin
  2
_D_14
 70
     0
 10
0.0
 20
0.0
 30
0.0
  3
_D_14
  1

  0
SOLID
  5
29E
330
29B
100
AcDbEntity
  8
DIM
100
AcDbTrace
 10
116.3139073116
 20
278.1328158808
 30
0.0
 11
116.9389073116
 21
283.1328158808
 31
0.0
 12
115.6889073116
 22
283.1328158808
 32
0.0
 13
115.6889073116
 23
283.1328158808
 33
0.0
  0
SOLID
  5
29F
330
29B
100
AcDbEntity
  8
DIM
100
AcDbTrace
 10
116.3139073116
 20
303.1328158808
 30
0.0
 11
115.6889073116
 21
298.1328158808
 31
0.0
 12
116.9389073116
 22
298.1328158808
 32
0.0
 13
116.9389073116
 23
298.1328158808
 33
0.0
  0
LINE
  5
2A0
330
29B
100
AcDbEntity
  8
DIM
100
AcDbLine
 10
95.8139073116
 20
278.1328158808
 30
0.0
 11
118.8139073116
 21
278.1328158808
 31
0.0
  0
LINE
  5
2A1
330
29B
100
AcDbEntity
  8
DIM
100
AcDbLine
 10
95.8139073116
 20
303.1328158808
 30
0.0
 11
118.8139073116
 21
303.1328158808
 31
0.0
  0
LINE
  5
2A2
330
29B
100
AcDbEntity
  8
DIM
100
AcDbLine
 10
116.3139073116
 20
278.1328158808
 30
0.0
 11
116.3139073116
 21
303.1328158808
 31
0.0
  0
MTEXT
  5
2A3
330
29B
100
AcDbEntity
  8
DIM
100
AcDbMText
 10
108.6399262143
 20
286.9066006626
 30
0.0
 40
5.953125
 41
0.0
 71
     1
 72
     1
  1
25
  7
SLDTEXTSTYLE1
 11
6.123233995736766E-17
 21
1.0
 31
0.0
 73
     1
 44
1.0
  0
ENDBLK
  5
29D
330
29B
100
AcDbEntity
  8
0
100
AcDbBlockEnd
  0
BLOCK
  5
2A6
330
2A5
100
AcDbEntity
  8
0
100
AcDbBlockBegin
  2
_D_15
 70
     0
 10
0.0
 20
0.0
 30
0.0
  3
_D_15
  1

  0
SOLID
  5
2A8
330
2A5
100
AcDbEntity
  8
DIM
100
AcDbTrace
 10
116.3139073116
 20
340.6328158808
 30
0.0
 11
115.6889073116
 21
335.6328158808
 31
0.0
 12
116.9389073116
 22
335.6328158808
 32
0.0
 13
116.9389073116
 23
335.6328158808
 33
0.0
  0
SOLID
  5
2A9
330
2A5
100
AcDbEntity
  8
DIM
100
AcDbTrace
 10
116.3139073116
 20
303.1328158808
 30
0.0
 11
116.9389073116
 21
308.1328158808
 31
0.0
 12
115.6889073116
 22
308.1328158808
 32
0.0
 13
115.6889073116
 23
308.1328158808
 33
0.0
  0
LINE
  5
2AA
330
2A5
100
AcDbEntity
  8
DIM
100
AcDbLine
 10
95.8139073116
 20
340.6328158808
 30
0.0
 11
118.8139073116
 21
340.6328158808
 31
0.0
  0
LINE
  5
2AB
330
2A5
100
AcDbEntity
  8
DIM
100
AcDbLine
 10
95.8139073116
 20
303.1328158808
 30
0.0
 11
118.8139073116
 21
303.1328158808
 31
0.0
  0
LINE
  5
2AC
330
2A5
100
AcDbEntity
  8
DIM
100
AcDbLine
 10
116.3139073116
 20
340.6328158808
 30
0.0
 11
116.3139073116
 21
303.1328158808
 31
0.0
  0
MTEXT
  5
2AD
330
2A5
100
AcDbEntity
  8
DIM
100
AcDbMText
 10
108.6399262143
 20
315.3619396855
 30
0.0
 40
5.953125
 41
0.0
 71
     1
 72
     1
  1
37.5
  7
SLDTEXTSTYLE1
 11
-7.044195017643634E-15
 21
1.0
 31
0.0
 73
     1
 44
1.0
  0
ENDBLK
  5
2A7
330
2A5
100
AcDbEntity
  8
0
100
AcDbBlockEnd
  0
BLOCK
  5
2B1
330
2B0
100
AcDbEntity
  8
0
100
AcDbBlockBegin
  2
_D_16
 70
     0
 10
0.0
 20
0.0
 30
0.0
  3
_D_16
  1

  0
SOLID
  5
2B3
330
2B0
100
AcDbEntity
  8
DIM
100
AcDbTrace
 10
89.8139073116
 20
383.1328158808
 30
0.0
 11
84.8139073116
 21
383.7578158808
 31
0.0
 12
84.8139073116
 22
382.5078158808
 32
0.0
 13
84.8139073116
 23
382.5078158808
 33
0.0
  0
SOLID
  5
2B4
330
2B0
100
AcDbEntity
  8
DIM
100
AcDbTrace
 10
98.8139073116
 20
383.1328158808
 30
0.0
 11
103.8139073116
 21
382.5078158808
 31
0.0
 12
103.8139073116
 22
383.7578158808
 32
0.0
 13
103.8139073116
 23
383.7578158808
 33
0.0
  0
LINE
  5
2B5
330
2B0
100
AcDbEntity
  8
DIM
100
AcDbLine
 10
89.8139073116
 20
346.6328158808
 30
0.0
 11
89.8139073116
 21
385.6328158808
 31
0.0
  0
LINE
  5
2B6
330
2B0
100
AcDbEntity
  8
DIM
100
AcDbLine
 10
98.8139073116
 20
367.1328158808
 30
0.0
 11
98.8139073116
 21
385.6328158808
 31
0.0
  0
LINE
  5
2B7
330
2B0
100
AcDbEntity
  8
DIM
100
AcDbLine
 10
89.8139073116
 20
383.1328158808
 30
0.0
 11
82.3139073116
 21
383.1328158808
 31
0.0
  0
LINE
  5
2B8
330
2B0
100
AcDbEntity
  8
DIM
100
AcDbLine
 10
89.8139073116
 20
383.1328158808
 30
0.0
 11
98.8139073116
 21
383.1328158808
 31
0.0
  0
LINE
  5
2B9
330
2B0
100
AcDbEntity
  8
DIM
100
AcDbLine
 10
98.8139073116
 20
383.1328158808
 30
0.0
 11
106.3139073116
 21
383.1328158808
 31
0.0
  0
MTEXT
  5
2BA
330
2B0
100
AcDbEntity
  8
DIM
100
AcDbMText
 10
92.4507997025
 20
390.8067969781
 30
0.0
 40
5.953125
 41
0.0
 71
     1
 72
     1
  1
9
  7
SLDTEXTSTYLE1
 73
     1
 44
1.0
  0
ENDBLK
  5
2B2
330
2B0
100
AcDbEntity
  8
0
100
AcDbBlockEnd
  0
BLOCK
  5
2BC
330
2BB
100
AcDbEntity
  8
0
100
AcDbBlockBegin
  2
SW_NOTE_4
 70
     0
 10
0.0
 20
0.0
 30
0.0
  3
SW_NOTE_4
  1

  0
LINE
  5
2BE
330
2BB
100
AcDbEntity
  8
DIM
 62
     0
100
AcDbLine
 10
31.3727906841
 20
0.0
 30
0.0
 11
0.0
 21
0.0
 31
0.0
  0
MTEXT
  5
2BF
330
2BB
100
AcDbEntity
  8
DIM
 62
     0
100
AcDbMText
 10
1.0767749968
 20
18.1471370504
 30
0.0
 40
5.953125
 41
0.0
 71
     1
 72
     1
  1
4 HOLES,
  7
SLDTEXTSTYLE1
 73
     1
 44
1.0
  0
MTEXT
  5
2C0
330
2BB
100
AcDbEntity
  8
DIM
 62
     0
100
AcDbMText
 10
1.0767749968
 20
7.7096373187
 30
0.0
 40
5.953125
 41
0.0
 71
     1
 72
     1
  1
M6
  7
SLDTEXTSTYLE1
 73
     1
 44
1.0
  0
ENDBLK
  5
2BD
330
2BB
100
AcDbEntity
  8
0
100
AcDbBlockEnd
  0
BLOCK
  5
2C4
330
2C3
100
AcDbEntity
  8
0
100
AcDbBlockBegin
  2
SW_NOTE_5
 70
     0
 10
0.0
 20
0.0
 30
0.0
  3
SW_NOTE_5
  1

  0
LINE
  5
2C6
330
2C3
100
AcDbEntity
  8
DIM
 62
     0
100
AcDbLine
 10
-31.9508253661
 20
0.0
 30
0.0
 11
0.0
 21
0.0
 31
0.0
  0
MTEXT
  5
2C7
330
2C3
100
AcDbEntity
  8
DIM
 62
     0
100
AcDbMText
 10
-33.1757795253
 20
18.3171317838
 30
0.0
 40
5.953125
 41
0.0
 71
     1
 72
     1
  1
4 HOLES,
  7
SLDTEXTSTYLE1
 73
     1
 44
1.0
  0
MTEXT
  5
2C8
330
2C3
100
AcDbEntity
  8
DIM
 62
     0
100
AcDbMText
 10
-33.1757795253
 20
7.8796320521
 30
0.0
 40
5.953125
 41
0.0
 71
     1
 72
     1
  1
M6 CLR
  7
SLDTEXTSTYLE1
 73
     1
 44
1.0
  0
ENDBLK
  5
2C5
330
2C3
100
AcDbEntity
  8
0
100
AcDbBlockEnd
  0
BLOCK
  5
2CC
330
2CB
100
AcDbEntity
  8
0
100
AcDbBlockBegin
  2
SW_CENTERMARKSYMBOL_0
 70
     0
 10
0.0
 20
0.0
 30
0.0
  3
SW_CENTERMARKSYMBOL_0
  1

  0
LINE
  5
2CE
330
2CB
100
AcDbEntity
  8
DIM
 62
     0
100
AcDbLine
 10
0.0
 20
0.0
 30
0.0
 11
0.0
 21
1.0
 31
0.0
  0
LINE
  5
2CF
330
2CB
100
AcDbEntity
  8
DIM
 62
     0
100
AcDbLine
 10
0.0
 20
0.0
 30
0.0
 11
-1.0
 21
0.0
 31
0.0
  0
LINE
  5
2D0
330
2CB
100
AcDbEntity
  8
DIM
 62
     0
100
AcDbLine
 10
0.0
 20
0.0
 30
0.0
 11
0.0
 21
-1.0
 31
0.0
  0
LINE
  5
2D1
330
2CB
100
AcDbEntity
  8
DIM
 62
     0
100
AcDbLine
 10
0.0
 20
0.0
 30
0.0
 11
1.0
 21
0.0
 31
0.0
  0
LINE
  5
2D2
330
2CB
100
AcDbEntity
  8
DIM
 62
     0
100
AcDbLine
 10
0.0
 20
2.0
 30
0.0
 11
0.0
 21
3.5
 31
0.0
  0
LINE
  5
2D3
330
2CB
100
AcDbEntity
  8
DIM
 62
     0
100
AcDbLine
 10
-2.0
 20
0.0
 30
0.0
 11
-3.5
 21
0.0
 31
0.0
  0
LINE
  5
2D4
330
2CB
100
AcDbEntity
  8
DIM
 62
     0
100
AcDbLine
 10
0.0
 20
-2.0
 30
0.0
 11
0.0
 21
-3.5
 31
0.0
  0
LINE
  5
2D5
330
2CB
100
AcDbEntity
  8
DIM
 62
     0
100
AcDbLine
 10
2.0
 20
0.0
 30
0.0
 11
3.5
 21
0.0
 31
0.0
  0
ENDBLK
  5
2CD
330
2CB
100
AcDbEntity
  8
0
100
AcDbBlockEnd
  0
BLOCK
  5
2D8
330
2D7
100
AcDbEntity
  8
0
100
AcDbBlockBegin
  2
SW_CENTERMARKSYMBOL_1
 70
     0
 10
0.0
 20
0.0
 30
0.0
  3
SW_CENTERMARKSYMBOL_1
  1

  0
LINE
  5
2DA
330
2D7
100
AcDbEntity
  8
DIM
 62
     0
100
AcDbLine
 10
0.0
 20
0.0
 30
0.0
 11
0.0
 21
1.0
 31
0.0
  0
LINE
  5
2DB
330
2D7
100
AcDbEntity
  8
DIM
 62
     0
100
AcDbLine
 10
0.0
 20
0.0
 30
0.0
 11
-1.0
 21
0.0
 31
0.0
  0
LINE
  5
2DC
330
2D7
100
AcDbEntity
  8
DIM
 62
     0
100
AcDbLine
 10
0.0
 20
0.0
 30
0.0
 11
0.0
 21
-1.0
 31
0.0
  0
LINE
  5
2DD
330
2D7
100
AcDbEntity
  8
DIM
 62
     0
100
AcDbLine
 10
0.0
 20
0.0
 30
0.0
 11
1.0
 21
0.0
 31
0.0
  0
LINE
  5
2DE
330
2D7
100
AcDbEntity
  8
DIM
 62
     0
100
AcDbLine
 10
0.0
 20
2.0
 30
0.0
 11
0.0
 21
4.3
 31
0.0
  0
LINE
  5
2DF
330
2D7
100
AcDbEntity
  8
DIM
 62
     0
100
AcDbLine
 10
-2.0
 20
0.0
 30
0.0
 11
-4.3
 21
0.0
 31
0.0
  0
LINE
  5
2E0
330
2D7
100
AcDbEntity
  8
DIM
 62
     0
100
AcDbLine
 10
0.0
 20
-2.0
 30
0.0
 11
0.0
 21
-4.3
 31
0.0
  0
LINE
  5
2E1
330
2D7
100
AcDbEntity
  8
DIM
 62
     0
100
AcDbLine
 10
2.0
 20
0.0
 30
0.0
 11
4.3
 21
0.0
 31
0.0
  0
ENDBLK
  5
2D9
330
2D7
100
AcDbEntity
  8
0
100
AcDbBlockEnd
  0
BLOCK
  5
2E4
330
2E3
100
AcDbEntity
  8
0
100
AcDbBlockBegin
  2
SW_CENTERMARKSYMBOL_2
 70
     0
 10
0.0
 20
0.0
 30
0.0
  3
SW_CENTERMARKSYMBOL_2
  1

  0
LINE
  5
2E6
330
2E3
100
AcDbEntity
  8
DIM
 62
     0
100
AcDbLine
 10
0.0
 20
0.0
 30
0.0
 11
0.0
 21
1.0
 31
0.0
  0
LINE
  5
2E7
330
2E3
100
AcDbEntity
  8
DIM
 62
     0
100
AcDbLine
 10
0.0
 20
0.0
 30
0.0
 11
-1.0
 21
0.0
 31
0.0
  0
LINE
  5
2E8
330
2E3
100
AcDbEntity
  8
DIM
 62
     0
100
AcDbLine
 10
0.0
 20
0.0
 30
0.0
 11
0.0
 21
-1.0
 31
0.0
  0
LINE
  5
2E9
330
2E3
100
AcDbEntity
  8
DIM
 62
     0
100
AcDbLine
 10
0.0
 20
0.0
 30
0.0
 11
1.0
 21
0.0
 31
0.0
  0
LINE
  5
2EA
330
2E3
100
AcDbEntity
  8
DIM
 62
     0
100
AcDbLine
 10
0.0
 20
2.0
 30
0.0
 11
0.0
 21
3.5
 31
0.0
  0
LINE
  5
2EB
330
2E3
100
AcDbEntity
  8
DIM
 62
     0
100
AcDbLine
 10
-2.0
 20
0.0
 30
0.0
 11
-3.5
 21
0.0
 31
0.0
  0
LINE
  5
2EC
330
2E3
100
AcDbEntity
  8
DIM
 62
     0
100
AcDbLine
 10
0.0
 20
-2.0
 30
0.0
 11
0.0
 21
-3.5
 31
0.0
  0
LINE
  5
2ED
330
2E3
100
AcDbEntity
  8
DIM
 62
     0
100
AcDbLine
 10
2.0
 20
0.0
 30
0.0
 11
3.5
 21
0.0
 31
0.0
  0
ENDBLK
  5
2E5
330
2E3
100
AcDbEntity
  8
0
100
AcDbBlockEnd
  0
BLOCK
  5
2F0
330
2EF
100
AcDbEntity
  8
0
100
AcDbBlockBegin
  2
SW_CENTERMARKSYMBOL_3
 70
     0
 10
0.0
 20
0.0
 30
0.0
  3
SW_CENTERMARKSYMBOL_3
  1

  0
LINE
  5
2F2
330
2EF
100
AcDbEntity
  8
DIM
 62
     0
100
AcDbLine
 10
0.0
 20
0.0
 30
0.0
 11
0.0
 21
1.0
 31
0.0
  0
LINE
  5
2F3
330
2EF
100
AcDbEntity
  8
DIM
 62
     0
100
AcDbLine
 10
0.0
 20
0.0
 30
0.0
 11
-1.0
 21
0.0
 31
0.0
  0
LINE
  5
2F4
330
2EF
100
AcDbEntity
  8
DIM
 62
     0
100
AcDbLine
 10
0.0
 20
0.0
 30
0.0
 11
0.0
 21
-1.0
 31
0.0
  0
LINE
  5
2F5
330
2EF
100
AcDbEntity
  8
DIM
 62
     0
100
AcDbLine
 10
0.0
 20
0.0
 30
0.0
 11
1.0
 21
0.0
 31
0.0
  0
LINE
  5
2F6
330
2EF
100
AcDbEntity
  8
DIM
 62
     0
100
AcDbLine
 10
0.0
 20
2.0
 30
0.0
 11
0.0
 21
4.3
 31
0.0
  0
LINE
  5
2F7
330
2EF
100
AcDbEntity
  8
DIM
 62
     0
100
AcDbLine
 10
-2.0
 20
0.0
 30
0.0
 11
-4.3
 21
0.0
 31
0.0
  0
LINE
  5
2F8
330
2EF
100
AcDbEntity
  8
DIM
 62
     0
100
AcDbLine
 10
0.0
 20
-2.0
 30
0.0
 11
0.0
 21
-4.3
 31
0.0
  0
LINE
  5
2F9
330
2EF
100
AcDbEntity
  8
DIM
 62
     0
100
AcDbLine
 10
2.0
 20
0.0
 30
0.0
 11
4.3
 21
0.0
 31
0.0
  0
ENDBLK
  5
2F1
330
2EF
100
AcDbEntity
  8
0
100
AcDbBlockEnd
  0
BLOCK
  5
2FC
330
2FB
100
AcDbEntity
  8
0
100
AcDbBlockBegin
  2
SW_CENTERMARKSYMBOL_4
 70
     0
 10
0.0
 20
0.0
 30
0.0
  3
SW_CENTERMARKSYMBOL_4
  1

  0
LINE
  5
2FE
330
2FB
100
AcDbEntity
  8
DIM
 62
     0
100
AcDbLine
 10
0.0
 20
0.0
 30
0.0
 11
0.0
 21
1.0
 31
0.0
  0
LINE
  5
2FF
330
2FB
100
AcDbEntity
  8
DIM
 62
     0
100
AcDbLine
 10
0.0
 20
0.0
 30
0.0
 11
-1.0
 21
0.0
 31
0.0
  0
LINE
  5
300
330
2FB
100
AcDbEntity
  8
DIM
 62
     0
100
AcDbLine
 10
0.0
 20
0.0
 30
0.0
 11
0.0
 21
-1.0
 31
0.0
  0
LINE
  5
301
330
2FB
100
AcDbEntity
  8
DIM
 62
     0
100
AcDbLine
 10
0.0
 20
0.0
 30
0.0
 11
1.0
 21
0.0
 31
0.0
  0
LINE
  5
302
330
2FB
100
AcDbEntity
  8
DIM
 62
     0
100
AcDbLine
 10
0.0
 20
2.0
 30
0.0
 11
0.0
 21
3.5
 31
0.0
  0
LINE
  5
303
330
2FB
100
AcDbEntity
  8
DIM
 62
     0
100
AcDbLine
 10
-2.0
 20
0.0
 30
0.0
 11
-3.5
 21
0.0
 31
0.0
  0
LINE
  5
304
330
2FB
100
AcDbEntity
  8
DIM
 62
     0
100
AcDbLine
 10
0.0
 20
-2.0
 30
0.0
 11
0.0
 21
-3.5
 31
0.0
  0
LINE
  5
305
330
2FB
100
AcDbEntity
  8
DIM
 62
     0
100
AcDbLine
 10
2.0
 20
0.0
 30
0.0
 11
3.5
 21
0.0
 31
0.0
  0
ENDBLK
  5
2FD
330
2FB
100
AcDbEntity
  8
0
100
AcDbBlockEnd
  0
BLOCK
  5
308
330
307
100
AcDbEntity
  8
0
100
AcDbBlockBegin
  2
SW_CENTERMARKSYMBOL_5
 70
     0
 10
0.0
 20
0.0
 30
0.0
  3
SW_CENTERMARKSYMBOL_5
  1

  0
LINE
  5
30A
330
307
100
AcDbEntity
  8
DIM
 62
     0
100
AcDbLine
 10
0.0
 20
0.0
 30
0.0
 11
0.0
 21
1.0
 31
0.0
  0
LINE
  5
30B
330
307
100
AcDbEntity
  8
DIM
 62
     0
100
AcDbLine
 10
0.0
 20
0.0
 30
0.0
 11
-1.0
 21
0.0
 31
0.0
  0
LINE
  5
30C
330
307
100
AcDbEntity
  8
DIM
 62
     0
100
AcDbLine
 10
0.0
 20
0.0
 30
0.0
 11
0.0
 21
-1.0
 31
0.0
  0
LINE
  5
30D
330
307
100
AcDbEntity
  8
DIM
 62
     0
100
AcDbLine
 10
0.0
 20
0.0
 30
0.0
 11
1.0
 21
0.0
 31
0.0
  0
LINE
  5
30E
330
307
100
AcDbEntity
  8
DIM
 62
     0
100
AcDbLine
 10
0.0
 20
2.0
 30
0.0
 11
0.0
 21
4.3
 31
0.0
  0
LINE
  5
30F
330
307
100
AcDbEntity
  8
DIM
 62
     0
100
AcDbLine
 10
-2.0
 20
0.0
 30
0.0
 11
-4.3
 21
0.0
 31
0.0
  0
LINE
  5
310
330
307
100
AcDbEntity
  8
DIM
 62
     0
100
AcDbLine
 10
0.0
 20
-2.0
 30
0.0
 11
0.0
 21
-4.3
 31
0.0
  0
LINE
  5
311
330
307
100
AcDbEntity
  8
DIM
 62
     0
100
AcDbLine
 10
2.0
 20
0.0
 30
0.0
 11
4.3
 21
0.0
 31
0.0
  0
ENDBLK
  5
309
330
307
100
AcDbEntity
  8
0
100
AcDbBlockEnd
  0
BLOCK
  5
314
330
313
100
AcDbEntity
  8
0
100
AcDbBlockBegin
  2
SW_CENTERMARKSYMBOL_6
 70
     0
 10
0.0
 20
0.0
 30
0.0
  3
SW_CENTERMARKSYMBOL_6
  1

  0
LINE
  5
316
330
313
100
AcDbEntity
  8
DIM
 62
     0
100
AcDbLine
 10
0.0
 20
0.0
 30
0.0
 11
0.0
 21
1.0
 31
0.0
  0
LINE
  5
317
330
313
100
AcDbEntity
  8
DIM
 62
     0
100
AcDbLine
 10
0.0
 20
0.0
 30
0.0
 11
-1.0
 21
0.0
 31
0.0
  0
LINE
  5
318
330
313
100
AcDbEntity
  8
DIM
 62
     0
100
AcDbLine
 10
0.0
 20
0.0
 30
0.0
 11
0.0
 21
-1.0
 31
0.0
  0
LINE
  5
319
330
313
100
AcDbEntity
  8
DIM
 62
     0
100
AcDbLine
 10
0.0
 20
0.0
 30
0.0
 11
1.0
 21
0.0
 31
0.0
  0
LINE
  5
31A
330
313
100
AcDbEntity
  8
DIM
 62
     0
100
AcDbLine
 10
0.0
 20
2.0
 30
0.0
 11
0.0
 21
3.5
 31
0.0
  0
LINE
  5
31B
330
313
100
AcDbEntity
  8
DIM
 62
     0
100
AcDbLine
 10
-2.0
 20
0.0
 30
0.0
 11
-3.5
 21
0.0
 31
0.0
  0
LINE
  5
31C
330
313
100
AcDbEntity
  8
DIM
 62
     0
100
AcDbLine
 10
0.0
 20
-2.0
 30
0.0
 11
0.0
 21
-3.5
 31
0.0
  0
LINE
  5
31D
330
313
100
AcDbEntity
  8
DIM
 62
     0
100
AcDbLine
 10
2.0
 20
0.0
 30
0.0
 11
3.5
 21
0.0
 31
0.0
  0
ENDBLK
  5
315
330
313
100
AcDbEntity
  8
0
100
AcDbBlockEnd
  0
BLOCK
  5
320
330
31F
100
AcDbEntity
  8
0
100
AcDbBlockBegin
  2
SW_CENTERMARKSYMBOL_7
 70
     0
 10
0.0
 20
0.0
 30
0.0
  3
SW_CENTERMARKSYMBOL_7
  1

  0
LINE
  5
322
330
31F
100
AcDbEntity
  8
DIM
 62
     0
100
AcDbLine
 10
0.0
 20
0.0
 30
0.0
 11
0.0
 21
1.0
 31
0.0
  0
LINE
  5
323
330
31F
100
AcDbEntity
  8
DIM
 62
     0
100
AcDbLine
 10
0.0
 20
0.0
 30
0.0
 11
-1.0
 21
0.0
 31
0.0
  0
LINE
  5
324
330
31F
100
AcDbEntity
  8
DIM
 62
     0
100
AcDbLine
 10
0.0
 20
0.0
 30
0.0
 11
0.0
 21
-1.0
 31
0.0
  0
LINE
  5
325
330
31F
100
AcDbEntity
  8
DIM
 62
     0
100
AcDbLine
 10
0.0
 20
0.0
 30
0.0
 11
1.0
 21
0.0
 31
0.0
  0
LINE
  5
326
330
31F
100
AcDbEntity
  8
DIM
 62
     0
100
AcDbLine
 10
0.0
 20
2.0
 30
0.0
 11
0.0
 21
4.3
 31
0.0
  0
LINE
  5
327
330
31F
100
AcDbEntity
  8
DIM
 62
     0
100
AcDbLine
 10
-2.0
 20
0.0
 30
0.0
 11
-4.3
 21
0.0
 31
0.0
  0
LINE
  5
328
330
31F
100
AcDbEntity
  8
DIM
 62
     0
100
AcDbLine
 10
0.0
 20
-2.0
 30
0.0
 11
0.0
 21
-4.3
 31
0.0
  0
LINE
  5
329
330
31F
100
AcDbEntity
  8
DIM
 62
     0
100
AcDbLine
 10
2.0
 20
0.0
 30
0.0
 11
4.3
 21
0.0
 31
0.0
  0
ENDBLK
  5
321
330
31F
100
AcDbEntity
  8
0
100
AcDbBlockEnd
  0
BLOCK
  5
347
330
346
100
AcDbEntity
  8
0
100
AcDbBlockBegin
  2
_D_17
 70
     0
 10
0.0
 20
0.0
 30
0.0
  3
_D_17
  1

  0
SOLID
  5
349
330
346
100
AcDbEntity
  8
DIM
100
AcDbTrace
 10
192.0365439164
 20
53.8787838678
 30
0.0
 11
197.0365439164
 21
53.2537838678
 31
0.0
 12
197.0365439164
 22
54.5037838678
 32
0.0
 13
197.0365439164
 23
54.5037838678
 33
0.0
  0
SOLID
  5
34A
330
346
100
AcDbEntity
  8
DIM
100
AcDbTrace
 10
254.5365439164
 20
53.8787838678
 30
0.0
 11
249.5365439164
 21
54.5037838678
 31
0.0
 12
249.5365439164
 22
53.2537838678
 32
0.0
 13
249.5365439164
 23
53.2537838678
 33
0.0
  0
LINE
  5
34B
330
346
100
AcDbEntity
  8
DIM
100
AcDbLine
 10
192.0365439164
 20
69.8787838678
 30
0.0
 11
192.0365439164
 21
51.3787838678
 31
0.0
  0
LINE
  5
34C
330
346
100
AcDbEntity
  8
DIM
100
AcDbLine
 10
254.5365439164
 20
73.5787838678
 30
0.0
 11
254.5365439164
 21
51.3787838678
 31
0.0
  0
LINE
  5
34D
330
346
100
AcDbEntity
  8
DIM
100
AcDbLine
 10
192.0365439164
 20
53.8787838678
 30
0.0
 11
254.5365439164
 21
53.8787838678
 31
0.0
  0
MTEXT
  5
34E
330
346
100
AcDbEntity
  8
DIM
100
AcDbMText
 10
216.7656677211
 20
61.5527649651
 30
0.0
 40
5.953125
 41
0.0
 71
     1
 72
     1
  1
62.5
  7
SLDTEXTSTYLE1
 73
     1
 44
1.0
  0
ENDBLK
  5
348
330
346
100
AcDbEntity
  8
0
100
AcDbBlockEnd
  0
BLOCK
  5
351
330
350
100
AcDbEntity
  8
0
100
AcDbBlockBegin
  2
_D_18
 70
     0
 10
0.0
 20
0.0
 30
0.0
  3
_D_18
  1

  0
SOLID
  5
353
330
350
100
AcDbEntity
  8
DIM
100
AcDbTrace
 10
254.5365439164
 20
53.8787838678
 30
0.0
 11
259.5365439164
 21
53.2537838678
 31
0.0
 12
259.5365439164
 22
54.5037838678
 32
0.0
 13
259.5365439164
 23
54.5037838678
 33
0.0
  0
SOLID
  5
354
330
350
100
AcDbEntity
  8
DIM
100
AcDbTrace
 10
279.5365439164
 20
53.8787838678
 30
0.0
 11
274.5365439164
 21
54.5037838678
 31
0.0
 12
274.5365439164
 22
53.2537838678
 32
0.0
 13
274.5365439164
 23
53.2537838678
 33
0.0
  0
LINE
  5
355
330
350
100
AcDbEntity
  8
DIM
100
AcDbLine
 10
254.5365439164
 20
73.5787838678
 30
0.0
 11
254.5365439164
 21
51.3787838678
 31
0.0
  0
LINE
  5
356
330
350
100
AcDbEntity
  8
DIM
100
AcDbLine
 10
279.5365439164
 20
73.5787838678
 30
0.0
 11
279.5365439164
 21
51.3787838678
 31
0.0
  0
LINE
  5
357
330
350
100
AcDbEntity
  8
DIM
100
AcDbLine
 10
254.5365439164
 20
53.8787838678
 30
0.0
 11
279.5365439164
 21
53.8787838678
 31
0.0
  0
MTEXT
  5
358
330
350
100
AcDbEntity
  8
DIM
100
AcDbMText
 10
263.3103286982
 20
61.5527649651
 30
0.0
 40
5.953125
 41
0.0
 71
     1
 72
     1
  1
25
  7
SLDTEXTSTYLE1
 73
     1
 44
1.0
  0
ENDBLK
  5
352
330
350
100
AcDbEntity
  8
0
100
AcDbBlockEnd
  0
BLOCK
  5
35B
330
35A
100
AcDbEntity
  8
0
100
AcDbBlockBegin
  2
_D_19
 70
     0
 10
0.0
 20
0.0
 30
0.0
  3
_D_19
  1

  0
SOLID
  5
35D
330
35A
100
AcDbEntity
  8
DIM
100
AcDbTrace
 10
279.5365439164
 20
53.8787838678
 30
0.0
 11
284.5365439164
 21
53.2537838678
 31
0.0
 12
284.5365439164
 22
54.5037838678
 32
0.0
 13
284.5365439164
 23
54.5037838678
 33
0.0
  0
SOLID
  5
35E
330
35A
100
AcDbEntity
  8
DIM
100
AcDbTrace
 10
304.5365439164
 20
53.8787838678
 30
0.0
 11
299.5365439164
 21
54.5037838678
 31
0.0
 12
299.5365439164
 22
53.2537838678
 32
0.0
 13
299.5365439164
 23
53.2537838678
 33
0.0
  0
LINE
  5
35F
330
35A
100
AcDbEntity
  8
DIM
100
AcDbLine
 10
279.5365439164
 20
73.5787838678
 30
0.0
 11
279.5365439164
 21
51.3787838678
 31
0.0
  0
LINE
  5
360
330
35A
100
AcDbEntity
  8
DIM
100
AcDbLine
 10
304.5365439164
 20
73.5787838678
 30
0.0
 11
304.5365439164
 21
51.3787838678
 31
0.0
  0
LINE
  5
361
330
35A
100
AcDbEntity
  8
DIM
100
AcDbLine
 10
279.5365439164
 20
53.8787838678
 30
0.0
 11
304.5365439164
 21
53.8787838678
 31
0.0
  0
MTEXT
  5
362
330
35A
100
AcDbEntity
  8
DIM
100
AcDbMText
 10
288.3103286982
 20
61.5527649651
 30
0.0
 40
5.953125
 41
0.0
 71
     1
 72
     1
  1
25
  7
SLDTEXTSTYLE1
 73
     1
 44
1.0
  0
ENDBLK
  5
35C
330
35A
100
AcDbEntity
  8
0
100
AcDbBlockEnd
  0
BLOCK
  5
365
330
364
100
AcDbEntity
  8
0
100
AcDbBlockBegin
  2
_D_20
 70
     0
 10
0.0
 20
0.0
 30
0.0
  3
_D_20
  1

  0
SOLID
  5
367
330
364
100
AcDbEntity
  8
DIM
100
AcDbTrace
 10
267.0365439164
 20
106.8787838678
 30
0.0
 11
262.0365439164
 21
107.5037838678
 31
0.0
 12
262.0365439164
 22
106.2537838678
 32
0.0
 13
262.0365439164
 23
106.2537838678
 33
0.0
  0
SOLID
  5
368
330
364
100
AcDbEntity
  8
DIM
100
AcDbTrace
 10
192.0365439164
 20
106.8787838678
 30
0.0
 11
197.0365439164
 21
106.2537838678
 31
0.0
 12
197.0365439164
 22
107.5037838678
 32
0.0
 13
197.0365439164
 23
107.5037838678
 33
0.0
  0
LINE
  5
369
330
364
100
AcDbEntity
  8
DIM
100
AcDbLine
 10
267.0365439164
 20
86.3787838678
 30
0.0
 11
267.0365439164
 21
109.3787838678
 31
0.0
  0
LINE
  5
36A
330
364
100
AcDbEntity
  8
DIM
100
AcDbLine
 10
192.0365439164
 20
90.8787838678
 30
0.0
 11
192.0365439164
 21
109.3787838678
 31
0.0
  0
LINE
  5
36B
330
364
100
AcDbEntity
  8
DIM
100
AcDbLine
 10
267.0365439164
 20
106.8787838678
 30
0.0
 11
192.0365439164
 21
106.8787838678
 31
0.0
  0
MTEXT
  5
36C
330
364
100
AcDbEntity
  8
DIM
100
AcDbMText
 10
225.8103286982
 20
114.5527649651
 30
0.0
 40
5.953125
 41
0.0
 71
     1
 72
     1
  1
75
  7
SLDTEXTSTYLE1
 73
     1
 44
1.0
  0
ENDBLK
  5
366
330
364
100
AcDbEntity
  8
0
100
AcDbBlockEnd
  0
BLOCK
  5
36F
330
36E
100
AcDbEntity
  8
0
100
AcDbBlockBegin
  2
_D_21
 70
     0
 10
0.0
 20
0.0
 30
0.0
  3
_D_21
  1

  0
SOLID
  5
371
330
36E
100
AcDbEntity
  8
DIM
100
AcDbTrace
 10
267.0365439164
 20
106.8787838678
 30
0.0
 11
272.0365439164
 21
106.2537838678
 31
0.0
 12
272.0365439164
 22
107.5037838678
 32
0.0
 13
272.0365439164
 23
107.5037838678
 33
0.0
  0
SOLID
  5
372
330
36E
100
AcDbEntity
  8
DIM
100
AcDbTrace
 10
292.0365439164
 20
106.8787838678
 30
0.0
 11
287.0365439164
 21
107.5037838678
 31
0.0
 12
287.0365439164
 22
106.2537838678
 32
0.0
 13
287.0365439164
 23
106.2537838678
 33
0.0
  0
LINE
  5
373
330
36E
100
AcDbEntity
  8
DIM
100
AcDbLine
 10
267.0365439164
 20
86.3787838678
 30
0.0
 11
267.0365439164
 21
109.3787838678
 31
0.0
  0
LINE
  5
374
330
36E
100
AcDbEntity
  8
DIM
100
AcDbLine
 10
292.0365439164
 20
86.3787838678
 30
0.0
 11
292.0365439164
 21
109.3787838678
 31
0.0
  0
LINE
  5
375
330
36E
100
AcDbEntity
  8
DIM
100
AcDbLine
 10
267.0365439164
 20
106.8787838678
 30
0.0
 11
292.0365439164
 21
106.8787838678
 31
0.0
  0
MTEXT
  5
376
330
36E
100
AcDbEntity
  8
DIM
100
AcDbMText
 10
275.8103286982
 20
114.5527649651
 30
0.0
 40
5.953125
 41
0.0
 71
     1
 72
     1
  1
25
  7
SLDTEXTSTYLE1
 73
     1
 44
1.0
  0
ENDBLK
  5
370
330
36E
100
AcDbEntity
  8
0
100
AcDbBlockEnd
  0
BLOCK
  5
379
330
378
100
AcDbEntity
  8
0
100
AcDbBlockBegin
  2
_D_22
 70
     0
 10
0.0
 20
0.0
 30
0.0
  3
_D_22
  1

  0
SOLID
  5
37B
330
378
100
AcDbEntity
  8
DIM
100
AcDbTrace
 10
292.0365439164
 20
106.8787838678
 30
0.0
 11
297.0365439164
 21
106.2537838678
 31
0.0
 12
297.0365439164
 22
107.5037838678
 32
0.0
 13
297.0365439164
 23
107.5037838678
 33
0.0
  0
SOLID
  5
37C
330
378
100
AcDbEntity
  8
DIM
100
AcDbTrace
 10
329.5365439164
 20
106.8787838678
 30
0.0
 11
324.5365439164
 21
107.5037838678
 31
0.0
 12
324.5365439164
 22
106.2537838678
 32
0.0
 13
324.5365439164
 23
106.2537838678
 33
0.0
  0
LINE
  5
37D
330
378
100
AcDbEntity
  8
DIM
100
AcDbLine
 10
292.0365439164
 20
86.3787838678
 30
0.0
 11
292.0365439164
 21
109.3787838678
 31
0.0
  0
LINE
  5
37E
330
378
100
AcDbEntity
  8
DIM
100
AcDbLine
 10
329.5365439164
 20
86.3787838678
 30
0.0
 11
329.5365439164
 21
109.3787838678
 31
0.0
  0
LINE
  5
37F
330
378
100
AcDbEntity
  8
DIM
100
AcDbLine
 10
292.0365439164
 20
106.8787838678
 30
0.0
 11
329.5365439164
 21
106.8787838678
 31
0.0
  0
MTEXT
  5
380
330
378
100
AcDbEntity
  8
DIM
100
AcDbMText
 10
304.2656677211
 20
114.5527649651
 30
0.0
 40
5.953125
 41
0.0
 71
     1
 72
     1
  1
37.5
  7
SLDTEXTSTYLE1
 73
     1
 44
1.0
  0
ENDBLK
  5
37A
330
378
100
AcDbEntity
  8
0
100
AcDbBlockEnd
  0
BLOCK
  5
383
330
382
100
AcDbEntity
  8
0
100
AcDbBlockBegin
  2
_D_23
 70
     0
 10
0.0
 20
0.0
 30
0.0
  3
_D_23
  1

  0
SOLID
  5
385
330
382
100
AcDbEntity
  8
DIM
100
AcDbTrace
 10
174.5365439164
 20
80.3787838678
 30
0.0
 11
173.9115439164
 21
75.3787838678
 31
0.0
 12
175.1615439164
 22
75.3787838678
 32
0.0
 13
175.1615439164
 23
75.3787838678
 33
0.0
  0
SOLID
  5
386
330
382
100
AcDbEntity
  8
DIM
100
AcDbTrace
 10
174.5365439164
 20
89.3787838678
 30
0.0
 11
175.1615439164
 21
94.3787838678
 31
0.0
 12
173.9115439164
 22
94.3787838678
 32
0.0
 13
173.9115439164
 23
94.3787838678
 33
0.0
  0
LINE
  5
387
330
382
100
AcDbEntity
  8
DIM
100
AcDbLine
 10
247.7365439164
 20
80.3787838678
 30
0.0
 11
172.0365439164
 21
80.3787838678
 31
0.0
  0
LINE
  5
388
330
382
100
AcDbEntity
  8
DIM
100
AcDbLine
 10
190.5365439164
 20
89.3787838678
 30
0.0
 11
172.0365439164
 21
89.3787838678
 31
0.0
  0
LINE
  5
389
330
382
100
AcDbEntity
  8
DIM
100
AcDbLine
 10
174.5365439164
 20
80.3787838678
 30
0.0
 11
174.5365439164
 21
72.8787838678
 31
0.0
  0
LINE
  5
38A
330
382
100
AcDbEntity
  8
DIM
100
AcDbLine
 10
174.5365439164
 20
80.3787838678
 30
0.0
 11
174.5365439164
 21
89.3787838678
 31
0.0
  0
LINE
  5
38B
330
382
100
AcDbEntity
  8
DIM
100
AcDbLine
 10
174.5365439164
 20
89.3787838678
 30
0.0
 11
174.5365439164
 21
96.8787838678
 31
0.0
  0
MTEXT
  5
38C
330
382
100
AcDbEntity
  8
DIM
100
AcDbMText
 10
166.8625628191
 20
83.0156762587
 30
0.0
 40
5.953125
 41
0.0
 71
     1
 72
     1
  1
9
  7
SLDTEXTSTYLE1
 11
-1.608122649676637E-16
 21
1.0
 31
0.0
 73
     1
 44
1.0
  0
ENDBLK
  5
384
330
382
100
AcDbEntity
  8
0
100
AcDbBlockEnd
  0
BLOCK
  5
38E
330
38D
100
AcDbEntity
  8
0
100
AcDbBlockBegin
  2
SW_NOTE_6
 70
     0
 10
0.0
 20
0.0
 30
0.0
  3
SW_NOTE_6
  1

  0
LINE
  5
390
330
38D
100
AcDbEntity
  8
DIM
 62
     0
100
AcDbLine
 10
31.3727906841
 20
0.0
 30
0.0
 11
0.0
 21
0.0
 31
0.0
  0
MTEXT
  5
391
330
38D
100
AcDbEntity
  8
DIM
 62
     0
100
AcDbMText
 10
1.1478177913
 20
18.0117030746
 30
0.0
 40
5.953125
 41
0.0
 71
     1
 72
     1
  1
3 HOLES,
  7
SLDTEXTSTYLE1
 73
     1
 44
1.0
  0
MTEXT
  5
392
330
38D
100
AcDbEntity
  8
DIM
 62
     0
100
AcDbMText
 10
1.1478177913
 20
7.5742033428
 30
0.0
 40
5.953125
 41
0.0
 71
     1
 72
     1
  1
M6
  7
SLDTEXTSTYLE1
 73
     1
 44
1.0
  0
ENDBLK
  5
38F
330
38D
100
AcDbEntity
  8
0
100
AcDbBlockEnd
  0
BLOCK
  5
396
330
395
100
AcDbEntity
  8
0
100
AcDbBlockBegin
  2
SW_NOTE_7
 70
     0
 10
0.0
 20
0.0
 30
0.0
  3
SW_NOTE_7
  1

  0
LINE
  5
398
330
395
100
AcDbEntity
  8
DIM
 62
     0
100
AcDbLine
 10
31.3727906841
 20
0.0
 30
0.0
 11
0.0
 21
0.0
 31
0.0
  0
MTEXT
  5
399
330
395
100
AcDbEntity
  8
DIM
 62
     0
100
AcDbMText
 10
1.0855292907
 20
17.8400117684
 30
0.0
 40
5.953125
 41
0.0
 71
     1
 72
     1
  1
3 HOLES,
  7
SLDTEXTSTYLE1
 73
     1
 44
1.0
  0
MTEXT
  5
39A
330
395
100
AcDbEntity
  8
DIM
 62
     0
100
AcDbMText
 10
1.0855292907
 20
7.4025120366
 30
0.0
 40
5.953125
 41
0.0
 71
     1
 72
     1
  1
M6 CLR
  7
SLDTEXTSTYLE1
 73
     1
 44
1.0
  0
ENDBLK
  5
397
330
395
100
AcDbEntity
  8
0
100
AcDbBlockEnd
  0
BLOCK
  5
39E
330
39D
100
AcDbEntity
  8
0
100
AcDbBlockBegin
  2
SW_CENTERMARKSYMBOL_8
 70
     0
 10
0.0
 20
0.0
 30
0.0
  3
SW_CENTERMARKSYMBOL_8
  1

  0
LINE
  5
3A0
330
39D
100
AcDbEntity
  8
DIM
 62
     0
100
AcDbLine
 10
0.0
 20
0.0
 30
0.0
 11
0.0
 21
1.0
 31
0.0
  0
LINE
  5
3A1
330
39D
100
AcDbEntity
  8
DIM
 62
     0
100
AcDbLine
 10
0.0
 20
0.0
 30
0.0
 11
-1.0
 21
0.0
 31
0.0
  0
LINE
  5
3A2
330
39D
100
AcDbEntity
  8
DIM
 62
     0
100
AcDbLine
 10
0.0
 20
0.0
 30
0.0
 11
0.0
 21
-1.0
 31
0.0
  0
LINE
  5
3A3
330
39D
100
AcDbEntity
  8
DIM
 62
     0
100
AcDbLine
 10
0.0
 20
0.0
 30
0.0
 11
1.0
 21
0.0
 31
0.0
  0
LINE
  5
3A4
330
39D
100
AcDbEntity
  8
DIM
 62
     0
100
AcDbLine
 10
0.0
 20
2.0
 30
0.0
 11
0.0
 21
4.3
 31
0.0
  0
LINE
  5
3A5
330
39D
100
AcDbEntity
  8
DIM
 62
     0
100
AcDbLine
 10
-2.0
 20
0.0
 30
0.0
 11
-4.3
 21
0.0
 31
0.0
  0
LINE
  5
3A6
330
39D
100
AcDbEntity
  8
DIM
 62
     0
100
AcDbLine
 10
0.0
 20
-2.0
 30
0.0
 11
0.0
 21
-4.3
 31
0.0
  0
LINE
  5
3A7
330
39D
100
AcDbEntity
  8
DIM
 62
     0
100
AcDbLine
 10
2.0
 20
0.0
 30
0.0
 11
4.3
 21
0.0
 31
0.0
  0
ENDBLK
  5
39F
330
39D
100
AcDbEntity
  8
0
100
AcDbBlockEnd
  0
BLOCK
  5
3AA
330
3A9
100
AcDbEntity
  8
0
100
AcDbBlockBegin
  2
SW_CENTERMARKSYMBOL_9
 70
     0
 10
0.0
 20
0.0
 30
0.0
  3
SW_CENTERMARKSYMBOL_9
  1

  0
LINE
  5
3AC
330
3A9
100
AcDbEntity
  8
DIM
 62
     0
100
AcDbLine
 10
0.0
 20
0.0
 30
0.0
 11
0.0
 21
1.0
 31
0.0
  0
LINE
  5
3AD
330
3A9
100
AcDbEntity
  8
DIM
 62
     0
100
AcDbLine
 10
0.0
 20
0.0
 30
0.0
 11
-1.0
 21
0.0
 31
0.0
  0
LINE
  5
3AE
330
3A9
100
AcDbEntity
  8
DIM
 62
     0
100
AcDbLine
 10
0.0
 20
0.0
 30
0.0
 11
0.0
 21
-1.0
 31
0.0
  0
LINE
  5
3AF
330
3A9
100
AcDbEntity
  8
DIM
 62
     0
100
AcDbLine
 10
0.0
 20
0.0
 30
0.0
 11
1.0
 21
0.0
 31
0.0
  0
LINE
  5
3B0
330
3A9
100
AcDbEntity
  8
DIM
 62
     0
100
AcDbLine
 10
0.0
 20
2.0
 30
0.0
 11
0.0
 21
3.5
 31
0.0
  0
LINE
  5
3B1
330
3A9
100
AcDbEntity
  8
DIM
 62
     0
100
AcDbLine
 10
-2.0
 20
0.0
 30
0.0
 11
-3.5
 21
0.0
 31
0.0
  0
LINE
  5
3B2
330
3A9
100
AcDbEntity
  8
DIM
 62
     0
100
AcDbLine
 10
0.0
 20
-2.0
 30
0.0
 11
0.0
 21
-3.5
 31
0.0
  0
LINE
  5
3B3
330
3A9
100
AcDbEntity
  8
DIM
 62
     0
100
AcDbLine
 10
2.0
 20
0.0
 30
0.0
 11
3.5
 21
0.0
 31
0.0
  0
ENDBLK
  5
3AB
330
3A9
100
AcDbEntity
  8
0
100
AcDbBlockEnd
  0
BLOCK
  5
3B6
330
3B5
100
AcDbEntity
  8
0
100
AcDbBlockBegin
  2
SW_CENTERMARKSYMBOL_10
 70
     0
 10
0.0
 20
0.0
 30
0.0
  3
SW_CENTERMARKSYMBOL_10
  1

  0
LINE
  5
3B8
330
3B5
100
AcDbEntity
  8
DIM
 62
     0
100
AcDbLine
 10
0.0
 20
0.0
 30
0.0
 11
0.0
 21
1.0
 31
0.0
  0
LINE
  5
3B9
330
3B5
100
AcDbEntity
  8
DIM
 62
     0
100
AcDbLine
 10
0.0
 20
0.0
 30
0.0
 11
-1.0
 21
0.0
 31
0.0
  0
LINE
  5
3BA
330
3B5
100
AcDbEntity
  8
DIM
 62
     0
100
AcDbLine
 10
0.0
 20
0.0
 30
0.0
 11
0.0
 21
-1.0
 31
0.0
  0
LINE
  5
3BB
330
3B5
100
AcDbEntity
  8
DIM
 62
     0
100
AcDbLine
 10
0.0
 20
0.0
 30
0.0
 11
1.0
 21
0.0
 31
0.0
  0
LINE
  5
3BC
330
3B5
100
AcDbEntity
  8
DIM
 62
     0
100
AcDbLine
 10
0.0
 20
2.0
 30
0.0
 11
0.0
 21
4.3
 31
0.0
  0
LINE
  5
3BD
330
3B5
100
AcDbEntity
  8
DIM
 62
     0
100
AcDbLine
 10
-2.0
 20
0.0
 30
0.0
 11
-4.3
 21
0.0
 31
0.0
  0
LINE
  5
3BE
330
3B5
100
AcDbEntity
  8
DIM
 62
     0
100
AcDbLine
 10
0.0
 20
-2.0
 30
0.0
 11
0.0
 21
-4.3
 31
0.0
  0
LINE
  5
3BF
330
3B5
100
AcDbEntity
  8
DIM
 62
     0
100
AcDbLine
 10
2.0
 20
0.0
 30
0.0
 11
4.3
 21
0.0
 31
0.0
  0
ENDBLK
  5
3B7
330
3B5
100
AcDbEntity
  8
0
100
AcDbBlockEnd
  0
BLOCK
  5
3C2
330
3C1
100
AcDbEntity
  8
0
100
AcDbBlockBegin
  2
SW_CENTERMARKSYMBOL_11
 70
     0
 10
0.0
 20
0.0
 30
0.0
  3
SW_CENTERMARKSYMBOL_11
  1

  0
LINE
  5
3C4
330
3C1
100
AcDbEntity
  8
DIM
 62
     0
100
AcDbLine
 10
0.0
 20
0.0
 30
0.0
 11
0.0
 21
1.0
 31
0.0
  0
LINE
  5
3C5
330
3C1
100
AcDbEntity
  8
DIM
 62
     0
100
AcDbLine
 10
0.0
 20
0.0
 30
0.0
 11
-1.0
 21
0.0
 31
0.0
  0
LINE
  5
3C6
330
3C1
100
AcDbEntity
  8
DIM
 62
     0
100
AcDbLine
 10
0.0
 20
0.0
 30
0.0
 11
0.0
 21
-1.0
 31
0.0
  0
LINE
  5
3C7
330
3C1
100
AcDbEntity
  8
DIM
 62
     0
100
AcDbLine
 10
0.0
 20
0.0
 30
0.0
 11
1.0
 21
0.0
 31
0.0
  0
LINE
  5
3C8
330
3C1
100
AcDbEntity
  8
DIM
 62
     0
100
AcDbLine
 10
0.0
 20
2.0
 30
0.0
 11
0.0
 21
3.5
 31
0.0
  0
LINE
  5
3C9
330
3C1
100
AcDbEntity
  8
DIM
 62
     0
100
AcDbLine
 10
-2.0
 20
0.0
 30
0.0
 11
-3.5
 21
0.0
 31
0.0
  0
LINE
  5
3CA
330
3C1
100
AcDbEntity
  8
DIM
 62
     0
100
AcDbLine
 10
0.0
 20
-2.0
 30
0.0
 11
0.0
 21
-3.5
 31
0.0
  0
LINE
  5
3CB
330
3C1
100
AcDbEntity
  8
DIM
 62
     0
100
AcDbLine
 10
2.0
 20
0.0
 30
0.0
 11
3.5
 21
0.0
 31
0.0
  0
ENDBLK
  5
3C3
330
3C1
100
AcDbEntity
  8
0
100
AcDbBlockEnd
  0
BLOCK
  5
3CE
330
3CD
100
AcDbEntity
  8
0
100
AcDbBlockBegin
  2
SW_CENTERMARKSYMBOL_12
 70
     0
 10
0.0
 20
0.0
 30
0.0
  3
SW_CENTERMARKSYMBOL_12
  1

  0
LINE
  5
3D0
330
3CD
100
AcDbEntity
  8
DIM
 62
     0
100
AcDbLine
 10
0.0
 20
0.0
 30
0.0
 11
0.0
 21
1.0
 31
0.0
  0
LINE
  5
3D1
330
3CD
100
AcDbEntity
  8
DIM
 62
     0
100
AcDbLine
 10
0.0
 20
0.0
 30
0.0
 11
-1.0
 21
0.0
 31
0.0
  0
LINE
  5
3D2
330
3CD
100
AcDbEntity
  8
DIM
 62
     0
100
AcDbLine
 10
0.0
 20
0.0
 30
0.0
 11
0.0
 21
-1.0
 31
0.0
  0
LINE
  5
3D3
330
3CD
100
AcDbEntity
  8
DIM
 62
     0
100
AcDbLine
 10
0.0
 20
0.0
 30
0.0
 11
1.0
 21
0.0
 31
0.0
  0
LINE
  5
3D4
330
3CD
100
AcDbEntity
  8
DIM
 62
     0
100
AcDbLine
 10
0.0
 20
2.0
 30
0.0
 11
0.0
 21
4.3
 31
0.0
  0
LINE
  5
3D5
330
3CD
100
AcDbEntity
  8
DIM
 62
     0
100
AcDbLine
 10
-2.0
 20
0.0
 30
0.0
 11
-4.3
 21
0.0
 31
0.0
  0
LINE
  5
3D6
330
3CD
100
AcDbEntity
  8
DIM
 62
     0
100
AcDbLine
 10
0.0
 20
-2.0
 30
0.0
 11
0.0
 21
-4.3
 31
0.0
  0
LINE
  5
3D7
330
3CD
100
AcDbEntity
  8
DIM
 62
     0
100
AcDbLine
 10
2.0
 20
0.0
 30
0.0
 11
4.3
 21
0.0
 31
0.0
  0
ENDBLK
  5
3CF
330
3CD
100
AcDbEntity
  8
0
100
AcDbBlockEnd
  0
BLOCK
  5
3DA
330
3D9
100
AcDbEntity
  8
0
100
AcDbBlockBegin
  2
SW_CENTERMARKSYMBOL_13
 70
     0
 10
0.0
 20
0.0
 30
0.0
  3
SW_CENTERMARKSYMBOL_13
  1

  0
LINE
  5
3DC
330
3D9
100
AcDbEntity
  8
DIM
 62
     0
100
AcDbLine
 10
0.0
 20
0.0
 30
0.0
 11
0.0
 21
1.0
 31
0.0
  0
LINE
  5
3DD
330
3D9
100
AcDbEntity
  8
DIM
 62
     0
100
AcDbLine
 10
0.0
 20
0.0
 30
0.0
 11
-1.0
 21
0.0
 31
0.0
  0
LINE
  5
3DE
330
3D9
100
AcDbEntity
  8
DIM
 62
     0
100
AcDbLine
 10
0.0
 20
0.0
 30
0.0
 11
0.0
 21
-1.0
 31
0.0
  0
LINE
  5
3DF
330
3D9
100
AcDbEntity
  8
DIM
 62
     0
100
AcDbLine
 10
0.0
 20
0.0
 30
0.0
 11
1.0
 21
0.0
 31
0.0
  0
LINE
  5
3E0
330
3D9
100
AcDbEntity
  8
DIM
 62
     0
100
AcDbLine
 10
0.0
 20
2.0
 30
0.0
 11
0.0
 21
3.5
 31
0.0
  0
LINE
  5
3E1
330
3D9
100
AcDbEntity
  8
DIM
 62
     0
100
AcDbLine
 10
-2.0
 20
0.0
 30
0.0
 11
-3.5
 21
0.0
 31
0.0
  0
LINE
  5
3E2
330
3D9
100
AcDbEntity
  8
DIM
 62
     0
100
AcDbLine
 10
0.0
 20
-2.0
 30
0.0
 11
0.0
 21
-3.5
 31
0.0
  0
LINE
  5
3E3
330
3D9
100
AcDbEntity
  8
DIM
 62
     0
100
AcDbLine
 10
2.0
 20
0.0
 30
0.0
 11
3.5
 21
0.0
 31
0.0
  0
ENDBLK
  5
3DB
330
3D9
100
AcDbEntity
  8
0
100
AcDbBlockEnd
  0
BLOCK
  5
40C
330
40B
100
AcDbEntity
  8
0
100
AcDbBlockBegin
  2
_D_24
 70
     0
 10
0.0
 20
0.0
 30
0.0
  3
_D_24
  1

  0
SOLID
  5
40E
330
40B
100
AcDbEntity
  8
DIM
100
AcDbTrace
 10
174.5365439164
 20
425.2294163415
 30
0.0
 11
175.1615439164
 21
430.2294163415
 31
0.0
 12
173.9115439164
 22
430.2294163415
 32
0.0
 13
173.9115439164
 23
430.2294163415
 33
0.0
  0
SOLID
  5
40F
330
40B
100
AcDbEntity
  8
DIM
100
AcDbTrace
 10
174.5365439164
 20
416.2294163415
 30
0.0
 11
173.9115439164
 21
411.2294163415
 31
0.0
 12
175.1615439164
 22
411.2294163415
 32
0.0
 13
175.1615439164
 23
411.2294163415
 33
0.0
  0
LINE
  5
410
330
40B
100
AcDbEntity
  8
DIM
100
AcDbLine
 10
198.5365439164
 20
425.2294163415
 30
0.0
 11
172.0365439164
 21
425.2294163415
 31
0.0
  0
LINE
  5
411
330
40B
100
AcDbEntity
  8
DIM
100
AcDbLine
 10
190.5365439164
 20
416.2294163415
 30
0.0
 11
172.0365439164
 21
416.2294163415
 31
0.0
  0
LINE
  5
412
330
40B
100
AcDbEntity
  8
DIM
100
AcDbLine
 10
174.5365439164
 20
425.2294163415
 30
0.0
 11
174.5365439164
 21
432.7294163415
 31
0.0
  0
LINE
  5
413
330
40B
100
AcDbEntity
  8
DIM
100
AcDbLine
 10
174.5365439164
 20
425.2294163415
 30
0.0
 11
174.5365439164
 21
416.2294163415
 31
0.0
  0
LINE
  5
414
330
40B
100
AcDbEntity
  8
DIM
100
AcDbLine
 10
174.5365439164
 20
416.2294163415
 30
0.0
 11
174.5365439164
 21
408.7294163415
 31
0.0
  0
MTEXT
  5
415
330
40B
100
AcDbEntity
  8
DIM
100
AcDbMText
 10
166.8625628191
 20
418.8663087324
 30
0.0
 40
5.953125
 41
0.0
 71
     1
 72
     1
  1
9
  7
SLDTEXTSTYLE1
 11
-1.059690869644414E-14
 21
1.0
 31
0.0
 73
     1
 44
1.0
  0
ENDBLK
  5
40D
330
40B
100
AcDbEntity
  8
0
100
AcDbBlockEnd
  0
BLOCK
  5
418
330
417
100
AcDbEntity
  8
0
100
AcDbBlockBegin
  2
_D_25
 70
     0
 10
0.0
 20
0.0
 30
0.0
  3
_D_25
  1

  0
SOLID
  5
41A
330
417
100
AcDbEntity
  8
DIM
100
AcDbTrace
 10
162.0365439164
 20
434.2294163415
 30
0.0
 11
161.4115439164
 21
429.2294163415
 31
0.0
 12
162.6615439164
 22
429.2294163415
 32
0.0
 13
162.6615439164
 23
429.2294163415
 33
0.0
  0
SOLID
  5
41B
330
417
100
AcDbEntity
  8
DIM
100
AcDbTrace
 10
162.0365439164
 20
416.2294163415
 30
0.0
 11
162.6615439164
 21
421.2294163415
 31
0.0
 12
161.4115439164
 22
421.2294163415
 32
0.0
 13
161.4115439164
 23
421.2294163415
 33
0.0
  0
LINE
  5
41C
330
417
100
AcDbEntity
  8
DIM
100
AcDbLine
 10
190.5365439164
 20
434.2294163415
 30
0.0
 11
159.5365439164
 21
434.2294163415
 31
0.0
  0
LINE
  5
41D
330
417
100
AcDbEntity
  8
DIM
100
AcDbLine
 10
190.5365439164
 20
416.2294163415
 30
0.0
 11
159.5365439164
 21
416.2294163415
 31
0.0
  0
LINE
  5
41E
330
417
100
AcDbEntity
  8
DIM
100
AcDbLine
 10
162.0365439164
 20
434.2294163415
 30
0.0
 11
162.0365439164
 21
416.2294163415
 31
0.0
  0
MTEXT
  5
41F
330
417
100
AcDbEntity
  8
DIM
100
AcDbMText
 10
154.3625628191
 20
421.5032011233
 30
0.0
 40
5.953125
 41
0.0
 71
     1
 72
     1
  1
18
  7
SLDTEXTSTYLE1
 11
-1.059690869644414E-14
 21
1.0
 31
0.0
 73
     1
 44
1.0
  0
ENDBLK
  5
419
330
417
100
AcDbEntity
  8
0
100
AcDbBlockEnd
  0
BLOCK
  5
422
330
421
100
AcDbEntity
  8
0
100
AcDbBlockBegin
  2
_D_26
 70
     0
 10
0.0
 20
0.0
 30
0.0
  3
_D_26
  1

  0
SOLID
  5
424
330
421
100
AcDbEntity
  8
DIM
100
AcDbTrace
 10
204.5365439164
 20
451.7294163415
 30
0.0
 11
209.5365439164
 21
451.1044163415
 31
0.0
 12
209.5365439164
 22
452.3544163415
 32
0.0
 13
209.5365439164
 23
452.3544163415
 33
0.0
  0
SOLID
  5
425
330
421
100
AcDbEntity
  8
DIM
100
AcDbTrace
 10
192.0365439164
 20
451.7294163415
 30
0.0
 11
187.0365439164
 21
452.3544163415
 31
0.0
 12
187.0365439164
 22
451.1044163415
 32
0.0
 13
187.0365439164
 23
451.1044163415
 33
0.0
  0
LINE
  5
426
330
421
100
AcDbEntity
  8
DIM
100
AcDbLine
 10
204.5365439164
 20
431.2294163415
 30
0.0
 11
204.5365439164
 21
454.2294163415
 31
0.0
  0
LINE
  5
427
330
421
100
AcDbEntity
  8
DIM
100
AcDbLine
 10
192.0365439164
 20
435.7294163415
 30
0.0
 11
192.0365439164
 21
454.2294163415
 31
0.0
  0
LINE
  5
428
330
421
100
AcDbEntity
  8
DIM
100
AcDbLine
 10
204.5365439164
 20
451.7294163415
 30
0.0
 11
212.0365439164
 21
451.7294163415
 31
0.0
  0
LINE
  5
429
330
421
100
AcDbEntity
  8
DIM
100
AcDbLine
 10
204.5365439164
 20
451.7294163415
 30
0.0
 11
192.0365439164
 21
451.7294163415
 31
0.0
  0
LINE
  5
42A
330
421
100
AcDbEntity
  8
DIM
100
AcDbLine
 10
192.0365439164
 20
451.7294163415
 30
0.0
 11
184.5365439164
 21
451.7294163415
 31
0.0
  0
MTEXT
  5
42B
330
421
100
AcDbEntity
  8
DIM
100
AcDbMText
 10
191.7656677211
 20
459.4033974388
 30
0.0
 40
5.953125
 41
0.0
 71
     1
 72
     1
  1
12.5
  7
SLDTEXTSTYLE1
 73
     1
 44
1.0
  0
ENDBLK
  5
423
330
421
100
AcDbEntity
  8
0
100
AcDbBlockEnd
  0
BLOCK
  5
42D
330
42C
100
AcDbEntity
  8
0
100
AcDbBlockBegin
  2
SW_NOTE_8
 70
     0
 10
0.0
 20
0.0
 30
0.0
  3
SW_NOTE_8
  1

  0
LINE
  5
42F
330
42C
100
AcDbEntity
  8
DIM
 62
     0
100
AcDbLine
 10
10.0628053705
 20
0.0
 30
0.0
 11
0.0
 21
0.0
 31
0.0
  0
MTEXT
  5
430
330
42C
100
AcDbEntity
  8
DIM
 62
     0
100
AcDbMText
 10
1.169423289
 20
7.8279752948
 30
0.0
 40
5.953125
 41
0.0
 71
     1
 72
     1
  1
M6
  7
SLDTEXTSTYLE1
 73
     1
 44
1.0
  0
ENDBLK
  5
42E
330
42C
100
AcDbEntity
  8
0
100
AcDbBlockEnd
  0
BLOCK
  5
434
330
433
100
AcDbEntity
  8
0
100
AcDbBlockBegin
  2
SW_CENTERMARKSYMBOL_14
 70
     0
 10
0.0
 20
0.0
 30
0.0
  3
SW_CENTERMARKSYMBOL_14
  1

  0
LINE
  5
436
330
433
100
AcDbEntity
  8
DIM
 62
     0
100
AcDbLine
 10
0.0
 20
0.0
 30
0.0
 11
0.0
 21
1.0
 31
0.0
  0
LINE
  5
437
330
433
100
AcDbEntity
  8
DIM
 62
     0
100
AcDbLine
 10
0.0
 20
0.0
 30
0.0
 11
-1.0
 21
0.0
 31
0.0
  0
LINE
  5
438
330
433
100
AcDbEntity
  8
DIM
 62
     0
100
AcDbLine
 10
0.0
 20
0.0
 30
0.0
 11
0.0
 21
-1.0
 31
0.0
  0
LINE
  5
439
330
433
100
AcDbEntity
  8
DIM
 62
     0
100
AcDbLine
 10
0.0
 20
0.0
 30
0.0
 11
1.0
 21
0.0
 31
0.0
  0
LINE
  5
43A
330
433
100
AcDbEntity
  8
DIM
 62
     0
100
AcDbLine
 10
0.0
 20
2.0
 30
0.0
 11
0.0
 21
3.5
 31
0.0
  0
LINE
  5
43B
330
433
100
AcDbEntity
  8
DIM
 62
     0
100
AcDbLine
 10
-2.0
 20
0.0
 30
0.0
 11
-3.5
 21
0.0
 31
0.0
  0
LINE
  5
43C
330
433
100
AcDbEntity
  8
DIM
 62
     0
100
AcDbLine
 10
0.0
 20
-2.0
 30
0.0
 11
0.0
 21
-3.5
 31
0.0
  0
LINE
  5
43D
330
433
100
AcDbEntity
  8
DIM
 62
     0
100
AcDbLine
 10
2.0
 20
0.0
 30
0.0
 11
3.5
 21
0.0
 31
0.0
  0
ENDBLK
  5
435
330
433
100
AcDbEntity
  8
0
100
AcDbBlockEnd
  0
BLOCK
  5
467
330
466
100
AcDbEntity
  8
0
100
AcDbBlockBegin
  2
_D_27
 70
     0
 10
0.0
 20
0.0
 30
0.0
  3
_D_27
  1

  0
SOLID
  5
469
330
466
100
AcDbEntity
  8
DIM
100
AcDbTrace
 10
443.9638093426
 20
190.6328158808
 30
0.0
 11
443.3388093426
 21
185.6328158808
 31
0.0
 12
444.5888093426
 22
185.6328158808
 32
0.0
 13
444.5888093426
 23
185.6328158808
 33
0.0
  0
SOLID
  5
46A
330
466
100
AcDbEntity
  8
DIM
100
AcDbTrace
 10
443.9638093426
 20
165.6328158808
 30
0.0
 11
444.5888093426
 21
170.6328158808
 31
0.0
 12
443.3388093426
 22
170.6328158808
 32
0.0
 13
443.3388093426
 23
170.6328158808
 33
0.0
  0
LINE
  5
46B
330
466
100
AcDbEntity
  8
DIM
100
AcDbLine
 10
423.4638093426
 20
190.6328158808
 30
0.0
 11
446.4638093426
 21
190.6328158808
 31
0.0
  0
LINE
  5
46C
330
466
100
AcDbEntity
  8
DIM
100
AcDbLine
 10
427.9638093426
 20
165.6328158808
 30
0.0
 11
446.4638093426
 21
165.6328158808
 31
0.0
  0
LINE
  5
46D
330
466
100
AcDbEntity
  8
DIM
100
AcDbLine
 10
443.9638093426
 20
190.6328158808
 30
0.0
 11
443.9638093426
 21
165.6328158808
 31
0.0
  0
MTEXT
  5
46E
330
466
100
AcDbEntity
  8
DIM
100
AcDbMText
 10
436.2898282453
 20
174.4066006626
 30
0.0
 40
5.953125
 41
0.0
 71
     1
 72
     1
  1
25
  7
SLDTEXTSTYLE1
 11
-7.044195017643634E-15
 21
1.0
 31
0.0
 73
     1
 44
1.0
  0
ENDBLK
  5
468
330
466
100
AcDbEntity
  8
0
100
AcDbBlockEnd
  0
BLOCK
  5
471
330
470
100
AcDbEntity
  8
0
100
AcDbBlockBegin
  2
_D_28
 70
     0
 10
0.0
 20
0.0
 30
0.0
  3
_D_28
  1

  0
SOLID
  5
473
330
470
100
AcDbEntity
  8
DIM
100
AcDbTrace
 10
443.9638093426
 20
190.6328158808
 30
0.0
 11
444.5888093426
 21
195.6328158808
 31
0.0
 12
443.3388093426
 22
195.6328158808
 32
0.0
 13
443.3388093426
 23
195.6328158808
 33
0.0
  0
SOLID
  5
474
330
470
100
AcDbEntity
  8
DIM
100
AcDbTrace
 10
443.9638093426
 20
215.6328158808
 30
0.0
 11
443.3388093426
 21
210.6328158808
 31
0.0
 12
444.5888093426
 22
210.6328158808
 32
0.0
 13
444.5888093426
 23
210.6328158808
 33
0.0
  0
LINE
  5
475
330
470
100
AcDbEntity
  8
DIM
100
AcDbLine
 10
423.4638093426
 20
190.6328158808
 30
0.0
 11
446.4638093426
 21
190.6328158808
 31
0.0
  0
LINE
  5
476
330
470
100
AcDbEntity
  8
DIM
100
AcDbLine
 10
423.4638093426
 20
215.6328158808
 30
0.0
 11
446.4638093426
 21
215.6328158808
 31
0.0
  0
LINE
  5
477
330
470
100
AcDbEntity
  8
DIM
100
AcDbLine
 10
443.9638093426
 20
190.6328158808
 30
0.0
 11
443.9638093426
 21
215.6328158808
 31
0.0
  0
MTEXT
  5
478
330
470
100
AcDbEntity
  8
DIM
100
AcDbMText
 10
436.2898282453
 20
199.4066006626
 30
0.0
 40
5.953125
 41
0.0
 71
     1
 72
     1
  1
25
  7
SLDTEXTSTYLE1
 11
6.123233995736766E-17
 21
1.0
 31
0.0
 73
     1
 44
1.0
  0
ENDBLK
  5
472
330
470
100
AcDbEntity
  8
0
100
AcDbBlockEnd
  0
BLOCK
  5
47B
330
47A
100
AcDbEntity
  8
0
100
AcDbBlockBegin
  2
_D_29
 70
     0
 10
0.0
 20
0.0
 30
0.0
  3
_D_29
  1

  0
SOLID
  5
47D
330
47A
100
AcDbEntity
  8
DIM
100
AcDbTrace
 10
417.4638093426
 20
148.1328158808
 30
0.0
 11
422.4638093426
 21
147.5078158808
 31
0.0
 12
422.4638093426
 22
148.7578158808
 32
0.0
 13
422.4638093426
 23
148.7578158808
 33
0.0
  0
SOLID
  5
47E
330
47A
100
AcDbEntity
  8
DIM
100
AcDbTrace
 10
408.4638093426
 20
148.1328158808
 30
0.0
 11
403.4638093426
 21
148.7578158808
 31
0.0
 12
403.4638093426
 22
147.5078158808
 32
0.0
 13
403.4638093426
 23
147.5078158808
 33
0.0
  0
LINE
  5
47F
330
47A
100
AcDbEntity
  8
DIM
100
AcDbLine
 10
417.4638093426
 20
184.6328158808
 30
0.0
 11
417.4638093426
 21
145.6328158808
 31
0.0
  0
LINE
  5
480
330
47A
100
AcDbEntity
  8
DIM
100
AcDbLine
 10
408.4638093426
 20
164.1328158808
 30
0.0
 11
408.4638093426
 21
145.6328158808
 31
0.0
  0
LINE
  5
481
330
47A
100
AcDbEntity
  8
DIM
100
AcDbLine
 10
417.4638093426
 20
148.1328158808
 30
0.0
 11
424.9638093426
 21
148.1328158808
 31
0.0
  0
LINE
  5
482
330
47A
100
AcDbEntity
  8
DIM
100
AcDbLine
 10
417.4638093426
 20
148.1328158808
 30
0.0
 11
408.4638093426
 21
148.1328158808
 31
0.0
  0
LINE
  5
483
330
47A
100
AcDbEntity
  8
DIM
100
AcDbLine
 10
408.4638093426
 20
148.1328158808
 30
0.0
 11
400.9638093426
 21
148.1328158808
 31
0.0
  0
MTEXT
  5
484
330
47A
100
AcDbEntity
  8
DIM
100
AcDbMText
 10
411.1007017335
 20
155.8067969781
 30
0.0
 40
5.953125
 41
0.0
 71
     1
 72
     1
  1
9
  7
SLDTEXTSTYLE1
 73
     1
 44
1.0
  0
ENDBLK
  5
47C
330
47A
100
AcDbEntity
  8
0
100
AcDbBlockEnd
  0
BLOCK
  5
486
330
485
100
AcDbEntity
  8
0
100
AcDbBlockBegin
  2
SW_NOTE_9
 70
     0
 10
0.0
 20
0.0
 30
0.0
  3
SW_NOTE_9
  1

  0
MTEXT
  5
488
330
485
100
AcDbEntity
  8
DIM
 62
     0
100
AcDbMText
 10
1.3312671906
 20
1.416518715
 30
0.0
 40
5.953125
 41
0.0
 71
     1
 72
     1
  1
2 HOLES,
  7
SLDTEXTSTYLE1
 73
     1
 44
1.0
  0
MTEXT
  5
489
330
485
100
AcDbEntity
  8
DIM
 62
     0
100
AcDbMText
 10
1.3312671906
 20
-9.0209810168
 30
0.0
 40
5.953125
 41
0.0
 71
     1
 72
     1
  1
M6
  7
SLDTEXTSTYLE1
 73
     1
 44
1.0
  0
ENDBLK
  5
487
330
485
100
AcDbEntity
  8
0
100
AcDbBlockEnd
  0
BLOCK
  5
48D
330
48C
100
AcDbEntity
  8
0
100
AcDbBlockBegin
  2
SW_CENTERMARKSYMBOL_15
 70
     0
 10
0.0
 20
0.0
 30
0.0
  3
SW_CENTERMARKSYMBOL_15
  1

  0
LINE
  5
48F
330
48C
100
AcDbEntity
  8
DIM
 62
     0
100
AcDbLine
 10
0.0
 20
0.0
 30
0.0
 11
0.0
 21
1.0
 31
0.0
  0
LINE
  5
490
330
48C
100
AcDbEntity
  8
DIM
 62
     0
100
AcDbLine
 10
0.0
 20
0.0
 30
0.0
 11
-1.0
 21
0.0
 31
0.0
  0
LINE
  5
491
330
48C
100
AcDbEntity
  8
DIM
 62
     0
100
AcDbLine
 10
0.0
 20
0.0
 30
0.0
 11
0.0
 21
-1.0
 31
0.0
  0
LINE
  5
492
330
48C
100
AcDbEntity
  8
DIM
 62
     0
100
AcDbLine
 10
0.0
 20
0.0
 30
0.0
 11
1.0
 21
0.0
 31
0.0
  0
LINE
  5
493
330
48C
100
AcDbEntity
  8
DIM
 62
     0
100
AcDbLine
 10
0.0
 20
2.0
 30
0.0
 11
0.0
 21
3.5
 31
0.0
  0
LINE
  5
494
330
48C
100
AcDbEntity
  8
DIM
 62
     0
100
AcDbLine
 10
-2.0
 20
0.0
 30
0.0
 11
-3.5
 21
0.0
 31
0.0
  0
LINE
  5
495
330
48C
100
AcDbEntity
  8
DIM
 62
     0
100
AcDbLine
 10
0.0
 20
-2.0
 30
0.0
 11
0.0
 21
-3.5
 31
0.0
  0
LINE
  5
496
330
48C
100
AcDbEntity
  8
DIM
 62
     0
100
AcDbLine
 10
2.0
 20
0.0
 30
0.0
 11
3.5
 21
0.0
 31
0.0
  0
ENDBLK
  5
48E
330
48C
100
AcDbEntity
  8
0
100
AcDbBlockEnd
  0
BLOCK
  5
499
330
498
100
AcDbEntity
  8
0
100
AcDbBlockBegin
  2
SW_CENTERMARKSYMBOL_16
 70
     0
 10
0.0
 20
0.0
 30
0.0
  3
SW_CENTERMARKSYMBOL_16
  1

  0
LINE
  5
49B
330
498
100
AcDbEntity
  8
DIM
 62
     0
100
AcDbLine
 10
0.0
 20
0.0
 30
0.0
 11
0.0
 21
1.0
 31
0.0
  0
LINE
  5
49C
330
498
100
AcDbEntity
  8
DIM
 62
     0
100
AcDbLine
 10
0.0
 20
0.0
 30
0.0
 11
-1.0
 21
0.0
 31
0.0
  0
LINE
  5
49D
330
498
100
AcDbEntity
  8
DIM
 62
     0
100
AcDbLine
 10
0.0
 20
0.0
 30
0.0
 11
0.0
 21
-1.0
 31
0.0
  0
LINE
  5
49E
330
498
100
AcDbEntity
  8
DIM
 62
     0
100
AcDbLine
 10
0.0
 20
0.0
 30
0.0
 11
1.0
 21
0.0
 31
0.0
  0
LINE
  5
49F
330
498
100
AcDbEntity
  8
DIM
 62
     0
100
AcDbLine
 10
0.0
 20
2.0
 30
0.0
 11
0.0
 21
3.5
 31
0.0
  0
LINE
  5
4A0
330
498
100
AcDbEntity
  8
DIM
 62
     0
100
AcDbLine
 10
-2.0
 20
0.0
 30
0.0
 11
-3.5
 21
0.0
 31
0.0
  0
LINE
  5
4A1
330
498
100
AcDbEntity
  8
DIM
 62
     0
100
AcDbLine
 10
0.0
 20
-2.0
 30
0.0
 11
0.0
 21
-3.5
 31
0.0
  0
LINE
  5
4A2
330
498
100
AcDbEntity
  8
DIM
 62
     0
100
AcDbLine
 10
2.0
 20
0.0
 30
0.0
 11
3.5
 21
0.0
 31
0.0
  0
ENDBLK
  5
49A
330
498
100
AcDbEntity
  8
0
100
AcDbBlockEnd
  0
ENDSEC
  0
SECTION
  2
ENTITIES
  0
HATCH
  5
89
330
1F
100
AcDbEntity
  8
0
  6
Continuous
 62
     7
100
AcDbHatch
 10
0.0
 20
0.0
 30
0.0
210
0.0
220
0.0
230
1.0
  2
SOLID
 70
     1
 71
     0
 91
        1
 92
        0
 93
       10
 72
     2
 10
480.3514914073417
 20
89.3895220247214
 40
7.474091644424647
 50
50.39692260731395
 51
112.8514693252979
 73
     0
 72
     2
 10
479.53751490703
 20
88.59749570015511
 40
6.443338567044046
 50
108.9134333432862
 51
219.5668234386827
 73
     0
 72
     1
 10
474.5704598474009
 20
92.70175884037526
 11
472.0324752288947
 21
94.94058859241966
 72
     1
 10
472.0324752288947
 20
94.94058859241966
 11
468.7659045916906
 21
91.7866209011509
 72
     2
 10
471.2356169965973
 20
88.86530281931115
 40
3.825386084859154
 50
130.2115225915094
 51
228.5889041080181
 73
     1
 72
     1
 10
468.7052881366275
 20
85.99632834074944
 11
478.7282939121165
 21
77.28481874006276
 72
     1
 10
478.7282939121165
 20
77.28481874006276
 11
477.1506641110787
 21
75.74506776388517
 72
     1
 10
477.1506641110787
 20
75.74506776388517
 11
479.6303625228926
 21
73.6101320965006
 72
     1
 10
479.6303625228926
 20
73.6101320965006
 11
487.6545236088058
 21
81.40157701028932
 72
     1
 10
487.6545236088058
 20
81.40157701028932
 11
485.1159660296603
 21
83.63089132962207
 97
        0
 75
     0
 76
     1
 98
        1
 10
0.0
 20
0.0
  0
HATCH
  5
8A
330
1F
100
AcDbEntity
  8
0
  6
Continuous
 62
     1
100
AcDbHatch
 10
0.0
 20
0.0
 30
0.0
210
0.0
220
0.0
230
1.0
  2
SOLID
 70
     1
 71
     0
 91
        1
 92
        0
 93
       10
 72
     2
 10
481.4731139069222
 20
89.15767289079024
 40
6.443918720865625
 50
317.818499299578
 51
398.0564711573081
 73
     0
 72
     1
 10
486.5470785145408
 20
85.18539751743617
 11
489.0107007469978
 21
83.03865516771245
 72
     1
 10
489.0107007469978
 20
83.03865516771245
 11
492.1149040339822
 21
86.04973752373047
 72
     2
 10
489.881423219827
 20
89.11960435328278
 40
3.796382343545663
 50
306.0377529468132
 51
403.4396461533873
 73
     1
 72
     1
 10
492.6379728815077
 20
91.72995928337816
 11
482.3210832356494
 21
100.702899954963
 72
     1
 10
482.3210832356494
 20
100.702899954963
 11
483.8817114904676
 21
102.2255460320564
 72
     1
 10
483.8817114904676
 20
102.2255460320564
 11
481.5554452150075
 21
104.3010265816676
 72
     1
 10
481.5554452150075
 20
104.3010265816676
 11
473.4664815939828
 21
96.48372596513244
 72
     1
 10
473.4664815939828
 20
96.48372596513244
 11
476.0225012873543
 21
94.25424964733045
 72
     2
 10
480.678973180111
 20
87.80561837709479
 40
7.95409176131969
 50
234.1674444878512
 51
314.4407074583989
 73
     0
 97
        0
 75
     0
 76
     1
 98
        1
 10
0.0
 20
0.0
  0
LINE
  5
8B
330
1F
100
AcDbEntity
  8
0
  6
Continuous
 62
     7
370
     0
100
AcDbLine
 10
419.6484437962
 20
44.4362981281
 30
0.0
 11
422.1484437962
 21
44.4362981281
 31
0.0
  0
LINE
  5
8C
330
1F
100
AcDbEntity
  8
0
  6
Continuous
 62
     7
370
     0
100
AcDbLine
 10
412.1484437962
 20
44.4362981281
 30
0.0
 11
418.3984437962
 21
44.4362981281
 31
0.0
  0
LINE
  5
8D
330
1F
100
AcDbEntity
  8
0
  6
Continuous
 62
     7
370
     0
100
AcDbLine
 10
453.3984437962
 20
38.1862981281
 30
0.0
 11
453.3984437962
 21
50.6862981281
 31
0.0
  0
LINE
  5
8E
330
1F
100
AcDbEntity
  8
0
  6
Continuous
 62
     7
370
     0
100
AcDbLine
 10
435.8984437962
 20
40.6862981281
 30
0.0
 11
453.3984437962
 21
38.1862981281
 31
0.0
  0
LINE
  5
8F
330
1F
100
AcDbEntity
  8
0
  6
Continuous
 62
     7
370
     0
100
AcDbLine
 10
420.8984437962
 20
41.9362981281
 30
0.0
 11
420.8984437962
 21
35.6862981281
 31
0.0
  0
LINE
  5
90
330
1F
100
AcDbEntity
  8
0
  6
Continuous
 62
     7
370
     0
100
AcDbLine
 10
453.3984437962
 20
50.6862981281
 30
0.0
 11
435.8984437962
 21
48.1862981281
 31
0.0
  0
LINE
  5
91
330
1F
100
AcDbEntity
  8
0
  6
Continuous
 62
     7
370
     0
100
AcDbLine
 10
433.3984437962
 20
44.4362981281
 30
0.0
 11
455.8984437962
 21
44.4362981281
 31
0.0
  0
LINE
  5
92
330
1F
100
AcDbEntity
  8
0
  6
Continuous
 62
     7
370
     0
100
AcDbLine
 10
420.8984437962
 20
45.6862981281
 30
0.0
 11
420.8984437962
 21
43.1862981281
 31
0.0
  0
LINE
  5
93
330
1F
100
AcDbEntity
  8
0
  6
Continuous
 62
     7
370
     0
100
AcDbLine
 10
423.3984437962
 20
44.4362981281
 30
0.0
 11
429.6484437962
 21
44.4362981281
 31
0.0
  0
LINE
  5
94
330
1F
100
AcDbEntity
  8
0
  6
Continuous
 62
     7
370
     0
100
AcDbLine
 10
420.8984437962
 20
53.1862981281
 30
0.0
 11
420.8984437962
 21
46.9362981281
 31
0.0
  0
LINE
  5
95
330
1F
100
AcDbEntity
  8
0
  6
Continuous
 62
     7
370
     0
100
AcDbLine
 10
435.8984437962
 20
48.1862981281
 30
0.0
 11
435.8984437962
 21
40.6862981281
 31
0.0
  0
LINE
  5
96
330
1F
100
AcDbEntity
  8
工作區域參考線
 62
     1
370
    30
100
AcDbLine
 10
476.0225012874
 20
94.2542496473
 30
0.0
 11
473.466481594
 21
96.4837259651
 31
0.0
  0
LINE
  5
97
330
1F
100
AcDbEntity
  8
工作區域參考線
 62
     1
370
    30
100
AcDbLine
 10
473.466481594
 20
96.4837259651
 30
0.0
 11
481.555445215
 21
104.3010265817
 31
0.0
  0
LINE
  5
98
330
1F
100
AcDbEntity
  8
工作區域參考線
 62
     1
370
    30
100
AcDbLine
 10
481.555445215
 20
104.3010265817
 30
0.0
 11
483.8817114905
 21
102.2255460321
 31
0.0
  0
LINE
  5
99
330
1F
100
AcDbEntity
  8
工作區域參考線
 62
     1
370
    30
100
AcDbLine
 10
483.8817114905
 20
102.2255460321
 30
0.0
 11
482.3210832356
 21
100.702899955
 31
0.0
  0
LINE
  5
9A
330
1F
100
AcDbEntity
  8
工作區域參考線
 62
     1
370
    30
100
AcDbLine
 10
482.3210832356
 20
100.702899955
 30
0.0
 11
492.6379728815
 21
91.7299592834
 31
0.0
  0
LINE
  5
9B
330
1F
100
AcDbEntity
  8
工作區域參考線
 62
     1
370
    30
100
AcDbLine
 10
486.5470785145
 20
85.1853975174
 30
0.0
 11
489.010700747
 21
83.0386551677
 31
0.0
  0
LINE
  5
9C
330
1F
100
AcDbEntity
  8
工作區域參考線
 62
     1
370
    30
100
AcDbLine
 10
489.010700747
 20
83.0386551677
 30
0.0
 11
492.114904034
 21
86.0497375237
 31
0.0
  0
LINE
  5
9D
330
1F
100
AcDbEntity
  8
0
  6
Continuous
 62
     7
370
     0
100
AcDbLine
 10
464.2269913023
 20
32.7881160198
 30
0.0
 11
714.2269913023
 21
32.7881160198
 31
0.0
  0
LINE
  5
9E
330
1F
100
AcDbEntity
  8
0
  6
Continuous
 62
     7
370
     0
100
AcDbLine
 10
464.2269913023
 20
45.2881160198
 30
0.0
 11
589.2269913023
 21
45.2881160198
 31
0.0
  0
LINE
  5
9F
330
1F
100
AcDbEntity
  8
0
  6
Continuous
 62
     7
370
     0
100
AcDbLine
 10
464.2269913023
 20
57.7881160198
 30
0.0
 11
589.2269913023
 21
57.7881160198
 31
0.0
  0
LINE
  5
A0
330
1F
100
AcDbEntity
  8
0
  6
Continuous
 62
     7
370
     0
100
AcDbLine
 10
464.2269913023
 20
70.2881160198
 30
0.0
 11
714.2269913023
 21
70.2881160198
 31
0.0
  0
LINE
  5
A1
330
1F
100
AcDbEntity
  8
0
  6
Continuous
 62
     7
370
     0
100
AcDbLine
 10
589.2269913023
 20
82.7881160198
 30
0.0
 11
714.2269913023
 21
82.7881160198
 31
0.0
  0
LINE
  5
A2
330
1F
100
AcDbEntity
  8
0
  6
Continuous
 62
     7
370
    15
100
AcDbLine
 10
589.2269913023
 20
45.2881160198
 30
0.0
 11
714.2269913023
 21
45.2881160198
 31
0.0
  0
LINE
  5
A3
330
1F
100
AcDbEntity
  8
0
  6
Continuous
 62
     7
370
     0
100
AcDbLine
 10
464.2269913023
 20
107.7881160198
 30
0.0
 11
714.2269913023
 21
107.7881160198
 31
0.0
  0
LINE
  5
A4
330
1F
100
AcDbEntity
  8
0
  6
Continuous
 62
     7
370
     0
100
AcDbLine
 10
628.0930441876
 20
20.2881160198
 30
0.0
 11
628.0930441876
 21
45.2881160198
 31
0.0
  0
LINE
  5
A5
330
1F
100
AcDbEntity
  8
0
  6
Continuous
 62
     7
370
     0
100
AcDbLine
 10
589.2269913023
 20
20.2881160198
 30
0.0
 11
589.2269913023
 21
107.7881160198
 31
0.0
  0
LINE
  5
A6
330
1F
100
AcDbEntity
  8
0
  6
Continuous
 62
     7
370
     0
100
AcDbLine
 10
628.0930441876
 20
70.2881160198
 30
0.0
 11
628.0930441876
 21
82.7881160198
 31
0.0
  0
LINE
  5
A7
330
1F
100
AcDbEntity
  8
0
  6
Continuous
 62
     7
370
     0
100
AcDbLine
 10
536.0410215883
 20
20.2881160198
 30
0.0
 11
536.0410215883
 21
70.2881160198
 31
0.0
  0
LINE
  5
A8
330
1F
100
AcDbEntity
  8
0
  6
Continuous
 62
     7
370
     0
100
AcDbLine
 10
499.4464718764
 20
20.2881160198
 30
0.0
 11
499.4464718764
 21
70.2881160198
 31
0.0
  0
LINE
  5
A9
330
1F
100
AcDbEntity
  8
0
  6
Continuous
 62
     7
370
     0
100
AcDbLine
 10
464.2269913023
 20
20.2881160198
 30
0.0
 11
464.2269913023
 21
107.7881160198
 31
0.0
  0
LINE
  5
AA
330
1F
100
AcDbEntity
  8
0
  6
Continuous
 62
     7
370
    15
100
AcDbLine
 10
108.3019913023
 20
503.4300689377
 30
0.0
 11
108.3019913023
 21
507.1800689377
 31
0.0
  0
LINE
  5
AB
330
1F
100
AcDbEntity
  8
0
  6
Continuous
 62
     7
370
    15
100
AcDbLine
 10
194.8769913023
 20
503.4300689377
 30
0.0
 11
194.8769913023
 21
507.1800689377
 31
0.0
  0
LINE
  5
AC
330
1F
100
AcDbEntity
  8
0
  6
Continuous
 62
     7
370
    15
100
AcDbLine
 10
281.4519913023
 20
503.4300689377
 30
0.0
 11
281.4519913023
 21
507.1800689377
 31
0.0
  0
LINE
  5
AD
330
1F
100
AcDbEntity
  8
0
  6
Continuous
 62
     7
370
    15
100
AcDbLine
 10
368.0269913023
 20
503.4300689377
 30
0.0
 11
368.0269913023
 21
507.1800689377
 31
0.0
  0
LINE
  5
AE
330
1F
100
AcDbEntity
  8
0
  6
Continuous
 62
     7
370
    15
100
AcDbLine
 10
454.6019913023
 20
503.4300689377
 30
0.0
 11
454.6019913023
 21
507.1800689377
 31
0.0
  0
LINE
  5
AF
330
1F
100
AcDbEntity
  8
0
  6
Continuous
 62
     7
370
    15
100
AcDbLine
 10
541.1769913023
 20
503.4300689377
 30
0.0
 11
541.1769913023
 21
507.1800689377
 31
0.0
  0
LINE
  5
B0
330
1F
100
AcDbEntity
  8
0
  6
Continuous
 62
     7
370
    15
100
AcDbLine
 10
627.7519913023
 20
503.4300689377
 30
0.0
 11
627.7519913023
 21
507.1800689377
 31
0.0
  0
LINE
  5
B1
330
1F
100
AcDbEntity
  8
0
  6
Continuous
 62
     7
370
    15
100
AcDbLine
 10
108.2894913023
 20
20.2881160198
 30
0.0
 11
108.2894913023
 21
16.5381160198
 31
0.0
  0
LINE
  5
B2
330
1F
100
AcDbEntity
  8
0
  6
Continuous
 62
     7
370
    15
100
AcDbLine
 10
194.8519913023
 20
20.2881160198
 30
0.0
 11
194.8519913023
 21
16.5381160198
 31
0.0
  0
LINE
  5
B3
330
1F
100
AcDbEntity
  8
0
  6
Continuous
 62
     7
370
    15
100
AcDbLine
 10
281.4144913023
 20
20.2881160198
 30
0.0
 11
281.4144913023
 21
16.5381160198
 31
0.0
  0
LINE
  5
B4
330
1F
100
AcDbEntity
  8
0
  6
Continuous
 62
     7
370
    15
100
AcDbLine
 10
367.9769913023
 20
20.2881160198
 30
0.0
 11
367.9769913023
 21
16.5381160198
 31
0.0
  0
LINE
  5
B5
330
1F
100
AcDbEntity
  8
0
  6
Continuous
 62
     7
370
    15
100
AcDbLine
 10
454.5394913023
 20
20.2881160198
 30
0.0
 11
454.5394913023
 21
16.5381160198
 31
0.0
  0
LINE
  5
B6
330
1F
100
AcDbEntity
  8
0
  6
Continuous
 62
     7
370
    15
100
AcDbLine
 10
541.1019913023
 20
20.2881160198
 30
0.0
 11
541.1019913023
 21
16.5381160198
 31
0.0
  0
LINE
  5
B7
330
1F
100
AcDbEntity
  8
0
  6
Continuous
 62
     7
370
     0
100
AcDbLine
 10
714.2269913023
 20
503.4300689377
 30
0.0
 11
21.7269913023
 21
503.4300689377
 31
0.0
  0
LINE
  5
B8
330
1F
100
AcDbEntity
  8
0
  6
Continuous
 62
     7
370
     0
100
AcDbLine
 10
714.2269913023
 20
20.2881160198
 30
0.0
 11
714.2269913023
 21
503.4300689377
 31
0.0
  0
LINE
  5
B9
330
1F
100
AcDbEntity
  8
0
  6
Continuous
 62
     7
370
     0
100
AcDbLine
 10
21.7269913023
 20
503.4300689377
 30
0.0
 11
21.7269913023
 21
20.2881160198
 31
0.0
  0
LINE
  5
BA
330
1F
100
AcDbEntity
  8
0
  6
Continuous
 62
     7
370
     0
100
AcDbLine
 10
21.7269913023
 20
20.2881160198
 30
0.0
 11
714.2269913023
 21
20.2881160198
 31
0.0
  0
LINE
  5
BB
330
1F
100
AcDbEntity
  8
0
  6
Continuous
 62
     7
370
    15
100
AcDbLine
 10
627.6644913023
 20
20.2881160198
 30
0.0
 11
627.6644913023
 21
16.5381160198
 31
0.0
  0
LINE
  5
BC
330
1F
100
AcDbEntity
  8
0
  6
Continuous
 62
     7
370
    15
100
AcDbLine
 10
21.7269913023
 20
100.8131160198
 30
0.0
 11
17.9769913023
 21
100.8131160198
 31
0.0
  0
LINE
  5
BD
330
1F
100
AcDbEntity
  8
0
  6
Continuous
 62
     7
370
    15
100
AcDbLine
 10
21.7269913023
 20
181.3381160198
 30
0.0
 11
17.9769913023
 21
181.3381160198
 31
0.0
  0
LINE
  5
BE
330
1F
100
AcDbEntity
  8
0
  6
Continuous
 62
     7
370
    15
100
AcDbLine
 10
21.7269913023
 20
261.8631160198
 30
0.0
 11
17.9769913023
 21
261.8631160198
 31
0.0
  0
LINE
  5
BF
330
1F
100
AcDbEntity
  8
0
  6
Continuous
 62
     7
370
    15
100
AcDbLine
 10
21.7269913023
 20
342.3881160198
 30
0.0
 11
17.9769913023
 21
342.3881160198
 31
0.0
  0
LINE
  5
C0
330
1F
100
AcDbEntity
  8
0
  6
Continuous
 62
     7
370
    15
100
AcDbLine
 10
21.7269913023
 20
422.9131160198
 30
0.0
 11
17.9769913023
 21
422.9131160198
 31
0.0
  0
LINE
  5
C1
330
1F
100
AcDbEntity
  8
0
  6
Continuous
 62
     7
370
    15
100
AcDbLine
 10
714.2269913023
 20
100.8131160198
 30
0.0
 11
717.9769913023
 21
100.8131160198
 31
0.0
  0
LINE
  5
C2
330
1F
100
AcDbEntity
  8
0
  6
Continuous
 62
     7
370
    15
100
AcDbLine
 10
714.2269913023
 20
181.3381160198
 30
0.0
 11
717.9769913023
 21
181.3381160198
 31
0.0
  0
LINE
  5
C3
330
1F
100
AcDbEntity
  8
0
  6
Continuous
 62
     7
370
    15
100
AcDbLine
 10
714.2269913023
 20
261.8631160198
 30
0.0
 11
717.9769913023
 21
261.8631160198
 31
0.0
  0
LINE
  5
C4
330
1F
100
AcDbEntity
  8
0
  6
Continuous
 62
     7
370
    15
100
AcDbLine
 10
714.2269913023
 20
342.3881160198
 30
0.0
 11
717.9769913023
 21
342.3881160198
 31
0.0
  0
LINE
  5
C5
330
1F
100
AcDbEntity
  8
0
  6
Continuous
 62
     7
370
    15
100
AcDbLine
 10
714.2269913023
 20
422.9131160198
 30
0.0
 11
717.9769913023
 21
422.9131160198
 31
0.0
  0
CIRCLE
  5
C6
330
1F
100
AcDbEntity
  8
0
  6
Continuous
 62
     7
370
     0
100
AcDbCircle
 10
420.8984437962
 20
44.4362981281
 30
0.0
 40
3.750000000000057
  0
CIRCLE
  5
C7
330
1F
100
AcDbEntity
  8
0
  6
Continuous
 62
     7
370
     0
100
AcDbCircle
 10
420.8984437962
 20
44.4362981281
 30
0.0
 40
6.250000000000057
  0
ARC
  5
C8
330
1F
100
AcDbEntity
  8
工作區域參考線
 62
     1
370
    30
100
AcDbCircle
 10
489.8814232198
 20
89.1196043533
 30
0.0
 40
3.7963823435457
100
AcDbArc
 50
306.0377529468
 51
43.4396461534
  0
ARC
  5
C9
330
1F
100
AcDbEntity
  8
工作區域參考線
 62
     1
370
    30
100
AcDbCircle
 10
480.6789731801
 20
87.8056183771
 30
0.0
 40
7.954091761319693
100
AcDbArc
 50
45.5592925416
 51
125.8325555121
  0
ARC
  5
CA
330
1F
100
AcDbEntity
  8
工作區域參考線
 62
     1
370
    30
100
AcDbCircle
 10
481.4731139069
 20
89.1576728908
 30
0.0
 40
6.443918720865634
100
AcDbArc
 50
321.9435288427
 51
42.1815007004
  0
INSERT
  5
CB
330
1F
100
AcDbEntity
  8
0
  6
Continuous
 62
     7
100
AcDbBlockReference
  2
圖塊6
 10
467.4102309117
 20
73.6101320965
 30
0.0
  0
MTEXT
  5
CD
330
1F
100
AcDbEntity
  8
0
  6
Continuous
 62
     7
370
     0
100
AcDbMText
 10
413.8567127011
 20
33.0521100923
 30
0.0
 40
6.6145833333
 41
0.0
 71
     1
 72
     1
  1
UNIT:m/m
  7
SLDTEXTSTYLE0
 73
     1
 44
1.0
  0
INSERT
  5
D4
330
1F
100
AcDbEntity
  8
0
  6
Continuous
 62
     7
370
     0
100
AcDbBlockReference
  2
SW_NOTE_0
 10
30.5787690133
 20
484.7260760628
 30
0.0
  0
MTEXT
  5
D5
330
1F
100
AcDbEntity
  8
0
  6
Continuous
 62
     7
370
     0
100
AcDbMText
 10
496.8129734837
 20
101.1016935347
 30
0.0
 40
5.953125
 41
0.0
 71
     1
 72
     1
  1
Unice E-O Services Inc.
  7
SLDTEXTSTYLE0
 73
     1
 44
1.0
  0
MTEXT
  5
D6
330
1F
100
AcDbEntity
  8
0
  6
Continuous
 62
     7
370
     0
100
AcDbMText
 10
543.8976345373
 20
53.9667871277
 30
0.0
 40
4.6302083333
 41
0.0
 71
     1
 72
     1
  1
2018/2/9
  7
SLDTEXTSTYLE0
 73
     1
 44
1.0
  0
MTEXT
  5
D7
330
1F
100
AcDbEntity
  8
0
  6
Continuous
 62
     7
370
     0
100
AcDbMText
 10
631.5222456267
 20
42.1779443499
 30
0.0
 40
6.25
 41
0.0
 71
     1
 72
     1
  1
1:2.5
  7
SLDTEXTSTYLE0
 73
     1
 44
1.0
  0
MTEXT
  5
D8
330
1F
100
AcDbEntity
  8
0
  6
Continuous
 62
     7
370
     0
100
AcDbMText
 10
630.7688999962
 20
80.3797988594
 30
0.0
 40
6.25
 41
0.0
 71
     1
 72
     1
  1
VBT1520M
  7
SLDTEXTSTYLE0
 73
     1
 44
1.0
  0
MTEXT
  5
D9
330
1F
100
AcDbEntity
  8
0
  6
Continuous
 62
     7
370
     0
100
AcDbMText
 10
630.7688999962
 20
95.2705294697
 30
0.0
 40
6.25
 41
0.0
 71
     1
 72
     1
  1
VBT1520M
  7
SLDTEXTSTYLE0
 73
     1
 44
1.0
  0
MTEXT
  5
DA
330
1F
100
AcDbEntity
  8
0
  6
Continuous
 62
     7
370
     0
100
AcDbMText
 10
590.9804666966
 20
41.2661989321
 30
0.0
 40
5.2916666667
 41
0.0
 71
     1
 72
     1
  1
SCALE:
  7
SLDTEXTSTYLE0
 73
     1
 44
1.0
  0
MTEXT
  5
DB
330
1F
100
AcDbEntity
  8
0
  6
Continuous
 62
     7
370
     0
100
AcDbMText
 10
465.8340216973
 20
53.9667871277
 30
0.0
 40
4.6302083333
 41
0.0
 71
     1
 72
     1
  1
DRAWN
  7
SLDTEXTSTYLE0
 73
     1
 44
1.0
  0
MTEXT
  5
DC
330
1F
100
AcDbEntity
  8
0
  6
Continuous
 62
     7
370
     0
100
AcDbMText
 10
508.0570919842
 20
66.70802077
 30
0.0
 40
4.6302083333
 41
0.0
 71
     1
 72
     1
  1
NAME
  7
SLDTEXTSTYLE0
 73
     1
 44
1.0
  0
MTEXT
  5
DD
330
1F
100
AcDbEntity
  8
0
  6
Continuous
 62
     7
370
     0
100
AcDbMText
 10
552.1775389394
 20
66.70802077
 30
0.0
 40
4.6302083333
 41
0.0
 71
     1
 72
     1
  1
DATE
  7
SLDTEXTSTYLE0
 73
     1
 44
1.0
  0
MTEXT
  5
DE
330
1F
100
AcDbEntity
  8
0
  6
Continuous
 62
     7
370
     0
100
AcDbMText
 10
590.6890791613
 20
79.4680534415
 30
0.0
 40
5.2916666667
 41
0.0
 71
     1
 72
     1
  1
DWG. NO.
  7
SLDTEXTSTYLE0
 73
     1
 44
1.0
  0
MTEXT
  5
DF
330
1F
100
AcDbEntity
  8
0
  6
Continuous
 62
     7
370
     0
100
AcDbMText
 10
590.9074767721
 20
104.7101645608
 30
0.0
 40
5.2916666667
 41
0.0
 71
     1
 72
     1
  1
TITLE:
  7
SLDTEXTSTYLE0
 73
     1
 44
1.0
  0
MTEXT
  5
E0
330
1F
100
AcDbEntity
  8
0
  6
Continuous
 62
     7
370
     0
100
AcDbMText
 10
507.5785524505
 20
40.600947431
 30
0.0
 40
4.6302083333
 41
0.0
 71
     1
 72
     1
  1
Johnny
  7
SLDTEXTSTYLE0
 73
     1
 44
1.0
  0
MTEXT
  5
E1
330
1F
100
AcDbEntity
  8
0
  6
Continuous
 62
     7
370
     0
100
AcDbMText
 10
543.8976345373
 20
40.600947431
 30
0.0
 40
4.6302083333
 41
0.0
 71
     1
 72
     1
  1
2018/2/9
  7
SLDTEXTSTYLE0
 73
     1
 44
1.0
  0
MTEXT
  5
E2
330
1F
100
AcDbEntity
  8
0
  6
Continuous
 62
     7
370
     0
100
AcDbMText
 10
465.8340216973
 20
40.600947431
 30
0.0
 40
4.6302083333
 41
0.0
 71
     1
 72
     1
  1
ENG APPR.
  7
SLDTEXTSTYLE0
 73
     1
 44
1.0
  0
MTEXT
  5
E3
330
1F
100
AcDbEntity
  8
0
  6
Continuous
 62
     7
370
     0
100
AcDbMText
 10
590.9804666966
 20
29.2133473219
 30
0.0
 40
5.2916666667
 41
0.0
 71
     1
 72
     1
  1
REV
  7
SLDTEXTSTYLE0
 73
     1
 44
1.0
  0
MTEXT
  5
E4
330
1F
100
AcDbEntity
  8
0
  6
Continuous
 62
     7
370
     0
100
AcDbMText
 10
590.9074767721
 20
67.3732722711
 30
0.0
 40
5.2916666667
 41
0.0
 71
     1
 72
     1
  1
MATERIAL:
  7
SLDTEXTSTYLE0
 73
     1
 44
1.0
  0
MTEXT
  5
E5
330
1F
100
AcDbEntity
  8
0
  6
Continuous
 62
     7
370
     0
100
AcDbMText
 10
631.5222456267
 20
55.5437840467
 30
0.0
 40
6.25
 41
0.0
 71
     1
 72
     1
  1
N/A
  7
SLDTEXTSTYLE0
 73
     1
 44
1.0
  0
MTEXT
  5
E6
330
1F
100
AcDbEntity
  8
0
  6
Continuous
 62
     7
370
     0
100
AcDbMText
 10
66.5074828833
 20
511.1333791424
 30
0.0
 40
5.2916666667
 41
0.0
 71
     1
 72
     1
  1
1
  7
SLDTEXTSTYLE0
 73
     1
 44
1.0
  0
MTEXT
  5
E7
330
1F
100
AcDbEntity
  8
0
  6
Continuous
 62
     7
370
     0
100
AcDbMText
 10
151.792748931
 20
511.1333791424
 30
0.0
 40
5.2916666667
 41
0.0
 71
     1
 72
     1
  1
2
  7
SLDTEXTSTYLE0
 73
     1
 44
1.0
  0
MTEXT
  5
E8
330
1F
100
AcDbEntity
  8
0
  6
Continuous
 62
     7
370
     0
100
AcDbMText
 10
237.2524859765
 20
511.1333791424
 30
0.0
 40
5.2916666667
 41
0.0
 71
     1
 72
     1
  1
3
  7
SLDTEXTSTYLE0
 73
     1
 44
1.0
  0
MTEXT
  5
E9
330
1F
100
AcDbEntity
  8
0
  6
Continuous
 62
     7
370
     0
100
AcDbMText
 10
323.1333407128
 20
510.7481460911
 30
0.0
 40
5.2916666667
 41
0.0
 71
     1
 72
     1
  1
4
  7
SLDTEXTSTYLE0
 73
     1
 44
1.0
  0
MTEXT
  5
EA
330
1F
100
AcDbEntity
  8
0
  6
Continuous
 62
     7
370
     0
100
AcDbMText
 10
409.2558086599
 20
511.1333791424
 30
0.0
 40
5.2916666667
 41
0.0
 71
     1
 72
     1
  1
5
  7
SLDTEXTSTYLE0
 73
     1
 44
1.0
  0
MTEXT
  5
EB
330
1F
100
AcDbEntity
  8
0
  6
Continuous
 62
     7
370
     0
100
AcDbMText
 10
496.5955426038
 20
511.1333791424
 30
0.0
 40
5.2916666667
 41
0.0
 71
     1
 72
     1
  1
6
  7
SLDTEXTSTYLE0
 73
     1
 44
1.0
  0
MTEXT
  5
EC
330
1F
100
AcDbEntity
  8
0
  6
Continuous
 62
     7
370
     0
100
AcDbMText
 10
585.9076643516
 20
511.1333791424
 30
0.0
 40
5.2916666667
 41
0.0
 71
     1
 72
     1
  1
7
  7
SLDTEXTSTYLE0
 73
     1
 44
1.0
  0
MTEXT
  5
ED
330
1F
100
AcDbEntity
  8
0
  6
Continuous
 62
     7
370
     0
100
AcDbMText
 10
665.6969551234
 20
511.1333791424
 30
0.0
 40
5.2916666667
 41
0.0
 71
     1
 72
     1
  1
8
  7
SLDTEXTSTYLE0
 73
     1
 44
1.0
  0
MTEXT
  5
EE
330
1F
100
AcDbEntity
  8
0
  6
Continuous
 62
     7
370
     0
100
AcDbMText
 10
13.3920591386
 20
464.5282557198
 30
0.0
 40
5.2916666667
 41
0.0
 71
     1
 72
     1
  1
A
  7
SLDTEXTSTYLE0
 73
     1
 44
1.0
  0
MTEXT
  5
EF
330
1F
100
AcDbEntity
  8
0
  6
Continuous
 62
     7
370
     0
100
AcDbMText
 10
13.9776079578
 20
385.7482620595
 30
0.0
 40
5.2916666667
 41
0.0
 71
     1
 72
     1
  1
B
  7
SLDTEXTSTYLE0
 73
     1
 44
1.0
  0
MTEXT
  5
F0
330
1F
100
AcDbEntity
  8
0
  6
Continuous
 62
     7
370
     0
100
AcDbMText
 10
13.9776079578
 20
303.1858785575
 30
0.0
 40
5.2916666667
 41
0.0
 71
     1
 72
     1
  1
C
  7
SLDTEXTSTYLE0
 73
     1
 44
1.0
  0
MTEXT
  5
F1
330
1F
100
AcDbEntity
  8
0
  6
Continuous
 62
     7
370
     0
100
AcDbMText
 10
13.9776079578
 20
221.8633050552
 30
0.0
 40
5.2916666667
 41
0.0
 71
     1
 72
     1
  1
D
  7
SLDTEXTSTYLE0
 73
     1
 44
1.0
  0
MTEXT
  5
F2
330
1F
100
AcDbEntity
  8
0
  6
Continuous
 62
     7
370
     0
100
AcDbMText
 10
13.9776079578
 20
143.8897122993
 30
0.0
 40
5.2916666667
 41
0.0
 71
     1
 72
     1
  1
E
  7
SLDTEXTSTYLE0
 73
     1
 44
1.0
  0
MTEXT
  5
F3
330
1F
100
AcDbEntity
  8
0
  6
Continuous
 62
     7
370
     0
100
AcDbMText
 10
13.9776079578
 20
63.923553063
 30
0.0
 40
5.2916666667
 41
0.0
 71
     1
 72
     1
  1
F
  7
SLDTEXTSTYLE0
 73
     1
 44
1.0
  0
MTEXT
  5
F4
330
1F
100
AcDbEntity
  8
0
  6
Continuous
 62
     7
370
     0
100
AcDbMText
 10
665.4646542409
 20
16.5590559908
 30
0.0
 40
5.2916666667
 41
0.0
 71
     1
 72
     1
  1
8
  7
SLDTEXTSTYLE0
 73
     1
 44
1.0
  0
MTEXT
  5
F5
330
1F
100
AcDbEntity
  8
0
  6
Continuous
 62
     7
370
     0
100
AcDbMText
 10
585.6753634691
 20
16.5590559908
 30
0.0
 40
5.2916666667
 41
0.0
 71
     1
 72
     1
  1
7
  7
SLDTEXTSTYLE0
 73
     1
 44
1.0
  0
MTEXT
  5
F6
330
1F
100
AcDbEntity
  8
0
  6
Continuous
 62
     7
370
     0
100
AcDbMText
 10
496.3632417212
 20
16.5590559908
 30
0.0
 40
5.2916666667
 41
0.0
 71
     1
 72
     1
  1
6
  7
SLDTEXTSTYLE0
 73
     1
 44
1.0
  0
MTEXT
  5
F7
330
1F
100
AcDbEntity
  8
0
  6
Continuous
 62
     7
370
     0
100
AcDbMText
 10
409.0235077774
 20
16.5590559908
 30
0.0
 40
5.2916666667
 41
0.0
 71
     1
 72
     1
  1
5
  7
SLDTEXTSTYLE0
 73
     1
 44
1.0
  0
MTEXT
  5
F8
330
1F
100
AcDbEntity
  8
0
  6
Continuous
 62
     7
370
     0
100
AcDbMText
 10
322.9010398302
 20
16.1738229395
 30
0.0
 40
5.2916666667
 41
0.0
 71
     1
 72
     1
  1
4
  7
SLDTEXTSTYLE0
 73
     1
 44
1.0
  0
MTEXT
  5
F9
330
1F
100
AcDbEntity
  8
0
  6
Continuous
 62
     7
370
     0
100
AcDbMText
 10
237.020185094
 20
16.5590559908
 30
0.0
 40
5.2916666667
 41
0.0
 71
     1
 72
     1
  1
3
  7
SLDTEXTSTYLE0
 73
     1
 44
1.0
  0
MTEXT
  5
FA
330
1F
100
AcDbEntity
  8
0
  6
Continuous
 62
     7
370
     0
100
AcDbMText
 10
151.5604480484
 20
16.5590559908
 30
0.0
 40
5.2916666667
 41
0.0
 71
     1
 72
     1
  1
2
  7
SLDTEXTSTYLE0
 73
     1
 44
1.0
  0
MTEXT
  5
FB
330
1F
100
AcDbEntity
  8
0
  6
Continuous
 62
     7
370
     0
100
AcDbMText
 10
66.2751820007
 20
16.5590559908
 30
0.0
 40
5.2916666667
 41
0.0
 71
     1
 72
     1
  1
1
  7
SLDTEXTSTYLE0
 73
     1
 44
1.0
  0
MTEXT
  5
FC
330
1F
100
AcDbEntity
  8
0
  6
Continuous
 62
     7
370
     0
100
AcDbMText
 10
717.7559615361
 20
466.6062272729
 30
0.0
 40
5.2916666667
 41
0.0
 71
     1
 72
     1
  1
A
  7
SLDTEXTSTYLE0
 73
     1
 44
1.0
  0
MTEXT
  5
FD
330
1F
100
AcDbEntity
  8
0
  6
Continuous
 62
     7
370
     0
100
AcDbMText
 10
718.3415103553
 20
387.8262336126
 30
0.0
 40
5.2916666667
 41
0.0
 71
     1
 72
     1
  1
B
  7
SLDTEXTSTYLE0
 73
     1
 44
1.0
  0
MTEXT
  5
FE
330
1F
100
AcDbEntity
  8
0
  6
Continuous
 62
     7
370
     0
100
AcDbMText
 10
718.3415103553
 20
305.2638501106
 30
0.0
 40
5.2916666667
 41
0.0
 71
     1
 72
     1
  1
C
  7
SLDTEXTSTYLE0
 73
     1
 44
1.0
  0
MTEXT
  5
FF
330
1F
100
AcDbEntity
  8
0
  6
Continuous
 62
     7
370
     0
100
AcDbMText
 10
718.3415103553
 20
223.9412766083
 30
0.0
 40
5.2916666667
 41
0.0
 71
     1
 72
     1
  1
D
  7
SLDTEXTSTYLE0
 73
     1
 44
1.0
  0
MTEXT
  5
100
330
1F
100
AcDbEntity
  8
0
  6
Continuous
 62
     7
370
     0
100
AcDbMText
 10
718.3415103553
 20
145.9676838524
 30
0.0
 40
5.2916666667
 41
0.0
 71
     1
 72
     1
  1
E
  7
SLDTEXTSTYLE0
 73
     1
 44
1.0
  0
MTEXT
  5
101
330
1F
100
AcDbEntity
  8
0
  6
Continuous
 62
     7
370
     0
100
AcDbMText
 10
718.3415103553
 20
66.0015246161
 30
0.0
 40
5.2916666667
 41
0.0
 71
     1
 72
     1
  1
F
  7
SLDTEXTSTYLE0
 73
     1
 44
1.0
  0
MTEXT
  5
102
330
1F
100
AcDbEntity
  8
0
  6
Continuous
 62
     7
370
     0
100
AcDbMText
 10
507.8882822005
 20
53.9667871277
 30
0.0
 40
4.6302083333
 41
0.0
 71
     1
 72
     1
  1
Sky
  7
SLDTEXTSTYLE0
 73
     1
 44
1.0
  0
MTEXT
  5
104
330
1F
100
AcDbEntity
  8
0
  6
Continuous
 62
     7
370
     0
100
AcDbMText
 10
632.1205599113
 20
30.5549008295
 30
0.0
 40
5.953125
 41
0.0
 71
     1
 72
     1
  1
0
  7
SLDTEXTSTYLE1
 73
     1
 44
1.0
  0
INSERT
  5
10A
330
1F
100
AcDbEntity
  8
SLD-0
 62
     7
100
AcDbBlockReference
  2
SW_NOTE_1
 10
496.8129734837
 20
83.8699363031
 30
0.0
  0
ARC
  5
10B
330
1F
100
AcDbEntity
  8
0
  6
Continuous
 62
     7
370
    30
100
AcDbCircle
 10
237.0365439164
 20
196.5617480689
 30
0.0
 40
5.00000000000002
100
AcDbArc
 50
0.0
 51
45.0
  0
LINE
  5
10C
330
1F
100
AcDbEntity
  8
0
  6
Continuous
 62
     7
370
    30
100
AcDbLine
 10
242.0365433798
 20
196.5617497918
 30
0.0
 11
241.0365441472
 21
196.5617497918
 31
0.0
  0
ARC
  5
10D
330
1F
100
AcDbEntity
  8
0
  6
Continuous
 62
     7
370
    30
100
AcDbCircle
 10
237.0365439164
 20
196.5617480689
 30
0.0
 40
3.999999999999972
100
AcDbArc
 50
0.0
 51
45.0
  0
LWPOLYLINE
  5
10E
330
1F
100
AcDbEntity
  8
0
  6
Continuous
 62
     7
370
    30
100
AcDbPolyline
 90
        9
 70
   128
 43
0.0
 10
240.5720777468
 20
200.0972812531
 10
240.5584906817
 20
200.0836913941
 10
240.5182528899
 20
200.0434582588
 10
240.4529085041
 20
199.978116667
 10
240.364971164
 20
199.8901774642
 10
240.2578187765
 20
199.7830232141
 10
240.1355687187
 20
199.6607740876
 10
240.0029204444
 20
199.5281239507
 10
239.864971082
 20
199.3901764509
  0
LINE
  5
10F
330
1F
100
AcDbEntity
  8
0
  6
Continuous
 62
     7
370
    30
100
AcDbLine
 10
317.0365426348
 20
182.6328148601
 30
0.0
 11
247.0365441994
 21
182.6328148601
 31
0.0
  0
LINE
  5
110
330
1F
100
AcDbEntity
  8
0
  6
Continuous
 62
     7
370
    30
100
AcDbLine
 10
247.0365441994
 20
182.6328148601
 30
0.0
 11
247.0365441994
 21
183.6328168866
 31
0.0
  0
LINE
  5
111
330
1F
100
AcDbEntity
  8
0
  6
Continuous
 62
     7
370
    30
100
AcDbLine
 10
247.0365441994
 20
183.6328168866
 30
0.0
 11
317.0365426348
 21
183.6328168866
 31
0.0
  0
LINE
  5
112
330
1F
100
AcDbEntity
  8
0
  6
Continuous
 62
     7
370
    30
100
AcDbLine
 10
317.0365426348
 20
182.6328148601
 30
0.0
 11
317.0365426348
 21
183.6328168866
 31
0.0
  0
LINE
  5
113
330
1F
100
AcDbEntity
  8
0
  6
Continuous
 62
     7
370
    30
100
AcDbLine
 10
242.0365433798
 20
196.5617497918
 30
0.0
 11
242.0365433798
 21
188.6328195688
 31
0.0
  0
LINE
  5
114
330
1F
100
AcDbEntity
  8
0
  6
Continuous
 62
     7
370
    30
100
AcDbLine
 10
242.0365433798
 20
188.6328195688
 30
0.0
 11
241.0365441472
 21
188.6328195688
 31
0.0
  0
LINE
  5
115
330
1F
100
AcDbEntity
  8
0
  6
Continuous
 62
     7
370
    30
100
AcDbLine
 10
241.0365441472
 20
188.6328195688
 30
0.0
 11
241.0365441472
 21
196.5617497918
 31
0.0
  0
ARC
  5
116
330
1F
100
AcDbEntity
  8
0
  6
Continuous
 62
     7
370
    30
100
AcDbCircle
 10
247.0365439164
 20
188.6328158808
 30
0.0
 40
6.0
100
AcDbArc
 50
180.0
 51
270.0
  0
ARC
  5
117
330
1F
100
AcDbEntity
  8
0
  6
Continuous
 62
     7
370
    30
100
AcDbCircle
 10
247.0365439164
 20
188.6328158808
 30
0.0
 40
5.0
100
AcDbArc
 50
180.0
 51
270.0
  0
LINE
  5
118
330
1F
100
AcDbEntity
  8
0
  6
Continuous
 62
     7
370
    30
100
AcDbLine
 10
210.0365437225
 20
325.6328140852
 30
0.0
 11
210.0365437225
 21
220.6328173635
 31
0.0
  0
LINE
  5
119
330
1F
100
AcDbEntity
  8
0
  6
Continuous
 62
     7
370
    30
100
AcDbLine
 10
210.0365437225
 20
220.6328173635
 30
0.0
 11
209.0365435586
 21
220.6328173635
 31
0.0
  0
LINE
  5
11A
330
1F
100
AcDbEntity
  8
0
  6
Continuous
 62
     7
370
    30
100
AcDbLine
 10
209.0365435586
 20
220.6328173635
 30
0.0
 11
209.0365435586
 21
325.6328140852
 31
0.0
  0
LINE
  5
11B
330
1F
100
AcDbEntity
  8
0
  6
Continuous
 62
     7
370
    30
100
AcDbLine
 10
210.0365437225
 20
325.6328140852
 30
0.0
 11
209.0365435586
 21
325.6328140852
 31
0.0
  0
ARC
  5
11C
330
1F
100
AcDbEntity
  8
0
  6
Continuous
 62
     7
370
    30
100
AcDbCircle
 10
229.9213450897
 20
325.6328158808
 30
0.0
 40
6.000000000000024
100
AcDbArc
 50
40.0
 51
90.0
  0
LWPOLYLINE
  5
11D
330
1F
100
AcDbEntity
  8
0
  6
Continuous
 62
     7
370
    30
100
AcDbPolyline
 90
        9
 70
   128
 43
0.0
 10
234.5176120878
 20
329.489540076
 10
234.3681636856
 20
329.364139354
 10
234.224459681
 20
329.2435591576
 10
234.092020023
 20
329.1324262974
 10
233.975936252
 20
329.035021132
 10
233.8806694032
 20
328.9550838527
 10
233.8098791086
 20
328.8956840989
 10
233.7662866929
 20
328.8591054735
 10
233.7515671396
 20
328.8467524109
  0
ARC
  5
11E
330
1F
100
AcDbEntity
  8
0
  6
Continuous
 62
     7
370
    30
100
AcDbCircle
 10
229.9213450897
 20
325.6328158808
 30
0.0
 40
5.000000000000068
100
AcDbArc
 50
40.0
 51
90.0
  0
LINE
  5
11F
330
1F
100
AcDbEntity
  8
0
  6
Continuous
 62
     7
370
    30
100
AcDbLine
 10
229.9213451923
 20
331.632818794
 30
0.0
 11
229.9213451923
 21
330.6328167674
 31
0.0
  0
ARC
  5
120
330
1F
100
AcDbEntity
  8
0
  6
Continuous
 62
     7
370
    30
100
AcDbCircle
 10
317.0365439164
 20
188.6328158808
 30
0.0
 40
6.0
100
AcDbArc
 50
270.0
 51
0.0
  0
LINE
  5
121
330
1F
100
AcDbEntity
  8
0
  6
Continuous
 62
     7
370
    30
100
AcDbLine
 10
323.0365473435
 20
221.812963253
 30
0.0
 11
323.0365473435
 21
188.6328195688
 31
0.0
  0
ARC
  5
122
330
1F
100
AcDbEntity
  8
0
  6
Continuous
 62
     7
370
    30
100
AcDbCircle
 10
317.0365439164
 20
221.8129647095
 30
0.0
 40
6.00000000000002
100
AcDbArc
 50
0.0
 51
40.0
  0
LINE
  5
123
330
1F
100
AcDbEntity
  8
0
  6
Continuous
 62
     7
370
    30
100
AcDbLine
 10
234.5176120878
 20
329.489540076
 30
0.0
 11
321.6328132556
 21
225.6696892438
 31
0.0
  0
LINE
  5
124
330
1F
100
AcDbEntity
  8
0
  6
Continuous
 62
     7
370
    30
100
AcDbLine
 10
215.0365436108
 20
331.632818794
 30
0.0
 11
229.9213451923
 21
331.632818794
 31
0.0
  0
ARC
  5
125
330
1F
100
AcDbEntity
  8
0
  6
Continuous
 62
     7
370
    30
100
AcDbCircle
 10
215.0365439164
 20
325.6328158808
 30
0.0
 40
6.0
100
AcDbArc
 50
90.0
 51
180.0
  0
ARC
  5
126
330
1F
100
AcDbEntity
  8
0
  6
Continuous
 62
     7
370
    30
100
AcDbCircle
 10
215.0365439164
 20
220.6328158808
 30
0.0
 40
6.0
100
AcDbArc
 50
180.0
 51
270.0
  0
LINE
  5
127
330
1F
100
AcDbEntity
  8
0
  6
Continuous
 62
     7
370
    30
100
AcDbLine
 10
222.9654761621
 20
214.63281638
 30
0.0
 11
215.0365436108
 21
214.63281638
 31
0.0
  0
ARC
  5
128
330
1F
100
AcDbEntity
  8
0
  6
Continuous
 62
     7
370
    30
100
AcDbCircle
 10
222.9654761046
 20
210.6328158808
 30
0.0
 40
4.0
100
AcDbArc
 50
45.0
 51
90.0
  0
LINE
  5
129
330
1F
100
AcDbEntity
  8
0
  6
Continuous
 62
     7
370
    30
100
AcDbLine
 10
239.864971082
 20
199.3901764509
 30
0.0
 11
225.7939032286
 21
213.4612423835
 31
0.0
  0
LINE
  5
12A
330
1F
100
AcDbEntity
  8
0
  6
Continuous
 62
     7
370
    30
100
AcDbLine
 10
193.0365446613
 20
364.6328186152
 30
0.0
 11
193.0365446613
 21
171.0470279214
 31
0.0
  0
LINE
  5
12B
330
1F
100
AcDbEntity
  8
0
  6
Continuous
 62
     7
370
    30
100
AcDbLine
 10
224.7050055892
 20
364.6328186152
 30
0.0
 11
193.0365446613
 21
364.6328186152
 31
0.0
  0
ARC
  5
12C
330
1F
100
AcDbEntity
  8
0
  6
Continuous
 62
     7
370
    30
100
AcDbCircle
 10
224.7050056256
 20
360.6328158808
 30
0.0
 40
3.999999999999994
100
AcDbArc
 50
40.0
 51
90.0
  0
LINE
  5
12D
330
1F
100
AcDbEntity
  8
0
  6
Continuous
 62
     7
370
    30
100
AcDbLine
 10
340.1007238434
 20
229.3324505446
 30
0.0
 11
227.7691834032
 21
363.20396862
 31
0.0
  0
ARC
  5
12E
330
1F
100
AcDbEntity
  8
0
  6
Continuous
 62
     7
370
    30
100
AcDbCircle
 10
337.0365439164
 20
226.7613015611
 30
0.0
 40
3.999999999999972
100
AcDbArc
 50
0.0
 51
40.0
  0
LINE
  5
12F
330
1F
100
AcDbEntity
  8
0
  6
Continuous
 62
     7
370
    30
100
AcDbLine
 10
341.0365465687
 20
166.6328122375
 30
0.0
 11
341.0365465687
 21
226.7612998841
 31
0.0
  0
LINE
  5
130
330
1F
100
AcDbEntity
  8
0
  6
Continuous
 62
     7
370
    30
100
AcDbLine
 10
197.45075662
 20
166.6328122375
 30
0.0
 11
341.0365465687
 21
166.6328122375
 31
0.0
  0
LINE
  5
131
330
1F
100
AcDbEntity
  8
0
  6
Continuous
 62
     7
370
    30
100
AcDbLine
 10
193.0365446613
 20
171.0470279214
 30
0.0
 11
197.45075662
 21
166.6328122375
 31
0.0
  0
ARC
  5
132
330
1F
100
AcDbEntity
  8
0
  6
Continuous
 62
     7
370
    30
100
AcDbCircle
 10
224.7050056256
 20
360.6328158808
 30
0.0
 40
5.0
100
AcDbArc
 50
40.0
 51
90.0
  0
LWPOLYLINE
  5
133
330
1F
100
AcDbEntity
  8
0
  6
Continuous
 62
     7
370
    30
100
AcDbPolyline
 90
        9
 70
   128
 43
0.0
 10
228.5352277693
 20
363.8467525599
 10
228.5205084489
 20
363.8343994972
 10
228.476916266
 20
363.7978245971
 10
228.4061259714
 20
363.738421118
 10
228.3108586569
 20
363.6584838388
 10
228.1947748859
 20
363.5610823986
 10
228.0623359264
 20
363.4499495384
 10
227.9186312233
 20
363.3293693421
 10
227.7691834032
 20
363.20396862
  0
LINE
  5
134
330
1F
100
AcDbEntity
  8
0
  6
Continuous
 62
     7
370
    30
100
AcDbLine
 10
224.7050055892
 20
364.6328186152
 30
0.0
 11
224.7050055892
 21
365.6328131911
 31
0.0
  0
LINE
  5
135
330
1F
100
AcDbEntity
  8
0
  6
Continuous
 62
     7
370
    30
100
AcDbLine
 10
228.5352277693
 20
363.8467525599
 30
0.0
 11
340.866762738
 21
229.9752382097
 31
0.0
  0
LWPOLYLINE
  5
136
330
1F
100
AcDbEntity
  8
0
  6
Continuous
 62
     7
370
    30
100
AcDbPolyline
 90
        9
 70
   128
 43
0.0
 10
340.866762738
 20
229.9752382097
 10
340.8520478413
 20
229.9628888724
 10
340.8084544943
 20
229.9263102469
 10
340.737666528
 20
229.8669104931
 10
340.6423959539
 20
229.7869732139
 10
340.5263159082
 20
229.6895643232
 10
340.3938743875
 20
229.5784351883
 10
340.250167589
 20
229.4578549919
 10
340.1007238434
 20
229.3324505446
  0
LWPOLYLINE
  5
137
330
1F
100
AcDbEntity
  8
0
  6
Continuous
 62
     7
370
    30
100
AcDbPolyline
 90
        9
 70
   128
 43
0.0
 10
193.0365446613
 20
364.6328186152
 10
192.8414549337
 20
364.8279046175
 10
192.6538604901
 20
365.0155027864
 10
192.4809734927
 20
365.1883860585
 10
192.3294361339
 20
365.3399234173
 10
192.2050747679
 20
365.4642885086
 10
192.1126652167
 20
365.5566980598
 10
192.0557576821
 20
365.6135981438
 10
192.0365426348
 20
365.6328131911
  0
LINE
  5
138
330
1F
100
AcDbEntity
  8
0
  6
Continuous
 62
     7
370
    30
100
AcDbLine
 10
192.0365426348
 20
365.6328131911
 30
0.0
 11
224.7050055892
 21
365.6328131911
 31
0.0
  0
ARC
  5
139
330
1F
100
AcDbEntity
  8
0
  6
Continuous
 62
     7
370
    30
100
AcDbCircle
 10
337.0365439164
 20
226.7613015611
 30
0.0
 40
5.000000000000009
100
AcDbArc
 50
0.0
 51
40.0
  0
LINE
  5
13A
330
1F
100
AcDbEntity
  8
0
  6
Continuous
 62
     7
370
    30
100
AcDbLine
 10
342.0365411446
 20
226.7612998841
 30
0.0
 11
341.0365465687
 21
226.7612998841
 31
0.0
  0
LWPOLYLINE
  5
13B
330
1F
100
AcDbEntity
  8
0
  6
Continuous
 62
     7
370
    30
100
AcDbPolyline
 90
        9
 70
   128
 43
0.0
 10
193.0365446613
 20
171.0470279214
 10
192.8414549337
 20
170.9662189243
 10
192.6538604901
 20
170.8885168192
 10
192.4809734927
 20
170.8169018385
 10
192.3294361339
 20
170.7541381476
 10
192.2050747679
 20
170.7026248333
 10
192.1126652167
 20
170.6643437502
 10
192.0557576821
 20
170.6407775638
 10
192.0365426348
 20
170.6328128931
  0
LINE
  5
13C
330
1F
100
AcDbEntity
  8
0
  6
Continuous
 62
     7
370
    30
100
AcDbLine
 10
192.0365426348
 20
170.6328128931
 30
0.0
 11
192.0365426348
 21
365.6328131911
 31
0.0
  0
LINE
  5
13D
330
1F
100
AcDbEntity
  8
0
  6
Continuous
 62
     7
370
    30
100
AcDbLine
 10
342.0365411446
 20
226.7612998841
 30
0.0
 11
342.0365411446
 21
165.6328176615
 31
0.0
  0
LWPOLYLINE
  5
13E
330
1F
100
AcDbEntity
  8
0
  6
Continuous
 62
     7
370
    30
100
AcDbPolyline
 90
        9
 70
   128
 43
0.0
 10
342.0365411446
 20
165.6328176615
 10
342.0173260973
 20
165.6520327089
 10
341.9604260133
 20
165.7089327929
 10
341.8680164621
 20
165.8013497946
 10
341.7436513708
 20
165.9257074353
 10
341.592114012
 20
166.0772447941
 10
341.4192307399
 20
166.2501355169
 10
341.231632571
 20
166.4377262351
 10
341.0365465687
 20
166.6328122375
  0
LWPOLYLINE
  5
13F
330
1F
100
AcDbEntity
  8
0
  6
Continuous
 62
     7
370
    30
100
AcDbPolyline
 90
       10
 70
   128
 43
0.0
 10
197.45075662
 20
166.6328122375
 10
197.3788305775
 20
166.4591690061
 10
197.3090875552
 20
166.2907933352
 10
197.2436509685
 20
166.1328186748
 10
197.184506397
 20
165.9900282976
 10
197.1334512935
 20
165.8667733428
 10
197.0920372413
 20
165.7667940018
 10
197.0615233884
 20
165.6931226608
 10
197.0428373323
 20
165.6480093953
 10
197.0365434543
 20
165.6328176615
  0
LINE
  5
140
330
1F
100
AcDbEntity
  8
0
  6
Continuous
 62
     7
370
    30
100
AcDbLine
 10
197.0365434543
 20
165.6328176615
 30
0.0
 11
192.0365426348
 21
170.6328128931
 31
0.0
  0
LINE
  5
141
330
1F
100
AcDbEntity
  8
0
  6
Continuous
 62
     7
370
    30
100
AcDbLine
 10
342.0365411446
 20
165.6328176615
 30
0.0
 11
197.0365434543
 21
165.6328176615
 31
0.0
  0
LINE
  5
142
330
1F
100
AcDbEntity
  8
0
  6
Continuous
 62
     7
370
    30
100
AcDbLine
 10
215.0365436108
 20
331.632818794
 30
0.0
 11
215.0365436108
 21
330.6328167674
 31
0.0
  0
ARC
  5
143
330
1F
100
AcDbEntity
  8
0
  6
Continuous
 62
     7
370
    30
100
AcDbCircle
 10
215.0365439164
 20
325.6328158808
 30
0.0
 40
5.0
100
AcDbArc
 50
90.0
 51
180.0
  0
LINE
  5
144
330
1F
100
AcDbEntity
  8
0
  6
Continuous
 62
     7
370
    30
100
AcDbLine
 10
229.9213451923
 20
330.6328167674
 30
0.0
 11
215.0365436108
 21
330.6328167674
 31
0.0
  0
ARC
  5
145
330
1F
100
AcDbEntity
  8
0
  6
Continuous
 62
     7
370
    30
100
AcDbCircle
 10
222.9654761046
 20
210.6328158808
 30
0.0
 40
5.0
100
AcDbArc
 50
45.0
 51
90.0
  0
LWPOLYLINE
  5
146
330
1F
100
AcDbEntity
  8
0
  6
Continuous
 62
     7
370
    30
100
AcDbPolyline
 90
        9
 70
   128
 43
0.0
 10
226.5010100098
 20
214.1683509109
 10
226.4874231485
 20
214.1547647772
 10
226.4471847164
 20
214.1145241914
 10
226.3818410291
 20
214.0491825995
 10
226.2939032233
 20
213.9612433967
 10
226.1867507048
 20
213.8540891466
 10
226.0645012801
 20
213.7318400202
 10
225.9318529185
 20
213.5991936085
 10
225.7939032286
 20
213.4612423835
  0
LINE
  5
147
330
1F
100
AcDbEntity
  8
0
  6
Continuous
 62
     7
370
    30
100
AcDbLine
 10
222.9654761621
 20
215.6328146813
 30
0.0
 11
222.9654761621
 21
214.63281638
 31
0.0
  0
LINE
  5
148
330
1F
100
AcDbEntity
  8
0
  6
Continuous
 62
     7
370
    30
100
AcDbLine
 10
323.0365473435
 20
188.6328195688
 30
0.0
 11
322.036545317
 21
188.6328195688
 31
0.0
  0
LINE
  5
149
330
1F
100
AcDbEntity
  8
0
  6
Continuous
 62
     7
370
    30
100
AcDbLine
 10
322.036545317
 20
188.6328195688
 30
0.0
 11
322.036545317
 21
221.812963253
 31
0.0
  0
LINE
  5
14A
330
1F
100
AcDbEntity
  8
0
  6
Continuous
 62
     7
370
    30
100
AcDbLine
 10
323.0365473435
 20
221.812963253
 30
0.0
 11
322.036545317
 21
221.812963253
 31
0.0
  0
ARC
  5
14B
330
1F
100
AcDbEntity
  8
0
  6
Continuous
 62
     7
370
    30
100
AcDbCircle
 10
215.0365439164
 20
220.6328158808
 30
0.0
 40
5.0
100
AcDbArc
 50
180.0
 51
270.0
  0
LINE
  5
14C
330
1F
100
AcDbEntity
  8
0
  6
Continuous
 62
     7
370
    30
100
AcDbLine
 10
215.0365436108
 20
215.6328146813
 30
0.0
 11
215.0365436108
 21
214.63281638
 31
0.0
  0
LWPOLYLINE
  5
14D
330
1F
100
AcDbEntity
  8
0
  6
Continuous
 62
     7
370
    30
100
AcDbPolyline
 90
        9
 70
   128
 43
0.0
 10
321.6328132556
 20
225.6696892438
 10
321.4833620594
 20
225.5442885217
 10
321.3396552608
 20
225.4237046001
 10
321.2072211907
 20
225.3125754652
 10
321.0911336944
 20
225.2151702997
 10
320.9958705709
 20
225.1352330205
 10
320.9250751541
 20
225.0758332667
 10
320.881481807
 20
225.0392546413
 10
320.8667669103
 20
225.0269015786
  0
LINE
  5
14E
330
1F
100
AcDbEntity
  8
0
  6
Continuous
 62
     7
370
    30
100
AcDbLine
 10
320.8667669103
 20
225.0269015786
 30
0.0
 11
233.7515671396
 21
328.8467524109
 31
0.0
  0
LINE
  5
14F
330
1F
100
AcDbEntity
  8
0
  6
Continuous
 62
     7
370
    30
100
AcDbLine
 10
215.0365436108
 20
215.6328146813
 30
0.0
 11
222.9654761621
 21
215.6328146813
 31
0.0
  0
ARC
  5
150
330
1F
100
AcDbEntity
  8
0
  6
Continuous
 62
     7
370
    30
100
AcDbCircle
 10
317.0365439164
 20
221.8129647095
 30
0.0
 40
5.0
100
AcDbArc
 50
0.0
 51
40.0
  0
ARC
  5
151
330
1F
100
AcDbEntity
  8
0
  6
Continuous
 62
     7
370
    30
100
AcDbCircle
 10
317.0365439164
 20
188.6328158808
 30
0.0
 40
5.0
100
AcDbArc
 50
270.0
 51
0.0
  0
LINE
  5
152
330
1F
100
AcDbEntity
  8
0
  6
Continuous
 62
     7
370
    30
100
AcDbLine
 10
226.5010100098
 20
214.1683509109
 30
0.0
 11
240.5720777468
 21
200.0972812531
 31
0.0
  0
LWPOLYLINE
  5
153
330
1F
100
AcDbEntity
  8
0
  6
HIDDEN
 62
     7
370
    15
100
AcDbPolyline
 90
       13
 70
   128
 43
0.0
 10
239.2995278941
 20
327.682502335
 10
239.3174763427
 20
327.6611117181
 10
239.458667639
 20
327.4928478059
 10
239.7285053165
 20
327.1712695715
 10
240.1030124755
 20
326.7249462661
 10
240.5489129604
 20
326.1935447809
 10
241.0265855149
 20
325.6242757199
 10
241.4935888381
 20
325.0677247998
 10
241.9084250585
 20
324.5733415243
 10
242.2342370854
 20
324.1850545165
 10
242.4420728938
 20
323.9373636899
 10
242.5134662197
 20
323.8522817847
 10
242.5134662197
 20
323.8522817847
  0
LINE
  5
154
330
1F
100
AcDbEntity
  8
0
  6
HIDDEN
 62
     7
370
    15
100
AcDbLine
 10
329.536545615
 20
180.6328182575
 30
0.0
 11
327.0365405486
 21
180.6328182575
 31
0.0
  0
LINE
  5
155
330
1F
100
AcDbEntity
  8
0
  6
HIDDEN
 62
     7
370
    15
100
AcDbLine
 10
332.0365432308
 20
180.6328182575
 30
0.0
 11
329.536545615
 21
180.6328182575
 31
0.0
  0
LINE
  5
156
330
1F
100
AcDbEntity
  8
0
  6
HIDDEN
 62
     7
370
    15
100
AcDbLine
 10
202.0365442739
 20
350.6328125951
 30
0.0
 11
207.0365432308
 21
350.6328125951
 31
0.0
  0
LINE
  5
157
330
1F
100
AcDbEntity
  8
0
  6
HIDDEN
 62
     7
370
    15
100
AcDbLine
 10
292.0365441249
 20
180.6328182575
 30
0.0
 11
289.5365465091
 21
180.6328182575
 31
0.0
  0
LINE
  5
158
330
1F
100
AcDbEntity
  8
0
  6
HIDDEN
 62
     7
370
    15
100
AcDbLine
 10
294.5365417407
 20
180.6328182575
 30
0.0
 11
292.0365441249
 21
180.6328182575
 31
0.0
  0
LINE
  5
159
330
1F
100
AcDbEntity
  8
0
  6
HIDDEN
 62
     7
370
    15
100
AcDbLine
 10
207.0365432308
 20
278.1328156126
 30
0.0
 11
207.0365432308
 21
280.6328160224
 31
0.0
  0
LINE
  5
15A
330
1F
100
AcDbEntity
  8
0
  6
HIDDEN
 62
     7
370
    15
100
AcDbLine
 10
207.0365432308
 20
275.6328156685
 30
0.0
 11
207.0365432308
 21
278.1328156126
 31
0.0
  0
LINE
  5
15B
330
1F
100
AcDbEntity
  8
0
  6
HIDDEN
 62
     7
370
    15
100
AcDbLine
 10
207.0365432308
 20
340.6328146813
 30
0.0
 11
207.0365432308
 21
343.1328122971
 31
0.0
  0
LINE
  5
15C
330
1F
100
AcDbEntity
  8
0
  6
HIDDEN
 62
     7
370
    15
100
AcDbLine
 10
207.0365432308
 20
338.1328170654
 30
0.0
 11
207.0365432308
 21
340.6328146813
 31
0.0
  0
LINE
  5
15D
330
1F
100
AcDbEntity
  8
0
  6
HIDDEN
 62
     7
370
    15
100
AcDbLine
 10
267.036545615
 20
180.6328182575
 30
0.0
 11
264.5365442739
 21
180.6328182575
 31
0.0
  0
LINE
  5
15E
330
1F
100
AcDbEntity
  8
0
  6
HIDDEN
 62
     7
370
    15
100
AcDbLine
 10
269.5365432308
 20
180.6328182575
 30
0.0
 11
267.036545615
 21
180.6328182575
 31
0.0
  0
LINE
  5
15F
330
1F
100
AcDbEntity
  8
0
  6
HIDDEN
 62
     7
370
    15
100
AcDbLine
 10
207.0365432308
 20
303.1328169164
 30
0.0
 11
207.0365432308
 21
305.6328145323
 31
0.0
  0
LINE
  5
160
330
1F
100
AcDbEntity
  8
0
  6
HIDDEN
 62
     7
370
    15
100
AcDbLine
 10
207.0365432308
 20
300.6328155753
 30
0.0
 11
207.0365432308
 21
303.1328169164
 31
0.0
  0
LINE
  5
161
330
1F
100
AcDbEntity
  8
0
  6
HIDDEN
 62
     7
370
    15
100
AcDbLine
 10
327.0365405486
 20
193.1328137872
 30
0.0
 11
327.0365405486
 21
188.1328185556
 31
0.0
  0
LINE
  5
162
330
1F
100
AcDbEntity
  8
0
  6
HIDDEN
 62
     7
370
    15
100
AcDbLine
 10
207.0365432308
 20
253.1328161714
 30
0.0
 11
207.0365432308
 21
255.6328156498
 31
0.0
  0
LINE
  5
163
330
1F
100
AcDbEntity
  8
0
  6
HIDDEN
 62
     7
370
    15
100
AcDbLine
 10
207.0365432308
 20
250.6328166929
 30
0.0
 11
207.0365432308
 21
253.1328161714
 31
0.0
  0
LINE
  5
164
330
1F
100
AcDbEntity
  8
0
  6
HIDDEN
 62
     7
370
    15
100
AcDbLine
 10
327.0365405486
 20
218.1328160224
 30
0.0
 11
327.0365405486
 21
213.1328170654
 31
0.0
  0
LWPOLYLINE
  5
165
330
1F
100
AcDbEntity
  8
0
  6
HIDDEN
 62
     7
370
    15
100
AcDbPolyline
 90
       12
 70
   128
 43
0.0
 10
303.5782906816
 20
251.0780596641
 10
303.5962391303
 20
251.0566690472
 10
303.7374276326
 20
250.8884032724
 10
304.0072653101
 20
250.5668231753
 10
304.3817761944
 20
250.1205035952
 10
304.8276710913
 20
249.5891002474
 10
305.3053501652
 20
249.0198311863
 10
305.772352557
 20
248.4632802663
 10
306.1871859835
 20
247.9688951281
 10
306.512999873
 20
247.5806081203
 10
306.7208338187
 20
247.3329191563
 10
306.792225282
 20
247.2478372512
  0
LWPOLYLINE
  5
166
330
1F
100
AcDbEntity
  8
0
  6
HIDDEN
 62
     7
370
    15
100
AcDbPolyline
 90
       12
 70
   128
 43
0.0
 10
271.4389074252
 20
289.3802819309
 10
271.4568558739
 20
289.358891314
 10
271.5980481015
 20
289.1906255392
 10
271.8678857789
 20
288.8690454421
 10
272.2423929379
 20
288.422725862
 10
272.6882915602
 20
287.8913225141
 10
273.1659669087
 20
287.3220534531
 10
273.6329693005
 20
286.7655006704
 10
274.0478064523
 20
286.2711173949
 10
274.3736166165
 20
285.8828303871
 10
274.5814542876
 20
285.6351414231
 10
274.6528457508
 20
285.550059518
  0
LINE
  5
167
330
1F
100
AcDbEntity
  8
0
  6
HIDDEN
 62
     7
370
    15
100
AcDbLine
 10
197.45075662
 20
166.6328122375
 30
0.0
 11
193.0365446613
 21
171.0470279214
 31
0.0
  0
LINE
  5
168
330
1F
100
AcDbEntity
  8
0
  6
HIDDEN
 62
     7
370
    15
100
AcDbLine
 10
341.0365465687
 20
166.6328122375
 30
0.0
 11
197.45075662
 21
166.6328122375
 31
0.0
  0
LINE
  5
169
330
1F
100
AcDbEntity
  8
0
  6
HIDDEN
 62
     7
370
    15
100
AcDbLine
 10
247.0365441994
 20
183.6328168866
 30
0.0
 11
247.0365441994
 21
182.6328148601
 31
0.0
  0
LINE
  5
16A
330
1F
100
AcDbEntity
  8
0
  6
HIDDEN
 62
     7
370
    15
100
AcDbLine
 10
247.0365441994
 20
182.6328148601
 30
0.0
 11
317.0365426348
 21
182.6328148601
 31
0.0
  0
LINE
  5
16B
330
1F
100
AcDbEntity
  8
0
  6
HIDDEN
 62
     7
370
    15
100
AcDbLine
 10
317.0365426348
 20
183.6328168866
 30
0.0
 11
317.0365426348
 21
182.6328148601
 31
0.0
  0
LINE
  5
16C
330
1F
100
AcDbEntity
  8
0
  6
HIDDEN
 62
     7
370
    15
100
AcDbLine
 10
342.0365411446
 20
226.7612998841
 30
0.0
 11
341.0365465687
 21
226.7612998841
 31
0.0
  0
LINE
  5
16D
330
1F
100
AcDbEntity
  8
0
  6
HIDDEN
 62
     7
370
    15
100
AcDbLine
 10
341.0365465687
 20
226.7612998841
 30
0.0
 11
341.0365465687
 21
166.6328122375
 31
0.0
  0
LINE
  5
16E
330
1F
100
AcDbEntity
  8
0
  6
HIDDEN
 62
     7
370
    15
100
AcDbLine
 10
193.0365446613
 20
171.0470279214
 30
0.0
 11
193.0365446613
 21
364.6328186152
 31
0.0
  0
LWPOLYLINE
  5
16F
330
1F
100
AcDbEntity
  8
0
  6
HIDDEN
 62
     7
370
    15
100
AcDbPolyline
 90
        9
 70
   128
 43
0.0
 10
340.866762738
 20
229.9752382097
 10
340.8520478413
 20
229.9628888724
 10
340.8084544943
 20
229.9263102469
 10
340.737666528
 20
229.8669104931
 10
340.6423959539
 20
229.7869732139
 10
340.5263159082
 20
229.6895643232
 10
340.3938743875
 20
229.5784351883
 10
340.250167589
 20
229.4578549919
 10
340.1007238434
 20
229.3324505446
  0
ARC
  5
170
330
1F
100
AcDbEntity
  8
0
  6
HIDDEN
 62
     7
370
    15
100
AcDbCircle
 10
337.0365439164
 20
226.7613015611
 30
0.0
 40
3.999999999999972
100
AcDbArc
 50
0.0
 51
40.0
  0
LINE
  5
171
330
1F
100
AcDbEntity
  8
0
  6
HIDDEN
 62
     7
370
    15
100
AcDbLine
 10
193.0365446613
 20
364.6328186152
 30
0.0
 11
224.7050055892
 21
364.6328186152
 31
0.0
  0
LINE
  5
172
330
1F
100
AcDbEntity
  8
0
  6
HIDDEN
 62
     7
370
    15
100
AcDbLine
 10
224.7050055892
 20
364.6328186152
 30
0.0
 11
224.7050055892
 21
365.6328131911
 31
0.0
  0
LWPOLYLINE
  5
173
330
1F
100
AcDbEntity
  8
0
  6
HIDDEN
 62
     7
370
    15
100
AcDbPolyline
 90
        9
 70
   128
 43
0.0
 10
228.5352277693
 20
363.8467525599
 10
228.5205084489
 20
363.8343994972
 10
228.476916266
 20
363.7978245971
 10
228.4061259714
 20
363.738421118
 10
228.3108586569
 20
363.6584838388
 10
228.1947748859
 20
363.5610823986
 10
228.0623359264
 20
363.4499495384
 10
227.9186312233
 20
363.3293693421
 10
227.7691834032
 20
363.20396862
  0
LINE
  5
174
330
1F
100
AcDbEntity
  8
0
  6
HIDDEN
 62
     7
370
    15
100
AcDbLine
 10
227.7691834032
 20
363.20396862
 30
0.0
 11
340.1007238434
 21
229.3324505446
 31
0.0
  0
ARC
  5
175
330
1F
100
AcDbEntity
  8
0
  6
HIDDEN
 62
     7
370
    15
100
AcDbCircle
 10
224.7050056256
 20
360.6328158808
 30
0.0
 40
3.999999999999994
100
AcDbArc
 50
40.0
 51
90.0
  0
ARC
  5
176
330
1F
100
AcDbEntity
  8
0
  6
HIDDEN
 62
     7
370
    15
100
AcDbCircle
 10
317.0365439164
 20
221.8129647095
 30
0.0
 40
6.00000000000002
100
AcDbArc
 50
0.0
 51
40.0
  0
LWPOLYLINE
  5
177
330
1F
100
AcDbEntity
  8
0
  6
HIDDEN
 62
     7
370
    15
100
AcDbPolyline
 90
        9
 70
   128
 43
0.0
 10
321.6328132556
 20
225.6696892438
 10
321.4833620594
 20
225.5442885217
 10
321.3396552608
 20
225.4237046001
 10
321.2072211907
 20
225.3125754652
 10
321.0911336944
 20
225.2151702997
 10
320.9958705709
 20
225.1352330205
 10
320.9250751541
 20
225.0758332667
 10
320.881481807
 20
225.0392546413
 10
320.8667669103
 20
225.0269015786
  0
LINE
  5
178
330
1F
100
AcDbEntity
  8
0
  6
HIDDEN
 62
     7
370
    15
100
AcDbLine
 10
322.036545317
 20
221.812963253
 30
0.0
 11
323.0365473435
 21
221.812963253
 31
0.0
  0
LINE
  5
179
330
1F
100
AcDbEntity
  8
0
  6
HIDDEN
 62
     7
370
    15
100
AcDbLine
 10
321.6328132556
 20
225.6696892438
 30
0.0
 11
234.5176120878
 21
329.489540076
 31
0.0
  0
LWPOLYLINE
  5
17A
330
1F
100
AcDbEntity
  8
0
  6
HIDDEN
 62
     7
370
    15
100
AcDbPolyline
 90
        9
 70
   128
 43
0.0
 10
234.5176120878
 20
329.489540076
 10
234.3681636856
 20
329.364139354
 10
234.224459681
 20
329.2435591576
 10
234.092020023
 20
329.1324262974
 10
233.975936252
 20
329.035021132
 10
233.8806694032
 20
328.9550838527
 10
233.8098791086
 20
328.8956840989
 10
233.7662866929
 20
328.8591054735
 10
233.7515671396
 20
328.8467524109
  0
LINE
  5
17B
330
1F
100
AcDbEntity
  8
0
  6
HIDDEN
 62
     7
370
    15
100
AcDbLine
 10
322.036545317
 20
188.6328195688
 30
0.0
 11
323.0365473435
 21
188.6328195688
 31
0.0
  0
LINE
  5
17C
330
1F
100
AcDbEntity
  8
0
  6
HIDDEN
 62
     7
370
    15
100
AcDbLine
 10
323.0365473435
 20
188.6328195688
 30
0.0
 11
323.0365473435
 21
221.812963253
 31
0.0
  0
ARC
  5
17D
330
1F
100
AcDbEntity
  8
0
  6
HIDDEN
 62
     7
370
    15
100
AcDbCircle
 10
229.9213450897
 20
325.6328158808
 30
0.0
 40
6.000000000000024
100
AcDbArc
 50
40.0
 51
90.0
  0
LINE
  5
17E
330
1F
100
AcDbEntity
  8
0
  6
HIDDEN
 62
     7
370
    15
100
AcDbLine
 10
229.9213451923
 20
331.632818794
 30
0.0
 11
229.9213451923
 21
330.6328167674
 31
0.0
  0
ARC
  5
17F
330
1F
100
AcDbEntity
  8
0
  6
HIDDEN
 62
     7
370
    15
100
AcDbCircle
 10
317.0365439164
 20
188.6328158808
 30
0.0
 40
6.0
100
AcDbArc
 50
270.0
 51
0.0
  0
LINE
  5
180
330
1F
100
AcDbEntity
  8
0
  6
HIDDEN
 62
     7
370
    15
100
AcDbLine
 10
229.9213451923
 20
331.632818794
 30
0.0
 11
215.0365436108
 21
331.632818794
 31
0.0
  0
LINE
  5
181
330
1F
100
AcDbEntity
  8
0
  6
HIDDEN
 62
     7
370
    15
100
AcDbLine
 10
215.0365436108
 20
331.632818794
 30
0.0
 11
215.0365436108
 21
330.6328167674
 31
0.0
  0
LWPOLYLINE
  5
182
330
1F
100
AcDbEntity
  8
0
  6
HIDDEN
 62
     7
370
    15
100
AcDbPolyline
 90
        9
 70
   128
 43
0.0
 10
240.5720777468
 20
200.0972812531
 10
240.5584906817
 20
200.0836913941
 10
240.5182528899
 20
200.0434582588
 10
240.4529085041
 20
199.978116667
 10
240.364971164
 20
199.8901774642
 10
240.2578187765
 20
199.7830232141
 10
240.1355687187
 20
199.6607740876
 10
240.0029204444
 20
199.5281239507
 10
239.864971082
 20
199.3901764509
  0
ARC
  5
183
330
1F
100
AcDbEntity
  8
0
  6
HIDDEN
 62
     7
370
    15
100
AcDbCircle
 10
237.0365439164
 20
196.5617480689
 30
0.0
 40
3.999999999999992
100
AcDbArc
 50
0.0
 51
45.0
  0
LINE
  5
184
330
1F
100
AcDbEntity
  8
0
  6
HIDDEN
 62
     7
370
    15
100
AcDbLine
 10
242.0365433798
 20
196.5617497918
 30
0.0
 11
241.0365441472
 21
196.5617497918
 31
0.0
  0
ARC
  5
185
330
1F
100
AcDbEntity
  8
0
  6
HIDDEN
 62
     7
370
    15
100
AcDbCircle
 10
215.0365439164
 20
325.6328158808
 30
0.0
 40
6.0
100
AcDbArc
 50
90.0
 51
180.0
  0
LINE
  5
186
330
1F
100
AcDbEntity
  8
0
  6
HIDDEN
 62
     7
370
    15
100
AcDbLine
 10
209.0365435586
 20
325.6328140852
 30
0.0
 11
210.0365437225
 21
325.6328140852
 31
0.0
  0
LINE
  5
187
330
1F
100
AcDbEntity
  8
0
  6
HIDDEN
 62
     7
370
    15
100
AcDbLine
 10
242.0365433798
 20
188.6328195688
 30
0.0
 11
241.0365441472
 21
188.6328195688
 31
0.0
  0
ARC
  5
188
330
1F
100
AcDbEntity
  8
0
  6
HIDDEN
 62
     7
370
    15
100
AcDbCircle
 10
247.0365439164
 20
188.6328158808
 30
0.0
 40
6.0
100
AcDbArc
 50
180.0
 51
270.0
  0
LINE
  5
189
330
1F
100
AcDbEntity
  8
0
  6
HIDDEN
 62
     7
370
    15
100
AcDbLine
 10
209.0365435586
 20
325.6328140852
 30
0.0
 11
209.0365435586
 21
220.6328173635
 31
0.0
  0
LINE
  5
18A
330
1F
100
AcDbEntity
  8
0
  6
HIDDEN
 62
     7
370
    15
100
AcDbLine
 10
209.0365435586
 20
220.6328173635
 30
0.0
 11
210.0365437225
 21
220.6328173635
 31
0.0
  0
LINE
  5
18B
330
1F
100
AcDbEntity
  8
0
  6
HIDDEN
 62
     7
370
    15
100
AcDbLine
 10
241.0365441472
 20
196.5617497918
 30
0.0
 11
241.0365441472
 21
188.6328195688
 31
0.0
  0
ARC
  5
18C
330
1F
100
AcDbEntity
  8
0
  6
HIDDEN
 62
     7
370
    15
100
AcDbCircle
 10
215.0365439164
 20
220.6328158808
 30
0.0
 40
6.0
100
AcDbArc
 50
180.0
 51
270.0
  0
LINE
  5
18D
330
1F
100
AcDbEntity
  8
0
  6
HIDDEN
 62
     7
370
    15
100
AcDbLine
 10
215.0365436108
 20
214.63281638
 30
0.0
 11
215.0365436108
 21
215.6328146813
 31
0.0
  0
ARC
  5
18E
330
1F
100
AcDbEntity
  8
0
  6
HIDDEN
 62
     7
370
    15
100
AcDbCircle
 10
222.9654761046
 20
210.6328158808
 30
0.0
 40
3.999999999999992
100
AcDbArc
 50
45.0
 51
90.0
  0
LWPOLYLINE
  5
18F
330
1F
100
AcDbEntity
  8
0
  6
HIDDEN
 62
     7
370
    15
100
AcDbPolyline
 90
        9
 70
   128
 43
0.0
 10
226.5010100098
 20
214.1683509109
 10
226.4874231485
 20
214.1547647772
 10
226.4471847164
 20
214.1145241914
 10
226.3818410291
 20
214.0491825995
 10
226.2939032233
 20
213.9612433967
 10
226.1867507048
 20
213.8540891466
 10
226.0645012801
 20
213.7318400202
 10
225.9318529185
 20
213.5991936085
 10
225.7939032286
 20
213.4612423835
  0
LINE
  5
190
330
1F
100
AcDbEntity
  8
0
  6
HIDDEN
 62
     7
370
    15
100
AcDbLine
 10
222.9654761621
 20
214.63281638
 30
0.0
 11
222.9654761621
 21
215.6328146813
 31
0.0
  0
LINE
  5
191
330
1F
100
AcDbEntity
  8
0
  6
HIDDEN
 62
     7
370
    15
100
AcDbLine
 10
215.0365436108
 20
214.63281638
 30
0.0
 11
222.9654761621
 21
214.63281638
 31
0.0
  0
LINE
  5
192
330
1F
100
AcDbEntity
  8
0
  6
HIDDEN
 62
     7
370
    15
100
AcDbLine
 10
225.7939032286
 20
213.4612423835
 30
0.0
 11
239.864971082
 21
199.3901764509
 31
0.0
  0
LINE
  5
193
330
1F
100
AcDbEntity
  8
0
  6
HIDDEN
 62
     7
370
    15
100
AcDbLine
 10
266.3456532762
 20
318.786043441
 30
0.0
 11
252.1725926206
 21
306.8934304175
 31
0.0
  0
LINE
  5
194
330
1F
100
AcDbEntity
  8
0
  6
HIDDEN
 62
     7
370
    15
100
AcDbLine
 10
256.4149904654
 20
301.837537205
 30
0.0
 11
270.588051121
 21
313.7301502285
 31
0.0
  0
LINE
  5
195
330
1F
100
AcDbEntity
  8
0
  6
HIDDEN
 62
     7
370
    15
100
AcDbLine
 10
210.0365437225
 20
293.932815781
 30
0.0
 11
192.0365426348
 21
293.932815781
 31
0.0
  0
LINE
  5
196
330
1F
100
AcDbEntity
  8
0
  6
HIDDEN
 62
     7
370
    15
100
AcDbLine
 10
192.0365426348
 20
287.3328158167
 30
0.0
 11
210.0365437225
 21
287.3328158167
 31
0.0
  0
LINE
  5
197
330
1F
100
AcDbEntity
  8
0
  6
HIDDEN
 62
     7
370
    15
100
AcDbLine
 10
210.0365437225
 20
243.9328150359
 30
0.0
 11
192.0365426348
 21
243.9328150359
 31
0.0
  0
LINE
  5
198
330
1F
100
AcDbEntity
  8
0
  6
HIDDEN
 62
     7
370
    15
100
AcDbLine
 10
192.0365426348
 20
237.3328150717
 30
0.0
 11
210.0365437225
 21
237.3328150717
 31
0.0
  0
LINE
  5
199
330
1F
100
AcDbEntity
  8
0
  6
HIDDEN
 62
     7
370
    15
100
AcDbLine
 10
298.4850365327
 20
280.4838202429
 30
0.0
 11
284.3119721518
 21
268.5912087764
 31
0.0
  0
LINE
  5
19A
330
1F
100
AcDbEntity
  8
0
  6
HIDDEN
 62
     7
370
    15
100
AcDbLine
 10
288.5543737219
 20
263.5353154038
 30
0.0
 11
302.7274343775
 21
275.4279265647
 31
0.0
  0
LINE
  5
19B
330
1F
100
AcDbEntity
  8
0
  6
HIDDEN
 62
     7
370
    15
100
AcDbLine
 10
210.0365437225
 20
318.9328161535
 30
0.0
 11
192.0365426348
 21
318.9328161535
 31
0.0
  0
LINE
  5
19C
330
1F
100
AcDbEntity
  8
0
  6
HIDDEN
 62
     7
370
    15
100
AcDbLine
 10
192.0365426348
 20
312.3328161893
 30
0.0
 11
210.0365437225
 21
312.3328161893
 31
0.0
  0
LINE
  5
19D
330
1F
100
AcDbEntity
  8
0
  6
HIDDEN
 62
     7
370
    15
100
AcDbLine
 10
210.0365437225
 20
268.9328158741
 30
0.0
 11
192.0365426348
 21
268.9328158741
 31
0.0
  0
LINE
  5
19E
330
1F
100
AcDbEntity
  8
0
  6
HIDDEN
 62
     7
370
    15
100
AcDbLine
 10
192.0365426348
 20
262.3328159099
 30
0.0
 11
210.0365437225
 21
262.3328159099
 31
0.0
  0
LINE
  5
19F
330
1F
100
AcDbEntity
  8
0
  6
HIDDEN
 62
     7
370
    15
100
AcDbLine
 10
251.2365445153
 20
183.6328168866
 30
0.0
 11
251.2365445153
 21
165.6328176615
 31
0.0
  0
LINE
  5
1A0
330
1F
100
AcDbEntity
  8
0
  6
HIDDEN
 62
     7
370
    15
100
AcDbLine
 10
257.8365426169
 20
165.6328176615
 30
0.0
 11
257.8365426169
 21
183.6328168866
 31
0.0
  0
LINE
  5
1A1
330
1F
100
AcDbEntity
  8
0
  6
HIDDEN
 62
     7
370
    15
100
AcDbLine
 10
276.2365448878
 20
183.6328168866
 30
0.0
 11
276.2365448878
 21
165.6328176615
 31
0.0
  0
LINE
  5
1A2
330
1F
100
AcDbEntity
  8
0
  6
HIDDEN
 62
     7
370
    15
100
AcDbLine
 10
282.836544852
 20
165.6328176615
 30
0.0
 11
282.836544852
 21
183.6328168866
 31
0.0
  0
LINE
  5
1A3
330
1F
100
AcDbEntity
  8
0
  6
HIDDEN
 62
     7
370
    15
100
AcDbLine
 10
301.2365433977
 20
183.6328168866
 30
0.0
 11
301.2365433977
 21
165.6328176615
 31
0.0
  0
LINE
  5
1A4
330
1F
100
AcDbEntity
  8
0
  6
HIDDEN
 62
     7
370
    15
100
AcDbLine
 10
307.8365433619
 20
165.6328176615
 30
0.0
 11
307.8365433619
 21
183.6328168866
 31
0.0
  0
LINE
  5
1A5
330
1F
100
AcDbEntity
  8
0
  6
HIDDEN
 62
     7
370
    15
100
AcDbLine
 10
250.7901951329
 20
337.324317312
 30
0.0
 11
239.2995278941
 21
327.682502335
 31
0.0
  0
LINE
  5
1A6
330
1F
100
AcDbEntity
  8
0
  6
HIDDEN
 62
     7
370
    15
100
AcDbLine
 10
242.5134662197
 20
323.8522817847
 30
0.0
 11
254.0041315959
 21
333.4940930364
 31
0.0
  0
LINE
  5
1A7
330
1F
100
AcDbEntity
  8
0
  6
HIDDEN
 62
     7
370
    15
100
AcDbLine
 10
332.0365432308
 20
180.6328182575
 30
0.0
 11
329.536545615
 21
182.1349670646
 31
0.0
  0
LINE
  5
1A8
330
1F
100
AcDbEntity
  8
0
  6
HIDDEN
 62
     7
370
    15
100
AcDbLine
 10
329.536545615
 20
182.1349670646
 30
0.0
 11
327.0365405486
 21
180.6328182575
 31
0.0
  0
LINE
  5
1A9
330
1F
100
AcDbEntity
  8
0
  6
HIDDEN
 62
     7
370
    15
100
AcDbLine
 10
332.0365432308
 20
165.6328176615
 30
0.0
 11
332.0365432308
 21
180.6328182575
 31
0.0
  0
LINE
  5
1AA
330
1F
100
AcDbEntity
  8
0
  6
HIDDEN
 62
     7
370
    15
100
AcDbLine
 10
327.0365405486
 20
180.6328182575
 30
0.0
 11
327.0365405486
 21
165.6328176615
 31
0.0
  0
LINE
  5
1AB
330
1F
100
AcDbEntity
  8
0
  6
HIDDEN
 62
     7
370
    15
100
AcDbLine
 10
202.0365442739
 20
350.6328125951
 30
0.0
 11
204.5365437523
 21
349.1306637881
 31
0.0
  0
LINE
  5
1AC
330
1F
100
AcDbEntity
  8
0
  6
HIDDEN
 62
     7
370
    15
100
AcDbLine
 10
204.5365437523
 20
349.1306637881
 30
0.0
 11
207.0365432308
 21
350.6328125951
 31
0.0
  0
LINE
  5
1AD
330
1F
100
AcDbEntity
  8
0
  6
HIDDEN
 62
     7
370
    15
100
AcDbLine
 10
202.0365442739
 20
365.6328131911
 30
0.0
 11
202.0365442739
 21
350.6328125951
 31
0.0
  0
LINE
  5
1AE
330
1F
100
AcDbEntity
  8
0
  6
HIDDEN
 62
     7
370
    15
100
AcDbLine
 10
207.0365432308
 20
350.6328125951
 30
0.0
 11
207.0365432308
 21
365.6328131911
 31
0.0
  0
LINE
  5
1AF
330
1F
100
AcDbEntity
  8
0
  6
HIDDEN
 62
     7
370
    15
100
AcDbLine
 10
294.5365417407
 20
180.6328182575
 30
0.0
 11
292.0365441249
 21
182.1349670646
 31
0.0
  0
LINE
  5
1B0
330
1F
100
AcDbEntity
  8
0
  6
HIDDEN
 62
     7
370
    15
100
AcDbLine
 10
292.0365441249
 20
182.1349670646
 30
0.0
 11
289.5365465091
 21
180.6328182575
 31
0.0
  0
LINE
  5
1B1
330
1F
100
AcDbEntity
  8
0
  6
HIDDEN
 62
     7
370
    15
100
AcDbLine
 10
294.5365417407
 20
165.6328176615
 30
0.0
 11
294.5365417407
 21
180.6328182575
 31
0.0
  0
LINE
  5
1B2
330
1F
100
AcDbEntity
  8
0
  6
HIDDEN
 62
     7
370
    15
100
AcDbLine
 10
289.5365465091
 20
180.6328182575
 30
0.0
 11
289.5365465091
 21
165.6328176615
 31
0.0
  0
LINE
  5
1B3
330
1F
100
AcDbEntity
  8
0
  6
HIDDEN
 62
     7
370
    15
100
AcDbLine
 10
192.0365426348
 20
275.6328156685
 30
0.0
 11
207.0365432308
 21
275.6328156685
 31
0.0
  0
LINE
  5
1B4
330
1F
100
AcDbEntity
  8
0
  6
HIDDEN
 62
     7
370
    15
100
AcDbLine
 10
207.0365432308
 20
280.6328160224
 30
0.0
 11
192.0365426348
 21
280.6328160224
 31
0.0
  0
LINE
  5
1B5
330
1F
100
AcDbEntity
  8
0
  6
HIDDEN
 62
     7
370
    15
100
AcDbLine
 10
207.0365432308
 20
338.1328170654
 30
0.0
 11
208.5386957631
 21
340.6328146813
 31
0.0
  0
LINE
  5
1B6
330
1F
100
AcDbEntity
  8
0
  6
HIDDEN
 62
     7
370
    15
100
AcDbLine
 10
208.5386957631
 20
340.6328146813
 30
0.0
 11
207.0365432308
 21
343.1328122971
 31
0.0
  0
LINE
  5
1B7
330
1F
100
AcDbEntity
  8
0
  6
HIDDEN
 62
     7
370
    15
100
AcDbLine
 10
192.0365426348
 20
338.1328170654
 30
0.0
 11
207.0365432308
 21
338.1328170654
 31
0.0
  0
LINE
  5
1B8
330
1F
100
AcDbEntity
  8
0
  6
HIDDEN
 62
     7
370
    15
100
AcDbLine
 10
207.0365432308
 20
343.1328122971
 30
0.0
 11
192.0365426348
 21
343.1328122971
 31
0.0
  0
LINE
  5
1B9
330
1F
100
AcDbEntity
  8
0
  6
HIDDEN
 62
     7
370
    15
100
AcDbLine
 10
269.5365432308
 20
180.6328182575
 30
0.0
 11
267.036545615
 21
182.1349670646
 31
0.0
  0
LINE
  5
1BA
330
1F
100
AcDbEntity
  8
0
  6
HIDDEN
 62
     7
370
    15
100
AcDbLine
 10
267.036545615
 20
182.1349670646
 30
0.0
 11
264.5365442739
 21
180.6328182575
 31
0.0
  0
LINE
  5
1BB
330
1F
100
AcDbEntity
  8
0
  6
HIDDEN
 62
     7
370
    15
100
AcDbLine
 10
269.5365432308
 20
165.6328176615
 30
0.0
 11
269.5365432308
 21
180.6328182575
 31
0.0
  0
LINE
  5
1BC
330
1F
100
AcDbEntity
  8
0
  6
HIDDEN
 62
     7
370
    15
100
AcDbLine
 10
264.5365442739
 20
180.6328182575
 30
0.0
 11
264.5365442739
 21
165.6328176615
 31
0.0
  0
LINE
  5
1BD
330
1F
100
AcDbEntity
  8
0
  6
HIDDEN
 62
     7
370
    15
100
AcDbLine
 10
207.0365432308
 20
300.6328155753
 30
0.0
 11
208.5386957631
 21
303.1328169164
 31
0.0
  0
LINE
  5
1BE
330
1F
100
AcDbEntity
  8
0
  6
HIDDEN
 62
     7
370
    15
100
AcDbLine
 10
208.5386957631
 20
303.1328169164
 30
0.0
 11
207.0365432308
 21
305.6328145323
 31
0.0
  0
LINE
  5
1BF
330
1F
100
AcDbEntity
  8
0
  6
HIDDEN
 62
     7
370
    15
100
AcDbLine
 10
192.0365426348
 20
300.6328155753
 30
0.0
 11
207.0365432308
 21
300.6328155753
 31
0.0
  0
LINE
  5
1C0
330
1F
100
AcDbEntity
  8
0
  6
HIDDEN
 62
     7
370
    15
100
AcDbLine
 10
207.0365432308
 20
305.6328145323
 30
0.0
 11
192.0365426348
 21
305.6328145323
 31
0.0
  0
LINE
  5
1C1
330
1F
100
AcDbEntity
  8
0
  6
HIDDEN
 62
     7
370
    15
100
AcDbLine
 10
327.0365405486
 20
193.1328137872
 30
0.0
 11
325.5343917415
 21
190.6328161714
 31
0.0
  0
LINE
  5
1C2
330
1F
100
AcDbEntity
  8
0
  6
HIDDEN
 62
     7
370
    15
100
AcDbLine
 10
325.5343917415
 20
190.6328161714
 30
0.0
 11
327.0365405486
 21
188.1328185556
 31
0.0
  0
LINE
  5
1C3
330
1F
100
AcDbEntity
  8
0
  6
HIDDEN
 62
     7
370
    15
100
AcDbLine
 10
207.0365432308
 20
250.6328166929
 30
0.0
 11
208.5386957631
 21
253.1328161714
 31
0.0
  0
LINE
  5
1C4
330
1F
100
AcDbEntity
  8
0
  6
HIDDEN
 62
     7
370
    15
100
AcDbLine
 10
208.5386957631
 20
253.1328161714
 30
0.0
 11
207.0365432308
 21
255.6328156498
 31
0.0
  0
LINE
  5
1C5
330
1F
100
AcDbEntity
  8
0
  6
HIDDEN
 62
     7
370
    15
100
AcDbLine
 10
192.0365426348
 20
250.6328166929
 30
0.0
 11
207.0365432308
 21
250.6328166929
 31
0.0
  0
LINE
  5
1C6
330
1F
100
AcDbEntity
  8
0
  6
HIDDEN
 62
     7
370
    15
100
AcDbLine
 10
207.0365432308
 20
255.6328156498
 30
0.0
 11
192.0365426348
 21
255.6328156498
 31
0.0
  0
LINE
  5
1C7
330
1F
100
AcDbEntity
  8
0
  6
HIDDEN
 62
     7
370
    15
100
AcDbLine
 10
207.0365432308
 20
275.6328156685
 30
0.0
 11
208.5386957631
 21
278.1328156126
 31
0.0
  0
LINE
  5
1C8
330
1F
100
AcDbEntity
  8
0
  6
HIDDEN
 62
     7
370
    15
100
AcDbLine
 10
208.5386957631
 20
278.1328156126
 30
0.0
 11
207.0365432308
 21
280.6328160224
 31
0.0
  0
LINE
  5
1C9
330
1F
100
AcDbEntity
  8
0
  6
HIDDEN
 62
     7
370
    15
100
AcDbLine
 10
327.0365405486
 20
218.1328160224
 30
0.0
 11
325.5343917415
 21
215.6328146813
 31
0.0
  0
LINE
  5
1CA
330
1F
100
AcDbEntity
  8
0
  6
HIDDEN
 62
     7
370
    15
100
AcDbLine
 10
325.5343917415
 20
215.6328146813
 30
0.0
 11
327.0365405486
 21
213.1328170654
 31
0.0
  0
LINE
  5
1CB
330
1F
100
AcDbEntity
  8
0
  6
HIDDEN
 62
     7
370
    15
100
AcDbLine
 10
342.0365411446
 20
218.1328160224
 30
0.0
 11
327.0365405486
 21
218.1328160224
 31
0.0
  0
LINE
  5
1CC
330
1F
100
AcDbEntity
  8
0
  6
HIDDEN
 62
     7
370
    15
100
AcDbLine
 10
327.0365405486
 20
213.1328170654
 30
0.0
 11
342.0365411446
 21
213.1328170654
 31
0.0
  0
LINE
  5
1CD
330
1F
100
AcDbEntity
  8
0
  6
HIDDEN
 62
     7
370
    15
100
AcDbLine
 10
239.2995278941
 20
327.682502335
 30
0.0
 11
239.755781892
 21
324.8018284795
 31
0.0
  0
LINE
  5
1CE
330
1F
100
AcDbEntity
  8
0
  6
HIDDEN
 62
     7
370
    15
100
AcDbLine
 10
239.755781892
 20
324.8018284795
 30
0.0
 11
242.5134662197
 21
323.8522817847
 31
0.0
  0
LINE
  5
1CF
330
1F
100
AcDbEntity
  8
0
  6
HIDDEN
 62
     7
370
    15
100
AcDbLine
 10
342.0365411446
 20
193.1328137872
 30
0.0
 11
327.0365405486
 21
193.1328137872
 31
0.0
  0
LINE
  5
1D0
330
1F
100
AcDbEntity
  8
0
  6
HIDDEN
 62
     7
370
    15
100
AcDbLine
 10
327.0365405486
 20
188.1328185556
 30
0.0
 11
342.0365411446
 21
188.1328185556
 31
0.0
  0
LINE
  5
1D1
330
1F
100
AcDbEntity
  8
0
  6
HIDDEN
 62
     7
370
    15
100
AcDbLine
 10
303.5782906816
 20
251.0780596641
 30
0.0
 11
304.0345418856
 21
248.1973839459
 31
0.0
  0
LINE
  5
1D2
330
1F
100
AcDbEntity
  8
0
  6
HIDDEN
 62
     7
370
    15
100
AcDbLine
 10
304.0345418856
 20
248.1973839459
 30
0.0
 11
306.792225282
 21
247.2478372512
 31
0.0
  0
LINE
  5
1D3
330
1F
100
AcDbEntity
  8
0
  6
HIDDEN
 62
     7
370
    15
100
AcDbLine
 10
315.0689560578
 20
260.719873244
 30
0.0
 11
303.5782906816
 21
251.0780596641
 31
0.0
  0
LINE
  5
1D4
330
1F
100
AcDbEntity
  8
0
  6
HIDDEN
 62
     7
370
    15
100
AcDbLine
 10
306.792225282
 20
247.2478372512
 30
0.0
 11
318.2828906582
 21
256.8896512968
 31
0.0
  0
LINE
  5
1D5
330
1F
100
AcDbEntity
  8
0
  6
HIDDEN
 62
     7
370
    15
100
AcDbLine
 10
271.4389074252
 20
289.3802819309
 30
0.0
 11
271.8951623545
 21
286.4996062127
 31
0.0
  0
LINE
  5
1D6
330
1F
100
AcDbEntity
  8
0
  6
HIDDEN
 62
     7
370
    15
100
AcDbLine
 10
271.8951623545
 20
286.4996062127
 30
0.0
 11
274.6528457508
 21
285.550059518
 31
0.0
  0
LINE
  5
1D7
330
1F
100
AcDbEntity
  8
0
  6
HIDDEN
 62
     7
370
    15
100
AcDbLine
 10
282.9295765267
 20
299.0220950452
 30
0.0
 11
271.4389074252
 21
289.3802819309
 31
0.0
  0
LINE
  5
1D8
330
1F
100
AcDbEntity
  8
0
  6
HIDDEN
 62
     7
370
    15
100
AcDbLine
 10
274.6528457508
 20
285.550059518
 30
0.0
 11
286.143511127
 21
295.1918726322
 31
0.0
  0
LINE
  5
1D9
330
1F
100
AcDbEntity
  8
DIM
100
AcDbLine
 10
227.8924402316
 20
364.6127983723
 30
0.0
 11
226.3937563067
 21
366.3988603239
 31
0.0
  0
LINE
  5
1DA
330
1F
100
AcDbEntity
  8
DIM
100
AcDbLine
 10
225.7050056256
 20
365.6328158808
 30
0.0
 11
228.0365439164
 21
365.6328158808
 31
0.0
  0
DIMENSION
  5
1DB
330
1F
100
AcDbEntity
  8
DIM
100
AcDbDimension
  2
_D
 10
192.0365439164
 20
383.1328158808
 30
0.0
 11
209.5365439164
 21
383.1328158808
 31
0.0
 70
   160
  1
<>
 71
     2
 42
-1.0
  3
SLDDIMSTYLE0
100
AcDbAlignedDimension
 13
227.0365439164
 23
365.6328158808
 33
0.0
 14
192.0365439164
 24
365.6328158808
 34
0.0
100
AcDbRotatedDimension
  0
DIMENSION
  5
1E6
330
1F
100
AcDbEntity
  8
DIM
100
AcDbDimension
  2
_D_1
 10
174.5365439164
 20
165.6328158808
 30
0.0
 11
174.5365439164
 21
265.6328158808
 31
0.0
 70
   160
  1
<>
 71
     2
 42
-1.0
  3
SLDDIMSTYLE0
100
AcDbAlignedDimension
 13
192.0365439164
 23
365.6328158808
 33
0.0
 14
197.0365439164
 24
165.6328158808
 34
0.0
 50
90.0
100
AcDbRotatedDimension
  0
DIMENSION
  5
1F0
330
1F
100
AcDbEntity
  8
DIM
100
AcDbDimension
  2
_D_2
 10
342.0365439164
 20
148.1328158808
 30
0.0
 11
267.0365439164
 21
148.1328158808
 31
0.0
 70
   160
  1
<>
 71
     2
 42
-1.0
  3
SLDDIMSTYLE0
100
AcDbAlignedDimension
 13
192.0365439164
 23
170.6328158808
 33
0.0
 14
342.0365439164
 24
165.6328158808
 34
0.0
100
AcDbRotatedDimension
  0
DIMENSION
  5
1FA
330
1F
100
AcDbEntity
  8
DIM
100
AcDbDimension
  2
_D_3
 10
286.2251881186
 20
331.1591072671
 30
0.0
 11
294.2600332396
 21
321.5835517282
 31
0.0
 70
   160
  1
<>
 71
     2
 42
-1.0
  3
SLDDIMSTYLE0
100
AcDbAlignedDimension
 13
288.366766132
 23
300.3209223551
 33
0.0
 14
272.2970758899
 24
319.472033433
 34
0.0
 50
-50.0
100
AcDbRotatedDimension
  0
DIMENSION
  5
204
330
1F
100
AcDbEntity
  8
DIM
100
AcDbDimension
  2
_D_4
 10
318.3728005963
 20
292.8637925738
 30
0.0
 11
310.3379554752
 21
302.4393481128
 31
0.0
 70
   160
  1
<>
 71
     2
 42
-1.0
  3
SLDDIMSTYLE0
100
AcDbAlignedDimension
 13
288.366766132
 23
300.3209223551
 33
0.0
 14
304.4364563742
 24
281.1698112771
 34
0.0
 50
-50.0
100
AcDbRotatedDimension
  0
DIMENSION
  5
20E
330
1F
100
AcDbEntity
  8
DIM
100
AcDbDimension
  2
_D_5
 10
281.216139902
 20
359.5911989894
 30
0.0
 11
297.2858301441
 21
340.4400879114
 31
0.0
 70
   160
  1
<>
 71
     2
 42
-1.0
  3
SLDDIMSTYLE0
100
AcDbAlignedDimension
 13
288.366766132
 23
300.3209223551
 33
0.0
 14
256.2273856477
 24
338.623144511
 34
0.0
 50
-50.0
100
AcDbRotatedDimension
  0
DIMENSION
  5
218
330
1F
100
AcDbEntity
  8
DIM
100
AcDbDimension
  2
_D_6
 10
345.4955915204
 20
282.9873342014
 30
0.0
 11
329.4259012782
 21
302.1384452794
 31
0.0
 70
   160
  1
<>
 71
     2
 42
-1.0
  3
SLDDIMSTYLE0
100
AcDbAlignedDimension
 13
288.366766132
 23
300.3209223551
 33
0.0
 14
320.5061466163
 24
262.0187001991
 34
0.0
 50
-50.0
100
AcDbRotatedDimension
  0
DIMENSION
  5
222
330
1F
100
AcDbEntity
  8
DIM
100
AcDbDimension
  2
_D_7
 10
228.5352278412
 20
363.8467539292
 30
0.0
 11
359.5365439164
 21
182.1027679699
 31
0.0
 70
   162
  1
<>
 71
     1
 42
-1.0
  3
SLDDIMSTYLE1
100
AcDb2LineAngularDimension
 13
197.0365439164
 23
165.6328158808
 33
0.0
 14
342.0365439164
 24
165.6328158808
 34
0.0
 15
340.866766132
 25
229.9752396096
 35
0.0
 16
359.5365439164
 26
182.1027679699
 36
0.0
  0
INSERT
  5
233
330
1F
100
AcDbEntity
  8
DIM
100
AcDbBlockReference
  2
SW_NOTE_2
 10
297.0736577361
 20
218.1423415769
 30
0.0
  0
LEADER
  5
235
330
1F
100
AcDbEntity
  8
DIM
100
AcDbLeader
  3
SLDDIMSTYLE2
 76
     2
 10
316.7452068313
 20
258.8628970126
 30
0.0
 10
297.0736577361
 20
218.1423415769
 30
0.0
  0
INSERT
  5
23B
102
{ACAD_REACTORS
330
23C
102
}
330
1F
100
AcDbEntity
  8
DIM
100
AcDbBlockReference
  2
SW_NOTE_3
 10
257.3510797513
 20
262.8776528089
 30
0.0
  0
LEADER
  5
23C
330
1F
100
AcDbEntity
  8
DIM
100
AcDbLeader
  3
SLDDIMSTYLE2
 73
     2
 76
     3
 10
300.8091357342
 20
278.1261278659
 30
0.0
 10
264.6025594702
 20
262.8776528089
 30
0.0
 10
257.3510797513
 20
262.8776528089
 30
0.0
340
23B
  0
LINE
  5
23D
330
1F
100
AcDbEntity
  8
DIM
  6
CENTERX2
370
     0
100
AcDbLine
 10
237.0762745697
 20
322.5534542688
 30
0.0
 11
256.2273856477
 21
338.623144511
 31
0.0
  0
LINE
  5
23E
330
1F
100
AcDbEntity
  8
DIM
  6
CENTERX2
370
     0
100
AcDbLine
 10
250.463569434
 20
301.1515462186
 30
0.0
 11
272.2970758899
 21
319.472033433
 31
0.0
  0
LINE
  5
23F
330
1F
100
AcDbEntity
  8
DIM
  6
CENTERX2
370
     0
100
AcDbLine
 10
269.215655054
 20
284.2512321129
 30
0.0
 11
288.366766132
 21
300.3209223551
 31
0.0
  0
LINE
  5
240
330
1F
100
AcDbEntity
  8
DIM
  6
CENTERX2
370
     0
100
AcDbLine
 10
282.6029499183
 20
262.8493240627
 30
0.0
 11
304.4364563742
 21
281.1698112771
 31
0.0
  0
LINE
  5
241
330
1F
100
AcDbEntity
  8
DIM
  6
CENTERX2
370
     0
100
AcDbLine
 10
301.3550355384
 20
245.9490099569
 30
0.0
 11
320.5061466163
 21
262.0187001991
 31
0.0
  0
LINE
  5
242
330
1F
100
AcDbEntity
  8
0
  6
Continuous
 62
     7
370
    30
100
AcDbLine
 10
80.8139009935
 20
171.0470279214
 30
0.0
 11
80.8139009935
 21
364.6328186152
 31
0.0
  0
ARC
  5
243
330
1F
100
AcDbEntity
  8
0
  6
Continuous
 62
     7
370
    30
100
AcDbCircle
 10
81.8139073116
 20
364.6328158808
 30
0.0
 40
1.000000000000057
100
AcDbArc
 50
90.0
 51
180.0
  0
LINE
  5
244
330
1F
100
AcDbEntity
  8
0
  6
Continuous
 62
     7
370
    30
100
AcDbLine
 10
81.8139030201
 20
365.6328131911
 30
0.0
 11
81.8139030201
 21
170.6328128931
 31
0.0
  0
ELLIPSE
  5
245
330
1F
100
AcDbEntity
  8
0
  6
Continuous
 62
     7
370
    30
100
AcDbEllipse
 10
81.8139073116
 20
171.0470294432
 30
0.0
 11
1.0
 21
0.0
 31
0.0
210
0.0
220
0.0
230
1.0
 40
0.4142135624
 41
3.141592653589724
 42
4.712388980384695
  0
LINE
  5
246
330
1F
100
AcDbEntity
  8
0
  6
Continuous
 62
     7
370
    30
100
AcDbLine
 10
81.8139030201
 20
365.6328131911
 30
0.0
 11
97.8139056427
 21
365.6328131911
 31
0.0
  0
LINE
  5
247
330
1F
100
AcDbEntity
  8
0
  6
Continuous
 62
     7
370
    30
100
AcDbLine
 10
97.8139056427
 20
170.6328128931
 30
0.0
 11
97.8139056427
 21
365.6328131911
 31
0.0
  0
LINE
  5
248
330
1F
100
AcDbEntity
  8
0
  6
Continuous
 62
     7
370
    30
100
AcDbLine
 10
81.8139030201
 20
170.6328128931
 30
0.0
 11
97.8139056427
 21
170.6328128931
 31
0.0
  0
CIRCLE
  5
249
330
1F
100
AcDbEntity
  8
0
  6
Continuous
 62
     7
370
    30
100
AcDbCircle
 10
89.8139073116
 20
315.6328158808
 30
0.0
 40
3.299999999999983
  0
CIRCLE
  5
24A
330
1F
100
AcDbEntity
  8
0
  6
Continuous
 62
     7
370
    30
100
AcDbCircle
 10
89.8139073116
 20
240.6328158808
 30
0.0
 40
3.299999999999983
  0
CIRCLE
  5
24B
330
1F
100
AcDbEntity
  8
0
  6
Continuous
 62
     7
370
    30
100
AcDbCircle
 10
89.8139073116
 20
265.6328158808
 30
0.0
 40
3.299999999999983
  0
CIRCLE
  5
24C
330
1F
100
AcDbEntity
  8
0
  6
Continuous
 62
     7
370
    30
100
AcDbCircle
 10
89.8139073116
 20
290.6328158808
 30
0.0
 40
3.299999999999983
  0
CIRCLE
  5
24D
330
1F
100
AcDbEntity
  8
0
  6
Continuous
 62
     7
370
    30
100
AcDbCircle
 10
89.8139073116
 20
253.1328158808
 30
0.0
 40
2.5
  0
CIRCLE
  5
24E
330
1F
100
AcDbEntity
  8
0
  6
Continuous
 62
     7
370
    30
100
AcDbCircle
 10
89.8139073116
 20
278.1328158808
 30
0.0
 40
2.5
  0
CIRCLE
  5
24F
330
1F
100
AcDbEntity
  8
0
  6
Continuous
 62
     7
370
    30
100
AcDbCircle
 10
89.8139073116
 20
303.1328158808
 30
0.0
 40
2.5
  0
CIRCLE
  5
250
330
1F
100
AcDbEntity
  8
0
  6
Continuous
 62
     7
370
    30
100
AcDbCircle
 10
89.8139073116
 20
340.6328158808
 30
0.0
 40
2.5
  0
LINE
  5
251
330
1F
100
AcDbEntity
  8
0
  6
Continuous
 62
     7
370
    30
100
AcDbLine
 10
80.8139009935
 20
166.6328122375
 30
0.0
 11
80.8139009935
 21
171.0470279214
 31
0.0
  0
LINE
  5
252
330
1F
100
AcDbEntity
  8
0
  6
Continuous
 62
     7
370
    30
100
AcDbLine
 10
81.8139030201
 20
170.6328128931
 30
0.0
 11
81.8139030201
 21
165.6328176615
 31
0.0
  0
ARC
  5
253
330
1F
100
AcDbEntity
  8
0
  6
Continuous
 62
     7
370
    30
100
AcDbCircle
 10
81.8139073116
 20
166.6328158808
 30
0.0
 40
1.0
100
AcDbArc
 50
180.0
 51
270.0
  0
LINE
  5
254
330
1F
100
AcDbEntity
  8
0
  6
Continuous
 62
     7
370
    30
100
AcDbLine
 10
97.8139056427
 20
165.6328176615
 30
0.0
 11
97.8139056427
 21
170.6328128931
 31
0.0
  0
LINE
  5
255
330
1F
100
AcDbEntity
  8
0
  6
Continuous
 62
     7
370
    30
100
AcDbLine
 10
97.8139056427
 20
165.6328176615
 30
0.0
 11
81.8139030201
 21
165.6328176615
 31
0.0
  0
LINE
  5
256
330
1F
100
AcDbEntity
  8
0
  6
Continuous
 62
     7
370
    30
100
AcDbLine
 10
98.8139076692
 20
364.6328186152
 30
0.0
 11
98.8139076692
 21
171.0470279214
 31
0.0
  0
ELLIPSE
  5
257
330
1F
100
AcDbEntity
  8
0
  6
Continuous
 62
     7
370
    30
100
AcDbEllipse
 10
97.8139073116
 20
171.0470294432
 30
0.0
 11
0.9999999999999858
 21
0.0
 31
0.0
210
0.0
220
0.0
230
1.0
 40
0.4142135624
 41
4.712388980384695
 42
6.283185307179586
  0
ARC
  5
258
330
1F
100
AcDbEntity
  8
0
  6
Continuous
 62
     7
370
    30
100
AcDbCircle
 10
97.8139073116
 20
364.6328158808
 30
0.0
 40
1.000000000000057
100
AcDbArc
 50
0.0
 51
90.0
  0
LINE
  5
259
330
1F
100
AcDbEntity
  8
0
  6
Continuous
 62
     7
370
    30
100
AcDbLine
 10
98.8139076692
 20
171.0470279214
 30
0.0
 11
98.8139076692
 21
166.6328122375
 31
0.0
  0
ARC
  5
25A
330
1F
100
AcDbEntity
  8
0
  6
Continuous
 62
     7
370
    30
100
AcDbCircle
 10
97.8139073116
 20
166.6328158808
 30
0.0
 40
1.0
100
AcDbArc
 50
270.0
 51
0.0
  0
ARC
  5
25B
330
1F
100
AcDbEntity
  8
0
  6
Continuous
 62
     7
370
    30
100
AcDbCircle
 10
89.5030522998
 20
266.5819812132
 30
0.0
 40
3.062482904327926
100
AcDbArc
 50
193.3174443263
 51
275.825742068
  0
ARC
  5
25C
330
1F
100
AcDbEntity
  8
0
  6
Continuous
 62
     7
370
    30
100
AcDbCircle
 10
89.8139043314
 20
264.7928001565
 30
0.0
 40
3.832314372122748
100
AcDbArc
 50
44.3696473298
 51
135.6303526702
  0
ARC
  5
25D
330
1F
100
AcDbEntity
  8
0
  6
Continuous
 62
     7
370
    30
100
AcDbCircle
 10
90.1247424302
 20
266.5820197654
 30
0.0
 40
3.062519843337099
100
AcDbArc
 50
264.1745904591
 51
346.6819780648
  0
DIMENSION
  5
25E
330
1F
100
AcDbEntity
  8
DIM
100
AcDbDimension
  2
_D_8
 10
63.3139073116
 20
165.6328158808
 30
0.0
 11
63.3139073116
 21
203.1328158808
 31
0.0
 70
   160
  1
<>
 71
     2
 42
-1.0
  3
SLDDIMSTYLE0
100
AcDbAlignedDimension
 13
85.5139073116
 23
240.6328158808
 33
0.0
 14
81.8139073116
 24
165.6328158808
 34
0.0
 50
90.0
100
AcDbRotatedDimension
  0
DIMENSION
  5
268
330
1F
100
AcDbEntity
  8
DIM
100
AcDbDimension
  2
_D_9
 10
63.3139073116
 20
265.6328158808
 30
0.0
 11
63.3139073116
 21
253.1328158808
 31
0.0
 70
   160
  1
<>
 71
     2
 42
-1.0
  3
SLDDIMSTYLE0
100
AcDbAlignedDimension
 13
85.5139073116
 23
240.6328158808
 33
0.0
 14
85.5139073116
 24
265.6328158808
 34
0.0
 50
90.0
100
AcDbRotatedDimension
  0
DIMENSION
  5
272
330
1F
100
AcDbEntity
  8
DIM
100
AcDbDimension
  2
_D_10
 10
63.3139073116
 20
290.6328158808
 30
0.0
 11
63.3139073116
 21
278.1328158808
 31
0.0
 70
   160
  1
<>
 71
     2
 42
-1.0
  3
SLDDIMSTYLE0
100
AcDbAlignedDimension
 13
85.5139073116
 23
265.6328158808
 33
0.0
 14
85.5139073116
 24
290.6328158808
 34
0.0
 50
90.0
100
AcDbRotatedDimension
  0
DIMENSION
  5
27C
330
1F
100
AcDbEntity
  8
DIM
100
AcDbDimension
  2
_D_11
 10
63.3139073116
 20
290.6328158808
 30
0.0
 11
63.3139073116
 21
303.1328158808
 31
0.0
 70
   160
  1
<>
 71
     2
 42
-1.0
  3
SLDDIMSTYLE0
100
AcDbAlignedDimension
 13
85.5139073116
 23
315.6328158808
 33
0.0
 14
85.5139073116
 24
290.6328158808
 34
0.0
 50
90.0
100
AcDbRotatedDimension
  0
DIMENSION
  5
286
330
1F
100
AcDbEntity
  8
DIM
100
AcDbDimension
  2
_D_12
 10
116.3139073116
 20
165.6328158808
 30
0.0
 11
116.3139073116
 21
209.3828158808
 31
0.0
 70
   160
  1
<>
 71
     2
 42
-1.0
  3
SLDDIMSTYLE0
100
AcDbAlignedDimension
 13
93.3139073116
 23
253.1328158808
 33
0.0
 14
97.8139073116
 24
165.6328158808
 34
0.0
 50
90.0
100
AcDbRotatedDimension
  0
DIMENSION
  5
290
330
1F
100
AcDbEntity
  8
DIM
100
AcDbDimension
  2
_D_13
 10
116.3139073116
 20
278.1328158808
 30
0.0
 11
116.3139073116
 21
265.6328158808
 31
0.0
 70
   160
  1
<>
 71
     2
 42
-1.0
  3
SLDDIMSTYLE0
100
AcDbAlignedDimension
 13
93.3139073116
 23
253.1328158808
 33
0.0
 14
93.3139073116
 24
278.1328158808
 34
0.0
 50
90.0
100
AcDbRotatedDimension
  0
DIMENSION
  5
29A
330
1F
100
AcDbEntity
  8
DIM
100
AcDbDimension
  2
_D_14
 10
116.3139073116
 20
303.1328158808
 30
0.0
 11
116.3139073116
 21
290.6328158808
 31
0.0
 70
   160
  1
<>
 71
     2
 42
-1.0
  3
SLDDIMSTYLE0
100
AcDbAlignedDimension
 13
93.3139073116
 23
278.1328158808
 33
0.0
 14
93.3139073116
 24
303.1328158808
 34
0.0
 50
90.0
100
AcDbRotatedDimension
  0
DIMENSION
  5
2A4
330
1F
100
AcDbEntity
  8
DIM
100
AcDbDimension
  2
_D_15
 10
116.3139073116
 20
303.1328158808
 30
0.0
 11
116.3139073116
 21
321.8828158808
 31
0.0
 70
   160
  1
<>
 71
     2
 42
-1.0
  3
SLDDIMSTYLE0
100
AcDbAlignedDimension
 13
93.3139073116
 23
340.6328158808
 33
0.0
 14
93.3139073116
 24
303.1328158808
 34
0.0
 50
90.0
100
AcDbRotatedDimension
  0
DIMENSION
  5
2AE
330
1F
100
AcDbEntity
  8
DIM
100
AcDbDimension
  2
_D_16
 10
98.8139073116
 20
383.1328158808
 30
0.0
 11
94.3139073116
 21
383.1328158808
 31
0.0
 70
   160
  1
<>
 71
     2
 42
-1.0
  3
SLDDIMSTYLE3
100
AcDbAlignedDimension
 13
89.8139073116
 23
344.1328158808
 33
0.0
 14
98.8139073116
 24
364.6328158808
 34
0.0
100
AcDbRotatedDimension
  0
INSERT
  5
2C1
330
1F
100
AcDbEntity
  8
DIM
100
AcDbBlockReference
  2
SW_NOTE_4
 10
115.5130057803
 20
362.9400294382
 30
0.0
  0
LEADER
  5
2C2
330
1F
100
AcDbEntity
  8
DIM
100
AcDbLeader
  3
SLDDIMSTYLE2
 76
     2
 10
90.9250633949
 20
342.872309609
 30
0.0
 10
115.5130057803
 20
362.9400294382
 30
0.0
  0
INSERT
  5
2C9
330
1F
100
AcDbEntity
  8
DIM
100
AcDbBlockReference
  2
SW_NOTE_5
 10
71.3511143835
 20
346.4660409989
 30
0.0
  0
LEADER
  5
2CA
330
1F
100
AcDbEntity
  8
DIM
100
AcDbLeader
  3
SLDDIMSTYLE2
 76
     2
 10
87.2032208925
 20
317.6513094828
 30
0.0
 10
71.3511143835
 20
346.4660409989
 30
0.0
  0
INSERT
  5
2D6
330
1F
100
AcDbEntity
  8
DIM
100
AcDbBlockReference
  2
SW_CENTERMARKSYMBOL_0
 10
89.8139073116
 20
340.6328158808
 30
0.0
  0
INSERT
  5
2E2
330
1F
100
AcDbEntity
  8
DIM
100
AcDbBlockReference
  2
SW_CENTERMARKSYMBOL_1
 10
89.8139073116
 20
315.6328158808
 30
0.0
  0
INSERT
  5
2EE
330
1F
100
AcDbEntity
  8
DIM
100
AcDbBlockReference
  2
SW_CENTERMARKSYMBOL_2
 10
89.8139073116
 20
303.1328158808
 30
0.0
  0
INSERT
  5
2FA
330
1F
100
AcDbEntity
  8
DIM
100
AcDbBlockReference
  2
SW_CENTERMARKSYMBOL_3
 10
89.8139073116
 20
290.6328158808
 30
0.0
  0
INSERT
  5
306
330
1F
100
AcDbEntity
  8
DIM
100
AcDbBlockReference
  2
SW_CENTERMARKSYMBOL_4
 10
89.8139073116
 20
278.1328158808
 30
0.0
  0
INSERT
  5
312
330
1F
100
AcDbEntity
  8
DIM
100
AcDbBlockReference
  2
SW_CENTERMARKSYMBOL_5
 10
89.8139073116
 20
265.6328158808
 30
0.0
  0
INSERT
  5
31E
330
1F
100
AcDbEntity
  8
DIM
100
AcDbBlockReference
  2
SW_CENTERMARKSYMBOL_6
 10
89.8139073116
 20
253.1328158808
 30
0.0
  0
INSERT
  5
32A
330
1F
100
AcDbEntity
  8
DIM
100
AcDbBlockReference
  2
SW_CENTERMARKSYMBOL_7
 10
89.8139073116
 20
240.6328158808
 30
0.0
  0
LINE
  5
32B
330
1F
100
AcDbEntity
  8
0
  6
Continuous
 62
     7
370
    30
100
AcDbLine
 10
197.0365434543
 20
72.3787795763
 30
0.0
 11
342.0365411446
 21
72.3787795763
 31
0.0
  0
LINE
  5
32C
330
1F
100
AcDbEntity
  8
0
  6
Continuous
 62
     7
370
    30
100
AcDbLine
 10
197.0365434543
 20
88.3787821989
 30
0.0
 11
197.0365434543
 21
72.3787795763
 31
0.0
  0
LINE
  5
32D
330
1F
100
AcDbEntity
  8
0
  6
Continuous
 62
     7
370
    30
100
AcDbLine
 10
342.0365411446
 20
88.3787821989
 30
0.0
 11
197.0365434543
 21
88.3787821989
 31
0.0
  0
LINE
  5
32E
330
1F
100
AcDbEntity
  8
0
  6
Continuous
 62
     7
370
    30
100
AcDbLine
 10
342.0365411446
 20
72.3787795763
 30
0.0
 11
342.0365411446
 21
88.3787821989
 31
0.0
  0
CIRCLE
  5
32F
330
1F
100
AcDbEntity
  8
0
  6
Continuous
 62
     7
370
    30
100
AcDbCircle
 10
304.5365439164
 20
80.3787838678
 30
0.0
 40
3.299999999999997
  0
CIRCLE
  5
330
330
1F
100
AcDbEntity
  8
0
  6
Continuous
 62
     7
370
    30
100
AcDbCircle
 10
279.5365439164
 20
80.3787838678
 30
0.0
 40
3.299999999999997
  0
CIRCLE
  5
331
330
1F
100
AcDbEntity
  8
0
  6
Continuous
 62
     7
370
    30
100
AcDbCircle
 10
254.5365439164
 20
80.3787838678
 30
0.0
 40
3.299999999999997
  0
CIRCLE
  5
332
330
1F
100
AcDbEntity
  8
0
  6
Continuous
 62
     7
370
    30
100
AcDbCircle
 10
267.0365439164
 20
80.3787838678
 30
0.0
 40
2.499999999999986
  0
CIRCLE
  5
333
330
1F
100
AcDbEntity
  8
0
  6
Continuous
 62
     7
370
    30
100
AcDbCircle
 10
292.0365439164
 20
80.3787838678
 30
0.0
 40
2.499999999999986
  0
CIRCLE
  5
334
330
1F
100
AcDbEntity
  8
0
  6
Continuous
 62
     7
370
    30
100
AcDbCircle
 10
329.5365439164
 20
80.3787838678
 30
0.0
 40
2.500000000000014
  0
LINE
  5
335
330
1F
100
AcDbEntity
  8
0
  6
Continuous
 62
     7
370
    30
100
AcDbLine
 10
197.45075662
 20
71.3787775497
 30
0.0
 11
193.0365446613
 21
71.3787775497
 31
0.0
  0
ARC
  5
336
330
1F
100
AcDbEntity
  8
0
  6
Continuous
 62
     7
370
    30
100
AcDbCircle
 10
193.0365439164
 20
72.3787838678
 30
0.0
 40
1.0
100
AcDbArc
 50
180.0
 51
270.0
  0
LINE
  5
337
330
1F
100
AcDbEntity
  8
0
  6
Continuous
 62
     7
370
    30
100
AcDbLine
 10
192.0365426348
 20
72.3787795763
 30
0.0
 11
197.0365434543
 21
72.3787795763
 31
0.0
  0
ELLIPSE
  5
338
330
1F
100
AcDbEntity
  8
0
  6
Continuous
 62
     7
370
    30
100
AcDbEllipse
 10
197.4507574788
 20
72.3787838678
 30
0.0
 11
0.0
 21
1.0
 31
0.0
210
0.0
220
0.0
230
1.0
 40
0.4142135624
 41
1.570796326794897
 42
3.141592653589793
  0
LINE
  5
339
330
1F
100
AcDbEntity
  8
0
  6
Continuous
 62
     7
370
    30
100
AcDbLine
 10
341.0365465687
 20
71.3787775497
 30
0.0
 11
197.45075662
 21
71.3787775497
 31
0.0
  0
ARC
  5
33A
330
1F
100
AcDbEntity
  8
0
  6
Continuous
 62
     7
370
    30
100
AcDbCircle
 10
341.0365439164
 20
72.3787838678
 30
0.0
 40
1.000000000000057
100
AcDbArc
 50
270.0
 51
0.0
  0
LINE
  5
33B
330
1F
100
AcDbEntity
  8
0
  6
Continuous
 62
     7
370
    30
100
AcDbLine
 10
192.0365426348
 20
72.3787795763
 30
0.0
 11
192.0365426348
 21
88.3787821989
 31
0.0
  0
LINE
  5
33C
330
1F
100
AcDbEntity
  8
0
  6
Continuous
 62
     7
370
    30
100
AcDbLine
 10
197.0365434543
 20
88.3787821989
 30
0.0
 11
192.0365426348
 21
88.3787821989
 31
0.0
  0
LINE
  5
33D
330
1F
100
AcDbEntity
  8
0
  6
Continuous
 62
     7
370
    30
100
AcDbLine
 10
193.0365446613
 20
89.3787842255
 30
0.0
 11
197.45075662
 21
89.3787842255
 31
0.0
  0
ELLIPSE
  5
33E
330
1F
100
AcDbEntity
  8
0
  6
Continuous
 62
     7
370
    30
100
AcDbEllipse
 10
197.4507574788
 20
88.3787838678
 30
0.0
 11
0.0
 21
1.0
 31
0.0
210
0.0
220
0.0
230
1.0
 40
0.4142135624
 41
0.0
 42
1.570796326794897
  0
ARC
  5
33F
330
1F
100
AcDbEntity
  8
0
  6
Continuous
 62
     7
370
    30
100
AcDbCircle
 10
193.0365439164
 20
88.3787838678
 30
0.0
 40
1.000000000000028
100
AcDbArc
 50
90.0
 51
180.0
  0
LINE
  5
340
330
1F
100
AcDbEntity
  8
0
  6
Continuous
 62
     7
370
    30
100
AcDbLine
 10
197.45075662
 20
89.3787842255
 30
0.0
 11
341.0365465687
 21
89.3787842255
 31
0.0
  0
ARC
  5
341
330
1F
100
AcDbEntity
  8
0
  6
Continuous
 62
     7
370
    30
100
AcDbCircle
 10
341.0365439164
 20
88.3787838678
 30
0.0
 40
1.000000000000057
100
AcDbArc
 50
0.0
 51
90.0
  0
LWPOLYLINE
  5
342
330
1F
100
AcDbEntity
  8
0
  6
Continuous
 62
     7
370
    30
100
AcDbPolyline
 90
        8
 70
   128
 43
0.0
 10
256.4149904654
 20
80.3787808876
 10
256.3483487473
 20
79.558114336
 10
256.1526126818
 20
78.788990901
 10
255.8400794522
 20
78.1197797518
 10
255.4303869263
 20
77.5925021629
 10
254.9492787228
 20
77.240298317
 10
254.4269837097
 20
77.0852964382
 10
254.3887752698
 20
77.0820926886
  0
LWPOLYLINE
  5
343
330
1F
100
AcDbEntity
  8
0
  6
Continuous
 62
     7
370
    30
100
AcDbPolyline
 90
       12
 70
   128
 43
0.0
 10
253.8569695906
 20
77.149520443
 10
253.3906284378
 20
77.3928564053
 10
252.941688116
 20
77.836091445
 10
252.5777049021
 20
78.439096735
 10
252.3215502159
 20
79.1639786224
 10
252.1893191741
 20
79.9651842575
 10
252.1893191741
 20
80.7923775177
 10
252.3215502159
 20
81.5935980539
 10
252.5777049021
 20
82.3184799414
 10
252.941688116
 20
82.9214703302
 10
253.3906284378
 20
83.3647202711
 10
253.8569695906
 20
83.6080562334
  0
ARC
  5
344
330
1F
100
AcDbEntity
  8
0
  6
Continuous
 62
     7
370
    30
100
AcDbCircle
 10
253.4531608802
 20
80.8293987041
 30
0.0
 40
2.995912366619859
100
AcDbArc
 50
351.3492615817
 51
71.8022880717
  0
DIMENSION
  5
345
330
1F
100
AcDbEntity
  8
DIM
100
AcDbDimension
  2
_D_17
 10
254.5365439164
 20
53.8787838678
 30
0.0
 11
223.2865439164
 21
53.8787838678
 31
0.0
 70
   160
  1
<>
 71
     2
 42
-1.0
  3
SLDDIMSTYLE0
100
AcDbAlignedDimension
 13
192.0365439164
 23
72.3787838678
 33
0.0
 14
254.5365439164
 24
76.0787838678
 34
0.0
 50
0.0
100
AcDbRotatedDimension
  0
DIMENSION
  5
34F
330
1F
100
AcDbEntity
  8
DIM
100
AcDbDimension
  2
_D_18
 10
279.5365439164
 20
53.8787838678
 30
0.0
 11
267.0365439164
 21
53.8787838678
 31
0.0
 70
   160
  1
<>
 71
     2
 42
-1.0
  3
SLDDIMSTYLE0
100
AcDbAlignedDimension
 13
254.5365439164
 23
76.0787838678
 33
0.0
 14
279.5365439164
 24
76.0787838678
 34
0.0
100
AcDbRotatedDimension
  0
DIMENSION
  5
359
330
1F
100
AcDbEntity
  8
DIM
100
AcDbDimension
  2
_D_19
 10
304.5365439164
 20
53.8787838678
 30
0.0
 11
292.0365439164
 21
53.8787838678
 31
0.0
 70
   160
  1
<>
 71
     2
 42
-1.0
  3
SLDDIMSTYLE0
100
AcDbAlignedDimension
 13
279.5365439164
 23
76.0787838678
 33
0.0
 14
304.5365439164
 24
76.0787838678
 34
0.0
100
AcDbRotatedDimension
  0
DIMENSION
  5
363
330
1F
100
AcDbEntity
  8
DIM
100
AcDbDimension
  2
_D_20
 10
192.0365439164
 20
106.8787838678
 30
0.0
 11
229.5365439164
 21
106.8787838678
 31
0.0
 70
   160
  1
<>
 71
     2
 42
-1.0
  3
SLDDIMSTYLE0
100
AcDbAlignedDimension
 13
267.0365439164
 23
83.8787838678
 33
0.0
 14
192.0365439164
 24
88.3787838678
 34
0.0
100
AcDbRotatedDimension
  0
DIMENSION
  5
36D
330
1F
100
AcDbEntity
  8
DIM
100
AcDbDimension
  2
_D_21
 10
292.0365439164
 20
106.8787838678
 30
0.0
 11
279.5365439164
 21
106.8787838678
 31
0.0
 70
   160
  1
<>
 71
     2
 42
-1.0
  3
SLDDIMSTYLE3
100
AcDbAlignedDimension
 13
267.0365439164
 23
83.8787838678
 33
0.0
 14
292.0365439164
 24
83.8787838678
 34
0.0
100
AcDbRotatedDimension
  0
DIMENSION
  5
377
330
1F
100
AcDbEntity
  8
DIM
100
AcDbDimension
  2
_D_22
 10
329.5365439164
 20
106.8787838678
 30
0.0
 11
310.7865439164
 21
106.8787838678
 31
0.0
 70
   160
  1
<>
 71
     2
 42
-1.0
  3
SLDDIMSTYLE0
100
AcDbAlignedDimension
 13
292.0365439164
 23
83.8787838678
 33
0.0
 14
329.5365439164
 24
83.8787838678
 34
0.0
100
AcDbRotatedDimension
  0
DIMENSION
  5
381
330
1F
100
AcDbEntity
  8
DIM
100
AcDbDimension
  2
_D_23
 10
174.5365439164
 20
89.3787838678
 30
0.0
 11
174.5365439164
 21
84.8787838678
 31
0.0
 70
   160
  1
<>
 71
     2
 42
-1.0
  3
SLDDIMSTYLE3
100
AcDbAlignedDimension
 13
250.2365439164
 23
80.3787838678
 33
0.0
 14
193.0365439164
 24
89.3787838678
 34
0.0
 50
90.0
100
AcDbRotatedDimension
  0
INSERT
  5
393
330
1F
100
AcDbEntity
  8
DIM
100
AcDbBlockReference
  2
SW_NOTE_6
 10
353.6632947977
 20
98.2001450451
 30
0.0
  0
LEADER
  5
394
330
1F
100
AcDbEntity
  8
DIM
100
AcDbLeader
  3
SLDDIMSTYLE2
 76
     2
 10
331.2275533057
 20
82.2201114447
 30
0.0
 10
353.6632947977
 20
98.2001450451
 30
0.0
  0
INSERT
  5
39B
330
1F
100
AcDbEntity
  8
DIM
100
AcDbBlockReference
  2
SW_NOTE_7
 10
335.4552023121
 20
47.044075681
 30
0.0
  0
LEADER
  5
39C
330
1F
100
AcDbEntity
  8
DIM
100
AcDbLeader
  3
SLDDIMSTYLE2
 76
     2
 10
306.6707130664
 20
77.8617773046
 30
0.0
 10
335.4552023121
 20
47.044075681
 30
0.0
  0
INSERT
  5
3A8
330
1F
100
AcDbEntity
  8
DIM
100
AcDbBlockReference
  2
SW_CENTERMARKSYMBOL_8
 10
254.5365439164
 20
80.3787838678
 30
0.0
  0
INSERT
  5
3B4
330
1F
100
AcDbEntity
  8
DIM
100
AcDbBlockReference
  2
SW_CENTERMARKSYMBOL_9
 10
267.0365439164
 20
80.3787838678
 30
0.0
  0
INSERT
  5
3C0
330
1F
100
AcDbEntity
  8
DIM
100
AcDbBlockReference
  2
SW_CENTERMARKSYMBOL_10
 10
279.5365439164
 20
80.3787838678
 30
0.0
  0
INSERT
  5
3CC
330
1F
100
AcDbEntity
  8
DIM
100
AcDbBlockReference
  2
SW_CENTERMARKSYMBOL_11
 10
292.0365439164
 20
80.3787838678
 30
0.0
  0
INSERT
  5
3D8
330
1F
100
AcDbEntity
  8
DIM
100
AcDbBlockReference
  2
SW_CENTERMARKSYMBOL_12
 10
304.5365439164
 20
80.3787838678
 30
0.0
  0
INSERT
  5
3E4
330
1F
100
AcDbEntity
  8
DIM
100
AcDbBlockReference
  2
SW_CENTERMARKSYMBOL_13
 10
329.5365439164
 20
80.3787838678
 30
0.0
  0
LINE
  5
3E5
330
1F
100
AcDbEntity
  8
0
  6
Continuous
 62
     7
370
    30
100
AcDbLine
 10
193.0365446613
 20
434.2294226596
 30
0.0
 11
224.7050055892
 21
434.2294226596
 31
0.0
  0
LINE
  5
3E6
330
1F
100
AcDbEntity
  8
0
  6
Continuous
 62
     7
370
    30
100
AcDbLine
 10
224.7050055892
 20
434.2294226596
 30
0.0
 11
224.7050055892
 21
433.2294206331
 31
0.0
  0
LINE
  5
3E7
330
1F
100
AcDbEntity
  8
0
  6
Continuous
 62
     7
370
    30
100
AcDbLine
 10
224.7050055892
 20
433.2294206331
 30
0.0
 11
192.0365426348
 21
433.2294206331
 31
0.0
  0
ARC
  5
3E8
330
1F
100
AcDbEntity
  8
0
  6
Continuous
 62
     7
370
    30
100
AcDbCircle
 10
193.0365439164
 20
433.2294163415
 30
0.0
 40
1.000000000000057
100
AcDbArc
 50
90.0
 51
180.0
  0
LINE
  5
3E9
330
1F
100
AcDbEntity
  8
0
  6
Continuous
 62
     7
370
    30
100
AcDbLine
 10
224.7050055892
 20
434.2294226596
 30
0.0
 11
227.7691834032
 21
434.2294226596
 31
0.0
  0
ARC
  5
3EA
330
1F
100
AcDbEntity
  8
0
  6
Continuous
 62
     7
370
    30
100
AcDbCircle
 10
227.6343256524
 20
433.3327034446
 30
0.0
 40
0.9068031558940798
100
AcDbArc
 50
353.4599487064
 51
81.4473727433
  0
LINE
  5
3EB
330
1F
100
AcDbEntity
  8
0
  6
Continuous
 62
     7
370
    30
100
AcDbLine
 10
228.5352277693
 20
433.2294206331
 30
0.0
 11
224.7050055892
 21
433.2294206331
 31
0.0
  0
LINE
  5
3EC
330
1F
100
AcDbEntity
  8
0
  6
Continuous
 62
     7
370
    30
100
AcDbLine
 10
224.7050055892
 20
417.2294180104
 30
0.0
 11
224.7050055892
 21
433.2294206331
 31
0.0
  0
LINE
  5
3ED
330
1F
100
AcDbEntity
  8
0
  6
Continuous
 62
     7
370
    30
100
AcDbLine
 10
192.0365426348
 20
417.2294180104
 30
0.0
 11
224.7050055892
 21
417.2294180104
 31
0.0
  0
LINE
  5
3EE
330
1F
100
AcDbEntity
  8
0
  6
Continuous
 62
     7
370
    30
100
AcDbLine
 10
192.0365426348
 20
433.2294206331
 30
0.0
 11
192.0365426348
 21
417.2294180104
 31
0.0
  0
CIRCLE
  5
3EF
330
1F
100
AcDbEntity
  8
0
  6
Continuous
 62
     7
370
    30
100
AcDbCircle
 10
204.5365439164
 20
425.2294163415
 30
0.0
 40
2.5
  0
LINE
  5
3F0
330
1F
100
AcDbEntity
  8
0
  6
Continuous
 62
     7
370
    30
100
AcDbLine
 10
228.5352277693
 20
433.2294206331
 30
0.0
 11
228.5352277693
 21
417.2294180104
 31
0.0
  0
LINE
  5
3F1
330
1F
100
AcDbEntity
  8
0
  6
Continuous
 62
     7
370
    30
100
AcDbLine
 10
224.7050055892
 20
417.2294180104
 30
0.0
 11
228.5352277693
 21
417.2294180104
 31
0.0
  0
LINE
  5
3F2
330
1F
100
AcDbEntity
  8
0
  6
Continuous
 62
     7
370
    30
100
AcDbLine
 10
224.7050055892
 20
416.2294159839
 30
0.0
 11
193.0365446613
 21
416.2294159839
 31
0.0
  0
LINE
  5
3F3
330
1F
100
AcDbEntity
  8
0
  6
Continuous
 62
     7
370
    30
100
AcDbLine
 10
224.7050055892
 20
416.2294159839
 30
0.0
 11
224.7050055892
 21
417.2294180104
 31
0.0
  0
ARC
  5
3F4
330
1F
100
AcDbEntity
  8
0
  6
Continuous
 62
     7
370
    30
100
AcDbCircle
 10
193.0365439164
 20
417.2294163415
 30
0.0
 40
1.000000000000057
100
AcDbArc
 50
180.0
 51
270.0
  0
ARC
  5
3F5
330
1F
100
AcDbEntity
  8
0
  6
Continuous
 62
     7
370
    30
100
AcDbCircle
 10
227.6343489178
 20
417.1261173766
 30
0.0
 40
0.9067820720069435
100
AcDbArc
 50
278.5513410318
 51
6.5413375185
  0
LINE
  5
3F6
330
1F
100
AcDbEntity
  8
0
  6
Continuous
 62
     7
370
    30
100
AcDbLine
 10
227.7691834032
 20
416.2294159839
 30
0.0
 11
224.7050055892
 21
416.2294159839
 31
0.0
  0
LINE
  5
3F7
330
1F
100
AcDbEntity
  8
0
  6
Continuous
 62
     7
370
    30
100
AcDbLine
 10
340.866762738
 20
433.2294206331
 30
0.0
 11
228.5352277693
 21
433.2294206331
 31
0.0
  0
ARC
  5
3F8
330
1F
100
AcDbEntity
  8
0
  6
Continuous
 62
     7
370
    30
100
AcDbCircle
 10
339.9658666621
 20
433.3327088102
 30
0.0
 40
0.9067977652717831
100
AcDbArc
 50
353.4595684143
 51
81.447357912
  0
LINE
  5
3F9
330
1F
100
AcDbEntity
  8
0
  6
Continuous
 62
     7
370
    30
100
AcDbLine
 10
227.7691834032
 20
434.2294226596
 30
0.0
 11
340.1007238434
 21
434.2294226596
 31
0.0
  0
LINE
  5
3FA
330
1F
100
AcDbEntity
  8
0
  6
Continuous
 62
     7
370
    30
100
AcDbLine
 10
340.866762738
 20
417.2294180104
 30
0.0
 11
340.866762738
 21
433.2294206331
 31
0.0
  0
LINE
  5
3FB
330
1F
100
AcDbEntity
  8
0
  6
Continuous
 62
     7
370
    30
100
AcDbLine
 10
228.5352277693
 20
417.2294180104
 30
0.0
 11
340.866762738
 21
417.2294180104
 31
0.0
  0
LWPOLYLINE
  5
3FC
330
1F
100
AcDbEntity
  8
0
  6
Continuous
 62
     7
370
    30
100
AcDbPolyline
 90
       22
 70
   128
 43
0.0
 10
318.2828906582
 20
425.2294193217
 10
318.2114991949
 20
425.9663115451
 10
318.0036652491
 20
426.637713165
 10
317.6778513596
 20
427.1839897344
 10
317.2630179332
 20
427.55659327
 10
316.7960155413
 20
427.722428293
 10
316.3183364675
 20
427.6667426536
 10
315.8724415706
 20
427.3944835374
 10
315.4979306863
 20
426.9298504302
 10
315.2280930088
 20
426.3141195485
 10
315.0869045065
 20
425.6020228574
 10
315.0869045065
 20
424.8568157861
 10
315.2280930088
 20
424.1447041938
 10
315.4979306863
 20
423.5289882133
 10
315.8724415706
 20
423.0643551061
 10
316.3183364675
 20
422.7920959899
 10
316.7960155413
 20
422.7364103505
 10
317.2630179332
 20
422.9022304723
 10
317.6778513596
 20
423.274834008
 10
318.0036652491
 20
423.8211105773
 10
318.2114991949
 20
424.4925270984
 10
318.2828906582
 20
425.2294193217
  0
LWPOLYLINE
  5
3FD
330
1F
100
AcDbEntity
  8
0
  6
Continuous
 62
     7
370
    30
100
AcDbPolyline
 90
       22
 70
   128
 43
0.0
 10
286.143511127
 20
425.2294193217
 10
286.0721196637
 20
425.9663115451
 10
285.864285718
 20
426.637713165
 10
285.5384718285
 20
427.1839897344
 10
285.1236346767
 20
427.55659327
 10
284.6566322849
 20
427.722428293
 10
284.1789606617
 20
427.6667426536
 10
283.7330583141
 20
427.3944835374
 10
283.3585511551
 20
426.9298504302
 10
283.0887134776
 20
426.3141195485
 10
282.9475249753
 20
425.6020228574
 10
282.9475249753
 20
424.8568157861
 10
283.0887134776
 20
424.1447041938
 10
283.3585511551
 20
423.5289882133
 10
283.7330583141
 20
423.0643551061
 10
284.1789606617
 20
422.7920959899
 10
284.6566322849
 20
422.7364103505
 10
285.1236346767
 20
422.9022304723
 10
285.5384718285
 20
423.274834008
 10
285.864285718
 20
423.8211105773
 10
286.0721196637
 20
424.4925270984
 10
286.143511127
 20
425.2294193217
  0
LWPOLYLINE
  5
3FE
330
1F
100
AcDbEntity
  8
0
  6
Continuous
 62
     7
370
    30
100
AcDbPolyline
 90
       22
 70
   128
 43
0.0
 10
254.0041315959
 20
425.2294193217
 10
253.9327401326
 20
425.9663115451
 10
253.7249043242
 20
426.637713165
 10
253.3990922973
 20
427.1839897344
 10
252.9842551456
 20
427.55659327
 10
252.5172527538
 20
427.722428293
 10
252.0395792679
 20
427.6667426536
 10
251.593678783
 20
427.3944835374
 10
251.219171624
 20
426.9298504302
 10
250.9493339465
 20
426.3141195485
 10
250.8081435815
 20
425.6020228574
 10
250.8081435815
 20
424.8568157861
 10
250.9493339465
 20
424.1447041938
 10
251.219171624
 20
423.5289882133
 10
251.593678783
 20
423.0643551061
 10
252.0395792679
 20
422.7920959899
 10
252.5172527538
 20
422.7364103505
 10
252.9842551456
 20
422.9022304723
 10
253.3990922973
 20
423.274834008
 10
253.7249043242
 20
423.8211105773
 10
253.9327401326
 20
424.4925270984
 10
254.0041315959
 20
425.2294193217
  0
LWPOLYLINE
  5
3FF
330
1F
100
AcDbEntity
  8
0
  6
Continuous
 62
     7
370
    30
100
AcDbPolyline
 90
       26
 70
   128
 43
0.0
 10
270.588051121
 20
425.2294193217
 10
270.5214131282
 20
426.0500858733
 10
270.3256752
 20
426.8192093084
 10
270.0131419704
 20
427.4884204576
 10
269.6034494446
 20
428.0156980464
 10
269.1223393784
 20
428.3679018924
 10
268.600046228
 20
428.5229037711
 10
268.0693823502
 20
428.4709583232
 10
267.5636928187
 20
428.2153438041
 10
267.1147506342
 20
427.7721087644
 10
266.7507674203
 20
427.1691034744
 10
266.4946127341
 20
426.4442215869
 10
266.3623798297
 20
425.6430159518
 10
266.3623798297
 20
424.8158226917
 10
266.4946127341
 20
424.0146021554
 10
266.7507674203
 20
423.289720268
 10
267.1147506342
 20
422.6867298791
 10
267.5636928187
 20
422.2434799382
 10
268.0693823502
 20
421.9878654191
 10
268.600046228
 20
421.9359348724
 10
269.1223393784
 20
422.0909367511
 10
269.6034494446
 20
422.4431405971
 10
270.0131419704
 20
422.9704181859
 10
270.3256752
 20
423.6396293351
 10
270.5214131282
 20
424.408737869
 10
270.588051121
 20
425.2294193217
  0
LWPOLYLINE
  5
400
330
1F
100
AcDbEntity
  8
0
  6
Continuous
 62
     7
370
    30
100
AcDbPolyline
 90
       26
 70
   128
 43
0.0
 10
302.7274343775
 20
425.2294193217
 10
302.660788934
 20
426.0500858733
 10
302.4650547312
 20
426.8192093084
 10
302.1525252269
 20
427.4884204576
 10
301.742832701
 20
428.0156980464
 10
301.2617189095
 20
428.3679018924
 10
300.7394257591
 20
428.5229037711
 10
300.2087581561
 20
428.4709583232
 10
299.7030723498
 20
428.2153438041
 10
299.2541301654
 20
427.7721087644
 10
298.8901469515
 20
427.1691034744
 10
298.6339959905
 20
426.4442215869
 10
298.5017630861
 20
425.6430159518
 10
298.5017630861
 20
424.8158226917
 10
298.6339959905
 20
424.0146021554
 10
298.8901469515
 20
423.289720268
 10
299.2541301654
 20
422.6867298791
 10
299.7030723498
 20
422.2434799382
 10
300.2087581561
 20
421.9878654191
 10
300.7394257591
 20
421.9359348724
 10
301.2617189095
 20
422.0909367511
 10
301.742832701
 20
422.4431405971
 10
302.1525252269
 20
422.9704181859
 10
302.4650547312
 20
423.6396293351
 10
302.660788934
 20
424.408737869
 10
302.7274343775
 20
425.2294193217
  0
ARC
  5
401
330
1F
100
AcDbEntity
  8
0
  6
Continuous
 62
     7
370
    30
100
AcDbCircle
 10
339.9658899274
 20
417.1261120113
 30
0.0
 40
0.9067766816851832
100
AcDbArc
 50
278.5513558656
 51
6.5417178081
  0
LINE
  5
402
330
1F
100
AcDbEntity
  8
0
  6
Continuous
 62
     7
370
    30
100
AcDbLine
 10
340.1007238434
 20
416.2294159839
 30
0.0
 11
227.7691834032
 21
416.2294159839
 31
0.0
  0
LINE
  5
403
330
1F
100
AcDbEntity
  8
0
  6
Continuous
 62
     7
370
    30
100
AcDbLine
 10
342.0365411446
 20
433.2294206331
 30
0.0
 11
340.866762738
 21
433.2294206331
 31
0.0
  0
ARC
  5
404
330
1F
100
AcDbEntity
  8
0
  6
Continuous
 62
     7
370
    30
100
AcDbCircle
 10
341.0365439164
 20
433.2294163415
 30
0.0
 40
1.000000000000057
100
AcDbArc
 50
0.0
 51
90.0
  0
LINE
  5
405
330
1F
100
AcDbEntity
  8
0
  6
Continuous
 62
     7
370
    30
100
AcDbLine
 10
340.1007238434
 20
434.2294226596
 30
0.0
 11
341.0365465687
 21
434.2294226596
 31
0.0
  0
LINE
  5
406
330
1F
100
AcDbEntity
  8
0
  6
Continuous
 62
     7
370
    30
100
AcDbLine
 10
342.0365411446
 20
433.2294206331
 30
0.0
 11
342.0365411446
 21
417.2294180104
 31
0.0
  0
LINE
  5
407
330
1F
100
AcDbEntity
  8
0
  6
Continuous
 62
     7
370
    30
100
AcDbLine
 10
340.866762738
 20
417.2294180104
 30
0.0
 11
342.0365411446
 21
417.2294180104
 31
0.0
  0
ARC
  5
408
330
1F
100
AcDbEntity
  8
0
  6
Continuous
 62
     7
370
    30
100
AcDbCircle
 10
341.0365439164
 20
417.2294163415
 30
0.0
 40
1.000000000000057
100
AcDbArc
 50
270.0
 51
0.0
  0
LINE
  5
409
330
1F
100
AcDbEntity
  8
0
  6
Continuous
 62
     7
370
    30
100
AcDbLine
 10
341.0365465687
 20
416.2294159839
 30
0.0
 11
340.1007238434
 21
416.2294159839
 31
0.0
  0
DIMENSION
  5
40A
330
1F
100
AcDbEntity
  8
DIM
100
AcDbDimension
  2
_D_24
 10
174.5365439164
 20
416.2294163415
 30
0.0
 11
174.5365439164
 21
420.7294163415
 31
0.0
 70
   160
  1
<>
 71
     2
 42
-1.0
  3
SLDDIMSTYLE3
100
AcDbAlignedDimension
 13
201.0365439164
 23
425.2294163415
 33
0.0
 14
193.0365439164
 24
416.2294163415
 34
0.0
 50
90.0
100
AcDbRotatedDimension
  0
DIMENSION
  5
416
330
1F
100
AcDbEntity
  8
DIM
100
AcDbDimension
  2
_D_25
 10
162.0365439164
 20
416.2294163415
 30
0.0
 11
162.0365439164
 21
425.2294163415
 31
0.0
 70
   160
  1
<>
 71
     2
 42
-1.0
  3
SLDDIMSTYLE0
100
AcDbAlignedDimension
 13
193.0365439164
 23
434.2294163415
 33
0.0
 14
193.0365439164
 24
416.2294163415
 34
0.0
 50
90.0
100
AcDbRotatedDimension
  0
DIMENSION
  5
420
330
1F
100
AcDbEntity
  8
DIM
100
AcDbDimension
  2
_D_26
 10
192.0365439164
 20
451.7294163415
 30
0.0
 11
198.2865439164
 21
451.7294163415
 31
0.0
 70
   160
  1
<>
 71
     2
 42
-1.0
  3
SLDDIMSTYLE3
100
AcDbAlignedDimension
 13
204.5365439164
 23
428.7294163415
 33
0.0
 14
192.0365439164
 24
433.2294163415
 34
0.0
100
AcDbRotatedDimension
  0
INSERT
  5
431
330
1F
100
AcDbEntity
  8
DIM
100
AcDbBlockReference
  2
SW_NOTE_8
 10
223.6054913295
 20
401.990245933
 30
0.0
  0
LEADER
  5
432
330
1F
100
AcDbEntity
  8
DIM
100
AcDbLeader
  3
SLDDIMSTYLE2
 76
     2
 10
206.240872447
 20
423.4004099829
 30
0.0
 10
223.6054913295
 20
401.990245933
 30
0.0
  0
INSERT
  5
43E
330
1F
100
AcDbEntity
  8
DIM
100
AcDbBlockReference
  2
SW_CENTERMARKSYMBOL_14
 10
204.5365439164
 20
425.2294163415
 30
0.0
  0
LINE
  5
43F
330
1F
100
AcDbEntity
  8
0
  6
Continuous
 62
     7
370
    30
100
AcDbLine
 10
425.4638136341
 20
165.6328176615
 30
0.0
 11
425.4638136341
 21
226.7612998841
 31
0.0
  0
LINE
  5
440
330
1F
100
AcDbEntity
  8
0
  6
Continuous
 62
     7
370
    30
100
AcDbLine
 10
425.4638136341
 20
226.7612998841
 30
0.0
 11
426.4638156607
 21
226.7612998841
 31
0.0
  0
LINE
  5
441
330
1F
100
AcDbEntity
  8
0
  6
Continuous
 62
     7
370
    30
100
AcDbLine
 10
426.4638156607
 20
226.7612998841
 30
0.0
 11
426.4638156607
 21
166.6328122375
 31
0.0
  0
ARC
  5
442
330
1F
100
AcDbEntity
  8
0
  6
Continuous
 62
     7
370
    30
100
AcDbCircle
 10
425.4638093426
 20
166.6328158808
 30
0.0
 40
1.0
100
AcDbArc
 50
270.0
 51
0.0
  0
LINE
  5
443
330
1F
100
AcDbEntity
  8
0
  6
Continuous
 62
     7
370
    30
100
AcDbLine
 10
425.4638136341
 20
226.7612998841
 30
0.0
 11
425.4638136341
 21
229.9752382097
 31
0.0
  0
LWPOLYLINE
  5
444
330
1F
100
AcDbEntity
  8
0
  6
Continuous
 62
     7
370
    30
100
AcDbPolyline
 90
        9
 70
   128
 43
0.0
 10
425.4638136341
 20
229.9752382097
 10
425.6588996365
 20
229.9628888724
 10
425.8464903547
 20
229.9263102469
 10
426.0193736269
 20
229.8669104931
 10
426.1709184363
 20
229.7869732139
 10
426.2952835276
 20
229.6895643232
 10
426.3876856281
 20
229.5784351883
 10
426.4445931627
 20
229.4578549919
 10
426.4638156607
 20
229.3324505446
  0
LINE
  5
445
330
1F
100
AcDbEntity
  8
0
  6
Continuous
 62
     7
370
    30
100
AcDbLine
 10
426.4638156607
 20
229.3324505446
 30
0.0
 11
426.4638156607
 21
226.7612998841
 31
0.0
  0
LINE
  5
446
330
1F
100
AcDbEntity
  8
0
  6
Continuous
 62
     7
370
    30
100
AcDbLine
 10
425.4638136341
 20
226.7612998841
 30
0.0
 11
409.4638110115
 21
226.7612998841
 31
0.0
  0
LINE
  5
447
330
1F
100
AcDbEntity
  8
0
  6
Continuous
 62
     7
370
    30
100
AcDbLine
 10
409.4638110115
 20
229.9752382097
 30
0.0
 11
409.4638110115
 21
226.7612998841
 31
0.0
  0
LINE
  5
448
330
1F
100
AcDbEntity
  8
0
  6
Continuous
 62
     7
370
    30
100
AcDbLine
 10
409.4638110115
 20
229.9752382097
 30
0.0
 11
425.4638136341
 21
229.9752382097
 31
0.0
  0
LINE
  5
449
330
1F
100
AcDbEntity
  8
0
  6
Continuous
 62
     7
370
    30
100
AcDbLine
 10
409.4638110115
 20
226.7612998841
 30
0.0
 11
409.4638110115
 21
165.6328176615
 31
0.0
  0
CIRCLE
  5
44A
330
1F
100
AcDbEntity
  8
0
  6
Continuous
 62
     7
370
    30
100
AcDbCircle
 10
417.4638093426
 20
215.6328158808
 30
0.0
 40
2.5
  0
CIRCLE
  5
44B
330
1F
100
AcDbEntity
  8
0
  6
Continuous
 62
     7
370
    30
100
AcDbCircle
 10
417.4638093426
 20
190.6328158808
 30
0.0
 40
2.5
  0
LINE
  5
44C
330
1F
100
AcDbEntity
  8
0
  6
Continuous
 62
     7
370
    30
100
AcDbLine
 10
425.4638136341
 20
165.6328176615
 30
0.0
 11
409.4638110115
 21
165.6328176615
 31
0.0
  0
LINE
  5
44D
330
1F
100
AcDbEntity
  8
0
  6
Continuous
 62
     7
370
    30
100
AcDbLine
 10
409.4638110115
 20
226.7612998841
 30
0.0
 11
408.463808985
 21
226.7612998841
 31
0.0
  0
LINE
  5
44E
330
1F
100
AcDbEntity
  8
0
  6
Continuous
 62
     7
370
    30
100
AcDbLine
 10
408.463808985
 20
226.7612998841
 30
0.0
 11
408.463808985
 21
229.3324505446
 31
0.0
  0
LWPOLYLINE
  5
44F
330
1F
100
AcDbEntity
  8
0
  6
Continuous
 62
     7
370
    30
100
AcDbPolyline
 90
        9
 70
   128
 43
0.0
 10
409.4638110115
 20
229.9752382097
 10
409.2687250092
 20
229.9628888724
 10
409.0811193897
 20
229.9263102469
 10
408.9082361176
 20
229.8669104931
 10
408.7567062094
 20
229.7869732139
 10
408.6323411181
 20
229.6895643232
 10
408.5399241163
 20
229.5784351883
 10
408.4830314829
 20
229.4578549919
 10
408.463808985
 20
229.3324505446
  0
LINE
  5
450
330
1F
100
AcDbEntity
  8
0
  6
Continuous
 62
     7
370
    30
100
AcDbLine
 10
408.463808985
 20
166.6328122375
 30
0.0
 11
408.463808985
 21
226.7612998841
 31
0.0
  0
ARC
  5
451
330
1F
100
AcDbEntity
  8
0
  6
Continuous
 62
     7
370
    30
100
AcDbCircle
 10
409.4638093426
 20
166.6328158808
 30
0.0
 40
1.0
100
AcDbArc
 50
180.0
 51
270.0
  0
LINE
  5
452
330
1F
100
AcDbEntity
  8
0
  6
Continuous
 62
     7
370
    30
100
AcDbLine
 10
425.4638136341
 20
229.9752382097
 30
0.0
 11
425.4638136341
 21
363.8467525599
 31
0.0
  0
LWPOLYLINE
  5
453
330
1F
100
AcDbEntity
  8
0
  6
Continuous
 62
     7
370
    30
100
AcDbPolyline
 90
        9
 70
   128
 43
0.0
 10
425.4638136341
 20
363.8467525599
 10
425.6588996365
 20
363.8343994972
 10
425.8464903547
 20
363.7978245971
 10
426.0193736269
 20
363.738421118
 10
426.1709184363
 20
363.6584838388
 10
426.2952835276
 20
363.5610823986
 10
426.3876856281
 20
363.4499495384
 10
426.4445931627
 20
363.3293693421
 10
426.4638156607
 20
363.20396862
  0
LINE
  5
454
330
1F
100
AcDbEntity
  8
0
  6
Continuous
 62
     7
370
    30
100
AcDbLine
 10
426.4638156607
 20
363.20396862
 30
0.0
 11
426.4638156607
 21
229.3324505446
 31
0.0
  0
LINE
  5
455
330
1F
100
AcDbEntity
  8
0
  6
Continuous
 62
     7
370
    30
100
AcDbLine
 10
409.4638110115
 20
363.8467525599
 30
0.0
 11
409.4638110115
 21
229.9752382097
 31
0.0
  0
LINE
  5
456
330
1F
100
AcDbEntity
  8
0
  6
Continuous
 62
     7
370
    30
100
AcDbLine
 10
425.4638136341
 20
363.8467525599
 30
0.0
 11
409.4638110115
 21
363.8467525599
 31
0.0
  0
LWPOLYLINE
  5
457
330
1F
100
AcDbEntity
  8
0
  6
Continuous
 62
     7
370
    30
100
AcDbPolyline
 90
       22
 70
   128
 43
0.0
 10
417.4638123228
 20
256.8896512968
 10
418.2007045462
 20
256.9747341332
 10
418.8721061661
 20
257.2224230972
 10
419.4183827355
 20
257.610710105
 10
419.7909862711
 20
258.1050933805
 10
419.956821294
 20
258.6616461632
 10
419.9011356547
 20
259.230914293
 10
419.6288765385
 20
259.7623176408
 10
419.1642434313
 20
260.2086381522
 10
418.5485125496
 20
260.530217318
 10
417.8364158585
 20
260.6984830928
 10
417.0912087872
 20
260.6984830928
 10
416.3790971949
 20
260.530217318
 10
415.7633812143
 20
260.2086381522
 10
415.2987481072
 20
259.7623176408
 10
415.026488991
 20
259.230914293
 10
414.9708033516
 20
258.6616461632
 10
415.1366234734
 20
258.1050933805
 10
415.509227009
 20
257.610710105
 10
416.0555035784
 20
257.2224230972
 10
416.7269200995
 20
256.9747341332
 10
417.4638123228
 20
256.8896512968
  0
LWPOLYLINE
  5
458
330
1F
100
AcDbEntity
  8
0
  6
Continuous
 62
     7
370
    30
100
AcDbPolyline
 90
       22
 70
   128
 43
0.0
 10
417.4638123228
 20
295.1918726322
 10
418.2007045462
 20
295.2769564
 10
418.8721061661
 20
295.524645364
 10
419.4183827355
 20
295.9129323718
 10
419.7909862711
 20
296.4073156473
 10
419.956821294
 20
296.96386843
 10
419.9011356547
 20
297.5331374911
 10
419.6288765385
 20
298.0645389763
 10
419.1642434313
 20
298.510860419
 10
418.5485125496
 20
298.8324405161
 10
417.8364158585
 20
299.0007044283
 10
417.0912087872
 20
299.0007044283
 10
416.3790971949
 20
298.8324405161
 10
415.7633812143
 20
298.510860419
 10
415.2987481072
 20
298.0645389763
 10
415.026488991
 20
297.5331374911
 10
414.9708033516
 20
296.96386843
 10
415.1366234734
 20
296.4073156473
 10
415.509227009
 20
295.9129323718
 10
416.0555035784
 20
295.524645364
 10
416.7269200995
 20
295.2769564
 10
417.4638123228
 20
295.1918726322
  0
LWPOLYLINE
  5
459
330
1F
100
AcDbEntity
  8
0
  6
Continuous
 62
     7
370
    30
100
AcDbPolyline
 90
       22
 70
   128
 43
0.0
 10
417.4638123228
 20
333.4940930364
 10
418.2007045462
 20
333.5791786668
 10
418.8721061661
 20
333.8268657682
 10
419.4183827355
 20
334.215152776
 10
419.7909862711
 20
334.7095360515
 10
419.956821294
 20
335.2660869715
 10
419.9011356547
 20
335.8353560326
 10
419.6288765385
 20
336.3667612431
 10
419.1642434313
 20
336.8130808232
 10
418.5485125496
 20
337.1346627829
 10
417.8364158585
 20
337.3029266951
 10
417.0912087872
 20
337.3029266951
 10
416.3790971949
 20
337.1346627829
 10
415.7633812143
 20
336.8130808232
 10
415.2987481072
 20
336.3667612431
 10
415.026488991
 20
335.8353560326
 10
414.9708033516
 20
335.2660869715
 10
415.1366234734
 20
334.7095360515
 10
415.509227009
 20
334.215152776
 10
416.0555035784
 20
333.8268657682
 10
416.7269200995
 20
333.5791786668
 10
417.4638123228
 20
333.4940930364
  0
LWPOLYLINE
  5
45A
330
1F
100
AcDbEntity
  8
0
  6
Continuous
 62
     7
370
    30
100
AcDbPolyline
 90
       26
 70
   128
 43
0.0
 10
417.4638123228
 20
313.7301502285
 10
418.2844788744
 20
313.8095696923
 10
419.0536023094
 20
314.0428399203
 10
419.7228134587
 20
314.4153018949
 10
420.2500910475
 20
314.9035533426
 10
420.6022948935
 20
315.4769164977
 10
420.7572967722
 20
316.0993640778
 10
420.7053513243
 20
316.73178426
 10
420.4497368052
 20
317.334443098
 10
420.0065017655
 20
317.8694692907
 10
419.4034964754
 20
318.3032458183
 10
418.678614588
 20
318.6085221824
 10
417.8774089529
 20
318.7661094126
 10
417.0502156927
 20
318.7661094126
 10
416.2489951565
 20
318.6085221824
 10
415.5241132691
 20
318.3032458183
 10
414.9211228802
 20
317.8694692907
 10
414.4778729393
 20
317.334443098
 10
414.2222584202
 20
316.73178426
 10
414.1703278734
 20
316.0993640778
 10
414.3253297522
 20
315.4769164977
 10
414.6775335982
 20
314.9035533426
 10
415.204811187
 20
314.4153018949
 10
415.8740223362
 20
314.0428399203
 10
416.6431308701
 20
313.8095696923
 10
417.4638123228
 20
313.7301502285
  0
LWPOLYLINE
  5
45B
330
1F
100
AcDbEntity
  8
0
  6
Continuous
 62
     7
370
    30
100
AcDbPolyline
 90
       26
 70
   128
 43
0.0
 10
417.4638123228
 20
275.4279265647
 10
418.2844788744
 20
275.5073464942
 10
419.0536023094
 20
275.7406167221
 10
419.7228134587
 20
276.1130796281
 10
420.2500910475
 20
276.6013320071
 10
420.6022948935
 20
277.1746951622
 10
420.7572967722
 20
277.797141811
 10
420.7053513243
 20
278.4295629245
 10
420.4497368052
 20
279.0322208312
 10
420.0065017655
 20
279.5672470239
 10
419.4034964754
 20
280.0010254142
 10
418.678614588
 20
280.3062989843
 10
417.8774089529
 20
280.4638862145
 10
417.0502156927
 20
280.4638862145
 10
416.2489951565
 20
280.3062989843
 10
415.5241132691
 20
280.0010254142
 10
414.9211228802
 20
279.5672470239
 10
414.4778729393
 20
279.0322208312
 10
414.2222584202
 20
278.4295629245
 10
414.1703278734
 20
277.797141811
 10
414.3253297522
 20
277.1746951622
 10
414.6775335982
 20
276.6013320071
 10
415.204811187
 20
276.1130796281
 10
415.8740223362
 20
275.7406167221
 10
416.6431308701
 20
275.5073464942
 10
417.4638123228
 20
275.4279265647
  0
LWPOLYLINE
  5
45C
330
1F
100
AcDbEntity
  8
0
  6
Continuous
 62
     7
370
    30
100
AcDbPolyline
 90
        9
 70
   128
 43
0.0
 10
409.4638110115
 20
363.8467525599
 10
409.2687250092
 20
363.8343994972
 10
409.0811193897
 20
363.7978245971
 10
408.9082361176
 20
363.738421118
 10
408.7567062094
 20
363.6584838388
 10
408.6323411181
 20
363.5610823986
 10
408.5399241163
 20
363.4499495384
 10
408.4830314829
 20
363.3293693421
 10
408.463808985
 20
363.20396862
  0
LINE
  5
45D
330
1F
100
AcDbEntity
  8
0
  6
Continuous
 62
     7
370
    30
100
AcDbLine
 10
408.463808985
 20
229.3324505446
 30
0.0
 11
408.463808985
 21
363.20396862
 31
0.0
  0
LINE
  5
45E
330
1F
100
AcDbEntity
  8
0
  6
Continuous
 62
     7
370
    30
100
AcDbLine
 10
425.4638136341
 20
363.8467525599
 30
0.0
 11
425.4638136341
 21
365.6328131911
 31
0.0
  0
ARC
  5
45F
330
1F
100
AcDbEntity
  8
0
  6
Continuous
 62
     7
370
    30
100
AcDbCircle
 10
425.4638093426
 20
364.6328158808
 30
0.0
 40
1.000000000000057
100
AcDbArc
 50
0.0
 51
90.0
  0
LINE
  5
460
330
1F
100
AcDbEntity
  8
0
  6
Continuous
 62
     7
370
    30
100
AcDbLine
 10
426.4638156607
 20
364.6328186152
 30
0.0
 11
426.4638156607
 21
363.20396862
 31
0.0
  0
LINE
  5
461
330
1F
100
AcDbEntity
  8
0
  6
Continuous
 62
     7
370
    30
100
AcDbLine
 10
409.4638110115
 20
365.6328131911
 30
0.0
 11
409.4638110115
 21
363.8467525599
 31
0.0
  0
LINE
  5
462
330
1F
100
AcDbEntity
  8
0
  6
Continuous
 62
     7
370
    30
100
AcDbLine
 10
409.4638110115
 20
365.6328131911
 30
0.0
 11
425.4638136341
 21
365.6328131911
 31
0.0
  0
ARC
  5
463
330
1F
100
AcDbEntity
  8
0
  6
Continuous
 62
     7
370
    30
100
AcDbCircle
 10
409.4638093426
 20
364.6328158808
 30
0.0
 40
1.000000000000057
100
AcDbArc
 50
90.0
 51
180.0
  0
LINE
  5
464
330
1F
100
AcDbEntity
  8
0
  6
Continuous
 62
     7
370
    30
100
AcDbLine
 10
408.463808985
 20
363.20396862
 30
0.0
 11
408.463808985
 21
364.6328186152
 31
0.0
  0
DIMENSION
  5
465
330
1F
100
AcDbEntity
  8
DIM
100
AcDbDimension
  2
_D_27
 10
443.9638093426
 20
165.6328158808
 30
0.0
 11
443.9638093426
 21
178.1328158808
 31
0.0
 70
   160
  1
<>
 71
     2
 42
-1.0
  3
SLDDIMSTYLE0
100
AcDbAlignedDimension
 13
420.9638093426
 23
190.6328158808
 33
0.0
 14
425.4638093426
 24
165.6328158808
 34
0.0
 50
90.0
100
AcDbRotatedDimension
  0
DIMENSION
  5
46F
330
1F
100
AcDbEntity
  8
DIM
100
AcDbDimension
  2
_D_28
 10
443.9638093426
 20
215.6328158808
 30
0.0
 11
443.9638093426
 21
203.1328158808
 31
0.0
 70
   160
  1
<>
 71
     2
 42
-1.0
  3
SLDDIMSTYLE0
100
AcDbAlignedDimension
 13
420.9638093426
 23
190.6328158808
 33
0.0
 14
420.9638093426
 24
215.6328158808
 34
0.0
 50
90.0
100
AcDbRotatedDimension
  0
DIMENSION
  5
479
330
1F
100
AcDbEntity
  8
DIM
100
AcDbDimension
  2
_D_29
 10
408.4638093426
 20
148.1328158808
 30
0.0
 11
412.9638093426
 21
148.1328158808
 31
0.0
 70
   160
  1
<>
 71
     2
 42
-1.0
  3
SLDDIMSTYLE3
100
AcDbAlignedDimension
 13
417.4638093426
 23
187.1328158808
 33
0.0
 14
408.4638093426
 24
166.6328158808
 34
0.0
100
AcDbRotatedDimension
  0
INSERT
  5
48A
102
{ACAD_REACTORS
330
48B
102
}
330
1F
100
AcDbEntity
  8
DIM
100
AcDbBlockReference
  2
SW_NOTE_9
 10
439.7904624277
 20
147.014574506
 30
0.0
  0
LEADER
  5
48B
330
1F
100
AcDbEntity
  8
DIM
100
AcDbLeader
  3
SLDDIMSTYLE2
 73
     2
 76
     3
 10
419.1868623865
 20
188.8214384469
 30
0.0
 10
437.2904624277
 20
147.014574506
 30
0.0
 10
439.7904624277
 20
147.014574506
 30
0.0
340
48A
  0
INSERT
  5
497
330
1F
100
AcDbEntity
  8
DIM
100
AcDbBlockReference
  2
SW_CENTERMARKSYMBOL_15
 10
417.4638093426
 20
215.6328158808
 30
0.0
  0
INSERT
  5
4A3
330
1F
100
AcDbEntity
  8
DIM
100
AcDbBlockReference
  2
SW_CENTERMARKSYMBOL_16
 10
417.4638093426
 20
190.6328158808
 30
0.0
  0
LINE
  5
4A4
330
1F
100
AcDbEntity
  8
DIM
  6
CENTERX2
370
     0
100
AcDbLine
 10
417.4638093426
 20
368.2039663195
 30
0.0
 11
417.4638093426
 21
224.3324519999
 31
0.0
  0
LINE
  5
4A5
330
1F
100
AcDbEntity
  8
0
  6
Continuous
 62
     7
370
    30
100
AcDbLine
 10
649.7047878774
 20
247.128844226
 30
0.0
 11
570.2743954108
 21
402.294588754
 31
0.0
  0
LINE
  5
4A6
330
1F
100
AcDbEntity
  8
0
  6
Continuous
 62
     7
370
    30
100
AcDbLine
 10
561.9522513731
 20
364.5680392267
 30
0.0
 11
623.551999208
 21
244.2341161688
 31
0.0
  0
SPLINE
  5
4A7
330
1F
100
AcDbEntity
  8
0
  6
Continuous
 62
     7
370
    30
100
AcDbSpline
210
0.0
220
0.0
230
1.0
 70
     8
 71
     3
 72
    11
 73
     7
 74
     0
 42
0.000000001
 43
0.00000001
 40
0.0
 40
0.0
 40
0.0
 40
0.0
 40
0.1480868344814139
 40
0.4251778122130799
 40
0.7045218722547089
 40
1.0
 40
1.0
 40
1.0
 40
1.0
 10
570.2743954108284
 20
402.2945887540209
 30
0.0
 10
570.1798358972775
 20
402.4695120710495
 30
0.0
 10
569.9083424371308
 20
402.9717411415791
 30
0.0
 10
569.3529639031923
 20
403.7381690878155
 30
0.0
 10
568.5889284662188
 20
404.5458340372923
 30
0.0
 10
568.0133653776285
 20
404.9267071584655
 30
0.0
 10
567.7175064017063
 20
405.1224888786981
 30
0.0
  0
LINE
  5
4A8
330
1F
100
AcDbEntity
  8
0
  6
Continuous
 62
     7
370
    30
100
AcDbLine
 10
567.7175064017
 20
405.1224888787
 30
0.0
 11
544.824481747
 21
418.3383507043
 31
0.0
  0
SPLINE
  5
4A9
330
1F
100
AcDbEntity
  8
0
  6
Continuous
 62
     7
370
    30
100
AcDbSpline
210
0.0
220
0.0
230
1.0
 70
     8
 71
     3
 72
    12
 73
     8
 74
     0
 42
0.000000001
 43
0.00000001
 40
0.0
 40
0.0
 40
0.0
 40
0.0
 40
0.1210277421271094
 40
0.3548796652840848
 40
0.5909294608792843
 40
0.8288238829818473
 40
1.0
 40
1.0
 40
1.0
 40
1.0
 10
559.0923881780732
 20
367.7839485408971
 30
0.0
 10
559.2179701898565
 20
367.7067993689298
 30
0.0
 10
559.5862039643954
 20
367.4805812156079
 30
0.0
 10
560.214306950503
 20
366.9599103092386
 30
0.0
 10
560.9272447910225
 20
366.1855358571233
 30
0.0
 10
561.517499536502
 20
365.3666289224181
 30
0.0
 10
561.8239970687479
 20
364.8036278022478
 30
0.0
 10
561.9522513731479
 20
364.5680392266569
 30
0.0
  0
LINE
  5
4AA
330
1F
100
AcDbEntity
  8
0
  6
Continuous
 62
     7
370
    30
100
AcDbLine
 10
548.5672443318
 20
373.8599847513
 30
0.0
 11
559.0923881781
 21
367.7839485409
 31
0.0
  0
LINE
  5
4AB
330
1F
100
AcDbEntity
  8
0
  6
Continuous
 62
     7
370
    30
100
AcDbLine
 10
532.5108545121
 20
411.2297511811
 30
0.0
 11
532.5108545121
 21
252.3425151419
 31
0.0
  0
SPLINE
  5
4AC
330
1F
100
AcDbEntity
  8
0
  6
Continuous
 62
     7
370
    30
100
AcDbSpline
210
0.0
220
0.0
230
1.0
 70
     8
 71
     3
 72
    11
 73
     7
 74
     0
 42
0.000000001
 43
0.00000001
 40
0.0
 40
0.0
 40
0.0
 40
0.0
 40
0.1897926824744647
 40
0.5374524652991864
 40
0.8838032458696757
 40
1.0
 40
1.0
 40
1.0
 40
1.0
 10
650.4763666266576
 20
244.191716017118
 30
0.0
 10
650.4703826188244
 20
244.3720762435486
 30
0.0
 10
650.4534371827814
 20
244.8828180017305
 30
0.0
 10
650.2719855489794
 20
245.7626601563956
 30
0.0
 10
649.9797584349873
 20
246.5718234709607
 30
0.0
 10
649.7599947915195
 20
247.0170089907101
 30
0.0
 10
649.7047878773517
 20
247.12884422601
 30
0.0
  0
LINE
  5
4AD
330
1F
100
AcDbEntity
  8
0
  6
Continuous
 62
     7
370
    30
100
AcDbLine
 10
650.4763666267
 20
194.516971957
 30
0.0
 11
650.4763666267
 21
244.1917160171
 31
0.0
  0
SPLINE
  5
4AE
330
1F
100
AcDbEntity
  8
0
  6
Continuous
 62
     7
370
    30
100
AcDbSpline
210
0.0
220
0.0
230
1.0
 70
     8
 71
     3
 72
    11
 73
     7
 74
     0
 42
0.000000001
 43
0.00000001
 40
0.0
 40
0.0
 40
0.0
 40
0.0
 40
0.1540537546492154
 40
0.4519327295800407
 40
0.7479384298062001
 40
0.9999999999999999
 40
0.9999999999999999
 40
0.9999999999999999
 40
0.9999999999999999
 10
623.5519992079525
 20
244.2341161687598
 30
0.0
 10
623.6361849851165
 20
244.0618445380344
 30
0.0
 10
623.8831527279813
 20
243.5564677721112
 30
0.0
 10
624.1876102075037
 20
242.7013529652283
 30
0.0
 10
624.4004606157195
 20
241.7584172594019
 30
0.0
 10
624.4239384004171
 20
241.2167316976972
 30
0.0
 10
624.4347360663149
 20
240.967605138598
 30
0.0
  0
SPLINE
  5
4AF
330
1F
100
AcDbEntity
  8
0
  6
Continuous
 62
     7
370
    30
100
AcDbSpline
210
0.0
220
0.0
230
1.0
 70
     8
 71
     3
 72
    11
 73
     7
 74
     0
 42
0.000000001
 43
0.00000001
 40
0.0
 40
0.0
 40
0.0
 40
0.0
 40
0.2479571156257848
 40
0.5115395348839014
 40
0.7642038354639481
 40
1.0
 40
1.0
 40
1.0
 40
1.0
 10
546.5788142758068
 20
374.145493563697
 30
0.0
 10
546.6782945200575
 20
374.1983339257544
 30
0.0
 10
546.8835238708899
 20
374.3073444462296
 30
0.0
 10
547.3484710964199
 20
374.3155341305344
 30
0.0
 10
547.9253535349953
 20
374.190776988239
 30
0.0
 10
548.3582640039488
 20
373.9676807495317
 30
0.0
 10
548.56724433185
 20
373.8599847512546
 30
0.0
  0
LINE
  5
4B0
330
1F
100
AcDbEntity
  8
0
  6
Continuous
 62
     7
370
    30
100
AcDbLine
 10
624.4347360663
 20
240.9676051386
 30
0.0
 11
624.4347360663
 21
213.8746594755
 31
0.0
  0
LINE
  5
4B1
330
1F
100
AcDbEntity
  8
0
  6
Continuous
 62
     7
370
    30
100
AcDbLine
 10
557.13827151
 20
293.0704927244
 30
0.0
 11
557.13827151
 21
368.9120360813
 31
0.0
  0
SPLINE
  5
4B2
330
1F
100
AcDbEntity
  8
0
  6
Continuous
 62
     7
370
    30
100
AcDbSpline
210
0.0
220
0.0
230
1.0
 70
     8
 71
     3
 72
    12
 73
     8
 74
     0
 42
0.000000001
 43
0.00000001
 40
0.0
 40
0.0
 40
0.0
 40
0.0
 40
0.137532101459332
 40
0.3996819207965364
 40
0.6623354154818648
 40
0.9351786400996496
 40
1.0
 40
1.0
 40
1.0
 40
1.0
 10
624.4347360663149
 20
213.8746594755466
 30
0.0
 10
624.4307263225296
 20
213.7352300680712
 30
0.0
 10
624.4190736095917
 20
213.3300343879062
 30
0.0
 10
624.2971679400787
 20
212.7704830885497
 30
0.0
 10
624.052151823073
 20
212.3042014955841
 30
0.0
 10
623.8592014204298
 20
212.072396187712
 30
0.0
 10
623.7092675564152
 20
212.0160044861515
 30
0.0
 10
623.6804848015568
 20
212.0051789896384
 30
0.0
  0
LINE
  5
4B3
330
1F
100
AcDbEntity
  8
0
  6
Continuous
 62
     7
370
    30
100
AcDbLine
 10
535.9250918785
 20
246.4289100558
 30
0.0
 11
638.1627393917
 21
187.4083724338
 31
0.0
  0
LINE
  5
4B4
330
1F
100
AcDbEntity
  8
0
  6
Continuous
 62
     7
370
    30
100
AcDbLine
 10
624.4347360663
 20
223.7699013666
 30
0.0
 11
583.5082885614
 21
247.3962366105
 31
0.0
  0
LINE
  5
4B5
330
1F
100
AcDbEntity
  8
0
  6
Continuous
 62
     7
370
    30
100
AcDbLine
 10
578.8032867864
 20
263.6407206625
 30
0.0
 11
568.8535393181
 21
280.8741887495
 31
0.0
  0
SPLINE
  5
4B6
330
1F
100
AcDbEntity
  8
0
  6
Continuous
 62
     7
370
    30
100
AcDbSpline
210
0.0
220
0.0
230
1.0
 70
     8
 71
     3
 72
    11
 73
     7
 74
     0
 42
0.000000001
 43
0.00000001
 40
0.0
 40
0.0
 40
0.0
 40
0.0
 40
0.1689287530874409
 40
0.478370259712078
 40
0.786646662836873
 40
1.0
 40
1.0
 40
1.0
 40
1.0
 10
579.7656885080029
 20
260.3529536811458
 30
0.0
 10
579.7597195328948
 20
260.5333239452287
 30
0.0
 10
579.7428166663282
 20
261.0440941279047
 30
0.0
 10
579.5608403381508
 20
261.9235859336007
 30
0.0
 10
579.2260204558961
 20
262.8574021440021
 30
0.0
 10
578.9259993248083
 20
263.4133363524394
 30
0.0
 10
578.8032867864058
 20
263.6407206625207
 30
0.0
  0
SPLINE
  5
4B7
330
1F
100
AcDbEntity
  8
0
  6
Continuous
 62
     7
370
    30
100
AcDbSpline
210
0.0
220
0.0
230
1.0
 70
     8
 71
     3
 72
    11
 73
     7
 74
     0
 42
0.000000001
 43
0.00000001
 40
0.0
 40
0.0
 40
0.0
 40
0.0
 40
0.164346587037253
 40
0.4723349039174886
 40
0.7835596733180424
 40
1.0
 40
1.0
 40
1.0
 40
1.0
 10
568.8535393180999
 20
280.8741887495279
 30
0.0
 10
568.7502458771185
 20
281.0441745951282
 30
0.0
 10
568.4533787598828
 20
281.5327168246711
 30
0.0
 10
567.8633264822859
 20
282.2643850656378
 30
0.0
 10
567.1611718075529
 20
282.924168692302
 30
0.0
 10
566.6834341285536
 20
283.2271653901601
 30
0.0
 10
566.4874732812689
 20
283.3514501017222
 30
0.0
  0
LINE
  5
4B8
330
1F
100
AcDbEntity
  8
0
  6
Continuous
 62
     7
370
    30
100
AcDbLine
 10
579.765688508
 20
253.8786569549
 30
0.0
 11
579.765688508
 21
260.3529536811
 31
0.0
  0
LINE
  5
4B9
330
1F
100
AcDbEntity
  8
0
  6
Continuous
 62
     7
370
    30
100
AcDbLine
 10
566.4874732813
 20
283.3514501017
 30
0.0
 11
560.8808715635
 21
286.58807238
 31
0.0
  0
SPLINE
  5
4BA
330
1F
100
AcDbEntity
  8
0
  6
Continuous
 62
     7
370
    30
100
AcDbSpline
210
0.0
220
0.0
230
1.0
 70
     8
 71
     3
 72
    16
 73
    12
 74
     0
 42
0.000000001
 43
0.00000001
 40
0.0
 40
0.0
 40
0.0
 40
0.0
 40
0.0672950254777296
 40
0.1973236523882317
 40
0.3285743617661562
 40
0.4608507383640848
 40
0.5936528670817238
 40
0.7263323002544468
 40
0.8581017499136733
 40
0.9811226090667283
 40
1.0
 40
1.0
 40
1.0
 40
1.0
 10
583.5082885614403
 20
247.3962366104574
 30
0.0
 10
583.3826962181488
 20
247.4733827841867
 30
0.0
 10
583.0144321493806
 20
247.6995921460225
 30
0.0
 10
582.3867224620678
 20
248.2203771890107
 30
0.0
 10
581.6721197057444
 20
248.9942684770203
 30
0.0
 10
581.0262087173469
 20
249.9008816208913
 30
0.0
 10
580.4863865334459
 20
250.8912636035806
 30
0.0
 10
580.081419914472
 20
251.9134747135196
 30
0.0
 10
579.8361222019445
 20
252.8903426763628
 30
0.0
 10
579.7685338704498
 20
253.5327671459111
 30
0.0
 10
579.7660225948019
 20
253.8380444771113
 30
0.0
 10
579.765688508003
 20
253.8786569548594
 30
0.0
  0
SPLINE
  5
4BB
330
1F
100
AcDbEntity
  8
0
  6
Continuous
 62
     7
370
    30
100
AcDbSpline
210
0.0
220
0.0
230
1.0
 70
     8
 71
     3
 72
    16
 73
    12
 74
     0
 42
0.000000001
 43
0.00000001
 40
0.0
 40
0.0
 40
0.0
 40
0.0
 40
0.0672950254777279
 40
0.1973236523882281
 40
0.3285743617661573
 40
0.4608507383640944
 40
0.5936528670817309
 40
0.7263323002544412
 40
0.8581017499136802
 40
0.9811226090667408
 40
1.0
 40
1.0
 40
1.0
 40
1.0
 10
560.8808715634708
 20
286.5880723799648
 30
0.0
 10
560.7552792201792
 20
286.6652185536941
 30
0.0
 10
560.3870151514111
 20
286.8914279155298
 30
0.0
 10
559.7593054640982
 20
287.4122129585181
 30
0.0
 10
559.0447027077748
 20
288.1861042465276
 30
0.0
 10
558.3987917193774
 20
289.0927173903987
 30
0.0
 10
557.8589695354765
 20
290.083099373088
 30
0.0
 10
557.4540029165025
 20
291.105310483027
 30
0.0
 10
557.2087052039748
 20
292.0821784458701
 30
0.0
 10
557.1411168724804
 20
292.7246029154186
 30
0.0
 10
557.1386055968323
 20
293.0298802466186
 30
0.0
 10
557.1382715100334
 20
293.0704927243668
 30
0.0
  0
LINE
  5
4BC
330
1F
100
AcDbEntity
  8
0
  6
Continuous
 62
     7
370
    30
100
AcDbLine
 10
532.5252494753
 20
252.2887924078
 30
0.0
 11
535.8857290861
 21
246.4682710013
 31
0.0
  0
ARC
  5
4BD
330
1F
100
AcDbEntity
  8
0
  6
Continuous
 62
     7
370
    30
100
AcDbCircle
 10
622.1411830806
 20
213.0468922382
 30
0.0
 40
2.620255184570895
100
AcDbArc
 50
230.7967147643
 51
9.2140369905
  0
LINE
  5
4BE
330
1F
100
AcDbEntity
  8
0
  6
Continuous
 62
     7
370
    30
100
AcDbLine
 10
624.7276292851
 20
240.5594010827
 30
0.0
 11
624.7276292851
 21
213.4664554196
 31
0.0
  0
ARC
  5
4BF
330
1F
100
AcDbEntity
  8
0
  6
Continuous
 62
     7
370
    30
100
AcDbCircle
 10
616.3280348562
 20
240.3129312089
 30
0.0
 40
8.403209742051926
100
AcDbArc
 50
1.6807517031
 51
28.1822863306
  0
LINE
  5
4C0
330
1F
100
AcDbEntity
  8
0
  6
Continuous
 62
     7
370
    30
100
AcDbLine
 10
562.1352920857
 20
364.615507684
 30
0.0
 11
623.7350399205
 21
244.2815846261
 31
0.0
  0
ARC
  5
4C1
330
1F
100
AcDbEntity
  8
0
  6
Continuous
 62
     7
370
    30
100
AcDbCircle
 10
554.1535316917
 20
360.7314396385
 30
0.0
 40
8.876625685990794
100
AcDbArc
 50
25.9483869339
 51
57.788055201
  0
LINE
  5
4C2
330
1F
100
AcDbEntity
  8
0
  6
Continuous
 62
     7
370
    30
100
AcDbLine
 10
548.360096917
 20
374.3178295577
 30
0.0
 11
558.8852407632
 21
368.2417933474
 31
0.0
  0
ARC
  5
4C3
330
1F
100
AcDbEntity
  8
0
  6
Continuous
 62
     7
370
    30
100
AcDbCircle
 10
546.7039024344
 20
372.2873722033
 30
0.0
 40
2.620255184570893
100
AcDbArc
 50
50.7967147643
 51
189.2140369905
  0
LINE
  5
4C4
330
1F
100
AcDbEntity
  8
0
  6
Continuous
 62
     7
370
    30
100
AcDbLine
 10
544.1174562299
 20
286.1310237739
 30
0.0
 11
544.1174562299
 21
371.8678090219
 31
0.0
  0
ARC
  5
4C5
330
1F
100
AcDbEntity
  8
0
  6
Continuous
 62
     7
370
    30
100
AcDbCircle
 10
553.3287528381
 20
286.5501888874
 30
0.0
 40
9.220828845432003
100
AcDbArc
 50
182.6054784857
 51
237.39452166
  0
LINE
  5
4C6
330
1F
100
AcDbEntity
  8
0
  6
Continuous
 62
     7
370
    30
100
AcDbLine
 10
553.9666986348
 20
275.5459322888
 30
0.0
 11
548.360096917
 21
278.7825545671
 31
0.0
  0
ARC
  5
4C7
330
1F
100
AcDbEntity
  8
0
  6
Continuous
 62
     7
370
    30
100
AcDbCircle
 10
550.9126728549
 20
270.6498544686
 30
0.0
 40
5.770498374189343
100
AcDbArc
 50
28.8556088792
 51
58.0453283505
  0
LINE
  5
4C8
330
1F
100
AcDbEntity
  8
0
  6
Continuous
 62
     7
370
    30
100
AcDbLine
 10
565.9164461031
 20
256.2012517109
 30
0.0
 11
555.9666986348
 21
273.4347197979
 31
0.0
  0
ARC
  5
4C9
330
1F
100
AcDbEntity
  8
0
  6
Continuous
 62
     7
370
    30
100
AcDbCircle
 10
560.9770126275
 20
253.2164510265
 30
0.0
 40
5.771225015994323
100
AcDbArc
 50
1.956498643
 51
31.1437277994
  0
LINE
  5
4CA
330
1F
100
AcDbEntity
  8
0
  6
Continuous
 62
     7
370
    30
100
AcDbLine
 10
566.7448732278
 20
246.9391880044
 30
0.0
 11
566.7448732278
 21
253.4134847307
 31
0.0
  0
ARC
  5
4CB
330
1F
100
AcDbEntity
  8
0
  6
Continuous
 62
     7
370
    30
100
AcDbCircle
 10
575.956169836
 20
247.3583531179
 30
0.0
 40
9.220828845432463
100
AcDbArc
 50
182.6054784857
 51
237.39452166
  0
LINE
  5
4CC
330
1F
100
AcDbEntity
  8
0
  6
Continuous
 62
     7
370
    30
100
AcDbLine
 10
620.484988598
 20
211.0164348838
 30
0.0
 11
570.987513915
 21
239.5907187976
 31
0.0
  0
LINE
  5
4CD
330
1F
100
AcDbEntity
  8
0
  6
Continuous
 62
     7
370
    30
100
AcDbLine
 10
532.8037477309
 20
410.24416558
 30
0.0
 11
532.8037477309
 21
252.1734703527
 31
0.0
  0
LINE
  5
4CE
330
1F
100
AcDbEntity
  8
0
  6
Continuous
 62
     7
370
    30
100
AcDbLine
 10
555.1967317552
 20
397.3169710658
 30
0.0
 11
532.8037477309
 21
410.24416558
 31
0.0
  0
ARC
  5
4CF
330
1F
100
AcDbEntity
  8
0
  6
Continuous
 62
     7
370
    30
100
AcDbCircle
 10
552.0422590409
 20
392.3100685933
 30
0.0
 40
5.917750457328397
100
AcDbArc
 50
25.9483869339
 51
57.788055201
  0
LINE
  5
4D0
330
1F
100
AcDbEntity
  8
0
  6
Continuous
 62
     7
370
    30
100
AcDbLine
 10
636.7938251034
 20
239.7337027622
 30
0.0
 11
557.3634326369
 21
394.8994472903
 31
0.0
  0
ARC
  5
4D1
330
1F
100
AcDbEntity
  8
0
  6
Continuous
 62
     7
370
    30
100
AcDbCircle
 10
631.8558217272
 20
237.0879338174
 30
0.0
 40
5.602139828032854
100
AcDbArc
 50
1.6807517031
 51
28.1822863306
  0
LINE
  5
4D2
330
1F
100
AcDbEntity
  8
0
  6
Continuous
 62
     7
370
    30
100
AcDbLine
 10
637.4555513465
 20
188.1548845517
 30
0.0
 11
637.4555513465
 21
237.2522470666
 31
0.0
  0
LINE
  5
4D3
330
1F
100
AcDbEntity
  8
0
  6
Continuous
 62
     7
370
    30
100
AcDbLine
 10
535.9250680744
 20
246.7671849468
 30
0.0
 11
637.4555513465
 21
188.1548845517
 31
0.0
  0
LINE
  5
4D4
330
1F
100
AcDbEntity
  8
0
  6
Continuous
 62
     7
370
    30
100
AcDbLine
 10
532.8037477309
 20
252.1734703527
 30
0.0
 11
535.9250680744
 21
246.7671849468
 31
0.0
  0
LINE
  5
4D5
330
1F
100
AcDbEntity
  8
0
  6
Continuous
 62
     7
370
    30
100
AcDbLine
 10
558.6122146385
 20
395.5198112142
 30
0.0
 11
638.042607105
 21
240.3540666862
 31
0.0
  0
ARC
  5
4D6
330
1F
100
AcDbEntity
  8
0
  6
Continuous
 62
     7
370
    30
100
AcDbCircle
 10
632.4750840942
 20
249.9943251799
 30
0.0
 40
11.13247035934324
100
AcDbArc
 50
292.8264391676
 51
300.0076537827
  0
ARC
  5
4D7
330
1F
100
AcDbEntity
  8
0
  6
Continuous
 62
     7
370
    30
100
AcDbCircle
 10
553.0446916277
 20
405.1600697079
 30
0.0
 40
11.13247035932027
100
AcDbArc
 50
292.8264391676
 51
300.0076537827
  0
LINE
  5
4D8
330
1F
100
AcDbEntity
  8
0
  6
Continuous
 62
     7
370
    30
100
AcDbLine
 10
649.356315604
 20
246.8853315807
 30
0.0
 11
569.9259231375
 21
402.0510761087
 31
0.0
  0
LINE
  5
4D9
330
1F
100
AcDbEntity
  8
0
  6
Continuous
 62
     7
370
    30
100
AcDbLine
 10
638.042607105
 20
240.3540666862
 30
0.0
 11
649.356315604
 21
246.8853315807
 31
0.0
  0
LINE
  5
4DA
330
1F
100
AcDbEntity
  8
0
  6
Continuous
 62
     7
370
    30
100
AcDbLine
 10
569.9259231375
 20
402.0510761087
 30
0.0
 11
558.6122146385
 21
395.5198112142
 31
0.0
  0
LWPOLYLINE
  5
4DB
330
1F
100
AcDbEntity
  8
0
  6
Continuous
 62
     7
370
    30
100
AcDbPolyline
 90
       19
 70
   128
 43
0.0
 10
627.7302518179
 20
274.8152429338
 10
628.2663365283
 20
275.2981445185
 10
628.6007071183
 20
275.9905341658
 10
628.6930335601
 20
276.8088994658
 10
628.5321799221
 20
277.6545334855
 10
628.137547527
 20
278.4254402819
 10
627.5567348659
 20
279.028637118
 10
626.8597965175
 20
279.3913695531
 10
626.1307935324
 20
279.4698867022
 10
625.4576544295
 20
279.2547182383
 10
624.9215697192
 20
278.7718166537
 10
624.5871991291
 20
278.0794270063
 10
624.4948726874
 20
277.2610617063
 10
624.6557263254
 20
276.4154276866
 10
625.0503587205
 20
275.6445208902
 10
625.6311713816
 20
275.0413240541
 10
626.3281097299
 20
274.678591619
 10
627.057112715
 20
274.6000744699
 10
627.7302518179
 20
274.8152429338
  0
LWPOLYLINE
  5
4DC
330
1F
100
AcDbEntity
  8
0
  6
Continuous
 62
     7
370
    30
100
AcDbPolyline
 90
       19
 70
   128
 43
0.0
 10
605.0042779343
 20
319.2099959783
 10
605.5403626447
 20
319.6928975629
 10
605.8747332347
 20
320.3852872102
 10
605.9670596765
 20
321.2036525102
 10
605.8062060385
 20
322.04928653
 10
605.4115736434
 20
322.8201933264
 10
604.8307609823
 20
323.4233901625
 10
604.1338226339
 20
323.7861225976
 10
603.4048196488
 20
323.8646397466
 10
602.7316805459
 20
323.6494712827
 10
602.1955958356
 20
323.1665696981
 10
601.8612252455
 20
322.4741800507
 10
601.7688988038
 20
321.6558147507
 10
601.9297524418
 20
320.810180731
 10
602.3243848369
 20
320.0392739346
 10
602.905197498
 20
319.4360770985
 10
603.6021358463
 20
319.0733446634
 10
604.3311388314
 20
318.9948275143
 10
605.0042779343
 20
319.2099959783
  0
LWPOLYLINE
  5
4DD
330
1F
100
AcDbEntity
  8
0
  6
Continuous
 62
     7
370
    30
100
AcDbPolyline
 90
       19
 70
   128
 43
0.0
 10
582.2783040507
 20
363.6047490227
 10
582.8143887611
 20
364.0876506073
 10
583.1487593511
 20
364.7800402547
 10
583.2410857929
 20
365.5984055547
 10
583.0802321549
 20
366.4440395744
 10
582.6855997598
 20
367.2149463708
 10
582.1047870987
 20
367.8181432069
 10
581.4078487503
 20
368.180875642
 10
580.6788457652
 20
368.2593927911
 10
580.0057066623
 20
368.0442243271
 10
579.469621952
 20
367.5613227425
 10
579.1352513619
 20
366.8689330952
 10
579.0429249202
 20
366.0505677952
 10
579.2037785582
 20
365.2049337754
 10
579.5984109533
 20
364.434026979
 10
580.1792236144
 20
363.8308301429
 10
580.8761619627
 20
363.4680977078
 10
581.6051649478
 20
363.3895805588
 10
582.2783040507
 20
363.6047490227
  0
LWPOLYLINE
  5
4DE
330
1F
100
AcDbEntity
  8
0
  6
Continuous
 62
     7
370
    30
100
AcDbPolyline
 90
       22
 70
   128
 43
0.0
 10
594.0049065746
 20
340.6970564518
 10
594.6260667544
 20
341.224287367
 10
595.0587601606
 20
341.9650196313
 10
595.2645400852
 20
342.8534359325
 10
595.2251220788
 20
343.8105965833
 10
594.9440086044
 20
344.7514536595
 10
594.4461778277
 20
345.5924078811
 10
593.775864198
 20
346.2587367749
 10
592.9926280228
 20
346.6912340946
 10
592.1660632736
 20
346.8514705555
 10
591.3696138556
 20
346.7252084446
 10
590.6740477948
 20
346.3236667047
 10
590.1411691881
 20
345.6825240816
 10
589.8183266381
 20
344.8587489108
 10
589.7342061224
 20
343.9255372314
 10
589.8962821177
 20
342.9658089965
 10
590.2901534608
 20
342.0648402713
 10
590.8808229542
 20
341.302686081
 10
591.6158070214
 20
340.7470671701
 10
592.4297991026
 20
340.447352717
 10
593.2504724292
 20
340.4301736662
 10
594.0049065746
 20
340.6970564518
  0
LWPOLYLINE
  5
4DF
330
1F
100
AcDbEntity
  8
0
  6
Continuous
 62
     7
370
    30
100
AcDbPolyline
 90
       22
 70
   128
 43
0.0
 10
616.7308804582
 20
296.3023034073
 10
617.352040638
 20
296.8295343226
 10
617.7847340442
 20
297.5702665869
 10
617.9905139688
 20
298.458682888
 10
617.9510959624
 20
299.4158435389
 10
617.669982488
 20
300.3567006151
 10
617.1721517113
 20
301.1976548367
 10
616.5018380816
 20
301.8639837305
 10
615.7186019064
 20
302.2964810502
 10
614.8920371572
 20
302.456717511
 10
614.0955877392
 20
302.3304554002
 10
613.4000216784
 20
301.9289136603
 10
612.8671430717
 20
301.2877710372
 10
612.5443005217
 20
300.4639958664
 10
612.460180006
 20
299.530784187
 10
612.6222560013
 20
298.571055952
 10
613.0161273444
 20
297.6700872269
 10
613.6067968378
 20
296.9079330366
 10
614.341780905
 20
296.3523141256
 10
615.1557729862
 20
296.0525996726
 10
615.9764463128
 20
296.0354206218
 10
616.7308804582
 20
296.3023034073
  0
ARC
  5
4E0
330
1F
100
AcDbEntity
  8
0
  6
Continuous
 62
     7
370
    30
100
AcDbCircle
 10
551.9607476435
 20
392.2830878429
 30
0.0
 40
7.397188071660322
100
AcDbArc
 50
25.9483869339
 51
57.788055201
  0
ARC
  5
4E1
330
1F
100
AcDbEntity
  8
0
  6
Continuous
 62
     7
370
    30
100
AcDbCircle
 10
556.7319478566
 20
397.2471102136
 30
0.0
 40
1.536804807572293
100
AcDbArc
 50
122.60547834
 51
177.3945215143
  0
ARC
  5
4E2
330
1F
100
AcDbEntity
  8
0
  6
Continuous
 62
     7
370
    30
100
AcDbCircle
 10
563.2744561425
 20
398.8143527375
 30
0.0
 40
7.397188071662035
100
AcDbArc
 50
25.9483869339
 51
57.788055201
  0
LINE
  5
4E3
330
1F
100
AcDbEntity
  8
0
  6
Continuous
 62
     7
370
    30
100
AcDbLine
 10
555.9038385364
 20
398.5417159336
 30
0.0
 11
567.2175470354
 21
405.0729808282
 31
0.0
  0
ELLIPSE
  5
4E4
330
1F
100
AcDbEntity
  8
0
  6
Continuous
 62
     7
370
    30
100
AcDbEllipse
 10
533.5108545121
 20
410.6523696359
 30
0.0
 11
-0.7071355117875554
 21
1.224728280626266
 31
0.0
210
0.0
220
0.0
230
1.0
 40
0.5773346305
 41
6.283144675148533
 42
7.853941001943401
  0
LINE
  5
4E5
330
1F
100
AcDbEntity
  8
0
  6
Continuous
 62
     7
370
    30
100
AcDbLine
 10
532.8037477309
 20
411.8771145037
 30
0.0
 11
555.9038385364
 21
398.5417159336
 31
0.0
  0
LINE
  5
4E6
330
1F
100
AcDbEntity
  8
0
  6
Continuous
 62
     7
370
    30
100
AcDbLine
 10
567.2175470354
 20
405.0729808282
 30
0.0
 11
544.1174562299
 21
418.4083793983
 31
0.0
  0
LINE
  5
4E7
330
1F
100
AcDbEntity
  8
0
  6
Continuous
 62
     7
370
    30
100
AcDbLine
 10
544.1174562299
 20
418.4083793983
 30
0.0
 11
532.8037477309
 21
411.8771145037
 31
0.0
  0
LWPOLYLINE
  5
4E8
330
1F
100
AcDbEntity
  8
0
  6
Continuous
 62
     7
370
    30
100
AcDbPolyline
 90
       19
 70
   128
 43
0.0
 10
549.0672036982
 20
411.0607063919
 10
548.3559823996
 20
411.3481971242
 10
547.5173261021
 20
411.4779236472
 10
546.6523891324
 20
411.4342390279
 10
545.8654956543
 20
411.2224122759
 10
545.2515566345
 20
410.8679928237
 10
544.8846221795
 20
410.4137288881
 10
544.80895
 20
409.9144114038
 10
545.0336672776
 20
409.4302654286
 10
545.5316697922
 20
409.0196861123
 10
546.2428910908
 20
408.7321953801
 10
547.0815473883
 20
408.602468857
 10
547.946484358
 20
408.6461534764
 10
548.7333778361
 20
408.8579802284
 10
549.3473168559
 20
409.2123996805
 10
549.7142513109
 20
409.6666636161
 10
549.7899234904
 20
410.1659811004
 10
549.5652062128
 20
410.6501270756
 10
549.0672036982
 20
411.0607063919
  0
ELLIPSE
  5
4E9
330
1F
100
AcDbEntity
  8
0
  6
Continuous
 62
     7
370
    30
100
AcDbEllipse
 10
544.824563011
 20
417.1836345305
 30
0.0
 11
-0.7071355117874417
 21
1.224728280626152
 31
0.0
210
0.0
220
0.0
230
1.0
 40
0.5773346305
 41
5.49782777581314
 42
6.283144675148619
  0
ARC
  5
4EA
330
1F
100
AcDbEntity
  8
0
  6
Continuous
 62
     7
370
    30
100
AcDbCircle
 10
631.8701028848
 20
237.0468555051
 30
0.0
 40
7.002674785043967
100
AcDbArc
 50
1.6807517031
 51
28.1822863306
  0
ARC
  5
4EB
330
1F
100
AcDbEntity
  8
0
  6
Continuous
 62
     7
370
    30
100
AcDbCircle
 10
638.1626581277
 20
238.6169581516
 30
0.0
 40
1.537021907911696
100
AcDbArc
 50
242.6096722366
 51
297.3903277634
  0
ARC
  5
4EC
330
1F
100
AcDbEntity
  8
0
  6
Continuous
 62
     7
370
    30
100
AcDbCircle
 10
643.1838113837
 20
243.5781203997
 30
0.0
 40
7.002674785044783
100
AcDbArc
 50
1.6807517031
 51
28.1822863306
  0
LINE
  5
4ED
330
1F
100
AcDbEntity
  8
0
  6
Continuous
 62
     7
370
    30
100
AcDbLine
 10
650.1834734078
 20
243.7835119612
 30
0.0
 11
638.8697649089
 21
237.2522470666
 31
0.0
  0
LINE
  5
4EE
330
1F
100
AcDbEntity
  8
0
  6
Continuous
 62
     7
370
    30
100
AcDbLine
 10
638.8697649089
 20
237.2522470666
 30
0.0
 11
638.8697649089
 21
187.3383437399
 31
0.0
  0
ELLIPSE
  5
4EF
330
1F
100
AcDbEntity
  8
0
  6
Continuous
 62
     7
370
    30
100
AcDbEllipse
 10
638.1626581277
 20
188.5630886077
 30
0.0
 11
-0.7071355117875553
 21
1.224728280626209
 31
0.0
210
0.0
220
0.0
230
1.0
 40
0.5773346305
 41
1.570755694763837
 42
3.141552021558578
  0
LINE
  5
4F0
330
1F
100
AcDbEntity
  8
0
  6
Continuous
 62
     7
370
    30
100
AcDbLine
 10
650.1834734078
 20
193.8696086344
 30
0.0
 11
650.1834734078
 21
243.7835119612
 31
0.0
  0
LINE
  5
4F1
330
1F
100
AcDbEntity
  8
0
  6
Continuous
 62
     7
370
    30
100
AcDbLine
 10
650.1834734078
 20
193.8696086344
 30
0.0
 11
638.8697649089
 21
187.3383437399
 31
0.0
  0
LWPOLYLINE
  5
4F2
330
1F
100
AcDbEntity
  8
0
  6
Continuous
 62
     7
370
    30
100
AcDbPolyline
 90
       19
 70
   128
 43
0.0
 10
646.2943861113
 20
232.4515269212
 10
646.1877767193
 20
233.088166143
 10
645.8808072094
 20
233.5249286949
 10
645.4105026348
 20
233.7091345671
 10
644.8335886683
 20
233.618565813
 10
644.2196496484
 20
233.2641463609
 10
643.6427356819
 20
232.6886244273
 10
643.1724311073
 20
231.9614164514
 10
642.8654615974
 20
231.1702344474
 10
642.7588522054
 20
230.4105066417
 10
642.8654615974
 20
229.7738674199
 10
643.1724311073
 20
229.337104868
 10
643.6427356819
 20
229.1528989957
 10
644.2196496484
 20
229.2434677499
 10
644.8335886683
 20
229.597887202
 10
645.4105026348
 20
230.1734091355
 10
645.8808072094
 20
230.9006171115
 10
646.1877767193
 20
231.6917991154
 10
646.2943861113
 20
232.4515269212
  0
LWPOLYLINE
  5
4F3
330
1F
100
AcDbEntity
  8
0
  6
Continuous
 62
     7
370
    30
100
AcDbPolyline
 90
       19
 70
   128
 43
0.0
 10
646.2943861113
 20
212.0380066241
 10
646.1877767193
 20
212.6746458459
 10
645.8808072094
 20
213.1114083977
 10
645.4105026348
 20
213.29561427
 10
644.8335886683
 20
213.2050455158
 10
644.2196496484
 20
212.8506260637
 10
643.6427356819
 20
212.2751041302
 10
643.1724311073
 20
211.5478961543
 10
642.8654615974
 20
210.7567141503
 10
642.7588522054
 20
209.9969863445
 10
642.8654615974
 20
209.3603471227
 10
643.1724311073
 20
208.9235845709
 10
643.6427356819
 20
208.7393786986
 10
644.2196496484
 20
208.8299474527
 10
644.8335886683
 20
209.1843669049
 10
645.4105026348
 20
209.7598888384
 10
645.8808072094
 20
210.4870968143
 10
646.1877767193
 20
211.2782788183
 10
646.2943861113
 20
212.0380066241
  0
ELLIPSE
  5
4F4
330
1F
100
AcDbEntity
  8
0
  6
Continuous
 62
     7
370
    30
100
AcDbEllipse
 10
533.5108545121
 20
252.5816744086
 30
0.0
 11
0.9963947603122277
 21
0.2669831720468493
 31
0.0
210
0.0
220
0.0
230
1.0
 40
0.3177652438
 41
3.056652579830567
 42
3.842050743228067
  0
ELLIPSE
  5
4F5
330
1F
100
AcDbEntity
  8
0
  6
Continuous
 62
     7
370
    30
100
AcDbEllipse
 10
649.4763666267
 20
195.0943535022
 30
0.0
 11
-0.7071355117875553
 21
1.224728280626209
 31
0.0
210
0.0
220
0.0
230
1.0
 40
0.5773346305
 41
3.141552021558578
 42
3.926950184956167
  0
ARC
  5
4F6
330
1F
100
AcDbEntity
  8
0
  6
Continuous
 62
     7
370
    30
100
AcDbCircle
 10
544.824563011
 20
373.2325201068
 30
0.0
 40
1.537021907911973
100
AcDbArc
 50
242.6096722366
 51
297.3903277634
  0
LINE
  5
4F7
330
1F
100
AcDbEntity
  8
0
  6
Continuous
 62
     7
370
    30
100
AcDbLine
 10
545.5316697922
 20
371.8678090219
 30
0.0
 11
545.5316697922
 21
286.1310237739
 31
0.0
  0
ARC
  5
4F8
330
1F
100
AcDbEntity
  8
0
  6
Continuous
 62
     7
370
    30
100
AcDbCircle
 10
544.824563011
 20
287.4957348588
 30
0.0
 40
1.537021907912024
100
AcDbArc
 50
242.6096722366
 51
297.3903277634
  0
LINE
  5
4F9
330
1F
100
AcDbEntity
  8
0
  6
Continuous
 62
     7
370
    30
100
AcDbLine
 10
545.5316697922
 20
286.1310237739
 30
0.0
 11
556.8453782912
 21
292.6622886685
 31
0.0
  0
LWPOLYLINE
  5
4FA
330
1F
100
AcDbEntity
  8
0
  6
Continuous
 62
     7
370
    30
100
AcDbPolyline
 90
       22
 70
   128
 43
0.0
 10
553.5219764196
 20
368.3151067348
 10
553.4183076777
 20
369.049502821
 10
553.1165128744
 20
369.5989512104
 10
552.6434078025
 20
369.9146310023
 10
552.0410299238
 20
369.9684926619
 10
551.3629031563
 20
369.7557503444
 10
550.6692820393
 20
369.2953071382
 10
550.0217978528
 20
368.6280754429
 10
549.4779824083
 20
367.8133417227
 10
549.0861560945
 20
366.9234986441
 10
548.8811343989
 20
366.0376126695
 10
548.8811343989
 20
365.2343986555
 10
549.0861560945
 20
364.5852256921
 10
549.4779824083
 20
364.1477756459
 10
550.0217978528
 20
363.9609178732
 10
550.6692820393
 20
364.0412555072
 10
551.3629031563
 20
364.3816501965
 10
552.0410299238
 20
364.9518563791
 10
552.6434078025
 20
365.7012087335
 10
553.1165128744
 20
366.5631240145
 10
553.4183076777
 20
367.4610172669
 10
553.5219764196
 20
368.3151067348
  0
LWPOLYLINE
  5
4FB
330
1F
100
AcDbEntity
  8
0
  6
Continuous
 62
     7
370
    30
100
AcDbPolyline
 90
       22
 70
   128
 43
0.0
 10
553.5219764196
 20
307.0745458434
 10
553.4183076777
 20
307.8089419296
 10
553.1165128744
 20
308.358390319
 10
552.6434078025
 20
308.6740701109
 10
552.0410299238
 20
308.7279317705
 10
551.3629031563
 20
308.5151894529
 10
550.6692820393
 20
308.0547462468
 10
550.0217978528
 20
307.3875145515
 10
549.4779824083
 20
306.5727808313
 10
549.0861560945
 20
305.6829377526
 10
548.8811343989
 20
304.7970517781
 10
548.8811343989
 20
303.9938377641
 10
549.0861560945
 20
303.3446648007
 10
549.4779824083
 20
302.9072147545
 10
550.0217978528
 20
302.7203569818
 10
550.6692820393
 20
302.8006946157
 10
551.3629031563
 20
303.141089305
 10
552.0410299238
 20
303.7112954877
 10
552.6434078025
 20
304.4606478421
 10
553.1165128744
 20
305.3225631231
 10
553.4183076777
 20
306.2204563754
 10
553.5219764196
 20
307.0745458434
  0
LWPOLYLINE
  5
4FC
330
1F
100
AcDbEntity
  8
0
  6
Continuous
 62
     7
370
    30
100
AcDbPolyline
 90
       22
 70
   128
 43
0.0
 10
553.5219764196
 20
327.4880661405
 10
553.4183076777
 20
328.2224622267
 10
553.1165128744
 20
328.7719106161
 10
552.6434078025
 20
329.087590408
 10
552.0410299238
 20
329.1414520676
 10
551.3629031563
 20
328.9287097501
 10
550.6692820393
 20
328.4682665439
 10
550.0217978528
 20
327.8010348486
 10
549.4779824083
 20
326.9863011284
 10
549.0861560945
 20
326.0964580498
 10
548.8811343989
 20
325.2105720752
 10
548.8811343989
 20
324.4073580612
 10
549.0861560945
 20
323.7581850978
 10
549.4779824083
 20
323.3207350516
 10
550.0217978528
 20
323.1338772789
 10
550.6692820393
 20
323.2142149129
 10
551.3629031563
 20
323.5546096022
 10
552.0410299238
 20
324.1248157848
 10
552.6434078025
 20
324.8741681392
 10
553.1165128744
 20
325.7360834202
 10
553.4183076777
 20
326.6339766726
 10
553.5219764196
 20
327.4880661405
  0
LWPOLYLINE
  5
4FD
330
1F
100
AcDbEntity
  8
0
  6
Continuous
 62
     7
370
    30
100
AcDbPolyline
 90
       22
 70
   128
 43
0.0
 10
553.5219764196
 20
347.9015864377
 10
553.4183076777
 20
348.6359825239
 10
553.1165128744
 20
349.1854309133
 10
552.6434078025
 20
349.5011107052
 10
552.0410299238
 20
349.5549723647
 10
551.3629031563
 20
349.3422300472
 10
550.6692820393
 20
348.8817868411
 10
550.0217978528
 20
348.2145551458
 10
549.4779824083
 20
347.3998214256
 10
549.0861560945
 20
346.5099783469
 10
548.8811343989
 20
345.6240923724
 10
548.8811343989
 20
344.8208783584
 10
549.0861560945
 20
344.171705395
 10
549.4779824083
 20
343.7342553487
 10
550.0217978528
 20
343.5473975761
 10
550.6692820393
 20
343.62773521
 10
551.3629031563
 20
343.9681298993
 10
552.0410299238
 20
344.538336082
 10
552.6434078025
 20
345.2876884364
 10
553.1165128744
 20
346.1496037173
 10
553.4183076777
 20
347.0474969697
 10
553.5219764196
 20
347.9015864377
  0
ARC
  5
4FE
330
1F
100
AcDbEntity
  8
0
  6
Continuous
 62
     7
370
    30
100
AcDbCircle
 10
622.0202046994
 20
210.9465740315
 30
0.0
 40
1.536804807572518
100
AcDbArc
 50
122.60547834
 51
177.3945215143
  0
ELLIPSE
  5
4FF
330
1F
100
AcDbEntity
  8
0
  6
Continuous
 62
     7
370
    30
100
AcDbEllipse
 10
536.6321748556
 20
247.1753890027
 30
0.0
 11
0.7293965376278493
 21
0.7294307619860945
 31
0.0
210
0.0
220
0.0
230
1.0
 40
0.3178881559
 41
2.441093931920513
 42
3.226573359379822
  0
ARC
  5
500
330
1F
100
AcDbEntity
  8
0
  6
Continuous
 62
     7
370
    30
100
AcDbCircle
 10
572.5227300163
 20
239.5208579453
 30
0.0
 40
1.536804807572288
100
AcDbArc
 50
122.60547834
 51
177.3945215143
  0
LINE
  5
501
330
1F
100
AcDbEntity
  8
0
  6
Continuous
 62
     7
370
    30
100
AcDbLine
 10
571.6946206961
 20
240.8154636654
 30
0.0
 11
621.1920953792
 21
212.2411797516
 31
0.0
  0
LINE
  5
502
330
1F
100
AcDbEntity
  8
0
  6
Continuous
 62
     7
370
    30
100
AcDbLine
 10
583.0083291951
 20
247.34672856
 30
0.0
 11
571.6946206961
 21
240.8154636654
 31
0.0
  0
LWPOLYLINE
  5
503
330
1F
100
AcDbEntity
  8
0
  6
Continuous
 62
     7
370
    30
100
AcDbPolyline
 90
       22
 70
   128
 43
0.0
 10
620.3435672418
 20
221.9564362823
 10
619.5521013372
 20
222.2936464418
 10
618.6236231675
 20
222.4812006171
 10
617.6406320927
 20
222.5024337966
 10
616.6904711836
 20
222.3554593191
 10
615.8575664066
 20
222.053336512
 10
615.2159250064
 20
221.6229103125
 10
614.8225596371
 20
221.1024259773
 10
614.7124225381
 20
220.5381308237
 10
614.8952998738
 20
219.9801649525
 10
615.3549421906
 20
219.4781060799
 10
616.0505082515
 20
219.07656434
 10
616.9201939594
 20
218.8112184786
 10
617.8867239227
 20
218.7056456398
 10
618.8642177127
 20
218.7692264338
 10
619.7658207164
 20
218.9963114278
 10
620.5114215502
 20
219.3667231237
 10
621.0347703082
 20
219.8475488168
 10
621.2893651565
 20
220.3960650342
 10
621.2525842255
 20
220.9635337027
 10
620.9276956624
 20
221.499532741
 10
620.3435672418
 20
221.9564362823
  0
LWPOLYLINE
  5
504
330
1F
100
AcDbEntity
  8
0
  6
Continuous
 62
     7
370
    30
100
AcDbPolyline
 90
       22
 70
   128
 43
0.0
 10
602.6658977121
 20
232.1615376801
 10
601.8744318075
 20
232.4987478396
 10
600.9459536378
 20
232.6863020149
 10
599.9629625631
 20
232.7075351944
 10
599.0128016539
 20
232.5605607169
 10
598.179896877
 20
232.2584379098
 10
597.5382554767
 20
231.8280117102
 10
597.1448901074
 20
231.307527375
 10
597.0347530084
 20
230.7432322215
 10
597.2176303442
 20
230.1852663503
 10
597.677272661
 20
229.6832074777
 10
598.3728387218
 20
229.2816657378
 10
599.2425244297
 20
229.0163198764
 10
600.2090543931
 20
228.9107470376
 10
601.186548183
 20
228.9743278316
 10
602.0881511867
 20
229.2014128256
 10
602.8337520206
 20
229.5718245215
 10
603.3571007786
 20
230.0526502146
 10
603.6116956268
 20
230.6011664319
 10
603.5749146959
 20
231.1686351005
 10
603.2500261328
 20
231.7046341388
 10
602.6658977121
 20
232.1615376801
  0
LWPOLYLINE
  5
505
330
1F
100
AcDbEntity
  8
0
  6
Continuous
 62
     7
370
    30
100
AcDbPolyline
 90
       22
 70
   128
 43
0.0
 10
584.9882281824
 20
242.3666390778
 10
584.1967622778
 20
242.7038492374
 10
583.2682841082
 20
242.8914034126
 10
582.2852930334
 20
242.9126365921
 10
581.3351321243
 20
242.7656621147
 10
580.5022273473
 20
242.4635393075
 10
579.8605859471
 20
242.033113108
 10
579.4672205778
 20
241.5126287728
 10
579.3570834787
 20
240.9483336192
 10
579.5399608145
 20
240.3903677481
 10
579.9996031313
 20
239.8883088755
 10
580.6951691921
 20
239.4867671356
 10
581.5648549001
 20
239.2214212742
 10
582.5313848634
 20
239.1158484354
 10
583.5088786534
 20
239.1794292293
 10
584.410481657
 20
239.4065142234
 10
585.1560824909
 20
239.7769259193
 10
585.6794312489
 20
240.2577516124
 10
585.9340260972
 20
240.8062678297
 10
585.8972451662
 20
241.3737364983
 10
585.5723566031
 20
241.9097355366
 10
584.9882281824
 20
242.3666390778
  0
LINE
  5
506
330
1F
100
AcDbEntity
  8
0
  6
Continuous
 62
     7
370
    30
100
AcDbLine
 10
557.173805416
 20
274.131661543
 30
0.0
 11
567.1235528843
 21
256.898193456
 31
0.0
  0
LWPOLYLINE
  5
507
330
1F
100
AcDbEntity
  8
0
  6
Continuous
 62
     7
370
    30
100
AcDbPolyline
 90
        9
 70
   128
 43
0.0
 10
567.1235528843
 20
256.898193456
 10
566.9759958348
 20
256.8130087815
 10
566.8148946005
 20
256.7200016789
 10
566.6464402112
 20
256.6227463588
 10
566.4771062749
 20
256.5249802888
 10
566.3134001996
 20
256.430460564
 10
566.161613118
 20
256.3428195244
 10
566.0275781226
 20
256.2654251662
 10
565.9164461031
 20
256.2012517109
  0
LWPOLYLINE
  5
508
330
1F
100
AcDbEntity
  8
0
  6
Continuous
 62
     7
370
    30
100
AcDbPolyline
 90
        9
 70
   128
 43
0.0
 10
557.173805416
 20
274.131661543
 10
557.0262483665
 20
274.0464768686
 10
556.8651471321
 20
273.9534697659
 10
556.6966927429
 20
273.8562144458
 10
556.5273588066
 20
273.7584483758
 10
556.3636527313
 20
273.663928651
 10
556.2118656497
 20
273.5762876114
 10
556.0778306543
 20
273.4988932532
 10
555.9666986348
 20
273.4347197979
  0
LINE
  5
509
330
1F
100
AcDbEntity
  8
0
  6
Continuous
 62
     7
370
    30
100
AcDbLine
 10
578.4372613833
 20
263.4294583506
 30
0.0
 11
568.487513915
 21
280.6629264376
 31
0.0
  0
LINE
  5
50A
330
1F
100
AcDbEntity
  8
0
  6
Continuous
 62
     7
370
    30
100
AcDbLine
 10
567.1235528843
 20
256.898193456
 30
0.0
 11
578.4372613833
 21
263.4294583506
 31
0.0
  0
LINE
  5
50B
330
1F
100
AcDbEntity
  8
0
  6
Continuous
 62
     7
370
    30
100
AcDbLine
 10
568.487513915
 20
280.6629264376
 30
0.0
 11
557.173805416
 21
274.131661543
 31
0.0
  0
ARC
  5
50C
330
1F
100
AcDbEntity
  8
0
  6
Continuous
 62
     7
370
    30
100
AcDbCircle
 10
560.9492610398
 20
253.1671926005
 30
0.0
 40
7.214031269995185
100
AcDbArc
 50
1.956498643
 51
31.1437277994
  0
ARC
  5
50D
330
1F
100
AcDbEntity
  8
0
  6
Continuous
 62
     7
370
    30
100
AcDbCircle
 10
567.451980009
 20
254.7781958156
 30
0.0
 40
1.537021907911771
100
AcDbArc
 50
242.6096722366
 51
297.3903277634
  0
ARC
  5
50E
330
1F
100
AcDbEntity
  8
0
  6
Continuous
 62
     7
370
    30
100
AcDbCircle
 10
550.8562731911
 20
270.6505798813
 30
0.0
 40
7.213122967737087
100
AcDbArc
 50
28.8556088792
 51
58.0453283505
  0
ARC
  5
50F
330
1F
100
AcDbEntity
  8
0
  6
Continuous
 62
     7
370
    30
100
AcDbCircle
 10
555.5019147361
 20
275.4760714366
 30
0.0
 40
1.536804807571591
100
AcDbArc
 50
122.60547834
 51
177.3945215144
  0
ARC
  5
510
330
1F
100
AcDbEntity
  8
0
  6
Continuous
 62
     7
370
    30
100
AcDbCircle
 10
572.2629695388
 20
259.6984574951
 30
0.0
 40
7.214031269995067
100
AcDbArc
 50
1.956498643
 51
31.1437277994
  0
LINE
  5
511
330
1F
100
AcDbEntity
  8
0
  6
Continuous
 62
     7
370
    30
100
AcDbLine
 10
579.4727952892
 20
259.9447496252
 30
0.0
 11
568.1590867902
 21
253.4134847307
 31
0.0
  0
ARC
  5
512
330
1F
100
AcDbEntity
  8
0
  6
Continuous
 62
     7
370
    30
100
AcDbCircle
 10
562.1699816901
 20
277.1818447759
 30
0.0
 40
7.213122967735042
100
AcDbArc
 50
28.8556088792
 51
58.0453283505
  0
LINE
  5
513
330
1F
100
AcDbEntity
  8
0
  6
Continuous
 62
     7
370
    30
100
AcDbLine
 10
554.673805416
 20
276.7706771566
 30
0.0
 11
565.987513915
 21
283.3019420512
 31
0.0
  0
LINE
  5
514
330
1F
100
AcDbEntity
  8
0
  6
Continuous
 62
     7
370
    30
100
AcDbLine
 10
568.1590867902
 20
253.4134847307
 30
0.0
 11
568.1590867902
 21
246.9391880044
 31
0.0
  0
ARC
  5
515
330
1F
100
AcDbEntity
  8
0
  6
Continuous
 62
     7
370
    30
100
AcDbCircle
 10
567.451980009
 20
248.3038990893
 30
0.0
 40
1.537021907911696
100
AcDbArc
 50
242.6096722366
 51
297.3903277634
  0
LINE
  5
516
330
1F
100
AcDbEntity
  8
0
  6
Continuous
 62
     7
370
    30
100
AcDbLine
 10
549.0672036982
 20
280.0072994349
 30
0.0
 11
554.673805416
 21
276.7706771566
 31
0.0
  0
ARC
  5
517
330
1F
100
AcDbEntity
  8
0
  6
Continuous
 62
     7
370
    30
100
AcDbCircle
 10
549.8953130183
 20
278.7126937148
 30
0.0
 40
1.536804807571743
100
AcDbArc
 50
122.60547834
 51
177.3945215143
  0
LINE
  5
518
330
1F
100
AcDbEntity
  8
0
  6
Continuous
 62
     7
370
    30
100
AcDbLine
 10
579.4727952892
 20
253.4704528989
 30
0.0
 11
579.4727952892
 21
259.9447496252
 31
0.0
  0
LINE
  5
519
330
1F
100
AcDbEntity
  8
0
  6
Continuous
 62
     7
370
    30
100
AcDbLine
 10
568.1590867902
 20
246.9391880044
 30
0.0
 11
579.4727952892
 21
253.4704528989
 31
0.0
  0
LINE
  5
51A
330
1F
100
AcDbEntity
  8
0
  6
Continuous
 62
     7
370
    30
100
AcDbLine
 10
565.987513915
 20
283.3019420512
 30
0.0
 11
560.3809121972
 21
286.5385643295
 31
0.0
  0
LINE
  5
51B
330
1F
100
AcDbEntity
  8
0
  6
Continuous
 62
     7
370
    30
100
AcDbLine
 10
560.3809121972
 20
286.5385643295
 30
0.0
 11
549.0672036982
 21
280.0072994349
 31
0.0
  0
ARC
  5
51C
330
1F
100
AcDbEntity
  8
0
  6
Continuous
 62
     7
370
    30
100
AcDbCircle
 10
575.835167297
 20
247.2884922657
 30
0.0
 40
7.684024037860464
100
AcDbArc
 50
182.6054784857
 51
237.39452166
  0
ARC
  5
51D
330
1F
100
AcDbEntity
  8
0
  6
Continuous
 62
     7
370
    30
100
AcDbCircle
 10
553.2077502991
 20
286.4803280352
 30
0.0
 40
7.684024037860282
100
AcDbArc
 50
182.6054784857
 51
237.39452166
  0
ARC
  5
51E
330
1F
100
AcDbEntity
  8
0
  6
Continuous
 62
     7
370
    30
100
AcDbCircle
 10
587.148875796
 20
253.8197571603
 30
0.0
 40
7.684024037861096
100
AcDbArc
 50
182.6054784857
 51
237.39452166
  0
ARC
  5
51F
330
1F
100
AcDbEntity
  8
0
  6
Continuous
 62
     7
370
    30
100
AcDbCircle
 10
564.5214587981
 20
293.0115929298
 30
0.0
 40
7.68402403786063
100
AcDbArc
 50
182.6054784857
 51
237.39452166
  0
ARC
  5
520
330
1F
100
AcDbEntity
  8
0
  6
Continuous
 62
     8
370
    30
100
AcDbCircle
 10
569.5455324987
 20
402.9665162792
 30
0.0
 40
0.9913262549854766
100
AcDbArc
 50
292.5642321797
 51
317.3275164309
  0
ARC
  5
521
330
1F
100
AcDbEntity
  8
0
  6
Continuous
 62
     8
370
    30
100
AcDbCircle
 10
648.9759249652
 20
247.8007717512
 30
0.0
 40
0.9913262549898305
100
AcDbArc
 50
292.5642321798
 51
317.3275164309
  0
LWPOLYLINE
  5
522
330
1F
100
AcDbEntity
  8
0
  6
Continuous
 62
     8
370
    30
100
AcDbPolyline
 90
        5
 70
   128
 43
0.0
 10
623.7350399205
 20
244.2815846261
 10
623.6429511859
 20
244.2480378156
 10
623.5815750867
 20
244.2314672432
 10
623.5532702721
 20
244.2325097066
 10
623.551999208
 20
244.2341161688
  0
LWPOLYLINE
  5
523
330
1F
100
AcDbEntity
  8
0
  6
Continuous
 62
     8
370
    30
100
AcDbPolyline
 90
        5
 70
   128
 43
0.0
 10
562.1352920857
 20
364.615507684
 10
562.0432033511
 20
364.5819608735
 10
561.9818272519
 20
364.5653903011
 10
561.9535224373
 20
364.5664327645
 10
561.9522513731
 20
364.5680392267
  0
ARC
  5
524
330
1F
100
AcDbEntity
  8
0
  6
Continuous
 62
     8
370
    30
100
AcDbCircle
 10
567.510479267
 20
404.6640655946
 30
0.0
 40
0.5030118891086014
100
AcDbArc
 50
65.7057553035
 51
125.6164559358
  0
ARC
  5
525
330
1F
100
AcDbEntity
  8
0
  6
Continuous
 62
     8
370
    30
100
AcDbCircle
 10
559.3865643966
 20
368.1926434372
 30
0.0
 40
0.5037272070356728
100
AcDbArc
 50
174.4006001778
 51
234.0615628699
  0
ARC
  5
526
330
1F
100
AcDbEntity
  8
0
  6
Continuous
 62
     8
370
    30
100
AcDbCircle
 10
548.8357824727
 20
374.257265529
 30
0.0
 40
0.4795255462444252
100
AcDbArc
 50
172.7441704256
 51
235.943649181
  0
ARC
  5
527
330
1F
100
AcDbEntity
  8
0
  6
Continuous
 62
     8
370
    30
100
AcDbCircle
 10
649.9981949319
 20
244.225621805
 30
0.0
 40
0.4793633566131206
100
AcDbArc
 50
292.7374818978
 51
355.959118845
  0
ARC
  5
528
330
1F
100
AcDbEntity
  8
0
  6
Continuous
 62
     8
370
    30
100
AcDbCircle
 10
624.9352182849
 20
241.0175412442
 30
0.0
 40
0.5029767394441705
100
AcDbArc
 50
185.7087115139
 51
245.6241291273
  0
ARC
  5
529
330
1F
100
AcDbEntity
  8
0
  6
Continuous
 62
     8
370
    30
100
AcDbCircle
 10
547.9799034724
 20
372.1385981397
 30
0.0
 40
2.463163595668436
100
AcDbArc
 50
124.8738635108
 51
186.3115973574
  0
ARC
  5
52A
330
1F
100
AcDbEntity
  8
0
  6
Continuous
 62
     8
370
    30
100
AcDbCircle
 10
624.9351931288
 20
213.9245658524
 30
0.0
 40
0.5029392784939481
100
AcDbArc
 50
185.6947992512
 51
245.6253417064
  0
LINE
  5
52B
330
1F
100
AcDbEntity
  8
0
  6
Continuous
 62
     8
370
    30
100
AcDbLine
 10
548.7749188099
 20
373.740096827
 30
0.0
 11
545.5316697922
 21
371.8678090219
 31
0.0
  0
LINE
  5
52C
330
1F
100
AcDbEntity
  8
0
  6
Continuous
 62
     8
370
    30
100
AcDbLine
 10
556.8453782912
 20
292.6622886685
 30
0.0
 11
556.8453782912
 21
369.0811197375
 31
0.0
  0
ARC
  5
52D
330
1F
100
AcDbEntity
  8
0
  6
Continuous
 62
     8
370
    30
100
AcDbCircle
 10
556.6378144475
 20
293.1203991013
 30
0.0
 40
0.5029392784937021
100
AcDbArc
 50
294.3746582936
 51
354.3052007488
  0
ARC
  5
52E
330
1F
100
AcDbEntity
  8
0
  6
Continuous
 62
     8
370
    30
100
AcDbCircle
 10
622.6573525416
 20
214.2874154988
 30
0.0
 40
2.516755706262779
100
AcDbArc
 50
234.3945161212
 51
294.1684089776
  0
LINE
  5
52F
330
1F
100
AcDbEntity
  8
0
  6
Continuous
 62
     8
370
    30
100
AcDbLine
 10
621.1920953792
 20
212.2411797516
 30
0.0
 11
624.4347360663
 21
214.113116375
 31
0.0
  0
LINE
  5
530
330
1F
100
AcDbEntity
  8
0
  6
Continuous
 62
     8
370
    30
100
AcDbLine
 10
624.4347360663
 20
223.4317729174
 30
0.0
 11
583.0083291951
 21
247.34672856
 31
0.0
  0
ARC
  5
531
330
1F
100
AcDbEntity
  8
0
  6
Continuous
 62
     8
370
    30
100
AcDbCircle
 10
583.30124925
 20
246.9378472308
 30
0.0
 40
0.5029772359021436
100
AcDbArc
 50
65.6928809539
 51
125.6175774752
  0
LWPOLYLINE
  5
532
330
1F
100
AcDbEntity
  8
0
  6
Continuous
 62
     8
370
    30
100
AcDbPolyline
 90
        6
 70
   128
 43
0.0
 10
568.487513915
 20
280.6629264376
 10
568.6158562448
 20
280.7370150846
 10
568.7200517313
 20
280.7971605189
 10
568.7960962003
 20
280.8410513854
 10
568.8410673055
 20
280.8670009825
 10
568.8535393181
 20
280.8741887495
  0
LWPOLYLINE
  5
533
330
1F
100
AcDbEntity
  8
0
  6
Continuous
 62
     8
370
    30
100
AcDbPolyline
 90
        6
 70
   128
 43
0.0
 10
578.4372613833
 20
263.4294583506
 10
578.5656037131
 20
263.5035469976
 10
578.6697991996
 20
263.5636924319
 10
578.7458436686
 20
263.6075832983
 10
578.7908147739
 20
263.6335328955
 10
578.8032867864
 20
263.6407206625
  0
ARC
  5
534
330
1F
100
AcDbEntity
  8
0
  6
Continuous
 62
     8
370
    30
100
AcDbCircle
 10
579.2875168131
 20
260.3868594692
 30
0.0
 40
0.4793633568025702
100
AcDbArc
 50
292.7374819117
 51
355.9591188311
  0
ARC
  5
535
330
1F
100
AcDbEntity
  8
0
  6
Continuous
 62
     8
370
    30
100
AcDbCircle
 10
566.280447629
 20
282.8930226902
 30
0.0
 40
0.5030161076875534
100
AcDbArc
 50
65.7073223255
 51
125.6163194129
  0
ARC
  5
536
330
1F
100
AcDbEntity
  8
0
  6
Continuous
 62
     8
370
    30
100
AcDbCircle
 10
579.2652314455
 20
253.9285633318
 30
0.0
 40
0.5029392784938027
100
AcDbArc
 50
294.3746582936
 51
354.3052007488
  0
ARC
  5
537
330
1F
100
AcDbEntity
  8
0
  6
Continuous
 62
     8
370
    30
100
AcDbCircle
 10
560.673832252
 20
286.1296830004
 30
0.0
 40
0.5029772359022816
100
AcDbArc
 50
65.6928809539
 51
125.6175774752
  0
ENDSEC
  0
SECTION
  2
OBJECTS
  0
DICTIONARY
  5
C
330
0
100
AcDbDictionary
281
     1
  3
ACAD_GROUP
350
D
  3
ACAD_LAYOUT
350
1A
  3
ACAD_MLINESTYLE
350
17
  3
ACAD_PLOTSETTINGS
350
19
  3
ACAD_PLOTSTYLENAME
350
E
  3
ACAD_SCALELIST
350
47
  0
DICTIONARY
  5
D
102
{ACAD_REACTORS
330
C
102
}
330
C
100
AcDbDictionary
281
     1
  0
DICTIONARY
  5
1A
102
{ACAD_REACTORS
330
C
102
}
330
C
100
AcDbDictionary
281
     1
  3
Layout1
350
1E
  3
Layout2
350
26
  3
Model
350
22
  0
DICTIONARY
  5
17
102
{ACAD_REACTORS
330
C
102
}
330
C
100
AcDbDictionary
281
     1
  3
Standard
350
18
  0
DICTIONARY
  5
19
102
{ACAD_REACTORS
330
C
102
}
330
C
100
AcDbDictionary
281
     1
  0
ACDBDICTIONARYWDFLT
  5
E
102
{ACAD_REACTORS
330
C
102
}
330
C
100
AcDbDictionary
281
     1
  3
Normal
350
F
100
AcDbDictionaryWithDefault
340
F
  0
DICTIONARY
  5
47
102
{ACAD_REACTORS
330
C
102
}
330
C
100
AcDbDictionary
281
     1
  3
A0
350
48
  3
A1
350
49
  3
A2
350
4A
  3
A3
350
4B
  3
A4
350
4C
  3
A5
350
4D
  3
A6
350
4E
  3
A7
350
4F
  3
A8
350
50
  3
A9
350
51
  3
B0
350
52
  3
B1
350
53
  3
B2
350
54
  3
B3
350
55
  3
B4
350
56
  3
B5
350
57
  3
B6
350
58
  3
B7
350
59
  3
B8
350
5A
  3
B9
350
5B
  3
C0
350
5C
  3
C1
350
5D
  3
C2
350
5E
  3
C3
350
5F
  3
C4
350
60
  3
C5
350
61
  3
C6
350
62
  3
C7
350
63
  3
C8
350
64
  3
C9
350
65
  3
D0
350
66
  3
D1
350
67
  3
D2
350
68
  0
LAYOUT
  5
1E
102
{ACAD_REACTORS
330
1A
102
}
330
1A
100
AcDbPlotSettings
  1

  2
none_device
  4

  6

 40
0.0
 41
0.0
 42
0.0
 43
0.0
 44
0.0
 45
0.0
 46
0.0
 47
0.0
 48
0.0
 49
0.0
140
0.0
141
0.0
142
1.0
143
1.0
 70
   688
 72
     1
 73
     0
 74
     5
  7

 75
    16
147
1.0
148
0.0
149
0.0
100
AcDbLayout
  1
Layout1
 70
     1
 71
     1
 10
0.0
 20
0.0
 11
420.0
 21
297.0
 12
0.0
 22
0.0
 32
0.0
 14
1.0000000000E+20
 24
1.0000000000E+20
 34
1.0000000000E+20
 15
-1.0000000000E+20
 25
-1.0000000000E+20
 35
-1.0000000000E+20
146
0.0
 13
0.0
 23
0.0
 33
0.0
 16
1.0
 26
0.0
 36
0.0
 17
0.0
 27
1.0
 37
0.0
 76
     0
330
1B
  0
LAYOUT
  5
26
102
{ACAD_REACTORS
330
1A
102
}
330
1A
100
AcDbPlotSettings
  1

  2
none_device
  4

  6

 40
0.0
 41
0.0
 42
0.0
 43
0.0
 44
0.0
 45
0.0
 46
0.0
 47
0.0
 48
0.0
 49
0.0
140
0.0
141
0.0
142
1.0
143
1.0
 70
   688
 72
     1
 73
     0
 74
     5
  7

 75
    16
147
1.0
148
0.0
149
0.0
100
AcDbLayout
  1
Layout2
 70
     1
 71
     2
 10
0.0
 20
0.0
 11
0.0
 21
0.0
 12
0.0
 22
0.0
 32
0.0
 14
0.0
 24
0.0
 34
0.0
 15
0.0
 25
0.0
 35
0.0
146
0.0
 13
0.0
 23
0.0
 33
0.0
 16
1.0
 26
0.0
 36
0.0
 17
0.0
 27
1.0
 37
0.0
 76
     0
330
23
  0
LAYOUT
  5
22
102
{ACAD_REACTORS
330
1A
102
}
330
1A
100
AcDbPlotSettings
  1

  2
none_device
  4
Letter_(8.50_x_11.00_Inches)
  6

 40
6.35
 41
6.35
 42
6.35000508
 43
6.35000508
 44
215.9
 45
279.4
 46
0.0
 47
0.0
 48
0.0
 49
0.0
140
0.0
141
0.0
142
1.0
143
1.0
 70
  1712
 72
     1
 73
     0
 74
     0
  7

 75
     0
147
1.0
148
0.0
149
0.0
100
AcDbLayout
  1
Model
 70
     1
 71
     0
 10
0.0
 20
0.0
 11
742.5
 21
525.0
 12
0.0
 22
0.0
 32
0.0
 14
0.0
 24
0.0
 34
0.0
 15
742.5
 25
525.0
 35
0.0
146
0.0
 13
0.0
 23
0.0
 33
0.0
 16
1.0
 26
0.0
 36
0.0
 17
0.0
 27
1.0
 37
0.0
 76
     0
330
1F
331
29
  0
MLINESTYLE
  5
18
102
{ACAD_REACTORS
330
17
102
}
330
17
100
AcDbMlineStyle
  2
Standard
 70
     0
  3

 62
   256
 51
90.0
 52
90.0
 71
     2
 49
0.5
 62
   256
  6
BYLAYER
 49
-0.5
 62
   256
  6
BYLAYER
  0
ACDBPLACEHOLDER
  5
F
102
{ACAD_REACTORS
330
E
102
}
330
E
  0
SCALE
  5
48
102
{ACAD_REACTORS
330
47
102
}
330
47
100
AcDbScale
 70
     0
300
1:1
140
1.0
141
1.0
290
     1
  0
SCALE
  5
49
102
{ACAD_REACTORS
330
47
102
}
330
47
100
AcDbScale
 70
     0
300
1:2
140
1.0
141
2.0
290
     0
  0
SCALE
  5
4A
102
{ACAD_REACTORS
330
47
102
}
330
47
100
AcDbScale
 70
     0
300
1:4
140
1.0
141
4.0
290
     0
  0
SCALE
  5
4B
102
{ACAD_REACTORS
330
47
102
}
330
47
100
AcDbScale
 70
     0
300
1:5
140
1.0
141
5.0
290
     0
  0
SCALE
  5
4C
102
{ACAD_REACTORS
330
47
102
}
330
47
100
AcDbScale
 70
     0
300
1:8
140
1.0
141
8.0
290
     0
  0
SCALE
  5
4D
102
{ACAD_REACTORS
330
47
102
}
330
47
100
AcDbScale
 70
     0
300
1:10
140
1.0
141
10.0
290
     0
  0
SCALE
  5
4E
102
{ACAD_REACTORS
330
47
102
}
330
47
100
AcDbScale
 70
     0
300
1:16
140
1.0
141
16.0
290
     0
  0
SCALE
  5
4F
102
{ACAD_REACTORS
330
47
102
}
330
47
100
AcDbScale
 70
     0
300
1:20
140
1.0
141
20.0
290
     0
  0
SCALE
  5
50
102
{ACAD_REACTORS
330
47
102
}
330
47
100
AcDbScale
 70
     0
300
1:30
140
1.0
141
30.0
290
     0
  0
SCALE
  5
51
102
{ACAD_REACTORS
330
47
102
}
330
47
100
AcDbScale
 70
     0
300
1:40
140
1.0
141
40.0
290
     0
  0
SCALE
  5
52
102
{ACAD_REACTORS
330
47
102
}
330
47
100
AcDbScale
 70
     0
300
1:50
140
1.0
141
50.0
290
     0
  0
SCALE
  5
53
102
{ACAD_REACTORS
330
47
102
}
330
47
100
AcDbScale
 70
     0
300
1:100
140
1.0
141
100.0
290
     0
  0
SCALE
  5
54
102
{ACAD_REACTORS
330
47
102
}
330
47
100
AcDbScale
 70
     0
300
2:1
140
2.0
141
1.0
290
     0
  0
SCALE
  5
55
102
{ACAD_REACTORS
330
47
102
}
330
47
100
AcDbScale
 70
     0
300
4:1
140
4.0
141
1.0
290
     0
  0
SCALE
  5
56
102
{ACAD_REACTORS
330
47
102
}
330
47
100
AcDbScale
 70
     0
300
8:1
140
8.0
141
1.0
290
     0
  0
SCALE
  5
57
102
{ACAD_REACTORS
330
47
102
}
330
47
100
AcDbScale
 70
     0
300
10:1
140
10.0
141
1.0
290
     0
  0
SCALE
  5
58
102
{ACAD_REACTORS
330
47
102
}
330
47
100
AcDbScale
 70
     0
300
100:1
140
100.0
141
1.0
290
     0
  0
SCALE
  5
59
102
{ACAD_REACTORS
330
47
102
}
330
47
100
AcDbScale
 70
     0
300
1/128" = 1'-0"
140
0.0078125
141
12.0
290
     0
  0
SCALE
  5
5A
102
{ACAD_REACTORS
330
47
102
}
330
47
100
AcDbScale
 70
     0
300
1/64" = 1'-0"
140
0.015625
141
12.0
290
     0
  0
SCALE
  5
5B
102
{ACAD_REACTORS
330
47
102
}
330
47
100
AcDbScale
 70
     0
300
1/32" = 1'-0"
140
0.03125
141
12.0
290
     0
  0
SCALE
  5
5C
102
{ACAD_REACTORS
330
47
102
}
330
47
100
AcDbScale
 70
     0
300
1/16" = 1'-0"
140
0.0625
141
12.0
290
     0
  0
SCALE
  5
5D
102
{ACAD_REACTORS
330
47
102
}
330
47
100
AcDbScale
 70
     0
300
3/32" = 1'-0"
140
0.09375
141
12.0
290
     0
  0
SCALE
  5
5E
102
{ACAD_REACTORS
330
47
102
}
330
47
100
AcDbScale
 70
     0
300
1/8" = 1'-0"
140
0.125
141
12.0
290
     0
  0
SCALE
  5
5F
102
{ACAD_REACTORS
330
47
102
}
330
47
100
AcDbScale
 70
     0
300
3/16" = 1'-0"
140
0.1875
141
12.0
290
     0
  0
SCALE
  5
60
102
{ACAD_REACTORS
330
47
102
}
330
47
100
AcDbScale
 70
     0
300
1/4" = 1'-0"
140
0.25
141
12.0
290
     0
  0
SCALE
  5
61
102
{ACAD_REACTORS
330
47
102
}
330
47
100
AcDbScale
 70
     0
300
3/8" = 1'-0"
140
0.375
141
12.0
290
     0
  0
SCALE
  5
62
102
{ACAD_REACTORS
330
47
102
}
330
47
100
AcDbScale
 70
     0
300
1/2" = 1'-0"
140
0.5
141
12.0
290
     0
  0
SCALE
  5
63
102
{ACAD_REACTORS
330
47
102
}
330
47
100
AcDbScale
 70
     0
300
3/4" = 1'-0"
140
0.75
141
12.0
290
     0
  0
SCALE
  5
64
102
{ACAD_REACTORS
330
47
102
}
330
47
100
AcDbScale
 70
     0
300
1" = 1'-0"
140
1.0
141
12.0
290
     0
  0
SCALE
  5
65
102
{ACAD_REACTORS
330
47
102
}
330
47
100
AcDbScale
 70
     0
300
1-1/2" = 1'-0"
140
1.5
141
12.0
290
     0
  0
SCALE
  5
66
102
{ACAD_REACTORS
330
47
102
}
330
47
100
AcDbScale
 70
     0
300
3" = 1'-0"
140
3.0
141
12.0
290
     0
  0
SCALE
  5
67
102
{ACAD_REACTORS
330
47
102
}
330
47
100
AcDbScale
 70
     0
300
6" = 1'-0"
140
6.0
141
12.0
290
     0
  0
SCALE
  5
68
102
{ACAD_REACTORS
330
47
102
}
330
47
100
AcDbScale
 70
     0
300
1'-0" = 1'-0"
140
12.0
141
12.0
290
     0
  0
ENDSEC
  0
EOF
