  0
SECTION
  2
HEADER
  9
$ACADVER
  1
AC1015
  9
$ACADMAINTVER
 70
     6
  9
$DWGCODEPAGE
  3
ANSI_950
  9
$INSBASE
 10
0.0
 20
0.0
 30
0.0
  9
$EXTMIN
 10
0.0
 20
0.0
 30
0.0
  9
$EXTMAX
 10
742.5
 20
525.0
 30
0.0
  9
$LIMMIN
 10
0.0
 20
0.0
  9
$LIMMAX
 10
742.5
 20
525.0
  9
$ORTHOMODE
 70
     0
  9
$REGENMODE
 70
     1
  9
$FILLMODE
 70
     1
  9
$QTEXTMODE
 70
     0
  9
$MIRRTEXT
 70
     1
  9
$LTSCALE
 40
2.5
  9
$ATTMODE
 70
     1
  9
$TEXTSIZE
 40
7.9375
  9
$TRACEWID
 40
1.0
  9
$TEXTSTYLE
  7
Standard
  9
$CLAYER
  8
0
  9
$CELTYPE
  6
ByLayer
  9
$CECOLOR
 62
   256
  9
$CELTSCALE
 40
1.0
  9
$DISPSILH
 70
     0
  9
$DIMSCALE
 40
1.0
  9
$DIMASZ
 40
5.0
  9
$DIMEXO
 40
2.5
  9
$DIMDLI
 40
3.75
  9
$DIMRND
 40
0.0
  9
$DIMDLE
 40
0.0
  9
$DIMEXE
 40
2.5
  9
$DIMTP
 40
0.0
  9
$DIMTM
 40
0.0
  9
$DIMTXT
 40
7.9375
  9
$DIMCEN
 40
2.5
  9
$DIMTSZ
 40
0.0
  9
$DIMTOL
 70
     0
  9
$DIMLIM
 70
     0
  9
$DIMTIH
 70
     1
  9
$DIMTOH
 70
     1
  9
$DIMSE1
 70
     0
  9
$DIMSE2
 70
     0
  9
$DIMTAD
 70
     1
  9
$DIMZIN
 70
     0
  9
$DIMBLK
  1

  9
$DIMASO
 70
     1
  9
$DIMSHO
 70
     1
  9
$DIMPOST
  1

  9
$DIMAPOST
  1

  9
$DIMALT
 70
     0
  9
$DIMALTD
 70
     3
  9
$DIMALTF
 40
0.0393700787
  9
$DIMLFAC
 40
1.0
  9
$DIMTOFL
 70
     1
  9
$DIMTVP
 40
0.0
  9
$DIMTIX
 70
     0
  9
$DIMSOXD
 70
     0
  9
$DIMSAH
 70
     0
  9
$DIMBLK1
  1

  9
$DIMBLK2
  1

  9
$DIMSTYLE
  2
ISO-25
  9
$DIMCLRD
 70
     0
  9
$DIMCLRE
 70
     0
  9
$DIMCLRT
 70
     0
  9
$DIMTFAC
 40
1.0
  9
$DIMGAP
 40
2.5
  9
$DIMJUST
 70
     0
  9
$DIMSD1
 70
     0
  9
$DIMSD2
 70
     0
  9
$DIMTOLJ
 70
     0
  9
$DIMTZIN
 70
     0
  9
$DIMALTZ
 70
     0
  9
$DIMALTTZ
 70
     0
  9
$DIMUPT
 70
     0
  9
$DIMDEC
 70
     2
  9
$DIMTDEC
 70
     2
  9
$DIMALTU
 70
     2
  9
$DIMALTTD
 70
     3
  9
$DIMTXSTY
  7
Standard
  9
$DIMAUNIT
 70
     0
  9
$DIMADEC
 70
     2
  9
$DIMALTRND
 40
0.0
  9
$DIMAZIN
 70
     0
  9
$DIMDSEP
 70
    44
  9
$DIMATFIT
 70
     3
  9
$DIMFRAC
 70
     0
  9
$DIMLDRBLK
  1

  9
$DIMLUNIT
 70
     2
  9
$DIMLWD
 70
    -2
  9
$DIMLWE
 70
    -2
  9
$DIMTMOVE
 70
     0
  9
$LUNITS
 70
     2
  9
$LUPREC
 70
     2
  9
$SKETCHINC
 40
1.0
  9
$FILLETRAD
 40
10.0
  9
$AUNITS
 70
     0
  9
$AUPREC
 70
     2
  9
$MENU
  1
.
  9
$ELEVATION
 40
0.0
  9
$PELEVATION
 40
0.0
  9
$THICKNESS
 40
0.0
  9
$LIMCHECK
 70
     0
  9
$CHAMFERA
 40
0.0
  9
$CHAMFERB
 40
0.0
  9
$CHAMFERC
 40
0.0
  9
$CHAMFERD
 40
0.0
  9
$SKPOLY
 70
     0
  9
$TDCREATE
 40
2458159.391746227
  9
$TDUCREATE
 40
2458159.058412894
  9
$TDUPDATE
 40
2458159.39175544
  9
$TDUUPDATE
 40
2458159.058422106
  9
$TDINDWG
 40
0.0000000116
  9
$TDUSRTIMER
 40
0.0000000116
  9
$USRTIMER
 70
     1
  9
$ANGBASE
 50
0.0
  9
$ANGDIR
 70
     0
  9
$PDMODE
 70
     0
  9
$PDSIZE
 40
-1.0
  9
$PLINEWID
 40
0.0
  9
$SPLFRAME
 70
     0
  9
$SPLINETYPE
 70
     6
  9
$SPLINESEGS
 70
     8
  9
$HANDSEED
  5
5C1
  9
$SURFTAB1
 70
     6
  9
$SURFTAB2
 70
     6
  9
$SURFTYPE
 70
     6
  9
$SURFU
 70
     6
  9
$SURFV
 70
     6
  9
$UCSBASE
  2

  9
$UCSNAME
  2

  9
$UCSORG
 10
0.0
 20
0.0
 30
0.0
  9
$UCSXDIR
 10
1.0
 20
0.0
 30
0.0
  9
$UCSYDIR
 10
0.0
 20
1.0
 30
0.0
  9
$UCSORTHOREF
  2

  9
$UCSORTHOVIEW
 70
     0
  9
$UCSORGTOP
 10
0.0
 20
0.0
 30
0.0
  9
$UCSORGBOTTOM
 10
0.0
 20
0.0
 30
0.0
  9
$UCSORGLEFT
 10
0.0
 20
0.0
 30
0.0
  9
$UCSORGRIGHT
 10
0.0
 20
0.0
 30
0.0
  9
$UCSORGFRONT
 10
0.0
 20
0.0
 30
0.0
  9
$UCSORGBACK
 10
0.0
 20
0.0
 30
0.0
  9
$PUCSBASE
  2

  9
$PUCSNAME
  2

  9
$PUCSORG
 10
0.0
 20
0.0
 30
0.0
  9
$PUCSXDIR
 10
1.0
 20
0.0
 30
0.0
  9
$PUCSYDIR
 10
0.0
 20
1.0
 30
0.0
  9
$PUCSORTHOREF
  2

  9
$PUCSORTHOVIEW
 70
     0
  9
$PUCSORGTOP
 10
0.0
 20
0.0
 30
0.0
  9
$PUCSORGBOTTOM
 10
0.0
 20
0.0
 30
0.0
  9
$PUCSORGLEFT
 10
0.0
 20
0.0
 30
0.0
  9
$PUCSORGRIGHT
 10
0.0
 20
0.0
 30
0.0
  9
$PUCSORGFRONT
 10
0.0
 20
0.0
 30
0.0
  9
$PUCSORGBACK
 10
0.0
 20
0.0
 30
0.0
  9
$USERI1
 70
     0
  9
$USERI2
 70
     0
  9
$USERI3
 70
     0
  9
$USERI4
 70
     0
  9
$USERI5
 70
     0
  9
$USERR1
 40
0.0
  9
$USERR2
 40
0.0
  9
$USERR3
 40
0.0
  9
$USERR4
 40
0.0
  9
$USERR5
 40
0.0
  9
$WORLDVIEW
 70
     1
  9
$SHADEDGE
 70
     3
  9
$SHADEDIF
 70
    70
  9
$TILEMODE
 70
     1
  9
$MAXACTVP
 70
    64
  9
$PINSBASE
 10
0.0
 20
0.0
 30
0.0
  9
$PLIMCHECK
 70
     0
  9
$PEXTMIN
 10
1.0000000000E+20
 20
1.0000000000E+20
 30
1.0000000000E+20
  9
$PEXTMAX
 10
-1.0000000000E+20
 20
-1.0000000000E+20
 30
-1.0000000000E+20
  9
$PLIMMIN
 10
0.0
 20
0.0
  9
$PLIMMAX
 10
420.0
 20
297.0
  9
$UNITMODE
 70
     0
  9
$VISRETAIN
 70
     1
  9
$PLINEGEN
 70
     0
  9
$PSLTSCALE
 70
     1
  9
$TREEDEPTH
 70
  3020
  9
$CMLSTYLE
  2
Standard
  9
$CMLJUST
 70
     0
  9
$CMLSCALE
 40
20.0
  9
$PROXYGRAPHICS
 70
     1
  9
$MEASUREMENT
 70
     1
  9
$CELWEIGHT
370
    -1
  9
$ENDCAPS
280
     0
  9
$JOINSTYLE
280
     0
  9
$LWDISPLAY
290
     1
  9
$INSUNITS
 70
     4
  9
$HYPERLINKBASE
  1

  9
$STYLESHEET
  1

  9
$XEDIT
290
     1
  9
$CEPSNTYPE
380
     0
  9
$PSTYLEMODE
290
     1
  9
$FINGERPRINTGUID
  2
{AE0F7C0B-0656-4BAA-8BF3-332AAAB6DADA}
  9
$VERSIONGUID
  2
{FAEB1C32-E019-11D5-929B-00C0DF256EC4}
  9
$EXTNAMES
290
     1
  9
$PSVPSCALE
 40
0.0
  9
$OLESTARTUP
290
     0
  0
ENDSEC
  0
SECTION
  2
CLASSES
  0
CLASS
  1
ACDBDICTIONARYWDFLT
  2
AcDbDictionaryWithDefault
  3
ObjectDBX Classes
 90
        0
280
     0
281
     0
  0
CLASS
  1
VISUALSTYLE
  2
AcDbVisualStyle
  3
ObjectDBX Classes
 90
     4095
280
     0
281
     0
  0
CLASS
  1
MATERIAL
  2
AcDbMaterial
  3
ObjectDBX Classes
 90
     1153
280
     0
281
     0
  0
CLASS
  1
SCALE
  2
AcDbScale
  3
ObjectDBX Classes
 90
     1153
280
     0
281
     0
  0
CLASS
  1
TABLESTYLE
  2
AcDbTableStyle
  3
ObjectDBX Classes
 90
     4095
280
     0
281
     0
  0
CLASS
  1
MLEADERSTYLE
  2
AcDbMLeaderStyle
  3
ACDB_MLEADERSTYLE_CLASS
 90
     4095
280
     0
281
     0
  0
CLASS
  1
SUN
  2
AcDbSun
  3
SCENEOE
 90
     1153
280
     0
281
     0
  0
CLASS
  1
ACDBPLACEHOLDER
  2
AcDbPlaceHolder
  3
ObjectDBX Classes
 90
        0
280
     0
281
     0
  0
CLASS
  1
LAYOUT
  2
AcDbLayout
  3
ObjectDBX Classes
 90
        0
280
     0
281
     0
  0
ENDSEC
  0
SECTION
  2
TABLES
  0
TABLE
  2
VPORT
  5
8
330
0
100
AcDbSymbolTable
 70
     1
  0
VPORT
  5
29
330
8
100
AcDbSymbolTableRecord
100
AcDbViewportTableRecord
  2
*Active
 70
     0
 10
0.0
 20
0.0
 11
1.0
 21
1.0
 12
371.25
 22
262.5
 13
0.0
 23
0.0
 14
10.0
 24
10.0
 15
10.0
 25
10.0
 16
0.0
 26
0.0
 36
1.0
 17
0.0
 27
0.0
 37
0.0
 40
525.0
 41
1.4142857143
 42
50.0
 43
0.0
 44
0.0
 50
0.0
 51
0.0
 71
     0
 72
  2000
 73
     1
 74
     3
 75
     0
 76
     0
 77
     0
 78
     0
281
     0
 65
     1
110
0.0
120
0.0
130
0.0
111
1.0
121
0.0
131
0.0
112
0.0
122
1.0
132
0.0
 79
     0
146
0.0
  0
ENDTAB
  0
TABLE
  2
LTYPE
  5
5
330
0
100
AcDbSymbolTable
 70
     6
  0
LTYPE
  5
14
330
5
100
AcDbSymbolTableRecord
100
AcDbLinetypeTableRecord
  2
ByBlock
 70
     0
  3

 72
    65
 73
     0
 40
0.0
  0
LTYPE
  5
15
330
5
100
AcDbSymbolTableRecord
100
AcDbLinetypeTableRecord
  2
ByLayer
 70
     0
  3

 72
    65
 73
     0
 40
0.0
  0
LTYPE
  5
16
330
5
100
AcDbSymbolTableRecord
100
AcDbLinetypeTableRecord
  2
Continuous
 70
     0
  3
Solid line
 72
    65
 73
     0
 40
0.0
  0
LTYPE
  5
6E
330
5
100
AcDbSymbolTableRecord
100
AcDbLinetypeTableRecord
  2
HIDDEN
 70
     0
  3
Hidden __ __ __ __ __ __ __ __ __ __ __ __ __ __
 72
    65
 73
     2
 40
1.905
 49
1.27
 74
     0
 49
-0.635
 74
     0
  0
LTYPE
  5
6F
330
5
100
AcDbSymbolTableRecord
100
AcDbLinetypeTableRecord
  2
PHANTOM
 70
     0
  3
Phantom ______  __  __  ______  __  __  ______
 72
    65
 73
     6
 40
12.7
 49
6.35
 74
     0
 49
-1.27
 74
     0
 49
1.27
 74
     0
 49
-1.27
 74
     0
 49
1.27
 74
     0
 49
-1.27
 74
     0
  0
LTYPE
  5
70
330
5
100
AcDbSymbolTableRecord
100
AcDbLinetypeTableRecord
  2
CENTER
 70
     0
  3
Center ____ _ ____ _ ____ _ ____ _ ____ _ ____
 72
    65
 73
     4
 40
10.16
 49
6.35
 74
     0
 49
-1.27
 74
     0
 49
1.27
 74
     0
 49
-1.27
 74
     0
  0
LTYPE
  5
71
330
5
100
AcDbSymbolTableRecord
100
AcDbLinetypeTableRecord
  2
CENTERX2
 70
     0
  3
Center (2x) ________  __  ________  __  _____
 72
    65
 73
     4
 40
20.32
 49
12.7
 74
     0
 49
-2.54
 74
     0
 49
2.54
 74
     0
 49
-2.54
 74
     0
  0
LTYPE
  5
72
330
5
100
AcDbSymbolTableRecord
100
AcDbLinetypeTableRecord
  2
DOT2
 70
     0
  3
Dot (.5x) ........................................
 72
    65
 73
     2
 40
0.635
 49
0.0
 74
     0
 49
-0.635
 74
     0
  0
ENDTAB
  0
TABLE
  2
LAYER
  5
2
330
0
100
AcDbSymbolTable
 70
    10
  0
LAYER
  5
10
330
2
100
AcDbSymbolTableRecord
100
AcDbLayerTableRecord
  2
0
 70
     0
 62
     7
  6
Continuous
370
    -3
390
F
  0
LAYER
  5
73
330
2
100
AcDbSymbolTableRecord
100
AcDbLayerTableRecord
  2
SLD-0
 70
     0
 62
     7
  6
Continuous
370
    15
390
F
  0
LAYER
  5
74
330
2
100
AcDbSymbolTableRecord
100
AcDbLayerTableRecord
  2
輪廓線
 70
     0
 62
   219
  6
Continuous
370
    15
390
F
  0
LAYER
  5
75
330
2
100
AcDbSymbolTableRecord
100
AcDbLayerTableRecord
  2
DIM
 70
     0
 62
     7
  6
Continuous
370
    -3
390
F
  0
LAYER
  5
76
330
2
100
AcDbSymbolTableRecord
100
AcDbLayerTableRecord
  2
中心線
 70
     0
 62
     7
  6
CENTERX2
370
    -3
390
F
  0
LAYER
  5
77
330
2
100
AcDbSymbolTableRecord
100
AcDbLayerTableRecord
  2
虛線
 70
     0
 62
     7
  6
HIDDEN
370
    -3
390
F
  0
LAYER
  5
78
330
2
100
AcDbSymbolTableRecord
100
AcDbLayerTableRecord
  2
SECTION
 70
     0
 62
     7
  6
PHANTOM
370
    15
390
F
  0
LAYER
  5
79
330
2
100
AcDbSymbolTableRecord
100
AcDbLayerTableRecord
  2
假想線
 70
     0
 62
     7
  6
PHANTOM
370
    -3
390
F
  0
LAYER
  5
7A
330
2
100
AcDbSymbolTableRecord
100
AcDbLayerTableRecord
  2
圖層_1
 70
     0
 62
   179
  6
Continuous
370
    -3
390
F
  0
LAYER
  5
7B
330
2
100
AcDbSymbolTableRecord
100
AcDbLayerTableRecord
  2
工作區域參考線
 70
     0
 62
   179
  6
Continuous
370
    -3
390
F
  0
ENDTAB
  0
TABLE
  2
STYLE
  5
3
330
0
100
AcDbSymbolTable
 70
     3
  0
STYLE
  5
11
330
3
100
AcDbSymbolTableRecord
100
AcDbTextStyleTableRecord
  2
Standard
 70
     0
 40
0.0
 41
1.0
 50
0.0
 71
     0
 42
7.9375
  3
txt
  4

  0
STYLE
  5
CC
330
3
100
AcDbSymbolTableRecord
100
AcDbTextStyleTableRecord
  2
SLDTEXTSTYLE0
 70
     0
 40
0.0
 41
0.605
 50
0.0
 71
     0
 42
7.9375
  3
TXT
  4

  0
STYLE
  5
103
330
3
100
AcDbSymbolTableRecord
100
AcDbTextStyleTableRecord
  2
SLDTEXTSTYLE1
 70
     0
 40
0.0
 41
0.7
 50
0.0
 71
     0
 42
7.9375
  3
TXT
  4

  0
ENDTAB
  0
TABLE
  2
VIEW
  5
6
330
0
100
AcDbSymbolTable
 70
     0
  0
ENDTAB
  0
TABLE
  2
UCS
  5
7
330
0
100
AcDbSymbolTable
 70
     0
  0
ENDTAB
  0
TABLE
  2
APPID
  5
9
330
0
100
AcDbSymbolTable
 70
     1
  0
APPID
  5
12
330
9
100
AcDbSymbolTableRecord
100
AcDbRegAppTableRecord
  2
ACAD
 70
     0
  0
ENDTAB
  0
TABLE
  2
DIMSTYLE
  5
A
330
0
100
AcDbSymbolTable
 70
     5
100
AcDbDimStyleTable
  0
DIMSTYLE
105
27
330
A
100
AcDbSymbolTableRecord
100
AcDbDimStyleTableRecord
  2
ISO-25
 70
     0
 41
2.5
 42
0.625
 43
3.75
 44
1.25
 73
     0
 74
     0
 77
     1
 78
     8
140
2.5
141
2.5
143
0.0393700787
147
0.625
171
     3
172
     1
178
     0
271
     2
272
     2
274
     3
278
    44
283
     0
284
     8
340
11
  0
DIMSTYLE
105
1E6
102
{ACAD_REACTORS
330
1E5
330
1F0
330
1FA
330
228
330
232
330
2E4
330
2FA
330
310
330
326
330
33C
330
346
330
350
330
35A
330
419
330
43B
330
451
330
4FC
102
}
330
A
100
AcDbSymbolTableRecord
100
AcDbDimStyleTableRecord
  2
SLDDIMSTYLE0
 70
     0
 41
5.0
 44
0.0
 45
0.000000001
 73
     0
 74
     0
 77
     1
 78
    12
 79
     3
140
6.3562011719
147
1.589050293
173
     1
178
     0
271
     2
272
     2
276
     2
284
    12
340
103
  0
DIMSTYLE
105
205
102
{ACAD_REACTORS
330
204
102
}
330
A
100
AcDbSymbolTableRecord
100
AcDbDimStyleTableRecord
  2
SLDDIMSTYLE1
 70
     0
 41
5.0
 44
0.0
 73
     0
 74
     0
 77
     1
 78
    12
 79
     3
140
6.3562011719
144
2.5
147
1.589050293
173
     1
178
     0
179
     2
272
     2
276
     2
284
    12
340
103
  0
DIMSTYLE
105
210
102
{ACAD_REACTORS
330
20F
330
21C
330
278
330
284
330
290
330
2EE
330
304
330
31A
330
330
330
364
330
423
330
42F
330
445
330
45B
330
4E4
330
4F0
102
}
330
A
100
AcDbSymbolTableRecord
100
AcDbDimStyleTableRecord
  2
SLDDIMSTYLE2
 70
     0
 41
5.0
 44
0.0
 45
0.000000001
 73
     0
 74
     0
 77
     1
 78
    12
 79
     3
140
6.3562011719
147
1.589050293
172
     1
173
     1
178
     0
271
     2
272
     2
276
     2
284
    12
289
     0
340
103
  0
DIMSTYLE
105
243
330
A
100
AcDbSymbolTableRecord
100
AcDbDimStyleTableRecord
  2
SLDDIMSTYLE3
 70
     0
 41
5.0
 44
0.0
 45
0.000000001
146
5.0
147
0.0
173
     1
178
     0
271
     0
272
     0
276
     2
340
11
  0
ENDTAB
  0
TABLE
  2
BLOCK_RECORD
  5
1
330
0
100
AcDbSymbolTable
 70
    63
  0
BLOCK_RECORD
  5
1F
330
1
100
AcDbSymbolTableRecord
100
AcDbBlockTableRecord
  2
*Model_Space
340
22
  0
BLOCK_RECORD
  5
1B
330
1
100
AcDbSymbolTableRecord
100
AcDbBlockTableRecord
  2
*Paper_Space
340
1E
  0
BLOCK_RECORD
  5
23
330
1
100
AcDbSymbolTableRecord
100
AcDbBlockTableRecord
  2
*Paper_Space0
340
26
  0
BLOCK_RECORD
  5
7C
330
1
100
AcDbSymbolTableRecord
100
AcDbBlockTableRecord
  2
圖塊6
340
0
102
{BLKREFS
331
CB
102
}
  0
BLOCK_RECORD
  5
CE
330
1
100
AcDbSymbolTableRecord
100
AcDbBlockTableRecord
  2
SW_NOTE_0
340
0
102
{BLKREFS
331
D4
102
}
  0
BLOCK_RECORD
  5
105
330
1
100
AcDbSymbolTableRecord
100
AcDbBlockTableRecord
  2
SW_NOTE_1
340
0
102
{BLKREFS
331
10A
102
}
  0
BLOCK_RECORD
  5
1E7
330
1
100
AcDbSymbolTableRecord
100
AcDbBlockTableRecord
  2
_D
340
0
  0
BLOCK_RECORD
  5
1F1
330
1
100
AcDbSymbolTableRecord
100
AcDbBlockTableRecord
  2
_D_1
340
0
  0
BLOCK_RECORD
  5
1FB
330
1
100
AcDbSymbolTableRecord
100
AcDbBlockTableRecord
  2
_D_2
340
0
  0
BLOCK_RECORD
  5
206
330
1
100
AcDbSymbolTableRecord
100
AcDbBlockTableRecord
  2
_D_3
340
0
  0
BLOCK_RECORD
  5
211
330
1
100
AcDbSymbolTableRecord
100
AcDbBlockTableRecord
  2
_D_4
340
0
  0
BLOCK_RECORD
  5
21D
330
1
100
AcDbSymbolTableRecord
100
AcDbBlockTableRecord
  2
_D_5
340
0
  0
BLOCK_RECORD
  5
229
330
1
100
AcDbSymbolTableRecord
100
AcDbBlockTableRecord
  2
_D_6
340
0
  0
BLOCK_RECORD
  5
233
330
1
100
AcDbSymbolTableRecord
100
AcDbBlockTableRecord
  2
_D_7
340
0
  0
BLOCK_RECORD
  5
23C
330
1
100
AcDbSymbolTableRecord
100
AcDbBlockTableRecord
  2
SW_NOTE_2
340
0
102
{BLKREFS
331
242
102
}
  0
BLOCK_RECORD
  5
245
330
1
100
AcDbSymbolTableRecord
100
AcDbBlockTableRecord
  2
SW_NOTE_3
340
0
102
{BLKREFS
331
24B
102
}
  0
BLOCK_RECORD
  5
279
330
1
100
AcDbSymbolTableRecord
100
AcDbBlockTableRecord
  2
_D_8
340
0
  0
BLOCK_RECORD
  5
285
330
1
100
AcDbSymbolTableRecord
100
AcDbBlockTableRecord
  2
_D_9
340
0
  0
BLOCK_RECORD
  5
291
330
1
100
AcDbSymbolTableRecord
100
AcDbBlockTableRecord
  2
_D_10
340
0
  0
BLOCK_RECORD
  5
29C
330
1
100
AcDbSymbolTableRecord
100
AcDbBlockTableRecord
  2
SW_NOTE_4
340
0
102
{BLKREFS
331
2A2
102
}
  0
BLOCK_RECORD
  5
2A4
330
1
100
AcDbSymbolTableRecord
100
AcDbBlockTableRecord
  2
SW_CENTERMARKSYMBOL_0
340
0
102
{BLKREFS
331
2AF
102
}
  0
BLOCK_RECORD
  5
2B0
330
1
100
AcDbSymbolTableRecord
100
AcDbBlockTableRecord
  2
SW_CENTERMARKSYMBOL_1
340
0
102
{BLKREFS
331
2BB
102
}
  0
BLOCK_RECORD
  5
2E5
330
1
100
AcDbSymbolTableRecord
100
AcDbBlockTableRecord
  2
_D_11
340
0
  0
BLOCK_RECORD
  5
2EF
330
1
100
AcDbSymbolTableRecord
100
AcDbBlockTableRecord
  2
_D_12
340
0
  0
BLOCK_RECORD
  5
2FB
330
1
100
AcDbSymbolTableRecord
100
AcDbBlockTableRecord
  2
_D_13
340
0
  0
BLOCK_RECORD
  5
305
330
1
100
AcDbSymbolTableRecord
100
AcDbBlockTableRecord
  2
_D_14
340
0
  0
BLOCK_RECORD
  5
311
330
1
100
AcDbSymbolTableRecord
100
AcDbBlockTableRecord
  2
_D_15
340
0
  0
BLOCK_RECORD
  5
31B
330
1
100
AcDbSymbolTableRecord
100
AcDbBlockTableRecord
  2
_D_16
340
0
  0
BLOCK_RECORD
  5
327
330
1
100
AcDbSymbolTableRecord
100
AcDbBlockTableRecord
  2
_D_17
340
0
  0
BLOCK_RECORD
  5
331
330
1
100
AcDbSymbolTableRecord
100
AcDbBlockTableRecord
  2
_D_18
340
0
  0
BLOCK_RECORD
  5
33D
330
1
100
AcDbSymbolTableRecord
100
AcDbBlockTableRecord
  2
_D_19
340
0
  0
BLOCK_RECORD
  5
347
330
1
100
AcDbSymbolTableRecord
100
AcDbBlockTableRecord
  2
_D_20
340
0
  0
BLOCK_RECORD
  5
351
330
1
100
AcDbSymbolTableRecord
100
AcDbBlockTableRecord
  2
_D_21
340
0
  0
BLOCK_RECORD
  5
35B
330
1
100
AcDbSymbolTableRecord
100
AcDbBlockTableRecord
  2
_D_22
340
0
  0
BLOCK_RECORD
  5
365
330
1
100
AcDbSymbolTableRecord
100
AcDbBlockTableRecord
  2
_D_23
340
0
  0
BLOCK_RECORD
  5
370
330
1
100
AcDbSymbolTableRecord
100
AcDbBlockTableRecord
  2
SW_NOTE_5
340
0
102
{BLKREFS
331
376
102
}
  0
BLOCK_RECORD
  5
378
330
1
100
AcDbSymbolTableRecord
100
AcDbBlockTableRecord
  2
SW_NOTE_6
340
0
102
{BLKREFS
331
37E
102
}
  0
BLOCK_RECORD
  5
380
330
1
100
AcDbSymbolTableRecord
100
AcDbBlockTableRecord
  2
SW_CENTERMARKSYMBOL_2
340
0
102
{BLKREFS
331
38B
102
}
  0
BLOCK_RECORD
  5
38C
330
1
100
AcDbSymbolTableRecord
100
AcDbBlockTableRecord
  2
SW_CENTERMARKSYMBOL_3
340
0
102
{BLKREFS
331
39F
102
}
  0
BLOCK_RECORD
  5
3A0
330
1
100
AcDbSymbolTableRecord
100
AcDbBlockTableRecord
  2
SW_CENTERMARKSYMBOL_4
340
0
102
{BLKREFS
331
3B3
102
}
  0
BLOCK_RECORD
  5
3B4
330
1
100
AcDbSymbolTableRecord
100
AcDbBlockTableRecord
  2
SW_CENTERMARKSYMBOL_5
340
0
102
{BLKREFS
331
3C7
102
}
  0
BLOCK_RECORD
  5
3C8
330
1
100
AcDbSymbolTableRecord
100
AcDbBlockTableRecord
  2
SW_CENTERMARKSYMBOL_6
340
0
102
{BLKREFS
331
3DB
102
}
  0
BLOCK_RECORD
  5
3DC
330
1
100
AcDbSymbolTableRecord
100
AcDbBlockTableRecord
  2
SW_CENTERMARKSYMBOL_7
340
0
102
{BLKREFS
331
3E7
102
}
  0
BLOCK_RECORD
  5
3E8
330
1
100
AcDbSymbolTableRecord
100
AcDbBlockTableRecord
  2
SW_CENTERMARKSYMBOL_8
340
0
102
{BLKREFS
331
3F3
102
}
  0
BLOCK_RECORD
  5
3F4
330
1
100
AcDbSymbolTableRecord
100
AcDbBlockTableRecord
  2
SW_CENTERMARKSYMBOL_9
340
0
102
{BLKREFS
331
3FF
102
}
  0
BLOCK_RECORD
  5
41A
330
1
100
AcDbSymbolTableRecord
100
AcDbBlockTableRecord
  2
_D_24
340
0
  0
BLOCK_RECORD
  5
424
330
1
100
AcDbSymbolTableRecord
100
AcDbBlockTableRecord
  2
_D_25
340
0
  0
BLOCK_RECORD
  5
430
330
1
100
AcDbSymbolTableRecord
100
AcDbBlockTableRecord
  2
_D_26
340
0
  0
BLOCK_RECORD
  5
43C
330
1
100
AcDbSymbolTableRecord
100
AcDbBlockTableRecord
  2
_D_27
340
0
  0
BLOCK_RECORD
  5
446
330
1
100
AcDbSymbolTableRecord
100
AcDbBlockTableRecord
  2
_D_28
340
0
  0
BLOCK_RECORD
  5
452
330
1
100
AcDbSymbolTableRecord
100
AcDbBlockTableRecord
  2
_D_29
340
0
  0
BLOCK_RECORD
  5
45C
330
1
100
AcDbSymbolTableRecord
100
AcDbBlockTableRecord
  2
_D_30
340
0
  0
BLOCK_RECORD
  5
467
330
1
100
AcDbSymbolTableRecord
100
AcDbBlockTableRecord
  2
SW_NOTE_7
340
0
102
{BLKREFS
331
46D
102
}
  0
BLOCK_RECORD
  5
46F
330
1
100
AcDbSymbolTableRecord
100
AcDbBlockTableRecord
  2
SW_NOTE_8
340
0
102
{BLKREFS
331
475
102
}
  0
BLOCK_RECORD
  5
477
330
1
100
AcDbSymbolTableRecord
100
AcDbBlockTableRecord
  2
SW_CENTERMARKSYMBOL_10
340
0
102
{BLKREFS
331
482
102
}
  0
BLOCK_RECORD
  5
483
330
1
100
AcDbSymbolTableRecord
100
AcDbBlockTableRecord
  2
SW_CENTERMARKSYMBOL_11
340
0
102
{BLKREFS
331
48E
102
}
  0
BLOCK_RECORD
  5
48F
330
1
100
AcDbSymbolTableRecord
100
AcDbBlockTableRecord
  2
SW_CENTERMARKSYMBOL_12
340
0
102
{BLKREFS
331
49A
102
}
  0
BLOCK_RECORD
  5
49B
330
1
100
AcDbSymbolTableRecord
100
AcDbBlockTableRecord
  2
SW_CENTERMARKSYMBOL_13
340
0
102
{BLKREFS
331
4A6
102
}
  0
BLOCK_RECORD
  5
4A7
330
1
100
AcDbSymbolTableRecord
100
AcDbBlockTableRecord
  2
SW_CENTERMARKSYMBOL_14
340
0
102
{BLKREFS
331
4B2
102
}
  0
BLOCK_RECORD
  5
4B3
330
1
100
AcDbSymbolTableRecord
100
AcDbBlockTableRecord
  2
SW_CENTERMARKSYMBOL_15
340
0
102
{BLKREFS
331
4BE
102
}
  0
BLOCK_RECORD
  5
4E5
330
1
100
AcDbSymbolTableRecord
100
AcDbBlockTableRecord
  2
_D_31
340
0
  0
BLOCK_RECORD
  5
4F1
330
1
100
AcDbSymbolTableRecord
100
AcDbBlockTableRecord
  2
_D_32
340
0
  0
BLOCK_RECORD
  5
4FD
330
1
100
AcDbSymbolTableRecord
100
AcDbBlockTableRecord
  2
_D_33
340
0
  0
BLOCK_RECORD
  5
506
330
1
100
AcDbSymbolTableRecord
100
AcDbBlockTableRecord
  2
SW_NOTE_9
340
0
102
{BLKREFS
331
50B
102
}
  0
BLOCK_RECORD
  5
50D
330
1
100
AcDbSymbolTableRecord
100
AcDbBlockTableRecord
  2
SW_CENTERMARKSYMBOL_16
340
0
102
{BLKREFS
331
518
102
}
  0
ENDTAB
  0
ENDSEC
  0
SECTION
  2
BLOCKS
  0
BLOCK
  5
20
330
1F
100
AcDbEntity
  8
0
100
AcDbBlockBegin
  2
*Model_Space
 70
     0
 10
0.0
 20
0.0
 30
0.0
  3
*Model_Space
  1

  0
ENDBLK
  5
21
330
1F
100
AcDbEntity
  8
0
100
AcDbBlockEnd
  0
BLOCK
  5
1C
330
1B
100
AcDbEntity
 67
     1
  8
0
100
AcDbBlockBegin
  2
*Paper_Space
 70
     0
 10
0.0
 20
0.0
 30
0.0
  3
*Paper_Space
  1

  0
ENDBLK
  5
1D
330
1B
100
AcDbEntity
 67
     1
  8
0
100
AcDbBlockEnd
  0
BLOCK
  5
24
330
23
100
AcDbEntity
  8
0
100
AcDbBlockBegin
  2
*Paper_Space0
 70
     0
 10
0.0
 20
0.0
 30
0.0
  3
*Paper_Space0
  1

  0
ENDBLK
  5
25
330
23
100
AcDbEntity
  8
0
100
AcDbBlockEnd
  0
BLOCK
  5
7D
330
7C
100
AcDbEntity
  8
0
100
AcDbBlockBegin
  2
圖塊6
 70
     0
 10
0.0
 20
0.0
 30
0.0
  3
圖塊6
  1

  0
ARC
  5
7F
330
7C
100
AcDbEntity
  8
圖層_1
 62
     7
370
    30
100
AcDbCircle
 10
3.8253860849
 20
15.2551707228
 30
0.0
 40
3.825386084859177
100
AcDbArc
 50
130.2115225915
 51
228.588904108
  0
ARC
  5
80
330
7C
100
AcDbEntity
  8
圖層_1
 62
     7
370
    30
100
AcDbCircle
 10
12.1272839953
 20
14.9873636037
 30
0.0
 40
6.443338567044052
100
AcDbArc
 50
140.4331765613
 51
251.0865666567
  0
ARC
  5
81
330
7C
100
AcDbEntity
  8
圖層_1
 62
     7
370
    30
100
AcDbCircle
 10
12.9412604956
 20
15.7793899282
 30
0.0
 40
7.474091644424656
100
AcDbArc
 50
247.1485306747
 51
309.6030773927
  0
LINE
  5
82
330
7C
100
AcDbEntity
  8
圖層_1
 62
     7
370
    30
100
AcDbLine
 10
4.6222443172
 20
21.3304564959
 30
0.0
 11
1.35567368
 21
18.1764888047
 31
0.0
  0
LINE
  5
83
330
7C
100
AcDbEntity
  8
圖層_1
 62
     7
370
    30
100
AcDbLine
 10
1.2950572249
 20
12.3861962442
 30
0.0
 11
11.3180630004
 21
3.6746866436
 31
0.0
  0
LINE
  5
84
330
7C
100
AcDbEntity
  8
圖層_1
 62
     7
370
    30
100
AcDbLine
 10
11.3180630004
 20
3.6746866436
 30
0.0
 11
9.7404331993
 21
2.1349356674
 31
0.0
  0
LINE
  5
85
330
7C
100
AcDbEntity
  8
圖層_1
 62
     7
370
    30
100
AcDbLine
 10
9.7404331993
 20
2.1349356674
 30
0.0
 11
12.2201316112
 21
0.0
 31
0.0
  0
LINE
  5
86
330
7C
100
AcDbEntity
  8
圖層_1
 62
     7
370
    30
100
AcDbLine
 10
20.2442926971
 20
7.7914449138
 30
0.0
 11
17.7057351179
 21
10.0207592331
 31
0.0
  0
LINE
  5
87
330
7C
100
AcDbEntity
  8
圖層_1
 62
     7
370
    30
100
AcDbLine
 10
7.1602289357
 20
19.0916267439
 30
0.0
 11
4.6222443172
 21
21.3304564959
 31
0.0
  0
LINE
  5
88
330
7C
100
AcDbEntity
  8
圖層_1
 62
     7
370
    30
100
AcDbLine
 10
12.2201316112
 20
0.0
 30
0.0
 11
20.2442926971
 21
7.7914449138
 31
0.0
  0
ENDBLK
  5
7E
330
7C
100
AcDbEntity
  8
0
100
AcDbBlockEnd
  0
BLOCK
  5
CF
330
CE
100
AcDbEntity
  8
0
100
AcDbBlockBegin
  2
SW_NOTE_0
 70
     0
 10
0.0
 20
0.0
 30
0.0
  3
SW_NOTE_0
  1

  0
MTEXT
  5
D1
330
CE
100
AcDbEntity
  8
0
  6
Continuous
 62
     0
370
     0
100
AcDbMText
 10
0.0
 20
8.526645987
 30
0.0
 40
6.6145833333
 41
0.0
 71
     1
 72
     1
  1
PROPRIETARY AND CONFIDENTIAL
  7
SLDTEXTSTYLE0
 73
     1
 44
1.0
  0
MTEXT
  5
D2
330
CE
100
AcDbEntity
  8
0
  6
Continuous
 62
     0
370
     0
100
AcDbMText
 10
0.0
 20
-0.2049587001
 30
0.0
 40
4.6302083333
 41
0.0
 71
     1
 72
     1
  1
THE INFORMATION CONTAINED IN THIS DRAWING IS THE SOLE PROPERTY OF UNICE E-O SERVICES INC. ANY REPRODUCTION IN PART OR AS A WHOLE WITHOUT THE WRITTEN PERMISSION OF UNICE E-O SERVICES INC IS
  7
SLDTEXTSTYLE0
 73
     1
 44
1.0
  0
MTEXT
  5
D3
330
CE
100
AcDbEntity
  8
0
  6
Continuous
 62
     0
370
     0
100
AcDbMText
 10
0.0
 20
-6.3785697366
 30
0.0
 40
4.6302083333
 41
0.0
 71
     1
 72
     1
  1
PROHIBITED.
  7
SLDTEXTSTYLE0
 73
     1
 44
1.0
  0
ENDBLK
  5
D0
330
CE
100
AcDbEntity
  8
0
100
AcDbBlockEnd
  0
BLOCK
  5
106
330
105
100
AcDbEntity
  8
0
100
AcDbBlockBegin
  2
SW_NOTE_1
 70
     0
 10
0.0
 20
0.0
 30
0.0
  3
SW_NOTE_1
  1

  0
MTEXT
  5
108
330
105
100
AcDbEntity
  8
SLD-0
 62
     0
100
AcDbMText
 10
0.0
 20
5.1159875922
 30
0.0
 40
3.96875
 41
0.0
 71
     1
 72
     1
  1
No.5, Andong Rd., Chung Li District,
  7
SLDTEXTSTYLE0
 73
     1
 44
1.0
  0
MTEXT
  5
109
330
105
100
AcDbEntity
  8
SLD-0
 62
     0
100
AcDbMText
 10
0.0
 20
-0.1756790105
 30
0.0
 40
3.96875
 41
0.0
 71
     1
 72
     1
  1
Taoyuan City 32063, Taiwan, R.O.C.
  7
SLDTEXTSTYLE0
 73
     1
 44
1.0
  0
ENDBLK
  5
107
330
105
100
AcDbEntity
  8
0
100
AcDbBlockEnd
  0
BLOCK
  5
1E8
330
1E7
100
AcDbEntity
  8
0
100
AcDbBlockBegin
  2
_D
 70
     0
 10
0.0
 20
0.0
 30
0.0
  3
_D
  1

  0
SOLID
  5
1EA
330
1E7
100
AcDbEntity
  8
DIM
100
AcDbTrace
 10
221.9240627414
 20
381.0026670881
 30
0.0
 11
216.9240627414
 21
381.6276670881
 31
0.0
 12
216.9240627414
 22
380.3776670881
 32
0.0
 13
216.9240627414
 23
380.3776670881
 33
0.0
  0
SOLID
  5
1EB
330
1E7
100
AcDbEntity
  8
DIM
100
AcDbTrace
 10
186.9240627414
 20
381.0026670881
 30
0.0
 11
191.9240627414
 21
380.3776670881
 31
0.0
 12
191.9240627414
 22
381.6276670881
 32
0.0
 13
191.9240627414
 23
381.6276670881
 33
0.0
  0
LINE
  5
1EC
330
1E7
100
AcDbEntity
  8
DIM
100
AcDbLine
 10
221.9240627414
 20
366.0026670881
 30
0.0
 11
221.9240627414
 21
383.5026670881
 31
0.0
  0
LINE
  5
1ED
330
1E7
100
AcDbEntity
  8
DIM
100
AcDbLine
 10
186.9240627414
 20
366.0026670881
 30
0.0
 11
186.9240627414
 21
383.5026670881
 31
0.0
  0
LINE
  5
1EE
330
1E7
100
AcDbEntity
  8
DIM
100
AcDbLine
 10
221.9240627414
 20
381.0026670881
 30
0.0
 11
186.9240627414
 21
381.0026670881
 31
0.0
  0
MTEXT
  5
1EF
330
1E7
100
AcDbEntity
  8
DIM
100
AcDbMText
 10
200.6978475232
 20
388.6766481854
 30
0.0
 40
5.953125
 41
0.0
 71
     1
 72
     1
  1
35
  7
SLDTEXTSTYLE1
 73
     1
 44
1.0
  0
ENDBLK
  5
1E9
330
1E7
100
AcDbEntity
  8
0
100
AcDbBlockEnd
  0
BLOCK
  5
1F2
330
1F1
100
AcDbEntity
  8
0
100
AcDbBlockBegin
  2
_D_1
 70
     0
 10
0.0
 20
0.0
 30
0.0
  3
_D_1
  1

  0
SOLID
  5
1F4
330
1F1
100
AcDbEntity
  8
DIM
100
AcDbTrace
 10
169.4240627414
 20
363.5026670881
 30
0.0
 11
168.7990627414
 21
358.5026670881
 31
0.0
 12
170.0490627414
 22
358.5026670881
 32
0.0
 13
170.0490627414
 23
358.5026670881
 33
0.0
  0
SOLID
  5
1F5
330
1F1
100
AcDbEntity
  8
DIM
100
AcDbTrace
 10
169.4240627414
 20
163.5026670881
 30
0.0
 11
170.0490627414
 21
168.5026670881
 31
0.0
 12
168.7990627414
 22
168.5026670881
 32
0.0
 13
168.7990627414
 23
168.5026670881
 33
0.0
  0
LINE
  5
1F6
330
1F1
100
AcDbEntity
  8
DIM
100
AcDbLine
 10
184.4240627414
 20
363.5026670881
 30
0.0
 11
166.9240627414
 21
363.5026670881
 31
0.0
  0
LINE
  5
1F7
330
1F1
100
AcDbEntity
  8
DIM
100
AcDbLine
 10
189.4240627414
 20
163.5026670881
 30
0.0
 11
166.9240627414
 21
163.5026670881
 31
0.0
  0
LINE
  5
1F8
330
1F1
100
AcDbEntity
  8
DIM
100
AcDbLine
 10
169.4240627414
 20
363.5026670881
 30
0.0
 11
169.4240627414
 21
163.5026670881
 31
0.0
  0
MTEXT
  5
1F9
330
1F1
100
AcDbEntity
  8
DIM
100
AcDbMText
 10
161.7500816441
 20
257.9133439697
 30
0.0
 40
5.953125
 41
0.0
 71
     1
 72
     1
  1
200
  7
SLDTEXTSTYLE1
 11
-7.044195017643634E-15
 21
1.0
 31
0.0
 73
     1
 44
1.0
  0
ENDBLK
  5
1F3
330
1F1
100
AcDbEntity
  8
0
100
AcDbBlockEnd
  0
BLOCK
  5
1FC
330
1FB
100
AcDbEntity
  8
0
100
AcDbBlockBegin
  2
_D_2
 70
     0
 10
0.0
 20
0.0
 30
0.0
  3
_D_2
  1

  0
SOLID
  5
1FE
330
1FB
100
AcDbEntity
  8
DIM
100
AcDbTrace
 10
186.9240627414
 20
146.0026670881
 30
0.0
 11
191.9240627414
 21
145.3776670881
 31
0.0
 12
191.9240627414
 22
146.6276670881
 32
0.0
 13
191.9240627414
 23
146.6276670881
 33
0.0
  0
SOLID
  5
1FF
330
1FB
100
AcDbEntity
  8
DIM
100
AcDbTrace
 10
336.9240627414
 20
146.0026670881
 30
0.0
 11
331.9240627414
 21
146.6276670881
 31
0.0
 12
331.9240627414
 22
145.3776670881
 32
0.0
 13
331.9240627414
 23
145.3776670881
 33
0.0
  0
LINE
  5
200
330
1FB
100
AcDbEntity
  8
DIM
100
AcDbLine
 10
186.9240627414
 20
166.0026670881
 30
0.0
 11
186.9240627414
 21
143.5026670881
 31
0.0
  0
LINE
  5
201
330
1FB
100
AcDbEntity
  8
DIM
100
AcDbLine
 10
336.9240627414
 20
161.0026670881
 30
0.0
 11
336.9240627414
 21
143.5026670881
 31
0.0
  0
LINE
  5
202
330
1FB
100
AcDbEntity
  8
DIM
100
AcDbLine
 10
186.9240627414
 20
146.0026670881
 30
0.0
 11
336.9240627414
 21
146.0026670881
 31
0.0
  0
MTEXT
  5
203
330
1FB
100
AcDbEntity
  8
DIM
100
AcDbMText
 10
256.3347396231
 20
153.6766481854
 30
0.0
 40
5.953125
 41
0.0
 71
     1
 72
     1
  1
150
  7
SLDTEXTSTYLE1
 73
     1
 44
1.0
  0
ENDBLK
  5
1FD
330
1FB
100
AcDbEntity
  8
0
100
AcDbBlockEnd
  0
BLOCK
  5
207
330
206
100
AcDbEntity
  8
0
100
AcDbBlockBegin
  2
_D_3
 70
     0
 10
0.0
 20
0.0
 30
0.0
  3
_D_3
  1

  0
ARC
  5
209
330
206
100
AcDbEntity
  8
DIM
100
AcDbCircle
 10
389.7439889769
 20
163.5026670881
 30
0.0
 40
45.36849977227024
100
AcDbArc
 50
130.0
 51
180.0
  0
SOLID
  5
20A
330
206
100
AcDbEntity
  8
DIM
100
AcDbTrace
 10
360.5816794532
 20
198.2569542313
 30
0.0
 11
356.5061249627
 21
195.293766658
 31
0.0
 12
357.3609266573
 22
194.3817282472
 32
0.0
 13
357.3609266573
 23
194.3817282472
 33
0.0
  0
SOLID
  5
20B
330
206
100
AcDbEntity
  8
DIM
100
AcDbTrace
 10
344.3754892046
 20
163.5026670881
 30
0.0
 11
345.2738245445
 21
168.4608541173
 31
0.0
 12
344.0257066499
 22
168.5294232155
 32
0.0
 13
344.0257066499
 23
168.5294232155
 33
0.0
  0
LINE
  5
20C
330
206
100
AcDbEntity
  8
DIM
100
AcDbLine
 10
337.3612539812
 20
225.929979709
 30
0.0
 11
362.1886484774
 21
196.3418431235
 31
0.0
  0
LINE
  5
20D
330
206
100
AcDbEntity
  8
DIM
100
AcDbLine
 10
339.4240627414
 20
163.5026670881
 30
0.0
 11
346.8754892046
 21
163.5026670881
 31
0.0
  0
MTEXT
  5
20E
330
206
100
AcDbEntity
  8
DIM
100
AcDbMText
 10
339.6910696603
 20
181.6730374298
 30
0.0
 40
5.953125
 41
0.0
 71
     1
 72
     1
  1
50°
  7
SLDTEXTSTYLE1
 11
0.422618261740691
 21
0.9063077870366539
 31
0.0
 73
     1
 44
1.0
  0
ENDBLK
  5
208
330
206
100
AcDbEntity
  8
0
100
AcDbBlockEnd
  0
BLOCK
  5
212
330
211
100
AcDbEntity
  8
0
100
AcDbBlockBegin
  2
_D_4
 70
     0
 10
0.0
 20
0.0
 30
0.0
  3
_D_4
  1

  0
SOLID
  5
214
330
211
100
AcDbEntity
  8
DIM
100
AcDbTrace
 10
301.8412950478
 20
313.7871268742
 30
0.0
 11
304.5764553193
 21
309.5551624026
 31
0.0
 12
305.5340108732
 22
310.3586469147
 32
0.0
 13
305.5340108732
 23
310.3586469147
 33
0.0
  0
SOLID
  5
215
330
211
100
AcDbEntity
  8
DIM
100
AcDbTrace
 10
285.5144897618
 20
333.2446557295
 30
0.0
 11
282.7793294903
 21
337.4766202011
 31
0.0
 12
281.8217739364
 22
336.673135689
 32
0.0
 13
281.8217739364
 23
336.673135689
 33
0.0
  0
LINE
  5
216
330
211
100
AcDbEntity
  8
DIM
100
AcDbLine
 10
285.1693960648
 20
299.7977425866
 30
0.0
 11
303.7564061556
 21
315.3940958984
 31
0.0
  0
LINE
  5
217
330
211
100
AcDbEntity
  8
DIM
100
AcDbLine
 10
268.8425907788
 20
319.2552714418
 30
0.0
 11
287.4296008696
 21
334.8516247537
 31
0.0
  0
LINE
  5
218
330
211
100
AcDbEntity
  8
DIM
100
AcDbLine
 10
301.8412950478
 20
313.7871268742
 30
0.0
 11
306.6622021205
 21
308.0417935508
 31
0.0
  0
LINE
  5
219
330
211
100
AcDbEntity
  8
DIM
100
AcDbLine
 10
301.8412950478
 20
313.7871268742
 30
0.0
 11
285.5144897618
 21
333.2446557295
 31
0.0
  0
LINE
  5
21A
330
211
100
AcDbEntity
  8
DIM
100
AcDbLine
 10
285.5144897618
 20
333.2446557295
 30
0.0
 11
280.6935826891
 21
338.9899890528
 31
0.0
  0
MTEXT
  5
21B
330
211
100
AcDbEntity
  8
DIM
100
AcDbMText
 10
295.3649645584
 20
333.4439122418
 30
0.0
 40
5.953125
 41
0.0
 71
     1
 72
     1
  1
25.4
  7
SLDTEXTSTYLE1
 11
0.6427876096865319
 21
-0.7660444431189842
 31
0.0
 73
     1
 44
1.0
  0
ENDBLK
  5
213
330
211
100
AcDbEntity
  8
0
100
AcDbBlockEnd
  0
BLOCK
  5
21E
330
21D
100
AcDbEntity
  8
0
100
AcDbBlockBegin
  2
_D_5
 70
     0
 10
0.0
 20
0.0
 30
0.0
  3
_D_5
  1

  0
SOLID
  5
220
330
21D
100
AcDbEntity
  8
DIM
100
AcDbTrace
 10
301.8412950478
 20
313.7871268742
 30
0.0
 11
299.1061347764
 21
318.0190913459
 31
0.0
 12
298.1485792225
 22
317.2156068338
 32
0.0
 13
298.1485792225
 23
317.2156068338
 33
0.0
  0
SOLID
  5
221
330
21D
100
AcDbEntity
  8
DIM
100
AcDbTrace
 10
318.1681003339
 20
294.329598019
 30
0.0
 11
320.9032606054
 21
290.0976335474
 31
0.0
 12
321.8608161593
 22
290.9011180595
 32
0.0
 13
321.8608161593
 23
290.9011180595
 33
0.0
  0
LINE
  5
222
330
21D
100
AcDbEntity
  8
DIM
100
AcDbLine
 10
285.1693960648
 20
299.7977425866
 30
0.0
 11
303.7564061556
 21
315.3940958984
 31
0.0
  0
LINE
  5
223
330
21D
100
AcDbEntity
  8
DIM
100
AcDbLine
 10
301.4962013509
 20
280.3402137313
 30
0.0
 11
320.0832114417
 21
295.9365670432
 31
0.0
  0
LINE
  5
224
330
21D
100
AcDbEntity
  8
DIM
100
AcDbLine
 10
301.8412950478
 20
313.7871268742
 30
0.0
 11
297.0203879752
 21
319.5324601976
 31
0.0
  0
LINE
  5
225
330
21D
100
AcDbEntity
  8
DIM
100
AcDbLine
 10
301.8412950478
 20
313.7871268742
 30
0.0
 11
318.1681003339
 21
294.329598019
 31
0.0
  0
LINE
  5
226
330
21D
100
AcDbEntity
  8
DIM
100
AcDbLine
 10
318.1681003339
 20
294.329598019
 30
0.0
 11
322.9890074065
 21
288.5842646956
 31
0.0
  0
MTEXT
  5
227
330
21D
100
AcDbEntity
  8
DIM
100
AcDbMText
 10
311.6917698444
 20
313.9863833866
 30
0.0
 40
5.953125
 41
0.0
 71
     1
 72
     1
  1
25.4
  7
SLDTEXTSTYLE1
 11
0.6427876096865481
 21
-0.7660444431189707
 31
0.0
 73
     1
 44
1.0
  0
ENDBLK
  5
21F
330
21D
100
AcDbEntity
  8
0
100
AcDbBlockEnd
  0
BLOCK
  5
22A
330
229
100
AcDbEntity
  8
0
100
AcDbBlockBegin
  2
_D_6
 70
     0
 10
0.0
 20
0.0
 30
0.0
  3
_D_6
  1

  0
SOLID
  5
22C
330
229
100
AcDbEntity
  8
DIM
100
AcDbTrace
 10
284.2748778876
 20
365.361843012
 30
0.0
 11
287.0100381591
 21
361.1298785404
 31
0.0
 12
287.967593713
 22
361.9333630525
 32
0.0
 13
287.967593713
 23
361.9333630525
 33
0.0
  0
SOLID
  5
22D
330
229
100
AcDbEntity
  8
DIM
100
AcDbTrace
 10
316.9284884597
 20
326.4467853016
 30
0.0
 11
314.1933281882
 21
330.6787497732
 31
0.0
 12
313.2357726343
 22
329.8752652611
 32
0.0
 13
313.2357726343
 23
329.8752652611
 33
0.0
  0
LINE
  5
22E
330
229
100
AcDbEntity
  8
DIM
100
AcDbLine
 10
252.5157854927
 20
338.712800297
 30
0.0
 11
286.1899889954
 21
366.9688120362
 31
0.0
  0
LINE
  5
22F
330
229
100
AcDbEntity
  8
DIM
100
AcDbLine
 10
285.1693960648
 20
299.7977425866
 30
0.0
 11
318.8435995675
 21
328.0537543258
 31
0.0
  0
LINE
  5
230
330
229
100
AcDbEntity
  8
DIM
100
AcDbLine
 10
284.2748778876
 20
365.361843012
 30
0.0
 11
316.9284884597
 21
326.4467853016
 31
0.0
  0
MTEXT
  5
231
330
229
100
AcDbEntity
  8
DIM
100
AcDbMText
 10
302.2887553272
 20
355.8323350968
 30
0.0
 40
5.953125
 41
0.0
 71
     1
 72
     1
  1
50.8
  7
SLDTEXTSTYLE1
 11
0.6427876096865475
 21
-0.7660444431189712
 31
0.0
 73
     1
 44
1.0
  0
ENDBLK
  5
22B
330
229
100
AcDbEntity
  8
0
100
AcDbBlockEnd
  0
BLOCK
  5
234
330
233
100
AcDbEntity
  8
0
100
AcDbBlockBegin
  2
_D_7
 70
     0
 10
0.0
 20
0.0
 30
0.0
  3
_D_7
  1

  0
SOLID
  5
236
330
233
100
AcDbEntity
  8
DIM
100
AcDbTrace
 10
316.9500733619
 20
326.4648971851
 30
0.0
 11
319.6852336334
 21
322.2329327135
 31
0.0
 12
320.6427891873
 22
323.0364172256
 32
0.0
 13
320.6427891873
 23
323.0364172256
 33
0.0
  0
SOLID
  5
237
330
233
100
AcDbEntity
  8
DIM
100
AcDbTrace
 10
349.603683934
 20
287.5498394747
 30
0.0
 11
346.8685236625
 21
291.7818039463
 31
0.0
 12
345.9109681086
 22
290.9783194342
 32
0.0
 13
345.9109681086
 23
290.9783194342
 33
0.0
  0
LINE
  5
238
330
233
100
AcDbEntity
  8
DIM
100
AcDbLine
 10
285.1693960648
 20
299.7977425866
 30
0.0
 11
318.8651844697
 21
328.0718662093
 31
0.0
  0
LINE
  5
239
330
233
100
AcDbEntity
  8
DIM
100
AcDbLine
 10
317.8230066369
 20
260.8826848761
 30
0.0
 11
351.5187950418
 21
289.1568084989
 31
0.0
  0
LINE
  5
23A
330
233
100
AcDbEntity
  8
DIM
100
AcDbLine
 10
316.9500733619
 20
326.4648971851
 30
0.0
 11
349.603683934
 21
287.5498394747
 31
0.0
  0
MTEXT
  5
23B
330
233
100
AcDbEntity
  8
DIM
100
AcDbMText
 10
334.9639508015
 20
316.9353892699
 30
0.0
 40
5.953125
 41
0.0
 71
     1
 72
     1
  1
50.8
  7
SLDTEXTSTYLE1
 11
0.6427876096865481
 21
-0.7660444431189707
 31
0.0
 73
     1
 44
1.0
  0
ENDBLK
  5
235
330
233
100
AcDbEntity
  8
0
100
AcDbBlockEnd
  0
BLOCK
  5
23D
330
23C
100
AcDbEntity
  8
0
100
AcDbBlockBegin
  2
SW_NOTE_2
 70
     0
 10
0.0
 20
0.0
 30
0.0
  3
SW_NOTE_2
  1

  0
LINE
  5
23F
330
23C
100
AcDbEntity
  8
DIM
 62
     0
100
AcDbLine
 10
-31.9508253661
 20
0.0
 30
0.0
 11
0.0
 21
0.0
 31
0.0
  0
MTEXT
  5
240
330
23C
100
AcDbEntity
  8
DIM
 62
     0
100
AcDbMText
 10
-33.0791067293
 20
17.9740468992
 30
0.0
 40
5.953125
 41
0.0
 71
     1
 72
     1
  1
3 HOLES,
  7
SLDTEXTSTYLE1
 73
     1
 44
1.0
  0
MTEXT
  5
241
330
23C
100
AcDbEntity
  8
DIM
 62
     0
100
AcDbMText
 10
-33.0791067293
 20
7.5365471674
 30
0.0
 40
5.953125
 41
0.0
 71
     1
 72
     1
  1
1/4"-20
  7
SLDTEXTSTYLE1
 73
     1
 44
1.0
  0
ENDBLK
  5
23E
330
23C
100
AcDbEntity
  8
0
100
AcDbBlockEnd
  0
BLOCK
  5
246
330
245
100
AcDbEntity
  8
0
100
AcDbBlockBegin
  2
SW_NOTE_3
 70
     0
 10
0.0
 20
0.0
 30
0.0
  3
SW_NOTE_3
  1

  0
LINE
  5
248
330
245
100
AcDbEntity
  8
DIM
 62
     0
100
AcDbLine
 10
-39.3591541862
 20
0.0
 30
0.0
 11
0.0
 21
0.0
 31
0.0
  0
MTEXT
  5
249
330
245
100
AcDbEntity
  8
DIM
 62
     0
100
AcDbMText
 10
-40.5716410813
 20
18.1617638917
 30
0.0
 40
5.953125
 41
0.0
 71
     1
 72
     1
  1
2 HOLES,
  7
SLDTEXTSTYLE1
 73
     1
 44
1.0
  0
MTEXT
  5
24A
330
245
100
AcDbEntity
  8
DIM
 62
     0
100
AcDbMText
 10
-40.5716410813
 20
7.7242641599
 30
0.0
 40
5.953125
 41
0.0
 71
     1
 72
     1
  1
1/4"-20 CLR
  7
SLDTEXTSTYLE1
 73
     1
 44
1.0
  0
ENDBLK
  5
247
330
245
100
AcDbEntity
  8
0
100
AcDbBlockEnd
  0
BLOCK
  5
27A
330
279
100
AcDbEntity
  8
0
100
AcDbBlockBegin
  2
_D_8
 70
     0
 10
0.0
 20
0.0
 30
0.0
  3
_D_8
  1

  0
SOLID
  5
27C
330
279
100
AcDbEntity
  8
DIM
100
AcDbTrace
 10
450.6669175151
 20
188.9026670881
 30
0.0
 11
451.2919175151
 21
193.9026670881
 31
0.0
 12
450.0419175151
 22
193.9026670881
 32
0.0
 13
450.0419175151
 23
193.9026670881
 33
0.0
  0
SOLID
  5
27D
330
279
100
AcDbEntity
  8
DIM
100
AcDbTrace
 10
450.6669175151
 20
163.5026670881
 30
0.0
 11
450.0419175151
 21
158.5026670881
 31
0.0
 12
451.2919175151
 22
158.5026670881
 32
0.0
 13
451.2919175151
 23
158.5026670881
 33
0.0
  0
LINE
  5
27E
330
279
100
AcDbEntity
  8
DIM
100
AcDbLine
 10
430.2196175151
 20
188.9026670881
 30
0.0
 11
453.1669175151
 21
188.9026670881
 31
0.0
  0
LINE
  5
27F
330
279
100
AcDbEntity
  8
DIM
100
AcDbLine
 10
434.6669175151
 20
163.5026670881
 30
0.0
 11
453.1669175151
 21
163.5026670881
 31
0.0
  0
LINE
  5
280
330
279
100
AcDbEntity
  8
DIM
100
AcDbLine
 10
450.6669175151
 20
188.9026670881
 30
0.0
 11
450.6669175151
 21
196.4026670881
 31
0.0
  0
LINE
  5
281
330
279
100
AcDbEntity
  8
DIM
100
AcDbLine
 10
450.6669175151
 20
188.9026670881
 30
0.0
 11
450.6669175151
 21
163.5026670881
 31
0.0
  0
LINE
  5
282
330
279
100
AcDbEntity
  8
DIM
100
AcDbLine
 10
450.6669175151
 20
163.5026670881
 30
0.0
 11
450.6669175151
 21
156.0026670881
 31
0.0
  0
MTEXT
  5
283
330
279
100
AcDbEntity
  8
DIM
100
AcDbMText
 10
442.9929364178
 20
169.6817908928
 30
0.0
 40
5.953125
 41
0.0
 71
     1
 72
     1
  1
25.4
  7
SLDTEXTSTYLE1
 11
-7.044195017643634E-15
 21
1.0
 31
0.0
 73
     1
 44
1.0
  0
ENDBLK
  5
27B
330
279
100
AcDbEntity
  8
0
100
AcDbBlockEnd
  0
BLOCK
  5
286
330
285
100
AcDbEntity
  8
0
100
AcDbBlockBegin
  2
_D_9
 70
     0
 10
0.0
 20
0.0
 30
0.0
  3
_D_9
  1

  0
SOLID
  5
288
330
285
100
AcDbEntity
  8
DIM
100
AcDbTrace
 10
450.6669175151
 20
188.9026670881
 30
0.0
 11
450.0419175151
 21
183.9026670881
 31
0.0
 12
451.2919175151
 22
183.9026670881
 32
0.0
 13
451.2919175151
 23
183.9026670881
 33
0.0
  0
SOLID
  5
289
330
285
100
AcDbEntity
  8
DIM
100
AcDbTrace
 10
450.6669175151
 20
214.3026670881
 30
0.0
 11
451.2919175151
 21
219.3026670881
 31
0.0
 12
450.0419175151
 22
219.3026670881
 32
0.0
 13
450.0419175151
 23
219.3026670881
 33
0.0
  0
LINE
  5
28A
330
285
100
AcDbEntity
  8
DIM
100
AcDbLine
 10
430.2196175151
 20
188.9026670881
 30
0.0
 11
453.1669175151
 21
188.9026670881
 31
0.0
  0
LINE
  5
28B
330
285
100
AcDbEntity
  8
DIM
100
AcDbLine
 10
430.2196175151
 20
214.3026670881
 30
0.0
 11
453.1669175151
 21
214.3026670881
 31
0.0
  0
LINE
  5
28C
330
285
100
AcDbEntity
  8
DIM
100
AcDbLine
 10
450.6669175151
 20
188.9026670881
 30
0.0
 11
450.6669175151
 21
181.4026670881
 31
0.0
  0
LINE
  5
28D
330
285
100
AcDbEntity
  8
DIM
100
AcDbLine
 10
450.6669175151
 20
188.9026670881
 30
0.0
 11
450.6669175151
 21
214.3026670881
 31
0.0
  0
LINE
  5
28E
330
285
100
AcDbEntity
  8
DIM
100
AcDbLine
 10
450.6669175151
 20
214.3026670881
 30
0.0
 11
450.6669175151
 21
221.8026670881
 31
0.0
  0
MTEXT
  5
28F
330
285
100
AcDbEntity
  8
DIM
100
AcDbMText
 10
442.9929364178
 20
195.0817908928
 30
0.0
 40
5.953125
 41
0.0
 71
     1
 72
     1
  1
25.4
  7
SLDTEXTSTYLE1
 11
6.123233995736766E-17
 21
1.0
 31
0.0
 73
     1
 44
1.0
  0
ENDBLK
  5
287
330
285
100
AcDbEntity
  8
0
100
AcDbBlockEnd
  0
BLOCK
  5
292
330
291
100
AcDbEntity
  8
0
100
AcDbBlockBegin
  2
_D_10
 70
     0
 10
0.0
 20
0.0
 30
0.0
  3
_D_10
  1

  0
SOLID
  5
294
330
291
100
AcDbEntity
  8
DIM
100
AcDbTrace
 10
424.1669175151
 20
146.0026670881
 30
0.0
 11
429.1669175151
 21
145.3776670881
 31
0.0
 12
429.1669175151
 22
146.6276670881
 32
0.0
 13
429.1669175151
 23
146.6276670881
 33
0.0
  0
SOLID
  5
295
330
291
100
AcDbEntity
  8
DIM
100
AcDbTrace
 10
415.1669175151
 20
146.0026670881
 30
0.0
 11
410.1669175151
 21
146.6276670881
 31
0.0
 12
410.1669175151
 22
145.3776670881
 32
0.0
 13
410.1669175151
 23
145.3776670881
 33
0.0
  0
LINE
  5
296
330
291
100
AcDbEntity
  8
DIM
100
AcDbLine
 10
424.1669175151
 20
182.8499670881
 30
0.0
 11
424.1669175151
 21
143.5026670881
 31
0.0
  0
LINE
  5
297
330
291
100
AcDbEntity
  8
DIM
100
AcDbLine
 10
415.1669175151
 20
162.0026670881
 30
0.0
 11
415.1669175151
 21
143.5026670881
 31
0.0
  0
LINE
  5
298
330
291
100
AcDbEntity
  8
DIM
100
AcDbLine
 10
424.1669175151
 20
146.0026670881
 30
0.0
 11
431.6669175151
 21
146.0026670881
 31
0.0
  0
LINE
  5
299
330
291
100
AcDbEntity
  8
DIM
100
AcDbLine
 10
424.1669175151
 20
146.0026670881
 30
0.0
 11
415.1669175151
 21
146.0026670881
 31
0.0
  0
LINE
  5
29A
330
291
100
AcDbEntity
  8
DIM
100
AcDbLine
 10
415.1669175151
 20
146.0026670881
 30
0.0
 11
407.6669175151
 21
146.0026670881
 31
0.0
  0
MTEXT
  5
29B
330
291
100
AcDbEntity
  8
DIM
100
AcDbMText
 10
417.803809906
 20
153.6766481854
 30
0.0
 40
5.953125
 41
0.0
 71
     1
 72
     1
  1
9
  7
SLDTEXTSTYLE1
 73
     1
 44
1.0
  0
ENDBLK
  5
293
330
291
100
AcDbEntity
  8
0
100
AcDbBlockEnd
  0
BLOCK
  5
29D
330
29C
100
AcDbEntity
  8
0
100
AcDbBlockBegin
  2
SW_NOTE_4
 70
     0
 10
0.0
 20
0.0
 30
0.0
  3
SW_NOTE_4
  1

  0
LINE
  5
29F
330
29C
100
AcDbEntity
  8
DIM
 62
     0
100
AcDbLine
 10
31.3727906841
 20
0.0
 30
0.0
 11
0.0
 21
0.0
 31
0.0
  0
MTEXT
  5
2A0
330
29C
100
AcDbEntity
  8
DIM
 62
     0
100
AcDbMText
 10
1.1976855587
 20
18.0114638818
 30
0.0
 40
5.953125
 41
0.0
 71
     1
 72
     1
  1
2 HOLES,
  7
SLDTEXTSTYLE1
 73
     1
 44
1.0
  0
MTEXT
  5
2A1
330
29C
100
AcDbEntity
  8
DIM
 62
     0
100
AcDbMText
 10
1.1976855587
 20
7.57396415
 30
0.0
 40
5.953125
 41
0.0
 71
     1
 72
     1
  1
1/4"-20
  7
SLDTEXTSTYLE1
 73
     1
 44
1.0
  0
ENDBLK
  5
29E
330
29C
100
AcDbEntity
  8
0
100
AcDbBlockEnd
  0
BLOCK
  5
2A5
330
2A4
100
AcDbEntity
  8
0
100
AcDbBlockBegin
  2
SW_CENTERMARKSYMBOL_0
 70
     0
 10
0.0
 20
0.0
 30
0.0
  3
SW_CENTERMARKSYMBOL_0
  1

  0
LINE
  5
2A7
330
2A4
100
AcDbEntity
  8
DIM
 62
     0
100
AcDbLine
 10
0.0
 20
0.0
 30
0.0
 11
0.0
 21
1.0
 31
0.0
  0
LINE
  5
2A8
330
2A4
100
AcDbEntity
  8
DIM
 62
     0
100
AcDbLine
 10
0.0
 20
0.0
 30
0.0
 11
-1.0
 21
0.0
 31
0.0
  0
LINE
  5
2A9
330
2A4
100
AcDbEntity
  8
DIM
 62
     0
100
AcDbLine
 10
0.0
 20
0.0
 30
0.0
 11
0.0
 21
-1.0
 31
0.0
  0
LINE
  5
2AA
330
2A4
100
AcDbEntity
  8
DIM
 62
     0
100
AcDbLine
 10
0.0
 20
0.0
 30
0.0
 11
1.0
 21
0.0
 31
0.0
  0
LINE
  5
2AB
330
2A4
100
AcDbEntity
  8
DIM
 62
     0
100
AcDbLine
 10
0.0
 20
2.0
 30
0.0
 11
0.0
 21
3.5527
 31
0.0
  0
LINE
  5
2AC
330
2A4
100
AcDbEntity
  8
DIM
 62
     0
100
AcDbLine
 10
-2.0
 20
0.0
 30
0.0
 11
-3.5527
 21
0.0
 31
0.0
  0
LINE
  5
2AD
330
2A4
100
AcDbEntity
  8
DIM
 62
     0
100
AcDbLine
 10
0.0
 20
-2.0
 30
0.0
 11
0.0
 21
-3.5527
 31
0.0
  0
LINE
  5
2AE
330
2A4
100
AcDbEntity
  8
DIM
 62
     0
100
AcDbLine
 10
2.0
 20
0.0
 30
0.0
 11
3.5527
 21
0.0
 31
0.0
  0
ENDBLK
  5
2A6
330
2A4
100
AcDbEntity
  8
0
100
AcDbBlockEnd
  0
BLOCK
  5
2B1
330
2B0
100
AcDbEntity
  8
0
100
AcDbBlockBegin
  2
SW_CENTERMARKSYMBOL_1
 70
     0
 10
0.0
 20
0.0
 30
0.0
  3
SW_CENTERMARKSYMBOL_1
  1

  0
LINE
  5
2B3
330
2B0
100
AcDbEntity
  8
DIM
 62
     0
100
AcDbLine
 10
0.0
 20
0.0
 30
0.0
 11
0.0
 21
1.0
 31
0.0
  0
LINE
  5
2B4
330
2B0
100
AcDbEntity
  8
DIM
 62
     0
100
AcDbLine
 10
0.0
 20
0.0
 30
0.0
 11
-1.0
 21
0.0
 31
0.0
  0
LINE
  5
2B5
330
2B0
100
AcDbEntity
  8
DIM
 62
     0
100
AcDbLine
 10
0.0
 20
0.0
 30
0.0
 11
0.0
 21
-1.0
 31
0.0
  0
LINE
  5
2B6
330
2B0
100
AcDbEntity
  8
DIM
 62
     0
100
AcDbLine
 10
0.0
 20
0.0
 30
0.0
 11
1.0
 21
0.0
 31
0.0
  0
LINE
  5
2B7
330
2B0
100
AcDbEntity
  8
DIM
 62
     0
100
AcDbLine
 10
0.0
 20
2.0
 30
0.0
 11
0.0
 21
3.5527
 31
0.0
  0
LINE
  5
2B8
330
2B0
100
AcDbEntity
  8
DIM
 62
     0
100
AcDbLine
 10
-2.0
 20
0.0
 30
0.0
 11
-3.5527
 21
0.0
 31
0.0
  0
LINE
  5
2B9
330
2B0
100
AcDbEntity
  8
DIM
 62
     0
100
AcDbLine
 10
0.0
 20
-2.0
 30
0.0
 11
0.0
 21
-3.5527
 31
0.0
  0
LINE
  5
2BA
330
2B0
100
AcDbEntity
  8
DIM
 62
     0
100
AcDbLine
 10
2.0
 20
0.0
 30
0.0
 11
3.5527
 21
0.0
 31
0.0
  0
ENDBLK
  5
2B2
330
2B0
100
AcDbEntity
  8
0
100
AcDbBlockEnd
  0
BLOCK
  5
2E6
330
2E5
100
AcDbEntity
  8
0
100
AcDbBlockBegin
  2
_D_11
 70
     0
 10
0.0
 20
0.0
 30
0.0
  3
_D_11
  1

  0
SOLID
  5
2E8
330
2E5
100
AcDbEntity
  8
DIM
100
AcDbTrace
 10
63.1259165795
 20
229.9026670881
 30
0.0
 11
62.5009165795
 21
224.9026670881
 31
0.0
 12
63.7509165795
 22
224.9026670881
 32
0.0
 13
63.7509165795
 23
224.9026670881
 33
0.0
  0
SOLID
  5
2E9
330
2E5
100
AcDbEntity
  8
DIM
100
AcDbTrace
 10
63.1259165795
 20
163.5026670881
 30
0.0
 11
63.7509165795
 21
168.5026670881
 31
0.0
 12
62.5009165795
 22
168.5026670881
 32
0.0
 13
62.5009165795
 23
168.5026670881
 33
0.0
  0
LINE
  5
2EA
330
2E5
100
AcDbEntity
  8
DIM
100
AcDbLine
 10
87.1259165795
 20
229.9026670881
 30
0.0
 11
60.6259165795
 21
229.9026670881
 31
0.0
  0
LINE
  5
2EB
330
2E5
100
AcDbEntity
  8
DIM
100
AcDbLine
 10
79.1259165795
 20
163.5026670881
 30
0.0
 11
60.6259165795
 21
163.5026670881
 31
0.0
  0
LINE
  5
2EC
330
2E5
100
AcDbEntity
  8
DIM
100
AcDbLine
 10
63.1259165795
 20
229.9026670881
 30
0.0
 11
63.1259165795
 21
163.5026670881
 31
0.0
  0
MTEXT
  5
2ED
330
2E5
100
AcDbEntity
  8
DIM
100
AcDbMText
 10
55.4519354822
 20
190.1817908928
 30
0.0
 40
5.953125
 41
0.0
 71
     1
 72
     1
  1
66.4
  7
SLDTEXTSTYLE1
 11
-7.044195017643634E-15
 21
1.0
 31
0.0
 73
     1
 44
1.0
  0
ENDBLK
  5
2E7
330
2E5
100
AcDbEntity
  8
0
100
AcDbBlockEnd
  0
BLOCK
  5
2F0
330
2EF
100
AcDbEntity
  8
0
100
AcDbBlockBegin
  2
_D_12
 70
     0
 10
0.0
 20
0.0
 30
0.0
  3
_D_12
  1

  0
SOLID
  5
2F2
330
2EF
100
AcDbEntity
  8
DIM
100
AcDbTrace
 10
63.1259165795
 20
229.9026670881
 30
0.0
 11
62.5009165795
 21
224.9026670881
 31
0.0
 12
63.7509165795
 22
224.9026670881
 32
0.0
 13
63.7509165795
 23
224.9026670881
 33
0.0
  0
SOLID
  5
2F3
330
2EF
100
AcDbEntity
  8
DIM
100
AcDbTrace
 10
63.1259165795
 20
239.9026670881
 30
0.0
 11
63.7509165795
 21
244.9026670881
 31
0.0
 12
62.5009165795
 22
244.9026670881
 32
0.0
 13
62.5009165795
 23
244.9026670881
 33
0.0
  0
LINE
  5
2F4
330
2EF
100
AcDbEntity
  8
DIM
100
AcDbLine
 10
87.1259165795
 20
229.9026670881
 30
0.0
 11
60.6259165795
 21
229.9026670881
 31
0.0
  0
LINE
  5
2F5
330
2EF
100
AcDbEntity
  8
DIM
100
AcDbLine
 10
82.9259165795
 20
239.9026670881
 30
0.0
 11
60.6259165795
 21
239.9026670881
 31
0.0
  0
LINE
  5
2F6
330
2EF
100
AcDbEntity
  8
DIM
100
AcDbLine
 10
63.1259165795
 20
229.9026670881
 30
0.0
 11
63.1259165795
 21
222.4026670881
 31
0.0
  0
LINE
  5
2F7
330
2EF
100
AcDbEntity
  8
DIM
100
AcDbLine
 10
63.1259165795
 20
229.9026670881
 30
0.0
 11
63.1259165795
 21
239.9026670881
 31
0.0
  0
LINE
  5
2F8
330
2EF
100
AcDbEntity
  8
DIM
100
AcDbLine
 10
63.1259165795
 20
239.9026670881
 30
0.0
 11
63.1259165795
 21
247.4026670881
 31
0.0
  0
MTEXT
  5
2F9
330
2EF
100
AcDbEntity
  8
DIM
100
AcDbMText
 10
55.4519354822
 20
231.1764518699
 30
0.0
 40
5.953125
 41
0.0
 71
     1
 72
     1
  1
10
  7
SLDTEXTSTYLE1
 11
6.123233995736766E-17
 21
1.0
 31
0.0
 73
     1
 44
1.0
  0
ENDBLK
  5
2F1
330
2EF
100
AcDbEntity
  8
0
100
AcDbBlockEnd
  0
BLOCK
  5
2FC
330
2FB
100
AcDbEntity
  8
0
100
AcDbBlockBegin
  2
_D_13
 70
     0
 10
0.0
 20
0.0
 30
0.0
  3
_D_13
  1

  0
SOLID
  5
2FE
330
2FB
100
AcDbEntity
  8
DIM
100
AcDbTrace
 10
63.1259165795
 20
239.9026670881
 30
0.0
 11
63.7509165795
 21
244.9026670881
 31
0.0
 12
62.5009165795
 22
244.9026670881
 32
0.0
 13
62.5009165795
 23
244.9026670881
 33
0.0
  0
SOLID
  5
2FF
330
2FB
100
AcDbEntity
  8
DIM
100
AcDbTrace
 10
63.1259165795
 20
255.3026670881
 30
0.0
 11
62.5009165795
 21
250.3026670881
 31
0.0
 12
63.7509165795
 22
250.3026670881
 32
0.0
 13
63.7509165795
 23
250.3026670881
 33
0.0
  0
LINE
  5
300
330
2FB
100
AcDbEntity
  8
DIM
100
AcDbLine
 10
82.9259165795
 20
239.9026670881
 30
0.0
 11
60.6259165795
 21
239.9026670881
 31
0.0
  0
LINE
  5
301
330
2FB
100
AcDbEntity
  8
DIM
100
AcDbLine
 10
87.1259165795
 20
255.3026670881
 30
0.0
 11
60.6259165795
 21
255.3026670881
 31
0.0
  0
LINE
  5
302
330
2FB
100
AcDbEntity
  8
DIM
100
AcDbLine
 10
63.1259165795
 20
239.9026670881
 30
0.0
 11
63.1259165795
 21
255.3026670881
 31
0.0
  0
MTEXT
  5
303
330
2FB
100
AcDbEntity
  8
DIM
100
AcDbMText
 10
55.4519354822
 20
241.0817908928
 30
0.0
 40
5.953125
 41
0.0
 71
     1
 72
     1
  1
15.4
  7
SLDTEXTSTYLE1
 11
6.123233995736766E-17
 21
1.0
 31
0.0
 73
     1
 44
1.0
  0
ENDBLK
  5
2FD
330
2FB
100
AcDbEntity
  8
0
100
AcDbBlockEnd
  0
BLOCK
  5
306
330
305
100
AcDbEntity
  8
0
100
AcDbBlockBegin
  2
_D_14
 70
     0
 10
0.0
 20
0.0
 30
0.0
  3
_D_14
  1

  0
SOLID
  5
308
330
305
100
AcDbEntity
  8
DIM
100
AcDbTrace
 10
63.1259165795
 20
255.3026670881
 30
0.0
 11
62.5009165795
 21
250.3026670881
 31
0.0
 12
63.7509165795
 22
250.3026670881
 32
0.0
 13
63.7509165795
 23
250.3026670881
 33
0.0
  0
SOLID
  5
309
330
305
100
AcDbEntity
  8
DIM
100
AcDbTrace
 10
63.1259165795
 20
265.3026670881
 30
0.0
 11
63.7509165795
 21
270.3026670881
 31
0.0
 12
62.5009165795
 22
270.3026670881
 32
0.0
 13
62.5009165795
 23
270.3026670881
 33
0.0
  0
LINE
  5
30A
330
305
100
AcDbEntity
  8
DIM
100
AcDbLine
 10
87.1259165795
 20
255.3026670881
 30
0.0
 11
60.6259165795
 21
255.3026670881
 31
0.0
  0
LINE
  5
30B
330
305
100
AcDbEntity
  8
DIM
100
AcDbLine
 10
82.9259165795
 20
265.3026670881
 30
0.0
 11
60.6259165795
 21
265.3026670881
 31
0.0
  0
LINE
  5
30C
330
305
100
AcDbEntity
  8
DIM
100
AcDbLine
 10
63.1259165795
 20
255.3026670881
 30
0.0
 11
63.1259165795
 21
247.8026670881
 31
0.0
  0
LINE
  5
30D
330
305
100
AcDbEntity
  8
DIM
100
AcDbLine
 10
63.1259165795
 20
255.3026670881
 30
0.0
 11
63.1259165795
 21
265.3026670881
 31
0.0
  0
LINE
  5
30E
330
305
100
AcDbEntity
  8
DIM
100
AcDbLine
 10
63.1259165795
 20
265.3026670881
 30
0.0
 11
63.1259165795
 21
272.8026670881
 31
0.0
  0
MTEXT
  5
30F
330
305
100
AcDbEntity
  8
DIM
100
AcDbMText
 10
55.4519354822
 20
256.5764518699
 30
0.0
 40
5.953125
 41
0.0
 71
     1
 72
     1
  1
10
  7
SLDTEXTSTYLE1
 11
6.123233995736766E-17
 21
1.0
 31
0.0
 73
     1
 44
1.0
  0
ENDBLK
  5
307
330
305
100
AcDbEntity
  8
0
100
AcDbBlockEnd
  0
BLOCK
  5
312
330
311
100
AcDbEntity
  8
0
100
AcDbBlockBegin
  2
_D_15
 70
     0
 10
0.0
 20
0.0
 30
0.0
  3
_D_15
  1

  0
SOLID
  5
314
330
311
100
AcDbEntity
  8
DIM
100
AcDbTrace
 10
63.1259165795
 20
265.3026670881
 30
0.0
 11
63.7509165795
 21
270.3026670881
 31
0.0
 12
62.5009165795
 22
270.3026670881
 32
0.0
 13
62.5009165795
 23
270.3026670881
 33
0.0
  0
SOLID
  5
315
330
311
100
AcDbEntity
  8
DIM
100
AcDbTrace
 10
63.1259165795
 20
280.7026670881
 30
0.0
 11
62.5009165795
 21
275.7026670881
 31
0.0
 12
63.7509165795
 22
275.7026670881
 32
0.0
 13
63.7509165795
 23
275.7026670881
 33
0.0
  0
LINE
  5
316
330
311
100
AcDbEntity
  8
DIM
100
AcDbLine
 10
82.9259165795
 20
265.3026670881
 30
0.0
 11
60.6259165795
 21
265.3026670881
 31
0.0
  0
LINE
  5
317
330
311
100
AcDbEntity
  8
DIM
100
AcDbLine
 10
87.1259165795
 20
280.7026670881
 30
0.0
 11
60.6259165795
 21
280.7026670881
 31
0.0
  0
LINE
  5
318
330
311
100
AcDbEntity
  8
DIM
100
AcDbLine
 10
63.1259165795
 20
265.3026670881
 30
0.0
 11
63.1259165795
 21
280.7026670881
 31
0.0
  0
MTEXT
  5
319
330
311
100
AcDbEntity
  8
DIM
100
AcDbMText
 10
55.4519354822
 20
266.4817908928
 30
0.0
 40
5.953125
 41
0.0
 71
     1
 72
     1
  1
15.4
  7
SLDTEXTSTYLE1
 11
6.123233995736766E-17
 21
1.0
 31
0.0
 73
     1
 44
1.0
  0
ENDBLK
  5
313
330
311
100
AcDbEntity
  8
0
100
AcDbBlockEnd
  0
BLOCK
  5
31C
330
31B
100
AcDbEntity
  8
0
100
AcDbBlockBegin
  2
_D_16
 70
     0
 10
0.0
 20
0.0
 30
0.0
  3
_D_16
  1

  0
SOLID
  5
31E
330
31B
100
AcDbEntity
  8
DIM
100
AcDbTrace
 10
63.1259165795
 20
280.7026670881
 30
0.0
 11
62.5009165795
 21
275.7026670881
 31
0.0
 12
63.7509165795
 22
275.7026670881
 32
0.0
 13
63.7509165795
 23
275.7026670881
 33
0.0
  0
SOLID
  5
31F
330
31B
100
AcDbEntity
  8
DIM
100
AcDbTrace
 10
63.1259165795
 20
290.7026670881
 30
0.0
 11
63.7509165795
 21
295.7026670881
 31
0.0
 12
62.5009165795
 22
295.7026670881
 32
0.0
 13
62.5009165795
 23
295.7026670881
 33
0.0
  0
LINE
  5
320
330
31B
100
AcDbEntity
  8
DIM
100
AcDbLine
 10
87.1259165795
 20
280.7026670881
 30
0.0
 11
60.6259165795
 21
280.7026670881
 31
0.0
  0
LINE
  5
321
330
31B
100
AcDbEntity
  8
DIM
100
AcDbLine
 10
82.9259165795
 20
290.7026670881
 30
0.0
 11
60.6259165795
 21
290.7026670881
 31
0.0
  0
LINE
  5
322
330
31B
100
AcDbEntity
  8
DIM
100
AcDbLine
 10
63.1259165795
 20
280.7026670881
 30
0.0
 11
63.1259165795
 21
273.2026670881
 31
0.0
  0
LINE
  5
323
330
31B
100
AcDbEntity
  8
DIM
100
AcDbLine
 10
63.1259165795
 20
280.7026670881
 30
0.0
 11
63.1259165795
 21
290.7026670881
 31
0.0
  0
LINE
  5
324
330
31B
100
AcDbEntity
  8
DIM
100
AcDbLine
 10
63.1259165795
 20
290.7026670881
 30
0.0
 11
63.1259165795
 21
298.2026670881
 31
0.0
  0
MTEXT
  5
325
330
31B
100
AcDbEntity
  8
DIM
100
AcDbMText
 10
55.4519354822
 20
281.9764518699
 30
0.0
 40
5.953125
 41
0.0
 71
     1
 72
     1
  1
10
  7
SLDTEXTSTYLE1
 11
6.123233995736766E-17
 21
1.0
 31
0.0
 73
     1
 44
1.0
  0
ENDBLK
  5
31D
330
31B
100
AcDbEntity
  8
0
100
AcDbBlockEnd
  0
BLOCK
  5
328
330
327
100
AcDbEntity
  8
0
100
AcDbBlockBegin
  2
_D_17
 70
     0
 10
0.0
 20
0.0
 30
0.0
  3
_D_17
  1

  0
SOLID
  5
32A
330
327
100
AcDbEntity
  8
DIM
100
AcDbTrace
 10
63.1259165795
 20
290.7026670881
 30
0.0
 11
63.7509165795
 21
295.7026670881
 31
0.0
 12
62.5009165795
 22
295.7026670881
 32
0.0
 13
62.5009165795
 23
295.7026670881
 33
0.0
  0
SOLID
  5
32B
330
327
100
AcDbEntity
  8
DIM
100
AcDbTrace
 10
63.1259165795
 20
306.1026670881
 30
0.0
 11
62.5009165795
 21
301.1026670881
 31
0.0
 12
63.7509165795
 22
301.1026670881
 32
0.0
 13
63.7509165795
 23
301.1026670881
 33
0.0
  0
LINE
  5
32C
330
327
100
AcDbEntity
  8
DIM
100
AcDbLine
 10
82.9259165795
 20
290.7026670881
 30
0.0
 11
60.6259165795
 21
290.7026670881
 31
0.0
  0
LINE
  5
32D
330
327
100
AcDbEntity
  8
DIM
100
AcDbLine
 10
87.1259165795
 20
306.1026670881
 30
0.0
 11
60.6259165795
 21
306.1026670881
 31
0.0
  0
LINE
  5
32E
330
327
100
AcDbEntity
  8
DIM
100
AcDbLine
 10
63.1259165795
 20
290.7026670881
 30
0.0
 11
63.1259165795
 21
306.1026670881
 31
0.0
  0
MTEXT
  5
32F
330
327
100
AcDbEntity
  8
DIM
100
AcDbMText
 10
55.4519354822
 20
291.8817908928
 30
0.0
 40
5.953125
 41
0.0
 71
     1
 72
     1
  1
15.4
  7
SLDTEXTSTYLE1
 11
6.123233995736766E-17
 21
1.0
 31
0.0
 73
     1
 44
1.0
  0
ENDBLK
  5
329
330
327
100
AcDbEntity
  8
0
100
AcDbBlockEnd
  0
BLOCK
  5
332
330
331
100
AcDbEntity
  8
0
100
AcDbBlockBegin
  2
_D_18
 70
     0
 10
0.0
 20
0.0
 30
0.0
  3
_D_18
  1

  0
SOLID
  5
334
330
331
100
AcDbEntity
  8
DIM
100
AcDbTrace
 10
63.1259165795
 20
316.1026670881
 30
0.0
 11
63.7509165795
 21
321.1026670881
 31
0.0
 12
62.5009165795
 22
321.1026670881
 32
0.0
 13
62.5009165795
 23
321.1026670881
 33
0.0
  0
SOLID
  5
335
330
331
100
AcDbEntity
  8
DIM
100
AcDbTrace
 10
63.1259165795
 20
306.1026670881
 30
0.0
 11
62.5009165795
 21
301.1026670881
 31
0.0
 12
63.7509165795
 22
301.1026670881
 32
0.0
 13
63.7509165795
 23
301.1026670881
 33
0.0
  0
LINE
  5
336
330
331
100
AcDbEntity
  8
DIM
100
AcDbLine
 10
82.9259165795
 20
316.1026670881
 30
0.0
 11
60.6259165795
 21
316.1026670881
 31
0.0
  0
LINE
  5
337
330
331
100
AcDbEntity
  8
DIM
100
AcDbLine
 10
87.1259165795
 20
306.1026670881
 30
0.0
 11
60.6259165795
 21
306.1026670881
 31
0.0
  0
LINE
  5
338
330
331
100
AcDbEntity
  8
DIM
100
AcDbLine
 10
63.1259165795
 20
316.1026670881
 30
0.0
 11
63.1259165795
 21
323.6026670881
 31
0.0
  0
LINE
  5
339
330
331
100
AcDbEntity
  8
DIM
100
AcDbLine
 10
63.1259165795
 20
316.1026670881
 30
0.0
 11
63.1259165795
 21
306.1026670881
 31
0.0
  0
LINE
  5
33A
330
331
100
AcDbEntity
  8
DIM
100
AcDbLine
 10
63.1259165795
 20
306.1026670881
 30
0.0
 11
63.1259165795
 21
298.6026670881
 31
0.0
  0
MTEXT
  5
33B
330
331
100
AcDbEntity
  8
DIM
100
AcDbMText
 10
55.4519354822
 20
307.3764518699
 30
0.0
 40
5.953125
 41
0.0
 71
     1
 72
     1
  1
10
  7
SLDTEXTSTYLE1
 11
-7.044195017643634E-15
 21
1.0
 31
0.0
 73
     1
 44
1.0
  0
ENDBLK
  5
333
330
331
100
AcDbEntity
  8
0
100
AcDbBlockEnd
  0
BLOCK
  5
33E
330
33D
100
AcDbEntity
  8
0
100
AcDbBlockBegin
  2
_D_19
 70
     0
 10
0.0
 20
0.0
 30
0.0
  3
_D_19
  1

  0
SOLID
  5
340
330
33D
100
AcDbEntity
  8
DIM
100
AcDbTrace
 10
116.1259165795
 20
247.6026670881
 30
0.0
 11
115.5009165795
 21
242.6026670881
 31
0.0
 12
116.7509165795
 22
242.6026670881
 32
0.0
 13
116.7509165795
 23
242.6026670881
 33
0.0
  0
SOLID
  5
341
330
33D
100
AcDbEntity
  8
DIM
100
AcDbTrace
 10
116.1259165795
 20
163.5026670881
 30
0.0
 11
116.7509165795
 21
168.5026670881
 31
0.0
 12
115.5009165795
 22
168.5026670881
 32
0.0
 13
115.5009165795
 23
168.5026670881
 33
0.0
  0
LINE
  5
342
330
33D
100
AcDbEntity
  8
DIM
100
AcDbLine
 10
95.6786165795
 20
247.6026670881
 30
0.0
 11
118.6259165795
 21
247.6026670881
 31
0.0
  0
LINE
  5
343
330
33D
100
AcDbEntity
  8
DIM
100
AcDbLine
 10
100.1259165795
 20
163.5026670881
 30
0.0
 11
118.6259165795
 21
163.5026670881
 31
0.0
  0
LINE
  5
344
330
33D
100
AcDbEntity
  8
DIM
100
AcDbLine
 10
116.1259165795
 20
247.6026670881
 30
0.0
 11
116.1259165795
 21
163.5026670881
 31
0.0
  0
MTEXT
  5
345
330
33D
100
AcDbEntity
  8
DIM
100
AcDbMText
 10
108.4519354822
 20
199.0317908928
 30
0.0
 40
5.953125
 41
0.0
 71
     1
 72
     1
  1
84.1
  7
SLDTEXTSTYLE1
 11
-7.044195017643634E-15
 21
1.0
 31
0.0
 73
     1
 44
1.0
  0
ENDBLK
  5
33F
330
33D
100
AcDbEntity
  8
0
100
AcDbBlockEnd
  0
BLOCK
  5
348
330
347
100
AcDbEntity
  8
0
100
AcDbBlockBegin
  2
_D_20
 70
     0
 10
0.0
 20
0.0
 30
0.0
  3
_D_20
  1

  0
SOLID
  5
34A
330
347
100
AcDbEntity
  8
DIM
100
AcDbTrace
 10
116.1259165795
 20
273.0026670881
 30
0.0
 11
115.5009165795
 21
268.0026670881
 31
0.0
 12
116.7509165795
 22
268.0026670881
 32
0.0
 13
116.7509165795
 23
268.0026670881
 33
0.0
  0
SOLID
  5
34B
330
347
100
AcDbEntity
  8
DIM
100
AcDbTrace
 10
116.1259165795
 20
247.6026670881
 30
0.0
 11
116.7509165795
 21
252.6026670881
 31
0.0
 12
115.5009165795
 22
252.6026670881
 32
0.0
 13
115.5009165795
 23
252.6026670881
 33
0.0
  0
LINE
  5
34C
330
347
100
AcDbEntity
  8
DIM
100
AcDbLine
 10
95.6786165795
 20
273.0026670881
 30
0.0
 11
118.6259165795
 21
273.0026670881
 31
0.0
  0
LINE
  5
34D
330
347
100
AcDbEntity
  8
DIM
100
AcDbLine
 10
95.6786165795
 20
247.6026670881
 30
0.0
 11
118.6259165795
 21
247.6026670881
 31
0.0
  0
LINE
  5
34E
330
347
100
AcDbEntity
  8
DIM
100
AcDbLine
 10
116.1259165795
 20
273.0026670881
 30
0.0
 11
116.1259165795
 21
247.6026670881
 31
0.0
  0
MTEXT
  5
34F
330
347
100
AcDbEntity
  8
DIM
100
AcDbMText
 10
108.4519354822
 20
253.7817908928
 30
0.0
 40
5.953125
 41
0.0
 71
     1
 72
     1
  1
25.4
  7
SLDTEXTSTYLE1
 11
-7.044195017643634E-15
 21
1.0
 31
0.0
 73
     1
 44
1.0
  0
ENDBLK
  5
349
330
347
100
AcDbEntity
  8
0
100
AcDbBlockEnd
  0
BLOCK
  5
352
330
351
100
AcDbEntity
  8
0
100
AcDbBlockBegin
  2
_D_21
 70
     0
 10
0.0
 20
0.0
 30
0.0
  3
_D_21
  1

  0
SOLID
  5
354
330
351
100
AcDbEntity
  8
DIM
100
AcDbTrace
 10
116.1259165795
 20
298.4026670881
 30
0.0
 11
115.5009165795
 21
293.4026670881
 31
0.0
 12
116.7509165795
 22
293.4026670881
 32
0.0
 13
116.7509165795
 23
293.4026670881
 33
0.0
  0
SOLID
  5
355
330
351
100
AcDbEntity
  8
DIM
100
AcDbTrace
 10
116.1259165795
 20
273.0026670881
 30
0.0
 11
116.7509165795
 21
278.0026670881
 31
0.0
 12
115.5009165795
 22
278.0026670881
 32
0.0
 13
115.5009165795
 23
278.0026670881
 33
0.0
  0
LINE
  5
356
330
351
100
AcDbEntity
  8
DIM
100
AcDbLine
 10
95.6786165795
 20
298.4026670881
 30
0.0
 11
118.6259165795
 21
298.4026670881
 31
0.0
  0
LINE
  5
357
330
351
100
AcDbEntity
  8
DIM
100
AcDbLine
 10
95.6786165795
 20
273.0026670881
 30
0.0
 11
118.6259165795
 21
273.0026670881
 31
0.0
  0
LINE
  5
358
330
351
100
AcDbEntity
  8
DIM
100
AcDbLine
 10
116.1259165795
 20
298.4026670881
 30
0.0
 11
116.1259165795
 21
273.0026670881
 31
0.0
  0
MTEXT
  5
359
330
351
100
AcDbEntity
  8
DIM
100
AcDbMText
 10
108.4519354822
 20
279.1817908928
 30
0.0
 40
5.953125
 41
0.0
 71
     1
 72
     1
  1
25.4
  7
SLDTEXTSTYLE1
 11
-7.044195017643634E-15
 21
1.0
 31
0.0
 73
     1
 44
1.0
  0
ENDBLK
  5
353
330
351
100
AcDbEntity
  8
0
100
AcDbBlockEnd
  0
BLOCK
  5
35C
330
35B
100
AcDbEntity
  8
0
100
AcDbBlockBegin
  2
_D_22
 70
     0
 10
0.0
 20
0.0
 30
0.0
  3
_D_22
  1

  0
SOLID
  5
35E
330
35B
100
AcDbEntity
  8
DIM
100
AcDbTrace
 10
116.1259165795
 20
336.5026670881
 30
0.0
 11
115.5009165795
 21
331.5026670881
 31
0.0
 12
116.7509165795
 22
331.5026670881
 32
0.0
 13
116.7509165795
 23
331.5026670881
 33
0.0
  0
SOLID
  5
35F
330
35B
100
AcDbEntity
  8
DIM
100
AcDbTrace
 10
116.1259165795
 20
298.4026670881
 30
0.0
 11
116.7509165795
 21
303.4026670881
 31
0.0
 12
115.5009165795
 22
303.4026670881
 32
0.0
 13
115.5009165795
 23
303.4026670881
 33
0.0
  0
LINE
  5
360
330
35B
100
AcDbEntity
  8
DIM
100
AcDbLine
 10
95.6786165795
 20
336.5026670881
 30
0.0
 11
118.6259165795
 21
336.5026670881
 31
0.0
  0
LINE
  5
361
330
35B
100
AcDbEntity
  8
DIM
100
AcDbLine
 10
95.6786165795
 20
298.4026670881
 30
0.0
 11
118.6259165795
 21
298.4026670881
 31
0.0
  0
LINE
  5
362
330
35B
100
AcDbEntity
  8
DIM
100
AcDbLine
 10
116.1259165795
 20
336.5026670881
 30
0.0
 11
116.1259165795
 21
298.4026670881
 31
0.0
  0
MTEXT
  5
363
330
35B
100
AcDbEntity
  8
DIM
100
AcDbMText
 10
108.4519354822
 20
310.9317908928
 30
0.0
 40
5.953125
 41
0.0
 71
     1
 72
     1
  1
38.1
  7
SLDTEXTSTYLE1
 11
-7.044195017643634E-15
 21
1.0
 31
0.0
 73
     1
 44
1.0
  0
ENDBLK
  5
35D
330
35B
100
AcDbEntity
  8
0
100
AcDbBlockEnd
  0
BLOCK
  5
366
330
365
100
AcDbEntity
  8
0
100
AcDbBlockBegin
  2
_D_23
 70
     0
 10
0.0
 20
0.0
 30
0.0
  3
_D_23
  1

  0
SOLID
  5
368
330
365
100
AcDbEntity
  8
DIM
100
AcDbTrace
 10
89.6259165795
 20
381.0026670881
 30
0.0
 11
84.6259165795
 21
381.6276670881
 31
0.0
 12
84.6259165795
 22
380.3776670881
 32
0.0
 13
84.6259165795
 23
380.3776670881
 33
0.0
  0
SOLID
  5
369
330
365
100
AcDbEntity
  8
DIM
100
AcDbTrace
 10
98.6259165795
 20
381.0026670881
 30
0.0
 11
103.6259165795
 21
380.3776670881
 31
0.0
 12
103.6259165795
 22
381.6276670881
 32
0.0
 13
103.6259165795
 23
381.6276670881
 33
0.0
  0
LINE
  5
36A
330
365
100
AcDbEntity
  8
DIM
100
AcDbLine
 10
89.6259165795
 20
342.5553670881
 30
0.0
 11
89.6259165795
 21
383.5026670881
 31
0.0
  0
LINE
  5
36B
330
365
100
AcDbEntity
  8
DIM
100
AcDbLine
 10
98.6259165795
 20
365.0026670881
 30
0.0
 11
98.6259165795
 21
383.5026670881
 31
0.0
  0
LINE
  5
36C
330
365
100
AcDbEntity
  8
DIM
100
AcDbLine
 10
89.6259165795
 20
381.0026670881
 30
0.0
 11
82.1259165795
 21
381.0026670881
 31
0.0
  0
LINE
  5
36D
330
365
100
AcDbEntity
  8
DIM
100
AcDbLine
 10
89.6259165795
 20
381.0026670881
 30
0.0
 11
98.6259165795
 21
381.0026670881
 31
0.0
  0
LINE
  5
36E
330
365
100
AcDbEntity
  8
DIM
100
AcDbLine
 10
98.6259165795
 20
381.0026670881
 30
0.0
 11
106.1259165795
 21
381.0026670881
 31
0.0
  0
MTEXT
  5
36F
330
365
100
AcDbEntity
  8
DIM
100
AcDbMText
 10
92.2628089704
 20
388.6766481854
 30
0.0
 40
5.953125
 41
0.0
 71
     1
 72
     1
  1
9
  7
SLDTEXTSTYLE1
 73
     1
 44
1.0
  0
ENDBLK
  5
367
330
365
100
AcDbEntity
  8
0
100
AcDbBlockEnd
  0
BLOCK
  5
371
330
370
100
AcDbEntity
  8
0
100
AcDbBlockBegin
  2
SW_NOTE_5
 70
     0
 10
0.0
 20
0.0
 30
0.0
  3
SW_NOTE_5
  1

  0
LINE
  5
373
330
370
100
AcDbEntity
  8
DIM
 62
     0
100
AcDbLine
 10
31.3727906841
 20
0.0
 30
0.0
 11
0.0
 21
0.0
 31
0.0
  0
MTEXT
  5
374
330
370
100
AcDbEntity
  8
DIM
 62
     0
100
AcDbMText
 10
1.1909454812
 20
18.137456174
 30
0.0
 40
5.953125
 41
0.0
 71
     1
 72
     1
  1
4 HOLES,
  7
SLDTEXTSTYLE1
 73
     1
 44
1.0
  0
MTEXT
  5
375
330
370
100
AcDbEntity
  8
DIM
 62
     0
100
AcDbMText
 10
1.1909454812
 20
7.6999564422
 30
0.0
 40
5.953125
 41
0.0
 71
     1
 72
     1
  1
1/4"-20
  7
SLDTEXTSTYLE1
 73
     1
 44
1.0
  0
ENDBLK
  5
372
330
370
100
AcDbEntity
  8
0
100
AcDbBlockEnd
  0
BLOCK
  5
379
330
378
100
AcDbEntity
  8
0
100
AcDbBlockBegin
  2
SW_NOTE_6
 70
     0
 10
0.0
 20
0.0
 30
0.0
  3
SW_NOTE_6
  1

  0
LINE
  5
37B
330
378
100
AcDbEntity
  8
DIM
 62
     0
100
AcDbLine
 10
-39.3591541862
 20
0.0
 30
0.0
 11
0.0
 21
0.0
 31
0.0
  0
MTEXT
  5
37C
330
378
100
AcDbEntity
  8
DIM
 62
     0
100
AcDbMText
 10
-40.3311284287
 20
18.137456174
 30
0.0
 40
5.953125
 41
0.0
 71
     1
 72
     1
  1
4 HOLES,
  7
SLDTEXTSTYLE1
 73
     1
 44
1.0
  0
MTEXT
  5
37D
330
378
100
AcDbEntity
  8
DIM
 62
     0
100
AcDbMText
 10
-40.3311284287
 20
7.6999564422
 30
0.0
 40
5.953125
 41
0.0
 71
     1
 72
     1
  1
1/4"-20 CLR
  7
SLDTEXTSTYLE1
 73
     1
 44
1.0
  0
ENDBLK
  5
37A
330
378
100
AcDbEntity
  8
0
100
AcDbBlockEnd
  0
BLOCK
  5
381
330
380
100
AcDbEntity
  8
0
100
AcDbBlockBegin
  2
SW_CENTERMARKSYMBOL_2
 70
     0
 10
0.0
 20
0.0
 30
0.0
  3
SW_CENTERMARKSYMBOL_2
  1

  0
LINE
  5
383
330
380
100
AcDbEntity
  8
DIM
 62
     0
100
AcDbLine
 10
0.0
 20
0.0
 30
0.0
 11
0.0
 21
1.0
 31
0.0
  0
LINE
  5
384
330
380
100
AcDbEntity
  8
DIM
 62
     0
100
AcDbLine
 10
0.0
 20
0.0
 30
0.0
 11
-1.0
 21
0.0
 31
0.0
  0
LINE
  5
385
330
380
100
AcDbEntity
  8
DIM
 62
     0
100
AcDbLine
 10
0.0
 20
0.0
 30
0.0
 11
0.0
 21
-1.0
 31
0.0
  0
LINE
  5
386
330
380
100
AcDbEntity
  8
DIM
 62
     0
100
AcDbLine
 10
0.0
 20
0.0
 30
0.0
 11
1.0
 21
0.0
 31
0.0
  0
LINE
  5
387
330
380
100
AcDbEntity
  8
DIM
 62
     0
100
AcDbLine
 10
0.0
 20
2.0
 30
0.0
 11
0.0
 21
3.5527
 31
0.0
  0
LINE
  5
388
330
380
100
AcDbEntity
  8
DIM
 62
     0
100
AcDbLine
 10
-2.0
 20
0.0
 30
0.0
 11
-3.5527
 21
0.0
 31
0.0
  0
LINE
  5
389
330
380
100
AcDbEntity
  8
DIM
 62
     0
100
AcDbLine
 10
0.0
 20
-2.0
 30
0.0
 11
0.0
 21
-3.5527
 31
0.0
  0
LINE
  5
38A
330
380
100
AcDbEntity
  8
DIM
 62
     0
100
AcDbLine
 10
2.0
 20
0.0
 30
0.0
 11
3.5527
 21
0.0
 31
0.0
  0
ENDBLK
  5
382
330
380
100
AcDbEntity
  8
0
100
AcDbBlockEnd
  0
BLOCK
  5
38D
330
38C
100
AcDbEntity
  8
0
100
AcDbBlockBegin
  2
SW_CENTERMARKSYMBOL_3
 70
     0
 10
0.0
 20
0.0
 30
0.0
  3
SW_CENTERMARKSYMBOL_3
  1

  0
LINE
  5
38F
330
38C
100
AcDbEntity
  8
DIM
 62
     0
100
AcDbLine
 10
0.0
 20
0.0
 30
0.0
 11
0.0
 21
-1.0
 31
0.0
  0
LINE
  5
390
330
38C
100
AcDbEntity
  8
DIM
 62
     0
100
AcDbLine
 10
0.0
 20
0.0
 30
0.0
 11
1.0
 21
0.0
 31
0.0
  0
LINE
  5
391
330
38C
100
AcDbEntity
  8
DIM
 62
     0
100
AcDbLine
 10
0.0
 20
0.0
 30
0.0
 11
0.0
 21
1.0
 31
0.0
  0
LINE
  5
392
330
38C
100
AcDbEntity
  8
DIM
 62
     0
100
AcDbLine
 10
0.0
 20
0.0
 30
0.0
 11
-1.0
 21
0.0
 31
0.0
  0
LINE
  5
393
330
38C
100
AcDbEntity
  8
DIM
 62
     0
100
AcDbLine
 10
0.0
 20
-2.0
 30
0.0
 11
0.0
 21
-4.2
 31
0.0
  0
LINE
  5
394
330
38C
100
AcDbEntity
  8
DIM
 62
     0
100
AcDbLine
 10
2.0
 20
0.0
 30
0.0
 11
4.2
 21
0.0
 31
0.0
  0
LINE
  5
395
330
38C
100
AcDbEntity
  8
DIM
 62
     0
100
AcDbLine
 10
0.0
 20
2.0
 30
0.0
 11
0.0
 21
4.2
 31
0.0
  0
LINE
  5
396
330
38C
100
AcDbEntity
  8
DIM
 62
     0
100
AcDbLine
 10
-2.0
 20
0.0
 30
0.0
 11
-4.2
 21
0.0
 31
0.0
  0
LINE
  5
397
330
38C
100
AcDbEntity
  8
DIM
 62
     0
100
AcDbLine
 10
0.0
 20
-10.0
 30
0.0
 11
0.0
 21
-11.0
 31
0.0
  0
LINE
  5
398
330
38C
100
AcDbEntity
  8
DIM
 62
     0
100
AcDbLine
 10
0.0
 20
-10.0
 30
0.0
 11
1.0
 21
-10.0
 31
0.0
  0
LINE
  5
399
330
38C
100
AcDbEntity
  8
DIM
 62
     0
100
AcDbLine
 10
0.0
 20
-10.0
 30
0.0
 11
0.0
 21
-9.0
 31
0.0
  0
LINE
  5
39A
330
38C
100
AcDbEntity
  8
DIM
 62
     0
100
AcDbLine
 10
0.0
 20
-10.0
 30
0.0
 11
-1.0
 21
-10.0
 31
0.0
  0
LINE
  5
39B
330
38C
100
AcDbEntity
  8
DIM
 62
     0
100
AcDbLine
 10
0.0
 20
-12.0
 30
0.0
 11
0.0
 21
-14.2
 31
0.0
  0
LINE
  5
39C
330
38C
100
AcDbEntity
  8
DIM
 62
     0
100
AcDbLine
 10
2.0
 20
-10.0
 30
0.0
 11
4.2
 21
-10.0
 31
0.0
  0
LINE
  5
39D
330
38C
100
AcDbEntity
  8
DIM
 62
     0
100
AcDbLine
 10
0.0
 20
-8.0
 30
0.0
 11
0.0
 21
-5.8
 31
0.0
  0
LINE
  5
39E
330
38C
100
AcDbEntity
  8
DIM
 62
     0
100
AcDbLine
 10
-2.0
 20
-10.0
 30
0.0
 11
-4.2
 21
-10.0
 31
0.0
  0
ENDBLK
  5
38E
330
38C
100
AcDbEntity
  8
0
100
AcDbBlockEnd
  0
BLOCK
  5
3A1
330
3A0
100
AcDbEntity
  8
0
100
AcDbBlockBegin
  2
SW_CENTERMARKSYMBOL_4
 70
     0
 10
0.0
 20
0.0
 30
0.0
  3
SW_CENTERMARKSYMBOL_4
  1

  0
LINE
  5
3A3
330
3A0
100
AcDbEntity
  8
DIM
 62
     0
100
AcDbLine
 10
0.0
 20
0.0
 30
0.0
 11
0.0
 21
-1.0
 31
0.0
  0
LINE
  5
3A4
330
3A0
100
AcDbEntity
  8
DIM
 62
     0
100
AcDbLine
 10
0.0
 20
0.0
 30
0.0
 11
1.0
 21
0.0
 31
0.0
  0
LINE
  5
3A5
330
3A0
100
AcDbEntity
  8
DIM
 62
     0
100
AcDbLine
 10
0.0
 20
0.0
 30
0.0
 11
0.0
 21
1.0
 31
0.0
  0
LINE
  5
3A6
330
3A0
100
AcDbEntity
  8
DIM
 62
     0
100
AcDbLine
 10
0.0
 20
0.0
 30
0.0
 11
-1.0
 21
0.0
 31
0.0
  0
LINE
  5
3A7
330
3A0
100
AcDbEntity
  8
DIM
 62
     0
100
AcDbLine
 10
0.0
 20
-2.0
 30
0.0
 11
0.0
 21
-4.2
 31
0.0
  0
LINE
  5
3A8
330
3A0
100
AcDbEntity
  8
DIM
 62
     0
100
AcDbLine
 10
2.0
 20
0.0
 30
0.0
 11
4.2
 21
0.0
 31
0.0
  0
LINE
  5
3A9
330
3A0
100
AcDbEntity
  8
DIM
 62
     0
100
AcDbLine
 10
0.0
 20
2.0
 30
0.0
 11
0.0
 21
4.2
 31
0.0
  0
LINE
  5
3AA
330
3A0
100
AcDbEntity
  8
DIM
 62
     0
100
AcDbLine
 10
-2.0
 20
0.0
 30
0.0
 11
-4.2
 21
0.0
 31
0.0
  0
LINE
  5
3AB
330
3A0
100
AcDbEntity
  8
DIM
 62
     0
100
AcDbLine
 10
0.0
 20
-10.0
 30
0.0
 11
0.0
 21
-11.0
 31
0.0
  0
LINE
  5
3AC
330
3A0
100
AcDbEntity
  8
DIM
 62
     0
100
AcDbLine
 10
0.0
 20
-10.0
 30
0.0
 11
1.0
 21
-10.0
 31
0.0
  0
LINE
  5
3AD
330
3A0
100
AcDbEntity
  8
DIM
 62
     0
100
AcDbLine
 10
0.0
 20
-10.0
 30
0.0
 11
0.0
 21
-9.0
 31
0.0
  0
LINE
  5
3AE
330
3A0
100
AcDbEntity
  8
DIM
 62
     0
100
AcDbLine
 10
0.0
 20
-10.0
 30
0.0
 11
-1.0
 21
-10.0
 31
0.0
  0
LINE
  5
3AF
330
3A0
100
AcDbEntity
  8
DIM
 62
     0
100
AcDbLine
 10
0.0
 20
-12.0
 30
0.0
 11
0.0
 21
-14.2
 31
0.0
  0
LINE
  5
3B0
330
3A0
100
AcDbEntity
  8
DIM
 62
     0
100
AcDbLine
 10
2.0
 20
-10.0
 30
0.0
 11
4.2
 21
-10.0
 31
0.0
  0
LINE
  5
3B1
330
3A0
100
AcDbEntity
  8
DIM
 62
     0
100
AcDbLine
 10
0.0
 20
-8.0
 30
0.0
 11
0.0
 21
-5.8
 31
0.0
  0
LINE
  5
3B2
330
3A0
100
AcDbEntity
  8
DIM
 62
     0
100
AcDbLine
 10
-2.0
 20
-10.0
 30
0.0
 11
-4.2
 21
-10.0
 31
0.0
  0
ENDBLK
  5
3A2
330
3A0
100
AcDbEntity
  8
0
100
AcDbBlockEnd
  0
BLOCK
  5
3B5
330
3B4
100
AcDbEntity
  8
0
100
AcDbBlockBegin
  2
SW_CENTERMARKSYMBOL_5
 70
     0
 10
0.0
 20
0.0
 30
0.0
  3
SW_CENTERMARKSYMBOL_5
  1

  0
LINE
  5
3B7
330
3B4
100
AcDbEntity
  8
DIM
 62
     0
100
AcDbLine
 10
0.0
 20
0.0
 30
0.0
 11
0.0
 21
-1.0
 31
0.0
  0
LINE
  5
3B8
330
3B4
100
AcDbEntity
  8
DIM
 62
     0
100
AcDbLine
 10
0.0
 20
0.0
 30
0.0
 11
1.0
 21
0.0
 31
0.0
  0
LINE
  5
3B9
330
3B4
100
AcDbEntity
  8
DIM
 62
     0
100
AcDbLine
 10
0.0
 20
0.0
 30
0.0
 11
0.0
 21
1.0
 31
0.0
  0
LINE
  5
3BA
330
3B4
100
AcDbEntity
  8
DIM
 62
     0
100
AcDbLine
 10
0.0
 20
0.0
 30
0.0
 11
-1.0
 21
0.0
 31
0.0
  0
LINE
  5
3BB
330
3B4
100
AcDbEntity
  8
DIM
 62
     0
100
AcDbLine
 10
0.0
 20
-2.0
 30
0.0
 11
0.0
 21
-4.2
 31
0.0
  0
LINE
  5
3BC
330
3B4
100
AcDbEntity
  8
DIM
 62
     0
100
AcDbLine
 10
2.0
 20
0.0
 30
0.0
 11
4.2
 21
0.0
 31
0.0
  0
LINE
  5
3BD
330
3B4
100
AcDbEntity
  8
DIM
 62
     0
100
AcDbLine
 10
0.0
 20
2.0
 30
0.0
 11
0.0
 21
4.2
 31
0.0
  0
LINE
  5
3BE
330
3B4
100
AcDbEntity
  8
DIM
 62
     0
100
AcDbLine
 10
-2.0
 20
0.0
 30
0.0
 11
-4.2
 21
0.0
 31
0.0
  0
LINE
  5
3BF
330
3B4
100
AcDbEntity
  8
DIM
 62
     0
100
AcDbLine
 10
0.0
 20
-10.0
 30
0.0
 11
0.0
 21
-11.0
 31
0.0
  0
LINE
  5
3C0
330
3B4
100
AcDbEntity
  8
DIM
 62
     0
100
AcDbLine
 10
0.0
 20
-10.0
 30
0.0
 11
1.0
 21
-10.0
 31
0.0
  0
LINE
  5
3C1
330
3B4
100
AcDbEntity
  8
DIM
 62
     0
100
AcDbLine
 10
0.0
 20
-10.0
 30
0.0
 11
0.0
 21
-9.0
 31
0.0
  0
LINE
  5
3C2
330
3B4
100
AcDbEntity
  8
DIM
 62
     0
100
AcDbLine
 10
0.0
 20
-10.0
 30
0.0
 11
-1.0
 21
-10.0
 31
0.0
  0
LINE
  5
3C3
330
3B4
100
AcDbEntity
  8
DIM
 62
     0
100
AcDbLine
 10
0.0
 20
-12.0
 30
0.0
 11
0.0
 21
-14.2
 31
0.0
  0
LINE
  5
3C4
330
3B4
100
AcDbEntity
  8
DIM
 62
     0
100
AcDbLine
 10
2.0
 20
-10.0
 30
0.0
 11
4.2
 21
-10.0
 31
0.0
  0
LINE
  5
3C5
330
3B4
100
AcDbEntity
  8
DIM
 62
     0
100
AcDbLine
 10
0.0
 20
-8.0
 30
0.0
 11
0.0
 21
-5.8
 31
0.0
  0
LINE
  5
3C6
330
3B4
100
AcDbEntity
  8
DIM
 62
     0
100
AcDbLine
 10
-2.0
 20
-10.0
 30
0.0
 11
-4.2
 21
-10.0
 31
0.0
  0
ENDBLK
  5
3B6
330
3B4
100
AcDbEntity
  8
0
100
AcDbBlockEnd
  0
BLOCK
  5
3C9
330
3C8
100
AcDbEntity
  8
0
100
AcDbBlockBegin
  2
SW_CENTERMARKSYMBOL_6
 70
     0
 10
0.0
 20
0.0
 30
0.0
  3
SW_CENTERMARKSYMBOL_6
  1

  0
LINE
  5
3CB
330
3C8
100
AcDbEntity
  8
DIM
 62
     0
100
AcDbLine
 10
0.0
 20
0.0
 30
0.0
 11
0.0
 21
-1.0
 31
0.0
  0
LINE
  5
3CC
330
3C8
100
AcDbEntity
  8
DIM
 62
     0
100
AcDbLine
 10
0.0
 20
0.0
 30
0.0
 11
1.0
 21
0.0
 31
0.0
  0
LINE
  5
3CD
330
3C8
100
AcDbEntity
  8
DIM
 62
     0
100
AcDbLine
 10
0.0
 20
0.0
 30
0.0
 11
0.0
 21
1.0
 31
0.0
  0
LINE
  5
3CE
330
3C8
100
AcDbEntity
  8
DIM
 62
     0
100
AcDbLine
 10
0.0
 20
0.0
 30
0.0
 11
-1.0
 21
0.0
 31
0.0
  0
LINE
  5
3CF
330
3C8
100
AcDbEntity
  8
DIM
 62
     0
100
AcDbLine
 10
0.0
 20
-2.0
 30
0.0
 11
0.0
 21
-4.2
 31
0.0
  0
LINE
  5
3D0
330
3C8
100
AcDbEntity
  8
DIM
 62
     0
100
AcDbLine
 10
2.0
 20
0.0
 30
0.0
 11
4.2
 21
0.0
 31
0.0
  0
LINE
  5
3D1
330
3C8
100
AcDbEntity
  8
DIM
 62
     0
100
AcDbLine
 10
0.0
 20
2.0
 30
0.0
 11
0.0
 21
4.2
 31
0.0
  0
LINE
  5
3D2
330
3C8
100
AcDbEntity
  8
DIM
 62
     0
100
AcDbLine
 10
-2.0
 20
0.0
 30
0.0
 11
-4.2
 21
0.0
 31
0.0
  0
LINE
  5
3D3
330
3C8
100
AcDbEntity
  8
DIM
 62
     0
100
AcDbLine
 10
0.0
 20
-10.0
 30
0.0
 11
0.0
 21
-11.0
 31
0.0
  0
LINE
  5
3D4
330
3C8
100
AcDbEntity
  8
DIM
 62
     0
100
AcDbLine
 10
0.0
 20
-10.0
 30
0.0
 11
1.0
 21
-10.0
 31
0.0
  0
LINE
  5
3D5
330
3C8
100
AcDbEntity
  8
DIM
 62
     0
100
AcDbLine
 10
0.0
 20
-10.0
 30
0.0
 11
0.0
 21
-9.0
 31
0.0
  0
LINE
  5
3D6
330
3C8
100
AcDbEntity
  8
DIM
 62
     0
100
AcDbLine
 10
0.0
 20
-10.0
 30
0.0
 11
-1.0
 21
-10.0
 31
0.0
  0
LINE
  5
3D7
330
3C8
100
AcDbEntity
  8
DIM
 62
     0
100
AcDbLine
 10
0.0
 20
-12.0
 30
0.0
 11
0.0
 21
-14.2
 31
0.0
  0
LINE
  5
3D8
330
3C8
100
AcDbEntity
  8
DIM
 62
     0
100
AcDbLine
 10
2.0
 20
-10.0
 30
0.0
 11
4.2
 21
-10.0
 31
0.0
  0
LINE
  5
3D9
330
3C8
100
AcDbEntity
  8
DIM
 62
     0
100
AcDbLine
 10
0.0
 20
-8.0
 30
0.0
 11
0.0
 21
-5.8
 31
0.0
  0
LINE
  5
3DA
330
3C8
100
AcDbEntity
  8
DIM
 62
     0
100
AcDbLine
 10
-2.0
 20
-10.0
 30
0.0
 11
-4.2
 21
-10.0
 31
0.0
  0
ENDBLK
  5
3CA
330
3C8
100
AcDbEntity
  8
0
100
AcDbBlockEnd
  0
BLOCK
  5
3DD
330
3DC
100
AcDbEntity
  8
0
100
AcDbBlockBegin
  2
SW_CENTERMARKSYMBOL_7
 70
     0
 10
0.0
 20
0.0
 30
0.0
  3
SW_CENTERMARKSYMBOL_7
  1

  0
LINE
  5
3DF
330
3DC
100
AcDbEntity
  8
DIM
 62
     0
100
AcDbLine
 10
0.0
 20
0.0
 30
0.0
 11
0.0
 21
1.0
 31
0.0
  0
LINE
  5
3E0
330
3DC
100
AcDbEntity
  8
DIM
 62
     0
100
AcDbLine
 10
0.0
 20
0.0
 30
0.0
 11
-1.0
 21
0.0
 31
0.0
  0
LINE
  5
3E1
330
3DC
100
AcDbEntity
  8
DIM
 62
     0
100
AcDbLine
 10
0.0
 20
0.0
 30
0.0
 11
0.0
 21
-1.0
 31
0.0
  0
LINE
  5
3E2
330
3DC
100
AcDbEntity
  8
DIM
 62
     0
100
AcDbLine
 10
0.0
 20
0.0
 30
0.0
 11
1.0
 21
0.0
 31
0.0
  0
LINE
  5
3E3
330
3DC
100
AcDbEntity
  8
DIM
 62
     0
100
AcDbLine
 10
0.0
 20
2.0
 30
0.0
 11
0.0
 21
3.5527
 31
0.0
  0
LINE
  5
3E4
330
3DC
100
AcDbEntity
  8
DIM
 62
     0
100
AcDbLine
 10
-2.0
 20
0.0
 30
0.0
 11
-3.5527
 21
0.0
 31
0.0
  0
LINE
  5
3E5
330
3DC
100
AcDbEntity
  8
DIM
 62
     0
100
AcDbLine
 10
0.0
 20
-2.0
 30
0.0
 11
0.0
 21
-3.5527
 31
0.0
  0
LINE
  5
3E6
330
3DC
100
AcDbEntity
  8
DIM
 62
     0
100
AcDbLine
 10
2.0
 20
0.0
 30
0.0
 11
3.5527
 21
0.0
 31
0.0
  0
ENDBLK
  5
3DE
330
3DC
100
AcDbEntity
  8
0
100
AcDbBlockEnd
  0
BLOCK
  5
3E9
330
3E8
100
AcDbEntity
  8
0
100
AcDbBlockBegin
  2
SW_CENTERMARKSYMBOL_8
 70
     0
 10
0.0
 20
0.0
 30
0.0
  3
SW_CENTERMARKSYMBOL_8
  1

  0
LINE
  5
3EB
330
3E8
100
AcDbEntity
  8
DIM
 62
     0
100
AcDbLine
 10
0.0
 20
0.0
 30
0.0
 11
0.0
 21
1.0
 31
0.0
  0
LINE
  5
3EC
330
3E8
100
AcDbEntity
  8
DIM
 62
     0
100
AcDbLine
 10
0.0
 20
0.0
 30
0.0
 11
-1.0
 21
0.0
 31
0.0
  0
LINE
  5
3ED
330
3E8
100
AcDbEntity
  8
DIM
 62
     0
100
AcDbLine
 10
0.0
 20
0.0
 30
0.0
 11
0.0
 21
-1.0
 31
0.0
  0
LINE
  5
3EE
330
3E8
100
AcDbEntity
  8
DIM
 62
     0
100
AcDbLine
 10
0.0
 20
0.0
 30
0.0
 11
1.0
 21
0.0
 31
0.0
  0
LINE
  5
3EF
330
3E8
100
AcDbEntity
  8
DIM
 62
     0
100
AcDbLine
 10
0.0
 20
2.0
 30
0.0
 11
0.0
 21
3.5527
 31
0.0
  0
LINE
  5
3F0
330
3E8
100
AcDbEntity
  8
DIM
 62
     0
100
AcDbLine
 10
-2.0
 20
0.0
 30
0.0
 11
-3.5527
 21
0.0
 31
0.0
  0
LINE
  5
3F1
330
3E8
100
AcDbEntity
  8
DIM
 62
     0
100
AcDbLine
 10
0.0
 20
-2.0
 30
0.0
 11
0.0
 21
-3.5527
 31
0.0
  0
LINE
  5
3F2
330
3E8
100
AcDbEntity
  8
DIM
 62
     0
100
AcDbLine
 10
2.0
 20
0.0
 30
0.0
 11
3.5527
 21
0.0
 31
0.0
  0
ENDBLK
  5
3EA
330
3E8
100
AcDbEntity
  8
0
100
AcDbBlockEnd
  0
BLOCK
  5
3F5
330
3F4
100
AcDbEntity
  8
0
100
AcDbBlockBegin
  2
SW_CENTERMARKSYMBOL_9
 70
     0
 10
0.0
 20
0.0
 30
0.0
  3
SW_CENTERMARKSYMBOL_9
  1

  0
LINE
  5
3F7
330
3F4
100
AcDbEntity
  8
DIM
 62
     0
100
AcDbLine
 10
0.0
 20
0.0
 30
0.0
 11
0.0
 21
1.0
 31
0.0
  0
LINE
  5
3F8
330
3F4
100
AcDbEntity
  8
DIM
 62
     0
100
AcDbLine
 10
0.0
 20
0.0
 30
0.0
 11
-1.0
 21
0.0
 31
0.0
  0
LINE
  5
3F9
330
3F4
100
AcDbEntity
  8
DIM
 62
     0
100
AcDbLine
 10
0.0
 20
0.0
 30
0.0
 11
0.0
 21
-1.0
 31
0.0
  0
LINE
  5
3FA
330
3F4
100
AcDbEntity
  8
DIM
 62
     0
100
AcDbLine
 10
0.0
 20
0.0
 30
0.0
 11
1.0
 21
0.0
 31
0.0
  0
LINE
  5
3FB
330
3F4
100
AcDbEntity
  8
DIM
 62
     0
100
AcDbLine
 10
0.0
 20
2.0
 30
0.0
 11
0.0
 21
3.5527
 31
0.0
  0
LINE
  5
3FC
330
3F4
100
AcDbEntity
  8
DIM
 62
     0
100
AcDbLine
 10
-2.0
 20
0.0
 30
0.0
 11
-3.5527
 21
0.0
 31
0.0
  0
LINE
  5
3FD
330
3F4
100
AcDbEntity
  8
DIM
 62
     0
100
AcDbLine
 10
0.0
 20
-2.0
 30
0.0
 11
0.0
 21
-3.5527
 31
0.0
  0
LINE
  5
3FE
330
3F4
100
AcDbEntity
  8
DIM
 62
     0
100
AcDbLine
 10
2.0
 20
0.0
 30
0.0
 11
3.5527
 21
0.0
 31
0.0
  0
ENDBLK
  5
3F6
330
3F4
100
AcDbEntity
  8
0
100
AcDbBlockEnd
  0
BLOCK
  5
41B
330
41A
100
AcDbEntity
  8
0
100
AcDbBlockBegin
  2
_D_24
 70
     0
 10
0.0
 20
0.0
 30
0.0
  3
_D_24
  1

  0
SOLID
  5
41D
330
41A
100
AcDbEntity
  8
DIM
100
AcDbTrace
 10
250.4240627414
 20
50.6916246028
 30
0.0
 11
245.4240627414
 21
51.3166246028
 31
0.0
 12
245.4240627414
 22
50.0666246028
 32
0.0
 13
245.4240627414
 23
50.0666246028
 33
0.0
  0
SOLID
  5
41E
330
41A
100
AcDbEntity
  8
DIM
100
AcDbTrace
 10
186.9240627414
 20
50.6916246028
 30
0.0
 11
191.9240627414
 21
50.0666246028
 31
0.0
 12
191.9240627414
 22
51.3166246028
 32
0.0
 13
191.9240627414
 23
51.3166246028
 33
0.0
  0
LINE
  5
41F
330
41A
100
AcDbEntity
  8
DIM
100
AcDbLine
 10
250.4240627414
 20
70.5166246028
 30
0.0
 11
250.4240627414
 21
48.1916246028
 31
0.0
  0
LINE
  5
420
330
41A
100
AcDbEntity
  8
DIM
100
AcDbLine
 10
186.9240627414
 20
66.6916246028
 30
0.0
 11
186.9240627414
 21
48.1916246028
 31
0.0
  0
LINE
  5
421
330
41A
100
AcDbEntity
  8
DIM
100
AcDbLine
 10
250.4240627414
 20
50.6916246028
 30
0.0
 11
186.9240627414
 21
50.6916246028
 31
0.0
  0
MTEXT
  5
422
330
41A
100
AcDbEntity
  8
DIM
100
AcDbMText
 10
212.1531865461
 20
58.3656057001
 30
0.0
 40
5.953125
 41
0.0
 71
     1
 72
     1
  1
63.5
  7
SLDTEXTSTYLE1
 73
     1
 44
1.0
  0
ENDBLK
  5
41C
330
41A
100
AcDbEntity
  8
0
100
AcDbBlockEnd
  0
BLOCK
  5
425
330
424
100
AcDbEntity
  8
0
100
AcDbBlockBegin
  2
_D_25
 70
     0
 10
0.0
 20
0.0
 30
0.0
  3
_D_25
  1

  0
SOLID
  5
427
330
424
100
AcDbEntity
  8
DIM
100
AcDbTrace
 10
250.4240627414
 20
50.6916246028
 30
0.0
 11
245.4240627414
 21
51.3166246028
 31
0.0
 12
245.4240627414
 22
50.0666246028
 32
0.0
 13
245.4240627414
 23
50.0666246028
 33
0.0
  0
SOLID
  5
428
330
424
100
AcDbEntity
  8
DIM
100
AcDbTrace
 10
275.8240627414
 20
50.6916246028
 30
0.0
 11
280.8240627414
 21
50.0666246028
 31
0.0
 12
280.8240627414
 22
51.3166246028
 32
0.0
 13
280.8240627414
 23
51.3166246028
 33
0.0
  0
LINE
  5
429
330
424
100
AcDbEntity
  8
DIM
100
AcDbLine
 10
250.4240627414
 20
70.5166246028
 30
0.0
 11
250.4240627414
 21
48.1916246028
 31
0.0
  0
LINE
  5
42A
330
424
100
AcDbEntity
  8
DIM
100
AcDbLine
 10
275.8240627414
 20
70.5166246028
 30
0.0
 11
275.8240627414
 21
48.1916246028
 31
0.0
  0
LINE
  5
42B
330
424
100
AcDbEntity
  8
DIM
100
AcDbLine
 10
250.4240627414
 20
50.6916246028
 30
0.0
 11
242.9240627414
 21
50.6916246028
 31
0.0
  0
LINE
  5
42C
330
424
100
AcDbEntity
  8
DIM
100
AcDbLine
 10
250.4240627414
 20
50.6916246028
 30
0.0
 11
275.8240627414
 21
50.6916246028
 31
0.0
  0
LINE
  5
42D
330
424
100
AcDbEntity
  8
DIM
100
AcDbLine
 10
275.8240627414
 20
50.6916246028
 30
0.0
 11
283.3240627414
 21
50.6916246028
 31
0.0
  0
MTEXT
  5
42E
330
424
100
AcDbEntity
  8
DIM
100
AcDbMText
 10
256.6031865461
 20
58.3656057001
 30
0.0
 40
5.953125
 41
0.0
 71
     1
 72
     1
  1
25.4
  7
SLDTEXTSTYLE1
 73
     1
 44
1.0
  0
ENDBLK
  5
426
330
424
100
AcDbEntity
  8
0
100
AcDbBlockEnd
  0
BLOCK
  5
431
330
430
100
AcDbEntity
  8
0
100
AcDbBlockBegin
  2
_D_26
 70
     0
 10
0.0
 20
0.0
 30
0.0
  3
_D_26
  1

  0
SOLID
  5
433
330
430
100
AcDbEntity
  8
DIM
100
AcDbTrace
 10
275.8240627414
 20
50.6916246028
 30
0.0
 11
270.8240627414
 21
51.3166246028
 31
0.0
 12
270.8240627414
 22
50.0666246028
 32
0.0
 13
270.8240627414
 23
50.0666246028
 33
0.0
  0
SOLID
  5
434
330
430
100
AcDbEntity
  8
DIM
100
AcDbTrace
 10
301.2240627414
 20
50.6916246028
 30
0.0
 11
306.2240627414
 21
50.0666246028
 31
0.0
 12
306.2240627414
 22
51.3166246028
 32
0.0
 13
306.2240627414
 23
51.3166246028
 33
0.0
  0
LINE
  5
435
330
430
100
AcDbEntity
  8
DIM
100
AcDbLine
 10
275.8240627414
 20
70.5166246028
 30
0.0
 11
275.8240627414
 21
48.1916246028
 31
0.0
  0
LINE
  5
436
330
430
100
AcDbEntity
  8
DIM
100
AcDbLine
 10
301.2240627414
 20
70.5166246028
 30
0.0
 11
301.2240627414
 21
48.1916246028
 31
0.0
  0
LINE
  5
437
330
430
100
AcDbEntity
  8
DIM
100
AcDbLine
 10
275.8240627414
 20
50.6916246028
 30
0.0
 11
268.3240627414
 21
50.6916246028
 31
0.0
  0
LINE
  5
438
330
430
100
AcDbEntity
  8
DIM
100
AcDbLine
 10
275.8240627414
 20
50.6916246028
 30
0.0
 11
301.2240627414
 21
50.6916246028
 31
0.0
  0
LINE
  5
439
330
430
100
AcDbEntity
  8
DIM
100
AcDbLine
 10
301.2240627414
 20
50.6916246028
 30
0.0
 11
308.7240627414
 21
50.6916246028
 31
0.0
  0
MTEXT
  5
43A
330
430
100
AcDbEntity
  8
DIM
100
AcDbMText
 10
282.0031865461
 20
58.3656057001
 30
0.0
 40
5.953125
 41
0.0
 71
     1
 72
     1
  1
25.4
  7
SLDTEXTSTYLE1
 73
     1
 44
1.0
  0
ENDBLK
  5
432
330
430
100
AcDbEntity
  8
0
100
AcDbBlockEnd
  0
BLOCK
  5
43D
330
43C
100
AcDbEntity
  8
0
100
AcDbBlockBegin
  2
_D_27
 70
     0
 10
0.0
 20
0.0
 30
0.0
  3
_D_27
  1

  0
SOLID
  5
43F
330
43C
100
AcDbEntity
  8
DIM
100
AcDbTrace
 10
186.9240627414
 20
103.6916246028
 30
0.0
 11
191.9240627414
 21
103.0666246028
 31
0.0
 12
191.9240627414
 22
104.3166246028
 32
0.0
 13
191.9240627414
 23
104.3166246028
 33
0.0
  0
SOLID
  5
440
330
43C
100
AcDbEntity
  8
DIM
100
AcDbTrace
 10
263.1240627414
 20
103.6916246028
 30
0.0
 11
258.1240627414
 21
104.3166246028
 31
0.0
 12
258.1240627414
 22
103.0666246028
 32
0.0
 13
258.1240627414
 23
103.0666246028
 33
0.0
  0
LINE
  5
441
330
43C
100
AcDbEntity
  8
DIM
100
AcDbLine
 10
186.9240627414
 20
87.6916246028
 30
0.0
 11
186.9240627414
 21
106.1916246028
 31
0.0
  0
LINE
  5
442
330
43C
100
AcDbEntity
  8
DIM
100
AcDbLine
 10
263.1240627414
 20
83.2443246028
 30
0.0
 11
263.1240627414
 21
106.1916246028
 31
0.0
  0
LINE
  5
443
330
43C
100
AcDbEntity
  8
DIM
100
AcDbLine
 10
186.9240627414
 20
103.6916246028
 30
0.0
 11
263.1240627414
 21
103.6916246028
 31
0.0
  0
MTEXT
  5
444
330
43C
100
AcDbEntity
  8
DIM
100
AcDbMText
 10
218.5031865461
 20
111.3656057001
 30
0.0
 40
5.953125
 41
0.0
 71
     1
 72
     1
  1
76.2
  7
SLDTEXTSTYLE1
 73
     1
 44
1.0
  0
ENDBLK
  5
43E
330
43C
100
AcDbEntity
  8
0
100
AcDbBlockEnd
  0
BLOCK
  5
447
330
446
100
AcDbEntity
  8
0
100
AcDbBlockBegin
  2
_D_28
 70
     0
 10
0.0
 20
0.0
 30
0.0
  3
_D_28
  1

  0
SOLID
  5
449
330
446
100
AcDbEntity
  8
DIM
100
AcDbTrace
 10
263.1240627414
 20
103.6916246028
 30
0.0
 11
258.1240627414
 21
104.3166246028
 31
0.0
 12
258.1240627414
 22
103.0666246028
 32
0.0
 13
258.1240627414
 23
103.0666246028
 33
0.0
  0
SOLID
  5
44A
330
446
100
AcDbEntity
  8
DIM
100
AcDbTrace
 10
288.5240627414
 20
103.6916246028
 30
0.0
 11
293.5240627414
 21
103.0666246028
 31
0.0
 12
293.5240627414
 22
104.3166246028
 32
0.0
 13
293.5240627414
 23
104.3166246028
 33
0.0
  0
LINE
  5
44B
330
446
100
AcDbEntity
  8
DIM
100
AcDbLine
 10
263.1240627414
 20
83.2443246028
 30
0.0
 11
263.1240627414
 21
106.1916246028
 31
0.0
  0
LINE
  5
44C
330
446
100
AcDbEntity
  8
DIM
100
AcDbLine
 10
288.5240627414
 20
83.2443246028
 30
0.0
 11
288.5240627414
 21
106.1916246028
 31
0.0
  0
LINE
  5
44D
330
446
100
AcDbEntity
  8
DIM
100
AcDbLine
 10
263.1240627414
 20
103.6916246028
 30
0.0
 11
255.6240627414
 21
103.6916246028
 31
0.0
  0
LINE
  5
44E
330
446
100
AcDbEntity
  8
DIM
100
AcDbLine
 10
263.1240627414
 20
103.6916246028
 30
0.0
 11
288.5240627414
 21
103.6916246028
 31
0.0
  0
LINE
  5
44F
330
446
100
AcDbEntity
  8
DIM
100
AcDbLine
 10
288.5240627414
 20
103.6916246028
 30
0.0
 11
296.0240627414
 21
103.6916246028
 31
0.0
  0
MTEXT
  5
450
330
446
100
AcDbEntity
  8
DIM
100
AcDbMText
 10
269.3031865461
 20
111.3656057001
 30
0.0
 40
5.953125
 41
0.0
 71
     1
 72
     1
  1
25.4
  7
SLDTEXTSTYLE1
 73
     1
 44
1.0
  0
ENDBLK
  5
448
330
446
100
AcDbEntity
  8
0
100
AcDbBlockEnd
  0
BLOCK
  5
453
330
452
100
AcDbEntity
  8
0
100
AcDbBlockBegin
  2
_D_29
 70
     0
 10
0.0
 20
0.0
 30
0.0
  3
_D_29
  1

  0
SOLID
  5
455
330
452
100
AcDbEntity
  8
DIM
100
AcDbTrace
 10
288.5240627414
 20
103.6916246028
 30
0.0
 11
293.5240627414
 21
103.0666246028
 31
0.0
 12
293.5240627414
 22
104.3166246028
 32
0.0
 13
293.5240627414
 23
104.3166246028
 33
0.0
  0
SOLID
  5
456
330
452
100
AcDbEntity
  8
DIM
100
AcDbTrace
 10
326.6240627414
 20
103.6916246028
 30
0.0
 11
321.6240627414
 21
104.3166246028
 31
0.0
 12
321.6240627414
 22
103.0666246028
 32
0.0
 13
321.6240627414
 23
103.0666246028
 33
0.0
  0
LINE
  5
457
330
452
100
AcDbEntity
  8
DIM
100
AcDbLine
 10
288.5240627414
 20
83.2443246028
 30
0.0
 11
288.5240627414
 21
106.1916246028
 31
0.0
  0
LINE
  5
458
330
452
100
AcDbEntity
  8
DIM
100
AcDbLine
 10
326.6240627414
 20
83.2443246028
 30
0.0
 11
326.6240627414
 21
106.1916246028
 31
0.0
  0
LINE
  5
459
330
452
100
AcDbEntity
  8
DIM
100
AcDbLine
 10
288.5240627414
 20
103.6916246028
 30
0.0
 11
326.6240627414
 21
103.6916246028
 31
0.0
  0
MTEXT
  5
45A
330
452
100
AcDbEntity
  8
DIM
100
AcDbMText
 10
301.0531865461
 20
111.3656057001
 30
0.0
 40
5.953125
 41
0.0
 71
     1
 72
     1
  1
38.1
  7
SLDTEXTSTYLE1
 73
     1
 44
1.0
  0
ENDBLK
  5
454
330
452
100
AcDbEntity
  8
0
100
AcDbBlockEnd
  0
BLOCK
  5
45D
330
45C
100
AcDbEntity
  8
0
100
AcDbBlockBegin
  2
_D_30
 70
     0
 10
0.0
 20
0.0
 30
0.0
  3
_D_30
  1

  0
SOLID
  5
45F
330
45C
100
AcDbEntity
  8
DIM
100
AcDbTrace
 10
169.4240627414
 20
77.1916246028
 30
0.0
 11
168.7990627414
 21
72.1916246028
 31
0.0
 12
170.0490627414
 22
72.1916246028
 32
0.0
 13
170.0490627414
 23
72.1916246028
 33
0.0
  0
SOLID
  5
460
330
45C
100
AcDbEntity
  8
DIM
100
AcDbTrace
 10
169.4240627414
 20
86.1916246028
 30
0.0
 11
170.0490627414
 21
91.1916246028
 31
0.0
 12
168.7990627414
 22
91.1916246028
 32
0.0
 13
168.7990627414
 23
91.1916246028
 33
0.0
  0
LINE
  5
461
330
45C
100
AcDbEntity
  8
DIM
100
AcDbLine
 10
243.7490627414
 20
77.1916246028
 30
0.0
 11
166.9240627414
 21
77.1916246028
 31
0.0
  0
LINE
  5
462
330
45C
100
AcDbEntity
  8
DIM
100
AcDbLine
 10
185.4240627414
 20
86.1916246028
 30
0.0
 11
166.9240627414
 21
86.1916246028
 31
0.0
  0
LINE
  5
463
330
45C
100
AcDbEntity
  8
DIM
100
AcDbLine
 10
169.4240627414
 20
77.1916246028
 30
0.0
 11
169.4240627414
 21
69.6916246028
 31
0.0
  0
LINE
  5
464
330
45C
100
AcDbEntity
  8
DIM
100
AcDbLine
 10
169.4240627414
 20
77.1916246028
 30
0.0
 11
169.4240627414
 21
86.1916246028
 31
0.0
  0
LINE
  5
465
330
45C
100
AcDbEntity
  8
DIM
100
AcDbLine
 10
169.4240627414
 20
86.1916246028
 30
0.0
 11
169.4240627414
 21
93.6916246028
 31
0.0
  0
MTEXT
  5
466
330
45C
100
AcDbEntity
  8
DIM
100
AcDbMText
 10
161.7500816441
 20
79.8285169937
 30
0.0
 40
5.953125
 41
0.0
 71
     1
 72
     1
  1
9
  7
SLDTEXTSTYLE1
 11
-1.608122649676637E-16
 21
1.0
 31
0.0
 73
     1
 44
1.0
  0
ENDBLK
  5
45E
330
45C
100
AcDbEntity
  8
0
100
AcDbBlockEnd
  0
BLOCK
  5
468
330
467
100
AcDbEntity
  8
0
100
AcDbBlockBegin
  2
SW_NOTE_7
 70
     0
 10
0.0
 20
0.0
 30
0.0
  3
SW_NOTE_7
  1

  0
LINE
  5
46A
330
467
100
AcDbEntity
  8
DIM
 62
     0
100
AcDbLine
 10
31.3727906841
 20
0.0
 30
0.0
 11
0.0
 21
0.0
 31
0.0
  0
MTEXT
  5
46B
330
467
100
AcDbEntity
  8
DIM
 62
     0
100
AcDbMText
 10
1.1858814125
 20
18.0780583969
 30
0.0
 40
5.953125
 41
0.0
 71
     1
 72
     1
  1
3 HOLES,
  7
SLDTEXTSTYLE1
 73
     1
 44
1.0
  0
MTEXT
  5
46C
330
467
100
AcDbEntity
  8
DIM
 62
     0
100
AcDbMText
 10
1.1858814125
 20
7.6405586651
 30
0.0
 40
5.953125
 41
0.0
 71
     1
 72
     1
  1
1/4"-20
  7
SLDTEXTSTYLE1
 73
     1
 44
1.0
  0
ENDBLK
  5
469
330
467
100
AcDbEntity
  8
0
100
AcDbBlockEnd
  0
BLOCK
  5
470
330
46F
100
AcDbEntity
  8
0
100
AcDbBlockBegin
  2
SW_NOTE_8
 70
     0
 10
0.0
 20
0.0
 30
0.0
  3
SW_NOTE_8
  1

  0
LINE
  5
472
330
46F
100
AcDbEntity
  8
DIM
 62
     0
100
AcDbLine
 10
38.7811195041
 20
0.0
 30
0.0
 11
0.0
 21
0.0
 31
0.0
  0
MTEXT
  5
473
330
46F
100
AcDbEntity
  8
DIM
 62
     0
100
AcDbMText
 10
1.170040086
 20
17.8704156892
 30
0.0
 40
5.953125
 41
0.0
 71
     1
 72
     1
  1
3 HOLES,
  7
SLDTEXTSTYLE1
 73
     1
 44
1.0
  0
MTEXT
  5
474
330
46F
100
AcDbEntity
  8
DIM
 62
     0
100
AcDbMText
 10
1.170040086
 20
7.4329159574
 30
0.0
 40
5.953125
 41
0.0
 71
     1
 72
     1
  1
1/4"-20 CLR
  7
SLDTEXTSTYLE1
 73
     1
 44
1.0
  0
ENDBLK
  5
471
330
46F
100
AcDbEntity
  8
0
100
AcDbBlockEnd
  0
BLOCK
  5
478
330
477
100
AcDbEntity
  8
0
100
AcDbBlockBegin
  2
SW_CENTERMARKSYMBOL_10
 70
     0
 10
0.0
 20
0.0
 30
0.0
  3
SW_CENTERMARKSYMBOL_10
  1

  0
LINE
  5
47A
330
477
100
AcDbEntity
  8
DIM
 62
     0
100
AcDbLine
 10
0.0
 20
0.0
 30
0.0
 11
0.0
 21
1.0
 31
0.0
  0
LINE
  5
47B
330
477
100
AcDbEntity
  8
DIM
 62
     0
100
AcDbLine
 10
0.0
 20
0.0
 30
0.0
 11
-1.0
 21
0.0
 31
0.0
  0
LINE
  5
47C
330
477
100
AcDbEntity
  8
DIM
 62
     0
100
AcDbLine
 10
0.0
 20
0.0
 30
0.0
 11
0.0
 21
-1.0
 31
0.0
  0
LINE
  5
47D
330
477
100
AcDbEntity
  8
DIM
 62
     0
100
AcDbLine
 10
0.0
 20
0.0
 30
0.0
 11
1.0
 21
0.0
 31
0.0
  0
LINE
  5
47E
330
477
100
AcDbEntity
  8
DIM
 62
     0
100
AcDbLine
 10
0.0
 20
2.0
 30
0.0
 11
0.0
 21
4.175
 31
0.0
  0
LINE
  5
47F
330
477
100
AcDbEntity
  8
DIM
 62
     0
100
AcDbLine
 10
-2.0
 20
0.0
 30
0.0
 11
-4.175
 21
0.0
 31
0.0
  0
LINE
  5
480
330
477
100
AcDbEntity
  8
DIM
 62
     0
100
AcDbLine
 10
0.0
 20
-2.0
 30
0.0
 11
0.0
 21
-4.175
 31
0.0
  0
LINE
  5
481
330
477
100
AcDbEntity
  8
DIM
 62
     0
100
AcDbLine
 10
2.0
 20
0.0
 30
0.0
 11
4.175
 21
0.0
 31
0.0
  0
ENDBLK
  5
479
330
477
100
AcDbEntity
  8
0
100
AcDbBlockEnd
  0
BLOCK
  5
484
330
483
100
AcDbEntity
  8
0
100
AcDbBlockBegin
  2
SW_CENTERMARKSYMBOL_11
 70
     0
 10
0.0
 20
0.0
 30
0.0
  3
SW_CENTERMARKSYMBOL_11
  1

  0
LINE
  5
486
330
483
100
AcDbEntity
  8
DIM
 62
     0
100
AcDbLine
 10
0.0
 20
0.0
 30
0.0
 11
0.0
 21
1.0
 31
0.0
  0
LINE
  5
487
330
483
100
AcDbEntity
  8
DIM
 62
     0
100
AcDbLine
 10
0.0
 20
0.0
 30
0.0
 11
-1.0
 21
0.0
 31
0.0
  0
LINE
  5
488
330
483
100
AcDbEntity
  8
DIM
 62
     0
100
AcDbLine
 10
0.0
 20
0.0
 30
0.0
 11
0.0
 21
-1.0
 31
0.0
  0
LINE
  5
489
330
483
100
AcDbEntity
  8
DIM
 62
     0
100
AcDbLine
 10
0.0
 20
0.0
 30
0.0
 11
1.0
 21
0.0
 31
0.0
  0
LINE
  5
48A
330
483
100
AcDbEntity
  8
DIM
 62
     0
100
AcDbLine
 10
0.0
 20
2.0
 30
0.0
 11
0.0
 21
3.5527
 31
0.0
  0
LINE
  5
48B
330
483
100
AcDbEntity
  8
DIM
 62
     0
100
AcDbLine
 10
-2.0
 20
0.0
 30
0.0
 11
-3.5527
 21
0.0
 31
0.0
  0
LINE
  5
48C
330
483
100
AcDbEntity
  8
DIM
 62
     0
100
AcDbLine
 10
0.0
 20
-2.0
 30
0.0
 11
0.0
 21
-3.5527
 31
0.0
  0
LINE
  5
48D
330
483
100
AcDbEntity
  8
DIM
 62
     0
100
AcDbLine
 10
2.0
 20
0.0
 30
0.0
 11
3.5527
 21
0.0
 31
0.0
  0
ENDBLK
  5
485
330
483
100
AcDbEntity
  8
0
100
AcDbBlockEnd
  0
BLOCK
  5
490
330
48F
100
AcDbEntity
  8
0
100
AcDbBlockBegin
  2
SW_CENTERMARKSYMBOL_12
 70
     0
 10
0.0
 20
0.0
 30
0.0
  3
SW_CENTERMARKSYMBOL_12
  1

  0
LINE
  5
492
330
48F
100
AcDbEntity
  8
DIM
 62
     0
100
AcDbLine
 10
0.0
 20
0.0
 30
0.0
 11
0.0
 21
1.0
 31
0.0
  0
LINE
  5
493
330
48F
100
AcDbEntity
  8
DIM
 62
     0
100
AcDbLine
 10
0.0
 20
0.0
 30
0.0
 11
-1.0
 21
0.0
 31
0.0
  0
LINE
  5
494
330
48F
100
AcDbEntity
  8
DIM
 62
     0
100
AcDbLine
 10
0.0
 20
0.0
 30
0.0
 11
0.0
 21
-1.0
 31
0.0
  0
LINE
  5
495
330
48F
100
AcDbEntity
  8
DIM
 62
     0
100
AcDbLine
 10
0.0
 20
0.0
 30
0.0
 11
1.0
 21
0.0
 31
0.0
  0
LINE
  5
496
330
48F
100
AcDbEntity
  8
DIM
 62
     0
100
AcDbLine
 10
0.0
 20
2.0
 30
0.0
 11
0.0
 21
4.175
 31
0.0
  0
LINE
  5
497
330
48F
100
AcDbEntity
  8
DIM
 62
     0
100
AcDbLine
 10
-2.0
 20
0.0
 30
0.0
 11
-4.175
 21
0.0
 31
0.0
  0
LINE
  5
498
330
48F
100
AcDbEntity
  8
DIM
 62
     0
100
AcDbLine
 10
0.0
 20
-2.0
 30
0.0
 11
0.0
 21
-4.175
 31
0.0
  0
LINE
  5
499
330
48F
100
AcDbEntity
  8
DIM
 62
     0
100
AcDbLine
 10
2.0
 20
0.0
 30
0.0
 11
4.175
 21
0.0
 31
0.0
  0
ENDBLK
  5
491
330
48F
100
AcDbEntity
  8
0
100
AcDbBlockEnd
  0
BLOCK
  5
49C
330
49B
100
AcDbEntity
  8
0
100
AcDbBlockBegin
  2
SW_CENTERMARKSYMBOL_13
 70
     0
 10
0.0
 20
0.0
 30
0.0
  3
SW_CENTERMARKSYMBOL_13
  1

  0
LINE
  5
49E
330
49B
100
AcDbEntity
  8
DIM
 62
     0
100
AcDbLine
 10
0.0
 20
0.0
 30
0.0
 11
0.0
 21
1.0
 31
0.0
  0
LINE
  5
49F
330
49B
100
AcDbEntity
  8
DIM
 62
     0
100
AcDbLine
 10
0.0
 20
0.0
 30
0.0
 11
-1.0
 21
0.0
 31
0.0
  0
LINE
  5
4A0
330
49B
100
AcDbEntity
  8
DIM
 62
     0
100
AcDbLine
 10
0.0
 20
0.0
 30
0.0
 11
0.0
 21
-1.0
 31
0.0
  0
LINE
  5
4A1
330
49B
100
AcDbEntity
  8
DIM
 62
     0
100
AcDbLine
 10
0.0
 20
0.0
 30
0.0
 11
1.0
 21
0.0
 31
0.0
  0
LINE
  5
4A2
330
49B
100
AcDbEntity
  8
DIM
 62
     0
100
AcDbLine
 10
0.0
 20
2.0
 30
0.0
 11
0.0
 21
3.5527
 31
0.0
  0
LINE
  5
4A3
330
49B
100
AcDbEntity
  8
DIM
 62
     0
100
AcDbLine
 10
-2.0
 20
0.0
 30
0.0
 11
-3.5527
 21
0.0
 31
0.0
  0
LINE
  5
4A4
330
49B
100
AcDbEntity
  8
DIM
 62
     0
100
AcDbLine
 10
0.0
 20
-2.0
 30
0.0
 11
0.0
 21
-3.5527
 31
0.0
  0
LINE
  5
4A5
330
49B
100
AcDbEntity
  8
DIM
 62
     0
100
AcDbLine
 10
2.0
 20
0.0
 30
0.0
 11
3.5527
 21
0.0
 31
0.0
  0
ENDBLK
  5
49D
330
49B
100
AcDbEntity
  8
0
100
AcDbBlockEnd
  0
BLOCK
  5
4A8
330
4A7
100
AcDbEntity
  8
0
100
AcDbBlockBegin
  2
SW_CENTERMARKSYMBOL_14
 70
     0
 10
0.0
 20
0.0
 30
0.0
  3
SW_CENTERMARKSYMBOL_14
  1

  0
LINE
  5
4AA
330
4A7
100
AcDbEntity
  8
DIM
 62
     0
100
AcDbLine
 10
0.0
 20
0.0
 30
0.0
 11
0.0
 21
1.0
 31
0.0
  0
LINE
  5
4AB
330
4A7
100
AcDbEntity
  8
DIM
 62
     0
100
AcDbLine
 10
0.0
 20
0.0
 30
0.0
 11
-1.0
 21
0.0
 31
0.0
  0
LINE
  5
4AC
330
4A7
100
AcDbEntity
  8
DIM
 62
     0
100
AcDbLine
 10
0.0
 20
0.0
 30
0.0
 11
0.0
 21
-1.0
 31
0.0
  0
LINE
  5
4AD
330
4A7
100
AcDbEntity
  8
DIM
 62
     0
100
AcDbLine
 10
0.0
 20
0.0
 30
0.0
 11
1.0
 21
0.0
 31
0.0
  0
LINE
  5
4AE
330
4A7
100
AcDbEntity
  8
DIM
 62
     0
100
AcDbLine
 10
0.0
 20
2.0
 30
0.0
 11
0.0
 21
4.175
 31
0.0
  0
LINE
  5
4AF
330
4A7
100
AcDbEntity
  8
DIM
 62
     0
100
AcDbLine
 10
-2.0
 20
0.0
 30
0.0
 11
-4.175
 21
0.0
 31
0.0
  0
LINE
  5
4B0
330
4A7
100
AcDbEntity
  8
DIM
 62
     0
100
AcDbLine
 10
0.0
 20
-2.0
 30
0.0
 11
0.0
 21
-4.175
 31
0.0
  0
LINE
  5
4B1
330
4A7
100
AcDbEntity
  8
DIM
 62
     0
100
AcDbLine
 10
2.0
 20
0.0
 30
0.0
 11
4.175
 21
0.0
 31
0.0
  0
ENDBLK
  5
4A9
330
4A7
100
AcDbEntity
  8
0
100
AcDbBlockEnd
  0
BLOCK
  5
4B4
330
4B3
100
AcDbEntity
  8
0
100
AcDbBlockBegin
  2
SW_CENTERMARKSYMBOL_15
 70
     0
 10
0.0
 20
0.0
 30
0.0
  3
SW_CENTERMARKSYMBOL_15
  1

  0
LINE
  5
4B6
330
4B3
100
AcDbEntity
  8
DIM
 62
     0
100
AcDbLine
 10
0.0
 20
0.0
 30
0.0
 11
0.0
 21
1.0
 31
0.0
  0
LINE
  5
4B7
330
4B3
100
AcDbEntity
  8
DIM
 62
     0
100
AcDbLine
 10
0.0
 20
0.0
 30
0.0
 11
-1.0
 21
0.0
 31
0.0
  0
LINE
  5
4B8
330
4B3
100
AcDbEntity
  8
DIM
 62
     0
100
AcDbLine
 10
0.0
 20
0.0
 30
0.0
 11
0.0
 21
-1.0
 31
0.0
  0
LINE
  5
4B9
330
4B3
100
AcDbEntity
  8
DIM
 62
     0
100
AcDbLine
 10
0.0
 20
0.0
 30
0.0
 11
1.0
 21
0.0
 31
0.0
  0
LINE
  5
4BA
330
4B3
100
AcDbEntity
  8
DIM
 62
     0
100
AcDbLine
 10
0.0
 20
2.0
 30
0.0
 11
0.0
 21
3.5527
 31
0.0
  0
LINE
  5
4BB
330
4B3
100
AcDbEntity
  8
DIM
 62
     0
100
AcDbLine
 10
-2.0
 20
0.0
 30
0.0
 11
-3.5527
 21
0.0
 31
0.0
  0
LINE
  5
4BC
330
4B3
100
AcDbEntity
  8
DIM
 62
     0
100
AcDbLine
 10
0.0
 20
-2.0
 30
0.0
 11
0.0
 21
-3.5527
 31
0.0
  0
LINE
  5
4BD
330
4B3
100
AcDbEntity
  8
DIM
 62
     0
100
AcDbLine
 10
2.0
 20
0.0
 30
0.0
 11
3.5527
 21
0.0
 31
0.0
  0
ENDBLK
  5
4B5
330
4B3
100
AcDbEntity
  8
0
100
AcDbBlockEnd
  0
BLOCK
  5
4E6
330
4E5
100
AcDbEntity
  8
0
100
AcDbBlockBegin
  2
_D_31
 70
     0
 10
0.0
 20
0.0
 30
0.0
  3
_D_31
  1

  0
SOLID
  5
4E8
330
4E5
100
AcDbEntity
  8
DIM
100
AcDbTrace
 10
199.6240627414
 20
459.6463418723
 30
0.0
 11
204.6240627414
 21
459.0213418723
 31
0.0
 12
204.6240627414
 22
460.2713418723
 32
0.0
 13
204.6240627414
 23
460.2713418723
 33
0.0
  0
SOLID
  5
4E9
330
4E5
100
AcDbEntity
  8
DIM
100
AcDbTrace
 10
186.9240627414
 20
459.6463418723
 30
0.0
 11
181.9240627414
 21
460.2713418723
 31
0.0
 12
181.9240627414
 22
459.0213418723
 32
0.0
 13
181.9240627414
 23
459.0213418723
 33
0.0
  0
LINE
  5
4EA
330
4E5
100
AcDbEntity
  8
DIM
100
AcDbLine
 10
199.6240627414
 20
439.1990418723
 30
0.0
 11
199.6240627414
 21
462.1463418723
 31
0.0
  0
LINE
  5
4EB
330
4E5
100
AcDbEntity
  8
DIM
100
AcDbLine
 10
186.9240627414
 20
443.6463418723
 30
0.0
 11
186.9240627414
 21
462.1463418723
 31
0.0
  0
LINE
  5
4EC
330
4E5
100
AcDbEntity
  8
DIM
100
AcDbLine
 10
199.6240627414
 20
459.6463418723
 30
0.0
 11
207.1240627414
 21
459.6463418723
 31
0.0
  0
LINE
  5
4ED
330
4E5
100
AcDbEntity
  8
DIM
100
AcDbLine
 10
199.6240627414
 20
459.6463418723
 30
0.0
 11
186.9240627414
 21
459.6463418723
 31
0.0
  0
LINE
  5
4EE
330
4E5
100
AcDbEntity
  8
DIM
100
AcDbLine
 10
186.9240627414
 20
459.6463418723
 30
0.0
 11
179.4240627414
 21
459.6463418723
 31
0.0
  0
MTEXT
  5
4EF
330
4E5
100
AcDbEntity
  8
DIM
100
AcDbMText
 10
186.7531865461
 20
467.3203229696
 30
0.0
 40
5.953125
 41
0.0
 71
     1
 72
     1
  1
12.7
  7
SLDTEXTSTYLE1
 73
     1
 44
1.0
  0
ENDBLK
  5
4E7
330
4E5
100
AcDbEntity
  8
0
100
AcDbBlockEnd
  0
BLOCK
  5
4F2
330
4F1
100
AcDbEntity
  8
0
100
AcDbBlockBegin
  2
_D_32
 70
     0
 10
0.0
 20
0.0
 30
0.0
  3
_D_32
  1

  0
SOLID
  5
4F4
330
4F1
100
AcDbEntity
  8
DIM
100
AcDbTrace
 10
169.4240627414
 20
433.1463418723
 30
0.0
 11
170.0490627414
 21
438.1463418723
 31
0.0
 12
168.7990627414
 22
438.1463418723
 32
0.0
 13
168.7990627414
 23
438.1463418723
 33
0.0
  0
SOLID
  5
4F5
330
4F1
100
AcDbEntity
  8
DIM
100
AcDbTrace
 10
169.4240627414
 20
424.1463418723
 30
0.0
 11
168.7990627414
 21
419.1463418723
 31
0.0
 12
170.0490627414
 22
419.1463418723
 32
0.0
 13
170.0490627414
 23
419.1463418723
 33
0.0
  0
LINE
  5
4F6
330
4F1
100
AcDbEntity
  8
DIM
100
AcDbLine
 10
193.5713627414
 20
433.1463418723
 30
0.0
 11
166.9240627414
 21
433.1463418723
 31
0.0
  0
LINE
  5
4F7
330
4F1
100
AcDbEntity
  8
DIM
100
AcDbLine
 10
185.4240627414
 20
424.1463418723
 30
0.0
 11
166.9240627414
 21
424.1463418723
 31
0.0
  0
LINE
  5
4F8
330
4F1
100
AcDbEntity
  8
DIM
100
AcDbLine
 10
169.4240627414
 20
433.1463418723
 30
0.0
 11
169.4240627414
 21
440.6463418723
 31
0.0
  0
LINE
  5
4F9
330
4F1
100
AcDbEntity
  8
DIM
100
AcDbLine
 10
169.4240627414
 20
433.1463418723
 30
0.0
 11
169.4240627414
 21
424.1463418723
 31
0.0
  0
LINE
  5
4FA
330
4F1
100
AcDbEntity
  8
DIM
100
AcDbLine
 10
169.4240627414
 20
424.1463418723
 30
0.0
 11
169.4240627414
 21
416.6463418723
 31
0.0
  0
MTEXT
  5
4FB
330
4F1
100
AcDbEntity
  8
DIM
100
AcDbMText
 10
161.7500816441
 20
426.7832342632
 30
0.0
 40
5.953125
 41
0.0
 71
     1
 72
     1
  1
9
  7
SLDTEXTSTYLE1
 11
-7.044195017643634E-15
 21
1.0
 31
0.0
 73
     1
 44
1.0
  0
ENDBLK
  5
4F3
330
4F1
100
AcDbEntity
  8
0
100
AcDbBlockEnd
  0
BLOCK
  5
4FE
330
4FD
100
AcDbEntity
  8
0
100
AcDbBlockBegin
  2
_D_33
 70
     0
 10
0.0
 20
0.0
 30
0.0
  3
_D_33
  1

  0
SOLID
  5
500
330
4FD
100
AcDbEntity
  8
DIM
100
AcDbTrace
 10
156.9240627414
 20
442.1463418723
 30
0.0
 11
156.2990627414
 21
437.1463418723
 31
0.0
 12
157.5490627414
 22
437.1463418723
 32
0.0
 13
157.5490627414
 23
437.1463418723
 33
0.0
  0
SOLID
  5
501
330
4FD
100
AcDbEntity
  8
DIM
100
AcDbTrace
 10
156.9240627414
 20
424.1463418723
 30
0.0
 11
157.5490627414
 21
429.1463418723
 31
0.0
 12
156.2990627414
 22
429.1463418723
 32
0.0
 13
156.2990627414
 23
429.1463418723
 33
0.0
  0
LINE
  5
502
330
4FD
100
AcDbEntity
  8
DIM
100
AcDbLine
 10
185.4240627414
 20
442.1463418723
 30
0.0
 11
154.4240627414
 21
442.1463418723
 31
0.0
  0
LINE
  5
503
330
4FD
100
AcDbEntity
  8
DIM
100
AcDbLine
 10
185.4240627414
 20
424.1463418723
 30
0.0
 11
154.4240627414
 21
424.1463418723
 31
0.0
  0
LINE
  5
504
330
4FD
100
AcDbEntity
  8
DIM
100
AcDbLine
 10
156.9240627414
 20
442.1463418723
 30
0.0
 11
156.9240627414
 21
424.1463418723
 31
0.0
  0
MTEXT
  5
505
330
4FD
100
AcDbEntity
  8
DIM
100
AcDbMText
 10
149.2500816441
 20
429.4201266541
 30
0.0
 40
5.953125
 41
0.0
 71
     1
 72
     1
  1
18
  7
SLDTEXTSTYLE1
 11
-7.044195017643634E-15
 21
1.0
 31
0.0
 73
     1
 44
1.0
  0
ENDBLK
  5
4FF
330
4FD
100
AcDbEntity
  8
0
100
AcDbBlockEnd
  0
BLOCK
  5
507
330
506
100
AcDbEntity
  8
0
100
AcDbBlockBegin
  2
SW_NOTE_9
 70
     0
 10
0.0
 20
0.0
 30
0.0
  3
SW_NOTE_9
  1

  0
LINE
  5
509
330
506
100
AcDbEntity
  8
DIM
 62
     0
100
AcDbLine
 10
22.2226139093
 20
0.0
 30
0.0
 11
0.0
 21
0.0
 31
0.0
  0
MTEXT
  5
50A
330
506
100
AcDbEntity
  8
DIM
 62
     0
100
AcDbMText
 10
1.1942158884
 20
7.8954546758
 30
0.0
 40
5.953125
 41
0.0
 71
     1
 72
     1
  1
1/4"-20
  7
SLDTEXTSTYLE1
 73
     1
 44
1.0
  0
ENDBLK
  5
508
330
506
100
AcDbEntity
  8
0
100
AcDbBlockEnd
  0
BLOCK
  5
50E
330
50D
100
AcDbEntity
  8
0
100
AcDbBlockBegin
  2
SW_CENTERMARKSYMBOL_16
 70
     0
 10
0.0
 20
0.0
 30
0.0
  3
SW_CENTERMARKSYMBOL_16
  1

  0
LINE
  5
510
330
50D
100
AcDbEntity
  8
DIM
 62
     0
100
AcDbLine
 10
0.0
 20
0.0
 30
0.0
 11
0.0
 21
1.0
 31
0.0
  0
LINE
  5
511
330
50D
100
AcDbEntity
  8
DIM
 62
     0
100
AcDbLine
 10
0.0
 20
0.0
 30
0.0
 11
-1.0
 21
0.0
 31
0.0
  0
LINE
  5
512
330
50D
100
AcDbEntity
  8
DIM
 62
     0
100
AcDbLine
 10
0.0
 20
0.0
 30
0.0
 11
0.0
 21
-1.0
 31
0.0
  0
LINE
  5
513
330
50D
100
AcDbEntity
  8
DIM
 62
     0
100
AcDbLine
 10
0.0
 20
0.0
 30
0.0
 11
1.0
 21
0.0
 31
0.0
  0
LINE
  5
514
330
50D
100
AcDbEntity
  8
DIM
 62
     0
100
AcDbLine
 10
0.0
 20
2.0
 30
0.0
 11
0.0
 21
3.5527
 31
0.0
  0
LINE
  5
515
330
50D
100
AcDbEntity
  8
DIM
 62
     0
100
AcDbLine
 10
-2.0
 20
0.0
 30
0.0
 11
-3.5527
 21
0.0
 31
0.0
  0
LINE
  5
516
330
50D
100
AcDbEntity
  8
DIM
 62
     0
100
AcDbLine
 10
0.0
 20
-2.0
 30
0.0
 11
0.0
 21
-3.5527
 31
0.0
  0
LINE
  5
517
330
50D
100
AcDbEntity
  8
DIM
 62
     0
100
AcDbLine
 10
2.0
 20
0.0
 30
0.0
 11
3.5527
 21
0.0
 31
0.0
  0
ENDBLK
  5
50F
330
50D
100
AcDbEntity
  8
0
100
AcDbBlockEnd
  0
ENDSEC
  0
SECTION
  2
ENTITIES
  0
HATCH
  5
89
330
1F
100
AcDbEntity
  8
0
  6
Continuous
 62
     7
100
AcDbHatch
 10
0.0
 20
0.0
 30
0.0
210
0.0
220
0.0
230
1.0
  2
SOLID
 70
     1
 71
     0
 91
        1
 92
        0
 93
       10
 72
     2
 10
480.3514914073417
 20
89.3895220247214
 40
7.474091644424647
 50
50.39692260731395
 51
112.8514693252979
 73
     0
 72
     2
 10
479.53751490703
 20
88.59749570015511
 40
6.443338567044046
 50
108.9134333432862
 51
219.5668234386827
 73
     0
 72
     1
 10
474.5704598474009
 20
92.70175884037526
 11
472.0324752288947
 21
94.94058859241966
 72
     1
 10
472.0324752288947
 20
94.94058859241966
 11
468.7659045916906
 21
91.7866209011509
 72
     2
 10
471.2356169965973
 20
88.86530281931115
 40
3.825386084859154
 50
130.2115225915094
 51
228.5889041080181
 73
     1
 72
     1
 10
468.7052881366275
 20
85.99632834074944
 11
478.7282939121165
 21
77.28481874006276
 72
     1
 10
478.7282939121165
 20
77.28481874006276
 11
477.1506641110787
 21
75.74506776388517
 72
     1
 10
477.1506641110787
 20
75.74506776388517
 11
479.6303625228926
 21
73.6101320965006
 72
     1
 10
479.6303625228926
 20
73.6101320965006
 11
487.6545236088058
 21
81.40157701028932
 72
     1
 10
487.6545236088058
 20
81.40157701028932
 11
485.1159660296603
 21
83.63089132962207
 97
        0
 75
     0
 76
     1
 98
        1
 10
0.0
 20
0.0
  0
HATCH
  5
8A
330
1F
100
AcDbEntity
  8
0
  6
Continuous
 62
     1
100
AcDbHatch
 10
0.0
 20
0.0
 30
0.0
210
0.0
220
0.0
230
1.0
  2
SOLID
 70
     1
 71
     0
 91
        1
 92
        0
 93
       10
 72
     2
 10
481.4731139069222
 20
89.15767289079024
 40
6.443918720865625
 50
317.818499299578
 51
398.0564711573081
 73
     0
 72
     1
 10
486.5470785145408
 20
85.18539751743617
 11
489.0107007469978
 21
83.03865516771245
 72
     1
 10
489.0107007469978
 20
83.03865516771245
 11
492.1149040339822
 21
86.04973752373047
 72
     2
 10
489.881423219827
 20
89.11960435328278
 40
3.796382343545663
 50
306.0377529468132
 51
403.4396461533873
 73
     1
 72
     1
 10
492.6379728815077
 20
91.72995928337816
 11
482.3210832356494
 21
100.702899954963
 72
     1
 10
482.3210832356494
 20
100.702899954963
 11
483.8817114904676
 21
102.2255460320564
 72
     1
 10
483.8817114904676
 20
102.2255460320564
 11
481.5554452150075
 21
104.3010265816676
 72
     1
 10
481.5554452150075
 20
104.3010265816676
 11
473.4664815939828
 21
96.48372596513244
 72
     1
 10
473.4664815939828
 20
96.48372596513244
 11
476.0225012873543
 21
94.25424964733045
 72
     2
 10
480.678973180111
 20
87.80561837709479
 40
7.95409176131969
 50
234.1674444878512
 51
314.4407074583989
 73
     0
 97
        0
 75
     0
 76
     1
 98
        1
 10
0.0
 20
0.0
  0
LINE
  5
8B
330
1F
100
AcDbEntity
  8
0
  6
Continuous
 62
     7
370
     0
100
AcDbLine
 10
419.6484437962
 20
44.4362981281
 30
0.0
 11
422.1484437962
 21
44.4362981281
 31
0.0
  0
LINE
  5
8C
330
1F
100
AcDbEntity
  8
0
  6
Continuous
 62
     7
370
     0
100
AcDbLine
 10
412.1484437962
 20
44.4362981281
 30
0.0
 11
418.3984437962
 21
44.4362981281
 31
0.0
  0
LINE
  5
8D
330
1F
100
AcDbEntity
  8
0
  6
Continuous
 62
     7
370
     0
100
AcDbLine
 10
453.3984437962
 20
38.1862981281
 30
0.0
 11
453.3984437962
 21
50.6862981281
 31
0.0
  0
LINE
  5
8E
330
1F
100
AcDbEntity
  8
0
  6
Continuous
 62
     7
370
     0
100
AcDbLine
 10
435.8984437962
 20
40.6862981281
 30
0.0
 11
453.3984437962
 21
38.1862981281
 31
0.0
  0
LINE
  5
8F
330
1F
100
AcDbEntity
  8
0
  6
Continuous
 62
     7
370
     0
100
AcDbLine
 10
420.8984437962
 20
41.9362981281
 30
0.0
 11
420.8984437962
 21
35.6862981281
 31
0.0
  0
LINE
  5
90
330
1F
100
AcDbEntity
  8
0
  6
Continuous
 62
     7
370
     0
100
AcDbLine
 10
453.3984437962
 20
50.6862981281
 30
0.0
 11
435.8984437962
 21
48.1862981281
 31
0.0
  0
LINE
  5
91
330
1F
100
AcDbEntity
  8
0
  6
Continuous
 62
     7
370
     0
100
AcDbLine
 10
433.3984437962
 20
44.4362981281
 30
0.0
 11
455.8984437962
 21
44.4362981281
 31
0.0
  0
LINE
  5
92
330
1F
100
AcDbEntity
  8
0
  6
Continuous
 62
     7
370
     0
100
AcDbLine
 10
420.8984437962
 20
45.6862981281
 30
0.0
 11
420.8984437962
 21
43.1862981281
 31
0.0
  0
LINE
  5
93
330
1F
100
AcDbEntity
  8
0
  6
Continuous
 62
     7
370
     0
100
AcDbLine
 10
423.3984437962
 20
44.4362981281
 30
0.0
 11
429.6484437962
 21
44.4362981281
 31
0.0
  0
LINE
  5
94
330
1F
100
AcDbEntity
  8
0
  6
Continuous
 62
     7
370
     0
100
AcDbLine
 10
420.8984437962
 20
53.1862981281
 30
0.0
 11
420.8984437962
 21
46.9362981281
 31
0.0
  0
LINE
  5
95
330
1F
100
AcDbEntity
  8
0
  6
Continuous
 62
     7
370
     0
100
AcDbLine
 10
435.8984437962
 20
48.1862981281
 30
0.0
 11
435.8984437962
 21
40.6862981281
 31
0.0
  0
LINE
  5
96
330
1F
100
AcDbEntity
  8
工作區域參考線
 62
     1
370
    30
100
AcDbLine
 10
476.0225012874
 20
94.2542496473
 30
0.0
 11
473.466481594
 21
96.4837259651
 31
0.0
  0
LINE
  5
97
330
1F
100
AcDbEntity
  8
工作區域參考線
 62
     1
370
    30
100
AcDbLine
 10
473.466481594
 20
96.4837259651
 30
0.0
 11
481.555445215
 21
104.3010265817
 31
0.0
  0
LINE
  5
98
330
1F
100
AcDbEntity
  8
工作區域參考線
 62
     1
370
    30
100
AcDbLine
 10
481.555445215
 20
104.3010265817
 30
0.0
 11
483.8817114905
 21
102.2255460321
 31
0.0
  0
LINE
  5
99
330
1F
100
AcDbEntity
  8
工作區域參考線
 62
     1
370
    30
100
AcDbLine
 10
483.8817114905
 20
102.2255460321
 30
0.0
 11
482.3210832356
 21
100.702899955
 31
0.0
  0
LINE
  5
9A
330
1F
100
AcDbEntity
  8
工作區域參考線
 62
     1
370
    30
100
AcDbLine
 10
482.3210832356
 20
100.702899955
 30
0.0
 11
492.6379728815
 21
91.7299592834
 31
0.0
  0
LINE
  5
9B
330
1F
100
AcDbEntity
  8
工作區域參考線
 62
     1
370
    30
100
AcDbLine
 10
486.5470785145
 20
85.1853975174
 30
0.0
 11
489.010700747
 21
83.0386551677
 31
0.0
  0
LINE
  5
9C
330
1F
100
AcDbEntity
  8
工作區域參考線
 62
     1
370
    30
100
AcDbLine
 10
489.010700747
 20
83.0386551677
 30
0.0
 11
492.114904034
 21
86.0497375237
 31
0.0
  0
LINE
  5
9D
330
1F
100
AcDbEntity
  8
0
  6
Continuous
 62
     7
370
     0
100
AcDbLine
 10
464.2269913023
 20
32.7881160198
 30
0.0
 11
714.2269913023
 21
32.7881160198
 31
0.0
  0
LINE
  5
9E
330
1F
100
AcDbEntity
  8
0
  6
Continuous
 62
     7
370
     0
100
AcDbLine
 10
464.2269913023
 20
45.2881160198
 30
0.0
 11
589.2269913023
 21
45.2881160198
 31
0.0
  0
LINE
  5
9F
330
1F
100
AcDbEntity
  8
0
  6
Continuous
 62
     7
370
     0
100
AcDbLine
 10
464.2269913023
 20
57.7881160198
 30
0.0
 11
589.2269913023
 21
57.7881160198
 31
0.0
  0
LINE
  5
A0
330
1F
100
AcDbEntity
  8
0
  6
Continuous
 62
     7
370
     0
100
AcDbLine
 10
464.2269913023
 20
70.2881160198
 30
0.0
 11
714.2269913023
 21
70.2881160198
 31
0.0
  0
LINE
  5
A1
330
1F
100
AcDbEntity
  8
0
  6
Continuous
 62
     7
370
     0
100
AcDbLine
 10
589.2269913023
 20
82.7881160198
 30
0.0
 11
714.2269913023
 21
82.7881160198
 31
0.0
  0
LINE
  5
A2
330
1F
100
AcDbEntity
  8
0
  6
Continuous
 62
     7
370
    15
100
AcDbLine
 10
589.2269913023
 20
45.2881160198
 30
0.0
 11
714.2269913023
 21
45.2881160198
 31
0.0
  0
LINE
  5
A3
330
1F
100
AcDbEntity
  8
0
  6
Continuous
 62
     7
370
     0
100
AcDbLine
 10
464.2269913023
 20
107.7881160198
 30
0.0
 11
714.2269913023
 21
107.7881160198
 31
0.0
  0
LINE
  5
A4
330
1F
100
AcDbEntity
  8
0
  6
Continuous
 62
     7
370
     0
100
AcDbLine
 10
628.0930441876
 20
20.2881160198
 30
0.0
 11
628.0930441876
 21
45.2881160198
 31
0.0
  0
LINE
  5
A5
330
1F
100
AcDbEntity
  8
0
  6
Continuous
 62
     7
370
     0
100
AcDbLine
 10
589.2269913023
 20
20.2881160198
 30
0.0
 11
589.2269913023
 21
107.7881160198
 31
0.0
  0
LINE
  5
A6
330
1F
100
AcDbEntity
  8
0
  6
Continuous
 62
     7
370
     0
100
AcDbLine
 10
628.0930441876
 20
70.2881160198
 30
0.0
 11
628.0930441876
 21
82.7881160198
 31
0.0
  0
LINE
  5
A7
330
1F
100
AcDbEntity
  8
0
  6
Continuous
 62
     7
370
     0
100
AcDbLine
 10
536.0410215883
 20
20.2881160198
 30
0.0
 11
536.0410215883
 21
70.2881160198
 31
0.0
  0
LINE
  5
A8
330
1F
100
AcDbEntity
  8
0
  6
Continuous
 62
     7
370
     0
100
AcDbLine
 10
499.4464718764
 20
20.2881160198
 30
0.0
 11
499.4464718764
 21
70.2881160198
 31
0.0
  0
LINE
  5
A9
330
1F
100
AcDbEntity
  8
0
  6
Continuous
 62
     7
370
     0
100
AcDbLine
 10
464.2269913023
 20
20.2881160198
 30
0.0
 11
464.2269913023
 21
107.7881160198
 31
0.0
  0
LINE
  5
AA
330
1F
100
AcDbEntity
  8
0
  6
Continuous
 62
     7
370
    15
100
AcDbLine
 10
108.3019913023
 20
503.4300689377
 30
0.0
 11
108.3019913023
 21
507.1800689377
 31
0.0
  0
LINE
  5
AB
330
1F
100
AcDbEntity
  8
0
  6
Continuous
 62
     7
370
    15
100
AcDbLine
 10
194.8769913023
 20
503.4300689377
 30
0.0
 11
194.8769913023
 21
507.1800689377
 31
0.0
  0
LINE
  5
AC
330
1F
100
AcDbEntity
  8
0
  6
Continuous
 62
     7
370
    15
100
AcDbLine
 10
281.4519913023
 20
503.4300689377
 30
0.0
 11
281.4519913023
 21
507.1800689377
 31
0.0
  0
LINE
  5
AD
330
1F
100
AcDbEntity
  8
0
  6
Continuous
 62
     7
370
    15
100
AcDbLine
 10
368.0269913023
 20
503.4300689377
 30
0.0
 11
368.0269913023
 21
507.1800689377
 31
0.0
  0
LINE
  5
AE
330
1F
100
AcDbEntity
  8
0
  6
Continuous
 62
     7
370
    15
100
AcDbLine
 10
454.6019913023
 20
503.4300689377
 30
0.0
 11
454.6019913023
 21
507.1800689377
 31
0.0
  0
LINE
  5
AF
330
1F
100
AcDbEntity
  8
0
  6
Continuous
 62
     7
370
    15
100
AcDbLine
 10
541.1769913023
 20
503.4300689377
 30
0.0
 11
541.1769913023
 21
507.1800689377
 31
0.0
  0
LINE
  5
B0
330
1F
100
AcDbEntity
  8
0
  6
Continuous
 62
     7
370
    15
100
AcDbLine
 10
627.7519913023
 20
503.4300689377
 30
0.0
 11
627.7519913023
 21
507.1800689377
 31
0.0
  0
LINE
  5
B1
330
1F
100
AcDbEntity
  8
0
  6
Continuous
 62
     7
370
    15
100
AcDbLine
 10
108.2894913023
 20
20.2881160198
 30
0.0
 11
108.2894913023
 21
16.5381160198
 31
0.0
  0
LINE
  5
B2
330
1F
100
AcDbEntity
  8
0
  6
Continuous
 62
     7
370
    15
100
AcDbLine
 10
194.8519913023
 20
20.2881160198
 30
0.0
 11
194.8519913023
 21
16.5381160198
 31
0.0
  0
LINE
  5
B3
330
1F
100
AcDbEntity
  8
0
  6
Continuous
 62
     7
370
    15
100
AcDbLine
 10
281.4144913023
 20
20.2881160198
 30
0.0
 11
281.4144913023
 21
16.5381160198
 31
0.0
  0
LINE
  5
B4
330
1F
100
AcDbEntity
  8
0
  6
Continuous
 62
     7
370
    15
100
AcDbLine
 10
367.9769913023
 20
20.2881160198
 30
0.0
 11
367.9769913023
 21
16.5381160198
 31
0.0
  0
LINE
  5
B5
330
1F
100
AcDbEntity
  8
0
  6
Continuous
 62
     7
370
    15
100
AcDbLine
 10
454.5394913023
 20
20.2881160198
 30
0.0
 11
454.5394913023
 21
16.5381160198
 31
0.0
  0
LINE
  5
B6
330
1F
100
AcDbEntity
  8
0
  6
Continuous
 62
     7
370
    15
100
AcDbLine
 10
541.1019913023
 20
20.2881160198
 30
0.0
 11
541.1019913023
 21
16.5381160198
 31
0.0
  0
LINE
  5
B7
330
1F
100
AcDbEntity
  8
0
  6
Continuous
 62
     7
370
     0
100
AcDbLine
 10
714.2269913023
 20
503.4300689377
 30
0.0
 11
21.7269913023
 21
503.4300689377
 31
0.0
  0
LINE
  5
B8
330
1F
100
AcDbEntity
  8
0
  6
Continuous
 62
     7
370
     0
100
AcDbLine
 10
714.2269913023
 20
20.2881160198
 30
0.0
 11
714.2269913023
 21
503.4300689377
 31
0.0
  0
LINE
  5
B9
330
1F
100
AcDbEntity
  8
0
  6
Continuous
 62
     7
370
     0
100
AcDbLine
 10
21.7269913023
 20
503.4300689377
 30
0.0
 11
21.7269913023
 21
20.2881160198
 31
0.0
  0
LINE
  5
BA
330
1F
100
AcDbEntity
  8
0
  6
Continuous
 62
     7
370
     0
100
AcDbLine
 10
21.7269913023
 20
20.2881160198
 30
0.0
 11
714.2269913023
 21
20.2881160198
 31
0.0
  0
LINE
  5
BB
330
1F
100
AcDbEntity
  8
0
  6
Continuous
 62
     7
370
    15
100
AcDbLine
 10
627.6644913023
 20
20.2881160198
 30
0.0
 11
627.6644913023
 21
16.5381160198
 31
0.0
  0
LINE
  5
BC
330
1F
100
AcDbEntity
  8
0
  6
Continuous
 62
     7
370
    15
100
AcDbLine
 10
21.7269913023
 20
100.8131160198
 30
0.0
 11
17.9769913023
 21
100.8131160198
 31
0.0
  0
LINE
  5
BD
330
1F
100
AcDbEntity
  8
0
  6
Continuous
 62
     7
370
    15
100
AcDbLine
 10
21.7269913023
 20
181.3381160198
 30
0.0
 11
17.9769913023
 21
181.3381160198
 31
0.0
  0
LINE
  5
BE
330
1F
100
AcDbEntity
  8
0
  6
Continuous
 62
     7
370
    15
100
AcDbLine
 10
21.7269913023
 20
261.8631160198
 30
0.0
 11
17.9769913023
 21
261.8631160198
 31
0.0
  0
LINE
  5
BF
330
1F
100
AcDbEntity
  8
0
  6
Continuous
 62
     7
370
    15
100
AcDbLine
 10
21.7269913023
 20
342.3881160198
 30
0.0
 11
17.9769913023
 21
342.3881160198
 31
0.0
  0
LINE
  5
C0
330
1F
100
AcDbEntity
  8
0
  6
Continuous
 62
     7
370
    15
100
AcDbLine
 10
21.7269913023
 20
422.9131160198
 30
0.0
 11
17.9769913023
 21
422.9131160198
 31
0.0
  0
LINE
  5
C1
330
1F
100
AcDbEntity
  8
0
  6
Continuous
 62
     7
370
    15
100
AcDbLine
 10
714.2269913023
 20
100.8131160198
 30
0.0
 11
717.9769913023
 21
100.8131160198
 31
0.0
  0
LINE
  5
C2
330
1F
100
AcDbEntity
  8
0
  6
Continuous
 62
     7
370
    15
100
AcDbLine
 10
714.2269913023
 20
181.3381160198
 30
0.0
 11
717.9769913023
 21
181.3381160198
 31
0.0
  0
LINE
  5
C3
330
1F
100
AcDbEntity
  8
0
  6
Continuous
 62
     7
370
    15
100
AcDbLine
 10
714.2269913023
 20
261.8631160198
 30
0.0
 11
717.9769913023
 21
261.8631160198
 31
0.0
  0
LINE
  5
C4
330
1F
100
AcDbEntity
  8
0
  6
Continuous
 62
     7
370
    15
100
AcDbLine
 10
714.2269913023
 20
342.3881160198
 30
0.0
 11
717.9769913023
 21
342.3881160198
 31
0.0
  0
LINE
  5
C5
330
1F
100
AcDbEntity
  8
0
  6
Continuous
 62
     7
370
    15
100
AcDbLine
 10
714.2269913023
 20
422.9131160198
 30
0.0
 11
717.9769913023
 21
422.9131160198
 31
0.0
  0
CIRCLE
  5
C6
330
1F
100
AcDbEntity
  8
0
  6
Continuous
 62
     7
370
     0
100
AcDbCircle
 10
420.8984437962
 20
44.4362981281
 30
0.0
 40
3.750000000000057
  0
CIRCLE
  5
C7
330
1F
100
AcDbEntity
  8
0
  6
Continuous
 62
     7
370
     0
100
AcDbCircle
 10
420.8984437962
 20
44.4362981281
 30
0.0
 40
6.250000000000057
  0
ARC
  5
C8
330
1F
100
AcDbEntity
  8
工作區域參考線
 62
     1
370
    30
100
AcDbCircle
 10
489.8814232198
 20
89.1196043533
 30
0.0
 40
3.7963823435457
100
AcDbArc
 50
306.0377529468
 51
43.4396461534
  0
ARC
  5
C9
330
1F
100
AcDbEntity
  8
工作區域參考線
 62
     1
370
    30
100
AcDbCircle
 10
480.6789731801
 20
87.8056183771
 30
0.0
 40
7.954091761319693
100
AcDbArc
 50
45.5592925416
 51
125.8325555121
  0
ARC
  5
CA
330
1F
100
AcDbEntity
  8
工作區域參考線
 62
     1
370
    30
100
AcDbCircle
 10
481.4731139069
 20
89.1576728908
 30
0.0
 40
6.443918720865634
100
AcDbArc
 50
321.9435288427
 51
42.1815007004
  0
INSERT
  5
CB
330
1F
100
AcDbEntity
  8
0
  6
Continuous
 62
     7
100
AcDbBlockReference
  2
圖塊6
 10
467.4102309117
 20
73.6101320965
 30
0.0
  0
MTEXT
  5
CD
330
1F
100
AcDbEntity
  8
0
  6
Continuous
 62
     7
370
     0
100
AcDbMText
 10
413.8567127011
 20
33.0521100923
 30
0.0
 40
6.6145833333
 41
0.0
 71
     1
 72
     1
  1
UNIT:m/m
  7
SLDTEXTSTYLE0
 73
     1
 44
1.0
  0
INSERT
  5
D4
330
1F
100
AcDbEntity
  8
0
  6
Continuous
 62
     7
370
     0
100
AcDbBlockReference
  2
SW_NOTE_0
 10
30.5787690133
 20
484.7260760628
 30
0.0
  0
MTEXT
  5
D5
330
1F
100
AcDbEntity
  8
0
  6
Continuous
 62
     7
370
     0
100
AcDbMText
 10
496.8129734837
 20
101.1016935347
 30
0.0
 40
5.953125
 41
0.0
 71
     1
 72
     1
  1
Unice E-O Services Inc.
  7
SLDTEXTSTYLE0
 73
     1
 44
1.0
  0
MTEXT
  5
D6
330
1F
100
AcDbEntity
  8
0
  6
Continuous
 62
     7
370
     0
100
AcDbMText
 10
543.8976345373
 20
53.9667871277
 30
0.0
 40
4.6302083333
 41
0.0
 71
     1
 72
     1
  1
2018/2/9
  7
SLDTEXTSTYLE0
 73
     1
 44
1.0
  0
MTEXT
  5
D7
330
1F
100
AcDbEntity
  8
0
  6
Continuous
 62
     7
370
     0
100
AcDbMText
 10
631.5222456267
 20
42.1779443499
 30
0.0
 40
6.25
 41
0.0
 71
     1
 72
     1
  1
1:2.5
  7
SLDTEXTSTYLE0
 73
     1
 44
1.0
  0
MTEXT
  5
D8
330
1F
100
AcDbEntity
  8
0
  6
Continuous
 62
     7
370
     0
100
AcDbMText
 10
630.7688999962
 20
80.3797988594
 30
0.0
 40
6.25
 41
0.0
 71
     1
 72
     1
  1
VBT1520
  7
SLDTEXTSTYLE0
 73
     1
 44
1.0
  0
MTEXT
  5
D9
330
1F
100
AcDbEntity
  8
0
  6
Continuous
 62
     7
370
     0
100
AcDbMText
 10
630.7688999962
 20
95.2705294697
 30
0.0
 40
6.25
 41
0.0
 71
     1
 72
     1
  1
VBT1520
  7
SLDTEXTSTYLE0
 73
     1
 44
1.0
  0
MTEXT
  5
DA
330
1F
100
AcDbEntity
  8
0
  6
Continuous
 62
     7
370
     0
100
AcDbMText
 10
590.9804666966
 20
41.2661989321
 30
0.0
 40
5.2916666667
 41
0.0
 71
     1
 72
     1
  1
SCALE:
  7
SLDTEXTSTYLE0
 73
     1
 44
1.0
  0
MTEXT
  5
DB
330
1F
100
AcDbEntity
  8
0
  6
Continuous
 62
     7
370
     0
100
AcDbMText
 10
465.8340216973
 20
53.9667871277
 30
0.0
 40
4.6302083333
 41
0.0
 71
     1
 72
     1
  1
DRAWN
  7
SLDTEXTSTYLE0
 73
     1
 44
1.0
  0
MTEXT
  5
DC
330
1F
100
AcDbEntity
  8
0
  6
Continuous
 62
     7
370
     0
100
AcDbMText
 10
508.0570919842
 20
66.70802077
 30
0.0
 40
4.6302083333
 41
0.0
 71
     1
 72
     1
  1
NAME
  7
SLDTEXTSTYLE0
 73
     1
 44
1.0
  0
MTEXT
  5
DD
330
1F
100
AcDbEntity
  8
0
  6
Continuous
 62
     7
370
     0
100
AcDbMText
 10
552.1775389394
 20
66.70802077
 30
0.0
 40
4.6302083333
 41
0.0
 71
     1
 72
     1
  1
DATE
  7
SLDTEXTSTYLE0
 73
     1
 44
1.0
  0
MTEXT
  5
DE
330
1F
100
AcDbEntity
  8
0
  6
Continuous
 62
     7
370
     0
100
AcDbMText
 10
590.6890791613
 20
79.4680534415
 30
0.0
 40
5.2916666667
 41
0.0
 71
     1
 72
     1
  1
DWG. NO.
  7
SLDTEXTSTYLE0
 73
     1
 44
1.0
  0
MTEXT
  5
DF
330
1F
100
AcDbEntity
  8
0
  6
Continuous
 62
     7
370
     0
100
AcDbMText
 10
590.9074767721
 20
104.7101645608
 30
0.0
 40
5.2916666667
 41
0.0
 71
     1
 72
     1
  1
TITLE:
  7
SLDTEXTSTYLE0
 73
     1
 44
1.0
  0
MTEXT
  5
E0
330
1F
100
AcDbEntity
  8
0
  6
Continuous
 62
     7
370
     0
100
AcDbMText
 10
507.5785524505
 20
40.600947431
 30
0.0
 40
4.6302083333
 41
0.0
 71
     1
 72
     1
  1
Johnny
  7
SLDTEXTSTYLE0
 73
     1
 44
1.0
  0
MTEXT
  5
E1
330
1F
100
AcDbEntity
  8
0
  6
Continuous
 62
     7
370
     0
100
AcDbMText
 10
543.8976345373
 20
40.600947431
 30
0.0
 40
4.6302083333
 41
0.0
 71
     1
 72
     1
  1
2018/2/9
  7
SLDTEXTSTYLE0
 73
     1
 44
1.0
  0
MTEXT
  5
E2
330
1F
100
AcDbEntity
  8
0
  6
Continuous
 62
     7
370
     0
100
AcDbMText
 10
465.8340216973
 20
40.600947431
 30
0.0
 40
4.6302083333
 41
0.0
 71
     1
 72
     1
  1
ENG APPR.
  7
SLDTEXTSTYLE0
 73
     1
 44
1.0
  0
MTEXT
  5
E3
330
1F
100
AcDbEntity
  8
0
  6
Continuous
 62
     7
370
     0
100
AcDbMText
 10
590.9804666966
 20
29.2133473219
 30
0.0
 40
5.2916666667
 41
0.0
 71
     1
 72
     1
  1
REV
  7
SLDTEXTSTYLE0
 73
     1
 44
1.0
  0
MTEXT
  5
E4
330
1F
100
AcDbEntity
  8
0
  6
Continuous
 62
     7
370
     0
100
AcDbMText
 10
590.9074767721
 20
67.3732722711
 30
0.0
 40
5.2916666667
 41
0.0
 71
     1
 72
     1
  1
MATERIAL:
  7
SLDTEXTSTYLE0
 73
     1
 44
1.0
  0
MTEXT
  5
E5
330
1F
100
AcDbEntity
  8
0
  6
Continuous
 62
     7
370
     0
100
AcDbMText
 10
631.5222456267
 20
55.5437840467
 30
0.0
 40
6.25
 41
0.0
 71
     1
 72
     1
  1
N/A
  7
SLDTEXTSTYLE0
 73
     1
 44
1.0
  0
MTEXT
  5
E6
330
1F
100
AcDbEntity
  8
0
  6
Continuous
 62
     7
370
     0
100
AcDbMText
 10
66.5074828833
 20
511.1333791424
 30
0.0
 40
5.2916666667
 41
0.0
 71
     1
 72
     1
  1
1
  7
SLDTEXTSTYLE0
 73
     1
 44
1.0
  0
MTEXT
  5
E7
330
1F
100
AcDbEntity
  8
0
  6
Continuous
 62
     7
370
     0
100
AcDbMText
 10
151.792748931
 20
511.1333791424
 30
0.0
 40
5.2916666667
 41
0.0
 71
     1
 72
     1
  1
2
  7
SLDTEXTSTYLE0
 73
     1
 44
1.0
  0
MTEXT
  5
E8
330
1F
100
AcDbEntity
  8
0
  6
Continuous
 62
     7
370
     0
100
AcDbMText
 10
237.2524859765
 20
511.1333791424
 30
0.0
 40
5.2916666667
 41
0.0
 71
     1
 72
     1
  1
3
  7
SLDTEXTSTYLE0
 73
     1
 44
1.0
  0
MTEXT
  5
E9
330
1F
100
AcDbEntity
  8
0
  6
Continuous
 62
     7
370
     0
100
AcDbMText
 10
323.1333407128
 20
510.7481460911
 30
0.0
 40
5.2916666667
 41
0.0
 71
     1
 72
     1
  1
4
  7
SLDTEXTSTYLE0
 73
     1
 44
1.0
  0
MTEXT
  5
EA
330
1F
100
AcDbEntity
  8
0
  6
Continuous
 62
     7
370
     0
100
AcDbMText
 10
409.2558086599
 20
511.1333791424
 30
0.0
 40
5.2916666667
 41
0.0
 71
     1
 72
     1
  1
5
  7
SLDTEXTSTYLE0
 73
     1
 44
1.0
  0
MTEXT
  5
EB
330
1F
100
AcDbEntity
  8
0
  6
Continuous
 62
     7
370
     0
100
AcDbMText
 10
496.5955426038
 20
511.1333791424
 30
0.0
 40
5.2916666667
 41
0.0
 71
     1
 72
     1
  1
6
  7
SLDTEXTSTYLE0
 73
     1
 44
1.0
  0
MTEXT
  5
EC
330
1F
100
AcDbEntity
  8
0
  6
Continuous
 62
     7
370
     0
100
AcDbMText
 10
585.9076643516
 20
511.1333791424
 30
0.0
 40
5.2916666667
 41
0.0
 71
     1
 72
     1
  1
7
  7
SLDTEXTSTYLE0
 73
     1
 44
1.0
  0
MTEXT
  5
ED
330
1F
100
AcDbEntity
  8
0
  6
Continuous
 62
     7
370
     0
100
AcDbMText
 10
665.6969551234
 20
511.1333791424
 30
0.0
 40
5.2916666667
 41
0.0
 71
     1
 72
     1
  1
8
  7
SLDTEXTSTYLE0
 73
     1
 44
1.0
  0
MTEXT
  5
EE
330
1F
100
AcDbEntity
  8
0
  6
Continuous
 62
     7
370
     0
100
AcDbMText
 10
13.3920591386
 20
464.5282557198
 30
0.0
 40
5.2916666667
 41
0.0
 71
     1
 72
     1
  1
A
  7
SLDTEXTSTYLE0
 73
     1
 44
1.0
  0
MTEXT
  5
EF
330
1F
100
AcDbEntity
  8
0
  6
Continuous
 62
     7
370
     0
100
AcDbMText
 10
13.9776079578
 20
385.7482620595
 30
0.0
 40
5.2916666667
 41
0.0
 71
     1
 72
     1
  1
B
  7
SLDTEXTSTYLE0
 73
     1
 44
1.0
  0
MTEXT
  5
F0
330
1F
100
AcDbEntity
  8
0
  6
Continuous
 62
     7
370
     0
100
AcDbMText
 10
13.9776079578
 20
303.1858785575
 30
0.0
 40
5.2916666667
 41
0.0
 71
     1
 72
     1
  1
C
  7
SLDTEXTSTYLE0
 73
     1
 44
1.0
  0
MTEXT
  5
F1
330
1F
100
AcDbEntity
  8
0
  6
Continuous
 62
     7
370
     0
100
AcDbMText
 10
13.9776079578
 20
221.8633050552
 30
0.0
 40
5.2916666667
 41
0.0
 71
     1
 72
     1
  1
D
  7
SLDTEXTSTYLE0
 73
     1
 44
1.0
  0
MTEXT
  5
F2
330
1F
100
AcDbEntity
  8
0
  6
Continuous
 62
     7
370
     0
100
AcDbMText
 10
13.9776079578
 20
143.8897122993
 30
0.0
 40
5.2916666667
 41
0.0
 71
     1
 72
     1
  1
E
  7
SLDTEXTSTYLE0
 73
     1
 44
1.0
  0
MTEXT
  5
F3
330
1F
100
AcDbEntity
  8
0
  6
Continuous
 62
     7
370
     0
100
AcDbMText
 10
13.9776079578
 20
63.923553063
 30
0.0
 40
5.2916666667
 41
0.0
 71
     1
 72
     1
  1
F
  7
SLDTEXTSTYLE0
 73
     1
 44
1.0
  0
MTEXT
  5
F4
330
1F
100
AcDbEntity
  8
0
  6
Continuous
 62
     7
370
     0
100
AcDbMText
 10
665.4646542409
 20
16.5590559908
 30
0.0
 40
5.2916666667
 41
0.0
 71
     1
 72
     1
  1
8
  7
SLDTEXTSTYLE0
 73
     1
 44
1.0
  0
MTEXT
  5
F5
330
1F
100
AcDbEntity
  8
0
  6
Continuous
 62
     7
370
     0
100
AcDbMText
 10
585.6753634691
 20
16.5590559908
 30
0.0
 40
5.2916666667
 41
0.0
 71
     1
 72
     1
  1
7
  7
SLDTEXTSTYLE0
 73
     1
 44
1.0
  0
MTEXT
  5
F6
330
1F
100
AcDbEntity
  8
0
  6
Continuous
 62
     7
370
     0
100
AcDbMText
 10
496.3632417212
 20
16.5590559908
 30
0.0
 40
5.2916666667
 41
0.0
 71
     1
 72
     1
  1
6
  7
SLDTEXTSTYLE0
 73
     1
 44
1.0
  0
MTEXT
  5
F7
330
1F
100
AcDbEntity
  8
0
  6
Continuous
 62
     7
370
     0
100
AcDbMText
 10
409.0235077774
 20
16.5590559908
 30
0.0
 40
5.2916666667
 41
0.0
 71
     1
 72
     1
  1
5
  7
SLDTEXTSTYLE0
 73
     1
 44
1.0
  0
MTEXT
  5
F8
330
1F
100
AcDbEntity
  8
0
  6
Continuous
 62
     7
370
     0
100
AcDbMText
 10
322.9010398302
 20
16.1738229395
 30
0.0
 40
5.2916666667
 41
0.0
 71
     1
 72
     1
  1
4
  7
SLDTEXTSTYLE0
 73
     1
 44
1.0
  0
MTEXT
  5
F9
330
1F
100
AcDbEntity
  8
0
  6
Continuous
 62
     7
370
     0
100
AcDbMText
 10
237.020185094
 20
16.5590559908
 30
0.0
 40
5.2916666667
 41
0.0
 71
     1
 72
     1
  1
3
  7
SLDTEXTSTYLE0
 73
     1
 44
1.0
  0
MTEXT
  5
FA
330
1F
100
AcDbEntity
  8
0
  6
Continuous
 62
     7
370
     0
100
AcDbMText
 10
151.5604480484
 20
16.5590559908
 30
0.0
 40
5.2916666667
 41
0.0
 71
     1
 72
     1
  1
2
  7
SLDTEXTSTYLE0
 73
     1
 44
1.0
  0
MTEXT
  5
FB
330
1F
100
AcDbEntity
  8
0
  6
Continuous
 62
     7
370
     0
100
AcDbMText
 10
66.2751820007
 20
16.5590559908
 30
0.0
 40
5.2916666667
 41
0.0
 71
     1
 72
     1
  1
1
  7
SLDTEXTSTYLE0
 73
     1
 44
1.0
  0
MTEXT
  5
FC
330
1F
100
AcDbEntity
  8
0
  6
Continuous
 62
     7
370
     0
100
AcDbMText
 10
717.7559615361
 20
466.6062272729
 30
0.0
 40
5.2916666667
 41
0.0
 71
     1
 72
     1
  1
A
  7
SLDTEXTSTYLE0
 73
     1
 44
1.0
  0
MTEXT
  5
FD
330
1F
100
AcDbEntity
  8
0
  6
Continuous
 62
     7
370
     0
100
AcDbMText
 10
718.3415103553
 20
387.8262336126
 30
0.0
 40
5.2916666667
 41
0.0
 71
     1
 72
     1
  1
B
  7
SLDTEXTSTYLE0
 73
     1
 44
1.0
  0
MTEXT
  5
FE
330
1F
100
AcDbEntity
  8
0
  6
Continuous
 62
     7
370
     0
100
AcDbMText
 10
718.3415103553
 20
305.2638501106
 30
0.0
 40
5.2916666667
 41
0.0
 71
     1
 72
     1
  1
C
  7
SLDTEXTSTYLE0
 73
     1
 44
1.0
  0
MTEXT
  5
FF
330
1F
100
AcDbEntity
  8
0
  6
Continuous
 62
     7
370
     0
100
AcDbMText
 10
718.3415103553
 20
223.9412766083
 30
0.0
 40
5.2916666667
 41
0.0
 71
     1
 72
     1
  1
D
  7
SLDTEXTSTYLE0
 73
     1
 44
1.0
  0
MTEXT
  5
100
330
1F
100
AcDbEntity
  8
0
  6
Continuous
 62
     7
370
     0
100
AcDbMText
 10
718.3415103553
 20
145.9676838524
 30
0.0
 40
5.2916666667
 41
0.0
 71
     1
 72
     1
  1
E
  7
SLDTEXTSTYLE0
 73
     1
 44
1.0
  0
MTEXT
  5
101
330
1F
100
AcDbEntity
  8
0
  6
Continuous
 62
     7
370
     0
100
AcDbMText
 10
718.3415103553
 20
66.0015246161
 30
0.0
 40
5.2916666667
 41
0.0
 71
     1
 72
     1
  1
F
  7
SLDTEXTSTYLE0
 73
     1
 44
1.0
  0
MTEXT
  5
102
330
1F
100
AcDbEntity
  8
0
  6
Continuous
 62
     7
370
     0
100
AcDbMText
 10
507.8882822005
 20
53.9667871277
 30
0.0
 40
4.6302083333
 41
0.0
 71
     1
 72
     1
  1
Sky
  7
SLDTEXTSTYLE0
 73
     1
 44
1.0
  0
MTEXT
  5
104
330
1F
100
AcDbEntity
  8
0
  6
Continuous
 62
     7
370
     0
100
AcDbMText
 10
632.1205599113
 20
30.5549008295
 30
0.0
 40
5.953125
 41
0.0
 71
     1
 72
     1
  1
0
  7
SLDTEXTSTYLE1
 73
     1
 44
1.0
  0
INSERT
  5
10A
330
1F
100
AcDbEntity
  8
SLD-0
 62
     7
100
AcDbBlockReference
  2
SW_NOTE_1
 10
496.8129734837
 20
83.8699363031
 30
0.0
  0
ARC
  5
10B
330
1F
100
AcDbEntity
  8
0
  6
Continuous
 62
     7
370
    30
100
AcDbCircle
 10
241.9240627414
 20
186.5026670881
 30
0.0
 40
6.000000000000028
100
AcDbArc
 50
180.0
 51
270.0
  0
LINE
  5
10C
330
1F
100
AcDbEntity
  8
0
  6
Continuous
 62
     7
370
    30
100
AcDbLine
 10
236.9240632672
 20
186.5026670295
 30
0.0
 11
235.9240631033
 21
186.5026670295
 31
0.0
  0
ARC
  5
10D
330
1F
100
AcDbEntity
  8
0
  6
Continuous
 62
     7
370
    30
100
AcDbCircle
 10
241.9240627414
 20
186.5026670881
 30
0.0
 40
5.0
100
AcDbArc
 50
180.0
 51
270.0
  0
LINE
  5
10E
330
1F
100
AcDbEntity
  8
0
  6
Continuous
 62
     7
370
    30
100
AcDbLine
 10
241.9240631554
 20
180.5026697713
 30
0.0
 11
241.9240631554
 21
181.5026643473
 31
0.0
  0
LINE
  5
10F
330
1F
100
AcDbEntity
  8
0
  6
Continuous
 62
     7
370
    30
100
AcDbLine
 10
209.9240644295
 20
329.5026662547
 30
0.0
 11
224.8088641483
 21
329.5026662547
 31
0.0
  0
LINE
  5
110
330
1F
100
AcDbEntity
  8
0
  6
Continuous
 62
     7
370
    30
100
AcDbLine
 10
224.8088641483
 20
329.5026662547
 30
0.0
 11
224.8088641483
 21
328.5026642281
 31
0.0
  0
LINE
  5
111
330
1F
100
AcDbEntity
  8
0
  6
Continuous
 62
     7
370
    30
100
AcDbLine
 10
224.8088641483
 20
328.5026642281
 30
0.0
 11
209.9240644295
 21
328.5026642281
 31
0.0
  0
LINE
  5
112
330
1F
100
AcDbEntity
  8
0
  6
Continuous
 62
     7
370
    30
100
AcDbLine
 10
209.9240644295
 20
329.5026662547
 30
0.0
 11
209.9240644295
 21
328.5026642281
 31
0.0
  0
LINE
  5
113
330
1F
100
AcDbEntity
  8
0
  6
Continuous
 62
     7
370
    30
100
AcDbLine
 10
204.9240617473
 20
323.5026689965
 30
0.0
 11
204.9240617473
 21
218.5026685494
 31
0.0
  0
LINE
  5
114
330
1F
100
AcDbEntity
  8
0
  6
Continuous
 62
     7
370
    30
100
AcDbLine
 10
204.9240617473
 20
218.5026685494
 30
0.0
 11
203.924063446
 21
218.5026685494
 31
0.0
  0
LINE
  5
115
330
1F
100
AcDbEntity
  8
0
  6
Continuous
 62
     7
370
    30
100
AcDbLine
 10
203.924063446
 20
218.5026685494
 30
0.0
 11
203.924063446
 21
323.5026689965
 31
0.0
  0
LINE
  5
116
330
1F
100
AcDbEntity
  8
0
  6
Continuous
 62
     7
370
    30
100
AcDbLine
 10
204.9240617473
 20
323.5026689965
 30
0.0
 11
203.924063446
 21
323.5026689965
 31
0.0
  0
ARC
  5
117
330
1F
100
AcDbEntity
  8
0
  6
Continuous
 62
     7
370
    30
100
AcDbCircle
 10
224.8088639147
 20
323.5026670881
 30
0.0
 40
6.000000000000057
100
AcDbArc
 50
40.0
 51
90.0
  0
LWPOLYLINE
  5
118
330
1F
100
AcDbEntity
  8
0
  6
Continuous
 62
     7
370
    30
100
AcDbPolyline
 90
        9
 70
   128
 43
0.0
 10
229.4051310439
 20
327.3593949872
 10
229.255683573
 20
327.2339942652
 10
229.1119786371
 20
327.1134066183
 10
228.979538979
 20
327.0022812087
 10
228.863455208
 20
326.9048723179
 10
228.7681883592
 20
326.8249350387
 10
228.6973985303
 20
326.7655315596
 10
228.6538051833
 20
326.7289566595
 10
228.6390865613
 20
326.7166035968
  0
ARC
  5
119
330
1F
100
AcDbEntity
  8
0
  6
Continuous
 62
     7
370
    30
100
AcDbCircle
 10
224.8088639147
 20
323.5026670881
 30
0.0
 40
5.000000000000009
100
AcDbArc
 50
40.0
 51
90.0
  0
ARC
  5
11A
330
1F
100
AcDbEntity
  8
0
  6
Continuous
 62
     7
370
    30
100
AcDbCircle
 10
209.9240627414
 20
218.5026670881
 30
0.0
 40
5.0
100
AcDbArc
 50
180.0
 51
270.0
  0
LINE
  5
11B
330
1F
100
AcDbEntity
  8
0
  6
Continuous
 62
     7
370
    30
100
AcDbLine
 10
209.9240644295
 20
213.5026658672
 30
0.0
 11
209.9240644295
 21
212.502667566
 31
0.0
  0
ARC
  5
11C
330
1F
100
AcDbEntity
  8
0
  6
Continuous
 62
     7
370
    30
100
AcDbCircle
 10
209.9240627414
 20
218.5026670881
 30
0.0
 40
6.0
100
AcDbArc
 50
180.0
 51
270.0
  0
LINE
  5
11D
330
1F
100
AcDbEntity
  8
0
  6
Continuous
 62
     7
370
    30
100
AcDbLine
 10
229.4051310439
 20
327.3593949872
 30
0.0
 11
316.5203256924
 21
223.5395404297
 31
0.0
  0
LWPOLYLINE
  5
11E
330
1F
100
AcDbEntity
  8
0
  6
Continuous
 62
     7
370
    30
100
AcDbPolyline
 90
        9
 70
   128
 43
0.0
 10
316.5203256924
 20
223.5395404297
 10
316.3708819468
 20
223.4141397077
 10
316.2271751482
 20
223.293555786
 10
316.0947373528
 20
223.1824266511
 10
315.9786535818
 20
223.0850214857
 10
315.883386733
 20
223.0050842065
 10
315.8125950415
 20
222.9456844527
 10
315.7690054197
 20
222.9091058272
 10
315.7542867977
 20
222.8967527646
  0
LINE
  5
11F
330
1F
100
AcDbEntity
  8
0
  6
Continuous
 62
     7
370
    30
100
AcDbLine
 10
315.7542867977
 20
222.8967527646
 30
0.0
 11
228.6390865613
 21
326.7166035968
 31
0.0
  0
ARC
  5
120
330
1F
100
AcDbEntity
  8
0
  6
Continuous
 62
     7
370
    30
100
AcDbCircle
 10
311.9240627414
 20
186.5026670881
 30
0.0
 40
6.000000000000057
100
AcDbArc
 50
270.0
 51
0.0
  0
LINE
  5
121
330
1F
100
AcDbEntity
  8
0
  6
Continuous
 62
     7
370
    30
100
AcDbLine
 10
317.9240597803
 20
219.682814439
 30
0.0
 11
317.9240597803
 21
186.5026670295
 31
0.0
  0
ARC
  5
122
330
1F
100
AcDbEntity
  8
0
  6
Continuous
 62
     7
370
    30
100
AcDbCircle
 10
311.9240627414
 20
219.6828159167
 30
0.0
 40
6.000000000000057
100
AcDbArc
 50
0.0
 51
40.0
  0
ARC
  5
123
330
1F
100
AcDbEntity
  8
0
  6
Continuous
 62
     7
370
    30
100
AcDbCircle
 10
209.9240627414
 20
323.5026670881
 30
0.0
 40
6.000000000000057
100
AcDbArc
 50
90.0
 51
180.0
  0
LINE
  5
124
330
1F
100
AcDbEntity
  8
0
  6
Continuous
 62
     7
370
    30
100
AcDbLine
 10
217.8529946525
 20
212.502667566
 30
0.0
 11
209.9240644295
 21
212.502667566
 31
0.0
  0
ARC
  5
125
330
1F
100
AcDbEntity
  8
0
  6
Continuous
 62
     7
370
    30
100
AcDbCircle
 10
217.8529949296
 20
208.5026670881
 30
0.0
 40
4.0
100
AcDbArc
 50
45.0
 51
90.0
  0
LINE
  5
126
330
1F
100
AcDbEntity
  8
0
  6
Continuous
 62
     7
370
    30
100
AcDbLine
 10
234.7524891067
 20
197.2600239116
 30
0.0
 11
220.6814213116
 21
211.3310935694
 31
0.0
  0
ARC
  5
127
330
1F
100
AcDbEntity
  8
0
  6
Continuous
 62
     7
370
    30
100
AcDbCircle
 10
231.9240627414
 20
194.4315992762
 30
0.0
 40
3.999999999999972
100
AcDbArc
 50
0.0
 51
45.0
  0
LINE
  5
128
330
1F
100
AcDbEntity
  8
0
  6
Continuous
 62
     7
370
    30
100
AcDbLine
 10
235.9240631033
 20
186.5026670295
 30
0.0
 11
235.9240631033
 21
194.4315972525
 31
0.0
  0
LINE
  5
129
330
1F
100
AcDbEntity
  8
0
  6
Continuous
 62
     7
370
    30
100
AcDbLine
 10
311.9240625221
 20
180.5026697713
 30
0.0
 11
241.9240631554
 21
180.5026697713
 31
0.0
  0
LINE
  5
12A
330
1F
100
AcDbEntity
  8
0
  6
Continuous
 62
     7
370
    30
100
AcDbLine
 10
187.9240645487
 20
362.5026660758
 30
0.0
 11
187.9240645487
 21
168.9168828327
 31
0.0
  0
LINE
  5
12B
330
1F
100
AcDbEntity
  8
0
  6
Continuous
 62
     7
370
    30
100
AcDbLine
 10
219.5925226826
 20
362.5026660758
 30
0.0
 11
187.9240645487
 21
362.5026660758
 31
0.0
  0
ARC
  5
12C
330
1F
100
AcDbEntity
  8
0
  6
Continuous
 62
     7
370
    30
100
AcDbCircle
 10
219.5925244507
 20
358.5026670881
 30
0.0
 40
4.000000000000016
100
AcDbArc
 50
40.0
 51
90.0
  0
LINE
  5
12D
330
1F
100
AcDbEntity
  8
0
  6
Continuous
 62
     7
370
    30
100
AcDbLine
 10
334.9882437307
 20
227.2023017305
 30
0.0
 11
222.6567024756
 21
361.0738160807
 31
0.0
  0
ARC
  5
12E
330
1F
100
AcDbEntity
  8
0
  6
Continuous
 62
     7
370
    30
100
AcDbCircle
 10
331.9240627414
 20
224.6311527684
 30
0.0
 40
4.0
100
AcDbArc
 50
0.0
 51
40.0
  0
LINE
  5
12F
330
1F
100
AcDbEntity
  8
0
  6
Continuous
 62
     7
370
    30
100
AcDbLine
 10
335.924066456
 20
164.5026671487
 30
0.0
 11
335.924066456
 21
224.63115107
 31
0.0
  0
LINE
  5
130
330
1F
100
AcDbEntity
  8
0
  6
Continuous
 62
     7
370
    30
100
AcDbLine
 10
192.3382765073
 20
164.5026671487
 30
0.0
 11
335.924066456
 21
164.5026671487
 31
0.0
  0
LINE
  5
131
330
1F
100
AcDbEntity
  8
0
  6
Continuous
 62
     7
370
    30
100
AcDbLine
 10
187.9240645487
 20
168.9168828327
 30
0.0
 11
192.3382765073
 21
164.5026671487
 31
0.0
  0
ARC
  5
132
330
1F
100
AcDbEntity
  8
0
  6
Continuous
 62
     7
370
    30
100
AcDbCircle
 10
219.5925244507
 20
358.5026670881
 30
0.0
 40
5.0
100
AcDbArc
 50
40.0
 51
90.0
  0
LWPOLYLINE
  5
133
330
1F
100
AcDbEntity
  8
0
  6
Continuous
 62
     7
370
    30
100
AcDbPolyline
 90
        9
 70
   128
 43
0.0
 10
223.4227469582
 20
361.7166074711
 10
223.4080264736
 20
361.7042544085
 10
223.3644349892
 20
361.6676795084
 10
223.2936451603
 20
361.6082760293
 10
223.1983783115
 20
361.52833875
 10
223.0822945405
 20
361.4309298593
 10
222.9498548824
 20
361.3198044497
 10
222.8061499465
 20
361.1992168027
 10
222.6567024756
 20
361.0738160807
  0
LINE
  5
134
330
1F
100
AcDbEntity
  8
0
  6
Continuous
 62
     7
370
    30
100
AcDbLine
 10
219.5925226826
 20
362.5026660758
 30
0.0
 11
219.5925226826
 21
363.5026681024
 31
0.0
  0
LINE
  5
135
330
1F
100
AcDbEntity
  8
0
  6
Continuous
 62
     7
370
    30
100
AcDbLine
 10
223.4227469582
 20
361.7166074711
 30
0.0
 11
335.7542826254
 21
227.8450893957
 31
0.0
  0
LWPOLYLINE
  5
136
330
1F
100
AcDbEntity
  8
0
  6
Continuous
 62
     7
370
    30
100
AcDbPolyline
 90
        9
 70
   128
 43
0.0
 10
335.7542826254
 20
227.8450893957
 10
335.7395677287
 20
227.8327400583
 10
335.6959743816
 20
227.7961614329
 10
335.6251864154
 20
227.7367616791
 10
335.5299158413
 20
227.6568243999
 10
335.413828345
 20
227.5594155091
 10
335.2813942749
 20
227.4482863742
 10
335.1376874764
 20
227.3277061779
 10
334.9882437307
 20
227.2023017305
  0
LWPOLYLINE
  5
137
330
1F
100
AcDbEntity
  8
0
  6
Continuous
 62
     7
370
    30
100
AcDbPolyline
 90
        9
 70
   128
 43
0.0
 10
187.9240645487
 20
362.5026660758
 10
187.7289710958
 20
362.6977595288
 10
187.5413803775
 20
362.885350247
 10
187.3684896547
 20
363.0582409698
 10
187.216952296
 20
363.209770878
 10
187.0925946552
 20
363.3341359693
 10
187.0001851041
 20
363.4265455204
 10
186.9432775695
 20
363.483453055
 10
186.9240625221
 20
363.5026681024
  0
LINE
  5
138
330
1F
100
AcDbEntity
  8
0
  6
Continuous
 62
     7
370
    30
100
AcDbLine
 10
186.9240625221
 20
363.5026681024
 30
0.0
 11
219.5925226826
 21
363.5026681024
 31
0.0
  0
ARC
  5
139
330
1F
100
AcDbEntity
  8
0
  6
Continuous
 62
     7
370
    30
100
AcDbCircle
 10
331.9240627414
 20
224.6311527684
 30
0.0
 40
5.000000000000009
100
AcDbArc
 50
0.0
 51
40.0
  0
LINE
  5
13A
330
1F
100
AcDbEntity
  8
0
  6
Continuous
 62
     7
370
    30
100
AcDbLine
 10
336.924061032
 20
224.63115107
 30
0.0
 11
335.924066456
 21
224.63115107
 31
0.0
  0
LWPOLYLINE
  5
13B
330
1F
100
AcDbEntity
  8
0
  6
Continuous
 62
     7
370
    30
100
AcDbPolyline
 90
        9
 70
   128
 43
0.0
 10
187.9240645487
 20
168.9168828327
 10
187.7289710958
 20
168.8360738355
 10
187.5413803775
 20
168.7583642799
 10
187.3684896547
 20
168.6867567498
 10
187.216952296
 20
168.6239856082
 10
187.0925946552
 20
168.572472294
 10
187.0001851041
 20
168.5341986615
 10
186.9432775695
 20
168.5106250245
 10
186.9240625221
 20
168.5026678044
  0
LINE
  5
13C
330
1F
100
AcDbEntity
  8
0
  6
Continuous
 62
     7
370
    30
100
AcDbLine
 10
186.9240625221
 20
168.5026678044
 30
0.0
 11
186.9240625221
 21
363.5026681024
 31
0.0
  0
LINE
  5
13D
330
1F
100
AcDbEntity
  8
0
  6
Continuous
 62
     7
370
    30
100
AcDbLine
 10
336.924061032
 20
224.63115107
 30
0.0
 11
336.924061032
 21
163.5026651222
 31
0.0
  0
LWPOLYLINE
  5
13E
330
1F
100
AcDbEntity
  8
0
  6
Continuous
 62
     7
370
    30
100
AcDbPolyline
 90
        9
 70
   128
 43
0.0
 10
336.924061032
 20
163.5026651222
 10
336.9048459847
 20
163.5218801695
 10
336.8479459006
 20
163.5787877041
 10
336.7555288989
 20
163.6711972553
 10
336.6311712582
 20
163.7955623466
 10
336.4796338994
 20
163.9470997054
 10
336.3067431767
 20
164.1199829775
 10
336.1191524584
 20
164.3075736958
 10
335.924066456
 20
164.5026671487
  0
LWPOLYLINE
  5
13F
330
1F
100
AcDbEntity
  8
0
  6
Continuous
 62
     7
370
    30
100
AcDbPolyline
 90
       10
 70
   128
 43
0.0
 10
192.3382765073
 20
164.5026671487
 10
192.2663486023
 20
164.3290164668
 10
192.1966074426
 20
164.1606482464
 10
192.1311689932
 20
164.0026661355
 10
192.0720262844
 20
163.8598757583
 10
192.0209711809
 20
163.7366208035
 10
191.9795571286
 20
163.6366414625
 10
191.9490432758
 20
163.5629775721
 10
191.9303572197
 20
163.517856856
 10
191.9240614791
 20
163.5026651222
  0
LINE
  5
140
330
1F
100
AcDbEntity
  8
0
  6
Continuous
 62
     7
370
    30
100
AcDbLine
 10
191.9240614791
 20
163.5026651222
 30
0.0
 11
186.9240625221
 21
168.5026678044
 31
0.0
  0
LINE
  5
141
330
1F
100
AcDbEntity
  8
0
  6
Continuous
 62
     7
370
    30
100
AcDbLine
 10
336.924061032
 20
163.5026651222
 30
0.0
 11
191.9240614791
 21
163.5026651222
 31
0.0
  0
ARC
  5
142
330
1F
100
AcDbEntity
  8
0
  6
Continuous
 62
     7
370
    30
100
AcDbCircle
 10
209.9240627414
 20
323.5026670881
 30
0.0
 40
5.000000000000028
100
AcDbArc
 50
90.0
 51
180.0
  0
ARC
  5
143
330
1F
100
AcDbEntity
  8
0
  6
Continuous
 62
     7
370
    30
100
AcDbCircle
 10
217.8529949296
 20
208.5026670881
 30
0.0
 40
5.0
100
AcDbArc
 50
45.0
 51
90.0
  0
LINE
  5
144
330
1F
100
AcDbEntity
  8
0
  6
Continuous
 62
     7
370
    30
100
AcDbLine
 10
221.388529839
 20
212.0382020968
 30
0.0
 11
220.6814213116
 21
211.3310935694
 31
0.0
  0
LINE
  5
145
330
1F
100
AcDbEntity
  8
0
  6
Continuous
 62
     7
370
    30
100
AcDbLine
 10
217.8529946525
 20
213.5026658672
 30
0.0
 11
217.8529946525
 21
212.502667566
 31
0.0
  0
LINE
  5
146
330
1F
100
AcDbEntity
  8
0
  6
Continuous
 62
     7
370
    30
100
AcDbLine
 10
317.9240597803
 20
186.5026670295
 30
0.0
 11
316.9240652043
 21
186.5026670295
 31
0.0
  0
LINE
  5
147
330
1F
100
AcDbEntity
  8
0
  6
Continuous
 62
     7
370
    30
100
AcDbLine
 10
316.9240652043
 20
186.5026670295
 30
0.0
 11
316.9240652043
 21
219.682814439
 31
0.0
  0
LINE
  5
148
330
1F
100
AcDbEntity
  8
0
  6
Continuous
 62
     7
370
    30
100
AcDbLine
 10
317.9240597803
 20
219.682814439
 30
0.0
 11
316.9240652043
 21
219.682814439
 31
0.0
  0
LINE
  5
149
330
1F
100
AcDbEntity
  8
0
  6
Continuous
 62
     7
370
    30
100
AcDbLine
 10
221.388529839
 20
212.0382020968
 30
0.0
 11
235.4595957715
 21
197.9671361643
 31
0.0
  0
LWPOLYLINE
  5
14A
330
1F
100
AcDbEntity
  8
0
  6
Continuous
 62
     7
370
    30
100
AcDbPolyline
 90
        9
 70
   128
 43
0.0
 10
235.4595957715
 20
197.9671361643
 10
235.4460096378
 20
197.9535463053
 10
235.4057709146
 20
197.9133057195
 10
235.3404274602
 20
197.8479641277
 10
235.25249012
 20
197.7600249249
 10
235.1453377325
 20
197.6528706748
 10
235.0230886061
 20
197.5306215483
 10
234.8904403318
 20
197.397978862
 10
234.7524891067
 20
197.2600239116
  0
LINE
  5
14B
330
1F
100
AcDbEntity
  8
0
  6
Continuous
 62
     7
370
    30
100
AcDbLine
 10
311.9240625221
 20
180.5026697713
 30
0.0
 11
311.9240625221
 21
181.5026643473
 31
0.0
  0
ARC
  5
14C
330
1F
100
AcDbEntity
  8
0
  6
Continuous
 62
     7
370
    30
100
AcDbCircle
 10
311.9240627414
 20
186.5026670881
 30
0.0
 40
5.0
100
AcDbArc
 50
270.0
 51
0.0
  0
ARC
  5
14D
330
1F
100
AcDbEntity
  8
0
  6
Continuous
 62
     7
370
    30
100
AcDbCircle
 10
231.9240627414
 20
194.4315992762
 30
0.0
 40
5.0
100
AcDbArc
 50
0.0
 51
45.0
  0
LINE
  5
14E
330
1F
100
AcDbEntity
  8
0
  6
Continuous
 62
     7
370
    30
100
AcDbLine
 10
236.9240632672
 20
194.4315972525
 30
0.0
 11
235.9240631033
 21
194.4315972525
 31
0.0
  0
LINE
  5
14F
330
1F
100
AcDbEntity
  8
0
  6
Continuous
 62
     7
370
    30
100
AcDbLine
 10
209.9240644295
 20
213.5026658672
 30
0.0
 11
217.8529946525
 21
213.5026658672
 31
0.0
  0
ARC
  5
150
330
1F
100
AcDbEntity
  8
0
  6
Continuous
 62
     7
370
    30
100
AcDbCircle
 10
311.9240627414
 20
219.6828159167
 30
0.0
 40
5.000000000000009
100
AcDbArc
 50
0.0
 51
40.0
  0
LINE
  5
151
330
1F
100
AcDbEntity
  8
0
  6
Continuous
 62
     7
370
    30
100
AcDbLine
 10
236.9240632672
 20
194.4315972525
 30
0.0
 11
236.9240632672
 21
186.5026670295
 31
0.0
  0
LINE
  5
152
330
1F
100
AcDbEntity
  8
0
  6
Continuous
 62
     7
370
    30
100
AcDbLine
 10
241.9240631554
 20
181.5026643473
 30
0.0
 11
311.9240625221
 21
181.5026643473
 31
0.0
  0
LINE
  5
153
330
1F
100
AcDbEntity
  8
0
  6
HIDDEN
 62
     7
370
    15
100
AcDbLine
 10
204.9240617473
 20
316.1026666659
 30
0.0
 11
186.9240625221
 21
316.1026666659
 31
0.0
  0
LINE
  5
154
330
1F
100
AcDbEntity
  8
0
  6
HIDDEN
 62
     7
370
    15
100
AcDbLine
 10
204.9240617473
 20
306.1026687521
 30
0.0
 11
186.9240625221
 21
306.1026687521
 31
0.0
  0
LINE
  5
155
330
1F
100
AcDbEntity
  8
0
  6
HIDDEN
 62
     7
370
    15
100
AcDbLine
 10
204.9240617473
 20
280.7026671964
 30
0.0
 11
186.9240625221
 21
280.7026671964
 31
0.0
  0
LINE
  5
156
330
1F
100
AcDbEntity
  8
0
  6
HIDDEN
 62
     7
370
    15
100
AcDbLine
 10
204.9240617473
 20
290.7026669729
 30
0.0
 11
186.9240625221
 21
290.7026669729
 31
0.0
  0
LINE
  5
157
330
1F
100
AcDbEntity
  8
0
  6
HIDDEN
 62
     7
370
    15
100
AcDbLine
 10
204.9240617473
 20
255.3026670377
 30
0.0
 11
186.9240625221
 21
255.3026670377
 31
0.0
  0
LINE
  5
158
330
1F
100
AcDbEntity
  8
0
  6
HIDDEN
 62
     7
370
    15
100
AcDbLine
 10
204.9240617473
 20
265.3026672799
 30
0.0
 11
186.9240625221
 21
265.3026672799
 31
0.0
  0
LINE
  5
159
330
1F
100
AcDbEntity
  8
0
  6
HIDDEN
 62
     7
370
    15
100
AcDbLine
 10
204.9240617473
 20
229.9026678103
 30
0.0
 11
186.9240625221
 21
229.9026678103
 31
0.0
  0
LINE
  5
15A
330
1F
100
AcDbEntity
  8
0
  6
HIDDEN
 62
     7
370
    15
100
AcDbLine
 10
204.9240617473
 20
239.9026675868
 30
0.0
 11
186.9240625221
 21
239.9026675868
 31
0.0
  0
LINE
  5
15B
330
1F
100
AcDbEntity
  8
0
  6
HIDDEN
 62
     7
370
    15
100
AcDbLine
 10
201.9240631182
 20
273.0026672381
 30
0.0
 11
201.9240631182
 21
275.5553674671
 31
0.0
  0
LINE
  5
15C
330
1F
100
AcDbEntity
  8
0
  6
HIDDEN
 62
     7
370
    15
100
AcDbLine
 10
201.9240631182
 20
270.4499670091
 30
0.0
 11
201.9240631182
 21
273.0026672381
 31
0.0
  0
LWPOLYLINE
  5
15D
330
1F
100
AcDbEntity
  8
0
  6
HIDDEN
 62
     7
370
    15
100
AcDbPolyline
 90
       12
 70
   128
 43
0.0
 10
233.6389420945
 20
326.2055608231
 10
233.7054068614
 20
326.1263537008
 10
233.8994199801
 20
325.8951323825
 10
234.2052607257
 20
325.5306499797
 10
234.598154055
 20
325.0624182421
 10
235.046269225
 20
324.5283755261
 10
235.5133014191
 20
323.9717873532
 10
235.9614165891
 20
323.4377409119
 10
236.3543099184
 20
322.9695091742
 10
236.6601506639
 20
322.6050230462
 10
236.8541637827
 20
322.3738091785
 10
236.9206285495
 20
322.2945983309
  0
LINE
  5
15E
330
1F
100
AcDbEntity
  8
0
  6
HIDDEN
 62
     7
370
    15
100
AcDbLine
 10
201.9240631182
 20
336.5026655394
 30
0.0
 11
201.9240631182
 21
339.0553685624
 31
0.0
  0
LINE
  5
15F
330
1F
100
AcDbEntity
  8
0
  6
HIDDEN
 62
     7
370
    15
100
AcDbLine
 10
201.9240631182
 20
333.949969967
 30
0.0
 11
201.9240631182
 21
336.5026655394
 31
0.0
  0
LINE
  5
160
330
1F
100
AcDbEntity
  8
0
  6
HIDDEN
 62
     7
370
    15
100
AcDbLine
 10
321.924060436
 20
191.4553659755
 30
0.0
 11
321.924060436
 21
186.3499673802
 31
0.0
  0
LWPOLYLINE
  5
161
330
1F
100
AcDbEntity
  8
0
  6
HIDDEN
 62
     7
370
    15
100
AcDbPolyline
 90
       12
 70
   128
 43
0.0
 10
266.2925523166
 20
287.2905022252
 10
266.3590180148
 20
287.2112913776
 10
266.5530302022
 20
286.9800775099
 10
266.8588718791
 20
286.6155895192
 10
267.2517652083
 20
286.1473577816
 10
267.699879447
 20
285.6133150655
 10
268.1669125725
 20
285.0567268926
 10
268.6150277425
 20
284.5226841766
 10
269.0079201404
 20
284.054452439
 10
269.3137618173
 20
283.6899663109
 10
269.507774936
 20
283.4587505806
 10
269.5742397029
 20
283.379539733
  0
LINE
  5
162
330
1F
100
AcDbEntity
  8
0
  6
HIDDEN
 62
     7
370
    15
100
AcDbLine
 10
201.9240631182
 20
247.6026675451
 30
0.0
 11
201.9240631182
 21
250.1553668428
 31
0.0
  0
LINE
  5
163
330
1F
100
AcDbEntity
  8
0
  6
HIDDEN
 62
     7
370
    15
100
AcDbLine
 10
201.9240631182
 20
245.0499663848
 30
0.0
 11
201.9240631182
 21
247.6026675451
 31
0.0
  0
LINE
  5
164
330
1F
100
AcDbEntity
  8
0
  6
HIDDEN
 62
     7
370
    15
100
AcDbLine
 10
326.6240654904
 20
178.5026657182
 30
0.0
 11
324.0713624675
 21
178.5026657182
 31
0.0
  0
LINE
  5
165
330
1F
100
AcDbEntity
  8
0
  6
HIDDEN
 62
     7
370
    15
100
AcDbLine
 10
329.1767610628
 20
178.5026657182
 30
0.0
 11
326.6240654904
 21
178.5026657182
 31
0.0
  0
LINE
  5
166
330
1F
100
AcDbEntity
  8
0
  6
HIDDEN
 62
     7
370
    15
100
AcDbLine
 10
201.9240631182
 20
298.4026687938
 30
0.0
 11
201.9240631182
 21
300.9553680915
 31
0.0
  0
LINE
  5
167
330
1F
100
AcDbEntity
  8
0
  6
HIDDEN
 62
     7
370
    15
100
AcDbLine
 10
201.9240631182
 20
295.8499657709
 30
0.0
 11
201.9240631182
 21
298.4026687938
 31
0.0
  0
LINE
  5
168
330
1F
100
AcDbEntity
  8
0
  6
HIDDEN
 62
     7
370
    15
100
AcDbLine
 10
321.924060436
 20
216.8553675312
 30
0.0
 11
321.924060436
 21
211.7499689359
 31
0.0
  0
LINE
  5
169
330
1F
100
AcDbEntity
  8
0
  6
HIDDEN
 62
     7
370
    15
100
AcDbLine
 10
288.5240612943
 20
178.5026657182
 30
0.0
 11
285.9713619966
 21
178.5026657182
 31
0.0
  0
LINE
  5
16A
330
1F
100
AcDbEntity
  8
0
  6
HIDDEN
 62
     7
370
    15
100
AcDbLine
 10
291.0767643172
 20
178.5026657182
 30
0.0
 11
288.5240612943
 21
178.5026657182
 31
0.0
  0
LINE
  5
16B
330
1F
100
AcDbEntity
  8
0
  6
HIDDEN
 62
     7
370
    15
100
AcDbLine
 10
197.0713621397
 20
348.5026675064
 30
0.0
 11
202.1767644603
 21
348.5026675064
 31
0.0
  0
LINE
  5
16C
330
1F
100
AcDbEntity
  8
0
  6
HIDDEN
 62
     7
370
    15
100
AcDbLine
 10
263.1240625326
 20
178.5026657182
 30
0.0
 11
260.5713627692
 21
178.5026657182
 31
0.0
  0
LINE
  5
16D
330
1F
100
AcDbEntity
  8
0
  6
HIDDEN
 62
     7
370
    15
100
AcDbLine
 10
265.6767627616
 20
178.5026657182
 30
0.0
 11
263.1240625326
 21
178.5026657182
 31
0.0
  0
LWPOLYLINE
  5
16E
330
1F
100
AcDbEntity
  8
0
  6
HIDDEN
 62
     7
370
    15
100
AcDbPolyline
 90
       13
 70
   128
 43
0.0
 10
298.9461644013
 20
248.3754454899
 10
299.0126273055
 20
248.2962346423
 10
299.2066404242
 20
248.0650198433
 10
299.5124830324
 20
247.7005318526
 10
299.905374499
 20
247.232300115
 10
300.353489669
 20
246.6982573989
 10
300.8205218632
 20
246.141669226
 10
301.2686370332
 20
245.6076274413
 10
301.6615322251
 20
245.1393957037
 10
301.967371108
 20
244.774907713
 10
302.1613842268
 20
244.5436919826
 10
302.2278508563
 20
244.464481135
 10
302.2278508563
 20
244.464481135
  0
ARC
  5
16F
330
1F
100
AcDbEntity
  8
0
  6
HIDDEN
 62
     7
370
    15
100
AcDbCircle
 10
217.8529949296
 20
208.5026670881
 30
0.0
 40
4.0
100
AcDbArc
 50
45.0
 51
90.0
  0
LINE
  5
170
330
1F
100
AcDbEntity
  8
0
  6
HIDDEN
 62
     7
370
    15
100
AcDbLine
 10
221.388529839
 20
212.0382020968
 30
0.0
 11
220.6814213116
 21
211.3310935694
 31
0.0
  0
LINE
  5
171
330
1F
100
AcDbEntity
  8
0
  6
HIDDEN
 62
     7
370
    15
100
AcDbLine
 10
217.8529946525
 20
212.502667566
 30
0.0
 11
217.8529946525
 21
213.5026658672
 31
0.0
  0
LINE
  5
172
330
1F
100
AcDbEntity
  8
0
  6
HIDDEN
 62
     7
370
    15
100
AcDbLine
 10
220.6814213116
 20
211.3310935694
 30
0.0
 11
234.7524891067
 21
197.2600239116
 31
0.0
  0
LWPOLYLINE
  5
173
330
1F
100
AcDbEntity
  8
0
  6
HIDDEN
 62
     7
370
    15
100
AcDbPolyline
 90
        9
 70
   128
 43
0.0
 10
235.4595957715
 20
197.9671361643
 10
235.4460096378
 20
197.9535463053
 10
235.4057709146
 20
197.9133057195
 10
235.3404274602
 20
197.8479641277
 10
235.25249012
 20
197.7600249249
 10
235.1453377325
 20
197.6528706748
 10
235.0230886061
 20
197.5306215483
 10
234.8904403318
 20
197.397978862
 10
234.7524891067
 20
197.2600239116
  0
LINE
  5
174
330
1F
100
AcDbEntity
  8
0
  6
HIDDEN
 62
     7
370
    15
100
AcDbLine
 10
236.9240632672
 20
194.4315972525
 30
0.0
 11
235.9240631033
 21
194.4315972525
 31
0.0
  0
LINE
  5
175
330
1F
100
AcDbEntity
  8
0
  6
HIDDEN
 62
     7
370
    15
100
AcDbLine
 10
235.9240631033
 20
194.4315972525
 30
0.0
 11
235.9240631033
 21
186.5026670295
 31
0.0
  0
LINE
  5
176
330
1F
100
AcDbEntity
  8
0
  6
HIDDEN
 62
     7
370
    15
100
AcDbLine
 10
236.9240632672
 20
186.5026670295
 30
0.0
 11
235.9240631033
 21
186.5026670295
 31
0.0
  0
ARC
  5
177
330
1F
100
AcDbEntity
  8
0
  6
HIDDEN
 62
     7
370
    15
100
AcDbCircle
 10
209.9240627414
 20
218.5026670881
 30
0.0
 40
6.0
100
AcDbArc
 50
180.0
 51
270.0
  0
LINE
  5
178
330
1F
100
AcDbEntity
  8
0
  6
HIDDEN
 62
     7
370
    15
100
AcDbLine
 10
209.9240644295
 20
212.502667566
 30
0.0
 11
209.9240644295
 21
213.5026658672
 31
0.0
  0
LINE
  5
179
330
1F
100
AcDbEntity
  8
0
  6
HIDDEN
 62
     7
370
    15
100
AcDbLine
 10
203.924063446
 20
218.5026685494
 30
0.0
 11
204.9240617473
 21
218.5026685494
 31
0.0
  0
ARC
  5
17A
330
1F
100
AcDbEntity
  8
0
  6
HIDDEN
 62
     7
370
    15
100
AcDbCircle
 10
231.9240627414
 20
194.4315992762
 30
0.0
 40
3.999999999999992
100
AcDbArc
 50
0.0
 51
45.0
  0
LINE
  5
17B
330
1F
100
AcDbEntity
  8
0
  6
HIDDEN
 62
     7
370
    15
100
AcDbLine
 10
209.9240644295
 20
212.502667566
 30
0.0
 11
217.8529946525
 21
212.502667566
 31
0.0
  0
ARC
  5
17C
330
1F
100
AcDbEntity
  8
0
  6
HIDDEN
 62
     7
370
    15
100
AcDbCircle
 10
219.5925244507
 20
358.5026670881
 30
0.0
 40
4.000000000000016
100
AcDbArc
 50
40.0
 51
90.0
  0
LWPOLYLINE
  5
17D
330
1F
100
AcDbEntity
  8
0
  6
HIDDEN
 62
     7
370
    15
100
AcDbPolyline
 90
        9
 70
   128
 43
0.0
 10
223.4227469582
 20
361.7166074711
 10
223.4080264736
 20
361.7042544085
 10
223.3644349892
 20
361.6676795084
 10
223.2936451603
 20
361.6082760293
 10
223.1983783115
 20
361.52833875
 10
223.0822945405
 20
361.4309298593
 10
222.9498548824
 20
361.3198044497
 10
222.8061499465
 20
361.1992168027
 10
222.6567024756
 20
361.0738160807
  0
LINE
  5
17E
330
1F
100
AcDbEntity
  8
0
  6
HIDDEN
 62
     7
370
    15
100
AcDbLine
 10
219.5925226826
 20
362.5026660758
 30
0.0
 11
219.5925226826
 21
363.5026681024
 31
0.0
  0
LINE
  5
17F
330
1F
100
AcDbEntity
  8
0
  6
HIDDEN
 62
     7
370
    15
100
AcDbLine
 10
335.924066456
 20
164.5026671487
 30
0.0
 11
192.3382765073
 21
164.5026671487
 31
0.0
  0
LINE
  5
180
330
1F
100
AcDbEntity
  8
0
  6
HIDDEN
 62
     7
370
    15
100
AcDbLine
 10
192.3382765073
 20
164.5026671487
 30
0.0
 11
187.9240645487
 21
168.9168828327
 31
0.0
  0
LINE
  5
181
330
1F
100
AcDbEntity
  8
0
  6
HIDDEN
 62
     7
370
    15
100
AcDbLine
 10
336.924061032
 20
224.63115107
 30
0.0
 11
335.924066456
 21
224.63115107
 31
0.0
  0
LINE
  5
182
330
1F
100
AcDbEntity
  8
0
  6
HIDDEN
 62
     7
370
    15
100
AcDbLine
 10
335.924066456
 20
224.63115107
 30
0.0
 11
335.924066456
 21
164.5026671487
 31
0.0
  0
LINE
  5
183
330
1F
100
AcDbEntity
  8
0
  6
HIDDEN
 62
     7
370
    15
100
AcDbLine
 10
187.9240645487
 20
168.9168828327
 30
0.0
 11
187.9240645487
 21
362.5026660758
 31
0.0
  0
LWPOLYLINE
  5
184
330
1F
100
AcDbEntity
  8
0
  6
HIDDEN
 62
     7
370
    15
100
AcDbPolyline
 90
        9
 70
   128
 43
0.0
 10
335.7542826254
 20
227.8450893957
 10
335.7395677287
 20
227.8327400583
 10
335.6959743816
 20
227.7961614329
 10
335.6251864154
 20
227.7367616791
 10
335.5299158413
 20
227.6568243999
 10
335.413828345
 20
227.5594155091
 10
335.2813942749
 20
227.4482863742
 10
335.1376874764
 20
227.3277061779
 10
334.9882437307
 20
227.2023017305
  0
ARC
  5
185
330
1F
100
AcDbEntity
  8
0
  6
HIDDEN
 62
     7
370
    15
100
AcDbCircle
 10
331.9240627414
 20
224.6311527684
 30
0.0
 40
4.0
100
AcDbArc
 50
0.0
 51
40.0
  0
LINE
  5
186
330
1F
100
AcDbEntity
  8
0
  6
HIDDEN
 62
     7
370
    15
100
AcDbLine
 10
187.9240645487
 20
362.5026660758
 30
0.0
 11
219.5925226826
 21
362.5026660758
 31
0.0
  0
LINE
  5
187
330
1F
100
AcDbEntity
  8
0
  6
HIDDEN
 62
     7
370
    15
100
AcDbLine
 10
222.6567024756
 20
361.0738160807
 30
0.0
 11
334.9882437307
 21
227.2023017305
 31
0.0
  0
LINE
  5
188
330
1F
100
AcDbEntity
  8
0
  6
HIDDEN
 62
     7
370
    15
100
AcDbLine
 10
241.9240631554
 20
181.5026643473
 30
0.0
 11
241.9240631554
 21
180.5026697713
 31
0.0
  0
LINE
  5
189
330
1F
100
AcDbEntity
  8
0
  6
HIDDEN
 62
     7
370
    15
100
AcDbLine
 10
241.9240631554
 20
180.5026697713
 30
0.0
 11
311.9240625221
 21
180.5026697713
 31
0.0
  0
LINE
  5
18A
330
1F
100
AcDbEntity
  8
0
  6
HIDDEN
 62
     7
370
    15
100
AcDbLine
 10
311.9240625221
 20
181.5026643473
 30
0.0
 11
311.9240625221
 21
180.5026697713
 31
0.0
  0
ARC
  5
18B
330
1F
100
AcDbEntity
  8
0
  6
HIDDEN
 62
     7
370
    15
100
AcDbCircle
 10
311.9240627414
 20
219.6828159167
 30
0.0
 40
6.000000000000057
100
AcDbArc
 50
0.0
 51
40.0
  0
LWPOLYLINE
  5
18C
330
1F
100
AcDbEntity
  8
0
  6
HIDDEN
 62
     7
370
    15
100
AcDbPolyline
 90
        9
 70
   128
 43
0.0
 10
316.5203256924
 20
223.5395404297
 10
316.3708819468
 20
223.4141397077
 10
316.2271751482
 20
223.293555786
 10
316.0947373528
 20
223.1824266511
 10
315.9786535818
 20
223.0850214857
 10
315.883386733
 20
223.0050842065
 10
315.8125950415
 20
222.9456844527
 10
315.7690054197
 20
222.9091058272
 10
315.7542867977
 20
222.8967527646
  0
LINE
  5
18D
330
1F
100
AcDbEntity
  8
0
  6
HIDDEN
 62
     7
370
    15
100
AcDbLine
 10
316.9240652043
 20
219.682814439
 30
0.0
 11
317.9240597803
 21
219.682814439
 31
0.0
  0
LINE
  5
18E
330
1F
100
AcDbEntity
  8
0
  6
HIDDEN
 62
     7
370
    15
100
AcDbLine
 10
316.5203256924
 20
223.5395404297
 30
0.0
 11
229.4051310439
 21
327.3593949872
 31
0.0
  0
LWPOLYLINE
  5
18F
330
1F
100
AcDbEntity
  8
0
  6
HIDDEN
 62
     7
370
    15
100
AcDbPolyline
 90
        9
 70
   128
 43
0.0
 10
229.4051310439
 20
327.3593949872
 10
229.255683573
 20
327.2339942652
 10
229.1119786371
 20
327.1134066183
 10
228.979538979
 20
327.0022812087
 10
228.863455208
 20
326.9048723179
 10
228.7681883592
 20
326.8249350387
 10
228.6973985303
 20
326.7655315596
 10
228.6538051833
 20
326.7289566595
 10
228.6390865613
 20
326.7166035968
  0
LINE
  5
190
330
1F
100
AcDbEntity
  8
0
  6
HIDDEN
 62
     7
370
    15
100
AcDbLine
 10
316.9240652043
 20
186.5026670295
 30
0.0
 11
317.9240597803
 21
186.5026670295
 31
0.0
  0
LINE
  5
191
330
1F
100
AcDbEntity
  8
0
  6
HIDDEN
 62
     7
370
    15
100
AcDbLine
 10
317.9240597803
 20
186.5026670295
 30
0.0
 11
317.9240597803
 21
219.682814439
 31
0.0
  0
ARC
  5
192
330
1F
100
AcDbEntity
  8
0
  6
HIDDEN
 62
     7
370
    15
100
AcDbCircle
 10
224.8088639147
 20
323.5026670881
 30
0.0
 40
6.000000000000057
100
AcDbArc
 50
40.0
 51
90.0
  0
LINE
  5
193
330
1F
100
AcDbEntity
  8
0
  6
HIDDEN
 62
     7
370
    15
100
AcDbLine
 10
224.8088641483
 20
329.5026662547
 30
0.0
 11
224.8088641483
 21
328.5026642281
 31
0.0
  0
ARC
  5
194
330
1F
100
AcDbEntity
  8
0
  6
HIDDEN
 62
     7
370
    15
100
AcDbCircle
 10
311.9240627414
 20
186.5026670881
 30
0.0
 40
6.000000000000057
100
AcDbArc
 50
270.0
 51
0.0
  0
LINE
  5
195
330
1F
100
AcDbEntity
  8
0
  6
HIDDEN
 62
     7
370
    15
100
AcDbLine
 10
224.8088641483
 20
329.5026662547
 30
0.0
 11
209.9240644295
 21
329.5026662547
 31
0.0
  0
LINE
  5
196
330
1F
100
AcDbEntity
  8
0
  6
HIDDEN
 62
     7
370
    15
100
AcDbLine
 10
209.9240644295
 20
329.5026662547
 30
0.0
 11
209.9240644295
 21
328.5026642281
 31
0.0
  0
LINE
  5
197
330
1F
100
AcDbEntity
  8
0
  6
HIDDEN
 62
     7
370
    15
100
AcDbLine
 10
203.924063446
 20
323.5026689965
 30
0.0
 11
203.924063446
 21
218.5026685494
 31
0.0
  0
LINE
  5
198
330
1F
100
AcDbEntity
  8
0
  6
HIDDEN
 62
     7
370
    15
100
AcDbLine
 10
203.924063446
 20
323.5026689965
 30
0.0
 11
204.9240617473
 21
323.5026689965
 31
0.0
  0
ARC
  5
199
330
1F
100
AcDbEntity
  8
0
  6
HIDDEN
 62
     7
370
    15
100
AcDbCircle
 10
209.9240627414
 20
323.5026670881
 30
0.0
 40
6.000000000000057
100
AcDbArc
 50
90.0
 51
180.0
  0
ARC
  5
19A
330
1F
100
AcDbEntity
  8
0
  6
HIDDEN
 62
     7
370
    15
100
AcDbCircle
 10
241.9240627414
 20
186.5026670881
 30
0.0
 40
6.000000000000028
100
AcDbArc
 50
180.0
 51
270.0
  0
LINE
  5
19B
330
1F
100
AcDbEntity
  8
0
  6
HIDDEN
 62
     7
370
    15
100
AcDbLine
 10
204.9240617473
 20
319.3026686806
 30
0.0
 11
186.9240625221
 21
319.3026686806
 31
0.0
  0
LINE
  5
19C
330
1F
100
AcDbEntity
  8
0
  6
HIDDEN
 62
     7
370
    15
100
AcDbLine
 10
186.9240625221
 20
302.9026667375
 30
0.0
 11
204.9240617473
 21
302.9026667375
 31
0.0
  0
LINE
  5
19D
330
1F
100
AcDbEntity
  8
0
  6
HIDDEN
 62
     7
370
    15
100
AcDbLine
 10
186.9240625221
 20
277.5026670444
 30
0.0
 11
204.9240617473
 21
277.5026670444
 31
0.0
  0
LINE
  5
19E
330
1F
100
AcDbEntity
  8
0
  6
HIDDEN
 62
     7
370
    15
100
AcDbLine
 10
204.9240617473
 20
293.9026671249
 30
0.0
 11
186.9240625221
 21
293.9026671249
 31
0.0
  0
LINE
  5
19F
330
1F
100
AcDbEntity
  8
0
  6
HIDDEN
 62
     7
370
    15
100
AcDbLine
 10
186.9240625221
 20
252.1026673514
 30
0.0
 11
204.9240617473
 21
252.1026673514
 31
0.0
  0
LINE
  5
1A0
330
1F
100
AcDbEntity
  8
0
  6
HIDDEN
 62
     7
370
    15
100
AcDbLine
 10
204.9240617473
 20
268.5026669662
 30
0.0
 11
186.9240625221
 21
268.5026669662
 31
0.0
  0
LINE
  5
1A1
330
1F
100
AcDbEntity
  8
0
  6
HIDDEN
 62
     7
370
    15
100
AcDbLine
 10
186.9240625221
 20
226.7026657957
 30
0.0
 11
204.9240617473
 21
226.7026657957
 31
0.0
  0
LINE
  5
1A2
330
1F
100
AcDbEntity
  8
0
  6
HIDDEN
 62
     7
370
    15
100
AcDbLine
 10
204.9240617473
 20
243.1026677388
 30
0.0
 11
186.9240625221
 21
243.1026677388
 31
0.0
  0
LINE
  5
1A3
330
1F
100
AcDbEntity
  8
0
  6
HIDDEN
 62
     7
370
    15
100
AcDbLine
 10
261.056406742
 20
316.8665560681
 30
0.0
 11
246.8833446894
 21
304.9739430446
 31
0.0
  0
LINE
  5
1A4
330
1F
100
AcDbEntity
  8
0
  6
HIDDEN
 62
     7
370
    15
100
AcDbLine
 10
250.9650460836
 20
300.109563281
 30
0.0
 11
265.1381081361
 21
312.0021725792
 31
0.0
  0
LINE
  5
1A5
330
1F
100
AcDbEntity
  8
0
  6
HIDDEN
 62
     7
370
    15
100
AcDbLine
 10
298.0490623433
 20
181.5026643473
 30
0.0
 11
298.0490623433
 21
163.5026651222
 31
0.0
  0
LINE
  5
1A6
330
1F
100
AcDbEntity
  8
0
  6
HIDDEN
 62
     7
370
    15
100
AcDbLine
 10
304.3990618009
 20
163.5026651222
 30
0.0
 11
304.3990618009
 21
181.5026643473
 31
0.0
  0
LINE
  5
1A7
330
1F
100
AcDbEntity
  8
0
  6
HIDDEN
 62
     7
370
    15
100
AcDbLine
 10
247.2490629572
 20
181.5026643473
 30
0.0
 11
247.2490629572
 21
163.5026651222
 31
0.0
  0
LINE
  5
1A8
330
1F
100
AcDbEntity
  8
0
  6
HIDDEN
 62
     7
370
    15
100
AcDbLine
 10
253.5990627423
 20
163.5026651222
 30
0.0
 11
253.5990627423
 21
181.5026643473
 31
0.0
  0
LINE
  5
1A9
330
1F
100
AcDbEntity
  8
0
  6
HIDDEN
 62
     7
370
    15
100
AcDbLine
 10
272.6490626503
 20
181.5026643473
 30
0.0
 11
272.6490626503
 21
163.5026651222
 31
0.0
  0
LINE
  5
1AA
330
1F
100
AcDbEntity
  8
0
  6
HIDDEN
 62
     7
370
    15
100
AcDbLine
 10
278.9990621079
 20
163.5026651222
 30
0.0
 11
278.9990621079
 21
181.5026643473
 31
0.0
  0
LINE
  5
1AB
330
1F
100
AcDbEntity
  8
0
  6
HIDDEN
 62
     7
370
    15
100
AcDbLine
 10
293.710015567
 20
277.9514974702
 30
0.0
 11
279.5369549114
 21
266.0588867749
 31
0.0
  0
LINE
  5
1AC
330
1F
100
AcDbEntity
  8
0
  6
HIDDEN
 62
     7
370
    15
100
AcDbLine
 10
283.6186567713
 20
261.1945044357
 30
0.0
 11
297.7917192895
 21
273.0871158439
 31
0.0
  0
LINE
  5
1AD
330
1F
100
AcDbEntity
  8
0
  6
HIDDEN
 62
     7
370
    15
100
AcDbLine
 10
186.9240625221
 20
270.4499670091
 30
0.0
 11
201.9240631182
 21
270.4499670091
 31
0.0
  0
LINE
  5
1AE
330
1F
100
AcDbEntity
  8
0
  6
HIDDEN
 62
     7
370
    15
100
AcDbLine
 10
201.9240631182
 20
275.5553674671
 30
0.0
 11
186.9240625221
 21
275.5553674671
 31
0.0
  0
LINE
  5
1AF
330
1F
100
AcDbEntity
  8
0
  6
HIDDEN
 62
     7
370
    15
100
AcDbLine
 10
245.129608402
 20
335.8473720747
 30
0.0
 11
233.6389420945
 21
326.2055608231
 31
0.0
  0
LINE
  5
1B0
330
1F
100
AcDbEntity
  8
0
  6
HIDDEN
 62
     7
370
    15
100
AcDbLine
 10
236.9206285495
 20
322.2945983309
 30
0.0
 11
248.411296254
 21
331.9364133078
 31
0.0
  0
LINE
  5
1B1
330
1F
100
AcDbEntity
  8
0
  6
HIDDEN
 62
     7
370
    15
100
AcDbLine
 10
186.9240625221
 20
333.949969967
 30
0.0
 11
201.9240631182
 21
333.949969967
 31
0.0
  0
LINE
  5
1B2
330
1F
100
AcDbEntity
  8
0
  6
HIDDEN
 62
     7
370
    15
100
AcDbLine
 10
201.9240631182
 20
339.0553685624
 30
0.0
 11
186.9240625221
 21
339.0553685624
 31
0.0
  0
LINE
  5
1B3
330
1F
100
AcDbEntity
  8
0
  6
HIDDEN
 62
     7
370
    15
100
AcDbLine
 10
321.924060436
 20
191.4553659755
 30
0.0
 11
320.3902466614
 21
188.9026704031
 31
0.0
  0
LINE
  5
1B4
330
1F
100
AcDbEntity
  8
0
  6
HIDDEN
 62
     7
370
    15
100
AcDbLine
 10
320.3902466614
 20
188.9026704031
 30
0.0
 11
321.924060436
 21
186.3499673802
 31
0.0
  0
LINE
  5
1B5
330
1F
100
AcDbEntity
  8
0
  6
HIDDEN
 62
     7
370
    15
100
AcDbLine
 10
277.7832186241
 20
296.9323153395
 30
0.0
 11
266.2925523166
 21
287.2905022252
 31
0.0
  0
LINE
  5
1B6
330
1F
100
AcDbEntity
  8
0
  6
HIDDEN
 62
     7
370
    15
100
AcDbLine
 10
269.5742397029
 20
283.379539733
 30
0.0
 11
281.0649069417
 21
293.0213528472
 31
0.0
  0
LINE
  5
1B7
330
1F
100
AcDbEntity
  8
0
  6
HIDDEN
 62
     7
370
    15
100
AcDbLine
 10
233.6389420945
 20
326.2055608231
 30
0.0
 11
234.1048138607
 21
323.2641610104
 31
0.0
  0
LINE
  5
1B8
330
1F
100
AcDbEntity
  8
0
  6
HIDDEN
 62
     7
370
    15
100
AcDbLine
 10
234.1048138607
 20
323.2641610104
 30
0.0
 11
236.9206285495
 21
322.2945983309
 31
0.0
  0
LINE
  5
1B9
330
1F
100
AcDbEntity
  8
0
  6
HIDDEN
 62
     7
370
    15
100
AcDbLine
 10
186.9240625221
 20
245.0499663848
 30
0.0
 11
201.9240631182
 21
245.0499663848
 31
0.0
  0
LINE
  5
1BA
330
1F
100
AcDbEntity
  8
0
  6
HIDDEN
 62
     7
370
    15
100
AcDbLine
 10
201.9240631182
 20
250.1553668428
 30
0.0
 11
186.9240625221
 21
250.1553668428
 31
0.0
  0
LINE
  5
1BB
330
1F
100
AcDbEntity
  8
0
  6
HIDDEN
 62
     7
370
    15
100
AcDbLine
 10
201.9240631182
 20
270.4499670091
 30
0.0
 11
203.4578806181
 21
273.0026672381
 31
0.0
  0
LINE
  5
1BC
330
1F
100
AcDbEntity
  8
0
  6
HIDDEN
 62
     7
370
    15
100
AcDbLine
 10
203.4578806181
 20
273.0026672381
 30
0.0
 11
201.9240631182
 21
275.5553674671
 31
0.0
  0
LINE
  5
1BD
330
1F
100
AcDbEntity
  8
0
  6
HIDDEN
 62
     7
370
    15
100
AcDbLine
 10
336.924061032
 20
191.4553659755
 30
0.0
 11
321.924060436
 21
191.4553659755
 31
0.0
  0
LINE
  5
1BE
330
1F
100
AcDbEntity
  8
0
  6
HIDDEN
 62
     7
370
    15
100
AcDbLine
 10
321.924060436
 20
186.3499673802
 30
0.0
 11
336.924061032
 21
186.3499673802
 31
0.0
  0
LINE
  5
1BF
330
1F
100
AcDbEntity
  8
0
  6
HIDDEN
 62
     7
370
    15
100
AcDbLine
 10
201.9240631182
 20
333.949969967
 30
0.0
 11
203.4578806181
 21
336.5026655394
 31
0.0
  0
LINE
  5
1C0
330
1F
100
AcDbEntity
  8
0
  6
HIDDEN
 62
     7
370
    15
100
AcDbLine
 10
203.4578806181
 20
336.5026655394
 30
0.0
 11
201.9240631182
 21
339.0553685624
 31
0.0
  0
LINE
  5
1C1
330
1F
100
AcDbEntity
  8
0
  6
HIDDEN
 62
     7
370
    15
100
AcDbLine
 10
266.2925523166
 20
287.2905022252
 30
0.0
 11
266.7584240828
 21
284.3491024125
 31
0.0
  0
LINE
  5
1C2
330
1F
100
AcDbEntity
  8
0
  6
HIDDEN
 62
     7
370
    15
100
AcDbLine
 10
266.7584240828
 20
284.3491024125
 30
0.0
 11
269.5742397029
 21
283.379539733
 31
0.0
  0
LINE
  5
1C3
330
1F
100
AcDbEntity
  8
0
  6
HIDDEN
 62
     7
370
    15
100
AcDbLine
 10
329.1767610628
 20
163.5026651222
 30
0.0
 11
329.1767610628
 21
178.5026657182
 31
0.0
  0
LINE
  5
1C4
330
1F
100
AcDbEntity
  8
0
  6
HIDDEN
 62
     7
370
    15
100
AcDbLine
 10
324.0713624675
 20
178.5026657182
 30
0.0
 11
324.0713624675
 21
163.5026651222
 31
0.0
  0
LINE
  5
1C5
330
1F
100
AcDbEntity
  8
0
  6
HIDDEN
 62
     7
370
    15
100
AcDbLine
 10
201.9240631182
 20
245.0499663848
 30
0.0
 11
203.4578806181
 21
247.6026675451
 31
0.0
  0
LINE
  5
1C6
330
1F
100
AcDbEntity
  8
0
  6
HIDDEN
 62
     7
370
    15
100
AcDbLine
 10
203.4578806181
 20
247.6026675451
 30
0.0
 11
201.9240631182
 21
250.1553668428
 31
0.0
  0
LINE
  5
1C7
330
1F
100
AcDbEntity
  8
0
  6
HIDDEN
 62
     7
370
    15
100
AcDbLine
 10
186.9240625221
 20
295.8499657709
 30
0.0
 11
201.9240631182
 21
295.8499657709
 31
0.0
  0
LINE
  5
1C8
330
1F
100
AcDbEntity
  8
0
  6
HIDDEN
 62
     7
370
    15
100
AcDbLine
 10
201.9240631182
 20
300.9553680915
 30
0.0
 11
186.9240625221
 21
300.9553680915
 31
0.0
  0
LINE
  5
1C9
330
1F
100
AcDbEntity
  8
0
  6
HIDDEN
 62
     7
370
    15
100
AcDbLine
 10
321.924060436
 20
216.8553675312
 30
0.0
 11
320.3902466614
 21
214.3026682335
 31
0.0
  0
LINE
  5
1CA
330
1F
100
AcDbEntity
  8
0
  6
HIDDEN
 62
     7
370
    15
100
AcDbLine
 10
320.3902466614
 20
214.3026682335
 30
0.0
 11
321.924060436
 21
211.7499689359
 31
0.0
  0
LINE
  5
1CB
330
1F
100
AcDbEntity
  8
0
  6
HIDDEN
 62
     7
370
    15
100
AcDbLine
 10
336.924061032
 20
216.8553675312
 30
0.0
 11
321.924060436
 21
216.8553675312
 31
0.0
  0
LINE
  5
1CC
330
1F
100
AcDbEntity
  8
0
  6
HIDDEN
 62
     7
370
    15
100
AcDbLine
 10
321.924060436
 20
211.7499689359
 30
0.0
 11
336.924061032
 21
211.7499689359
 31
0.0
  0
LINE
  5
1CD
330
1F
100
AcDbEntity
  8
0
  6
HIDDEN
 62
     7
370
    15
100
AcDbLine
 10
329.1767610628
 20
178.5026657182
 30
0.0
 11
326.6240654904
 21
180.0364869434
 31
0.0
  0
LINE
  5
1CE
330
1F
100
AcDbEntity
  8
0
  6
HIDDEN
 62
     7
370
    15
100
AcDbLine
 10
326.6240654904
 20
180.0364869434
 30
0.0
 11
324.0713624675
 21
178.5026657182
 31
0.0
  0
LINE
  5
1CF
330
1F
100
AcDbEntity
  8
0
  6
HIDDEN
 62
     7
370
    15
100
AcDbLine
 10
201.9240631182
 20
295.8499657709
 30
0.0
 11
203.4578806181
 21
298.4026687938
 31
0.0
  0
LINE
  5
1D0
330
1F
100
AcDbEntity
  8
0
  6
HIDDEN
 62
     7
370
    15
100
AcDbLine
 10
203.4578806181
 20
298.4026687938
 30
0.0
 11
201.9240631182
 21
300.9553680915
 31
0.0
  0
LINE
  5
1D1
330
1F
100
AcDbEntity
  8
0
  6
HIDDEN
 62
     7
370
    15
100
AcDbLine
 10
291.0767643172
 20
178.5026657182
 30
0.0
 11
288.5240612943
 21
180.0364869434
 31
0.0
  0
LINE
  5
1D2
330
1F
100
AcDbEntity
  8
0
  6
HIDDEN
 62
     7
370
    15
100
AcDbLine
 10
288.5240612943
 20
180.0364869434
 30
0.0
 11
285.9713619966
 21
178.5026657182
 31
0.0
  0
LINE
  5
1D3
330
1F
100
AcDbEntity
  8
0
  6
HIDDEN
 62
     7
370
    15
100
AcDbLine
 10
197.0713621397
 20
348.5026675064
 30
0.0
 11
199.6240614373
 21
346.9688537318
 31
0.0
  0
LINE
  5
1D4
330
1F
100
AcDbEntity
  8
0
  6
HIDDEN
 62
     7
370
    15
100
AcDbLine
 10
199.6240614373
 20
346.9688537318
 30
0.0
 11
202.1767644603
 21
348.5026675064
 31
0.0
  0
LINE
  5
1D5
330
1F
100
AcDbEntity
  8
0
  6
HIDDEN
 62
     7
370
    15
100
AcDbLine
 10
265.6767627616
 20
178.5026657182
 30
0.0
 11
263.1240625326
 21
180.0364869434
 31
0.0
  0
LINE
  5
1D6
330
1F
100
AcDbEntity
  8
0
  6
HIDDEN
 62
     7
370
    15
100
AcDbLine
 10
263.1240625326
 20
180.0364869434
 30
0.0
 11
260.5713627692
 21
178.5026657182
 31
0.0
  0
LINE
  5
1D7
330
1F
100
AcDbEntity
  8
0
  6
HIDDEN
 62
     7
370
    15
100
AcDbLine
 10
291.0767643172
 20
163.5026651222
 30
0.0
 11
291.0767643172
 21
178.5026657182
 31
0.0
  0
LINE
  5
1D8
330
1F
100
AcDbEntity
  8
0
  6
HIDDEN
 62
     7
370
    15
100
AcDbLine
 10
285.9713619966
 20
178.5026657182
 30
0.0
 11
285.9713619966
 21
163.5026651222
 31
0.0
  0
LINE
  5
1D9
330
1F
100
AcDbEntity
  8
0
  6
HIDDEN
 62
     7
370
    15
100
AcDbLine
 10
298.9461644013
 20
248.3754454899
 30
0.0
 11
299.4120343048
 21
245.4340447459
 31
0.0
  0
LINE
  5
1DA
330
1F
100
AcDbEntity
  8
0
  6
HIDDEN
 62
     7
370
    15
100
AcDbLine
 10
299.4120343048
 20
245.4340447459
 30
0.0
 11
302.2278508563
 21
244.464481135
 31
0.0
  0
LINE
  5
1DB
330
1F
100
AcDbEntity
  8
0
  6
HIDDEN
 62
     7
370
    15
100
AcDbLine
 10
265.6767627616
 20
163.5026651222
 30
0.0
 11
265.6767627616
 21
178.5026657182
 31
0.0
  0
LINE
  5
1DC
330
1F
100
AcDbEntity
  8
0
  6
HIDDEN
 62
     7
370
    15
100
AcDbLine
 10
260.5713627692
 20
178.5026657182
 30
0.0
 11
260.5713627692
 21
163.5026651222
 31
0.0
  0
LINE
  5
1DD
330
1F
100
AcDbEntity
  8
0
  6
HIDDEN
 62
     7
370
    15
100
AcDbLine
 10
310.4368297774
 20
258.0172595355
 30
0.0
 11
298.9461644013
 21
248.3754454899
 31
0.0
  0
LINE
  5
1DE
330
1F
100
AcDbEntity
  8
0
  6
HIDDEN
 62
     7
370
    15
100
AcDbLine
 10
302.2278508563
 20
244.464481135
 30
0.0
 11
313.7185162325
 21
254.106296112
 31
0.0
  0
LINE
  5
1DF
330
1F
100
AcDbEntity
  8
0
  6
HIDDEN
 62
     7
370
    15
100
AcDbLine
 10
197.0713621397
 20
363.5026681024
 30
0.0
 11
197.0713621397
 21
348.5026675064
 31
0.0
  0
LINE
  5
1E0
330
1F
100
AcDbEntity
  8
0
  6
HIDDEN
 62
     7
370
    15
100
AcDbLine
 10
202.1767644603
 20
348.5026675064
 30
0.0
 11
202.1767644603
 21
363.5026681024
 31
0.0
  0
LINE
  5
1E1
330
1F
100
AcDbEntity
  8
DIM
100
AcDbLine
 10
222.7799590566
 20
362.4826495796
 30
0.0
 11
221.2812751317
 21
364.2687115312
 31
0.0
  0
LINE
  5
1E2
330
1F
100
AcDbEntity
  8
DIM
100
AcDbLine
 10
220.5925244507
 20
363.5026670881
 30
0.0
 11
222.9240627414
 21
363.5026670881
 31
0.0
  0
LINE
  5
1E3
330
1F
100
AcDbEntity
  8
DIM
100
AcDbLine
 10
336.9240627414
 20
225.6311527684
 30
0.0
 11
336.9240627414
 21
227.4510039397
 31
0.0
  0
LINE
  5
1E4
330
1F
100
AcDbEntity
  8
DIM
100
AcDbLine
 10
336.3970725667
 20
227.0790463737
 30
0.0
 11
337.5668503511
 21
225.6849594966
 31
0.0
  0
DIMENSION
  5
1E5
330
1F
100
AcDbEntity
  8
DIM
100
AcDbDimension
  2
_D
 10
186.9240627414
 20
381.0026670881
 30
0.0
 11
204.4240627414
 21
381.0026670881
 31
0.0
 70
   160
  1
<>
 71
     2
 42
-1.0
  3
SLDDIMSTYLE0
100
AcDbAlignedDimension
 13
221.9240627414
 23
363.5026670881
 33
0.0
 14
186.9240627414
 24
363.5026670881
 34
0.0
100
AcDbRotatedDimension
  0
DIMENSION
  5
1F0
330
1F
100
AcDbEntity
  8
DIM
100
AcDbDimension
  2
_D_1
 10
169.4240627414
 20
163.5026670881
 30
0.0
 11
169.4240627414
 21
263.5026670881
 31
0.0
 70
   160
  1
<>
 71
     2
 42
-1.0
  3
SLDDIMSTYLE0
100
AcDbAlignedDimension
 13
186.9240627414
 23
363.5026670881
 33
0.0
 14
191.9240627414
 24
163.5026670881
 34
0.0
 50
90.0
100
AcDbRotatedDimension
  0
DIMENSION
  5
1FA
330
1F
100
AcDbEntity
  8
DIM
100
AcDbDimension
  2
_D_2
 10
336.9240627414
 20
146.0026670881
 30
0.0
 11
261.9240627414
 21
146.0026670881
 31
0.0
 70
   160
  1
<>
 71
     2
 42
-1.0
  3
SLDDIMSTYLE0
100
AcDbAlignedDimension
 13
186.9240627414
 23
168.5026670881
 33
0.0
 14
336.9240627414
 24
163.5026670881
 34
0.0
100
AcDbRotatedDimension
  0
DIMENSION
  5
204
330
1F
100
AcDbEntity
  8
DIM
100
AcDbDimension
  2
_D_3
 10
223.4227466662
 20
361.7166051365
 30
0.0
 11
348.6261643471
 21
182.6762235996
 31
0.0
 70
   162
  1
<>
 71
     1
 42
-1.0
  3
SLDDIMSTYLE1
100
AcDb2LineAngularDimension
 13
191.9240627414
 23
163.5026670881
 33
0.0
 14
336.9240627414
 24
163.5026670881
 34
0.0
 15
335.754284957
 25
227.8450908168
 35
0.0
 16
348.6261643471
 26
182.6762235996
 36
0.0
  0
DIMENSION
  5
20F
330
1F
100
AcDbEntity
  8
DIM
100
AcDbDimension
  2
_D_4
 10
285.5144897618
 20
333.2446557295
 30
0.0
 11
293.6778924048
 21
323.5158913018
 31
0.0
 70
   160
  1
<>
 71
     2
 42
-1.0
  3
SLDDIMSTYLE2
100
AcDbAlignedDimension
 13
283.254284957
 23
298.1907735623
 33
0.0
 14
266.927479671
 24
317.6483024176
 34
0.0
 50
-50.0
100
AcDbRotatedDimension
  0
DIMENSION
  5
21C
330
1F
100
AcDbEntity
  8
DIM
100
AcDbDimension
  2
_D_5
 10
318.1681003339
 20
294.329598019
 30
0.0
 11
310.0046976909
 21
304.0583624466
 31
0.0
 70
   160
  1
<>
 71
     2
 42
-1.0
  3
SLDDIMSTYLE2
100
AcDbAlignedDimension
 13
283.254284957
 23
298.1907735623
 33
0.0
 14
299.5810902431
 24
278.7332447071
 34
0.0
 50
-50.0
100
AcDbRotatedDimension
  0
DIMENSION
  5
228
330
1F
100
AcDbEntity
  8
DIM
100
AcDbDimension
  2
_D_6
 10
316.9284884597
 20
326.4467853016
 30
0.0
 11
300.6016831736
 21
345.9043141568
 31
0.0
 70
   160
  1
<>
 71
     2
 42
-1.0
  3
SLDDIMSTYLE0
100
AcDbAlignedDimension
 13
250.6006743849
 23
337.1058312728
 33
0.0
 14
283.254284957
 24
298.1907735623
 34
0.0
 50
-50.0
100
AcDbRotatedDimension
  0
DIMENSION
  5
232
330
1F
100
AcDbEntity
  8
DIM
100
AcDbDimension
  2
_D_7
 10
349.603683934
 20
287.5498394747
 30
0.0
 11
333.2768786479
 21
307.0073683299
 31
0.0
 70
   160
  1
<>
 71
     2
 42
-1.0
  3
SLDDIMSTYLE0
100
AcDbAlignedDimension
 13
283.254284957
 23
298.1907735623
 33
0.0
 14
315.9078955291
 24
259.2757158519
 34
0.0
 50
-50.0
100
AcDbRotatedDimension
  0
INSERT
  5
242
330
1F
100
AcDbEntity
  8
DIM
100
AcDbBlockReference
  2
SW_NOTE_2
 10
288.1141201638
 20
206.2926305942
 30
0.0
  0
LEADER
  5
244
330
1F
100
AcDbEntity
  8
DIM
100
AcDbLeader
  3
SLDDIMSTYLE3
 76
     2
 10
312.2576659903
 20
256.2128095922
 30
0.0
 10
288.1141201638
 20
206.2926305942
 30
0.0
  0
INSERT
  5
24B
330
1F
100
AcDbEntity
  8
DIM
100
AcDbBlockReference
  2
SW_NOTE_3
 10
258.8172466717
 20
254.558526548
 30
0.0
  0
LEADER
  5
24C
330
1F
100
AcDbEntity
  8
DIM
100
AcDbLeader
  3
SLDDIMSTYLE3
 76
     2
 10
295.6874680055
 20
275.4661077236
 30
0.0
 10
258.8172466717
 20
254.558526548
 30
0.0
  0
LINE
  5
24D
330
1F
100
AcDbEntity
  8
DIM
  6
CENTERX2
370
     0
100
AcDbLine
 10
231.449563307
 20
321.0361410306
 30
0.0
 11
250.6006743849
 21
337.1058312728
 31
0.0
  0
LINE
  5
24E
330
1F
100
AcDbEntity
  8
DIM
  6
CENTERX2
370
     0
100
AcDbLine
 10
245.0939732151
 20
299.3278152031
 30
0.0
 11
266.927479671
 21
317.6483024176
 31
0.0
  0
LINE
  5
24F
330
1F
100
AcDbEntity
  8
DIM
  6
CENTERX2
370
     0
100
AcDbLine
 10
264.103173879
 20
282.1210833202
 30
0.0
 11
283.254284957
 21
298.1907735623
 31
0.0
  0
LINE
  5
250
330
1F
100
AcDbEntity
  8
DIM
  6
CENTERX2
370
     0
100
AcDbLine
 10
277.7475837872
 20
260.4127574927
 30
0.0
 11
299.5810902431
 21
278.7332447071
 31
0.0
  0
LINE
  5
251
330
1F
100
AcDbEntity
  8
DIM
  6
CENTERX2
370
     0
100
AcDbLine
 10
296.7567844511
 20
243.2060256097
 30
0.0
 11
315.9078955291
 21
259.2757158519
 31
0.0
  0
LINE
  5
252
330
1F
100
AcDbEntity
  8
0
  6
Continuous
 62
     7
370
    30
100
AcDbLine
 10
432.1669218066
 20
163.5026651222
 30
0.0
 11
432.1669218066
 21
224.63115107
 31
0.0
  0
LINE
  5
253
330
1F
100
AcDbEntity
  8
0
  6
Continuous
 62
     7
370
    30
100
AcDbLine
 10
432.1669218066
 20
224.63115107
 30
0.0
 11
433.1669238331
 21
224.63115107
 31
0.0
  0
LINE
  5
254
330
1F
100
AcDbEntity
  8
0
  6
Continuous
 62
     7
370
    30
100
AcDbLine
 10
433.1669238331
 20
224.63115107
 30
0.0
 11
433.1669238331
 21
164.5026671487
 31
0.0
  0
ARC
  5
255
330
1F
100
AcDbEntity
  8
0
  6
Continuous
 62
     7
370
    30
100
AcDbCircle
 10
432.1669175151
 20
164.5026670881
 30
0.0
 40
1.000000000000028
100
AcDbArc
 50
270.0
 51
0.0
  0
LINE
  5
256
330
1F
100
AcDbEntity
  8
0
  6
Continuous
 62
     7
370
    30
100
AcDbLine
 10
432.1669218066
 20
224.63115107
 30
0.0
 11
432.1669218066
 21
227.8450893957
 31
0.0
  0
LWPOLYLINE
  5
257
330
1F
100
AcDbEntity
  8
0
  6
Continuous
 62
     7
370
    30
100
AcDbPolyline
 90
        9
 70
   128
 43
0.0
 10
432.1669218066
 20
227.8450893957
 10
432.3620078089
 20
227.8327400583
 10
432.5495985272
 20
227.7961614329
 10
432.7224817994
 20
227.7367616791
 10
432.8740266087
 20
227.6568243999
 10
432.9983917
 20
227.5594155091
 10
433.0907938006
 20
227.4482863742
 10
433.1477013352
 20
227.3277061779
 10
433.1669238331
 20
227.2023017305
  0
LINE
  5
258
330
1F
100
AcDbEntity
  8
0
  6
Continuous
 62
     7
370
    30
100
AcDbLine
 10
433.1669238331
 20
227.2023017305
 30
0.0
 11
433.1669238331
 21
224.63115107
 31
0.0
  0
LINE
  5
259
330
1F
100
AcDbEntity
  8
0
  6
Continuous
 62
     7
370
    30
100
AcDbLine
 10
416.166919184
 20
224.63115107
 30
0.0
 11
416.166919184
 21
163.5026651222
 31
0.0
  0
LINE
  5
25A
330
1F
100
AcDbEntity
  8
0
  6
Continuous
 62
     7
370
    30
100
AcDbLine
 10
432.1669218066
 20
224.63115107
 30
0.0
 11
416.166919184
 21
224.63115107
 31
0.0
  0
CIRCLE
  5
25B
330
1F
100
AcDbEntity
  8
0
  6
Continuous
 62
     7
370
    30
100
AcDbCircle
 10
424.1669175151
 20
214.3026670881
 30
0.0
 40
2.552700000000016
  0
CIRCLE
  5
25C
330
1F
100
AcDbEntity
  8
0
  6
Continuous
 62
     7
370
    30
100
AcDbCircle
 10
424.1669175151
 20
188.9026670881
 30
0.0
 40
2.552700000000016
  0
LINE
  5
25D
330
1F
100
AcDbEntity
  8
0
  6
Continuous
 62
     7
370
    30
100
AcDbLine
 10
432.1669218066
 20
163.5026651222
 30
0.0
 11
416.166919184
 21
163.5026651222
 31
0.0
  0
LINE
  5
25E
330
1F
100
AcDbEntity
  8
0
  6
Continuous
 62
     7
370
    30
100
AcDbLine
 10
416.166919184
 20
227.8450893957
 30
0.0
 11
416.166919184
 21
224.63115107
 31
0.0
  0
LINE
  5
25F
330
1F
100
AcDbEntity
  8
0
  6
Continuous
 62
     7
370
    30
100
AcDbLine
 10
416.166919184
 20
227.8450893957
 30
0.0
 11
432.1669218066
 21
227.8450893957
 31
0.0
  0
ARC
  5
260
330
1F
100
AcDbEntity
  8
0
  6
Continuous
 62
     7
370
    30
100
AcDbCircle
 10
416.1669175151
 20
164.5026670881
 30
0.0
 40
1.000000000000028
100
AcDbArc
 50
180.0
 51
270.0
  0
LINE
  5
261
330
1F
100
AcDbEntity
  8
0
  6
Continuous
 62
     7
370
    30
100
AcDbLine
 10
415.1669171574
 20
164.5026671487
 30
0.0
 11
415.1669171574
 21
224.63115107
 31
0.0
  0
LINE
  5
262
330
1F
100
AcDbEntity
  8
0
  6
Continuous
 62
     7
370
    30
100
AcDbLine
 10
416.166919184
 20
224.63115107
 30
0.0
 11
415.1669171574
 21
224.63115107
 31
0.0
  0
LINE
  5
263
330
1F
100
AcDbEntity
  8
0
  6
Continuous
 62
     7
370
    30
100
AcDbLine
 10
415.1669171574
 20
224.63115107
 30
0.0
 11
415.1669171574
 21
227.2023017305
 31
0.0
  0
LWPOLYLINE
  5
264
330
1F
100
AcDbEntity
  8
0
  6
Continuous
 62
     7
370
    30
100
AcDbPolyline
 90
        9
 70
   128
 43
0.0
 10
416.166919184
 20
227.8450893957
 10
415.9718331816
 20
227.8327400583
 10
415.7842275622
 20
227.7961614329
 10
415.61134429
 20
227.7367616791
 10
415.4598143819
 20
227.6568243999
 10
415.3354492905
 20
227.5594155091
 10
415.2430322888
 20
227.4482863742
 10
415.1861396554
 20
227.3277061779
 10
415.1669171574
 20
227.2023017305
  0
LINE
  5
265
330
1F
100
AcDbEntity
  8
0
  6
Continuous
 62
     7
370
    30
100
AcDbLine
 10
432.1669218066
 20
227.8450893957
 30
0.0
 11
432.1669218066
 21
361.7166074711
 31
0.0
  0
LWPOLYLINE
  5
266
330
1F
100
AcDbEntity
  8
0
  6
Continuous
 62
     7
370
    30
100
AcDbPolyline
 90
        9
 70
   128
 43
0.0
 10
432.1669218066
 20
361.7166074711
 10
432.3620078089
 20
361.7042544085
 10
432.5495985272
 20
361.6676795084
 10
432.7224817994
 20
361.6082760293
 10
432.8740266087
 20
361.52833875
 10
432.9983917
 20
361.4309298593
 10
433.0907938006
 20
361.3198044497
 10
433.1477013352
 20
361.1992168027
 10
433.1669238331
 20
361.0738160807
  0
LINE
  5
267
330
1F
100
AcDbEntity
  8
0
  6
Continuous
 62
     7
370
    30
100
AcDbLine
 10
433.1669238331
 20
361.0738160807
 30
0.0
 11
433.1669238331
 21
227.2023017305
 31
0.0
  0
LINE
  5
268
330
1F
100
AcDbEntity
  8
0
  6
Continuous
 62
     7
370
    30
100
AcDbLine
 10
416.166919184
 20
361.7166074711
 30
0.0
 11
416.166919184
 21
227.8450893957
 31
0.0
  0
LINE
  5
269
330
1F
100
AcDbEntity
  8
0
  6
Continuous
 62
     7
370
    30
100
AcDbLine
 10
432.1669218066
 20
361.7166074711
 30
0.0
 11
416.166919184
 21
361.7166074711
 31
0.0
  0
LWPOLYLINE
  5
26A
330
1F
100
AcDbEntity
  8
0
  6
Continuous
 62
     7
370
    30
100
AcDbPolyline
 90
       23
 70
   128
 43
0.0
 10
424.1669204953
 20
254.106296112
 10
424.886095238
 20
254.1855069596
 10
425.5470064404
 20
254.4167217586
 10
426.0961142304
 20
254.7812097493
 10
426.4889386418
 20
255.2494414869
 10
426.6936358931
 20
255.7834837373
 10
426.6936358931
 20
256.3400719102
 10
426.4889386418
 20
256.8741141606
 10
426.0961142304
 20
257.3423458982
 10
425.5470064404
 20
257.7068336561
 10
424.886095238
 20
257.9380486879
 10
424.1669204953
 20
258.0172595355
 10
423.4477457526
 20
257.9380486879
 10
422.786819649
 20
257.7068336561
 10
422.237711859
 20
257.3423458982
 10
421.8449023488
 20
256.8741141606
 10
421.6402050975
 20
256.3400719102
 10
421.6402050975
 20
255.7834837373
 10
421.8449023488
 20
255.2494414869
 10
422.237711859
 20
254.7812097493
 10
422.786819649
 20
254.4167217586
 10
423.4477457526
 20
254.1855069596
 10
424.1669204953
 20
254.106296112
  0
LWPOLYLINE
  5
26B
330
1F
100
AcDbEntity
  8
0
  6
Continuous
 62
     7
370
    30
100
AcDbPolyline
 90
       23
 70
   128
 43
0.0
 10
424.1669204953
 20
293.0213528472
 10
424.886095238
 20
293.1005636949
 10
425.5470064404
 20
293.3317812878
 10
426.0961142304
 20
293.6962674159
 10
426.4889386418
 20
294.1644991535
 10
426.6936358931
 20
294.6985418695
 10
426.6936358931
 20
295.2551300425
 10
426.4889386418
 20
295.7891727585
 10
426.0961142304
 20
296.2574044961
 10
425.5470064404
 20
296.6218906242
 10
424.886095238
 20
296.8531082171
 10
424.1669204953
 20
296.9323153395
 10
423.4477457526
 20
296.8531082171
 10
422.786819649
 20
296.6218906242
 10
422.237711859
 20
296.2574044961
 10
421.8449023488
 20
295.7891727585
 10
421.6402050975
 20
295.2551300425
 10
421.6402050975
 20
294.6985418695
 10
421.8449023488
 20
294.1644991535
 10
422.237711859
 20
293.6962674159
 10
422.786819649
 20
293.3317812878
 10
423.4477457526
 20
293.1005636949
 10
424.1669204953
 20
293.0213528472
  0
LWPOLYLINE
  5
26C
330
1F
100
AcDbEntity
  8
0
  6
Continuous
 62
     7
370
    30
100
AcDbPolyline
 90
       23
 70
   128
 43
0.0
 10
424.1669204953
 20
331.9364133078
 10
424.886095238
 20
332.0156204301
 10
425.5470064404
 20
332.2468342978
 10
426.0961142304
 20
332.6113241512
 10
426.4889386418
 20
333.0795558888
 10
426.6936358931
 20
333.6135986048
 10
426.6936358931
 20
334.1701867777
 10
426.4889386418
 20
334.7042294938
 10
426.0961142304
 20
335.1724612314
 10
425.5470064404
 20
335.5369510848
 10
424.886095238
 20
335.7681649524
 10
424.1669204953
 20
335.8473720747
 10
423.4477457526
 20
335.7681649524
 10
422.786819649
 20
335.5369510848
 10
422.237711859
 20
335.1724612314
 10
421.8449023488
 20
334.7042294938
 10
421.6402050975
 20
334.1701867777
 10
421.6402050975
 20
333.6135986048
 10
421.8449023488
 20
333.0795558888
 10
422.237711859
 20
332.6113241512
 10
422.786819649
 20
332.2468342978
 10
423.4477457526
 20
332.0156204301
 10
424.1669204953
 20
331.9364133078
  0
LWPOLYLINE
  5
26D
330
1F
100
AcDbEntity
  8
0
  6
Continuous
 62
     7
370
    30
100
AcDbPolyline
 90
       25
 70
   128
 43
0.0
 10
424.1669204953
 20
312.0021725792
 10
424.9886748316
 20
312.0850491125
 10
425.7544157031
 20
312.3280237216
 10
426.4119741442
 20
312.7145449418
 10
426.9165423634
 20
313.2182675201
 10
427.2337284806
 20
313.8048666316
 10
427.3419109109
 20
314.4343661863
 10
427.2337284806
 20
315.0638620156
 10
426.9165423634
 20
315.6504611272
 10
426.4119741442
 20
316.1541837055
 10
425.7544157031
 20
316.5407049257
 10
424.9886748316
 20
316.7836795348
 10
424.1669204953
 20
316.8665560681
 10
423.3451661589
 20
316.7836795348
 10
422.5794103863
 20
316.5407049257
 10
421.9218519452
 20
316.1541837055
 10
421.417283726
 20
315.6504611272
 10
421.1000976088
 20
315.0638620156
 10
420.9919151786
 20
314.4343661863
 10
421.1000976088
 20
313.8048666316
 10
421.417283726
 20
313.2182675201
 10
421.9218519452
 20
312.7145449418
 10
422.5794103863
 20
312.3280237216
 10
423.3451661589
 20
312.0850491125
 10
424.1669204953
 20
312.0021725792
  0
LWPOLYLINE
  5
26E
330
1F
100
AcDbEntity
  8
0
  6
Continuous
 62
     7
370
    30
100
AcDbPolyline
 90
       25
 70
   128
 43
0.0
 10
424.1669204953
 20
273.0871158439
 10
424.9886748316
 20
273.1699905145
 10
425.7544157031
 20
273.4129669863
 10
426.4119741442
 20
273.7994882065
 10
426.9165423634
 20
274.3032107848
 10
427.2337284806
 20
274.889808965
 10
427.3419109109
 20
275.519306657
 10
427.2337284806
 20
276.148804349
 10
426.9165423634
 20
276.7354025293
 10
426.4119741442
 20
277.2391251075
 10
425.7544157031
 20
277.6256463278
 10
424.9886748316
 20
277.8686227995
 10
424.1669204953
 20
277.9514974702
 10
423.3451661589
 20
277.8686227995
 10
422.5794103863
 20
277.6256463278
 10
421.9218519452
 20
277.2391251075
 10
421.417283726
 20
276.7354025293
 10
421.1000976088
 20
276.148804349
 10
420.9919151786
 20
275.519306657
 10
421.1000976088
 20
274.889808965
 10
421.417283726
 20
274.3032107848
 10
421.9218519452
 20
273.7994882065
 10
422.5794103863
 20
273.4129669863
 10
423.3451661589
 20
273.1699905145
 10
424.1669204953
 20
273.0871158439
  0
LWPOLYLINE
  5
26F
330
1F
100
AcDbEntity
  8
0
  6
Continuous
 62
     7
370
    30
100
AcDbPolyline
 90
        9
 70
   128
 43
0.0
 10
416.166919184
 20
361.7166074711
 10
415.9718331816
 20
361.7042544085
 10
415.7842275622
 20
361.6676795084
 10
415.61134429
 20
361.6082760293
 10
415.4598143819
 20
361.52833875
 10
415.3354492905
 20
361.4309298593
 10
415.2430322888
 20
361.3198044497
 10
415.1861396554
 20
361.1992168027
 10
415.1669171574
 20
361.0738160807
  0
LINE
  5
270
330
1F
100
AcDbEntity
  8
0
  6
Continuous
 62
     7
370
    30
100
AcDbLine
 10
415.1669171574
 20
227.2023017305
 30
0.0
 11
415.1669171574
 21
361.0738160807
 31
0.0
  0
LINE
  5
271
330
1F
100
AcDbEntity
  8
0
  6
Continuous
 62
     7
370
    30
100
AcDbLine
 10
432.1669218066
 20
361.7166074711
 30
0.0
 11
432.1669218066
 21
363.5026681024
 31
0.0
  0
ARC
  5
272
330
1F
100
AcDbEntity
  8
0
  6
Continuous
 62
     7
370
    30
100
AcDbCircle
 10
432.1669175151
 20
362.5026670881
 30
0.0
 40
1.0
100
AcDbArc
 50
0.0
 51
90.0
  0
LINE
  5
273
330
1F
100
AcDbEntity
  8
0
  6
Continuous
 62
     7
370
    30
100
AcDbLine
 10
433.1669238331
 20
362.5026660758
 30
0.0
 11
433.1669238331
 21
361.0738160807
 31
0.0
  0
LINE
  5
274
330
1F
100
AcDbEntity
  8
0
  6
Continuous
 62
     7
370
    30
100
AcDbLine
 10
416.166919184
 20
363.5026681024
 30
0.0
 11
416.166919184
 21
361.7166074711
 31
0.0
  0
LINE
  5
275
330
1F
100
AcDbEntity
  8
0
  6
Continuous
 62
     7
370
    30
100
AcDbLine
 10
416.166919184
 20
363.5026681024
 30
0.0
 11
432.1669218066
 21
363.5026681024
 31
0.0
  0
ARC
  5
276
330
1F
100
AcDbEntity
  8
0
  6
Continuous
 62
     7
370
    30
100
AcDbCircle
 10
416.1669175151
 20
362.5026670881
 30
0.0
 40
1.0
100
AcDbArc
 50
90.0
 51
180.0
  0
LINE
  5
277
330
1F
100
AcDbEntity
  8
0
  6
Continuous
 62
     7
370
    30
100
AcDbLine
 10
415.1669171574
 20
361.0738160807
 30
0.0
 11
415.1669171574
 21
362.5026660758
 31
0.0
  0
DIMENSION
  5
278
330
1F
100
AcDbEntity
  8
DIM
100
AcDbDimension
  2
_D_8
 10
450.6669175151
 20
163.5026670881
 30
0.0
 11
450.6669175151
 21
176.2026670881
 31
0.0
 70
   160
  1
<>
 71
     2
 42
-1.0
  3
SLDDIMSTYLE2
100
AcDbAlignedDimension
 13
427.7196175151
 23
188.9026670881
 33
0.0
 14
432.1669175151
 24
163.5026670881
 34
0.0
 50
90.0
100
AcDbRotatedDimension
  0
DIMENSION
  5
284
330
1F
100
AcDbEntity
  8
DIM
100
AcDbDimension
  2
_D_9
 10
450.6669175151
 20
214.3026670881
 30
0.0
 11
450.6669175151
 21
201.6026670881
 31
0.0
 70
   160
  1
<>
 71
     2
 42
-1.0
  3
SLDDIMSTYLE2
100
AcDbAlignedDimension
 13
427.7196175151
 23
188.9026670881
 33
0.0
 14
427.7196175151
 24
214.3026670881
 34
0.0
 50
90.0
100
AcDbRotatedDimension
  0
DIMENSION
  5
290
330
1F
100
AcDbEntity
  8
DIM
100
AcDbDimension
  2
_D_10
 10
415.1669175151
 20
146.0026670881
 30
0.0
 11
419.6669175151
 21
146.0026670881
 31
0.0
 70
   160
  1
<>
 71
     2
 42
-1.0
  3
SLDDIMSTYLE2
100
AcDbAlignedDimension
 13
424.1669175151
 23
185.3499670881
 33
0.0
 14
415.1669175151
 24
164.5026670881
 34
0.0
100
AcDbRotatedDimension
  0
INSERT
  5
2A2
330
1F
100
AcDbEntity
  8
DIM
100
AcDbBlockReference
  2
SW_NOTE_4
 10
451.0621387283
 20
130.2810699006
 30
0.0
  0
LEADER
  5
2A3
330
1F
100
AcDbEntity
  8
DIM
100
AcDbLeader
  3
SLDDIMSTYLE3
 76
     2
 10
425.3481277425
 20
186.639700078
 30
0.0
 10
451.0621387283
 20
130.2810699006
 30
0.0
  0
INSERT
  5
2AF
330
1F
100
AcDbEntity
  8
DIM
100
AcDbBlockReference
  2
SW_CENTERMARKSYMBOL_0
 10
424.1669175151
 20
214.3026670881
 30
0.0
  0
INSERT
  5
2BB
330
1F
100
AcDbEntity
  8
DIM
100
AcDbBlockReference
  2
SW_CENTERMARKSYMBOL_1
 10
424.1669175151
 20
188.9026670881
 30
0.0
  0
LINE
  5
2BC
330
1F
100
AcDbEntity
  8
DIM
  6
CENTERX2
370
     0
100
AcDbLine
 10
424.1669175151
 20
366.0738175268
 30
0.0
 11
424.1669175151
 21
222.2023032072
 31
0.0
  0
LINE
  5
2BD
330
1F
100
AcDbEntity
  8
0
  6
Continuous
 62
     7
370
    30
100
AcDbLine
 10
80.6259102614
 20
164.5026671487
 30
0.0
 11
80.6259102614
 21
168.9168828327
 31
0.0
  0
ELLIPSE
  5
2BE
330
1F
100
AcDbEntity
  8
0
  6
Continuous
 62
     7
370
    30
100
AcDbEllipse
 10
81.6259165795
 20
168.9168806504
 30
0.0
 11
1.0
 21
0.0
 31
0.0
210
0.0
220
0.0
230
1.0
 40
0.4142135624
 41
3.141592653589793
 42
4.712388980384695
  0
LINE
  5
2BF
330
1F
100
AcDbEntity
  8
0
  6
Continuous
 62
     7
370
    30
100
AcDbLine
 10
81.6259122879
 20
168.5026678044
 30
0.0
 11
81.6259122879
 21
163.5026651222
 31
0.0
  0
ARC
  5
2C0
330
1F
100
AcDbEntity
  8
0
  6
Continuous
 62
     7
370
    30
100
AcDbCircle
 10
81.6259165795
 20
164.5026670881
 30
0.0
 40
1.0
100
AcDbArc
 50
180.0
 51
270.0
  0
LINE
  5
2C1
330
1F
100
AcDbEntity
  8
0
  6
Continuous
 62
     7
370
    30
100
AcDbLine
 10
80.6259102614
 20
168.9168828327
 30
0.0
 11
80.6259102614
 21
362.5026660758
 31
0.0
  0
ARC
  5
2C2
330
1F
100
AcDbEntity
  8
0
  6
Continuous
 62
     7
370
    30
100
AcDbCircle
 10
81.6259165795
 20
362.5026670881
 30
0.0
 40
1.0
100
AcDbArc
 50
90.0
 51
180.0
  0
LINE
  5
2C3
330
1F
100
AcDbEntity
  8
0
  6
Continuous
 62
     7
370
    30
100
AcDbLine
 10
81.6259122879
 20
363.5026681024
 30
0.0
 11
81.6259122879
 21
168.5026678044
 31
0.0
  0
LINE
  5
2C4
330
1F
100
AcDbEntity
  8
0
  6
Continuous
 62
     7
370
    30
100
AcDbLine
 10
97.6259149105
 20
168.5026678044
 30
0.0
 11
97.6259149105
 21
363.5026681024
 31
0.0
  0
LINE
  5
2C5
330
1F
100
AcDbEntity
  8
0
  6
Continuous
 62
     7
370
    30
100
AcDbLine
 10
81.6259122879
 20
168.5026678044
 30
0.0
 11
97.6259149105
 21
168.5026678044
 31
0.0
  0
LINE
  5
2C6
330
1F
100
AcDbEntity
  8
0
  6
Continuous
 62
     7
370
    30
100
AcDbLine
 10
81.6259122879
 20
363.5026681024
 30
0.0
 11
97.6259149105
 21
363.5026681024
 31
0.0
  0
CIRCLE
  5
2C7
330
1F
100
AcDbEntity
  8
0
  6
Continuous
 62
     7
370
    30
100
AcDbCircle
 10
89.6259165795
 20
247.6026670881
 30
0.0
 40
2.552699999999987
  0
CIRCLE
  5
2C8
330
1F
100
AcDbEntity
  8
0
  6
Continuous
 62
     7
370
    30
100
AcDbCircle
 10
89.6259165795
 20
273.0026670881
 30
0.0
 40
2.552699999999987
  0
CIRCLE
  5
2C9
330
1F
100
AcDbEntity
  8
0
  6
Continuous
 62
     7
370
    30
100
AcDbCircle
 10
89.6259165795
 20
298.4026670881
 30
0.0
 40
2.552699999999987
  0
CIRCLE
  5
2CA
330
1F
100
AcDbEntity
  8
0
  6
Continuous
 62
     7
370
    30
100
AcDbCircle
 10
89.6259165795
 20
336.5026670881
 30
0.0
 40
2.552700000000002
  0
ARC
  5
2CB
330
1F
100
AcDbEntity
  8
0
  6
Continuous
 62
     7
370
    30
100
AcDbCircle
 10
89.6259165795
 20
239.9026670881
 30
0.0
 40
3.200000000000017
100
AcDbArc
 50
0.0
 51
180.0
  0
LINE
  5
2CC
330
1F
100
AcDbEntity
  8
0
  6
Continuous
 62
     7
370
    30
100
AcDbLine
 10
86.4259190352
 20
239.9026675868
 30
0.0
 11
86.4259190352
 21
229.9026678103
 31
0.0
  0
ARC
  5
2CD
330
1F
100
AcDbEntity
  8
0
  6
Continuous
 62
     7
370
    30
100
AcDbCircle
 10
89.6259165795
 20
229.9026670881
 30
0.0
 40
3.200000000000017
100
AcDbArc
 50
180.0
 51
0.0
  0
LINE
  5
2CE
330
1F
100
AcDbEntity
  8
0
  6
Continuous
 62
     7
370
    30
100
AcDbLine
 10
92.8259230644
 20
229.9026678103
 30
0.0
 11
92.8259230644
 21
239.9026675868
 31
0.0
  0
ARC
  5
2CF
330
1F
100
AcDbEntity
  8
0
  6
Continuous
 62
     7
370
    30
100
AcDbCircle
 10
89.6259165795
 20
316.1026670881
 30
0.0
 40
3.200000000000259
100
AcDbArc
 50
0.0
 51
180.0
  0
LINE
  5
2D0
330
1F
100
AcDbEntity
  8
0
  6
Continuous
 62
     7
370
    30
100
AcDbLine
 10
86.4259190352
 20
316.1026666659
 30
0.0
 11
86.4259190352
 21
306.1026687521
 31
0.0
  0
ARC
  5
2D1
330
1F
100
AcDbEntity
  8
0
  6
Continuous
 62
     7
370
    30
100
AcDbCircle
 10
89.6259165795
 20
306.1026670881
 30
0.0
 40
3.200000000000514
100
AcDbArc
 50
180.0
 51
0.0
  0
LINE
  5
2D2
330
1F
100
AcDbEntity
  8
0
  6
Continuous
 62
     7
370
    30
100
AcDbLine
 10
92.8259230644
 20
306.1026687521
 30
0.0
 11
92.8259230644
 21
316.1026666659
 31
0.0
  0
ARC
  5
2D3
330
1F
100
AcDbEntity
  8
0
  6
Continuous
 62
     7
370
    30
100
AcDbCircle
 10
89.6259165795
 20
290.7026670881
 30
0.0
 40
3.200000000000173
100
AcDbArc
 50
0.0
 51
180.0
  0
LINE
  5
2D4
330
1F
100
AcDbEntity
  8
0
  6
Continuous
 62
     7
370
    30
100
AcDbLine
 10
86.4259190352
 20
290.7026669729
 30
0.0
 11
86.4259190352
 21
280.7026671964
 31
0.0
  0
ARC
  5
2D5
330
1F
100
AcDbEntity
  8
0
  6
Continuous
 62
     7
370
    30
100
AcDbCircle
 10
89.6259165795
 20
280.7026670881
 30
0.0
 40
3.200000000000344
100
AcDbArc
 50
180.0
 51
0.0
  0
LINE
  5
2D6
330
1F
100
AcDbEntity
  8
0
  6
Continuous
 62
     7
370
    30
100
AcDbLine
 10
92.8259230644
 20
280.7026671964
 30
0.0
 11
92.8259230644
 21
290.7026669729
 31
0.0
  0
ARC
  5
2D7
330
1F
100
AcDbEntity
  8
0
  6
Continuous
 62
     7
370
    30
100
AcDbCircle
 10
89.6259165795
 20
265.3026670881
 30
0.0
 40
3.200000000000102
100
AcDbArc
 50
0.0
 51
180.0
  0
LINE
  5
2D8
330
1F
100
AcDbEntity
  8
0
  6
Continuous
 62
     7
370
    30
100
AcDbLine
 10
86.4259190352
 20
265.3026672799
 30
0.0
 11
86.4259190352
 21
255.3026670377
 31
0.0
  0
ARC
  5
2D9
330
1F
100
AcDbEntity
  8
0
  6
Continuous
 62
     7
370
    30
100
AcDbCircle
 10
89.6259165795
 20
255.3026670881
 30
0.0
 40
3.200000000000188
100
AcDbArc
 50
180.0
 51
0.0
  0
LINE
  5
2DA
330
1F
100
AcDbEntity
  8
0
  6
Continuous
 62
     7
370
    30
100
AcDbLine
 10
92.8259230644
 20
255.3026670377
 30
0.0
 11
92.8259230644
 21
265.3026672799
 31
0.0
  0
LINE
  5
2DB
330
1F
100
AcDbEntity
  8
0
  6
Continuous
 62
     7
370
    30
100
AcDbLine
 10
97.6259149105
 20
163.5026651222
 30
0.0
 11
97.6259149105
 21
168.5026678044
 31
0.0
  0
LINE
  5
2DC
330
1F
100
AcDbEntity
  8
0
  6
Continuous
 62
     7
370
    30
100
AcDbLine
 10
97.6259149105
 20
163.5026651222
 30
0.0
 11
81.6259122879
 21
163.5026651222
 31
0.0
  0
LINE
  5
2DD
330
1F
100
AcDbEntity
  8
0
  6
Continuous
 62
     7
370
    30
100
AcDbLine
 10
98.6259169371
 20
362.5026660758
 30
0.0
 11
98.6259169371
 21
168.9168828327
 31
0.0
  0
ELLIPSE
  5
2DE
330
1F
100
AcDbEntity
  8
0
  6
Continuous
 62
     7
370
    30
100
AcDbEllipse
 10
97.6259165795
 20
168.9168806504
 30
0.0
 11
1.0
 21
0.0
 31
0.0
210
0.0
220
0.0
230
1.0
 40
0.4142135624
 41
4.712388980384695
 42
6.283185307179586
  0
ARC
  5
2DF
330
1F
100
AcDbEntity
  8
0
  6
Continuous
 62
     7
370
    30
100
AcDbCircle
 10
97.6259165795
 20
362.5026670881
 30
0.0
 40
1.0
100
AcDbArc
 50
0.0
 51
90.0
  0
LINE
  5
2E0
330
1F
100
AcDbEntity
  8
0
  6
Continuous
 62
     7
370
    30
100
AcDbLine
 10
98.6259169371
 20
168.9168828327
 30
0.0
 11
98.6259169371
 21
164.5026671487
 31
0.0
  0
ARC
  5
2E1
330
1F
100
AcDbEntity
  8
0
  6
Continuous
 62
     7
370
    30
100
AcDbCircle
 10
97.6259165795
 20
164.5026670881
 30
0.0
 40
1.000000000000028
100
AcDbArc
 50
270.0
 51
0.0
  0
ARC
  5
2E2
330
1F
100
AcDbEntity
  8
0
  6
Continuous
 62
     7
370
    30
100
AcDbCircle
 10
89.6259210498
 20
301.2242709552
 30
0.0
 40
3.768081468768745
100
AcDbArc
 50
49.0255860227
 51
130.9744139773
  0
LWPOLYLINE
  5
2E3
330
1F
100
AcDbEntity
  8
0
  6
Continuous
 62
     7
370
    30
100
AcDbPolyline
 90
       25
 70
   128
 43
0.0
 10
89.6259135992
 20
261.1945044357
 10
88.8041592629
 20
261.2773793246
 10
88.0384183914
 20
261.5203562329
 10
87.3808599503
 20
261.9068766964
 10
86.8762917311
 20
262.4105999732
 10
86.5591056139
 20
262.9971982698
 10
86.4509231837
 20
263.6266954962
 10
86.5591056139
 20
264.2561929553
 10
86.8762917311
 20
264.8427911356
 10
87.3808599503
 20
265.3465144123
 10
88.0384183914
 20
265.7330347012
 10
88.8041592629
 20
265.9760116387
 10
89.6259135992
 20
266.0588867749
 10
90.4476679356
 20
265.9760116387
 10
91.2134237082
 20
265.7330347012
 10
91.8709821493
 20
265.3465144123
 10
92.3755503685
 20
264.8427911356
 10
92.6927364857
 20
264.2561929553
 10
92.800918916
 20
263.6266954962
 10
92.6927364857
 20
262.9971982698
 10
92.3755503685
 20
262.4105999732
 10
91.8709821493
 20
261.9068766964
 10
91.2134237082
 20
261.5203562329
 10
90.4476679356
 20
261.2773793246
 10
89.6259135992
 20
261.1945044357
  0
DIMENSION
  5
2E4
330
1F
100
AcDbEntity
  8
DIM
100
AcDbDimension
  2
_D_11
 10
63.1259165795
 20
163.5026670881
 30
0.0
 11
63.1259165795
 21
196.7026670881
 31
0.0
 70
   160
  1
<>
 71
     2
 42
-1.0
  3
SLDDIMSTYLE0
100
AcDbAlignedDimension
 13
89.6259165795
 23
229.9026670881
 33
0.0
 14
81.6259165795
 24
163.5026670881
 34
0.0
 50
90.0
100
AcDbRotatedDimension
  0
DIMENSION
  5
2EE
330
1F
100
AcDbEntity
  8
DIM
100
AcDbDimension
  2
_D_12
 10
63.1259165795
 20
239.9026670881
 30
0.0
 11
63.1259165795
 21
234.9026670881
 31
0.0
 70
   160
  1
<>
 71
     2
 42
-1.0
  3
SLDDIMSTYLE2
100
AcDbAlignedDimension
 13
89.6259165795
 23
229.9026670881
 33
0.0
 14
85.4259165795
 24
239.9026670881
 34
0.0
 50
90.0
100
AcDbRotatedDimension
  0
DIMENSION
  5
2FA
330
1F
100
AcDbEntity
  8
DIM
100
AcDbDimension
  2
_D_13
 10
63.1259165795
 20
255.3026670881
 30
0.0
 11
63.1259165795
 21
247.6026670881
 31
0.0
 70
   160
  1
<>
 71
     2
 42
-1.0
  3
SLDDIMSTYLE0
100
AcDbAlignedDimension
 13
85.4259165795
 23
239.9026670881
 33
0.0
 14
89.6259165795
 24
255.3026670881
 34
0.0
 50
90.0
100
AcDbRotatedDimension
  0
DIMENSION
  5
304
330
1F
100
AcDbEntity
  8
DIM
100
AcDbDimension
  2
_D_14
 10
63.1259165795
 20
265.3026670881
 30
0.0
 11
63.1259165795
 21
260.3026670881
 31
0.0
 70
   160
  1
<>
 71
     2
 42
-1.0
  3
SLDDIMSTYLE2
100
AcDbAlignedDimension
 13
89.6259165795
 23
255.3026670881
 33
0.0
 14
85.4259165795
 24
265.3026670881
 34
0.0
 50
90.0
100
AcDbRotatedDimension
  0
DIMENSION
  5
310
330
1F
100
AcDbEntity
  8
DIM
100
AcDbDimension
  2
_D_15
 10
63.1259165795
 20
280.7026670881
 30
0.0
 11
63.1259165795
 21
273.0026670881
 31
0.0
 70
   160
  1
<>
 71
     2
 42
-1.0
  3
SLDDIMSTYLE0
100
AcDbAlignedDimension
 13
85.4259165795
 23
265.3026670881
 33
0.0
 14
89.6259165795
 24
280.7026670881
 34
0.0
 50
90.0
100
AcDbRotatedDimension
  0
DIMENSION
  5
31A
330
1F
100
AcDbEntity
  8
DIM
100
AcDbDimension
  2
_D_16
 10
63.1259165795
 20
290.7026670881
 30
0.0
 11
63.1259165795
 21
285.7026670881
 31
0.0
 70
   160
  1
<>
 71
     2
 42
-1.0
  3
SLDDIMSTYLE2
100
AcDbAlignedDimension
 13
89.6259165795
 23
280.7026670881
 33
0.0
 14
85.4259165795
 24
290.7026670881
 34
0.0
 50
90.0
100
AcDbRotatedDimension
  0
DIMENSION
  5
326
330
1F
100
AcDbEntity
  8
DIM
100
AcDbDimension
  2
_D_17
 10
63.1259165795
 20
306.1026670881
 30
0.0
 11
63.1259165795
 21
298.4026670881
 31
0.0
 70
   160
  1
<>
 71
     2
 42
-1.0
  3
SLDDIMSTYLE0
100
AcDbAlignedDimension
 13
85.4259165795
 23
290.7026670881
 33
0.0
 14
89.6259165795
 24
306.1026670881
 34
0.0
 50
90.0
100
AcDbRotatedDimension
  0
DIMENSION
  5
330
330
1F
100
AcDbEntity
  8
DIM
100
AcDbDimension
  2
_D_18
 10
63.1259165795
 20
306.1026670881
 30
0.0
 11
63.1259165795
 21
311.1026670881
 31
0.0
 70
   160
  1
<>
 71
     2
 42
-1.0
  3
SLDDIMSTYLE2
100
AcDbAlignedDimension
 13
85.4259165795
 23
316.1026670881
 33
0.0
 14
89.6259165795
 24
306.1026670881
 34
0.0
 50
90.0
100
AcDbRotatedDimension
  0
DIMENSION
  5
33C
330
1F
100
AcDbEntity
  8
DIM
100
AcDbDimension
  2
_D_19
 10
116.1259165795
 20
163.5026670881
 30
0.0
 11
116.1259165795
 21
205.5526670881
 31
0.0
 70
   160
  1
<>
 71
     2
 42
-1.0
  3
SLDDIMSTYLE0
100
AcDbAlignedDimension
 13
93.1786165795
 23
247.6026670881
 33
0.0
 14
97.6259165795
 24
163.5026670881
 34
0.0
 50
90.0
100
AcDbRotatedDimension
  0
DIMENSION
  5
346
330
1F
100
AcDbEntity
  8
DIM
100
AcDbDimension
  2
_D_20
 10
116.1259165795
 20
247.6026670881
 30
0.0
 11
116.1259165795
 21
260.3026670881
 31
0.0
 70
   160
  1
<>
 71
     2
 42
-1.0
  3
SLDDIMSTYLE0
100
AcDbAlignedDimension
 13
93.1786165795
 23
273.0026670881
 33
0.0
 14
93.1786165795
 24
247.6026670881
 34
0.0
 50
90.0
100
AcDbRotatedDimension
  0
DIMENSION
  5
350
330
1F
100
AcDbEntity
  8
DIM
100
AcDbDimension
  2
_D_21
 10
116.1259165795
 20
273.0026670881
 30
0.0
 11
116.1259165795
 21
285.7026670881
 31
0.0
 70
   160
  1
<>
 71
     2
 42
-1.0
  3
SLDDIMSTYLE0
100
AcDbAlignedDimension
 13
93.1786165795
 23
298.4026670881
 33
0.0
 14
93.1786165795
 24
273.0026670881
 34
0.0
 50
90.0
100
AcDbRotatedDimension
  0
DIMENSION
  5
35A
330
1F
100
AcDbEntity
  8
DIM
100
AcDbDimension
  2
_D_22
 10
116.1259165795
 20
298.4026670881
 30
0.0
 11
116.1259165795
 21
317.4526670881
 31
0.0
 70
   160
  1
<>
 71
     2
 42
-1.0
  3
SLDDIMSTYLE0
100
AcDbAlignedDimension
 13
93.1786165795
 23
336.5026670881
 33
0.0
 14
93.1786165795
 24
298.4026670881
 34
0.0
 50
90.0
100
AcDbRotatedDimension
  0
DIMENSION
  5
364
330
1F
100
AcDbEntity
  8
DIM
100
AcDbDimension
  2
_D_23
 10
98.6259165795
 20
381.0026670881
 30
0.0
 11
94.1259165795
 21
381.0026670881
 31
0.0
 70
   160
  1
<>
 71
     2
 42
-1.0
  3
SLDDIMSTYLE2
100
AcDbAlignedDimension
 13
89.6259165795
 23
340.0553670881
 33
0.0
 14
98.6259165795
 24
362.5026670881
 34
0.0
100
AcDbRotatedDimension
  0
INSERT
  5
376
330
1F
100
AcDbEntity
  8
DIM
100
AcDbBlockReference
  2
SW_NOTE_5
 10
114.9349710983
 20
352.2463878197
 30
0.0
  0
LEADER
  5
377
330
1F
100
AcDbEntity
  8
DIM
100
AcDbLeader
  3
SLDDIMSTYLE3
 76
     2
 10
91.713842884
 20
337.9712858394
 30
0.0
 10
114.9349710983
 20
352.2463878197
 30
0.0
  0
INSERT
  5
37E
330
1F
100
AcDbEntity
  8
DIM
100
AcDbBlockReference
  2
SW_NOTE_6
 10
70.0889229723
 20
352.2463878197
 30
0.0
  0
LEADER
  5
37F
330
1F
100
AcDbEntity
  8
DIM
100
AcDbLeader
  3
SLDDIMSTYLE3
 76
     2
 10
87.888425008
 20
318.7898818244
 30
0.0
 10
70.0889229723
 20
352.2463878197
 30
0.0
  0
INSERT
  5
38B
330
1F
100
AcDbEntity
  8
DIM
100
AcDbBlockReference
  2
SW_CENTERMARKSYMBOL_2
 10
89.6259165795
 20
336.5026670881
 30
0.0
  0
INSERT
  5
39F
330
1F
100
AcDbEntity
  8
DIM
100
AcDbBlockReference
  2
SW_CENTERMARKSYMBOL_3
 10
89.6259165795
 20
316.1026670881
 30
0.0
  0
INSERT
  5
3B3
330
1F
100
AcDbEntity
  8
DIM
100
AcDbBlockReference
  2
SW_CENTERMARKSYMBOL_4
 10
89.6259165795
 20
290.7026670881
 30
0.0
  0
INSERT
  5
3C7
330
1F
100
AcDbEntity
  8
DIM
100
AcDbBlockReference
  2
SW_CENTERMARKSYMBOL_5
 10
89.6259165795
 20
265.3026670881
 30
0.0
  0
INSERT
  5
3DB
330
1F
100
AcDbEntity
  8
DIM
100
AcDbBlockReference
  2
SW_CENTERMARKSYMBOL_6
 10
89.6259165795
 20
239.9026670881
 30
0.0
  0
INSERT
  5
3E7
330
1F
100
AcDbEntity
  8
DIM
100
AcDbBlockReference
  2
SW_CENTERMARKSYMBOL_7
 10
89.6259165795
 20
298.4026670881
 30
0.0
  0
INSERT
  5
3F3
330
1F
100
AcDbEntity
  8
DIM
100
AcDbBlockReference
  2
SW_CENTERMARKSYMBOL_8
 10
89.6259165795
 20
273.0026670881
 30
0.0
  0
INSERT
  5
3FF
330
1F
100
AcDbEntity
  8
DIM
100
AcDbBlockReference
  2
SW_CENTERMARKSYMBOL_9
 10
89.6259165795
 20
247.6026670881
 30
0.0
  0
LINE
  5
400
330
1F
100
AcDbEntity
  8
0
  6
Continuous
 62
     7
370
    30
100
AcDbLine
 10
192.3382765073
 20
68.1916182847
 30
0.0
 11
187.9240645487
 21
68.1916182847
 31
0.0
  0
ARC
  5
401
330
1F
100
AcDbEntity
  8
0
  6
Continuous
 62
     7
370
    30
100
AcDbCircle
 10
187.9240627414
 20
69.1916246028
 30
0.0
 40
1.000000000000014
100
AcDbArc
 50
180.0
 51
270.0
  0
LINE
  5
402
330
1F
100
AcDbEntity
  8
0
  6
Continuous
 62
     7
370
    30
100
AcDbLine
 10
186.9240625221
 20
69.1916203113
 30
0.0
 11
191.9240614791
 21
69.1916203113
 31
0.0
  0
ELLIPSE
  5
403
330
1F
100
AcDbEntity
  8
0
  6
Continuous
 62
     7
370
    30
100
AcDbEllipse
 10
192.3382763038
 20
69.1916246028
 30
0.0
 11
0.0
 21
1.0
 31
0.0
210
0.0
220
0.0
230
1.0
 40
0.4142135624
 41
1.570796326794897
 42
3.141592653589793
  0
LINE
  5
404
330
1F
100
AcDbEntity
  8
0
  6
Continuous
 62
     7
370
    30
100
AcDbLine
 10
335.924066456
 20
68.1916182847
 30
0.0
 11
192.3382765073
 21
68.1916182847
 31
0.0
  0
LINE
  5
405
330
1F
100
AcDbEntity
  8
0
  6
Continuous
 62
     7
370
    30
100
AcDbLine
 10
191.9240614791
 20
69.1916203113
 30
0.0
 11
336.924061032
 21
69.1916203113
 31
0.0
  0
ARC
  5
406
330
1F
100
AcDbEntity
  8
0
  6
Continuous
 62
     7
370
    30
100
AcDbCircle
 10
335.9240627414
 20
69.1916246028
 30
0.0
 40
1.000000000000014
100
AcDbArc
 50
270.0
 51
0.0
  0
LINE
  5
407
330
1F
100
AcDbEntity
  8
0
  6
Continuous
 62
     7
370
    30
100
AcDbLine
 10
191.9240614791
 20
85.1916229339
 30
0.0
 11
186.9240625221
 21
85.1916229339
 31
0.0
  0
LINE
  5
408
330
1F
100
AcDbEntity
  8
0
  6
Continuous
 62
     7
370
    30
100
AcDbLine
 10
191.9240614791
 20
85.1916229339
 30
0.0
 11
191.9240614791
 21
69.1916203113
 31
0.0
  0
LINE
  5
409
330
1F
100
AcDbEntity
  8
0
  6
Continuous
 62
     7
370
    30
100
AcDbLine
 10
186.9240625221
 20
69.1916203113
 30
0.0
 11
186.9240625221
 21
85.1916229339
 31
0.0
  0
LINE
  5
40A
330
1F
100
AcDbEntity
  8
0
  6
Continuous
 62
     7
370
    30
100
AcDbLine
 10
336.924061032
 20
85.1916229339
 30
0.0
 11
191.9240614791
 21
85.1916229339
 31
0.0
  0
LINE
  5
40B
330
1F
100
AcDbEntity
  8
0
  6
Continuous
 62
     7
370
    30
100
AcDbLine
 10
336.924061032
 20
69.1916203113
 30
0.0
 11
336.924061032
 21
85.1916229339
 31
0.0
  0
CIRCLE
  5
40C
330
1F
100
AcDbEntity
  8
0
  6
Continuous
 62
     7
370
    30
100
AcDbCircle
 10
301.2240627414
 20
77.1916246028
 30
0.0
 40
3.174999999999983
  0
CIRCLE
  5
40D
330
1F
100
AcDbEntity
  8
0
  6
Continuous
 62
     7
370
    30
100
AcDbCircle
 10
275.8240627414
 20
77.1916246028
 30
0.0
 40
3.174999999999983
  0
CIRCLE
  5
40E
330
1F
100
AcDbEntity
  8
0
  6
Continuous
 62
     7
370
    30
100
AcDbCircle
 10
250.4240627414
 20
77.1916246028
 30
0.0
 40
3.174999999999983
  0
CIRCLE
  5
40F
330
1F
100
AcDbEntity
  8
0
  6
Continuous
 62
     7
370
    30
100
AcDbCircle
 10
263.1240627414
 20
77.1916246028
 30
0.0
 40
2.552699999999987
  0
CIRCLE
  5
410
330
1F
100
AcDbEntity
  8
0
  6
Continuous
 62
     7
370
    30
100
AcDbCircle
 10
288.5240627414
 20
77.1916246028
 30
0.0
 40
2.552699999999987
  0
CIRCLE
  5
411
330
1F
100
AcDbEntity
  8
0
  6
Continuous
 62
     7
370
    30
100
AcDbCircle
 10
326.6240627414
 20
77.1916246028
 30
0.0
 40
2.552699999999987
  0
LINE
  5
412
330
1F
100
AcDbEntity
  8
0
  6
Continuous
 62
     7
370
    30
100
AcDbLine
 10
187.9240645487
 20
86.1916249605
 30
0.0
 11
192.3382765073
 21
86.1916249605
 31
0.0
  0
ELLIPSE
  5
413
330
1F
100
AcDbEntity
  8
0
  6
Continuous
 62
     7
370
    30
100
AcDbEllipse
 10
192.3382763038
 20
85.1916246028
 30
0.0
 11
0.0
 21
1.000000000000014
 31
0.0
210
0.0
220
0.0
230
1.0
 40
0.4142135624
 41
0.0
 42
1.570796326794897
  0
ARC
  5
414
330
1F
100
AcDbEntity
  8
0
  6
Continuous
 62
     7
370
    30
100
AcDbCircle
 10
187.9240627414
 20
85.1916246028
 30
0.0
 40
1.000000000000028
100
AcDbArc
 50
90.0
 51
180.0
  0
LINE
  5
415
330
1F
100
AcDbEntity
  8
0
  6
Continuous
 62
     7
370
    30
100
AcDbLine
 10
192.3382765073
 20
86.1916249605
 30
0.0
 11
335.924066456
 21
86.1916249605
 31
0.0
  0
ARC
  5
416
330
1F
100
AcDbEntity
  8
0
  6
Continuous
 62
     7
370
    30
100
AcDbCircle
 10
335.9240627414
 20
85.1916246028
 30
0.0
 40
1.000000000000014
100
AcDbArc
 50
0.0
 51
90.0
  0
ARC
  5
417
330
1F
100
AcDbEntity
  8
0
  6
Continuous
 62
     7
370
    30
100
AcDbCircle
 10
247.7391357996
 20
76.8660159382
 30
0.0
 40
3.242301068936306
100
AcDbArc
 50
303.1274015707
 51
5.7636017486
  0
ARC
  5
418
330
1F
100
AcDbEntity
  8
0
  6
Continuous
 62
     7
370
    30
100
AcDbCircle
 10
247.6418579243
 20
77.4707145099
 30
0.0
 40
3.334887161725136
100
AcDbArc
 50
355.1993668707
 51
55.90962981
  0
DIMENSION
  5
419
330
1F
100
AcDbEntity
  8
DIM
100
AcDbDimension
  2
_D_24
 10
186.9240627414
 20
50.6916246028
 30
0.0
 11
218.6740627414
 21
50.6916246028
 31
0.0
 70
   160
  1
<>
 71
     2
 42
-1.0
  3
SLDDIMSTYLE0
100
AcDbAlignedDimension
 13
250.4240627414
 23
73.0166246028
 33
0.0
 14
186.9240627414
 24
69.1916246028
 34
0.0
100
AcDbRotatedDimension
  0
DIMENSION
  5
423
330
1F
100
AcDbEntity
  8
DIM
100
AcDbDimension
  2
_D_25
 10
275.8240627414
 20
50.6916246028
 30
0.0
 11
263.1240627414
 21
50.6916246028
 31
0.0
 70
   160
  1
<>
 71
     2
 42
-1.0
  3
SLDDIMSTYLE2
100
AcDbAlignedDimension
 13
250.4240627414
 23
73.0166246028
 33
0.0
 14
275.8240627414
 24
73.0166246028
 34
0.0
100
AcDbRotatedDimension
  0
DIMENSION
  5
42F
330
1F
100
AcDbEntity
  8
DIM
100
AcDbDimension
  2
_D_26
 10
301.2240627414
 20
50.6916246028
 30
0.0
 11
288.5240627414
 21
50.6916246028
 31
0.0
 70
   160
  1
<>
 71
     2
 42
-1.0
  3
SLDDIMSTYLE2
100
AcDbAlignedDimension
 13
275.8240627414
 23
73.0166246028
 33
0.0
 14
301.2240627414
 24
73.0166246028
 34
0.0
100
AcDbRotatedDimension
  0
DIMENSION
  5
43B
330
1F
100
AcDbEntity
  8
DIM
100
AcDbDimension
  2
_D_27
 10
263.1240627414
 20
103.6916246028
 30
0.0
 11
225.0240627414
 21
103.6916246028
 31
0.0
 70
   160
  1
<>
 71
     2
 42
-1.0
  3
SLDDIMSTYLE0
100
AcDbAlignedDimension
 13
186.9240627414
 23
85.1916246028
 33
0.0
 14
263.1240627414
 24
80.7443246028
 34
0.0
100
AcDbRotatedDimension
  0
DIMENSION
  5
445
330
1F
100
AcDbEntity
  8
DIM
100
AcDbDimension
  2
_D_28
 10
288.5240627414
 20
103.6916246028
 30
0.0
 11
275.8240627414
 21
103.6916246028
 31
0.0
 70
   160
  1
<>
 71
     2
 42
-1.0
  3
SLDDIMSTYLE2
100
AcDbAlignedDimension
 13
263.1240627414
 23
80.7443246028
 33
0.0
 14
288.5240627414
 24
80.7443246028
 34
0.0
100
AcDbRotatedDimension
  0
DIMENSION
  5
451
330
1F
100
AcDbEntity
  8
DIM
100
AcDbDimension
  2
_D_29
 10
326.6240627414
 20
103.6916246028
 30
0.0
 11
307.5740627414
 21
103.6916246028
 31
0.0
 70
   160
  1
<>
 71
     2
 42
-1.0
  3
SLDDIMSTYLE0
100
AcDbAlignedDimension
 13
288.5240627414
 23
80.7443246028
 33
0.0
 14
326.6240627414
 24
80.7443246028
 34
0.0
100
AcDbRotatedDimension
  0
DIMENSION
  5
45B
330
1F
100
AcDbEntity
  8
DIM
100
AcDbDimension
  2
_D_30
 10
169.4240627414
 20
86.1916246028
 30
0.0
 11
169.4240627414
 21
81.6916246028
 31
0.0
 70
   160
  1
<>
 71
     2
 42
-1.0
  3
SLDDIMSTYLE2
100
AcDbAlignedDimension
 13
246.2490627414
 23
77.1916246028
 33
0.0
 14
187.9240627414
 24
86.1916246028
 34
0.0
 50
90.0
100
AcDbRotatedDimension
  0
INSERT
  5
46D
330
1F
100
AcDbEntity
  8
DIM
100
AcDbBlockReference
  2
SW_NOTE_7
 10
349.039017341
 20
98.2001450451
 30
0.0
  0
LEADER
  5
46E
330
1F
100
AcDbEntity
  8
DIM
100
AcDbLeader
  3
SLDDIMSTYLE3
 76
     2
 10
328.5648283926
 20
78.8498483445
 30
0.0
 10
349.039017341
 20
98.2001450451
 30
0.0
  0
INSERT
  5
475
330
1F
100
AcDbEntity
  8
DIM
100
AcDbBlockReference
  2
SW_NOTE_8
 10
339.2124277457
 20
49.3562144093
 30
0.0
  0
LEADER
  5
476
330
1F
100
AcDbEntity
  8
DIM
100
AcDbLeader
  3
SLDDIMSTYLE3
 76
     2
 10
303.9196767914
 20
75.5140400615
 30
0.0
 10
339.2124277457
 20
49.3562144093
 30
0.0
  0
INSERT
  5
482
330
1F
100
AcDbEntity
  8
DIM
100
AcDbBlockReference
  2
SW_CENTERMARKSYMBOL_10
 10
250.4240627414
 20
77.1916246028
 30
0.0
  0
INSERT
  5
48E
330
1F
100
AcDbEntity
  8
DIM
100
AcDbBlockReference
  2
SW_CENTERMARKSYMBOL_11
 10
263.1240627414
 20
77.1916246028
 30
0.0
  0
INSERT
  5
49A
330
1F
100
AcDbEntity
  8
DIM
100
AcDbBlockReference
  2
SW_CENTERMARKSYMBOL_12
 10
275.8240627414
 20
77.1916246028
 30
0.0
  0
INSERT
  5
4A6
330
1F
100
AcDbEntity
  8
DIM
100
AcDbBlockReference
  2
SW_CENTERMARKSYMBOL_13
 10
288.5240627414
 20
77.1916246028
 30
0.0
  0
INSERT
  5
4B2
330
1F
100
AcDbEntity
  8
DIM
100
AcDbBlockReference
  2
SW_CENTERMARKSYMBOL_14
 10
301.2240627414
 20
77.1916246028
 30
0.0
  0
INSERT
  5
4BE
330
1F
100
AcDbEntity
  8
DIM
100
AcDbBlockReference
  2
SW_CENTERMARKSYMBOL_15
 10
326.6240627414
 20
77.1916246028
 30
0.0
  0
LINE
  5
4BF
330
1F
100
AcDbEntity
  8
0
  6
Continuous
 62
     7
370
    30
100
AcDbLine
 10
187.9240645487
 20
442.1463481904
 30
0.0
 11
219.5925226826
 21
442.1463481904
 31
0.0
  0
LINE
  5
4C0
330
1F
100
AcDbEntity
  8
0
  6
Continuous
 62
     7
370
    30
100
AcDbLine
 10
219.5925226826
 20
442.1463481904
 30
0.0
 11
219.5925226826
 21
441.1463461639
 31
0.0
  0
LINE
  5
4C1
330
1F
100
AcDbEntity
  8
0
  6
Continuous
 62
     7
370
    30
100
AcDbLine
 10
219.5925226826
 20
441.1463461639
 30
0.0
 11
186.9240625221
 21
441.1463461639
 31
0.0
  0
ARC
  5
4C2
330
1F
100
AcDbEntity
  8
0
  6
Continuous
 62
     7
370
    30
100
AcDbCircle
 10
187.9240627414
 20
441.1463418723
 30
0.0
 40
1.000000000000057
100
AcDbArc
 50
90.0
 51
180.0
  0
LINE
  5
4C3
330
1F
100
AcDbEntity
  8
0
  6
Continuous
 62
     7
370
    30
100
AcDbLine
 10
219.5925226826
 20
442.1463481904
 30
0.0
 11
222.6567024756
 21
442.1463481904
 31
0.0
  0
ARC
  5
4C4
330
1F
100
AcDbEntity
  8
0
  6
Continuous
 62
     7
370
    30
100
AcDbCircle
 10
222.5218444839
 20
441.249628686
 30
0.0
 40
0.9068034779123697
100
AcDbArc
 50
353.4599694451
 51
81.4473604115
  0
LINE
  5
4C5
330
1F
100
AcDbEntity
  8
0
  6
Continuous
 62
     7
370
    30
100
AcDbLine
 10
223.4227469582
 20
441.1463461639
 30
0.0
 11
219.5925226826
 21
441.1463461639
 31
0.0
  0
LINE
  5
4C6
330
1F
100
AcDbEntity
  8
0
  6
Continuous
 62
     7
370
    30
100
AcDbLine
 10
219.5925226826
 20
425.1463435413
 30
0.0
 11
223.4227469582
 21
425.1463435413
 31
0.0
  0
LINE
  5
4C7
330
1F
100
AcDbEntity
  8
0
  6
Continuous
 62
     7
370
    30
100
AcDbLine
 10
219.5925226826
 20
425.1463435413
 30
0.0
 11
219.5925226826
 21
441.1463461639
 31
0.0
  0
LINE
  5
4C8
330
1F
100
AcDbEntity
  8
0
  6
Continuous
 62
     7
370
    30
100
AcDbLine
 10
223.4227469582
 20
441.1463461639
 30
0.0
 11
223.4227469582
 21
425.1463435413
 31
0.0
  0
LINE
  5
4C9
330
1F
100
AcDbEntity
  8
0
  6
Continuous
 62
     7
370
    30
100
AcDbLine
 10
186.9240625221
 20
425.1463435413
 30
0.0
 11
219.5925226826
 21
425.1463435413
 31
0.0
  0
LINE
  5
4CA
330
1F
100
AcDbEntity
  8
0
  6
Continuous
 62
     7
370
    30
100
AcDbLine
 10
186.9240625221
 20
441.1463461639
 30
0.0
 11
186.9240625221
 21
425.1463435413
 31
0.0
  0
CIRCLE
  5
4CB
330
1F
100
AcDbEntity
  8
0
  6
Continuous
 62
     7
370
    30
100
AcDbCircle
 10
199.6240627414
 20
433.1463418723
 30
0.0
 40
2.552699999999959
  0
ARC
  5
4CC
330
1F
100
AcDbEntity
  8
0
  6
Continuous
 62
     7
370
    30
100
AcDbCircle
 10
222.5218677494
 20
425.0430431968
 30
0.0
 40
0.9067823939673946
100
AcDbArc
 50
278.5513533613
 51
6.5413167821
  0
LINE
  5
4CD
330
1F
100
AcDbEntity
  8
0
  6
Continuous
 62
     7
370
    30
100
AcDbLine
 10
222.6567024756
 20
424.1463415147
 30
0.0
 11
219.5925226826
 21
424.1463415147
 31
0.0
  0
LINE
  5
4CE
330
1F
100
AcDbEntity
  8
0
  6
Continuous
 62
     7
370
    30
100
AcDbLine
 10
219.5925226826
 20
424.1463415147
 30
0.0
 11
219.5925226826
 21
425.1463435413
 31
0.0
  0
LINE
  5
4CF
330
1F
100
AcDbEntity
  8
0
  6
Continuous
 62
     7
370
    30
100
AcDbLine
 10
219.5925226826
 20
424.1463415147
 30
0.0
 11
187.9240645487
 21
424.1463415147
 31
0.0
  0
ARC
  5
4D0
330
1F
100
AcDbEntity
  8
0
  6
Continuous
 62
     7
370
    30
100
AcDbCircle
 10
187.9240627414
 20
425.1463418723
 30
0.0
 40
1.000000000000057
100
AcDbArc
 50
180.0
 51
270.0
  0
LINE
  5
4D1
330
1F
100
AcDbEntity
  8
0
  6
Continuous
 62
     7
370
    30
100
AcDbLine
 10
335.7542826254
 20
441.1463461639
 30
0.0
 11
223.4227469582
 21
441.1463461639
 31
0.0
  0
ARC
  5
4D2
330
1F
100
AcDbEntity
  8
0
  6
Continuous
 62
     7
370
    30
100
AcDbCircle
 10
334.8533865495
 20
441.249634341
 30
0.0
 40
0.9067977652719961
100
AcDbArc
 50
353.4595684143
 51
81.447357912
  0
LINE
  5
4D3
330
1F
100
AcDbEntity
  8
0
  6
Continuous
 62
     7
370
    30
100
AcDbLine
 10
222.6567024756
 20
442.1463481904
 30
0.0
 11
334.9882437307
 21
442.1463481904
 31
0.0
  0
LINE
  5
4D4
330
1F
100
AcDbEntity
  8
0
  6
Continuous
 62
     7
370
    30
100
AcDbLine
 10
223.4227469582
 20
425.1463435413
 30
0.0
 11
335.7542826254
 21
425.1463435413
 31
0.0
  0
LINE
  5
4D5
330
1F
100
AcDbEntity
  8
0
  6
Continuous
 62
     7
370
    30
100
AcDbLine
 10
335.7542826254
 20
425.1463435413
 30
0.0
 11
335.7542826254
 21
441.1463461639
 31
0.0
  0
LWPOLYLINE
  5
4D6
330
1F
100
AcDbEntity
  8
0
  6
Continuous
 62
     7
370
    30
100
AcDbPolyline
 90
       23
 70
   128
 43
0.0
 10
313.7185162325
 20
433.1463448526
 10
313.6520533282
 20
433.8655195953
 10
313.4580402095
 20
434.5264307977
 10
313.1521976013
 20
435.0755385877
 10
312.7593061347
 20
435.4683629991
 10
312.3111909647
 20
435.6730602504
 10
311.8441550452
 20
435.6730602504
 10
311.3960436005
 20
435.4683629991
 10
311.0031484086
 20
435.0755385877
 10
310.6973058004
 20
434.5264307977
 10
310.5032964069
 20
433.8655195953
 10
310.4368297774
 20
433.1463448526
 10
310.5032964069
 20
432.4271701099
 10
310.6973058004
 20
431.7662440063
 10
311.0031484086
 20
431.2171362163
 10
311.3960436005
 20
430.8243267061
 10
311.8441550452
 20
430.6196294547
 10
312.3111909647
 20
430.6196294547
 10
312.7593061347
 20
430.8243267061
 10
313.1521976013
 20
431.2171362163
 10
313.4580402095
 20
431.7662440063
 10
313.6520533282
 20
432.4271701099
 10
313.7185162325
 20
433.1463448526
  0
LWPOLYLINE
  5
4D7
330
1F
100
AcDbEntity
  8
0
  6
Continuous
 62
     7
370
    30
100
AcDbPolyline
 90
       23
 70
   128
 43
0.0
 10
281.0649069417
 20
433.1463448526
 10
280.9984403122
 20
433.8655195953
 10
280.8044290561
 20
434.5264307977
 10
280.4985864479
 20
435.0755385877
 10
280.1056931187
 20
435.4683629991
 10
279.6575798113
 20
435.6730602504
 10
279.1905457545
 20
435.6730602504
 10
278.7424324472
 20
435.4683629991
 10
278.3495391179
 20
435.0755385877
 10
278.0436965097
 20
434.5264307977
 10
277.8496852536
 20
433.8655195953
 10
277.7832186241
 20
433.1463448526
 10
277.8496852536
 20
432.4271701099
 10
278.0436965097
 20
431.7662440063
 10
278.3495391179
 20
431.2171362163
 10
278.7424324472
 20
430.8243267061
 10
279.1905457545
 20
430.6196294547
 10
279.6575798113
 20
430.6196294547
 10
280.1056931187
 20
430.8243267061
 10
280.4985864479
 20
431.2171362163
 10
280.8044290561
 20
431.7662440063
 10
280.9984403122
 20
432.4271701099
 10
281.0649069417
 20
433.1463448526
  0
LWPOLYLINE
  5
4D8
330
1F
100
AcDbEntity
  8
0
  6
Continuous
 62
     7
370
    30
100
AcDbPolyline
 90
       23
 70
   128
 43
0.0
 10
248.411296254
 20
433.1463448526
 10
248.3448305558
 20
433.8655195953
 10
248.1508179028
 20
434.5264307977
 10
247.8449762259
 20
435.0755385877
 10
247.4520833623
 20
435.4683629991
 10
247.0039686579
 20
435.6730602504
 10
246.5369355325
 20
435.6730602504
 10
246.0888208281
 20
435.4683629991
 10
245.6959279645
 20
435.0755385877
 10
245.3900862876
 20
434.5264307977
 10
245.1960741002
 20
433.8655195953
 10
245.129608402
 20
433.1463448526
 10
245.1960741002
 20
432.4271701099
 10
245.3900862876
 20
431.7662440063
 10
245.6959279645
 20
431.2171362163
 10
246.0888208281
 20
430.8243267061
 10
246.5369355325
 20
430.6196294547
 10
247.0039686579
 20
430.6196294547
 10
247.4520833623
 20
430.8243267061
 10
247.8449762259
 20
431.2171362163
 10
248.1508179028
 20
431.7662440063
 10
248.3448305558
 20
432.4271701099
 10
248.411296254
 20
433.1463448526
  0
LWPOLYLINE
  5
4D9
330
1F
100
AcDbEntity
  8
0
  6
Continuous
 62
     7
370
    30
100
AcDbPolyline
 90
       25
 70
   128
 43
0.0
 10
265.1381081361
 20
433.1463448526
 10
265.0685681421
 20
433.9680991889
 10
264.8646857981
 20
434.7338400604
 10
264.5403564368
 20
435.3913985015
 10
264.1176831368
 20
435.8959667207
 10
263.6254689116
 20
436.2131528379
 10
263.0972572062
 20
436.3213352681
 10
262.5690464322
 20
436.2131528379
 10
262.0768322069
 20
435.8959667207
 10
261.6541579757
 20
435.3913985015
 10
261.32982908
 20
434.7338400604
 10
261.1259472016
 20
433.9680991889
 10
261.056406742
 20
433.1463448526
 10
261.1259472016
 20
432.3245905162
 10
261.32982908
 20
431.5588347436
 10
261.6541579757
 20
430.9012763025
 10
262.0768322069
 20
430.3967080833
 10
262.5690464322
 20
430.0795219661
 10
263.0972572062
 20
429.9713395358
 10
263.6254689116
 20
430.0795219661
 10
264.1176831368
 20
430.3967080833
 10
264.5403564368
 20
430.9012763025
 10
264.8646857981
 20
431.5588347436
 10
265.0685681421
 20
432.3245905162
 10
265.1381081361
 20
433.1463448526
  0
LWPOLYLINE
  5
4DA
330
1F
100
AcDbEntity
  8
0
  6
Continuous
 62
     7
370
    30
100
AcDbPolyline
 90
       25
 70
   128
 43
0.0
 10
297.7917192895
 20
433.1463448526
 10
297.7221792955
 20
433.9680991889
 10
297.5182978828
 20
434.7338400604
 10
297.1939666588
 20
435.3913985015
 10
296.7712914962
 20
435.8959667207
 10
296.279080065
 20
436.2131528379
 10
295.7508674283
 20
436.3213352681
 10
295.2226585168
 20
436.2131528379
 10
294.7304433603
 20
435.8959667207
 10
294.3077681977
 20
435.3913985015
 10
293.9834406991
 20
434.7338400604
 10
293.7795592863
 20
433.9680991889
 10
293.710015567
 20
433.1463448526
 10
293.7795592863
 20
432.3245905162
 10
293.9834406991
 20
431.5588347436
 10
294.3077681977
 20
430.9012763025
 10
294.7304433603
 20
430.3967080833
 10
295.2226585168
 20
430.0795219661
 10
295.7508674283
 20
429.9713395358
 10
296.279080065
 20
430.0795219661
 10
296.7712914962
 20
430.3967080833
 10
297.1939666588
 20
430.9012763025
 10
297.5182978828
 20
431.5588347436
 10
297.7221792955
 20
432.3245905162
 10
297.7917192895
 20
433.1463448526
  0
ARC
  5
4DB
330
1F
100
AcDbEntity
  8
0
  6
Continuous
 62
     7
370
    30
100
AcDbCircle
 10
334.8534098147
 20
425.0430375421
 30
0.0
 40
0.9067766816854077
100
AcDbArc
 50
278.5513558656
 51
6.5417178081
  0
LINE
  5
4DC
330
1F
100
AcDbEntity
  8
0
  6
Continuous
 62
     7
370
    30
100
AcDbLine
 10
334.9882437307
 20
424.1463415147
 30
0.0
 11
222.6567024756
 21
424.1463415147
 31
0.0
  0
LINE
  5
4DD
330
1F
100
AcDbEntity
  8
0
  6
Continuous
 62
     7
370
    30
100
AcDbLine
 10
335.7542826254
 20
425.1463435413
 30
0.0
 11
336.924061032
 21
425.1463435413
 31
0.0
  0
LINE
  5
4DE
330
1F
100
AcDbEntity
  8
0
  6
Continuous
 62
     7
370
    30
100
AcDbLine
 10
336.924061032
 20
441.1463461639
 30
0.0
 11
335.7542826254
 21
441.1463461639
 31
0.0
  0
LINE
  5
4DF
330
1F
100
AcDbEntity
  8
0
  6
Continuous
 62
     7
370
    30
100
AcDbLine
 10
336.924061032
 20
441.1463461639
 30
0.0
 11
336.924061032
 21
425.1463435413
 31
0.0
  0
ARC
  5
4E0
330
1F
100
AcDbEntity
  8
0
  6
Continuous
 62
     7
370
    30
100
AcDbCircle
 10
335.9240627414
 20
441.1463418723
 30
0.0
 40
1.000000000000057
100
AcDbArc
 50
0.0
 51
90.0
  0
LINE
  5
4E1
330
1F
100
AcDbEntity
  8
0
  6
Continuous
 62
     7
370
    30
100
AcDbLine
 10
334.9882437307
 20
442.1463481904
 30
0.0
 11
335.924066456
 21
442.1463481904
 31
0.0
  0
ARC
  5
4E2
330
1F
100
AcDbEntity
  8
0
  6
Continuous
 62
     7
370
    30
100
AcDbCircle
 10
335.9240627414
 20
425.1463418723
 30
0.0
 40
1.000000000000057
100
AcDbArc
 50
270.0
 51
0.0
  0
LINE
  5
4E3
330
1F
100
AcDbEntity
  8
0
  6
Continuous
 62
     7
370
    30
100
AcDbLine
 10
335.924066456
 20
424.1463415147
 30
0.0
 11
334.9882437307
 21
424.1463415147
 31
0.0
  0
DIMENSION
  5
4E4
330
1F
100
AcDbEntity
  8
DIM
100
AcDbDimension
  2
_D_31
 10
186.9240627414
 20
459.6463418723
 30
0.0
 11
193.2740627414
 21
459.6463418723
 31
0.0
 70
   160
  1
<>
 71
     2
 42
-1.0
  3
SLDDIMSTYLE2
100
AcDbAlignedDimension
 13
199.6240627414
 23
436.6990418723
 33
0.0
 14
186.9240627414
 24
441.1463418723
 34
0.0
100
AcDbRotatedDimension
  0
DIMENSION
  5
4F0
330
1F
100
AcDbEntity
  8
DIM
100
AcDbDimension
  2
_D_32
 10
169.4240627414
 20
424.1463418723
 30
0.0
 11
169.4240627414
 21
428.6463418723
 31
0.0
 70
   160
  1
<>
 71
     2
 42
-1.0
  3
SLDDIMSTYLE2
100
AcDbAlignedDimension
 13
196.0713627414
 23
433.1463418723
 33
0.0
 14
187.9240627414
 24
424.1463418723
 34
0.0
 50
90.0
100
AcDbRotatedDimension
  0
DIMENSION
  5
4FC
330
1F
100
AcDbEntity
  8
DIM
100
AcDbDimension
  2
_D_33
 10
156.9240627414
 20
424.1463418723
 30
0.0
 11
156.9240627414
 21
433.1463418723
 31
0.0
 70
   160
  1
<>
 71
     2
 42
-1.0
  3
SLDDIMSTYLE0
100
AcDbAlignedDimension
 13
187.9240627414
 23
442.1463418723
 33
0.0
 14
187.9240627414
 24
424.1463418723
 34
0.0
 50
90.0
100
AcDbRotatedDimension
  0
INSERT
  5
50B
330
1F
100
AcDbEntity
  8
DIM
100
AcDbBlockReference
  2
SW_NOTE_9
 10
220.426300578
 20
407.7705927538
 30
0.0
  0
LEADER
  5
50C
330
1F
100
AcDbEntity
  8
DIM
100
AcDbLeader
  3
SLDDIMSTYLE3
 76
     2
 10
201.4347511792
 20
431.3469851342
 30
0.0
 10
220.426300578
 20
407.7705927538
 30
0.0
  0
INSERT
  5
518
330
1F
100
AcDbEntity
  8
DIM
100
AcDbBlockReference
  2
SW_CENTERMARKSYMBOL_16
 10
199.6240627414
 20
433.1463418723
 30
0.0
  0
LINE
  5
519
330
1F
100
AcDbEntity
  8
0
  6
Continuous
 62
     7
370
    30
100
AcDbLine
 10
645.155413552
 20
247.2078355019
 30
0.0
 11
565.7250210854
 21
402.3735800299
 31
0.0
  0
LINE
  5
51A
330
1F
100
AcDbEntity
  8
0
  6
Continuous
 62
     7
370
    30
100
AcDbLine
 10
557.4028770478
 20
364.6470305025
 30
0.0
 11
619.0026248826
 21
244.3131074446
 31
0.0
  0
SPLINE
  5
51B
330
1F
100
AcDbEntity
  8
0
  6
Continuous
 62
     7
370
    30
100
AcDbSpline
210
0.0
220
0.0
230
1.0
 70
     8
 71
     3
 72
    11
 73
     7
 74
     0
 42
0.000000001
 43
0.00000001
 40
0.0
 40
0.0
 40
0.0
 40
0.0
 40
0.1480868344814138
 40
0.4251778122130798
 40
0.7045218722547085
 40
1.0
 40
1.0
 40
1.0
 40
1.0
 10
565.7250210854316
 20
402.3735800298732
 30
0.0
 10
565.6304615718807
 20
402.5485033469017
 30
0.0
 10
565.3589681117339
 20
403.0507324174312
 30
0.0
 10
564.8035895777955
 20
403.8171603636678
 30
0.0
 10
564.039554140822
 20
404.6248253131445
 30
0.0
 10
563.4639910522316
 20
405.0056984343178
 30
0.0
 10
563.1681320763095
 20
405.2014801545503
 30
0.0
  0
LINE
  5
51C
330
1F
100
AcDbEntity
  8
0
  6
Continuous
 62
     7
370
    30
100
AcDbLine
 10
563.1681320763
 20
405.2014801546
 30
0.0
 11
540.2751074216
 21
418.4173419802
 31
0.0
  0
SPLINE
  5
51D
330
1F
100
AcDbEntity
  8
0
  6
Continuous
 62
     7
370
    30
100
AcDbSpline
210
0.0
220
0.0
230
1.0
 70
     8
 71
     3
 72
    12
 73
     8
 74
     0
 42
0.000000001
 43
0.00000001
 40
0.0
 40
0.0
 40
0.0
 40
0.0
 40
0.1210277421271094
 40
0.3548796652840848
 40
0.5909294608792842
 40
0.8288238829818473
 40
1.0
 40
1.0
 40
1.0
 40
1.0
 10
554.5430138526764
 20
367.8629398167494
 30
0.0
 10
554.6685958644597
 20
367.785790644782
 30
0.0
 10
555.0368296389986
 20
367.5595724914601
 30
0.0
 10
555.6649326251061
 20
367.0389015850907
 30
0.0
 10
556.3778704656257
 20
366.2645271329756
 30
0.0
 10
556.9681252111052
 20
365.4456201982704
 30
0.0
 10
557.274622743351
 20
364.8826190781
 30
0.0
 10
557.4028770477511
 20
364.6470305025092
 30
0.0
  0
LINE
  5
51E
330
1F
100
AcDbEntity
  8
0
  6
Continuous
 62
     7
370
    30
100
AcDbLine
 10
544.0178700065
 20
373.9389760271
 30
0.0
 11
554.5430138527
 21
367.8629398167
 31
0.0
  0
LINE
  5
51F
330
1F
100
AcDbEntity
  8
0
  6
Continuous
 62
     7
370
    30
100
AcDbLine
 10
527.9614801867
 20
411.308742457
 30
0.0
 11
527.9614801867
 21
252.4215064178
 31
0.0
  0
SPLINE
  5
520
330
1F
100
AcDbEntity
  8
0
  6
Continuous
 62
     7
370
    30
100
AcDbSpline
210
0.0
220
0.0
230
1.0
 70
     8
 71
     3
 72
    11
 73
     7
 74
     0
 42
0.000000001
 43
0.00000001
 40
0.0
 40
0.0
 40
0.0
 40
0.0
 40
0.1897926824744643
 40
0.5374524652991862
 40
0.8838032458696756
 40
1.0
 40
1.0
 40
1.0
 40
1.0
 10
645.9269923012607
 20
244.2707072929703
 30
0.0
 10
645.9210082934276
 20
244.4510675194009
 30
0.0
 10
645.9040628573846
 20
244.9618092775827
 30
0.0
 10
645.7226112235827
 20
245.8416514322478
 30
0.0
 10
645.4303841095904
 20
246.650814746813
 30
0.0
 10
645.2106204661227
 20
247.0960002665623
 30
0.0
 10
645.1554135519549
 20
247.2078355018623
 30
0.0
  0
LINE
  5
521
330
1F
100
AcDbEntity
  8
0
  6
Continuous
 62
     7
370
    30
100
AcDbLine
 10
645.9269923013
 20
194.5959632329
 30
0.0
 11
645.9269923013
 21
244.270707293
 31
0.0
  0
SPLINE
  5
522
330
1F
100
AcDbEntity
  8
0
  6
Continuous
 62
     7
370
    30
100
AcDbSpline
210
0.0
220
0.0
230
1.0
 70
     8
 71
     3
 72
    11
 73
     7
 74
     0
 42
0.000000001
 43
0.00000001
 40
0.0
 40
0.0
 40
0.0
 40
0.0
 40
0.1540537546492154
 40
0.4519327295800407
 40
0.7479384298062001
 40
0.9999999999999999
 40
0.9999999999999999
 40
0.9999999999999999
 40
0.9999999999999999
 10
619.0026248825557
 20
244.3131074446121
 30
0.0
 10
619.0868106597197
 20
244.1408358138866
 30
0.0
 10
619.3337784025846
 20
243.6354590479635
 30
0.0
 10
619.6382358821069
 20
242.7803442410806
 30
0.0
 10
619.8510862903227
 20
241.8374085352541
 30
0.0
 10
619.8745640750203
 20
241.2957229735494
 30
0.0
 10
619.8853617409181
 20
241.0465964144502
 30
0.0
  0
SPLINE
  5
523
330
1F
100
AcDbEntity
  8
0
  6
Continuous
 62
     7
370
    30
100
AcDbSpline
210
0.0
220
0.0
230
1.0
 70
     8
 71
     3
 72
    11
 73
     7
 74
     0
 42
0.000000001
 43
0.00000001
 40
0.0
 40
0.0
 40
0.0
 40
0.0
 40
0.2479571156257848
 40
0.5115395348839014
 40
0.7642038354639481
 40
1.0
 40
1.0
 40
1.0
 40
1.0
 10
542.02943995041
 20
374.2244848395493
 30
0.0
 10
542.1289201946607
 20
374.2773252016066
 30
0.0
 10
542.3341495454931
 20
374.3863357220819
 30
0.0
 10
542.7990967710231
 20
374.3945254063867
 30
0.0
 10
543.3759792095985
 20
374.2697682640913
 30
0.0
 10
543.808889678552
 20
374.046672025384
 30
0.0
 10
544.0178700064532
 20
373.9389760271068
 30
0.0
  0
LINE
  5
524
330
1F
100
AcDbEntity
  8
0
  6
Continuous
 62
     7
370
    30
100
AcDbLine
 10
619.8853617409
 20
241.0465964145
 30
0.0
 11
619.8853617409
 21
213.9536507514
 31
0.0
  0
LINE
  5
525
330
1F
100
AcDbEntity
  8
0
  6
Continuous
 62
     7
370
    30
100
AcDbLine
 10
552.5888971846
 20
293.1494840002
 30
0.0
 11
552.5888971846
 21
368.9910273572
 31
0.0
  0
SPLINE
  5
526
330
1F
100
AcDbEntity
  8
0
  6
Continuous
 62
     7
370
    30
100
AcDbSpline
210
0.0
220
0.0
230
1.0
 70
     8
 71
     3
 72
    12
 73
     8
 74
     0
 42
0.000000001
 43
0.00000001
 40
0.0
 40
0.0
 40
0.0
 40
0.0
 40
0.1375321014593322
 40
0.3996819207965372
 40
0.6623354154818661
 40
0.9351786400996516
 40
1.0
 40
1.0
 40
1.0
 40
1.0
 10
619.8853617409181
 20
213.9536507513989
 30
0.0
 10
619.8813519971328
 20
213.8142213439234
 30
0.0
 10
619.869699284195
 20
213.4090256637585
 30
0.0
 10
619.7477936146818
 20
212.8494743644019
 30
0.0
 10
619.5027774976763
 20
212.3831927714363
 30
0.0
 10
619.309827095033
 20
212.1513874635644
 30
0.0
 10
619.1598932310184
 20
212.0949957620037
 30
0.0
 10
619.13111047616
 20
212.0841702654907
 30
0.0
  0
LINE
  5
527
330
1F
100
AcDbEntity
  8
0
  6
Continuous
 62
     7
370
    30
100
AcDbLine
 10
531.3757175531
 20
246.5079013316
 30
0.0
 11
633.6133650663
 21
187.4873637097
 31
0.0
  0
LINE
  5
528
330
1F
100
AcDbEntity
  8
0
  6
Continuous
 62
     7
370
    30
100
AcDbLine
 10
619.8853617409
 20
223.8488926424
 30
0.0
 11
578.958914236
 21
247.4752278863
 31
0.0
  0
LINE
  5
529
330
1F
100
AcDbEntity
  8
0
  6
Continuous
 62
     7
370
    30
100
AcDbLine
 10
574.253912461
 20
263.7197119384
 30
0.0
 11
564.3041649927
 21
280.9531800254
 31
0.0
  0
SPLINE
  5
52A
330
1F
100
AcDbEntity
  8
0
  6
Continuous
 62
     7
370
    30
100
AcDbSpline
210
0.0
220
0.0
230
1.0
 70
     8
 71
     3
 72
    11
 73
     7
 74
     0
 42
0.000000001
 43
0.00000001
 40
0.0
 40
0.0
 40
0.0
 40
0.0
 40
0.1689287530874362
 40
0.4783702597120762
 40
0.7866466628368705
 40
1.0
 40
1.0
 40
1.0
 40
1.0
 10
575.2163141826062
 20
260.4319449569981
 30
0.0
 10
575.210345207498
 20
260.612315221081
 30
0.0
 10
575.1934423409314
 20
261.1230854037569
 30
0.0
 10
575.011466012754
 20
262.002577209453
 30
0.0
 10
574.6766461304992
 20
262.9363934198543
 30
0.0
 10
574.3766249994115
 20
263.4923276282917
 30
0.0
 10
574.253912461009
 20
263.7197119383729
 30
0.0
  0
SPLINE
  5
52B
330
1F
100
AcDbEntity
  8
0
  6
Continuous
 62
     7
370
    30
100
AcDbSpline
210
0.0
220
0.0
230
1.0
 70
     8
 71
     3
 72
    11
 73
     7
 74
     0
 42
0.000000001
 43
0.00000001
 40
0.0
 40
0.0
 40
0.0
 40
0.0
 40
0.1643465870372529
 40
0.4723349039174885
 40
0.783559673318042
 40
1.0
 40
1.0
 40
1.0
 40
1.0
 10
564.3041649927031
 20
280.9531800253802
 30
0.0
 10
564.2008715517217
 20
281.1231658709805
 30
0.0
 10
563.904004434486
 20
281.6117081005233
 30
0.0
 10
563.3139521568891
 20
282.34337634149
 30
0.0
 10
562.6117974821561
 20
283.0031599681542
 30
0.0
 10
562.1340598031568
 20
283.3061566660124
 30
0.0
 10
561.9380989558721
 20
283.4304413775745
 30
0.0
  0
LINE
  5
52C
330
1F
100
AcDbEntity
  8
0
  6
Continuous
 62
     7
370
    30
100
AcDbLine
 10
575.2163141826
 20
253.9576482307
 30
0.0
 11
575.2163141826
 21
260.431944957
 31
0.0
  0
LINE
  5
52D
330
1F
100
AcDbEntity
  8
0
  6
Continuous
 62
     7
370
    30
100
AcDbLine
 10
561.9380989559
 20
283.4304413776
 30
0.0
 11
556.3314972381
 21
286.6670636558
 31
0.0
  0
SPLINE
  5
52E
330
1F
100
AcDbEntity
  8
0
  6
Continuous
 62
     7
370
    30
100
AcDbSpline
210
0.0
220
0.0
230
1.0
 70
     8
 71
     3
 72
    16
 73
    12
 74
     0
 42
0.000000001
 43
0.00000001
 40
0.0
 40
0.0
 40
0.0
 40
0.0
 40
0.0672950254777297
 40
0.1973236523882369
 40
0.3285743617661656
 40
0.4608507383640915
 40
0.5936528670817268
 40
0.7263323002544366
 40
0.858101749913665
 40
0.9811226090667219
 40
1.0
 40
1.0
 40
1.0
 40
1.0
 10
578.9589142360435
 20
247.4752278863097
 30
0.0
 10
578.833321892752
 20
247.552374060039
 30
0.0
 10
578.4650578239838
 20
247.7785834218747
 30
0.0
 10
577.837348136671
 20
248.299368464863
 30
0.0
 10
577.1227453803475
 20
249.0732597528726
 30
0.0
 10
576.4768343919501
 20
249.9798728967436
 30
0.0
 10
575.937012208049
 20
250.9702548794329
 30
0.0
 10
575.5320455890752
 20
251.9924659893718
 30
0.0
 10
575.2867478765476
 20
252.9693339522149
 30
0.0
 10
575.2191595450531
 20
253.6117584217633
 30
0.0
 10
575.2166482694051
 20
253.9170357529635
 30
0.0
 10
575.2163141826062
 20
253.9576482307116
 30
0.0
  0
SPLINE
  5
52F
330
1F
100
AcDbEntity
  8
0
  6
Continuous
 62
     7
370
    30
100
AcDbSpline
210
0.0
220
0.0
230
1.0
 70
     8
 71
     3
 72
    16
 73
    12
 74
     0
 42
0.000000001
 43
0.00000001
 40
0.0
 40
0.0
 40
0.0
 40
0.0
 40
0.067295025477728
 40
0.1973236523882283
 40
0.3285743617661574
 40
0.4608507383640945
 40
0.5936528670817309
 40
0.7263323002544413
 40
0.8581017499136803
 40
0.9811226090667408
 40
1.0
 40
1.0
 40
1.0
 40
1.0
 10
556.331497238074
 20
286.6670636558171
 30
0.0
 10
556.2059048947824
 20
286.7442098295463
 30
0.0
 10
555.8376408260144
 20
286.9704191913821
 30
0.0
 10
555.2099311387014
 20
287.4912042343703
 30
0.0
 10
554.4953283823781
 20
288.2650955223799
 30
0.0
 10
553.8494173939805
 20
289.1717086662509
 30
0.0
 10
553.3095952100796
 20
290.1620906489403
 30
0.0
 10
552.9046285911057
 20
291.1843017588793
 30
0.0
 10
552.659330878578
 20
292.1611697217223
 30
0.0
 10
552.5917425470836
 20
292.8035941912709
 30
0.0
 10
552.5892312714357
 20
293.1088715224709
 30
0.0
 10
552.5888971846366
 20
293.149484000219
 30
0.0
  0
LINE
  5
530
330
1F
100
AcDbEntity
  8
0
  6
Continuous
 62
     7
370
    30
100
AcDbLine
 10
527.9758751499
 20
252.3677836837
 30
0.0
 11
531.3363547607
 21
246.5472622771
 31
0.0
  0
ARC
  5
531
330
1F
100
AcDbEntity
  8
0
  6
Continuous
 62
     7
370
    30
100
AcDbCircle
 10
617.5918087552
 20
213.1258835141
 30
0.0
 40
2.620255184570805
100
AcDbArc
 50
230.7967147643
 51
9.2140369905
  0
LINE
  5
532
330
1F
100
AcDbEntity
  8
0
  6
Continuous
 62
     7
370
    30
100
AcDbLine
 10
620.1782549597
 20
240.6383923585
 30
0.0
 11
620.1782549597
 21
213.5454466955
 31
0.0
  0
ARC
  5
533
330
1F
100
AcDbEntity
  8
0
  6
Continuous
 62
     7
370
    30
100
AcDbCircle
 10
611.7786605308
 20
240.3919224847
 30
0.0
 40
8.403209742051798
100
AcDbArc
 50
1.6807517031
 51
28.1822863306
  0
LINE
  5
534
330
1F
100
AcDbEntity
  8
0
  6
Continuous
 62
     7
370
    30
100
AcDbLine
 10
557.5859177603
 20
364.6944989599
 30
0.0
 11
619.1856655951
 21
244.360575902
 31
0.0
  0
ARC
  5
535
330
1F
100
AcDbEntity
  8
0
  6
Continuous
 62
     7
370
    30
100
AcDbCircle
 10
549.6041573663
 20
360.8104309144
 30
0.0
 40
8.87662568598922
100
AcDbArc
 50
25.9483869339
 51
57.788055201
  0
LINE
  5
536
330
1F
100
AcDbEntity
  8
0
  6
Continuous
 62
     7
370
    30
100
AcDbLine
 10
543.8107225916
 20
374.3968208336
 30
0.0
 11
554.3358664378
 21
368.3207846232
 31
0.0
  0
ARC
  5
537
330
1F
100
AcDbEntity
  8
0
  6
Continuous
 62
     7
370
    30
100
AcDbCircle
 10
542.154528109
 20
372.3663634791
 30
0.0
 40
2.620255184570893
100
AcDbArc
 50
50.7967147643
 51
189.2140369905
  0
LINE
  5
538
330
1F
100
AcDbEntity
  8
0
  6
Continuous
 62
     7
370
    30
100
AcDbLine
 10
539.5680819045
 20
286.2100150497
 30
0.0
 11
539.5680819045
 21
371.9468002977
 31
0.0
  0
ARC
  5
539
330
1F
100
AcDbEntity
  8
0
  6
Continuous
 62
     7
370
    30
100
AcDbCircle
 10
548.7793785127
 20
286.6291801633
 30
0.0
 40
9.220828845432335
100
AcDbArc
 50
182.6054784857
 51
237.39452166
  0
LINE
  5
53A
330
1F
100
AcDbEntity
  8
0
  6
Continuous
 62
     7
370
    30
100
AcDbLine
 10
549.4173243094
 20
275.6249235647
 30
0.0
 11
543.8107225916
 21
278.8615458429
 31
0.0
  0
ARC
  5
53B
330
1F
100
AcDbEntity
  8
0
  6
Continuous
 62
     7
370
    30
100
AcDbCircle
 10
546.3632985295
 20
270.7288457444
 30
0.0
 40
5.770498374190305
100
AcDbArc
 50
28.8556088792
 51
58.0453283505
  0
LINE
  5
53C
330
1F
100
AcDbEntity
  8
0
  6
Continuous
 62
     7
370
    30
100
AcDbLine
 10
561.3670717777
 20
256.2802429868
 30
0.0
 11
551.4173243094
 21
273.5137110738
 31
0.0
  0
ARC
  5
53D
330
1F
100
AcDbEntity
  8
0
  6
Continuous
 62
     7
370
    30
100
AcDbCircle
 10
556.4276383021
 20
253.2954423024
 30
0.0
 40
5.771225015996138
100
AcDbArc
 50
1.956498643
 51
31.1437277994
  0
LINE
  5
53E
330
1F
100
AcDbEntity
  8
0
  6
Continuous
 62
     7
370
    30
100
AcDbLine
 10
562.1954989024
 20
247.0181792802
 30
0.0
 11
562.1954989024
 21
253.4924760065
 31
0.0
  0
ARC
  5
53F
330
1F
100
AcDbEntity
  8
0
  6
Continuous
 62
     7
370
    30
100
AcDbCircle
 10
571.4067955106
 20
247.4373443938
 30
0.0
 40
9.2208288454324
100
AcDbArc
 50
182.6054784857
 51
237.39452166
  0
LINE
  5
540
330
1F
100
AcDbEntity
  8
0
  6
Continuous
 62
     7
370
    30
100
AcDbLine
 10
615.9356142726
 20
211.0954261596
 30
0.0
 11
566.4381395896
 21
239.6697100734
 31
0.0
  0
LINE
  5
541
330
1F
100
AcDbEntity
  8
0
  6
Continuous
 62
     7
370
    30
100
AcDbLine
 10
528.2543734055
 20
410.3231568559
 30
0.0
 11
528.2543734055
 21
252.2524616285
 31
0.0
  0
LINE
  5
542
330
1F
100
AcDbEntity
  8
0
  6
Continuous
 62
     7
370
    30
100
AcDbLine
 10
550.6473574298
 20
397.3959623417
 30
0.0
 11
528.2543734055
 21
410.3231568559
 31
0.0
  0
ARC
  5
543
330
1F
100
AcDbEntity
  8
0
  6
Continuous
 62
     7
370
    30
100
AcDbCircle
 10
547.4928847155
 20
392.3890598691
 30
0.0
 40
5.917750457327282
100
AcDbArc
 50
25.9483869339
 51
57.788055201
  0
LINE
  5
544
330
1F
100
AcDbEntity
  8
0
  6
Continuous
 62
     7
370
    30
100
AcDbLine
 10
632.244450778
 20
239.8126940381
 30
0.0
 11
552.8140583115
 21
394.9784385661
 31
0.0
  0
ARC
  5
545
330
1F
100
AcDbEntity
  8
0
  6
Continuous
 62
     7
370
    30
100
AcDbCircle
 10
627.3064474018
 20
237.1669250933
 30
0.0
 40
5.602139828039051
100
AcDbArc
 50
1.6807517031
 51
28.1822863305
  0
LINE
  5
546
330
1F
100
AcDbEntity
  8
0
  6
Continuous
 62
     7
370
    30
100
AcDbLine
 10
632.9061770211
 20
188.2338758276
 30
0.0
 11
632.9061770211
 21
237.3312383425
 31
0.0
  0
LINE
  5
547
330
1F
100
AcDbEntity
  8
0
  6
Continuous
 62
     7
370
    30
100
AcDbLine
 10
531.375693749
 20
246.8461762227
 30
0.0
 11
632.9061770211
 21
188.2338758276
 31
0.0
  0
LINE
  5
548
330
1F
100
AcDbEntity
  8
0
  6
Continuous
 62
     7
370
    30
100
AcDbLine
 10
528.2543734055
 20
252.2524616285
 30
0.0
 11
531.375693749
 21
246.8461762227
 31
0.0
  0
LINE
  5
549
330
1F
100
AcDbEntity
  8
0
  6
Continuous
 62
     7
370
    30
100
AcDbLine
 10
554.0628403131
 20
395.59880249
 30
0.0
 11
633.4932327796
 21
240.433057962
 31
0.0
  0
ARC
  5
54A
330
1F
100
AcDbEntity
  8
0
  6
Continuous
 62
     7
370
    30
100
AcDbCircle
 10
627.9257097688
 20
250.0733164557
 30
0.0
 40
11.13247035931068
100
AcDbArc
 50
292.8264391676
 51
300.0076537827
  0
ARC
  5
54B
330
1F
100
AcDbEntity
  8
0
  6
Continuous
 62
     7
370
    30
100
AcDbCircle
 10
548.4953173023
 20
405.2390609837
 30
0.0
 40
11.13247035933571
100
AcDbArc
 50
292.8264391676
 51
300.0076537827
  0
LINE
  5
54C
330
1F
100
AcDbEntity
  8
0
  6
Continuous
 62
     7
370
    30
100
AcDbLine
 10
565.3765488121
 20
402.1300673846
 30
0.0
 11
554.0628403131
 21
395.59880249
 31
0.0
  0
LINE
  5
54D
330
1F
100
AcDbEntity
  8
0
  6
Continuous
 62
     7
370
    30
100
AcDbLine
 10
644.8069412786
 20
246.9643228566
 30
0.0
 11
565.3765488121
 21
402.1300673846
 31
0.0
  0
LINE
  5
54E
330
1F
100
AcDbEntity
  8
0
  6
Continuous
 62
     7
370
    30
100
AcDbLine
 10
633.4932327796
 20
240.433057962
 30
0.0
 11
644.8069412786
 21
246.9643228566
 31
0.0
  0
LWPOLYLINE
  5
54F
330
1F
100
AcDbEntity
  8
0
  6
Continuous
 62
     7
370
    30
100
AcDbPolyline
 90
       20
 70
   128
 43
0.0
 10
623.5684462511
 20
274.1371260913
 10
624.091673368
 20
274.5982770739
 10
624.4324694147
 20
275.2550688563
 10
624.5539038516
 20
276.0363278576
 10
624.4428173732
 20
276.8573925426
 10
624.1112479231
 20
277.6292878125
 10
623.595126196
 20
278.2683668377
 10
622.9503819896
 20
278.7053754894
 10
622.2468833429
 20
278.8929570992
 10
621.56086525
 20
278.8107842893
 10
620.9666684161
 20
278.4677617585
 10
620.528683288
 20
277.9010613207
 10
620.2943723504
 20
277.1720937615
 10
620.2891268291
 20
276.359854027
 10
620.5135151577
 20
275.5523608957
 10
620.9432213791
 20
274.837118778
 10
621.5316801565
 20
274.2916352553
 10
622.2151228507
 20
273.9750219314
 10
622.9194878409
 20
273.9215887728
 10
623.5684462511
 20
274.1371260913
  0
LWPOLYLINE
  5
550
330
1F
100
AcDbEntity
  8
0
  6
Continuous
 62
     7
370
    30
100
AcDbPolyline
 90
       20
 70
   128
 43
0.0
 10
600.4788567854
 20
319.2421951844
 10
601.0020839023
 20
319.7033461671
 10
601.342879949
 20
320.3601379494
 10
601.4643143859
 20
321.1413969508
 10
601.3532279075
 20
321.9624616358
 10
601.0216584574
 20
322.7343569057
 10
600.5055367303
 20
323.3734359308
 10
599.8607925239
 20
323.8104445825
 10
599.1572938771
 20
323.9980261924
 10
598.4712757843
 20
323.9158533824
 10
597.8770789504
 20
323.5728308517
 10
597.4390938223
 20
323.0061304138
 10
597.2047828847
 20
322.2771628546
 10
597.1995373634
 20
321.4649231201
 10
597.423925692
 20
320.6574299889
 10
597.8536319133
 20
319.9421878711
 10
598.4420906908
 20
319.3967043484
 10
599.1255333849
 20
319.0800910246
 10
599.8298983751
 20
319.026657866
 10
600.4788567854
 20
319.2421951844
  0
LWPOLYLINE
  5
551
330
1F
100
AcDbEntity
  8
0
  6
Continuous
 62
     7
370
    30
100
AcDbPolyline
 90
       20
 70
   128
 43
0.0
 10
577.3892673196
 20
364.3472642775
 10
577.9124944365
 20
364.8084152602
 10
578.2532904833
 20
365.4652070426
 10
578.3747249201
 20
366.2464660439
 10
578.2636384417
 20
367.0675307289
 10
577.9320689916
 20
367.8394259988
 10
577.4159472646
 20
368.478505024
 10
576.7712030582
 20
368.9155136756
 10
576.0677044114
 20
369.1030952855
 10
575.3816863185
 20
369.0209224756
 10
574.7874894846
 20
368.6778999448
 10
574.3495043565
 20
368.111199507
 10
574.115193419
 20
367.3822319477
 10
574.1099478976
 20
366.5699922133
 10
574.3343362262
 20
365.762499082
 10
574.7640424476
 20
365.0472569642
 10
575.3525012251
 20
364.5017734416
 10
576.0359439192
 20
364.1851601177
 10
576.7403089094
 20
364.1317269591
 10
577.3892673196
 20
364.3472642775
  0
LWPOLYLINE
  5
552
330
1F
100
AcDbEntity
  8
0
  6
Continuous
 62
     7
370
    30
100
AcDbPolyline
 90
       22
 70
   128
 43
0.0
 10
589.2169095235
 20
341.2421926346
 10
589.8145409086
 20
341.7494526818
 10
590.230844413
 20
342.4621269058
 10
590.4288296434
 20
343.3168910744
 10
590.3909047434
 20
344.2377956399
 10
590.1204395066
 20
345.1430141905
 10
589.6414659563
 20
345.9521140855
 10
588.9965429944
 20
346.5932032485
 10
588.2429748562
 20
347.009318094
 10
587.4477193778
 20
347.1634849919
 10
586.6814384984
 20
347.0420055368
 10
586.0122196368
 20
346.6556737113
 10
585.4995258258
 20
346.0388167936
 10
585.1889121603
 20
345.2462452278
 10
585.1079780277
 20
344.3483824756
 10
585.2639147808
 20
343.4250075829
 10
585.6428667548
 20
342.558166461
 10
586.2111624038
 20
341.8248817476
 10
586.9183061654
 20
341.2903090075
 10
587.7014652132
 20
341.0019473746
 10
588.4910524289
 20
340.9854190454
 10
589.2169095235
 20
341.2421926346
  0
LWPOLYLINE
  5
553
330
1F
100
AcDbEntity
  8
0
  6
Continuous
 62
     7
370
    30
100
AcDbPolyline
 90
       22
 70
   128
 43
0.0
 10
612.3064989892
 20
296.1371235414
 10
612.9041303743
 20
296.6443835887
 10
613.3204338787
 20
297.3570578127
 10
613.5184191092
 20
298.2118219812
 10
613.4804942091
 20
299.1327265468
 10
613.2100289723
 20
300.0379450974
 10
612.7310554221
 20
300.8470449924
 10
612.0861324601
 20
301.4881341554
 10
611.3325643219
 20
301.9042490009
 10
610.5373088435
 20
302.0584158988
 10
609.7710279641
 20
301.9369364437
 10
609.1018091025
 20
301.5506046182
 10
608.5891152915
 20
300.9337477004
 10
608.2785016261
 20
300.1411761346
 10
608.1975674935
 20
299.2433133825
 10
608.3535042466
 20
298.3199384897
 10
608.7324562206
 20
297.4530973678
 10
609.3007518695
 20
296.7198126544
 10
610.0078956311
 20
296.1852399144
 10
610.7910546789
 20
295.8968782815
 10
611.5806418947
 20
295.8803499523
 10
612.3064989892
 20
296.1371235414
  0
ARC
  5
554
330
1F
100
AcDbEntity
  8
0
  6
Continuous
 62
     7
370
    30
100
AcDbCircle
 10
547.4113733181
 20
392.3620791188
 30
0.0
 40
7.397188071660623
100
AcDbArc
 50
25.9483869339
 51
57.788055201
  0
ARC
  5
555
330
1F
100
AcDbEntity
  8
0
  6
Continuous
 62
     7
370
    30
100
AcDbCircle
 10
552.1825735312
 20
397.3261014894
 30
0.0
 40
1.53680480757252
100
AcDbArc
 50
122.60547834
 51
177.3945215143
  0
LINE
  5
556
330
1F
100
AcDbEntity
  8
0
  6
Continuous
 62
     7
370
    30
100
AcDbLine
 10
551.354464211
 20
398.6207072095
 30
0.0
 11
562.66817271
 21
405.1519721041
 31
0.0
  0
ARC
  5
557
330
1F
100
AcDbEntity
  8
0
  6
Continuous
 62
     7
370
    30
100
AcDbCircle
 10
558.7250818171
 20
398.8933440133
 30
0.0
 40
7.397188071659791
100
AcDbArc
 50
25.9483869339
 51
57.788055201
  0
ELLIPSE
  5
558
330
1F
100
AcDbEntity
  8
0
  6
Continuous
 62
     7
370
    30
100
AcDbEllipse
 10
528.9614801867
 20
410.7313609118
 30
0.0
 11
-0.7071355117875554
 21
1.224728280626266
 31
0.0
210
0.0
220
0.0
230
1.0
 40
0.5773346305
 41
6.283144675148568
 42
7.853941001943401
  0
LINE
  5
559
330
1F
100
AcDbEntity
  8
0
  6
Continuous
 62
     7
370
    30
100
AcDbLine
 10
528.2543734055
 20
411.9561057796
 30
0.0
 11
551.354464211
 21
398.6207072095
 31
0.0
  0
LINE
  5
55A
330
1F
100
AcDbEntity
  8
0
  6
Continuous
 62
     7
370
    30
100
AcDbLine
 10
539.5680819045
 20
418.4873706741
 30
0.0
 11
528.2543734055
 21
411.9561057796
 31
0.0
  0
LINE
  5
55B
330
1F
100
AcDbEntity
  8
0
  6
Continuous
 62
     7
370
    30
100
AcDbLine
 10
562.66817271
 20
405.1519721041
 30
0.0
 11
539.5680819045
 21
418.4873706741
 31
0.0
  0
LWPOLYLINE
  5
55C
330
1F
100
AcDbEntity
  8
0
  6
Continuous
 62
     7
370
    30
100
AcDbPolyline
 90
       20
 70
   128
 43
0.0
 10
544.6965152564
 20
411.0795692103
 10
544.0126209084
 20
411.3614537079
 10
543.2072339559
 20
411.4998723406
 10
542.367630572
 20
411.4798253015
 10
541.5847948112
 20
411.3034849986
 10
540.9435590751
 20
410.9899606397
 10
540.5134112056
 20
410.5732274541
 10
540.3409643986
 20
410.0984449486
 10
540.4449059416
 20
409.6170631748
 10
540.8139721555
 20
409.1812473173
 10
541.4081689894
 20
408.8382247865
 10
542.1631059964
 20
408.6251673963
 10
542.9969740378
 20
408.5651632208
 10
543.8194105725
 20
408.6647146434
 10
544.5412918405
 20
408.9130337229
 10
545.0843908054
 20
409.2832112339
 10
545.3898542671
 20
409.7351326992
 10
545.4245805199
 20
410.2198254157
 10
545.1848064355
 20
410.6847654068
 10
544.6965152564
 20
411.0795692103
  0
ELLIPSE
  5
55D
330
1F
100
AcDbEntity
  8
0
  6
Continuous
 62
     7
370
    30
100
AcDbEllipse
 10
540.2751886857
 20
417.2626258063
 30
0.0
 11
-0.7071355117875553
 21
1.224728280626209
 31
0.0
210
0.0
220
0.0
230
1.0
 40
0.5773346305
 41
5.49782777581335
 42
6.283144675148653
  0
ARC
  5
55E
330
1F
100
AcDbEntity
  8
0
  6
Continuous
 62
     7
370
    30
100
AcDbCircle
 10
627.3207285594
 20
237.125846781
 30
0.0
 40
7.002674785045713
100
AcDbArc
 50
1.6807517031
 51
28.1822863306
  0
ARC
  5
55F
330
1F
100
AcDbEntity
  8
0
  6
Continuous
 62
     7
370
    30
100
AcDbCircle
 10
633.6132838023
 20
238.6959494274
 30
0.0
 40
1.537021907911546
100
AcDbArc
 50
242.6096722366
 51
297.3903277634
  0
ARC
  5
560
330
1F
100
AcDbEntity
  8
0
  6
Continuous
 62
     7
370
    30
100
AcDbCircle
 10
638.6344370584
 20
243.6571116756
 30
0.0
 40
7.002674785043758
100
AcDbArc
 50
1.6807517031
 51
28.1822863306
  0
LINE
  5
561
330
1F
100
AcDbEntity
  8
0
  6
Continuous
 62
     7
370
    30
100
AcDbLine
 10
645.6340990824
 20
243.8625032371
 30
0.0
 11
634.3203905835
 21
237.3312383425
 31
0.0
  0
LINE
  5
562
330
1F
100
AcDbEntity
  8
0
  6
Continuous
 62
     7
370
    30
100
AcDbLine
 10
634.3203905835
 20
237.3312383425
 30
0.0
 11
634.3203905835
 21
187.4173350157
 31
0.0
  0
ELLIPSE
  5
563
330
1F
100
AcDbEntity
  8
0
  6
Continuous
 62
     7
370
    30
100
AcDbEllipse
 10
633.6132838023
 20
188.6420798835
 30
0.0
 11
-0.7071355117874419
 21
1.224728280626181
 31
0.0
210
0.0
220
0.0
230
1.0
 40
0.5773346305
 41
1.570755694763889
 42
3.141552021558802
  0
LINE
  5
564
330
1F
100
AcDbEntity
  8
0
  6
Continuous
 62
     7
370
    30
100
AcDbLine
 10
645.6340990824
 20
193.9485999103
 30
0.0
 11
645.6340990824
 21
243.8625032371
 31
0.0
  0
LINE
  5
565
330
1F
100
AcDbEntity
  8
0
  6
Continuous
 62
     7
370
    30
100
AcDbLine
 10
645.6340990824
 20
193.9485999103
 30
0.0
 11
634.3203905835
 21
187.4173350157
 31
0.0
  0
LWPOLYLINE
  5
566
330
1F
100
AcDbEntity
  8
0
  6
Continuous
 62
     7
370
    30
100
AcDbPolyline
 90
       20
 70
   128
 43
0.0
 10
641.7822763133
 20
233.2052632003
 10
641.6844747289
 20
233.8256018383
 10
641.4016682948
 20
234.2657978535
 10
640.9645034765
 20
234.4781491774
 10
640.4203538652
 20
234.4396442489
 10
639.8281865148
 20
234.1544556746
 10
639.2521719459
 20
233.6534880617
 10
638.7547302751
 20
232.9910290243
 10
638.3897670259
 20
232.2388662782
 10
638.1968316293
 20
231.478508328
 10
638.1968316293
 20
230.7923517558
 10
638.3897670259
 20
230.254752273
 10
638.7547302751
 20
229.9239671252
 10
639.2521719459
 20
229.8358420159
 10
639.8281865148
 20
229.999926668
 10
640.4203538652
 20
230.3984399636
 10
640.9645034765
 20
230.9881968033
 10
641.4016682948
 20
231.7052878827
 10
641.6844747289
 20
232.4720052565
 10
641.7822763133
 20
233.2052632003
  0
LWPOLYLINE
  5
567
330
1F
100
AcDbEntity
  8
0
  6
Continuous
 62
     7
370
    30
100
AcDbPolyline
 90
       20
 70
   128
 43
0.0
 10
641.7822763133
 20
212.4651265784
 10
641.6844747289
 20
213.0854652164
 10
641.4016682948
 20
213.5256612316
 10
640.9645034765
 20
213.7380125555
 10
640.4203538652
 20
213.699507627
 10
639.8281865148
 20
213.4143190527
 10
639.2521719459
 20
212.9133514398
 10
638.7547302751
 20
212.2508924024
 10
638.3897670259
 20
211.4987296563
 10
638.1968316293
 20
210.7383717061
 10
638.1968316293
 20
210.0522151339
 10
638.3897670259
 20
209.5146156511
 10
638.7547302751
 20
209.1838305033
 10
639.2521719459
 20
209.095705394
 10
639.8281865148
 20
209.2597900461
 10
640.4203538652
 20
209.6583033417
 10
640.9645034765
 20
210.2480601814
 10
641.4016682948
 20
210.9651512608
 10
641.6844747289
 20
211.7318686346
 10
641.7822763133
 20
212.4651265784
  0
ELLIPSE
  5
568
330
1F
100
AcDbEntity
  8
0
  6
Continuous
 62
     7
370
    30
100
AcDbEllipse
 10
528.9614801867
 20
252.6606656844
 30
0.0
 11
0.9963947603122277
 21
0.2669831720468493
 31
0.0
210
0.0
220
0.0
230
1.0
 40
0.3177652438
 41
3.056652579830482
 42
3.842050743228067
  0
ELLIPSE
  5
569
330
1F
100
AcDbEntity
  8
0
  6
Continuous
 62
     7
370
    30
100
AcDbEllipse
 10
644.9269923013
 20
195.1733447781
 30
0.0
 11
-0.7071355117874419
 21
1.224728280626181
 31
0.0
210
0.0
220
0.0
230
1.0
 40
0.5773346305
 41
3.141552021558802
 42
3.926950184956193
  0
ARC
  5
56A
330
1F
100
AcDbEntity
  8
0
  6
Continuous
 62
     7
370
    30
100
AcDbCircle
 10
540.2751886857
 20
373.3115113827
 30
0.0
 40
1.537021907912024
100
AcDbArc
 50
242.6096722366
 51
297.3903277634
  0
LINE
  5
56B
330
1F
100
AcDbEntity
  8
0
  6
Continuous
 62
     7
370
    30
100
AcDbLine
 10
540.9822954668
 20
371.9468002977
 30
0.0
 11
540.9822954668
 21
286.2100150497
 31
0.0
  0
ARC
  5
56C
330
1F
100
AcDbEntity
  8
0
  6
Continuous
 62
     7
370
    30
100
AcDbCircle
 10
540.2751886857
 20
287.5747261347
 30
0.0
 40
1.537021907911872
100
AcDbArc
 50
242.6096722366
 51
297.3903277634
  0
LINE
  5
56D
330
1F
100
AcDbEntity
  8
0
  6
Continuous
 62
     7
370
    30
100
AcDbLine
 10
540.9822954668
 20
286.2100150497
 30
0.0
 11
552.2960039658
 21
292.7412799443
 31
0.0
  0
LWPOLYLINE
  5
56E
330
1F
100
AcDbEntity
  8
0
  6
Continuous
 62
     7
370
    30
100
AcDbPolyline
 90
       11
 70
   128
 43
0.0
 10
544.3764080165
 20
305.6433678925
 10
544.487154478
 20
306.5147404238
 10
544.8085532273
 20
307.4286820833
 10
545.3091435154
 20
308.2957298935
 10
545.9399240772
 20
309.0310111738
 10
546.6391497163
 20
309.5625514694
 10
547.3383753554
 20
309.8383199127
 10
547.9691559172
 20
309.8313223671
 10
548.4697462053
 20
309.5422438011
 10
548.7911449546
 20
308.9993812388
 10
548.9018914161
 20
308.2558738503
  0
LINE
  5
56F
330
1F
100
AcDbEntity
  8
0
  6
Continuous
 62
     7
370
    30
100
AcDbLine
 10
544.3764080165
 20
297.4779597736
 30
0.0
 11
544.3764080165
 21
305.6433678925
 31
0.0
  0
LWPOLYLINE
  5
570
330
1F
100
AcDbEntity
  8
0
  6
Continuous
 62
     7
370
    30
100
AcDbPolyline
 90
       11
 70
   128
 43
0.0
 10
548.9018914161
 20
300.0904657314
 10
548.7911449546
 20
299.2190932001
 10
548.4697462053
 20
298.3051515406
 10
547.9691559172
 20
297.4381037304
 10
547.3383753554
 20
296.7028224501
 10
546.6391497163
 20
296.1712821545
 10
545.9399240772
 20
295.8955137112
 10
545.3091435154
 20
295.9025112568
 10
544.8085532273
 20
296.1915898228
 10
544.487154478
 20
296.7344523851
 10
544.3764080165
 20
297.4779597736
  0
LINE
  5
571
330
1F
100
AcDbEntity
  8
0
  6
Continuous
 62
     7
370
    30
100
AcDbLine
 10
548.9018914161
 20
308.2558738503
 30
0.0
 11
548.9018914161
 21
300.0904657314
 31
0.0
  0
ARC
  5
572
330
1F
100
AcDbEntity
  8
0
  6
Continuous
 62
     7
370
    30
100
AcDbCircle
 10
548.8827602089
 20
367.8323408466
 30
0.0
 40
4.506461845021547
100
AcDbArc
 50
110.6683364839
 51
179.6003035146
  0
LINE
  5
573
330
1F
100
AcDbEntity
  8
0
  6
Continuous
 62
     7
370
    30
100
AcDbLine
 10
548.8055073894
 20
371.175131796
 30
0.0
 11
548.9018914161
 21
370.476283716
 31
0.0
  0
LINE
  5
574
330
1F
100
AcDbEntity
  8
0
  6
Continuous
 62
     7
370
    30
100
AcDbLine
 10
544.3764080165
 20
359.6983696393
 30
0.0
 11
544.3764080165
 21
367.8637777581
 31
0.0
  0
LWPOLYLINE
  5
575
330
1F
100
AcDbEntity
  8
0
  6
Continuous
 62
     7
370
    30
100
AcDbPolyline
 90
       11
 70
   128
 43
0.0
 10
548.9018914161
 20
362.3108755971
 10
548.7911449546
 20
361.4395030658
 10
548.4697462053
 20
360.5255614063
 10
547.9691559172
 20
359.658513596
 10
547.3383753554
 20
358.9232323158
 10
546.6391497163
 20
358.3916920202
 10
545.9399240772
 20
358.1159235769
 10
545.3091435154
 20
358.1229211225
 10
544.8085532273
 20
358.4119996885
 10
544.487154478
 20
358.9548622508
 10
544.3764080165
 20
359.6983696393
  0
LINE
  5
576
330
1F
100
AcDbEntity
  8
0
  6
Continuous
 62
     7
370
    30
100
AcDbLine
 10
548.9018914161
 20
370.476283716
 30
0.0
 11
548.9018914161
 21
362.3108755971
 31
0.0
  0
LWPOLYLINE
  5
577
330
1F
100
AcDbEntity
  8
0
  6
Continuous
 62
     7
370
    30
100
AcDbPolyline
 90
       11
 70
   128
 43
0.0
 10
544.3764080165
 20
347.1236411363
 10
544.487154478
 20
347.9950136676
 10
544.8085532273
 20
348.9089553271
 10
545.3091435154
 20
349.7760031373
 10
545.9399240772
 20
350.5112844176
 10
546.6391497163
 20
351.0428247132
 10
547.3383753554
 20
351.3185931565
 10
547.9691559172
 20
351.3115956109
 10
548.4697462053
 20
351.0225170449
 10
548.7911449546
 20
350.4796544826
 10
548.9018914161
 20
349.7361470941
  0
LINE
  5
578
330
1F
100
AcDbEntity
  8
0
  6
Continuous
 62
     7
370
    30
100
AcDbLine
 10
544.3764080165
 20
338.9582330174
 30
0.0
 11
544.3764080165
 21
347.1236411363
 31
0.0
  0
LWPOLYLINE
  5
579
330
1F
100
AcDbEntity
  8
0
  6
Continuous
 62
     7
370
    30
100
AcDbPolyline
 90
       11
 70
   128
 43
0.0
 10
548.9018914161
 20
341.5707389752
 10
548.7911449546
 20
340.6993664439
 10
548.4697462053
 20
339.7854247844
 10
547.9691559172
 20
338.9183769741
 10
547.3383753554
 20
338.1830956939
 10
546.6391497163
 20
337.6515553983
 10
545.9399240772
 20
337.375786955
 10
545.3091435154
 20
337.3827845006
 10
544.8085532273
 20
337.6718630666
 10
544.487154478
 20
338.2147256289
 10
544.3764080165
 20
338.9582330174
  0
LINE
  5
57A
330
1F
100
AcDbEntity
  8
0
  6
Continuous
 62
     7
370
    30
100
AcDbLine
 10
548.9018914161
 20
349.7361470941
 30
0.0
 11
548.9018914161
 21
341.5707389752
 31
0.0
  0
LWPOLYLINE
  5
57B
330
1F
100
AcDbEntity
  8
0
  6
Continuous
 62
     7
370
    30
100
AcDbPolyline
 90
       11
 70
   128
 43
0.0
 10
544.3764080165
 20
326.3835045144
 10
544.487154478
 20
327.2548770457
 10
544.8085532273
 20
328.1688187052
 10
545.3091435154
 20
329.0358665154
 10
545.9399240772
 20
329.7711477957
 10
546.6391497163
 20
330.3026880913
 10
547.3383753554
 20
330.5784565346
 10
547.9691559172
 20
330.571458989
 10
548.4697462053
 20
330.282380423
 10
548.7911449546
 20
329.7395178607
 10
548.9018914161
 20
328.9960104722
  0
LINE
  5
57C
330
1F
100
AcDbEntity
  8
0
  6
Continuous
 62
     7
370
    30
100
AcDbLine
 10
544.3764080165
 20
318.2180963955
 30
0.0
 11
544.3764080165
 21
326.3835045144
 31
0.0
  0
LWPOLYLINE
  5
57D
330
1F
100
AcDbEntity
  8
0
  6
Continuous
 62
     7
370
    30
100
AcDbPolyline
 90
       11
 70
   128
 43
0.0
 10
548.9018914161
 20
320.8306023533
 10
548.7911449546
 20
319.959229822
 10
548.4697462053
 20
319.0452881625
 10
547.9691559172
 20
318.1782403523
 10
547.3383753554
 20
317.442959072
 10
546.6391497163
 20
316.9114187764
 10
545.9399240772
 20
316.6356503331
 10
545.3091435154
 20
316.6426478787
 10
544.8085532273
 20
316.9317264447
 10
544.487154478
 20
317.474589007
 10
544.3764080165
 20
318.2180963955
  0
LINE
  5
57E
330
1F
100
AcDbEntity
  8
0
  6
Continuous
 62
     7
370
    30
100
AcDbLine
 10
548.9018914161
 20
328.9960104722
 30
0.0
 11
548.9018914161
 21
320.8306023533
 31
0.0
  0
ARC
  5
57F
330
1F
100
AcDbEntity
  8
0
  6
Continuous
 62
     7
370
    30
100
AcDbCircle
 10
617.470830374
 20
211.0255653074
 30
0.0
 40
1.536804807571962
100
AcDbArc
 50
122.60547834
 51
177.3945215143
  0
ELLIPSE
  5
580
330
1F
100
AcDbEntity
  8
0
  6
Continuous
 62
     7
370
    30
100
AcDbEllipse
 10
532.0828005302
 20
247.2543802786
 30
0.0
 11
0.7293965376279629
 21
0.7294307619860944
 31
0.0
210
0.0
220
0.0
230
1.0
 40
0.3178881559
 41
2.441093931920615
 42
3.226573359380409
  0
ARC
  5
581
330
1F
100
AcDbEntity
  8
0
  6
Continuous
 62
     7
370
    30
100
AcDbCircle
 10
567.9733556909
 20
239.5998492212
 30
0.0
 40
1.536804807572361
100
AcDbArc
 50
122.60547834
 51
177.3945215143
  0
LINE
  5
582
330
1F
100
AcDbEntity
  8
0
  6
Continuous
 62
     7
370
    30
100
AcDbLine
 10
567.1452463707
 20
240.8944549412
 30
0.0
 11
616.6427210538
 21
212.3201710274
 31
0.0
  0
LINE
  5
583
330
1F
100
AcDbEntity
  8
0
  6
Continuous
 62
     7
370
    30
100
AcDbLine
 10
578.4589548697
 20
247.4257198358
 30
0.0
 11
567.1452463707
 21
240.8944549412
 31
0.0
  0
LWPOLYLINE
  5
584
330
1F
100
AcDbEntity
  8
0
  6
Continuous
 62
     7
370
    30
100
AcDbPolyline
 90
       22
 70
   128
 43
0.0
 10
616.9785967749
 20
221.2496347505
 10
616.2171106394
 20
221.5740717979
 10
615.3238020973
 20
221.7545216484
 10
614.378045533
 20
221.7749505408
 10
613.4638755674
 20
221.6335432783
 10
612.6625202138
 20
221.342864517
 10
612.045183412
 20
220.9287423401
 10
611.6667182461
 20
220.4279733207
 10
611.5607530069
 20
219.8850529835
 10
611.7367031709
 20
219.3482221832
 10
612.1789347938
 20
218.8651806922
 10
612.8481536554
 20
218.4788488667
 10
613.6848967229
 20
218.2235539849
 10
614.6148157028
 20
218.1219801173
 10
615.5552832128
 20
218.1831525478
 10
616.4227345875
 20
218.4016358375
 10
617.1400929656
 20
218.7580167874
 10
617.643617907
 20
219.220629386
 10
617.888569011
 20
219.7483684739
 10
617.8531812971
 20
220.2943421171
 10
617.540599119
 20
220.8100381616
 10
616.9785967749
 20
221.2496347505
  0
LWPOLYLINE
  5
585
330
1F
100
AcDbEntity
  8
0
  6
Continuous
 62
     7
370
    30
100
AcDbPolyline
 90
       22
 70
   128
 43
0.0
 10
599.0180845327
 20
231.6180177706
 10
598.2565983972
 20
231.9424548181
 10
597.3632898552
 20
232.1229046685
 10
596.4175332908
 20
232.1433335609
 10
595.5033633252
 20
232.0019262985
 10
594.7020079716
 20
231.7112475371
 10
594.0846711699
 20
231.2971253603
 10
593.706206004
 20
230.7963563408
 10
593.6002407648
 20
230.2534360037
 10
593.7761909287
 20
229.7166052033
 10
594.2184225517
 20
229.2335637123
 10
594.8876414133
 20
228.8472318868
 10
595.7243844807
 20
228.591937005
 10
596.6543034606
 20
228.4903631374
 10
597.5947709707
 20
228.5515355679
 10
598.4622223454
 20
228.7700188577
 10
599.1795807234
 20
229.1263998075
 10
599.6831056648
 20
229.5890124062
 10
599.9280567689
 20
230.1167514941
 10
599.892669055
 20
230.6627251373
 10
599.5800868768
 20
231.1784211817
 10
599.0180845327
 20
231.6180177706
  0
LWPOLYLINE
  5
586
330
1F
100
AcDbEntity
  8
0
  6
Continuous
 62
     7
370
    30
100
AcDbPolyline
 90
       22
 70
   128
 43
0.0
 10
581.0575722906
 20
241.9864007908
 10
580.2960861551
 20
242.3108378382
 10
579.4027776131
 20
242.4912876887
 10
578.4570210487
 20
242.5117165811
 10
577.5428510831
 20
242.3703093186
 10
576.7414957295
 20
242.0796305572
 10
576.1241589278
 20
241.6655083804
 10
575.7456937619
 20
241.164739361
 10
575.6397285226
 20
240.6218190238
 10
575.8156786866
 20
240.0849882235
 10
576.2579103096
 20
239.6019467325
 10
576.9271291711
 20
239.215614907
 10
577.7638722386
 20
238.9603200251
 10
578.6937912185
 20
238.8587461575
 10
579.6342587285
 20
238.9199185881
 10
580.5017101033
 20
239.1384018778
 10
581.2190684813
 20
239.4947828277
 10
581.7225934227
 20
239.9573954263
 10
581.9675445267
 20
240.4851345142
 10
581.9321568128
 20
241.0311081574
 10
581.6195746347
 20
241.5468042018
 10
581.0575722906
 20
241.9864007908
  0
LINE
  5
587
330
1F
100
AcDbEntity
  8
0
  6
Continuous
 62
     7
370
    30
100
AcDbLine
 10
552.6244310906
 20
274.2106528189
 30
0.0
 11
562.5741785589
 21
256.9771847318
 31
0.0
  0
LWPOLYLINE
  5
588
330
1F
100
AcDbEntity
  8
0
  6
Continuous
 62
     7
370
    30
100
AcDbPolyline
 90
        9
 70
   128
 43
0.0
 10
562.5741785589
 20
256.9771847318
 10
562.4266215094
 20
256.8920000574
 10
562.2655202751
 20
256.7989929547
 10
562.0970658858
 20
256.7017376347
 10
561.9277319495
 20
256.6039715646
 10
561.7640258742
 20
256.5094518398
 10
561.6122387926
 20
256.4218108003
 10
561.4782037972
 20
256.344416442
 10
561.3670717777
 20
256.2802429868
  0
LWPOLYLINE
  5
589
330
1F
100
AcDbEntity
  8
0
  6
Continuous
 62
     7
370
    30
100
AcDbPolyline
 90
        9
 70
   128
 43
0.0
 10
552.6244310906
 20
274.2106528189
 10
552.4768740411
 20
274.1254681444
 10
552.3157728068
 20
274.0324610418
 10
552.1473184175
 20
273.9352057217
 10
551.9779844812
 20
273.8374396516
 10
551.8142784059
 20
273.7429199268
 10
551.6624913243
 20
273.6552788873
 10
551.5284563289
 20
273.577884529
 10
551.4173243094
 20
273.5137110738
  0
LINE
  5
58A
330
1F
100
AcDbEntity
  8
0
  6
Continuous
 62
     7
370
    30
100
AcDbLine
 10
563.9381395896
 20
280.7419177134
 30
0.0
 11
552.6244310906
 21
274.2106528189
 31
0.0
  0
LINE
  5
58B
330
1F
100
AcDbEntity
  8
0
  6
Continuous
 62
     7
370
    30
100
AcDbLine
 10
573.8878870579
 20
263.5084496264
 30
0.0
 11
563.9381395896
 21
280.7419177134
 31
0.0
  0
LINE
  5
58C
330
1F
100
AcDbEntity
  8
0
  6
Continuous
 62
     7
370
    30
100
AcDbLine
 10
562.5741785589
 20
256.9771847318
 30
0.0
 11
573.8878870579
 21
263.5084496264
 31
0.0
  0
ARC
  5
58D
330
1F
100
AcDbEntity
  8
0
  6
Continuous
 62
     7
370
    30
100
AcDbCircle
 10
556.3998867144
 20
253.2461838763
 30
0.0
 40
7.214031269994483
100
AcDbArc
 50
1.956498643
 51
31.1437277994
  0
ARC
  5
58E
330
1F
100
AcDbEntity
  8
0
  6
Continuous
 62
     7
370
    30
100
AcDbCircle
 10
562.9026056836
 20
254.8571870915
 30
0.0
 40
1.537021907911595
100
AcDbArc
 50
242.6096722366
 51
297.3903277634
  0
ARC
  5
58F
330
1F
100
AcDbEntity
  8
0
  6
Continuous
 62
     7
370
    30
100
AcDbCircle
 10
546.3068988657
 20
270.7295711571
 30
0.0
 40
7.213122967734641
100
AcDbArc
 50
28.8556088792
 51
58.0453283505
  0
ARC
  5
590
330
1F
100
AcDbEntity
  8
0
  6
Continuous
 62
     7
370
    30
100
AcDbCircle
 10
550.9525404108
 20
275.5550627124
 30
0.0
 40
1.536804807571975
100
AcDbArc
 50
122.60547834
 51
177.3945215143
  0
ARC
  5
591
330
1F
100
AcDbEntity
  8
0
  6
Continuous
 62
     7
370
    30
100
AcDbCircle
 10
567.7135952134
 20
259.7774487709
 30
0.0
 40
7.214031269994476
100
AcDbArc
 50
1.956498643
 51
31.1437277994
  0
LINE
  5
592
330
1F
100
AcDbEntity
  8
0
  6
Continuous
 62
     7
370
    30
100
AcDbLine
 10
574.9234209638
 20
260.0237409011
 30
0.0
 11
563.6097124648
 21
253.4924760065
 31
0.0
  0
LINE
  5
593
330
1F
100
AcDbEntity
  8
0
  6
Continuous
 62
     7
370
    30
100
AcDbLine
 10
550.1244310906
 20
276.8496684325
 30
0.0
 11
561.4381395896
 21
283.3809333271
 31
0.0
  0
ARC
  5
594
330
1F
100
AcDbEntity
  8
0
  6
Continuous
 62
     7
370
    30
100
AcDbCircle
 10
557.6206073647
 20
277.2608360517
 30
0.0
 40
7.213122967734472
100
AcDbArc
 50
28.8556088792
 51
58.0453283505
  0
LINE
  5
595
330
1F
100
AcDbEntity
  8
0
  6
Continuous
 62
     7
370
    30
100
AcDbLine
 10
563.6097124648
 20
253.4924760065
 30
0.0
 11
563.6097124648
 21
247.0181792802
 31
0.0
  0
ARC
  5
596
330
1F
100
AcDbEntity
  8
0
  6
Continuous
 62
     7
370
    30
100
AcDbCircle
 10
562.9026056836
 20
248.3828903652
 30
0.0
 40
1.537021907911872
100
AcDbArc
 50
242.6096722366
 51
297.3903277634
  0
LINE
  5
597
330
1F
100
AcDbEntity
  8
0
  6
Continuous
 62
     7
370
    30
100
AcDbLine
 10
544.5178293728
 20
280.0862907107
 30
0.0
 11
550.1244310906
 21
276.8496684325
 31
0.0
  0
ARC
  5
598
330
1F
100
AcDbEntity
  8
0
  6
Continuous
 62
     7
370
    30
100
AcDbCircle
 10
545.345938693
 20
278.7916849907
 30
0.0
 40
1.536804807571962
100
AcDbArc
 50
122.60547834
 51
177.3945215143
  0
LINE
  5
599
330
1F
100
AcDbEntity
  8
0
  6
Continuous
 62
     7
370
    30
100
AcDbLine
 10
574.9234209638
 20
253.5494441748
 30
0.0
 11
574.9234209638
 21
260.0237409011
 31
0.0
  0
LINE
  5
59A
330
1F
100
AcDbEntity
  8
0
  6
Continuous
 62
     7
370
    30
100
AcDbLine
 10
563.6097124648
 20
247.0181792802
 30
0.0
 11
574.9234209638
 21
253.5494441748
 31
0.0
  0
LINE
  5
59B
330
1F
100
AcDbEntity
  8
0
  6
Continuous
 62
     7
370
    30
100
AcDbLine
 10
555.8315378718
 20
286.6175556053
 30
0.0
 11
544.5178293728
 21
280.0862907107
 31
0.0
  0
LINE
  5
59C
330
1F
100
AcDbEntity
  8
0
  6
Continuous
 62
     7
370
    30
100
AcDbLine
 10
561.4381395896
 20
283.3809333271
 30
0.0
 11
555.8315378718
 21
286.6175556053
 31
0.0
  0
ARC
  5
59D
330
1F
100
AcDbEntity
  8
0
  6
Continuous
 62
     7
370
    30
100
AcDbCircle
 10
571.2857929716
 20
247.3674835415
 30
0.0
 40
7.684024037860169
100
AcDbArc
 50
182.6054784857
 51
237.39452166
  0
ARC
  5
59E
330
1F
100
AcDbEntity
  8
0
  6
Continuous
 62
     7
370
    30
100
AcDbCircle
 10
548.6583759737
 20
286.559319311
 30
0.0
 40
7.684024037860198
100
AcDbArc
 50
182.6054784857
 51
237.39452166
  0
ARC
  5
59F
330
1F
100
AcDbEntity
  8
0
  6
Continuous
 62
     7
370
    30
100
AcDbCircle
 10
582.5995014706
 20
253.8987484361
 30
0.0
 40
7.684024037860636
100
AcDbArc
 50
182.6054784857
 51
237.39452166
  0
ARC
  5
5A0
330
1F
100
AcDbEntity
  8
0
  6
Continuous
 62
     7
370
    30
100
AcDbCircle
 10
559.9720844727
 20
293.0905842056
 30
0.0
 40
7.684024037860522
100
AcDbArc
 50
182.6054784857
 51
237.39452166
  0
ARC
  5
5A1
330
1F
100
AcDbEntity
  8
0
  6
Continuous
 62
     8
370
    30
100
AcDbCircle
 10
564.9961581733
 20
403.0455075551
 30
0.0
 40
0.9913262549852319
100
AcDbArc
 50
292.5642321797
 51
317.3275164309
  0
ARC
  5
5A2
330
1F
100
AcDbEntity
  8
0
  6
Continuous
 62
     8
370
    30
100
AcDbCircle
 10
644.4265506398
 20
247.8797630271
 30
0.0
 40
0.9913262549835637
100
AcDbArc
 50
292.5642321797
 51
317.327516431
  0
LWPOLYLINE
  5
5A3
330
1F
100
AcDbEntity
  8
0
  6
Continuous
 62
     8
370
    30
100
AcDbPolyline
 90
        5
 70
   128
 43
0.0
 10
619.1856655951
 20
244.360575902
 10
619.0935768605
 20
244.3270290915
 10
619.0322007613
 20
244.310458519
 10
619.0038959467
 20
244.3115009825
 10
619.0026248826
 20
244.3131074446
  0
LWPOLYLINE
  5
5A4
330
1F
100
AcDbEntity
  8
0
  6
Continuous
 62
     8
370
    30
100
AcDbPolyline
 90
        5
 70
   128
 43
0.0
 10
557.5859177603
 20
364.6944989599
 10
557.4938290257
 20
364.6609521494
 10
557.4324529265
 20
364.6443815769
 10
557.4041481119
 20
364.6454240404
 10
557.4028770478
 20
364.6470305025
  0
ARC
  5
5A5
330
1F
100
AcDbEntity
  8
0
  6
Continuous
 62
     8
370
    30
100
AcDbCircle
 10
562.9611049416
 20
404.7430568705
 30
0.0
 40
0.5030118891090279
100
AcDbArc
 50
65.7057553036
 51
125.6164559358
  0
ARC
  5
5A6
330
1F
100
AcDbEntity
  8
0
  6
Continuous
 62
     8
370
    30
100
AcDbCircle
 10
554.8371900712
 20
368.2716347131
 30
0.0
 40
0.5037272070357856
100
AcDbArc
 50
174.4006001778
 51
234.0615628699
  0
ARC
  5
5A7
330
1F
100
AcDbEntity
  8
0
  6
Continuous
 62
     8
370
    30
100
AcDbCircle
 10
544.2864081473
 20
374.3362568049
 30
0.0
 40
0.4795255462447491
100
AcDbArc
 50
172.7441704257
 51
235.9436491809
  0
ARC
  5
5A8
330
1F
100
AcDbEntity
  8
0
  6
Continuous
 62
     8
370
    30
100
AcDbCircle
 10
645.4488206063
 20
244.304613081
 30
0.0
 40
0.4793633568025703
100
AcDbArc
 50
292.7374819117
 51
355.959118831
  0
ARC
  5
5A9
330
1F
100
AcDbEntity
  8
0
  6
Continuous
 62
     8
370
    30
100
AcDbCircle
 10
620.3858439595
 20
241.0965325201
 30
0.0
 40
0.5029767394442383
100
AcDbArc
 50
185.708711514
 51
245.6241291273
  0
ARC
  5
5AA
330
1F
100
AcDbEntity
  8
0
  6
Continuous
 62
     8
370
    30
100
AcDbCircle
 10
543.430529147
 20
372.2175894156
 30
0.0
 40
2.463163595679459
100
AcDbArc
 50
124.873863511
 51
186.3115973573
  0
ARC
  5
5AB
330
1F
100
AcDbEntity
  8
0
  6
Continuous
 62
     8
370
    30
100
AcDbCircle
 10
620.3858188034
 20
214.0035571283
 30
0.0
 40
0.5029392784939694
100
AcDbArc
 50
185.6947992512
 51
245.6253417064
  0
LINE
  5
5AC
330
1F
100
AcDbEntity
  8
0
  6
Continuous
 62
     8
370
    30
100
AcDbLine
 10
544.2255444845
 20
373.8190881028
 30
0.0
 11
540.9822954668
 21
371.9468002977
 31
0.0
  0
LINE
  5
5AD
330
1F
100
AcDbEntity
  8
0
  6
Continuous
 62
     8
370
    30
100
AcDbLine
 10
552.2960039658
 20
292.7412799443
 30
0.0
 11
552.2960039658
 21
369.1601110134
 31
0.0
  0
LINE
  5
5AE
330
1F
100
AcDbEntity
  8
0
  6
Continuous
 62
     8
370
    30
100
AcDbLine
 10
548.9018914161
 20
370.476283716
 30
0.0
 11
546.6387819572
 21
371.7827489977
 31
0.0
  0
ARC
  5
5AF
330
1F
100
AcDbEntity
  8
0
  6
Continuous
 62
     8
370
    30
100
AcDbCircle
 10
552.0884401221
 20
293.1993903771
 30
0.0
 40
0.5029392784939694
100
AcDbArc
 50
294.3746582936
 51
354.3052007488
  0
LINE
  5
5B0
330
1F
100
AcDbEntity
  8
0
  6
Continuous
 62
     8
370
    30
100
AcDbLine
 10
548.9018914161
 20
362.3108755971
 30
0.0
 11
544.3764080165
 21
364.923381555
 31
0.0
  0
ARC
  5
5B1
330
1F
100
AcDbEntity
  8
0
  6
Continuous
 62
     8
370
    30
100
AcDbCircle
 10
618.1079782162
 20
214.3664067746
 30
0.0
 40
2.516755706262821
100
AcDbArc
 50
234.3945161212
 51
294.1684089776
  0
LINE
  5
5B2
330
1F
100
AcDbEntity
  8
0
  6
Continuous
 62
     8
370
    30
100
AcDbLine
 10
616.6427210538
 20
212.3201710274
 30
0.0
 11
619.8853617409
 21
214.1921076508
 31
0.0
  0
LINE
  5
5B3
330
1F
100
AcDbEntity
  8
0
  6
Continuous
 62
     8
370
    30
100
AcDbLine
 10
548.9018914161
 20
349.7361470941
 30
0.0
 11
546.6387819572
 21
351.0426123758
 31
0.0
  0
LINE
  5
5B4
330
1F
100
AcDbEntity
  8
0
  6
Continuous
 62
     8
370
    30
100
AcDbLine
 10
619.8853617409
 20
223.5107641932
 30
0.0
 11
578.4589548697
 21
247.4257198358
 31
0.0
  0
LINE
  5
5B5
330
1F
100
AcDbEntity
  8
0
  6
Continuous
 62
     8
370
    30
100
AcDbLine
 10
548.9018914161
 20
341.5707389752
 30
0.0
 11
544.3764080165
 21
344.1832449331
 31
0.0
  0
ARC
  5
5B6
330
1F
100
AcDbEntity
  8
0
  6
Continuous
 62
     8
370
    30
100
AcDbCircle
 10
578.7518749246
 20
247.0168385067
 30
0.0
 40
0.5029772359014995
100
AcDbArc
 50
65.6928809539
 51
125.6175774752
  0
LINE
  5
5B7
330
1F
100
AcDbEntity
  8
0
  6
Continuous
 62
     8
370
    30
100
AcDbLine
 10
548.9018914161
 20
328.9960104722
 30
0.0
 11
546.6387819572
 21
330.3024757539
 31
0.0
  0
LINE
  5
5B8
330
1F
100
AcDbEntity
  8
0
  6
Continuous
 62
     8
370
    30
100
AcDbLine
 10
548.9018914161
 20
320.8306023533
 30
0.0
 11
544.3764080165
 21
323.4431083112
 31
0.0
  0
LINE
  5
5B9
330
1F
100
AcDbEntity
  8
0
  6
Continuous
 62
     8
370
    30
100
AcDbLine
 10
548.9018914161
 20
308.2558738503
 30
0.0
 11
546.6387819572
 21
309.5623391321
 31
0.0
  0
LINE
  5
5BA
330
1F
100
AcDbEntity
  8
0
  6
Continuous
 62
     8
370
    30
100
AcDbLine
 10
548.9018914161
 20
300.0904657314
 30
0.0
 11
544.3764080165
 21
302.7029716893
 31
0.0
  0
LWPOLYLINE
  5
5BB
330
1F
100
AcDbEntity
  8
0
  6
Continuous
 62
     8
370
    30
100
AcDbPolyline
 90
        6
 70
   128
 43
0.0
 10
563.9381395896
 20
280.7419177134
 10
564.0664819194
 20
280.8160063604
 10
564.1706774059
 20
280.8761517948
 10
564.2467218749
 20
280.9200426612
 10
564.2916929801
 20
280.9459922583
 10
564.3041649927
 20
280.9531800254
  0
LWPOLYLINE
  5
5BC
330
1F
100
AcDbEntity
  8
0
  6
Continuous
 62
     8
370
    30
100
AcDbPolyline
 90
        6
 70
   128
 43
0.0
 10
573.8878870579
 20
263.5084496264
 10
574.0162293877
 20
263.5825382734
 10
574.1204248742
 20
263.6426837078
 10
574.1964693432
 20
263.6865745742
 10
574.2414404485
 20
263.7125241713
 10
574.253912461
 20
263.7197119384
  0
ARC
  5
5BD
330
1F
100
AcDbEntity
  8
0
  6
Continuous
 62
     8
370
    30
100
AcDbCircle
 10
574.7381424878
 20
260.4658507449
 30
0.0
 40
0.4793633566128231
100
AcDbArc
 50
292.7374818977
 51
355.959118845
  0
ARC
  5
5BE
330
1F
100
AcDbEntity
  8
0
  6
Continuous
 62
     8
370
    30
100
AcDbCircle
 10
561.7310733036
 20
282.9720139661
 30
0.0
 40
0.503016107686999
100
AcDbArc
 50
65.7073223255
 51
125.616319413
  0
ARC
  5
5BF
330
1F
100
AcDbEntity
  8
0
  6
Continuous
 62
     8
370
    30
100
AcDbCircle
 10
574.7158571201
 20
254.0075546076
 30
0.0
 40
0.5029392784936781
100
AcDbArc
 50
294.3746582936
 51
354.3052007488
  0
ARC
  5
5C0
330
1F
100
AcDbEntity
  8
0
  6
Continuous
 62
     8
370
    30
100
AcDbCircle
 10
556.1244579266
 20
286.2086742762
 30
0.0
 40
0.5029772359019139
100
AcDbArc
 50
65.6928809539
 51
125.6175774752
  0
ENDSEC
  0
SECTION
  2
OBJECTS
  0
DICTIONARY
  5
C
330
0
100
AcDbDictionary
281
     1
  3
ACAD_GROUP
350
D
  3
ACAD_LAYOUT
350
1A
  3
ACAD_MLINESTYLE
350
17
  3
ACAD_PLOTSETTINGS
350
19
  3
ACAD_PLOTSTYLENAME
350
E
  3
ACAD_SCALELIST
350
47
  0
DICTIONARY
  5
D
102
{ACAD_REACTORS
330
C
102
}
330
C
100
AcDbDictionary
281
     1
  0
DICTIONARY
  5
1A
102
{ACAD_REACTORS
330
C
102
}
330
C
100
AcDbDictionary
281
     1
  3
Layout1
350
1E
  3
Layout2
350
26
  3
Model
350
22
  0
DICTIONARY
  5
17
102
{ACAD_REACTORS
330
C
102
}
330
C
100
AcDbDictionary
281
     1
  3
Standard
350
18
  0
DICTIONARY
  5
19
102
{ACAD_REACTORS
330
C
102
}
330
C
100
AcDbDictionary
281
     1
  0
ACDBDICTIONARYWDFLT
  5
E
102
{ACAD_REACTORS
330
C
102
}
330
C
100
AcDbDictionary
281
     1
  3
Normal
350
F
100
AcDbDictionaryWithDefault
340
F
  0
DICTIONARY
  5
47
102
{ACAD_REACTORS
330
C
102
}
330
C
100
AcDbDictionary
281
     1
  3
A0
350
48
  3
A1
350
49
  3
A2
350
4A
  3
A3
350
4B
  3
A4
350
4C
  3
A5
350
4D
  3
A6
350
4E
  3
A7
350
4F
  3
A8
350
50
  3
A9
350
51
  3
B0
350
52
  3
B1
350
53
  3
B2
350
54
  3
B3
350
55
  3
B4
350
56
  3
B5
350
57
  3
B6
350
58
  3
B7
350
59
  3
B8
350
5A
  3
B9
350
5B
  3
C0
350
5C
  3
C1
350
5D
  3
C2
350
5E
  3
C3
350
5F
  3
C4
350
60
  3
C5
350
61
  3
C6
350
62
  3
C7
350
63
  3
C8
350
64
  3
C9
350
65
  3
D0
350
66
  3
D1
350
67
  3
D2
350
68
  0
LAYOUT
  5
1E
102
{ACAD_REACTORS
330
1A
102
}
330
1A
100
AcDbPlotSettings
  1

  2
none_device
  4

  6

 40
0.0
 41
0.0
 42
0.0
 43
0.0
 44
0.0
 45
0.0
 46
0.0
 47
0.0
 48
0.0
 49
0.0
140
0.0
141
0.0
142
1.0
143
1.0
 70
   688
 72
     1
 73
     0
 74
     5
  7

 75
    16
147
1.0
148
0.0
149
0.0
100
AcDbLayout
  1
Layout1
 70
     1
 71
     1
 10
0.0
 20
0.0
 11
420.0
 21
297.0
 12
0.0
 22
0.0
 32
0.0
 14
1.0000000000E+20
 24
1.0000000000E+20
 34
1.0000000000E+20
 15
-1.0000000000E+20
 25
-1.0000000000E+20
 35
-1.0000000000E+20
146
0.0
 13
0.0
 23
0.0
 33
0.0
 16
1.0
 26
0.0
 36
0.0
 17
0.0
 27
1.0
 37
0.0
 76
     0
330
1B
  0
LAYOUT
  5
26
102
{ACAD_REACTORS
330
1A
102
}
330
1A
100
AcDbPlotSettings
  1

  2
none_device
  4

  6

 40
0.0
 41
0.0
 42
0.0
 43
0.0
 44
0.0
 45
0.0
 46
0.0
 47
0.0
 48
0.0
 49
0.0
140
0.0
141
0.0
142
1.0
143
1.0
 70
   688
 72
     1
 73
     0
 74
     5
  7

 75
    16
147
1.0
148
0.0
149
0.0
100
AcDbLayout
  1
Layout2
 70
     1
 71
     2
 10
0.0
 20
0.0
 11
0.0
 21
0.0
 12
0.0
 22
0.0
 32
0.0
 14
0.0
 24
0.0
 34
0.0
 15
0.0
 25
0.0
 35
0.0
146
0.0
 13
0.0
 23
0.0
 33
0.0
 16
1.0
 26
0.0
 36
0.0
 17
0.0
 27
1.0
 37
0.0
 76
     0
330
23
  0
LAYOUT
  5
22
102
{ACAD_REACTORS
330
1A
102
}
330
1A
100
AcDbPlotSettings
  1

  2
none_device
  4
Letter_(8.50_x_11.00_Inches)
  6

 40
6.35
 41
6.35
 42
6.35000508
 43
6.35000508
 44
215.9
 45
279.4
 46
0.0
 47
0.0
 48
0.0
 49
0.0
140
0.0
141
0.0
142
1.0
143
1.0
 70
  1712
 72
     1
 73
     0
 74
     0
  7

 75
     0
147
1.0
148
0.0
149
0.0
100
AcDbLayout
  1
Model
 70
     1
 71
     0
 10
0.0
 20
0.0
 11
742.5
 21
525.0
 12
0.0
 22
0.0
 32
0.0
 14
0.0
 24
0.0
 34
0.0
 15
742.5
 25
525.0
 35
0.0
146
0.0
 13
0.0
 23
0.0
 33
0.0
 16
1.0
 26
0.0
 36
0.0
 17
0.0
 27
1.0
 37
0.0
 76
     0
330
1F
331
29
  0
MLINESTYLE
  5
18
102
{ACAD_REACTORS
330
17
102
}
330
17
100
AcDbMlineStyle
  2
Standard
 70
     0
  3

 62
   256
 51
90.0
 52
90.0
 71
     2
 49
0.5
 62
   256
  6
BYLAYER
 49
-0.5
 62
   256
  6
BYLAYER
  0
ACDBPLACEHOLDER
  5
F
102
{ACAD_REACTORS
330
E
102
}
330
E
  0
SCALE
  5
48
102
{ACAD_REACTORS
330
47
102
}
330
47
100
AcDbScale
 70
     0
300
1:1
140
1.0
141
1.0
290
     1
  0
SCALE
  5
49
102
{ACAD_REACTORS
330
47
102
}
330
47
100
AcDbScale
 70
     0
300
1:2
140
1.0
141
2.0
290
     0
  0
SCALE
  5
4A
102
{ACAD_REACTORS
330
47
102
}
330
47
100
AcDbScale
 70
     0
300
1:4
140
1.0
141
4.0
290
     0
  0
SCALE
  5
4B
102
{ACAD_REACTORS
330
47
102
}
330
47
100
AcDbScale
 70
     0
300
1:5
140
1.0
141
5.0
290
     0
  0
SCALE
  5
4C
102
{ACAD_REACTORS
330
47
102
}
330
47
100
AcDbScale
 70
     0
300
1:8
140
1.0
141
8.0
290
     0
  0
SCALE
  5
4D
102
{ACAD_REACTORS
330
47
102
}
330
47
100
AcDbScale
 70
     0
300
1:10
140
1.0
141
10.0
290
     0
  0
SCALE
  5
4E
102
{ACAD_REACTORS
330
47
102
}
330
47
100
AcDbScale
 70
     0
300
1:16
140
1.0
141
16.0
290
     0
  0
SCALE
  5
4F
102
{ACAD_REACTORS
330
47
102
}
330
47
100
AcDbScale
 70
     0
300
1:20
140
1.0
141
20.0
290
     0
  0
SCALE
  5
50
102
{ACAD_REACTORS
330
47
102
}
330
47
100
AcDbScale
 70
     0
300
1:30
140
1.0
141
30.0
290
     0
  0
SCALE
  5
51
102
{ACAD_REACTORS
330
47
102
}
330
47
100
AcDbScale
 70
     0
300
1:40
140
1.0
141
40.0
290
     0
  0
SCALE
  5
52
102
{ACAD_REACTORS
330
47
102
}
330
47
100
AcDbScale
 70
     0
300
1:50
140
1.0
141
50.0
290
     0
  0
SCALE
  5
53
102
{ACAD_REACTORS
330
47
102
}
330
47
100
AcDbScale
 70
     0
300
1:100
140
1.0
141
100.0
290
     0
  0
SCALE
  5
54
102
{ACAD_REACTORS
330
47
102
}
330
47
100
AcDbScale
 70
     0
300
2:1
140
2.0
141
1.0
290
     0
  0
SCALE
  5
55
102
{ACAD_REACTORS
330
47
102
}
330
47
100
AcDbScale
 70
     0
300
4:1
140
4.0
141
1.0
290
     0
  0
SCALE
  5
56
102
{ACAD_REACTORS
330
47
102
}
330
47
100
AcDbScale
 70
     0
300
8:1
140
8.0
141
1.0
290
     0
  0
SCALE
  5
57
102
{ACAD_REACTORS
330
47
102
}
330
47
100
AcDbScale
 70
     0
300
10:1
140
10.0
141
1.0
290
     0
  0
SCALE
  5
58
102
{ACAD_REACTORS
330
47
102
}
330
47
100
AcDbScale
 70
     0
300
100:1
140
100.0
141
1.0
290
     0
  0
SCALE
  5
59
102
{ACAD_REACTORS
330
47
102
}
330
47
100
AcDbScale
 70
     0
300
1/128" = 1'-0"
140
0.0078125
141
12.0
290
     0
  0
SCALE
  5
5A
102
{ACAD_REACTORS
330
47
102
}
330
47
100
AcDbScale
 70
     0
300
1/64" = 1'-0"
140
0.015625
141
12.0
290
     0
  0
SCALE
  5
5B
102
{ACAD_REACTORS
330
47
102
}
330
47
100
AcDbScale
 70
     0
300
1/32" = 1'-0"
140
0.03125
141
12.0
290
     0
  0
SCALE
  5
5C
102
{ACAD_REACTORS
330
47
102
}
330
47
100
AcDbScale
 70
     0
300
1/16" = 1'-0"
140
0.0625
141
12.0
290
     0
  0
SCALE
  5
5D
102
{ACAD_REACTORS
330
47
102
}
330
47
100
AcDbScale
 70
     0
300
3/32" = 1'-0"
140
0.09375
141
12.0
290
     0
  0
SCALE
  5
5E
102
{ACAD_REACTORS
330
47
102
}
330
47
100
AcDbScale
 70
     0
300
1/8" = 1'-0"
140
0.125
141
12.0
290
     0
  0
SCALE
  5
5F
102
{ACAD_REACTORS
330
47
102
}
330
47
100
AcDbScale
 70
     0
300
3/16" = 1'-0"
140
0.1875
141
12.0
290
     0
  0
SCALE
  5
60
102
{ACAD_REACTORS
330
47
102
}
330
47
100
AcDbScale
 70
     0
300
1/4" = 1'-0"
140
0.25
141
12.0
290
     0
  0
SCALE
  5
61
102
{ACAD_REACTORS
330
47
102
}
330
47
100
AcDbScale
 70
     0
300
3/8" = 1'-0"
140
0.375
141
12.0
290
     0
  0
SCALE
  5
62
102
{ACAD_REACTORS
330
47
102
}
330
47
100
AcDbScale
 70
     0
300
1/2" = 1'-0"
140
0.5
141
12.0
290
     0
  0
SCALE
  5
63
102
{ACAD_REACTORS
330
47
102
}
330
47
100
AcDbScale
 70
     0
300
3/4" = 1'-0"
140
0.75
141
12.0
290
     0
  0
SCALE
  5
64
102
{ACAD_REACTORS
330
47
102
}
330
47
100
AcDbScale
 70
     0
300
1" = 1'-0"
140
1.0
141
12.0
290
     0
  0
SCALE
  5
65
102
{ACAD_REACTORS
330
47
102
}
330
47
100
AcDbScale
 70
     0
300
1-1/2" = 1'-0"
140
1.5
141
12.0
290
     0
  0
SCALE
  5
66
102
{ACAD_REACTORS
330
47
102
}
330
47
100
AcDbScale
 70
     0
300
3" = 1'-0"
140
3.0
141
12.0
290
     0
  0
SCALE
  5
67
102
{ACAD_REACTORS
330
47
102
}
330
47
100
AcDbScale
 70
     0
300
6" = 1'-0"
140
6.0
141
12.0
290
     0
  0
SCALE
  5
68
102
{ACAD_REACTORS
330
47
102
}
330
47
100
AcDbScale
 70
     0
300
1'-0" = 1'-0"
140
12.0
141
12.0
290
     0
  0
ENDSEC
  0
EOF
