  0
SECTION
  2
HEADER
  9
$ACADVER
  1
AC1015
  9
$ACADMAINTVER
 70
     6
  9
$DWGCODEPAGE
  3
ANSI_950
  9
$INSBASE
 10
0.0
 20
0.0
 30
0.0
  9
$EXTMIN
 10
0.0
 20
0.0
 30
0.0
  9
$EXTMAX
 10
297.0
 20
210.0
 30
0.0
  9
$LIMMIN
 10
0.0
 20
0.0
  9
$LIMMAX
 10
297.0
 20
210.0
  9
$ORTHOMODE
 70
     0
  9
$REGENMODE
 70
     1
  9
$FILLMODE
 70
     1
  9
$QTEXTMODE
 70
     0
  9
$MIRRTEXT
 70
     1
  9
$LTSCALE
 40
1.0
  9
$ATTMODE
 70
     1
  9
$TEXTSIZE
 40
3.175
  9
$TRACEWID
 40
1.0
  9
$TEXTSTYLE
  7
Standard
  9
$CLAYER
  8
0
  9
$CELTYPE
  6
ByLayer
  9
$CECOLOR
 62
   256
  9
$CELTSCALE
 40
1.0
  9
$DISPSILH
 70
     0
  9
$DIMSCALE
 40
1.0
  9
$DIMASZ
 40
2.0
  9
$DIMEXO
 40
1.0
  9
$DIMDLI
 40
3.75
  9
$DIMRND
 40
0.0
  9
$DIMDLE
 40
0.0
  9
$DIMEXE
 40
1.0
  9
$DIMTP
 40
0.0
  9
$DIMTM
 40
0.0
  9
$DIMTXT
 40
3.175
  9
$DIMCEN
 40
2.5
  9
$DIMTSZ
 40
0.0
  9
$DIMTOL
 70
     0
  9
$DIMLIM
 70
     0
  9
$DIMTIH
 70
     1
  9
$DIMTOH
 70
     1
  9
$DIMSE1
 70
     0
  9
$DIMSE2
 70
     0
  9
$DIMTAD
 70
     1
  9
$DIMZIN
 70
     0
  9
$DIMBLK
  1

  9
$DIMASO
 70
     1
  9
$DIMSHO
 70
     1
  9
$DIMPOST
  1

  9
$DIMAPOST
  1

  9
$DIMALT
 70
     0
  9
$DIMALTD
 70
     3
  9
$DIMALTF
 40
0.0393700787
  9
$DIMLFAC
 40
1.0
  9
$DIMTOFL
 70
     1
  9
$DIMTVP
 40
0.0
  9
$DIMTIX
 70
     0
  9
$DIMSOXD
 70
     0
  9
$DIMSAH
 70
     0
  9
$DIMBLK1
  1

  9
$DIMBLK2
  1

  9
$DIMSTYLE
  2
ISO-25
  9
$DIMCLRD
 70
     0
  9
$DIMCLRE
 70
     0
  9
$DIMCLRT
 70
     0
  9
$DIMTFAC
 40
1.0
  9
$DIMGAP
 40
1.0
  9
$DIMJUST
 70
     0
  9
$DIMSD1
 70
     0
  9
$DIMSD2
 70
     0
  9
$DIMTOLJ
 70
     0
  9
$DIMTZIN
 70
     0
  9
$DIMALTZ
 70
     0
  9
$DIMALTTZ
 70
     0
  9
$DIMUPT
 70
     0
  9
$DIMDEC
 70
     2
  9
$DIMTDEC
 70
     2
  9
$DIMALTU
 70
     2
  9
$DIMALTTD
 70
     3
  9
$DIMTXSTY
  7
Standard
  9
$DIMAUNIT
 70
     0
  9
$DIMADEC
 70
     2
  9
$DIMALTRND
 40
0.0
  9
$DIMAZIN
 70
     0
  9
$DIMDSEP
 70
    44
  9
$DIMATFIT
 70
     3
  9
$DIMFRAC
 70
     0
  9
$DIMLDRBLK
  1

  9
$DIMLUNIT
 70
     2
  9
$DIMLWD
 70
    -2
  9
$DIMLWE
 70
    -2
  9
$DIMTMOVE
 70
     0
  9
$LUNITS
 70
     2
  9
$LUPREC
 70
     2
  9
$SKETCHINC
 40
1.0
  9
$FILLETRAD
 40
10.0
  9
$AUNITS
 70
     0
  9
$AUPREC
 70
     2
  9
$MENU
  1
.
  9
$ELEVATION
 40
0.0
  9
$PELEVATION
 40
0.0
  9
$THICKNESS
 40
0.0
  9
$LIMCHECK
 70
     0
  9
$CHAMFERA
 40
0.0
  9
$CHAMFERB
 40
0.0
  9
$CHAMFERC
 40
0.0
  9
$CHAMFERD
 40
0.0
  9
$SKPOLY
 70
     0
  9
$TDCREATE
 40
2459212.601925764
  9
$TDUCREATE
 40
2459212.268592431
  9
$TDUPDATE
 40
2459212.60192853
  9
$TDUUPDATE
 40
2459212.268595197
  9
$TDINDWG
 40
0.0000000116
  9
$TDUSRTIMER
 40
0.0000000116
  9
$USRTIMER
 70
     1
  9
$ANGBASE
 50
0.0
  9
$ANGDIR
 70
     0
  9
$PDMODE
 70
     0
  9
$PDSIZE
 40
-1.0
  9
$PLINEWID
 40
0.0
  9
$SPLFRAME
 70
     0
  9
$SPLINETYPE
 70
     6
  9
$SPLINESEGS
 70
     8
  9
$HANDSEED
  5
479
  9
$SURFTAB1
 70
     6
  9
$SURFTAB2
 70
     6
  9
$SURFTYPE
 70
     6
  9
$SURFU
 70
     6
  9
$SURFV
 70
     6
  9
$UCSBASE
  2

  9
$UCSNAME
  2

  9
$UCSORG
 10
0.0
 20
0.0
 30
0.0
  9
$UCSXDIR
 10
1.0
 20
0.0
 30
0.0
  9
$UCSYDIR
 10
0.0
 20
1.0
 30
0.0
  9
$UCSORTHOREF
  2

  9
$UCSORTHOVIEW
 70
     0
  9
$UCSORGTOP
 10
0.0
 20
0.0
 30
0.0
  9
$UCSORGBOTTOM
 10
0.0
 20
0.0
 30
0.0
  9
$UCSORGLEFT
 10
0.0
 20
0.0
 30
0.0
  9
$UCSORGRIGHT
 10
0.0
 20
0.0
 30
0.0
  9
$UCSORGFRONT
 10
0.0
 20
0.0
 30
0.0
  9
$UCSORGBACK
 10
0.0
 20
0.0
 30
0.0
  9
$PUCSBASE
  2

  9
$PUCSNAME
  2

  9
$PUCSORG
 10
0.0
 20
0.0
 30
0.0
  9
$PUCSXDIR
 10
1.0
 20
0.0
 30
0.0
  9
$PUCSYDIR
 10
0.0
 20
1.0
 30
0.0
  9
$PUCSORTHOREF
  2

  9
$PUCSORTHOVIEW
 70
     0
  9
$PUCSORGTOP
 10
0.0
 20
0.0
 30
0.0
  9
$PUCSORGBOTTOM
 10
0.0
 20
0.0
 30
0.0
  9
$PUCSORGLEFT
 10
0.0
 20
0.0
 30
0.0
  9
$PUCSORGRIGHT
 10
0.0
 20
0.0
 30
0.0
  9
$PUCSORGFRONT
 10
0.0
 20
0.0
 30
0.0
  9
$PUCSORGBACK
 10
0.0
 20
0.0
 30
0.0
  9
$USERI1
 70
     0
  9
$USERI2
 70
     0
  9
$USERI3
 70
     0
  9
$USERI4
 70
     0
  9
$USERI5
 70
     0
  9
$USERR1
 40
0.0
  9
$USERR2
 40
0.0
  9
$USERR3
 40
0.0
  9
$USERR4
 40
0.0
  9
$USERR5
 40
0.0
  9
$WORLDVIEW
 70
     1
  9
$SHADEDGE
 70
     3
  9
$SHADEDIF
 70
    70
  9
$TILEMODE
 70
     1
  9
$MAXACTVP
 70
    64
  9
$PINSBASE
 10
0.0
 20
0.0
 30
0.0
  9
$PLIMCHECK
 70
     0
  9
$PEXTMIN
 10
1.0000000000E+20
 20
1.0000000000E+20
 30
1.0000000000E+20
  9
$PEXTMAX
 10
-1.0000000000E+20
 20
-1.0000000000E+20
 30
-1.0000000000E+20
  9
$PLIMMIN
 10
0.0
 20
0.0
  9
$PLIMMAX
 10
420.0
 20
297.0
  9
$UNITMODE
 70
     0
  9
$VISRETAIN
 70
     1
  9
$PLINEGEN
 70
     0
  9
$PSLTSCALE
 70
     1
  9
$TREEDEPTH
 70
  3020
  9
$CMLSTYLE
  2
Standard
  9
$CMLJUST
 70
     0
  9
$CMLSCALE
 40
20.0
  9
$PROXYGRAPHICS
 70
     1
  9
$MEASUREMENT
 70
     1
  9
$CELWEIGHT
370
    -1
  9
$ENDCAPS
280
     0
  9
$JOINSTYLE
280
     0
  9
$LWDISPLAY
290
     1
  9
$INSUNITS
 70
     4
  9
$HYPERLINKBASE
  1

  9
$STYLESHEET
  1

  9
$XEDIT
290
     1
  9
$CEPSNTYPE
380
     0
  9
$PSTYLEMODE
290
     1
  9
$FINGERPRINTGUID
  2
{52170e85-231d-4037-afaf-f6dd9ca5e645}
  9
$VERSIONGUID
  2
{FAEB1C32-E019-11D5-929B-00C0DF256EC4}
  9
$EXTNAMES
290
     1
  9
$PSVPSCALE
 40
0.0
  9
$OLESTARTUP
290
     0
  0
ENDSEC
  0
SECTION
  2
CLASSES
  0
CLASS
  1
ACDBDICTIONARYWDFLT
  2
AcDbDictionaryWithDefault
  3
ObjectDBX Classes
 90
        0
280
     0
281
     0
  0
CLASS
  1
VISUALSTYLE
  2
AcDbVisualStyle
  3
ObjectDBX Classes
 90
     4095
280
     0
281
     0
  0
CLASS
  1
MATERIAL
  2
AcDbMaterial
  3
ObjectDBX Classes
 90
     1153
280
     0
281
     0
  0
CLASS
  1
SCALE
  2
AcDbScale
  3
ObjectDBX Classes
 90
     1153
280
     0
281
     0
  0
CLASS
  1
TABLESTYLE
  2
AcDbTableStyle
  3
ObjectDBX Classes
 90
     4095
280
     0
281
     0
  0
CLASS
  1
MLEADERSTYLE
  2
AcDbMLeaderStyle
  3
ACDB_MLEADERSTYLE_CLASS
 90
     4095
280
     0
281
     0
  0
CLASS
  1
SUN
  2
AcDbSun
  3
SCENEOE
 90
     1153
280
     0
281
     0
  0
CLASS
  1
ACDBPLACEHOLDER
  2
AcDbPlaceHolder
  3
ObjectDBX Classes
 90
        0
280
     0
281
     0
  0
CLASS
  1
LAYOUT
  2
AcDbLayout
  3
ObjectDBX Classes
 90
        0
280
     0
281
     0
  0
ENDSEC
  0
SECTION
  2
TABLES
  0
TABLE
  2
VPORT
  5
8
330
0
100
AcDbSymbolTable
 70
     1
  0
VPORT
  5
29
330
8
100
AcDbSymbolTableRecord
100
AcDbViewportTableRecord
  2
*Active
 70
     0
 10
0.0
 20
0.0
 11
1.0
 21
1.0
 12
148.5
 22
105.0
 13
0.0
 23
0.0
 14
10.0
 24
10.0
 15
10.0
 25
10.0
 16
0.0
 26
0.0
 36
1.0
 17
0.0
 27
0.0
 37
0.0
 40
210.0
 41
1.4142857143
 42
50.0
 43
0.0
 44
0.0
 50
0.0
 51
0.0
 71
     0
 72
  2000
 73
     1
 74
     3
 75
     0
 76
     0
 77
     0
 78
     0
281
     0
 65
     1
110
0.0
120
0.0
130
0.0
111
1.0
121
0.0
131
0.0
112
0.0
122
1.0
132
0.0
 79
     0
146
0.0
  0
ENDTAB
  0
TABLE
  2
LTYPE
  5
5
330
0
100
AcDbSymbolTable
 70
     6
  0
LTYPE
  5
14
330
5
100
AcDbSymbolTableRecord
100
AcDbLinetypeTableRecord
  2
ByBlock
 70
     0
  3

 72
    65
 73
     0
 40
0.0
  0
LTYPE
  5
15
330
5
100
AcDbSymbolTableRecord
100
AcDbLinetypeTableRecord
  2
ByLayer
 70
     0
  3

 72
    65
 73
     0
 40
0.0
  0
LTYPE
  5
16
330
5
100
AcDbSymbolTableRecord
100
AcDbLinetypeTableRecord
  2
Continuous
 70
     0
  3
Solid line
 72
    65
 73
     0
 40
0.0
  0
LTYPE
  5
6E
330
5
100
AcDbSymbolTableRecord
100
AcDbLinetypeTableRecord
  2
HIDDEN
 70
     0
  3
Hidden __ __ __ __ __ __ __ __ __ __ __ __ __ __
 72
    65
 73
     2
 40
1.905
 49
1.27
 74
     0
 49
-0.635
 74
     0
  0
LTYPE
  5
6F
330
5
100
AcDbSymbolTableRecord
100
AcDbLinetypeTableRecord
  2
PHANTOM
 70
     0
  3
Phantom ______  __  __  ______  __  __  ______
 72
    65
 73
     6
 40
12.7
 49
6.35
 74
     0
 49
-1.27
 74
     0
 49
1.27
 74
     0
 49
-1.27
 74
     0
 49
1.27
 74
     0
 49
-1.27
 74
     0
  0
LTYPE
  5
70
330
5
100
AcDbSymbolTableRecord
100
AcDbLinetypeTableRecord
  2
CENTER
 70
     0
  3
Center ____ _ ____ _ ____ _ ____ _ ____ _ ____
 72
    65
 73
     4
 40
10.16
 49
6.35
 74
     0
 49
-1.27
 74
     0
 49
1.27
 74
     0
 49
-1.27
 74
     0
  0
LTYPE
  5
71
330
5
100
AcDbSymbolTableRecord
100
AcDbLinetypeTableRecord
  2
CENTERX2
 70
     0
  3
Center (2x) ________  __  ________  __  _____
 72
    65
 73
     4
 40
20.32
 49
12.7
 74
     0
 49
-2.54
 74
     0
 49
2.54
 74
     0
 49
-2.54
 74
     0
  0
LTYPE
  5
72
330
5
100
AcDbSymbolTableRecord
100
AcDbLinetypeTableRecord
  2
DOT2
 70
     0
  3
Dot (.5x) ........................................
 72
    65
 73
     2
 40
0.635
 49
0.0
 74
     0
 49
-0.635
 74
     0
  0
ENDTAB
  0
TABLE
  2
LAYER
  5
2
330
0
100
AcDbSymbolTable
 70
    10
  0
LAYER
  5
10
330
2
100
AcDbSymbolTableRecord
100
AcDbLayerTableRecord
  2
0
 70
     0
 62
     7
  6
Continuous
370
    -3
390
F
  0
LAYER
  5
73
330
2
100
AcDbSymbolTableRecord
100
AcDbLayerTableRecord
  2
SLD-0
 70
     0
 62
     7
  6
Continuous
370
    25
390
F
  0
LAYER
  5
74
330
2
100
AcDbSymbolTableRecord
100
AcDbLayerTableRecord
  2
輪廓線
 70
     0
 62
   219
  6
Continuous
370
    25
390
F
  0
LAYER
  5
75
330
2
100
AcDbSymbolTableRecord
100
AcDbLayerTableRecord
  2
DIM
 70
     0
 62
     7
  6
Continuous
370
    -3
390
F
  0
LAYER
  5
76
330
2
100
AcDbSymbolTableRecord
100
AcDbLayerTableRecord
  2
中心線
 70
     0
 62
     7
  6
CENTERX2
370
    -3
390
F
  0
LAYER
  5
77
330
2
100
AcDbSymbolTableRecord
100
AcDbLayerTableRecord
  2
虛線
 70
     0
 62
     7
  6
HIDDEN
370
    -3
390
F
  0
LAYER
  5
78
330
2
100
AcDbSymbolTableRecord
100
AcDbLayerTableRecord
  2
SECTION
 70
     0
 62
     7
  6
PHANTOM
370
    25
390
F
  0
LAYER
  5
79
330
2
100
AcDbSymbolTableRecord
100
AcDbLayerTableRecord
  2
假想線
 70
     0
 62
     7
  6
PHANTOM
370
    -3
390
F
  0
LAYER
  5
7A
330
2
100
AcDbSymbolTableRecord
100
AcDbLayerTableRecord
  2
圖層_1
 70
     0
 62
   179
  6
Continuous
370
    -3
390
F
  0
LAYER
  5
7B
330
2
100
AcDbSymbolTableRecord
100
AcDbLayerTableRecord
  2
工作區域參考線
 70
     0
 62
   179
  6
Continuous
370
    -3
390
F
  0
ENDTAB
  0
TABLE
  2
STYLE
  5
3
330
0
100
AcDbSymbolTable
 70
     3
  0
STYLE
  5
11
330
3
100
AcDbSymbolTableRecord
100
AcDbTextStyleTableRecord
  2
Standard
 70
     0
 40
0.0
 41
1.0
 50
0.0
 71
     0
 42
3.175
  3
txt
  4

  0
STYLE
  5
CC
330
3
100
AcDbSymbolTableRecord
100
AcDbTextStyleTableRecord
  2
SLDTEXTSTYLE0
 70
     0
 40
0.0
 41
0.605
 50
0.0
 71
     0
 42
3.175
  3
TXT
  4

  0
STYLE
  5
103
330
3
100
AcDbSymbolTableRecord
100
AcDbTextStyleTableRecord
  2
SLDTEXTSTYLE1
 70
     0
 40
0.0
 41
0.7
 50
0.0
 71
     0
 42
3.175
  3
TXT
  4

  0
ENDTAB
  0
TABLE
  2
VIEW
  5
6
330
0
100
AcDbSymbolTable
 70
     0
  0
ENDTAB
  0
TABLE
  2
UCS
  5
7
330
0
100
AcDbSymbolTable
 70
     0
  0
ENDTAB
  0
TABLE
  2
APPID
  5
9
330
0
100
AcDbSymbolTable
 70
     1
  0
APPID
  5
12
330
9
100
AcDbSymbolTableRecord
100
AcDbRegAppTableRecord
  2
ACAD
 70
     0
  0
ENDTAB
  0
TABLE
  2
DIMSTYLE
  5
A
330
0
100
AcDbSymbolTable
 70
     6
100
AcDbDimStyleTable
  0
DIMSTYLE
105
27
330
A
100
AcDbSymbolTableRecord
100
AcDbDimStyleTableRecord
  2
ISO-25
 70
     0
 41
2.5
 42
0.625
 43
3.75
 44
1.25
 73
     0
 74
     0
 77
     1
 78
     8
140
2.5
141
2.5
143
0.0393700787
147
0.625
171
     3
172
     1
178
     0
271
     2
272
     2
274
     3
278
    44
283
     0
284
     8
340
11
  0
DIMSTYLE
105
270
102
{ACAD_REACTORS
330
26F
102
}
330
A
100
AcDbSymbolTableRecord
100
AcDbDimStyleTableRecord
  2
SLDDIMSTYLE0
 70
     0
 41
2.0
 44
0.0
 73
     0
 74
     0
 77
     1
 78
    12
 79
     3
140
2.5424804688
147
0.6356201172
173
     1
178
     0
179
     2
272
     2
276
     2
284
    12
340
103
  0
DIMSTYLE
105
27B
102
{ACAD_REACTORS
330
27A
330
286
330
291
330
29C
330
2A7
330
2B2
330
2BD
330
44B
102
}
330
A
100
AcDbSymbolTableRecord
100
AcDbDimStyleTableRecord
  2
SLDDIMSTYLE1
 70
     0
 41
2.0
 44
0.0
 45
0.000000001
 73
     0
 74
     0
 77
     1
 78
    12
 79
     3
140
2.5424804688
147
0.6356201172
173
     1
178
     0
271
     2
272
     2
276
     2
284
    12
340
103
  0
DIMSTYLE
105
2C9
102
{ACAD_REACTORS
330
2C8
102
}
330
A
100
AcDbSymbolTableRecord
100
AcDbDimStyleTableRecord
  2
SLDDIMSTYLE2
 70
     0
 41
2.0
 44
0.0
 45
0.000000001
 78
    12
 79
     3
140
2.5424804688
141
0.0
147
0.6356201172
172
     1
173
     1
178
     0
271
     2
272
     2
276
     2
284
    12
340
103
  0
DIMSTYLE
105
2D5
102
{ACAD_REACTORS
330
2D4
330
455
102
}
330
A
100
AcDbSymbolTableRecord
100
AcDbDimStyleTableRecord
  2
SLDDIMSTYLE3
 70
     0
 41
2.0
 44
0.0
 45
0.000000001
 78
    12
 79
     3
140
2.5424804688
141
0.0
147
0.6356201172
172
     1
173
     1
178
     0
271
     2
272
     2
276
     2
284
    12
340
103
341
2D6
343
2D6
  0
DIMSTYLE
105
2E8
330
A
100
AcDbSymbolTableRecord
100
AcDbDimStyleTableRecord
  2
SLDDIMSTYLE4
 70
     0
 41
2.0
 44
0.0
 45
0.000000001
146
2.0
147
0.0
173
     1
178
     0
271
     0
272
     0
276
     2
340
11
  0
ENDTAB
  0
TABLE
  2
BLOCK_RECORD
  5
1
330
0
100
AcDbSymbolTable
 70
    21
  0
BLOCK_RECORD
  5
1F
330
1
100
AcDbSymbolTableRecord
100
AcDbBlockTableRecord
  2
*Model_Space
340
22
  0
BLOCK_RECORD
  5
1B
330
1
100
AcDbSymbolTableRecord
100
AcDbBlockTableRecord
  2
*Paper_Space
340
1E
  0
BLOCK_RECORD
  5
23
330
1
100
AcDbSymbolTableRecord
100
AcDbBlockTableRecord
  2
*Paper_Space0
340
26
  0
BLOCK_RECORD
  5
7C
330
1
100
AcDbSymbolTableRecord
100
AcDbBlockTableRecord
  2
圖塊6
340
0
102
{BLKREFS
331
CB
102
}
  0
BLOCK_RECORD
  5
CE
330
1
100
AcDbSymbolTableRecord
100
AcDbBlockTableRecord
  2
SW_NOTE_0
340
0
102
{BLKREFS
331
D4
102
}
  0
BLOCK_RECORD
  5
105
330
1
100
AcDbSymbolTableRecord
100
AcDbBlockTableRecord
  2
SW_NOTE_0_1
340
0
102
{BLKREFS
331
10A
102
}
  0
BLOCK_RECORD
  5
10B
330
1
100
AcDbSymbolTableRecord
100
AcDbBlockTableRecord
  2
SW_TABLEANNOTATION_0
340
0
102
{BLKREFS
331
11C
102
}
  0
BLOCK_RECORD
  5
271
330
1
100
AcDbSymbolTableRecord
100
AcDbBlockTableRecord
  2
_D
340
0
  0
BLOCK_RECORD
  5
27C
330
1
100
AcDbSymbolTableRecord
100
AcDbBlockTableRecord
  2
_D_1
340
0
  0
BLOCK_RECORD
  5
287
330
1
100
AcDbSymbolTableRecord
100
AcDbBlockTableRecord
  2
_D_2
340
0
  0
BLOCK_RECORD
  5
292
330
1
100
AcDbSymbolTableRecord
100
AcDbBlockTableRecord
  2
_D_3
340
0
  0
BLOCK_RECORD
  5
29D
330
1
100
AcDbSymbolTableRecord
100
AcDbBlockTableRecord
  2
_D_4
340
0
  0
BLOCK_RECORD
  5
2A8
330
1
100
AcDbSymbolTableRecord
100
AcDbBlockTableRecord
  2
_D_5
340
0
  0
BLOCK_RECORD
  5
2B3
330
1
100
AcDbSymbolTableRecord
100
AcDbBlockTableRecord
  2
_D_6
340
0
  0
BLOCK_RECORD
  5
2BE
330
1
100
AcDbSymbolTableRecord
100
AcDbBlockTableRecord
  2
_D_7
340
0
  0
BLOCK_RECORD
  5
2CA
330
1
100
AcDbSymbolTableRecord
100
AcDbBlockTableRecord
  2
_D_8
340
0
  0
BLOCK_RECORD
  5
2D6
330
1
100
AcDbSymbolTableRecord
100
AcDbBlockTableRecord
  2
_None
340
0
  0
BLOCK_RECORD
  5
2D9
330
1
100
AcDbSymbolTableRecord
100
AcDbBlockTableRecord
  2
_D_9
340
0
  0
BLOCK_RECORD
  5
2E2
330
1
100
AcDbSymbolTableRecord
100
AcDbBlockTableRecord
  2
SW_NOTE_0_2
340
0
102
{BLKREFS
331
2E7
102
}
  0
BLOCK_RECORD
  5
44C
330
1
100
AcDbSymbolTableRecord
100
AcDbBlockTableRecord
  2
_D_10
340
0
  0
BLOCK_RECORD
  5
456
330
1
100
AcDbSymbolTableRecord
100
AcDbBlockTableRecord
  2
_D_11
340
0
  0
BLOCK_RECORD
  5
460
330
1
100
AcDbSymbolTableRecord
100
AcDbBlockTableRecord
  2
SW_CENTERMARKSYMBOL_0
340
0
102
{BLKREFS
331
46B
102
}
  0
BLOCK_RECORD
  5
46C
330
1
100
AcDbSymbolTableRecord
100
AcDbBlockTableRecord
  2
SW_CENTERMARKSYMBOL_1
340
0
102
{BLKREFS
331
477
102
}
  0
ENDTAB
  0
ENDSEC
  0
SECTION
  2
BLOCKS
  0
BLOCK
  5
20
330
1F
100
AcDbEntity
  8
0
100
AcDbBlockBegin
  2
*Model_Space
 70
     0
 10
0.0
 20
0.0
 30
0.0
  3
*Model_Space
  1

  0
ENDBLK
  5
21
330
1F
100
AcDbEntity
  8
0
100
AcDbBlockEnd
  0
BLOCK
  5
1C
330
1B
100
AcDbEntity
 67
     1
  8
0
100
AcDbBlockBegin
  2
*Paper_Space
 70
     0
 10
0.0
 20
0.0
 30
0.0
  3
*Paper_Space
  1

  0
ENDBLK
  5
1D
330
1B
100
AcDbEntity
 67
     1
  8
0
100
AcDbBlockEnd
  0
BLOCK
  5
24
330
23
100
AcDbEntity
  8
0
100
AcDbBlockBegin
  2
*Paper_Space0
 70
     0
 10
0.0
 20
0.0
 30
0.0
  3
*Paper_Space0
  1

  0
ENDBLK
  5
25
330
23
100
AcDbEntity
  8
0
100
AcDbBlockEnd
  0
BLOCK
  5
7D
330
7C
100
AcDbEntity
  8
0
100
AcDbBlockBegin
  2
圖塊6
 70
     0
 10
0.0
 20
0.0
 30
0.0
  3
圖塊6
  1

  0
ARC
  5
7F
330
7C
100
AcDbEntity
  8
圖層_1
 62
     7
370
    35
100
AcDbCircle
 10
1.5301544339
 20
6.1020682891
 30
0.0
 40
1.53015443394367
100
AcDbArc
 50
130.2115225915
 51
228.588904108
  0
ARC
  5
80
330
7C
100
AcDbEntity
  8
圖層_1
 62
     7
370
    35
100
AcDbCircle
 10
4.8509135981
 20
5.9949454415
 30
0.0
 40
2.577335426817622
100
AcDbArc
 50
140.4331765613
 51
251.0865666567
  0
ARC
  5
81
330
7C
100
AcDbEntity
  8
圖層_1
 62
     7
370
    35
100
AcDbCircle
 10
5.1765041982
 20
6.3117559713
 30
0.0
 40
2.989636657769863
100
AcDbArc
 50
247.1485306747
 51
309.6030773927
  0
LINE
  5
82
330
7C
100
AcDbEntity
  8
圖層_1
 62
     7
370
    35
100
AcDbLine
 10
1.8488977269
 20
8.5321825984
 30
0.0
 11
0.542269472
 21
7.2705955219
 31
0.0
  0
LINE
  5
83
330
7C
100
AcDbEntity
  8
圖層_1
 62
     7
370
    35
100
AcDbLine
 10
0.51802289
 20
4.9544784977
 30
0.0
 11
4.5272252002
 21
1.4698746574
 31
0.0
  0
LINE
  5
84
330
7C
100
AcDbEntity
  8
圖層_1
 62
     7
370
    35
100
AcDbLine
 10
4.5272252002
 20
1.4698746574
 30
0.0
 11
3.8961732797
 21
0.853974267
 31
0.0
  0
LINE
  5
85
330
7C
100
AcDbEntity
  8
圖層_1
 62
     7
370
    35
100
AcDbLine
 10
3.8961732797
 20
0.853974267
 30
0.0
 11
4.8880526445
 21
0.0
 31
0.0
  0
LINE
  5
86
330
7C
100
AcDbEntity
  8
圖層_1
 62
     7
370
    35
100
AcDbLine
 10
8.0977170788
 20
3.1165779655
 30
0.0
 11
7.0822940472
 21
4.0083036932
 31
0.0
  0
LINE
  5
87
330
7C
100
AcDbEntity
  8
圖層_1
 62
     7
370
    35
100
AcDbLine
 10
2.8640915743
 20
7.6366506975
 30
0.0
 11
1.8488977269
 21
8.5321825984
 31
0.0
  0
LINE
  5
88
330
7C
100
AcDbEntity
  8
圖層_1
 62
     7
370
    35
100
AcDbLine
 10
4.8880526445
 20
0.0
 30
0.0
 11
8.0977170788
 21
3.1165779655
 31
0.0
  0
ENDBLK
  5
7E
330
7C
100
AcDbEntity
  8
0
100
AcDbBlockEnd
  0
BLOCK
  5
CF
330
CE
100
AcDbEntity
  8
0
100
AcDbBlockBegin
  2
SW_NOTE_0
 70
     0
 10
0.0
 20
0.0
 30
0.0
  3
SW_NOTE_0
  1

  0
MTEXT
  5
D1
330
CE
100
AcDbEntity
  8
0
  6
Continuous
 62
     0
370
     0
100
AcDbMText
 10
0.0
 20
3.4106583948
 30
0.0
 40
2.6458333333
 41
0.0
 71
     1
 72
     1
  1
PROPRIETARY AND CONFIDENTIAL
  7
SLDTEXTSTYLE0
 73
     1
 44
1.0
  0
MTEXT
  5
D2
330
CE
100
AcDbEntity
  8
0
  6
Continuous
 62
     0
370
     0
100
AcDbMText
 10
0.0
 20
-0.08198348
 30
0.0
 40
1.8520833333
 41
0.0
 71
     1
 72
     1
  1
THE INFORMATION CONTAINED IN THIS DRAWING IS THE SOLE PROPERTY OF UNICE E-O SERVICES INC. ANY REPRODUCTION IN PART OR AS A WHOLE WITHOUT THE WRITTEN PERMISSION OF UNICE E-O SERVICES INC IS
  7
SLDTEXTSTYLE0
 73
     1
 44
1.0
  0
MTEXT
  5
D3
330
CE
100
AcDbEntity
  8
0
  6
Continuous
 62
     0
370
     0
100
AcDbMText
 10
0.0
 20
-2.5514278946
 30
0.0
 40
1.8520833333
 41
0.0
 71
     1
 72
     1
  1
PROHIBITED.
  7
SLDTEXTSTYLE0
 73
     1
 44
1.0
  0
ENDBLK
  5
D0
330
CE
100
AcDbEntity
  8
0
100
AcDbBlockEnd
  0
BLOCK
  5
106
330
105
100
AcDbEntity
  8
0
100
AcDbBlockBegin
  2
SW_NOTE_0_1
 70
     0
 10
0.0
 20
0.0
 30
0.0
  3
SW_NOTE_0_1
  1

  0
MTEXT
  5
108
330
105
100
AcDbEntity
  8
SLD-0
 62
     0
100
AcDbMText
 10
0.0
 20
2.0463950369
 30
0.0
 40
1.5875
 41
0.0
 71
     1
 72
     1
  1
No.5, Andong Rd., Chung Li District,
  7
SLDTEXTSTYLE0
 73
     1
 44
1.0
  0
MTEXT
  5
109
330
105
100
AcDbEntity
  8
SLD-0
 62
     0
100
AcDbMText
 10
0.0
 20
-0.0702716042
 30
0.0
 40
1.5875
 41
0.0
 71
     1
 72
     1
  1
Taoyuan City 32063, Taiwan, R.O.C.
  7
SLDTEXTSTYLE0
 73
     1
 44
1.0
  0
ENDBLK
  5
107
330
105
100
AcDbEntity
  8
0
100
AcDbBlockEnd
  0
BLOCK
  5
10C
330
10B
100
AcDbEntity
  8
0
100
AcDbBlockBegin
  2
SW_TABLEANNOTATION_0
 70
     0
 10
0.0
 20
0.0
 30
0.0
  3
SW_TABLEANNOTATION_0
  1

  0
LINE
  5
10E
330
10B
100
AcDbEntity
  8
DIM
 62
     0
100
AcDbLine
 10
0.0
 20
0.0
 30
0.0
 11
0.0
 21
-6.4735574558
 31
0.0
  0
LINE
  5
10F
330
10B
100
AcDbEntity
  8
DIM
 62
     0
100
AcDbLine
 10
41.2019662902
 20
0.0
 30
0.0
 11
41.2019662902
 21
-6.4735574558
 31
0.0
  0
LINE
  5
110
330
10B
100
AcDbEntity
  8
DIM
 62
     0
100
AcDbLine
 10
0.0
 20
-6.4735574558
 30
0.0
 11
0.0
 21
-12.9471149115
 31
0.0
  0
LINE
  5
111
330
10B
100
AcDbEntity
  8
DIM
 62
     0
100
AcDbLine
 10
41.2019662902
 20
-6.4735574558
 30
0.0
 11
41.2019662902
 21
-12.9471149115
 31
0.0
  0
LINE
  5
112
330
10B
100
AcDbEntity
  8
DIM
 62
     0
100
AcDbLine
 10
69.196887047
 20
0.0
 30
0.0
 11
69.196887047
 21
-6.4735574558
 31
0.0
  0
LINE
  5
113
330
10B
100
AcDbEntity
  8
DIM
 62
     0
100
AcDbLine
 10
69.196887047
 20
-6.4735574558
 30
0.0
 11
69.196887047
 21
-12.9471149115
 31
0.0
  0
LINE
  5
114
330
10B
100
AcDbEntity
  8
DIM
 62
     0
100
AcDbLine
 10
0.0
 20
0.0
 30
0.0
 11
41.2019662902
 21
0.0
 31
0.0
  0
LINE
  5
115
330
10B
100
AcDbEntity
  8
DIM
 62
     0
100
AcDbLine
 10
0.0
 20
-6.4735574558
 30
0.0
 11
41.2019662902
 21
-6.4735574558
 31
0.0
  0
LINE
  5
116
330
10B
100
AcDbEntity
  8
DIM
 62
     0
100
AcDbLine
 10
41.2019662902
 20
0.0
 30
0.0
 11
69.196887047
 21
0.0
 31
0.0
  0
LINE
  5
117
330
10B
100
AcDbEntity
  8
DIM
 62
     0
100
AcDbLine
 10
41.2019662902
 20
-6.4735574558
 30
0.0
 11
69.196887047
 21
-6.4735574558
 31
0.0
  0
LINE
  5
118
330
10B
100
AcDbEntity
  8
DIM
 62
     0
100
AcDbLine
 10
0.0
 20
-12.9471149115
 30
0.0
 11
41.2019662902
 21
-12.9471149115
 31
0.0
  0
LINE
  5
119
330
10B
100
AcDbEntity
  8
DIM
 62
     0
100
AcDbLine
 10
41.2019662902
 20
-12.9471149115
 30
0.0
 11
69.196887047
 21
-12.9471149115
 31
0.0
  0
MTEXT
  5
11A
330
10B
100
AcDbEntity
  8
DIM
 62
     0
100
AcDbMText
 10
16.0093165174
 20
-1.2424921563
 30
0.0
 40
3.0
 41
0.0
 71
     1
 72
     1
  1
Model
  7
SLDTEXTSTYLE1
 73
     1
 44
1.0
  0
MTEXT
  5
11B
330
10B
100
AcDbEntity
  8
DIM
 62
     0
100
AcDbMText
 10
49.9223434133
 20
-1.2424921563
 30
0.0
 40
3.0
 41
0.0
 71
     1
 72
     1
  1
W(kgs)
  7
SLDTEXTSTYLE1
 73
     1
 44
1.0
  0
ENDBLK
  5
10D
330
10B
100
AcDbEntity
  8
0
100
AcDbBlockEnd
  0
BLOCK
  5
272
330
271
100
AcDbEntity
  8
0
100
AcDbBlockBegin
  2
_D
 70
     0
 10
0.0
 20
0.0
 30
0.0
  3
_D
  1

  0
ARC
  5
274
330
271
100
AcDbEntity
  8
DIM
100
AcDbCircle
 10
123.9134271817
 20
59.1789173061
 30
0.0
 40
35.17412809522245
100
AcDbArc
 50
34.0
 51
90.0
  0
SOLID
  5
275
330
271
100
AcDbEntity
  8
DIM
100
AcDbTrace
 10
153.0741009545
 20
78.8480401227
 30
0.0
 11
152.1122902642
 21
80.619316554
 31
0.0
 12
151.7058779331
 22
80.32806234
 32
0.0
 13
151.7058779331
 23
80.32806234
 33
0.0
  0
SOLID
  5
276
330
271
100
AcDbEntity
  8
DIM
100
AcDbTrace
 10
123.9134271817
 20
94.3530454013
 30
0.0
 11
125.905521812
 21
94.0463550298
 31
0.0
 12
125.9197196072
 22
94.5461534118
 32
0.0
 13
125.9197196072
 23
94.5461534118
 33
0.0
  0
LINE
  5
277
330
271
100
AcDbEntity
  8
DIM
100
AcDbLine
 10
152.6423925434
 20
78.5568491226
 30
0.0
 11
153.9031385271
 21
79.4072330262
 31
0.0
  0
LINE
  5
278
330
271
100
AcDbEntity
  8
DIM
100
AcDbLine
 10
123.9134271817
 20
92.8323109673
 30
0.0
 11
123.9134271817
 21
95.3530454013
 31
0.0
  0
MTEXT
  5
279
330
271
100
AcDbEntity
  8
DIM
100
AcDbMText
 10
140.2130062228
 20
93.8259699017
 30
0.0
 40
2.38125
 41
0.0
 71
     1
 72
     1
  1
56°
  7
SLDTEXTSTYLE1
 11
0.8829475928589241
 21
-0.4694715627858961
 31
0.0
 73
     1
 44
1.0
  0
ENDBLK
  5
273
330
271
100
AcDbEntity
  8
0
100
AcDbBlockEnd
  0
BLOCK
  5
27D
330
27C
100
AcDbEntity
  8
0
100
AcDbBlockBegin
  2
_D_1
 70
     0
 10
0.0
 20
0.0
 30
0.0
  3
_D_1
  1

  0
SOLID
  5
27F
330
27C
100
AcDbEntity
  8
DIM
100
AcDbTrace
 10
113.9134271817
 20
106.8323109673
 30
0.0
 11
115.9134271817
 21
106.5823109673
 31
0.0
 12
115.9134271817
 22
107.0823109673
 32
0.0
 13
115.9134271817
 23
107.0823109673
 33
0.0
  0
SOLID
  5
280
330
27C
100
AcDbEntity
  8
DIM
100
AcDbTrace
 10
133.9134271817
 20
106.8323109673
 30
0.0
 11
131.9134271817
 21
107.0823109673
 31
0.0
 12
131.9134271817
 22
106.5823109673
 32
0.0
 13
131.9134271817
 23
106.5823109673
 33
0.0
  0
LINE
  5
281
330
27C
100
AcDbEntity
  8
DIM
100
AcDbLine
 10
113.9134271817
 20
90.8323109673
 30
0.0
 11
113.9134271817
 21
107.8323109673
 31
0.0
  0
LINE
  5
282
330
27C
100
AcDbEntity
  8
DIM
100
AcDbLine
 10
133.9134271817
 20
90.8323109673
 30
0.0
 11
133.9134271817
 21
107.8323109673
 31
0.0
  0
LINE
  5
283
330
27C
100
AcDbEntity
  8
DIM
100
AcDbLine
 10
113.9134271817
 20
106.8323109673
 30
0.0
 11
133.9134271817
 21
106.8323109673
 31
0.0
  0
MTEXT
  5
284
330
27C
100
AcDbEntity
  8
DIM
100
AcDbMText
 10
120.9148162233
 20
109.9019036391
 30
0.0
 40
2.38125
 41
0.0
 71
     1
 72
     1
  1
%%c
  7
SLDTEXTSTYLE1
 73
     1
 44
1.0
  0
MTEXT
  5
285
330
27C
100
AcDbEntity
  8
DIM
100
AcDbMText
 10
123.9310661985
 20
109.9019036391
 30
0.0
 40
2.38125
 41
0.0
 71
     1
 72
     1
  1
20
  7
SLDTEXTSTYLE1
 73
     1
 44
1.0
  0
ENDBLK
  5
27E
330
27C
100
AcDbEntity
  8
0
100
AcDbBlockEnd
  0
BLOCK
  5
288
330
287
100
AcDbEntity
  8
0
100
AcDbBlockBegin
  2
_D_2
 70
     0
 10
0.0
 20
0.0
 30
0.0
  3
_D_2
  1

  0
SOLID
  5
28A
330
287
100
AcDbEntity
  8
DIM
100
AcDbTrace
 10
116.8491414675
 20
100.0921869052
 30
0.0
 11
118.8491414675
 21
99.8421869052
 31
0.0
 12
118.8491414675
 22
100.3421869052
 32
0.0
 13
118.8491414675
 23
100.3421869052
 33
0.0
  0
SOLID
  5
28B
330
287
100
AcDbEntity
  8
DIM
100
AcDbTrace
 10
130.977712896
 20
100.0921869052
 30
0.0
 11
128.977712896
 21
100.3421869052
 31
0.0
 12
128.977712896
 22
99.8421869052
 32
0.0
 13
128.977712896
 23
99.8421869052
 33
0.0
  0
LINE
  5
28C
330
287
100
AcDbEntity
  8
DIM
100
AcDbLine
 10
116.8491414675
 20
90.8323109673
 30
0.0
 11
116.8491414675
 21
101.0921869052
 31
0.0
  0
LINE
  5
28D
330
287
100
AcDbEntity
  8
DIM
100
AcDbLine
 10
130.977712896
 20
90.8323109673
 30
0.0
 11
130.977712896
 21
101.0921869052
 31
0.0
  0
LINE
  5
28E
330
287
100
AcDbEntity
  8
DIM
100
AcDbLine
 10
116.8491414675
 20
100.0921869052
 30
0.0
 11
130.977712896
 21
100.0921869052
 31
0.0
  0
MTEXT
  5
28F
330
287
100
AcDbEntity
  8
DIM
100
AcDbMText
 10
120.9148162233
 20
103.1617795769
 30
0.0
 40
2.38125
 41
0.0
 71
     1
 72
     1
  1
%%c
  7
SLDTEXTSTYLE1
 73
     1
 44
1.0
  0
MTEXT
  5
290
330
287
100
AcDbEntity
  8
DIM
100
AcDbMText
 10
123.9310661985
 20
103.1617795769
 30
0.0
 40
2.38125
 41
0.0
 71
     1
 72
     1
  1
14
  7
SLDTEXTSTYLE1
 73
     1
 44
1.0
  0
ENDBLK
  5
289
330
287
100
AcDbEntity
  8
0
100
AcDbBlockEnd
  0
BLOCK
  5
293
330
292
100
AcDbEntity
  8
0
100
AcDbBlockBegin
  2
_D_3
 70
     0
 10
0.0
 20
0.0
 30
0.0
  3
_D_3
  1

  0
SOLID
  5
295
330
292
100
AcDbEntity
  8
DIM
100
AcDbTrace
 10
158.0212746422
 20
94.2471303944
 30
0.0
 11
158.932401056
 21
92.4492570234
 31
0.0
 12
159.3469198423
 22
92.7288534752
 32
0.0
 13
159.3469198423
 23
92.7288534752
 33
0.0
  0
SOLID
  5
296
330
292
100
AcDbEntity
  8
DIM
100
AcDbTrace
 10
169.2051327116
 20
77.6663789433
 30
0.0
 11
168.2940062978
 21
79.4642523143
 31
0.0
 12
167.8794875116
 22
79.1846558625
 32
0.0
 13
167.8794875116
 23
79.1846558625
 33
0.0
  0
LINE
  5
297
330
292
100
AcDbEntity
  8
DIM
100
AcDbLine
 10
144.5633507911
 20
85.1696461378
 30
0.0
 11
158.8503122148
 21
94.8063232979
 31
0.0
  0
LINE
  5
298
330
292
100
AcDbEntity
  8
DIM
100
AcDbLine
 10
155.7472088605
 20
68.5888946867
 30
0.0
 11
170.0341702842
 21
78.2255718468
 31
0.0
  0
LINE
  5
299
330
292
100
AcDbEntity
  8
DIM
100
AcDbLine
 10
158.0212746422
 20
94.2471303944
 30
0.0
 11
169.2051327116
 21
77.6663789433
 31
0.0
  0
MTEXT
  5
29A
330
292
100
AcDbEntity
  8
DIM
100
AcDbMText
 10
164.481209366
 20
90.1592102575
 30
0.0
 40
2.38125
 41
0.0
 71
     1
 72
     1
  1
%%c
  7
SLDTEXTSTYLE1
 11
0.5591929034707551
 21
-0.8290375725550361
 31
0.0
 73
     1
 44
1.0
  0
MTEXT
  5
29B
330
292
100
AcDbEntity
  8
DIM
100
AcDbMText
 10
166.1678749472
 20
87.6586256998
 30
0.0
 40
2.38125
 41
0.0
 71
     1
 72
     1
  1
20
  7
SLDTEXTSTYLE1
 11
0.5591929034707551
 21
-0.8290375725550361
 31
0.0
 73
     1
 44
1.0
  0
ENDBLK
  5
294
330
292
100
AcDbEntity
  8
0
100
AcDbBlockEnd
  0
BLOCK
  5
29E
330
29D
100
AcDbEntity
  8
0
100
AcDbBlockBegin
  2
_D_4
 70
     0
 10
0.0
 20
0.0
 30
0.0
  3
_D_4
  1

  0
SOLID
  5
2A0
330
29D
100
AcDbEntity
  8
DIM
100
AcDbTrace
 10
153.8035380816
 20
87.8611198994
 30
0.0
 11
154.7146644954
 21
86.0632465284
 31
0.0
 12
155.1291832817
 22
86.3428429801
 32
0.0
 13
155.1291832817
 23
86.3428429801
 33
0.0
  0
SOLID
  5
2A1
330
29D
100
AcDbEntity
  8
DIM
100
AcDbTrace
 10
161.7041349607
 20
76.1480033386
 30
0.0
 11
160.7930085469
 21
77.9458767095
 31
0.0
 12
160.3784897606
 22
77.6662802578
 32
0.0
 13
160.3784897606
 23
77.6662802578
 33
0.0
  0
LINE
  5
2A2
330
29D
100
AcDbEntity
  8
DIM
100
AcDbLine
 10
146.2049813863
 20
82.7358286926
 30
0.0
 11
154.6325756542
 21
88.4203128028
 31
0.0
  0
LINE
  5
2A3
330
29D
100
AcDbEntity
  8
DIM
100
AcDbLine
 10
154.1055782653
 20
71.0227121318
 30
0.0
 11
162.5331725332
 21
76.707196242
 31
0.0
  0
LINE
  5
2A4
330
29D
100
AcDbEntity
  8
DIM
100
AcDbLine
 10
153.8035380816
 20
87.8611198994
 30
0.0
 11
161.7041349607
 21
76.1480033386
 31
0.0
  0
MTEXT
  5
2A5
330
29D
100
AcDbEntity
  8
DIM
100
AcDbMText
 10
158.6218422102
 20
86.2070172076
 30
0.0
 40
2.38125
 41
0.0
 71
     1
 72
     1
  1
%%c
  7
SLDTEXTSTYLE1
 11
0.5591929034707595
 21
-0.8290375725550332
 31
0.0
 73
     1
 44
1.0
  0
MTEXT
  5
2A6
330
29D
100
AcDbEntity
  8
DIM
100
AcDbMText
 10
160.3085077914
 20
83.7064326499
 30
0.0
 40
2.38125
 41
0.0
 71
     1
 72
     1
  1
14
  7
SLDTEXTSTYLE1
 11
0.5591929034707595
 21
-0.8290375725550332
 31
0.0
 73
     1
 44
1.0
  0
ENDBLK
  5
29F
330
29D
100
AcDbEntity
  8
0
100
AcDbBlockEnd
  0
BLOCK
  5
2A9
330
2A8
100
AcDbEntity
  8
0
100
AcDbBlockBegin
  2
_D_5
 70
     0
 10
0.0
 20
0.0
 30
0.0
  3
_D_5
  1

  0
SOLID
  5
2AB
330
2A8
100
AcDbEntity
  8
DIM
100
AcDbTrace
 10
113.9134271817
 20
16.1255236449
 30
0.0
 11
115.9134271817
 21
15.8755236449
 31
0.0
 12
115.9134271817
 22
16.3755236449
 32
0.0
 13
115.9134271817
 23
16.3755236449
 33
0.0
  0
SOLID
  5
2AC
330
2A8
100
AcDbEntity
  8
DIM
100
AcDbTrace
 10
133.9134271817
 20
16.1255236449
 30
0.0
 11
131.9134271817
 21
16.3755236449
 31
0.0
 12
131.9134271817
 22
15.8755236449
 32
0.0
 13
131.9134271817
 23
15.8755236449
 33
0.0
  0
LINE
  5
2AD
330
2A8
100
AcDbEntity
  8
DIM
100
AcDbLine
 10
113.9134271817
 20
27.1255236449
 30
0.0
 11
113.9134271817
 21
15.1255236449
 31
0.0
  0
LINE
  5
2AE
330
2A8
100
AcDbEntity
  8
DIM
100
AcDbLine
 10
133.9134271817
 20
27.1255236449
 30
0.0
 11
133.9134271817
 21
15.1255236449
 31
0.0
  0
LINE
  5
2AF
330
2A8
100
AcDbEntity
  8
DIM
100
AcDbLine
 10
113.9134271817
 20
16.1255236449
 30
0.0
 11
133.9134271817
 21
16.1255236449
 31
0.0
  0
MTEXT
  5
2B0
330
2A8
100
AcDbEntity
  8
DIM
100
AcDbMText
 10
120.9148162233
 20
19.1951163166
 30
0.0
 40
2.38125
 41
0.0
 71
     1
 72
     1
  1
%%c
  7
SLDTEXTSTYLE1
 73
     1
 44
1.0
  0
MTEXT
  5
2B1
330
2A8
100
AcDbEntity
  8
DIM
100
AcDbMText
 10
123.9310661985
 20
19.1951163166
 30
0.0
 40
2.38125
 41
0.0
 71
     1
 72
     1
  1
20
  7
SLDTEXTSTYLE1
 73
     1
 44
1.0
  0
ENDBLK
  5
2AA
330
2A8
100
AcDbEntity
  8
0
100
AcDbBlockEnd
  0
BLOCK
  5
2B4
330
2B3
100
AcDbEntity
  8
0
100
AcDbBlockBegin
  2
_D_6
 70
     0
 10
0.0
 20
0.0
 30
0.0
  3
_D_6
  1

  0
SOLID
  5
2B6
330
2B3
100
AcDbEntity
  8
DIM
100
AcDbTrace
 10
116.8491414675
 20
21.1255236449
 30
0.0
 11
118.8491414675
 21
20.8755236449
 31
0.0
 12
118.8491414675
 22
21.3755236449
 32
0.0
 13
118.8491414675
 23
21.3755236449
 33
0.0
  0
SOLID
  5
2B7
330
2B3
100
AcDbEntity
  8
DIM
100
AcDbTrace
 10
130.977712896
 20
21.1255236449
 30
0.0
 11
128.977712896
 21
21.3755236449
 31
0.0
 12
128.977712896
 22
20.8755236449
 32
0.0
 13
128.977712896
 23
20.8755236449
 33
0.0
  0
LINE
  5
2B8
330
2B3
100
AcDbEntity
  8
DIM
100
AcDbLine
 10
116.8491414675
 20
27.1255236449
 30
0.0
 11
116.8491414675
 21
20.1255236449
 31
0.0
  0
LINE
  5
2B9
330
2B3
100
AcDbEntity
  8
DIM
100
AcDbLine
 10
130.977712896
 20
27.1255236449
 30
0.0
 11
130.977712896
 21
20.1255236449
 31
0.0
  0
LINE
  5
2BA
330
2B3
100
AcDbEntity
  8
DIM
100
AcDbLine
 10
116.8491414675
 20
21.1255236449
 30
0.0
 11
130.977712896
 21
21.1255236449
 31
0.0
  0
MTEXT
  5
2BB
330
2B3
100
AcDbEntity
  8
DIM
100
AcDbMText
 10
120.9148162233
 20
24.1951163166
 30
0.0
 40
2.38125
 41
0.0
 71
     1
 72
     1
  1
%%c
  7
SLDTEXTSTYLE1
 73
     1
 44
1.0
  0
MTEXT
  5
2BC
330
2B3
100
AcDbEntity
  8
DIM
100
AcDbMText
 10
123.9310661985
 20
24.1951163166
 30
0.0
 40
2.38125
 41
0.0
 71
     1
 72
     1
  1
14
  7
SLDTEXTSTYLE1
 73
     1
 44
1.0
  0
ENDBLK
  5
2B5
330
2B3
100
AcDbEntity
  8
0
100
AcDbBlockEnd
  0
BLOCK
  5
2BF
330
2BE
100
AcDbEntity
  8
0
100
AcDbBlockBegin
  2
_D_7
 70
     0
 10
0.0
 20
0.0
 30
0.0
  3
_D_7
  1

  0
SOLID
  5
2C1
330
2BE
100
AcDbEntity
  8
DIM
100
AcDbTrace
 10
89.4134271817
 20
11.1255236449
 30
0.0
 11
91.4134271817
 21
10.8755236449
 31
0.0
 12
91.4134271817
 22
11.3755236449
 32
0.0
 13
91.4134271817
 23
11.3755236449
 33
0.0
  0
SOLID
  5
2C2
330
2BE
100
AcDbEntity
  8
DIM
100
AcDbTrace
 10
158.4134271817
 20
11.1255236449
 30
0.0
 11
156.4134271817
 21
11.3755236449
 31
0.0
 12
156.4134271817
 22
10.8755236449
 32
0.0
 13
156.4134271817
 23
10.8755236449
 33
0.0
  0
LINE
  5
2C3
330
2BE
100
AcDbEntity
  8
DIM
100
AcDbLine
 10
89.4134271817
 20
54.1789173061
 30
0.0
 11
89.4134271817
 21
10.1255236449
 31
0.0
  0
LINE
  5
2C4
330
2BE
100
AcDbEntity
  8
DIM
100
AcDbLine
 10
158.4134271817
 20
54.1789173061
 30
0.0
 11
158.4134271817
 21
10.1255236449
 31
0.0
  0
LINE
  5
2C5
330
2BE
100
AcDbEntity
  8
DIM
100
AcDbLine
 10
89.4134271817
 20
11.1255236449
 30
0.0
 11
158.4134271817
 21
11.1255236449
 31
0.0
  0
MTEXT
  5
2C6
330
2BE
100
AcDbEntity
  8
DIM
100
AcDbMText
 10
120.9148162233
 20
14.1951163166
 30
0.0
 40
2.38125
 41
0.0
 71
     1
 72
     1
  1
%%c
  7
SLDTEXTSTYLE1
 73
     1
 44
1.0
  0
MTEXT
  5
2C7
330
2BE
100
AcDbEntity
  8
DIM
100
AcDbMText
 10
123.9310661985
 20
14.1951163166
 30
0.0
 40
2.38125
 41
0.0
 71
     1
 72
     1
  1
69
  7
SLDTEXTSTYLE1
 73
     1
 44
1.0
  0
ENDBLK
  5
2C0
330
2BE
100
AcDbEntity
  8
0
100
AcDbBlockEnd
  0
BLOCK
  5
2CB
330
2CA
100
AcDbEntity
  8
0
100
AcDbBlockBegin
  2
_D_8
 70
     0
 10
0.0
 20
0.0
 30
0.0
  3
_D_8
  1

  0
SOLID
  5
2CD
330
2CA
100
AcDbEntity
  8
DIM
100
AcDbTrace
 10
146.5834313097
 20
46.4482098302
 30
0.0
 11
144.9619954872
 21
47.6454758296
 31
0.0
 12
144.7171741895
 22
47.2095142117
 32
0.0
 13
144.7171741895
 23
47.2095142117
 33
0.0
  0
SOLID
  5
2CE
330
2CA
100
AcDbEntity
  8
DIM
100
AcDbTrace
 10
101.2434230537
 20
71.909624782
 30
0.0
 11
102.8648588763
 21
70.7123587826
 31
0.0
 12
103.1096801739
 22
71.1483204005
 32
0.0
 13
103.1096801739
 23
71.1483204005
 33
0.0
  0
LINE
  5
2CF
330
2CA
100
AcDbEntity
  8
DIM
100
AcDbLine
 10
101.2434230537
 20
71.909624782
 30
0.0
 11
92.5663747872
 21
76.782361576
 31
0.0
  0
LINE
  5
2D0
330
2CA
100
AcDbEntity
  8
DIM
100
AcDbLine
 10
146.5834313097
 20
46.4482098302
 30
0.0
 11
101.2434230537
 21
71.909624782
 31
0.0
  0
LINE
  5
2D1
330
2CA
100
AcDbEntity
  8
DIM
100
AcDbLine
 10
92.5663747872
 20
76.782361576
 30
0.0
 11
85.3191528703
 21
76.782361576
 31
0.0
  0
MTEXT
  5
2D2
330
2CA
100
AcDbEntity
  8
DIM
100
AcDbMText
 10
85.3191528703
 20
79.8519542478
 30
0.0
 40
2.38125
 41
0.0
 71
     1
 72
     1
  1
%%c
  7
SLDTEXTSTYLE1
 73
     1
 44
1.0
  0
MTEXT
  5
2D3
330
2CA
100
AcDbEntity
  8
DIM
100
AcDbMText
 10
88.3354028455
 20
79.8519542478
 30
0.0
 40
2.38125
 41
0.0
 71
     1
 72
     1
  1
52
  7
SLDTEXTSTYLE1
 73
     1
 44
1.0
  0
ENDBLK
  5
2CC
330
2CA
100
AcDbEntity
  8
0
100
AcDbBlockEnd
  0
BLOCK
  5
2D7
330
2D6
100
AcDbEntity
  8
0
100
AcDbBlockBegin
  2
_None
 70
     0
 10
0.0
 20
0.0
 30
0.0
  3
_None
  1

  0
ENDBLK
  5
2D8
330
2D6
100
AcDbEntity
  8
0
100
AcDbBlockEnd
  0
BLOCK
  5
2DA
330
2D9
100
AcDbEntity
  8
0
100
AcDbBlockBegin
  2
_D_9
 70
     0
 10
0.0
 20
0.0
 30
0.0
  3
_D_9
  1

  0
SOLID
  5
2DC
330
2D9
100
AcDbEntity
  8
DIM
100
AcDbTrace
 10
105.8504388499
 20
80.5735066343
 30
0.0
 11
104.7512485166
 21
82.2629682679
 31
0.0
 12
104.3692022786
 22
81.9404149048
 32
0.0
 13
104.3692022786
 23
81.9404149048
 33
0.0
  0
LINE
  5
2DD
330
2D9
100
AcDbEntity
  8
DIM
100
AcDbLine
 10
105.8504388499
 20
80.5735066343
 30
0.0
 11
95.731922297
 21
92.5583179115
 31
0.0
  0
LINE
  5
2DE
330
2D9
100
AcDbEntity
  8
DIM
100
AcDbLine
 10
141.9764155136
 20
37.7843279779
 30
0.0
 11
105.8504388499
 21
80.5735066343
 31
0.0
  0
LINE
  5
2DF
330
2D9
100
AcDbEntity
  8
DIM
100
AcDbLine
 10
95.731922297
 20
92.5583179115
 30
0.0
 11
88.4847003801
 21
92.5583179115
 31
0.0
  0
MTEXT
  5
2E0
330
2D9
100
AcDbEntity
  8
DIM
100
AcDbMText
 10
88.4847003801
 20
95.6279105832
 30
0.0
 40
2.38125
 41
0.0
 71
     1
 72
     1
  1
%%c
  7
SLDTEXTSTYLE1
 73
     1
 44
1.0
  0
MTEXT
  5
2E1
330
2D9
100
AcDbEntity
  8
DIM
100
AcDbMText
 10
91.5009503553
 20
95.6279105832
 30
0.0
 40
2.38125
 41
0.0
 71
     1
 72
     1
  1
56
  7
SLDTEXTSTYLE1
 73
     1
 44
1.0
  0
ENDBLK
  5
2DB
330
2D9
100
AcDbEntity
  8
0
100
AcDbBlockEnd
  0
BLOCK
  5
2E3
330
2E2
100
AcDbEntity
  8
0
100
AcDbBlockBegin
  2
SW_NOTE_0_2
 70
     0
 10
0.0
 20
0.0
 30
0.0
  3
SW_NOTE_0_2
  1

  0
LINE
  5
2E5
330
2E2
100
AcDbEntity
  8
DIM
 62
     0
100
AcDbLine
 10
7.344607036
 20
0.0
 30
0.0
 11
0.0
 21
0.0
 31
0.0
  0
MTEXT
  5
2E6
330
2E2
100
AcDbEntity
  8
DIM
 62
     0
100
AcDbMText
 10
0.467711374
 20
3.0158212898
 30
0.0
 40
2.38125
 41
0.0
 71
     1
 72
     1
  1
Baffle
  7
SLDTEXTSTYLE1
 73
     1
 44
1.0
  0
ENDBLK
  5
2E4
330
2E2
100
AcDbEntity
  8
0
100
AcDbBlockEnd
  0
BLOCK
  5
44D
330
44C
100
AcDbEntity
  8
0
100
AcDbBlockBegin
  2
_D_10
 70
     0
 10
0.0
 20
0.0
 30
0.0
  3
_D_10
  1

  0
SOLID
  5
44F
330
44C
100
AcDbEntity
  8
DIM
100
AcDbTrace
 10
123.9134271817
 20
184.2734104159
 30
0.0
 11
125.9134271817
 21
184.0234104159
 31
0.0
 12
125.9134271817
 22
184.5234104159
 32
0.0
 13
125.9134271817
 23
184.5234104159
 33
0.0
  0
SOLID
  5
450
330
44C
100
AcDbEntity
  8
DIM
100
AcDbTrace
 10
140.9134271817
 20
184.2734104159
 30
0.0
 11
138.9134271817
 21
184.5234104159
 31
0.0
 12
138.9134271817
 22
184.0234104159
 32
0.0
 13
138.9134271817
 23
184.0234104159
 33
0.0
  0
LINE
  5
451
330
44C
100
AcDbEntity
  8
DIM
100
AcDbLine
 10
123.9134271817
 20
159.1628368459
 30
0.0
 11
123.9134271817
 21
185.2734104159
 31
0.0
  0
LINE
  5
452
330
44C
100
AcDbEntity
  8
DIM
100
AcDbLine
 10
140.9134271817
 20
157.6628368459
 30
0.0
 11
140.9134271817
 21
185.2734104159
 31
0.0
  0
LINE
  5
453
330
44C
100
AcDbEntity
  8
DIM
100
AcDbLine
 10
123.9134271817
 20
184.2734104159
 30
0.0
 11
140.9134271817
 21
184.2734104159
 31
0.0
  0
MTEXT
  5
454
330
44C
100
AcDbEntity
  8
DIM
100
AcDbMText
 10
130.9229410945
 20
187.3430028548
 30
0.0
 40
2.38125
 41
0.0
 71
     1
 72
     1
  1
17
  7
SLDTEXTSTYLE1
 73
     1
 44
1.0
  0
ENDBLK
  5
44E
330
44C
100
AcDbEntity
  8
0
100
AcDbBlockEnd
  0
BLOCK
  5
457
330
456
100
AcDbEntity
  8
0
100
AcDbBlockBegin
  2
_D_11
 70
     0
 10
0.0
 20
0.0
 30
0.0
  3
_D_11
  1

  0
SOLID
  5
459
330
456
100
AcDbEntity
  8
DIM
100
AcDbTrace
 10
145.5367378298
 20
138.9411143274
 30
0.0
 11
146.3496479039
 21
137.0967506942
 31
0.0
 12
146.7786324882
 22
137.3536012858
 32
0.0
 13
146.7786324882
 23
137.3536012858
 33
0.0
  0
LINE
  5
45A
330
456
100
AcDbEntity
  8
DIM
100
AcDbLine
 10
145.5367378298
 20
138.9411143274
 30
0.0
 11
158.8998698324
 21
116.6223896828
 31
0.0
  0
LINE
  5
45B
330
456
100
AcDbEntity
  8
DIM
100
AcDbLine
 10
136.2901165337
 20
154.3845593643
 30
0.0
 11
145.5367378298
 21
138.9411143274
 31
0.0
  0
LINE
  5
45C
330
456
100
AcDbEntity
  8
DIM
100
AcDbLine
 10
158.8998698324
 20
116.6223896828
 30
0.0
 11
174.4285499185
 21
116.6223896828
 31
0.0
  0
MTEXT
  5
45D
330
456
100
AcDbEntity
  8
DIM
100
AcDbMText
 10
160.1498698324
 20
119.6919823545
 30
0.0
 40
2.38125
 41
0.0
 71
     1
 72
     1
  1
%%c
  7
SLDTEXTSTYLE1
 73
     1
 44
1.0
  0
MTEXT
  5
45E
330
456
100
AcDbEntity
  8
DIM
100
AcDbMText
 10
163.1661198075
 20
119.6919823545
 30
0.0
 40
2.38125
 41
0.0
 71
     1
 72
     1
  1
18
  7
SLDTEXTSTYLE1
 73
     1
 44
1.0
  0
MTEXT
  5
45F
330
456
100
AcDbEntity
  8
DIM
100
AcDbMText
 10
166.8912323743
 20
119.6919823545
 30
0.0
 40
2.38125
 41
0.0
 71
     1
 72
     1
  1
Baffle
  7
SLDTEXTSTYLE1
 73
     1
 44
1.0
  0
ENDBLK
  5
458
330
456
100
AcDbEntity
  8
0
100
AcDbBlockEnd
  0
BLOCK
  5
461
330
460
100
AcDbEntity
  8
0
100
AcDbBlockBegin
  2
SW_CENTERMARKSYMBOL_0
 70
     0
 10
0.0
 20
0.0
 30
0.0
  3
SW_CENTERMARKSYMBOL_0
  1

  0
LINE
  5
463
330
460
100
AcDbEntity
  8
DIM
 62
     0
100
AcDbLine
 10
0.0
 20
0.0
 30
0.0
 11
0.0
 21
1.0
 31
0.0
  0
LINE
  5
464
330
460
100
AcDbEntity
  8
DIM
 62
     0
100
AcDbLine
 10
0.0
 20
0.0
 30
0.0
 11
-1.0
 21
0.0
 31
0.0
  0
LINE
  5
465
330
460
100
AcDbEntity
  8
DIM
 62
     0
100
AcDbLine
 10
0.0
 20
0.0
 30
0.0
 11
0.0
 21
-1.0
 31
0.0
  0
LINE
  5
466
330
460
100
AcDbEntity
  8
DIM
 62
     0
100
AcDbLine
 10
0.0
 20
0.0
 30
0.0
 11
1.0
 21
0.0
 31
0.0
  0
LINE
  5
467
330
460
100
AcDbEntity
  8
DIM
 62
     0
100
AcDbLine
 10
0.0
 20
2.0
 30
0.0
 11
0.0
 21
11.5
 31
0.0
  0
LINE
  5
468
330
460
100
AcDbEntity
  8
DIM
 62
     0
100
AcDbLine
 10
-2.0
 20
0.0
 30
0.0
 11
-11.5
 21
0.0
 31
0.0
  0
LINE
  5
469
330
460
100
AcDbEntity
  8
DIM
 62
     0
100
AcDbLine
 10
0.0
 20
-2.0
 30
0.0
 11
0.0
 21
-11.5
 31
0.0
  0
LINE
  5
46A
330
460
100
AcDbEntity
  8
DIM
 62
     0
100
AcDbLine
 10
2.0
 20
0.0
 30
0.0
 11
11.5
 21
0.0
 31
0.0
  0
ENDBLK
  5
462
330
460
100
AcDbEntity
  8
0
100
AcDbBlockEnd
  0
BLOCK
  5
46D
330
46C
100
AcDbEntity
  8
0
100
AcDbBlockBegin
  2
SW_CENTERMARKSYMBOL_1
 70
     0
 10
0.0
 20
0.0
 30
0.0
  3
SW_CENTERMARKSYMBOL_1
  1

  0
LINE
  5
46F
330
46C
100
AcDbEntity
  8
DIM
 62
     0
100
AcDbLine
 10
0.0
 20
0.0
 30
0.0
 11
0.0
 21
1.0
 31
0.0
  0
LINE
  5
470
330
46C
100
AcDbEntity
  8
DIM
 62
     0
100
AcDbLine
 10
0.0
 20
0.0
 30
0.0
 11
-1.0
 21
0.0
 31
0.0
  0
LINE
  5
471
330
46C
100
AcDbEntity
  8
DIM
 62
     0
100
AcDbLine
 10
0.0
 20
0.0
 30
0.0
 11
0.0
 21
-1.0
 31
0.0
  0
LINE
  5
472
330
46C
100
AcDbEntity
  8
DIM
 62
     0
100
AcDbLine
 10
0.0
 20
0.0
 30
0.0
 11
1.0
 21
0.0
 31
0.0
  0
LINE
  5
473
330
46C
100
AcDbEntity
  8
DIM
 62
     0
100
AcDbLine
 10
0.0
 20
2.0
 30
0.0
 11
0.0
 21
10.0
 31
0.0
  0
LINE
  5
474
330
46C
100
AcDbEntity
  8
DIM
 62
     0
100
AcDbLine
 10
-2.0
 20
0.0
 30
0.0
 11
-10.0
 21
0.0
 31
0.0
  0
LINE
  5
475
330
46C
100
AcDbEntity
  8
DIM
 62
     0
100
AcDbLine
 10
0.0
 20
-2.0
 30
0.0
 11
0.0
 21
-10.0
 31
0.0
  0
LINE
  5
476
330
46C
100
AcDbEntity
  8
DIM
 62
     0
100
AcDbLine
 10
2.0
 20
0.0
 30
0.0
 11
10.0
 21
0.0
 31
0.0
  0
ENDBLK
  5
46E
330
46C
100
AcDbEntity
  8
0
100
AcDbBlockEnd
  0
ENDSEC
  0
SECTION
  2
ENTITIES
  0
HATCH
  5
89
330
1F
100
AcDbEntity
  8
0
  6
Continuous
 62
     7
100
AcDbHatch
 10
0.0
 20
0.0
 30
0.0
210
0.0
220
0.0
230
1.0
  2
SOLID
 70
     1
 71
     0
 91
        1
 92
        0
 93
       10
 72
     2
 10
192.1405965629367
 20
35.75580880988856
 40
2.989636657769859
 50
50.39692260731407
 51
112.8514693252983
 73
     0
 72
     2
 10
191.815005962812
 20
35.43899828006204
 40
2.577335426817619
 50
108.9134333432861
 51
219.5668234386827
 73
     0
 72
     1
 10
189.8281839389603
 20
37.0807035361501
 11
188.8129900915579
 21
37.97623543696786
 72
     1
 10
188.8129900915579
 20
37.97623543696786
 11
187.5063618366762
 21
36.71464836046036
 72
     2
 10
188.4942467986389
 20
35.54612112772446
 40
1.530154433943661
 50
130.2115225915088
 51
228.5889041080191
 73
     1
 72
     1
 10
187.482115254651
 20
34.39853133629978
 11
191.4913175648466
 21
30.9139274960251
 72
     1
 10
191.4913175648466
 20
30.9139274960251
 11
190.8602656444315
 21
30.29802710555407
 72
     1
 10
190.8602656444315
 20
30.29802710555407
 11
191.852145009157
 21
29.44405283860024
 72
     1
 10
191.852145009157
 20
29.44405283860024
 11
195.0618094435223
 21
32.56063080411572
 72
     1
 10
195.0618094435223
 20
32.56063080411572
 11
194.0463864118641
 21
33.45235653184883
 97
        0
 75
     0
 76
     1
 98
        1
 10
0.0
 20
0.0
  0
HATCH
  5
8A
330
1F
100
AcDbEntity
  8
0
  6
Continuous
 62
     1
100
AcDbHatch
 10
0.0
 20
0.0
 30
0.0
210
0.0
220
0.0
230
1.0
  2
SOLID
 70
     1
 71
     0
 91
        1
 92
        0
 93
       10
 72
     2
 10
192.5892455627688
 20
35.6630691563161
 40
2.57756748834625
 50
317.8184992995785
 51
398.0564711573078
 73
     0
 72
     1
 10
194.6188314058163
 20
34.07415900697447
 11
195.6042802987991
 21
33.21546206708498
 72
     1
 10
195.6042802987991
 20
33.21546206708498
 11
196.8459616135929
 21
34.41989500949219
 72
     2
 10
195.9525692879308
 20
35.64784174131312
 40
1.518552937418265
 50
306.0377529468138
 51
403.4396461533871
 73
     1
 72
     1
 10
197.0551891526031
 20
36.69198371335126
 11
192.9284332942598
 21
40.28115998198521
 72
     1
 10
192.9284332942598
 20
40.28115998198521
 11
193.552684596187
 21
40.89021841282256
 72
     1
 10
193.552684596187
 20
40.89021841282256
 11
192.622178086003
 21
41.72041063266705
 72
     1
 10
192.622178086003
 20
41.72041063266705
 11
189.3865926375931
 21
38.59349038605298
 72
     1
 10
189.3865926375931
 20
38.59349038605298
 11
190.4090005149417
 21
37.70169985893218
 72
     2
 10
192.2715892720444
 20
35.12224735083792
 40
3.181636704527876
 50
234.1674444878512
 51
314.4407074583994
 73
     0
 97
        0
 75
     0
 76
     1
 98
        1
 10
0.0
 20
0.0
  0
LINE
  5
8B
330
1F
100
AcDbEntity
  8
0
  6
Continuous
 62
     7
370
    18
100
AcDbLine
 10
167.8593775185
 20
17.7745192513
 30
0.0
 11
168.8593775185
 21
17.7745192513
 31
0.0
  0
LINE
  5
8C
330
1F
100
AcDbEntity
  8
0
  6
Continuous
 62
     7
370
    18
100
AcDbLine
 10
164.8593775185
 20
17.7745192513
 30
0.0
 11
167.3593775185
 21
17.7745192513
 31
0.0
  0
LINE
  5
8D
330
1F
100
AcDbEntity
  8
0
  6
Continuous
 62
     7
370
    18
100
AcDbLine
 10
181.3593775185
 20
15.2745192513
 30
0.0
 11
181.3593775185
 21
20.2745192513
 31
0.0
  0
LINE
  5
8E
330
1F
100
AcDbEntity
  8
0
  6
Continuous
 62
     7
370
    18
100
AcDbLine
 10
174.3593775185
 20
16.2745192513
 30
0.0
 11
181.3593775185
 21
15.2745192513
 31
0.0
  0
LINE
  5
8F
330
1F
100
AcDbEntity
  8
0
  6
Continuous
 62
     7
370
    18
100
AcDbLine
 10
168.3593775185
 20
16.7745192513
 30
0.0
 11
168.3593775185
 21
14.2745192513
 31
0.0
  0
LINE
  5
90
330
1F
100
AcDbEntity
  8
0
  6
Continuous
 62
     7
370
    18
100
AcDbLine
 10
181.3593775185
 20
20.2745192513
 30
0.0
 11
174.3593775185
 21
19.2745192513
 31
0.0
  0
LINE
  5
91
330
1F
100
AcDbEntity
  8
0
  6
Continuous
 62
     7
370
    18
100
AcDbLine
 10
173.3593775185
 20
17.7745192513
 30
0.0
 11
182.3593775185
 21
17.7745192513
 31
0.0
  0
LINE
  5
92
330
1F
100
AcDbEntity
  8
0
  6
Continuous
 62
     7
370
    18
100
AcDbLine
 10
168.3593775185
 20
18.2745192513
 30
0.0
 11
168.3593775185
 21
17.2745192513
 31
0.0
  0
LINE
  5
93
330
1F
100
AcDbEntity
  8
0
  6
Continuous
 62
     7
370
    18
100
AcDbLine
 10
169.3593775185
 20
17.7745192513
 30
0.0
 11
171.8593775185
 21
17.7745192513
 31
0.0
  0
LINE
  5
94
330
1F
100
AcDbEntity
  8
0
  6
Continuous
 62
     7
370
    18
100
AcDbLine
 10
168.3593775185
 20
21.2745192513
 30
0.0
 11
168.3593775185
 21
18.7745192513
 31
0.0
  0
LINE
  5
95
330
1F
100
AcDbEntity
  8
0
  6
Continuous
 62
     7
370
    18
100
AcDbLine
 10
174.3593775185
 20
19.2745192513
 30
0.0
 11
174.3593775185
 21
16.2745192513
 31
0.0
  0
LINE
  5
96
330
1F
100
AcDbEntity
  8
工作區域參考線
 62
     1
370
    35
100
AcDbLine
 10
190.4090005149
 20
37.7016998589
 30
0.0
 11
189.3865926376
 21
38.5934903861
 31
0.0
  0
LINE
  5
97
330
1F
100
AcDbEntity
  8
工作區域參考線
 62
     1
370
    35
100
AcDbLine
 10
189.3865926376
 20
38.5934903861
 30
0.0
 11
192.622178086
 21
41.7204106327
 31
0.0
  0
LINE
  5
98
330
1F
100
AcDbEntity
  8
工作區域參考線
 62
     1
370
    35
100
AcDbLine
 10
192.622178086
 20
41.7204106327
 30
0.0
 11
193.5526845962
 21
40.8902184128
 31
0.0
  0
LINE
  5
99
330
1F
100
AcDbEntity
  8
工作區域參考線
 62
     1
370
    35
100
AcDbLine
 10
193.5526845962
 20
40.8902184128
 30
0.0
 11
192.9284332943
 21
40.281159982
 31
0.0
  0
LINE
  5
9A
330
1F
100
AcDbEntity
  8
工作區域參考線
 62
     1
370
    35
100
AcDbLine
 10
192.9284332943
 20
40.281159982
 30
0.0
 11
197.0551891526
 21
36.6919837134
 31
0.0
  0
LINE
  5
9B
330
1F
100
AcDbEntity
  8
工作區域參考線
 62
     1
370
    35
100
AcDbLine
 10
194.6188314058
 20
34.074159007
 30
0.0
 11
195.6042802988
 21
33.2154620671
 31
0.0
  0
LINE
  5
9C
330
1F
100
AcDbEntity
  8
工作區域參考線
 62
     1
370
    35
100
AcDbLine
 10
195.6042802988
 20
33.2154620671
 30
0.0
 11
196.8459616136
 21
34.4198950095
 31
0.0
  0
LINE
  5
9D
330
1F
100
AcDbEntity
  8
0
  6
Continuous
 62
     7
370
    18
100
AcDbLine
 10
185.6907965209
 20
13.1152464079
 30
0.0
 11
285.6907965209
 21
13.1152464079
 31
0.0
  0
LINE
  5
9E
330
1F
100
AcDbEntity
  8
0
  6
Continuous
 62
     7
370
    18
100
AcDbLine
 10
185.6907965209
 20
18.1152464079
 30
0.0
 11
235.6907965209
 21
18.1152464079
 31
0.0
  0
LINE
  5
9F
330
1F
100
AcDbEntity
  8
0
  6
Continuous
 62
     7
370
    18
100
AcDbLine
 10
185.6907965209
 20
23.1152464079
 30
0.0
 11
235.6907965209
 21
23.1152464079
 31
0.0
  0
LINE
  5
A0
330
1F
100
AcDbEntity
  8
0
  6
Continuous
 62
     7
370
    18
100
AcDbLine
 10
185.6907965209
 20
28.1152464079
 30
0.0
 11
285.6907965209
 21
28.1152464079
 31
0.0
  0
LINE
  5
A1
330
1F
100
AcDbEntity
  8
0
  6
Continuous
 62
     7
370
    18
100
AcDbLine
 10
235.6907965209
 20
33.1152464079
 30
0.0
 11
285.6907965209
 21
33.1152464079
 31
0.0
  0
LINE
  5
A2
330
1F
100
AcDbEntity
  8
0
  6
Continuous
 62
     7
370
    25
100
AcDbLine
 10
235.6907965209
 20
18.1152464079
 30
0.0
 11
285.6907965209
 21
18.1152464079
 31
0.0
  0
LINE
  5
A3
330
1F
100
AcDbEntity
  8
0
  6
Continuous
 62
     7
370
    18
100
AcDbLine
 10
185.6907965209
 20
43.1152464079
 30
0.0
 11
285.6907965209
 21
43.1152464079
 31
0.0
  0
LINE
  5
A4
330
1F
100
AcDbEntity
  8
0
  6
Continuous
 62
     7
370
    18
100
AcDbLine
 10
251.237217675
 20
8.1152464079
 30
0.0
 11
251.237217675
 21
18.1152464079
 31
0.0
  0
LINE
  5
A5
330
1F
100
AcDbEntity
  8
0
  6
Continuous
 62
     7
370
    18
100
AcDbLine
 10
235.6907965209
 20
8.1152464079
 30
0.0
 11
235.6907965209
 21
43.1152464079
 31
0.0
  0
LINE
  5
A6
330
1F
100
AcDbEntity
  8
0
  6
Continuous
 62
     7
370
    18
100
AcDbLine
 10
251.237217675
 20
28.1152464079
 30
0.0
 11
251.237217675
 21
33.1152464079
 31
0.0
  0
LINE
  5
A7
330
1F
100
AcDbEntity
  8
0
  6
Continuous
 62
     7
370
    18
100
AcDbLine
 10
214.4164086353
 20
8.1152464079
 30
0.0
 11
214.4164086353
 21
28.1152464079
 31
0.0
  0
LINE
  5
A8
330
1F
100
AcDbEntity
  8
0
  6
Continuous
 62
     7
370
    18
100
AcDbLine
 10
199.7785887506
 20
8.1152464079
 30
0.0
 11
199.7785887506
 21
28.1152464079
 31
0.0
  0
LINE
  5
A9
330
1F
100
AcDbEntity
  8
0
  6
Continuous
 62
     7
370
    18
100
AcDbLine
 10
185.6907965209
 20
8.1152464079
 30
0.0
 11
185.6907965209
 21
43.1152464079
 31
0.0
  0
LINE
  5
AA
330
1F
100
AcDbEntity
  8
0
  6
Continuous
 62
     7
370
    25
100
AcDbLine
 10
43.3207965209
 20
201.3720275751
 30
0.0
 11
43.3207965209
 21
202.8720275751
 31
0.0
  0
LINE
  5
AB
330
1F
100
AcDbEntity
  8
0
  6
Continuous
 62
     7
370
    25
100
AcDbLine
 10
77.9507965209
 20
201.3720275751
 30
0.0
 11
77.9507965209
 21
202.8720275751
 31
0.0
  0
LINE
  5
AC
330
1F
100
AcDbEntity
  8
0
  6
Continuous
 62
     7
370
    25
100
AcDbLine
 10
112.5807965209
 20
201.3720275751
 30
0.0
 11
112.5807965209
 21
202.8720275751
 31
0.0
  0
LINE
  5
AD
330
1F
100
AcDbEntity
  8
0
  6
Continuous
 62
     7
370
    25
100
AcDbLine
 10
147.2107965209
 20
201.3720275751
 30
0.0
 11
147.2107965209
 21
202.8720275751
 31
0.0
  0
LINE
  5
AE
330
1F
100
AcDbEntity
  8
0
  6
Continuous
 62
     7
370
    25
100
AcDbLine
 10
181.8407965209
 20
201.3720275751
 30
0.0
 11
181.8407965209
 21
202.8720275751
 31
0.0
  0
LINE
  5
AF
330
1F
100
AcDbEntity
  8
0
  6
Continuous
 62
     7
370
    25
100
AcDbLine
 10
216.4707965209
 20
201.3720275751
 30
0.0
 11
216.4707965209
 21
202.8720275751
 31
0.0
  0
LINE
  5
B0
330
1F
100
AcDbEntity
  8
0
  6
Continuous
 62
     7
370
    25
100
AcDbLine
 10
251.1007965209
 20
201.3720275751
 30
0.0
 11
251.1007965209
 21
202.8720275751
 31
0.0
  0
LINE
  5
B1
330
1F
100
AcDbEntity
  8
0
  6
Continuous
 62
     7
370
    25
100
AcDbLine
 10
43.3157965209
 20
8.1152464079
 30
0.0
 11
43.3157965209
 21
6.6152464079
 31
0.0
  0
LINE
  5
B2
330
1F
100
AcDbEntity
  8
0
  6
Continuous
 62
     7
370
    25
100
AcDbLine
 10
77.9407965209
 20
8.1152464079
 30
0.0
 11
77.9407965209
 21
6.6152464079
 31
0.0
  0
LINE
  5
B3
330
1F
100
AcDbEntity
  8
0
  6
Continuous
 62
     7
370
    25
100
AcDbLine
 10
112.5657965209
 20
8.1152464079
 30
0.0
 11
112.5657965209
 21
6.6152464079
 31
0.0
  0
LINE
  5
B4
330
1F
100
AcDbEntity
  8
0
  6
Continuous
 62
     7
370
    25
100
AcDbLine
 10
147.1907965209
 20
8.1152464079
 30
0.0
 11
147.1907965209
 21
6.6152464079
 31
0.0
  0
LINE
  5
B5
330
1F
100
AcDbEntity
  8
0
  6
Continuous
 62
     7
370
    25
100
AcDbLine
 10
181.8157965209
 20
8.1152464079
 30
0.0
 11
181.8157965209
 21
6.6152464079
 31
0.0
  0
LINE
  5
B6
330
1F
100
AcDbEntity
  8
0
  6
Continuous
 62
     7
370
    25
100
AcDbLine
 10
216.4407965209
 20
8.1152464079
 30
0.0
 11
216.4407965209
 21
6.6152464079
 31
0.0
  0
LINE
  5
B7
330
1F
100
AcDbEntity
  8
0
  6
Continuous
 62
     7
370
    18
100
AcDbLine
 10
285.6907965209
 20
201.3720275751
 30
0.0
 11
8.6907965209
 21
201.3720275751
 31
0.0
  0
LINE
  5
B8
330
1F
100
AcDbEntity
  8
0
  6
Continuous
 62
     7
370
    18
100
AcDbLine
 10
285.6907965209
 20
8.1152464079
 30
0.0
 11
285.6907965209
 21
201.3720275751
 31
0.0
  0
LINE
  5
B9
330
1F
100
AcDbEntity
  8
0
  6
Continuous
 62
     7
370
    18
100
AcDbLine
 10
8.6907965209
 20
201.3720275751
 30
0.0
 11
8.6907965209
 21
8.1152464079
 31
0.0
  0
LINE
  5
BA
330
1F
100
AcDbEntity
  8
0
  6
Continuous
 62
     7
370
    18
100
AcDbLine
 10
8.6907965209
 20
8.1152464079
 30
0.0
 11
285.6907965209
 21
8.1152464079
 31
0.0
  0
LINE
  5
BB
330
1F
100
AcDbEntity
  8
0
  6
Continuous
 62
     7
370
    25
100
AcDbLine
 10
251.0657965209
 20
8.1152464079
 30
0.0
 11
251.0657965209
 21
6.6152464079
 31
0.0
  0
LINE
  5
BC
330
1F
100
AcDbEntity
  8
0
  6
Continuous
 62
     7
370
    25
100
AcDbLine
 10
8.6907965209
 20
40.3252464079
 30
0.0
 11
7.1907965209
 21
40.3252464079
 31
0.0
  0
LINE
  5
BD
330
1F
100
AcDbEntity
  8
0
  6
Continuous
 62
     7
370
    25
100
AcDbLine
 10
8.6907965209
 20
72.5352464079
 30
0.0
 11
7.1907965209
 21
72.5352464079
 31
0.0
  0
LINE
  5
BE
330
1F
100
AcDbEntity
  8
0
  6
Continuous
 62
     7
370
    25
100
AcDbLine
 10
8.6907965209
 20
104.7452464079
 30
0.0
 11
7.1907965209
 21
104.7452464079
 31
0.0
  0
LINE
  5
BF
330
1F
100
AcDbEntity
  8
0
  6
Continuous
 62
     7
370
    25
100
AcDbLine
 10
8.6907965209
 20
136.9552464079
 30
0.0
 11
7.1907965209
 21
136.9552464079
 31
0.0
  0
LINE
  5
C0
330
1F
100
AcDbEntity
  8
0
  6
Continuous
 62
     7
370
    25
100
AcDbLine
 10
8.6907965209
 20
169.1652464079
 30
0.0
 11
7.1907965209
 21
169.1652464079
 31
0.0
  0
LINE
  5
C1
330
1F
100
AcDbEntity
  8
0
  6
Continuous
 62
     7
370
    25
100
AcDbLine
 10
285.6907965209
 20
40.3252464079
 30
0.0
 11
287.1907965209
 21
40.3252464079
 31
0.0
  0
LINE
  5
C2
330
1F
100
AcDbEntity
  8
0
  6
Continuous
 62
     7
370
    25
100
AcDbLine
 10
285.6907965209
 20
72.5352464079
 30
0.0
 11
287.1907965209
 21
72.5352464079
 31
0.0
  0
LINE
  5
C3
330
1F
100
AcDbEntity
  8
0
  6
Continuous
 62
     7
370
    25
100
AcDbLine
 10
285.6907965209
 20
104.7452464079
 30
0.0
 11
287.1907965209
 21
104.7452464079
 31
0.0
  0
LINE
  5
C4
330
1F
100
AcDbEntity
  8
0
  6
Continuous
 62
     7
370
    25
100
AcDbLine
 10
285.6907965209
 20
136.9552464079
 30
0.0
 11
287.1907965209
 21
136.9552464079
 31
0.0
  0
LINE
  5
C5
330
1F
100
AcDbEntity
  8
0
  6
Continuous
 62
     7
370
    25
100
AcDbLine
 10
285.6907965209
 20
169.1652464079
 30
0.0
 11
287.1907965209
 21
169.1652464079
 31
0.0
  0
CIRCLE
  5
C6
330
1F
100
AcDbEntity
  8
0
  6
Continuous
 62
     7
370
    18
100
AcDbCircle
 10
168.3593775185
 20
17.7745192513
 30
0.0
 40
1.5
  0
CIRCLE
  5
C7
330
1F
100
AcDbEntity
  8
0
  6
Continuous
 62
     7
370
    18
100
AcDbCircle
 10
168.3593775185
 20
17.7745192513
 30
0.0
 40
2.5
  0
ARC
  5
C8
330
1F
100
AcDbEntity
  8
工作區域參考線
 62
     1
370
    35
100
AcDbCircle
 10
195.9525692879
 20
35.6478417413
 30
0.0
 40
1.518552937418275
100
AcDbArc
 50
306.0377529468
 51
43.4396461534
  0
ARC
  5
C9
330
1F
100
AcDbEntity
  8
工作區域參考線
 62
     1
370
    35
100
AcDbCircle
 10
192.271589272
 20
35.1222473508
 30
0.0
 40
3.181636704527891
100
AcDbArc
 50
45.5592925416
 51
125.8325555121
  0
ARC
  5
CA
330
1F
100
AcDbEntity
  8
工作區域參考線
 62
     1
370
    35
100
AcDbCircle
 10
192.5892455628
 20
35.6630691563
 30
0.0
 40
2.577567488346266
100
AcDbArc
 50
321.9435288427
 51
42.1815007004
  0
INSERT
  5
CB
330
1F
100
AcDbEntity
  8
0
  6
Continuous
 62
     7
100
AcDbBlockReference
  2
圖塊6
 10
186.9640923647
 20
29.4440528386
 30
0.0
  0
MTEXT
  5
CD
330
1F
100
AcDbEntity
  8
0
  6
Continuous
 62
     7
370
     0
100
AcDbMText
 10
165.5426850804
 20
13.2208440369
 30
0.0
 40
2.6458333333
 41
0.0
 71
     1
 72
     1
  1
UNIT:m/m
  7
SLDTEXTSTYLE0
 73
     1
 44
1.0
  0
INSERT
  5
D4
330
1F
100
AcDbEntity
  8
0
  6
Continuous
 62
     7
370
     0
100
AcDbBlockReference
  2
SW_NOTE_0
 10
12.2315076053
 20
193.8904304251
 30
0.0
  0
MTEXT
  5
D5
330
1F
100
AcDbEntity
  8
0
  6
Continuous
 62
     7
370
     0
100
AcDbMText
 10
198.7251893935
 20
40.4406774139
 30
0.0
 40
2.38125
 41
0.0
 71
     1
 72
     1
  1
Unice E-O Services Inc.
  7
SLDTEXTSTYLE0
 73
     1
 44
1.0
  0
MTEXT
  5
D6
330
1F
100
AcDbEntity
  8
0
  6
Continuous
 62
     7
370
     0
100
AcDbMText
 10
217.5590538149
 20
21.5867148511
 30
0.0
 40
1.8520833333
 41
0.0
 71
     1
 72
     1
  1
2020/12/28
  7
SLDTEXTSTYLE0
 73
     1
 44
1.0
  0
MTEXT
  5
D7
330
1F
100
AcDbEntity
  8
0
  6
Continuous
 62
     7
370
     0
100
AcDbMText
 10
252.6088982507
 20
16.87117774
 30
0.0
 40
2.5
 41
0.0
 71
     1
 72
     1
  1
1:1
  7
SLDTEXTSTYLE0
 73
     1
 44
1.0
  0
MTEXT
  5
D8
330
1F
100
AcDbEntity
  8
0
  6
Continuous
 62
     7
370
     0
100
AcDbMText
 10
252.3075599985
 20
32.1519195438
 30
0.0
 40
2.5
 41
0.0
 71
     1
 72
     1
  1
UIS-050-014-C-B
  7
SLDTEXTSTYLE0
 73
     1
 44
1.0
  0
MTEXT
  5
D9
330
1F
100
AcDbEntity
  8
0
  6
Continuous
 62
     7
370
     0
100
AcDbMText
 10
252.3075599985
 20
38.1082117879
 30
0.0
 40
2.5
 41
0.0
 71
     1
 72
     1
  1
UIS-050-014-C-B
  7
SLDTEXTSTYLE0
 73
     1
 44
1.0
  0
MTEXT
  5
DA
330
1F
100
AcDbEntity
  8
0
  6
Continuous
 62
     7
370
     0
100
AcDbMText
 10
236.3921866786
 20
16.5064795728
 30
0.0
 40
2.1166666667
 41
0.0
 71
     1
 72
     1
  1
SCALE:
  7
SLDTEXTSTYLE0
 73
     1
 44
1.0
  0
MTEXT
  5
DB
330
1F
100
AcDbEntity
  8
0
  6
Continuous
 62
     7
370
     0
100
AcDbMText
 10
186.3336086789
 20
21.5867148511
 30
0.0
 40
1.8520833333
 41
0.0
 71
     1
 72
     1
  1
DRAWN
  7
SLDTEXTSTYLE0
 73
     1
 44
1.0
  0
MTEXT
  5
DC
330
1F
100
AcDbEntity
  8
0
  6
Continuous
 62
     7
370
     0
100
AcDbMText
 10
203.2228367937
 20
26.683208308
 30
0.0
 40
1.8520833333
 41
0.0
 71
     1
 72
     1
  1
NAME
  7
SLDTEXTSTYLE0
 73
     1
 44
1.0
  0
MTEXT
  5
DD
330
1F
100
AcDbEntity
  8
0
  6
Continuous
 62
     7
370
     0
100
AcDbMText
 10
220.8710155758
 20
26.683208308
 30
0.0
 40
1.8520833333
 41
0.0
 71
     1
 72
     1
  1
DATE
  7
SLDTEXTSTYLE0
 73
     1
 44
1.0
  0
MTEXT
  5
DE
330
1F
100
AcDbEntity
  8
0
  6
Continuous
 62
     7
370
     0
100
AcDbMText
 10
236.2756316645
 20
31.7872213766
 30
0.0
 40
2.1166666667
 41
0.0
 71
     1
 72
     1
  1
DWG. NO.
  7
SLDTEXTSTYLE0
 73
     1
 44
1.0
  0
MTEXT
  5
DF
330
1F
100
AcDbEntity
  8
0
  6
Continuous
 62
     7
370
     0
100
AcDbMText
 10
236.3629907088
 20
41.8840658243
 30
0.0
 40
2.1166666667
 41
0.0
 71
     1
 72
     1
  1
TITLE:
  7
SLDTEXTSTYLE0
 73
     1
 44
1.0
  0
MTEXT
  5
E0
330
1F
100
AcDbEntity
  8
0
  6
Continuous
 62
     7
370
     0
100
AcDbMText
 10
203.0314209802
 20
16.2403789724
 30
0.0
 40
1.8520833333
 41
0.0
 71
     1
 72
     1
  1
Johnny
  7
SLDTEXTSTYLE0
 73
     1
 44
1.0
  0
MTEXT
  5
E1
330
1F
100
AcDbEntity
  8
0
  6
Continuous
 62
     7
370
     0
100
AcDbMText
 10
217.5590538149
 20
16.2403789724
 30
0.0
 40
1.8520833333
 41
0.0
 71
     1
 72
     1
  1
2020/12/28
  7
SLDTEXTSTYLE0
 73
     1
 44
1.0
  0
MTEXT
  5
E2
330
1F
100
AcDbEntity
  8
0
  6
Continuous
 62
     7
370
     0
100
AcDbMText
 10
186.3336086789
 20
16.2403789724
 30
0.0
 40
1.8520833333
 41
0.0
 71
     1
 72
     1
  1
ENG APPR.
  7
SLDTEXTSTYLE0
 73
     1
 44
1.0
  0
MTEXT
  5
E3
330
1F
100
AcDbEntity
  8
0
  6
Continuous
 62
     7
370
     0
100
AcDbMText
 10
236.3921866786
 20
11.6853389288
 30
0.0
 40
2.1166666667
 41
0.0
 71
     1
 72
     1
  1
REV
  7
SLDTEXTSTYLE0
 73
     1
 44
1.0
  0
MTEXT
  5
E4
330
1F
100
AcDbEntity
  8
0
  6
Continuous
 62
     7
370
     0
100
AcDbMText
 10
236.3629907088
 20
26.9493089085
 30
0.0
 40
2.1166666667
 41
0.0
 71
     1
 72
     1
  1
MATERIAL:
  7
SLDTEXTSTYLE0
 73
     1
 44
1.0
  0
MTEXT
  5
E5
330
1F
100
AcDbEntity
  8
0
  6
Continuous
 62
     7
370
     0
100
AcDbMText
 10
252.6088982507
 20
22.2175136187
 30
0.0
 40
2.5
 41
0.0
 71
     1
 72
     1
  1
N/A
  7
SLDTEXTSTYLE0
 73
     1
 44
1.0
  0
MTEXT
  5
E6
330
1F
100
AcDbEntity
  8
0
  6
Continuous
 62
     7
370
     0
100
AcDbMText
 10
26.6029931533
 20
204.453351657
 30
0.0
 40
2.1166666667
 41
0.0
 71
     1
 72
     1
  1
1
  7
SLDTEXTSTYLE0
 73
     1
 44
1.0
  0
MTEXT
  5
E7
330
1F
100
AcDbEntity
  8
0
  6
Continuous
 62
     7
370
     0
100
AcDbMText
 10
60.7170995724
 20
204.453351657
 30
0.0
 40
2.1166666667
 41
0.0
 71
     1
 72
     1
  1
2
  7
SLDTEXTSTYLE0
 73
     1
 44
1.0
  0
MTEXT
  5
E8
330
1F
100
AcDbEntity
  8
0
  6
Continuous
 62
     7
370
     0
100
AcDbMText
 10
94.9009943906
 20
204.453351657
 30
0.0
 40
2.1166666667
 41
0.0
 71
     1
 72
     1
  1
3
  7
SLDTEXTSTYLE0
 73
     1
 44
1.0
  0
MTEXT
  5
E9
330
1F
100
AcDbEntity
  8
0
  6
Continuous
 62
     7
370
     0
100
AcDbMText
 10
129.2533362851
 20
204.2992584364
 30
0.0
 40
2.1166666667
 41
0.0
 71
     1
 72
     1
  1
4
  7
SLDTEXTSTYLE0
 73
     1
 44
1.0
  0
MTEXT
  5
EA
330
1F
100
AcDbEntity
  8
0
  6
Continuous
 62
     7
370
     0
100
AcDbMText
 10
163.702323464
 20
204.453351657
 30
0.0
 40
2.1166666667
 41
0.0
 71
     1
 72
     1
  1
5
  7
SLDTEXTSTYLE0
 73
     1
 44
1.0
  0
MTEXT
  5
EB
330
1F
100
AcDbEntity
  8
0
  6
Continuous
 62
     7
370
     0
100
AcDbMText
 10
198.6382170415
 20
204.453351657
 30
0.0
 40
2.1166666667
 41
0.0
 71
     1
 72
     1
  1
6
  7
SLDTEXTSTYLE0
 73
     1
 44
1.0
  0
MTEXT
  5
EC
330
1F
100
AcDbEntity
  8
0
  6
Continuous
 62
     7
370
     0
100
AcDbMText
 10
234.3630657407
 20
204.453351657
 30
0.0
 40
2.1166666667
 41
0.0
 71
     1
 72
     1
  1
7
  7
SLDTEXTSTYLE0
 73
     1
 44
1.0
  0
MTEXT
  5
ED
330
1F
100
AcDbEntity
  8
0
  6
Continuous
 62
     7
370
     0
100
AcDbMText
 10
266.2787820494
 20
204.453351657
 30
0.0
 40
2.1166666667
 41
0.0
 71
     1
 72
     1
  1
8
  7
SLDTEXTSTYLE0
 73
     1
 44
1.0
  0
MTEXT
  5
EE
330
1F
100
AcDbEntity
  8
0
  6
Continuous
 62
     7
370
     0
100
AcDbMText
 10
5.3568236555
 20
185.8113022879
 30
0.0
 40
2.1166666667
 41
0.0
 71
     1
 72
     1
  1
A
  7
SLDTEXTSTYLE0
 73
     1
 44
1.0
  0
MTEXT
  5
EF
330
1F
100
AcDbEntity
  8
0
  6
Continuous
 62
     7
370
     0
100
AcDbMText
 10
5.5910431831
 20
154.2993048238
 30
0.0
 40
2.1166666667
 41
0.0
 71
     1
 72
     1
  1
B
  7
SLDTEXTSTYLE0
 73
     1
 44
1.0
  0
MTEXT
  5
F0
330
1F
100
AcDbEntity
  8
0
  6
Continuous
 62
     7
370
     0
100
AcDbMText
 10
5.5910431831
 20
121.274351423
 30
0.0
 40
2.1166666667
 41
0.0
 71
     1
 72
     1
  1
C
  7
SLDTEXTSTYLE0
 73
     1
 44
1.0
  0
MTEXT
  5
F1
330
1F
100
AcDbEntity
  8
0
  6
Continuous
 62
     7
370
     0
100
AcDbMText
 10
5.5910431831
 20
88.7453220221
 30
0.0
 40
2.1166666667
 41
0.0
 71
     1
 72
     1
  1
D
  7
SLDTEXTSTYLE0
 73
     1
 44
1.0
  0
MTEXT
  5
F2
330
1F
100
AcDbEntity
  8
0
  6
Continuous
 62
     7
370
     0
100
AcDbMText
 10
5.5910431831
 20
57.5558849197
 30
0.0
 40
2.1166666667
 41
0.0
 71
     1
 72
     1
  1
E
  7
SLDTEXTSTYLE0
 73
     1
 44
1.0
  0
MTEXT
  5
F3
330
1F
100
AcDbEntity
  8
0
  6
Continuous
 62
     7
370
     0
100
AcDbMText
 10
5.5910431831
 20
25.5694212252
 30
0.0
 40
2.1166666667
 41
0.0
 71
     1
 72
     1
  1
F
  7
SLDTEXTSTYLE0
 73
     1
 44
1.0
  0
MTEXT
  5
F4
330
1F
100
AcDbEntity
  8
0
  6
Continuous
 62
     7
370
     0
100
AcDbMText
 10
266.1858616964
 20
6.6236223963
 30
0.0
 40
2.1166666667
 41
0.0
 71
     1
 72
     1
  1
8
  7
SLDTEXTSTYLE0
 73
     1
 44
1.0
  0
MTEXT
  5
F5
330
1F
100
AcDbEntity
  8
0
  6
Continuous
 62
     7
370
     0
100
AcDbMText
 10
234.2701453876
 20
6.6236223963
 30
0.0
 40
2.1166666667
 41
0.0
 71
     1
 72
     1
  1
7
  7
SLDTEXTSTYLE0
 73
     1
 44
1.0
  0
MTEXT
  5
F6
330
1F
100
AcDbEntity
  8
0
  6
Continuous
 62
     7
370
     0
100
AcDbMText
 10
198.5452966885
 20
6.6236223963
 30
0.0
 40
2.1166666667
 41
0.0
 71
     1
 72
     1
  1
6
  7
SLDTEXTSTYLE0
 73
     1
 44
1.0
  0
MTEXT
  5
F7
330
1F
100
AcDbEntity
  8
0
  6
Continuous
 62
     7
370
     0
100
AcDbMText
 10
163.6094031109
 20
6.6236223963
 30
0.0
 40
2.1166666667
 41
0.0
 71
     1
 72
     1
  1
5
  7
SLDTEXTSTYLE0
 73
     1
 44
1.0
  0
MTEXT
  5
F8
330
1F
100
AcDbEntity
  8
0
  6
Continuous
 62
     7
370
     0
100
AcDbMText
 10
129.1604159321
 20
6.4695291758
 30
0.0
 40
2.1166666667
 41
0.0
 71
     1
 72
     1
  1
4
  7
SLDTEXTSTYLE0
 73
     1
 44
1.0
  0
MTEXT
  5
F9
330
1F
100
AcDbEntity
  8
0
  6
Continuous
 62
     7
370
     0
100
AcDbMText
 10
94.8080740376
 20
6.6236223963
 30
0.0
 40
2.1166666667
 41
0.0
 71
     1
 72
     1
  1
3
  7
SLDTEXTSTYLE0
 73
     1
 44
1.0
  0
MTEXT
  5
FA
330
1F
100
AcDbEntity
  8
0
  6
Continuous
 62
     7
370
     0
100
AcDbMText
 10
60.6241792194
 20
6.6236223963
 30
0.0
 40
2.1166666667
 41
0.0
 71
     1
 72
     1
  1
2
  7
SLDTEXTSTYLE0
 73
     1
 44
1.0
  0
MTEXT
  5
FB
330
1F
100
AcDbEntity
  8
0
  6
Continuous
 62
     7
370
     0
100
AcDbMText
 10
26.5100728003
 20
6.6236223963
 30
0.0
 40
2.1166666667
 41
0.0
 71
     1
 72
     1
  1
1
  7
SLDTEXTSTYLE0
 73
     1
 44
1.0
  0
MTEXT
  5
FC
330
1F
100
AcDbEntity
  8
0
  6
Continuous
 62
     7
370
     0
100
AcDbMText
 10
287.1023846145
 20
186.6424909092
 30
0.0
 40
2.1166666667
 41
0.0
 71
     1
 72
     1
  1
A
  7
SLDTEXTSTYLE0
 73
     1
 44
1.0
  0
MTEXT
  5
FD
330
1F
100
AcDbEntity
  8
0
  6
Continuous
 62
     7
370
     0
100
AcDbMText
 10
287.3366041421
 20
155.1304934451
 30
0.0
 40
2.1166666667
 41
0.0
 71
     1
 72
     1
  1
B
  7
SLDTEXTSTYLE0
 73
     1
 44
1.0
  0
MTEXT
  5
FE
330
1F
100
AcDbEntity
  8
0
  6
Continuous
 62
     7
370
     0
100
AcDbMText
 10
287.3366041421
 20
122.1055400442
 30
0.0
 40
2.1166666667
 41
0.0
 71
     1
 72
     1
  1
C
  7
SLDTEXTSTYLE0
 73
     1
 44
1.0
  0
MTEXT
  5
FF
330
1F
100
AcDbEntity
  8
0
  6
Continuous
 62
     7
370
     0
100
AcDbMText
 10
287.3366041421
 20
89.5765106433
 30
0.0
 40
2.1166666667
 41
0.0
 71
     1
 72
     1
  1
D
  7
SLDTEXTSTYLE0
 73
     1
 44
1.0
  0
MTEXT
  5
100
330
1F
100
AcDbEntity
  8
0
  6
Continuous
 62
     7
370
     0
100
AcDbMText
 10
287.3366041421
 20
58.3870735409
 30
0.0
 40
2.1166666667
 41
0.0
 71
     1
 72
     1
  1
E
  7
SLDTEXTSTYLE0
 73
     1
 44
1.0
  0
MTEXT
  5
101
330
1F
100
AcDbEntity
  8
0
  6
Continuous
 62
     7
370
     0
100
AcDbMText
 10
287.3366041421
 20
26.4006098464
 30
0.0
 40
2.1166666667
 41
0.0
 71
     1
 72
     1
  1
F
  7
SLDTEXTSTYLE0
 73
     1
 44
1.0
  0
MTEXT
  5
102
330
1F
100
AcDbEntity
  8
0
  6
Continuous
 62
     7
370
     0
100
AcDbMText
 10
203.1553128802
 20
21.5867148511
 30
0.0
 40
1.8520833333
 41
0.0
 71
     1
 72
     1
  1
John
  7
SLDTEXTSTYLE0
 73
     1
 44
1.0
  0
MTEXT
  5
104
330
1F
100
AcDbEntity
  8
0
  6
Continuous
 62
     7
370
     0
100
AcDbMText
 10
252.8482239645
 20
12.2219603318
 30
0.0
 40
2.38125
 41
0.0
 71
     1
 72
     1
  1
0
  7
SLDTEXTSTYLE1
 73
     1
 44
1.0
  0
INSERT
  5
10A
330
1F
100
AcDbEntity
  8
SLD-0
 62
     7
100
AcDbBlockReference
  2
SW_NOTE_0_1
 10
198.7251893935
 20
33.5479745212
 30
0.0
  0
INSERT
  5
11C
330
1F
100
AcDbEntity
  8
DIM
100
AcDbBlockReference
  2
SW_TABLEANNOTATION_0
 10
8.6907965209
 20
21.0953354643
 30
0.0
  0
LINE
  5
11D
330
1F
100
AcDbEntity
  8
0
  6
Continuous
 62
     7
370
    35
100
AcDbLine
 10
93.1292013871
 20
61.0789173061
 30
0.0
 11
93.1292013871
 21
61.2789173061
 31
0.0
  0
LINE
  5
11E
330
1F
100
AcDbEntity
  8
0
  6
Continuous
 62
     7
370
    35
100
AcDbLine
 10
94.0634271817
 20
61.2789173061
 30
0.0
 11
93.1292013871
 21
61.2789173061
 31
0.0
  0
ARC
  5
11F
330
1F
100
AcDbEntity
  8
0
  6
Continuous
 62
     7
370
    35
100
AcDbCircle
 10
94.0634271817
 20
60.9789173061
 30
0.0
 40
0.3000000000000114
100
AcDbArc
 50
0.0
 51
90.0
  0
ARC
  5
120
330
1F
100
AcDbEntity
  8
0
  6
Continuous
 62
     7
370
    35
100
AcDbCircle
 10
94.0634271817
 20
60.9789173061
 30
0.0
 40
0.3000000000000114
100
AcDbArc
 50
270.0
 51
0.0
  0
LINE
  5
121
330
1F
100
AcDbEntity
  8
0
  6
Continuous
 62
     7
370
    35
100
AcDbLine
 10
94.0634271817
 20
60.6789173061
 30
0.0
 11
93.8634271817
 21
60.6789173061
 31
0.0
  0
LINE
  5
122
330
1F
100
AcDbEntity
  8
0
  6
Continuous
 62
     7
370
    35
100
AcDbLine
 10
93.8634271817
 20
55.8789173061
 30
0.0
 11
93.8634271817
 21
60.6789173061
 31
0.0
  0
LINE
  5
123
330
1F
100
AcDbEntity
  8
0
  6
Continuous
 62
     7
370
    35
100
AcDbLine
 10
93.8634271817
 20
55.8789173061
 30
0.0
 11
93.6634271817
 21
55.6789173061
 31
0.0
  0
LINE
  5
124
330
1F
100
AcDbEntity
  8
0
  6
Continuous
 62
     7
370
    35
100
AcDbLine
 10
93.6634271817
 20
55.6789173061
 30
0.0
 11
92.1634271817
 21
55.6789173061
 31
0.0
  0
LINE
  5
125
330
1F
100
AcDbEntity
  8
0
  6
Continuous
 62
     7
370
    35
100
AcDbLine
 10
92.1634271817
 20
55.6789173061
 30
0.0
 11
91.9634271817
 21
55.8789173061
 31
0.0
  0
LINE
  5
126
330
1F
100
AcDbEntity
  8
0
  6
Continuous
 62
     7
370
    35
100
AcDbLine
 10
91.9634271817
 20
60.6789173061
 30
0.0
 11
91.9634271817
 21
55.8789173061
 31
0.0
  0
LINE
  5
127
330
1F
100
AcDbEntity
  8
0
  6
Continuous
 62
     7
370
    35
100
AcDbLine
 10
91.9634271817
 20
60.6789173061
 30
0.0
 11
91.7634271817
 21
60.6789173061
 31
0.0
  0
ARC
  5
128
330
1F
100
AcDbEntity
  8
0
  6
Continuous
 62
     7
370
    35
100
AcDbCircle
 10
91.7634271817
 20
60.9789173061
 30
0.0
 40
0.3000000000000114
100
AcDbArc
 50
180.0
 51
270.0
  0
ARC
  5
129
330
1F
100
AcDbEntity
  8
0
  6
Continuous
 62
     7
370
    35
100
AcDbCircle
 10
91.7634271817
 20
60.9789173061
 30
0.0
 40
0.3000000000000114
100
AcDbArc
 50
90.0
 51
180.0
  0
LINE
  5
12A
330
1F
100
AcDbEntity
  8
0
  6
Continuous
 62
     7
370
    35
100
AcDbLine
 10
92.6976529764
 20
61.2789173061
 30
0.0
 11
91.7634271817
 21
61.2789173061
 31
0.0
  0
LINE
  5
12B
330
1F
100
AcDbEntity
  8
0
  6
Continuous
 62
     7
370
    35
100
AcDbLine
 10
92.6976529764
 20
61.0789173061
 30
0.0
 11
92.6976529764
 21
61.2789173061
 31
0.0
  0
LINE
  5
12C
330
1F
100
AcDbEntity
  8
0
  6
Continuous
 62
     7
370
    35
100
AcDbLine
 10
93.1292013871
 20
61.0789173061
 30
0.0
 11
92.6976529764
 21
61.0789173061
 31
0.0
  0
LINE
  5
12D
330
1F
100
AcDbEntity
  8
0
  6
Continuous
 62
     7
370
    35
100
AcDbLine
 10
93.1255294934
 20
61.2789173061
 30
0.0
 11
93.1255294934
 21
61.0789173061
 31
0.0
  0
LINE
  5
12E
330
1F
100
AcDbEntity
  8
0
  6
Continuous
 62
     7
370
    35
100
AcDbLine
 10
93.1255294934
 20
61.2789173061
 30
0.0
 11
93.1292013871
 21
61.2789173061
 31
0.0
  0
LINE
  5
12F
330
1F
100
AcDbEntity
  8
0
  6
Continuous
 62
     7
370
    35
100
AcDbLine
 10
92.9098762117
 20
61.2789173061
 30
0.0
 11
92.9098762117
 21
61.0789173061
 31
0.0
  0
LINE
  5
130
330
1F
100
AcDbEntity
  8
0
  6
Continuous
 62
     7
370
    35
100
AcDbLine
 10
92.9098762117
 20
61.2789173061
 30
0.0
 11
93.1255294934
 21
61.2789173061
 31
0.0
  0
LINE
  5
131
330
1F
100
AcDbEntity
  8
0
  6
Continuous
 62
     7
370
    35
100
AcDbLine
 10
92.6976529764
 20
61.2789173061
 30
0.0
 11
92.9098762117
 21
61.2789173061
 31
0.0
  0
ARC
  5
132
330
1F
100
AcDbEntity
  8
0
  6
Continuous
 62
     7
370
    35
100
AcDbCircle
 10
156.0634271817
 20
60.9789173061
 30
0.0
 40
0.3000000000000398
100
AcDbArc
 50
0.0
 51
90.0
  0
ARC
  5
133
330
1F
100
AcDbEntity
  8
0
  6
Continuous
 62
     7
370
    35
100
AcDbCircle
 10
153.7634271817
 20
60.9789173061
 30
0.0
 40
0.2999999999999972
100
AcDbArc
 50
90.0
 51
180.0
  0
LINE
  5
134
330
1F
100
AcDbEntity
  8
0
  6
Continuous
 62
     7
370
    35
100
AcDbLine
 10
156.0634271817
 20
61.2789173061
 30
0.0
 11
155.1292013871
 21
61.2789173061
 31
0.0
  0
ARC
  5
135
330
1F
100
AcDbEntity
  8
0
  6
Continuous
 62
     7
370
    35
100
AcDbCircle
 10
156.0634271817
 20
60.9789173061
 30
0.0
 40
0.3000000000000398
100
AcDbArc
 50
270.0
 51
0.0
  0
LINE
  5
136
330
1F
100
AcDbEntity
  8
0
  6
Continuous
 62
     7
370
    35
100
AcDbLine
 10
156.0634271817
 20
60.6789173061
 30
0.0
 11
155.8634271817
 21
60.6789173061
 31
0.0
  0
LINE
  5
137
330
1F
100
AcDbEntity
  8
0
  6
Continuous
 62
     7
370
    35
100
AcDbLine
 10
155.8634271817
 20
55.8789173061
 30
0.0
 11
155.8634271817
 21
60.6789173061
 31
0.0
  0
LINE
  5
138
330
1F
100
AcDbEntity
  8
0
  6
Continuous
 62
     7
370
    35
100
AcDbLine
 10
155.8634271817
 20
55.8789173061
 30
0.0
 11
155.6634271817
 21
55.6789173061
 31
0.0
  0
LINE
  5
139
330
1F
100
AcDbEntity
  8
0
  6
Continuous
 62
     7
370
    35
100
AcDbLine
 10
155.6634271817
 20
55.6789173061
 30
0.0
 11
154.1634271817
 21
55.6789173061
 31
0.0
  0
LINE
  5
13A
330
1F
100
AcDbEntity
  8
0
  6
Continuous
 62
     7
370
    35
100
AcDbLine
 10
154.1634271817
 20
55.6789173061
 30
0.0
 11
153.9634271817
 21
55.8789173061
 31
0.0
  0
LINE
  5
13B
330
1F
100
AcDbEntity
  8
0
  6
Continuous
 62
     7
370
    35
100
AcDbLine
 10
153.9634271817
 20
60.6789173061
 30
0.0
 11
153.9634271817
 21
55.8789173061
 31
0.0
  0
LINE
  5
13C
330
1F
100
AcDbEntity
  8
0
  6
Continuous
 62
     7
370
    35
100
AcDbLine
 10
153.9634271817
 20
60.6789173061
 30
0.0
 11
153.7634271817
 21
60.6789173061
 31
0.0
  0
ARC
  5
13D
330
1F
100
AcDbEntity
  8
0
  6
Continuous
 62
     7
370
    35
100
AcDbCircle
 10
153.7634271817
 20
60.9789173061
 30
0.0
 40
0.2999999999999972
100
AcDbArc
 50
180.0
 51
270.0
  0
LINE
  5
13E
330
1F
100
AcDbEntity
  8
0
  6
Continuous
 62
     7
370
    35
100
AcDbLine
 10
154.6976529764
 20
61.2789173061
 30
0.0
 11
153.7634271817
 21
61.2789173061
 31
0.0
  0
LINE
  5
13F
330
1F
100
AcDbEntity
  8
0
  6
Continuous
 62
     7
370
    35
100
AcDbLine
 10
154.6976529764
 20
61.2789173061
 30
0.0
 11
154.6976529764
 21
61.0789173061
 31
0.0
  0
LINE
  5
140
330
1F
100
AcDbEntity
  8
0
  6
Continuous
 62
     7
370
    35
100
AcDbLine
 10
155.1292013871
 20
61.0789173061
 30
0.0
 11
154.6976529764
 21
61.0789173061
 31
0.0
  0
LINE
  5
141
330
1F
100
AcDbEntity
  8
0
  6
Continuous
 62
     7
370
    35
100
AcDbLine
 10
155.1292013871
 20
61.2789173061
 30
0.0
 11
155.1292013871
 21
61.0789173061
 31
0.0
  0
LINE
  5
142
330
1F
100
AcDbEntity
  8
0
  6
Continuous
 62
     7
370
    35
100
AcDbLine
 10
155.1255294934
 20
61.2789173061
 30
0.0
 11
155.1255294934
 21
61.0789173061
 31
0.0
  0
LINE
  5
143
330
1F
100
AcDbEntity
  8
0
  6
Continuous
 62
     7
370
    35
100
AcDbLine
 10
155.1292013871
 20
61.2789173061
 30
0.0
 11
155.1255294934
 21
61.2789173061
 31
0.0
  0
LINE
  5
144
330
1F
100
AcDbEntity
  8
0
  6
Continuous
 62
     7
370
    35
100
AcDbLine
 10
154.9098762117
 20
61.2789173061
 30
0.0
 11
154.9098762117
 21
61.0789173061
 31
0.0
  0
LINE
  5
145
330
1F
100
AcDbEntity
  8
0
  6
Continuous
 62
     7
370
    35
100
AcDbLine
 10
154.9098762117
 20
61.2789173061
 30
0.0
 11
154.6976529764
 21
61.2789173061
 31
0.0
  0
LINE
  5
146
330
1F
100
AcDbEntity
  8
0
  6
Continuous
 62
     7
370
    35
100
AcDbLine
 10
155.1255294934
 20
61.2789173061
 30
0.0
 11
154.9098762117
 21
61.2789173061
 31
0.0
  0
LINE
  5
147
330
1F
100
AcDbEntity
  8
0
  6
Continuous
 62
     7
370
    35
100
AcDbLine
 10
113.4134271817
 20
31.6255236449
 30
0.0
 11
113.4134271817
 21
32.6255236449
 31
0.0
  0
LINE
  5
148
330
1F
100
AcDbEntity
  8
0
  6
Continuous
 62
     7
370
    35
100
AcDbLine
 10
134.4134271817
 20
32.6255236449
 30
0.0
 11
134.4134271817
 21
31.6255236449
 31
0.0
  0
LINE
  5
149
330
1F
100
AcDbEntity
  8
0
  6
Continuous
 62
     7
370
    35
100
AcDbLine
 10
113.7634271817
 20
32.6255236449
 30
0.0
 11
113.7634271817
 21
34.6255236449
 31
0.0
  0
LINE
  5
14A
330
1F
100
AcDbEntity
  8
0
  6
Continuous
 62
     7
370
    35
100
AcDbLine
 10
134.0634271817
 20
34.6255236449
 30
0.0
 11
134.0634271817
 21
32.6255236449
 31
0.0
  0
ARC
  5
14B
330
1F
100
AcDbEntity
  8
0
  6
Continuous
 62
     7
370
    35
100
AcDbCircle
 10
113.9134271817
 20
30.1255236449
 30
0.0
 40
1.500000000000007
100
AcDbArc
 50
270.0
 51
90.0
  0
ARC
  5
14C
330
1F
100
AcDbEntity
  8
0
  6
Continuous
 62
     7
370
    35
100
AcDbCircle
 10
133.9134271817
 20
30.1255236449
 30
0.0
 40
1.500000000000007
100
AcDbArc
 50
90.0
 51
270.0
  0
LINE
  5
14D
330
1F
100
AcDbEntity
  8
0
  6
Continuous
 62
     7
370
    35
100
AcDbLine
 10
113.9134271817
 20
28.6255236449
 30
0.0
 11
113.9134271817
 21
28.1255236449
 31
0.0
  0
LINE
  5
14E
330
1F
100
AcDbEntity
  8
0
  6
Continuous
 62
     7
370
    35
100
AcDbLine
 10
133.9134271817
 20
28.1255236449
 30
0.0
 11
133.9134271817
 21
28.6255236449
 31
0.0
  0
LINE
  5
14F
330
1F
100
AcDbEntity
  8
0
  6
Continuous
 62
     7
370
    35
100
AcDbLine
 10
116.0134271817
 20
34.6255236449
 30
0.0
 11
116.8491414675
 21
28.1255236449
 31
0.0
  0
LINE
  5
150
330
1F
100
AcDbEntity
  8
0
  6
Continuous
 62
     7
370
    35
100
AcDbLine
 10
130.977712896
 20
28.1255236449
 30
0.0
 11
131.8134271817
 21
34.6255236449
 31
0.0
  0
LINE
  5
151
330
1F
100
AcDbEntity
  8
0
  6
Continuous
 62
     7
370
    35
100
AcDbLine
 10
130.977712896
 20
28.1255236449
 30
0.0
 11
116.8491414675
 21
28.1255236449
 31
0.0
  0
LINE
  5
152
330
1F
100
AcDbEntity
  8
0
  6
Continuous
 62
     7
370
    35
100
AcDbLine
 10
116.0134271817
 20
34.6255236449
 30
0.0
 11
131.8134271817
 21
34.6255236449
 31
0.0
  0
LINE
  5
153
330
1F
100
AcDbEntity
  8
0
  6
Continuous
 62
     7
370
    35
100
AcDbLine
 10
116.8491414675
 20
28.1255236449
 30
0.0
 11
113.9134271817
 21
28.1255236449
 31
0.0
  0
LINE
  5
154
330
1F
100
AcDbEntity
  8
0
  6
Continuous
 62
     7
370
    35
100
AcDbLine
 10
116.0134271817
 20
34.6255236449
 30
0.0
 11
113.7634271817
 21
34.6255236449
 31
0.0
  0
LINE
  5
155
330
1F
100
AcDbEntity
  8
0
  6
Continuous
 62
     7
370
    35
100
AcDbLine
 10
113.4134271817
 20
31.6255236449
 30
0.0
 11
113.9134271817
 21
31.6255236449
 31
0.0
  0
LINE
  5
156
330
1F
100
AcDbEntity
  8
0
  6
Continuous
 62
     7
370
    35
100
AcDbLine
 10
113.4134271817
 20
32.6255236449
 30
0.0
 11
113.7634271817
 21
32.6255236449
 31
0.0
  0
LINE
  5
157
330
1F
100
AcDbEntity
  8
0
  6
Continuous
 62
     7
370
    35
100
AcDbLine
 10
133.9134271817
 20
28.1255236449
 30
0.0
 11
130.977712896
 21
28.1255236449
 31
0.0
  0
LINE
  5
158
330
1F
100
AcDbEntity
  8
0
  6
Continuous
 62
     7
370
    35
100
AcDbLine
 10
134.0634271817
 20
34.6255236449
 30
0.0
 11
131.8134271817
 21
34.6255236449
 31
0.0
  0
LINE
  5
159
330
1F
100
AcDbEntity
  8
0
  6
Continuous
 62
     7
370
    35
100
AcDbLine
 10
133.9134271817
 20
31.6255236449
 30
0.0
 11
134.4134271817
 21
31.6255236449
 31
0.0
  0
LINE
  5
15A
330
1F
100
AcDbEntity
  8
0
  6
Continuous
 62
     7
370
    35
100
AcDbLine
 10
134.0634271817
 20
32.6255236449
 30
0.0
 11
134.4134271817
 21
32.6255236449
 31
0.0
  0
LINE
  5
15B
330
1F
100
AcDbEntity
  8
0
  6
Continuous
 62
     7
370
    35
100
AcDbLine
 10
153.6634271817
 20
58.7789173061
 30
0.0
 11
153.6634271817
 21
59.1789173061
 31
0.0
  0
LINE
  5
15C
330
1F
100
AcDbEntity
  8
0
  6
Continuous
 62
     7
370
    35
100
AcDbLine
 10
156.1634271817
 20
59.1789173061
 30
0.0
 11
156.1634271817
 21
58.7789173061
 31
0.0
  0
LINE
  5
15D
330
1F
100
AcDbEntity
  8
0
  6
Continuous
 62
     7
370
    35
100
AcDbLine
 10
131.9134271817
 20
58.7789173061
 30
0.0
 11
131.9134271817
 21
59.1789173061
 31
0.0
  0
LINE
  5
15E
330
1F
100
AcDbEntity
  8
0
  6
Continuous
 62
     7
370
    35
100
AcDbLine
 10
131.9134271817
 20
59.1789173061
 30
0.0
 11
153.6634271817
 21
59.1789173061
 31
0.0
  0
LINE
  5
15F
330
1F
100
AcDbEntity
  8
0
  6
Continuous
 62
     7
370
    35
100
AcDbLine
 10
131.9134271817
 20
58.7789173061
 30
0.0
 11
153.6634271817
 21
58.7789173061
 31
0.0
  0
LINE
  5
160
330
1F
100
AcDbEntity
  8
0
  6
Continuous
 62
     7
370
    35
100
AcDbLine
 10
156.9134271817
 20
58.7789173061
 30
0.0
 11
156.9134271817
 21
59.1789173061
 31
0.0
  0
LINE
  5
161
330
1F
100
AcDbEntity
  8
0
  6
Continuous
 62
     7
370
    35
100
AcDbLine
 10
90.9134271817
 20
59.1789173061
 30
0.0
 11
90.9134271817
 21
58.7789173061
 31
0.0
  0
LINE
  5
162
330
1F
100
AcDbEntity
  8
0
  6
Continuous
 62
     7
370
    35
100
AcDbLine
 10
97.9134271817
 20
59.1789173061
 30
0.0
 11
97.9134271817
 21
58.7789173061
 31
0.0
  0
LINE
  5
163
330
1F
100
AcDbEntity
  8
0
  6
Continuous
 62
     7
370
    35
100
AcDbLine
 10
131.9134271817
 20
59.1789173061
 30
0.0
 11
97.9134271817
 21
59.1789173061
 31
0.0
  0
LINE
  5
164
330
1F
100
AcDbEntity
  8
0
  6
Continuous
 62
     7
370
    35
100
AcDbLine
 10
131.9134271817
 20
58.7789173061
 30
0.0
 11
97.9134271817
 21
58.7789173061
 31
0.0
  0
LINE
  5
165
330
1F
100
AcDbEntity
  8
0
  6
Continuous
 62
     7
370
    35
100
AcDbLine
 10
94.1634271817
 20
59.1789173061
 30
0.0
 11
94.1634271817
 21
58.7789173061
 31
0.0
  0
LINE
  5
166
330
1F
100
AcDbEntity
  8
0
  6
Continuous
 62
     7
370
    35
100
AcDbLine
 10
94.1634271817
 20
59.1789173061
 30
0.0
 11
97.9134271817
 21
59.1789173061
 31
0.0
  0
LINE
  5
167
330
1F
100
AcDbEntity
  8
0
  6
Continuous
 62
     7
370
    35
100
AcDbLine
 10
94.1634271817
 20
58.7789173061
 30
0.0
 11
97.9134271817
 21
58.7789173061
 31
0.0
  0
LINE
  5
168
330
1F
100
AcDbEntity
  8
0
  6
Continuous
 62
     7
370
    35
100
AcDbLine
 10
91.6634271817
 20
58.7789173061
 30
0.0
 11
91.6634271817
 21
59.1789173061
 31
0.0
  0
LINE
  5
169
330
1F
100
AcDbEntity
  8
0
  6
Continuous
 62
     7
370
    35
100
AcDbLine
 10
156.1634271817
 20
59.1789173061
 30
0.0
 11
156.9134271817
 21
59.1789173061
 31
0.0
  0
LINE
  5
16A
330
1F
100
AcDbEntity
  8
0
  6
Continuous
 62
     7
370
    35
100
AcDbLine
 10
156.1634271817
 20
58.7789173061
 30
0.0
 11
156.9134271817
 21
58.7789173061
 31
0.0
  0
LINE
  5
16B
330
1F
100
AcDbEntity
  8
0
  6
Continuous
 62
     7
370
    35
100
AcDbLine
 10
90.9134271817
 20
59.1789173061
 30
0.0
 11
91.6634271817
 21
59.1789173061
 31
0.0
  0
LINE
  5
16C
330
1F
100
AcDbEntity
  8
0
  6
Continuous
 62
     7
370
    35
100
AcDbLine
 10
90.9134271817
 20
58.7789173061
 30
0.0
 11
91.6634271817
 21
58.7789173061
 31
0.0
  0
LINE
  5
16D
330
1F
100
AcDbEntity
  8
0
  6
Continuous
 62
     7
370
    35
100
AcDbLine
 10
134.4134271817
 20
86.3323109673
 30
0.0
 11
134.4134271817
 21
85.3323109673
 31
0.0
  0
LINE
  5
16E
330
1F
100
AcDbEntity
  8
0
  6
Continuous
 62
     7
370
    35
100
AcDbLine
 10
113.4134271817
 20
85.3323109673
 30
0.0
 11
113.4134271817
 21
86.3323109673
 31
0.0
  0
LINE
  5
16F
330
1F
100
AcDbEntity
  8
0
  6
Continuous
 62
     7
370
    35
100
AcDbLine
 10
134.0634271817
 20
85.3323109673
 30
0.0
 11
134.0634271817
 21
83.3323109673
 31
0.0
  0
LINE
  5
170
330
1F
100
AcDbEntity
  8
0
  6
Continuous
 62
     7
370
    35
100
AcDbLine
 10
113.7634271817
 20
83.3323109673
 30
0.0
 11
113.7634271817
 21
85.3323109673
 31
0.0
  0
ARC
  5
171
330
1F
100
AcDbEntity
  8
0
  6
Continuous
 62
     7
370
    35
100
AcDbCircle
 10
133.9134271817
 20
87.8323109673
 30
0.0
 40
1.500000000000014
100
AcDbArc
 50
90.0
 51
270.0
  0
ARC
  5
172
330
1F
100
AcDbEntity
  8
0
  6
Continuous
 62
     7
370
    35
100
AcDbCircle
 10
113.9134271817
 20
87.8323109673
 30
0.0
 40
1.500000000000014
100
AcDbArc
 50
270.0
 51
90.0
  0
LINE
  5
173
330
1F
100
AcDbEntity
  8
0
  6
Continuous
 62
     7
370
    35
100
AcDbLine
 10
133.9134271817
 20
89.3323109673
 30
0.0
 11
133.9134271817
 21
89.8323109673
 31
0.0
  0
LINE
  5
174
330
1F
100
AcDbEntity
  8
0
  6
Continuous
 62
     7
370
    35
100
AcDbLine
 10
113.9134271817
 20
89.8323109673
 30
0.0
 11
113.9134271817
 21
89.3323109673
 31
0.0
  0
LINE
  5
175
330
1F
100
AcDbEntity
  8
0
  6
Continuous
 62
     7
370
    35
100
AcDbLine
 10
131.8134271817
 20
83.3323109673
 30
0.0
 11
130.977712896
 21
89.8323109673
 31
0.0
  0
LINE
  5
176
330
1F
100
AcDbEntity
  8
0
  6
Continuous
 62
     7
370
    35
100
AcDbLine
 10
116.8491414675
 20
89.8323109673
 30
0.0
 11
116.0134271817
 21
83.3323109673
 31
0.0
  0
LINE
  5
177
330
1F
100
AcDbEntity
  8
0
  6
Continuous
 62
     7
370
    35
100
AcDbLine
 10
116.8491414675
 20
89.8323109673
 30
0.0
 11
130.977712896
 21
89.8323109673
 31
0.0
  0
LINE
  5
178
330
1F
100
AcDbEntity
  8
0
  6
Continuous
 62
     7
370
    35
100
AcDbLine
 10
131.8134271817
 20
83.3323109673
 30
0.0
 11
116.0134271817
 21
83.3323109673
 31
0.0
  0
LINE
  5
179
330
1F
100
AcDbEntity
  8
0
  6
Continuous
 62
     7
370
    35
100
AcDbLine
 10
130.977712896
 20
89.8323109673
 30
0.0
 11
133.9134271817
 21
89.8323109673
 31
0.0
  0
LINE
  5
17A
330
1F
100
AcDbEntity
  8
0
  6
Continuous
 62
     7
370
    35
100
AcDbLine
 10
131.8134271817
 20
83.3323109673
 30
0.0
 11
134.0634271817
 21
83.3323109673
 31
0.0
  0
LINE
  5
17B
330
1F
100
AcDbEntity
  8
0
  6
Continuous
 62
     7
370
    35
100
AcDbLine
 10
134.4134271817
 20
86.3323109673
 30
0.0
 11
133.9134271817
 21
86.3323109673
 31
0.0
  0
LINE
  5
17C
330
1F
100
AcDbEntity
  8
0
  6
Continuous
 62
     7
370
    35
100
AcDbLine
 10
134.4134271817
 20
85.3323109673
 30
0.0
 11
134.0634271817
 21
85.3323109673
 31
0.0
  0
LINE
  5
17D
330
1F
100
AcDbEntity
  8
0
  6
Continuous
 62
     7
370
    35
100
AcDbLine
 10
113.9134271817
 20
89.8323109673
 30
0.0
 11
116.8491414675
 21
89.8323109673
 31
0.0
  0
LINE
  5
17E
330
1F
100
AcDbEntity
  8
0
  6
Continuous
 62
     7
370
    35
100
AcDbLine
 10
113.7634271817
 20
83.3323109673
 30
0.0
 11
116.0134271817
 21
83.3323109673
 31
0.0
  0
LINE
  5
17F
330
1F
100
AcDbEntity
  8
0
  6
Continuous
 62
     7
370
    35
100
AcDbLine
 10
113.9134271817
 20
86.3323109673
 30
0.0
 11
113.4134271817
 21
86.3323109673
 31
0.0
  0
LINE
  5
180
330
1F
100
AcDbEntity
  8
0
  6
Continuous
 62
     7
370
    35
100
AcDbLine
 10
113.7634271817
 20
85.3323109673
 30
0.0
 11
113.4134271817
 21
85.3323109673
 31
0.0
  0
LINE
  5
181
330
1F
100
AcDbEntity
  8
0
  6
Continuous
 62
     7
370
    35
100
AcDbLine
 10
152.2961362357
 20
65.6580078348
 30
0.0
 11
151.4670986632
 21
65.0988149313
 31
0.0
  0
LINE
  5
182
330
1F
100
AcDbEntity
  8
0
  6
Continuous
 62
     7
370
    35
100
AcDbLine
 10
139.7240476903
 20
82.508603955
 30
0.0
 11
140.5530852628
 21
83.0677968584
 31
0.0
  0
LINE
  5
183
330
1F
100
AcDbEntity
  8
0
  6
Continuous
 62
     7
370
    35
100
AcDbLine
 10
151.271381147
 20
65.3889780817
 30
0.0
 11
149.6133060018
 21
64.2705922748
 31
0.0
  0
LINE
  5
184
330
1F
100
AcDbEntity
  8
0
  6
Continuous
 62
     7
370
    35
100
AcDbLine
 10
138.2616900614
 20
81.1000549976
 30
0.0
 11
139.9197652065
 21
82.2184408046
 31
0.0
  0
LINE
  5
185
330
1F
100
AcDbEntity
  8
0
  6
Continuous
 62
     7
370
    35
100
AcDbLine
 10
154.5036525017
 20
67.7501053315
 30
0.0
 11
154.9181712879
 21
68.0297017832
 31
0.0
  0
LINE
  5
186
330
1F
100
AcDbEntity
  8
0
  6
Continuous
 62
     7
370
    35
100
AcDbLine
 10
143.7343132185
 20
84.6104532343
 30
0.0
 11
143.3197944322
 21
84.3308567826
 31
0.0
  0
ARC
  5
187
330
1F
100
AcDbEntity
  8
0
  6
Continuous
 62
     7
370
    35
100
AcDbCircle
 10
153.2600961428
 20
66.9113159763
 30
0.0
 40
1.500000000000023
100
AcDbArc
 50
34.0
 51
214.0
  0
ARC
  5
188
330
1F
100
AcDbEntity
  8
0
  6
Continuous
 62
     7
370
    35
100
AcDbCircle
 10
142.0762380734
 20
83.4920674274
 30
0.0
 40
1.500000000000031
100
AcDbArc
 50
214.0
 51
34.0
  0
LINE
  5
189
330
1F
100
AcDbEntity
  8
0
  6
Continuous
 62
     7
370
    35
100
AcDbLine
 10
148.355121969
 20
66.135926813
 30
0.0
 11
153.2765406927
 21
70.4635192284
 31
0.0
  0
LINE
  5
18A
330
1F
100
AcDbEntity
  8
0
  6
Continuous
 62
     7
370
    35
100
AcDbLine
 10
145.3759438137
 20
82.1766357892
 30
0.0
 11
139.5198740942
 21
79.2347204594
 31
0.0
  0
LINE
  5
18B
330
1F
100
AcDbEntity
  8
0
  6
Continuous
 62
     7
370
    35
100
AcDbLine
 10
145.3759438137
 20
82.1766357892
 30
0.0
 11
153.2765406927
 21
70.4635192284
 31
0.0
  0
LINE
  5
18C
330
1F
100
AcDbEntity
  8
0
  6
Continuous
 62
     7
370
    35
100
AcDbLine
 10
148.355121969
 20
66.135926813
 30
0.0
 11
139.5198740942
 21
79.2347204594
 31
0.0
  0
LINE
  5
18D
330
1F
100
AcDbEntity
  8
0
  6
Continuous
 62
     7
370
    35
100
AcDbLine
 10
153.2765406927
 20
70.4635192284
 30
0.0
 11
154.9181712879
 21
68.0297017832
 31
0.0
  0
LINE
  5
18E
330
1F
100
AcDbEntity
  8
0
  6
Continuous
 62
     7
370
    35
100
AcDbLine
 10
148.355121969
 20
66.135926813
 30
0.0
 11
149.6133060018
 21
64.2705922748
 31
0.0
  0
LINE
  5
18F
330
1F
100
AcDbEntity
  8
0
  6
Continuous
 62
     7
370
    35
100
AcDbLine
 10
152.2961362357
 20
65.6580078348
 30
0.0
 11
152.016539784
 21
66.0725266211
 31
0.0
  0
LINE
  5
190
330
1F
100
AcDbEntity
  8
0
  6
Continuous
 62
     7
370
    35
100
AcDbLine
 10
151.4670986632
 20
65.0988149313
 30
0.0
 11
151.271381147
 21
65.3889780817
 31
0.0
  0
LINE
  5
191
330
1F
100
AcDbEntity
  8
0
  6
Continuous
 62
     7
370
    35
100
AcDbLine
 10
143.7343132185
 20
84.6104532343
 30
0.0
 11
145.3759438137
 21
82.1766357892
 31
0.0
  0
LINE
  5
192
330
1F
100
AcDbEntity
  8
0
  6
Continuous
 62
     7
370
    35
100
AcDbLine
 10
138.2616900614
 20
81.1000549976
 30
0.0
 11
139.5198740942
 21
79.2347204594
 31
0.0
  0
LINE
  5
193
330
1F
100
AcDbEntity
  8
0
  6
Continuous
 62
     7
370
    35
100
AcDbLine
 10
140.8326817146
 20
82.6532780722
 30
0.0
 11
140.5530852628
 21
83.0677968584
 31
0.0
  0
LINE
  5
194
330
1F
100
AcDbEntity
  8
0
  6
Continuous
 62
     7
370
    35
100
AcDbLine
 10
139.9197652065
 20
82.2184408046
 30
0.0
 11
139.7240476903
 21
82.508603955
 31
0.0
  0
LINE
  5
195
330
1F
100
AcDbEntity
  8
0
  6
Continuous
 62
     7
370
    35
100
AcDbLine
 10
155.7134271817
 20
55.1789173061
 30
0.0
 11
158.4134271817
 21
55.1789173061
 31
0.0
  0
LINE
  5
196
330
1F
100
AcDbEntity
  8
0
  6
Continuous
 62
     7
370
    35
100
AcDbLine
 10
155.7134271817
 20
56.6789173061
 30
0.0
 11
155.7134271817
 21
55.1789173061
 31
0.0
  0
LINE
  5
197
330
1F
100
AcDbEntity
  8
0
  6
Continuous
 62
     7
370
    35
100
AcDbLine
 10
155.7134271817
 20
56.6789173061
 30
0.0
 11
157.1634271817
 21
56.6789173061
 31
0.0
  0
LINE
  5
198
330
1F
100
AcDbEntity
  8
0
  6
Continuous
 62
     7
370
    35
100
AcDbLine
 10
157.1634271817
 20
60.6789173061
 30
0.0
 11
157.1634271817
 21
56.6789173061
 31
0.0
  0
LINE
  5
199
330
1F
100
AcDbEntity
  8
0
  6
Continuous
 62
     7
370
    35
100
AcDbLine
 10
157.1634271817
 20
60.6789173061
 30
0.0
 11
158.4134271817
 21
60.6789173061
 31
0.0
  0
LINE
  5
19A
330
1F
100
AcDbEntity
  8
0
  6
Continuous
 62
     7
370
    35
100
AcDbLine
 10
158.4134271817
 20
55.1789173061
 30
0.0
 11
158.4134271817
 21
60.6789173061
 31
0.0
  0
LINE
  5
19B
330
1F
100
AcDbEntity
  8
0
  6
Continuous
 62
     7
370
    35
100
AcDbLine
 10
89.4134271817
 20
60.6789173061
 30
0.0
 11
89.4134271817
 21
55.1789173061
 31
0.0
  0
LINE
  5
19C
330
1F
100
AcDbEntity
  8
0
  6
Continuous
 62
     7
370
    35
100
AcDbLine
 10
152.1634271817
 20
55.1789173061
 30
0.0
 11
152.1634271817
 21
56.6789173061
 31
0.0
  0
LINE
  5
19D
330
1F
100
AcDbEntity
  8
0
  6
Continuous
 62
     7
370
    35
100
AcDbLine
 10
154.1134271817
 20
55.1789173061
 30
0.0
 11
154.1134271817
 21
56.6789173061
 31
0.0
  0
LINE
  5
19E
330
1F
100
AcDbEntity
  8
0
  6
Continuous
 62
     7
370
    35
100
AcDbLine
 10
152.1634271817
 20
55.1789173061
 30
0.0
 11
154.1134271817
 21
55.1789173061
 31
0.0
  0
LINE
  5
19F
330
1F
100
AcDbEntity
  8
0
  6
Continuous
 62
     7
370
    35
100
AcDbLine
 10
152.1634271817
 20
56.6789173061
 30
0.0
 11
154.1134271817
 21
56.6789173061
 31
0.0
  0
LINE
  5
1A0
330
1F
100
AcDbEntity
  8
0
  6
Continuous
 62
     7
370
    35
100
AcDbLine
 10
152.1634271817
 20
55.1789173061
 30
0.0
 11
151.6810342086
 21
55.1789173061
 31
0.0
  0
LINE
  5
1A1
330
1F
100
AcDbEntity
  8
0
  6
Continuous
 62
     7
370
    35
100
AcDbLine
 10
96.1458201548
 20
55.1789173061
 30
0.0
 11
95.6634271817
 21
55.1789173061
 31
0.0
  0
LINE
  5
1A2
330
1F
100
AcDbEntity
  8
0
  6
Continuous
 62
     7
370
    35
100
AcDbLine
 10
95.6634271817
 20
56.6789173061
 30
0.0
 11
95.6634271817
 21
55.1789173061
 31
0.0
  0
LINE
  5
1A3
330
1F
100
AcDbEntity
  8
0
  6
Continuous
 62
     7
370
    35
100
AcDbLine
 10
152.1634271817
 20
56.6789173061
 30
0.0
 11
151.834566127
 21
56.6789173061
 31
0.0
  0
LINE
  5
1A4
330
1F
100
AcDbEntity
  8
0
  6
Continuous
 62
     7
370
    35
100
AcDbLine
 10
95.9922882365
 20
56.6789173061
 30
0.0
 11
95.6634271817
 21
56.6789173061
 31
0.0
  0
LINE
  5
1A5
330
1F
100
AcDbEntity
  8
0
  6
Continuous
 62
     7
370
    35
100
AcDbLine
 10
93.7134271817
 20
56.6789173061
 30
0.0
 11
93.7134271817
 21
55.1789173061
 31
0.0
  0
LINE
  5
1A6
330
1F
100
AcDbEntity
  8
0
  6
Continuous
 62
     7
370
    35
100
AcDbLine
 10
93.7134271817
 20
55.1789173061
 30
0.0
 11
95.6634271817
 21
55.1789173061
 31
0.0
  0
LINE
  5
1A7
330
1F
100
AcDbEntity
  8
0
  6
Continuous
 62
     7
370
    35
100
AcDbLine
 10
93.7134271817
 20
56.6789173061
 30
0.0
 11
95.6634271817
 21
56.6789173061
 31
0.0
  0
LINE
  5
1A8
330
1F
100
AcDbEntity
  8
0
  6
Continuous
 62
     7
370
    35
100
AcDbLine
 10
89.4134271817
 20
60.6789173061
 30
0.0
 11
90.6634271817
 21
60.6789173061
 31
0.0
  0
LINE
  5
1A9
330
1F
100
AcDbEntity
  8
0
  6
Continuous
 62
     7
370
    35
100
AcDbLine
 10
90.6634271817
 20
56.6789173061
 30
0.0
 11
90.6634271817
 21
60.6789173061
 31
0.0
  0
LINE
  5
1AA
330
1F
100
AcDbEntity
  8
0
  6
Continuous
 62
     7
370
    35
100
AcDbLine
 10
92.1134271817
 20
55.1789173061
 30
0.0
 11
92.1134271817
 21
56.6789173061
 31
0.0
  0
LINE
  5
1AB
330
1F
100
AcDbEntity
  8
0
  6
Continuous
 62
     7
370
    35
100
AcDbLine
 10
89.4134271817
 20
55.1789173061
 30
0.0
 11
92.1134271817
 21
55.1789173061
 31
0.0
  0
LINE
  5
1AC
330
1F
100
AcDbEntity
  8
0
  6
Continuous
 62
     7
370
    35
100
AcDbLine
 10
90.6634271817
 20
56.6789173061
 30
0.0
 11
92.1134271817
 21
56.6789173061
 31
0.0
  0
LINE
  5
1AD
330
1F
100
AcDbEntity
  8
0
  6
Continuous
 62
     7
370
    35
100
AcDbLine
 10
157.1634271817
 20
60.6789173061
 30
0.0
 11
156.9134271817
 21
60.6789173061
 31
0.0
  0
LINE
  5
1AE
330
1F
100
AcDbEntity
  8
0
  6
Continuous
 62
     7
370
    35
100
AcDbLine
 10
90.9134271817
 20
60.6789173061
 30
0.0
 11
90.6634271817
 21
60.6789173061
 31
0.0
  0
LINE
  5
1AF
330
1F
100
AcDbEntity
  8
0
  6
Continuous
 62
     7
370
    35
100
AcDbLine
 10
155.7134271817
 20
55.1789173061
 30
0.0
 11
154.1134271817
 21
55.1789173061
 31
0.0
  0
LINE
  5
1B0
330
1F
100
AcDbEntity
  8
0
  6
Continuous
 62
     7
370
    35
100
AcDbLine
 10
93.7134271817
 20
55.1789173061
 30
0.0
 11
92.1134271817
 21
55.1789173061
 31
0.0
  0
LINE
  5
1B1
330
1F
100
AcDbEntity
  8
0
  6
Continuous
 62
     7
370
    35
100
AcDbLine
 10
90.9134271817
 20
57.2789173061
 30
0.0
 11
90.9134271817
 21
58.7789173061
 31
0.0
  0
LINE
  5
1B2
330
1F
100
AcDbEntity
  8
0
  6
Continuous
 62
     7
370
    35
100
AcDbLine
 10
156.9134271817
 20
58.7789173061
 30
0.0
 11
156.9134271817
 21
57.2789173061
 31
0.0
  0
ARC
  5
1B3
330
1F
100
AcDbEntity
  8
0
  6
Continuous
 62
     7
370
    35
100
AcDbCircle
 10
123.9134271817
 20
58.7789173061
 30
0.0
 40
28.00000000000002
100
AcDbArc
 50
183.0708868111
 51
249.0751675724
  0
ARC
  5
1B4
330
1F
100
AcDbEntity
  8
0
  6
Continuous
 62
     7
370
    35
100
AcDbCircle
 10
123.9134271817
 20
58.7789173061
 30
0.0
 40
28.00000000000002
100
AcDbArc
 50
290.9248324276
 51
356.9291131889
  0
LINE
  5
1B5
330
1F
100
AcDbEntity
  8
0
  6
Continuous
 62
     7
370
    35
100
AcDbLine
 10
113.9134271817
 20
34.7789173061
 30
0.0
 11
133.9134271817
 21
34.7789173061
 31
0.0
  0
ARC
  5
1B6
330
1F
100
AcDbEntity
  8
0
  6
Continuous
 62
     7
370
    35
100
AcDbCircle
 10
123.9134271817
 20
58.7789173061
 30
0.0
 40
26.00000000000001
100
AcDbArc
 50
180.0
 51
247.380135052
  0
ARC
  5
1B7
330
1F
100
AcDbEntity
  8
0
  6
Continuous
 62
     7
370
    35
100
AcDbCircle
 10
123.9134271817
 20
58.7789173061
 30
0.0
 40
26.00000000000003
100
AcDbArc
 50
292.619864948
 51
0.0
  0
LINE
  5
1B8
330
1F
100
AcDbEntity
  8
0
  6
Continuous
 62
     7
370
    35
100
AcDbLine
 10
113.9134271817
 20
34.7789173061
 30
0.0
 11
113.9134271817
 21
32.6255236449
 31
0.0
  0
LINE
  5
1B9
330
1F
100
AcDbEntity
  8
0
  6
Continuous
 62
     7
370
    35
100
AcDbLine
 10
90.9134271817
 20
58.7789173061
 30
0.0
 11
97.9134271817
 21
58.7789173061
 31
0.0
  0
LINE
  5
1BA
330
1F
100
AcDbEntity
  8
0
  6
Continuous
 62
     7
370
    35
100
AcDbLine
 10
90.9134271817
 20
57.2789173061
 30
0.0
 11
95.9536346217
 21
57.2789173061
 31
0.0
  0
LINE
  5
1BB
330
1F
100
AcDbEntity
  8
0
  6
Continuous
 62
     7
370
    35
100
AcDbLine
 10
133.9134271817
 20
32.6255236449
 30
0.0
 11
133.9134271817
 21
34.7789173061
 31
0.0
  0
LINE
  5
1BC
330
1F
100
AcDbEntity
  8
0
  6
Continuous
 62
     7
370
    35
100
AcDbLine
 10
149.9134271817
 20
58.7789173061
 30
0.0
 11
156.9134271817
 21
58.7789173061
 31
0.0
  0
LINE
  5
1BD
330
1F
100
AcDbEntity
  8
0
  6
Continuous
 62
     7
370
    35
100
AcDbLine
 10
151.8732197418
 20
57.2789173061
 30
0.0
 11
156.9134271817
 21
57.2789173061
 31
0.0
  0
LINE
  5
1BE
330
1F
100
AcDbEntity
  8
0
  6
Continuous
 62
     7
370
    35
100
AcDbLine
 10
90.9134271817
 20
59.1789173061
 30
0.0
 11
90.9134271817
 21
60.6789173061
 31
0.0
  0
LINE
  5
1BF
330
1F
100
AcDbEntity
  8
0
  6
Continuous
 62
     7
370
    35
100
AcDbLine
 10
95.9536346217
 20
60.6789173061
 30
0.0
 11
90.9134271817
 21
60.6789173061
 31
0.0
  0
ARC
  5
1C0
330
1F
100
AcDbEntity
  8
0
  6
Continuous
 62
     7
370
    35
100
AcDbCircle
 10
123.9134271817
 20
59.1789173061
 30
0.0
 40
28.00000000000007
100
AcDbArc
 50
110.9248324276
 51
176.9291131889
  0
LINE
  5
1C1
330
1F
100
AcDbEntity
  8
0
  6
Continuous
 62
     7
370
    35
100
AcDbLine
 10
113.9134271817
 20
85.3323109673
 30
0.0
 11
113.9134271817
 21
83.1789173061
 31
0.0
  0
ARC
  5
1C2
330
1F
100
AcDbEntity
  8
0
  6
Continuous
 62
     7
370
    35
100
AcDbCircle
 10
123.9134271817
 20
59.1789173061
 30
0.0
 40
26.00000000000001
100
AcDbArc
 50
112.619864948
 51
180.0
  0
LINE
  5
1C3
330
1F
100
AcDbEntity
  8
0
  6
Continuous
 62
     7
370
    35
100
AcDbLine
 10
97.9134271817
 20
59.1789173061
 30
0.0
 11
90.9134271817
 21
59.1789173061
 31
0.0
  0
LINE
  5
1C4
330
1F
100
AcDbEntity
  8
0
  6
Continuous
 62
     7
370
    35
100
AcDbLine
 10
113.9134271817
 20
83.1789173061
 30
0.0
 11
133.9134271817
 21
83.1789173061
 31
0.0
  0
ARC
  5
1C5
330
1F
100
AcDbEntity
  8
0
  6
Continuous
 62
     7
370
    35
100
AcDbCircle
 10
123.9134271817
 20
59.1789173061
 30
0.0
 40
25.99999999999999
100
AcDbArc
 50
56.619864948
 51
67.380135052
  0
LINE
  5
1C6
330
1F
100
AcDbEntity
  8
0
  6
Continuous
 62
     7
370
    35
100
AcDbLine
 10
149.4022579578
 20
64.3091712638
 30
0.0
 11
138.2183998884
 21
80.8899227149
 31
0.0
  0
ARC
  5
1C7
330
1F
100
AcDbEntity
  8
0
  6
Continuous
 62
     7
370
    35
100
AcDbCircle
 10
123.9134271817
 20
59.1789173061
 30
0.0
 40
26.0
100
AcDbArc
 50
0.0
 51
11.380135052
  0
LINE
  5
1C8
330
1F
100
AcDbEntity
  8
0
  6
Continuous
 62
     7
370
    35
100
AcDbLine
 10
156.9134271817
 20
60.6789173061
 30
0.0
 11
156.9134271817
 21
59.1789173061
 31
0.0
  0
LINE
  5
1C9
330
1F
100
AcDbEntity
  8
0
  6
Continuous
 62
     7
370
    35
100
AcDbLine
 10
156.9134271817
 20
59.1789173061
 30
0.0
 11
149.9134271817
 21
59.1789173061
 31
0.0
  0
LINE
  5
1CA
330
1F
100
AcDbEntity
  8
0
  6
Continuous
 62
     7
370
    35
100
AcDbLine
 10
151.1875022114
 20
65.5133337176
 30
0.0
 11
149.4022579578
 21
64.3091712638
 31
0.0
  0
ARC
  5
1CB
330
1F
100
AcDbEntity
  8
0
  6
Continuous
 62
     7
370
    35
100
AcDbCircle
 10
123.9134271817
 20
59.1789173061
 30
0.0
 40
28.0
100
AcDbArc
 50
3.0708868111
 51
13.0751675724
  0
LINE
  5
1CC
330
1F
100
AcDbEntity
  8
0
  6
Continuous
 62
     7
370
    35
100
AcDbLine
 10
156.9134271817
 20
60.6789173061
 30
0.0
 11
151.8732197418
 21
60.6789173061
 31
0.0
  0
LINE
  5
1CD
330
1F
100
AcDbEntity
  8
0
  6
Continuous
 62
     7
370
    35
100
AcDbLine
 10
133.9134271817
 20
83.1789173061
 30
0.0
 11
133.9134271817
 21
85.3323109673
 31
0.0
  0
ARC
  5
1CE
330
1F
100
AcDbEntity
  8
0
  6
Continuous
 62
     7
370
    35
100
AcDbCircle
 10
123.9134271817
 20
59.1789173061
 30
0.0
 40
28.00000000000001
100
AcDbArc
 50
54.9248324276
 51
69.0751675724
  0
LINE
  5
1CF
330
1F
100
AcDbEntity
  8
0
  6
Continuous
 62
     7
370
    35
100
AcDbLine
 10
138.2183998884
 20
80.8899227149
 30
0.0
 11
140.003644142
 21
82.0940851687
 31
0.0
  0
LINE
  5
1D0
330
1F
100
AcDbEntity
  8
0
  6
HIDDEN
 62
     7
370
    25
100
AcDbLine
 10
122.4653042255
 20
60.9789173061
 30
0.0
 11
125.3581053094
 21
60.9789173061
 31
0.0
  0
LINE
  5
1D1
330
1F
100
AcDbEntity
  8
0
  6
HIDDEN
 62
     7
370
    25
100
AcDbLine
 10
122.7634271817
 20
61.2789173061
 30
0.0
 11
125.0634271817
 21
61.2789173061
 31
0.0
  0
LINE
  5
1D2
330
1F
100
AcDbEntity
  8
0
  6
HIDDEN
 62
     7
370
    25
100
AcDbLine
 10
122.9634271817
 20
55.8789173061
 30
0.0
 11
124.8634271817
 21
55.8789173061
 31
0.0
  0
LINE
  5
1D3
330
1F
100
AcDbEntity
  8
0
  6
HIDDEN
 62
     7
370
    25
100
AcDbLine
 10
124.6634271817
 20
55.6789173061
 30
0.0
 11
123.1634271817
 21
55.6789173061
 31
0.0
  0
LINE
  5
1D4
330
1F
100
AcDbEntity
  8
0
  6
HIDDEN
 62
     7
370
    25
100
AcDbLine
 10
123.1451879592
 20
61.0789173061
 30
0.0
 11
123.3608412409
 21
61.0789173061
 31
0.0
  0
LINE
  5
1D5
330
1F
100
AcDbEntity
  8
0
  6
HIDDEN
 62
     7
370
    25
100
AcDbLine
 10
123.3608412409
 20
61.0789173061
 30
0.0
 11
123.3608412409
 21
61.2789173061
 31
0.0
  0
LINE
  5
1D6
330
1F
100
AcDbEntity
  8
0
  6
HIDDEN
 62
     7
370
    25
100
AcDbLine
 10
123.9169781518
 20
61.0789173061
 30
0.0
 11
123.3608412409
 21
61.0789173061
 31
0.0
  0
LINE
  5
1D7
330
1F
100
AcDbEntity
  8
0
  6
HIDDEN
 62
     7
370
    25
100
AcDbLine
 10
124.7006049114
 20
61.0789173061
 30
0.0
 11
124.4920535698
 21
61.0789173061
 31
0.0
  0
LINE
  5
1D8
330
1F
100
AcDbEntity
  8
0
  6
HIDDEN
 62
     7
370
    25
100
AcDbLine
 10
124.4920535698
 20
61.0789173061
 30
0.0
 11
124.4920535698
 21
61.2789173061
 31
0.0
  0
LINE
  5
1D9
330
1F
100
AcDbEntity
  8
0
  6
HIDDEN
 62
     7
370
    25
100
AcDbLine
 10
123.9169781518
 20
61.2789173061
 30
0.0
 11
123.9169781518
 21
61.0789173061
 31
0.0
  0
LINE
  5
1DA
330
1F
100
AcDbEntity
  8
0
  6
HIDDEN
 62
     7
370
    25
100
AcDbLine
 10
123.9169781518
 20
61.0789173061
 30
0.0
 11
124.4920535698
 21
61.0789173061
 31
0.0
  0
LINE
  5
1DB
330
1F
100
AcDbEntity
  8
0
  6
HIDDEN
 62
     7
370
    25
100
AcDbLine
 10
123.7013248701
 20
61.2789173061
 30
0.0
 11
123.7013248701
 21
61.0789173061
 31
0.0
  0
LINE
  5
1DC
330
1F
100
AcDbEntity
  8
0
  6
HIDDEN
 62
     7
370
    25
100
AcDbLine
 10
123.1451879592
 20
61.0789173061
 30
0.0
 11
123.1451879592
 21
61.2789173061
 31
0.0
  0
LINE
  5
1DD
330
1F
100
AcDbEntity
  8
0
  6
HIDDEN
 62
     7
370
    25
100
AcDbLine
 10
124.1255294934
 20
61.2789173061
 30
0.0
 11
124.1255294934
 21
61.0789173061
 31
0.0
  0
LINE
  5
1DE
330
1F
100
AcDbEntity
  8
0
  6
HIDDEN
 62
     7
370
    25
100
AcDbLine
 10
124.7006049114
 20
61.0789173061
 30
0.0
 11
124.7006049114
 21
61.2789173061
 31
0.0
  0
LINE
  5
1DF
330
1F
100
AcDbEntity
  8
0
  6
HIDDEN
 62
     7
370
    25
100
AcDbLine
 10
123.1262494521
 20
61.0789173061
 30
0.0
 11
123.1451879592
 21
61.0789173061
 31
0.0
  0
LINE
  5
1E0
330
1F
100
AcDbEntity
  8
0
  6
HIDDEN
 62
     7
370
    25
100
AcDbLine
 10
124.4660131225
 20
61.0789173061
 30
0.0
 11
124.4660131225
 21
61.2789173061
 31
0.0
  0
LINE
  5
1E1
330
1F
100
AcDbEntity
  8
0
  6
HIDDEN
 62
     7
370
    25
100
AcDbLine
 10
123.9098762117
 20
61.2789173061
 30
0.0
 11
123.9098762117
 21
61.0789173061
 31
0.0
  0
LINE
  5
1E2
330
1F
100
AcDbEntity
  8
0
  6
HIDDEN
 62
     7
370
    25
100
AcDbLine
 10
123.3348007937
 20
61.0789173061
 30
0.0
 11
123.3348007937
 21
61.2789173061
 31
0.0
  0
LINE
  5
1E3
330
1F
100
AcDbEntity
  8
0
  6
HIDDEN
 62
     7
370
    25
100
AcDbLine
 10
123.1262494521
 20
61.0789173061
 30
0.0
 11
123.1262494521
 21
61.2789173061
 31
0.0
  0
LINE
  5
1E4
330
1F
100
AcDbEntity
  8
0
  6
HIDDEN
 62
     7
370
    25
100
AcDbLine
 10
124.6816664043
 20
61.0789173061
 30
0.0
 11
124.6816664043
 21
61.2789173061
 31
0.0
  0
LINE
  5
1E5
330
1F
100
AcDbEntity
  8
0
  6
HIDDEN
 62
     7
370
    25
100
AcDbLine
 10
100.5433201304
 20
60.9789173061
 30
0.0
 11
103.4327153747
 21
60.9789173061
 31
0.0
  0
LINE
  5
1E6
330
1F
100
AcDbEntity
  8
0
  6
HIDDEN
 62
     7
370
    25
100
AcDbLine
 10
100.8432780962
 20
61.2789173061
 30
0.0
 11
103.143116965
 21
61.2789173061
 31
0.0
  0
LINE
  5
1E7
330
1F
100
AcDbEntity
  8
0
  6
HIDDEN
 62
     7
370
    25
100
AcDbLine
 10
102.943116965
 20
55.8789173061
 30
0.0
 11
101.0432500734
 21
55.8789173061
 31
0.0
  0
LINE
  5
1E8
330
1F
100
AcDbEntity
  8
0
  6
HIDDEN
 62
     7
370
    25
100
AcDbLine
 10
102.743116965
 20
55.6789173061
 30
0.0
 11
101.2432220506
 21
55.6789173061
 31
0.0
  0
LINE
  5
1E9
330
1F
100
AcDbEntity
  8
0
  6
HIDDEN
 62
     7
370
    25
100
AcDbLine
 10
101.8456488971
 20
61.0789173061
 30
0.0
 11
101.8590404439
 21
61.0789173061
 31
0.0
  0
LINE
  5
1EA
330
1F
100
AcDbEntity
  8
0
  6
HIDDEN
 62
     7
370
    25
100
AcDbLine
 10
101.8590404439
 20
61.0789173061
 30
0.0
 11
101.8590404439
 21
61.2789173061
 31
0.0
  0
LINE
  5
1EB
330
1F
100
AcDbEntity
  8
0
  6
HIDDEN
 62
     7
370
    25
100
AcDbLine
 10
101.8590404439
 20
61.0789173061
 30
0.0
 11
102.1589984096
 21
61.0789173061
 31
0.0
  0
LINE
  5
1EC
330
1F
100
AcDbEntity
  8
0
  6
HIDDEN
 62
     7
370
    25
100
AcDbLine
 10
102.1456068629
 20
61.2789173061
 30
0.0
 11
102.1456068629
 21
61.0789173061
 31
0.0
  0
LINE
  5
1ED
330
1F
100
AcDbEntity
  8
0
  6
HIDDEN
 62
     7
370
    25
100
AcDbLine
 10
102.1589984096
 20
61.0789173061
 30
0.0
 11
102.1589984096
 21
61.2789173061
 31
0.0
  0
LINE
  5
1EE
330
1F
100
AcDbEntity
  8
0
  6
HIDDEN
 62
     7
370
    25
100
AcDbLine
 10
101.0407391584
 20
61.0789173061
 30
0.0
 11
101.0457609884
 21
61.0789173061
 31
0.0
  0
LINE
  5
1EF
330
1F
100
AcDbEntity
  8
0
  6
HIDDEN
 62
     7
370
    25
100
AcDbLine
 10
101.0457609884
 20
61.0789173061
 30
0.0
 11
101.0457609884
 21
61.2789173061
 31
0.0
  0
LINE
  5
1F0
330
1F
100
AcDbEntity
  8
0
  6
HIDDEN
 62
     7
370
    25
100
AcDbLine
 10
101.8456488971
 20
61.2789173061
 30
0.0
 11
101.8456488971
 21
61.0789173061
 31
0.0
  0
LINE
  5
1F1
330
1F
100
AcDbEntity
  8
0
  6
HIDDEN
 62
     7
370
    25
100
AcDbLine
 10
101.0457609884
 20
61.0789173061
 30
0.0
 11
101.8456488971
 21
61.0789173061
 31
0.0
  0
LINE
  5
1F2
330
1F
100
AcDbEntity
  8
0
  6
HIDDEN
 62
     7
370
    25
100
AcDbLine
 10
102.1589984096
 20
61.0789173061
 30
0.0
 11
102.9454947716
 21
61.0789173061
 31
0.0
  0
LINE
  5
1F3
330
1F
100
AcDbEntity
  8
0
  6
HIDDEN
 62
     7
370
    25
100
AcDbLine
 10
102.9404729415
 20
61.0789173061
 30
0.0
 11
102.9404729415
 21
61.2789173061
 31
0.0
  0
LINE
  5
1F4
330
1F
100
AcDbEntity
  8
0
  6
HIDDEN
 62
     7
370
    25
100
AcDbLine
 10
102.9454947716
 20
61.0789173061
 30
0.0
 11
102.9454947716
 21
61.2789173061
 31
0.0
  0
LINE
  5
1F5
330
1F
100
AcDbEntity
  8
0
  6
HIDDEN
 62
     7
370
    25
100
AcDbLine
 10
101.8406270671
 20
61.2789173061
 30
0.0
 11
101.8406270671
 21
61.0789173061
 31
0.0
  0
LINE
  5
1F6
330
1F
100
AcDbEntity
  8
0
  6
HIDDEN
 62
     7
370
    25
100
AcDbLine
 10
101.0407391584
 20
61.0789173061
 30
0.0
 11
101.0407391584
 21
61.2789173061
 31
0.0
  0
LINE
  5
1F7
330
1F
100
AcDbEntity
  8
0
  6
HIDDEN
 62
     7
370
    25
100
AcDbLine
 10
102.1405850328
 20
61.2789173061
 30
0.0
 11
102.1405850328
 21
61.0789173061
 31
0.0
  0
LINE
  5
1F8
330
1F
100
AcDbEntity
  8
0
  6
HIDDEN
 62
     7
370
    25
100
AcDbLine
 10
102.127193486
 20
61.0789173061
 30
0.0
 11
102.127193486
 21
61.2789173061
 31
0.0
  0
LINE
  5
1F9
330
1F
100
AcDbEntity
  8
0
  6
HIDDEN
 62
     7
370
    25
100
AcDbLine
 10
101.8272355203
 20
61.0789173061
 30
0.0
 11
101.8272355203
 21
61.2789173061
 31
0.0
  0
LINE
  5
1FA
330
1F
100
AcDbEntity
  8
0
  6
HIDDEN
 62
     7
370
    25
100
AcDbLine
 10
144.3889767671
 20
60.9789173061
 30
0.0
 11
147.281810814
 21
60.9789173061
 31
0.0
  0
LINE
  5
1FB
330
1F
100
AcDbEntity
  8
0
  6
HIDDEN
 62
     7
370
    25
100
AcDbLine
 10
144.6837373985
 20
61.2789173061
 30
0.0
 11
146.9837373985
 21
61.2789173061
 31
0.0
  0
LINE
  5
1FC
330
1F
100
AcDbEntity
  8
0
  6
HIDDEN
 62
     7
370
    25
100
AcDbLine
 10
144.8837373985
 20
55.8789173061
 30
0.0
 11
146.7837373985
 21
55.8789173061
 31
0.0
  0
LINE
  5
1FD
330
1F
100
AcDbEntity
  8
0
  6
HIDDEN
 62
     7
370
    25
100
AcDbLine
 10
146.5837373985
 20
55.6789173061
 30
0.0
 11
145.0837373985
 21
55.6789173061
 31
0.0
  0
LINE
  5
1FE
330
1F
100
AcDbEntity
  8
0
  6
HIDDEN
 62
     7
370
    25
100
AcDbLine
 10
145.9996188432
 20
61.0789173061
 30
0.0
 11
145.6996608775
 21
61.0789173061
 31
0.0
  0
LINE
  5
1FF
330
1F
100
AcDbEntity
  8
0
  6
HIDDEN
 62
     7
370
    25
100
AcDbLine
 10
145.6996608775
 20
61.0789173061
 30
0.0
 11
145.6996608775
 21
61.2789173061
 31
0.0
  0
LINE
  5
200
330
1F
100
AcDbEntity
  8
0
  6
HIDDEN
 62
     7
370
    25
100
AcDbLine
 10
145.6862693307
 20
61.0789173061
 30
0.0
 11
145.6996608775
 21
61.0789173061
 31
0.0
  0
LINE
  5
201
330
1F
100
AcDbEntity
  8
0
  6
HIDDEN
 62
     7
370
    25
100
AcDbLine
 10
145.9862272964
 20
61.2789173061
 30
0.0
 11
145.9862272964
 21
61.0789173061
 31
0.0
  0
LINE
  5
202
330
1F
100
AcDbEntity
  8
0
  6
HIDDEN
 62
     7
370
    25
100
AcDbLine
 10
145.9996188432
 20
61.0789173061
 30
0.0
 11
145.9996188432
 21
61.2789173061
 31
0.0
  0
LINE
  5
203
330
1F
100
AcDbEntity
  8
0
  6
HIDDEN
 62
     7
370
    25
100
AcDbLine
 10
144.8813595919
 20
61.0789173061
 30
0.0
 11
144.886381422
 21
61.0789173061
 31
0.0
  0
LINE
  5
204
330
1F
100
AcDbEntity
  8
0
  6
HIDDEN
 62
     7
370
    25
100
AcDbLine
 10
144.886381422
 20
61.0789173061
 30
0.0
 11
144.886381422
 21
61.2789173061
 31
0.0
  0
LINE
  5
205
330
1F
100
AcDbEntity
  8
0
  6
HIDDEN
 62
     7
370
    25
100
AcDbLine
 10
145.6862693307
 20
61.2789173061
 30
0.0
 11
145.6862693307
 21
61.0789173061
 31
0.0
  0
LINE
  5
206
330
1F
100
AcDbEntity
  8
0
  6
HIDDEN
 62
     7
370
    25
100
AcDbLine
 10
145.6862693307
 20
61.0789173061
 30
0.0
 11
144.886381422
 21
61.0789173061
 31
0.0
  0
LINE
  5
207
330
1F
100
AcDbEntity
  8
0
  6
HIDDEN
 62
     7
370
    25
100
AcDbLine
 10
146.7861152051
 20
61.0789173061
 30
0.0
 11
145.9996188432
 21
61.0789173061
 31
0.0
  0
LINE
  5
208
330
1F
100
AcDbEntity
  8
0
  6
HIDDEN
 62
     7
370
    25
100
AcDbLine
 10
146.7810933751
 20
61.0789173061
 30
0.0
 11
146.7810933751
 21
61.2789173061
 31
0.0
  0
LINE
  5
209
330
1F
100
AcDbEntity
  8
0
  6
HIDDEN
 62
     7
370
    25
100
AcDbLine
 10
146.7861152051
 20
61.0789173061
 30
0.0
 11
146.7861152051
 21
61.2789173061
 31
0.0
  0
LINE
  5
20A
330
1F
100
AcDbEntity
  8
0
  6
HIDDEN
 62
     7
370
    25
100
AcDbLine
 10
145.6812475006
 20
61.2789173061
 30
0.0
 11
145.6812475006
 21
61.0789173061
 31
0.0
  0
LINE
  5
20B
330
1F
100
AcDbEntity
  8
0
  6
HIDDEN
 62
     7
370
    25
100
AcDbLine
 10
144.8813595919
 20
61.0789173061
 30
0.0
 11
144.8813595919
 21
61.2789173061
 31
0.0
  0
LINE
  5
20C
330
1F
100
AcDbEntity
  8
0
  6
HIDDEN
 62
     7
370
    25
100
AcDbLine
 10
145.9812054664
 20
61.2789173061
 30
0.0
 11
145.9812054664
 21
61.0789173061
 31
0.0
  0
LINE
  5
20D
330
1F
100
AcDbEntity
  8
0
  6
HIDDEN
 62
     7
370
    25
100
AcDbLine
 10
145.9678139196
 20
61.0789173061
 30
0.0
 11
145.9678139196
 21
61.2789173061
 31
0.0
  0
LINE
  5
20E
330
1F
100
AcDbEntity
  8
0
  6
HIDDEN
 62
     7
370
    25
100
AcDbLine
 10
145.6678559538
 20
61.0789173061
 30
0.0
 11
145.6678559538
 21
61.2789173061
 31
0.0
  0
LINE
  5
20F
330
1F
100
AcDbEntity
  8
0
  6
HIDDEN
 62
     7
370
    25
100
AcDbLine
 10
91.4634271817
 20
60.9789173061
 30
0.0
 11
94.3634271817
 21
60.9789173061
 31
0.0
  0
LINE
  5
210
330
1F
100
AcDbEntity
  8
0
  6
HIDDEN
 62
     7
370
    25
100
AcDbLine
 10
93.8634271817
 20
55.8789173061
 30
0.0
 11
91.9634271817
 21
55.8789173061
 31
0.0
  0
LINE
  5
211
330
1F
100
AcDbEntity
  8
0
  6
HIDDEN
 62
     7
370
    25
100
AcDbLine
 10
92.1262494521
 20
61.0789173061
 30
0.0
 11
92.6976529764
 21
61.0789173061
 31
0.0
  0
LINE
  5
212
330
1F
100
AcDbEntity
  8
0
  6
HIDDEN
 62
     7
370
    25
100
AcDbLine
 10
93.1292013871
 20
61.0789173061
 30
0.0
 11
93.6816664043
 21
61.0789173061
 31
0.0
  0
LINE
  5
213
330
1F
100
AcDbEntity
  8
0
  6
HIDDEN
 62
     7
370
    25
100
AcDbLine
 10
93.4660131225
 20
61.0789173061
 30
0.0
 11
93.4660131225
 21
61.2789173061
 31
0.0
  0
LINE
  5
214
330
1F
100
AcDbEntity
  8
0
  6
HIDDEN
 62
     7
370
    25
100
AcDbLine
 10
92.3348007937
 20
61.0789173061
 30
0.0
 11
92.3348007937
 21
61.2789173061
 31
0.0
  0
LINE
  5
215
330
1F
100
AcDbEntity
  8
0
  6
HIDDEN
 62
     7
370
    25
100
AcDbLine
 10
92.1262494521
 20
61.0789173061
 30
0.0
 11
92.1262494521
 21
61.2789173061
 31
0.0
  0
LINE
  5
216
330
1F
100
AcDbEntity
  8
0
  6
HIDDEN
 62
     7
370
    25
100
AcDbLine
 10
93.6816664043
 20
61.0789173061
 30
0.0
 11
93.6816664043
 21
61.2789173061
 31
0.0
  0
LINE
  5
217
330
1F
100
AcDbEntity
  8
0
  6
HIDDEN
 62
     7
370
    25
100
AcDbLine
 10
153.4634271817
 20
60.9789173061
 30
0.0
 11
156.3634271817
 21
60.9789173061
 31
0.0
  0
LINE
  5
218
330
1F
100
AcDbEntity
  8
0
  6
HIDDEN
 62
     7
370
    25
100
AcDbLine
 10
155.8634271817
 20
55.8789173061
 30
0.0
 11
153.9634271817
 21
55.8789173061
 31
0.0
  0
LINE
  5
219
330
1F
100
AcDbEntity
  8
0
  6
HIDDEN
 62
     7
370
    25
100
AcDbLine
 10
154.6976529764
 20
61.0789173061
 30
0.0
 11
154.1262494521
 21
61.0789173061
 31
0.0
  0
LINE
  5
21A
330
1F
100
AcDbEntity
  8
0
  6
HIDDEN
 62
     7
370
    25
100
AcDbLine
 10
155.6816664043
 20
61.0789173061
 30
0.0
 11
155.1292013871
 21
61.0789173061
 31
0.0
  0
LINE
  5
21B
330
1F
100
AcDbEntity
  8
0
  6
HIDDEN
 62
     7
370
    25
100
AcDbLine
 10
154.3348007937
 20
61.0789173061
 30
0.0
 11
154.3348007937
 21
61.2789173061
 31
0.0
  0
LINE
  5
21C
330
1F
100
AcDbEntity
  8
0
  6
HIDDEN
 62
     7
370
    25
100
AcDbLine
 10
155.4660131225
 20
61.0789173061
 30
0.0
 11
155.4660131225
 21
61.2789173061
 31
0.0
  0
LINE
  5
21D
330
1F
100
AcDbEntity
  8
0
  6
HIDDEN
 62
     7
370
    25
100
AcDbLine
 10
154.1262494521
 20
61.0789173061
 30
0.0
 11
154.1262494521
 21
61.2789173061
 31
0.0
  0
LINE
  5
21E
330
1F
100
AcDbEntity
  8
0
  6
HIDDEN
 62
     7
370
    25
100
AcDbLine
 10
155.6816664043
 20
61.0789173061
 30
0.0
 11
155.6816664043
 21
61.2789173061
 31
0.0
  0
LINE
  5
21F
330
1F
100
AcDbEntity
  8
0
  6
HIDDEN
 62
     7
370
    25
100
AcDbLine
 10
134.0634271817
 20
32.6255236449
 30
0.0
 11
133.9134271817
 21
32.6255236449
 31
0.0
  0
LINE
  5
220
330
1F
100
AcDbEntity
  8
0
  6
HIDDEN
 62
     7
370
    25
100
AcDbLine
 10
113.9134271817
 20
32.6255236449
 30
0.0
 11
113.7634271817
 21
32.6255236449
 31
0.0
  0
LINE
  5
221
330
1F
100
AcDbEntity
  8
0
  6
HIDDEN
 62
     7
370
    25
100
AcDbLine
 10
113.9134271817
 20
28.6255236449
 30
0.0
 11
133.9134271817
 21
28.6255236449
 31
0.0
  0
LINE
  5
222
330
1F
100
AcDbEntity
  8
0
  6
HIDDEN
 62
     7
370
    25
100
AcDbLine
 10
133.9134271817
 20
31.6255236449
 30
0.0
 11
113.9134271817
 21
31.6255236449
 31
0.0
  0
LINE
  5
223
330
1F
100
AcDbEntity
  8
0
  6
HIDDEN
 62
     7
370
    25
100
AcDbLine
 10
149.4281288261
 20
58.7789173061
 30
0.0
 11
149.4281288261
 21
59.1789173061
 31
0.0
  0
LINE
  5
224
330
1F
100
AcDbEntity
  8
0
  6
HIDDEN
 62
     7
370
    25
100
AcDbLine
 10
148.3967419553
 20
59.1789173061
 30
0.0
 11
148.3967419553
 21
58.7789173061
 31
0.0
  0
LINE
  5
225
330
1F
100
AcDbEntity
  8
0
  6
HIDDEN
 62
     7
370
    25
100
AcDbLine
 10
113.7634271817
 20
85.3323109673
 30
0.0
 11
113.9134271817
 21
85.3323109673
 31
0.0
  0
LINE
  5
226
330
1F
100
AcDbEntity
  8
0
  6
HIDDEN
 62
     7
370
    25
100
AcDbLine
 10
133.9134271817
 20
85.3323109673
 30
0.0
 11
134.0634271817
 21
85.3323109673
 31
0.0
  0
LINE
  5
227
330
1F
100
AcDbEntity
  8
0
  6
HIDDEN
 62
     7
370
    25
100
AcDbLine
 10
133.9134271817
 20
89.3323109673
 30
0.0
 11
113.9134271817
 21
89.3323109673
 31
0.0
  0
LINE
  5
228
330
1F
100
AcDbEntity
  8
0
  6
HIDDEN
 62
     7
370
    25
100
AcDbLine
 10
113.9134271817
 20
86.3323109673
 30
0.0
 11
133.9134271817
 21
86.3323109673
 31
0.0
  0
LINE
  5
229
330
1F
100
AcDbEntity
  8
0
  6
HIDDEN
 62
     7
370
    25
100
AcDbLine
 10
139.9197652065
 20
82.2184408046
 30
0.0
 11
140.003644142
 21
82.0940851687
 31
0.0
  0
LINE
  5
22A
330
1F
100
AcDbEntity
  8
0
  6
HIDDEN
 62
     7
370
    25
100
AcDbLine
 10
151.1875022114
 20
65.5133337176
 30
0.0
 11
151.271381147
 21
65.3889780817
 31
0.0
  0
LINE
  5
22B
330
1F
100
AcDbEntity
  8
0
  6
HIDDEN
 62
     7
370
    25
100
AcDbLine
 10
154.5036525017
 20
67.7501053315
 30
0.0
 11
143.3197944322
 21
84.3308567826
 31
0.0
  0
LINE
  5
22C
330
1F
100
AcDbEntity
  8
0
  6
HIDDEN
 62
     7
370
    25
100
AcDbLine
 10
140.8326817146
 20
82.6532780722
 30
0.0
 11
152.016539784
 21
66.0725266211
 31
0.0
  0
LINE
  5
22D
330
1F
100
AcDbEntity
  8
0
  6
HIDDEN
 62
     7
370
    25
100
AcDbLine
 10
151.6810342086
 20
55.1789173061
 30
0.0
 11
96.1458201548
 21
55.1789173061
 31
0.0
  0
LINE
  5
22E
330
1F
100
AcDbEntity
  8
0
  6
HIDDEN
 62
     7
370
    25
100
AcDbLine
 10
151.834566127
 20
56.6789173061
 30
0.0
 11
95.9922882365
 21
56.6789173061
 31
0.0
  0
LINE
  5
22F
330
1F
100
AcDbEntity
  8
0
  6
HIDDEN
 62
     7
370
    25
100
AcDbLine
 10
155.7134271817
 20
56.6789173061
 30
0.0
 11
154.1134271817
 21
56.6789173061
 31
0.0
  0
LINE
  5
230
330
1F
100
AcDbEntity
  8
0
  6
HIDDEN
 62
     7
370
    25
100
AcDbLine
 10
93.7134271817
 20
56.6789173061
 30
0.0
 11
92.1134271817
 21
56.6789173061
 31
0.0
  0
LINE
  5
231
330
1F
100
AcDbEntity
  8
0
  6
HIDDEN
 62
     7
370
    25
100
AcDbLine
 10
113.9134271817
 20
32.6255236449
 30
0.0
 11
133.9134271817
 21
32.6255236449
 31
0.0
  0
LINE
  5
232
330
1F
100
AcDbEntity
  8
0
  6
HIDDEN
 62
     7
370
    25
100
AcDbLine
 10
95.9536346217
 20
57.2789173061
 30
0.0
 11
151.8732197418
 21
57.2789173061
 31
0.0
  0
LINE
  5
233
330
1F
100
AcDbEntity
  8
0
  6
HIDDEN
 62
     7
370
    25
100
AcDbLine
 10
151.1875022114
 20
65.5133337176
 30
0.0
 11
140.003644142
 21
82.0940851687
 31
0.0
  0
LINE
  5
234
330
1F
100
AcDbEntity
  8
0
  6
HIDDEN
 62
     7
370
    25
100
AcDbLine
 10
113.9134271817
 20
85.3323109673
 30
0.0
 11
133.9134271817
 21
85.3323109673
 31
0.0
  0
LINE
  5
235
330
1F
100
AcDbEntity
  8
0
  6
HIDDEN
 62
     7
370
    25
100
AcDbLine
 10
151.8732197418
 20
60.6789173061
 30
0.0
 11
95.9536346217
 21
60.6789173061
 31
0.0
  0
ARC
  5
236
330
1F
100
AcDbEntity
  8
0
  6
HIDDEN
 62
     7
370
    25
100
AcDbCircle
 10
125.0634271817
 20
60.9789173061
 30
0.0
 40
0.2999999999999972
100
AcDbArc
 50
270.0
 51
0.0
  0
ARC
  5
237
330
1F
100
AcDbEntity
  8
0
  6
HIDDEN
 62
     7
370
    25
100
AcDbCircle
 10
122.7634271817
 20
60.9789173061
 30
0.0
 40
0.2999999999999972
100
AcDbArc
 50
180.0
 51
270.0
  0
ARC
  5
238
330
1F
100
AcDbEntity
  8
0
  6
HIDDEN
 62
     7
370
    25
100
AcDbCircle
 10
125.0634271817
 20
60.9789173061
 30
0.0
 40
0.2999999999999972
100
AcDbArc
 50
0.0
 51
90.0
  0
ARC
  5
239
330
1F
100
AcDbEntity
  8
0
  6
HIDDEN
 62
     7
370
    25
100
AcDbCircle
 10
122.7634271817
 20
60.9789173061
 30
0.0
 40
0.2999999999999972
100
AcDbArc
 50
90.0
 51
180.0
  0
LINE
  5
23A
330
1F
100
AcDbEntity
  8
0
  6
HIDDEN
 62
     7
370
    25
100
AcDbLine
 10
122.9634271817
 20
60.6789173061
 30
0.0
 11
122.9634271817
 21
55.8789173061
 31
0.0
  0
LINE
  5
23B
330
1F
100
AcDbEntity
  8
0
  6
HIDDEN
 62
     7
370
    25
100
AcDbLine
 10
124.8634271817
 20
55.8789173061
 30
0.0
 11
124.8634271817
 21
60.6789173061
 31
0.0
  0
LINE
  5
23C
330
1F
100
AcDbEntity
  8
0
  6
HIDDEN
 62
     7
370
    25
100
AcDbLine
 10
122.9634271817
 20
55.8789173061
 30
0.0
 11
123.1634271817
 21
55.6789173061
 31
0.0
  0
LINE
  5
23D
330
1F
100
AcDbEntity
  8
0
  6
HIDDEN
 62
     7
370
    25
100
AcDbLine
 10
124.6634271817
 20
55.6789173061
 30
0.0
 11
124.8634271817
 21
55.8789173061
 31
0.0
  0
ARC
  5
23E
330
1F
100
AcDbEntity
  8
0
  6
HIDDEN
 62
     7
370
    25
100
AcDbCircle
 10
103.143116965
 20
60.9789173061
 30
0.0
 40
0.2999999999999972
100
AcDbArc
 50
0.0
 51
90.0
  0
ARC
  5
23F
330
1F
100
AcDbEntity
  8
0
  6
HIDDEN
 62
     7
370
    25
100
AcDbCircle
 10
100.843116965
 20
60.9789173061
 30
0.0
 40
0.3000000000000114
100
AcDbArc
 50
90.0
 51
180.0
  0
ARC
  5
240
330
1F
100
AcDbEntity
  8
0
  6
HIDDEN
 62
     7
370
    25
100
AcDbCircle
 10
103.143116965
 20
60.9789173061
 30
0.0
 40
0.2999999999999972
100
AcDbArc
 50
270.0
 51
0.0
  0
ARC
  5
241
330
1F
100
AcDbEntity
  8
0
  6
HIDDEN
 62
     7
370
    25
100
AcDbCircle
 10
100.843116965
 20
60.9789173061
 30
0.0
 40
0.3000000000000114
100
AcDbArc
 50
180.0
 51
270.0
  0
LINE
  5
242
330
1F
100
AcDbEntity
  8
0
  6
HIDDEN
 62
     7
370
    25
100
AcDbLine
 10
101.043116965
 20
60.6789173061
 30
0.0
 11
101.043116965
 21
55.8789173061
 31
0.0
  0
LINE
  5
243
330
1F
100
AcDbEntity
  8
0
  6
HIDDEN
 62
     7
370
    25
100
AcDbLine
 10
102.943116965
 20
55.8789173061
 30
0.0
 11
102.943116965
 21
60.6789173061
 31
0.0
  0
LINE
  5
244
330
1F
100
AcDbEntity
  8
0
  6
HIDDEN
 62
     7
370
    25
100
AcDbLine
 10
101.043116965
 20
55.8789173061
 30
0.0
 11
101.243116965
 21
55.6789173061
 31
0.0
  0
LINE
  5
245
330
1F
100
AcDbEntity
  8
0
  6
HIDDEN
 62
     7
370
    25
100
AcDbLine
 10
102.743116965
 20
55.6789173061
 30
0.0
 11
102.943116965
 21
55.8789173061
 31
0.0
  0
ARC
  5
246
330
1F
100
AcDbEntity
  8
0
  6
HIDDEN
 62
     7
370
    25
100
AcDbCircle
 10
146.9837373985
 20
60.9789173061
 30
0.0
 40
0.3000000000000114
100
AcDbArc
 50
0.0
 51
90.0
  0
ARC
  5
247
330
1F
100
AcDbEntity
  8
0
  6
HIDDEN
 62
     7
370
    25
100
AcDbCircle
 10
144.6837373985
 20
60.9789173061
 30
0.0
 40
0.3000000000000398
100
AcDbArc
 50
90.0
 51
180.0
  0
ARC
  5
248
330
1F
100
AcDbEntity
  8
0
  6
HIDDEN
 62
     7
370
    25
100
AcDbCircle
 10
146.9837373985
 20
60.9789173061
 30
0.0
 40
0.3000000000000114
100
AcDbArc
 50
270.0
 51
0.0
  0
ARC
  5
249
330
1F
100
AcDbEntity
  8
0
  6
HIDDEN
 62
     7
370
    25
100
AcDbCircle
 10
144.6837373985
 20
60.9789173061
 30
0.0
 40
0.3000000000000398
100
AcDbArc
 50
180.0
 51
270.0
  0
LINE
  5
24A
330
1F
100
AcDbEntity
  8
0
  6
HIDDEN
 62
     7
370
    25
100
AcDbLine
 10
144.8837373985
 20
60.6789173061
 30
0.0
 11
144.8837373985
 21
55.8789173061
 31
0.0
  0
LINE
  5
24B
330
1F
100
AcDbEntity
  8
0
  6
HIDDEN
 62
     7
370
    25
100
AcDbLine
 10
146.7837373985
 20
55.8789173061
 30
0.0
 11
146.7837373985
 21
60.6789173061
 31
0.0
  0
LINE
  5
24C
330
1F
100
AcDbEntity
  8
0
  6
HIDDEN
 62
     7
370
    25
100
AcDbLine
 10
144.8837373985
 20
55.8789173061
 30
0.0
 11
145.0837373985
 21
55.6789173061
 31
0.0
  0
LINE
  5
24D
330
1F
100
AcDbEntity
  8
0
  6
HIDDEN
 62
     7
370
    25
100
AcDbLine
 10
146.5837373985
 20
55.6789173061
 30
0.0
 11
146.7837373985
 21
55.8789173061
 31
0.0
  0
LINE
  5
24E
330
1F
100
AcDbEntity
  8
0
  6
HIDDEN
 62
     7
370
    25
100
AcDbLine
 10
144.5837373985
 20
59.1789173061
 30
0.0
 11
144.5837373985
 21
58.7789173061
 31
0.0
  0
LINE
  5
24F
330
1F
100
AcDbEntity
  8
0
  6
HIDDEN
 62
     7
370
    25
100
AcDbLine
 10
147.0837373985
 20
58.7789173061
 30
0.0
 11
147.0837373985
 21
59.1789173061
 31
0.0
  0
LINE
  5
250
330
1F
100
AcDbEntity
  8
0
  6
HIDDEN
 62
     7
370
    25
100
AcDbLine
 10
100.743116965
 20
59.1789173061
 30
0.0
 11
100.743116965
 21
58.7789173061
 31
0.0
  0
LINE
  5
251
330
1F
100
AcDbEntity
  8
0
  6
HIDDEN
 62
     7
370
    25
100
AcDbLine
 10
103.243116965
 20
58.7789173061
 30
0.0
 11
103.243116965
 21
59.1789173061
 31
0.0
  0
LINE
  5
252
330
1F
100
AcDbEntity
  8
0
  6
HIDDEN
 62
     7
370
    25
100
AcDbLine
 10
122.6634271817
 20
59.1789173061
 30
0.0
 11
122.6634271817
 21
58.7789173061
 31
0.0
  0
LINE
  5
253
330
1F
100
AcDbEntity
  8
0
  6
HIDDEN
 62
     7
370
    25
100
AcDbLine
 10
125.1634271817
 20
58.7789173061
 30
0.0
 11
125.1634271817
 21
59.1789173061
 31
0.0
  0
LINE
  5
254
330
1F
100
AcDbEntity
  8
0
  6
HIDDEN
 62
     7
370
    25
100
AcDbLine
 10
145.0337373985
 20
56.6789173061
 30
0.0
 11
145.0337373985
 21
55.1789173061
 31
0.0
  0
LINE
  5
255
330
1F
100
AcDbEntity
  8
0
  6
HIDDEN
 62
     7
370
    25
100
AcDbLine
 10
146.6337373985
 20
55.1789173061
 30
0.0
 11
146.6337373985
 21
56.6789173061
 31
0.0
  0
LINE
  5
256
330
1F
100
AcDbEntity
  8
0
  6
HIDDEN
 62
     7
370
    25
100
AcDbLine
 10
101.193116965
 20
56.6789173061
 30
0.0
 11
101.193116965
 21
55.1789173061
 31
0.0
  0
LINE
  5
257
330
1F
100
AcDbEntity
  8
0
  6
HIDDEN
 62
     7
370
    25
100
AcDbLine
 10
102.793116965
 20
55.1789173061
 30
0.0
 11
102.793116965
 21
56.6789173061
 31
0.0
  0
LINE
  5
258
330
1F
100
AcDbEntity
  8
0
  6
HIDDEN
 62
     7
370
    25
100
AcDbLine
 10
123.1134271817
 20
56.6789173061
 30
0.0
 11
123.1134271817
 21
55.1789173061
 31
0.0
  0
LINE
  5
259
330
1F
100
AcDbEntity
  8
0
  6
HIDDEN
 62
     7
370
    25
100
AcDbLine
 10
124.7134271817
 20
55.1789173061
 30
0.0
 11
124.7134271817
 21
56.6789173061
 31
0.0
  0
HATCH
  5
25A
330
1F
100
AcDbEntity
  8
DIM
  6
Continuous
370
    18
100
AcDbHatch
 10
0.0
 20
0.0
 30
0.0
210
0.0
220
0.0
230
1.0
  2
ANSI31
 70
     0
 71
     0
 91
        1
 92
        0
 93
        4
 72
     1
 10
138.2183998883503
 20
80.88992271494543
 11
140.0036441420235
 21
82.09408516869199
 72
     2
 10
123.9134271817368
 20
59.17891730609706
 40
28.0
 50
54.92483242763836
 51
69.07516757236185
 73
     1
 72
     1
 10
133.9134271817367
 20
85.33231096734114
 11
133.9134271817367
 21
83.1789173060971
 72
     2
 10
123.9134271817368
 20
59.17891730609706
 40
26.0
 50
292.619864948041
 51
303.3801350519603
 73
     0
 97
        0
 75
     0
 76
     1
 52
0.0
 41
1.0
 77
     0
 78
     1
 53
45.0
 43
0.0
 44
0.0
 45
-2.245064030267288
 46
2.245064030267288
 79
     0
 98
        1
 10
0.0
 20
0.0
  0
HATCH
  5
25B
330
1F
100
AcDbEntity
  8
DIM
  6
Continuous
370
    18
100
AcDbHatch
 10
0.0
 20
0.0
 30
0.0
210
0.0
220
0.0
230
1.0
  2
ANSI31
 70
     0
 71
     0
 91
        1
 92
        0
 93
        6
 72
     1
 10
90.91342718173676
 20
59.17891730609706
 11
97.91342718173678
 21
59.17891730609706
 72
     2
 10
123.9134271817368
 20
59.17891730609706
 40
26.0
 50
180.0
 51
247.3801350519602
 73
     0
 72
     1
 10
113.9134271817367
 20
83.17891730609703
 11
113.9134271817367
 21
85.33231096734114
 72
     2
 10
123.9134271817368
 20
59.17891730609706
 40
28.0
 50
110.9248324276385
 51
176.9291131889251
 73
     1
 72
     1
 10
95.95363462170513
 20
60.67891730609706
 11
90.91342718173676
 21
60.67891730609706
 72
     1
 10
90.91342718173676
 20
60.67891730609706
 11
90.91342718173676
 21
59.17891730609706
 97
        0
 75
     0
 76
     1
 52
0.0
 41
1.0
 77
     0
 78
     1
 53
45.0
 43
0.0
 44
0.0
 45
-2.245064030267288
 46
2.245064030267288
 79
     0
 98
        1
 10
0.0
 20
0.0
  0
HATCH
  5
25C
330
1F
100
AcDbEntity
  8
DIM
  6
Continuous
370
    18
100
AcDbHatch
 10
0.0
 20
0.0
 30
0.0
210
0.0
220
0.0
230
1.0
  2
ANSI31
 70
     0
 71
     0
 91
        1
 92
        0
 93
        6
 72
     1
 10
156.9134271817368
 20
60.67891730609706
 11
151.8732197417684
 21
60.67891730609706
 72
     2
 10
123.9134271817368
 20
59.17891730609706
 40
28.0
 50
3.070886811074865
 51
13.0751675723618
 73
     1
 72
     1
 10
151.1875022114384
 20
65.51333371759118
 11
149.4022579577652
 21
64.3091712638446
 72
     2
 10
123.9134271817368
 20
59.17891730609706
 40
26.0
 50
348.6198649480412
 51
360.0000000000008
 73
     0
 72
     1
 10
149.9134271817368
 20
59.17891730609706
 11
156.9134271817368
 21
59.17891730609706
 72
     1
 10
156.9134271817368
 20
59.17891730609706
 11
156.9134271817368
 21
60.67891730609706
 97
        0
 75
     0
 76
     1
 52
0.0
 41
1.0
 77
     0
 78
     1
 53
45.0
 43
0.0
 44
0.0
 45
-2.245064030267288
 46
2.245064030267288
 79
     0
 98
        1
 10
0.0
 20
0.0
  0
HATCH
  5
25D
330
1F
100
AcDbEntity
  8
DIM
  6
Continuous
370
    18
100
AcDbHatch
 10
0.0
 20
0.0
 30
0.0
210
0.0
220
0.0
230
1.0
  2
ANSI31
 70
     0
 71
     0
 91
        1
 92
        0
 93
        6
 72
     1
 10
90.91342718173671
 20
57.27891730609706
 11
95.95363462170512
 21
57.27891730609706
 72
     2
 10
123.9134271817368
 20
58.77891730609706
 40
28.0
 50
183.0708868110757
 51
249.0751675723625
 73
     1
 72
     1
 10
113.9134271817368
 20
32.62552364485302
 11
113.9134271817368
 21
34.77891730609706
 72
     2
 10
123.9134271817368
 20
58.77891730609706
 40
26.0
 50
112.6198649480404
 51
180.0
 73
     0
 72
     1
 10
97.91342718173675
 20
58.77891730609706
 11
90.91342718173671
 21
58.77891730609706
 72
     1
 10
90.91342718173671
 20
58.77891730609706
 11
90.91342718173671
 21
57.27891730609706
 97
        0
 75
     0
 76
     1
 52
0.0
 41
1.0
 77
     0
 78
     1
 53
45.0
 43
0.0
 44
0.0
 45
-2.245064030267288
 46
2.245064030267288
 79
     0
 98
        1
 10
0.0
 20
0.0
  0
HATCH
  5
25E
330
1F
100
AcDbEntity
  8
DIM
  6
Continuous
370
    18
100
AcDbHatch
 10
0.0
 20
0.0
 30
0.0
210
0.0
220
0.0
230
1.0
  2
ANSI31
 70
     0
 71
     0
 91
        1
 92
        0
 93
        6
 72
     1
 10
156.9134271817368
 20
58.77891730609706
 11
149.9134271817368
 21
58.77891730609706
 72
     2
 10
123.9134271817368
 20
58.77891730609706
 40
26.0
 50
0.0
 51
67.3801350519595
 73
     0
 72
     1
 10
133.9134271817368
 20
34.77891730609706
 11
133.9134271817368
 21
32.62552364485302
 72
     2
 10
123.9134271817368
 20
58.77891730609706
 40
28.0
 50
290.9248324276392
 51
356.929113188926
 73
     1
 72
     1
 10
151.8732197417684
 20
57.27891730609706
 11
156.9134271817368
 21
57.27891730609706
 72
     1
 10
156.9134271817368
 20
57.27891730609706
 11
156.9134271817368
 21
58.77891730609706
 97
        0
 75
     0
 76
     1
 52
0.0
 41
1.0
 77
     0
 78
     1
 53
45.0
 43
0.0
 44
0.0
 45
-2.245064030267288
 46
2.245064030267288
 79
     0
 98
        1
 10
0.0
 20
0.0
  0
HATCH
  5
25F
330
1F
100
AcDbEntity
  8
DIM
  6
Continuous
370
    18
100
AcDbHatch
 10
0.0
 20
0.0
 30
0.0
210
0.0
220
0.0
230
1.0
  2
ANSI31
 70
     0
 71
     0
 91
        1
 92
        0
 93
        6
 72
     1
 10
89.41342718173678
 20
60.67891730609706
 11
89.41342718173678
 21
55.17891730609706
 72
     1
 10
89.41342718173678
 20
55.17891730609706
 11
92.11342718173678
 21
55.17891730609706
 72
     1
 10
92.11342718173678
 20
55.17891730609706
 11
92.11342718173678
 21
56.67891730609706
 72
     1
 10
92.11342718173678
 20
56.67891730609706
 11
90.66342718173676
 21
56.67891730609706
 72
     1
 10
90.66342718173676
 20
56.67891730609706
 11
90.66342718173676
 21
60.67891730609706
 72
     1
 10
90.66342718173676
 20
60.67891730609706
 11
89.41342718173678
 21
60.67891730609706
 97
        0
 75
     0
 76
     1
 52
0.0
 41
1.0
 77
     0
 78
     1
 53
45.0
 43
0.0
 44
0.0
 45
-2.245064030267288
 46
2.245064030267288
 79
     0
 98
        1
 10
0.0
 20
0.0
  0
HATCH
  5
260
330
1F
100
AcDbEntity
  8
DIM
  6
Continuous
370
    18
100
AcDbHatch
 10
0.0
 20
0.0
 30
0.0
210
0.0
220
0.0
230
1.0
  2
ANSI31
 70
     0
 71
     0
 91
        1
 92
        0
 93
        4
 72
     1
 10
95.66342718173678
 20
56.67891730609706
 11
93.71342718173678
 21
56.67891730609706
 72
     1
 10
93.71342718173678
 20
56.67891730609706
 11
93.71342718173678
 21
55.17891730609706
 72
     1
 10
93.71342718173678
 20
55.17891730609706
 11
95.66342718173678
 21
55.17891730609706
 72
     1
 10
95.66342718173678
 20
55.17891730609706
 11
95.66342718173678
 21
56.67891730609706
 97
        0
 75
     0
 76
     1
 52
0.0
 41
1.0
 77
     0
 78
     1
 53
45.0
 43
0.0
 44
0.0
 45
-2.245064030267288
 46
2.245064030267288
 79
     0
 98
        1
 10
0.0
 20
0.0
  0
HATCH
  5
261
330
1F
100
AcDbEntity
  8
DIM
  6
Continuous
370
    18
100
AcDbHatch
 10
0.0
 20
0.0
 30
0.0
210
0.0
220
0.0
230
1.0
  2
ANSI31
 70
     0
 71
     0
 91
        1
 92
        0
 93
        4
 72
     1
 10
152.1634271817368
 20
55.17891730609706
 11
154.1134271817368
 21
55.17891730609706
 72
     1
 10
154.1134271817368
 20
55.17891730609706
 11
154.1134271817368
 21
56.67891730609706
 72
     1
 10
154.1134271817368
 20
56.67891730609706
 11
152.1634271817368
 21
56.67891730609706
 72
     1
 10
152.1634271817368
 20
56.67891730609706
 11
152.1634271817368
 21
55.17891730609706
 97
        0
 75
     0
 76
     1
 52
0.0
 41
1.0
 77
     0
 78
     1
 53
45.0
 43
0.0
 44
0.0
 45
-2.245064030267288
 46
2.245064030267288
 79
     0
 98
        1
 10
0.0
 20
0.0
  0
HATCH
  5
262
330
1F
100
AcDbEntity
  8
DIM
  6
Continuous
370
    18
100
AcDbHatch
 10
0.0
 20
0.0
 30
0.0
210
0.0
220
0.0
230
1.0
  2
ANSI31
 70
     0
 71
     0
 91
        1
 92
        0
 93
        6
 72
     1
 10
158.4134271817368
 20
55.17891730609706
 11
158.4134271817368
 21
60.67891730609706
 72
     1
 10
158.4134271817368
 20
60.67891730609706
 11
157.1634271817368
 21
60.67891730609706
 72
     1
 10
157.1634271817368
 20
60.67891730609706
 11
157.1634271817368
 21
56.67891730609706
 72
     1
 10
157.1634271817368
 20
56.67891730609706
 11
155.7134271817368
 21
56.67891730609706
 72
     1
 10
155.7134271817368
 20
56.67891730609706
 11
155.7134271817368
 21
55.17891730609706
 72
     1
 10
155.7134271817368
 20
55.17891730609706
 11
158.4134271817368
 21
55.17891730609706
 97
        0
 75
     0
 76
     1
 52
0.0
 41
1.0
 77
     0
 78
     1
 53
45.0
 43
0.0
 44
0.0
 45
-2.245064030267288
 46
2.245064030267288
 79
     0
 98
        1
 10
0.0
 20
0.0
  0
HATCH
  5
263
330
1F
100
AcDbEntity
  8
DIM
  6
Continuous
370
    18
100
AcDbHatch
 10
0.0
 20
0.0
 30
0.0
210
0.0
220
0.0
230
1.0
  2
ANSI31
 70
     0
 71
     0
 91
        1
 92
        0
 93
        9
 72
     1
 10
153.2765406927469
 20
70.46351922835326
 11
148.3551219690398
 21
66.13592681301526
 72
     1
 10
148.3551219690398
 20
66.13592681301526
 11
149.6133060018489
 21
64.27059227476641
 72
     1
 10
149.6133060018489
 20
64.27059227476641
 11
151.271381146959
 21
65.38897808170792
 72
     1
 10
151.271381146959
 20
65.38897808170792
 11
151.4670986631738
 21
65.09881493131365
 72
     1
 10
151.4670986631738
 20
65.09881493131365
 11
152.2961362357288
 21
65.6580078347844
 72
     1
 10
152.2961362357288
 20
65.6580078347844
 11
152.0165397839934
 21
66.07252662106191
 72
     2
 10
153.260096142826
 20
66.91131597626804
 40
1.500000000000002
 50
145.9999999999997
 51
326.000000000001
 73
     0
 72
     1
 10
154.5036525016586
 20
67.75010533147416
 11
154.9181712879361
 21
68.02970178320953
 72
     1
 10
154.9181712879361
 20
68.02970178320953
 11
153.2765406927469
 21
70.46351922835326
 97
        0
 75
     0
 76
     1
 52
0.0
 41
1.0
 77
     0
 78
     1
 53
45.0
 43
0.0
 44
0.0
 45
-2.245064030267288
 46
2.245064030267288
 79
     0
 98
        1
 10
0.0
 20
0.0
  0
HATCH
  5
264
330
1F
100
AcDbEntity
  8
DIM
  6
Continuous
370
    18
100
AcDbHatch
 10
0.0
 20
0.0
 30
0.0
210
0.0
220
0.0
230
1.0
  2
ANSI31
 70
     0
 71
     0
 91
        1
 92
        0
 93
        9
 72
     1
 10
143.7343132185212
 20
84.61045323431036
 11
143.3197944322436
 21
84.33085678257498
 72
     2
 10
142.076238073411
 20
83.49206742736885
 40
1.500000000000002
 50
326.0000000000005
 51
506.0000000000015
 73
     0
 72
     1
 10
140.8326817145785
 20
82.65327807216273
 11
140.5530852628431
 21
83.06779685844026
 72
     1
 10
140.5530852628431
 20
83.06779685844026
 11
139.7240476902881
 21
82.5086039549695
 72
     1
 10
139.7240476902881
 20
82.5086039549695
 11
139.9197652065028
 21
82.21844080457524
 72
     1
 10
139.9197652065028
 20
82.21844080457524
 11
138.2616900613928
 21
81.10005499763375
 72
     1
 10
138.2616900613928
 20
81.10005499763375
 11
139.519874094202
 21
79.2347204593849
 72
     1
 10
139.519874094202
 20
79.2347204593849
 11
145.3759438137103
 21
82.17663578916664
 72
     1
 10
145.3759438137103
 20
82.17663578916664
 11
143.7343132185212
 21
84.61045323431036
 97
        0
 75
     0
 76
     1
 52
0.0
 41
1.0
 77
     0
 78
     1
 53
45.0
 43
0.0
 44
0.0
 45
-2.245064030267288
 46
2.245064030267288
 79
     0
 98
        1
 10
0.0
 20
0.0
  0
HATCH
  5
265
330
1F
100
AcDbEntity
  8
DIM
  6
Continuous
370
    18
100
AcDbHatch
 10
0.0
 20
0.0
 30
0.0
210
0.0
220
0.0
230
1.0
  2
ANSI31
 70
     0
 71
     0
 91
        1
 92
        0
 93
        9
 72
     1
 10
130.9777128960224
 20
89.83231096734113
 11
131.8134271817367
 21
83.33231096734113
 72
     1
 10
131.8134271817367
 20
83.33231096734113
 11
134.0634271817367
 21
83.33231096734114
 72
     1
 10
134.0634271817367
 20
83.33231096734114
 11
134.0634271817367
 21
85.33231096734114
 72
     1
 10
134.0634271817367
 20
85.33231096734114
 11
134.4134271817367
 21
85.33231096734114
 72
     1
 10
134.4134271817367
 20
85.33231096734114
 11
134.4134271817367
 21
86.33231096734114
 72
     1
 10
134.4134271817367
 20
86.33231096734114
 11
133.9134271817367
 21
86.33231096734114
 72
     2
 10
133.9134271817367
 20
87.83231096734114
 40
1.500000000000002
 50
90.0
 51
270.0000000000008
 73
     0
 72
     1
 10
133.9134271817367
 20
89.33231096734114
 11
133.9134271817367
 21
89.83231096734113
 72
     1
 10
133.9134271817367
 20
89.83231096734113
 11
130.9777128960224
 21
89.83231096734113
 97
        0
 75
     0
 76
     1
 52
0.0
 41
1.0
 77
     0
 78
     1
 53
45.0
 43
0.0
 44
0.0
 45
-2.245064030267288
 46
2.245064030267288
 79
     0
 98
        1
 10
0.0
 20
0.0
  0
HATCH
  5
266
330
1F
100
AcDbEntity
  8
DIM
  6
Continuous
370
    18
100
AcDbHatch
 10
0.0
 20
0.0
 30
0.0
210
0.0
220
0.0
230
1.0
  2
ANSI31
 70
     0
 71
     0
 91
        1
 92
        0
 93
        9
 72
     1
 10
113.9134271817367
 20
89.83231096734107
 11
113.9134271817367
 21
89.33231096734107
 72
     2
 10
113.9134271817367
 20
87.83231096734106
 40
1.500000000000002
 50
270.0000000000008
 51
450.0000000000003
 73
     0
 72
     1
 10
113.9134271817367
 20
86.33231096734106
 11
113.4134271817367
 21
86.33231096734106
 72
     1
 10
113.4134271817367
 20
86.33231096734106
 11
113.4134271817367
 21
85.33231096734106
 72
     1
 10
113.4134271817367
 20
85.33231096734106
 11
113.7634271817367
 21
85.33231096734106
 72
     1
 10
113.7634271817367
 20
85.33231096734106
 11
113.7634271817367
 21
83.33231096734106
 72
     1
 10
113.7634271817367
 20
83.33231096734106
 11
116.0134271817367
 21
83.33231096734107
 72
     1
 10
116.0134271817367
 20
83.33231096734107
 11
116.849141467451
 21
89.83231096734109
 72
     1
 10
116.849141467451
 20
89.83231096734109
 11
113.9134271817367
 21
89.83231096734107
 97
        0
 75
     0
 76
     1
 52
0.0
 41
1.0
 77
     0
 78
     1
 53
45.0
 43
0.0
 44
0.0
 45
-2.245064030267288
 46
2.245064030267288
 79
     0
 98
        1
 10
0.0
 20
0.0
  0
HATCH
  5
267
330
1F
100
AcDbEntity
  8
DIM
  6
Continuous
370
    18
100
AcDbHatch
 10
0.0
 20
0.0
 30
0.0
210
0.0
220
0.0
230
1.0
  2
ANSI31
 70
     0
 71
     0
 91
        1
 92
        0
 93
        4
 72
     1
 10
131.9134271817368
 20
58.77891730609706
 11
153.6634271817368
 21
58.77891730609706
 72
     1
 10
153.6634271817368
 20
58.77891730609706
 11
153.6634271817368
 21
59.17891730609706
 72
     1
 10
153.6634271817368
 20
59.17891730609706
 11
131.9134271817368
 21
59.17891730609706
 72
     1
 10
131.9134271817368
 20
59.17891730609706
 11
131.9134271817368
 21
58.77891730609706
 97
        0
 75
     0
 76
     1
 52
0.0
 41
1.0
 77
     0
 78
     1
 53
45.0
 43
0.0
 44
0.0
 45
-2.245064030267288
 46
2.245064030267288
 79
     0
 98
        1
 10
0.0
 20
0.0
  0
HATCH
  5
268
330
1F
100
AcDbEntity
  8
DIM
  6
Continuous
370
    18
100
AcDbHatch
 10
0.0
 20
0.0
 30
0.0
210
0.0
220
0.0
230
1.0
  2
ANSI31
 70
     0
 71
     0
 91
        1
 92
        0
 93
        4
 72
     1
 10
156.9134271817368
 20
58.77891730609706
 11
156.9134271817368
 21
59.17891730609706
 72
     1
 10
156.9134271817368
 20
59.17891730609706
 11
156.1634271817368
 21
59.17891730609706
 72
     1
 10
156.1634271817368
 20
59.17891730609706
 11
156.1634271817368
 21
58.77891730609706
 72
     1
 10
156.1634271817368
 20
58.77891730609706
 11
156.9134271817368
 21
58.77891730609706
 97
        0
 75
     0
 76
     1
 52
0.0
 41
1.0
 77
     0
 78
     1
 53
45.0
 43
0.0
 44
0.0
 45
-2.245064030267288
 46
2.245064030267288
 79
     0
 98
        1
 10
0.0
 20
0.0
  0
HATCH
  5
269
330
1F
100
AcDbEntity
  8
DIM
  6
Continuous
370
    18
100
AcDbHatch
 10
0.0
 20
0.0
 30
0.0
210
0.0
220
0.0
230
1.0
  2
ANSI31
 70
     0
 71
     0
 91
        1
 92
        0
 93
        4
 72
     1
 10
90.91342718173684
 20
59.17891730609706
 11
90.91342718173684
 21
58.77891730609706
 72
     1
 10
90.91342718173684
 20
58.77891730609706
 11
91.66342718173684
 21
58.77891730609706
 72
     1
 10
91.66342718173684
 20
58.77891730609706
 11
91.66342718173684
 21
59.17891730609706
 72
     1
 10
91.66342718173684
 20
59.17891730609706
 11
90.91342718173684
 21
59.17891730609706
 97
        0
 75
     0
 76
     1
 52
0.0
 41
1.0
 77
     0
 78
     1
 53
45.0
 43
0.0
 44
0.0
 45
-2.245064030267288
 46
2.245064030267288
 79
     0
 98
        1
 10
0.0
 20
0.0
  0
HATCH
  5
26A
330
1F
100
AcDbEntity
  8
DIM
  6
Continuous
370
    18
100
AcDbHatch
 10
0.0
 20
0.0
 30
0.0
210
0.0
220
0.0
230
1.0
  2
ANSI31
 70
     0
 71
     0
 91
        1
 92
        0
 93
        4
 72
     1
 10
97.91342718173684
 20
59.17891730609706
 11
94.16342718173684
 21
59.17891730609706
 72
     1
 10
94.16342718173684
 20
59.17891730609706
 11
94.16342718173684
 21
58.77891730609706
 72
     1
 10
94.16342718173684
 20
58.77891730609706
 11
97.91342718173684
 21
58.77891730609706
 72
     1
 10
97.91342718173684
 20
58.77891730609706
 11
97.91342718173684
 21
59.17891730609706
 97
        0
 75
     0
 76
     1
 52
0.0
 41
1.0
 77
     0
 78
     1
 53
45.0
 43
0.0
 44
0.0
 45
-2.245064030267288
 46
2.245064030267288
 79
     0
 98
        1
 10
0.0
 20
0.0
  0
HATCH
  5
26B
330
1F
100
AcDbEntity
  8
DIM
  6
Continuous
370
    18
100
AcDbHatch
 10
0.0
 20
0.0
 30
0.0
210
0.0
220
0.0
230
1.0
  2
ANSI31
 70
     0
 71
     0
 91
        1
 92
        0
 93
        9
 72
     1
 10
116.849141467451
 20
28.12552364485303
 11
116.0134271817368
 21
34.62552364485303
 72
     1
 10
116.0134271817368
 20
34.62552364485303
 11
113.7634271817368
 21
34.62552364485303
 72
     1
 10
113.7634271817368
 20
34.62552364485303
 11
113.7634271817368
 21
32.62552364485302
 72
     1
 10
113.7634271817368
 20
32.62552364485302
 11
113.4134271817368
 21
32.62552364485302
 72
     1
 10
113.4134271817368
 20
32.62552364485302
 11
113.4134271817368
 21
31.62552364485302
 72
     1
 10
113.4134271817368
 20
31.62552364485302
 11
113.9134271817368
 21
31.62552364485303
 72
     2
 10
113.9134271817368
 20
30.12552364485302
 40
1.500000000000002
 50
270.0000000000008
 51
450.0000000000008
 73
     0
 72
     1
 10
113.9134271817368
 20
28.62552364485302
 11
113.9134271817368
 21
28.12552364485303
 72
     1
 10
113.9134271817368
 20
28.12552364485303
 11
116.849141467451
 21
28.12552364485303
 97
        0
 75
     0
 76
     1
 52
0.0
 41
1.0
 77
     0
 78
     1
 53
45.0
 43
0.0
 44
0.0
 45
-2.245064030267288
 46
2.245064030267288
 79
     0
 98
        1
 10
0.0
 20
0.0
  0
HATCH
  5
26C
330
1F
100
AcDbEntity
  8
DIM
  6
Continuous
370
    18
100
AcDbHatch
 10
0.0
 20
0.0
 30
0.0
210
0.0
220
0.0
230
1.0
  2
ANSI31
 70
     0
 71
     0
 91
        1
 92
        0
 93
        9
 72
     1
 10
133.9134271817368
 20
28.12552364485303
 11
133.9134271817368
 21
28.62552364485302
 72
     2
 10
133.9134271817368
 20
30.12552364485303
 40
1.500000000000002
 50
90.0
 51
270.0000000000008
 73
     0
 72
     1
 10
133.9134271817368
 20
31.62552364485303
 11
134.4134271817368
 21
31.62552364485302
 72
     1
 10
134.4134271817368
 20
31.62552364485302
 11
134.4134271817368
 21
32.62552364485302
 72
     1
 10
134.4134271817368
 20
32.62552364485302
 11
134.0634271817368
 21
32.62552364485302
 72
     1
 10
134.0634271817368
 20
32.62552364485302
 11
134.0634271817368
 21
34.62552364485303
 72
     1
 10
134.0634271817368
 20
34.62552364485303
 11
131.8134271817368
 21
34.62552364485303
 72
     1
 10
131.8134271817368
 20
34.62552364485303
 11
130.9777128960225
 21
28.12552364485303
 72
     1
 10
130.9777128960225
 20
28.12552364485303
 11
133.9134271817368
 21
28.12552364485303
 97
        0
 75
     0
 76
     1
 52
0.0
 41
1.0
 77
     0
 78
     1
 53
45.0
 43
0.0
 44
0.0
 45
-2.245064030267288
 46
2.245064030267288
 79
     0
 98
        1
 10
0.0
 20
0.0
  0
HATCH
  5
26D
330
1F
100
AcDbEntity
  8
DIM
  6
Continuous
370
    18
100
AcDbHatch
 10
0.0
 20
0.0
 30
0.0
210
0.0
220
0.0
230
1.0
  2
ANSI31
 70
     0
 71
     0
 91
        1
 92
        0
 93
       16
 72
     1
 10
155.1292013870674
 20
61.27891730609706
 11
155.1292013870674
 21
61.07891730609706
 72
     1
 10
155.1292013870674
 20
61.07891730609706
 11
154.6976529764061
 21
61.07891730609706
 72
     1
 10
154.6976529764061
 20
61.07891730609706
 11
154.6976529764061
 21
61.27891730609706
 72
     1
 10
154.6976529764061
 20
61.27891730609706
 11
153.7634271817368
 21
61.27891730609706
 72
     2
 10
153.7634271817368
 20
60.97891730609706
 40
0.3
 50
90.0
 51
180.0
 73
     1
 72
     2
 10
153.7634271817368
 20
60.97891730609706
 40
0.3
 50
180.0
 51
270.0000000000008
 73
     1
 72
     1
 10
153.7634271817368
 20
60.67891730609706
 11
153.9634271817368
 21
60.67891730609706
 72
     1
 10
153.9634271817368
 20
60.67891730609706
 11
153.9634271817368
 21
55.87891730609707
 72
     1
 10
153.9634271817368
 20
55.87891730609707
 11
154.1634271817368
 21
55.67891730609706
 72
     1
 10
154.1634271817368
 20
55.67891730609706
 11
155.6634271817368
 21
55.67891730609706
 72
     1
 10
155.6634271817368
 20
55.67891730609706
 11
155.8634271817368
 21
55.87891730609707
 72
     1
 10
155.8634271817368
 20
55.87891730609707
 11
155.8634271817368
 21
60.67891730609706
 72
     1
 10
155.8634271817368
 20
60.67891730609706
 11
156.0634271817368
 21
60.67891730609706
 72
     2
 10
156.0634271817368
 20
60.97891730609706
 40
0.3
 50
270.0000000000008
 51
360.0000000000008
 73
     1
 72
     2
 10
156.0634271817368
 20
60.97891730609706
 40
0.3
 50
0.0
 51
90.0
 73
     1
 72
     1
 10
156.0634271817368
 20
61.27891730609706
 11
155.1292013870674
 21
61.27891730609706
 97
        0
 75
     0
 76
     1
 52
0.0
 41
1.0
 77
     0
 78
     1
 53
45.0
 43
0.0
 44
0.0
 45
-2.245064030267288
 46
2.245064030267288
 79
     0
 98
        1
 10
0.0
 20
0.0
  0
HATCH
  5
26E
330
1F
100
AcDbEntity
  8
DIM
  6
Continuous
370
    18
100
AcDbHatch
 10
0.0
 20
0.0
 30
0.0
210
0.0
220
0.0
230
1.0
  2
ANSI31
 70
     0
 71
     0
 91
        1
 92
        0
 93
       16
 72
     1
 10
93.12920138706768
 20
61.07891730609706
 11
92.69765297640636
 21
61.07891730609706
 72
     1
 10
92.69765297640636
 20
61.07891730609706
 11
92.69765297640615
 21
61.27891730609706
 72
     1
 10
92.69765297640615
 20
61.27891730609706
 11
91.76342718173677
 21
61.27891730609706
 72
     2
 10
91.76342718173677
 20
60.97891730609706
 40
0.3
 50
90.0
 51
180.0
 73
     1
 72
     2
 10
91.76342718173677
 20
60.97891730609706
 40
0.3
 50
180.0
 51
270.0000000000008
 73
     1
 72
     1
 10
91.76342718173677
 20
60.67891730609706
 11
91.96342718173678
 21
60.67891730609706
 72
     1
 10
91.96342718173678
 20
60.67891730609706
 11
91.96342718173678
 21
55.87891730609707
 72
     1
 10
91.96342718173678
 20
55.87891730609707
 11
92.16342718173678
 21
55.67891730609706
 72
     1
 10
92.16342718173678
 20
55.67891730609706
 11
93.66342718173678
 21
55.67891730609706
 72
     1
 10
93.66342718173678
 20
55.67891730609706
 11
93.86342718173678
 21
55.87891730609707
 72
     1
 10
93.86342718173678
 20
55.87891730609707
 11
93.86342718173678
 21
60.67891730609706
 72
     1
 10
93.86342718173678
 20
60.67891730609706
 11
94.06342718173677
 21
60.67891730609706
 72
     2
 10
94.06342718173677
 20
60.97891730609706
 40
0.3
 50
270.0000000000008
 51
360.0000000000008
 73
     1
 72
     2
 10
94.06342718173677
 20
60.97891730609706
 40
0.3
 50
0.0
 51
90.0
 73
     1
 72
     1
 10
94.06342718173677
 20
61.27891730609706
 11
93.12920138706745
 21
61.27891730609706
 72
     1
 10
93.12920138706745
 20
61.27891730609706
 11
93.12920138706768
 21
61.07891730609706
 97
        0
 75
     0
 76
     1
 52
0.0
 41
1.0
 77
     0
 78
     1
 53
45.0
 43
0.0
 44
0.0
 45
-2.245064030267288
 46
2.245064030267288
 79
     0
 98
        1
 10
0.0
 20
0.0
  0
DIMENSION
  5
26F
330
1F
100
AcDbEntity
  8
DIM
100
AcDbDimension
  2
_D
 10
141.450385314
 20
71.0077449258
 30
0.0
 11
140.4266800682
 21
90.2358290387
 31
0.0
 70
   162
  1
<>
 71
     1
 42
-1.0
  3
SLDDIMSTYLE0
100
AcDb2LineAngularDimension
 13
123.9134271817
 23
91.8323109673
 33
0.0
 14
123.9134271817
 24
25.035547382
 34
0.0
 15
151.8133549709
 25
77.9976562192
 35
0.0
 16
140.4266800682
 26
90.2358290387
 36
0.0
  0
DIMENSION
  5
27A
330
1F
100
AcDbEntity
  8
DIM
100
AcDbDimension
  2
_D_1
 10
133.9134271817
 20
106.8323109673
 30
0.0
 11
123.9134271817
 21
106.8323109673
 31
0.0
 70
   160
  1
%%c<>
 71
     2
 42
-1.0
  3
SLDDIMSTYLE1
100
AcDbAlignedDimension
 13
113.9134271817
 23
89.8323109673
 33
0.0
 14
133.9134271817
 24
89.8323109673
 34
0.0
 50
0.0
100
AcDbRotatedDimension
  0
DIMENSION
  5
286
330
1F
100
AcDbEntity
  8
DIM
100
AcDbDimension
  2
_D_2
 10
130.977712896
 20
100.0921869052
 30
0.0
 11
123.9134271817
 21
100.0921869052
 31
0.0
 70
   160
  1
%%c<>
 71
     2
 42
-1.0
  3
SLDDIMSTYLE1
100
AcDbAlignedDimension
 13
116.8491414675
 23
89.8323109673
 33
0.0
 14
130.977712896
 24
89.8323109673
 34
0.0
 50
0.0
100
AcDbRotatedDimension
  0
DIMENSION
  5
291
330
1F
100
AcDbEntity
  8
DIM
100
AcDbDimension
  2
_D_3
 10
169.2051327116
 20
77.6663789433
 30
0.0
 11
163.6132036769
 21
85.9567546688
 31
0.0
 70
   160
  1
%%c<>
 71
     2
 42
-1.0
  3
SLDDIMSTYLE1
100
AcDbAlignedDimension
 13
143.7343132185
 23
84.6104532343
 33
0.0
 14
154.9181712879
 24
68.0297017832
 34
0.0
 50
-56.0
100
AcDbRotatedDimension
  0
DIMENSION
  5
29C
330
1F
100
AcDbEntity
  8
DIM
100
AcDbDimension
  2
_D_4
 10
161.7041349607
 20
76.1480033386
 30
0.0
 11
157.7538365211
 21
82.004561619
 31
0.0
 70
   160
  1
%%c<>
 71
     2
 42
-1.0
  3
SLDDIMSTYLE1
100
AcDbAlignedDimension
 13
145.3759438137
 23
82.1766357892
 33
0.0
 14
153.2765406927
 24
70.4635192284
 34
0.0
 50
-56.0
100
AcDbRotatedDimension
  0
DIMENSION
  5
2A7
330
1F
100
AcDbEntity
  8
DIM
100
AcDbDimension
  2
_D_5
 10
133.9134271817
 20
16.1255236449
 30
0.0
 11
123.9134271817
 21
16.1255236449
 31
0.0
 70
   160
  1
%%c<>
 71
     2
 42
-1.0
  3
SLDDIMSTYLE1
100
AcDbAlignedDimension
 13
113.9134271817
 23
28.1255236449
 33
0.0
 14
133.9134271817
 24
28.1255236449
 34
0.0
100
AcDbRotatedDimension
  0
DIMENSION
  5
2B2
330
1F
100
AcDbEntity
  8
DIM
100
AcDbDimension
  2
_D_6
 10
130.977712896
 20
21.1255236449
 30
0.0
 11
123.9134271817
 21
21.1255236449
 31
0.0
 70
   160
  1
%%c<>
 71
     2
 42
-1.0
  3
SLDDIMSTYLE1
100
AcDbAlignedDimension
 13
116.8491414675
 23
28.1255236449
 33
0.0
 14
130.977712896
 24
28.1255236449
 34
0.0
100
AcDbRotatedDimension
  0
DIMENSION
  5
2BD
330
1F
100
AcDbEntity
  8
DIM
100
AcDbDimension
  2
_D_7
 10
158.4134271817
 20
11.1255236449
 30
0.0
 11
123.9134271817
 21
11.1255236449
 31
0.0
 70
   160
  1
%%c<>
 71
     2
 42
-1.0
  3
SLDDIMSTYLE1
100
AcDbAlignedDimension
 13
89.4134271817
 23
55.1789173061
 33
0.0
 14
158.4134271817
 24
55.1789173061
 34
0.0
100
AcDbRotatedDimension
  0
DIMENSION
  5
2C8
330
1F
100
AcDbEntity
  8
DIM
100
AcDbDimension
  2
_D_8
 10
101.2434230537
 20
71.909624782
 30
0.0
 11
88.3177638288
 21
78.6851567399
 31
0.0
 70
   163
  1
<>
 71
     1
 42
-1.0
  3
SLDDIMSTYLE2
100
AcDbDiametricDimension
 15
146.5834313097
 25
46.4482098302
 35
0.0
 40
0.0
  0
DIMENSION
  5
2D4
330
1F
100
AcDbEntity
  8
DIM
100
AcDbDimension
  2
_D_9
 10
141.9764155136
 20
37.7843279779
 30
0.0
 11
91.4833113386
 21
94.4611130754
 31
0.0
 70
   163
  1
<>
 71
     1
 42
-1.0
  3
SLDDIMSTYLE3
100
AcDbDiametricDimension
 15
105.8504388499
 25
80.5735066343
 35
0.0
 40
0.0
  0
INSERT
  5
2E7
330
1F
100
AcDbEntity
  8
DIM
100
AcDbBlockReference
  2
SW_NOTE_0_2
 10
164.4831649832
 20
41.3816779284
 30
0.0
  0
LEADER
  5
2E9
330
1F
100
AcDbEntity
  8
DIM
100
AcDbLeader
  3
SLDDIMSTYLE4
 76
     2
 10
142.9296771276
 20
58.7789173061
 30
0.0
 10
164.4831649832
 20
41.3816779284
 30
0.0
  0
LINE
  5
2EA
330
1F
100
AcDbEntity
  8
DIM
  6
CENTERX2
370
    18
100
AcDbLine
 10
123.9134271817
 20
25.035547382
 30
0.0
 11
123.9134271817
 21
91.8323109673
 31
0.0
  0
LINE
  5
2EB
330
1F
100
AcDbEntity
  8
DIM
  6
CENTERX2
370
    18
100
AcDbLine
 10
141.450385314
 20
71.0077449258
 30
0.0
 11
151.8133549709
 21
77.9976562192
 31
0.0
  0
SPLINE
  5
2EC
330
1F
100
AcDbEntity
  8
0
  6
Continuous
 62
     7
370
    35
100
AcDbSpline
210
0.0
220
0.0
230
1.0
 70
     8
 71
     3
 72
    17
 73
    13
 74
     0
 42
0.00000001
 43
0.00000001
 40
0.0
 40
0.0
 40
0.0
 40
0.0
 40
0.0663712222792307
 40
0.1609805938841481
 40
0.2596115693275314
 40
0.3671982962900585
 40
0.4777353960537934
 40
0.5883994043140027
 40
0.7003796193725856
 40
0.8154093925191682
 40
0.9133206545503934
 40
1.0
 40
1.0
 40
1.0
 40
1.0
 10
258.3546373663591
 20
140.3700295951757
 30
0.0
 10
258.3450730238885
 20
140.4446088295663
 30
0.0
 10
258.3218751155458
 20
140.6254976098437
 30
0.0
 10
258.1528433995754
 20
140.8800489777641
 30
0.0
 10
257.8634778883992
 20
141.1031522614078
 30
0.0
 10
257.4691762759875
 20
141.2595213292856
 30
0.0
 10
257.0013578476876
 20
141.3288888547761
 30
0.0
 10
256.5167079355302
 20
141.2982917831096
 30
0.0
 10
256.0673846035195
 20
141.1669879114725
 30
0.0
 10
255.7248386742436
 20
140.9495730718082
 30
0.0
 10
255.5008085106378
 20
140.6720631971369
 30
0.0
 10
255.4726257038347
 20
140.463833961924
 30
0.0
 10
255.4593917301241
 20
140.366054480844
 30
0.0
  0
SPLINE
  5
2ED
330
1F
100
AcDbEntity
  8
0
  6
Continuous
 62
     7
370
    35
100
AcDbSpline
210
0.0
220
0.0
230
1.0
 70
     8
 71
     3
 72
    18
 73
    14
 74
     0
 42
0.00000001
 43
0.00000001
 40
0.0
 40
0.0
 40
0.0
 40
0.0
 40
0.0059154991342706
 40
0.1016360376937683
 40
0.1941443356850631
 40
0.2933153500079838
 40
0.4002581955391301
 40
0.5084877225920515
 40
0.6170707820961171
 40
0.7273349271881654
 40
0.8411268091561771
 40
0.9344927515562946
 40
1.0
 40
1.0
 40
1.0
 40
1.0
 10
255.4593917301241
 20
140.366054480844
 30
0.0
 10
255.4578226852222
 20
140.3594364620712
 30
0.0
 10
255.4308644348399
 20
140.2457302151112
 30
0.0
 10
255.5214183471253
 20
140.0180790458002
 30
0.0
 10
255.7241176568008
 20
139.7519889943016
 30
0.0
 10
256.0484308910902
 20
139.5456797449717
 30
0.0
 10
256.4667027107986
 20
139.4117715294905
 30
0.0
 10
256.9459416429611
 20
139.3698783705653
 30
0.0
 10
257.425089109352
 20
139.4290105676639
 30
0.0
 10
257.8557387497881
 20
139.5884075510857
 30
0.0
 10
258.1680478651631
 20
139.8304307789883
 30
0.0
 10
258.3363320960801
 20
140.1110039695872
 30
0.0
 10
258.3492931933474
 20
140.2944077804463
 30
0.0
 10
258.3546373663591
 20
140.3700295951757
 30
0.0
  0
SPLINE
  5
2EE
330
1F
100
AcDbEntity
  8
0
  6
Continuous
 62
     7
370
    35
100
AcDbSpline
210
0.0
220
0.0
230
1.0
 70
     8
 71
     3
 72
    10
 73
     6
 74
     0
 42
0.00000001
 43
0.00000001
 40
0.0
 40
0.0
 40
0.0
 40
0.0
 40
0.3380774131933726
 40
0.687095709759349
 40
1.0
 40
1.0
 40
1.0
 40
1.0
 10
267.4290608897924
 20
152.9949224916468
 30
0.0
 10
267.4184313630428
 20
153.0983935954243
 30
0.0
 10
267.3968283161034
 20
153.3086843416119
 30
0.0
 10
267.2025316779599
 20
153.565548655799
 30
0.0
 10
267.0176810139066
 20
153.6865275833616
 30
0.0
 10
266.9302983395743
 20
153.7437167867785
 30
0.0
  0
SPLINE
  5
2EF
330
1F
100
AcDbEntity
  8
0
  6
Continuous
 62
     7
370
    35
100
AcDbSpline
210
0.0
220
0.0
230
1.0
 70
     8
 71
     3
 72
    15
 73
    11
 74
     0
 42
0.00000001
 43
0.00000001
 40
0.0
 40
0.0
 40
0.0
 40
0.0
 40
0.0806154383582352
 40
0.2292710482392874
 40
0.3777074393402252
 40
0.5271879251359642
 40
0.6796340343696347
 40
0.8167957728913575
 40
0.9432019135715638
 40
1.0
 40
1.0
 40
1.0
 40
1.0
 10
266.9302983395743
 20
153.7437167867785
 30
0.0
 10
266.8612875258405
 20
153.778049716226
 30
0.0
 10
266.6650201367792
 20
153.8756928833894
 30
0.0
 10
266.2773975484016
 20
153.965885822956
 30
0.0
 10
265.7923305895019
 20
153.9775587890116
 30
0.0
 10
265.3237625064866
 20
153.8868382281784
 30
0.0
 10
264.9334901286552
 20
153.7049548707208
 30
0.0
 10
264.6707968861871
 20
153.4525324912077
 30
0.0
 10
264.5322703308605
 20
153.2007858599231
 30
0.0
 10
264.5501867992237
 20
153.0470463393945
 30
0.0
 10
264.5557413714879
 20
152.9993830801332
 30
0.0
  0
SPLINE
  5
2F0
330
1F
100
AcDbEntity
  8
0
  6
Continuous
 62
     7
370
    35
100
AcDbSpline
210
0.0
220
0.0
230
1.0
 70
     8
 71
     3
 72
    18
 73
    14
 74
     0
 42
0.00000001
 43
0.00000001
 40
0.0
 40
0.0
 40
0.0
 40
0.0
 40
0.0594175141098011
 40
0.1538241614646048
 40
0.2509429678375763
 40
0.3571135050345641
 40
0.466967753080576
 40
0.5769099828906947
 40
0.6880235666271122
 40
0.8019375375382722
 40
0.900346325422991
 40
0.9927321182099802
 40
1.0
 40
1.0
 40
1.0
 40
1.0
 10
264.5557413714879
 20
152.9993830801332
 30
0.0
 10
264.553915805441
 20
152.9314266716937
 30
0.0
 10
264.5491896540602
 20
152.7554964312426
 30
0.0
 10
264.7145947638438
 20
152.502424586101
 30
0.0
 10
264.9890523516667
 20
152.2724818683652
 30
0.0
 10
265.3741952728603
 20
152.1081862788601
 30
0.0
 10
265.836156336586
 20
152.0285958652575
 30
0.0
 10
266.3224994124462
 20
152.0483957050638
 30
0.0
 10
266.7757456589376
 20
152.168966015994
 30
0.0
 10
267.1375357338287
 20
152.3774550405683
 30
0.0
 10
267.355579052474
 20
152.6512803603866
 30
0.0
 10
267.4540952284347
 20
152.8764566692919
 30
0.0
 10
267.4307625729713
 20
152.9868699003613
 30
0.0
 10
267.4290608897924
 20
152.9949224916468
 30
0.0
  0
SPLINE
  5
2F1
330
1F
100
AcDbEntity
  8
0
  6
Continuous
 62
     7
370
    35
100
AcDbSpline
210
0.0
220
0.0
230
1.0
 70
     8
 71
     3
 72
    18
 73
    14
 74
     0
 42
0.00000001
 43
0.00000001
 40
0.0
 40
0.0
 40
0.0
 40
0.0
 40
0.0060778749685239
 40
0.1020873458990844
 40
0.19436206290395
 40
0.2928467548089
 40
0.3993386944288223
 40
0.5073787870203931
 40
0.615715557714552
 40
0.7256515908823974
 40
0.8390155064209592
 40
0.9326455341682283
 40
1.0
 40
1.0
 40
1.0
 40
1.0
 10
236.4293128079621
 20
135.0733709102508
 30
0.0
 10
236.4311139636898
 20
135.0801401363725
 30
0.0
 10
236.461367170401
 20
135.1938397982
 30
0.0
 10
236.3766976038441
 20
135.4245507746512
 30
0.0
 10
236.1796702680357
 20
135.6939826484206
 30
0.0
 10
235.8610654394123
 20
135.9037418187048
 30
0.0
 10
235.447488706075
 20
136.0420332683225
 30
0.0
 10
234.9699434275278
 20
136.0892777829816
 30
0.0
 10
234.4896360969404
 20
136.0355947675228
 30
0.0
 10
234.0544836398777
 20
135.8816446006196
 30
0.0
 10
233.7386034348187
 20
135.6442022866408
 30
0.0
 10
233.5540475346929
 20
135.3663856385659
 30
0.0
 10
233.5499377646337
 20
135.1791547507489
 30
0.0
 10
233.548218273763
 20
135.1008190293652
 30
0.0
  0
SPLINE
  5
2F2
330
1F
100
AcDbEntity
  8
0
  6
Continuous
 62
     7
370
    35
100
AcDbSpline
210
0.0
220
0.0
230
1.0
 70
     8
 71
     3
 72
    15
 73
    11
 74
     0
 42
0.00000001
 43
0.00000001
 40
0.0
 40
0.0
 40
0.0
 40
0.0
 40
0.0315054629389099
 40
0.1594608489985524
 40
0.2862417026380735
 40
0.4241363689183879
 40
0.5707265610717936
 40
0.7178030036081657
 40
0.8657830754665766
 40
1.0
 40
1.0
 40
1.0
 40
1.0
 10
233.548218273763
 20
135.1008190293652
 30
0.0
 10
233.5444538271132
 20
135.0743437922292
 30
0.0
 10
233.5254005645111
 20
134.9403427842353
 30
0.0
 10
233.6408697559866
 20
134.7061222201606
 30
0.0
 10
233.8728238464926
 20
134.4543979758923
 30
0.0
 10
234.2216454947929
 20
134.2641553988023
 30
0.0
 10
234.6602919692853
 20
134.1505505267293
 30
0.0
 10
235.1436364795677
 20
134.1343810884441
 30
0.0
 10
235.6029742670482
 20
134.210442470687
 30
0.0
 10
235.8483507068142
 20
134.3318015288875
 30
0.0
 10
235.9650552483913
 20
134.389521631384
 30
0.0
  0
SPLINE
  5
2F3
330
1F
100
AcDbEntity
  8
0
  6
Continuous
 62
     7
370
    35
100
AcDbSpline
210
0.0
220
0.0
230
1.0
 70
     8
 71
     3
 72
    10
 73
     6
 74
     0
 42
0.00000001
 43
0.00000001
 40
0.0
 40
0.0
 40
0.0
 40
0.0
 40
0.2490035293945241
 40
0.6488393208784248
 40
1.0
 40
1.0
 40
1.0
 40
1.0
 10
235.9650552483913
 20
134.389521631384
 30
0.0
 10
236.0276388169698
 20
134.4316223717024
 30
0.0
 10
236.1907155421605
 20
134.5413261008948
 30
0.0
 10
236.3789164312752
 20
134.768647456625
 30
0.0
 10
236.4132559091188
 20
134.9762823100036
 30
0.0
 10
236.4293128079621
 20
135.0733709102508
 30
0.0
  0
SPLINE
  5
2F4
330
1F
100
AcDbEntity
  8
0
  6
Continuous
 62
     7
370
    35
100
AcDbSpline
210
0.0
220
0.0
230
1.0
 70
     8
 71
     3
 72
    17
 73
    13
 74
     0
 42
0.00000001
 43
0.00000001
 40
0.0
 40
0.0
 40
0.0
 40
0.0
 40
0.0759259410805823
 40
0.1694742955599497
 40
0.2676353378307464
 40
0.3745317111997306
 40
0.4839900023520563
 40
0.593605510307743
 40
0.7045979393841584
 40
0.8187255844943208
 40
0.9151385932617412
 40
1.0
 40
1.0
 40
1.0
 40
1.0
 10
214.4994739702458
 20
140.3511647701481
 30
0.0
 10
214.4953787792828
 20
140.4383934653654
 30
0.0
 10
214.4862379034007
 20
140.6330966388022
 30
0.0
 10
214.2971437961827
 20
140.893748681143
 30
0.0
 10
214.0042824425902
 20
141.1137094112827
 30
0.0
 10
213.6041084122944
 20
141.2657802123078
 30
0.0
 10
213.1339551521343
 20
141.3298503443164
 30
0.0
 10
212.6500214083945
 20
141.2936659012898
 30
0.0
 10
212.204028850644
 20
141.1568561260002
 30
0.0
 10
211.8675303286383
 20
140.9347153078369
 30
0.0
 10
211.6515459939017
 20
140.6535987021815
 30
0.0
 10
211.6295076732106
 20
140.4463560534387
 30
0.0
 10
211.6191907021655
 20
140.3493379350274
 30
0.0
  0
SPLINE
  5
2F5
330
1F
100
AcDbEntity
  8
0
  6
Continuous
 62
     7
370
    35
100
AcDbSpline
210
0.0
220
0.0
230
1.0
 70
     8
 71
     3
 72
    13
 73
     9
 74
     0
 42
0.00000001
 43
0.00000001
 40
0.0
 40
0.0
 40
0.0
 40
0.0
 40
0.0136052446700763
 40
0.2042501437343862
 40
0.3895827835410181
 40
0.5890982580154254
 40
0.8035868347004128
 40
1.0
 40
1.0
 40
1.0
 40
1.0
 10
211.6191907021655
 20
140.3493379350274
 30
0.0
 10
211.6175903046364
 20
140.3416871514621
 30
0.0
 10
211.5935641710907
 20
140.2268289713435
 30
0.0
 10
211.690008646163
 20
140.0012947296133
 30
0.0
 10
211.8989522678112
 20
139.738317972431
 30
0.0
 10
212.2291536600965
 20
139.5369874929663
 30
0.0
 10
212.639042654491
 20
139.4067969463664
 30
0.0
 10
212.9417554932047
 20
139.3930278808163
 30
0.0
 10
213.086453801227
 20
139.3864461960202
 30
0.0
  0
SPLINE
  5
2F6
330
1F
100
AcDbEntity
  8
0
  6
Continuous
 62
     7
370
    35
100
AcDbSpline
210
0.0
220
0.0
230
1.0
 70
     8
 71
     3
 72
    13
 73
     9
 74
     0
 42
0.00000001
 43
0.00000001
 40
0.0
 40
0.0
 40
0.0
 40
0.0
 40
0.1169608340899208
 40
0.3389802834728022
 40
0.5668326220930818
 40
0.7670798523748097
 40
0.9534117912809961
 40
1.0
 40
1.0
 40
1.0
 40
1.0
 10
213.086453801227
 20
139.3864461960202
 30
0.0
 10
213.1705882768875
 20
139.3900541799859
 30
0.0
 10
213.4144299751033
 20
139.4005109746637
 30
0.0
 10
213.8031842084746
 20
139.4954215061477
 30
0.0
 10
214.176213105861
 20
139.6916611795247
 30
0.0
 10
214.4138151322919
 20
139.9570118082482
 30
0.0
 10
214.5271882653671
 20
140.1953777991389
 30
0.0
 10
214.5040933647516
 20
140.3251983338812
 30
0.0
 10
214.4994739702458
 20
140.3511647701481
 30
0.0
  0
SPLINE
  5
2F7
330
1F
100
AcDbEntity
  8
0
  6
Continuous
 62
     7
370
    35
100
AcDbSpline
210
0.0
220
0.0
230
1.0
 70
     8
 71
     3
 72
    18
 73
    14
 74
     0
 42
0.00000001
 43
0.00000001
 40
0.0
 40
0.0
 40
0.0
 40
0.0
 40
0.0594175141098026
 40
0.1538241614646063
 40
0.2509429678375776
 40
0.3571135050345656
 40
0.4669677530805773
 40
0.5769099828906964
 40
0.6880235666271135
 40
0.8019375375382741
 40
0.9003463254229923
 40
0.9927321182099815
 40
1.0
 40
1.0
 40
1.0
 40
1.0
 10
205.4134873442561
 20
153.0097084573428
 30
0.0
 10
205.4153129103029
 20
153.0776648657822
 30
0.0
 10
205.4200390616838
 20
153.2535951062334
 30
0.0
 10
205.2546339519002
 20
153.5066669513749
 30
0.0
 10
204.9801763640773
 20
153.7366096691108
 30
0.0
 10
204.5950334428836
 20
153.9009052586158
 30
0.0
 10
204.1330723791579
 20
153.9804956722184
 30
0.0
 10
203.6467293032977
 20
153.9606958324121
 30
0.0
 10
203.1934830568064
 20
153.8401255214819
 30
0.0
 10
202.8316929819153
 20
153.6316364969076
 30
0.0
 10
202.61364966327
 20
153.3578111770893
 30
0.0
 10
202.5151334873093
 20
153.1326348681841
 30
0.0
 10
202.5384661427726
 20
153.0222216371146
 30
0.0
 10
202.5401678259516
 20
153.0141690458291
 30
0.0
  0
SPLINE
  5
2F8
330
1F
100
AcDbEntity
  8
0
  6
Continuous
 62
     7
370
    35
100
AcDbSpline
210
0.0
220
0.0
230
1.0
 70
     8
 71
     3
 72
    10
 73
     6
 74
     0
 42
0.00000001
 43
0.00000001
 40
0.0
 40
0.0
 40
0.0
 40
0.0
 40
0.338077413193373
 40
0.6870957097593502
 40
1.0
 40
1.0
 40
1.0
 40
1.0
 10
202.5401678259517
 20
153.0141690458291
 30
0.0
 10
202.5507973527012
 20
152.9106979420516
 30
0.0
 10
202.5724003996406
 20
152.700407195864
 30
0.0
 10
202.7666970377841
 20
152.443542881677
 30
0.0
 10
202.9515477018374
 20
152.3225639541143
 30
0.0
 10
203.0389303761696
 20
152.2653747506975
 30
0.0
  0
SPLINE
  5
2F9
330
1F
100
AcDbEntity
  8
0
  6
Continuous
 62
     7
370
    35
100
AcDbSpline
210
0.0
220
0.0
230
1.0
 70
     8
 71
     3
 72
    15
 73
    11
 74
     0
 42
0.00000001
 43
0.00000001
 40
0.0
 40
0.0
 40
0.0
 40
0.0
 40
0.0806154383582343
 40
0.2292710482392878
 40
0.3777074393402263
 40
0.5271879251359661
 40
0.6796340343696357
 40
0.816795772891359
 40
0.9432019135715661
 40
1.0
 40
1.0
 40
1.0
 40
1.0
 10
203.0389303761696
 20
152.2653747506975
 30
0.0
 10
203.1079411899035
 20
152.2310418212499
 30
0.0
 10
203.3042085789648
 20
152.1333986540865
 30
0.0
 10
203.6918311673424
 20
152.0432057145199
 30
0.0
 10
204.1768981262421
 20
152.0315327484643
 30
0.0
 10
204.6454662092574
 20
152.1222533092975
 30
0.0
 10
205.0357385870888
 20
152.3041366667552
 30
0.0
 10
205.2984318295568
 20
152.5565590462682
 30
0.0
 10
205.4369583848835
 20
152.8083056775529
 30
0.0
 10
205.4190419165203
 20
152.9620451980815
 30
0.0
 10
205.4134873442561
 20
153.0097084573428
 30
0.0
  0
LINE
  5
2FA
330
1F
100
AcDbEntity
  8
0
  6
Continuous
 62
     7
370
    35
100
AcDbLine
 10
267.9846143579
 20
151.2081559826
 30
0.0
 11
267.9846143579
 21
151.5347723073
 31
0.0
  0
LINE
  5
2FB
330
1F
100
AcDbEntity
  8
0
  6
Continuous
 62
     7
370
    35
100
AcDbLine
 10
201.9846143579
 20
151.5347723073
 30
0.0
 11
201.9846143579
 21
151.2081559826
 31
0.0
  0
LINE
  5
2FC
330
1F
100
AcDbEntity
  8
0
  6
Continuous
 62
     7
370
    35
100
AcDbLine
 10
244.9846143579
 20
176.1562488486
 30
0.0
 11
244.9846143579
 21
176.5645192545
 31
0.0
  0
LINE
  5
2FD
330
1F
100
AcDbEntity
  8
0
  6
Continuous
 62
     7
370
    35
100
AcDbLine
 10
224.9846143579
 20
176.5645192545
 30
0.0
 11
224.9846143579
 21
176.1562488486
 31
0.0
  0
LINE
  5
2FE
330
1F
100
AcDbEntity
  8
0
  6
Continuous
 62
     7
370
    35
100
AcDbLine
 10
245.4846143579
 20
172.8900856011
 30
0.0
 11
245.4846143579
 21
173.7066264129
 31
0.0
  0
LINE
  5
2FF
330
1F
100
AcDbEntity
  8
0
  6
Continuous
 62
     7
370
    35
100
AcDbLine
 10
224.4846143579
 20
173.7066264129
 30
0.0
 11
224.4846143579
 21
172.8900856011
 31
0.0
  0
LINE
  5
300
330
1F
100
AcDbEntity
  8
0
  6
Continuous
 62
     7
370
    35
100
AcDbLine
 10
254.6374119819
 20
145.2957610709
 30
0.0
 11
254.9305210266
 21
145.3548547347
 31
0.0
  0
LINE
  5
301
330
1F
100
AcDbEntity
  8
0
  6
Continuous
 62
     7
370
    35
100
AcDbLine
 10
250.9778554213
 20
164.9603752484
 30
0.0
 11
250.6847463766
 21
164.9012815845
 31
0.0
  0
LINE
  5
302
330
1F
100
AcDbEntity
  8
0
  6
Continuous
 62
     7
370
    35
100
AcDbLine
 10
252.3913562644
 20
144.3328737469
 30
0.0
 11
252.9775743538
 21
144.4510610747
 31
0.0
  0
LINE
  5
303
330
1F
100
AcDbEntity
  8
0
  6
Continuous
 62
     7
370
    35
100
AcDbLine
 10
248.8272754682
 20
165.036857614
 30
0.0
 11
248.2410573788
 21
164.9186702862
 31
0.0
  0
LINE
  5
304
330
1F
100
AcDbEntity
  8
0
  6
Continuous
 62
     7
370
    35
100
AcDbLine
 10
269.4846143579
 20
148.2686090598
 30
0.0
 11
269.4846143579
 21
152.7595835252
 31
0.0
  0
LINE
  5
305
330
1F
100
AcDbEntity
  8
0
  6
Continuous
 62
     7
370
    35
100
AcDbLine
 10
200.4846143579
 20
152.7595835252
 30
0.0
 11
200.4846143579
 21
148.2686090598
 31
0.0
  0
LINE
  5
306
330
1F
100
AcDbEntity
  8
0
  6
Continuous
 62
     7
370
    35
100
AcDbLine
 10
201.9846143579
 20
151.2081559826
 30
0.0
 11
201.9846143579
 21
150.4101927508
 31
0.0
  0
LINE
  5
307
330
1F
100
AcDbEntity
  8
0
  6
Continuous
 62
     7
370
    35
100
AcDbLine
 10
267.9846143579
 20
150.4101927508
 30
0.0
 11
267.9846143579
 21
151.2081559826
 31
0.0
  0
ARC
  5
308
330
1F
100
AcDbEntity
  8
0
  6
Continuous
 62
     7
370
    35
100
AcDbCircle
 10
234.9846143579
 20
151.2081559826
 30
0.0
 40
28.00000000000001
100
AcDbArc
 50
222.4104324944
 51
317.5895675056
  0
ARC
  5
309
330
1F
100
AcDbEntity
  8
0
  6
Continuous
 62
     7
370
    35
100
AcDbCircle
 10
234.9846143579
 20
151.5347723073
 30
0.0
 40
28.00000000000005
100
AcDbArc
 50
3.761750767
 51
69.5586711337
  0
ARC
  5
30A
330
1F
100
AcDbEntity
  8
0
  6
Continuous
 62
     7
370
    35
100
AcDbCircle
 10
234.9846143579
 20
151.5347723073
 30
0.0
 40
27.99999999999999
100
AcDbArc
 50
110.4413288663
 51
176.238249233
  0
LINE
  5
30B
330
1F
100
AcDbEntity
  8
0
  6
Continuous
 62
     7
370
    35
100
AcDbLine
 10
267.9846143579
 20
151.5347723073
 30
0.0
 11
267.9846143579
 21
152.7595835252
 31
0.0
  0
LINE
  5
30C
330
1F
100
AcDbEntity
  8
0
  6
Continuous
 62
     7
370
    35
100
AcDbLine
 10
201.9846143579
 20
152.7595835252
 30
0.0
 11
201.9846143579
 21
151.5347723073
 31
0.0
  0
LWPOLYLINE
  5
30D
330
1F
100
AcDbEntity
  8
0
  6
Continuous
 62
     7
370
    35
100
AcDbPolyline
 90
       17
 70
   128
 43
0.0
 10
258.0547634434
 20
140.6062952687
 10
257.9598703817
 20
140.8594699555
 10
257.704371384
 20
141.0724092393
 10
257.3271638566
 20
141.2126950444
 10
256.8856742261
 20
141.2589701289
 10
256.4471152867
 20
141.2041895304
 10
256.0782536613
 20
141.0566930986
 10
255.8352451887
 20
140.8389358281
 10
255.7550857059
 20
140.5840692894
 10
255.8499787676
 20
140.3308946026
 10
256.1054777653
 20
140.1179553188
 10
256.4826852927
 20
139.9776695137
 10
256.9241749232
 20
139.9313944292
 10
257.3627338626
 20
139.9861750277
 10
257.731595488
 20
140.1336714595
 10
257.9746039606
 20
140.35142873
 10
258.0547634434
 20
140.6062952687
  0
LINE
  5
30E
330
1F
100
AcDbEntity
  8
0
  6
Continuous
 62
     7
370
    35
100
AcDbLine
 10
256.7574565068
 20
140.5071517348
 30
0.0
 11
255.9575685981
 21
140.4994209594
 31
0.0
  0
LINE
  5
30F
330
1F
100
AcDbEntity
  8
0
  6
Continuous
 62
     7
370
    35
100
AcDbLine
 10
256.7708480536
 20
140.045386274
 30
0.0
 11
256.7574565068
 21
140.5071517348
 31
0.0
  0
LINE
  5
310
330
1F
100
AcDbEntity
  8
0
  6
Continuous
 62
     7
370
    35
100
AcDbLine
 10
257.0708060194
 20
140.0482853148
 30
0.0
 11
256.7708480536
 21
140.045386274
 31
0.0
  0
LINE
  5
311
330
1F
100
AcDbEntity
  8
0
  6
Continuous
 62
     7
370
    35
100
AcDbLine
 10
257.0708060194
 20
140.0482853148
 30
0.0
 11
257.0574144726
 21
140.5100507756
 31
0.0
  0
LINE
  5
312
330
1F
100
AcDbEntity
  8
0
  6
Continuous
 62
     7
370
    35
100
AcDbLine
 10
257.8573023813
 20
140.517781551
 30
0.0
 11
257.0574144726
 21
140.5100507756
 31
0.0
  0
LINE
  5
313
330
1F
100
AcDbEntity
  8
0
  6
Continuous
 62
     7
370
    35
100
AcDbLine
 10
257.8573023813
 20
140.517781551
 30
0.0
 11
257.8522805512
 21
140.6909435987
 31
0.0
  0
LINE
  5
314
330
1F
100
AcDbEntity
  8
0
  6
Continuous
 62
     7
370
    35
100
AcDbLine
 10
257.8522805512
 20
140.6909435987
 30
0.0
 11
257.0523926425
 21
140.6832128233
 31
0.0
  0
LINE
  5
315
330
1F
100
AcDbEntity
  8
0
  6
Continuous
 62
     7
370
    35
100
AcDbLine
 10
257.0523926425
 20
140.6832128233
 30
0.0
 11
257.0390010957
 21
141.1449782841
 31
0.0
  0
LINE
  5
316
330
1F
100
AcDbEntity
  8
0
  6
Continuous
 62
     7
370
    35
100
AcDbLine
 10
257.0390010957
 20
141.1449782841
 30
0.0
 11
256.73904313
 21
141.1420792433
 31
0.0
  0
LINE
  5
317
330
1F
100
AcDbEntity
  8
0
  6
Continuous
 62
     7
370
    35
100
AcDbLine
 10
256.7524346768
 20
140.6803137826
 30
0.0
 11
256.73904313
 21
141.1420792433
 31
0.0
  0
LINE
  5
318
330
1F
100
AcDbEntity
  8
0
  6
Continuous
 62
     7
370
    35
100
AcDbLine
 10
256.7524346768
 20
140.6803137826
 30
0.0
 11
255.9525467681
 21
140.6725830071
 31
0.0
  0
LINE
  5
319
330
1F
100
AcDbEntity
  8
0
  6
Continuous
 62
     7
370
    35
100
AcDbLine
 10
255.9575685981
 20
140.4994209594
 30
0.0
 11
255.9525467681
 21
140.6725830071
 31
0.0
  0
LINE
  5
31A
330
1F
100
AcDbEntity
  8
0
  6
Continuous
 62
     7
370
    35
100
AcDbLine
 10
257.0660712865
 20
140.0482395545
 30
0.0
 11
257.0574144726
 21
140.3467426132
 31
0.0
  0
LINE
  5
31B
330
1F
100
AcDbEntity
  8
0
  6
Continuous
 62
     7
370
    35
100
AcDbLine
 10
257.0574144726
 20
140.5100507756
 30
0.0
 11
257.0574144726
 21
140.3467426132
 31
0.0
  0
LINE
  5
31C
330
1F
100
AcDbEntity
  8
0
  6
Continuous
 62
     7
370
    35
100
AcDbLine
 10
257.0390010957
 20
140.9816701217
 30
0.0
 11
256.7437778628
 21
140.9788168413
 31
0.0
  0
LINE
  5
31D
330
1F
100
AcDbEntity
  8
0
  6
Continuous
 62
     7
370
    35
100
AcDbLine
 10
257.0523926425
 20
140.519904661
 30
0.0
 11
257.0390010957
 21
140.9816701217
 31
0.0
  0
LINE
  5
31E
330
1F
100
AcDbEntity
  8
0
  6
Continuous
 62
     7
370
    35
100
AcDbLine
 10
257.8522805512
 20
140.5276354364
 30
0.0
 11
257.0523926425
 21
140.519904661
 31
0.0
  0
LINE
  5
31F
330
1F
100
AcDbEntity
  8
0
  6
Continuous
 62
     7
370
    35
100
AcDbLine
 10
257.8525676484
 20
140.5177357906
 30
0.0
 11
257.8522805512
 21
140.5276354364
 31
0.0
  0
LINE
  5
320
330
1F
100
AcDbEntity
  8
0
  6
Continuous
 62
     7
370
    35
100
AcDbLine
 10
256.7524346768
 20
140.5170056202
 30
0.0
 11
255.9572815009
 21
140.5093206051
 31
0.0
  0
LINE
  5
321
330
1F
100
AcDbEntity
  8
0
  6
Continuous
 62
     7
370
    35
100
AcDbLine
 10
257.8522805512
 20
140.5276354364
 30
0.0
 11
257.8522805512
 21
140.6909435987
 31
0.0
  0
LINE
  5
322
330
1F
100
AcDbEntity
  8
0
  6
Continuous
 62
     7
370
    35
100
AcDbLine
 10
256.7524346768
 20
140.6803137826
 30
0.0
 11
256.7524346768
 21
140.5170056202
 31
0.0
  0
LINE
  5
323
330
1F
100
AcDbEntity
  8
0
  6
Continuous
 62
     7
370
    35
100
AcDbLine
 10
257.0523926425
 20
140.6832128233
 30
0.0
 11
257.0523926425
 21
140.519904661
 31
0.0
  0
LINE
  5
324
330
1F
100
AcDbEntity
  8
0
  6
Continuous
 62
     7
370
    35
100
AcDbLine
 10
257.0390010957
 20
140.9816701217
 30
0.0
 11
257.0390010957
 21
141.1449782841
 31
0.0
  0
LWPOLYLINE
  5
325
330
1F
100
AcDbEntity
  8
0
  6
Continuous
 62
     7
370
    35
100
AcDbPolyline
 90
       17
 70
   128
 43
0.0
 10
266.7840611673
 20
153.7267349725
 10
266.4068536398
 20
153.8670207777
 10
265.9653640094
 20
153.9132958621
 10
265.5268050699
 20
153.8585152636
 10
265.1579434445
 20
153.7110188318
 10
264.9149349719
 20
153.4932615613
 10
264.8347754891
 20
153.2383950227
 10
264.9296685508
 20
152.9852203359
 10
265.1851675485
 20
152.7722810521
 10
265.5623750759
 20
152.6319952469
 10
266.0038647064
 20
152.5857201625
 10
266.4424236458
 20
152.640500761
 10
266.8112852712
 20
152.7879971928
 10
267.0542937438
 20
153.0057544633
 10
267.1344532266
 20
153.260621002
 10
267.039560165
 20
153.5137956887
 10
266.7840611673
 20
153.7267349725
  0
LINE
  5
326
330
1F
100
AcDbEntity
  8
0
  6
Continuous
 62
     7
370
    35
100
AcDbLine
 10
265.988165328
 20
153.1270639541
 30
0.0
 11
265.4320284171
 21
152.7950799818
 31
0.0
  0
LINE
  5
327
330
1F
100
AcDbEntity
  8
0
  6
Continuous
 62
     7
370
    35
100
AcDbLine
 10
266.5632407459
 20
152.8060129492
 30
0.0
 11
265.988165328
 21
153.1270639541
 31
0.0
  0
LINE
  5
328
330
1F
100
AcDbEntity
  8
0
  6
Continuous
 62
     7
370
    35
100
AcDbLine
 10
266.7717920875
 20
152.9305069388
 30
0.0
 11
266.5632407459
 21
152.8060129492
 31
0.0
  0
LINE
  5
329
330
1F
100
AcDbEntity
  8
0
  6
Continuous
 62
     7
370
    35
100
AcDbLine
 10
266.7717920875
 20
152.9305069388
 30
0.0
 11
266.1967166695
 21
153.2515579437
 31
0.0
  0
LINE
  5
32A
330
1F
100
AcDbEntity
  8
0
  6
Continuous
 62
     7
370
    35
100
AcDbLine
 10
266.7528535804
 20
153.583541916
 30
0.0
 11
266.1967166695
 21
153.2515579437
 31
0.0
  0
LINE
  5
32B
330
1F
100
AcDbEntity
  8
0
  6
Continuous
 62
     7
370
    35
100
AcDbLine
 10
266.7528535804
 20
153.583541916
 30
0.0
 11
266.5372002987
 21
153.7039360428
 31
0.0
  0
LINE
  5
32C
330
1F
100
AcDbEntity
  8
0
  6
Continuous
 62
     7
370
    35
100
AcDbLine
 10
266.5372002987
 20
153.7039360428
 30
0.0
 11
265.9810633878
 21
153.3719520705
 31
0.0
  0
LINE
  5
32D
330
1F
100
AcDbEntity
  8
0
  6
Continuous
 62
     7
370
    35
100
AcDbLine
 10
265.9810633878
 20
153.3719520705
 30
0.0
 11
265.4059879698
 21
153.6930030754
 31
0.0
  0
LINE
  5
32E
330
1F
100
AcDbEntity
  8
0
  6
Continuous
 62
     7
370
    35
100
AcDbLine
 10
265.4059879698
 20
153.6930030754
 30
0.0
 11
265.1974366282
 21
153.5685090858
 31
0.0
  0
LINE
  5
32F
330
1F
100
AcDbEntity
  8
0
  6
Continuous
 62
     7
370
    35
100
AcDbLine
 10
265.7725120462
 20
153.2474580809
 30
0.0
 11
265.1974366282
 21
153.5685090858
 31
0.0
  0
LINE
  5
330
330
1F
100
AcDbEntity
  8
0
  6
Continuous
 62
     7
370
    35
100
AcDbLine
 10
265.7725120462
 20
153.2474580809
 30
0.0
 11
265.2163751353
 21
152.9154741086
 31
0.0
  0
LINE
  5
331
330
1F
100
AcDbEntity
  8
0
  6
Continuous
 62
     7
370
    35
100
AcDbLine
 10
265.4320284171
 20
152.7950799818
 30
0.0
 11
265.2163751353
 21
152.9154741086
 31
0.0
  0
LINE
  5
332
330
1F
100
AcDbEntity
  8
0
  6
Continuous
 62
     7
370
    35
100
AcDbLine
 10
265.4059879698
 20
153.529694913
 30
0.0
 11
265.3388017034
 21
153.4895883077
 31
0.0
  0
LINE
  5
333
330
1F
100
AcDbEntity
  8
0
  6
Continuous
 62
     7
370
    35
100
AcDbLine
 10
265.9810633878
 20
153.2086439082
 30
0.0
 11
265.4059879698
 21
153.529694913
 31
0.0
  0
LINE
  5
334
330
1F
100
AcDbEntity
  8
0
  6
Continuous
 62
     7
370
    35
100
AcDbLine
 10
266.5372002987
 20
153.5406278805
 30
0.0
 11
265.9810633878
 21
153.2086439082
 31
0.0
  0
LINE
  5
335
330
1F
100
AcDbEntity
  8
0
  6
Continuous
 62
     7
370
    35
100
AcDbLine
 10
266.6114885052
 20
153.4991545317
 30
0.0
 11
266.5372002987
 21
153.5406278805
 31
0.0
  0
LINE
  5
336
330
1F
100
AcDbEntity
  8
0
  6
Continuous
 62
     7
370
    35
100
AcDbLine
 10
266.6304270123
 20
152.8461195545
 30
0.0
 11
266.1967166695
 21
153.0882497813
 31
0.0
  0
LINE
  5
337
330
1F
100
AcDbEntity
  8
0
  6
Continuous
 62
     7
370
    35
100
AcDbLine
 10
265.7725120462
 20
153.0841499185
 30
0.0
 11
265.3577402105
 21
152.8365533305
 31
0.0
  0
LINE
  5
338
330
1F
100
AcDbEntity
  8
0
  6
Continuous
 62
     7
370
    35
100
AcDbLine
 10
265.7725120462
 20
153.2474580809
 30
0.0
 11
265.7725120462
 21
153.0841499185
 31
0.0
  0
LINE
  5
339
330
1F
100
AcDbEntity
  8
0
  6
Continuous
 62
     7
370
    35
100
AcDbLine
 10
266.1967166695
 20
153.2515579437
 30
0.0
 11
266.1967166695
 21
153.0882497813
 31
0.0
  0
LINE
  5
33A
330
1F
100
AcDbEntity
  8
0
  6
Continuous
 62
     7
370
    35
100
AcDbLine
 10
265.9810633878
 20
153.3719520705
 30
0.0
 11
265.9810633878
 21
153.2086439082
 31
0.0
  0
LINE
  5
33B
330
1F
100
AcDbEntity
  8
0
  6
Continuous
 62
     7
370
    35
100
AcDbLine
 10
265.4059879698
 20
153.529694913
 30
0.0
 11
265.4059879698
 21
153.6930030754
 31
0.0
  0
LINE
  5
33C
330
1F
100
AcDbEntity
  8
0
  6
Continuous
 62
     7
370
    35
100
AcDbLine
 10
266.5372002987
 20
153.5406278805
 30
0.0
 11
266.5372002987
 21
153.7039360428
 31
0.0
  0
LWPOLYLINE
  5
33D
330
1F
100
AcDbEntity
  8
0
  6
Continuous
 62
     7
370
    35
100
AcDbPolyline
 90
       17
 70
   128
 43
0.0
 10
235.8112852712
 20
134.8920781181
 10
236.0542937438
 20
135.1098353886
 10
236.1344532266
 20
135.3647019273
 10
236.0395601649
 20
135.6178766141
 10
235.7840611673
 20
135.8308158979
 10
235.4068536398
 20
135.971101703
 10
234.9653640094
 20
136.0173767875
 10
234.5268050699
 20
135.962596189
 10
234.1579434445
 20
135.8150997572
 10
233.9149349719
 20
135.5973424867
 10
233.8347754891
 20
135.342475948
 10
233.9296685508
 20
135.0893012612
 10
234.1851675485
 20
134.8763619774
 10
234.5623750759
 20
134.7360761723
 10
235.0038647064
 20
134.6898010878
 10
235.4424236458
 20
134.7445816863
 10
235.8112852712
 20
134.8920781181
  0
LINE
  5
33E
330
1F
100
AcDbEntity
  8
0
  6
Continuous
 62
     7
370
    35
100
AcDbLine
 10
234.7725120462
 20
135.3515390063
 30
0.0
 11
234.1974366282
 21
135.6725900111
 31
0.0
  0
LINE
  5
33F
330
1F
100
AcDbEntity
  8
0
  6
Continuous
 62
     7
370
    35
100
AcDbLine
 10
234.2163751353
 20
135.0195550339
 30
0.0
 11
234.7725120462
 21
135.3515390063
 31
0.0
  0
LINE
  5
340
330
1F
100
AcDbEntity
  8
0
  6
Continuous
 62
     7
370
    35
100
AcDbLine
 10
234.4320284171
 20
134.8991609071
 30
0.0
 11
234.2163751353
 21
135.0195550339
 31
0.0
  0
LINE
  5
341
330
1F
100
AcDbEntity
  8
0
  6
Continuous
 62
     7
370
    35
100
AcDbLine
 10
234.4320284171
 20
134.8991609071
 30
0.0
 11
234.988165328
 21
135.2311448794
 31
0.0
  0
LINE
  5
342
330
1F
100
AcDbEntity
  8
0
  6
Continuous
 62
     7
370
    35
100
AcDbLine
 10
235.5632407459
 20
134.9100938745
 30
0.0
 11
234.988165328
 21
135.2311448794
 31
0.0
  0
LINE
  5
343
330
1F
100
AcDbEntity
  8
0
  6
Continuous
 62
     7
370
    35
100
AcDbLine
 10
235.5632407459
 20
134.9100938745
 30
0.0
 11
235.7717920875
 21
135.0345878642
 31
0.0
  0
LINE
  5
344
330
1F
100
AcDbEntity
  8
0
  6
Continuous
 62
     7
370
    35
100
AcDbLine
 10
235.7717920875
 20
135.0345878642
 30
0.0
 11
235.1967166695
 21
135.355638869
 31
0.0
  0
LINE
  5
345
330
1F
100
AcDbEntity
  8
0
  6
Continuous
 62
     7
370
    35
100
AcDbLine
 10
235.1967166695
 20
135.355638869
 30
0.0
 11
235.7528535804
 21
135.6876228414
 31
0.0
  0
LINE
  5
346
330
1F
100
AcDbEntity
  8
0
  6
Continuous
 62
     7
370
    35
100
AcDbLine
 10
235.7528535804
 20
135.6876228414
 30
0.0
 11
235.5372002987
 21
135.8080169682
 31
0.0
  0
LINE
  5
347
330
1F
100
AcDbEntity
  8
0
  6
Continuous
 62
     7
370
    35
100
AcDbLine
 10
234.9810633878
 20
135.4760329959
 30
0.0
 11
235.5372002987
 21
135.8080169682
 31
0.0
  0
LINE
  5
348
330
1F
100
AcDbEntity
  8
0
  6
Continuous
 62
     7
370
    35
100
AcDbLine
 10
234.9810633878
 20
135.4760329959
 30
0.0
 11
234.4059879698
 21
135.7970840008
 31
0.0
  0
LINE
  5
349
330
1F
100
AcDbEntity
  8
0
  6
Continuous
 62
     7
370
    35
100
AcDbLine
 10
234.1974366282
 20
135.6725900111
 30
0.0
 11
234.4059879698
 21
135.7970840008
 31
0.0
  0
LINE
  5
34A
330
1F
100
AcDbEntity
  8
0
  6
Continuous
 62
     7
370
    35
100
AcDbLine
 10
234.9810633878
 20
135.3127248335
 30
0.0
 11
235.5372002987
 21
135.6447088058
 31
0.0
  0
LINE
  5
34B
330
1F
100
AcDbEntity
  8
0
  6
Continuous
 62
     7
370
    35
100
AcDbLine
 10
235.6114885052
 20
135.6032354571
 30
0.0
 11
235.5372002987
 21
135.6447088058
 31
0.0
  0
LINE
  5
34C
330
1F
100
AcDbEntity
  8
0
  6
Continuous
 62
     7
370
    35
100
AcDbLine
 10
235.6304270123
 20
134.9502004799
 30
0.0
 11
235.1967166695
 21
135.1923307067
 31
0.0
  0
LINE
  5
34D
330
1F
100
AcDbEntity
  8
0
  6
Continuous
 62
     7
370
    35
100
AcDbLine
 10
234.3577402105
 20
134.9406342558
 30
0.0
 11
234.7725120462
 21
135.1882308439
 31
0.0
  0
LINE
  5
34E
330
1F
100
AcDbEntity
  8
0
  6
Continuous
 62
     7
370
    35
100
AcDbLine
 10
234.3388017034
 20
135.5936692331
 30
0.0
 11
234.4059879698
 21
135.6337758384
 31
0.0
  0
LINE
  5
34F
330
1F
100
AcDbEntity
  8
0
  6
Continuous
 62
     7
370
    35
100
AcDbLine
 10
234.9810633878
 20
135.3127248335
 30
0.0
 11
234.4059879698
 21
135.6337758384
 31
0.0
  0
LINE
  5
350
330
1F
100
AcDbEntity
  8
0
  6
Continuous
 62
     7
370
    35
100
AcDbLine
 10
234.7725120462
 20
135.3515390063
 30
0.0
 11
234.7725120462
 21
135.1882308439
 31
0.0
  0
LINE
  5
351
330
1F
100
AcDbEntity
  8
0
  6
Continuous
 62
     7
370
    35
100
AcDbLine
 10
235.1967166695
 20
135.355638869
 30
0.0
 11
235.1967166695
 21
135.1923307067
 31
0.0
  0
LINE
  5
352
330
1F
100
AcDbEntity
  8
0
  6
Continuous
 62
     7
370
    35
100
AcDbLine
 10
235.5372002987
 20
135.6447088058
 30
0.0
 11
235.5372002987
 21
135.8080169682
 31
0.0
  0
LINE
  5
353
330
1F
100
AcDbEntity
  8
0
  6
Continuous
 62
     7
370
    35
100
AcDbLine
 10
234.9810633878
 20
135.4760329959
 30
0.0
 11
234.9810633878
 21
135.3127248335
 31
0.0
  0
LINE
  5
354
330
1F
100
AcDbEntity
  8
0
  6
Continuous
 62
     7
370
    35
100
AcDbLine
 10
234.4059879698
 20
135.6337758384
 30
0.0
 11
234.4059879698
 21
135.7970840008
 31
0.0
  0
LWPOLYLINE
  5
355
330
1F
100
AcDbEntity
  8
0
  6
Continuous
 62
     7
370
    35
100
AcDbPolyline
 90
       17
 70
   128
 43
0.0
 10
213.0835544896
 20
139.9313944292
 10
213.522113429
 20
139.9861750277
 10
213.8909750544
 20
140.1336714595
 10
214.1339835271
 20
140.35142873
 10
214.2141430098
 20
140.6062952687
 10
214.1192499482
 20
140.8594699555
 10
213.8637509505
 20
141.0724092393
 10
213.4865434231
 20
141.2126950444
 10
213.0450537926
 20
141.2589701289
 10
212.6064948531
 20
141.2041895304
 10
212.2376332278
 20
141.0566930986
 10
211.9946247551
 20
140.8389358281
 10
211.9144652723
 20
140.5840692894
 10
212.009358334
 20
140.3308946026
 10
212.2648573317
 20
140.1179553188
 10
212.6420648591
 20
139.9776695137
 10
213.0835544896
 20
139.9313944292
  0
LINE
  5
356
330
1F
100
AcDbEntity
  8
0
  6
Continuous
 62
     7
370
    35
100
AcDbLine
 10
212.9118142432
 20
140.6803137826
 30
0.0
 11
212.8984226964
 21
141.1420792433
 31
0.0
  0
LINE
  5
357
330
1F
100
AcDbEntity
  8
0
  6
Continuous
 62
     7
370
    35
100
AcDbLine
 10
212.1119263345
 20
140.6725830071
 30
0.0
 11
212.9118142432
 21
140.6803137826
 31
0.0
  0
LINE
  5
358
330
1F
100
AcDbEntity
  8
0
  6
Continuous
 62
     7
370
    35
100
AcDbLine
 10
212.1169481645
 20
140.4994209594
 30
0.0
 11
212.1119263345
 21
140.6725830071
 31
0.0
  0
LINE
  5
359
330
1F
100
AcDbEntity
  8
0
  6
Continuous
 62
     7
370
    35
100
AcDbLine
 10
212.1169481645
 20
140.4994209594
 30
0.0
 11
212.9168360732
 21
140.5071517348
 31
0.0
  0
LINE
  5
35A
330
1F
100
AcDbEntity
  8
0
  6
Continuous
 62
     7
370
    35
100
AcDbLine
 10
212.93022762
 20
140.045386274
 30
0.0
 11
212.9168360732
 21
140.5071517348
 31
0.0
  0
LINE
  5
35B
330
1F
100
AcDbEntity
  8
0
  6
Continuous
 62
     7
370
    35
100
AcDbLine
 10
212.93022762
 20
140.045386274
 30
0.0
 11
213.2301855858
 21
140.0482853148
 31
0.0
  0
LINE
  5
35C
330
1F
100
AcDbEntity
  8
0
  6
Continuous
 62
     7
370
    35
100
AcDbLine
 10
213.2301855858
 20
140.0482853148
 30
0.0
 11
213.216794039
 21
140.5100507756
 31
0.0
  0
LINE
  5
35D
330
1F
100
AcDbEntity
  8
0
  6
Continuous
 62
     7
370
    35
100
AcDbLine
 10
213.216794039
 20
140.5100507756
 30
0.0
 11
214.0166819477
 21
140.517781551
 31
0.0
  0
LINE
  5
35E
330
1F
100
AcDbEntity
  8
0
  6
Continuous
 62
     7
370
    35
100
AcDbLine
 10
214.0166819477
 20
140.517781551
 30
0.0
 11
214.0116601176
 21
140.6909435987
 31
0.0
  0
LINE
  5
35F
330
1F
100
AcDbEntity
  8
0
  6
Continuous
 62
     7
370
    35
100
AcDbLine
 10
213.2117722089
 20
140.6832128233
 30
0.0
 11
214.0116601176
 21
140.6909435987
 31
0.0
  0
LINE
  5
360
330
1F
100
AcDbEntity
  8
0
  6
Continuous
 62
     7
370
    35
100
AcDbLine
 10
213.2117722089
 20
140.6832128233
 30
0.0
 11
213.1983806622
 21
141.1449782841
 31
0.0
  0
LINE
  5
361
330
1F
100
AcDbEntity
  8
0
  6
Continuous
 62
     7
370
    35
100
AcDbLine
 10
212.8984226964
 20
141.1420792433
 30
0.0
 11
213.1983806622
 21
141.1449782841
 31
0.0
  0
LINE
  5
362
330
1F
100
AcDbEntity
  8
0
  6
Continuous
 62
     7
370
    35
100
AcDbLine
 10
213.2254508529
 20
140.0482395545
 30
0.0
 11
213.216794039
 21
140.3467426132
 31
0.0
  0
LINE
  5
363
330
1F
100
AcDbEntity
  8
0
  6
Continuous
 62
     7
370
    35
100
AcDbLine
 10
213.216794039
 20
140.5100507756
 30
0.0
 11
213.216794039
 21
140.3467426132
 31
0.0
  0
LINE
  5
364
330
1F
100
AcDbEntity
  8
0
  6
Continuous
 62
     7
370
    35
100
AcDbLine
 10
213.2117722089
 20
140.519904661
 30
0.0
 11
214.0116601176
 21
140.5276354364
 31
0.0
  0
LINE
  5
365
330
1F
100
AcDbEntity
  8
0
  6
Continuous
 62
     7
370
    35
100
AcDbLine
 10
214.0119472148
 20
140.5177357906
 30
0.0
 11
214.0116601176
 21
140.5276354364
 31
0.0
  0
LINE
  5
366
330
1F
100
AcDbEntity
  8
0
  6
Continuous
 62
     7
370
    35
100
AcDbLine
 10
212.1166610673
 20
140.5093206051
 30
0.0
 11
212.9118142432
 21
140.5170056202
 31
0.0
  0
LINE
  5
367
330
1F
100
AcDbEntity
  8
0
  6
Continuous
 62
     7
370
    35
100
AcDbLine
 10
212.9031574292
 20
140.9788168413
 30
0.0
 11
213.1983806622
 21
140.9816701217
 31
0.0
  0
LINE
  5
368
330
1F
100
AcDbEntity
  8
0
  6
Continuous
 62
     7
370
    35
100
AcDbLine
 10
213.2117722089
 20
140.519904661
 30
0.0
 11
213.1983806622
 21
140.9816701217
 31
0.0
  0
LINE
  5
369
330
1F
100
AcDbEntity
  8
0
  6
Continuous
 62
     7
370
    35
100
AcDbLine
 10
214.0116601176
 20
140.5276354364
 30
0.0
 11
214.0116601176
 21
140.6909435987
 31
0.0
  0
LINE
  5
36A
330
1F
100
AcDbEntity
  8
0
  6
Continuous
 62
     7
370
    35
100
AcDbLine
 10
212.9118142432
 20
140.6803137826
 30
0.0
 11
212.9118142432
 21
140.5170056202
 31
0.0
  0
LINE
  5
36B
330
1F
100
AcDbEntity
  8
0
  6
Continuous
 62
     7
370
    35
100
AcDbLine
 10
213.2117722089
 20
140.6832128233
 30
0.0
 11
213.2117722089
 21
140.519904661
 31
0.0
  0
LINE
  5
36C
330
1F
100
AcDbEntity
  8
0
  6
Continuous
 62
     7
370
    35
100
AcDbLine
 10
213.1983806622
 20
140.9816701217
 30
0.0
 11
213.1983806622
 21
141.1449782841
 31
0.0
  0
LWPOLYLINE
  5
36D
330
1F
100
AcDbEntity
  8
0
  6
Continuous
 62
     7
370
    35
100
AcDbPolyline
 90
       17
 70
   128
 43
0.0
 10
203.1851675485
 20
152.7722810521
 10
203.5623750759
 20
152.6319952469
 10
204.0038647064
 20
152.5857201625
 10
204.4424236458
 20
152.640500761
 10
204.8112852712
 20
152.7879971928
 10
205.0542937438
 20
153.0057544633
 10
205.1344532266
 20
153.260621002
 10
205.039560165
 20
153.5137956887
 10
204.7840611673
 20
153.7267349725
 10
204.4068536398
 20
153.8670207777
 10
203.9653640094
 20
153.9132958621
 10
203.5268050699
 20
153.8585152636
 10
203.1579434445
 20
153.7110188318
 10
202.9149349719
 20
153.4932615613
 10
202.8347754891
 20
153.2383950227
 10
202.9296685508
 20
152.9852203359
 10
203.1851675485
 20
152.7722810521
  0
LINE
  5
36E
330
1F
100
AcDbEntity
  8
0
  6
Continuous
 62
     7
370
    35
100
AcDbLine
 10
203.9810633878
 20
153.3719520705
 30
0.0
 11
204.5372002987
 21
153.7039360428
 31
0.0
  0
LINE
  5
36F
330
1F
100
AcDbEntity
  8
0
  6
Continuous
 62
     7
370
    35
100
AcDbLine
 10
203.4059879698
 20
153.6930030754
 30
0.0
 11
203.9810633878
 21
153.3719520705
 31
0.0
  0
LINE
  5
370
330
1F
100
AcDbEntity
  8
0
  6
Continuous
 62
     7
370
    35
100
AcDbLine
 10
203.1974366282
 20
153.5685090858
 30
0.0
 11
203.4059879698
 21
153.6930030754
 31
0.0
  0
LINE
  5
371
330
1F
100
AcDbEntity
  8
0
  6
Continuous
 62
     7
370
    35
100
AcDbLine
 10
203.1974366282
 20
153.5685090858
 30
0.0
 11
203.7725120462
 21
153.2474580809
 31
0.0
  0
LINE
  5
372
330
1F
100
AcDbEntity
  8
0
  6
Continuous
 62
     7
370
    35
100
AcDbLine
 10
203.2163751353
 20
152.9154741086
 30
0.0
 11
203.7725120462
 21
153.2474580809
 31
0.0
  0
LINE
  5
373
330
1F
100
AcDbEntity
  8
0
  6
Continuous
 62
     7
370
    35
100
AcDbLine
 10
203.2163751353
 20
152.9154741086
 30
0.0
 11
203.4320284171
 21
152.7950799818
 31
0.0
  0
LINE
  5
374
330
1F
100
AcDbEntity
  8
0
  6
Continuous
 62
     7
370
    35
100
AcDbLine
 10
203.4320284171
 20
152.7950799818
 30
0.0
 11
203.988165328
 21
153.1270639541
 31
0.0
  0
LINE
  5
375
330
1F
100
AcDbEntity
  8
0
  6
Continuous
 62
     7
370
    35
100
AcDbLine
 10
203.988165328
 20
153.1270639541
 30
0.0
 11
204.5632407459
 21
152.8060129492
 31
0.0
  0
LINE
  5
376
330
1F
100
AcDbEntity
  8
0
  6
Continuous
 62
     7
370
    35
100
AcDbLine
 10
204.5632407459
 20
152.8060129492
 30
0.0
 11
204.7717920875
 21
152.9305069388
 31
0.0
  0
LINE
  5
377
330
1F
100
AcDbEntity
  8
0
  6
Continuous
 62
     7
370
    35
100
AcDbLine
 10
204.1967166695
 20
153.2515579437
 30
0.0
 11
204.7717920875
 21
152.9305069388
 31
0.0
  0
LINE
  5
378
330
1F
100
AcDbEntity
  8
0
  6
Continuous
 62
     7
370
    35
100
AcDbLine
 10
204.1967166695
 20
153.2515579437
 30
0.0
 11
204.7528535804
 21
153.583541916
 31
0.0
  0
LINE
  5
379
330
1F
100
AcDbEntity
  8
0
  6
Continuous
 62
     7
370
    35
100
AcDbLine
 10
204.5372002987
 20
153.7039360428
 30
0.0
 11
204.7528535804
 21
153.583541916
 31
0.0
  0
LINE
  5
37A
330
1F
100
AcDbEntity
  8
0
  6
Continuous
 62
     7
370
    35
100
AcDbLine
 10
204.1967166695
 20
153.0882497813
 30
0.0
 11
204.6304270123
 21
152.8461195545
 31
0.0
  0
LINE
  5
37B
330
1F
100
AcDbEntity
  8
0
  6
Continuous
 62
     7
370
    35
100
AcDbLine
 10
203.3577402105
 20
152.8365533305
 30
0.0
 11
203.7725120462
 21
153.0841499185
 31
0.0
  0
LINE
  5
37C
330
1F
100
AcDbEntity
  8
0
  6
Continuous
 62
     7
370
    35
100
AcDbLine
 10
203.3388017034
 20
153.4895883077
 30
0.0
 11
203.4059879698
 21
153.529694913
 31
0.0
  0
LINE
  5
37D
330
1F
100
AcDbEntity
  8
0
  6
Continuous
 62
     7
370
    35
100
AcDbLine
 10
203.4059879698
 20
153.529694913
 30
0.0
 11
203.9810633878
 21
153.2086439082
 31
0.0
  0
LINE
  5
37E
330
1F
100
AcDbEntity
  8
0
  6
Continuous
 62
     7
370
    35
100
AcDbLine
 10
203.9810633878
 20
153.2086439082
 30
0.0
 11
204.5372002987
 21
153.5406278805
 31
0.0
  0
LINE
  5
37F
330
1F
100
AcDbEntity
  8
0
  6
Continuous
 62
     7
370
    35
100
AcDbLine
 10
204.5372002987
 20
153.5406278805
 30
0.0
 11
204.6114885052
 21
153.4991545317
 31
0.0
  0
LINE
  5
380
330
1F
100
AcDbEntity
  8
0
  6
Continuous
 62
     7
370
    35
100
AcDbLine
 10
203.7725120462
 20
153.2474580809
 30
0.0
 11
203.7725120462
 21
153.0841499185
 31
0.0
  0
LINE
  5
381
330
1F
100
AcDbEntity
  8
0
  6
Continuous
 62
     7
370
    35
100
AcDbLine
 10
204.1967166695
 20
153.2515579437
 30
0.0
 11
204.1967166695
 21
153.0882497813
 31
0.0
  0
LINE
  5
382
330
1F
100
AcDbEntity
  8
0
  6
Continuous
 62
     7
370
    35
100
AcDbLine
 10
203.9810633878
 20
153.3719520705
 30
0.0
 11
203.9810633878
 21
153.2086439082
 31
0.0
  0
LINE
  5
383
330
1F
100
AcDbEntity
  8
0
  6
Continuous
 62
     7
370
    35
100
AcDbLine
 10
203.4059879698
 20
153.529694913
 30
0.0
 11
203.4059879698
 21
153.6930030754
 31
0.0
  0
LINE
  5
384
330
1F
100
AcDbEntity
  8
0
  6
Continuous
 62
     7
370
    35
100
AcDbLine
 10
204.5372002987
 20
153.5406278805
 30
0.0
 11
204.5372002987
 21
153.7039360428
 31
0.0
  0
LWPOLYLINE
  5
385
330
1F
100
AcDbEntity
  8
0
  6
Continuous
 62
     7
370
    35
100
AcDbPolyline
 90
        3
 70
   128
 43
0.0
 10
201.9846143579
 20
151.2081559826
 10
201.9901188179
 20
150.860216646
 10
202.030399761
 20
150.2049800349
  0
LINE
  5
386
330
1F
100
AcDbEntity
  8
0
  6
Continuous
 62
     7
370
    35
100
AcDbLine
 10
267.9388289548
 20
150.2049800349
 30
0.0
 11
267.9846143579
 21
151.2081559826
 31
0.0
  0
LWPOLYLINE
  5
387
330
1F
100
AcDbEntity
  8
0
  6
Continuous
 62
     7
370
    35
100
AcDbPolyline
 90
        3
 70
   128
 43
0.0
 10
201.9846143579
 20
151.5347723073
 10
201.9901188179
 20
151.1868329708
 10
202.1072507639
 20
149.8939176055
  0
LWPOLYLINE
  5
388
330
1F
100
AcDbEntity
  8
0
  6
Continuous
 62
     7
370
    35
100
AcDbPolyline
 90
        3
 70
   128
 43
0.0
 10
267.8619779519
 20
149.8939176055
 10
267.9350852349
 20
150.4914185542
 10
267.9846143579
 20
151.5347723073
  0
ARC
  5
389
330
1F
100
AcDbEntity
  8
0
  6
Continuous
 62
     7
370
    35
100
AcDbCircle
 10
247.8715299864
 20
138.4234507612
 30
0.0
 40
11.27434712435572
100
AcDbArc
 50
60.0929089896
 51
79.2073327812
  0
LWPOLYLINE
  5
38A
330
1F
100
AcDbEntity
  8
0
  6
Continuous
 62
     7
370
    35
100
AcDbPolyline
 90
       48
 70
   128
 43
0.0
 10
226.0547687257
 20
173.9662206278
 10
226.7343530263
 20
173.3022977067
 10
227.5611634359
 20
172.6965892064
 10
228.520445503
 20
172.1599040095
 10
229.5950808165
 20
171.701819276
 10
230.7658924837
 20
171.3305095388
 10
232.0119873426
 20
171.052600829
 10
233.3111288011
 20
170.873052434
 10
234.640133649
 20
170.7950683993
 10
235.9752857633
 20
170.8200403518
 10
237.2927593229
 20
170.9475226664
 10
238.569043981
 20
171.1752404182
 10
239.7813644074
 20
171.4991299785
 10
240.9080867157
 20
171.9134115304
 10
241.9291045193
 20
172.4106922098
 10
242.8261977315
 20
172.9820980313
 10
243.5833577027
 20
173.6174322444
 10
244.1870728951
 20
174.305357295
 10
244.6265699969
 20
175.0335971442
 10
244.894006172
 20
175.7891563348
 10
244.9846090153
 20
176.5585518951
 10
244.8967617171
 20
177.328053943
 10
244.6320319144
 20
178.0839306964
 10
244.1951437169
 20
178.8126935165
 10
243.5938934048
 20
179.5013376137
 10
242.8390103041
 20
180.1375741177
 10
241.9439653217
 20
180.710049373
 10
240.9247305565
 20
181.2085475452
 10
239.799494277
 20
181.6241729225
 10
238.5883363512
 20
181.9495086602
 10
237.3128699211
 20
182.1787491344
 10
235.9958557154
 20
182.3078035434
 10
234.6607958836
 20
182.3343689081
 10
233.3315146002
 20
182.2579711692
 10
232.0317329211
 20
182.0799736459
 10
230.7846454813
 20
181.8035527084
 10
229.6125065855
 20
181.4336410947
 10
228.5362330802
 20
180.9768398865
 10
227.5750310915
 20
180.4413007121
 10
226.7460532918
 20
179.8365802807
 10
226.0640928095
 20
179.1734698428
 10
225.5413192456
 20
178.4638026198
 10
225.1870615066
 20
177.7202426402
 10
225.0076413304
 20
176.9560587494
 10
225.0062604742
 20
176.184887827
 10
225.1829435794
 20
175.4204914364
 10
225.5345377319
 20
174.6765102494
 10
226.0547687257
 20
173.9662206278
  0
LWPOLYLINE
  5
38B
330
1F
100
AcDbEntity
  8
0
  6
Continuous
 62
     7
370
    35
100
AcDbPolyline
 90
       25
 70
   128
 43
0.0
 10
224.9846143579
 20
176.1562488486
 10
225.0724669987
 20
175.3927141601
 10
225.3371968013
 20
174.6368374068
 10
225.7740849988
 20
173.9080745866
 10
226.375335311
 20
173.2194304894
 10
227.1302184116
 20
172.5831939854
 10
228.025263394
 20
172.0107187301
 10
229.0444981593
 20
171.512220558
 10
230.1697344388
 20
171.0965951807
 10
231.3808923645
 20
170.771259443
 10
232.6563587946
 20
170.5420189688
 10
233.9733730004
 20
170.4129645598
 10
235.3084328321
 20
170.386399195
 10
236.6377141155
 20
170.462796934
 10
237.9374957946
 20
170.6407944572
 10
239.1845832345
 20
170.9172153948
 10
240.3567221303
 20
171.2871270084
 10
241.4329956356
 20
171.7439282167
 10
242.3941976242
 20
172.2794673911
 10
243.2231754239
 20
172.8841878225
 10
243.9051359062
 20
173.5472982604
 10
244.4279094702
 20
174.2569654834
 10
244.7821672092
 20
175.000525463
 10
244.9615873854
 20
175.7647093538
 10
244.9846143579
 20
176.1562488486
  0
LWPOLYLINE
  5
38C
330
1F
100
AcDbEntity
  8
0
  6
Continuous
 62
     7
370
    35
100
AcDbPolyline
 90
       40
 70
   128
 43
0.0
 10
228.6763162649
 20
174.7290068675
 10
228.2479721467
 20
175.3369465093
 10
227.9941035231
 20
175.9766796403
 10
227.9212854583
 20
176.6316375086
 10
228.0314039017
 20
177.2848570494
 10
228.3216068436
 20
177.9194202197
 10
228.7843781802
 20
178.5188921666
 10
229.407732377
 20
179.0677468818
 10
230.1755248877
 20
179.5517693162
 10
231.0678702896
 20
179.9584235432
 10
232.0616573054
 20
180.2771774319
 10
233.1311473736
 20
180.4997754239
 10
234.248641263
 20
180.6204523483
 10
235.3851964691
 20
180.636082736
 10
236.5113768088
 20
180.5462617682
 10
237.5980148031
 20
180.3533157608
 10
238.6169670986
 20
180.0622419141
 10
239.5418433661
 20
179.6805788878
 10
240.3486897961
 20
179.2182115537
 10
241.0166094898
 20
178.6871149831
 10
241.5283036781
 20
178.101044298
 10
241.8705197502
 20
177.4751784214
 10
242.0343944897
 20
176.8257269507
 10
242.0156836269
 20
176.1695103379
 10
241.8148717632
 20
175.5235242485
 10
241.4371598205
 20
174.904499383
 10
240.8923303397
 20
174.3284681602
 10
240.1944941181
 20
173.8103494862
 10
239.3617247474
 20
173.3635623625
 10
238.4155905167
 20
172.9996783409
 10
237.3805958058
 20
172.7281218265
 10
236.2835464339
 20
172.5559259902
 10
235.1528554036
 20
172.4875506139
 10
234.0178070185
 20
172.5247665839
 10
232.9077984357
 20
172.666610026
 10
231.8515782943
 20
172.9094072697
 10
230.8765021413
 20
173.2468699939
 10
230.0078239369
 20
173.6702580912
 10
229.2680419901
 20
174.1686060324
 10
228.6763162649
 20
174.7290068675
  0
LWPOLYLINE
  5
38D
330
1F
100
AcDbEntity
  8
0
  6
Continuous
 62
     7
370
    35
100
AcDbPolyline
 90
       31
 70
   128
 43
0.0
 10
244.9427672923
 20
175.6286728967
 10
245.2646185159
 20
174.9409310617
 10
245.4557510163
 20
174.1557611055
 10
245.4677194654
 20
173.3629063302
 10
245.3003190796
 20
172.5759327009
 10
244.9564141259
 20
171.8083055544
 10
244.4418889135
 20
171.0731592042
 10
243.7655471114
 20
170.383072208
 10
242.9389611154
 20
169.7498521457
 10
241.9762740409
 20
169.1843335882
 10
240.8939577309
 20
168.6961927147
 10
239.7105309173
 20
168.293781751
 10
238.4462423612
 20
167.9839860601
 10
237.1227243901
 20
167.7721063323
 10
235.7626227637
 20
167.6617678884
 10
234.3892091976
 20
167.6548586499
 10
233.025983179
 20
167.7514968356
 10
231.6962698829
 20
167.9500289395
 10
230.4228210724
 20
168.2470580222
 10
229.2274258098
 20
168.6375018337
 10
228.1305376395
 20
169.1146797722
 10
227.1509246221
 20
169.6704271908
 10
226.305348208
 20
170.2952350972
 10
225.6082764441
 20
170.9784128548
 10
225.0716364215
 20
171.7082711028
 10
224.7046101998
 20
172.4723217642
 10
224.5134776994
 20
173.2574917204
 10
224.5015092504
 20
174.0503464957
 10
224.6689096362
 20
174.837320125
 10
225.0128145898
 20
175.6049472715
 10
225.0264614234
 20
175.6286728967
  0
LWPOLYLINE
  5
38E
330
1F
100
AcDbEntity
  8
0
  6
Continuous
 62
     7
370
    35
100
AcDbPolyline
 90
       26
 70
   128
 43
0.0
 10
245.4846143579
 20
172.8900856011
 10
245.4677194654
 20
172.5463655184
 10
245.3003190796
 20
171.759391889
 10
244.9564141259
 20
170.9917647425
 10
244.4418889135
 20
170.2566183923
 10
243.7655471114
 20
169.5665313961
 10
242.9389611154
 20
168.9333113338
 10
241.9762740409
 20
168.3677927763
 10
240.8939577309
 20
167.8796519028
 10
239.7105309173
 20
167.4772409391
 10
238.4462423612
 20
167.1674452482
 10
237.1227243901
 20
166.9555655204
 10
235.7626227637
 20
166.8452270766
 10
234.3892091976
 20
166.838317838
 10
233.025983179
 20
166.9349560237
 10
231.6962698829
 20
167.1334881276
 10
230.4228210724
 20
167.4305172103
 10
229.2274258098
 20
167.8209610218
 10
228.1305376395
 20
168.2981389603
 10
227.1509246221
 20
168.8538863789
 10
226.305348208
 20
169.4786942853
 10
225.6082764441
 20
170.1618720429
 10
225.0716364215
 20
170.8917302909
 10
224.7046101998
 20
171.6557809523
 10
224.5134776994
 20
172.4409509085
 10
224.4846143579
 20
172.8900856011
  0
ARC
  5
38F
330
1F
100
AcDbEntity
  8
0
  6
Continuous
 62
     7
370
    35
100
AcDbCircle
 10
234.9846143579
 20
163.9556222502
 30
0.0
 40
11.90121211753282
100
AcDbArc
 50
60.3972719606
 51
119.6027280394
  0
ARC
  5
390
330
1F
100
AcDbEntity
  8
0
  6
Continuous
 62
     7
370
    35
100
AcDbCircle
 10
234.9846143579
 20
140.4037163693
 30
0.0
 40
17.43401506045214
100
AcDbArc
 50
254.6665744997
 51
285.3334255003
  0
LWPOLYLINE
  5
391
330
1F
100
AcDbEntity
  8
0
  6
Continuous
 62
     7
370
    35
100
AcDbPolyline
 90
       21
 70
   128
 43
0.0
 10
244.5430512262
 20
124.8901719292
 10
244.3430390733
 20
124.5522101781
 10
243.7898103981
 20
123.8502794989
 10
243.0794527909
 20
123.1971799415
 10
242.2246426001
 20
122.604566083
 10
241.2406339338
 20
122.0830131318
 10
240.1449864499
 20
121.6418282125
 10
238.9572520039
 20
121.2888842805
 10
237.6986257449
 20
121.0304796287
 10
236.3915678884
 20
120.8712254941
 10
235.0594029128
 20
120.8139637707
 10
233.7259033337
 20
120.8597162952
 10
232.4148654827
 20
121.0076666126
 10
231.1496848612
 20
121.2551745462
 10
229.9529386474
 20
121.5978233109
 10
228.8459828059
 20
122.0294983315
 10
227.8485709898
 20
122.5424963569
 10
226.9785020367
 20
123.1276629253
 10
226.2513023477
 20
123.7745557254
 10
225.6799488183
 20
124.4716309398
 10
225.4261774895
 20
124.8901719292
  0
LWPOLYLINE
  5
392
330
1F
100
AcDbEntity
  8
0
  6
Continuous
 62
     7
370
    35
100
AcDbPolyline
 90
       16
 70
   128
 43
0.0
 10
240.7055858155
 20
121.4435768111
 10
239.5613396099
 20
121.0456237079
 10
238.3354216337
 20
120.7392652804
 10
237.0497084223
 20
120.5299685022
 10
235.7271435584
 20
120.421468279
 10
234.3913282434
 20
120.4157008
 10
233.0661001331
 20
120.5127689861
 10
231.7751079546
 20
120.710940653
 10
230.5413894938
 20
121.0066794227
 10
229.3869604861
 20
121.3947078299
 10
228.3324217443
 20
121.8681014984
 10
227.3965915373
 20
122.418412707
 10
226.5961697773
 20
123.0358211392
 10
225.9454400095
 20
123.7093091269
 10
225.4560145222
 20
124.4268582609
 10
225.205669201
 20
124.9713072462
  0
ARC
  5
393
330
1F
100
AcDbEntity
  8
0
  6
Continuous
 62
     7
370
    35
100
AcDbCircle
 10
238.6834951235
 20
127.8674256698
 30
0.0
 40
6.734588697647756
100
AcDbArc
 50
287.4728907787
 51
334.5301284373
  0
LWPOLYLINE
  5
394
330
1F
100
AcDbEntity
  8
0
  6
Continuous
 62
     7
370
    35
100
AcDbPolyline
 90
       48
 70
   128
 43
0.0
 10
246.0948779436
 20
150.6173927024
 10
246.7306799244
 20
149.4808231765
 10
247.4775405582
 20
148.4455561351
 10
248.3221320993
 20
147.5300659429
 10
249.2493827917
 20
146.7506895443
 10
250.2427458249
 20
146.1213349294
 10
251.2844946119
 20
145.6532329463
 10
252.3560391209
 20
145.3547368859
 10
253.4382576149
 20
145.2311734176
 10
254.5118378791
 20
145.2847475344
 10
255.5576218483
 20
145.5145032048
 10
256.5569474828
 20
145.9163404334
 10
257.491981793
 20
146.4830884255
 10
258.3460390694
 20
147.2046335497
 10
259.1038786398
 20
148.0680998161
 10
259.751976839
 20
149.0580786488
 10
260.2787683393
 20
150.156903852
 10
260.674852534
 20
151.344966864
 10
260.9331612911
 20
152.6010666721
 10
261.0490850848
 20
153.9027881456
 10
261.0205552523
 20
155.2269020338
 10
260.8480809091
 20
156.5497794932
 10
260.5347398638
 20
157.847813744
 10
260.086123695
 20
159.0978413344
 10
259.5102379688
 20
160.2775554923
 10
258.8173593795
 20
161.3659041907
 10
258.0198523621
 20
162.3434658212
 10
257.1319484481
 20
163.1927957735
 10
256.1694923039
 20
163.8987377344
 10
255.1496589822
 20
164.4486941528
 10
254.0906474329
 20
164.8328510435
 10
253.0113557421
 20
165.0443531176
 10
251.9310438955
 20
165.0794261157
 10
250.8689900837
 20
164.9374441592
 10
249.8441466822
 20
164.6209409195
 10
248.8748020456
 20
164.1355644044
 10
247.978254152
 20
163.4899761694
 10
247.1705019198
 20
162.6956967518
 10
246.4659597067
 20
161.7669000865
 10
245.8772000853
 20
160.7201605722
 10
245.4147294848
 20
159.5741573002
 10
245.0868007041
 20
158.3493407261
 10
244.8992656401
 20
157.0675677306
 10
244.8554708605
 20
155.7517115833
 10
244.956197884
 20
154.4252537682
 10
245.1996492347
 20
153.1118649564
 10
245.5814805173
 20
151.8349826026
 10
246.0948779436
 20
150.6173927024
  0
LWPOLYLINE
  5
395
330
1F
100
AcDbEntity
  8
0
  6
Continuous
 62
     7
370
    35
100
AcDbPolyline
 90
       40
 70
   128
 43
0.0
 10
248.1085754616
 20
151.9502722459
 10
247.6828064895
 20
152.9925467928
 10
247.3935635354
 20
154.0908954688
 10
247.2483378398
 20
155.2168716202
 10
247.2508906721
 20
156.3413130559
 10
247.4011559151
 20
157.4350973336
 10
247.6952417781
 20
158.469896015
 10
248.1255315916
 20
159.4189083577
 10
248.6808810755
 20
160.2575554405
 10
249.3469069699
 20
160.9641167446
 10
250.106359554
 20
161.5202927034
 10
250.9395694047
 20
161.9116786515
 10
251.8249568246
 20
162.1281378986
 10
252.7395907446
 20
162.1640642639
 10
253.6597826266
 20
162.0185272733
 10
254.5616999842
 20
161.6952962585
 10
255.4219836316
 20
161.202742733
 10
256.2183526742
 20
160.5536235743
 10
256.9301815721
 20
159.7647506277
 10
257.5390343308
 20
158.8565552882
 10
258.0291419836
 20
157.8525593379
 10
258.3878109999
 20
156.7787657447
 10
258.6057520403
 20
155.6629851985
 10
258.6773205466
 20
154.5341158295
 10
258.6006629319
 20
153.4213947612
 10
258.3777645883
 20
152.3536408848
 10
258.0143984657
 20
151.358508465
 10
257.5199755558
 20
150.4617709087
 10
256.9073011523
 20
149.6866532474
 10
256.1922432005
 20
149.0532306216
 10
255.3933213256
 20
148.5779083445
 10
254.5312271847
 20
148.2729970134
 10
253.628288563
 20
148.1463936716
 10
252.7078910966
 20
148.2013772791
 10
251.7938725965
 20
148.4365237895
 10
250.9099056616
 20
148.8457430316
 10
250.0788845713
 20
149.4184364419
 10
249.3223323353
 20
150.1397715621
 10
248.659843259
 20
150.9910661913
 10
248.1085754616
 20
151.9502722459
  0
LWPOLYLINE
  5
396
330
1F
100
AcDbEntity
  8
0
  6
Continuous
 62
     7
370
    35
100
AcDbPolyline
 90
       25
 70
   128
 43
0.0
 10
250.6847463766
 20
164.9012815845
 10
250.0576455549
 20
164.7416331145
 10
249.0583199204
 20
164.3397958858
 10
248.1232856103
 20
163.7730478937
 10
247.2692283338
 20
163.0515027696
 10
246.5113887634
 20
162.1880365031
 10
245.8632905642
 20
161.1980576705
 10
245.3364990639
 20
160.0992324672
 10
244.9404148692
 20
158.9111694553
 10
244.6821061121
 20
157.6550696471
 10
244.5661823184
 20
156.3533481737
 10
244.5947121509
 20
155.0292342854
 10
244.7671864942
 20
153.7063568261
 10
245.0805275394
 20
152.4083225753
 10
245.5291437082
 20
151.1582949849
 10
246.1050294345
 20
149.978580827
 10
246.7979080237
 20
148.8902321286
 10
247.5954150412
 20
147.912670498
 10
248.4833189552
 20
147.0633405458
 10
249.4457750993
 20
146.3573985849
 10
250.465608421
 20
145.8074421665
 10
251.5246199703
 20
145.4232852758
 10
252.6039116612
 20
145.2117832016
 10
253.6842235077
 20
145.1767102036
 10
254.6374119819
 20
145.2957610709
  0
ARC
  5
397
330
1F
100
AcDbEntity
  8
0
  6
Continuous
 62
     7
370
    35
100
AcDbCircle
 10
246.8040889301
 20
153.9176945349
 30
0.0
 40
8.796781552843472
100
AcDbArc
 50
318.9685748366
 51
63.828612596
  0
LWPOLYLINE
  5
398
330
1F
100
AcDbEntity
  8
0
  6
Continuous
 62
     7
370
    35
100
AcDbPolyline
 90
       31
 70
   128
 43
0.0
 10
255.4422695661
 20
145.4800538649
 10
255.4289720665
 20
145.4712312277
 10
254.4501611933
 20
144.9283118786
 10
253.4106475688
 20
144.553340979
 10
252.3282175591
 20
144.3527343851
 10
251.2213918419
 20
144.3299245311
 10
250.1091085121
 20
144.4853017002
 10
249.0103990459
 20
144.8162073458
 10
247.9440626667
 20
145.3169795805
 10
246.9283446858
 20
145.9790500527
 10
245.9806243193
 20
146.791090553
 10
245.1171173256
 20
147.7392068432
 10
244.3525985486
 20
148.8071763908
 10
243.7001491167
 20
149.9767259407
 10
243.1709326204
 20
151.2278441759
 10
242.7740041008
 20
152.5391241165
 10
242.5161551149
 20
153.8881293991
 10
242.4017975303
 20
155.2517781693
 10
242.432888037
 20
156.6067380187
 10
242.6088946678
 20
157.9298252085
 10
242.9268059005
 20
159.1984013501
 10
243.3811821858
 20
160.3907607539
 10
243.9642490193
 20
161.48650182
 10
244.666029966
 20
162.466876115
 10
245.4745173592
 20
163.3151091629
 10
246.3758777555
 20
164.016687461
 10
247.3546886287
 20
164.5596068101
 10
248.3942022533
 20
164.9345777097
 10
249.4766322629
 20
165.1351843036
 10
250.5834579801
 20
165.1579941576
 10
251.4981382256
 20
165.0432437792
  0
LWPOLYLINE
  5
399
330
1F
100
AcDbEntity
  8
0
  6
Continuous
 62
     7
370
    35
100
AcDbPolyline
 90
       26
 70
   128
 43
0.0
 10
252.3913562644
 20
144.3328737469
 10
251.7419994697
 20
144.2345470573
 10
250.6351737525
 20
144.2117372034
 10
249.5228904227
 20
144.3671143724
 10
248.4241809564
 20
144.698020018
 10
247.3578445773
 20
145.1987922528
 10
246.3421265964
 20
145.8608627249
 10
245.3944062299
 20
146.6729032252
 10
244.5308992362
 20
147.6210195154
 10
243.7663804592
 20
148.688989063
 10
243.1139310272
 20
149.8585386129
 10
242.584714531
 20
151.1096568481
 10
242.1877860114
 20
152.4209367887
 10
241.9299370255
 20
153.7699420713
 10
241.8155794409
 20
155.1335908415
 10
241.8466699476
 20
156.4885506909
 10
242.0226765784
 20
157.8116378807
 10
242.3405878111
 20
159.0802140223
 10
242.7949640963
 20
160.2725734261
 10
243.3780309299
 20
161.3683144923
 10
244.0798118765
 20
162.3486887873
 10
244.8882992698
 20
163.1969218351
 10
245.7896596661
 20
163.8985001332
 10
246.7684705393
 20
164.4414194823
 10
247.8079841639
 20
164.8163903819
 10
248.2410573788
 20
164.9186702862
  0
LWPOLYLINE
  5
39A
330
1F
100
AcDbEntity
  8
0
  6
Continuous
 62
     7
370
    35
100
AcDbPolyline
 90
       46
 70
   128
 43
0.0
 10
210.5894304069
 20
138.6765435962
 10
212.3919190368
 20
137.7077530024
 10
214.3095348632
 20
136.8156630868
 10
216.3325061557
 20
136.004819735
 10
218.450524316
 20
135.2793548189
 10
220.6527964093
 20
134.6429651416
 10
222.9281001617
 20
134.0988935988
 10
225.2648411468
 20
133.6499126544
 10
227.6511118683
 20
133.2983102125
 10
230.0747524374
 20
133.0458779585
 10
232.5234125375
 20
132.8939022292
 10
234.9846143579
 20
132.8431574582
 10
237.4458161782
 20
132.8939022292
 10
239.8944762783
 20
133.0458779585
 10
242.3181168474
 20
133.2983102125
 10
244.7043875689
 20
133.6499126544
 10
247.041128554
 20
134.0988935988
 10
249.3164323064
 20
134.6429651416
 10
251.5187043997
 20
135.2793548189
 10
253.6367225601
 20
136.004819735
 10
255.6596938525
 20
136.8156630868
 10
257.577309679
 20
137.7077530024
 10
259.3797983088
 20
138.6765435962
 10
261.0579746731
 20
139.7170981334
 10
262.6032871698
 20
140.8241141865
 10
264.0078612405
 20
141.9919506555
 10
265.2645394979
 20
143.2146565135
 10
266.3669181976
 20
144.4860011316
 10
267.3093798704
 20
145.7995060291
 10
268.0871219476
 20
147.1484778862
 10
268.6961812339
 20
148.5260426514
 10
269.1334541028
 20
149.9251805705
 10
269.3967123119
 20
151.3387619573
 10
269.4846143579
 20
152.7595835252
 10
269.3967123119
 20
154.180405093
 10
269.1334541028
 20
155.5939864799
 10
268.6961812339
 20
156.993124399
 10
268.0871219476
 20
158.3706891642
 10
267.3093798704
 20
159.7196610212
 10
266.3669181976
 20
161.0331659187
 10
265.2645394979
 20
162.3045105368
 10
264.0078612405
 20
163.5272163948
 10
262.6032871698
 20
164.6950528638
 10
261.0579746731
 20
165.8020689169
 10
259.3797983088
 20
166.8426234541
 10
257.874402739
 20
167.661073429
  0
LWPOLYLINE
  5
39B
330
1F
100
AcDbEntity
  8
0
  6
Continuous
 62
     7
370
    35
100
AcDbPolyline
 90
       24
 70
   128
 43
0.0
 10
212.0948259767
 20
167.661073429
 10
210.5894304069
 20
166.8426234541
 10
208.9112540426
 20
165.8020689169
 10
207.365941546
 20
164.6950528638
 10
205.9613674752
 20
163.5272163948
 10
204.7046892178
 20
162.3045105368
 10
203.6023105181
 20
161.0331659187
 10
202.6598488454
 20
159.7196610212
 10
201.8821067682
 20
158.3706891642
 10
201.2730474819
 20
156.993124399
 10
200.835774613
 20
155.5939864799
 10
200.5725164038
 20
154.180405093
 10
200.4846143579
 20
152.7595835252
 10
200.5725164038
 20
151.3387619573
 10
200.835774613
 20
149.9251805705
 10
201.2730474819
 20
148.5260426514
 10
201.8821067682
 20
147.1484778862
 10
202.6598488454
 20
145.7995060291
 10
203.6023105181
 20
144.4860011316
 10
204.7046892178
 20
143.2146565135
 10
205.9613674752
 20
141.9919506555
 10
207.365941546
 20
140.8241141865
 10
208.9112540427
 20
139.7170981334
 10
210.5894304069
 20
138.6765435962
  0
LWPOLYLINE
  5
39C
330
1F
100
AcDbEntity
  8
0
  6
Continuous
 62
     7
370
    35
100
AcDbPolyline
 90
       44
 70
   128
 43
0.0
 10
211.4733138834
 20
139.1867986661
 10
213.25225014
 20
138.2322573044
 10
215.1471379627
 20
137.3552255137
 10
217.1478673051
 20
136.560382638
 10
219.2437634105
 20
135.8519695079
 10
221.4236437664
 20
135.2337658142
 10
223.6758777678
 20
134.7090699408
 10
225.9884487719
 20
134.2806813675
 10
228.3490182118
 20
133.9508857324
 10
230.7449914282
 20
133.7214426381
 10
233.1635848673
 20
133.5935762627
 10
235.5918942866
 20
133.5679688286
 10
238.0169636048
 20
133.6447569627
 10
240.4258540277
 20
133.8235309669
 10
242.8057130827
 20
134.1033370047
 10
245.143843192
 20
134.4826821896
 10
247.4277694199
 20
134.9595425512
 10
249.6453060317
 20
135.5313738329
 10
251.7846215101
 20
136.1951250675
 10
253.8343016815
 20
136.947254855
 10
255.7834106152
 20
137.7837502575
 10
257.6215489719
 20
138.7001482101
 10
259.3389094879
 20
139.6915593332
 10
260.9263293021
 20
140.7526940196
 10
262.3753388427
 20
141.8778906566
 10
263.678207017
 20
143.0611458332
 10
264.8279824594
 20
144.2961463712
 10
265.8185306207
 20
145.5763030083
 10
266.6445664977
 20
146.894785555
 10
267.3016828316
 20
148.2445593363
 10
267.7863736225
 20
149.6184227253
 10
268.0960528353
 20
151.0090455662
 10
268.2290681974
 20
152.4090082845
 10
268.1847100143
 20
153.8108414734
 10
267.963214956
 20
155.2070657464
 10
267.5657647947
 20
156.5902316427
 10
266.9944800988
 20
157.9529593739
 10
266.2524089193
 20
159.2879781979
 10
265.3435105271
 20
160.5881652116
 10
264.2726342884
 20
161.8465833549
 10
263.0454937913
 20
163.0565184223
 10
261.6686363611
 20
164.2115148869
 10
260.1494081282
 20
165.3054103427
 10
258.9017635915
 20
166.0939609021
  0
LWPOLYLINE
  5
39D
330
1F
100
AcDbEntity
  8
0
  6
Continuous
 62
     7
370
    35
100
AcDbPolyline
 90
       23
 70
   128
 43
0.0
 10
211.0674651243
 20
166.0939609021
 10
210.6303192278
 20
165.8276077171
 10
209.0428994137
 20
164.7664730307
 10
207.5938898731
 20
163.6412763937
 10
206.2910216988
 20
162.4580212171
 10
205.1412462563
 20
161.2230206791
 10
204.150698095
 20
159.942864042
 10
203.324662218
 20
158.6243814954
 10
202.6675458841
 20
157.274607714
 10
202.1828550932
 20
155.9007443251
 10
201.8731758804
 20
154.5101214842
 10
201.7401605183
 20
153.1101587658
 10
201.7845187015
 20
151.7083255769
 10
202.0060137597
 20
150.312101304
 10
202.4034639211
 20
148.9289354077
 10
202.974748617
 20
147.5662076765
 10
203.7168197964
 20
146.2311888525
 10
204.6257181886
 20
144.9310018387
 10
205.6965944273
 20
143.6725836955
 10
206.9237349245
 20
142.462648628
 10
208.3005923546
 20
141.3076521635
 10
209.8198205876
 20
140.2137567076
 10
211.4733138834
 20
139.1867986661
  0
LWPOLYLINE
  5
39E
330
1F
100
AcDbEntity
  8
0
  6
Continuous
 62
     7
370
    35
100
AcDbPolyline
 90
       34
 70
   128
 43
0.0
 10
210.5894304069
 20
134.1855691309
 10
212.3919190368
 20
133.216778537
 10
214.3095348632
 20
132.3246886214
 10
216.3325061557
 20
131.5138452696
 10
218.450524316
 20
130.7883803536
 10
220.6527964093
 20
130.1519906762
 10
222.9281001617
 20
129.6079191334
 10
225.2648411468
 20
129.158938189
 10
227.6511118683
 20
128.8073357471
 10
230.0747524374
 20
128.5549034931
 10
232.5234125375
 20
128.4029277638
 10
234.9846143579
 20
128.3521829928
 10
237.4458161782
 20
128.4029277638
 10
239.8944762783
 20
128.5549034931
 10
242.3181168474
 20
128.8073357471
 10
244.7043875689
 20
129.158938189
 10
247.041128554
 20
129.6079191334
 10
249.3164323064
 20
130.1519906762
 10
251.5187043997
 20
130.7883803536
 10
253.6367225601
 20
131.5138452696
 10
255.6596938525
 20
132.3246886214
 10
257.577309679
 20
133.216778537
 10
259.3797983088
 20
134.1855691309
 10
261.0579746731
 20
135.226123668
 10
262.6032871698
 20
136.3331397212
 10
264.0078612405
 20
137.5009761902
 10
265.2645394979
 20
138.7236820481
 10
266.3669181976
 20
139.9950266662
 10
267.3093798704
 20
141.3085315638
 10
268.0871219476
 20
142.6575034208
 10
268.6961812339
 20
144.035068186
 10
269.1334541028
 20
145.4342061051
 10
269.3967123119
 20
146.8477874919
 10
269.4846143579
 20
148.2686090598
  0
LWPOLYLINE
  5
39F
330
1F
100
AcDbEntity
  8
0
  6
Continuous
 62
     7
370
    35
100
AcDbPolyline
 90
       12
 70
   128
 43
0.0
 10
200.4846143579
 20
148.2686090598
 10
200.5725164038
 20
146.8477874919
 10
200.835774613
 20
145.4342061051
 10
201.2730474819
 20
144.035068186
 10
201.8821067682
 20
142.6575034208
 10
202.6598488454
 20
141.3085315638
 10
203.6023105181
 20
139.9950266662
 10
204.7046892178
 20
138.7236820481
 10
205.9613674752
 20
137.5009761902
 10
207.365941546
 20
136.3331397212
 10
208.9112540427
 20
135.226123668
 10
210.5894304069
 20
134.1855691309
  0
LINE
  5
3A0
330
1F
100
AcDbEntity
  8
0
  6
Continuous
 62
     7
370
    35
100
AcDbLine
 10
268.1140559337
 20
151.1265019014
 30
0.0
 11
267.9846143579
 21
151.842811052
 31
0.0
  0
LWPOLYLINE
  5
3A1
330
1F
100
AcDbEntity
  8
0
  6
Continuous
 62
     7
370
    35
100
AcDbPolyline
 90
        3
 70
   128
 43
0.0
 10
201.9846143579
 20
151.842811052
 10
201.8731758804
 20
151.2439582366
 10
201.855172782
 20
151.1265019014
  0
LINE
  5
3A2
330
1F
100
AcDbEntity
  8
0
  6
Continuous
 62
     7
370
    35
100
AcDbLine
 10
201.9846143579
 20
151.2081559826
 30
0.0
 11
202.030399761
 21
150.2049800349
 31
0.0
  0
LWPOLYLINE
  5
3A3
330
1F
100
AcDbEntity
  8
0
  6
Continuous
 62
     7
370
    35
100
AcDbPolyline
 90
       42
 70
   128
 43
0.0
 10
207.0449406728
 20
153.3717901002
 10
207.0372566276
 20
152.2782502192
 10
207.1918470092
 20
150.9979493176
 10
207.5221522144
 20
149.7287860347
 10
208.0260839473
 20
148.4787844293
 10
208.7004561894
 20
147.255847414
 10
209.5410053421
 20
146.0677067905
 10
210.5424171832
 20
144.9218743663
 10
211.6983604644
 20
143.825594463
 10
213.0015269402
 20
142.7857981149
 10
214.4436775726
 20
141.8090592495
 10
216.015694621
 20
140.9015531243
 10
217.7076392873
 20
140.0690172853
 10
219.5088145527
 20
139.316715292
 10
221.4078328073
 20
138.6494034398
 10
223.3926878461
 20
138.0713006893
 10
225.4508307766
 20
137.586061992
 10
227.5692493565
 20
137.1967551833
 10
229.7345502615
 20
136.9058415861
 10
231.933043762
 20
136.7151604499
 10
234.1508302744
 20
136.6259173222
 10
236.3738882382
 20
136.6386764269
 10
238.5881627652
 20
136.7533570966
 10
240.779654499
 20
136.9692342834
 10
242.9345081231
 20
137.2849431421
 10
245.0390999593
 20
137.6984876597
 10
247.0801241002
 20
138.2072532746
 10
249.0446765341
 20
138.8080234067
 10
250.920336728
 20
139.4969997939
 10
252.6952461543
 20
140.2698265057
 10
254.358183264
 20
141.1216174826
 10
255.8986344334
 20
142.0469874279
 10
257.3068604342
 20
143.0400858549
 10
258.5739580082
 20
144.0946340756
 10
259.6919161565
 20
145.2039648966
 10
260.6536667879
 20
146.3610647712
 10
261.4531294051
 20
147.5586181415
 10
262.0852495481
 20
148.7890536895
 10
262.5460307498
 20
150.0445922055
 10
262.8325598031
 20
151.3172957708
 10
262.9430251791
 20
152.5991179437
 10
262.924288043
 20
153.3717901002
  0
LWPOLYLINE
  5
3A4
330
1F
100
AcDbEntity
  8
0
  6
Continuous
 62
     7
370
    35
100
AcDbPolyline
 90
       66
 70
   128
 43
0.0
 10
259.0993330544
 20
165.7643310563
 10
259.9601991525
 20
165.2110808178
 10
261.4680046168
 20
164.1254101398
 10
262.8345097354
 20
162.9790978592
 10
264.0524236123
 20
161.7782600479
 10
265.1152481499
 20
160.5293036952
 10
266.0173127196
 20
159.2388925236
 10
266.7538044165
 20
157.9139114351
 10
267.3207937388
 20
156.5614297771
 10
267.7152555531
 20
155.1886636244
 10
267.9350852349
 20
153.8029372783
 10
267.9791098978
 20
152.4116441886
 10
267.8470946513
 20
151.0222075057
 10
267.5397438536
 20
149.6420404757
 10
267.0586973544
 20
148.2785068866
 10
266.4065217448
 20
146.9388817803
 10
265.5866966638
 20
145.6303126363
 10
264.6035962331
 20
144.359781237
 10
263.4624657188
 20
143.1340664174
 10
262.1693935458
 20
141.9597078962
 10
260.7312788138
 20
140.8429713843
 10
259.155794487
 20
139.7898151542
 10
257.451346456
 20
138.80585825
 10
255.6270286885
 20
137.8963505076
 10
253.6925747091
 20
137.0661445442
 10
251.6583056668
 20
136.3196698679
 10
249.5350752672
 20
135.6609092441
 10
247.334211863
 20
135.0933774457
 10
245.0674580128
 20
134.6201025004
 10
242.7469078291
 20
134.2436095349
 10
240.3849424512
 20
133.9659073019
 10
237.9941639864
 20
133.7884774631
 10
235.5873282721
 20
133.7122666835
 10
233.1772768183
 20
133.7376815804
 10
230.7768682923
 20
133.8645865545
 10
228.3989099121
 20
134.0923045128
 10
226.0560891146
 20
134.4196204814
 10
223.7609058624
 20
134.8447880881
 10
221.5256059513
 20
135.3655388797
 10
219.3621156733
 20
135.9790944254
 10
217.2819781852
 20
136.6821811409
 10
215.2962919206
 20
137.4710477544
 10
213.4156513747
 20
138.3414853211
 10
211.6500905787
 20
139.2888496801
 10
210.0090295633
 20
140.3080862326
 10
208.501224099
 20
141.3937569105
 10
207.1347189804
 20
142.5400691912
 10
205.9168051035
 20
143.7409070025
 10
204.8539805658
 20
144.9898633552
 10
203.9519159962
 20
146.2802745267
 10
203.2154242993
 20
147.6052556152
 10
202.648434977
 20
148.9577372732
 10
202.2539731627
 20
150.3305034259
 10
202.0341434808
 20
151.716229772
 10
201.9901188179
 20
153.1075228618
 10
202.1221340645
 20
154.4969595446
 10
202.4294848621
 20
155.8771265747
 10
202.9105313614
 20
157.2406601637
 10
203.562706971
 20
158.58028527
 10
204.3825320519
 20
159.8888544141
 10
205.3656324826
 20
161.1593858133
 10
206.506762997
 20
162.3851006329
 10
207.7998351699
 20
163.5594591541
 10
209.237949902
 20
164.676195666
 10
210.8134342288
 20
165.7293518961
 10
210.8698956614
 20
165.7643310563
  0
LWPOLYLINE
  5
3A5
330
1F
100
AcDbEntity
  8
0
  6
Continuous
 62
     7
370
    35
100
AcDbPolyline
 90
        3
 70
   128
 43
0.0
 10
267.9846143579
 20
151.5347723073
 10
267.9791098978
 20
151.1868329708
 10
267.8619779519
 20
149.8939176055
  0
LWPOLYLINE
  5
3A6
330
1F
100
AcDbEntity
  8
0
  6
Continuous
 62
     7
370
    35
100
AcDbPolyline
 90
        3
 70
   128
 43
0.0
 10
202.1072507639
 20
149.8939176055
 10
202.0341434808
 20
150.4914185542
 10
201.9846143579
 20
151.5347723073
  0
LWPOLYLINE
  5
3A7
330
1F
100
AcDbEntity
  8
0
  6
Continuous
 62
     8
370
    35
100
AcDbPolyline
 90
       11
 70
   128
 43
0.0
 10
258.3547214092
 20
140.3642320659
 10
258.2755895357
 20
140.0771333132
 10
258.031135239
 20
139.8229728494
 10
257.6508433151
 20
139.6324061777
 10
257.1805825826
 20
139.528418451
 10
256.677073426
 20
139.5235521239
 10
256.2010464806
 20
139.6183941473
 10
255.8099176216
 20
139.8015051733
 10
255.5508627616
 20
140.05079931
 10
255.4551277401
 20
140.3362080051
 10
255.4550568534
 20
140.3615264919
  0
LWPOLYLINE
  5
3A8
330
1F
100
AcDbEntity
  8
0
  6
Continuous
 62
     8
370
    35
100
AcDbPolyline
 90
       11
 70
   128
 43
0.0
 10
267.434561626
 20
152.9974069872
 10
267.3912926653
 20
152.8014617775
 10
267.1861403483
 20
152.5359690124
 10
266.8360662643
 20
152.3269935196
 10
266.3832945143
 20
152.1997408277
 10
265.8824360535
 20
152.1695594893
 10
265.3939018042
 20
152.2400898193
 10
264.9766162069
 20
152.4028248189
 10
264.680910063
 20
152.6381362456
 10
264.5424498978
 20
152.9176420683
 10
264.5346418963
 20
152.9993868443
  0
LWPOLYLINE
  5
3A9
330
1F
100
AcDbEntity
  8
0
  6
Continuous
 62
     8
370
    35
100
AcDbPolyline
 90
        8
 70
   128
 43
0.0
 10
236.0269385529
 20
134.5267217477
 10
235.6193230404
 20
134.3560142245
 10
235.1351522934
 20
134.2760828725
 10
234.6328244497
 20
134.2965685924
 10
234.1729276608
 20
134.415000504
 10
233.8109322668
 20
134.6170939711
 10
233.5905002546
 20
134.8784735387
 10
233.5346550209
 20
135.1023578377
  0
ARC
  5
3AA
330
1F
100
AcDbEntity
  8
0
  6
Continuous
 62
     8
370
    35
100
AcDbCircle
 10
235.7505225645
 20
135.155965094
 30
0.0
 40
0.6872794101240769
100
AcDbArc
 50
293.7150739878
 51
353.931962316
  0
LWPOLYLINE
  5
3AB
330
1F
100
AcDbEntity
  8
0
  6
Continuous
 62
     8
370
    35
100
AcDbPolyline
 90
        6
 70
   128
 43
0.0
 10
213.0885763196
 20
139.5132701379
 10
212.591252807
 20
139.5589519961
 10
212.1509862668
 20
139.7000724577
 10
211.8208793414
 20
139.9196103124
 10
211.6407477977
 20
140.1910860548
 10
211.6143047976
 20
140.3494234957
  0
LWPOLYLINE
  5
3AC
330
1F
100
AcDbEntity
  8
0
  6
Continuous
 62
     8
370
    35
100
AcDbPolyline
 90
        6
 70
   128
 43
0.0
 10
214.5143011612
 20
140.3519170857
 10
214.4962901236
 20
140.2186843672
 10
214.3320011194
 20
139.943879861
 10
214.0148091504
 20
139.7180859768
 10
213.5829722493
 20
139.5685367894
 10
213.0885763196
 20
139.5132701379
  0
ARC
  5
3AD
330
1F
100
AcDbEntity
  8
0
  6
Continuous
 62
     8
370
    35
100
AcDbCircle
 10
203.2322346426
 20
153.0531961916
 30
0.0
 40
0.6988016221559322
100
AcDbArc
 50
183.4056059076
 51
248.543457346
  0
LWPOLYLINE
  5
3AE
330
1F
100
AcDbEntity
  8
0
  6
Continuous
 62
     8
370
    35
100
AcDbPolyline
 90
        8
 70
   128
 43
0.0
 10
205.4345868194
 20
153.0097046932
 10
205.3912926653
 20
152.8014617775
 10
205.1861403483
 20
152.5359690124
 10
204.8360662643
 20
152.3269935196
 10
204.3832945143
 20
152.1997408277
 10
203.8824360535
 20
152.1695594893
 10
203.3939018042
 20
152.2400898193
 10
202.9766162069
 20
152.4028248189
  0
ARC
  5
3AF
330
1F
100
AcDbEntity
  8
0
  6
Continuous
 62
     8
370
    35
100
AcDbCircle
 10
228.6980808397
 20
173.6952118602
 30
0.0
 40
3.698522427208144
100
AcDbArc
 50
160.473150656
 51
224.3818658067
  0
LWPOLYLINE
  5
3B0
330
1F
100
AcDbEntity
  8
0
  6
Continuous
 62
     8
370
    35
100
AcDbPolyline
 90
       23
 70
   128
 43
0.0
 10
244.7569496473
 20
174.9314376308
 10
244.8967617171
 20
174.4701611014
 10
244.9846090153
 20
173.7006590535
 10
244.894006172
 20
172.9312634932
 10
244.6265699969
 20
172.1757043026
 10
244.1870728951
 20
171.4474644534
 10
243.5833577027
 20
170.7595394028
 10
242.8261977315
 20
170.1242051897
 10
241.9291045193
 20
169.5527993682
 10
240.9080867157
 20
169.0555186888
 10
239.7813644074
 20
168.6412371369
 10
238.569043981
 20
168.3173475766
 10
237.2927593229
 20
168.0896298248
 10
235.9752857633
 20
167.9621475102
 10
234.640133649
 20
167.9371755577
 10
233.3111288011
 20
168.0151595924
 10
232.0119873426
 20
168.1947079874
 10
230.7658924837
 20
168.4726166972
 10
229.5950808165
 20
168.8439264344
 10
228.520445503
 20
169.3020111679
 10
227.5611634359
 20
169.8386963648
 10
226.7343530263
 20
170.4444048651
 10
226.0547687257
 20
171.1083277862
  0
LWPOLYLINE
  5
3B1
330
1F
100
AcDbEntity
  8
0
  6
Continuous
 62
     8
370
    35
100
AcDbPolyline
 90
       16
 70
   128
 43
0.0
 10
244.0431146307
 20
150.2037370552
 10
243.5297172044
 20
151.4213269553
 10
243.1478859217
 20
152.6982093092
 10
242.9044345711
 20
154.0115981209
 10
242.8037075475
 20
155.338055936
 10
242.8475023272
 20
156.6539120834
 10
243.0350373912
 20
157.9356850788
 10
243.3629661719
 20
159.160501653
 10
243.8254367723
 20
160.306504925
 10
244.4141963938
 20
161.3532444393
 10
245.1187386069
 20
162.2820411045
 10
245.9264908391
 20
163.0763205222
 10
246.8230387326
 20
163.7219087572
 10
247.7923833692
 20
164.2072852723
 10
248.8172267708
 20
164.523788512
 10
249.8178360117
 20
164.6624124776
  0
LWPOLYLINE
  5
3B2
330
1F
100
AcDbEntity
  8
0
  6
Continuous
 62
     8
370
    35
100
AcDbPolyline
 90
       12
 70
   128
 43
0.0
 10
253.7456680785
 20
145.1800681945
 10
253.5058585353
 20
145.1008475575
 10
252.4600745661
 20
144.8710918871
 10
251.3864943019
 20
144.8175177704
 10
250.304275808
 20
144.9410812387
 10
249.2327312989
 20
145.2395772991
 10
248.1909825119
 20
145.7076792822
 10
247.1976194788
 20
146.3370338971
 10
246.2703687864
 20
147.1164102957
 10
245.4257772452
 20
148.0319004878
 10
244.6789166114
 20
149.0671675293
 10
244.0431146307
 20
150.2037370552
  0
CIRCLE
  5
3B3
330
1F
100
AcDbEntity
  8
0
  6
Continuous
 62
     7
370
    35
100
AcDbCircle
 10
101.993116965
 20
168.5831470627
 30
0.0
 40
1.45
  0
CIRCLE
  5
3B4
330
1F
100
AcDbEntity
  8
0
  6
Continuous
 62
     7
370
    35
100
AcDbCircle
 10
101.993116965
 20
168.5831470627
 30
0.0
 40
1.149999999999996
  0
LINE
  5
3B5
330
1F
100
AcDbEntity
  8
0
  6
Continuous
 62
     7
370
    35
100
AcDbLine
 10
102.1405850328
 20
168.7356369606
 30
0.0
 11
102.9404729415
 21
168.7490285073
 31
0.0
  0
LINE
  5
3B6
330
1F
100
AcDbEntity
  8
0
  6
Continuous
 62
     7
370
    35
100
AcDbLine
 10
102.127193486
 20
169.5355248692
 30
0.0
 11
102.1405850328
 21
168.7356369606
 31
0.0
  0
LINE
  5
3B7
330
1F
100
AcDbEntity
  8
0
  6
Continuous
 62
     7
370
    35
100
AcDbLine
 10
101.8272355203
 20
169.5305030392
 30
0.0
 11
102.127193486
 21
169.5355248692
 31
0.0
  0
LINE
  5
3B8
330
1F
100
AcDbEntity
  8
0
  6
Continuous
 62
     7
370
    35
100
AcDbLine
 10
101.0407391584
 20
168.7172235837
 30
0.0
 11
101.8406270671
 21
168.7306151305
 31
0.0
  0
LINE
  5
3B9
330
1F
100
AcDbEntity
  8
0
  6
Continuous
 62
     7
370
    35
100
AcDbLine
 10
101.0407391584
 20
168.7172235837
 30
0.0
 11
101.0457609884
 21
168.417265618
 31
0.0
  0
LINE
  5
3BA
330
1F
100
AcDbEntity
  8
0
  6
Continuous
 62
     7
370
    35
100
AcDbLine
 10
101.0457609884
 20
168.417265618
 30
0.0
 11
101.8456488971
 21
168.4306571647
 31
0.0
  0
LINE
  5
3BB
330
1F
100
AcDbEntity
  8
0
  6
Continuous
 62
     7
370
    35
100
AcDbLine
 10
101.8456488971
 20
168.4306571647
 30
0.0
 11
101.8590404439
 21
167.6307692561
 31
0.0
  0
LINE
  5
3BC
330
1F
100
AcDbEntity
  8
0
  6
Continuous
 62
     7
370
    35
100
AcDbLine
 10
101.8590404439
 20
167.6307692561
 30
0.0
 11
102.1589984096
 21
167.6357910861
 31
0.0
  0
LINE
  5
3BD
330
1F
100
AcDbEntity
  8
0
  6
Continuous
 62
     7
370
    35
100
AcDbLine
 10
102.1456068629
 20
168.4356789948
 30
0.0
 11
102.1589984096
 21
167.6357910861
 31
0.0
  0
LINE
  5
3BE
330
1F
100
AcDbEntity
  8
0
  6
Continuous
 62
     7
370
    35
100
AcDbLine
 10
102.1456068629
 20
168.4356789948
 30
0.0
 11
102.9454947716
 21
168.4490705416
 31
0.0
  0
LINE
  5
3BF
330
1F
100
AcDbEntity
  8
0
  6
Continuous
 62
     7
370
    35
100
AcDbLine
 10
102.9404729415
 20
168.7490285073
 30
0.0
 11
102.9454947716
 21
168.4490705416
 31
0.0
  0
LINE
  5
3C0
330
1F
100
AcDbEntity
  8
0
  6
Continuous
 62
     7
370
    35
100
AcDbLine
 10
101.8272355203
 20
169.5305030392
 30
0.0
 11
101.8406270671
 21
168.7306151305
 31
0.0
  0
CIRCLE
  5
3C1
330
1F
100
AcDbEntity
  8
0
  6
Continuous
 62
     7
370
    35
100
AcDbCircle
 10
145.8337373985
 20
168.5831470627
 30
0.0
 40
1.45
  0
CIRCLE
  5
3C2
330
1F
100
AcDbEntity
  8
0
  6
Continuous
 62
     7
370
    35
100
AcDbCircle
 10
145.8337373985
 20
168.5831470627
 30
0.0
 40
1.149999999999996
  0
LINE
  5
3C3
330
1F
100
AcDbEntity
  8
0
  6
Continuous
 62
     7
370
    35
100
AcDbLine
 10
145.9862272964
 20
168.4356789948
 30
0.0
 11
145.9996188432
 21
167.6357910861
 31
0.0
  0
LINE
  5
3C4
330
1F
100
AcDbEntity
  8
0
  6
Continuous
 62
     7
370
    35
100
AcDbLine
 10
146.7861152051
 20
168.4490705416
 30
0.0
 11
145.9862272964
 21
168.4356789948
 31
0.0
  0
LINE
  5
3C5
330
1F
100
AcDbEntity
  8
0
  6
Continuous
 62
     7
370
    35
100
AcDbLine
 10
146.7810933751
 20
168.7490285073
 30
0.0
 11
146.7861152051
 21
168.4490705416
 31
0.0
  0
LINE
  5
3C6
330
1F
100
AcDbEntity
  8
0
  6
Continuous
 62
     7
370
    35
100
AcDbLine
 10
146.7810933751
 20
168.7490285073
 30
0.0
 11
145.9812054664
 21
168.7356369606
 31
0.0
  0
LINE
  5
3C7
330
1F
100
AcDbEntity
  8
0
  6
Continuous
 62
     7
370
    35
100
AcDbLine
 10
145.9678139196
 20
169.5355248692
 30
0.0
 11
145.9812054664
 21
168.7356369606
 31
0.0
  0
LINE
  5
3C8
330
1F
100
AcDbEntity
  8
0
  6
Continuous
 62
     7
370
    35
100
AcDbLine
 10
145.9678139196
 20
169.5355248692
 30
0.0
 11
145.6678559538
 21
169.5305030392
 31
0.0
  0
LINE
  5
3C9
330
1F
100
AcDbEntity
  8
0
  6
Continuous
 62
     7
370
    35
100
AcDbLine
 10
145.6678559538
 20
169.5305030392
 30
0.0
 11
145.6812475006
 21
168.7306151305
 31
0.0
  0
LINE
  5
3CA
330
1F
100
AcDbEntity
  8
0
  6
Continuous
 62
     7
370
    35
100
AcDbLine
 10
145.6812475006
 20
168.7306151305
 30
0.0
 11
144.8813595919
 21
168.7172235837
 31
0.0
  0
LINE
  5
3CB
330
1F
100
AcDbEntity
  8
0
  6
Continuous
 62
     7
370
    35
100
AcDbLine
 10
144.8813595919
 20
168.7172235837
 30
0.0
 11
144.886381422
 21
168.417265618
 31
0.0
  0
LINE
  5
3CC
330
1F
100
AcDbEntity
  8
0
  6
Continuous
 62
     7
370
    35
100
AcDbLine
 10
145.6862693307
 20
168.4306571647
 30
0.0
 11
144.886381422
 21
168.417265618
 31
0.0
  0
LINE
  5
3CD
330
1F
100
AcDbEntity
  8
0
  6
Continuous
 62
     7
370
    35
100
AcDbLine
 10
145.6862693307
 20
168.4306571647
 30
0.0
 11
145.6996608775
 21
167.6307692561
 31
0.0
  0
LINE
  5
3CE
330
1F
100
AcDbEntity
  8
0
  6
Continuous
 62
     7
370
    35
100
AcDbLine
 10
145.9996188432
 20
167.6357910861
 30
0.0
 11
145.6996608775
 21
167.6307692561
 31
0.0
  0
LINE
  5
3CF
330
1F
100
AcDbEntity
  8
0
  6
Continuous
 62
     7
370
    35
100
AcDbLine
 10
92.9098762117
 20
146.8749391575
 30
0.0
 11
93.4660131225
 21
147.4500145755
 31
0.0
  0
LINE
  5
3D0
330
1F
100
AcDbEntity
  8
0
  6
Continuous
 62
     7
370
    35
100
AcDbLine
 10
92.3348007937
 20
147.4310760684
 30
0.0
 11
92.9098762117
 21
146.8749391575
 31
0.0
  0
LINE
  5
3D1
330
1F
100
AcDbEntity
  8
0
  6
Continuous
 62
     7
370
    35
100
AcDbLine
 10
92.1262494521
 20
147.2154227867
 30
0.0
 11
92.3348007937
 21
147.4310760684
 31
0.0
  0
LINE
  5
3D2
330
1F
100
AcDbEntity
  8
0
  6
Continuous
 62
     7
370
    35
100
AcDbLine
 10
92.1262494521
 20
147.2154227867
 30
0.0
 11
92.7013248701
 21
146.6592858758
 31
0.0
  0
LINE
  5
3D3
330
1F
100
AcDbEntity
  8
0
  6
Continuous
 62
     7
370
    35
100
AcDbLine
 10
92.1451879592
 20
146.0842104578
 30
0.0
 11
92.7013248701
 21
146.6592858758
 31
0.0
  0
LINE
  5
3D4
330
1F
100
AcDbEntity
  8
0
  6
Continuous
 62
     7
370
    35
100
AcDbLine
 10
92.1451879592
 20
146.0842104578
 30
0.0
 11
92.3608412409
 21
145.8756591162
 31
0.0
  0
LINE
  5
3D5
330
1F
100
AcDbEntity
  8
0
  6
Continuous
 62
     7
370
    35
100
AcDbLine
 10
92.3608412409
 20
145.8756591162
 30
0.0
 11
92.9169781518
 21
146.4507345342
 31
0.0
  0
LINE
  5
3D6
330
1F
100
AcDbEntity
  8
0
  6
Continuous
 62
     7
370
    35
100
AcDbLine
 10
92.9169781518
 20
146.4507345342
 30
0.0
 11
93.4920535698
 21
145.8945976233
 31
0.0
  0
LINE
  5
3D7
330
1F
100
AcDbEntity
  8
0
  6
Continuous
 62
     7
370
    35
100
AcDbLine
 10
93.4920535698
 20
145.8945976233
 30
0.0
 11
93.7006049114
 21
146.1102509051
 31
0.0
  0
LINE
  5
3D8
330
1F
100
AcDbEntity
  8
0
  6
Continuous
 62
     7
370
    35
100
AcDbLine
 10
93.1255294934
 20
146.6663878159
 30
0.0
 11
93.7006049114
 21
146.1102509051
 31
0.0
  0
LINE
  5
3D9
330
1F
100
AcDbEntity
  8
0
  6
Continuous
 62
     7
370
    35
100
AcDbLine
 10
93.1255294934
 20
146.6663878159
 30
0.0
 11
93.6816664043
 21
147.2414632339
 31
0.0
  0
LINE
  5
3DA
330
1F
100
AcDbEntity
  8
0
  6
Continuous
 62
     7
370
    35
100
AcDbLine
 10
93.4660131225
 20
147.4500145755
 30
0.0
 11
93.6816664043
 21
147.2414632339
 31
0.0
  0
CIRCLE
  5
3DB
330
1F
100
AcDbEntity
  8
0
  6
Continuous
 62
     7
370
    35
100
AcDbCircle
 10
92.9134271817
 20
146.6628368459
 30
0.0
 40
1.150000000000014
  0
CIRCLE
  5
3DC
330
1F
100
AcDbEntity
  8
0
  6
Continuous
 62
     7
370
    35
100
AcDbCircle
 10
92.9134271817
 20
146.6628368459
 30
0.0
 40
1.450000000000008
  0
CIRCLE
  5
3DD
330
1F
100
AcDbEntity
  8
0
  6
Continuous
 62
     7
370
    35
100
AcDbCircle
 10
123.9134271817
 20
177.6628368459
 30
0.0
 40
1.449999999999998
  0
CIRCLE
  5
3DE
330
1F
100
AcDbEntity
  8
0
  6
Continuous
 62
     7
370
    35
100
AcDbCircle
 10
123.9134271817
 20
177.6628368459
 30
0.0
 40
1.149999999999994
  0
LINE
  5
3DF
330
1F
100
AcDbEntity
  8
0
  6
Continuous
 62
     7
370
    35
100
AcDbLine
 10
124.1255294934
 20
177.6663878159
 30
0.0
 11
124.7006049114
 21
177.1102509051
 31
0.0
  0
LINE
  5
3E0
330
1F
100
AcDbEntity
  8
0
  6
Continuous
 62
     7
370
    35
100
AcDbLine
 10
124.6816664043
 20
178.2414632339
 30
0.0
 11
124.1255294934
 21
177.6663878159
 31
0.0
  0
LINE
  5
3E1
330
1F
100
AcDbEntity
  8
0
  6
Continuous
 62
     7
370
    35
100
AcDbLine
 10
124.4660131225
 20
178.4500145755
 30
0.0
 11
124.6816664043
 21
178.2414632339
 31
0.0
  0
LINE
  5
3E2
330
1F
100
AcDbEntity
  8
0
  6
Continuous
 62
     7
370
    35
100
AcDbLine
 10
124.4660131225
 20
178.4500145755
 30
0.0
 11
123.9098762117
 21
177.8749391575
 31
0.0
  0
LINE
  5
3E3
330
1F
100
AcDbEntity
  8
0
  6
Continuous
 62
     7
370
    35
100
AcDbLine
 10
123.3348007937
 20
178.4310760684
 30
0.0
 11
123.9098762117
 21
177.8749391575
 31
0.0
  0
LINE
  5
3E4
330
1F
100
AcDbEntity
  8
0
  6
Continuous
 62
     7
370
    35
100
AcDbLine
 10
123.3348007937
 20
178.4310760684
 30
0.0
 11
123.1262494521
 21
178.2154227867
 31
0.0
  0
LINE
  5
3E5
330
1F
100
AcDbEntity
  8
0
  6
Continuous
 62
     7
370
    35
100
AcDbLine
 10
123.1262494521
 20
178.2154227867
 30
0.0
 11
123.7013248701
 21
177.6592858758
 31
0.0
  0
LINE
  5
3E6
330
1F
100
AcDbEntity
  8
0
  6
Continuous
 62
     7
370
    35
100
AcDbLine
 10
123.7013248701
 20
177.6592858758
 30
0.0
 11
123.1451879592
 21
177.0842104578
 31
0.0
  0
LINE
  5
3E7
330
1F
100
AcDbEntity
  8
0
  6
Continuous
 62
     7
370
    35
100
AcDbLine
 10
123.1451879592
 20
177.0842104578
 30
0.0
 11
123.3608412409
 21
176.8756591162
 31
0.0
  0
LINE
  5
3E8
330
1F
100
AcDbEntity
  8
0
  6
Continuous
 62
     7
370
    35
100
AcDbLine
 10
123.9169781518
 20
177.4507345342
 30
0.0
 11
123.3608412409
 21
176.8756591162
 31
0.0
  0
LINE
  5
3E9
330
1F
100
AcDbEntity
  8
0
  6
Continuous
 62
     7
370
    35
100
AcDbLine
 10
123.9169781518
 20
177.4507345342
 30
0.0
 11
124.4920535698
 21
176.8945976233
 31
0.0
  0
LINE
  5
3EA
330
1F
100
AcDbEntity
  8
0
  6
Continuous
 62
     7
370
    35
100
AcDbLine
 10
124.7006049114
 20
177.1102509051
 30
0.0
 11
124.4920535698
 21
176.8945976233
 31
0.0
  0
CIRCLE
  5
3EB
330
1F
100
AcDbEntity
  8
0
  6
Continuous
 62
     7
370
    35
100
AcDbCircle
 10
123.9134271817
 20
115.6628368459
 30
0.0
 40
1.449999999999988
  0
CIRCLE
  5
3EC
330
1F
100
AcDbEntity
  8
0
  6
Continuous
 62
     7
370
    35
100
AcDbCircle
 10
123.9134271817
 20
115.6628368459
 30
0.0
 40
1.149999999999994
  0
LINE
  5
3ED
330
1F
100
AcDbEntity
  8
0
  6
Continuous
 62
     7
370
    35
100
AcDbLine
 10
123.7013248701
 20
115.6592858758
 30
0.0
 11
123.1262494521
 21
116.2154227867
 31
0.0
  0
LINE
  5
3EE
330
1F
100
AcDbEntity
  8
0
  6
Continuous
 62
     7
370
    35
100
AcDbLine
 10
123.1451879592
 20
115.0842104578
 30
0.0
 11
123.7013248701
 21
115.6592858758
 31
0.0
  0
LINE
  5
3EF
330
1F
100
AcDbEntity
  8
0
  6
Continuous
 62
     7
370
    35
100
AcDbLine
 10
123.3608412409
 20
114.8756591162
 30
0.0
 11
123.1451879592
 21
115.0842104578
 31
0.0
  0
LINE
  5
3F0
330
1F
100
AcDbEntity
  8
0
  6
Continuous
 62
     7
370
    35
100
AcDbLine
 10
123.3608412409
 20
114.8756591162
 30
0.0
 11
123.9169781518
 21
115.4507345342
 31
0.0
  0
LINE
  5
3F1
330
1F
100
AcDbEntity
  8
0
  6
Continuous
 62
     7
370
    35
100
AcDbLine
 10
124.4920535698
 20
114.8945976233
 30
0.0
 11
123.9169781518
 21
115.4507345342
 31
0.0
  0
LINE
  5
3F2
330
1F
100
AcDbEntity
  8
0
  6
Continuous
 62
     7
370
    35
100
AcDbLine
 10
124.4920535698
 20
114.8945976233
 30
0.0
 11
124.7006049114
 21
115.1102509051
 31
0.0
  0
LINE
  5
3F3
330
1F
100
AcDbEntity
  8
0
  6
Continuous
 62
     7
370
    35
100
AcDbLine
 10
124.7006049114
 20
115.1102509051
 30
0.0
 11
124.1255294934
 21
115.6663878159
 31
0.0
  0
LINE
  5
3F4
330
1F
100
AcDbEntity
  8
0
  6
Continuous
 62
     7
370
    35
100
AcDbLine
 10
124.1255294934
 20
115.6663878159
 30
0.0
 11
124.6816664043
 21
116.2414632339
 31
0.0
  0
LINE
  5
3F5
330
1F
100
AcDbEntity
  8
0
  6
Continuous
 62
     7
370
    35
100
AcDbLine
 10
124.6816664043
 20
116.2414632339
 30
0.0
 11
124.4660131225
 21
116.4500145755
 31
0.0
  0
LINE
  5
3F6
330
1F
100
AcDbEntity
  8
0
  6
Continuous
 62
     7
370
    35
100
AcDbLine
 10
123.9098762117
 20
115.8749391575
 30
0.0
 11
124.4660131225
 21
116.4500145755
 31
0.0
  0
LINE
  5
3F7
330
1F
100
AcDbEntity
  8
0
  6
Continuous
 62
     7
370
    35
100
AcDbLine
 10
123.9098762117
 20
115.8749391575
 30
0.0
 11
123.3348007937
 21
116.4310760684
 31
0.0
  0
LINE
  5
3F8
330
1F
100
AcDbEntity
  8
0
  6
Continuous
 62
     7
370
    35
100
AcDbLine
 10
123.1262494521
 20
116.2154227867
 30
0.0
 11
123.3348007937
 21
116.4310760684
 31
0.0
  0
CIRCLE
  5
3F9
330
1F
100
AcDbEntity
  8
0
  6
Continuous
 62
     7
370
    35
100
AcDbCircle
 10
145.8337373985
 20
124.7425266291
 30
0.0
 40
1.450000000000028
  0
CIRCLE
  5
3FA
330
1F
100
AcDbEntity
  8
0
  6
Continuous
 62
     7
370
    35
100
AcDbCircle
 10
145.8337373985
 20
124.7425266291
 30
0.0
 40
1.149999999999997
  0
LINE
  5
3FB
330
1F
100
AcDbEntity
  8
0
  6
Continuous
 62
     7
370
    35
100
AcDbLine
 10
145.6862693307
 20
124.5900367312
 30
0.0
 11
144.886381422
 21
124.5766451844
 31
0.0
  0
LINE
  5
3FC
330
1F
100
AcDbEntity
  8
0
  6
Continuous
 62
     7
370
    35
100
AcDbLine
 10
145.6996608775
 20
123.7901488225
 30
0.0
 11
145.6862693307
 21
124.5900367312
 31
0.0
  0
LINE
  5
3FD
330
1F
100
AcDbEntity
  8
0
  6
Continuous
 62
     7
370
    35
100
AcDbLine
 10
145.9996188432
 20
123.7951706525
 30
0.0
 11
145.6996608775
 21
123.7901488225
 31
0.0
  0
LINE
  5
3FE
330
1F
100
AcDbEntity
  8
0
  6
Continuous
 62
     7
370
    35
100
AcDbLine
 10
145.9996188432
 20
123.7951706525
 30
0.0
 11
145.9862272964
 21
124.5950585612
 31
0.0
  0
LINE
  5
3FF
330
1F
100
AcDbEntity
  8
0
  6
Continuous
 62
     7
370
    35
100
AcDbLine
 10
146.7861152051
 20
124.608450108
 30
0.0
 11
145.9862272964
 21
124.5950585612
 31
0.0
  0
LINE
  5
400
330
1F
100
AcDbEntity
  8
0
  6
Continuous
 62
     7
370
    35
100
AcDbLine
 10
146.7861152051
 20
124.608450108
 30
0.0
 11
146.7810933751
 21
124.9084080738
 31
0.0
  0
LINE
  5
401
330
1F
100
AcDbEntity
  8
0
  6
Continuous
 62
     7
370
    35
100
AcDbLine
 10
146.7810933751
 20
124.9084080738
 30
0.0
 11
145.9812054664
 21
124.895016527
 31
0.0
  0
LINE
  5
402
330
1F
100
AcDbEntity
  8
0
  6
Continuous
 62
     7
370
    35
100
AcDbLine
 10
145.9812054664
 20
124.895016527
 30
0.0
 11
145.9678139196
 21
125.6949044357
 31
0.0
  0
LINE
  5
403
330
1F
100
AcDbEntity
  8
0
  6
Continuous
 62
     7
370
    35
100
AcDbLine
 10
145.6812475006
 20
124.8899946969
 30
0.0
 11
144.8813595919
 21
124.8766031502
 31
0.0
  0
LINE
  5
404
330
1F
100
AcDbEntity
  8
0
  6
Continuous
 62
     7
370
    35
100
AcDbLine
 10
144.886381422
 20
124.5766451844
 30
0.0
 11
144.8813595919
 21
124.8766031502
 31
0.0
  0
LINE
  5
405
330
1F
100
AcDbEntity
  8
0
  6
Continuous
 62
     7
370
    35
100
AcDbLine
 10
145.9678139196
 20
125.6949044357
 30
0.0
 11
145.6678559538
 21
125.6898826056
 31
0.0
  0
LINE
  5
406
330
1F
100
AcDbEntity
  8
0
  6
Continuous
 62
     7
370
    35
100
AcDbLine
 10
145.6812475006
 20
124.8899946969
 30
0.0
 11
145.6678559538
 21
125.6898826056
 31
0.0
  0
LINE
  5
407
330
1F
100
AcDbEntity
  8
0
  6
Continuous
 62
     7
370
    35
100
AcDbLine
 10
101.8406270671
 20
124.8899946969
 30
0.0
 11
101.8272355203
 21
125.6898826056
 31
0.0
  0
LINE
  5
408
330
1F
100
AcDbEntity
  8
0
  6
Continuous
 62
     7
370
    35
100
AcDbLine
 10
101.0407391584
 20
124.8766031502
 30
0.0
 11
101.8406270671
 21
124.8899946969
 31
0.0
  0
LINE
  5
409
330
1F
100
AcDbEntity
  8
0
  6
Continuous
 62
     7
370
    35
100
AcDbLine
 10
101.0457609884
 20
124.5766451844
 30
0.0
 11
101.0407391584
 21
124.8766031502
 31
0.0
  0
LINE
  5
40A
330
1F
100
AcDbEntity
  8
0
  6
Continuous
 62
     7
370
    35
100
AcDbLine
 10
101.0457609884
 20
124.5766451844
 30
0.0
 11
101.8456488971
 21
124.5900367312
 31
0.0
  0
LINE
  5
40B
330
1F
100
AcDbEntity
  8
0
  6
Continuous
 62
     7
370
    35
100
AcDbLine
 10
101.8590404439
 20
123.7901488225
 30
0.0
 11
101.8456488971
 21
124.5900367312
 31
0.0
  0
LINE
  5
40C
330
1F
100
AcDbEntity
  8
0
  6
Continuous
 62
     7
370
    35
100
AcDbLine
 10
101.8590404439
 20
123.7901488225
 30
0.0
 11
102.1589984096
 21
123.7951706525
 31
0.0
  0
LINE
  5
40D
330
1F
100
AcDbEntity
  8
0
  6
Continuous
 62
     7
370
    35
100
AcDbLine
 10
102.1589984096
 20
123.7951706525
 30
0.0
 11
102.1456068629
 21
124.5950585612
 31
0.0
  0
LINE
  5
40E
330
1F
100
AcDbEntity
  8
0
  6
Continuous
 62
     7
370
    35
100
AcDbLine
 10
102.1456068629
 20
124.5950585612
 30
0.0
 11
102.9454947716
 21
124.608450108
 31
0.0
  0
LINE
  5
40F
330
1F
100
AcDbEntity
  8
0
  6
Continuous
 62
     7
370
    35
100
AcDbLine
 10
102.9454947716
 20
124.608450108
 30
0.0
 11
102.9404729415
 21
124.9084080738
 31
0.0
  0
LINE
  5
410
330
1F
100
AcDbEntity
  8
0
  6
Continuous
 62
     7
370
    35
100
AcDbLine
 10
102.1405850328
 20
124.895016527
 30
0.0
 11
102.9404729415
 21
124.9084080738
 31
0.0
  0
LINE
  5
411
330
1F
100
AcDbEntity
  8
0
  6
Continuous
 62
     7
370
    35
100
AcDbLine
 10
102.1405850328
 20
124.895016527
 30
0.0
 11
102.127193486
 21
125.6949044357
 31
0.0
  0
LINE
  5
412
330
1F
100
AcDbEntity
  8
0
  6
Continuous
 62
     7
370
    35
100
AcDbLine
 10
101.8272355203
 20
125.6898826056
 30
0.0
 11
102.127193486
 21
125.6949044357
 31
0.0
  0
CIRCLE
  5
413
330
1F
100
AcDbEntity
  8
0
  6
Continuous
 62
     7
370
    35
100
AcDbCircle
 10
101.993116965
 20
124.7425266291
 30
0.0
 40
1.149999999999997
  0
CIRCLE
  5
414
330
1F
100
AcDbEntity
  8
0
  6
Continuous
 62
     7
370
    35
100
AcDbCircle
 10
101.993116965
 20
124.7425266291
 30
0.0
 40
1.449999999999986
  0
CIRCLE
  5
415
330
1F
100
AcDbEntity
  8
0
  6
Continuous
 62
     7
370
    35
100
AcDbCircle
 10
154.9134271817
 20
146.6628368459
 30
0.0
 40
1.449999999999989
  0
CIRCLE
  5
416
330
1F
100
AcDbEntity
  8
0
  6
Continuous
 62
     7
370
    35
100
AcDbCircle
 10
154.9134271817
 20
146.6628368459
 30
0.0
 40
1.149999999999994
  0
LINE
  5
417
330
1F
100
AcDbEntity
  8
0
  6
Continuous
 62
     7
370
    35
100
AcDbLine
 10
154.9169781518
 20
146.4507345342
 30
0.0
 11
154.3608412409
 21
145.8756591162
 31
0.0
  0
LINE
  5
418
330
1F
100
AcDbEntity
  8
0
  6
Continuous
 62
     7
370
    35
100
AcDbLine
 10
155.4920535698
 20
145.8945976233
 30
0.0
 11
154.9169781518
 21
146.4507345342
 31
0.0
  0
LINE
  5
419
330
1F
100
AcDbEntity
  8
0
  6
Continuous
 62
     7
370
    35
100
AcDbLine
 10
155.7006049114
 20
146.1102509051
 30
0.0
 11
155.4920535698
 21
145.8945976233
 31
0.0
  0
LINE
  5
41A
330
1F
100
AcDbEntity
  8
0
  6
Continuous
 62
     7
370
    35
100
AcDbLine
 10
155.7006049114
 20
146.1102509051
 30
0.0
 11
155.1255294934
 21
146.6663878159
 31
0.0
  0
LINE
  5
41B
330
1F
100
AcDbEntity
  8
0
  6
Continuous
 62
     7
370
    35
100
AcDbLine
 10
155.6816664043
 20
147.2414632339
 30
0.0
 11
155.1255294934
 21
146.6663878159
 31
0.0
  0
LINE
  5
41C
330
1F
100
AcDbEntity
  8
0
  6
Continuous
 62
     7
370
    35
100
AcDbLine
 10
155.6816664043
 20
147.2414632339
 30
0.0
 11
155.4660131225
 21
147.4500145755
 31
0.0
  0
LINE
  5
41D
330
1F
100
AcDbEntity
  8
0
  6
Continuous
 62
     7
370
    35
100
AcDbLine
 10
155.4660131225
 20
147.4500145755
 30
0.0
 11
154.9098762117
 21
146.8749391575
 31
0.0
  0
LINE
  5
41E
330
1F
100
AcDbEntity
  8
0
  6
Continuous
 62
     7
370
    35
100
AcDbLine
 10
154.9098762117
 20
146.8749391575
 30
0.0
 11
154.3348007937
 21
147.4310760684
 31
0.0
  0
LINE
  5
41F
330
1F
100
AcDbEntity
  8
0
  6
Continuous
 62
     7
370
    35
100
AcDbLine
 10
154.3348007937
 20
147.4310760684
 30
0.0
 11
154.1262494521
 21
147.2154227867
 31
0.0
  0
LINE
  5
420
330
1F
100
AcDbEntity
  8
0
  6
Continuous
 62
     7
370
    35
100
AcDbLine
 10
154.7013248701
 20
146.6592858758
 30
0.0
 11
154.1262494521
 21
147.2154227867
 31
0.0
  0
LINE
  5
421
330
1F
100
AcDbEntity
  8
0
  6
Continuous
 62
     7
370
    35
100
AcDbLine
 10
154.7013248701
 20
146.6592858758
 30
0.0
 11
154.1451879592
 21
146.0842104578
 31
0.0
  0
LINE
  5
422
330
1F
100
AcDbEntity
  8
0
  6
Continuous
 62
     7
370
    35
100
AcDbLine
 10
154.3608412409
 20
145.8756591162
 30
0.0
 11
154.1451879592
 21
146.0842104578
 31
0.0
  0
ARC
  5
423
330
1F
100
AcDbEntity
  8
0
  6
Continuous
 62
     7
370
    35
100
AcDbCircle
 10
140.9134271817
 20
146.6628368459
 30
0.0
 40
9.000000000000004
100
AcDbArc
 50
33.7489885959
 51
77.1585529396
  0
ARC
  5
424
330
1F
100
AcDbEntity
  8
0
  6
Continuous
 62
     7
370
    35
100
AcDbCircle
 10
140.9134271817
 20
146.6628368459
 30
0.0
 40
8.999999999999998
100
AcDbArc
 50
282.8414470604
 51
326.2510114041
  0
LINE
  5
425
330
1F
100
AcDbEntity
  8
0
  6
Continuous
 62
     7
370
    35
100
AcDbLine
 10
148.3967419553
 20
151.6628368459
 30
0.0
 11
148.6530815233
 21
151.6628368459
 31
0.0
  0
LINE
  5
426
330
1F
100
AcDbEntity
  8
0
  6
Continuous
 62
     7
370
    35
100
AcDbLine
 10
148.3967419553
 20
141.6628368459
 30
0.0
 11
148.6530815233
 21
141.6628368459
 31
0.0
  0
CIRCLE
  5
427
330
1F
100
AcDbEntity
  8
0
  6
Continuous
 62
     7
370
    35
100
AcDbCircle
 10
123.9134271817
 20
146.6628368459
 30
0.0
 40
7.064285714285725
  0
CIRCLE
  5
428
330
1F
100
AcDbEntity
  8
0
  6
Continuous
 62
     7
370
    35
100
AcDbCircle
 10
123.9134271817
 20
146.6628368459
 30
0.0
 40
10.00000000000001
  0
CIRCLE
  5
429
330
1F
100
AcDbEntity
  8
0
  6
Continuous
 62
     7
370
    35
100
AcDbCircle
 10
123.9134271817
 20
146.6628368459
 30
0.0
 40
10.5
  0
CIRCLE
  5
42A
330
1F
100
AcDbEntity
  8
0
  6
Continuous
 62
     7
370
    35
100
AcDbCircle
 10
123.9134271817
 20
146.6628368459
 30
0.0
 40
34.5
  0
CIRCLE
  5
42B
330
1F
100
AcDbEntity
  8
0
  6
Continuous
 62
     7
370
    35
100
AcDbCircle
 10
123.9134271817
 20
146.6628368459
 30
0.0
 40
33.25
  0
LWPOLYLINE
  5
42C
330
1F
100
AcDbEntity
  8
0
  6
Continuous
 62
     7
370
    35
100
AcDbPolyline
 90
       58
 70
   128
 43
0.0
 10
151.1875022114
 20
146.6628368459
 10
151.1535629897
 20
147.7629190558
 10
151.0521573007
 20
148.8496477579
 10
150.8845160721
 20
149.9098315379
 10
150.6526742414
 20
150.9306012008
 10
150.3594460542
 20
151.8995659857
 10
150.0083909037
 20
152.8049639728
 10
149.6037701237
 20
153.6358048568
 10
149.1504952624
 20
154.382003355
 10
148.6540684626
 20
155.0345016285
 10
148.1205156732
 20
155.5853792321
 10
147.5563135023
 20
156.0279492578
 10
146.9683105999
 20
156.3568395053
 10
146.3636445247
 20
156.5680576922
 10
145.7496551039
 20
156.6590399161
 10
145.1337953371
 20
156.6286817759
 10
144.5235409278
 20
156.4773517784
 10
143.9262995378
 20
156.2068868647
 10
143.3493208685
 20
155.8205701124
 10
142.7996086594
 20
155.3230908837
 10
142.283835672
 20
154.7204879025
 10
141.8082626917
 20
154.0200759526
 10
141.3786625303
 20
153.2303570863
 10
141.0002499517
 20
152.360917421
 10
140.6776183721
 20
151.4223107762
 10
140.4146841018
 20
150.4259305653
 10
140.2146388066
 20
149.3838714943
 10
140.0799107655
 20
148.3087827487
 10
140.0121353944
 20
147.2137144494
 10
140.0121353944
 20
146.1119592423
 10
140.0799107655
 20
145.0168909431
 10
140.2146388066
 20
143.9418021974
 10
140.4146841018
 20
142.8997431264
 10
140.6776183721
 20
141.9033629155
 10
141.0002499517
 20
140.9647562708
 10
141.3786625303
 20
140.0953166054
 10
141.8082626917
 20
139.3055977391
 10
142.283835672
 20
138.6051857893
 10
142.7996086594
 20
138.002582808
 10
143.3493208685
 20
137.5051035793
 10
143.9262995378
 20
137.1187868271
 10
144.5235409278
 20
136.8483219133
 10
145.1337953371
 20
136.6969919158
 10
145.7496551039
 20
136.6666337756
 10
146.3636445247
 20
136.7576159995
 10
146.9683105999
 20
136.9688341865
 10
147.5563135023
 20
137.2977244339
 10
148.1205156732
 20
137.7402944597
 10
148.6540684626
 20
138.2911720632
 10
149.1504952624
 20
138.9436703367
 10
149.6037701237
 20
139.6898688349
 10
150.0083909037
 20
140.520709719
 10
150.3594460542
 20
141.426107706
 10
150.6526742414
 20
142.3950724909
 10
150.8845160721
 20
143.4158421538
 10
151.0521573007
 20
144.4760259338
 10
151.1535629897
 20
145.5627546359
 10
151.1875022114
 20
146.6628368459
  0
CIRCLE
  5
42D
330
1F
100
AcDbEntity
  8
0
  6
Continuous
 62
     7
370
    35
100
AcDbCircle
 10
123.9134271817
 20
146.6628368459
 30
0.0
 40
27.95979256003162
  0
LWPOLYLINE
  5
42E
330
1F
100
AcDbEntity
  8
0
  6
Continuous
 62
     7
370
    35
100
AcDbPolyline
 90
       14
 70
   128
 43
0.0
 10
149.4022579578
 20
146.6628368459
 10
149.368318736
 20
147.7629190558
 10
149.266913047
 20
148.8496477579
 10
149.0992718185
 20
149.9098315379
 10
148.8674299877
 20
150.9306012008
 10
148.5742018006
 20
151.8995659857
 10
148.22314665
 20
152.8049639728
 10
147.81852587
 20
153.6358048568
 10
147.3652510087
 20
154.382003355
 10
146.8688242089
 20
155.0345016285
 10
146.3352714195
 20
155.5853792321
 10
145.7710692486
 20
156.0279492578
 10
145.1830663462
 20
156.3568395053
 10
144.7029510499
 20
156.5346110658
  0
LWPOLYLINE
  5
42F
330
1F
100
AcDbEntity
  8
0
  6
Continuous
 62
     7
370
    35
100
AcDbPolyline
 90
       14
 70
   128
 43
0.0
 10
144.7029510499
 20
136.7910626259
 10
145.1830663462
 20
136.9688341865
 10
145.7710692486
 20
137.2977244339
 10
146.3352714195
 20
137.7402944597
 10
146.8688242089
 20
138.2911720632
 10
147.3652510087
 20
138.9436703367
 10
147.81852587
 20
139.6898688349
 10
148.22314665
 20
140.520709719
 10
148.5742018006
 20
141.426107706
 10
148.8674299877
 20
142.3950724909
 10
149.0992718185
 20
143.4158421538
 10
149.266913047
 20
144.4760259338
 10
149.368318736
 20
145.5627546359
 10
149.4022579578
 20
146.6628368459
  0
CIRCLE
  5
430
330
1F
100
AcDbEntity
  8
0
  6
Continuous
 62
     7
370
    35
100
AcDbCircle
 10
123.9134271817
 20
146.6628368459
 30
0.0
 40
33.0
  0
ARC
  5
431
330
1F
100
AcDbEntity
  8
0
  6
HIDDEN
 62
     7
370
    25
100
AcDbCircle
 10
140.9134271817
 20
146.6628368459
 30
0.0
 40
9.000000000000004
100
AcDbArc
 50
77.1585529396
 51
282.8414470604
  0
LINE
  5
432
330
1F
100
AcDbEntity
  8
0
  6
HIDDEN
 62
     7
370
    25
100
AcDbLine
 10
148.6530815233
 20
151.6628368459
 30
0.0
 11
149.4281288261
 21
151.6628368459
 31
0.0
  0
ARC
  5
433
330
1F
100
AcDbEntity
  8
0
  6
HIDDEN
 62
     7
370
    25
100
AcDbCircle
 10
123.9134271817
 20
146.6628368459
 30
0.0
 40
26.00000000000002
100
AcDbArc
 50
11.087489211
 51
348.912510789
  0
LINE
  5
434
330
1F
100
AcDbEntity
  8
0
  6
HIDDEN
 62
     7
370
    25
100
AcDbLine
 10
148.6530815233
 20
141.6628368459
 30
0.0
 11
149.4281288261
 21
141.6628368459
 31
0.0
  0
CIRCLE
  5
435
330
1F
100
AcDbEntity
  8
0
  6
HIDDEN
 62
     7
370
    25
100
AcDbCircle
 10
123.9134271817
 20
115.6628368459
 30
0.0
 40
1.250000000000014
  0
CIRCLE
  5
436
330
1F
100
AcDbEntity
  8
0
  6
HIDDEN
 62
     7
370
    25
100
AcDbCircle
 10
101.993116965
 20
124.7425266291
 30
0.0
 40
1.25
  0
CIRCLE
  5
437
330
1F
100
AcDbEntity
  8
0
  6
HIDDEN
 62
     7
370
    25
100
AcDbCircle
 10
92.9134271817
 20
146.6628368459
 30
0.0
 40
1.25
  0
CIRCLE
  5
438
330
1F
100
AcDbEntity
  8
0
  6
HIDDEN
 62
     7
370
    25
100
AcDbCircle
 10
101.993116965
 20
168.5831470627
 30
0.0
 40
1.25
  0
CIRCLE
  5
439
330
1F
100
AcDbEntity
  8
0
  6
HIDDEN
 62
     7
370
    25
100
AcDbCircle
 10
123.9134271817
 20
177.6628368459
 30
0.0
 40
1.25
  0
CIRCLE
  5
43A
330
1F
100
AcDbEntity
  8
0
  6
HIDDEN
 62
     7
370
    25
100
AcDbCircle
 10
145.8337373985
 20
168.5831470627
 30
0.0
 40
1.25
  0
CIRCLE
  5
43B
330
1F
100
AcDbEntity
  8
0
  6
HIDDEN
 62
     7
370
    25
100
AcDbCircle
 10
154.9134271817
 20
146.6628368459
 30
0.0
 40
1.25
  0
CIRCLE
  5
43C
330
1F
100
AcDbEntity
  8
0
  6
HIDDEN
 62
     7
370
    25
100
AcDbCircle
 10
145.8337373985
 20
124.7425266291
 30
0.0
 40
1.25
  0
CIRCLE
  5
43D
330
1F
100
AcDbEntity
  8
0
  6
HIDDEN
 62
     7
370
    25
100
AcDbCircle
 10
123.9134271817
 20
146.6628368459
 30
0.0
 40
33.0
  0
CIRCLE
  5
43E
330
1F
100
AcDbEntity
  8
0
  6
HIDDEN
 62
     7
370
    25
100
AcDbCircle
 10
123.9134271817
 20
115.6628368459
 30
0.0
 40
1.250000000000014
  0
CIRCLE
  5
43F
330
1F
100
AcDbEntity
  8
0
  6
HIDDEN
 62
     7
370
    25
100
AcDbCircle
 10
101.993116965
 20
124.7425266291
 30
0.0
 40
1.25
  0
CIRCLE
  5
440
330
1F
100
AcDbEntity
  8
0
  6
HIDDEN
 62
     7
370
    25
100
AcDbCircle
 10
145.8337373985
 20
124.7425266291
 30
0.0
 40
1.25
  0
LINE
  5
441
330
1F
100
AcDbEntity
  8
0
  6
HIDDEN
 62
     7
370
    25
100
AcDbLine
 10
149.4281288261
 20
141.6628368459
 30
0.0
 11
148.3967419553
 21
141.6628368459
 31
0.0
  0
CIRCLE
  5
442
330
1F
100
AcDbEntity
  8
0
  6
HIDDEN
 62
     7
370
    25
100
AcDbCircle
 10
92.9134271817
 20
146.6628368459
 30
0.0
 40
1.25
  0
CIRCLE
  5
443
330
1F
100
AcDbEntity
  8
0
  6
HIDDEN
 62
     7
370
    25
100
AcDbCircle
 10
154.9134271817
 20
146.6628368459
 30
0.0
 40
1.25
  0
LINE
  5
444
330
1F
100
AcDbEntity
  8
0
  6
HIDDEN
 62
     7
370
    25
100
AcDbLine
 10
149.4281288261
 20
151.6628368459
 30
0.0
 11
148.3967419553
 21
151.6628368459
 31
0.0
  0
ARC
  5
445
330
1F
100
AcDbEntity
  8
0
  6
HIDDEN
 62
     7
370
    25
100
AcDbCircle
 10
140.9134271817
 20
146.6628368459
 30
0.0
 40
9.000000000000002
100
AcDbArc
 50
33.7489885959
 51
326.2510114041
  0
CIRCLE
  5
446
330
1F
100
AcDbEntity
  8
0
  6
HIDDEN
 62
     7
370
    25
100
AcDbCircle
 10
145.8337373985
 20
168.5831470627
 30
0.0
 40
1.25
  0
CIRCLE
  5
447
330
1F
100
AcDbEntity
  8
0
  6
HIDDEN
 62
     7
370
    25
100
AcDbCircle
 10
101.993116965
 20
168.5831470627
 30
0.0
 40
1.25
  0
ARC
  5
448
330
1F
100
AcDbEntity
  8
0
  6
HIDDEN
 62
     7
370
    25
100
AcDbCircle
 10
123.9134271817
 20
146.6628368459
 30
0.0
 40
26.00000000000002
100
AcDbArc
 50
11.087489211
 51
348.912510789
  0
CIRCLE
  5
449
330
1F
100
AcDbEntity
  8
0
  6
HIDDEN
 62
     7
370
    25
100
AcDbCircle
 10
123.9134271817
 20
177.6628368459
 30
0.0
 40
1.25
  0
CIRCLE
  5
44A
330
1F
100
AcDbEntity
  8
0
  6
HIDDEN
 62
     7
370
    25
100
AcDbCircle
 10
123.9134271817
 20
146.6628368459
 30
0.0
 40
33.0
  0
DIMENSION
  5
44B
330
1F
100
AcDbEntity
  8
DIM
100
AcDbDimension
  2
_D_10
 10
140.9134271817
 20
184.2734104159
 30
0.0
 11
132.4134271817
 21
184.2734104159
 31
0.0
 70
   160
  1
<>
 71
     2
 42
-1.0
  3
SLDDIMSTYLE1
100
AcDbAlignedDimension
 13
123.9134271817
 23
158.1628368459
 33
0.0
 14
140.9134271817
 24
156.6628368459
 34
0.0
100
AcDbRotatedDimension
  0
DIMENSION
  5
455
330
1F
100
AcDbEntity
  8
DIM
100
AcDbDimension
  2
_D_11
 10
136.2901165337
 20
154.3845593643
 30
0.0
 11
167.2892098754
 21
118.5251848467
 31
0.0
 70
   163
  1
<> Baffle
 71
     1
 42
-1.0
  3
SLDDIMSTYLE3
100
AcDbDiametricDimension
 15
145.5367378298
 25
138.9411143274
 35
0.0
 40
0.0
  0
INSERT
  5
46B
330
1F
100
AcDbEntity
  8
DIM
100
AcDbBlockReference
  2
SW_CENTERMARKSYMBOL_0
 10
123.9134271817
 20
146.6628368459
 30
0.0
  0
INSERT
  5
477
330
1F
100
AcDbEntity
  8
DIM
100
AcDbBlockReference
  2
SW_CENTERMARKSYMBOL_1
 10
140.9134271817
 20
146.6628368459
 30
0.0
  0
ENDSEC
  0
SECTION
  2
OBJECTS
  0
DICTIONARY
  5
C
330
0
100
AcDbDictionary
281
     1
  3
ACAD_GROUP
350
D
  3
ACAD_LAYOUT
350
1A
  3
ACAD_MLINESTYLE
350
17
  3
ACAD_PLOTSETTINGS
350
19
  3
ACAD_PLOTSTYLENAME
350
E
  3
ACAD_SCALELIST
350
47
  3
DWGPROPS
350
478
  0
DICTIONARY
  5
D
102
{ACAD_REACTORS
330
C
102
}
330
C
100
AcDbDictionary
281
     1
  0
DICTIONARY
  5
1A
102
{ACAD_REACTORS
330
C
102
}
330
C
100
AcDbDictionary
281
     1
  3
Layout1
350
1E
  3
Layout2
350
26
  3
Model
350
22
  0
DICTIONARY
  5
17
102
{ACAD_REACTORS
330
C
102
}
330
C
100
AcDbDictionary
281
     1
  3
Standard
350
18
  0
DICTIONARY
  5
19
102
{ACAD_REACTORS
330
C
102
}
330
C
100
AcDbDictionary
281
     1
  0
ACDBDICTIONARYWDFLT
  5
E
102
{ACAD_REACTORS
330
C
102
}
330
C
100
AcDbDictionary
281
     1
  3
Normal
350
F
100
AcDbDictionaryWithDefault
340
F
  0
DICTIONARY
  5
47
102
{ACAD_REACTORS
330
C
102
}
330
C
100
AcDbDictionary
281
     1
  3
A0
350
48
  3
A1
350
49
  3
A2
350
4A
  3
A3
350
4B
  3
A4
350
4C
  3
A5
350
4D
  3
A6
350
4E
  3
A7
350
4F
  3
A8
350
50
  3
A9
350
51
  3
B0
350
52
  3
B1
350
53
  3
B2
350
54
  3
B3
350
55
  3
B4
350
56
  3
B5
350
57
  3
B6
350
58
  3
B7
350
59
  3
B8
350
5A
  3
B9
350
5B
  3
C0
350
5C
  3
C1
350
5D
  3
C2
350
5E
  3
C3
350
5F
  3
C4
350
60
  3
C5
350
61
  3
C6
350
62
  3
C7
350
63
  3
C8
350
64
  3
C9
350
65
  3
D0
350
66
  3
D1
350
67
  3
D2
350
68
  0
XRECORD
  5
478
102
{ACAD_REACTORS
330
C
102
}
330
C
100
AcDbXrecord
280
     1
  1
DWGPROPS COOKIE
  2

  3

  4

  6

  7

  8
R2591
  9

300
=
301
=
302
=
303
=
304
=
305
=
306
=
307
=
308
=
309
=
 40
0.0
 41
2459212.268592431
 42
2459212.268595197
  1

 90
        0
  0
LAYOUT
  5
1E
102
{ACAD_REACTORS
330
1A
102
}
330
1A
100
AcDbPlotSettings
  1

  2
none_device
  4

  6

 40
0.0
 41
0.0
 42
0.0
 43
0.0
 44
0.0
 45
0.0
 46
0.0
 47
0.0
 48
0.0
 49
0.0
140
0.0
141
0.0
142
1.0
143
1.0
 70
   688
 72
     1
 73
     0
 74
     5
  7

 75
    16
147
1.0
148
0.0
149
0.0
100
AcDbLayout
  1
Layout1
 70
     1
 71
     1
 10
0.0
 20
0.0
 11
420.0
 21
297.0
 12
0.0
 22
0.0
 32
0.0
 14
1.0000000000E+20
 24
1.0000000000E+20
 34
1.0000000000E+20
 15
-1.0000000000E+20
 25
-1.0000000000E+20
 35
-1.0000000000E+20
146
0.0
 13
0.0
 23
0.0
 33
0.0
 16
1.0
 26
0.0
 36
0.0
 17
0.0
 27
1.0
 37
0.0
 76
     0
330
1B
  0
LAYOUT
  5
26
102
{ACAD_REACTORS
330
1A
102
}
330
1A
100
AcDbPlotSettings
  1

  2
none_device
  4

  6

 40
0.0
 41
0.0
 42
0.0
 43
0.0
 44
0.0
 45
0.0
 46
0.0
 47
0.0
 48
0.0
 49
0.0
140
0.0
141
0.0
142
1.0
143
1.0
 70
   688
 72
     1
 73
     0
 74
     5
  7

 75
    16
147
1.0
148
0.0
149
0.0
100
AcDbLayout
  1
Layout2
 70
     1
 71
     2
 10
0.0
 20
0.0
 11
0.0
 21
0.0
 12
0.0
 22
0.0
 32
0.0
 14
0.0
 24
0.0
 34
0.0
 15
0.0
 25
0.0
 35
0.0
146
0.0
 13
0.0
 23
0.0
 33
0.0
 16
1.0
 26
0.0
 36
0.0
 17
0.0
 27
1.0
 37
0.0
 76
     0
330
23
  0
LAYOUT
  5
22
102
{ACAD_REACTORS
330
1A
102
}
330
1A
100
AcDbPlotSettings
  1

  2
none_device
  4
Letter_(8.50_x_11.00_Inches)
  6

 40
6.35
 41
6.35
 42
6.35000508
 43
6.35000508
 44
215.9
 45
279.4
 46
0.0
 47
0.0
 48
0.0
 49
0.0
140
0.0
141
0.0
142
1.0
143
1.0
 70
  1712
 72
     1
 73
     0
 74
     0
  7

 75
     0
147
1.0
148
0.0
149
0.0
100
AcDbLayout
  1
Model
 70
     1
 71
     0
 10
0.0
 20
0.0
 11
297.0
 21
210.0
 12
0.0
 22
0.0
 32
0.0
 14
0.0
 24
0.0
 34
0.0
 15
297.0
 25
210.0
 35
0.0
146
0.0
 13
0.0
 23
0.0
 33
0.0
 16
1.0
 26
0.0
 36
0.0
 17
0.0
 27
1.0
 37
0.0
 76
     0
330
1F
331
29
  0
MLINESTYLE
  5
18
102
{ACAD_REACTORS
330
17
102
}
330
17
100
AcDbMlineStyle
  2
Standard
 70
     0
  3

 62
   256
 51
90.0
 52
90.0
 71
     2
 49
0.5
 62
   256
  6
BYLAYER
 49
-0.5
 62
   256
  6
BYLAYER
  0
ACDBPLACEHOLDER
  5
F
102
{ACAD_REACTORS
330
E
102
}
330
E
  0
SCALE
  5
48
102
{ACAD_REACTORS
330
47
102
}
330
47
100
AcDbScale
 70
     0
300
1:1
140
1.0
141
1.0
290
     1
  0
SCALE
  5
49
102
{ACAD_REACTORS
330
47
102
}
330
47
100
AcDbScale
 70
     0
300
1:2
140
1.0
141
2.0
290
     0
  0
SCALE
  5
4A
102
{ACAD_REACTORS
330
47
102
}
330
47
100
AcDbScale
 70
     0
300
1:4
140
1.0
141
4.0
290
     0
  0
SCALE
  5
4B
102
{ACAD_REACTORS
330
47
102
}
330
47
100
AcDbScale
 70
     0
300
1:5
140
1.0
141
5.0
290
     0
  0
SCALE
  5
4C
102
{ACAD_REACTORS
330
47
102
}
330
47
100
AcDbScale
 70
     0
300
1:8
140
1.0
141
8.0
290
     0
  0
SCALE
  5
4D
102
{ACAD_REACTORS
330
47
102
}
330
47
100
AcDbScale
 70
     0
300
1:10
140
1.0
141
10.0
290
     0
  0
SCALE
  5
4E
102
{ACAD_REACTORS
330
47
102
}
330
47
100
AcDbScale
 70
     0
300
1:16
140
1.0
141
16.0
290
     0
  0
SCALE
  5
4F
102
{ACAD_REACTORS
330
47
102
}
330
47
100
AcDbScale
 70
     0
300
1:20
140
1.0
141
20.0
290
     0
  0
SCALE
  5
50
102
{ACAD_REACTORS
330
47
102
}
330
47
100
AcDbScale
 70
     0
300
1:30
140
1.0
141
30.0
290
     0
  0
SCALE
  5
51
102
{ACAD_REACTORS
330
47
102
}
330
47
100
AcDbScale
 70
     0
300
1:40
140
1.0
141
40.0
290
     0
  0
SCALE
  5
52
102
{ACAD_REACTORS
330
47
102
}
330
47
100
AcDbScale
 70
     0
300
1:50
140
1.0
141
50.0
290
     0
  0
SCALE
  5
53
102
{ACAD_REACTORS
330
47
102
}
330
47
100
AcDbScale
 70
     0
300
1:100
140
1.0
141
100.0
290
     0
  0
SCALE
  5
54
102
{ACAD_REACTORS
330
47
102
}
330
47
100
AcDbScale
 70
     0
300
2:1
140
2.0
141
1.0
290
     0
  0
SCALE
  5
55
102
{ACAD_REACTORS
330
47
102
}
330
47
100
AcDbScale
 70
     0
300
4:1
140
4.0
141
1.0
290
     0
  0
SCALE
  5
56
102
{ACAD_REACTORS
330
47
102
}
330
47
100
AcDbScale
 70
     0
300
8:1
140
8.0
141
1.0
290
     0
  0
SCALE
  5
57
102
{ACAD_REACTORS
330
47
102
}
330
47
100
AcDbScale
 70
     0
300
10:1
140
10.0
141
1.0
290
     0
  0
SCALE
  5
58
102
{ACAD_REACTORS
330
47
102
}
330
47
100
AcDbScale
 70
     0
300
100:1
140
100.0
141
1.0
290
     0
  0
SCALE
  5
59
102
{ACAD_REACTORS
330
47
102
}
330
47
100
AcDbScale
 70
     0
300
1/128" = 1'-0"
140
0.0078125
141
12.0
290
     0
  0
SCALE
  5
5A
102
{ACAD_REACTORS
330
47
102
}
330
47
100
AcDbScale
 70
     0
300
1/64" = 1'-0"
140
0.015625
141
12.0
290
     0
  0
SCALE
  5
5B
102
{ACAD_REACTORS
330
47
102
}
330
47
100
AcDbScale
 70
     0
300
1/32" = 1'-0"
140
0.03125
141
12.0
290
     0
  0
SCALE
  5
5C
102
{ACAD_REACTORS
330
47
102
}
330
47
100
AcDbScale
 70
     0
300
1/16" = 1'-0"
140
0.0625
141
12.0
290
     0
  0
SCALE
  5
5D
102
{ACAD_REACTORS
330
47
102
}
330
47
100
AcDbScale
 70
     0
300
3/32" = 1'-0"
140
0.09375
141
12.0
290
     0
  0
SCALE
  5
5E
102
{ACAD_REACTORS
330
47
102
}
330
47
100
AcDbScale
 70
     0
300
1/8" = 1'-0"
140
0.125
141
12.0
290
     0
  0
SCALE
  5
5F
102
{ACAD_REACTORS
330
47
102
}
330
47
100
AcDbScale
 70
     0
300
3/16" = 1'-0"
140
0.1875
141
12.0
290
     0
  0
SCALE
  5
60
102
{ACAD_REACTORS
330
47
102
}
330
47
100
AcDbScale
 70
     0
300
1/4" = 1'-0"
140
0.25
141
12.0
290
     0
  0
SCALE
  5
61
102
{ACAD_REACTORS
330
47
102
}
330
47
100
AcDbScale
 70
     0
300
3/8" = 1'-0"
140
0.375
141
12.0
290
     0
  0
SCALE
  5
62
102
{ACAD_REACTORS
330
47
102
}
330
47
100
AcDbScale
 70
     0
300
1/2" = 1'-0"
140
0.5
141
12.0
290
     0
  0
SCALE
  5
63
102
{ACAD_REACTORS
330
47
102
}
330
47
100
AcDbScale
 70
     0
300
3/4" = 1'-0"
140
0.75
141
12.0
290
     0
  0
SCALE
  5
64
102
{ACAD_REACTORS
330
47
102
}
330
47
100
AcDbScale
 70
     0
300
1" = 1'-0"
140
1.0
141
12.0
290
     0
  0
SCALE
  5
65
102
{ACAD_REACTORS
330
47
102
}
330
47
100
AcDbScale
 70
     0
300
1-1/2" = 1'-0"
140
1.5
141
12.0
290
     0
  0
SCALE
  5
66
102
{ACAD_REACTORS
330
47
102
}
330
47
100
AcDbScale
 70
     0
300
3" = 1'-0"
140
3.0
141
12.0
290
     0
  0
SCALE
  5
67
102
{ACAD_REACTORS
330
47
102
}
330
47
100
AcDbScale
 70
     0
300
6" = 1'-0"
140
6.0
141
12.0
290
     0
  0
SCALE
  5
68
102
{ACAD_REACTORS
330
47
102
}
330
47
100
AcDbScale
 70
     0
300
1'-0" = 1'-0"
140
12.0
141
12.0
290
     0
  0
ENDSEC
  0
EOF
