  0
SECTION
  2
HEADER
  9
$ACADVER
  1
AC1015
  9
$ACADMAINTVER
 70
     6
  9
$DWGCODEPAGE
  3
ANSI_950
  9
$INSBASE
 10
0.0
 20
0.0
 30
0.0
  9
$EXTMIN
 10
0.0
 20
0.0
 30
0.0
  9
$EXTMAX
 10
445.5
 20
315.0
 30
0.0
  9
$LIMMIN
 10
0.0
 20
0.0
  9
$LIMMAX
 10
445.5
 20
315.0
  9
$ORTHOMODE
 70
     0
  9
$REGENMODE
 70
     1
  9
$FILLMODE
 70
     1
  9
$QTEXTMODE
 70
     0
  9
$MIRRTEXT
 70
     1
  9
$LTSCALE
 40
1.5
  9
$ATTMODE
 70
     1
  9
$TEXTSIZE
 40
4.7625
  9
$TRACEWID
 40
1.0
  9
$TEXTSTYLE
  7
Standard
  9
$CLAYER
  8
0
  9
$CELTYPE
  6
ByLayer
  9
$CECOLOR
 62
   256
  9
$CELTSCALE
 40
1.0
  9
$DISPSILH
 70
     0
  9
$DIMSCALE
 40
1.0
  9
$DIMASZ
 40
3.0
  9
$DIMEXO
 40
1.5
  9
$DIMDLI
 40
3.75
  9
$DIMRND
 40
0.0
  9
$DIMDLE
 40
0.0
  9
$DIMEXE
 40
1.5
  9
$DIMTP
 40
0.0
  9
$DIMTM
 40
0.0
  9
$DIMTXT
 40
4.7625
  9
$DIMCEN
 40
2.5
  9
$DIMTSZ
 40
0.0
  9
$DIMTOL
 70
     0
  9
$DIMLIM
 70
     0
  9
$DIMTIH
 70
     1
  9
$DIMTOH
 70
     1
  9
$DIMSE1
 70
     0
  9
$DIMSE2
 70
     0
  9
$DIMTAD
 70
     1
  9
$DIMZIN
 70
     0
  9
$DIMBLK
  1

  9
$DIMASO
 70
     1
  9
$DIMSHO
 70
     1
  9
$DIMPOST
  1

  9
$DIMAPOST
  1

  9
$DIMALT
 70
     0
  9
$DIMALTD
 70
     3
  9
$DIMALTF
 40
0.0393700787
  9
$DIMLFAC
 40
1.0
  9
$DIMTOFL
 70
     1
  9
$DIMTVP
 40
0.0
  9
$DIMTIX
 70
     0
  9
$DIMSOXD
 70
     0
  9
$DIMSAH
 70
     0
  9
$DIMBLK1
  1

  9
$DIMBLK2
  1

  9
$DIMSTYLE
  2
ISO-25
  9
$DIMCLRD
 70
     0
  9
$DIMCLRE
 70
     0
  9
$DIMCLRT
 70
     0
  9
$DIMTFAC
 40
1.0
  9
$DIMGAP
 40
1.5
  9
$DIMJUST
 70
     0
  9
$DIMSD1
 70
     0
  9
$DIMSD2
 70
     0
  9
$DIMTOLJ
 70
     0
  9
$DIMTZIN
 70
     0
  9
$DIMALTZ
 70
     0
  9
$DIMALTTZ
 70
     0
  9
$DIMUPT
 70
     0
  9
$DIMDEC
 70
     2
  9
$DIMTDEC
 70
     2
  9
$DIMALTU
 70
     2
  9
$DIMALTTD
 70
     3
  9
$DIMTXSTY
  7
Standard
  9
$DIMAUNIT
 70
     0
  9
$DIMADEC
 70
     2
  9
$DIMALTRND
 40
0.0
  9
$DIMAZIN
 70
     0
  9
$DIMDSEP
 70
    44
  9
$DIMATFIT
 70
     3
  9
$DIMFRAC
 70
     0
  9
$DIMLDRBLK
  1

  9
$DIMLUNIT
 70
     2
  9
$DIMLWD
 70
    -2
  9
$DIMLWE
 70
    -2
  9
$DIMTMOVE
 70
     0
  9
$LUNITS
 70
     2
  9
$LUPREC
 70
     2
  9
$SKETCHINC
 40
1.0
  9
$FILLETRAD
 40
10.0
  9
$AUNITS
 70
     0
  9
$AUPREC
 70
     2
  9
$MENU
  1
.
  9
$ELEVATION
 40
0.0
  9
$PELEVATION
 40
0.0
  9
$THICKNESS
 40
0.0
  9
$LIMCHECK
 70
     0
  9
$CHAMFERA
 40
0.0
  9
$CHAMFERB
 40
0.0
  9
$CHAMFERC
 40
0.0
  9
$CHAMFERD
 40
0.0
  9
$SKPOLY
 70
     0
  9
$TDCREATE
 40
2458092.702569456
  9
$TDUCREATE
 40
2458092.369236123
  9
$TDUPDATE
 40
2458092.702580289
  9
$TDUUPDATE
 40
2458092.369246956
  9
$TDINDWG
 40
0.0000000116
  9
$TDUSRTIMER
 40
0.0000000116
  9
$USRTIMER
 70
     1
  9
$ANGBASE
 50
0.0
  9
$ANGDIR
 70
     0
  9
$PDMODE
 70
     0
  9
$PDSIZE
 40
-1.0
  9
$PLINEWID
 40
0.0
  9
$SPLFRAME
 70
     0
  9
$SPLINETYPE
 70
     6
  9
$SPLINESEGS
 70
     8
  9
$HANDSEED
  5
3E9
  9
$SURFTAB1
 70
     6
  9
$SURFTAB2
 70
     6
  9
$SURFTYPE
 70
     6
  9
$SURFU
 70
     6
  9
$SURFV
 70
     6
  9
$UCSBASE
  2

  9
$UCSNAME
  2

  9
$UCSORG
 10
0.0
 20
0.0
 30
0.0
  9
$UCSXDIR
 10
1.0
 20
0.0
 30
0.0
  9
$UCSYDIR
 10
0.0
 20
1.0
 30
0.0
  9
$UCSORTHOREF
  2

  9
$UCSORTHOVIEW
 70
     0
  9
$UCSORGTOP
 10
0.0
 20
0.0
 30
0.0
  9
$UCSORGBOTTOM
 10
0.0
 20
0.0
 30
0.0
  9
$UCSORGLEFT
 10
0.0
 20
0.0
 30
0.0
  9
$UCSORGRIGHT
 10
0.0
 20
0.0
 30
0.0
  9
$UCSORGFRONT
 10
0.0
 20
0.0
 30
0.0
  9
$UCSORGBACK
 10
0.0
 20
0.0
 30
0.0
  9
$PUCSBASE
  2

  9
$PUCSNAME
  2

  9
$PUCSORG
 10
0.0
 20
0.0
 30
0.0
  9
$PUCSXDIR
 10
1.0
 20
0.0
 30
0.0
  9
$PUCSYDIR
 10
0.0
 20
1.0
 30
0.0
  9
$PUCSORTHOREF
  2

  9
$PUCSORTHOVIEW
 70
     0
  9
$PUCSORGTOP
 10
0.0
 20
0.0
 30
0.0
  9
$PUCSORGBOTTOM
 10
0.0
 20
0.0
 30
0.0
  9
$PUCSORGLEFT
 10
0.0
 20
0.0
 30
0.0
  9
$PUCSORGRIGHT
 10
0.0
 20
0.0
 30
0.0
  9
$PUCSORGFRONT
 10
0.0
 20
0.0
 30
0.0
  9
$PUCSORGBACK
 10
0.0
 20
0.0
 30
0.0
  9
$USERI1
 70
     0
  9
$USERI2
 70
     0
  9
$USERI3
 70
     0
  9
$USERI4
 70
     0
  9
$USERI5
 70
     0
  9
$USERR1
 40
0.0
  9
$USERR2
 40
0.0
  9
$USERR3
 40
0.0
  9
$USERR4
 40
0.0
  9
$USERR5
 40
0.0
  9
$WORLDVIEW
 70
     1
  9
$SHADEDGE
 70
     3
  9
$SHADEDIF
 70
    70
  9
$TILEMODE
 70
     1
  9
$MAXACTVP
 70
    64
  9
$PINSBASE
 10
0.0
 20
0.0
 30
0.0
  9
$PLIMCHECK
 70
     0
  9
$PEXTMIN
 10
1.0000000000E+20
 20
1.0000000000E+20
 30
1.0000000000E+20
  9
$PEXTMAX
 10
-1.0000000000E+20
 20
-1.0000000000E+20
 30
-1.0000000000E+20
  9
$PLIMMIN
 10
0.0
 20
0.0
  9
$PLIMMAX
 10
420.0
 20
297.0
  9
$UNITMODE
 70
     0
  9
$VISRETAIN
 70
     1
  9
$PLINEGEN
 70
     0
  9
$PSLTSCALE
 70
     1
  9
$TREEDEPTH
 70
  3020
  9
$CMLSTYLE
  2
Standard
  9
$CMLJUST
 70
     0
  9
$CMLSCALE
 40
20.0
  9
$PROXYGRAPHICS
 70
     1
  9
$MEASUREMENT
 70
     1
  9
$CELWEIGHT
370
    -1
  9
$ENDCAPS
280
     0
  9
$JOINSTYLE
280
     0
  9
$LWDISPLAY
290
     1
  9
$INSUNITS
 70
     4
  9
$HYPERLINKBASE
  1

  9
$STYLESHEET
  1

  9
$XEDIT
290
     1
  9
$CEPSNTYPE
380
     0
  9
$PSTYLEMODE
290
     1
  9
$FINGERPRINTGUID
  2
{99ACB758-BFA2-4B80-BA26-C10753D456A2}
  9
$VERSIONGUID
  2
{FAEB1C32-E019-11D5-929B-00C0DF256EC4}
  9
$EXTNAMES
290
     1
  9
$PSVPSCALE
 40
0.0
  9
$OLESTARTUP
290
     0
  0
ENDSEC
  0
SECTION
  2
CLASSES
  0
CLASS
  1
ACDBDICTIONARYWDFLT
  2
AcDbDictionaryWithDefault
  3
ObjectDBX Classes
 90
        0
280
     0
281
     0
  0
CLASS
  1
VISUALSTYLE
  2
AcDbVisualStyle
  3
ObjectDBX Classes
 90
     4095
280
     0
281
     0
  0
CLASS
  1
MATERIAL
  2
AcDbMaterial
  3
ObjectDBX Classes
 90
     1153
280
     0
281
     0
  0
CLASS
  1
SCALE
  2
AcDbScale
  3
ObjectDBX Classes
 90
     1153
280
     0
281
     0
  0
CLASS
  1
TABLESTYLE
  2
AcDbTableStyle
  3
ObjectDBX Classes
 90
     4095
280
     0
281
     0
  0
CLASS
  1
MLEADERSTYLE
  2
AcDbMLeaderStyle
  3
ACDB_MLEADERSTYLE_CLASS
 90
     4095
280
     0
281
     0
  0
CLASS
  1
SUN
  2
AcDbSun
  3
SCENEOE
 90
     1153
280
     0
281
     0
  0
CLASS
  1
ACDBPLACEHOLDER
  2
AcDbPlaceHolder
  3
ObjectDBX Classes
 90
        0
280
     0
281
     0
  0
CLASS
  1
LAYOUT
  2
AcDbLayout
  3
ObjectDBX Classes
 90
        0
280
     0
281
     0
  0
ENDSEC
  0
SECTION
  2
TABLES
  0
TABLE
  2
VPORT
  5
8
330
0
100
AcDbSymbolTable
 70
     1
  0
VPORT
  5
29
330
8
100
AcDbSymbolTableRecord
100
AcDbViewportTableRecord
  2
*Active
 70
     0
 10
0.0
 20
0.0
 11
1.0
 21
1.0
 12
222.75
 22
157.5
 13
0.0
 23
0.0
 14
10.0
 24
10.0
 15
10.0
 25
10.0
 16
0.0
 26
0.0
 36
1.0
 17
0.0
 27
0.0
 37
0.0
 40
315.0
 41
1.4142857143
 42
50.0
 43
0.0
 44
0.0
 50
0.0
 51
0.0
 71
     0
 72
  2000
 73
     1
 74
     3
 75
     0
 76
     0
 77
     0
 78
     0
281
     0
 65
     1
110
0.0
120
0.0
130
0.0
111
1.0
121
0.0
131
0.0
112
0.0
122
1.0
132
0.0
 79
     0
146
0.0
  0
ENDTAB
  0
TABLE
  2
LTYPE
  5
5
330
0
100
AcDbSymbolTable
 70
     6
  0
LTYPE
  5
14
330
5
100
AcDbSymbolTableRecord
100
AcDbLinetypeTableRecord
  2
ByBlock
 70
     0
  3

 72
    65
 73
     0
 40
0.0
  0
LTYPE
  5
15
330
5
100
AcDbSymbolTableRecord
100
AcDbLinetypeTableRecord
  2
ByLayer
 70
     0
  3

 72
    65
 73
     0
 40
0.0
  0
LTYPE
  5
16
330
5
100
AcDbSymbolTableRecord
100
AcDbLinetypeTableRecord
  2
Continuous
 70
     0
  3
Solid line
 72
    65
 73
     0
 40
0.0
  0
LTYPE
  5
6E
330
5
100
AcDbSymbolTableRecord
100
AcDbLinetypeTableRecord
  2
HIDDEN
 70
     0
  3
Hidden __ __ __ __ __ __ __ __ __ __ __ __ __ __
 72
    65
 73
     2
 40
1.905
 49
1.27
 74
     0
 49
-0.635
 74
     0
  0
LTYPE
  5
6F
330
5
100
AcDbSymbolTableRecord
100
AcDbLinetypeTableRecord
  2
PHANTOM
 70
     0
  3
Phantom ______  __  __  ______  __  __  ______
 72
    65
 73
     6
 40
12.7
 49
6.35
 74
     0
 49
-1.27
 74
     0
 49
1.27
 74
     0
 49
-1.27
 74
     0
 49
1.27
 74
     0
 49
-1.27
 74
     0
  0
LTYPE
  5
70
330
5
100
AcDbSymbolTableRecord
100
AcDbLinetypeTableRecord
  2
CENTER
 70
     0
  3
Center ____ _ ____ _ ____ _ ____ _ ____ _ ____
 72
    65
 73
     4
 40
10.16
 49
6.35
 74
     0
 49
-1.27
 74
     0
 49
1.27
 74
     0
 49
-1.27
 74
     0
  0
LTYPE
  5
71
330
5
100
AcDbSymbolTableRecord
100
AcDbLinetypeTableRecord
  2
CENTERX2
 70
     0
  3
Center (2x) ________  __  ________  __  _____
 72
    65
 73
     4
 40
20.32
 49
12.7
 74
     0
 49
-2.54
 74
     0
 49
2.54
 74
     0
 49
-2.54
 74
     0
  0
LTYPE
  5
72
330
5
100
AcDbSymbolTableRecord
100
AcDbLinetypeTableRecord
  2
DOT2
 70
     0
  3
Dot (.5x) ........................................
 72
    65
 73
     2
 40
0.635
 49
0.0
 74
     0
 49
-0.635
 74
     0
  0
ENDTAB
  0
TABLE
  2
LAYER
  5
2
330
0
100
AcDbSymbolTable
 70
    10
  0
LAYER
  5
10
330
2
100
AcDbSymbolTableRecord
100
AcDbLayerTableRecord
  2
0
 70
     0
 62
     7
  6
Continuous
370
    -3
390
F
  0
LAYER
  5
73
330
2
100
AcDbSymbolTableRecord
100
AcDbLayerTableRecord
  2
SLD-0
 70
     0
 62
     7
  6
Continuous
370
    15
390
F
  0
LAYER
  5
74
330
2
100
AcDbSymbolTableRecord
100
AcDbLayerTableRecord
  2
輪廓線
 70
     0
 62
   219
  6
Continuous
370
    15
390
F
  0
LAYER
  5
75
330
2
100
AcDbSymbolTableRecord
100
AcDbLayerTableRecord
  2
DIM
 70
     0
 62
     7
  6
Continuous
370
    -3
390
F
  0
LAYER
  5
76
330
2
100
AcDbSymbolTableRecord
100
AcDbLayerTableRecord
  2
中心線
 70
     0
 62
     7
  6
CENTERX2
370
    -3
390
F
  0
LAYER
  5
77
330
2
100
AcDbSymbolTableRecord
100
AcDbLayerTableRecord
  2
虛線
 70
     0
 62
     7
  6
HIDDEN
370
    -3
390
F
  0
LAYER
  5
78
330
2
100
AcDbSymbolTableRecord
100
AcDbLayerTableRecord
  2
SECTION
 70
     0
 62
     7
  6
PHANTOM
370
    15
390
F
  0
LAYER
  5
79
330
2
100
AcDbSymbolTableRecord
100
AcDbLayerTableRecord
  2
假想線
 70
     0
 62
     7
  6
PHANTOM
370
    -3
390
F
  0
LAYER
  5
7A
330
2
100
AcDbSymbolTableRecord
100
AcDbLayerTableRecord
  2
圖層_1
 70
     0
 62
   179
  6
Continuous
370
    -3
390
F
  0
LAYER
  5
7B
330
2
100
AcDbSymbolTableRecord
100
AcDbLayerTableRecord
  2
工作區域參考線
 70
     0
 62
   179
  6
Continuous
370
    -3
390
F
  0
ENDTAB
  0
TABLE
  2
STYLE
  5
3
330
0
100
AcDbSymbolTable
 70
     3
  0
STYLE
  5
11
330
3
100
AcDbSymbolTableRecord
100
AcDbTextStyleTableRecord
  2
Standard
 70
     0
 40
0.0
 41
1.0
 50
0.0
 71
     0
 42
4.7625
  3
txt
  4

  0
STYLE
  5
CC
330
3
100
AcDbSymbolTableRecord
100
AcDbTextStyleTableRecord
  2
SLDTEXTSTYLE0
 70
     0
 40
0.0
 41
0.605
 50
0.0
 71
     0
 42
4.7625
  3
TXT
  4

  0
STYLE
  5
103
330
3
100
AcDbSymbolTableRecord
100
AcDbTextStyleTableRecord
  2
SLDTEXTSTYLE1
 70
     0
 40
0.0
 41
0.7
 50
0.0
 71
     0
 42
4.7625
  3
TXT
  4

  0
ENDTAB
  0
TABLE
  2
VIEW
  5
6
330
0
100
AcDbSymbolTable
 70
     0
  0
ENDTAB
  0
TABLE
  2
UCS
  5
7
330
0
100
AcDbSymbolTable
 70
     0
  0
ENDTAB
  0
TABLE
  2
APPID
  5
9
330
0
100
AcDbSymbolTable
 70
     1
  0
APPID
  5
12
330
9
100
AcDbSymbolTableRecord
100
AcDbRegAppTableRecord
  2
ACAD
 70
     0
  0
ENDTAB
  0
TABLE
  2
DIMSTYLE
  5
A
330
0
100
AcDbSymbolTable
 70
     2
100
AcDbDimStyleTable
  0
DIMSTYLE
105
27
330
A
100
AcDbSymbolTableRecord
100
AcDbDimStyleTableRecord
  2
ISO-25
 70
     0
 41
2.5
 42
0.625
 43
3.75
 44
1.25
 73
     0
 74
     0
 77
     1
 78
     8
140
2.5
141
2.5
143
0.0393700787
147
0.625
171
     3
172
     1
178
     0
271
     2
272
     2
274
     3
278
    44
283
     0
284
     8
340
11
  0
DIMSTYLE
105
190
102
{ACAD_REACTORS
330
18F
330
29F
330
2A9
330
2B3
330
2BD
102
}
330
A
100
AcDbSymbolTableRecord
100
AcDbDimStyleTableRecord
  2
SLDDIMSTYLE0
 70
     0
 41
3.0
 44
0.0
 45
0.000000001
 73
     0
 74
     0
 77
     1
 78
    12
 79
     3
140
3.8137207031
147
0.9534301758
173
     1
178
     0
271
     2
272
     2
276
     2
284
    12
340
103
  0
ENDTAB
  0
TABLE
  2
BLOCK_RECORD
  5
1
330
0
100
AcDbSymbolTable
 70
    14
  0
BLOCK_RECORD
  5
1F
330
1
100
AcDbSymbolTableRecord
100
AcDbBlockTableRecord
  2
*Model_Space
340
22
  0
BLOCK_RECORD
  5
1B
330
1
100
AcDbSymbolTableRecord
100
AcDbBlockTableRecord
  2
*Paper_Space
340
1E
  0
BLOCK_RECORD
  5
23
330
1
100
AcDbSymbolTableRecord
100
AcDbBlockTableRecord
  2
*Paper_Space0
340
26
  0
BLOCK_RECORD
  5
7C
330
1
100
AcDbSymbolTableRecord
100
AcDbBlockTableRecord
  2
圖塊6
340
0
102
{BLKREFS
331
CB
102
}
  0
BLOCK_RECORD
  5
CE
330
1
100
AcDbSymbolTableRecord
100
AcDbBlockTableRecord
  2
SW_NOTE_0
340
0
102
{BLKREFS
331
D4
102
}
  0
BLOCK_RECORD
  5
105
330
1
100
AcDbSymbolTableRecord
100
AcDbBlockTableRecord
  2
SW_NOTE_1
340
0
102
{BLKREFS
331
10A
102
}
  0
BLOCK_RECORD
  5
191
330
1
100
AcDbSymbolTableRecord
100
AcDbBlockTableRecord
  2
_D
340
0
  0
BLOCK_RECORD
  5
2A0
330
1
100
AcDbSymbolTableRecord
100
AcDbBlockTableRecord
  2
_D_1
340
0
  0
BLOCK_RECORD
  5
2AA
330
1
100
AcDbSymbolTableRecord
100
AcDbBlockTableRecord
  2
_D_2
340
0
  0
BLOCK_RECORD
  5
2B4
330
1
100
AcDbSymbolTableRecord
100
AcDbBlockTableRecord
  2
_D_3
340
0
  0
BLOCK_RECORD
  5
2BE
330
1
100
AcDbSymbolTableRecord
100
AcDbBlockTableRecord
  2
_D_4
340
0
  0
BLOCK_RECORD
  5
2C7
330
1
100
AcDbSymbolTableRecord
100
AcDbBlockTableRecord
  2
SW_RADIAL_DIMENSION_0
340
0
102
{BLKREFS
331
2CF
102
}
  0
BLOCK_RECORD
  5
2D0
330
1
100
AcDbSymbolTableRecord
100
AcDbBlockTableRecord
  2
SW_CENTERMARKSYMBOL_0
340
0
102
{BLKREFS
331
2DB
102
}
  0
BLOCK_RECORD
  5
2DC
330
1
100
AcDbSymbolTableRecord
100
AcDbBlockTableRecord
  2
SW_CENTERMARKSYMBOL_1
340
0
102
{BLKREFS
331
2E7
102
}
  0
BLOCK_RECORD
  5
2E8
330
1
100
AcDbSymbolTableRecord
100
AcDbBlockTableRecord
  2
SW_CENTERMARKSYMBOL_2
340
0
102
{BLKREFS
331
2F3
102
}
  0
BLOCK_RECORD
  5
2F4
330
1
100
AcDbSymbolTableRecord
100
AcDbBlockTableRecord
  2
SW_CENTERMARKSYMBOL_3
340
0
102
{BLKREFS
331
2FF
102
}
  0
ENDTAB
  0
ENDSEC
  0
SECTION
  2
BLOCKS
  0
BLOCK
  5
20
330
1F
100
AcDbEntity
  8
0
100
AcDbBlockBegin
  2
*Model_Space
 70
     0
 10
0.0
 20
0.0
 30
0.0
  3
*Model_Space
  1

  0
ENDBLK
  5
21
330
1F
100
AcDbEntity
  8
0
100
AcDbBlockEnd
  0
BLOCK
  5
1C
330
1B
100
AcDbEntity
 67
     1
  8
0
100
AcDbBlockBegin
  2
*Paper_Space
 70
     0
 10
0.0
 20
0.0
 30
0.0
  3
*Paper_Space
  1

  0
ENDBLK
  5
1D
330
1B
100
AcDbEntity
 67
     1
  8
0
100
AcDbBlockEnd
  0
BLOCK
  5
24
330
23
100
AcDbEntity
  8
0
100
AcDbBlockBegin
  2
*Paper_Space0
 70
     0
 10
0.0
 20
0.0
 30
0.0
  3
*Paper_Space0
  1

  0
ENDBLK
  5
25
330
23
100
AcDbEntity
  8
0
100
AcDbBlockEnd
  0
BLOCK
  5
7D
330
7C
100
AcDbEntity
  8
0
100
AcDbBlockBegin
  2
圖塊6
 70
     0
 10
0.0
 20
0.0
 30
0.0
  3
圖塊6
  1

  0
ARC
  5
7F
330
7C
100
AcDbEntity
  8
圖層_1
 62
     7
370
    30
100
AcDbCircle
 10
2.2952316509
 20
9.1531024337
 30
0.0
 40
2.295231650915506
100
AcDbArc
 50
130.2115225915
 51
228.588904108
  0
ARC
  5
80
330
7C
100
AcDbEntity
  8
圖層_1
 62
     7
370
    30
100
AcDbCircle
 10
7.2763703972
 20
8.9924181622
 30
0.0
 40
3.866003140226431
100
AcDbArc
 50
140.4331765613
 51
251.0865666567
  0
ARC
  5
81
330
7C
100
AcDbEntity
  8
圖層_1
 62
     7
370
    30
100
AcDbCircle
 10
7.7647562974
 20
9.4676339569
 30
0.0
 40
4.484454986654794
100
AcDbArc
 50
247.1485306747
 51
309.6030773927
  0
LINE
  5
82
330
7C
100
AcDbEntity
  8
圖層_1
 62
     7
370
    30
100
AcDbLine
 10
2.7733465903
 20
12.7982738976
 30
0.0
 11
0.813404208
 21
10.9058932828
 31
0.0
  0
LINE
  5
83
330
7C
100
AcDbEntity
  8
圖層_1
 62
     7
370
    30
100
AcDbLine
 10
0.7770343349
 20
7.4317177465
 30
0.0
 11
6.7908378002
 21
2.2048119861
 31
0.0
  0
LINE
  5
84
330
7C
100
AcDbEntity
  8
圖層_1
 62
     7
370
    30
100
AcDbLine
 10
6.7908378002
 20
2.2048119861
 30
0.0
 11
5.8442599196
 21
1.2809614004
 31
0.0
  0
LINE
  5
85
330
7C
100
AcDbEntity
  8
圖層_1
 62
     7
370
    30
100
AcDbLine
 10
5.8442599196
 20
1.2809614004
 30
0.0
 11
7.3320789667
 21
0.0
 31
0.0
  0
LINE
  5
86
330
7C
100
AcDbEntity
  8
圖層_1
 62
     7
370
    30
100
AcDbLine
 10
12.1465756182
 20
4.6748669483
 30
0.0
 11
10.6234410708
 21
6.0124555399
 31
0.0
  0
LINE
  5
87
330
7C
100
AcDbEntity
  8
圖層_1
 62
     7
370
    30
100
AcDbLine
 10
4.2961373614
 20
11.4549760463
 30
0.0
 11
2.7733465903
 21
12.7982738976
 31
0.0
  0
LINE
  5
88
330
7C
100
AcDbEntity
  8
圖層_1
 62
     7
370
    30
100
AcDbLine
 10
7.3320789667
 20
0.0
 30
0.0
 11
12.1465756182
 21
4.6748669483
 31
0.0
  0
ENDBLK
  5
7E
330
7C
100
AcDbEntity
  8
0
100
AcDbBlockEnd
  0
BLOCK
  5
CF
330
CE
100
AcDbEntity
  8
0
100
AcDbBlockBegin
  2
SW_NOTE_0
 70
     0
 10
0.0
 20
0.0
 30
0.0
  3
SW_NOTE_0
  1

  0
MTEXT
  5
D1
330
CE
100
AcDbEntity
  8
0
  6
Continuous
 62
     0
370
     0
100
AcDbMText
 10
0.0
 20
5.1159875922
 30
0.0
 40
3.96875
 41
0.0
 71
     1
 72
     1
  1
PROPRIETARY AND CONFIDENTIAL
  7
SLDTEXTSTYLE0
 73
     1
 44
1.0
  0
MTEXT
  5
D2
330
CE
100
AcDbEntity
  8
0
  6
Continuous
 62
     0
370
     0
100
AcDbMText
 10
0.0
 20
-0.12297522
 30
0.0
 40
2.778125
 41
0.0
 71
     1
 72
     1
  1
THE INFORMATION CONTAINED IN THIS DRAWING IS THE SOLE PROPERTY OF UNICE E-O SERVICES INC. ANY REPRODUCTION IN PART OR AS A WHOLE WITHOUT THE WRITTEN PERMISSION OF UNICE E-O SERVICES INC IS
  7
SLDTEXTSTYLE0
 73
     1
 44
1.0
  0
MTEXT
  5
D3
330
CE
100
AcDbEntity
  8
0
  6
Continuous
 62
     0
370
     0
100
AcDbMText
 10
0.0
 20
-3.8271418419
 30
0.0
 40
2.778125
 41
0.0
 71
     1
 72
     1
  1
PROHIBITED.
  7
SLDTEXTSTYLE0
 73
     1
 44
1.0
  0
ENDBLK
  5
D0
330
CE
100
AcDbEntity
  8
0
100
AcDbBlockEnd
  0
BLOCK
  5
106
330
105
100
AcDbEntity
  8
0
100
AcDbBlockBegin
  2
SW_NOTE_1
 70
     0
 10
0.0
 20
0.0
 30
0.0
  3
SW_NOTE_1
  1

  0
MTEXT
  5
108
330
105
100
AcDbEntity
  8
SLD-0
 62
     0
100
AcDbMText
 10
0.0
 20
3.0695925553
 30
0.0
 40
2.38125
 41
0.0
 71
     1
 72
     1
  1
No.5, Andong Rd., Chung Li District,
  7
SLDTEXTSTYLE0
 73
     1
 44
1.0
  0
MTEXT
  5
109
330
105
100
AcDbEntity
  8
SLD-0
 62
     0
100
AcDbMText
 10
0.0
 20
-0.1054074063
 30
0.0
 40
2.38125
 41
0.0
 71
     1
 72
     1
  1
Taoyuan City 32063, Taiwan, R.O.C.
  7
SLDTEXTSTYLE0
 73
     1
 44
1.0
  0
ENDBLK
  5
107
330
105
100
AcDbEntity
  8
0
100
AcDbBlockEnd
  0
BLOCK
  5
192
330
191
100
AcDbEntity
  8
0
100
AcDbBlockBegin
  2
_D
 70
     0
 10
0.0
 20
0.0
 30
0.0
  3
_D
  1

  0
SOLID
  5
194
330
191
100
AcDbEntity
  8
DIM
100
AcDbTrace
 10
137.7103186182
 20
145.3563382808
 30
0.0
 11
137.3353186182
 21
142.3563382808
 31
0.0
 12
138.0853186182
 22
142.3563382808
 32
0.0
 13
138.0853186182
 23
142.3563382808
 33
0.0
  0
SOLID
  5
195
330
191
100
AcDbEntity
  8
DIM
100
AcDbTrace
 10
137.7103186182
 20
62.8563382808
 30
0.0
 11
138.0853186182
 21
65.8563382808
 31
0.0
 12
137.3353186182
 22
65.8563382808
 32
0.0
 13
137.3353186182
 23
65.8563382808
 33
0.0
  0
LINE
  5
196
330
191
100
AcDbEntity
  8
DIM
100
AcDbLine
 10
114.7103186182
 20
145.3563382808
 30
0.0
 11
139.2103186182
 21
145.3563382808
 31
0.0
  0
LINE
  5
197
330
191
100
AcDbEntity
  8
DIM
100
AcDbLine
 10
128.7103186182
 20
62.8563382808
 30
0.0
 11
139.2103186182
 21
62.8563382808
 31
0.0
  0
LINE
  5
198
330
191
100
AcDbEntity
  8
DIM
100
AcDbLine
 10
137.7103186182
 20
145.3563382808
 30
0.0
 11
137.7103186182
 21
62.8563382808
 31
0.0
  0
MTEXT
  5
199
330
191
100
AcDbEntity
  8
DIM
100
AcDbMText
 10
133.1059299599
 20
100.1938125637
 30
0.0
 40
3.571875
 41
0.0
 71
     1
 72
     1
  1
82.5
  7
SLDTEXTSTYLE1
 11
-7.044195017643634E-15
 21
1.0
 31
0.0
 73
     1
 44
1.0
  0
ENDBLK
  5
193
330
191
100
AcDbEntity
  8
0
100
AcDbBlockEnd
  0
BLOCK
  5
2A1
330
2A0
100
AcDbEntity
  8
0
100
AcDbBlockBegin
  2
_D_1
 70
     0
 10
0.0
 20
0.0
 30
0.0
  3
_D_1
  1

  0
SOLID
  5
2A3
330
2A0
100
AcDbEntity
  8
DIM
100
AcDbTrace
 10
51.7103186182
 20
192.8058390845
 30
0.0
 11
52.0853186182
 21
195.8058390845
 31
0.0
 12
51.3353186182
 22
195.8058390845
 32
0.0
 13
51.3353186182
 23
195.8058390845
 33
0.0
  0
SOLID
  5
2A4
330
2A0
100
AcDbEntity
  8
DIM
100
AcDbTrace
 10
51.7103186182
 20
257.8058390845
 30
0.0
 11
51.3353186182
 21
254.8058390845
 31
0.0
 12
52.0853186182
 22
254.8058390845
 32
0.0
 13
52.0853186182
 23
254.8058390845
 33
0.0
  0
LINE
  5
2A5
330
2A0
100
AcDbEntity
  8
DIM
100
AcDbLine
 10
65.7103186182
 20
192.8058390845
 30
0.0
 11
50.2103186182
 21
192.8058390845
 31
0.0
  0
LINE
  5
2A6
330
2A0
100
AcDbEntity
  8
DIM
100
AcDbLine
 10
65.7103186182
 20
257.8058390845
 30
0.0
 11
50.2103186182
 21
257.8058390845
 31
0.0
  0
LINE
  5
2A7
330
2A0
100
AcDbEntity
  8
DIM
100
AcDbLine
 10
51.7103186182
 20
192.8058390845
 30
0.0
 11
51.7103186182
 21
257.8058390845
 31
0.0
  0
MTEXT
  5
2A8
330
2A0
100
AcDbEntity
  8
DIM
100
AcDbMText
 10
47.1059299599
 20
223.0701099535
 30
0.0
 40
3.571875
 41
0.0
 71
     1
 72
     1
  1
65
  7
SLDTEXTSTYLE1
 11
-1.608122649676637E-16
 21
1.0
 31
0.0
 73
     1
 44
1.0
  0
ENDBLK
  5
2A2
330
2A0
100
AcDbEntity
  8
0
100
AcDbBlockEnd
  0
BLOCK
  5
2AB
330
2AA
100
AcDbEntity
  8
0
100
AcDbBlockBegin
  2
_D_2
 70
     0
 10
0.0
 20
0.0
 30
0.0
  3
_D_2
  1

  0
SOLID
  5
2AD
330
2AA
100
AcDbEntity
  8
DIM
100
AcDbTrace
 10
62.2103186182
 20
182.3058390845
 30
0.0
 11
65.2103186182
 21
181.9308390845
 31
0.0
 12
65.2103186182
 22
182.6808390845
 32
0.0
 13
65.2103186182
 23
182.6808390845
 33
0.0
  0
SOLID
  5
2AE
330
2AA
100
AcDbEntity
  8
DIM
100
AcDbTrace
 10
127.2103186182
 20
182.3058390845
 30
0.0
 11
124.2103186182
 21
182.6808390845
 31
0.0
 12
124.2103186182
 22
181.9308390845
 32
0.0
 13
124.2103186182
 23
181.9308390845
 33
0.0
  0
LINE
  5
2AF
330
2AA
100
AcDbEntity
  8
DIM
100
AcDbLine
 10
62.2103186182
 20
196.3058390845
 30
0.0
 11
62.2103186182
 21
180.8058390845
 31
0.0
  0
LINE
  5
2B0
330
2AA
100
AcDbEntity
  8
DIM
100
AcDbLine
 10
127.2103186182
 20
196.3058390845
 30
0.0
 11
127.2103186182
 21
180.8058390845
 31
0.0
  0
LINE
  5
2B1
330
2AA
100
AcDbEntity
  8
DIM
100
AcDbLine
 10
62.2103186182
 20
182.3058390845
 30
0.0
 11
127.2103186182
 21
182.3058390845
 31
0.0
  0
MTEXT
  5
2B2
330
2AA
100
AcDbEntity
  8
DIM
100
AcDbMText
 10
92.4745894873
 20
186.9102277428
 30
0.0
 40
3.571875
 41
0.0
 71
     1
 72
     1
  1
65
  7
SLDTEXTSTYLE1
 73
     1
 44
1.0
  0
ENDBLK
  5
2AC
330
2AA
100
AcDbEntity
  8
0
100
AcDbBlockEnd
  0
BLOCK
  5
2B5
330
2B4
100
AcDbEntity
  8
0
100
AcDbBlockBegin
  2
_D_3
 70
     0
 10
0.0
 20
0.0
 30
0.0
  3
_D_3
  1

  0
SOLID
  5
2B7
330
2B4
100
AcDbEntity
  8
DIM
100
AcDbTrace
 10
69.7103186182
 20
268.3058390845
 30
0.0
 11
72.7103186182
 21
267.9308390845
 31
0.0
 12
72.7103186182
 22
268.6808390845
 32
0.0
 13
72.7103186182
 23
268.6808390845
 33
0.0
  0
SOLID
  5
2B8
330
2B4
100
AcDbEntity
  8
DIM
100
AcDbTrace
 10
119.7103186182
 20
268.3058390845
 30
0.0
 11
116.7103186182
 21
268.6808390845
 31
0.0
 12
116.7103186182
 22
267.9308390845
 32
0.0
 13
116.7103186182
 23
267.9308390845
 33
0.0
  0
LINE
  5
2B9
330
2B4
100
AcDbEntity
  8
DIM
100
AcDbLine
 10
69.7103186182
 20
258.3058390845
 30
0.0
 11
69.7103186182
 21
269.8058390845
 31
0.0
  0
LINE
  5
2BA
330
2B4
100
AcDbEntity
  8
DIM
100
AcDbLine
 10
119.7103186182
 20
258.3058390845
 30
0.0
 11
119.7103186182
 21
269.8058390845
 31
0.0
  0
LINE
  5
2BB
330
2B4
100
AcDbEntity
  8
DIM
100
AcDbLine
 10
69.7103186182
 20
268.3058390845
 30
0.0
 11
119.7103186182
 21
268.3058390845
 31
0.0
  0
MTEXT
  5
2BC
330
2B4
100
AcDbEntity
  8
DIM
100
AcDbMText
 10
92.4745894873
 20
272.9102277428
 30
0.0
 40
3.571875
 41
0.0
 71
     1
 72
     1
  1
50
  7
SLDTEXTSTYLE1
 73
     1
 44
1.0
  0
ENDBLK
  5
2B6
330
2B4
100
AcDbEntity
  8
0
100
AcDbBlockEnd
  0
BLOCK
  5
2BF
330
2BE
100
AcDbEntity
  8
0
100
AcDbBlockBegin
  2
_D_4
 70
     0
 10
0.0
 20
0.0
 30
0.0
  3
_D_4
  1

  0
SOLID
  5
2C1
330
2BE
100
AcDbEntity
  8
DIM
100
AcDbTrace
 10
137.7103186182
 20
250.3058390845
 30
0.0
 11
137.3353186182
 21
247.3058390845
 31
0.0
 12
138.0853186182
 22
247.3058390845
 32
0.0
 13
138.0853186182
 23
247.3058390845
 33
0.0
  0
SOLID
  5
2C2
330
2BE
100
AcDbEntity
  8
DIM
100
AcDbTrace
 10
137.7103186182
 20
200.3058390845
 30
0.0
 11
138.0853186182
 21
203.3058390845
 31
0.0
 12
137.3353186182
 22
203.3058390845
 32
0.0
 13
137.3353186182
 23
203.3058390845
 33
0.0
  0
LINE
  5
2C3
330
2BE
100
AcDbEntity
  8
DIM
100
AcDbLine
 10
127.7103186182
 20
250.3058390845
 30
0.0
 11
139.2103186182
 21
250.3058390845
 31
0.0
  0
LINE
  5
2C4
330
2BE
100
AcDbEntity
  8
DIM
100
AcDbLine
 10
127.7103186182
 20
200.3058390845
 30
0.0
 11
139.2103186182
 21
200.3058390845
 31
0.0
  0
LINE
  5
2C5
330
2BE
100
AcDbEntity
  8
DIM
100
AcDbLine
 10
137.7103186182
 20
250.3058390845
 30
0.0
 11
137.7103186182
 21
200.3058390845
 31
0.0
  0
MTEXT
  5
2C6
330
2BE
100
AcDbEntity
  8
DIM
100
AcDbMText
 10
133.1059299599
 20
223.0701099535
 30
0.0
 40
3.571875
 41
0.0
 71
     1
 72
     1
  1
50
  7
SLDTEXTSTYLE1
 11
-7.044195017643634E-15
 21
1.0
 31
0.0
 73
     1
 44
1.0
  0
ENDBLK
  5
2C0
330
2BE
100
AcDbEntity
  8
0
100
AcDbBlockEnd
  0
BLOCK
  5
2C8
330
2C7
100
AcDbEntity
  8
0
100
AcDbBlockBegin
  2
SW_RADIAL_DIMENSION_0
 70
     0
 10
0.0
 20
0.0
 30
0.0
  3
SW_RADIAL_DIMENSION_0
  1

  0
SOLID
  5
2CA
330
2C7
100
AcDbEntity
  8
DIM
 62
     0
100
AcDbTrace
 10
-19.4705133604
 20
9.7394533244
 30
0.0
 11
-17.3939704764
 21
7.5420469781
 31
0.0
 12
-16.9169640799
 22
8.1208084987
 32
0.0
 13
-16.9169640799
 23
8.1208084987
 33
0.0
  0
LINE
  5
2CB
330
2C7
100
AcDbEntity
  8
DIM
 62
     0
100
AcDbLine
 10
-19.4705133604
 20
9.7394533244
 30
0.0
 11
-1.875
 21
-4.7624997678
 31
0.0
  0
LINE
  5
2CC
330
2C7
100
AcDbEntity
  8
DIM
 62
     0
100
AcDbLine
 10
-1.875
 20
-4.7624997678
 30
0.0
 11
18.9970848151
 21
-4.7624997678
 31
0.0
  0
MTEXT
  5
2CD
330
2C7
100
AcDbEntity
  8
DIM
 62
     0
100
AcDbMText
 10
0.0
 20
4.604388833
 30
0.0
 40
3.571875
 41
0.0
 71
     1
 72
     1
  1
4 HOLES,
  7
SLDTEXTSTYLE1
 73
     1
 44
1.0
  0
MTEXT
  5
2CE
330
2C7
100
AcDbEntity
  8
DIM
 62
     0
100
AcDbMText
 10
1.4254439157
 20
-0.1581111094
 30
0.0
 40
3.571875
 41
0.0
 71
     1
 72
     1
  1
M6 CLR
  7
SLDTEXTSTYLE1
 73
     1
 44
1.0
  0
ENDBLK
  5
2C9
330
2C7
100
AcDbEntity
  8
0
100
AcDbBlockEnd
  0
BLOCK
  5
2D1
330
2D0
100
AcDbEntity
  8
0
100
AcDbBlockBegin
  2
SW_CENTERMARKSYMBOL_0
 70
     0
 10
0.0
 20
0.0
 30
0.0
  3
SW_CENTERMARKSYMBOL_0
  1

  0
LINE
  5
2D3
330
2D0
100
AcDbEntity
  8
DIM
 62
     0
100
AcDbLine
 10
0.0
 20
0.0
 30
0.0
 11
0.0
 21
1.0
 31
0.0
  0
LINE
  5
2D4
330
2D0
100
AcDbEntity
  8
DIM
 62
     0
100
AcDbLine
 10
0.0
 20
0.0
 30
0.0
 11
-1.0
 21
0.0
 31
0.0
  0
LINE
  5
2D5
330
2D0
100
AcDbEntity
  8
DIM
 62
     0
100
AcDbLine
 10
0.0
 20
0.0
 30
0.0
 11
0.0
 21
-1.0
 31
0.0
  0
LINE
  5
2D6
330
2D0
100
AcDbEntity
  8
DIM
 62
     0
100
AcDbLine
 10
0.0
 20
0.0
 30
0.0
 11
1.0
 21
0.0
 31
0.0
  0
LINE
  5
2D7
330
2D0
100
AcDbEntity
  8
DIM
 62
     0
100
AcDbLine
 10
0.0
 20
2.0
 30
0.0
 11
0.0
 21
6.5
 31
0.0
  0
LINE
  5
2D8
330
2D0
100
AcDbEntity
  8
DIM
 62
     0
100
AcDbLine
 10
-2.0
 20
0.0
 30
0.0
 11
-6.5
 21
0.0
 31
0.0
  0
LINE
  5
2D9
330
2D0
100
AcDbEntity
  8
DIM
 62
     0
100
AcDbLine
 10
0.0
 20
-2.0
 30
0.0
 11
0.0
 21
-6.5
 31
0.0
  0
LINE
  5
2DA
330
2D0
100
AcDbEntity
  8
DIM
 62
     0
100
AcDbLine
 10
2.0
 20
0.0
 30
0.0
 11
6.5
 21
0.0
 31
0.0
  0
ENDBLK
  5
2D2
330
2D0
100
AcDbEntity
  8
0
100
AcDbBlockEnd
  0
BLOCK
  5
2DD
330
2DC
100
AcDbEntity
  8
0
100
AcDbBlockBegin
  2
SW_CENTERMARKSYMBOL_1
 70
     0
 10
0.0
 20
0.0
 30
0.0
  3
SW_CENTERMARKSYMBOL_1
  1

  0
LINE
  5
2DF
330
2DC
100
AcDbEntity
  8
DIM
 62
     0
100
AcDbLine
 10
0.0
 20
0.0
 30
0.0
 11
0.0
 21
1.0
 31
0.0
  0
LINE
  5
2E0
330
2DC
100
AcDbEntity
  8
DIM
 62
     0
100
AcDbLine
 10
0.0
 20
0.0
 30
0.0
 11
-1.0
 21
0.0
 31
0.0
  0
LINE
  5
2E1
330
2DC
100
AcDbEntity
  8
DIM
 62
     0
100
AcDbLine
 10
0.0
 20
0.0
 30
0.0
 11
0.0
 21
-1.0
 31
0.0
  0
LINE
  5
2E2
330
2DC
100
AcDbEntity
  8
DIM
 62
     0
100
AcDbLine
 10
0.0
 20
0.0
 30
0.0
 11
1.0
 21
0.0
 31
0.0
  0
LINE
  5
2E3
330
2DC
100
AcDbEntity
  8
DIM
 62
     0
100
AcDbLine
 10
0.0
 20
2.0
 30
0.0
 11
0.0
 21
6.5
 31
0.0
  0
LINE
  5
2E4
330
2DC
100
AcDbEntity
  8
DIM
 62
     0
100
AcDbLine
 10
-2.0
 20
0.0
 30
0.0
 11
-6.5
 21
0.0
 31
0.0
  0
LINE
  5
2E5
330
2DC
100
AcDbEntity
  8
DIM
 62
     0
100
AcDbLine
 10
0.0
 20
-2.0
 30
0.0
 11
0.0
 21
-6.5
 31
0.0
  0
LINE
  5
2E6
330
2DC
100
AcDbEntity
  8
DIM
 62
     0
100
AcDbLine
 10
2.0
 20
0.0
 30
0.0
 11
6.5
 21
0.0
 31
0.0
  0
ENDBLK
  5
2DE
330
2DC
100
AcDbEntity
  8
0
100
AcDbBlockEnd
  0
BLOCK
  5
2E9
330
2E8
100
AcDbEntity
  8
0
100
AcDbBlockBegin
  2
SW_CENTERMARKSYMBOL_2
 70
     0
 10
0.0
 20
0.0
 30
0.0
  3
SW_CENTERMARKSYMBOL_2
  1

  0
LINE
  5
2EB
330
2E8
100
AcDbEntity
  8
DIM
 62
     0
100
AcDbLine
 10
0.0
 20
0.0
 30
0.0
 11
0.0
 21
1.0
 31
0.0
  0
LINE
  5
2EC
330
2E8
100
AcDbEntity
  8
DIM
 62
     0
100
AcDbLine
 10
0.0
 20
0.0
 30
0.0
 11
-1.0
 21
0.0
 31
0.0
  0
LINE
  5
2ED
330
2E8
100
AcDbEntity
  8
DIM
 62
     0
100
AcDbLine
 10
0.0
 20
0.0
 30
0.0
 11
0.0
 21
-1.0
 31
0.0
  0
LINE
  5
2EE
330
2E8
100
AcDbEntity
  8
DIM
 62
     0
100
AcDbLine
 10
0.0
 20
0.0
 30
0.0
 11
1.0
 21
0.0
 31
0.0
  0
LINE
  5
2EF
330
2E8
100
AcDbEntity
  8
DIM
 62
     0
100
AcDbLine
 10
0.0
 20
2.0
 30
0.0
 11
0.0
 21
6.5
 31
0.0
  0
LINE
  5
2F0
330
2E8
100
AcDbEntity
  8
DIM
 62
     0
100
AcDbLine
 10
-2.0
 20
0.0
 30
0.0
 11
-6.5
 21
0.0
 31
0.0
  0
LINE
  5
2F1
330
2E8
100
AcDbEntity
  8
DIM
 62
     0
100
AcDbLine
 10
0.0
 20
-2.0
 30
0.0
 11
0.0
 21
-6.5
 31
0.0
  0
LINE
  5
2F2
330
2E8
100
AcDbEntity
  8
DIM
 62
     0
100
AcDbLine
 10
2.0
 20
0.0
 30
0.0
 11
6.5
 21
0.0
 31
0.0
  0
ENDBLK
  5
2EA
330
2E8
100
AcDbEntity
  8
0
100
AcDbBlockEnd
  0
BLOCK
  5
2F5
330
2F4
100
AcDbEntity
  8
0
100
AcDbBlockBegin
  2
SW_CENTERMARKSYMBOL_3
 70
     0
 10
0.0
 20
0.0
 30
0.0
  3
SW_CENTERMARKSYMBOL_3
  1

  0
LINE
  5
2F7
330
2F4
100
AcDbEntity
  8
DIM
 62
     0
100
AcDbLine
 10
0.0
 20
0.0
 30
0.0
 11
0.0
 21
1.0
 31
0.0
  0
LINE
  5
2F8
330
2F4
100
AcDbEntity
  8
DIM
 62
     0
100
AcDbLine
 10
0.0
 20
0.0
 30
0.0
 11
-1.0
 21
0.0
 31
0.0
  0
LINE
  5
2F9
330
2F4
100
AcDbEntity
  8
DIM
 62
     0
100
AcDbLine
 10
0.0
 20
0.0
 30
0.0
 11
0.0
 21
-1.0
 31
0.0
  0
LINE
  5
2FA
330
2F4
100
AcDbEntity
  8
DIM
 62
     0
100
AcDbLine
 10
0.0
 20
0.0
 30
0.0
 11
1.0
 21
0.0
 31
0.0
  0
LINE
  5
2FB
330
2F4
100
AcDbEntity
  8
DIM
 62
     0
100
AcDbLine
 10
0.0
 20
2.0
 30
0.0
 11
0.0
 21
6.5
 31
0.0
  0
LINE
  5
2FC
330
2F4
100
AcDbEntity
  8
DIM
 62
     0
100
AcDbLine
 10
-2.0
 20
0.0
 30
0.0
 11
-6.5
 21
0.0
 31
0.0
  0
LINE
  5
2FD
330
2F4
100
AcDbEntity
  8
DIM
 62
     0
100
AcDbLine
 10
0.0
 20
-2.0
 30
0.0
 11
0.0
 21
-6.5
 31
0.0
  0
LINE
  5
2FE
330
2F4
100
AcDbEntity
  8
DIM
 62
     0
100
AcDbLine
 10
2.0
 20
0.0
 30
0.0
 11
6.5
 21
0.0
 31
0.0
  0
ENDBLK
  5
2F6
330
2F4
100
AcDbEntity
  8
0
100
AcDbBlockEnd
  0
ENDSEC
  0
SECTION
  2
ENTITIES
  0
HATCH
  5
89
330
1F
100
AcDbEntity
  8
0
  6
Continuous
 62
     7
100
AcDbHatch
 10
0.0
 20
0.0
 30
0.0
210
0.0
220
0.0
230
1.0
  2
SOLID
 70
     1
 71
     0
 91
        1
 92
        0
 93
       10
 72
     2
 10
288.210894844405
 20
53.63371321483284
 40
4.484454986654788
 50
50.3969226073138
 51
112.8514693252976
 73
     0
 72
     2
 10
287.722508944218
 20
53.15849742009306
 40
3.866003140226428
 50
108.9134333432859
 51
219.5668234386823
 73
     0
 72
     1
 10
284.7422759084405
 20
55.62105530422515
 11
283.2194851373368
 21
56.96435315545179
 72
     1
 10
283.2194851373368
 20
56.96435315545179
 11
281.2595427550144
 21
55.07197254069054
 72
     2
 10
282.7413701979584
 20
53.31918169158669
 40
2.295231650915492
 50
130.2115225915088
 51
228.5889041080187
 73
     1
 72
     1
 10
281.2231728819765
 20
51.59779700444966
 11
287.2369763472699
 21
46.37089124403766
 72
     1
 10
287.2369763472699
 20
46.37089124403766
 11
286.2903984666472
 21
45.4470406583311
 72
     1
 10
286.2903984666472
 20
45.4470406583311
 11
287.7782175137356
 21
44.16607925790036
 72
     1
 10
287.7782175137356
 20
44.16607925790036
 11
292.5927141652834
 21
48.84094620617359
 72
     1
 10
292.5927141652834
 20
48.84094620617359
 11
291.0695796177962
 21
50.17853479777325
 97
        0
 75
     0
 76
     1
 98
        1
 10
0.0
 20
0.0
  0
HATCH
  5
8A
330
1F
100
AcDbEntity
  8
0
  6
Continuous
 62
     1
100
AcDbHatch
 10
0.0
 20
0.0
 30
0.0
210
0.0
220
0.0
230
1.0
  2
SOLID
 70
     1
 71
     0
 91
        1
 92
        0
 93
       10
 72
     2
 10
288.8838683441533
 20
53.49460373447415
 40
3.866351232519375
 50
317.8184992995785
 51
398.0564711573078
 73
     0
 72
     1
 10
291.9282471087245
 20
51.1112385104617
 11
293.4064204481987
 21
49.82319310062746
 72
     1
 10
293.4064204481987
 20
49.82319310062746
 11
295.2689424203894
 21
51.62984251423828
 72
     2
 10
293.9288539318962
 20
53.47176261196967
 40
2.277829406127398
 50
306.0377529468134
 51
403.4396461533871
 73
     1
 72
     1
 10
295.5827837289046
 20
55.03797557002689
 11
289.3926499413897
 21
60.42173997297782
 72
     1
 10
289.3926499413897
 20
60.42173997297782
 11
290.3290268942806
 21
61.33532761923384
 72
     1
 10
290.3290268942806
 20
61.33532761923384
 11
288.9332671290045
 21
62.58061594900059
 72
     1
 10
288.9332671290045
 20
62.58061594900059
 11
284.0798889563897
 21
57.89023557907947
 72
     1
 10
284.0798889563897
 20
57.89023557907947
 11
285.6135007724125
 21
56.55254978839827
 72
     2
 10
288.4073839080665
 20
52.68337102625687
 40
4.772455056791814
 50
234.1674444878512
 51
314.4407074583993
 73
     0
 97
        0
 75
     0
 76
     1
 98
        1
 10
0.0
 20
0.0
  0
LINE
  5
8B
330
1F
100
AcDbEntity
  8
0
  6
Continuous
 62
     7
370
     0
100
AcDbLine
 10
251.7890662777
 20
26.6617788769
 30
0.0
 11
253.2890662777
 21
26.6617788769
 31
0.0
  0
LINE
  5
8C
330
1F
100
AcDbEntity
  8
0
  6
Continuous
 62
     7
370
     0
100
AcDbLine
 10
247.2890662777
 20
26.6617788769
 30
0.0
 11
251.0390662777
 21
26.6617788769
 31
0.0
  0
LINE
  5
8D
330
1F
100
AcDbEntity
  8
0
  6
Continuous
 62
     7
370
     0
100
AcDbLine
 10
272.0390662777
 20
22.9117788769
 30
0.0
 11
272.0390662777
 21
30.4117788769
 31
0.0
  0
LINE
  5
8E
330
1F
100
AcDbEntity
  8
0
  6
Continuous
 62
     7
370
     0
100
AcDbLine
 10
261.5390662777
 20
24.4117788769
 30
0.0
 11
272.0390662777
 21
22.9117788769
 31
0.0
  0
LINE
  5
8F
330
1F
100
AcDbEntity
  8
0
  6
Continuous
 62
     7
370
     0
100
AcDbLine
 10
252.5390662777
 20
25.1617788769
 30
0.0
 11
252.5390662777
 21
21.4117788769
 31
0.0
  0
LINE
  5
90
330
1F
100
AcDbEntity
  8
0
  6
Continuous
 62
     7
370
     0
100
AcDbLine
 10
272.0390662777
 20
30.4117788769
 30
0.0
 11
261.5390662777
 21
28.9117788769
 31
0.0
  0
LINE
  5
91
330
1F
100
AcDbEntity
  8
0
  6
Continuous
 62
     7
370
     0
100
AcDbLine
 10
260.0390662777
 20
26.6617788769
 30
0.0
 11
273.5390662777
 21
26.6617788769
 31
0.0
  0
LINE
  5
92
330
1F
100
AcDbEntity
  8
0
  6
Continuous
 62
     7
370
     0
100
AcDbLine
 10
252.5390662777
 20
27.4117788769
 30
0.0
 11
252.5390662777
 21
25.9117788769
 31
0.0
  0
LINE
  5
93
330
1F
100
AcDbEntity
  8
0
  6
Continuous
 62
     7
370
     0
100
AcDbLine
 10
254.0390662777
 20
26.6617788769
 30
0.0
 11
257.7890662777
 21
26.6617788769
 31
0.0
  0
LINE
  5
94
330
1F
100
AcDbEntity
  8
0
  6
Continuous
 62
     7
370
     0
100
AcDbLine
 10
252.5390662777
 20
31.9117788769
 30
0.0
 11
252.5390662777
 21
28.1617788769
 31
0.0
  0
LINE
  5
95
330
1F
100
AcDbEntity
  8
0
  6
Continuous
 62
     7
370
     0
100
AcDbLine
 10
261.5390662777
 20
28.9117788769
 30
0.0
 11
261.5390662777
 21
24.4117788769
 31
0.0
  0
LINE
  5
96
330
1F
100
AcDbEntity
  8
工作區域參考線
 62
     1
370
    30
100
AcDbLine
 10
285.6135007724
 20
56.5525497884
 30
0.0
 11
284.0798889564
 21
57.8902355791
 31
0.0
  0
LINE
  5
97
330
1F
100
AcDbEntity
  8
工作區域參考線
 62
     1
370
    30
100
AcDbLine
 10
284.0798889564
 20
57.8902355791
 30
0.0
 11
288.933267129
 21
62.580615949
 31
0.0
  0
LINE
  5
98
330
1F
100
AcDbEntity
  8
工作區域參考線
 62
     1
370
    30
100
AcDbLine
 10
288.933267129
 20
62.580615949
 30
0.0
 11
290.3290268943
 21
61.3353276192
 31
0.0
  0
LINE
  5
99
330
1F
100
AcDbEntity
  8
工作區域參考線
 62
     1
370
    30
100
AcDbLine
 10
290.3290268943
 20
61.3353276192
 30
0.0
 11
289.3926499414
 21
60.421739973
 31
0.0
  0
LINE
  5
9A
330
1F
100
AcDbEntity
  8
工作區域參考線
 62
     1
370
    30
100
AcDbLine
 10
289.3926499414
 20
60.421739973
 30
0.0
 11
295.5827837289
 21
55.03797557
 31
0.0
  0
LINE
  5
9B
330
1F
100
AcDbEntity
  8
工作區域參考線
 62
     1
370
    30
100
AcDbLine
 10
291.9282471087
 20
51.1112385105
 30
0.0
 11
293.4064204482
 21
49.8231931006
 31
0.0
  0
LINE
  5
9C
330
1F
100
AcDbEntity
  8
工作區域參考線
 62
     1
370
    30
100
AcDbLine
 10
293.4064204482
 20
49.8231931006
 30
0.0
 11
295.2689424204
 21
51.6298425142
 31
0.0
  0
LINE
  5
9D
330
1F
100
AcDbEntity
  8
0
  6
Continuous
 62
     7
370
     0
100
AcDbLine
 10
278.5361947814
 20
19.6728696119
 30
0.0
 11
428.5361947814
 21
19.6728696119
 31
0.0
  0
LINE
  5
9E
330
1F
100
AcDbEntity
  8
0
  6
Continuous
 62
     7
370
     0
100
AcDbLine
 10
278.5361947814
 20
27.1728696119
 30
0.0
 11
353.5361947814
 21
27.1728696119
 31
0.0
  0
LINE
  5
9F
330
1F
100
AcDbEntity
  8
0
  6
Continuous
 62
     7
370
     0
100
AcDbLine
 10
278.5361947814
 20
34.6728696119
 30
0.0
 11
353.5361947814
 21
34.6728696119
 31
0.0
  0
LINE
  5
A0
330
1F
100
AcDbEntity
  8
0
  6
Continuous
 62
     7
370
     0
100
AcDbLine
 10
278.5361947814
 20
42.1728696119
 30
0.0
 11
428.5361947814
 21
42.1728696119
 31
0.0
  0
LINE
  5
A1
330
1F
100
AcDbEntity
  8
0
  6
Continuous
 62
     7
370
     0
100
AcDbLine
 10
353.5361947814
 20
49.6728696119
 30
0.0
 11
428.5361947814
 21
49.6728696119
 31
0.0
  0
LINE
  5
A2
330
1F
100
AcDbEntity
  8
0
  6
Continuous
 62
     7
370
    15
100
AcDbLine
 10
353.5361947814
 20
27.1728696119
 30
0.0
 11
428.5361947814
 21
27.1728696119
 31
0.0
  0
LINE
  5
A3
330
1F
100
AcDbEntity
  8
0
  6
Continuous
 62
     7
370
     0
100
AcDbLine
 10
278.5361947814
 20
64.6728696119
 30
0.0
 11
428.5361947814
 21
64.6728696119
 31
0.0
  0
LINE
  5
A4
330
1F
100
AcDbEntity
  8
0
  6
Continuous
 62
     7
370
     0
100
AcDbLine
 10
376.8558265126
 20
12.1728696119
 30
0.0
 11
376.8558265126
 21
27.1728696119
 31
0.0
  0
LINE
  5
A5
330
1F
100
AcDbEntity
  8
0
  6
Continuous
 62
     7
370
     0
100
AcDbLine
 10
353.5361947814
 20
12.1728696119
 30
0.0
 11
353.5361947814
 21
64.6728696119
 31
0.0
  0
LINE
  5
A6
330
1F
100
AcDbEntity
  8
0
  6
Continuous
 62
     7
370
     0
100
AcDbLine
 10
376.8558265126
 20
42.1728696119
 30
0.0
 11
376.8558265126
 21
49.6728696119
 31
0.0
  0
LINE
  5
A7
330
1F
100
AcDbEntity
  8
0
  6
Continuous
 62
     7
370
     0
100
AcDbLine
 10
321.624612953
 20
12.1728696119
 30
0.0
 11
321.624612953
 21
42.1728696119
 31
0.0
  0
LINE
  5
A8
330
1F
100
AcDbEntity
  8
0
  6
Continuous
 62
     7
370
     0
100
AcDbLine
 10
299.6678831259
 20
12.1728696119
 30
0.0
 11
299.6678831259
 21
42.1728696119
 31
0.0
  0
LINE
  5
A9
330
1F
100
AcDbEntity
  8
0
  6
Continuous
 62
     7
370
     0
100
AcDbLine
 10
278.5361947814
 20
12.1728696119
 30
0.0
 11
278.5361947814
 21
64.6728696119
 31
0.0
  0
LINE
  5
AA
330
1F
100
AcDbEntity
  8
0
  6
Continuous
 62
     7
370
    15
100
AcDbLine
 10
64.9811947814
 20
302.0580413626
 30
0.0
 11
64.9811947814
 21
304.3080413626
 31
0.0
  0
LINE
  5
AB
330
1F
100
AcDbEntity
  8
0
  6
Continuous
 62
     7
370
    15
100
AcDbLine
 10
116.9261947814
 20
302.0580413626
 30
0.0
 11
116.9261947814
 21
304.3080413626
 31
0.0
  0
LINE
  5
AC
330
1F
100
AcDbEntity
  8
0
  6
Continuous
 62
     7
370
    15
100
AcDbLine
 10
168.8711947814
 20
302.0580413626
 30
0.0
 11
168.8711947814
 21
304.3080413626
 31
0.0
  0
LINE
  5
AD
330
1F
100
AcDbEntity
  8
0
  6
Continuous
 62
     7
370
    15
100
AcDbLine
 10
220.8161947814
 20
302.0580413626
 30
0.0
 11
220.8161947814
 21
304.3080413626
 31
0.0
  0
LINE
  5
AE
330
1F
100
AcDbEntity
  8
0
  6
Continuous
 62
     7
370
    15
100
AcDbLine
 10
272.7611947814
 20
302.0580413626
 30
0.0
 11
272.7611947814
 21
304.3080413626
 31
0.0
  0
LINE
  5
AF
330
1F
100
AcDbEntity
  8
0
  6
Continuous
 62
     7
370
    15
100
AcDbLine
 10
324.7061947814
 20
302.0580413626
 30
0.0
 11
324.7061947814
 21
304.3080413626
 31
0.0
  0
LINE
  5
B0
330
1F
100
AcDbEntity
  8
0
  6
Continuous
 62
     7
370
    15
100
AcDbLine
 10
376.6511947814
 20
302.0580413626
 30
0.0
 11
376.6511947814
 21
304.3080413626
 31
0.0
  0
LINE
  5
B1
330
1F
100
AcDbEntity
  8
0
  6
Continuous
 62
     7
370
    15
100
AcDbLine
 10
64.9736947814
 20
12.1728696119
 30
0.0
 11
64.9736947814
 21
9.9228696119
 31
0.0
  0
LINE
  5
B2
330
1F
100
AcDbEntity
  8
0
  6
Continuous
 62
     7
370
    15
100
AcDbLine
 10
116.9111947814
 20
12.1728696119
 30
0.0
 11
116.9111947814
 21
9.9228696119
 31
0.0
  0
LINE
  5
B3
330
1F
100
AcDbEntity
  8
0
  6
Continuous
 62
     7
370
    15
100
AcDbLine
 10
168.8486947814
 20
12.1728696119
 30
0.0
 11
168.8486947814
 21
9.9228696119
 31
0.0
  0
LINE
  5
B4
330
1F
100
AcDbEntity
  8
0
  6
Continuous
 62
     7
370
    15
100
AcDbLine
 10
220.7861947814
 20
12.1728696119
 30
0.0
 11
220.7861947814
 21
9.9228696119
 31
0.0
  0
LINE
  5
B5
330
1F
100
AcDbEntity
  8
0
  6
Continuous
 62
     7
370
    15
100
AcDbLine
 10
272.7236947814
 20
12.1728696119
 30
0.0
 11
272.7236947814
 21
9.9228696119
 31
0.0
  0
LINE
  5
B6
330
1F
100
AcDbEntity
  8
0
  6
Continuous
 62
     7
370
    15
100
AcDbLine
 10
324.6611947814
 20
12.1728696119
 30
0.0
 11
324.6611947814
 21
9.9228696119
 31
0.0
  0
LINE
  5
B7
330
1F
100
AcDbEntity
  8
0
  6
Continuous
 62
     7
370
     0
100
AcDbLine
 10
428.5361947814
 20
302.0580413626
 30
0.0
 11
13.0361947814
 21
302.0580413626
 31
0.0
  0
LINE
  5
B8
330
1F
100
AcDbEntity
  8
0
  6
Continuous
 62
     7
370
     0
100
AcDbLine
 10
428.5361947814
 20
12.1728696119
 30
0.0
 11
428.5361947814
 21
302.0580413626
 31
0.0
  0
LINE
  5
B9
330
1F
100
AcDbEntity
  8
0
  6
Continuous
 62
     7
370
     0
100
AcDbLine
 10
13.0361947814
 20
302.0580413626
 30
0.0
 11
13.0361947814
 21
12.1728696119
 31
0.0
  0
LINE
  5
BA
330
1F
100
AcDbEntity
  8
0
  6
Continuous
 62
     7
370
     0
100
AcDbLine
 10
13.0361947814
 20
12.1728696119
 30
0.0
 11
428.5361947814
 21
12.1728696119
 31
0.0
  0
LINE
  5
BB
330
1F
100
AcDbEntity
  8
0
  6
Continuous
 62
     7
370
    15
100
AcDbLine
 10
376.5986947814
 20
12.1728696119
 30
0.0
 11
376.5986947814
 21
9.9228696119
 31
0.0
  0
LINE
  5
BC
330
1F
100
AcDbEntity
  8
0
  6
Continuous
 62
     7
370
    15
100
AcDbLine
 10
13.0361947814
 20
60.4878696119
 30
0.0
 11
10.7861947814
 21
60.4878696119
 31
0.0
  0
LINE
  5
BD
330
1F
100
AcDbEntity
  8
0
  6
Continuous
 62
     7
370
    15
100
AcDbLine
 10
13.0361947814
 20
108.8028696119
 30
0.0
 11
10.7861947814
 21
108.8028696119
 31
0.0
  0
LINE
  5
BE
330
1F
100
AcDbEntity
  8
0
  6
Continuous
 62
     7
370
    15
100
AcDbLine
 10
13.0361947814
 20
157.1178696119
 30
0.0
 11
10.7861947814
 21
157.1178696119
 31
0.0
  0
LINE
  5
BF
330
1F
100
AcDbEntity
  8
0
  6
Continuous
 62
     7
370
    15
100
AcDbLine
 10
13.0361947814
 20
205.4328696119
 30
0.0
 11
10.7861947814
 21
205.4328696119
 31
0.0
  0
LINE
  5
C0
330
1F
100
AcDbEntity
  8
0
  6
Continuous
 62
     7
370
    15
100
AcDbLine
 10
13.0361947814
 20
253.7478696119
 30
0.0
 11
10.7861947814
 21
253.7478696119
 31
0.0
  0
LINE
  5
C1
330
1F
100
AcDbEntity
  8
0
  6
Continuous
 62
     7
370
    15
100
AcDbLine
 10
428.5361947814
 20
60.4878696119
 30
0.0
 11
430.7861947814
 21
60.4878696119
 31
0.0
  0
LINE
  5
C2
330
1F
100
AcDbEntity
  8
0
  6
Continuous
 62
     7
370
    15
100
AcDbLine
 10
428.5361947814
 20
108.8028696119
 30
0.0
 11
430.7861947814
 21
108.8028696119
 31
0.0
  0
LINE
  5
C3
330
1F
100
AcDbEntity
  8
0
  6
Continuous
 62
     7
370
    15
100
AcDbLine
 10
428.5361947814
 20
157.1178696119
 30
0.0
 11
430.7861947814
 21
157.1178696119
 31
0.0
  0
LINE
  5
C4
330
1F
100
AcDbEntity
  8
0
  6
Continuous
 62
     7
370
    15
100
AcDbLine
 10
428.5361947814
 20
205.4328696119
 30
0.0
 11
430.7861947814
 21
205.4328696119
 31
0.0
  0
LINE
  5
C5
330
1F
100
AcDbEntity
  8
0
  6
Continuous
 62
     7
370
    15
100
AcDbLine
 10
428.5361947814
 20
253.7478696119
 30
0.0
 11
430.7861947814
 21
253.7478696119
 31
0.0
  0
CIRCLE
  5
C6
330
1F
100
AcDbEntity
  8
0
  6
Continuous
 62
     7
370
     0
100
AcDbCircle
 10
252.5390662777
 20
26.6617788769
 30
0.0
 40
2.249999999999943
  0
CIRCLE
  5
C7
330
1F
100
AcDbEntity
  8
0
  6
Continuous
 62
     7
370
     0
100
AcDbCircle
 10
252.5390662777
 20
26.6617788769
 30
0.0
 40
3.749999999999943
  0
ARC
  5
C8
330
1F
100
AcDbEntity
  8
工作區域參考線
 62
     1
370
    30
100
AcDbCircle
 10
293.9288539319
 20
53.471762612
 30
0.0
 40
2.277829406127415
100
AcDbArc
 50
306.0377529468
 51
43.4396461534
  0
ARC
  5
C9
330
1F
100
AcDbEntity
  8
工作區域參考線
 62
     1
370
    30
100
AcDbCircle
 10
288.4073839081
 20
52.6833710263
 30
0.0
 40
4.772455056791824
100
AcDbArc
 50
45.5592925416
 51
125.8325555121
  0
ARC
  5
CA
330
1F
100
AcDbEntity
  8
工作區域參考線
 62
     1
370
    30
100
AcDbCircle
 10
288.8838683442
 20
53.4946037345
 30
0.0
 40
3.866351232519385
100
AcDbArc
 50
321.9435288427
 51
42.1815007004
  0
INSERT
  5
CB
330
1F
100
AcDbEntity
  8
0
  6
Continuous
 62
     7
100
AcDbBlockReference
  2
圖塊6
 10
280.446138547
 20
44.1660792579
 30
0.0
  0
MTEXT
  5
CD
330
1F
100
AcDbEntity
  8
0
  6
Continuous
 62
     7
370
     0
100
AcDbMText
 10
248.3140276206
 20
19.8312660554
 30
0.0
 40
3.96875
 41
0.0
 71
     1
 72
     1
  1
UNIT:m/m
  7
SLDTEXTSTYLE0
 73
     1
 44
1.0
  0
INSERT
  5
D4
330
1F
100
AcDbEntity
  8
0
  6
Continuous
 62
     7
370
     0
100
AcDbBlockReference
  2
SW_NOTE_0
 10
18.347261408
 20
290.8356456377
 30
0.0
  0
MTEXT
  5
D5
330
1F
100
AcDbEntity
  8
0
  6
Continuous
 62
     7
370
     0
100
AcDbMText
 10
298.0877840902
 20
60.6610161208
 30
0.0
 40
3.571875
 41
0.0
 71
     1
 72
     1
  1
Unice E-O Services Inc.
  7
SLDTEXTSTYLE0
 73
     1
 44
1.0
  0
MTEXT
  5
D6
330
1F
100
AcDbEntity
  8
0
  6
Continuous
 62
     7
370
     0
100
AcDbMText
 10
326.3385807224
 20
32.3800722766
 30
0.0
 40
2.778125
 41
0.0
 71
     1
 72
     1
  1
2017/12/4
  7
SLDTEXTSTYLE0
 73
     1
 44
1.0
  0
MTEXT
  5
D7
330
1F
100
AcDbEntity
  8
0
  6
Continuous
 62
     7
370
     0
100
AcDbMText
 10
378.913347376
 20
25.30676661
 30
0.0
 40
3.75
 41
0.0
 71
     1
 72
     1
  1
1:1.5
  7
SLDTEXTSTYLE0
 73
     1
 44
1.0
  0
MTEXT
  5
D8
330
1F
100
AcDbEntity
  8
0
  6
Continuous
 62
     7
370
     0
100
AcDbMText
 10
378.4613399977
 20
48.2278793156
 30
0.0
 40
3.75
 41
0.0
 71
     1
 72
     1
  1
CUH-4M
  7
SLDTEXTSTYLE0
 73
     1
 44
1.0
  0
MTEXT
  5
D9
330
1F
100
AcDbEntity
  8
0
  6
Continuous
 62
     7
370
     0
100
AcDbMText
 10
378.4613399977
 20
57.1623176818
 30
0.0
 40
3.75
 41
0.0
 71
     1
 72
     1
  1
CUH-4M
  7
SLDTEXTSTYLE0
 73
     1
 44
1.0
  0
MTEXT
  5
DA
330
1F
100
AcDbEntity
  8
0
  6
Continuous
 62
     7
370
     0
100
AcDbMText
 10
354.588280018
 20
24.7597193593
 30
0.0
 40
3.175
 41
0.0
 71
     1
 72
     1
  1
SCALE:
  7
SLDTEXTSTYLE0
 73
     1
 44
1.0
  0
MTEXT
  5
DB
330
1F
100
AcDbEntity
  8
0
  6
Continuous
 62
     7
370
     0
100
AcDbMText
 10
279.5004130184
 20
32.3800722766
 30
0.0
 40
2.778125
 41
0.0
 71
     1
 72
     1
  1
DRAWN
  7
SLDTEXTSTYLE0
 73
     1
 44
1.0
  0
MTEXT
  5
DC
330
1F
100
AcDbEntity
  8
0
  6
Continuous
 62
     7
370
     0
100
AcDbMText
 10
304.8342551905
 20
40.024812462
 30
0.0
 40
2.778125
 41
0.0
 71
     1
 72
     1
  1
NAME
  7
SLDTEXTSTYLE0
 73
     1
 44
1.0
  0
MTEXT
  5
DD
330
1F
100
AcDbEntity
  8
0
  6
Continuous
 62
     7
370
     0
100
AcDbMText
 10
331.3065233636
 20
40.024812462
 30
0.0
 40
2.778125
 41
0.0
 71
     1
 72
     1
  1
DATE
  7
SLDTEXTSTYLE0
 73
     1
 44
1.0
  0
MTEXT
  5
DE
330
1F
100
AcDbEntity
  8
0
  6
Continuous
 62
     7
370
     0
100
AcDbMText
 10
354.4134474968
 20
47.6808320649
 30
0.0
 40
3.175
 41
0.0
 71
     1
 72
     1
  1
DWG. NO.
  7
SLDTEXTSTYLE0
 73
     1
 44
1.0
  0
MTEXT
  5
DF
330
1F
100
AcDbEntity
  8
0
  6
Continuous
 62
     7
370
     0
100
AcDbMText
 10
354.5444860632
 20
62.8260987365
 30
0.0
 40
3.175
 41
0.0
 71
     1
 72
     1
  1
TITLE:
  7
SLDTEXTSTYLE0
 73
     1
 44
1.0
  0
MTEXT
  5
E0
330
1F
100
AcDbEntity
  8
0
  6
Continuous
 62
     7
370
     0
100
AcDbMText
 10
304.5471314703
 20
24.3605684586
 30
0.0
 40
2.778125
 41
0.0
 71
     1
 72
     1
  1
Johnny
  7
SLDTEXTSTYLE0
 73
     1
 44
1.0
  0
MTEXT
  5
E1
330
1F
100
AcDbEntity
  8
0
  6
Continuous
 62
     7
370
     0
100
AcDbMText
 10
326.3385807224
 20
24.3605684586
 30
0.0
 40
2.778125
 41
0.0
 71
     1
 72
     1
  1
2017/12/4
  7
SLDTEXTSTYLE0
 73
     1
 44
1.0
  0
MTEXT
  5
E2
330
1F
100
AcDbEntity
  8
0
  6
Continuous
 62
     7
370
     0
100
AcDbMText
 10
279.5004130184
 20
24.3605684586
 30
0.0
 40
2.778125
 41
0.0
 71
     1
 72
     1
  1
ENG APPR.
  7
SLDTEXTSTYLE0
 73
     1
 44
1.0
  0
MTEXT
  5
E3
330
1F
100
AcDbEntity
  8
0
  6
Continuous
 62
     7
370
     0
100
AcDbMText
 10
354.588280018
 20
17.5280083932
 30
0.0
 40
3.175
 41
0.0
 71
     1
 72
     1
  1
REV
  7
SLDTEXTSTYLE0
 73
     1
 44
1.0
  0
MTEXT
  5
E4
330
1F
100
AcDbEntity
  8
0
  6
Continuous
 62
     7
370
     0
100
AcDbMText
 10
354.5444860632
 20
40.4239633627
 30
0.0
 40
3.175
 41
0.0
 71
     1
 72
     1
  1
MATERIAL:
  7
SLDTEXTSTYLE0
 73
     1
 44
1.0
  0
MTEXT
  5
E5
330
1F
100
AcDbEntity
  8
0
  6
Continuous
 62
     7
370
     0
100
AcDbMText
 10
378.913347376
 20
33.326270428
 30
0.0
 40
3.75
 41
0.0
 71
     1
 72
     1
  1
N/A
  7
SLDTEXTSTYLE0
 73
     1
 44
1.0
  0
MTEXT
  5
E6
330
1F
100
AcDbEntity
  8
0
  6
Continuous
 62
     7
370
     0
100
AcDbMText
 10
39.90448973
 20
306.6800274854
 30
0.0
 40
3.175
 41
0.0
 71
     1
 72
     1
  1
1
  7
SLDTEXTSTYLE0
 73
     1
 44
1.0
  0
MTEXT
  5
E7
330
1F
100
AcDbEntity
  8
0
  6
Continuous
 62
     7
370
     0
100
AcDbMText
 10
91.0756493586
 20
306.6800274854
 30
0.0
 40
3.175
 41
0.0
 71
     1
 72
     1
  1
2
  7
SLDTEXTSTYLE0
 73
     1
 44
1.0
  0
MTEXT
  5
E8
330
1F
100
AcDbEntity
  8
0
  6
Continuous
 62
     7
370
     0
100
AcDbMText
 10
142.3514915859
 20
306.6800274854
 30
0.0
 40
3.175
 41
0.0
 71
     1
 72
     1
  1
3
  7
SLDTEXTSTYLE0
 73
     1
 44
1.0
  0
MTEXT
  5
E9
330
1F
100
AcDbEntity
  8
0
  6
Continuous
 62
     7
370
     0
100
AcDbMText
 10
193.8800044277
 20
306.4488876546
 30
0.0
 40
3.175
 41
0.0
 71
     1
 72
     1
  1
4
  7
SLDTEXTSTYLE0
 73
     1
 44
1.0
  0
MTEXT
  5
EA
330
1F
100
AcDbEntity
  8
0
  6
Continuous
 62
     7
370
     0
100
AcDbMText
 10
245.5534851959
 20
306.6800274854
 30
0.0
 40
3.175
 41
0.0
 71
     1
 72
     1
  1
5
  7
SLDTEXTSTYLE0
 73
     1
 44
1.0
  0
MTEXT
  5
EB
330
1F
100
AcDbEntity
  8
0
  6
Continuous
 62
     7
370
     0
100
AcDbMText
 10
297.9573255623
 20
306.6800274854
 30
0.0
 40
3.175
 41
0.0
 71
     1
 72
     1
  1
6
  7
SLDTEXTSTYLE0
 73
     1
 44
1.0
  0
MTEXT
  5
EC
330
1F
100
AcDbEntity
  8
0
  6
Continuous
 62
     7
370
     0
100
AcDbMText
 10
351.544598611
 20
306.6800274854
 30
0.0
 40
3.175
 41
0.0
 71
     1
 72
     1
  1
7
  7
SLDTEXTSTYLE0
 73
     1
 44
1.0
  0
MTEXT
  5
ED
330
1F
100
AcDbEntity
  8
0
  6
Continuous
 62
     7
370
     0
100
AcDbMText
 10
399.4181730741
 20
306.6800274854
 30
0.0
 40
3.175
 41
0.0
 71
     1
 72
     1
  1
8
  7
SLDTEXTSTYLE0
 73
     1
 44
1.0
  0
MTEXT
  5
EE
330
1F
100
AcDbEntity
  8
0
  6
Continuous
 62
     7
370
     0
100
AcDbMText
 10
8.0352354832
 20
278.7169534319
 30
0.0
 40
3.175
 41
0.0
 71
     1
 72
     1
  1
A
  7
SLDTEXTSTYLE0
 73
     1
 44
1.0
  0
MTEXT
  5
EF
330
1F
100
AcDbEntity
  8
0
  6
Continuous
 62
     7
370
     0
100
AcDbMText
 10
8.3865647747
 20
231.4489572357
 30
0.0
 40
3.175
 41
0.0
 71
     1
 72
     1
  1
B
  7
SLDTEXTSTYLE0
 73
     1
 44
1.0
  0
MTEXT
  5
F0
330
1F
100
AcDbEntity
  8
0
  6
Continuous
 62
     7
370
     0
100
AcDbMText
 10
8.3865647747
 20
181.9115271345
 30
0.0
 40
3.175
 41
0.0
 71
     1
 72
     1
  1
C
  7
SLDTEXTSTYLE0
 73
     1
 44
1.0
  0
MTEXT
  5
F1
330
1F
100
AcDbEntity
  8
0
  6
Continuous
 62
     7
370
     0
100
AcDbMText
 10
8.3865647747
 20
133.1179830331
 30
0.0
 40
3.175
 41
0.0
 71
     1
 72
     1
  1
D
  7
SLDTEXTSTYLE0
 73
     1
 44
1.0
  0
MTEXT
  5
F2
330
1F
100
AcDbEntity
  8
0
  6
Continuous
 62
     7
370
     0
100
AcDbMText
 10
8.3865647747
 20
86.3338273796
 30
0.0
 40
3.175
 41
0.0
 71
     1
 72
     1
  1
E
  7
SLDTEXTSTYLE0
 73
     1
 44
1.0
  0
MTEXT
  5
F3
330
1F
100
AcDbEntity
  8
0
  6
Continuous
 62
     7
370
     0
100
AcDbMText
 10
8.3865647747
 20
38.3541318378
 30
0.0
 40
3.175
 41
0.0
 71
     1
 72
     1
  1
F
  7
SLDTEXTSTYLE0
 73
     1
 44
1.0
  0
MTEXT
  5
F4
330
1F
100
AcDbEntity
  8
0
  6
Continuous
 62
     7
370
     0
100
AcDbMText
 10
399.2787925446
 20
9.9354335945
 30
0.0
 40
3.175
 41
0.0
 71
     1
 72
     1
  1
8
  7
SLDTEXTSTYLE0
 73
     1
 44
1.0
  0
MTEXT
  5
F5
330
1F
100
AcDbEntity
  8
0
  6
Continuous
 62
     7
370
     0
100
AcDbMText
 10
351.4052180815
 20
9.9354335945
 30
0.0
 40
3.175
 41
0.0
 71
     1
 72
     1
  1
7
  7
SLDTEXTSTYLE0
 73
     1
 44
1.0
  0
MTEXT
  5
F6
330
1F
100
AcDbEntity
  8
0
  6
Continuous
 62
     7
370
     0
100
AcDbMText
 10
297.8179450327
 20
9.9354335945
 30
0.0
 40
3.175
 41
0.0
 71
     1
 72
     1
  1
6
  7
SLDTEXTSTYLE0
 73
     1
 44
1.0
  0
MTEXT
  5
F7
330
1F
100
AcDbEntity
  8
0
  6
Continuous
 62
     7
370
     0
100
AcDbMText
 10
245.4141046664
 20
9.9354335945
 30
0.0
 40
3.175
 41
0.0
 71
     1
 72
     1
  1
5
  7
SLDTEXTSTYLE0
 73
     1
 44
1.0
  0
MTEXT
  5
F8
330
1F
100
AcDbEntity
  8
0
  6
Continuous
 62
     7
370
     0
100
AcDbMText
 10
193.7406238981
 20
9.7042937637
 30
0.0
 40
3.175
 41
0.0
 71
     1
 72
     1
  1
4
  7
SLDTEXTSTYLE0
 73
     1
 44
1.0
  0
MTEXT
  5
F9
330
1F
100
AcDbEntity
  8
0
  6
Continuous
 62
     7
370
     0
100
AcDbMText
 10
142.2121110564
 20
9.9354335945
 30
0.0
 40
3.175
 41
0.0
 71
     1
 72
     1
  1
3
  7
SLDTEXTSTYLE0
 73
     1
 44
1.0
  0
MTEXT
  5
FA
330
1F
100
AcDbEntity
  8
0
  6
Continuous
 62
     7
370
     0
100
AcDbMText
 10
90.9362688291
 20
9.9354335945
 30
0.0
 40
3.175
 41
0.0
 71
     1
 72
     1
  1
2
  7
SLDTEXTSTYLE0
 73
     1
 44
1.0
  0
MTEXT
  5
FB
330
1F
100
AcDbEntity
  8
0
  6
Continuous
 62
     7
370
     0
100
AcDbMText
 10
39.7651092004
 20
9.9354335945
 30
0.0
 40
3.175
 41
0.0
 71
     1
 72
     1
  1
1
  7
SLDTEXTSTYLE0
 73
     1
 44
1.0
  0
MTEXT
  5
FC
330
1F
100
AcDbEntity
  8
0
  6
Continuous
 62
     7
370
     0
100
AcDbMText
 10
430.6535769217
 20
279.9637363637
 30
0.0
 40
3.175
 41
0.0
 71
     1
 72
     1
  1
A
  7
SLDTEXTSTYLE0
 73
     1
 44
1.0
  0
MTEXT
  5
FD
330
1F
100
AcDbEntity
  8
0
  6
Continuous
 62
     7
370
     0
100
AcDbMText
 10
431.0049062132
 20
232.6957401676
 30
0.0
 40
3.175
 41
0.0
 71
     1
 72
     1
  1
B
  7
SLDTEXTSTYLE0
 73
     1
 44
1.0
  0
MTEXT
  5
FE
330
1F
100
AcDbEntity
  8
0
  6
Continuous
 62
     7
370
     0
100
AcDbMText
 10
431.0049062132
 20
183.1583100664
 30
0.0
 40
3.175
 41
0.0
 71
     1
 72
     1
  1
C
  7
SLDTEXTSTYLE0
 73
     1
 44
1.0
  0
MTEXT
  5
FF
330
1F
100
AcDbEntity
  8
0
  6
Continuous
 62
     7
370
     0
100
AcDbMText
 10
431.0049062132
 20
134.364765965
 30
0.0
 40
3.175
 41
0.0
 71
     1
 72
     1
  1
D
  7
SLDTEXTSTYLE0
 73
     1
 44
1.0
  0
MTEXT
  5
100
330
1F
100
AcDbEntity
  8
0
  6
Continuous
 62
     7
370
     0
100
AcDbMText
 10
431.0049062132
 20
87.5806103114
 30
0.0
 40
3.175
 41
0.0
 71
     1
 72
     1
  1
E
  7
SLDTEXTSTYLE0
 73
     1
 44
1.0
  0
MTEXT
  5
101
330
1F
100
AcDbEntity
  8
0
  6
Continuous
 62
     7
370
     0
100
AcDbMText
 10
431.0049062132
 20
39.6009147696
 30
0.0
 40
3.175
 41
0.0
 71
     1
 72
     1
  1
F
  7
SLDTEXTSTYLE0
 73
     1
 44
1.0
  0
MTEXT
  5
102
330
1F
100
AcDbEntity
  8
0
  6
Continuous
 62
     7
370
     0
100
AcDbMText
 10
304.7329693203
 20
32.3800722766
 30
0.0
 40
2.778125
 41
0.0
 71
     1
 72
     1
  1
Sky
  7
SLDTEXTSTYLE0
 73
     1
 44
1.0
  0
MTEXT
  5
104
330
1F
100
AcDbEntity
  8
0
  6
Continuous
 62
     7
370
     0
100
AcDbMText
 10
379.2723359468
 20
18.3329404977
 30
0.0
 40
3.571875
 41
0.0
 71
     1
 72
     1
  1
0
  7
SLDTEXTSTYLE1
 73
     1
 44
1.0
  0
INSERT
  5
10A
330
1F
100
AcDbEntity
  8
SLD-0
 62
     7
100
AcDbBlockReference
  2
SW_NOTE_1
 10
298.0877840902
 20
50.3219617818
 30
0.0
  0
SPLINE
  5
10B
330
1F
100
AcDbEntity
  8
0
  6
Continuous
 62
     7
370
    30
100
AcDbSpline
210
0.0
220
0.0
230
1.0
 70
     8
 71
     3
 72
     9
 73
     5
 74
     0
 42
0.000000001
 43
0.00000001
 40
0.0
 40
0.0
 40
0.0
 40
0.0
 40
0.4998415581731465
 40
1.0
 40
1.0
 40
1.0
 40
1.0
 10
112.2692212820812
 20
77.21500858562615
 30
0.0
 10
112.3060497201613
 20
77.1516322410402
 30
0.0
 10
112.3797299443802
 20
77.02483937328111
 30
0.0
 10
112.4533383541173
 20
76.89799802927588
 30
0.0
 10
112.4901542216367
 20
76.834557260299
 30
0.0
  0
LINE
  5
10C
330
1F
100
AcDbEntity
  8
0
  6
Continuous
 62
     7
370
    30
100
AcDbLine
 10
112.2373356493
 20
80.8852241923
 30
0.0
 11
112.2103186217
 21
80.8852241923
 31
0.0
  0
SPLINE
  5
10D
330
1F
100
AcDbEntity
  8
0
  6
Continuous
 62
     7
370
    30
100
AcDbSpline
210
0.0
220
0.0
230
1.0
 70
     8
 71
     3
 72
     9
 73
     5
 74
     0
 42
0.000000001
 43
0.00000001
 40
0.0
 40
0.0
 40
0.0
 40
0.0
 40
0.4997993380108162
 40
1.0
 40
1.0
 40
1.0
 40
1.0
 10
112.4717610082417
 20
80.49006635221271
 30
0.0
 10
112.4349166512148
 20
80.5534356479038
 30
0.0
 10
112.3611983522401
 20
80.68022512294255
 30
0.0
 10
112.2875624719928
 20
80.8071803595594
 30
0.0
 10
112.2507297559469
 20
80.87068345295813
 30
0.0
  0
LINE
  5
10E
330
1F
100
AcDbEntity
  8
0
  6
Continuous
 62
     7
370
    30
100
AcDbLine
 10
113.1173982731
 20
77.0006362897
 30
0.0
 11
113.4731001812
 21
77.3563381833
 31
0.0
  0
SPLINE
  5
10F
330
1F
100
AcDbEntity
  8
0
  6
Continuous
 62
     7
370
    30
100
AcDbSpline
210
0.0
220
0.0
230
1.0
 70
     8
 71
     3
 72
     9
 73
     5
 74
     0
 42
0.000000001
 43
0.00000001
 40
0.0
 40
0.0
 40
0.0
 40
0.0
 40
0.5001832345882512
 40
1.0
 40
1.0
 40
1.0
 40
1.0
 10
112.5982289677314
 20
76.8370303873959
 30
0.0
 10
112.6350481847596
 20
76.90050811597924
 30
0.0
 10
112.7086596424858
 20
77.0274170649279
 30
0.0
 10
112.7823467156692
 20
77.15424011124078
 30
0.0
 10
112.8191767502404
 20
77.21762839602854
 30
0.0
  0
LINE
  5
110
330
1F
100
AcDbEntity
  8
0
  6
Continuous
 62
     7
370
    30
100
AcDbLine
 10
112.4998356108
 20
76.827452666
 30
0.0
 11
112.5873356368
 21
76.827452666
 31
0.0
  0
SPLINE
  5
111
330
1F
100
AcDbEntity
  8
0
  6
Continuous
 62
     7
370
    30
100
AcDbSpline
210
0.0
220
0.0
230
1.0
 70
     8
 71
     3
 72
     9
 73
     5
 74
     0
 42
0.000000001
 43
0.00000001
 40
0.0
 40
0.0
 40
0.0
 40
0.0
 40
0.9021199529192235
 40
1.0
 40
1.0
 40
1.0
 40
1.0
 10
112.9669372176114
 20
77.21865005689291
 30
0.0
 10
113.0031578350158
 20
77.1563643612984
 30
0.0
 10
113.043308390701
 20
77.08732066550945
 30
0.0
 10
113.0834003227064
 20
77.01824924038382
 30
0.0
 10
113.0873245228987
 20
77.0114885260406
 30
0.0
  0
LINE
  5
112
330
1F
100
AcDbEntity
  8
0
  6
Continuous
 62
     7
370
    30
100
AcDbLine
 10
112.2103186217
 20
77.2063384381
 30
0.0
 11
112.2742584566
 21
77.2063384381
 31
0.0
  0
LINE
  5
113
330
1F
100
AcDbEntity
  8
0
  6
Continuous
 62
     7
370
    30
100
AcDbLine
 10
112.8059546763
 20
77.2063384381
 30
0.0
 11
112.9740927072
 21
77.2063384381
 31
0.0
  0
SPLINE
  5
114
330
1F
100
AcDbEntity
  8
0
  6
Continuous
 62
     7
370
    30
100
AcDbSpline
210
0.0
220
0.0
230
1.0
 70
     8
 71
     3
 72
     9
 73
     5
 74
     0
 42
0.000000001
 43
0.00000001
 40
0.0
 40
0.0
 40
0.0
 40
0.0
 40
0.5002399248411474
 40
1.0
 40
1.0
 40
1.0
 40
1.0
 10
112.8383439800064
 20
80.87522062371102
 30
0.0
 10
112.8014449232397
 20
80.81163087958386
 30
0.0
 10
112.7276822047234
 20
80.68451238909681
 30
0.0
 10
112.6538108364259
 20
80.55745029580936
 30
0.0
 10
112.6168928758535
 20
80.4939497345182
 30
0.0
  0
SPLINE
  5
115
330
1F
100
AcDbEntity
  8
0
  6
Continuous
 62
     7
370
    30
100
AcDbSpline
210
0.0
220
0.0
230
1.0
 70
     8
 71
     3
 72
     9
 73
     5
 74
     0
 42
0.000000001
 43
0.00000001
 40
0.0
 40
0.0
 40
0.0
 40
0.0
 40
0.4997477420738327
 40
1.0
 40
1.0
 40
1.0
 40
1.0
 10
113.169497505628
 20
80.49448105404701
 30
0.0
 10
113.1326013990879
 20
80.55798501756757
 30
0.0
 10
113.0587719378741
 20
80.6850570544657
 30
0.0
 10
112.9850467170731
 20
80.81216979446926
 30
0.0
 10
112.9481655089013
 20
80.87575822966723
 30
0.0
  0
LINE
  5
116
330
1F
100
AcDbEntity
  8
0
  6
Continuous
 62
     7
370
    30
100
AcDbLine
 10
112.9373356243
 20
80.8852241923
 30
0.0
 11
112.8498356275
 21
80.8852241923
 31
0.0
  0
LINE
  5
117
330
1F
100
AcDbEntity
  8
0
  6
Continuous
 62
     7
370
    30
100
AcDbLine
 10
113.4731001812
 20
80.3563382094
 30
0.0
 11
113.3231001741
 21
80.5063381874
 31
0.0
  0
LINE
  5
118
330
1F
100
AcDbEntity
  8
0
  6
Continuous
 62
     7
370
    30
100
AcDbLine
 10
113.3231001741
 20
80.5063381874
 30
0.0
 11
113.1626103606
 21
80.5063381874
 31
0.0
  0
LINE
  5
119
330
1F
100
AcDbEntity
  8
0
  6
Continuous
 62
     7
370
    30
100
AcDbLine
 10
112.6309546826
 20
80.5063381874
 30
0.0
 11
112.4623039514
 21
80.5063381874
 31
0.0
  0
LINE
  5
11A
330
1F
100
AcDbEntity
  8
0
  6
Continuous
 62
     7
370
    30
100
AcDbLine
 10
84.0826909416
 20
88.3255728138
 30
0.0
 11
83.557123261
 21
87.2974131805
 31
0.0
  0
LINE
  5
11B
330
1F
100
AcDbEntity
  8
0
  6
Continuous
 62
     7
370
    30
100
AcDbLine
 10
83.557123261
 20
87.2974131805
 30
0.0
 11
84.1847508573
 21
86.3281787922
 31
0.0
  0
LINE
  5
11C
330
1F
100
AcDbEntity
  8
0
  6
Continuous
 62
     7
370
    30
100
AcDbLine
 10
85.2358862185
 20
88.3844975931
 30
0.0
 11
84.0826909416
 21
88.3255728138
 31
0.0
  0
LINE
  5
11D
330
1F
100
AcDbEntity
  8
0
  6
Continuous
 62
     7
370
    30
100
AcDbLine
 10
85.8635138147
 20
87.4152632047
 30
0.0
 11
85.2358862185
 21
88.3844975931
 31
0.0
  0
CIRCLE
  5
11E
330
1F
100
AcDbEntity
  8
0
  6
Continuous
 62
     7
370
    30
100
AcDbCircle
 10
84.7103186182
 20
87.3563382808
 30
0.0
 40
2.0
  0
LINE
  5
11F
330
1F
100
AcDbEntity
  8
0
  6
Continuous
 62
     7
370
    30
100
AcDbLine
 10
84.1847508573
 20
86.3281787922
 30
0.0
 11
85.3379479968
 21
86.3871035715
 31
0.0
  0
LINE
  5
120
330
1F
100
AcDbEntity
  8
0
  6
Continuous
 62
     7
370
    30
100
AcDbLine
 10
85.3379479968
 20
86.3871035715
 30
0.0
 11
85.8635138147
 21
87.4152632047
 31
0.0
  0
SPLINE
  5
121
330
1F
100
AcDbEntity
  8
0
  6
Continuous
 62
     7
370
    30
100
AcDbSpline
210
0.0
220
0.0
230
1.0
 70
    11
 71
     3
 72
    31
 73
    27
 74
     0
 42
0.000000001
 43
0.00000001
 40
0.0
 40
0.0
 40
0.0
 40
0.0
 40
0.0598608310767154
 40
0.0924113544464761
 40
0.1250000960808426
 40
0.1575507394450829
 40
0.1901392615854849
 40
0.2500000678844282
 40
0.3098608741833716
 40
0.3424113996652903
 40
0.3750000064704949
 40
0.407550691638441
 40
0.4401393007769083
 40
0.5000001318536237
 40
0.5598608330302057
 40
0.5924114151120784
 40
0.6250001055118972
 40
0.6575507070725125
 40
0.6901392596319945
 40
0.7500000659309379
 40
0.8098608722298812
 40
0.8424113977118001
 40
0.8750000045170047
 40
0.9075506896849507
 40
0.9401392988234181
 40
1.0
 40
1.0
 40
1.0
 40
1.0
 10
97.21031779281937
 20
142.6063390997293
 30
0.0
 10
97.49324275476162
 20
142.5761184718544
 30
0.0
 10
97.93001381973893
 20
142.5294647735358
 30
0.0
 10
98.45453013573257
 20
142.2493527116909
 30
0.0
 10
98.81199645512541
 20
141.9586610996159
 30
0.0
 10
99.10470516445982
 20
141.6006025145983
 30
0.0
 10
99.37597800936474
 20
141.0762666658413
 30
0.0
 10
99.5149290138641
 20
140.356320671217
 30
0.0
 10
99.37601280117612
 20
139.6366437912353
 30
0.0
 10
99.10480427148104
 20
139.1121273520965
 30
0.0
 10
98.81224840098183
 20
138.7546610951898
 30
0.0
 10
98.45468755040055
 20
138.461950924648
 30
0.0
 10
97.93019141685629
 20
138.1906816673861
 30
0.0
 10
97.21031913281172
 20
138.0517244931451
 30
0.0
 10
96.49062288451692
 20
138.19064768719
 30
0.0
 10
95.96610670817788
 20
138.4618506607065
 30
0.0
 10
95.6086408453756
 20
138.7544092955258
 30
0.0
 10
95.31593344427493
 20
139.111970538516
 30
0.0
 10
95.04465888451494
 20
139.6364664163225
 30
0.0
 10
94.90570863184293
 20
140.3563190501065
 30
0.0
 10
95.04462461951634
 20
141.0760897171286
 30
0.0
 10
95.31583318353952
 20
141.6004452435735
 30
0.0
 10
95.60838904046994
 20
141.9584096680332
 30
0.0
 10
95.96594991846166
 20
142.2492539381573
 30
0.0
 10
96.49044538395047
 20
142.5294402252991
 30
0.0
 10
96.92739438725626
 20
142.5761163947475
 30
0.0
 10
97.21031779281937
 20
142.6063390997293
 30
0.0
  0
LINE
  5
122
330
1F
100
AcDbEntity
  8
0
  6
Continuous
 62
     7
370
    30
100
AcDbLine
 10
95.7669428908
 20
140.3563382653
 30
0.0
 11
96.4886303418
 21
139.1063394574
 31
0.0
  0
LINE
  5
123
330
1F
100
AcDbEntity
  8
0
  6
Continuous
 62
     7
370
    30
100
AcDbLine
 10
96.4886303418
 20
139.1063394574
 30
0.0
 11
97.9320061751
 21
139.1063394574
 31
0.0
  0
LINE
  5
124
330
1F
100
AcDbEntity
  8
0
  6
Continuous
 62
     7
370
    30
100
AcDbLine
 10
97.9320061751
 20
139.1063394574
 30
0.0
 11
98.6536945575
 21
140.3563382653
 31
0.0
  0
LINE
  5
125
330
1F
100
AcDbEntity
  8
0
  6
Continuous
 62
     7
370
    30
100
AcDbLine
 10
98.6536945575
 20
140.3563382653
 30
0.0
 11
97.9320061751
 21
141.6063370732
 31
0.0
  0
LINE
  5
126
330
1F
100
AcDbEntity
  8
0
  6
Continuous
 62
     7
370
    30
100
AcDbLine
 10
97.9320061751
 20
141.6063370732
 30
0.0
 11
96.4886303418
 21
141.6063370732
 31
0.0
  0
LINE
  5
127
330
1F
100
AcDbEntity
  8
0
  6
Continuous
 62
     7
370
    30
100
AcDbLine
 10
96.4886303418
 20
141.6063370732
 30
0.0
 11
95.7669428908
 21
140.3563382653
 31
0.0
  0
CIRCLE
  5
128
330
1F
100
AcDbEntity
  8
0
  6
Continuous
 62
     7
370
    30
100
AcDbCircle
 10
97.2103186182
 20
140.3563382808
 30
0.0
 40
2.749999999999972
  0
SPLINE
  5
129
330
1F
100
AcDbEntity
  8
0
  6
Continuous
 62
     7
370
    30
100
AcDbSpline
210
0.0
220
0.0
230
1.0
 70
    11
 71
     3
 72
    31
 73
    27
 74
     0
 42
0.000000001
 43
0.00000001
 40
0.0
 40
0.0
 40
0.0
 40
0.0
 40
0.0598608299476027
 40
0.0924114114154967
 40
0.1250001012006181
 40
0.1575507021472543
 40
0.1901392540920414
 40
0.2500000592618725
 40
0.3098608644317036
 40
0.3424113892996448
 40
0.3749999954901533
 40
0.4075506800441188
 40
0.4401392885678901
 40
0.5000001185154929
 40
0.5598608185629647
 40
0.5924114000308586
 40
0.6250000898159799
 40
0.6575507743699454
 40
0.6901392654766794
 40
0.7500000706465105
 40
0.8098608758163416
 40
0.8424114006842828
 40
0.8750000068747915
 40
0.9075506914287569
 40
0.9401392999525282
 40
1.0
 40
1.0
 40
1.0
 40
1.0
 10
87.21031801633679
 20
142.6063390997293
 30
0.0
 10
87.4932429072673
 20
142.5761183327317
 30
0.0
 10
87.93001414011442
 20
142.5294643899989
 30
0.0
 10
88.45453098384392
 20
142.2493532284695
 30
0.0
 10
88.8119968210182
 20
141.9586610636404
 30
0.0
 10
89.10470422895419
 20
141.6006019864468
 30
0.0
 10
89.37597878650475
 20
141.0762671267311
 30
0.0
 10
89.51492904045632
 20
140.3563205638047
 30
0.0
 10
89.37601305152876
 20
139.6366438058775
 30
0.0
 10
89.10480448963887
 20
139.1121273491631
 30
0.0
 10
88.8122486261089
 20
138.7546610961061
 30
0.0
 10
88.4546877728348
 20
138.461950923914
 30
0.0
 10
87.9301916441621
 20
138.190681670177
 30
0.0
 10
87.21031932991659
 20
138.0517244734241
 30
0.0
 10
86.49062318580319
 20
138.1906477452941
 30
0.0
 10
85.96610678405058
 20
138.4618505503924
 30
0.0
 10
85.60864132546897
 20
138.7544099661972
 30
0.0
 10
85.31593127646308
 20
139.1119693860845
 30
0.0
 10
85.04466025385886
 20
139.6364673887199
 30
0.0
 10
84.90570844845905
 20
140.3563188181369
 30
0.0
 10
85.04462489843075
 20
141.0760897487098
 30
0.0
 10
85.3158333960854
 20
141.6004452373188
 30
0.0
 10
85.60838926691966
 20
141.9584096697048
 30
0.0
 10
85.96595014121158
 20
142.2492539377197
 30
0.0
 10
86.49044560785516
 20
142.5294402255199
 30
0.0
 10
86.92739461092589
 20
142.5761163948343
 30
0.0
 10
87.21031801633679
 20
142.6063390997293
 30
0.0
  0
LINE
  5
12A
330
1F
100
AcDbEntity
  8
0
  6
Continuous
 62
     7
370
    30
100
AcDbLine
 10
85.7669431143
 20
140.3563382653
 30
0.0
 11
86.4886305653
 21
139.1063394574
 31
0.0
  0
LINE
  5
12B
330
1F
100
AcDbEntity
  8
0
  6
Continuous
 62
     7
370
    30
100
AcDbLine
 10
86.4886305653
 20
139.1063394574
 30
0.0
 11
87.93200733
 21
139.1063394574
 31
0.0
  0
LINE
  5
12C
330
1F
100
AcDbEntity
  8
0
  6
Continuous
 62
     7
370
    30
100
AcDbLine
 10
87.93200733
 20
139.1063394574
 30
0.0
 11
88.653694781
 21
140.3563382653
 31
0.0
  0
LINE
  5
12D
330
1F
100
AcDbEntity
  8
0
  6
Continuous
 62
     7
370
    30
100
AcDbLine
 10
88.653694781
 20
140.3563382653
 30
0.0
 11
87.93200733
 21
141.6063370732
 31
0.0
  0
LINE
  5
12E
330
1F
100
AcDbEntity
  8
0
  6
Continuous
 62
     7
370
    30
100
AcDbLine
 10
87.93200733
 20
141.6063370732
 30
0.0
 11
86.4886305653
 21
141.6063370732
 31
0.0
  0
LINE
  5
12F
330
1F
100
AcDbEntity
  8
0
  6
Continuous
 62
     7
370
    30
100
AcDbLine
 10
86.4886305653
 20
141.6063370732
 30
0.0
 11
85.7669431143
 21
140.3563382653
 31
0.0
  0
CIRCLE
  5
130
330
1F
100
AcDbEntity
  8
0
  6
Continuous
 62
     7
370
    30
100
AcDbCircle
 10
87.2103186182
 20
140.3563382808
 30
0.0
 40
2.749999999999972
  0
LINE
  5
131
330
1F
100
AcDbEntity
  8
0
  6
Continuous
 62
     7
370
    30
100
AcDbLine
 10
112.2245993474
 20
80.4257492152
 30
0.0
 11
112.2103186217
 21
80.5567821105
 31
0.0
  0
LINE
  5
132
330
1F
100
AcDbEntity
  8
0
  6
Continuous
 62
     7
370
    30
100
AcDbLine
 10
112.2103186217
 20
80.4092058995
 30
0.0
 11
112.2245993474
 21
80.4257492152
 31
0.0
  0
LINE
  5
133
330
1F
100
AcDbEntity
  8
0
  6
Continuous
 62
     7
370
    30
100
AcDbLine
 10
112.2591010071
 20
79.9810489723
 30
0.0
 11
112.2103186217
 21
79.9227160485
 31
0.0
  0
SPLINE
  5
134
330
1F
100
AcDbEntity
  8
0
  6
Continuous
 62
     7
370
    30
100
AcDbSpline
210
0.0
220
0.0
230
1.0
 70
     8
 71
     3
 72
    13
 73
     9
 74
     0
 42
0.000000001
 43
0.00000001
 40
0.0
 40
0.0
 40
0.0
 40
0.0
 40
0.1254880423212248
 40
0.3134709981998487
 40
0.50145397932027
 40
0.694376710716293
 40
0.8457734882035267
 40
1.0
 40
1.0
 40
1.0
 40
1.0
 10
112.489719701448
 20
76.87144182520535
 30
0.0
 10
112.4795876153013
 20
76.88533874692477
 30
0.0
 10
112.454277513243
 20
76.92005346430108
 30
0.0
 10
112.4167792615283
 20
77.32167850302206
 30
0.0
 10
112.3746674802428
 20
77.96443292248198
 30
0.0
 10
112.329780064751
 20
78.70451315886118
 30
0.0
 10
112.2947913393852
 20
79.4121146269473
 30
0.0
 10
112.2710709926155
 20
79.79023719129758
 30
0.0
 10
112.2591010071165
 20
79.98104897225824
 30
0.0
  0
SPLINE
  5
135
330
1F
100
AcDbEntity
  8
0
  6
Continuous
 62
     7
370
    30
100
AcDbSpline
210
0.0
220
0.0
230
1.0
 70
     8
 71
     3
 72
     9
 73
     5
 74
     0
 42
0.000000001
 43
0.00000001
 40
0.0
 40
0.0
 40
0.0
 40
0.0
 40
0.467924520392921
 40
1.0
 40
1.0
 40
1.0
 40
1.0
 10
112.2691938662729
 20
77.2457776208463
 30
0.0
 10
112.2596404622493
 20
77.25368573399643
 30
0.0
 10
112.2392239129826
 20
77.27058613738521
 30
0.0
 10
112.2203571589154
 20
77.44602666542619
 30
0.0
 10
112.2103186216965
 20
77.5393742685261
 30
0.0
  0
SPLINE
  5
136
330
1F
100
AcDbEntity
  8
0
  6
Continuous
 62
     7
370
    30
100
AcDbSpline
210
0.0
220
0.0
230
1.0
 70
     8
 71
     3
 72
     9
 73
     5
 74
     0
 42
0.000000001
 43
0.00000001
 40
0.0
 40
0.0
 40
0.0
 40
0.0
 40
0.5643639523332503
 40
1.0
 40
1.0
 40
1.0
 40
1.0
 10
112.3120993152089
 20
80.42574921520976
 30
0.0
 10
112.300196764806
 20
80.55162355662324
 30
0.0
 10
112.2791065616603
 20
80.7746610856736
 30
0.0
 10
112.2591972596938
 20
80.82992112160471
 30
0.0
 10
112.2505240500733
 20
80.85399438525167
 30
0.0
  0
LINE
  5
137
330
1F
100
AcDbEntity
  8
0
  6
Continuous
 62
     7
370
    30
100
AcDbLine
 10
112.2433930295
 20
80.8822700371
 30
0.0
 11
112.2372644031
 21
80.8667202097
 31
0.0
  0
LINE
  5
138
330
1F
100
AcDbEntity
  8
0
  6
Continuous
 62
     7
370
    30
100
AcDbLine
 10
112.2245993474
 20
80.4257492152
 30
0.0
 11
112.3120993152
 21
80.4257492152
 31
0.0
  0
SPLINE
  5
139
330
1F
100
AcDbEntity
  8
0
  6
Continuous
 62
     7
370
    30
100
AcDbSpline
210
0.0
220
0.0
230
1.0
 70
     8
 71
     3
 72
     9
 73
     5
 74
     0
 42
0.000000001
 43
0.00000001
 40
0.0
 40
0.0
 40
0.0
 40
0.0
 40
0.5862164371044696
 40
1.0
 40
1.0
 40
1.0
 40
1.0
 10
112.526888086909
 20
80.16790464418557
 30
0.0
 10
112.5157731838883
 20
80.26072496533605
 30
0.0
 10
112.4968127755524
 20
80.41906293622094
 30
0.0
 10
112.4786575594153
 20
80.45936977674039
 30
0.0
 10
112.4711452293969
 20
80.47604808481958
 30
0.0
  0
SPLINE
  5
13A
330
1F
100
AcDbEntity
  8
0
  6
Continuous
 62
     7
370
    30
100
AcDbSpline
210
0.0
220
0.0
230
1.0
 70
     8
 71
     3
 72
    10
 73
     6
 74
     0
 42
0.000000001
 43
0.00000001
 40
0.0
 40
0.0
 40
0.0
 40
0.0
 40
0.2778799240917535
 40
0.5557597401833857
 40
1.0
 40
1.0
 40
1.0
 40
1.0
 10
112.3120993152089
 20
80.42574921520976
 30
0.0
 10
112.3320728193075
 20
80.40189538719584
 30
0.0
 10
112.372019819742
 20
80.35418774043896
 30
0.0
 10
112.4437075680133
 20
80.2682738596896
 30
0.0
 10
112.4952065094461
 20
80.20613300724575
 30
0.0
 10
112.526888086909
 20
80.16790464418557
 30
0.0
  0
SPLINE
  5
13B
330
1F
100
AcDbEntity
  8
0
  6
Continuous
 62
     7
370
    30
100
AcDbSpline
210
0.0
220
0.0
230
1.0
 70
     8
 71
     3
 72
     9
 73
     5
 74
     0
 42
0.000000001
 43
0.00000001
 40
0.0
 40
0.0
 40
0.0
 40
0.0
 40
0.5524875760219174
 40
1.0
 40
1.0
 40
1.0
 40
1.0
 10
113.3231001740615
 20
78.94539289074567
 30
0.0
 10
113.2993911810397
 20
79.11043233511991
 30
0.0
 10
113.2564780114939
 20
79.40915297887189
 30
0.0
 10
113.212035091085
 20
79.68779740984888
 30
0.0
 10
113.1921463320442
 20
79.8124942545834
 30
0.0
  0
LINE
  5
13C
330
1F
100
AcDbEntity
  8
0
  6
Continuous
 62
     7
370
    30
100
AcDbLine
 10
113.3231001741
 20
79.7232041684
 30
0.0
 11
113.3231001741
 21
78.9453928907
 31
0.0
  0
LINE
  5
13D
330
1F
100
AcDbEntity
  8
0
  6
Continuous
 62
     7
370
    30
100
AcDbLine
 10
113.3231001741
 20
79.7232041684
 30
0.0
 11
113.4731001812
 21
79.6206236434
 31
0.0
  0
LINE
  5
13E
330
1F
100
AcDbEntity
  8
0
  6
Continuous
 62
     7
370
    30
100
AcDbLine
 10
113.4731001812
 20
79.6206236434
 30
0.0
 11
113.4731001812
 21
77.3563381833
 31
0.0
  0
SPLINE
  5
13F
330
1F
100
AcDbEntity
  8
0
  6
Continuous
 62
     7
370
    30
100
AcDbSpline
210
0.0
220
0.0
230
1.0
 70
     8
 71
     3
 72
    14
 73
    10
 74
     0
 42
0.000000001
 43
0.00000001
 40
0.0
 40
0.0
 40
0.0
 40
0.0
 40
0.1013025298153627
 40
0.264527707448192
 40
0.4247013935867022
 40
0.5819402367129866
 40
0.7392171338857244
 40
0.8938645011089142
 40
1.0
 40
1.0
 40
1.0
 40
1.0
 10
112.9537034148644
 20
79.97460747967091
 30
0.0
 10
112.9587969765562
 20
79.84964310962847
 30
0.0
 10
112.9720976137617
 20
79.52332807701988
 30
0.0
 10
112.9909266935344
 20
78.92363135803818
 30
0.0
 10
113.0162744191104
 20
78.25319470105741
 30
0.0
 10
113.0417252764177
 20
77.66515017702486
 30
0.0
 10
113.0633091703264
 20
77.23274911298437
 30
0.0
 10
113.0862027803584
 20
76.99647198473635
 30
0.0
 10
113.1003759488083
 20
77.00743043421886
 30
0.0
 10
113.106144258386
 20
77.01189039173153
 30
0.0
  0
LINE
  5
140
330
1F
100
AcDbEntity
  8
0
  6
Continuous
 62
     7
370
    30
100
AcDbLine
 10
112.9537034149
 20
79.9746074797
 30
0.0
 11
113.192146332
 21
79.8124942546
 31
0.0
  0
SPLINE
  5
141
330
1F
100
AcDbEntity
  8
0
  6
Continuous
 62
     7
370
    30
100
AcDbSpline
210
0.0
220
0.0
230
1.0
 70
     8
 71
     3
 72
    10
 73
     6
 74
     0
 42
0.000000001
 43
0.00000001
 40
0.0
 40
0.0
 40
0.0
 40
0.0
 40
0.2754264004057016
 40
0.5508511380987618
 40
1.0
 40
1.0
 40
1.0
 40
1.0
 10
112.5693123331121
 20
79.72320416840341
 30
0.0
 10
112.5488544503195
 20
79.74687232544412
 30
0.0
 10
112.5079388082359
 20
79.794208496644
 30
0.0
 10
112.433696019633
 20
79.88015500554964
 30
0.0
 10
112.3799297077758
 20
79.94243983610681
 30
0.0
 10
112.3466010331004
 20
79.98104897225824
 30
0.0
  0
SPLINE
  5
142
330
1F
100
AcDbEntity
  8
0
  6
Continuous
 62
     7
370
    30
100
AcDbSpline
210
0.0
220
0.0
230
1.0
 70
     8
 71
     3
 72
    13
 73
     9
 74
     0
 42
0.000000001
 43
0.00000001
 40
0.0
 40
0.0
 40
0.0
 40
0.0
 40
0.1630351975864239
 40
0.346407569438872
 40
0.5297798957414738
 40
0.7179865397708143
 40
0.8580054503954438
 40
1.0
 40
1.0
 40
1.0
 40
1.0
 10
112.8059546763371
 20
77.22151014851954
 30
0.0
 10
112.7924395549852
 20
77.23450907389972
 30
0.0
 10
112.7637234224723
 20
77.26212842366547
 30
0.0
 10
112.7230075064022
 20
77.60614115136698
 30
0.0
 10
112.6809179706307
 20
78.13156317003356
 30
0.0
 10
112.6367049806493
 20
78.72404102022809
 30
0.0
 10
112.6026768352844
 20
79.27958502970354
 30
0.0
 10
112.5804856537779
 20
79.57464211689795
 30
0.0
 10
112.5693123331121
 20
79.72320416840341
 30
0.0
  0
LINE
  5
143
330
1F
100
AcDbEntity
  8
0
  6
Continuous
 62
     7
370
    30
100
AcDbLine
 10
112.5980878724
 20
76.8490225625
 30
0.0
 11
112.5933930462
 21
76.8304068212
 31
0.0
  0
SPLINE
  5
144
330
1F
100
AcDbEntity
  8
0
  6
Continuous
 62
     7
370
    30
100
AcDbSpline
210
0.0
220
0.0
230
1.0
 70
     8
 71
     3
 72
    13
 73
     9
 74
     0
 42
0.000000001
 43
0.00000001
 40
0.0
 40
0.0
 40
0.0
 40
0.0
 40
0.1606415236891034
 40
0.3410679730036368
 40
0.5214944465453022
 40
0.706662103894
 40
0.8519730590279119
 40
1.0
 40
1.0
 40
1.0
 40
1.0
 10
112.5872643906451
 20
76.845956182951
 30
0.0
 10
112.573728853198
 20
76.86195450041117
 30
0.0
 10
112.5449907149222
 20
76.89592151953738
 30
0.0
 10
112.5042564370714
 20
77.3190349199473
 30
0.0
 10
112.4621738825189
 20
77.96516749838074
 30
0.0
 10
112.4172786846194
 20
78.7043621616211
 30
0.0
 10
112.3822916877266
 20
79.41214925196448
 30
0.0
 10
112.3585711267322
 20
79.79024880368917
 30
0.0
 10
112.3466010331004
 20
79.98104897225824
 30
0.0
  0
LINE
  5
145
330
1F
100
AcDbEntity
  8
0
  6
Continuous
 62
     7
370
    30
100
AcDbLine
 10
112.3466010331
 20
79.9810489723
 30
0.0
 11
112.2591010071
 21
79.9810489723
 31
0.0
  0
SPLINE
  5
146
330
1F
100
AcDbEntity
  8
0
  6
Continuous
 62
     7
370
    30
100
AcDbSpline
210
0.0
220
0.0
230
1.0
 70
     8
 71
     3
 72
    10
 73
     6
 74
     0
 42
0.000000001
 43
0.00000001
 40
0.0
 40
0.0
 40
0.0
 40
0.0
 40
0.2593498630018254
 40
0.5443604273158424
 40
1.0
 40
1.0
 40
1.0
 40
1.0
 10
112.9537034148644
 20
79.97460747967091
 30
0.0
 10
112.9355306955442
 20
79.95290019999223
 30
0.0
 10
112.8973872041995
 20
79.90733786999914
 30
0.0
 10
112.8274927817333
 20
79.82357340869324
 30
0.0
 10
112.7759938543869
 20
79.76143253180582
 30
0.0
 10
112.7443122977684
 20
79.72320416840341
 30
0.0
  0
SPLINE
  5
147
330
1F
100
AcDbEntity
  8
0
  6
Continuous
 62
     7
370
    30
100
AcDbSpline
210
0.0
220
0.0
230
1.0
 70
     8
 71
     3
 72
    13
 73
     9
 74
     0
 42
0.000000001
 43
0.00000001
 40
0.0
 40
0.0
 40
0.0
 40
0.0
 40
0.1122909948139902
 40
0.3067810201581856
 40
0.5012709974859166
 40
0.7008883913028343
 40
0.8493964855208853
 40
0.9999999999999999
 40
0.9999999999999999
 40
0.9999999999999999
 40
0.9999999999999999
 10
112.9669013180365
 20
77.25050780820277
 30
0.0
 10
112.9581459537936
 20
77.26093945633217
 30
0.0
 10
112.9342261410005
 20
77.28943890689247
 30
0.0
 10
112.8980414573842
 20
77.60934022132182
 30
0.0
 10
112.8559085124425
 20
78.13067263793202
 30
0.0
 10
112.8117068027206
 20
78.72421352630036
 30
0.0
 10
112.7776764295359
 20
79.27954668461551
 30
0.0
 10
112.7554854944051
 20
79.57462927545451
 30
0.0
 10
112.7443122977684
 20
79.72320416840341
 30
0.0
  0
LINE
  5
148
330
1F
100
AcDbEntity
  8
0
  6
Continuous
 62
     7
370
    30
100
AcDbLine
 10
112.7443122978
 20
79.7232041684
 30
0.0
 11
112.5693123331
 21
79.7232041684
 31
0.0
  0
LWPOLYLINE
  5
149
330
1F
100
AcDbEntity
  8
0
  6
Continuous
 62
     7
370
    30
100
AcDbPolyline
 90
        3
 70
   128
 43
0.0
 10
113.2693123082
 20
79.7232041684
 10
113.2079434328
 20
79.7942105298
 10
113.192146332
 20
79.8124942546
  0
SPLINE
  5
14A
330
1F
100
AcDbEntity
  8
0
  6
Continuous
 62
     7
370
    30
100
AcDbSpline
210
0.0
220
0.0
230
1.0
 70
     8
 71
     3
 72
     9
 73
     5
 74
     0
 42
0.000000001
 43
0.00000001
 40
0.0
 40
0.0
 40
0.0
 40
0.0
 40
0.4930354912670452
 40
1.0
 40
1.0
 40
1.0
 40
1.0
 10
113.3231001740615
 20
78.94539289074567
 30
0.0
 10
113.3146451257828
 20
79.080773992282
 30
0.0
 10
113.2974961609955
 20
79.35536092148746
 30
0.0
 10
113.2787937611185
 20
79.59945641596279
 30
0.0
 10
113.2693123081527
 20
79.72320416840341
 30
0.0
  0
LINE
  5
14B
330
1F
100
AcDbEntity
  8
0
  6
Continuous
 62
     7
370
    30
100
AcDbLine
 10
113.3231001741
 20
79.7232041684
 30
0.0
 11
113.2693123082
 21
79.7232041684
 31
0.0
  0
SPLINE
  5
14C
330
1F
100
AcDbEntity
  8
0
  6
Continuous
 62
     7
370
    30
100
AcDbSpline
210
0.0
220
0.0
230
1.0
 70
    24
 71
     3
 72
    11
 73
     7
 74
     0
 42
0.000000001
 43
0.00000001
 40
0.0
 40
0.0
 40
0.0
 40
0.0
 40
0.1385236471170461
 40
0.6772676774087254
 40
0.9686251486421565
 40
1.0
 40
1.0
 40
1.0
 40
1.0
 10
112.9442140672882
 20
80.88141671279995
 30
0.0
 10
112.9442140672882
 20
80.8762836033526
 30
0.0
 10
112.9442140672882
 20
80.85118688387085
 30
0.0
 10
112.9442140672882
 20
80.71737567210671
 30
0.0
 10
112.9442140672882
 20
80.5196164905867
 30
0.0
 10
112.9442140672882
 20
80.43406610915876
 30
0.0
 10
112.9442140672882
 20
80.42574921520976
 30
0.0
  0
SPLINE
  5
14D
330
1F
100
AcDbEntity
  8
0
  6
Continuous
 62
     7
370
    30
100
AcDbSpline
210
0.0
220
0.0
230
1.0
 70
     8
 71
     3
 72
    10
 73
     6
 74
     0
 42
0.000000001
 43
0.00000001
 40
0.0
 40
0.0
 40
0.0
 40
0.0
 40
0.1434066676667582
 40
0.6552831492479219
 40
1.0
 40
1.0
 40
1.0
 40
1.0
 10
113.1014045013263
 20
80.31895096311894
 30
0.0
 10
113.0931844502732
 20
80.35961816716443
 30
0.0
 10
113.0556237076056
 20
80.54544309407757
 30
0.0
 10
113.005612624034
 20
80.7622693039627
 30
0.0
 10
112.9618324288239
 20
80.84722727519427
 30
0.0
 10
112.9442140672882
 20
80.88141671279995
 30
0.0
  0
LINE
  5
14E
330
1F
100
AcDbEntity
  8
0
  6
Continuous
 62
     7
370
    30
100
AcDbLine
 10
113.1014045013
 20
80.3189509631
 30
0.0
 11
112.9442140673
 21
80.4257492152
 31
0.0
  0
SPLINE
  5
14F
330
1F
100
AcDbEntity
  8
0
  6
Continuous
 62
     7
370
    30
100
AcDbSpline
210
0.0
220
0.0
230
1.0
 70
     8
 71
     3
 72
    10
 73
     6
 74
     0
 42
0.000000001
 43
0.00000001
 40
0.0
 40
0.0
 40
0.0
 40
0.0
 40
0.4661155097408806
 40
0.9236783282937213
 40
1.0
 40
1.0
 40
1.0
 40
1.0
 10
112.9245993370251
 20
80.42574921520976
 30
0.0
 10
112.9125761332989
 20
80.54240976987789
 30
0.0
 10
112.8887503380046
 20
80.77359029028918
 30
0.0
 10
112.8660936478633
 20
80.91419946540876
 30
0.0
 10
112.8518697777745
 20
80.87281860002597
 30
0.0
 10
112.8498363987138
 20
80.86690298179712
 30
0.0
  0
SPLINE
  5
150
330
1F
100
AcDbEntity
  8
0
  6
Continuous
 62
     7
370
    30
100
AcDbSpline
210
0.0
220
0.0
230
1.0
 70
     8
 71
     3
 72
    10
 73
     6
 74
     0
 42
0.000000001
 43
0.00000001
 40
0.0
 40
0.0
 40
0.0
 40
0.0
 40
0.2754265218974706
 40
0.5508520230270755
 40
0.9999999999999999
 40
0.9999999999999999
 40
0.9999999999999999
 40
0.9999999999999999
 10
112.7018880515653
 20
80.16790464418557
 30
0.0
 10
112.7223459396017
 20
80.1915726967118
 30
0.0
 10
112.7632616398549
 20
80.2389087140473
 30
0.0
 10
112.8375040891379
 20
80.32485539168516
 30
0.0
 10
112.8912705994244
 20
80.38714017681383
 30
0.0
 10
112.9245993370251
 20
80.42574921520976
 30
0.0
  0
SPLINE
  5
151
330
1F
100
AcDbEntity
  8
0
  6
Continuous
 62
     7
370
    30
100
AcDbSpline
210
0.0
220
0.0
230
1.0
 70
     8
 71
     3
 72
    10
 73
     6
 74
     0
 42
0.000000001
 43
0.00000001
 40
0.0
 40
0.0
 40
0.0
 40
0.0
 40
0.4622442476451907
 40
0.9180569703708389
 40
1.0
 40
1.0
 40
1.0
 40
1.0
 10
112.7018880515653
 20
80.16790464418557
 30
0.0
 10
112.6906661530497
 20
80.2533642694741
 30
0.0
 10
112.6683784940782
 20
80.4230944609932
 30
0.0
 10
112.6466695522199
 20
80.52857589854698
 30
0.0
 10
112.6330326663752
 20
80.49611314049118
 30
0.0
 10
112.6309546825769
 20
80.49116647700397
 30
0.0
  0
SPLINE
  5
152
330
1F
100
AcDbEntity
  8
0
  6
Continuous
 62
     7
370
    30
100
AcDbSpline
210
0.0
220
0.0
230
1.0
 70
     8
 71
     3
 72
     9
 73
     5
 74
     0
 42
0.000000001
 43
0.00000001
 40
0.0
 40
0.0
 40
0.0
 40
0.0
 40
0.563068747463416
 40
1.0
 40
1.0
 40
1.0
 40
1.0
 10
113.2268880619495
 20
80.16790464418557
 30
0.0
 10
113.2157767976309
 20
80.26019110981944
 30
0.0
 10
113.1960433914196
 20
80.42409021814257
 30
0.0
 10
113.1771483102868
 20
80.46510574999576
 30
0.0
 10
113.1688924588207
 20
80.48302671770182
 30
0.0
  0
SPLINE
  5
153
330
1F
100
AcDbEntity
  8
0
  6
Continuous
 62
     7
370
    30
100
AcDbSpline
210
0.0
220
0.0
230
1.0
 70
     8
 71
     3
 72
     9
 73
     5
 74
     0
 42
0.000000001
 43
0.00000001
 40
0.0
 40
0.0
 40
0.0
 40
0.0
 40
0.2411673268498565
 40
1.0
 40
1.0
 40
1.0
 40
1.0
 10
113.1014045013263
 20
80.31895096311894
 30
0.0
 10
113.1115209074993
 20
80.30681933579397
 30
0.0
 10
113.1534685722395
 20
80.25651555922762
 30
0.0
 10
113.1952118778028
 20
80.2061350333284
 30
0.0
 10
113.2268880619495
 20
80.16790464418557
 30
0.0
  0
LINE
  5
154
330
1F
100
AcDbEntity
  8
0
  6
Continuous
 62
     7
370
    30
100
AcDbLine
 10
112.5268880869
 20
80.1679046442
 30
0.0
 11
112.7018880516
 21
80.1679046442
 31
0.0
  0
LINE
  5
155
330
1F
100
AcDbEntity
  8
0
  6
Continuous
 62
     7
370
    30
100
AcDbLine
 10
112.924599337
 20
80.4257492152
 30
0.0
 11
112.9442140673
 21
80.4257492152
 31
0.0
  0
LINE
  5
156
330
1F
100
AcDbEntity
  8
0
  6
Continuous
 62
     7
370
    30
100
AcDbLine
 10
113.2268880619
 20
80.1679046442
 30
0.0
 11
113.3231001741
 21
80.1679046442
 31
0.0
  0
LINE
  5
157
330
1F
100
AcDbEntity
  8
0
  6
Continuous
 62
     7
370
    30
100
AcDbLine
 10
113.4731001812
 20
80.0653238864
 30
0.0
 11
113.3231001741
 21
80.1679046442
 31
0.0
  0
LINE
  5
158
330
1F
100
AcDbEntity
  8
0
  6
Continuous
 62
     7
370
    30
100
AcDbLine
 10
113.4731001812
 20
80.0653238864
 30
0.0
 11
113.4731001812
 21
79.6206236434
 31
0.0
  0
LINE
  5
159
330
1F
100
AcDbEntity
  8
0
  6
Continuous
 62
     7
370
    30
100
AcDbLine
 10
113.4731001812
 20
80.3563382094
 30
0.0
 11
113.4731001812
 21
80.0653238864
 31
0.0
  0
LINE
  5
15A
330
1F
100
AcDbEntity
  8
0
  6
Continuous
 62
     7
370
    30
100
AcDbLine
 10
113.3231001741
 20
80.5063381874
 30
0.0
 11
113.3231001741
 21
80.1679046442
 31
0.0
  0
LINE
  5
15B
330
1F
100
AcDbEntity
  8
0
  6
Continuous
 62
     7
370
    30
100
AcDbLine
 10
96.0358119928
 20
80.3205973086
 30
0.0
 11
95.9847345375
 21
77.3816533935
 31
0.0
  0
ARC
  5
15C
330
1F
100
AcDbEntity
  8
0
  6
Continuous
 62
     7
370
    30
100
AcDbCircle
 10
95.7103186182
 20
78.8563382808
 30
0.0
 40
1.500000000000005
100
AcDbArc
 50
280.5413014448
 51
77.4673833792
  0
ARC
  5
15D
330
1F
100
AcDbEntity
  8
0
  6
Continuous
 62
     7
370
    30
100
AcDbCircle
 10
95.7103186182
 20
78.8563382808
 30
0.0
 40
1.500000000000005
100
AcDbArc
 50
100.5413014448
 51
257.4673833792
  0
ARC
  5
15E
330
1F
100
AcDbEntity
  8
0
  6
Continuous
 62
     7
370
    30
100
AcDbCircle
 10
95.7103186182
 20
78.8563382808
 30
0.0
 40
1.649999999999998
100
AcDbArc
 50
217.2175521651
 51
258.5286607156
  0
SPLINE
  5
15F
330
1F
100
AcDbEntity
  8
0
  6
Continuous
 62
     7
370
    30
100
AcDbSpline
210
0.0
220
0.0
230
1.0
 70
     8
 71
     3
 72
    14
 73
    10
 74
     0
 42
0.000000001
 43
0.00000001
 40
0.0
 40
0.0
 40
0.0
 40
0.0
 40
0.0628301527577823
 40
0.2336591254441799
 40
0.4023527259978159
 40
0.5661851975683849
 40
0.7300325138115007
 40
0.8922010651407987
 40
1.0
 40
1.0
 40
1.0
 40
1.0
 10
95.4411364518865
 20
80.63219292918768
 30
0.0
 10
95.36857595333267
 20
80.61527320690254
 30
0.0
 10
95.09873063401203
 20
80.55235043275071
 30
0.0
 10
94.66759603925075
 20
80.32198948765493
 30
0.0
 10
94.25713289192062
 20
79.87425288715289
 30
0.0
 10
94.02519023038558
 20
79.32067477930075
 30
0.0
 10
93.99049861338135
 20
78.73163028559352
 30
0.0
 10
94.13327699232828
 20
78.22271043554653
 30
0.0
 10
94.32128043451395
 20
77.96232136785422
 30
0.0
 10
94.39635084800564
 20
77.85834712805776
 30
0.0
  0
LINE
  5
160
330
1F
100
AcDbEntity
  8
0
  6
Continuous
 62
     7
370
    30
100
AcDbLine
 10
95.3848249637
 20
77.3920795498
 30
0.0
 11
95.3821706944
 21
77.239297944
 31
0.0
  0
LINE
  5
161
330
1F
100
AcDbEntity
  8
0
  6
Continuous
 62
     7
370
    30
100
AcDbLine
 10
95.4411364519
 20
80.6321929292
 30
0.0
 11
95.435902419
 21
80.331023232
 31
0.0
  0
LINE
  5
162
330
1F
100
AcDbEntity
  8
0
  6
Continuous
 62
     7
370
    30
100
AcDbLine
 10
95.3848249637
 20
77.3920795498
 30
0.0
 11
95.435902419
 21
80.331023232
 31
0.0
  0
SPLINE
  5
163
330
1F
100
AcDbEntity
  8
0
  6
Continuous
 62
     7
370
    30
100
AcDbSpline
210
0.0
220
0.0
230
1.0
 70
     8
 71
     3
 72
     9
 73
     5
 74
     0
 42
0.000000001
 43
0.00000001
 40
0.0
 40
0.0
 40
0.0
 40
0.0
 40
0.5524883953857667
 40
1.0
 40
1.0
 40
1.0
 40
1.0
 10
96.72796347968422
 20
77.5575313334408
 30
0.0
 10
96.6053843829253
 20
77.44699299699062
 30
0.0
 10
96.38351710429525
 20
77.24691940743946
 30
0.0
 10
96.10459127223443
 20
77.14257931242177
 30
0.0
 10
95.97976872556052
 20
77.09588590907482
 30
0.0
  0
ARC
  5
164
330
1F
100
AcDbEntity
  8
0
  6
Continuous
 62
     7
370
    30
100
AcDbCircle
 10
95.7103186182
 20
78.8563382808
 30
0.0
 40
1.650000000000067
100
AcDbArc
 50
279.4800241084
 51
308.0795099843
  0
SPLINE
  5
165
330
1F
100
AcDbEntity
  8
0
  6
Continuous
 62
     7
370
    30
100
AcDbSpline
210
0.0
220
0.0
230
1.0
 70
     8
 71
     3
 72
    16
 73
    12
 74
     0
 42
0.000000001
 43
0.00000001
 40
0.0
 40
0.0
 40
0.0
 40
0.0
 40
0.0782695651368838
 40
0.2043827415546491
 40
0.3281384294174803
 40
0.4496263283274801
 40
0.5711436869379185
 40
0.6906294260349589
 40
0.8075311565075916
 40
0.9244543427266685
 40
1.0
 40
1.0
 40
1.0
 40
1.0
 10
95.9755721860393
 20
76.85443820329932
 30
0.0
 10
96.11335277932298
 20
76.88672865826845
 30
0.0
 10
96.47313471166278
 20
76.97104766146082
 30
0.0
 10
96.98840768539198
 20
77.29264813326212
 30
0.0
 10
97.41662083671513
 20
77.82213460779482
 30
0.0
 10
97.63897734722887
 20
78.4585256620991
 30
0.0
 10
97.63924246043297
 20
79.12463247769686
 30
0.0
 10
97.41460180042463
 20
79.74412932039668
 30
0.0
 10
97.00152295062856
 20
80.24171683095024
 30
0.0
 10
96.515768268481
 20
80.54547882607677
 30
0.0
 10
96.17516703786609
 20
80.61813194958161
 30
0.0
 10
96.04147815935455
 20
80.64664891819086
 30
0.0
  0
LINE
  5
166
330
1F
100
AcDbEntity
  8
0
  6
Continuous
 62
     7
370
    30
100
AcDbLine
 10
96.0358119928
 20
80.3205973086
 30
0.0
 11
96.0414781594
 21
80.6466489182
 31
0.0
  0
LINE
  5
167
330
1F
100
AcDbEntity
  8
0
  6
Continuous
 62
     7
370
    30
100
AcDbLine
 10
95.9820802682
 20
77.2288722535
 30
0.0
 11
95.9847345375
 21
77.3816533935
 31
0.0
  0
LINE
  5
168
330
1F
100
AcDbEntity
  8
0
  6
Continuous
 62
     7
370
    30
100
AcDbLine
 10
95.975572186
 20
76.8544382033
 30
0.0
 11
95.9797687256
 21
77.0958859091
 31
0.0
  0
LWPOLYLINE
  5
169
330
1F
100
AcDbEntity
  8
0
  6
Continuous
 62
     7
370
    30
100
AcDbPolyline
 90
        3
 70
   128
 43
0.0
 10
95.9820802682
 20
77.2288722535
 10
95.9802418374
 20
77.1231173155
 10
95.9797687256
 20
77.0958859091
  0
SPLINE
  5
16A
330
1F
100
AcDbEntity
  8
0
  6
Continuous
 62
     7
370
    30
100
AcDbSpline
210
0.0
220
0.0
230
1.0
 70
     8
 71
     3
 72
    14
 73
    10
 74
     0
 42
0.000000001
 43
0.00000001
 40
0.0
 40
0.0
 40
0.0
 40
0.0
 40
0.0033087660904015
 40
0.1834456538588153
 40
0.358970151581824
 40
0.5344946597745676
 40
0.714631615720243
 40
0.855994297547193
 40
1.0
 40
1.0
 40
1.0
 40
1.0
 10
94.26779294245085
 20
77.42962861331728
 30
0.0
 10
94.26432916091251
 20
77.43314768127617
 30
0.0
 10
94.07228909166463
 20
77.62825295770058
 30
0.0
 10
93.77280621249064
 20
78.09288314655527
 30
0.0
 10
93.6299176056024
 20
78.89210447883761
 30
0.0
 10
93.80068443182435
 20
79.68823415978092
 30
0.0
 10
94.23660845629544
 20
80.31003062548244
 30
0.0
 10
94.81500447166344
 20
80.72436967648915
 30
0.0
 10
95.23386330278548
 20
80.81971700261485
 30
0.0
 10
95.44523240856967
 20
80.86783220889595
 30
0.0
  0
SPLINE
  5
16B
330
1F
100
AcDbEntity
  8
0
  6
Continuous
 62
     7
370
    30
100
AcDbSpline
210
0.0
220
0.0
230
1.0
 70
     8
 71
     3
 72
    10
 73
     6
 74
     0
 42
0.000000001
 43
0.00000001
 40
0.0
 40
0.0
 40
0.0
 40
0.0
 40
0.1434072831552547
 40
0.6552836375501057
 40
1.0
 40
1.0
 40
1.0
 40
1.0
 10
95.37826100222907
 20
77.01433325084474
 30
0.0
 10
95.32104073933617
 20
77.01798399709709
 30
0.0
 10
95.05957910931947
 20
77.03466567623761
 30
0.0
 10
94.66512499821943
 20
77.15631721533414
 30
0.0
 10
94.38180761470299
 20
77.35120174336957
 30
0.0
 10
94.26779294245085
 20
77.42962861331728
 30
0.0
  0
SPLINE
  5
16C
330
1F
100
AcDbEntity
  8
0
  6
Continuous
 62
     7
370
    30
100
AcDbSpline
210
0.0
220
0.0
230
1.0
 70
     8
 71
     3
 72
     9
 73
     5
 74
     0
 42
0.000000001
 43
0.00000001
 40
0.0
 40
0.0
 40
0.0
 40
0.0
 40
0.2411630946384912
 40
1.0
 40
1.0
 40
1.0
 40
1.0
 10
95.37826100222907
 20
77.01433325084474
 30
0.0
 10
95.3785751485138
 20
77.03240184711173
 30
0.0
 10
95.3798777785252
 20
77.10732457230756
 30
0.0
 10
95.38118143315351
 20
77.18235902906905
 30
0.0
 10
95.38217069439732
 20
77.23929794403341
 30
0.0
  0
SPLINE
  5
16D
330
1F
100
AcDbEntity
  8
0
  6
Continuous
 62
     7
370
    30
100
AcDbSpline
210
0.0
220
0.0
230
1.0
 70
     8
 71
     3
 72
     9
 73
     5
 74
     0
 42
0.000000001
 43
0.00000001
 40
0.0
 40
0.0
 40
0.0
 40
0.0
 40
0.2679537598215135
 40
1.0
 40
1.0
 40
1.0
 40
1.0
 10
95.4411364518865
 20
80.63219292918768
 30
0.0
 10
95.44150212504603
 20
80.65323752806826
 30
0.0
 10
95.44286681259419
 20
80.73177570157478
 30
0.0
 10
95.44423259366897
 20
80.81032816984326
 30
0.0
 10
95.44523240856967
 20
80.86783220889595
 30
0.0
  0
SPLINE
  5
16E
330
1F
100
AcDbEntity
  8
0
  6
Continuous
 62
     7
370
    30
100
AcDbSpline
210
0.0
220
0.0
230
1.0
 70
     8
 71
     3
 72
    11
 73
     7
 74
     0
 42
0.000000001
 43
0.00000001
 40
0.0
 40
0.0
 40
0.0
 40
0.0
 40
0.1385241703272688
 40
0.6772667173121744
 40
0.9686239458411209
 40
1.0
 40
1.0
 40
1.0
 40
1.0
 10
94.26779294245085
 20
77.42962861331728
 30
0.0
 10
94.30995145471604
 20
77.38922368036175
 30
0.0
 10
94.5160711314565
 20
77.19167753197947
 30
0.0
 10
94.87791389761199
 20
76.98121300022734
 30
0.0
 10
95.22843719780538
 20
76.88083021833688
 30
0.0
 10
95.3624665359617
 20
76.85753508721199
 30
0.0
 10
95.37549683682762
 20
76.85527034001973
 30
0.0
  0
LINE
  5
16F
330
1F
100
AcDbEntity
  8
0
  6
Continuous
 62
     7
370
    30
100
AcDbLine
 10
95.3782610022
 20
77.0143332508
 30
0.0
 11
95.3754968368
 21
76.85527034
 31
0.0
  0
SPLINE
  5
170
330
1F
100
AcDbEntity
  8
0
  6
Continuous
 62
     7
370
    30
100
AcDbSpline
210
0.0
220
0.0
230
1.0
 70
     8
 71
     3
 72
     9
 73
     5
 74
     0
 42
0.000000001
 43
0.00000001
 40
0.0
 40
0.0
 40
0.0
 40
0.0
 40
0.5046302815549378
 40
1.0
 40
1.0
 40
1.0
 40
1.0
 10
95.37549683682762
 20
76.85527034001973
 30
0.0
 10
95.1639156973857
 20
76.90884769209651
 30
0.0
 10
94.7446361829064
 20
77.01501918840803
 30
0.0
 10
94.4188158234212
 20
77.29935047888952
 30
0.0
 10
94.25741428367935
 20
77.44019959020045
 30
0.0
  0
LWPOLYLINE
  5
171
330
1F
100
AcDbEntity
  8
0
  6
Continuous
 62
     7
370
    30
100
AcDbPolyline
 90
        2
 70
   128
 43
0.0
 10
95.4452324086
 20
80.8678322089
 10
95.4452324086
 20
80.8678322089
  0
SPLINE
  5
172
330
1F
100
AcDbEntity
  8
0
  6
Continuous
 62
     7
370
    30
100
AcDbSpline
210
0.0
220
0.0
230
1.0
 70
     8
 71
     3
 72
    15
 73
    11
 74
     0
 42
0.000000001
 43
0.00000001
 40
0.0
 40
0.0
 40
0.0
 40
0.0
 40
0.1123236776418728
 40
0.2225860480108872
 40
0.3630918745921231
 40
0.5000001213024856
 40
0.636908425817023
 40
0.7774141209963426
 40
0.8876765885202408
 40
1.0
 40
1.0
 40
1.0
 40
1.0
 10
96.04514011971794
 20
80.85740628550377
 30
0.0
 10
96.25470922151274
 20
80.8019737510936
 30
0.0
 10
96.67000151903191
 20
80.69212595208431
 30
0.0
 10
97.23365553918707
 20
80.25796740281234
 30
0.0
 10
97.64769174028966
 20
79.6212671543572
 30
0.0
 10
97.79075775986811
 20
78.82018177158507
 30
0.0
 10
97.61994164316683
 20
78.02455199069404
 30
0.0
 10
97.184032411801
 20
77.40262235475755
 30
0.0
 10
96.60563272699505
 20
76.98831275381112
 30
0.0
 10
96.18677459857805
 20
76.89296132978848
 30
0.0
 10
95.97540641062103
 20
76.84484418379691
 30
0.0
  0
SPLINE
  5
173
330
1F
100
AcDbEntity
  8
0
  6
Continuous
 62
     7
370
    30
100
AcDbSpline
210
0.0
220
0.0
230
1.0
 70
     8
 71
     3
 72
     9
 73
     5
 74
     0
 42
0.000000001
 43
0.00000001
 40
0.0
 40
0.0
 40
0.0
 40
0.0
 40
0.5059688916928378
 40
1.0
 40
1.0
 40
1.0
 40
1.0
 10
96.04514011971794
 20
80.85740628550377
 30
0.0
 10
96.04452319692894
 20
80.82188079766478
 30
0.0
 10
96.04330390697031
 20
80.75166800707177
 30
0.0
 10
96.04208187912523
 20
80.68137556918546
 30
0.0
 10
96.04147815935455
 20
80.64664891819086
 30
0.0
  0
LINE
  5
174
330
1F
100
AcDbEntity
  8
0
  6
Continuous
 62
     7
370
    30
100
AcDbLine
 10
67.210320326
 20
72.856338377
 30
0.0
 11
67.210320326
 21
62.8563376692
 31
0.0
  0
LINE
  5
175
330
1F
100
AcDbEntity
  8
0
  6
Continuous
 62
     7
370
    30
100
AcDbLine
 10
67.210320326
 20
62.8563376692
 30
0.0
 11
62.2103176438
 21
62.8563376692
 31
0.0
  0
LINE
  5
176
330
1F
100
AcDbEntity
  8
0
  6
Continuous
 62
     7
370
    30
100
AcDbLine
 10
62.2103176438
 20
62.8563376692
 30
0.0
 11
62.2103176438
 21
72.856338377
 31
0.0
  0
LINE
  5
177
330
1F
100
AcDbEntity
  8
0
  6
Continuous
 62
     7
370
    30
100
AcDbLine
 10
62.2103176438
 20
72.856338377
 30
0.0
 11
67.210320326
 21
72.856338377
 31
0.0
  0
LINE
  5
178
330
1F
100
AcDbEntity
  8
0
  6
Continuous
 62
     7
370
    30
100
AcDbLine
 10
122.2103181653
 20
62.8563376692
 30
0.0
 11
122.2103181653
 21
72.856338377
 31
0.0
  0
LINE
  5
179
330
1F
100
AcDbEntity
  8
0
  6
Continuous
 62
     7
370
    30
100
AcDbLine
 10
67.210320326
 20
72.856338377
 30
0.0
 11
122.2103181653
 21
72.856338377
 31
0.0
  0
LINE
  5
17A
330
1F
100
AcDbEntity
  8
0
  6
Continuous
 62
     7
370
    30
100
AcDbLine
 10
67.210320326
 20
62.8563376692
 30
0.0
 11
122.2103181653
 21
62.8563376692
 31
0.0
  0
LINE
  5
17B
330
1F
100
AcDbEntity
  8
0
  6
Continuous
 62
     7
370
    30
100
AcDbLine
 10
127.2103189849
 20
72.856338377
 30
0.0
 11
127.2103189849
 21
62.8563376692
 31
0.0
  0
LINE
  5
17C
330
1F
100
AcDbEntity
  8
0
  6
Continuous
 62
     7
370
    30
100
AcDbLine
 10
122.2103181653
 20
72.856338377
 30
0.0
 11
127.2103189849
 21
72.856338377
 31
0.0
  0
LINE
  5
17D
330
1F
100
AcDbEntity
  8
0
  6
Continuous
 62
     7
370
    30
100
AcDbLine
 10
127.2103189849
 20
62.8563376692
 30
0.0
 11
122.2103181653
 21
62.8563376692
 31
0.0
  0
CIRCLE
  5
17E
330
1F
100
AcDbEntity
  8
0
  6
Continuous
 62
     7
370
    30
100
AcDbCircle
 10
97.2103186182
 20
140.3563382808
 30
0.0
 40
3.25
  0
LINE
  5
17F
330
1F
100
AcDbEntity
  8
0
  6
Continuous
 62
     7
370
    30
100
AcDbLine
 10
112.2103186217
 20
82.3563383044
 30
0.0
 11
113.210318611
 21
82.3563383044
 31
0.0
  0
LINE
  5
180
330
1F
100
AcDbEntity
  8
0
  6
Continuous
 62
     7
370
    30
100
AcDbLine
 10
113.210318611
 20
145.3563372222
 30
0.0
 11
76.2103199386
 21
145.3563372222
 31
0.0
  0
LINE
  5
181
330
1F
100
AcDbEntity
  8
0
  6
Continuous
 62
     7
370
    30
100
AcDbLine
 10
99.7103182026
 20
86.02291081
 30
0.0
 11
99.7103182026
 21
88.6897655753
 31
0.0
  0
LINE
  5
182
330
1F
100
AcDbEntity
  8
0
  6
Continuous
 62
     7
370
    30
100
AcDbLine
 10
76.2103199386
 20
145.3563372222
 30
0.0
 11
76.2103199386
 21
82.3563383044
 31
0.0
  0
LINE
  5
183
330
1F
100
AcDbEntity
  8
0
  6
Continuous
 62
     7
370
    30
100
AcDbLine
 10
76.2103199386
 20
82.3563383044
 30
0.0
 11
77.2103182399
 21
82.3563383044
 31
0.0
  0
LINE
  5
184
330
1F
100
AcDbEntity
  8
0
  6
Continuous
 62
     7
370
    30
100
AcDbLine
 10
91.7103178226
 20
88.6897655753
 30
0.0
 11
91.7103178226
 21
86.02291081
 31
0.0
  0
CIRCLE
  5
185
330
1F
100
AcDbEntity
  8
0
  6
Continuous
 62
     7
370
    30
100
AcDbCircle
 10
87.2103186182
 20
140.3563382808
 30
0.0
 40
3.25
  0
LINE
  5
186
330
1F
100
AcDbEntity
  8
0
  6
Continuous
 62
     7
370
    30
100
AcDbLine
 10
113.210318611
 20
82.3563383044
 30
0.0
 11
113.210318611
 21
145.3563372222
 31
0.0
  0
CIRCLE
  5
187
330
1F
100
AcDbEntity
  8
0
  6
Continuous
 62
     7
370
    30
100
AcDbCircle
 10
95.7103186182
 20
87.3563382808
 30
0.0
 40
4.216400000000007
  0
LWPOLYLINE
  5
188
330
1F
100
AcDbEntity
  8
0
  6
Continuous
 62
     7
370
    30
100
AcDbPolyline
 90
        3
 70
   128
 43
0.0
 10
96.0273872488
 20
80.4755870801
 10
95.8139225268
 20
80.5030822837
 10
95.4473371976
 20
80.4852460594
  0
ARC
  5
189
330
1F
100
AcDbEntity
  8
0
  6
Continuous
 62
     7
370
    30
100
AcDbCircle
 10
95.7103186182
 20
78.8563382808
 30
0.0
 40
1.650000000000067
100
AcDbArc
 50
258.5286607156
 51
279.4800241084
  0
LINE
  5
18A
330
1F
100
AcDbEntity
  8
0
  6
Continuous
 62
     7
370
    30
100
AcDbLine
 10
77.2103182399
 20
97.8563378182
 30
0.0
 11
77.2103182399
 21
72.856338377
 31
0.0
  0
LINE
  5
18B
330
1F
100
AcDbEntity
  8
0
  6
Continuous
 62
     7
370
    30
100
AcDbLine
 10
77.2103182399
 20
97.8563378182
 30
0.0
 11
102.2103186124
 21
97.8563378182
 31
0.0
  0
LINE
  5
18C
330
1F
100
AcDbEntity
  8
0
  6
Continuous
 62
     7
370
    30
100
AcDbLine
 10
102.2103186124
 20
97.8563378182
 30
0.0
 11
102.2103186124
 21
72.856338377
 31
0.0
  0
LINE
  5
18D
330
1F
100
AcDbEntity
  8
0
  6
Continuous
 62
     7
370
    30
100
AcDbLine
 10
112.2103186217
 20
97.8563378182
 30
0.0
 11
102.2103186124
 21
97.8563378182
 31
0.0
  0
LINE
  5
18E
330
1F
100
AcDbEntity
  8
0
  6
Continuous
 62
     7
370
    30
100
AcDbLine
 10
112.2103186217
 20
97.8563378182
 30
0.0
 11
112.2103186217
 21
72.856338377
 31
0.0
  0
DIMENSION
  5
18F
330
1F
100
AcDbEntity
  8
DIM
100
AcDbDimension
  2
_D
 10
137.7103186182
 20
62.8563382808
 30
0.0
 11
137.7103186182
 21
104.1063382808
 31
0.0
 70
   160
  1
<>
 71
     2
 42
-1.0
  3
SLDDIMSTYLE0
100
AcDbAlignedDimension
 13
113.2103186182
 23
145.3563382808
 33
0.0
 14
127.2103186182
 24
62.8563382808
 34
0.0
 50
90.0
100
AcDbRotatedDimension
  0
LINE
  5
19A
330
1F
100
AcDbEntity
  8
0
  6
Continuous
 62
     7
370
    30
100
AcDbLine
 10
203.264017323
 20
85.3563383305
 30
0.0
 11
204.2640156243
 21
85.3563383305
 31
0.0
  0
LINE
  5
19B
330
1F
100
AcDbEntity
  8
0
  6
Continuous
 62
     7
370
    30
100
AcDbLine
 10
204.2640156243
 20
89.3563382876
 30
0.0
 11
203.264017323
 21
89.3563382876
 31
0.0
  0
LINE
  5
19C
330
1F
100
AcDbEntity
  8
0
  6
Continuous
 62
     7
370
    30
100
AcDbLine
 10
212.264015073
 20
86.3563382615
 30
0.0
 11
212.4640165959
 21
86.3563382615
 31
0.0
  0
LINE
  5
19D
330
1F
100
AcDbEntity
  8
0
  6
Continuous
 62
     7
370
    30
100
AcDbLine
 10
212.4640165959
 20
88.3563381237
 30
0.0
 11
212.264015073
 21
88.3563381237
 31
0.0
  0
SPLINE
  5
19E
330
1F
100
AcDbEntity
  8
0
  6
Continuous
 62
     7
370
    30
100
AcDbSpline
210
0.0
220
0.0
230
1.0
 70
     8
 71
     3
 72
     9
 73
     5
 74
     0
 42
0.000000001
 43
0.00000001
 40
0.0
 40
0.0
 40
0.0
 40
0.0
 40
0.4999603996336097
 40
1.0
 40
1.0
 40
1.0
 40
1.0
 10
204.2638815138484
 20
80.43366266312626
 30
0.0
 10
204.2272480421684
 20
80.49482079974759
 30
0.0
 10
204.1539752955534
 20
80.61714676129603
 30
0.0
 10
204.080719956636
 20
80.73991555303445
 30
0.0
 10
204.0440893862391
 20
80.8013048105928
 30
0.0
  0
LINE
  5
19F
330
1F
100
AcDbEntity
  8
0
  6
Continuous
 62
     7
370
    30
100
AcDbLine
 10
203.264017323
 20
89.3563382876
 30
0.0
 11
203.264017323
 21
85.3563383305
 31
0.0
  0
SPLINE
  5
1A0
330
1F
100
AcDbEntity
  8
0
  6
Continuous
 62
     7
370
    30
100
AcDbSpline
210
0.0
220
0.0
230
1.0
 70
    11
 71
     3
 72
    31
 73
    27
 74
     0
 42
0.000000001
 43
0.00000001
 40
0.0
 40
0.0
 40
0.0
 40
0.0
 40
0.0598606669938365
 40
0.0924113419344618
 40
0.1249999503641177
 40
0.1575506371546249
 40
0.1901392479175436
 40
0.2499999922502835
 40
0.3098607365830234
 40
0.342411322399472
 40
0.3749999820638095
 40
0.4075506270506088
 40
0.4401392682323938
 40
0.4999999476150381
 40
0.5598607568978761
 40
0.5924112840023479
 40
0.6249998924320039
 40
0.657550579222511
 40
0.6901391899854298
 40
0.7499999590959698
 40
0.8098607282065099
 40
0.8424113119109385
 40
0.8750000039352129
 40
0.9075506489220122
 40
0.9401392031059429
 40
1.0
 40
1.0
 40
1.0
 40
1.0
 10
208.2640162799502
 20
96.1063379970434
 30
0.0
 10
208.5469408977373
 20
96.07611895578877
 30
0.0
 10
208.9837125695045
 20
96.02946758528866
 30
0.0
 10
209.5082261441904
 20
95.74935149246005
 30
0.0
 10
209.8656936114119
 20
95.45866146389332
 30
0.0
 10
210.1584034826249
 20
95.1006034112508
 30
0.0
 10
210.4296732214656
 20
94.57626566515678
 30
0.0
 10
210.5686261789066
 20
93.85632068586975
 30
0.0
 10
210.4297089711865
 20
93.13664400841648
 30
0.0
 10
210.1585008575143
 20
92.61212735291932
 30
0.0
 10
209.8659456684051
 20
92.25465987871118
 30
0.0
 10
209.5083835666624
 20
91.96195115086549
 30
0.0
 10
208.9838891954635
 20
91.69067978576903
 30
0.0
 10
208.2640166373226
 20
91.55172751993324
 30
0.0
 10
207.5443192783655
 20
91.69064408927069
 30
0.0
 10
207.0198058673693
 20
91.9618525008936
 30
0.0
 10
206.6623389760985
 20
92.25440855317818
 30
0.0
 10
206.3696289743064
 20
92.61196876928176
 30
0.0
 10
206.0983598055837
 20
93.13646764667452
 30
0.0
 10
205.9594025125002
 20
93.85631888933811
 30
0.0
 10
206.0983255639794
 20
94.57608811180619
 30
0.0
 10
206.3695286667317
 20
95.10044672829437
 30
0.0
 10
206.662087469608
 20
95.4584100011709
 30
0.0
 10
207.0196487449471
 20
95.74925282416102
 30
0.0
 10
207.5441418132668
 20
96.02944410865018
 30
0.0
 10
207.9810918667505
 20
96.07611723042486
 30
0.0
 10
208.2640162799502
 20
96.1063379970434
 30
0.0
  0
LINE
  5
1A1
330
1F
100
AcDbEntity
  8
0
  6
Continuous
 62
     7
370
    30
100
AcDbLine
 10
206.8206413779
 20
93.8563380939
 30
0.0
 11
207.5423269663
 21
92.6063383547
 31
0.0
  0
LINE
  5
1A2
330
1F
100
AcDbEntity
  8
0
  6
Continuous
 62
     7
370
    30
100
AcDbLine
 10
207.5423269663
 20
92.6063383547
 30
0.0
 11
208.985703731
 21
92.6063383547
 31
0.0
  0
LINE
  5
1A3
330
1F
100
AcDbEntity
  8
0
  6
Continuous
 62
     7
370
    30
100
AcDbLine
 10
208.985703731
 20
92.6063383547
 30
0.0
 11
209.707391182
 21
93.8563380939
 31
0.0
  0
LINE
  5
1A4
330
1F
100
AcDbEntity
  8
0
  6
Continuous
 62
     7
370
    30
100
AcDbLine
 10
209.707391182
 20
93.8563380939
 30
0.0
 11
208.985703731
 21
95.1063378331
 31
0.0
  0
LINE
  5
1A5
330
1F
100
AcDbEntity
  8
0
  6
Continuous
 62
     7
370
    30
100
AcDbLine
 10
208.985703731
 20
95.1063378331
 30
0.0
 11
207.5423269663
 21
95.1063378331
 31
0.0
  0
LINE
  5
1A6
330
1F
100
AcDbEntity
  8
0
  6
Continuous
 62
     7
370
    30
100
AcDbLine
 10
207.5423269663
 20
95.1063378331
 30
0.0
 11
206.8206413779
 21
93.8563380939
 31
0.0
  0
CIRCLE
  5
1A7
330
1F
100
AcDbEntity
  8
0
  6
Continuous
 62
     7
370
    30
100
AcDbCircle
 10
208.2640157733
 20
93.8563382808
 30
0.0
 40
2.749999999999986
  0
SPLINE
  5
1A8
330
1F
100
AcDbEntity
  8
0
  6
Continuous
 62
     7
370
    30
100
AcDbSpline
210
0.0
220
0.0
230
1.0
 70
    11
 71
     3
 72
    31
 73
    27
 74
     0
 42
0.000000001
 43
0.00000001
 40
0.0
 40
0.0
 40
0.0
 40
0.0
 40
0.0598607499190142
 40
0.0924113517975429
 40
0.1249999971952398
 40
0.1575506186528146
 40
0.1901392780593821
 40
0.2500000113537231
 40
0.309860744648064
 40
0.3424113484273539
 40
0.3750000014090652
 40
0.4075506292703123
 40
0.4401392813383219
 40
0.5000000277729862
 40
0.5598607579701268
 40
0.5924113546744758
 40
0.6249999843982207
 40
0.6575506250668146
 40
0.6901392771348241
 40
0.7500000135263698
 40
0.8098607499179156
 40
0.8424113534331623
 40
0.8749999976511825
 40
0.9075506113987205
 40
0.9401392663185087
 40
1.0
 40
1.0
 40
1.0
 40
1.0
 10
235.2640155833209
 20
83.10633828179527
 30
0.0
 10
235.5469405719662
 20
83.07611893553343
 30
0.0
 10
235.9837122578102
 20
83.02946715381881
 30
0.0
 10
236.5082263278355
 20
82.74935158884688
 30
0.0
 10
236.8656937343972
 20
82.45866190058618
 30
0.0
 10
237.1584025774599
 20
82.10060298888276
 30
0.0
 10
237.4296746985594
 20
81.57626655225474
 30
0.0
 10
237.5686261998185
 20
80.856320737045
 30
0.0
 10
237.4297097367277
 20
80.13664411301399
 30
0.0
 10
237.1585014371902
 20
79.61212735158885
 30
0.0
 10
236.8659458429802
 20
79.25466018431956
 30
0.0
 10
236.5083839116543
 20
78.96195136374445
 30
0.0
 10
235.9838895329656
 20
78.69067903340786
 30
0.0
 10
235.264016583627
 20
78.55172817936466
 30
0.0
 10
234.5443187990899
 20
78.6906438891415
 30
0.0
 10
234.0198055058072
 20
78.96185272193048
 30
0.0
 10
233.6623376356212
 20
79.25440821475499
 30
0.0
 10
233.3696292082086
 20
79.6119696912897
 30
0.0
 10
233.0983569024923
 20
80.13646702516185
 30
0.0
 10
232.9594049684129
 20
80.85631899835215
 30
0.0
 10
233.0983221652324
 20
81.57608929944641
 30
0.0
 10
233.3695297380705
 20
82.10044552036528
 30
0.0
 10
233.6620859297623
 20
82.4584102255508
 30
0.0
 10
234.0196475275638
 20
82.74925345030864
 30
0.0
 10
234.5441416900256
 20
83.029442617885
 30
0.0
 10
234.9810916465204
 20
83.07611684418099
 30
0.0
 10
235.2640155833209
 20
83.10633828179527
 30
0.0
  0
LINE
  5
1A9
330
1F
100
AcDbEntity
  8
0
  6
Continuous
 62
     7
370
    30
100
AcDbLine
 10
233.8206402156
 20
80.8563382913
 30
0.0
 11
234.5423281323
 21
79.6063383193
 31
0.0
  0
LINE
  5
1AA
330
1F
100
AcDbEntity
  8
0
  6
Continuous
 62
     7
370
    30
100
AcDbLine
 10
234.5423281323
 20
79.6063383193
 30
0.0
 11
235.9857035
 21
79.6063383193
 31
0.0
  0
LINE
  5
1AB
330
1F
100
AcDbEntity
  8
0
  6
Continuous
 62
     7
370
    30
100
AcDbLine
 10
235.9857035
 20
79.6063383193
 30
0.0
 11
236.7073914167
 21
80.8563382913
 31
0.0
  0
LINE
  5
1AC
330
1F
100
AcDbEntity
  8
0
  6
Continuous
 62
     7
370
    30
100
AcDbLine
 10
236.7073914167
 20
80.8563382913
 30
0.0
 11
235.9857035
 21
82.1063382634
 31
0.0
  0
LINE
  5
1AD
330
1F
100
AcDbEntity
  8
0
  6
Continuous
 62
     7
370
    30
100
AcDbLine
 10
235.9857035
 20
82.1063382634
 30
0.0
 11
234.5423281323
 21
82.1063382634
 31
0.0
  0
LINE
  5
1AE
330
1F
100
AcDbEntity
  8
0
  6
Continuous
 62
     7
370
    30
100
AcDbLine
 10
234.5423281323
 20
82.1063382634
 30
0.0
 11
233.8206402156
 21
80.8563382913
 31
0.0
  0
CIRCLE
  5
1AF
330
1F
100
AcDbEntity
  8
0
  6
Continuous
 62
     7
370
    30
100
AcDbCircle
 10
235.2640157733
 20
80.8563382808
 30
0.0
 40
2.75
  0
ARC
  5
1B0
330
1F
100
AcDbEntity
  8
0
  6
Continuous
 62
     7
370
    30
100
AcDbCircle
 10
225.2640157733
 20
78.8563382808
 30
0.0
 40
1.500000000000017
100
AcDbArc
 50
329.3678985189
 51
126.2939804532
  0
LINE
  5
1B1
330
1F
100
AcDbEntity
  8
0
  6
Continuous
 62
     7
370
    30
100
AcDbLine
 10
224.3761231322
 20
80.0653238864
 30
0.0
 11
224.2628696505
 21
80.1679046442
 31
0.0
  0
ARC
  5
1B2
330
1F
100
AcDbEntity
  8
0
  6
Continuous
 62
     7
370
    30
100
AcDbCircle
 10
225.2640157733
 20
78.8563382808
 30
0.0
 40
1.649999999999992
100
AcDbArc
 50
86.0441492391
 51
127.3552577896
  0
SPLINE
  5
1B3
330
1F
100
AcDbEntity
  8
0
  6
Continuous
 62
     7
370
    30
100
AcDbSpline
210
0.0
220
0.0
230
1.0
 70
     8
 71
     3
 72
    14
 73
    10
 74
     0
 42
0.000000001
 43
0.00000001
 40
0.0
 40
0.0
 40
0.0
 40
0.0
 40
0.0628301627000746
 40
0.2336592164356561
 40
0.4023528026603862
 40
0.5661853272783194
 40
0.7300326442185978
 40
0.8922012339882492
 40
0.9999999999999999
 40
0.9999999999999999
 40
0.9999999999999999
 40
0.9999999999999999
 10
226.7779518980527
 20
77.88984119790223
 30
0.0
 10
226.812985416539
 20
77.95559797348491
 30
0.0
 10
226.9432716377854
 20
78.20014097636285
 30
0.0
 10
227.0537084776645
 20
78.67632051360465
 30
0.0
 10
226.9869115294435
 20
79.280047639481
 30
0.0
 10
226.7229195726307
 20
79.81907842348214
 30
0.0
 10
226.302371579834
 20
80.23298230571697
 30
0.0
 10
225.8253006677965
 20
80.46055235538815
 30
0.0
 10
225.5055304915132
 20
80.49046347573396
 30
0.0
 10
225.3778453115369
 20
80.50240707481828
 30
0.0
  0
LINE
  5
1B4
330
1F
100
AcDbEntity
  8
0
  6
Continuous
 62
     7
370
    30
100
AcDbLine
 10
226.7779518981
 20
77.8898411979
 30
0.0
 11
226.5547008384
 21
78.0920527493
 31
0.0
  0
LINE
  5
1B5
330
1F
100
AcDbEntity
  8
0
  6
Continuous
 62
     7
370
    30
100
AcDbLine
 10
224.3761231322
 20
80.0653238864
 30
0.0
 11
226.5547008384
 21
78.0920527493
 31
0.0
  0
SPLINE
  5
1B6
330
1F
100
AcDbEntity
  8
0
  6
Continuous
 62
     7
370
    30
100
AcDbSpline
210
0.0
220
0.0
230
1.0
 70
     8
 71
     3
 72
     9
 73
     5
 74
     0
 42
0.000000001
 43
0.00000001
 40
0.0
 40
0.0
 40
0.0
 40
0.0
 40
0.5524875760219174
 40
1.0
 40
1.0
 40
1.0
 40
1.0
 10
223.6164200250054
 20
78.94539289074567
 30
0.0
 10
223.6139147483178
 20
79.11043233511991
 30
0.0
 10
223.6093802089065
 20
79.40915297887189
 30
0.0
 10
223.7144684883851
 20
79.68779740984888
 30
0.0
 10
223.7614967990661
 20
79.8124942545834
 30
0.0
  0
ARC
  5
1B7
330
1F
100
AcDbEntity
  8
0
  6
Continuous
 62
     7
370
    30
100
AcDbCircle
 10
225.2640157733
 20
78.8563382808
 30
0.0
 40
1.650000000000081
100
AcDbArc
 50
148.3066211824
 51
176.9061070584
  0
LINE
  5
1B8
330
1F
100
AcDbEntity
  8
0
  6
Continuous
 62
     7
370
    30
100
AcDbLine
 10
223.8600772936
 20
79.7232041684
 30
0.0
 11
223.9733307753
 21
79.6206236434
 31
0.0
  0
ARC
  5
1B9
330
1F
100
AcDbEntity
  8
0
  6
Continuous
 62
     7
370
    30
100
AcDbCircle
 10
225.2640157733
 20
78.8563382808
 30
0.0
 40
1.500000000000025
100
AcDbArc
 50
149.3678985189
 51
306.2939804532
  0
LINE
  5
1BA
330
1F
100
AcDbEntity
  8
0
  6
Continuous
 62
     7
370
    30
100
AcDbLine
 10
226.1519084815
 20
77.6473527391
 30
0.0
 11
226.3936034534
 21
77.4284341921
 31
0.0
  0
SPLINE
  5
1BB
330
1F
100
AcDbEntity
  8
0
  6
Continuous
 62
     7
370
    30
100
AcDbSpline
210
0.0
220
0.0
230
1.0
 70
     8
 71
     3
 72
    16
 73
    12
 74
     0
 42
0.000000001
 43
0.00000001
 40
0.0
 40
0.0
 40
0.0
 40
0.0
 40
0.0782697055901828
 40
0.2043829094905401
 40
0.328138429517586
 40
0.4496263921703098
 40
0.571143756645652
 40
0.6906294587788314
 40
0.807531158329971
 40
0.9244544230065955
 40
1.0
 40
1.0
 40
1.0
 40
1.0
 10
223.5825180206442
 20
79.97460747967091
 30
0.0
 10
223.5161167821446
 20
79.84963902024907
 30
0.0
 10
223.3427255803252
 20
79.52331330918886
 30
0.0
 10
223.2455757325982
 20
78.92373375109848
 30
0.0
 10
223.3622224988469
 20
78.25282739212449
 30
0.0
 10
223.6948605888028
 20
77.66649298492766
 30
0.0
 10
224.1960782379537
 20
77.22776874179188
 30
0.0
 10
224.8102761062871
 20
76.98902001196552
 30
0.0
 10
225.4567669616191
 20
76.97237187730147
 30
0.0
 10
226.0052066336742
 20
77.13803020857335
 30
0.0
 10
226.2841255305607
 20
77.34657763899678
 30
0.0
 10
226.3936034534121
 20
77.42843419211533
 30
0.0
  0
LINE
  5
1BC
330
1F
100
AcDbEntity
  8
0
  6
Continuous
 62
     7
370
    30
100
AcDbLine
 10
223.5825180206
 20
79.9746074797
 30
0.0
 11
223.7614967991
 21
79.8124942546
 31
0.0
  0
LINE
  5
1BD
330
1F
100
AcDbEntity
  8
0
  6
Continuous
 62
     7
370
    30
100
AcDbLine
 10
226.1519084815
 20
77.6473527391
 30
0.0
 11
223.9733307753
 21
79.6206236434
 31
0.0
  0
LWPOLYLINE
  5
1BE
330
1F
100
AcDbEntity
  8
0
  6
Continuous
 62
     7
370
    30
100
AcDbPolyline
 90
        3
 70
   128
 43
0.0
 10
223.8600772936
 20
79.7232041684
 10
223.7816832159
 20
79.7942105298
 10
223.7614967991
 20
79.8124942546
  0
SPLINE
  5
1BF
330
1F
100
AcDbEntity
  8
0
  6
Continuous
 62
     7
370
    30
100
AcDbSpline
210
0.0
220
0.0
230
1.0
 70
     8
 71
     3
 72
    14
 73
    10
 74
     0
 42
0.000000001
 43
0.00000001
 40
0.0
 40
0.0
 40
0.0
 40
0.0
 40
0.0033089346647778
 40
0.1834457571912288
 40
0.3589702599036108
 40
0.5344947861849058
 40
0.7146316339671298
 40
0.8559945347702983
 40
1.0
 40
1.0
 40
1.0
 40
1.0
 10
225.1397741157556
 20
80.88141671279995
 30
0.0
 10
225.1447035547502
 20
80.88170736152034
 30
0.0
 10
225.4179892978945
 20
80.89782078774101
 30
0.0
 10
225.9648901206872
 20
80.81735324666424
 30
0.0
 10
226.660549929289
 20
80.3987546824335
 30
0.0
 10
227.1473883148449
 20
79.74608818581727
 30
0.0
 10
227.3284435119833
 20
79.00860651150947
 30
0.0
 10
227.25954278427
 20
78.30045988816318
 30
0.0
 10
227.0555612993432
 20
77.92240535013434
 30
0.0
 10
226.9526261035348
 20
77.73162765326526
 30
0.0
  0
SPLINE
  5
1C0
330
1F
100
AcDbEntity
  8
0
  6
Continuous
 62
     7
370
    30
100
AcDbSpline
210
0.0
220
0.0
230
1.0
 70
     8
 71
     3
 72
    10
 73
     6
 74
     0
 42
0.000000001
 43
0.00000001
 40
0.0
 40
0.0
 40
0.0
 40
0.0
 40
0.1434066676667582
 40
0.6552831492479219
 40
1.0
 40
1.0
 40
1.0
 40
1.0
 10
224.0961079616094
 20
80.31895096311894
 30
0.0
 10
224.1365260985841
 20
80.35961816716443
 30
0.0
 10
224.3212129371699
 20
80.54544309407757
 30
0.0
 10
224.672467525421
 20
80.7622693039627
 30
0.0
 10
225.005680142006
 20
80.84722727519427
 30
0.0
 10
225.1397741157556
 20
80.88141671279995
 30
0.0
  0
SPLINE
  5
1C1
330
1F
100
AcDbEntity
  8
0
  6
Continuous
 62
     7
370
    30
100
AcDbSpline
210
0.0
220
0.0
230
1.0
 70
     8
 71
     3
 72
     9
 73
     5
 74
     0
 42
0.000000001
 43
0.00000001
 40
0.0
 40
0.0
 40
0.0
 40
0.0
 40
0.2411673268498565
 40
1.0
 40
1.0
 40
1.0
 40
1.0
 10
224.0961079616094
 20
80.31895096311894
 30
0.0
 10
224.1095018478144
 20
80.30681933579397
 30
0.0
 10
224.1650395791479
 20
80.25651555922762
 30
0.0
 10
224.2206617385739
 20
80.2061350333284
 30
0.0
 10
224.2628696504975
 20
80.16790464418557
 30
0.0
  0
SPLINE
  5
1C2
330
1F
100
AcDbEntity
  8
0
  6
Continuous
 62
     7
370
    30
100
AcDbSpline
210
0.0
220
0.0
230
1.0
 70
     8
 71
     3
 72
     9
 73
     5
 74
     0
 42
0.000000001
 43
0.00000001
 40
0.0
 40
0.0
 40
0.0
 40
0.0
 40
0.267955924335925
 40
1.0
 40
1.0
 40
1.0
 40
1.0
 10
226.7779518980527
 20
77.88984119790223
 30
0.0
 10
226.7935515506393
 20
77.87571142670225
 30
0.0
 10
226.8517687840337
 20
77.82297972750588
 30
0.0
 10
226.9099990109189
 20
77.77023737786007
 30
0.0
 10
226.9526261035348
 20
77.73162765326526
 30
0.0
  0
SPLINE
  5
1C3
330
1F
100
AcDbEntity
  8
0
  6
Continuous
 62
     7
370
    30
100
AcDbSpline
210
0.0
220
0.0
230
1.0
 70
     8
 71
     3
 72
    11
 73
     7
 74
     0
 42
0.000000001
 43
0.00000001
 40
0.0
 40
0.0
 40
0.0
 40
0.0
 40
0.1385236471170461
 40
0.6772676774087254
 40
0.9686251486421565
 40
1.0
 40
1.0
 40
1.0
 40
1.0
 10
225.1397741157556
 20
80.88141671279995
 30
0.0
 10
225.0816060948964
 20
80.8762836033526
 30
0.0
 10
224.7972119051194
 20
80.85118688387085
 30
0.0
 10
224.4005756856692
 20
80.71737567210671
 30
0.0
 10
224.094251588829
 20
80.5196164905867
 30
0.0
 10
223.9884805400324
 20
80.43406610915876
 30
0.0
 10
223.9781978670502
 20
80.42574921520976
 30
0.0
  0
LINE
  5
1C4
330
1F
100
AcDbEntity
  8
0
  6
Continuous
 62
     7
370
    30
100
AcDbLine
 10
224.0961079616
 20
80.3189509631
 30
0.0
 11
223.9781978671
 21
80.4257492152
 31
0.0
  0
SPLINE
  5
1C5
330
1F
100
AcDbEntity
  8
0
  6
Continuous
 62
     7
370
    30
100
AcDbSpline
210
0.0
220
0.0
230
1.0
 70
     8
 71
     3
 72
     9
 73
     5
 74
     0
 42
0.000000001
 43
0.00000001
 40
0.0
 40
0.0
 40
0.0
 40
0.0
 40
0.5046296913795947
 40
1.0
 40
1.0
 40
1.0
 40
1.0
 10
223.9781978670502
 20
80.42574921520976
 30
0.0
 10
224.1578187803458
 20
80.54973819116552
 30
0.0
 10
224.5137647668067
 20
80.79544108592937
 30
0.0
 10
224.9422871729708
 20
80.85350626930168
 30
0.0
 10
225.1545644495631
 20
80.88227003710892
 30
0.0
  0
LWPOLYLINE
  5
1C6
330
1F
100
AcDbEntity
  8
0
  6
Continuous
 62
     7
370
    30
100
AcDbPolyline
 90
        2
 70
   128
 43
0.0
 10
226.9526261035
 20
77.7316276533
 10
226.9526261035
 20
77.7316276533
  0
SPLINE
  5
1C7
330
1F
100
AcDbEntity
  8
0
  6
Continuous
 62
     7
370
    30
100
AcDbSpline
210
0.0
220
0.0
230
1.0
 70
     8
 71
     3
 72
    15
 73
    11
 74
     0
 42
0.000000001
 43
0.00000001
 40
0.0
 40
0.0
 40
0.0
 40
0.0
 40
0.1123234612901092
 40
0.2225859259062966
 40
0.3630917446090109
 40
0.4999999885864577
 40
0.63690825094754
 40
0.7774141407732272
 40
0.8876766204354424
 40
1.0
 40
1.0
 40
1.0
 40
1.0
 10
226.5498337466265
 20
77.28692717748311
 30
0.0
 10
226.3701409824658
 20
77.16567410725686
 30
0.0
 10
226.0140525942521
 20
76.92539281076454
 30
0.0
 10
225.3161768794256
 20
76.78694288776292
 30
0.0
 10
224.5643429934186
 20
76.89445416160841
 30
0.0
 10
223.8671632282577
 20
77.31415191698349
 30
0.0
 10
223.3807322926834
 20
77.96652434035371
 30
0.0
 10
223.1995677659705
 20
78.70408326046847
 30
0.0
 10
223.2684948172403
 20
79.41221320438277
 30
0.0
 10
223.4724717909204
 20
79.79027025234127
 30
0.0
 10
223.5754045788193
 20
79.98104897225824
 30
0.0
  0
SPLINE
  5
1C8
330
1F
100
AcDbEntity
  8
0
  6
Continuous
 62
     7
370
    30
100
AcDbSpline
210
0.0
220
0.0
230
1.0
 70
     8
 71
     3
 72
     9
 73
     5
 74
     0
 42
0.000000001
 43
0.00000001
 40
0.0
 40
0.0
 40
0.0
 40
0.0
 40
0.5059718361359978
 40
1.0
 40
1.0
 40
1.0
 40
1.0
 10
226.5498337466265
 20
77.28692717748311
 30
0.0
 10
226.523499523898
 20
77.31077981223031
 30
0.0
 10
226.4714527085466
 20
77.35792203051932
 30
0.0
 10
226.4193457556675
 20
77.40511803612449
 30
0.0
 10
226.3936034534121
 20
77.42843419211533
 30
0.0
  0
SPLINE
  5
1C9
330
1F
100
AcDbEntity
  8
0
  6
Continuous
 62
     7
370
    30
100
AcDbSpline
210
0.0
220
0.0
230
1.0
 70
     8
 71
     3
 72
    15
 73
    11
 74
     0
 42
0.000000001
 43
0.00000001
 40
0.0
 40
0.0
 40
0.0
 40
0.0
 40
0.1123234615386247
 40
0.2225859258603111
 40
0.3630917448173918
 40
0.4999999887601257
 40
0.6369082510864952
 40
0.777414140296575
 40
0.8876766204639217
 40
0.9999999999999999
 40
0.9999999999999999
 40
0.9999999999999999
 40
0.9999999999999999
 10
226.5498337466265
 20
77.28692717748311
 30
0.0
 10
226.3701409828216
 20
77.16567410728715
 30
0.0
 10
226.0140525961746
 20
76.92539281143611
 30
0.0
 10
225.3161768770864
 20
76.78694288756398
 30
0.0
 10
224.5643429947653
 20
76.89445416125761
 30
0.0
 10
223.867163228009
 20
77.31415191740042
 30
0.0
 10
223.3807322935137
 20
77.96652433780794
 30
0.0
 10
223.1995677657849
 20
78.7040832649151
 30
0.0
 10
223.2684948168292
 20
79.41221320222084
 30
0.0
 10
223.4724717909463
 20
79.79027025191988
 30
0.0
 10
223.5754045788193
 20
79.98104897225824
 30
0.0
  0
LWPOLYLINE
  5
1CA
330
1F
100
AcDbEntity
  8
0
  6
Continuous
 62
     7
370
    30
100
AcDbPolyline
 90
        2
 70
   128
 43
0.0
 10
226.5498337466
 20
77.2869271775
 10
226.5498337466
 20
77.2869271775
  0
SPLINE
  5
1CB
330
1F
100
AcDbEntity
  8
0
  6
Continuous
 62
     7
370
    30
100
AcDbSpline
210
0.0
220
0.0
230
1.0
 70
     8
 71
     3
 72
     9
 73
     5
 74
     0
 42
0.000000001
 43
0.00000001
 40
0.0
 40
0.0
 40
0.0
 40
0.0
 40
0.8161898086770731
 40
1.0
 40
1.0
 40
1.0
 40
1.0
 10
226.2702190447594
 20
77.54019150408533
 30
0.0
 10
226.4067546539796
 20
77.63525882700559
 30
0.0
 10
226.5740387927532
 20
77.75173580565637
 30
0.0
 10
226.7032349126692
 20
77.90739509429928
 30
0.0
 10
226.7269824761892
 20
77.93600685792593
 30
0.0
  0
LINE
  5
1CC
330
1F
100
AcDbEntity
  8
0
  6
Continuous
 62
     7
370
    30
100
AcDbLine
 10
224.0440637935
 20
80.3660900881
 30
0.0
 11
223.6889430452
 21
79.8782111694
 31
0.0
  0
SPLINE
  5
1CD
330
1F
100
AcDbEntity
  8
0
  6
Continuous
 62
     7
370
    30
100
AcDbSpline
210
0.0
220
0.0
230
1.0
 70
     8
 71
     3
 72
    13
 73
     9
 74
     0
 42
0.000000001
 43
0.00000001
 40
0.0
 40
0.0
 40
0.0
 40
0.0
 40
0.0989907634716964
 40
0.2576801830997026
 40
0.4598959344925765
 40
0.6569340549324456
 40
0.853972258563987
 40
1.0
 40
1.0
 40
1.0
 40
1.0
 10
204.043776461854
 20
80.77751207994845
 30
0.0
 10
204.05107994297
 20
80.74171561270596
 30
0.0
 10
204.0700914374288
 20
80.64853479552791
 30
0.0
 10
204.1007091960461
 20
80.25466512018943
 30
0.0
 10
204.145662138028
 20
79.6211737350657
 30
0.0
 10
204.1877466876369
 20
78.8238882945509
 30
0.0
 10
204.2263208450316
 20
78.08635155681095
 30
0.0
 10
204.2527611680829
 20
77.72738002247736
 30
0.0
 10
204.2640156242991
 20
77.57458198713688
 30
0.0
  0
SPLINE
  5
1CE
330
1F
100
AcDbEntity
  8
0
  6
Continuous
 62
     7
370
    30
100
AcDbSpline
210
0.0
220
0.0
230
1.0
 70
     8
 71
     3
 72
    10
 73
     6
 74
     0
 42
0.000000001
 43
0.00000001
 40
0.0
 40
0.0
 40
0.0
 40
0.0
 40
0.2754244427614882
 40
0.5508541413815979
 40
1.0
 40
1.0
 40
1.0
 40
1.0
 10
204.0353684816504
 20
77.22887225347188
 30
0.0
 10
204.0558253069051
 20
77.19362133630656
 30
0.0
 10
204.0967393477872
 20
77.12311882929113
 30
0.0
 10
204.170985800363
 20
76.99511533833422
 30
0.0
 10
204.2247502834178
 20
76.90234817564574
 30
0.0
 10
204.2580775115634
 20
76.84484418379691
 30
0.0
  0
SPLINE
  5
1CF
330
1F
100
AcDbEntity
  8
0
  6
Continuous
 62
     7
370
    30
100
AcDbSpline
210
0.0
220
0.0
230
1.0
 70
     8
 71
     3
 72
    15
 73
    11
 74
     0
 42
0.000000001
 43
0.00000001
 40
0.0
 40
0.0
 40
0.0
 40
0.0
 40
0.1086263298960954
 40
0.2157411713962063
 40
0.3597198008985854
 40
0.5000001692303152
 40
0.6402803648595424
 40
0.7842590868661724
 40
0.891373990760041
 40
1.0
 40
1.0
 40
1.0
 40
1.0
 10
203.7277898881579
 20
80.47337844865945
 30
0.0
 10
203.7389635571459
 20
80.42619689052319
 30
0.0
 10
203.761155418351
 20
80.33249028522451
 30
0.0
 10
203.7951872034244
 20
79.98869143324515
 30
0.0
 10
203.8393721212591
 20
79.4784152103339
 30
0.0
 10
203.8815823716638
 20
78.82693445131943
 30
0.0
 10
203.9237845128373
 20
78.17988744811767
 30
0.0
 10
203.9679715179231
 20
77.6814526859891
 30
0.0
 10
204.0020028080285
 20
77.35313572404256
 30
0.0
 10
204.0241947776715
 20
77.2704863761562
 30
0.0
 10
204.0353684816504
 20
77.22887225347188
 30
0.0
  0
SPLINE
  5
1D0
330
1F
100
AcDbEntity
  8
0
  6
Continuous
 62
     7
370
    30
100
AcDbSpline
210
0.0
220
0.0
230
1.0
 70
     8
 71
     3
 72
    10
 73
     6
 74
     0
 42
0.000000001
 43
0.00000001
 40
0.0
 40
0.0
 40
0.0
 40
0.0
 40
0.2778768561887048
 40
0.5557583577468285
 40
1.0
 40
1.0
 40
1.0
 40
1.0
 10
203.9425789508963
 20
80.85740628550377
 30
0.0
 10
203.9226065694808
 20
80.8218788051133
 30
0.0
 10
203.8826614727641
 20
80.7508232504064
 30
0.0
 10
203.8109711671248
 20
80.62286619077815
 30
0.0
 10
203.7594717328214
 20
80.53031490700333
 30
0.0
 10
203.7277898881579
 20
80.47337844865945
 30
0.0
  0
SPLINE
  5
1D1
330
1F
100
AcDbEntity
  8
0
  6
Continuous
 62
     7
370
    30
100
AcDbSpline
210
0.0
220
0.0
230
1.0
 70
     8
 71
     3
 72
    15
 73
    11
 74
     0
 42
0.000000001
 43
0.00000001
 40
0.0
 40
0.0
 40
0.0
 40
0.0
 40
0.1123236776418728
 40
0.2225860480108872
 40
0.3630918745921231
 40
0.5000001213024856
 40
0.636908425817023
 40
0.7774141209963426
 40
0.8876765885202408
 40
1.0
 40
1.0
 40
1.0
 40
1.0
 10
203.9425789508963
 20
80.85740628550377
 30
0.0
 10
203.9545497369021
 20
80.8019737510936
 30
0.0
 10
203.9782716271086
 20
80.69212595208431
 30
0.0
 10
204.0132653800331
 20
80.25796740281234
 30
0.0
 10
204.0581258431633
 20
79.6212671543572
 30
0.0
 10
204.1003300866523
 20
78.82018177158507
 30
0.0
 10
204.1425343961102
 20
78.02455199069404
 30
0.0
 10
204.1873945280004
 20
77.40262235475755
 30
0.0
 10
204.2223894592375
 20
76.98831275381112
 30
0.0
 10
204.2461082891494
 20
76.89296132978848
 30
0.0
 10
204.2580775115634
 20
76.84484418379691
 30
0.0
  0
LINE
  5
1D2
330
1F
100
AcDbEntity
  8
0
  6
Continuous
 62
     7
370
    30
100
AcDbLine
 10
204.2580775116
 20
76.8448441838
 30
0.0
 11
204.2640156243
 21
76.8448441838
 31
0.0
  0
LINE
  5
1D3
330
1F
100
AcDbEntity
  8
0
  6
Continuous
 62
     7
370
    30
100
AcDbLine
 10
204.0300785694
 20
80.8574062855
 30
0.0
 11
203.9425789509
 21
80.8574062855
 31
0.0
  0
SPLINE
  5
1D4
330
1F
100
AcDbEntity
  8
0
  6
Continuous
 62
     7
370
    30
100
AcDbSpline
210
0.0
220
0.0
230
1.0
 70
     8
 71
     3
 72
    10
 73
     6
 74
     0
 42
0.000000001
 43
0.00000001
 40
0.0
 40
0.0
 40
0.0
 40
0.0
 40
0.2593470292759145
 40
0.5443593838384181
 40
0.9999999999999999
 40
0.9999999999999999
 40
0.9999999999999999
 40
0.9999999999999999
 10
203.6509781274939
 20
76.85443820329932
 30
0.0
 10
203.6691496052891
 20
76.88676857152012
 30
0.0
 10
203.7072908343736
 20
76.95462876399309
 30
0.0
 10
203.7771880568382
 20
77.07938433920981
 30
0.0
 10
203.8286874500407
 20
77.1719357571889
 30
0.0
 10
203.8603692445899
 20
77.22887225347188
 30
0.0
  0
SPLINE
  5
1D5
330
1F
100
AcDbEntity
  8
0
  6
Continuous
 62
     7
370
    30
100
AcDbSpline
210
0.0
220
0.0
230
1.0
 70
     8
 71
     3
 72
    16
 73
    12
 74
     0
 42
0.000000001
 43
0.00000001
 40
0.0
 40
0.0
 40
0.0
 40
0.0
 40
0.0782695651368838
 40
0.2043827415546491
 40
0.3281384294174803
 40
0.4496263283274801
 40
0.5711436869379185
 40
0.6906294260349589
 40
0.8075311565075916
 40
0.9244543427266685
 40
1.0
 40
1.0
 40
1.0
 40
1.0
 10
203.6509781274939
 20
76.85443820329932
 30
0.0
 10
203.645884677537
 20
76.88672865826845
 30
0.0
 10
203.632584319162
 20
76.97104766146082
 30
0.0
 10
203.6137503341203
 20
77.29264813326212
 30
0.0
 10
203.5884058689308
 20
77.82213460779482
 30
0.0
 10
203.5629628597139
 20
78.4585256620991
 30
0.0
 10
203.5413260606281
 20
79.12463247769686
 30
0.0
 10
203.5161778256016
 20
79.74412932039668
 30
0.0
 10
203.4905443133107
 20
80.24171683095024
 30
0.0
 10
203.4713663407692
 20
80.54547882607677
 30
0.0
 10
203.4576455098726
 20
80.61813194958161
 30
0.0
 10
203.4522599671031
 20
80.64664891819086
 30
0.0
  0
LWPOLYLINE
  5
1D6
330
1F
100
AcDbEntity
  8
0
  6
Continuous
 62
     7
370
    30
100
AcDbPolyline
 90
        3
 70
   128
 43
0.0
 10
203.5527906511
 20
80.4733784487
 10
203.491423944
 20
80.5791333866
 10
203.4522599671
 20
80.6466489182
  0
SPLINE
  5
1D7
330
1F
100
AcDbEntity
  8
0
  6
Continuous
 62
     7
370
    30
100
AcDbSpline
210
0.0
220
0.0
230
1.0
 70
     8
 71
     3
 72
    15
 73
    11
 74
     0
 42
0.000000001
 43
0.00000001
 40
0.0
 40
0.0
 40
0.0
 40
0.0
 40
0.1086263298960904
 40
0.2157411713961964
 40
0.3597198008985688
 40
0.500000114757874
 40
0.640280364859559
 40
0.7842590868661824
 40
0.891373990760046
 40
1.0
 40
1.0
 40
1.0
 40
1.0
 10
203.5527906510974
 20
80.47337844865945
 30
0.0
 10
203.5639643458629
 20
80.42619689226017
 30
0.0
 10
203.5861562582642
 20
80.33249029041131
 30
0.0
 10
203.6201876200858
 20
79.98869140991151
 30
0.0
 10
203.6643746656458
 20
79.47841540181113
 30
0.0
 10
203.7065767079428
 20
78.82693410839913
 30
0.0
 10
203.7487870572257
 20
78.17988763793691
 30
0.0
 10
203.792971934584
 20
77.68145266265738
 30
0.0
 10
203.8270036479415
 20
77.35313572922894
 30
0.0
 10
203.8491955663883
 20
77.27048637789305
 30
0.0
 10
203.8603692445899
 20
77.22887225347188
 30
0.0
  0
SPLINE
  5
1D8
330
1F
100
AcDbEntity
  8
0
  6
Continuous
 62
     7
370
    30
100
AcDbSpline
210
0.0
220
0.0
230
1.0
 70
     8
 71
     3
 72
     9
 73
     5
 74
     0
 42
0.000000001
 43
0.00000001
 40
0.0
 40
0.0
 40
0.0
 40
0.0
 40
0.5524883953857667
 40
1.0
 40
1.0
 40
1.0
 40
1.0
 10
203.2815783414985
 20
77.5575313334408
 30
0.0
 10
203.3052884756179
 20
77.44699299699062
 30
0.0
 10
203.3482036469001
 20
77.24691940743946
 30
0.0
 10
203.3926453109635
 20
77.14257931242177
 30
0.0
 10
203.4125334713603
 20
77.09588590907482
 30
0.0
  0
LINE
  5
1D9
330
1F
100
AcDbEntity
  8
0
  6
Continuous
 62
     7
370
    30
100
AcDbLine
 10
203.2815783415
 20
77.2288722535
 30
0.0
 11
203.2815783415
 21
77.5575313334
 31
0.0
  0
LINE
  5
1DA
330
1F
100
AcDbEntity
  8
0
  6
Continuous
 62
     7
370
    30
100
AcDbLine
 10
203.2815783415
 20
77.2288722535
 30
0.0
 11
203.1315795276
 21
77.3816533935
 31
0.0
  0
LINE
  5
1DB
330
1F
100
AcDbEntity
  8
0
  6
Continuous
 62
     7
370
    30
100
AcDbLine
 10
203.1315795276
 20
77.3816533935
 30
0.0
 11
203.1315795276
 21
80.3205973086
 31
0.0
  0
LINE
  5
1DC
330
1F
100
AcDbEntity
  8
0
  6
Continuous
 62
     7
370
    30
100
AcDbLine
 10
203.1315795276
 20
80.3205973086
 30
0.0
 11
203.4522599671
 21
80.6466489182
 31
0.0
  0
LINE
  5
1DD
330
1F
100
AcDbEntity
  8
0
  6
Continuous
 62
     7
370
    30
100
AcDbLine
 10
203.6509781275
 20
76.8544382033
 30
0.0
 11
203.4125334714
 21
77.0958859091
 31
0.0
  0
LINE
  5
1DE
330
1F
100
AcDbEntity
  8
0
  6
Continuous
 62
     7
370
    30
100
AcDbLine
 10
204.2640156243
 20
80.4733784487
 30
0.0
 11
204.2527913246
 21
80.4733784487
 31
0.0
  0
LINE
  5
1DF
330
1F
100
AcDbEntity
  8
0
  6
Continuous
 62
     7
370
    30
100
AcDbLine
 10
203.8603692446
 20
77.2288722535
 30
0.0
 11
204.0353684817
 21
77.2288722535
 31
0.0
  0
LINE
  5
1E0
330
1F
100
AcDbEntity
  8
0
  6
Continuous
 62
     7
370
    30
100
AcDbLine
 10
203.7277898882
 20
80.4733784487
 30
0.0
 11
203.5527906511
 21
80.4733784487
 31
0.0
  0
LWPOLYLINE
  5
1E1
330
1F
100
AcDbEntity
  8
0
  6
Continuous
 62
     7
370
    30
100
AcDbPolyline
 90
        3
 70
   128
 43
0.0
 10
203.3353678081
 20
77.2288722535
 10
203.3967345152
 20
77.1231173155
 10
203.4125334714
 20
77.0958859091
  0
SPLINE
  5
1E2
330
1F
100
AcDbEntity
  8
0
  6
Continuous
 62
     7
370
    30
100
AcDbSpline
210
0.0
220
0.0
230
1.0
 70
     8
 71
     3
 72
     9
 73
     5
 74
     0
 42
0.000000001
 43
0.00000001
 40
0.0
 40
0.0
 40
0.0
 40
0.0
 40
0.4930352885571591
 40
1.0
 40
1.0
 40
1.0
 40
1.0
 10
203.2815783414985
 20
77.5575313334408
 30
0.0
 10
203.2900346118687
 20
77.48035304286608
 30
0.0
 10
203.3071860624171
 20
77.32381599092282
 30
0.0
 10
203.3258870615094
 20
77.26081269912042
 30
0.0
 10
203.335367808118
 20
77.22887225347188
 30
0.0
  0
LINE
  5
1E3
330
1F
100
AcDbEntity
  8
0
  6
Continuous
 62
     7
370
    30
100
AcDbLine
 10
203.2815783415
 20
77.2288722535
 30
0.0
 11
203.3353678081
 21
77.2288722535
 31
0.0
  0
LINE
  5
1E4
330
1F
100
AcDbEntity
  8
0
  6
Continuous
 62
     7
370
    30
100
AcDbLine
 10
203.1315795276
 20
80.3205973086
 30
0.0
 11
203.1315795276
 21
80.331023232
 31
0.0
  0
LINE
  5
1E5
330
1F
100
AcDbEntity
  8
0
  6
Continuous
 62
     7
370
    30
100
AcDbLine
 10
203.5467407797
 20
80.4838043721
 30
0.0
 11
203.6853662822
 21
80.4838043721
 31
0.0
  0
LINE
  5
1E6
330
1F
100
AcDbEntity
  8
0
  6
Continuous
 62
     7
370
    30
100
AcDbLine
 10
203.9080790374
 20
80.8678322089
 30
0.0
 11
203.995578656
 21
80.8678322089
 31
0.0
  0
LINE
  5
1E7
330
1F
100
AcDbEntity
  8
0
  6
Continuous
 62
     7
370
    30
100
AcDbLine
 10
204.2338631246
 20
80.4838043721
 30
0.0
 11
204.2640156243
 21
80.4838043721
 31
0.0
  0
SPLINE
  5
1E8
330
1F
100
AcDbEntity
  8
0
  6
Continuous
 62
     7
370
    30
100
AcDbSpline
210
0.0
220
0.0
230
1.0
 70
     8
 71
     3
 72
    10
 73
     6
 74
     0
 42
0.000000001
 43
0.00000001
 40
0.0
 40
0.0
 40
0.0
 40
0.0
 40
0.2754276018773978
 40
0.5508520395384114
 40
1.0
 40
1.0
 40
1.0
 40
1.0
 10
203.685366282239
 20
80.48380437205164
 30
0.0
 10
203.705824912728
 20
80.51905496210925
 30
0.0
 10
203.7467419386695
 20
80.58955573725243
 30
0.0
 10
203.8209818196117
 20
80.71756369792276
 30
0.0
 10
203.8747495160922
 20
80.81032890776329
 30
0.0
 10
203.9080790374423
 20
80.86783220889595
 30
0.0
  0
LINE
  5
1E9
330
1F
100
AcDbEntity
  8
0
  6
Continuous
 62
     7
370
    30
100
AcDbLine
 10
203.995578656
 20
80.8678322089
 30
0.0
 11
204.0014385376
 21
80.8574062855
 31
0.0
  0
SPLINE
  5
1EA
330
1F
100
AcDbEntity
  8
0
  6
Continuous
 62
     7
370
    30
100
AcDbSpline
210
0.0
220
0.0
230
1.0
 70
     8
 71
     3
 72
    10
 73
     6
 74
     0
 42
0.000000001
 43
0.00000001
 40
0.0
 40
0.0
 40
0.0
 40
0.0
 40
0.2552038816096828
 40
0.5383156065879011
 40
0.9999999999999999
 40
0.9999999999999999
 40
0.9999999999999999
 40
0.9999999999999999
 10
203.8967429790641
 20
77.22887225347188
 30
0.0
 10
203.8783012021837
 20
77.19709691601435
 30
0.0
 10
203.8394009462577
 20
77.13007144622092
 30
0.0
 10
203.7671774528134
 20
77.00553893964097
 30
0.0
 10
203.713409676907
 20
76.91277368680929
 30
0.0
 10
203.6800800953055
 20
76.85527034001973
 30
0.0
  0
LINE
  5
1EB
330
1F
100
AcDbEntity
  8
0
  6
Continuous
 62
     7
370
    30
100
AcDbLine
 10
203.4277177546
 20
80.6321929292
 30
0.0
 11
203.1315795276
 21
80.331023232
 31
0.0
  0
LINE
  5
1EC
330
1F
100
AcDbEntity
  8
0
  6
Continuous
 62
     7
370
    30
100
AcDbLine
 10
252.7640161235
 20
72.856338377
 30
0.0
 11
252.7640161235
 21
62.8563376692
 31
0.0
  0
LINE
  5
1ED
330
1F
100
AcDbEntity
  8
0
  6
Continuous
 62
     7
370
    30
100
AcDbLine
 10
252.7640161235
 20
62.8563376692
 30
0.0
 11
247.7640162352
 21
62.8563376692
 31
0.0
  0
LINE
  5
1EE
330
1F
100
AcDbEntity
  8
0
  6
Continuous
 62
     7
370
    30
100
AcDbLine
 10
247.7640162352
 20
62.8563376692
 30
0.0
 11
247.7640162352
 21
72.856338377
 31
0.0
  0
LINE
  5
1EF
330
1F
100
AcDbEntity
  8
0
  6
Continuous
 62
     7
370
    30
100
AcDbLine
 10
247.7640162352
 20
72.856338377
 30
0.0
 11
252.7640161235
 21
72.856338377
 31
0.0
  0
LINE
  5
1F0
330
1F
100
AcDbEntity
  8
0
  6
Continuous
 62
     7
370
    30
100
AcDbLine
 10
192.7640146706
 20
72.856338377
 30
0.0
 11
192.7640146706
 21
62.8563376692
 31
0.0
  0
LINE
  5
1F1
330
1F
100
AcDbEntity
  8
0
  6
Continuous
 62
     7
370
    30
100
AcDbLine
 10
192.7640146706
 20
62.8563376692
 30
0.0
 11
247.7640162352
 21
62.8563376692
 31
0.0
  0
LINE
  5
1F2
330
1F
100
AcDbEntity
  8
0
  6
Continuous
 62
     7
370
    30
100
AcDbLine
 10
192.7640146706
 20
72.856338377
 30
0.0
 11
247.7640162352
 21
72.856338377
 31
0.0
  0
LINE
  5
1F3
330
1F
100
AcDbEntity
  8
0
  6
Continuous
 62
     7
370
    30
100
AcDbLine
 10
187.7640157137
 20
62.8563376692
 30
0.0
 11
187.7640157137
 21
72.856338377
 31
0.0
  0
LINE
  5
1F4
330
1F
100
AcDbEntity
  8
0
  6
Continuous
 62
     7
370
    30
100
AcDbLine
 10
192.7640146706
 20
62.8563376692
 30
0.0
 11
187.7640157137
 21
62.8563376692
 31
0.0
  0
LINE
  5
1F5
330
1F
100
AcDbEntity
  8
0
  6
Continuous
 62
     7
370
    30
100
AcDbLine
 10
187.7640157137
 20
72.856338377
 30
0.0
 11
192.7640146706
 21
72.856338377
 31
0.0
  0
LINE
  5
1F6
330
1F
100
AcDbEntity
  8
0
  6
Continuous
 62
     7
370
    30
100
AcDbLine
 10
218.4640157167
 20
142.3563385931
 30
0.0
 11
238.4640157935
 21
142.3563385931
 31
0.0
  0
LINE
  5
1F7
330
1F
100
AcDbEntity
  8
0
  6
Continuous
 62
     7
370
    30
100
AcDbLine
 10
238.4640157935
 20
97.8563378182
 30
0.0
 11
238.4640157935
 21
142.3563385931
 31
0.0
  0
LINE
  5
1F8
330
1F
100
AcDbEntity
  8
0
  6
Continuous
 62
     7
370
    30
100
AcDbLine
 10
212.4640165959
 20
82.3563383044
 30
0.0
 11
212.4640165959
 21
145.3563372222
 31
0.0
  0
LINE
  5
1F9
330
1F
100
AcDbEntity
  8
0
  6
Continuous
 62
     7
370
    30
100
AcDbLine
 10
218.4640157167
 20
82.3563383044
 30
0.0
 11
218.4640157167
 21
145.3563372222
 31
0.0
  0
LINE
  5
1FA
330
1F
100
AcDbEntity
  8
0
  6
Continuous
 62
     7
370
    30
100
AcDbLine
 10
212.4640165959
 20
145.3563372222
 30
0.0
 11
218.4640157167
 21
145.3563372222
 31
0.0
  0
LINE
  5
1FB
330
1F
100
AcDbEntity
  8
0
  6
Continuous
 62
     7
370
    30
100
AcDbLine
 10
212.4640165959
 20
82.3563383044
 30
0.0
 11
218.4640157167
 21
82.3563383044
 31
0.0
  0
LINE
  5
1FC
330
1F
100
AcDbEntity
  8
0
  6
Continuous
 62
     7
370
    30
100
AcDbLine
 10
239.2640157733
 20
97.8563378182
 30
0.0
 11
218.4640157167
 21
97.8563378182
 31
0.0
  0
LINE
  5
1FD
330
1F
100
AcDbEntity
  8
0
  6
Continuous
 62
     7
370
    30
100
AcDbLine
 10
239.2640157733
 20
72.856338377
 30
0.0
 11
239.2640157733
 21
97.8563378182
 31
0.0
  0
LINE
  5
1FE
330
1F
100
AcDbEntity
  8
0
  6
Continuous
 62
     7
370
    30
100
AcDbLine
 10
204.2640156243
 20
97.8563378182
 30
0.0
 11
204.2640156243
 21
72.856338377
 31
0.0
  0
LINE
  5
1FF
330
1F
100
AcDbEntity
  8
0
  6
Continuous
 62
     7
370
    30
100
AcDbLine
 10
212.264015073
 20
97.8563378182
 30
0.0
 11
204.2640156243
 21
97.8563378182
 31
0.0
  0
LINE
  5
200
330
1F
100
AcDbEntity
  8
0
  6
Continuous
 62
     7
370
    30
100
AcDbLine
 10
212.264015073
 20
97.8563378182
 30
0.0
 11
212.264015073
 21
82.3563383044
 31
0.0
  0
LINE
  5
201
330
1F
100
AcDbEntity
  8
0
  6
Continuous
 62
     7
370
    30
100
AcDbLine
 10
212.264015073
 20
82.3563383044
 30
0.0
 11
212.4640165959
 21
82.3563383044
 31
0.0
  0
CIRCLE
  5
202
330
1F
100
AcDbEntity
  8
0
  6
Continuous
 62
     7
370
    30
100
AcDbCircle
 10
235.2640157733
 20
80.8563382808
 30
0.0
 40
3.249999999999972
  0
CIRCLE
  5
203
330
1F
100
AcDbEntity
  8
0
  6
Continuous
 62
     7
370
    30
100
AcDbCircle
 10
208.2640157733
 20
93.8563382808
 30
0.0
 40
3.250000000000028
  0
CIRCLE
  5
204
330
1F
100
AcDbEntity
  8
0
  6
Continuous
 62
     7
370
    30
100
AcDbCircle
 10
225.2640157733
 20
87.3563382808
 30
0.0
 40
4.216400000000021
  0
ARC
  5
205
330
1F
100
AcDbEntity
  8
0
  6
Continuous
 62
     7
370
    30
100
AcDbCircle
 10
225.2640157733
 20
78.8563382808
 30
0.0
 40
1.649999999999992
100
AcDbArc
 50
127.3552577896
 51
148.3066211824
  0
LWPOLYLINE
  5
206
330
1F
100
AcDbEntity
  8
0
  6
Continuous
 62
     7
370
    30
100
AcDbPolyline
 90
        3
 70
   128
 43
0.0
 10
226.2740691323
 20
77.5516188321
 10
226.4668137897
 20
77.726835533
 10
226.6679543201
 20
77.9894722243
  0
LINE
  5
207
330
1F
100
AcDbEntity
  8
0
  6
Continuous
 62
     7
370
    30
100
AcDbLine
 10
86.7103188657
 20
208.3058406342
 30
0.0
 11
86.7103188657
 21
209.3058389355
 31
0.0
  0
LINE
  5
208
330
1F
100
AcDbEntity
  8
0
  6
Continuous
 62
     7
370
    30
100
AcDbLine
 10
82.7103182101
 20
209.3058389355
 30
0.0
 11
82.7103182101
 21
208.3058406342
 31
0.0
  0
LINE
  5
209
330
1F
100
AcDbEntity
  8
0
  6
Continuous
 62
     7
370
    30
100
AcDbLine
 10
85.7103187018
 20
217.3058383841
 30
0.0
 11
85.7103187018
 21
217.505839907
 31
0.0
  0
LINE
  5
20A
330
1F
100
AcDbEntity
  8
0
  6
Continuous
 62
     7
370
    30
100
AcDbLine
 10
83.710318374
 20
217.505839907
 30
0.0
 11
83.710318374
 21
217.3058383841
 31
0.0
  0
LINE
  5
20B
330
1F
100
AcDbEntity
  8
0
  6
Continuous
 62
     7
370
    30
100
AcDbLine
 10
112.2906319806
 20
231.9471223954
 30
0.0
 11
112.2103186217
 21
232.0853446353
 31
0.0
  0
LINE
  5
20C
330
1F
100
AcDbEntity
  8
0
  6
Continuous
 62
     7
370
    30
100
AcDbLine
 10
112.2103186217
 20
228.4621999342
 30
0.0
 11
112.3118882542
 21
228.2870796252
 31
0.0
  0
SPLINE
  5
20D
330
1F
100
AcDbEntity
  8
0
  6
Continuous
 62
     7
370
    30
100
AcDbSpline
210
0.0
220
0.0
230
1.0
 70
     8
 71
     3
 72
     9
 73
     5
 74
     0
 42
0.000000001
 43
0.00000001
 40
0.0
 40
0.0
 40
0.0
 40
0.0
 40
0.5002073053618645
 40
1.0
 40
1.0
 40
1.0
 40
1.0
 10
112.6627648782278
 20
232.3261874470917
 30
0.0
 10
112.6259376374624
 20
232.2626757098917
 30
0.0
 10
112.5523136812134
 20
232.1357048789597
 30
0.0
 10
112.4786057511946
 20
232.0087847654265
 30
0.0
 10
112.4417670662343
 20
231.94535101988
 30
0.0
  0
SPLINE
  5
20E
330
1F
100
AcDbEntity
  8
0
  6
Continuous
 62
     7
370
    30
100
AcDbSpline
210
0.0
220
0.0
230
1.0
 70
     8
 71
     3
 72
     9
 73
     5
 74
     0
 42
0.000000001
 43
0.00000001
 40
0.0
 40
0.0
 40
0.0
 40
0.0
 40
0.4997935387783369
 40
1.0
 40
1.0
 40
1.0
 40
1.0
 10
112.992019749986
 20
231.9449449632374
 30
0.0
 10
112.9551391568985
 20
232.008400390577
 30
0.0
 10
112.8813475004925
 20
232.1353636712442
 30
0.0
 10
112.8076514229191
 20
232.2623782584299
 30
0.0
 10
112.7707881687503
 20
232.3259117756096
 30
0.0
  0
LINE
  5
20F
330
1F
100
AcDbEntity
  8
0
  6
Continuous
 62
     7
370
    30
100
AcDbLine
 10
112.7602097122
 20
232.3347248811
 30
0.0
 11
112.6727097153
 21
232.3347248811
 31
0.0
  0
LINE
  5
210
330
1F
100
AcDbEntity
  8
0
  6
Continuous
 62
     7
370
    30
100
AcDbLine
 10
113.4731001812
 20
231.8058388982
 30
0.0
 11
113.2269136588
 21
232.0520256389
 31
0.0
  0
LINE
  5
211
330
1F
100
AcDbEntity
  8
0
  6
Continuous
 62
     7
370
    30
100
AcDbLine
 10
113.1542936428
 20
231.9558386434
 30
0.0
 11
112.9856897978
 21
231.9558386434
 31
0.0
  0
LINE
  5
212
330
1F
100
AcDbEntity
  8
0
  6
Continuous
 62
     7
370
    30
100
AcDbLine
 10
112.4542936459
 20
231.9558386434
 30
0.0
 11
112.285567332
 21
231.9558386434
 31
0.0
  0
SPLINE
  5
213
330
1F
100
AcDbEntity
  8
0
  6
Continuous
 62
     7
370
    30
100
AcDbSpline
210
0.0
220
0.0
230
1.0
 70
     8
 71
     3
 72
     9
 73
     5
 74
     0
 42
0.000000001
 43
0.00000001
 40
0.0
 40
0.0
 40
0.0
 40
0.0
 40
0.5000974859255994
 40
1.0
 40
1.0
 40
1.0
 40
1.0
 10
113.2275169229661
 20
232.0930252526013
 30
0.0
 10
113.2132062262623
 20
232.0683705018781
 30
0.0
 10
113.184590412133
 20
232.0190706125225
 30
0.0
 10
113.155959369114
 20
231.9697800738553
 30
0.0
 10
113.1416466387282
 20
231.9451396096555
 30
0.0
  0
LINE
  5
214
330
1F
100
AcDbEntity
  8
0
  6
Continuous
 62
     7
370
    30
100
AcDbLine
 10
112.9990926502
 20
228.3318315376
 30
0.0
 11
113.4731001812
 21
228.8058393378
 31
0.0
  0
SPLINE
  5
215
330
1F
100
AcDbEntity
  8
0
  6
Continuous
 62
     7
370
    30
100
AcDbSpline
210
0.0
220
0.0
230
1.0
 70
     8
 71
     3
 72
     9
 73
     5
 74
     0
 42
0.000000001
 43
0.00000001
 40
0.0
 40
0.0
 40
0.0
 40
0.0
 40
0.5002012780732967
 40
1.0
 40
1.0
 40
1.0
 40
1.0
 10
112.4208492701701
 20
228.2858670432178
 30
0.0
 10
112.4577072678006
 20
228.34939235449
 30
0.0
 10
112.5313936001754
 20
228.4763918526059
 30
0.0
 10
112.6051730519809
 20
228.6033342105979
 30
0.0
 10
112.6420479276977
 20
228.6667798388806
 30
0.0
  0
SPLINE
  5
216
330
1F
100
AcDbEntity
  8
0
  6
Continuous
 62
     7
370
    30
100
AcDbSpline
210
0.0
220
0.0
230
1.0
 70
     8
 71
     3
 72
     9
 73
     5
 74
     0
 42
0.000000001
 43
0.00000001
 40
0.0
 40
0.0
 40
0.0
 40
0.0
 40
0.5756552931355761
 40
1.0
 40
1.0
 40
1.0
 40
1.0
 10
112.7918678694233
 20
228.6661521274654
 30
0.0
 10
112.8279976447923
 20
228.6039406788107
 30
0.0
 10
112.8907605096524
 20
228.4958700167383
 30
0.0
 10
112.9534554067994
 20
228.3877574876218
 30
0.0
 10
112.9800596545511
 20
228.3418805081454
 30
0.0
  0
LINE
  5
217
330
1F
100
AcDbEntity
  8
0
  6
Continuous
 62
     7
370
    30
100
AcDbLine
 10
112.3227096987
 20
228.2769542862
 30
0.0
 11
112.4102097247
 21
228.2769542862
 31
0.0
  0
LINE
  5
218
330
1F
100
AcDbEntity
  8
0
  6
Continuous
 62
     7
370
    30
100
AcDbLine
 10
112.6292936397
 20
228.6558386613
 30
0.0
 11
112.7978553714
 21
228.6558386613
 31
0.0
  0
LINE
  5
219
330
1F
100
AcDbEntity
  8
0
  6
Continuous
 62
     7
370
    30
100
AcDbLine
 10
93.9915161007
 20
209.3058389355
 30
0.0
 11
94.0603184872
 21
209.2658889223
 31
0.0
  0
LINE
  5
21A
330
1F
100
AcDbEntity
  8
0
  6
Continuous
 62
     7
370
    30
100
AcDbLine
 10
97.7295627245
 20
209.2379306186
 30
0.0
 11
97.6124647432
 21
209.3058389355
 31
0.0
  0
SPLINE
  5
21B
330
1F
100
AcDbEntity
  8
0
  6
Continuous
 62
     7
370
    30
100
AcDbSpline
210
0.0
220
0.0
230
1.0
 70
     8
 71
     3
 72
     9
 73
     5
 74
     0
 42
0.000000001
 43
0.00000001
 40
0.0
 40
0.0
 40
0.0
 40
0.0
 40
0.4998101232683246
 40
1.0
 40
1.0
 40
1.0
 40
1.0
 10
94.07066734366259
 20
209.1082160104123
 30
0.0
 10
94.00723625754944
 20
209.0713817349204
 30
0.0
 10
93.88032589067176
 20
208.9976851974214
 30
0.0
 10
93.75336269744999
 20
208.9240762948454
 30
0.0
 10
93.68985699348292
 20
208.8872578669397
 30
0.0
  0
SPLINE
  5
21C
330
1F
100
AcDbEntity
  8
0
  6
Continuous
 62
     7
370
    30
100
AcDbSpline
210
0.0
220
0.0
230
1.0
 70
     8
 71
     3
 72
     9
 73
     5
 74
     0
 42
0.000000001
 43
0.00000001
 40
0.0
 40
0.0
 40
0.0
 40
0.0
 40
0.514532967174178
 40
1.0
 40
1.0
 40
1.0
 40
1.0
 10
93.68994081251464
 20
208.7808151472417
 30
0.0
 10
93.7534757603022
 20
208.7439768421543
 30
0.0
 10
93.87695657074761
 20
208.6723812254736
 30
0.0
 10
94.00039378773992
 20
208.6006888219074
 30
0.0
 10
94.06031848721346
 20
208.565884523472
 30
0.0
  0
LINE
  5
21D
330
1F
100
AcDbEntity
  8
0
  6
Continuous
 62
     7
370
    30
100
AcDbLine
 10
93.6814322495
 20
208.8778552342
 30
0.0
 11
93.6814322495
 21
208.7903556157
 31
0.0
  0
SPLINE
  5
21E
330
1F
100
AcDbEntity
  8
0
  6
Continuous
 62
     7
370
    30
100
AcDbSpline
210
0.0
220
0.0
230
1.0
 70
     8
 71
     3
 72
     9
 73
     5
 74
     0
 42
0.000000001
 43
0.00000001
 40
0.0
 40
0.0
 40
0.0
 40
0.0
 40
0.4997990793403478
 40
1.0
 40
1.0
 40
1.0
 40
1.0
 10
97.34975727133593
 20
208.9097511697618
 30
0.0
 10
97.41321824531977
 20
208.9466100696876
 30
0.0
 10
97.54019121627363
 20
209.0203575043058
 30
0.0
 10
97.66720853192906
 20
209.0940049190339
 30
0.0
 10
97.73074271015963
 20
209.1308434236852
 30
0.0
  0
LINE
  5
21F
330
1F
100
AcDbEntity
  8
0
  6
Continuous
 62
     7
370
    30
100
AcDbLine
 10
97.7392047071
 20
209.1403540898
 30
0.0
 11
97.7392047071
 21
209.2278537083
 31
0.0
  0
SPLINE
  5
220
330
1F
100
AcDbEntity
  8
0
  6
Continuous
 62
     7
370
    30
100
AcDbSpline
210
0.0
220
0.0
230
1.0
 70
     8
 71
     3
 72
     9
 73
     5
 74
     0
 42
0.000000001
 43
0.00000001
 40
0.0
 40
0.0
 40
0.0
 40
0.0
 40
0.2877235927107614
 40
1.0
 40
1.0
 40
1.0
 40
1.0
 10
97.6077531822785
 20
208.6086024273244
 30
0.0
 10
97.58401653530166
 20
208.6223657555871
 30
0.0
 10
97.50151844484893
 20
208.6702009995903
 30
0.0
 10
97.41905513757229
 20
208.7180949278722
 30
0.0
 10
97.36031846933207
 20
208.7522086430398
 30
0.0
  0
LINE
  5
221
330
1F
100
AcDbEntity
  8
0
  6
Continuous
 62
     7
370
    30
100
AcDbLine
 10
97.2103177928
 20
208.1734028388
 30
0.0
 11
97.6149467178
 21
208.5780326951
 31
0.0
  0
LINE
  5
222
330
1F
100
AcDbEntity
  8
0
  6
Continuous
 62
     7
370
    30
100
AcDbLine
 10
94.022216218
 20
208.3615039218
 30
0.0
 11
94.2103191637
 21
208.1734028388
 31
0.0
  0
LINE
  5
223
330
1F
100
AcDbEntity
  8
0
  6
Continuous
 62
     7
370
    30
100
AcDbLine
 10
94.0603184872
 20
209.2715178359
 30
0.0
 11
94.0603184872
 21
209.1022071172
 31
0.0
  0
LINE
  5
224
330
1F
100
AcDbEntity
  8
0
  6
Continuous
 62
     7
370
    30
100
AcDbLine
 10
94.0603184872
 20
208.5715171624
 30
0.0
 11
94.0603184872
 21
208.3965291012
 31
0.0
  0
LINE
  5
225
330
1F
100
AcDbEntity
  8
0
  6
Continuous
 62
     7
370
    30
100
AcDbLine
 10
97.3603184693
 20
208.7465163995
 30
0.0
 11
97.3603184693
 21
208.9158829976
 31
0.0
  0
LINE
  5
226
330
1F
100
AcDbEntity
  8
0
  6
Continuous
 62
     7
370
    30
100
AcDbLine
 10
84.7103185379
 20
208.3058406342
 30
0.0
 11
86.7103188657
 21
208.3058406342
 31
0.0
  0
LINE
  5
227
330
1F
100
AcDbEntity
  8
0
  6
Continuous
 62
     7
370
    30
100
AcDbLine
 10
82.7103182101
 20
208.3058406342
 30
0.0
 11
84.7103185379
 21
208.3058406342
 31
0.0
  0
SPLINE
  5
228
330
1F
100
AcDbEntity
  8
0
  6
Continuous
 62
     7
370
    30
100
AcDbSpline
210
0.0
220
0.0
230
1.0
 70
     8
 71
     3
 72
    10
 73
     6
 74
     0
 42
0.000000001
 43
0.00000001
 40
0.0
 40
0.0
 40
0.0
 40
0.0
 40
0.3477279515056048
 40
0.6890754909726904
 40
1.0
 40
1.0
 40
1.0
 40
1.0
 10
112.3120993152089
 20
229.0200211782065
 30
0.0
 10
112.3001318860175
 20
229.199384979926
 30
0.0
 10
112.2764166163361
 20
229.5548214618004
 30
0.0
 10
112.24525323293
 20
230.1803579867909
 30
0.0
 10
112.2215956832277
 20
230.5774202194119
 30
0.0
 10
112.2103186216965
 20
230.7666915211884
 30
0.0
  0
LINE
  5
229
330
1F
100
AcDbEntity
  8
0
  6
Continuous
 62
     7
370
    30
100
AcDbLine
 10
112.2245993474
 20
229.0200211782
 30
0.0
 11
112.3120993152
 21
229.0200211782
 31
0.0
  0
LINE
  5
22A
330
1F
100
AcDbEntity
  8
0
  6
Continuous
 62
     7
370
    30
100
AcDbLine
 10
112.2245993474
 20
229.0200211782
 30
0.0
 11
112.2103186217
 21
229.2452950705
 31
0.0
  0
SPLINE
  5
22B
330
1F
100
AcDbEntity
  8
0
  6
Continuous
 62
     7
370
    30
100
AcDbSpline
210
0.0
220
0.0
230
1.0
 70
     8
 71
     3
 72
    13
 73
     9
 74
     0
 42
0.000000001
 43
0.00000001
 40
0.0
 40
0.0
 40
0.0
 40
0.0
 40
0.1420661456057523
 40
0.2821556269029513
 40
0.4704574365970333
 40
0.6539221151407176
 40
0.8373870480674275
 40
1.0
 40
1.0
 40
1.0
 40
1.0
 10
112.526888086909
 20
229.3046929616538
 30
0.0
 10
112.515714757368
 20
229.4451668583171
 30
0.0
 10
112.4935235605296
 20
229.7241601413932
 30
0.0
 10
112.4594953518378
 20
230.2720665042067
 30
0.0
 10
112.4152825676335
 20
230.8759750635056
 30
0.0
 10
112.3731925526021
 20
231.4378596430489
 30
0.0
 10
112.3325166046504
 20
231.8332286603528
 30
0.0
 10
112.3038426991618
 20
231.9007562707971
 30
0.0
 10
112.2903695804826
 20
231.9324857298342
 30
0.0
  0
SPLINE
  5
22C
330
1F
100
AcDbEntity
  8
0
  6
Continuous
 62
     7
370
    30
100
AcDbSpline
210
0.0
220
0.0
230
1.0
 70
     8
 71
     3
 72
    10
 73
     6
 74
     0
 42
0.000000001
 43
0.00000001
 40
0.0
 40
0.0
 40
0.0
 40
0.0
 40
0.2778799240917535
 40
0.5557597401833857
 40
1.0
 40
1.0
 40
1.0
 40
1.0
 10
112.3120993152089
 20
229.0200211782065
 30
0.0
 10
112.3320728193075
 20
229.0463568523605
 30
0.0
 10
112.372019819742
 20
229.0990281904328
 30
0.0
 10
112.4437075680133
 20
229.1938812353181
 30
0.0
 10
112.4952065094461
 20
229.2624872825079
 30
0.0
 10
112.526888086909
 20
229.3046929616538
 30
0.0
  0
LINE
  5
22D
330
1F
100
AcDbEntity
  8
0
  6
Continuous
 62
     7
370
    30
100
AcDbLine
 10
112.2103186217
 20
229.0382853452
 30
0.0
 11
112.2245993474
 21
229.0200211782
 31
0.0
  0
LINE
  5
22E
330
1F
100
AcDbEntity
  8
0
  6
Continuous
 62
     7
370
    30
100
AcDbLine
 10
112.2591010071
 20
228.61722789
 30
0.0
 11
112.2103186217
 21
228.6816307087
 31
0.0
  0
SPLINE
  5
22F
330
1F
100
AcDbEntity
  8
0
  6
Continuous
 62
     7
370
    30
100
AcDbSpline
210
0.0
220
0.0
230
1.0
 70
     8
 71
     3
 72
     9
 73
     5
 74
     0
 42
0.000000001
 43
0.00000001
 40
0.0
 40
0.0
 40
0.0
 40
0.0
 40
0.3439064667374109
 40
1.0
 40
1.0
 40
1.0
 40
1.0
 10
112.3122536819256
 20
228.3119030971137
 30
0.0
 10
112.3063533703979
 20
228.3185939056717
 30
0.0
 10
112.2891966371046
 20
228.3380492204305
 30
0.0
 10
112.2710239739164
 20
228.5066258520868
 30
0.0
 10
112.2591010071165
 20
228.6172278899757
 30
0.0
  0
SPLINE
  5
230
330
1F
100
AcDbEntity
  8
0
  6
Continuous
 62
     7
370
    30
100
AcDbSpline
210
0.0
220
0.0
230
1.0
 70
     8
 71
     3
 72
    14
 73
    10
 74
     0
 42
0.000000001
 43
0.00000001
 40
0.0
 40
0.0
 40
0.0
 40
0.0
 40
0.1359920703258161
 40
0.2694888403296896
 40
0.4396017902030185
 40
0.6053590768736435
 40
0.7711163858016685
 40
0.9412293595253906
 40
1.0
 40
1.0
 40
1.0
 40
1.0
 10
112.9245993370251
 20
229.0200211782065
 30
0.0
 10
112.912629752288
 20
229.1997019159268
 30
0.0
 10
112.8889102111244
 20
229.5557664535268
 30
0.0
 10
112.8539152925855
 20
230.2538343548414
 30
0.0
 10
112.8090575373925
 20
231.0047515103457
 30
0.0
 10
112.7668322584137
 20
231.7054281564331
 30
0.0
 10
112.7247154838416
 20
232.178793331964
 30
0.0
 10
112.6867388048104
 20
232.3701197137955
 30
0.0
 10
112.667941114242
 20
232.3155959800427
 30
0.0
 10
112.6631144152316
 20
232.301595874509
 30
0.0
  0
SPLINE
  5
231
330
1F
100
AcDbEntity
  8
0
  6
Continuous
 62
     7
370
    30
100
AcDbSpline
210
0.0
220
0.0
230
1.0
 70
     8
 71
     3
 72
    10
 73
     6
 74
     0
 42
0.000000001
 43
0.00000001
 40
0.0
 40
0.0
 40
0.0
 40
0.0
 40
0.2754265218974706
 40
0.5508520230270755
 40
0.9999999999999999
 40
0.9999999999999999
 40
0.9999999999999999
 40
0.9999999999999999
 10
112.7018880515653
 20
229.3046929616538
 30
0.0
 10
112.7223459396017
 20
229.278562252998
 30
0.0
 10
112.7632616398549
 20
229.2263009325303
 30
0.0
 10
112.8375040891379
 20
229.1314131491384
 30
0.0
 10
112.8912705994244
 20
229.0626475425613
 30
0.0
 10
112.9245993370251
 20
229.0200211782065
 30
0.0
  0
SPLINE
  5
232
330
1F
100
AcDbEntity
  8
0
  6
Continuous
 62
     7
370
    30
100
AcDbSpline
210
0.0
220
0.0
230
1.0
 70
     8
 71
     3
 72
    14
 73
    10
 74
     0
 42
0.000000001
 43
0.00000001
 40
0.0
 40
0.0
 40
0.0
 40
0.0
 40
0.1357204399158762
 40
0.2695525071892436
 40
0.4494433906904963
 40
0.6247132044438263
 40
0.7999832612175884
 40
0.9798738666718174
 40
1.0
 40
1.0
 40
1.0
 40
1.0
 10
112.7018880515653
 20
229.3046929616538
 30
0.0
 10
112.6907152767151
 20
229.4451378428705
 30
0.0
 10
112.6685251815829
 20
229.7240734982316
 30
0.0
 10
112.6344878652
 20
230.2724562783015
 30
0.0
 10
112.5903212470175
 20
230.8739629318851
 30
0.0
 10
112.5480535617898
 20
231.4450878389362
 30
0.0
 10
112.5060679546535
 20
231.825126544513
 30
0.0
 10
112.4715625099696
 20
231.9783464818667
 30
0.0
 10
112.4558724181655
 20
231.9494921365866
 30
0.0
 10
112.4542936459012
 20
231.9465887475816
 30
0.0
  0
SPLINE
  5
233
330
1F
100
AcDbEntity
  8
0
  6
Continuous
 62
     7
370
    30
100
AcDbSpline
210
0.0
220
0.0
230
1.0
 70
     8
 71
     3
 72
    13
 73
     9
 74
     0
 42
0.000000001
 43
0.00000001
 40
0.0
 40
0.0
 40
0.0
 40
0.0
 40
0.0044997385684914
 40
0.2494633567855304
 40
0.4881547951440479
 40
0.7268462655533483
 40
0.9718099181150897
 40
1.0
 40
1.0
 40
1.0
 40
1.0
 10
112.9442140672882
 20
230.181597426912
 30
0.0
 10
112.9439405303265
 20
230.1865269353468
 30
0.0
 10
112.9287757718314
 20
230.4598165282284
 30
0.0
 10
112.8966461796926
 20
231.0054719663667
 30
0.0
 10
112.8542819106497
 20
231.7066099921325
 30
0.0
 10
112.8123308597306
 20
232.1732834211191
 30
0.0
 10
112.7777482313884
 20
232.3645549824255
 30
0.0
 10
112.7620348086485
 20
232.3262799760316
 30
0.0
 10
112.7604131479575
 20
232.3223299089877
 30
0.0
  0
SPLINE
  5
234
330
1F
100
AcDbEntity
  8
0
  6
Continuous
 62
     7
370
    30
100
AcDbSpline
210
0.0
220
0.0
230
1.0
 70
     8
 71
     3
 72
    13
 73
     9
 74
     0
 42
0.000000001
 43
0.00000001
 40
0.0
 40
0.0
 40
0.0
 40
0.0
 40
0.1429058660908199
 40
0.283823384126821
 40
0.4732382025174084
 40
0.6577872987289247
 40
0.8423366508358144
 40
0.9999999999999999
 40
0.9999999999999999
 40
0.9999999999999999
 40
0.9999999999999999
 10
113.2268880619495
 20
229.3046929616538
 30
0.0
 10
113.21571474355
 20
229.4451679320628
 30
0.0
 10
113.1935235688498
 20
229.7241633475571
 30
0.0
 10
113.159495177247
 20
230.2720520795904
 30
0.0
 10
113.1152833774351
 20
230.8760495279988
 30
0.0
 10
113.0731896223109
 20
231.4375921446651
 30
0.0
 10
113.0329782165925
 20
231.8297785012307
 30
0.0
 10
113.0047970516975
 20
231.89669434772
 30
0.0
 10
112.9918134984155
 20
231.9275236431566
 30
0.0
  0
SPLINE
  5
235
330
1F
100
AcDbEntity
  8
0
  6
Continuous
 62
     7
370
    30
100
AcDbSpline
210
0.0
220
0.0
230
1.0
 70
     8
 71
     3
 72
     9
 73
     5
 74
     0
 42
0.000000001
 43
0.00000001
 40
0.0
 40
0.0
 40
0.0
 40
0.0
 40
0.2411673268498565
 40
1.0
 40
1.0
 40
1.0
 40
1.0
 10
113.1014045013263
 20
229.1379312727657
 30
0.0
 10
113.1115209074993
 20
229.1513251589708
 30
0.0
 10
113.1534685722395
 20
229.2068628903042
 30
0.0
 10
113.1952118778028
 20
229.2624850497302
 30
0.0
 10
113.2268880619495
 20
229.3046929616538
 30
0.0
  0
SPLINE
  5
236
330
1F
100
AcDbEntity
  8
0
  6
Continuous
 62
     7
370
    30
100
AcDbSpline
210
0.0
220
0.0
230
1.0
 70
     8
 71
     3
 72
    10
 73
     6
 74
     0
 42
0.000000001
 43
0.00000001
 40
0.0
 40
0.0
 40
0.0
 40
0.0
 40
0.1434066676667582
 40
0.6552831492479219
 40
1.0
 40
1.0
 40
1.0
 40
1.0
 10
113.1014045013263
 20
229.1379312727657
 30
0.0
 10
113.0931844502732
 20
229.1783494097404
 30
0.0
 10
113.0556237076056
 20
229.3630362483261
 30
0.0
 10
113.005612624034
 20
229.7142908365773
 30
0.0
 10
112.9618324288239
 20
230.0475034531623
 30
0.0
 10
112.9442140672882
 20
230.181597426912
 30
0.0
  0
SPLINE
  5
237
330
1F
100
AcDbEntity
  8
0
  6
Continuous
 62
     7
370
    30
100
AcDbSpline
210
0.0
220
0.0
230
1.0
 70
    24
 71
     3
 72
    11
 73
     7
 74
     0
 42
0.000000001
 43
0.00000001
 40
0.0
 40
0.0
 40
0.0
 40
0.0
 40
0.1385236471170461
 40
0.6772676774087254
 40
0.9686251486421565
 40
1.0
 40
1.0
 40
1.0
 40
1.0
 10
112.9442140672882
 20
230.181597426912
 30
0.0
 10
112.9442140672882
 20
230.1234294060527
 30
0.0
 10
112.9442140672882
 20
229.8390352162757
 30
0.0
 10
112.9442140672882
 20
229.4423989968255
 30
0.0
 10
112.9442140672882
 20
229.1360748999853
 30
0.0
 10
112.9442140672882
 20
229.0303038511887
 30
0.0
 10
112.9442140672882
 20
229.0200211782065
 30
0.0
  0
LINE
  5
238
330
1F
100
AcDbEntity
  8
0
  6
Continuous
 62
     7
370
    30
100
AcDbLine
 10
112.924599337
 20
229.0200211782
 30
0.0
 11
112.9442140673
 21
229.0200211782
 31
0.0
  0
LINE
  5
239
330
1F
100
AcDbEntity
  8
0
  6
Continuous
 62
     7
370
    30
100
AcDbLine
 10
113.1014045013
 20
229.1379312728
 30
0.0
 11
112.9442140673
 21
229.0200211782
 31
0.0
  0
LINE
  5
23A
330
1F
100
AcDbEntity
  8
0
  6
Continuous
 62
     7
370
    30
100
AcDbLine
 10
113.4731001812
 20
231.8058388982
 30
0.0
 11
113.4731001812
 21
229.4179464433
 31
0.0
  0
LINE
  5
23B
330
1F
100
AcDbEntity
  8
0
  6
Continuous
 62
     7
370
    30
100
AcDbLine
 10
113.4731001812
 20
229.4179464433
 30
0.0
 11
113.3231001741
 21
229.3046929617
 31
0.0
  0
LINE
  5
23C
330
1F
100
AcDbEntity
  8
0
  6
Continuous
 62
     7
370
    30
100
AcDbLine
 10
113.3231001741
 20
230.4196686227
 30
0.0
 11
113.3231001741
 21
229.3046929617
 31
0.0
  0
SPLINE
  5
23D
330
1F
100
AcDbEntity
  8
0
  6
Continuous
 62
     7
370
    30
100
AcDbSpline
210
0.0
220
0.0
230
1.0
 70
     8
 71
     3
 72
    12
 73
     8
 74
     0
 42
0.000000001
 43
0.00000001
 40
0.0
 40
0.0
 40
0.0
 40
0.0
 40
0.1661154475270877
 40
0.394707520040229
 40
0.6233202319693231
 40
0.8495906512186657
 40
1.0
 40
1.0
 40
1.0
 40
1.0
 10
113.2162379226475
 20
232.0413498882261
 30
0.0
 10
113.2219399262278
 20
232.0341256061749
 30
0.0
 10
113.2354884777078
 20
232.0169599632742
 30
0.0
 10
113.2590326998504
 20
231.7603075320515
 30
0.0
 10
113.2809229960321
 20
231.3453802011716
 30
0.0
 10
113.3030661583428
 20
230.8669410446006
 30
0.0
 10
113.3173832978036
 20
230.547301600801
 30
0.0
 10
113.3231001740615
 20
230.4196686226932
 30
0.0
  0
SPLINE
  5
23E
330
1F
100
AcDbEntity
  8
0
  6
Continuous
 62
     7
370
    30
100
AcDbSpline
210
0.0
220
0.0
230
1.0
 70
     8
 71
     3
 72
    12
 73
     8
 74
     0
 42
0.000000001
 43
0.00000001
 40
0.0
 40
0.0
 40
0.0
 40
0.0
 40
0.2258978521880388
 40
0.4445925818807062
 40
0.7039843079800115
 40
0.970214235713906
 40
1.0
 40
1.0
 40
1.0
 40
1.0
 10
113.3231001740615
 20
230.4196686226932
 30
0.0
 10
113.3097766294776
 20
230.604124236717
 30
0.0
 10
113.2835543833208
 20
230.967153795816
 30
0.0
 10
113.2459434512119
 20
231.4644390846934
 30
0.0
 10
113.2060472718277
 20
231.8252354249084
 30
0.0
 10
113.1715630482343
 20
231.9783442186892
 30
0.0
 10
113.155872464566
 20
231.9494919297464
 30
0.0
 10
113.1542936427696
 20
231.9465887475816
 30
0.0
  0
LINE
  5
23F
330
1F
100
AcDbEntity
  8
0
  6
Continuous
 62
     7
370
    30
100
AcDbLine
 10
113.2268880619
 20
229.3046929617
 30
0.0
 11
113.3231001741
 21
229.3046929617
 31
0.0
  0
LINE
  5
240
330
1F
100
AcDbEntity
  8
0
  6
Continuous
 62
     7
370
    30
100
AcDbLine
 10
112.5268880869
 20
229.3046929617
 30
0.0
 11
112.7018880516
 21
229.3046929617
 31
0.0
  0
SPLINE
  5
241
330
1F
100
AcDbEntity
  8
0
  6
Continuous
 62
     7
370
    30
100
AcDbSpline
210
0.0
220
0.0
230
1.0
 70
     8
 71
     3
 72
     9
 73
     5
 74
     0
 42
0.000000001
 43
0.00000001
 40
0.0
 40
0.0
 40
0.0
 40
0.0
 40
0.5524875760219174
 40
1.0
 40
1.0
 40
1.0
 40
1.0
 10
113.3231001740615
 20
228.6582433361617
 30
0.0
 10
113.2993911810397
 20
228.6557380594741
 30
0.0
 10
113.2564780114939
 20
228.6512035200629
 30
0.0
 10
113.212035091085
 20
228.7562917995414
 30
0.0
 10
113.1921463320442
 20
228.8033201102224
 30
0.0
  0
LINE
  5
242
330
1F
100
AcDbEntity
  8
0
  6
Continuous
 62
     7
370
    30
100
AcDbLine
 10
113.3231001741
 20
228.9019006047
 30
0.0
 11
113.3231001741
 21
228.6582433362
 31
0.0
  0
LINE
  5
243
330
1F
100
AcDbEntity
  8
0
  6
Continuous
 62
     7
370
    30
100
AcDbLine
 10
113.3231001741
 20
228.9019006047
 30
0.0
 11
113.4731001812
 21
229.0151540864
 31
0.0
  0
LINE
  5
244
330
1F
100
AcDbEntity
  8
0
  6
Continuous
 62
     7
370
    30
100
AcDbLine
 10
113.4731001812
 20
229.0151540864
 30
0.0
 11
113.4731001812
 21
228.8058393378
 31
0.0
  0
SPLINE
  5
245
330
1F
100
AcDbEntity
  8
0
  6
Continuous
 62
     7
370
    30
100
AcDbSpline
210
0.0
220
0.0
230
1.0
 70
     8
 71
     3
 72
    10
 73
     6
 74
     0
 42
0.000000001
 43
0.00000001
 40
0.0
 40
0.0
 40
0.0
 40
0.0
 40
0.3617785430500469
 40
0.9446994934026103
 40
1.0
 40
1.0
 40
1.0
 40
1.0
 10
112.9537034148644
 20
228.6243413318006
 30
0.0
 10
112.9588243417732
 20
228.5601843391048
 30
0.0
 10
112.9721964368004
 20
228.3926534568502
 30
0.0
 10
112.9840938420341
 20
228.286208436407
 30
0.0
 10
112.9933449594905
 20
228.332744602464
 30
0.0
 10
112.9941465487764
 20
228.3367768604366
 30
0.0
  0
LINE
  5
246
330
1F
100
AcDbEntity
  8
0
  6
Continuous
 62
     7
370
    30
100
AcDbLine
 10
112.9537034149
 20
228.6243413318
 30
0.0
 11
113.192146332
 21
228.8033201102
 31
0.0
  0
SPLINE
  5
247
330
1F
100
AcDbEntity
  8
0
  6
Continuous
 62
     7
370
    30
100
AcDbSpline
210
0.0
220
0.0
230
1.0
 70
     8
 71
     3
 72
    10
 73
     6
 74
     0
 42
0.000000001
 43
0.00000001
 40
0.0
 40
0.0
 40
0.0
 40
0.0
 40
0.2754264004057016
 40
0.5508511380987618
 40
1.0
 40
1.0
 40
1.0
 40
1.0
 10
112.5693123331121
 20
228.9019006047455
 30
0.0
 10
112.5488544503195
 20
228.8757699087651
 30
0.0
 10
112.5079388082359
 20
228.8235086745519
 30
0.0
 10
112.433696019633
 20
228.7286206192163
 30
0.0
 10
112.3799297077758
 20
228.6598545919464
 30
0.0
 10
112.3466010331004
 20
228.6172278899757
 30
0.0
  0
SPLINE
  5
248
330
1F
100
AcDbEntity
  8
0
  6
Continuous
 62
     7
370
    30
100
AcDbSpline
210
0.0
220
0.0
230
1.0
 70
     8
 71
     3
 72
     9
 73
     5
 74
     0
 42
0.000000001
 43
0.00000001
 40
0.0
 40
0.0
 40
0.0
 40
0.0
 40
0.4558701348700485
 40
1.0
 40
1.0
 40
1.0
 40
1.0
 10
112.6292936396613
 20
228.6650885570851
 30
0.0
 10
112.6203826211899
 20
228.6703000365903
 30
0.0
 10
112.6008353471096
 20
228.6817319754398
 30
0.0
 10
112.5804206043413
 20
228.8243162452461
 30
0.0
 10
112.5693123331121
 20
228.9019006047455
 30
0.0
  0
LINE
  5
249
330
1F
100
AcDbEntity
  8
0
  6
Continuous
 62
     7
370
    30
100
AcDbLine
 10
112.4211336728
 20
228.3036143262
 30
0.0
 11
112.4153073188
 21
228.27899202
 31
0.0
  0
SPLINE
  5
24A
330
1F
100
AcDbEntity
  8
0
  6
Continuous
 62
     7
370
    30
100
AcDbSpline
210
0.0
220
0.0
230
1.0
 70
     8
 71
     3
 72
     9
 73
     5
 74
     0
 42
0.000000001
 43
0.00000001
 40
0.0
 40
0.0
 40
0.0
 40
0.0
 40
0.455841398327554
 40
1.0
 40
1.0
 40
1.0
 40
1.0
 10
112.4104131604373
 20
228.2893483270017
 30
0.0
 10
112.4010044864895
 20
228.2969829454019
 30
0.0
 10
112.380364250692
 20
228.3137313548888
 30
0.0
 10
112.3584991277992
 20
228.5102762789388
 30
0.0
 10
112.3466010331004
 20
228.6172278899757
 30
0.0
  0
SPLINE
  5
24B
330
1F
100
AcDbEntity
  8
0
  6
Continuous
 62
     7
370
    30
100
AcDbSpline
210
0.0
220
0.0
230
1.0
 70
     8
 71
     3
 72
    10
 73
     6
 74
     0
 42
0.000000001
 43
0.00000001
 40
0.0
 40
0.0
 40
0.0
 40
0.0
 40
0.2593498630018254
 40
0.5443604273158424
 40
1.0
 40
1.0
 40
1.0
 40
1.0
 10
112.9537034148644
 20
228.6243413318006
 30
0.0
 10
112.9355306955442
 20
228.6483068062989
 30
0.0
 10
112.8973872041995
 20
228.6986089571764
 30
0.0
 10
112.8274927817333
 20
228.791088811383
 30
0.0
 10
112.7759938543869
 20
228.8596949101154
 30
0.0
 10
112.7443122977684
 20
228.9019006047455
 30
0.0
  0
SPLINE
  5
24C
330
1F
100
AcDbEntity
  8
0
  6
Continuous
 62
     7
370
    30
100
AcDbSpline
210
0.0
220
0.0
230
1.0
 70
     8
 71
     3
 72
     9
 73
     5
 74
     0
 42
0.000000001
 43
0.00000001
 40
0.0
 40
0.0
 40
0.0
 40
0.0
 40
0.3194989850479805
 40
1.0
 40
1.0
 40
1.0
 40
1.0
 10
112.7924626644063
 20
228.6839431826082
 30
0.0
 10
112.7874588134781
 20
228.6883866729309
 30
0.0
 10
112.7717972584737
 20
228.7022943550537
 30
0.0
 10
112.7554420403211
 20
228.8210721766175
 30
0.0
 10
112.7443122977684
 20
228.9019006047455
 30
0.0
  0
LINE
  5
24D
330
1F
100
AcDbEntity
  8
0
  6
Continuous
 62
     7
370
    30
100
AcDbLine
 10
113.4731001812
 20
229.4179464433
 30
0.0
 11
113.4731001812
 21
229.0151540864
 31
0.0
  0
LINE
  5
24E
330
1F
100
AcDbEntity
  8
0
  6
Continuous
 62
     7
370
    30
100
AcDbLine
 10
113.3231001741
 20
228.9019006047
 30
0.0
 11
113.2693123082
 21
228.9019006047
 31
0.0
  0
LWPOLYLINE
  5
24F
330
1F
100
AcDbEntity
  8
0
  6
Continuous
 62
     7
370
    30
100
AcDbPolyline
 90
        3
 70
   128
 43
0.0
 10
113.2693123082
 20
228.9019006047
 10
113.2079434328
 20
228.823506527
 10
113.192146332
 20
228.8033201102
  0
LINE
  5
250
330
1F
100
AcDbEntity
  8
0
  6
Continuous
 62
     7
370
    30
100
AcDbLine
 10
112.7443122978
 20
228.9019006047
 30
0.0
 11
112.5693123331
 21
228.9019006047
 31
0.0
  0
LINE
  5
251
330
1F
100
AcDbEntity
  8
0
  6
Continuous
 62
     7
370
    30
100
AcDbLine
 10
112.3466010331
 20
228.61722789
 30
0.0
 11
112.2591010071
 21
228.61722789
 31
0.0
  0
SPLINE
  5
252
330
1F
100
AcDbEntity
  8
0
  6
Continuous
 62
     7
370
    30
100
AcDbSpline
210
0.0
220
0.0
230
1.0
 70
     8
 71
     3
 72
     9
 73
     5
 74
     0
 42
0.000000001
 43
0.00000001
 40
0.0
 40
0.0
 40
0.0
 40
0.0
 40
0.4930354912670452
 40
1.0
 40
1.0
 40
1.0
 40
1.0
 10
113.3231001740615
 20
228.6582433361617
 30
0.0
 10
113.3146451257828
 20
228.6741177047838
 30
0.0
 10
113.2974961609955
 20
228.7063149175671
 30
0.0
 10
113.2787937611185
 20
228.8361027699319
 30
0.0
 10
113.2693123081527
 20
228.9019006047455
 30
0.0
  0
SPLINE
  5
253
330
1F
100
AcDbEntity
  8
0
  6
Continuous
 62
     7
370
    30
100
AcDbSpline
210
0.0
220
0.0
230
1.0
 70
     8
 71
     3
 72
     9
 73
     5
 74
     0
 42
0.000000001
 43
0.00000001
 40
0.0
 40
0.0
 40
0.0
 40
0.0
 40
0.0549395611436325
 40
1.0
 40
1.0
 40
1.0
 40
1.0
 10
94.06554320685706
 20
209.2715178359357
 30
0.0
 10
94.06378491600528
 20
209.2721461625235
 30
0.0
 10
94.0317808225035
 20
209.2835828499433
 30
0.0
 10
94.09908490321054
 20
209.2950252118708
 30
0.0
 10
94.16269132726036
 20
209.3058389354555
 30
0.0
  0
SPLINE
  5
254
330
1F
100
AcDbEntity
  8
0
  6
Continuous
 62
     7
370
    30
100
AcDbSpline
210
0.0
220
0.0
230
1.0
 70
     8
 71
     3
 72
    12
 73
     8
 74
     0
 42
0.000000001
 43
0.00000001
 40
0.0
 40
0.0
 40
0.0
 40
0.0
 40
0.212420065134046
 40
0.4209419047616416
 40
0.6866584256296586
 40
0.9455714108003099
 40
0.9999999999999999
 40
0.9999999999999999
 40
0.9999999999999999
 40
0.9999999999999999
 10
96.04514011971794
 20
209.0719018805829
 30
0.0
 10
96.25444401615263
 20
209.0838745848769
 30
0.0
 10
96.66921076986607
 20
209.1076002764565
 30
0.0
 10
97.23710403997676
 20
209.1425633659606
 30
0.0
 10
97.63091491905065
 20
209.1875701232602
 30
0.0
 10
97.79366263629245
 20
209.2183477170821
 30
0.0
 10
97.71734492628109
 20
209.2356418240616
 30
0.0
 10
97.70408825807414
 20
209.2386458743421
 30
0.0
  0
SPLINE
  5
255
330
1F
100
AcDbEntity
  8
0
  6
Continuous
 62
     7
370
    30
100
AcDbSpline
210
0.0
220
0.0
230
1.0
 70
     8
 71
     3
 72
    10
 73
     6
 74
     0
 42
0.000000001
 43
0.00000001
 40
0.0
 40
0.0
 40
0.0
 40
0.0
 40
0.2754234088544918
 40
0.5508516199720349
 40
1.0
 40
1.0
 40
1.0
 40
1.0
 10
96.03846626214825
 20
209.2946146357862
 30
0.0
 10
96.03907906517618
 20
209.2741577926119
 30
0.0
 10
96.04030468191684
 20
209.2332437495793
 30
0.0
 10
96.04252978830061
 20
209.1589973435815
 30
0.0
 10
96.04414122631768
 20
209.1052306305664
 30
0.0
 10
96.04514011971794
 20
209.0719018805829
 30
0.0
  0
LINE
  5
256
330
1F
100
AcDbEntity
  8
0
  6
Continuous
 62
     7
370
    30
100
AcDbLine
 10
96.0384662621
 20
209.2946146358
 30
0.0
 11
96.196228581
 21
209.3058389355
 31
0.0
  0
SPLINE
  5
257
330
1F
100
AcDbEntity
  8
0
  6
Continuous
 62
     7
370
    30
100
AcDbSpline
210
0.0
220
0.0
230
1.0
 70
     8
 71
     3
 72
    10
 73
     6
 74
     0
 42
0.000000001
 43
0.00000001
 40
0.0
 40
0.0
 40
0.0
 40
0.0
 40
0.2778810458954923
 40
0.5557583907016573
 40
0.9999999999999999
 40
0.9999999999999999
 40
0.9999999999999999
 40
0.9999999999999999
 10
95.44523240856967
 20
209.0374019671289
 30
0.0
 10
95.44461456872381
 20
209.0573761333223
 30
0.0
 10
95.443378897261
 20
209.0973241996738
 30
0.0
 10
95.44115685070852
 20
209.1690081253241
 30
0.0
 10
95.43954703417471
 20
209.220508453707
 30
0.0
 10
95.43855668835484
 20
209.2521910298673
 30
0.0
  0
SPLINE
  5
258
330
1F
100
AcDbEntity
  8
0
  6
Continuous
 62
     7
370
    30
100
AcDbSpline
210
0.0
220
0.0
230
1.0
 70
     8
 71
     3
 72
    11
 73
     7
 74
     0
 42
0.000000001
 43
0.00000001
 40
0.0
 40
0.0
 40
0.0
 40
0.0
 40
0.2331082922365137
 40
0.5298729603058308
 40
0.7627593723667447
 40
1.0
 40
1.0
 40
1.0
 40
1.0
 10
93.71384041242442
 20
208.8879433203546
 30
0.0
 10
93.74336825282471
 20
208.8992106291258
 30
0.0
 10
93.8104872903082
 20
208.9248220829098
 30
0.0
 10
94.24109854384456
 20
208.966743062458
 30
0.0
 10
94.8139748828454
 20
209.0017084856631
 30
0.0
 10
95.23351799396139
 20
209.0254309026648
 30
0.0
 10
95.44523240856967
 20
209.0374019671289
 30
0.0
  0
SPLINE
  5
259
330
1F
100
AcDbEntity
  8
0
  6
Continuous
 62
     7
370
    30
100
AcDbSpline
210
0.0
220
0.0
230
1.0
 70
     8
 71
     3
 72
    11
 73
     7
 74
     0
 42
0.000000001
 43
0.00000001
 40
0.0
 40
0.0
 40
0.0
 40
0.0
 40
0.2294041766478147
 40
0.5378368595763233
 40
0.7672998913145169
 40
1.0
 40
1.0
 40
1.0
 40
1.0
 10
94.09243235223136
 20
209.1085252095071
 30
0.0
 10
94.11548649302811
 20
209.1192020437728
 30
0.0
 10
94.16953680225757
 20
209.1442338243428
 30
0.0
 10
94.51044907711217
 20
209.1848201337207
 30
0.0
 10
94.95711571998923
 20
209.2188195642609
 30
0.0
 10
95.27732875493348
 20
209.2410153867698
 30
0.0
 10
95.43855668835484
 20
209.2521910298673
 30
0.0
  0
SPLINE
  5
25A
330
1F
100
AcDbEntity
  8
0
  6
Continuous
 62
     7
370
    30
100
AcDbSpline
210
0.0
220
0.0
230
1.0
 70
     8
 71
     3
 72
    12
 73
     8
 74
     0
 42
0.000000001
 43
0.00000001
 40
0.0
 40
0.0
 40
0.0
 40
0.0
 40
0.0117451243181309
 40
0.2823455518195698
 40
0.5600568400584781
 40
0.7779910905456929
 40
1.0
 40
1.0
 40
1.0
 40
1.0
 10
93.6877633803352
 20
208.7902960110513
 30
0.0
 10
93.68567180593261
 20
208.7909147218022
 30
0.0
 10
93.63539164602363
 20
208.8057881470327
 30
0.0
 10
93.82329596173808
 20
208.8342160073771
 30
0.0
 10
94.23196063361777
 20
208.8792486955229
 30
0.0
 10
94.816070229559
 20
208.9142076629282
 30
0.0
 10
95.23422074218188
 20
208.9379308802622
 30
0.0
 10
95.44523240856967
 20
208.9499023485986
 30
0.0
  0
SPLINE
  5
25B
330
1F
100
AcDbEntity
  8
0
  6
Continuous
 62
     7
370
    30
100
AcDbSpline
210
0.0
220
0.0
230
1.0
 70
     8
 71
     3
 72
    10
 73
     6
 74
     0
 42
0.000000001
 43
0.00000001
 40
0.0
 40
0.0
 40
0.0
 40
0.0
 40
0.2754276018773978
 40
0.5508520395384114
 40
1.0
 40
1.0
 40
1.0
 40
1.0
 10
95.43855668835484
 20
208.7271895933953
 30
0.0
 10
95.43916950533335
 20
208.7476482238843
 30
0.0
 10
95.4403951322501
 20
208.7885652498258
 30
0.0
 10
95.44261995150593
 20
208.862805130768
 30
0.0
 10
95.44423269875516
 20
208.9165728272485
 30
0.0
 10
95.44523240856967
 20
208.9499023485986
 30
0.0
  0
SPLINE
  5
25C
330
1F
100
AcDbEntity
  8
0
  6
Continuous
 62
     7
370
    30
100
AcDbSpline
210
0.0
220
0.0
230
1.0
 70
     8
 71
     3
 72
    12
 73
     8
 74
     0
 42
0.000000001
 43
0.00000001
 40
0.0
 40
0.0
 40
0.0
 40
0.0
 40
0.0122173374977829
 40
0.2893505385385816
 40
0.5737895587391351
 40
0.7854022565055372
 40
0.9999999999999999
 40
0.9999999999999999
 40
0.9999999999999999
 40
0.9999999999999999
 10
94.06554320685706
 20
208.5715171624032
 30
0.0
 10
94.06381471301965
 20
208.5721458205169
 30
0.0
 10
94.02287775578067
 20
208.5870347080325
 30
0.0
 10
94.17567905033717
 20
208.6154725326002
 30
0.0
 10
94.50313954910608
 20
208.6598163829082
 30
0.0
 10
94.95874030733505
 20
208.6938240717769
 30
0.0
 10
95.27787285954601
 20
208.7160159445248
 30
0.0
 10
95.43855668835484
 20
208.7271895933953
 30
0.0
  0
LINE
  5
25D
330
1F
100
AcDbEntity
  8
0
  6
Continuous
 62
     7
370
    30
100
AcDbLine
 10
95.4452324086
 20
208.9499023486
 30
0.0
 11
95.4452324086
 21
209.0374019671
 31
0.0
  0
SPLINE
  5
25E
330
1F
100
AcDbEntity
  8
0
  6
Continuous
 62
     7
370
    30
100
AcDbSpline
210
0.0
220
0.0
230
1.0
 70
     8
 71
     3
 72
    10
 73
     6
 74
     0
 42
0.000000001
 43
0.00000001
 40
0.0
 40
0.0
 40
0.0
 40
0.0
 40
0.2754244427614882
 40
0.5508541413815979
 40
1.0
 40
1.0
 40
1.0
 40
1.0
 10
95.98208026819073
 20
209.0771917928068
 30
0.0
 10
95.98146746456136
 20
209.0976486180614
 30
0.0
 10
95.98024184560866
 20
209.1385626589435
 30
0.0
 10
95.97801675849578
 20
209.2128091115194
 30
0.0
 10
95.97640530773721
 20
209.2665735945741
 30
0.0
 10
95.97540641062103
 20
209.2999008227197
 30
0.0
  0
SPLINE
  5
25F
330
1F
100
AcDbEntity
  8
0
  6
Continuous
 62
     7
370
    30
100
AcDbSpline
210
0.0
220
0.0
230
1.0
 70
     8
 71
     3
 72
    11
 73
     7
 74
     0
 42
0.000000001
 43
0.00000001
 40
0.0
 40
0.0
 40
0.0
 40
0.0
 40
0.2394422646635772
 40
0.475552793781146
 40
0.7929212360748679
 40
1.0
 40
1.0
 40
1.0
 40
1.0
 10
96.03846626214825
 20
208.7696131993142
 30
0.0
 10
96.19820616830762
 20
208.7807898879604
 30
0.0
 10
96.51546326892503
 20
208.8029877464645
 30
0.0
 10
96.94955273121501
 20
208.836969950457
 30
0.0
 10
97.26648593137222
 20
208.8761440271423
 30
0.0
 10
97.30684882187786
 20
208.8998958785454
 30
0.0
 10
97.32278616957508
 20
208.9092743326036
 30
0.0
  0
SPLINE
  5
260
330
1F
100
AcDbEntity
  8
0
  6
Continuous
 62
     7
370
    30
100
AcDbSpline
210
0.0
220
0.0
230
1.0
 70
     8
 71
     3
 72
    10
 73
     6
 74
     0
 42
0.000000001
 43
0.00000001
 40
0.0
 40
0.0
 40
0.0
 40
0.0
 40
0.2778768561887048
 40
0.5557583577468285
 40
1.0
 40
1.0
 40
1.0
 40
1.0
 10
96.04514011971794
 20
208.9844022620526
 30
0.0
 10
96.04452305847981
 20
208.9644298806371
 30
0.0
 10
96.04328892568793
 20
208.9244847839204
 30
0.0
 10
96.04106624194482
 20
208.8527944782811
 30
0.0
 10
96.03945653492437
 20
208.8012950439776
 30
0.0
 10
96.03846626214825
 20
208.7696131993142
 30
0.0
  0
SPLINE
  5
261
330
1F
100
AcDbEntity
  8
0
  6
Continuous
 62
     7
370
    30
100
AcDbSpline
210
0.0
220
0.0
230
1.0
 70
     8
 71
     3
 72
    11
 73
     7
 74
     0
 42
0.000000001
 43
0.00000001
 40
0.0
 40
0.0
 40
0.0
 40
0.0
 40
0.2436245166618228
 40
0.4827781595187229
 40
0.7875283672012281
 40
1.0
 40
1.0
 40
1.0
 40
1.0
 10
96.04514011971794
 20
208.9844022620526
 30
0.0
 10
96.25512165120418
 20
208.996375794972
 30
0.0
 10
96.67123123940533
 20
209.0201031285955
 30
0.0
 10
97.22829266071449
 20
209.055052972705
 30
0.0
 10
97.62902612043253
 20
209.0955949976982
 30
0.0
 10
97.67891847129876
 20
209.1199724823111
 30
0.0
 10
97.69941395007214
 20
209.1299866069166
 30
0.0
  0
LINE
  5
262
330
1F
100
AcDbEntity
  8
0
  6
Continuous
 62
     7
370
    30
100
AcDbLine
 10
96.0384662621
 20
209.3058389355
 30
0.0
 11
96.0384662621
 21
209.2946146358
 31
0.0
  0
LINE
  5
263
330
1F
100
AcDbEntity
  8
0
  6
Continuous
 62
     7
370
    30
100
AcDbLine
 10
96.0451401197
 20
209.0719018806
 30
0.0
 11
96.0451401197
 21
208.9844022621
 31
0.0
  0
LINE
  5
264
330
1F
100
AcDbEntity
  8
0
  6
Continuous
 62
     7
370
    30
100
AcDbLine
 10
96.0384662621
 20
208.7696131993
 30
0.0
 11
96.0384662621
 21
208.5946139623
 31
0.0
  0
LWPOLYLINE
  5
265
330
1F
100
AcDbEntity
  8
0
  6
Continuous
 62
     7
370
    30
100
AcDbPolyline
 90
        3
 70
   128
 43
0.0
 10
96.0384662621
 20
208.5946139623
 10
96.0403046929
 20
208.5332472552
 10
96.0414781594
 20
208.4940832783
  0
LINE
  5
266
330
1F
100
AcDbEntity
  8
0
  6
Continuous
 62
     7
370
    30
100
AcDbLine
 10
96.0358119928
 20
208.1734028388
 30
0.0
 11
96.0414781594
 21
208.4940832783
 31
0.0
  0
LINE
  5
267
330
1F
100
AcDbEntity
  8
0
  6
Continuous
 62
     7
370
    30
100
AcDbLine
 10
96.0358119928
 20
208.1734028388
 30
0.0
 11
95.9847345375
 21
208.1734028388
 31
0.0
  0
LINE
  5
268
330
1F
100
AcDbEntity
  8
0
  6
Continuous
 62
     7
370
    30
100
AcDbLine
 10
95.9820802682
 20
208.3234016527
 30
0.0
 11
95.9847345375
 21
208.1734028388
 31
0.0
  0
LINE
  5
269
330
1F
100
AcDbEntity
  8
0
  6
Continuous
 62
     7
370
    30
100
AcDbLine
 10
95.9820802682
 20
208.3234016527
 30
0.0
 11
95.9820802682
 21
208.3771911193
 31
0.0
  0
LWPOLYLINE
  5
26A
330
1F
100
AcDbEntity
  8
0
  6
Continuous
 62
     7
370
    30
100
AcDbPolyline
 90
        3
 70
   128
 43
0.0
 10
95.9820802682
 20
208.3771911193
 10
95.9802418374
 20
208.4385578264
 10
95.9797687256
 20
208.4543567825
  0
LINE
  5
26B
330
1F
100
AcDbEntity
  8
0
  6
Continuous
 62
     7
370
    30
100
AcDbLine
 10
95.975572186
 20
208.6928014387
 30
0.0
 11
95.9797687256
 21
208.4543567825
 31
0.0
  0
SPLINE
  5
26C
330
1F
100
AcDbEntity
  8
0
  6
Continuous
 62
     7
370
    30
100
AcDbSpline
210
0.0
220
0.0
230
1.0
 70
     8
 71
     3
 72
    10
 73
     6
 74
     0
 42
0.000000001
 43
0.00000001
 40
0.0
 40
0.0
 40
0.0
 40
0.0
 40
0.2593470292759145
 40
0.5443593838384181
 40
0.9999999999999999
 40
0.9999999999999999
 40
0.9999999999999999
 40
0.9999999999999999
 10
95.9755721860393
 20
208.6928014386502
 30
0.0
 10
95.97613389227841
 20
208.7109729164454
 30
0.0
 10
95.97731289194952
 20
208.7491141455299
 30
0.0
 10
95.9794833947042
 20
208.8190113679945
 30
0.0
 10
95.98109117901691
 20
208.870510761197
 30
0.0
 10
95.98208026819073
 20
208.9021925557462
 30
0.0
  0
LINE
  5
26D
330
1F
100
AcDbEntity
  8
0
  6
Continuous
 62
     7
370
    30
100
AcDbLine
 10
95.9820802682
 20
208.9021925557
 30
0.0
 11
95.9820802682
 21
209.0771917928
 31
0.0
  0
LINE
  5
26E
330
1F
100
AcDbEntity
  8
0
  6
Continuous
 62
     7
370
    30
100
AcDbLine
 10
95.9754064106
 20
209.2999008227
 30
0.0
 11
95.9754064106
 21
209.3058389355
 31
0.0
  0
SPLINE
  5
26F
330
1F
100
AcDbEntity
  8
0
  6
Continuous
 62
     7
370
    30
100
AcDbSpline
210
0.0
220
0.0
230
1.0
 70
     8
 71
     3
 72
    12
 73
     8
 74
     0
 42
0.000000001
 43
0.00000001
 40
0.0
 40
0.0
 40
0.0
 40
0.0
 40
0.1025636797493575
 40
0.3526027691871141
 40
0.5972344922861855
 40
0.8419111142605928
 40
1.0
 40
1.0
 40
1.0
 40
1.0
 10
97.60132239990078
 20
208.5916560817567
 30
0.0
 10
97.60500653900499
 20
208.5886031826217
 30
0.0
 10
97.61767220830812
 20
208.5781076476363
 30
0.0
 10
97.40625097304391
 20
208.5579826892855
 30
0.0
 10
97.00376171936215
 20
208.5323725700397
 30
0.0
 10
96.51543253138063
 20
208.5131889102624
 30
0.0
 10
96.17507240313606
 20
208.4994686119751
 30
0.0
 10
96.04147815935455
 20
208.4940832782594
 30
0.0
  0
SPLINE
  5
270
330
1F
100
AcDbEntity
  8
0
  6
Continuous
 62
     7
370
    30
100
AcDbSpline
210
0.0
220
0.0
230
1.0
 70
     8
 71
     3
 72
    11
 73
     7
 74
     0
 42
0.000000001
 43
0.00000001
 40
0.0
 40
0.0
 40
0.0
 40
0.0
 40
0.219973336524359
 40
0.4368858392168046
 40
0.728449215703312
 40
1.0
 40
1.0
 40
1.0
 40
1.0
 10
96.03846626214825
 20
208.5946139622537
 30
0.0
 10
96.19806039877108
 20
208.6057879878365
 30
0.0
 10
96.51502798863544
 20
208.6279805572693
 30
0.0
 10
96.95151090436273
 20
208.6620064872574
 30
0.0
 10
97.2934493045177
 20
208.7055222719143
 30
0.0
 10
97.33503828008678
 20
208.7331793262427
 30
0.0
 10
97.35509374968848
 20
208.7465163994638
 30
0.0
  0
LINE
  5
271
330
1F
100
AcDbEntity
  8
0
  6
Continuous
 62
     7
370
    30
100
AcDbLine
 10
97.2103177928
 20
208.1734028388
 30
0.0
 11
96.0358119928
 21
208.1734028388
 31
0.0
  0
LINE
  5
272
330
1F
100
AcDbEntity
  8
0
  6
Continuous
 62
     7
370
    30
100
AcDbLine
 10
95.435902419
 20
208.1734028388
 30
0.0
 11
94.2103191637
 21
208.1734028388
 31
0.0
  0
SPLINE
  5
273
330
1F
100
AcDbEntity
  8
0
  6
Continuous
 62
     7
370
    30
100
AcDbSpline
210
0.0
220
0.0
230
1.0
 70
     8
 71
     3
 72
    12
 73
     8
 74
     0
 42
0.000000001
 43
0.00000001
 40
0.0
 40
0.0
 40
0.0
 40
0.0
 40
0.0903717183658111
 40
0.3360834846231953
 40
0.5787238394560031
 40
0.8143721918804898
 40
1.0
 40
1.0
 40
1.0
 40
1.0
 10
95.4411364518865
 20
208.4695410657731
 30
0.0
 10
95.36859427011571
 20
208.4665198116808
 30
0.0
 10
95.09881706910005
 20
208.455284066454
 30
0.0
 10
94.66649112040749
 20
208.4381575904467
 30
0.0
 10
94.2610452693021
 20
208.4133904170864
 30
0.0
 10
94.0285974818096
 20
208.389413437196
 30
0.0
 10
94.0299939627324
 20
208.3758663032383
 30
0.0
 10
94.03060929708325
 20
208.3698970008699
 30
0.0
  0
LINE
  5
274
330
1F
100
AcDbEntity
  8
0
  6
Continuous
 62
     7
370
    30
100
AcDbLine
 10
95.4411364519
 20
208.4695410658
 30
0.0
 11
95.435902419
 21
208.1734028388
 31
0.0
  0
SPLINE
  5
275
330
1F
100
AcDbEntity
  8
0
  6
Continuous
 62
     7
370
    30
100
AcDbSpline
210
0.0
220
0.0
230
1.0
 70
     8
 71
     3
 72
    12
 73
     8
 74
     0
 42
0.000000001
 43
0.00000001
 40
0.0
 40
0.0
 40
0.0
 40
0.0
 40
0.0122811714314351
 40
0.2893964623065587
 40
0.5738171001914709
 40
0.7854160177844888
 40
1.0
 40
1.0
 40
1.0
 40
1.0
 10
94.06470687918507
 20
208.3965291012136
 30
0.0
 10
94.06326343214326
 20
208.3971538661034
 30
0.0
 10
94.0292497006551
 20
208.4118759754641
 30
0.0
 10
94.17269647264158
 20
208.4405455774899
 30
0.0
 10
94.50371714360678
 20
208.4848052032955
 30
0.0
 10
94.95861214927042
 20
208.5188220598672
 30
0.0
 10
95.27782988843971
 20
208.5410157745381
 30
0.0
 10
95.43855668835484
 20
208.5521903563348
 30
0.0
  0
LINE
  5
276
330
1F
100
AcDbEntity
  8
0
  6
Continuous
 62
     7
370
    30
100
AcDbLine
 10
95.4411364519
 20
208.4695410658
 30
0.0
 11
95.4385566884
 21
208.5521903563
 31
0.0
  0
LINE
  5
277
330
1F
100
AcDbEntity
  8
0
  6
Continuous
 62
     7
370
    30
100
AcDbLine
 10
95.4385566884
 20
209.2521910299
 30
0.0
 11
95.4385566884
 21
209.3058389355
 31
0.0
  0
LINE
  5
278
330
1F
100
AcDbEntity
  8
0
  6
Continuous
 62
     7
370
    30
100
AcDbLine
 10
95.4385566884
 20
208.5521903563
 30
0.0
 11
95.4385566884
 21
208.7271895934
 31
0.0
  0
LINE
  5
279
330
1F
100
AcDbEntity
  8
0
  6
Continuous
 62
     7
370
    30
100
AcDbLine
 10
127.2103189849
 20
197.8058379818
 30
0.0
 11
127.2103189849
 21
252.8058395464
 31
0.0
  0
ARC
  5
27A
330
1F
100
AcDbEntity
  8
0
  6
Continuous
 62
     7
370
    30
100
AcDbCircle
 10
122.2103186182
 20
197.8058390845
 30
0.0
 40
5.000000000000028
100
AcDbArc
 50
270.0
 51
0.0
  0
LINE
  5
27B
330
1F
100
AcDbEntity
  8
0
  6
Continuous
 62
     7
370
    30
100
AcDbLine
 10
67.210320326
 20
192.8058390249
 30
0.0
 11
122.2103181653
 21
192.8058390249
 31
0.0
  0
ARC
  5
27C
330
1F
100
AcDbEntity
  8
0
  6
Continuous
 62
     7
370
    30
100
AcDbCircle
 10
67.2103186182
 20
197.8058390845
 30
0.0
 40
5.000000000000007
100
AcDbArc
 50
180.0
 51
270.0
  0
LINE
  5
27D
330
1F
100
AcDbEntity
  8
0
  6
Continuous
 62
     7
370
    30
100
AcDbLine
 10
62.2103176438
 20
252.8058395464
 30
0.0
 11
62.2103176438
 21
197.8058379818
 31
0.0
  0
LINE
  5
27E
330
1F
100
AcDbEntity
  8
0
  6
Continuous
 62
     7
370
    30
100
AcDbLine
 10
122.2103181653
 20
257.8058394346
 30
0.0
 11
67.210320326
 21
257.8058394346
 31
0.0
  0
CIRCLE
  5
27F
330
1F
100
AcDbEntity
  8
0
  6
Continuous
 62
     7
370
    30
100
AcDbCircle
 10
69.7103186182
 20
200.3058390845
 30
0.0
 40
5.500000000000028
  0
CIRCLE
  5
280
330
1F
100
AcDbEntity
  8
0
  6
Continuous
 62
     7
370
    30
100
AcDbCircle
 10
119.7103186182
 20
250.3058390845
 30
0.0
 40
5.499999999999972
  0
CIRCLE
  5
281
330
1F
100
AcDbEntity
  8
0
  6
Continuous
 62
     7
370
    30
100
AcDbCircle
 10
119.7103186182
 20
200.3058390845
 30
0.0
 40
5.500000000000028
  0
CIRCLE
  5
282
330
1F
100
AcDbEntity
  8
0
  6
Continuous
 62
     7
370
    30
100
AcDbCircle
 10
69.7103186182
 20
250.3058390845
 30
0.0
 40
5.499999999999972
  0
ARC
  5
283
330
1F
100
AcDbEntity
  8
0
  6
Continuous
 62
     7
370
    30
100
AcDbCircle
 10
67.2103186182
 20
252.8058390845
 30
0.0
 40
5.000000000000007
100
AcDbArc
 50
90.0
 51
180.0
  0
ARC
  5
284
330
1F
100
AcDbEntity
  8
0
  6
Continuous
 62
     7
370
    30
100
AcDbCircle
 10
122.2103186182
 20
252.8058390845
 30
0.0
 40
5.000000000000014
100
AcDbArc
 50
0.0
 51
90.0
  0
CIRCLE
  5
285
330
1F
100
AcDbEntity
  8
0
  6
Continuous
 62
     7
370
    30
100
AcDbCircle
 10
69.7103186182
 20
250.3058390845
 30
0.0
 40
3.300000000000011
  0
CIRCLE
  5
286
330
1F
100
AcDbEntity
  8
0
  6
Continuous
 62
     7
370
    30
100
AcDbCircle
 10
119.7103186182
 20
250.3058390845
 30
0.0
 40
3.299999999999983
  0
CIRCLE
  5
287
330
1F
100
AcDbEntity
  8
0
  6
Continuous
 62
     7
370
    30
100
AcDbCircle
 10
119.7103186182
 20
200.3058390845
 30
0.0
 40
3.300000000000011
  0
CIRCLE
  5
288
330
1F
100
AcDbEntity
  8
0
  6
Continuous
 62
     7
370
    30
100
AcDbCircle
 10
69.7103186182
 20
200.3058390845
 30
0.0
 40
3.300000000000011
  0
LINE
  5
289
330
1F
100
AcDbEntity
  8
0
  6
Continuous
 62
     7
370
    30
100
AcDbLine
 10
104.7103190222
 20
223.5058390278
 30
0.0
 11
104.7103190222
 21
243.5058391047
 31
0.0
  0
LINE
  5
28A
330
1F
100
AcDbEntity
  8
0
  6
Continuous
 62
     7
370
    30
100
AcDbLine
 10
79.710319581
 20
223.5058390278
 30
0.0
 11
79.710319581
 21
243.5058391047
 31
0.0
  0
LINE
  5
28B
330
1F
100
AcDbEntity
  8
0
  6
Continuous
 62
     7
370
    30
100
AcDbLine
 10
104.7103190222
 20
243.5058391047
 30
0.0
 11
79.710319581
 21
243.5058391047
 31
0.0
  0
LINE
  5
28C
330
1F
100
AcDbEntity
  8
0
  6
Continuous
 62
     7
370
    30
100
AcDbLine
 10
113.210318611
 20
217.505839907
 30
0.0
 11
76.2103199386
 21
217.505839907
 31
0.0
  0
LINE
  5
28D
330
1F
100
AcDbEntity
  8
0
  6
Continuous
 62
     7
370
    30
100
AcDbLine
 10
76.2103199386
 20
217.505839907
 30
0.0
 11
76.2103199386
 21
223.5058390278
 31
0.0
  0
LINE
  5
28E
330
1F
100
AcDbEntity
  8
0
  6
Continuous
 62
     7
370
    30
100
AcDbLine
 10
113.210318611
 20
223.5058390278
 30
0.0
 11
76.2103199386
 21
223.5058390278
 31
0.0
  0
LINE
  5
28F
330
1F
100
AcDbEntity
  8
0
  6
Continuous
 62
     7
370
    30
100
AcDbLine
 10
113.210318611
 20
217.505839907
 30
0.0
 11
113.210318611
 21
223.5058390278
 31
0.0
  0
LINE
  5
290
330
1F
100
AcDbEntity
  8
0
  6
Continuous
 62
     7
370
    30
100
AcDbLine
 10
77.2103182399
 20
244.3058390845
 30
0.0
 11
77.2103182399
 21
223.5058390278
 31
0.0
  0
LINE
  5
291
330
1F
100
AcDbEntity
  8
0
  6
Continuous
 62
     7
370
    30
100
AcDbLine
 10
77.2103182399
 20
244.3058390845
 30
0.0
 11
102.2103186124
 21
244.3058390845
 31
0.0
  0
LINE
  5
292
330
1F
100
AcDbEntity
  8
0
  6
Continuous
 62
     7
370
    30
100
AcDbLine
 10
102.2103186124
 20
244.3058390845
 30
0.0
 11
102.2103186124
 21
243.5058391047
 31
0.0
  0
LINE
  5
293
330
1F
100
AcDbEntity
  8
0
  6
Continuous
 62
     7
370
    30
100
AcDbLine
 10
77.2103182399
 20
209.3058389355
 30
0.0
 11
102.2103186124
 21
209.3058389355
 31
0.0
  0
LINE
  5
294
330
1F
100
AcDbEntity
  8
0
  6
Continuous
 62
     7
370
    30
100
AcDbLine
 10
77.2103182399
 20
217.3058383841
 30
0.0
 11
102.2103186124
 21
217.3058383841
 31
0.0
  0
LINE
  5
295
330
1F
100
AcDbEntity
  8
0
  6
Continuous
 62
     7
370
    30
100
AcDbLine
 10
102.2103186124
 20
217.3058383841
 30
0.0
 11
102.2103186124
 21
209.3058389355
 31
0.0
  0
LINE
  5
296
330
1F
100
AcDbEntity
  8
0
  6
Continuous
 62
     7
370
    30
100
AcDbLine
 10
77.2103182399
 20
217.3058383841
 30
0.0
 11
77.2103182399
 21
209.3058389355
 31
0.0
  0
LINE
  5
297
330
1F
100
AcDbEntity
  8
0
  6
Continuous
 62
     7
370
    30
100
AcDbLine
 10
102.2103186124
 20
217.3058383841
 30
0.0
 11
102.2103186124
 21
217.505839907
 31
0.0
  0
LINE
  5
298
330
1F
100
AcDbEntity
  8
0
  6
Continuous
 62
     7
370
    30
100
AcDbLine
 10
77.2103182399
 20
217.3058383841
 30
0.0
 11
77.2103182399
 21
217.505839907
 31
0.0
  0
LINE
  5
299
330
1F
100
AcDbEntity
  8
0
  6
Continuous
 62
     7
370
    30
100
AcDbLine
 10
112.2103186217
 20
244.3058390845
 30
0.0
 11
102.2103186124
 21
244.3058390845
 31
0.0
  0
LINE
  5
29A
330
1F
100
AcDbEntity
  8
0
  6
Continuous
 62
     7
370
    30
100
AcDbLine
 10
112.2103186217
 20
244.3058390845
 30
0.0
 11
112.2103186217
 21
223.5058390278
 31
0.0
  0
LINE
  5
29B
330
1F
100
AcDbEntity
  8
0
  6
Continuous
 62
     7
370
    30
100
AcDbLine
 10
112.2103186217
 20
209.3058389355
 30
0.0
 11
102.2103186124
 21
209.3058389355
 31
0.0
  0
LINE
  5
29C
330
1F
100
AcDbEntity
  8
0
  6
Continuous
 62
     7
370
    30
100
AcDbLine
 10
102.2103186124
 20
217.3058383841
 30
0.0
 11
112.2103186217
 21
217.3058383841
 31
0.0
  0
LINE
  5
29D
330
1F
100
AcDbEntity
  8
0
  6
Continuous
 62
     7
370
    30
100
AcDbLine
 10
112.2103186217
 20
217.3058383841
 30
0.0
 11
112.2103186217
 21
209.3058389355
 31
0.0
  0
LINE
  5
29E
330
1F
100
AcDbEntity
  8
0
  6
Continuous
 62
     7
370
    30
100
AcDbLine
 10
112.2103186217
 20
217.3058383841
 30
0.0
 11
112.2103186217
 21
217.505839907
 31
0.0
  0
DIMENSION
  5
29F
330
1F
100
AcDbEntity
  8
DIM
100
AcDbDimension
  2
_D_1
 10
51.7103186182
 20
257.8058390845
 30
0.0
 11
51.7103186182
 21
225.3058390845
 31
0.0
 70
   160
  1
<>
 71
     2
 42
-1.0
  3
SLDDIMSTYLE0
100
AcDbAlignedDimension
 13
67.2103186182
 23
192.8058390845
 33
0.0
 14
67.2103186182
 24
257.8058390845
 34
0.0
 50
90.0
100
AcDbRotatedDimension
  0
DIMENSION
  5
2A9
330
1F
100
AcDbEntity
  8
DIM
100
AcDbDimension
  2
_D_2
 10
127.2103186182
 20
182.3058390845
 30
0.0
 11
94.7103186182
 21
182.3058390845
 31
0.0
 70
   160
  1
<>
 71
     2
 42
-1.0
  3
SLDDIMSTYLE0
100
AcDbAlignedDimension
 13
62.2103186182
 23
197.8058390845
 33
0.0
 14
127.2103186182
 24
197.8058390845
 34
0.0
100
AcDbRotatedDimension
  0
DIMENSION
  5
2B3
330
1F
100
AcDbEntity
  8
DIM
100
AcDbDimension
  2
_D_3
 10
119.7103186182
 20
268.3058390845
 30
0.0
 11
94.7103186182
 21
268.3058390845
 31
0.0
 70
   160
  1
<>
 71
     2
 42
-1.0
  3
SLDDIMSTYLE0
100
AcDbAlignedDimension
 13
69.7103186182
 23
256.8058390845
 33
0.0
 14
119.7103186182
 24
256.8058390845
 34
0.0
100
AcDbRotatedDimension
  0
DIMENSION
  5
2BD
330
1F
100
AcDbEntity
  8
DIM
100
AcDbDimension
  2
_D_4
 10
137.7103186182
 20
200.3058390845
 30
0.0
 11
137.7103186182
 21
225.3058390845
 31
0.0
 70
   160
  1
<>
 71
     2
 42
-1.0
  3
SLDDIMSTYLE0
100
AcDbAlignedDimension
 13
126.2103186182
 23
250.3058390845
 33
0.0
 14
126.2103186182
 24
200.3058390845
 34
0.0
 50
90.0
100
AcDbRotatedDimension
  0
INSERT
  5
2CF
330
1F
100
AcDbEntity
  8
DIM
100
AcDbBlockReference
  2
SW_RADIAL_DIMENSION_0
 10
143.4250831294
 20
187.0683388523
 30
0.0
  0
INSERT
  5
2DB
330
1F
100
AcDbEntity
  8
DIM
100
AcDbBlockReference
  2
SW_CENTERMARKSYMBOL_0
 10
69.7103186182
 20
250.3058390845
 30
0.0
  0
INSERT
  5
2E7
330
1F
100
AcDbEntity
  8
DIM
100
AcDbBlockReference
  2
SW_CENTERMARKSYMBOL_1
 10
119.7103186182
 20
250.3058390845
 30
0.0
  0
INSERT
  5
2F3
330
1F
100
AcDbEntity
  8
DIM
100
AcDbBlockReference
  2
SW_CENTERMARKSYMBOL_2
 10
69.7103186182
 20
200.3058390845
 30
0.0
  0
INSERT
  5
2FF
330
1F
100
AcDbEntity
  8
DIM
100
AcDbBlockReference
  2
SW_CENTERMARKSYMBOL_3
 10
119.7103186182
 20
200.3058390845
 30
0.0
  0
LINE
  5
300
330
1F
100
AcDbEntity
  8
0
  6
Continuous
 62
     7
370
    30
100
AcDbLine
 10
328.1923287522
 20
198.0388046457
 30
0.0
 11
328.8994355334
 21
198.4470087016
 31
0.0
  0
LINE
  5
301
330
1F
100
AcDbEntity
  8
0
  6
Continuous
 62
     7
370
    30
100
AcDbLine
 10
326.8995980682
 20
201.9112041511
 30
0.0
 11
326.192491287
 21
201.5030000952
 31
0.0
  0
SPLINE
  5
302
330
1F
100
AcDbEntity
  8
0
  6
Continuous
 62
     7
370
    30
100
AcDbSpline
210
0.0
220
0.0
230
1.0
 70
     8
 71
     3
 72
    18
 73
    14
 74
     0
 42
0.000000001
 43
0.00000001
 40
0.0
 40
0.0
 40
0.0
 40
0.0
 40
0.0973367369809018
 40
0.173191854738849
 40
0.2719208089617166
 40
0.36881154648916
 40
0.4767995461937758
 40
0.5866414072953695
 40
0.6973158490641097
 40
0.7590256945340934
 40
0.8298529421056989
 40
0.91021559721226
 40
1.0
 40
1.0
 40
1.0
 40
1.0
 10
367.2539798610426
 20
194.2860542072052
 30
0.0
 10
367.4405567807445
 20
194.210372074367
 30
0.0
 10
367.7725342414333
 20
194.0757103899567
 30
0.0
 10
368.3799650010664
 20
194.1515583312204
 30
0.0
 10
368.9646244731759
 20
194.4123195128016
 30
0.0
 10
369.5722648193147
 20
194.9065850190293
 30
0.0
 10
370.1168297990483
 20
195.5920239126771
 30
0.0
 10
370.5297703694436
 20
196.4220620560126
 30
0.0
 10
370.7096672153319
 20
197.1564757434352
 30
0.0
 10
370.7283736155558
 20
197.7579393930155
 30
0.0
 10
370.6439850384334
 20
198.2464348073066
 30
0.0
 10
370.4246571484615
 20
198.7285179095358
 30
0.0
 10
370.1491411590019
 20
198.938512403443
 30
0.0
 10
370.0037549332379
 20
199.0493237830667
 30
0.0
  0
LINE
  5
303
330
1F
100
AcDbEntity
  8
0
  6
Continuous
 62
     7
370
    30
100
AcDbLine
 10
367.0242794652
 20
194.4186574232
 30
0.0
 11
367.2539791398
 21
194.2860546236
 31
0.0
  0
LINE
  5
304
330
1F
100
AcDbEntity
  8
0
  6
Continuous
 62
     7
370
    30
100
AcDbLine
 10
370.0037556545
 20
199.0493233667
 30
0.0
 11
369.7740559799
 21
199.1819261663
 31
0.0
  0
SPLINE
  5
305
330
1F
100
AcDbEntity
  8
0
  6
Continuous
 62
     7
370
    30
100
AcDbSpline
210
0.0
220
0.0
230
1.0
 70
     8
 71
     3
 72
    18
 73
    14
 74
     0
 42
0.000000001
 43
0.00000001
 40
0.0
 40
0.0
 40
0.0
 40
0.0
 40
0.0973367369809015
 40
0.1731918547388488
 40
0.2719208089617167
 40
0.3688115464891599
 40
0.476799546193776
 40
0.5866414072953697
 40
0.6973158490641099
 40
0.7590256945340937
 40
0.8298529421056995
 40
0.9102155972122603
 40
1.0
 40
1.0
 40
1.0
 40
1.0
 10
348.1620967690058
 20
193.8795752521134
 30
0.0
 10
348.3486736887077
 20
193.8038931192752
 30
0.0
 10
348.6806511493964
 20
193.6692314348649
 30
0.0
 10
349.2880819090296
 20
193.7450793761286
 30
0.0
 10
349.8727413811391
 20
194.0058405577098
 30
0.0
 10
350.4803817272779
 20
194.5001060639374
 30
0.0
 10
351.0249467070115
 20
195.1855449575854
 30
0.0
 10
351.4378872774067
 20
196.0155831009208
 30
0.0
 10
351.6177841232951
 20
196.7499967883434
 30
0.0
 10
351.6364905235189
 20
197.3514604379237
 30
0.0
 10
351.5521019463966
 20
197.8399558522148
 30
0.0
 10
351.3327740564247
 20
198.322038954444
 30
0.0
 10
351.0572580669651
 20
198.5320334483512
 30
0.0
 10
350.9118718412012
 20
198.6428448279749
 30
0.0
  0
LINE
  5
306
330
1F
100
AcDbEntity
  8
0
  6
Continuous
 62
     7
370
    30
100
AcDbLine
 10
347.9323963731
 20
194.0121784681
 30
0.0
 11
348.1620960477
 21
193.8795756685
 31
0.0
  0
LINE
  5
307
330
1F
100
AcDbEntity
  8
0
  6
Continuous
 62
     7
370
    30
100
AcDbLine
 10
350.9118725625
 20
198.6428444116
 30
0.0
 11
350.6821728879
 21
198.7754472112
 31
0.0
  0
SPLINE
  5
308
330
1F
100
AcDbEntity
  8
0
  6
Continuous
 62
     7
370
    30
100
AcDbSpline
210
0.0
220
0.0
230
1.0
 70
     8
 71
     3
 72
    18
 73
    14
 74
     0
 42
0.000000001
 43
0.00000001
 40
0.0
 40
0.0
 40
0.0
 40
0.0
 40
0.0973376828697077
 40
0.173199274936486
 40
0.2719532888755056
 40
0.3688593130381324
 40
0.4768494671363188
 40
0.586691557585594
 40
0.6973668420628683
 40
0.7590733506954611
 40
0.8298912004997459
 40
0.910238004674393
 40
1.0
 40
1.0
 40
1.0
 40
1.0
 10
334.7270679264614
 20
248.5315510132738
 30
0.0
 10
334.5682236054183
 20
248.4078249667553
 30
0.0
 10
334.2855815656516
 20
248.1876711587339
 30
0.0
 10
334.04748145759
 20
247.6236494202238
 30
0.0
 10
333.9809431973413
 20
246.986819383673
 30
0.0
 10
334.1051916824705
 20
246.2133100383744
 30
0.0
 10
334.4265434234636
 20
245.3989225714487
 30
0.0
 10
334.93890882194
 20
244.6262860411566
 30
0.0
 10
335.4849671536567
 20
244.1033149031818
 30
0.0
 10
335.9964572540293
 20
243.7864341861911
 30
0.0
 10
336.461622421406
 20
243.6153212726611
 30
0.0
 10
336.9886612390928
 20
243.5642494198605
 30
0.0
 10
337.3082200918411
 20
243.6978067193201
 30
0.0
 10
337.4768429986568
 20
243.7682814374124
 30
0.0
  0
LINE
  5
309
330
1F
100
AcDbEntity
  8
0
  6
Continuous
 62
     7
370
    30
100
AcDbLine
 10
334.9567668798
 20
248.6641533965
 30
0.0
 11
334.7270672052
 21
248.5315505969
 31
0.0
  0
LINE
  5
30A
330
1F
100
AcDbEntity
  8
0
  6
Continuous
 62
     7
370
    30
100
AcDbLine
 10
337.4768437199
 20
243.7682818538
 30
0.0
 11
337.7065433945
 21
243.9008846534
 31
0.0
  0
SPLINE
  5
30B
330
1F
100
AcDbEntity
  8
0
  6
Continuous
 62
     7
370
    30
100
AcDbSpline
210
0.0
220
0.0
230
1.0
 70
     8
 71
     3
 72
    18
 73
    14
 74
     0
 42
0.000000001
 43
0.00000001
 40
0.0
 40
0.0
 40
0.0
 40
0.0
 40
0.0973376828697077
 40
0.173199274936486
 40
0.2719532888755056
 40
0.3688593130381324
 40
0.4768494671363185
 40
0.5866915575855941
 40
0.6973668420628684
 40
0.7590733506954612
 40
0.829891200499746
 40
0.9102380046743933
 40
1.0
 40
1.0
 40
1.0
 40
1.0
 10
341.7981357383269
 20
244.4495104541603
 30
0.0
 10
341.6392914172837
 20
244.3257844076418
 30
0.0
 10
341.356649377517
 20
244.1056305996203
 30
0.0
 10
341.1185492694554
 20
243.5416088611103
 30
0.0
 10
341.0520110092068
 20
242.9047788245595
 30
0.0
 10
341.176259494336
 20
242.1312694792608
 30
0.0
 10
341.4976112353291
 20
241.3168820123351
 30
0.0
 10
342.0099766338054
 20
240.5442454820431
 30
0.0
 10
342.5560349655221
 20
240.0212743440682
 30
0.0
 10
343.0675250658947
 20
239.7043936270775
 30
0.0
 10
343.5326902332715
 20
239.5332807135476
 30
0.0
 10
344.0597290509583
 20
239.4822088607469
 30
0.0
 10
344.3792879037066
 20
239.6157661602066
 30
0.0
 10
344.5479108105222
 20
239.6862408782988
 30
0.0
  0
LINE
  5
30C
330
1F
100
AcDbEntity
  8
0
  6
Continuous
 62
     7
370
    30
100
AcDbLine
 10
342.0278346916
 20
244.5821128374
 30
0.0
 11
341.798135017
 21
244.4495100378
 31
0.0
  0
LINE
  5
30D
330
1F
100
AcDbEntity
  8
0
  6
Continuous
 62
     7
370
    30
100
AcDbLine
 10
344.5479115318
 20
239.6862412947
 30
0.0
 11
344.7776112064
 21
239.8188440943
 31
0.0
  0
LINE
  5
30E
330
1F
100
AcDbEntity
  8
0
  6
Continuous
 62
     7
370
    30
100
AcDbLine
 10
336.6373542446
 20
186.9595740932
 30
0.0
 11
336.6918651165
 21
186.9910425497
 31
0.0
  0
LINE
  5
30F
330
1F
100
AcDbEntity
  8
0
  6
Continuous
 62
     7
370
    30
100
AcDbLine
 10
333.8162779082
 20
189.0518737029
 30
0.0
 11
333.8162779082
 21
188.8983059457
 31
0.0
  0
LINE
  5
310
330
1F
100
AcDbEntity
  8
0
  6
Continuous
 62
     7
370
    30
100
AcDbLine
 10
334.4233912691
 20
190.3668652497
 30
0.0
 11
334.3615194258
 21
190.3311473948
 31
0.0
  0
LINE
  5
311
330
1F
100
AcDbEntity
  8
0
  6
Continuous
 62
     7
370
    30
100
AcDbLine
 10
362.8358121504
 20
188.699776948
 30
0.0
 11
363.087289484
 21
188.8449989202
 31
0.0
  0
LINE
  5
312
330
1F
100
AcDbEntity
  8
0
  6
Continuous
 62
     7
370
    30
100
AcDbLine
 10
363.6596874009
 20
192.0818645941
 30
0.0
 11
363.5978155575
 21
192.117582449
 31
0.0
  0
LINE
  5
313
330
1F
100
AcDbEntity
  8
0
  6
Continuous
 62
     7
370
    30
100
AcDbLine
 10
364.1477772687
 20
190.6820166888
 30
0.0
 11
364.1477772687
 21
190.8830053655
 31
0.0
  0
LINE
  5
314
330
1F
100
AcDbEntity
  8
0
  6
Continuous
 62
     7
370
    30
100
AcDbLine
 10
363.626766953
 20
191.663381655
 30
0.0
 11
363.6254119015
 21
191.6641639095
 31
0.0
  0
LINE
  5
315
330
1F
100
AcDbEntity
  8
0
  6
Continuous
 62
     7
370
    30
100
AcDbLine
 10
361.3231054714
 20
188.7453610503
 30
0.0
 11
361.3849773148
 21
188.7096431954
 31
0.0
  0
LINE
  5
316
330
1F
100
AcDbEntity
  8
0
  6
Continuous
 62
     7
370
    30
100
AcDbLine
 10
390.1751660769
 20
182.6230808707
 30
0.0
 11
390.1751660769
 21
190.7884889895
 31
0.0
  0
LINE
  5
317
330
1F
100
AcDbEntity
  8
0
  6
Continuous
 62
     7
370
    30
100
AcDbLine
 10
302.3934201464
 20
190.7884889895
 30
0.0
 11
302.3934201464
 21
182.6230808707
 31
0.0
  0
LWPOLYLINE
  5
318
330
1F
100
AcDbEntity
  8
0
  6
Continuous
 62
     7
370
    30
100
AcDbPolyline
 90
       23
 70
   128
 43
0.0
 10
327.1924100196
 20
201.4039839942
 10
327.5908400225
 20
201.107823969
 10
327.956991596
 20
200.7033545069
 10
328.2612013174
 20
200.2233433182
 10
328.4788239242
 20
199.7066780547
 10
328.592228927
 20
199.1952158632
 10
328.592228927
 20
198.7303923689
 10
328.4788239242
 20
198.3498648067
 10
328.2612013174
 20
198.0844612567
 10
327.956991596
 20
197.9556831361
 10
327.5908400225
 20
197.9739632824
 10
327.1924100196
 20
198.1378207467
 10
326.7939800168
 20
198.4339807719
 10
326.4278284432
 20
198.838450234
 10
326.1236187218
 20
199.3184614227
 10
325.905996115
 20
199.8351266863
 10
325.7925911122
 20
200.3465888777
 10
325.7925911122
 20
200.8114123721
 10
325.905996115
 20
201.1919399342
 10
326.1236187218
 20
201.4573434842
 10
326.4278284432
 20
201.5861216048
 10
326.7939800168
 20
201.5678414586
 10
327.1924100196
 20
201.4039839942
  0
LINE
  5
319
330
1F
100
AcDbEntity
  8
0
  6
Continuous
 62
     7
370
    30
100
AcDbLine
 10
326.7486096588
 20
200.818522516
 30
0.0
 11
326.3769772539
 21
200.1935271093
 31
0.0
  0
LINE
  5
31A
330
1F
100
AcDbEntity
  8
0
  6
Continuous
 62
     7
370
    30
100
AcDbLine
 10
326.3769772539
 20
200.1935271093
 30
0.0
 11
326.8207776147
 21
199.1459069638
 31
0.0
  0
LINE
  5
31B
330
1F
100
AcDbEntity
  8
0
  6
Continuous
 62
     7
370
    30
100
AcDbLine
 10
326.8207776147
 20
199.1459069638
 30
0.0
 11
327.6362103804
 21
198.723282225
 31
0.0
  0
LINE
  5
31C
330
1F
100
AcDbEntity
  8
0
  6
Continuous
 62
     7
370
    30
100
AcDbLine
 10
327.6362103804
 20
198.723282225
 30
0.0
 11
328.0078427853
 21
199.3482776316
 31
0.0
  0
LINE
  5
31D
330
1F
100
AcDbEntity
  8
0
  6
Continuous
 62
     7
370
    30
100
AcDbLine
 10
328.0078427853
 20
199.3482776316
 30
0.0
 11
327.5640424246
 21
200.3958977771
 31
0.0
  0
LINE
  5
31E
330
1F
100
AcDbEntity
  8
0
  6
Continuous
 62
     7
370
    30
100
AcDbLine
 10
327.5640424246
 20
200.3958977771
 30
0.0
 11
326.7486096588
 21
200.818522516
 31
0.0
  0
LINE
  5
31F
330
1F
100
AcDbEntity
  8
0
  6
Continuous
 62
     7
370
    30
100
AcDbLine
 10
327.123260673
 20
200.6243473569
 30
0.0
 11
326.3769772539
 21
200.1935271093
 31
0.0
  0
LINE
  5
320
330
1F
100
AcDbEntity
  8
0
  6
Continuous
 62
     7
370
    30
100
AcDbLine
 10
327.8434685592
 20
199.7362938793
 30
0.0
 11
326.8207776147
 21
199.1459069638
 31
0.0
  0
SPLINE
  5
321
330
1F
100
AcDbEntity
  8
0
  6
Continuous
 62
     7
370
    30
100
AcDbSpline
210
0.0
220
0.0
230
1.0
 70
    11
 71
     3
 72
    31
 73
    27
 74
     0
 42
0.000000001
 43
0.00000001
 40
0.0
 40
0.0
 40
0.0
 40
0.0
 40
0.0598607364726977
 40
0.0924113420178385
 40
0.1249999828727494
 40
0.1575506055353726
 40
0.1901392635273031
 40
0.2500000000000008
 40
0.3098607364726985
 40
0.3424113420178491
 40
0.3749999828727508
 40
0.4075506055353868
 40
0.4401392635273039
 40
0.5000000000000017
 40
0.5598607364726994
 40
0.5924113420178698
 40
0.6249999828727514
 40
0.6575506055353653
 40
0.690139263527303
 40
0.7500000000000008
 40
0.8098607364726986
 40
0.8424113420178738
 40
0.8749999828727508
 40
0.9075506055353705
 40
0.9401392635273023
 40
1.0
 40
1.0
 40
1.0
 40
1.0
 10
368.9824207877335
 20
198.3008037939232
 30
0.0
 10
369.1824789146511
 20
198.3916195451088
 30
0.0
 10
369.4913230933134
 20
198.531818378901
 30
0.0
 10
369.8622105280624
 20
198.5172014256895
 30
0.0
 10
370.1149781505216
 20
198.4257610508932
 30
0.0
 10
370.3219544718406
 20
198.2528761766607
 30
0.0
 10
370.5137729608142
 20
197.935468612984
 30
0.0
 10
370.612026508227
 20
197.4043239642416
 30
0.0
 10
370.5137976252715
 20
196.7599723541254
 30
0.0
 10
370.3220246023285
 20
196.2209746817212
 30
0.0
 10
370.1151563172675
 20
195.8096659326768
 30
0.0
 10
369.8623219531228
 20
195.4246990136992
 30
0.0
 10
369.4914484506514
 20
194.9890934292417
 30
0.0
 10
368.9824214028944
 20
194.5817787744271
 30
0.0
 10
368.4735183984026
 20
194.4014264373817
 30
0.0
 10
368.1026310639924
 20
194.4087701009153
 30
0.0
 10
367.8498634205093
 20
194.5017344439526
 30
0.0
 10
367.6428871047982
 20
194.6742128369764
 30
0.0
 10
367.4510686140106
 20
194.9917518720325
 30
0.0
 10
367.352815067656
 20
195.5228198277817
 30
0.0
 10
367.4510439495537
 20
196.1672481145458
 30
0.0
 10
367.6428169743094
 20
196.7061143872357
 30
0.0
 10
367.8496852537589
 20
197.1178298932223
 30
0.0
 10
368.1025196389213
 20
197.5012733063146
 30
0.0
 10
368.4733930409474
 20
197.9441598819423
 30
0.0
 10
368.7823633416521
 20
198.1606360513161
 30
0.0
 10
368.9824207877335
 20
198.3008037939232
 30
0.0
  0
LINE
  5
322
330
1F
100
AcDbEntity
  8
0
  6
Continuous
 62
     7
370
    30
100
AcDbLine
 10
367.9618000616
 20
195.8743951633
 30
0.0
 11
368.4721104247
 21
195.1483150504
 31
0.0
  0
LINE
  5
323
330
1F
100
AcDbEntity
  8
0
  6
Continuous
 62
     7
370
    30
100
AcDbLine
 10
368.4721104247
 20
195.1483150504
 30
0.0
 11
369.4927311508
 21
195.7375068543
 31
0.0
  0
LINE
  5
324
330
1F
100
AcDbEntity
  8
0
  6
Continuous
 62
     7
370
    30
100
AcDbLine
 10
369.4927311508
 20
195.7375068543
 30
0.0
 11
370.0030415139
 21
197.0527787711
 31
0.0
  0
LINE
  5
325
330
1F
100
AcDbEntity
  8
0
  6
Continuous
 62
     7
370
    30
100
AcDbLine
 10
370.0030415139
 20
197.0527787711
 30
0.0
 11
369.4927311508
 21
197.778858884
 31
0.0
  0
LINE
  5
326
330
1F
100
AcDbEntity
  8
0
  6
Continuous
 62
     7
370
    30
100
AcDbLine
 10
369.4927311508
 20
197.778858884
 30
0.0
 11
368.4721104247
 21
197.1896670801
 31
0.0
  0
LINE
  5
327
330
1F
100
AcDbEntity
  8
0
  6
Continuous
 62
     7
370
    30
100
AcDbLine
 10
368.4721104247
 20
197.1896670801
 30
0.0
 11
367.9618000616
 21
195.8743951633
 31
0.0
  0
LINE
  5
328
330
1F
100
AcDbEntity
  8
0
  6
Continuous
 62
     7
370
    30
100
AcDbLine
 10
368.6111675621
 20
196.2464226816
 30
0.0
 11
369.1214779251
 21
197.5616945983
 31
0.0
  0
LINE
  5
329
330
1F
100
AcDbEntity
  8
0
  6
Continuous
 62
     7
370
    30
100
AcDbLine
 10
367.9817186729
 20
195.8830495723
 30
0.0
 11
368.611167562
 21
196.2464226815
 31
0.0
  0
LINE
  5
32A
330
1F
100
AcDbEntity
  8
0
  6
Continuous
 62
     7
370
    30
100
AcDbLine
 10
370.0030415139
 20
197.0527787711
 30
0.0
 11
369.1214779251
 21
197.5616945983
 31
0.0
  0
LINE
  5
32B
330
1F
100
AcDbEntity
  8
0
  6
Continuous
 62
     7
370
    30
100
AcDbLine
 10
369.4927311508
 20
195.7375068543
 30
0.0
 11
368.6111675621
 21
196.2464226815
 31
0.0
  0
SPLINE
  5
32C
330
1F
100
AcDbEntity
  8
0
  6
Continuous
 62
     7
370
    30
100
AcDbSpline
210
0.0
220
0.0
230
1.0
 70
    11
 71
     3
 72
    31
 73
    27
 74
     0
 42
0.000000001
 43
0.00000001
 40
0.0
 40
0.0
 40
0.0
 40
0.0
 40
0.0598607364726976
 40
0.0924113420178385
 40
0.1249999828727494
 40
0.1575506055353725
 40
0.190139263527303
 40
0.2500000000000007
 40
0.3098607364726985
 40
0.342411342017849
 40
0.3749999828727508
 40
0.4075506055353869
 40
0.440139263527304
 40
0.5000000000000017
 40
0.5598607364726993
 40
0.5924113420178698
 40
0.6249999828727514
 40
0.6575506055353653
 40
0.690139263527303
 40
0.7500000000000009
 40
0.8098607364726987
 40
0.842411342017874
 40
0.8749999828727509
 40
0.9075506055353709
 40
0.9401392635273025
 40
1.0
 40
1.0
 40
1.0
 40
1.0
 10
349.8905376956968
 20
197.8943248388314
 30
0.0
 10
350.0905958226143
 20
197.985140590017
 30
0.0
 10
350.3994400012766
 20
198.1253394238092
 30
0.0
 10
350.7703274360256
 20
198.1107224705977
 30
0.0
 10
351.0230950584848
 20
198.0192820958014
 30
0.0
 10
351.2300713798037
 20
197.8463972215689
 30
0.0
 10
351.4218898687774
 20
197.5289896578923
 30
0.0
 10
351.5201434161901
 20
196.9978450091498
 30
0.0
 10
351.4219145332347
 20
196.3534933990335
 30
0.0
 10
351.2301415102917
 20
195.8144957266294
 30
0.0
 10
351.0232732252307
 20
195.403186977585
 30
0.0
 10
350.770438861086
 20
195.0182200586074
 30
0.0
 10
350.3995653586147
 20
194.5826144741499
 30
0.0
 10
349.8905383108576
 20
194.1752998193352
 30
0.0
 10
349.3816353063659
 20
193.9949474822899
 30
0.0
 10
349.0107479719557
 20
194.0022911458236
 30
0.0
 10
348.7579803284725
 20
194.0952554888608
 30
0.0
 10
348.5510040127613
 20
194.2677338818846
 30
0.0
 10
348.3591855219738
 20
194.5852729169407
 30
0.0
 10
348.2609319756192
 20
195.1163408726898
 30
0.0
 10
348.3591608575168
 20
195.760769159454
 30
0.0
 10
348.5509338822727
 20
196.2996354321439
 30
0.0
 10
348.7578021617221
 20
196.7113509381306
 30
0.0
 10
349.0106365468844
 20
197.0947943512228
 30
0.0
 10
349.3815099489106
 20
197.5376809268505
 30
0.0
 10
349.6904802496152
 20
197.7541570962243
 30
0.0
 10
349.8905376956968
 20
197.8943248388314
 30
0.0
  0
LINE
  5
32D
330
1F
100
AcDbEntity
  8
0
  6
Continuous
 62
     7
370
    30
100
AcDbLine
 10
348.8699169695
 20
195.4679162082
 30
0.0
 11
349.3802273326
 21
194.7418360953
 31
0.0
  0
LINE
  5
32E
330
1F
100
AcDbEntity
  8
0
  6
Continuous
 62
     7
370
    30
100
AcDbLine
 10
349.3802273326
 20
194.7418360953
 30
0.0
 11
350.4008480588
 21
195.3310278992
 31
0.0
  0
LINE
  5
32F
330
1F
100
AcDbEntity
  8
0
  6
Continuous
 62
     7
370
    30
100
AcDbLine
 10
350.4008480588
 20
195.3310278992
 30
0.0
 11
350.9111584219
 21
196.646299816
 31
0.0
  0
LINE
  5
330
330
1F
100
AcDbEntity
  8
0
  6
Continuous
 62
     7
370
    30
100
AcDbLine
 10
350.9111584219
 20
196.646299816
 30
0.0
 11
350.4008480588
 21
197.3723799289
 31
0.0
  0
LINE
  5
331
330
1F
100
AcDbEntity
  8
0
  6
Continuous
 62
     7
370
    30
100
AcDbLine
 10
350.4008480588
 20
197.3723799289
 30
0.0
 11
349.3802273326
 21
196.783188125
 31
0.0
  0
LINE
  5
332
330
1F
100
AcDbEntity
  8
0
  6
Continuous
 62
     7
370
    30
100
AcDbLine
 10
349.3802273326
 20
196.783188125
 30
0.0
 11
348.8699169695
 21
195.4679162082
 31
0.0
  0
LINE
  5
333
330
1F
100
AcDbEntity
  8
0
  6
Continuous
 62
     7
370
    30
100
AcDbLine
 10
349.5192844701
 20
195.8399437265
 30
0.0
 11
350.0295948331
 21
197.1552156432
 31
0.0
  0
LINE
  5
334
330
1F
100
AcDbEntity
  8
0
  6
Continuous
 62
     7
370
    30
100
AcDbLine
 10
348.8898355808
 20
195.4765706172
 30
0.0
 11
349.51928447
 21
195.8399437264
 31
0.0
  0
LINE
  5
335
330
1F
100
AcDbEntity
  8
0
  6
Continuous
 62
     7
370
    30
100
AcDbLine
 10
350.9111584219
 20
196.646299816
 30
0.0
 11
350.0295948331
 21
197.1552156432
 31
0.0
  0
LINE
  5
336
330
1F
100
AcDbEntity
  8
0
  6
Continuous
 62
     7
370
    30
100
AcDbLine
 10
350.4008480588
 20
195.3310278992
 30
0.0
 11
349.51928447
 21
195.8399437264
 31
0.0
  0
LINE
  5
337
330
1F
100
AcDbEntity
  8
0
  6
Continuous
 62
     7
370
    30
100
AcDbLine
 10
334.6883732759
 20
248.5079190326
 30
0.0
 11
334.7270672052
 21
248.5315505969
 31
0.0
  0
SPLINE
  5
338
330
1F
100
AcDbEntity
  8
0
  6
Continuous
 62
     7
370
    30
100
AcDbSpline
210
0.0
220
0.0
230
1.0
 70
    11
 71
     3
 72
    31
 73
    27
 74
     0
 42
0.000000001
 43
0.00000001
 40
0.0
 40
0.0
 40
0.0
 40
0.0
 40
0.0598607364726973
 40
0.0924113420178671
 40
0.1249999828727489
 40
0.157550605535399
 40
0.1901392635273021
 40
0.2499999999999997
 40
0.3098607364726973
 40
0.342411342017846
 40
0.3749999828727491
 40
0.4075506055354013
 40
0.4401392635273029
 40
0.5000000000000002
 40
0.5598607364726975
 40
0.5924113420178623
 40
0.6249999828727495
 40
0.6575506055354076
 40
0.6901392635273029
 40
0.7500000000000006
 40
0.8098607364726981
 40
0.8424113420178686
 40
0.8749999828727495
 40
0.9075506055353961
 40
0.9401392635273024
 40
1.0
 40
1.0
 40
1.0
 40
1.0
 10
335.7484020719658
 20
247.7830310241303
 30
0.0
 10
335.9484601988834
 20
247.6428645785712
 30
0.0
 10
336.2573043775458
 20
247.4264795137816
 30
0.0
 10
336.6281918122947
 20
246.9836450432749
 30
0.0
 10
336.8809594347539
 20
246.6003653835611
 30
0.0
 10
337.0879357560729
 20
246.1885107353483
 30
0.0
 10
337.2797542450465
 20
245.6496342584012
 30
0.0
 10
337.3780077924592
 20
245.0050484784784
 30
0.0
 10
337.2797789095037
 20
244.4741095225664
 30
0.0
 10
337.0880058865607
 20
244.1565282694712
 30
0.0
 10
336.8811376014997
 20
243.9840645583986
 30
0.0
 10
336.6283032373551
 20
243.8910139826484
 30
0.0
 10
336.2574297348837
 20
243.8836098296206
 30
0.0
 10
335.7484026871267
 20
244.0640052943846
 30
0.0
 10
335.239499682635
 20
244.4712198596121
 30
0.0
 10
334.8686123482248
 20
244.9067809245922
 30
0.0
 10
334.6158447047416
 20
245.2915845768209
 30
0.0
 10
334.4088683890302
 20
245.7030327373502
 30
0.0
 10
334.217049898243
 20
246.2420406877713
 30
0.0
 10
334.1187963518882
 20
246.8865497734789
 30
0.0
 10
334.2170252337859
 20
247.4175654072603
 30
0.0
 10
334.4087982585418
 20
247.7350152585481
 30
0.0
 10
334.6156665379913
 20
247.9078857330419
 30
0.0
 10
334.8685009231535
 20
247.9994127786405
 30
0.0
 10
335.2393743251798
 20
248.0140980388098
 30
0.0
 10
335.5483446258843
 20
247.8738446921913
 30
0.0
 10
335.7484020719658
 20
247.7830310241303
 30
0.0
  0
LINE
  5
339
330
1F
100
AcDbEntity
  8
0
  6
Continuous
 62
     7
370
    30
100
AcDbLine
 10
334.7277813458
 20
246.5350060013
 30
0.0
 11
335.2380917089
 21
245.2197340845
 31
0.0
  0
LINE
  5
33A
330
1F
100
AcDbEntity
  8
0
  6
Continuous
 62
     7
370
    30
100
AcDbLine
 10
335.2380917089
 20
245.2197340845
 30
0.0
 11
336.258712435
 21
244.6305422806
 31
0.0
  0
LINE
  5
33B
330
1F
100
AcDbEntity
  8
0
  6
Continuous
 62
     7
370
    30
100
AcDbLine
 10
336.258712435
 20
244.6305422806
 30
0.0
 11
336.7690227981
 21
245.3566223935
 31
0.0
  0
LINE
  5
33C
330
1F
100
AcDbEntity
  8
0
  6
Continuous
 62
     7
370
    30
100
AcDbLine
 10
336.7690227981
 20
245.3566223935
 30
0.0
 11
336.258712435
 21
246.6718943103
 31
0.0
  0
LINE
  5
33D
330
1F
100
AcDbEntity
  8
0
  6
Continuous
 62
     7
370
    30
100
AcDbLine
 10
336.258712435
 20
246.6718943103
 30
0.0
 11
335.2380917089
 21
247.2610861142
 31
0.0
  0
LINE
  5
33E
330
1F
100
AcDbEntity
  8
0
  6
Continuous
 62
     7
370
    30
100
AcDbLine
 10
335.2380917089
 20
247.2610861142
 30
0.0
 11
334.7277813458
 21
246.5350060013
 31
0.0
  0
LINE
  5
33F
330
1F
100
AcDbEntity
  8
0
  6
Continuous
 62
     7
370
    30
100
AcDbLine
 10
335.6093449346
 20
247.0439218285
 30
0.0
 11
336.1196552976
 21
245.7286499117
 31
0.0
  0
LINE
  5
340
330
1F
100
AcDbEntity
  8
0
  6
Continuous
 62
     7
370
    30
100
AcDbLine
 10
336.1196552978
 20
245.7286499115
 30
0.0
 11
336.7676006949
 21
245.3545989957
 31
0.0
  0
LINE
  5
341
330
1F
100
AcDbEntity
  8
0
  6
Continuous
 62
     7
370
    30
100
AcDbLine
 10
334.7277813458
 20
246.5350060013
 30
0.0
 11
335.6093449346
 21
247.0439218285
 31
0.0
  0
LINE
  5
342
330
1F
100
AcDbEntity
  8
0
  6
Continuous
 62
     7
370
    30
100
AcDbLine
 10
336.1196552976
 20
245.7286499117
 30
0.0
 11
335.2380917089
 21
245.2197340845
 31
0.0
  0
LINE
  5
343
330
1F
100
AcDbEntity
  8
0
  6
Continuous
 62
     7
370
    30
100
AcDbLine
 10
341.7594410878
 20
244.4258784735
 30
0.0
 11
341.798135017
 21
244.4495100378
 31
0.0
  0
SPLINE
  5
344
330
1F
100
AcDbEntity
  8
0
  6
Continuous
 62
     7
370
    30
100
AcDbSpline
210
0.0
220
0.0
230
1.0
 70
    11
 71
     3
 72
    31
 73
    27
 74
     0
 42
0.000000001
 43
0.00000001
 40
0.0
 40
0.0
 40
0.0
 40
0.0
 40
0.0598607364726974
 40
0.0924113420178671
 40
0.1249999828727489
 40
0.157550605535399
 40
0.1901392635273021
 40
0.2499999999999998
 40
0.3098607364726974
 40
0.3424113420178461
 40
0.3749999828727492
 40
0.4075506055354015
 40
0.4401392635273028
 40
0.5000000000000003
 40
0.5598607364726976
 40
0.5924113420178624
 40
0.6249999828727496
 40
0.6575506055354077
 40
0.690139263527303
 40
0.7500000000000007
 40
0.8098607364726982
 40
0.8424113420178687
 40
0.8749999828727496
 40
0.9075506055353962
 40
0.9401392635273024
 40
1.0
 40
1.0
 40
1.0
 40
1.0
 10
342.8194698838312
 20
243.7009904650168
 30
0.0
 10
343.0195280107488
 20
243.5608240194576
 30
0.0
 10
343.3283721894113
 20
243.344438954668
 30
0.0
 10
343.6992596241602
 20
242.9016044841614
 30
0.0
 10
343.9520272466194
 20
242.5183248244475
 30
0.0
 10
344.1590035679384
 20
242.1064701762348
 30
0.0
 10
344.3508220569119
 20
241.5675936992876
 30
0.0
 10
344.4490756043247
 20
240.9230079193649
 30
0.0
 10
344.3508467213692
 20
240.3920689634528
 30
0.0
 10
344.1590736984263
 20
240.0744877103577
 30
0.0
 10
343.9522054133652
 20
239.902023999285
 30
0.0
 10
343.6993710492205
 20
239.8089734235348
 30
0.0
 10
343.3284975467491
 20
239.8015692705071
 30
0.0
 10
342.8194704989921
 20
239.981964735271
 30
0.0
 10
342.3105674945004
 20
240.3891793004986
 30
0.0
 10
341.9396801600902
 20
240.8247403654786
 30
0.0
 10
341.686912516607
 20
241.2095440177073
 30
0.0
 10
341.4799362008957
 20
241.6209921782367
 30
0.0
 10
341.2881177101084
 20
242.1600001286577
 30
0.0
 10
341.1898641637537
 20
242.8045092143653
 30
0.0
 10
341.2880930456514
 20
243.3355248481467
 30
0.0
 10
341.4798660704072
 20
243.6529746994346
 30
0.0
 10
341.6867343498567
 20
243.8258451739283
 30
0.0
 10
341.939568735019
 20
243.917372219527
 30
0.0
 10
342.3104421370452
 20
243.9320574796962
 30
0.0
 10
342.6194124377498
 20
243.7918041330777
 30
0.0
 10
342.8194698838312
 20
243.7009904650168
 30
0.0
  0
LINE
  5
345
330
1F
100
AcDbEntity
  8
0
  6
Continuous
 62
     7
370
    30
100
AcDbLine
 10
341.7988491577
 20
242.4529654422
 30
0.0
 11
342.3091595208
 21
241.1376935254
 31
0.0
  0
LINE
  5
346
330
1F
100
AcDbEntity
  8
0
  6
Continuous
 62
     7
370
    30
100
AcDbLine
 10
342.3091595208
 20
241.1376935254
 30
0.0
 11
343.3297802469
 21
240.5485017215
 31
0.0
  0
LINE
  5
347
330
1F
100
AcDbEntity
  8
0
  6
Continuous
 62
     7
370
    30
100
AcDbLine
 10
343.3297802469
 20
240.5485017215
 30
0.0
 11
343.84009061
 21
241.2745818344
 31
0.0
  0
LINE
  5
348
330
1F
100
AcDbEntity
  8
0
  6
Continuous
 62
     7
370
    30
100
AcDbLine
 10
343.84009061
 20
241.2745818344
 30
0.0
 11
343.3297802469
 21
242.5898537512
 31
0.0
  0
LINE
  5
349
330
1F
100
AcDbEntity
  8
0
  6
Continuous
 62
     7
370
    30
100
AcDbLine
 10
343.3297802469
 20
242.5898537512
 30
0.0
 11
342.3091595208
 21
243.1790455551
 31
0.0
  0
LINE
  5
34A
330
1F
100
AcDbEntity
  8
0
  6
Continuous
 62
     7
370
    30
100
AcDbLine
 10
342.3091595208
 20
243.1790455551
 30
0.0
 11
341.7988491577
 21
242.4529654422
 31
0.0
  0
LINE
  5
34B
330
1F
100
AcDbEntity
  8
0
  6
Continuous
 62
     7
370
    30
100
AcDbLine
 10
342.6804127464
 20
242.9618812694
 30
0.0
 11
343.1907231095
 21
241.6466093526
 31
0.0
  0
LINE
  5
34C
330
1F
100
AcDbEntity
  8
0
  6
Continuous
 62
     7
370
    30
100
AcDbLine
 10
343.1907231097
 20
241.6466093524
 30
0.0
 11
343.8386685068
 21
241.2725584366
 31
0.0
  0
LINE
  5
34D
330
1F
100
AcDbEntity
  8
0
  6
Continuous
 62
     7
370
    30
100
AcDbLine
 10
341.7988491577
 20
242.4529654422
 30
0.0
 11
342.6804127464
 21
242.9618812694
 31
0.0
  0
LINE
  5
34E
330
1F
100
AcDbEntity
  8
0
  6
Continuous
 62
     7
370
    30
100
AcDbLine
 10
343.1907231095
 20
241.6466093526
 30
0.0
 11
342.3091595208
 21
241.1376935254
 31
0.0
  0
SPLINE
  5
34F
330
1F
100
AcDbEntity
  8
0
  6
Continuous
 62
     7
370
    30
100
AcDbSpline
210
0.0
220
0.0
230
1.0
 70
     8
 71
     3
 72
     9
 73
     5
 74
     0
 42
0.000000001
 43
0.00000001
 40
0.0
 40
0.0
 40
0.0
 40
0.0
 40
0.552487512786373
 40
1.0
 40
1.0
 40
1.0
 40
1.0
 10
335.7025876233885
 20
186.8712949856885
 30
0.0
 10
335.6326759733568
 20
186.8407513007119
 30
0.0
 10
335.5061361902597
 20
186.7854673634831
 30
0.0
 10
335.3403318528577
 20
186.8322697539355
 30
0.0
 10
335.2661323414362
 20
186.8532144080944
 30
0.0
  0
ARC
  5
350
330
1F
100
AcDbEntity
  8
0
  6
Continuous
 62
     7
370
    30
100
AcDbCircle
 10
335.4896811284
 20
187.631396878
 30
0.0
 40
0.789356739622297
100
AcDbArc
 50
246.5191839249
 51
285.6476960015
  0
LINE
  5
351
330
1F
100
AcDbEntity
  8
0
  6
Continuous
 62
     7
370
    30
100
AcDbLine
 10
335.175168255
 20
186.9074039811
 30
0.0
 11
335.0709797635
 21
186.9698415503
 31
0.0
  0
LWPOLYLINE
  5
352
330
1F
100
AcDbEntity
  8
0
  6
Continuous
 62
     7
370
    30
100
AcDbPolyline
 90
        9
 70
   128
 43
0.0
 10
335.0709797635
 20
186.9698415503
 10
335.4097841632
 20
186.9193594723
 10
335.6867412726
 20
187.0275029476
 10
335.8697047606
 20
187.2817197946
 10
335.937438108
 20
187.6525031374
 10
335.882079525
 20
188.0968162612
 10
335.7100544662
 20
188.5630878706
 10
335.4413298303
 20
188.9971979553
 10
335.1070964077
 20
189.3487594837
  0
LINE
  5
353
330
1F
100
AcDbEntity
  8
0
  6
Continuous
 62
     7
370
    30
100
AcDbLine
 10
335.1070964077
 20
189.3487594837
 30
0.0
 11
335.3378588974
 21
189.7435841633
 31
0.0
  0
SPLINE
  5
354
330
1F
100
AcDbEntity
  8
0
  6
Continuous
 62
     7
370
    30
100
AcDbSpline
210
0.0
220
0.0
230
1.0
 70
     8
 71
     3
 72
    16
 73
    12
 74
     0
 42
0.000000001
 43
0.00000001
 40
0.0
 40
0.0
 40
0.0
 40
0.0
 40
0.0782696309245437
 40
0.2043827934319914
 40
0.3281383400111597
 40
0.4496262972864822
 40
0.5711436410835683
 40
0.690629371947373
 40
0.8075310787845524
 40
0.9244542918099141
 40
1.0
 40
1.0
 40
1.0
 40
1.0
 10
335.4317697997799
 20
186.7551089843946
 30
0.0
 10
335.5255937693496
 20
186.7231535338697
 30
0.0
 10
335.7705930719531
 20
186.6397093657228
 30
0.0
 10
336.1216328018962
 20
186.6842872036395
 30
0.0
 10
336.4064977179895
 20
186.9314878826113
 30
0.0
 10
336.5457431555235
 20
187.3499776070917
 30
0.0
 10
336.5306253917871
 20
187.8849369358261
 30
0.0
 10
336.35400110011
 20
188.4722169359834
 30
0.0
 10
336.0437851008053
 20
189.0366744983241
 30
0.0
 10
335.6867405088713
 20
189.4751651700562
 30
0.0
 10
335.4361987099368
 20
189.667924476422
 30
0.0
 10
335.3378588973987
 20
189.7435841632829
 30
0.0
  0
LINE
  5
355
330
1F
100
AcDbEntity
  8
0
  6
Continuous
 62
     7
370
    30
100
AcDbLine
 10
335.4317697998
 20
186.7551089844
 30
0.0
 11
335.2661323414
 21
186.8532144081
 31
0.0
  0
SPLINE
  5
356
330
1F
100
AcDbEntity
  8
0
  6
Continuous
 62
     7
370
    30
100
AcDbSpline
210
0.0
220
0.0
230
1.0
 70
     8
 71
     3
 72
    12
 73
     8
 74
     0
 42
0.000000001
 43
0.00000001
 40
0.0
 40
0.0
 40
0.0
 40
0.0
 40
0.1737051674229597
 40
0.3449934157173122
 40
0.5752307779475828
 40
0.7995542829620753
 40
1.0
 40
1.0
 40
1.0
 40
1.0
 10
335.5305595673472
 20
189.715803867289
 30
0.0
 10
335.6511392821465
 20
189.6168078868016
 30
0.0
 10
335.8906209757079
 20
189.4201933475951
 30
0.0
 10
336.2261311570709
 20
188.9732857076779
 30
0.0
 10
336.4889018261854
 20
188.442421600397
 30
0.0
 10
336.6087440872288
 20
187.8879600924022
 30
0.0
 10
336.5455681463111
 20
187.6272079601916
 30
0.0
 10
336.5157558479632
 20
187.5041607962337
 30
0.0
  0
SPLINE
  5
357
330
1F
100
AcDbEntity
  8
0
  6
Continuous
 62
     7
370
    30
100
AcDbSpline
210
0.0
220
0.0
230
1.0
 70
     8
 71
     3
 72
    10
 73
     6
 74
     0
 42
0.000000001
 43
0.00000001
 40
0.0
 40
0.0
 40
0.0
 40
0.0
 40
0.2778798561011919
 40
0.5557597322314907
 40
1.0
 40
1.0
 40
1.0
 40
1.0
 10
335.6871574427568
 20
190.1143314754731
 30
0.0
 10
335.6725974453551
 20
190.0774207369512
 30
0.0
 10
335.6434774495021
 20
190.0035992572469
 30
0.0
 10
335.5912141340454
 20
189.8707605361009
 30
0.0
 10
335.5536615182381
 20
189.7748233533389
 30
0.0
 10
335.5305595673473
 20
189.7158038672891
 30
0.0
  0
SPLINE
  5
358
330
1F
100
AcDbEntity
  8
0
  6
Continuous
 62
     7
370
    30
100
AcDbSpline
210
0.0
220
0.0
230
1.0
 70
     8
 71
     3
 72
    14
 73
    10
 74
     0
 42
0.000000001
 43
0.00000001
 40
0.0
 40
0.0
 40
0.0
 40
0.0
 40
0.1275016779039431
 40
0.2526637655558574
 40
0.4121560450464192
 40
0.5675646463033615
 40
0.722973247560304
 40
0.8824655270508664
 40
1.0
 40
1.0
 40
1.0
 40
1.0
 10
335.6871574427568
 20
190.1143314754731
 30
0.0
 10
335.8438071904885
 20
189.988412780201
 30
0.0
 10
336.1542322436011
 20
189.7388859329913
 30
0.0
 10
336.5775646864898
 20
189.168496411276
 30
0.0
 10
336.9019380041038
 20
188.4982910152534
 30
0.0
 10
337.0333917738309
 20
187.801534353813
 30
0.0
 10
336.9407710286745
 20
187.244297431665
 30
0.0
 10
336.6749031272719
 20
186.9190279546303
 30
0.0
 10
336.4072760240614
 20
186.8941750900229
 30
0.0
 10
336.2937295515791
 20
186.8836307353092
 30
0.0
  0
LINE
  5
359
330
1F
100
AcDbEntity
  8
0
  6
Continuous
 62
     7
370
    30
100
AcDbLine
 10
335.7490292861
 20
190.1500493304
 30
0.0
 11
335.6871574428
 21
190.1143314755
 31
0.0
  0
SPLINE
  5
35A
330
1F
100
AcDbEntity
  8
0
  6
Continuous
 62
     7
370
    30
100
AcDbSpline
210
0.0
220
0.0
230
1.0
 70
     8
 71
     3
 72
    13
 73
     9
 74
     0
 42
0.000000001
 43
0.00000001
 40
0.0
 40
0.0
 40
0.0
 40
0.0
 40
0.1458957395507666
 40
0.2891143672730704
 40
0.4716158405983361
 40
0.6494445028220086
 40
0.8272731650456815
 40
1.0
 40
1.0
 40
1.0
 40
1.0
 10
335.7490292861106
 20
190.1500493303653
 30
0.0
 10
335.9056902246832
 20
190.024110488744
 30
0.0
 10
336.2161374541312
 20
189.774543718511
 30
0.0
 10
336.639291013418
 20
189.2044762326091
 30
0.0
 10
336.9645177789282
 20
188.5327344141051
 30
0.0
 10
337.0927159115594
 20
187.8418387244327
 30
0.0
 10
337.0137209913607
 20
187.2732215529764
 30
0.0
 10
336.799802769999
 20
187.091463070875
 30
0.0
 10
336.694400294179
 20
187.0019064454841
 30
0.0
  0
LINE
  5
35B
330
1F
100
AcDbEntity
  8
0
  6
Continuous
 62
     7
370
    30
100
AcDbLine
 10
335.1070964077
 20
189.3487594837
 30
0.0
 11
335.0709797635
 21
186.9698415503
 31
0.0
  0
LINE
  5
35C
330
1F
100
AcDbEntity
  8
0
  6
Continuous
 62
     7
370
    30
100
AcDbLine
 10
335.5305595673
 20
189.7158038673
 30
0.0
 11
335.4068158793
 21
189.6443681567
 31
0.0
  0
LINE
  5
35D
330
1F
100
AcDbEntity
  8
0
  6
Continuous
 62
     7
370
    30
100
AcDbLine
 10
335.6021882991
 20
190.1363201666
 30
0.0
 11
335.5984338439
 21
189.8890230787
 31
0.0
  0
LINE
  5
35E
330
1F
100
AcDbEntity
  8
0
  6
Continuous
 62
     7
370
    30
100
AcDbLine
 10
335.0733334016
 20
187.1248701268
 30
0.0
 11
335.02803158
 21
187.0126223514
 31
0.0
  0
LINE
  5
35F
330
1F
100
AcDbEntity
  8
0
  6
Continuous
 62
     7
370
    30
100
AcDbLine
 10
335.02803158
 20
187.0126223514
 30
0.0
 11
335.0141618703
 21
187.0046155384
 31
0.0
  0
LINE
  5
360
330
1F
100
AcDbEntity
  8
0
  6
Continuous
 62
     7
370
    30
100
AcDbLine
 10
334.9049661751
 20
187.0692027409
 30
0.0
 11
335.0141618703
 21
187.0046155384
 31
0.0
  0
SPLINE
  5
361
330
1F
100
AcDbEntity
  8
0
  6
Continuous
 62
     7
370
    30
100
AcDbSpline
210
0.0
220
0.0
230
1.0
 70
     8
 71
     3
 72
     9
 73
     5
 74
     0
 42
0.000000001
 43
0.00000001
 40
0.0
 40
0.0
 40
0.0
 40
0.0
 40
0.2411672896818216
 40
1.0
 40
1.0
 40
1.0
 40
1.0
 10
334.9049661750627
 20
187.0692027408853
 30
0.0
 10
334.898034839938
 20
187.0796987392068
 30
0.0
 10
334.8692940636337
 20
187.1232203889935
 30
0.0
 10
334.8406992028404
 20
187.1669178137113
 30
0.0
 10
334.8190004871234
 20
187.2000768489439
 30
0.0
  0
LINE
  5
362
330
1F
100
AcDbEntity
  8
0
  6
Continuous
 62
     7
370
    30
100
AcDbLine
 10
334.8190004871
 20
187.2000768489
 30
0.0
 11
334.7509682438
 21
187.1608026708
 31
0.0
  0
LINE
  5
363
330
1F
100
AcDbEntity
  8
0
  6
Continuous
 62
     7
370
    30
100
AcDbLine
 10
334.6467797523
 20
187.22324024
 30
0.0
 11
334.7509682438
 21
187.1608026708
 31
0.0
  0
LINE
  5
364
330
1F
100
AcDbEntity
  8
0
  6
Continuous
 62
     7
370
    30
100
AcDbLine
 10
334.6467797523
 20
187.22324024
 30
0.0
 11
334.6828963965
 21
189.6021581734
 31
0.0
  0
LINE
  5
365
330
1F
100
AcDbEntity
  8
0
  6
Continuous
 62
     7
370
    30
100
AcDbLine
 10
334.895999977
 20
189.9668243617
 30
0.0
 11
334.6828963965
 21
189.6021581734
 31
0.0
  0
LINE
  5
366
330
1F
100
AcDbEntity
  8
0
  6
Continuous
 62
     7
370
    30
100
AcDbLine
 10
334.895999977
 20
189.9668243617
 30
0.0
 11
334.9526173986
 21
189.8804490987
 31
0.0
  0
LINE
  5
367
330
1F
100
AcDbEntity
  8
0
  6
Continuous
 62
     7
370
    30
100
AcDbLine
 10
334.9526173986
 20
189.8804490987
 30
0.0
 11
335.0763610866
 21
189.9518848092
 31
0.0
  0
SPLINE
  5
368
330
1F
100
AcDbEntity
  8
0
  6
Continuous
 62
     7
370
    30
100
AcDbSpline
210
0.0
220
0.0
230
1.0
 70
     8
 71
     3
 72
    10
 73
     6
 74
     0
 42
0.000000001
 43
0.00000001
 40
0.0
 40
0.0
 40
0.0
 40
0.0
 40
0.2754262180560838
 40
0.5508524355694256
 40
1.0
 40
1.0
 40
1.0
 40
1.0
 10
335.0763610866449
 20
189.9518848092207
 30
0.0
 10
335.0912602024318
 20
189.9887693610785
 30
0.0
 10
335.1210584339762
 20
190.0625384647214
 30
0.0
 10
335.1751286303856
 20
190.1964587023104
 30
0.0
 10
335.2142873882337
 20
190.2934954568816
 30
0.0
 10
335.2385610524925
 20
190.3536464353769
 30
0.0
  0
LINE
  5
369
330
1F
100
AcDbEntity
  8
0
  6
Continuous
 62
     7
370
    30
100
AcDbLine
 10
335.2385610525
 20
190.3536464354
 30
0.0
 11
335.3004328958
 21
190.3893642903
 31
0.0
  0
SPLINE
  5
36A
330
1F
100
AcDbEntity
  8
0
  6
Continuous
 62
     7
370
    30
100
AcDbSpline
210
0.0
220
0.0
230
1.0
 70
     8
 71
     3
 72
    10
 73
     6
 74
     0
 42
0.000000001
 43
0.00000001
 40
0.0
 40
0.0
 40
0.0
 40
0.0
 40
0.2778798561011884
 40
0.5557597322314988
 40
1.0
 40
1.0
 40
1.0
 40
1.0
 10
335.3004328958466
 20
190.3893642902691
 30
0.0
 10
335.3141197034992
 20
190.3687600852109
 30
0.0
 10
335.3414933197909
 20
190.3275516736095
 30
0.0
 10
335.3906116756694
 20
190.2532393455559
 30
0.0
 10
335.4258895748511
 20
190.199346324162
 30
0.0
 10
335.4475921454153
 20
190.166191937794
 30
0.0
  0
LINE
  5
36B
330
1F
100
AcDbEntity
  8
0
  6
Continuous
 62
     7
370
    30
100
AcDbLine
 10
335.4475921454
 20
190.1661919378
 30
0.0
 11
335.4855272361
 21
190.1880913995
 31
0.0
  0
LWPOLYLINE
  5
36C
330
1F
100
AcDbEntity
  8
0
  6
Continuous
 62
     7
370
    30
100
AcDbPolyline
 90
        9
 70
   128
 43
0.0
 10
334.6828963965
 20
189.6021581734
 10
334.3440919968
 20
189.6526402514
 10
334.0671348874
 20
189.544496776
 10
333.8841713995
 20
189.2902799291
 10
333.816438052
 20
188.9194965862
 10
333.871796635
 20
188.4751834624
 10
334.0438216938
 20
188.008911853
 10
334.3125463297
 20
187.5748017684
 10
334.6467797523
 20
187.22324024
  0
SPLINE
  5
36D
330
1F
100
AcDbEntity
  8
0
  6
Continuous
 62
     7
370
    30
100
AcDbSpline
210
0.0
220
0.0
230
1.0
 70
     8
 71
     3
 72
    12
 73
     8
 74
     0
 42
0.000000001
 43
0.00000001
 40
0.0
 40
0.0
 40
0.0
 40
0.0
 40
0.0903718331622144
 40
0.3360836089599655
 40
0.5787238197060044
 40
0.8143721523175985
 40
1.0
 40
1.0
 40
1.0
 40
1.0
 10
334.895999977042
 20
189.9668243617256
 30
0.0
 10
334.8425682926782
 20
189.9813871816145
 30
0.0
 10
334.6438613207659
 20
190.0355448200474
 30
0.0
 10
334.3260511183724
 20
190.0169454934039
 30
0.0
 10
334.0218451547902
 20
189.8066907446274
 30
0.0
 10
333.8405224583982
 20
189.4716319456917
 30
0.0
 10
333.8319313970543
 20
189.1797907339613
 30
0.0
 10
333.8281458988439
 20
189.0511961004818
 30
0.0
  0
SPLINE
  5
36E
330
1F
100
AcDbEntity
  8
0
  6
Continuous
 62
     7
370
    30
100
AcDbSpline
210
0.0
220
0.0
230
1.0
 70
     8
 71
     3
 72
    11
 73
     7
 74
     0
 42
0.000000001
 43
0.00000001
 40
0.0
 40
0.0
 40
0.0
 40
0.0
 40
0.2235301659633795
 40
0.5240011775488354
 40
0.7597967860199275
 40
1.0
 40
1.0
 40
1.0
 40
1.0
 10
333.9148853886352
 20
189.5319537053536
 30
0.0
 10
333.9424930224217
 20
189.6883035361294
 30
0.0
 10
334.0072110552257
 20
190.0548200422258
 30
0.0
 10
334.3374223142674
 20
190.360144193202
 30
0.0
 10
334.7668918843082
 20
190.4797797504342
 30
0.0
 10
335.0803704241922
 20
190.3959496209663
 30
0.0
 10
335.2385610524927
 20
190.3536464353768
 30
0.0
  0
LINE
  5
36F
330
1F
100
AcDbEntity
  8
0
  6
Continuous
 62
     7
370
    30
100
AcDbLine
 10
334.7724093068
 20
189.9970806811
 30
0.0
 11
335.0763610866
 21
189.9518848092
 31
0.0
  0
SPLINE
  5
370
330
1F
100
AcDbEntity
  8
0
  6
Continuous
 62
     7
370
    30
100
AcDbSpline
210
0.0
220
0.0
230
1.0
 70
     8
 71
     3
 72
     9
 73
     5
 74
     0
 42
0.000000001
 43
0.00000001
 40
0.0
 40
0.0
 40
0.0
 40
0.0
 40
0.8581584660475216
 40
1.0
 40
1.0
 40
1.0
 40
1.0
 10
334.9049661750627
 20
187.0692027408853
 30
0.0
 10
334.8698160221763
 20
187.0958978220068
 30
0.0
 10
334.8288560430151
 20
187.1270052248674
 30
0.0
 10
334.7898580639883
 20
187.1734694439349
 30
0.0
 10
334.7843265308221
 20
187.1800600000414
 30
0.0
  0
SPLINE
  5
371
330
1F
100
AcDbEntity
  8
0
  6
Continuous
 62
     7
370
    30
100
AcDbSpline
210
0.0
220
0.0
230
1.0
 70
     8
 71
     3
 72
    10
 73
     6
 74
     0
 42
0.000000001
 43
0.00000001
 40
0.0
 40
0.0
 40
0.0
 40
0.0
 40
0.0327032382802958
 40
0.5118731810278224
 40
1.0
 40
1.0
 40
1.0
 40
1.0
 10
334.4281724991598
 20
190.360225026183
 30
0.0
 10
334.4344878123498
 20
190.3669866153112
 30
0.0
 10
334.5333354990551
 20
190.4728194415952
 30
0.0
 10
334.8384607635115
 20
190.5016748430858
 30
0.0
 10
335.1454945051251
 20
190.4270315327205
 30
0.0
 10
335.3004328958466
 20
190.3893642902691
 30
0.0
  0
LWPOLYLINE
  5
372
330
1F
100
AcDbEntity
  8
0
  6
Continuous
 62
     7
370
    30
100
AcDbPolyline
 90
        3
 70
   128
 43
0.0
 10
335.2339848245
 20
186.8994650264
 10
335.2552967521
 20
186.8688085023
 10
335.2661323414
 20
186.8532144081
  0
SPLINE
  5
373
330
1F
100
AcDbEntity
  8
0
  6
Continuous
 62
     7
370
    30
100
AcDbSpline
210
0.0
220
0.0
230
1.0
 70
     8
 71
     3
 72
     9
 73
     5
 74
     0
 42
0.000000001
 43
0.00000001
 40
0.0
 40
0.0
 40
0.0
 40
0.0
 40
0.5524875127863716
 40
1.0
 40
1.0
 40
1.0
 40
1.0
 10
361.8160254772072
 20
189.5311028234213
 30
0.0
 10
361.7974888263533
 20
189.6745195781
 30
0.0
 10
361.7639375687684
 20
189.9341032815495
 30
0.0
 10
361.8068208165867
 20
190.2226673177628
 30
0.0
 10
361.8260116054776
 20
190.3518033273291
 30
0.0
  0
ARC
  5
374
330
1F
100
AcDbEntity
  8
0
  6
Continuous
 62
     7
370
    30
100
AcDbCircle
 10
364.0533426081
 20
189.3938447417
 30
0.0
 40
2.241523527684729
100
AcDbArc
 50
157.1109865582
 51
176.4893378488
  0
LINE
  5
375
330
1F
100
AcDbEntity
  8
0
  6
Continuous
 62
     7
370
    30
100
AcDbLine
 10
361.9883166345
 20
190.2656792751
 30
0.0
 11
362.1744649584
 21
190.166917948
 31
0.0
  0
LWPOLYLINE
  5
376
330
1F
100
AcDbEntity
  8
0
  6
Continuous
 62
     7
370
    30
100
AcDbPolyline
 90
        9
 70
   128
 43
0.0
 10
362.1744649584
 20
190.166917948
 10
362.0460020037
 20
189.7027355516
 10
362.0383809756
 20
189.2811478431
 10
362.1524864448
 20
188.9510883856
 10
362.3750742225
 20
188.7508670843
 10
362.6803086099
 20
188.7037235677
 10
363.0327611404
 20
188.8151297701
 10
363.391522751
 20
189.0721548058
 10
363.7149520856
 20
189.4449658536
  0
LINE
  5
377
330
1F
100
AcDbEntity
  8
0
  6
Continuous
 62
     7
370
    30
100
AcDbLine
 10
363.7149520856
 20
189.4449658536
 30
0.0
 11
363.6591008528
 21
189.4957744373
 31
0.0
  0
SPLINE
  5
378
330
1F
100
AcDbEntity
  8
0
  6
Continuous
 62
     7
370
    30
100
AcDbSpline
210
0.0
220
0.0
230
1.0
 70
     8
 71
     3
 72
    14
 73
    10
 74
     0
 42
0.000000001
 43
0.00000001
 40
0.0
 40
0.0
 40
0.0
 40
0.0
 40
0.1012951447003607
 40
0.2645085250870332
 40
0.424670721460417
 40
0.5818982446541682
 40
0.7391637993543815
 40
0.8938000772377629
 40
1.0
 40
1.0
 40
1.0
 40
1.0
 10
361.5308490686698
 20
190.508448298723
 30
0.0
 10
361.4874982415049
 20
190.377225462976
 30
0.0
 10
361.374297718532
 20
190.0345677882785
 30
0.0
 10
361.3189159342771
 20
189.4975478183588
 30
0.0
 10
361.4193243920978
 20
188.9873790414983
 30
0.0
 10
361.6725186881227
 20
188.6326056172086
 30
0.0
 10
362.042242233201
 20
188.4753431376695
 30
0.0
 10
362.4503021140699
 20
188.4992702467948
 30
0.0
 10
362.7190014746125
 20
188.6517697261991
 30
0.0
 10
362.8284028969045
 20
188.7138601603257
 30
0.0
  0
LINE
  5
379
330
1F
100
AcDbEntity
  8
0
  6
Continuous
 62
     7
370
    30
100
AcDbLine
 10
361.5308490687
 20
190.5084482987
 30
0.0
 11
361.8260116055
 21
190.3518033273
 31
0.0
  0
SPLINE
  5
37A
330
1F
100
AcDbEntity
  8
0
  6
Continuous
 62
     7
370
    30
100
AcDbSpline
210
0.0
220
0.0
230
1.0
 70
     8
 71
     3
 72
    11
 73
     7
 74
     0
 42
0.000000001
 43
0.00000001
 40
0.0
 40
0.0
 40
0.0
 40
0.0
 40
0.138523673553172
 40
0.6772674573979638
 40
0.9686248691206574
 40
1.0
 40
1.0
 40
1.0
 40
1.0
 10
362.625285834731
 20
191.8884472212546
 30
0.0
 10
362.5841548375925
 20
191.8605113817891
 30
0.0
 10
362.3830579049331
 20
191.7239279770913
 30
0.0
 10
362.1025933967333
 20
191.4527577559342
 30
0.0
 10
361.8859905514458
 20
191.1662357388945
 30
0.0
 10
361.8111985450204
 20
191.0532045955042
 30
0.0
 10
361.8039274809641
 20
191.0422160323779
 30
0.0
  0
SPLINE
  5
37B
330
1F
100
AcDbEntity
  8
0
  6
Continuous
 62
     7
370
    30
100
AcDbSpline
210
0.0
220
0.0
230
1.0
 70
     8
 71
     3
 72
    10
 73
     6
 74
     0
 42
0.000000001
 43
0.00000001
 40
0.0
 40
0.0
 40
0.0
 40
0.0
 40
0.1434065881516367
 40
0.6552835829148708
 40
1.0
 40
1.0
 40
1.0
 40
1.0
 10
361.9984529053783
 20
190.9389764134361
 30
0.0
 10
362.0212203626295
 20
190.9920371255392
 30
0.0
 10
362.1252542229547
 20
191.2344933054614
 30
0.0
 10
362.3382657867039
 20
191.5753387851611
 30
0.0
 10
362.5429252977533
 20
191.7986006091237
 30
0.0
 10
362.625285834731
 20
191.8884472212546
 30
0.0
  0
LINE
  5
37C
330
1F
100
AcDbEntity
  8
0
  6
Continuous
 62
     7
370
    30
100
AcDbLine
 10
361.9984529054
 20
190.9389764134
 30
0.0
 11
361.803927481
 21
191.0422160324
 31
0.0
  0
LINE
  5
37D
330
1F
100
AcDbEntity
  8
0
  6
Continuous
 62
     7
370
    30
100
AcDbLine
 10
361.0346622537
 20
190.7943445464
 30
0.0
 11
361.0456989664
 21
190.7929167818
 31
0.0
  0
LINE
  5
37E
330
1F
100
AcDbEntity
  8
0
  6
Continuous
 62
     7
370
    30
100
AcDbLine
 10
361.2024427772
 20
190.722320241
 30
0.0
 11
362.8757955768
 21
189.9381004075
 31
0.0
  0
LINE
  5
37F
330
1F
100
AcDbEntity
  8
0
  6
Continuous
 62
     7
370
    30
100
AcDbLine
 10
362.8784740115
 20
189.9365541801
 30
0.0
 11
363.0022176996
 21
189.8651184695
 31
0.0
  0
SPLINE
  5
380
330
1F
100
AcDbEntity
  8
0
  6
Continuous
 62
     7
370
    30
100
AcDbSpline
210
0.0
220
0.0
230
1.0
 70
     8
 71
     3
 72
    10
 73
     6
 74
     0
 42
0.000000001
 43
0.00000001
 40
0.0
 40
0.0
 40
0.0
 40
0.0
 40
0.2754262180560893
 40
0.5508524355694315
 40
0.9999999999999999
 40
0.9999999999999999
 40
0.9999999999999999
 40
0.9999999999999999
 10
363.0022176995932
 20
189.8651184694961
 30
0.0
 10
363.0351607484785
 20
189.8481081315253
 30
0.0
 10
363.1010468461841
 20
189.8140874556174
 30
0.0
 10
363.2206402278413
 20
189.7523367273642
 30
0.0
 10
363.3072834580868
 20
189.7076010180034
 30
0.0
 10
363.3609917163884
 20
189.6798703225197
 30
0.0
  0
LINE
  5
381
330
1F
100
AcDbEntity
  8
0
  6
Continuous
 62
     7
370
    30
100
AcDbLine
 10
363.3609917164
 20
189.6798703225
 30
0.0
 11
363.4228635597
 21
189.6441524676
 31
0.0
  0
SPLINE
  5
382
330
1F
100
AcDbEntity
  8
0
  6
Continuous
 62
     7
370
    30
100
AcDbSpline
210
0.0
220
0.0
230
1.0
 70
     8
 71
     3
 72
    10
 73
     6
 74
     0
 42
0.000000001
 43
0.00000001
 40
0.0
 40
0.0
 40
0.0
 40
0.0
 40
0.2778798561011901
 40
0.5557597322314916
 40
1.0
 40
1.0
 40
1.0
 40
1.0
 10
363.4228635597424
 20
189.6441524676277
 30
0.0
 10
363.4183648339143
 20
189.644726495225
 30
0.0
 10
363.4093673819337
 20
189.6458745504609
 30
0.0
 10
363.3929870672704
 20
189.6480443705265
 30
0.0
 10
363.3808904577679
 20
189.6497574645585
 30
0.0
 10
363.3734487583637
 20
189.6508113409223
 30
0.0
  0
LINE
  5
383
330
1F
100
AcDbEntity
  8
0
  6
Continuous
 62
     7
370
    30
100
AcDbLine
 10
363.3734487584
 20
189.6508113409
 30
0.0
 11
363.4971924464
 21
189.5793756304
 31
0.0
  0
LWPOLYLINE
  5
384
330
1F
100
AcDbEntity
  8
0
  6
Continuous
 62
     7
370
    30
100
AcDbPolyline
 90
        3
 70
   128
 43
0.0
 10
363.4971924464
 20
189.5793756304
 10
363.596019645
 20
189.5283459007
 10
363.6591008528
 20
189.4957744373
  0
LINE
  5
385
330
1F
100
AcDbEntity
  8
0
  6
Continuous
 62
     7
370
    30
100
AcDbLine
 10
363.7149520856
 20
189.4449658536
 30
0.0
 11
362.1744649584
 21
190.166917948
 31
0.0
  0
LINE
  5
386
330
1F
100
AcDbEntity
  8
0
  6
Continuous
 62
     7
370
    30
100
AcDbLine
 10
361.9883166345
 20
190.2656792751
 30
0.0
 11
361.9502828607
 21
190.2876357054
 31
0.0
  0
LWPOLYLINE
  5
387
330
1F
100
AcDbEntity
  8
0
  6
Continuous
 62
     7
370
    30
100
AcDbPolyline
 90
        3
 70
   128
 43
0.0
 10
361.9502828607
 20
190.2876357054
 10
361.8514556621
 20
190.3386654351
 10
361.8260116055
 20
190.3518033273
  0
SPLINE
  5
388
330
1F
100
AcDbEntity
  8
0
  6
Continuous
 62
     7
370
    30
100
AcDbSpline
210
0.0
220
0.0
230
1.0
 70
     8
 71
     3
 72
    10
 73
     6
 74
     0
 42
0.000000001
 43
0.00000001
 40
0.0
 40
0.0
 40
0.0
 40
0.0
 40
0.2593507015191911
 40
0.5443608027561518
 40
0.9999999999999999
 40
0.9999999999999999
 40
0.9999999999999999
 40
0.9999999999999999
 10
361.5308490686698
 20
190.508448298723
 30
0.0
 10
361.5349453779366
 20
190.5079245314005
 30
0.0
 10
361.5435432733259
 20
190.5068251767488
 30
0.0
 10
361.55951335852
 20
190.5047098777277
 30
0.0
 10
361.5716100512889
 20
190.5029967382838
 30
0.0
 10
361.5790518019174
 20
190.501942833983
 30
0.0
  0
LINE
  5
389
330
1F
100
AcDbEntity
  8
0
  6
Continuous
 62
     7
370
    30
100
AcDbLine
 10
361.5790518019
 20
190.501942834
 30
0.0
 11
361.4553081139
 21
190.5733785445
 31
0.0
  0
SPLINE
  5
38A
330
1F
100
AcDbEntity
  8
0
  6
Continuous
 62
     7
370
    30
100
AcDbSpline
210
0.0
220
0.0
230
1.0
 70
     8
 71
     3
 72
    10
 73
     6
 74
     0
 42
0.000000001
 43
0.00000001
 40
0.0
 40
0.0
 40
0.0
 40
0.0
 40
0.2754262180560815
 40
0.5508524355694169
 40
1.0
 40
1.0
 40
1.0
 40
1.0
 10
361.4553081138582
 20
190.5733785445487
 30
0.0
 10
361.4223650649726
 20
190.5903888825188
 30
0.0
 10
361.3564789672662
 20
190.6244095584254
 30
0.0
 10
361.2368855856094
 20
190.6861602866791
 30
0.0
 10
361.1502423553638
 20
190.7308959960399
 30
0.0
 10
361.0965340970623
 20
190.7586266915234
 30
0.0
  0
LINE
  5
38B
330
1F
100
AcDbEntity
  8
0
  6
Continuous
 62
     7
370
    30
100
AcDbLine
 10
361.0965340971
 20
190.7586266915
 30
0.0
 11
361.0346622537
 21
190.7943445464
 31
0.0
  0
SPLINE
  5
38C
330
1F
100
AcDbEntity
  8
0
  6
Continuous
 62
     7
370
    30
100
AcDbSpline
210
0.0
220
0.0
230
1.0
 70
     8
 71
     3
 72
    12
 73
     8
 74
     0
 42
0.000000001
 43
0.00000001
 40
0.0
 40
0.0
 40
0.0
 40
0.0
 40
0.005061139314647
 40
0.2805898568761562
 40
0.5490638716631071
 40
0.8175378864500574
 40
1.0
 40
1.0
 40
1.0
 40
1.0
 10
362.625285834731
 20
191.8884472212546
 30
0.0
 10
362.628577937325
 20
191.8908083032889
 30
0.0
 10
362.8110922958998
 20
192.021706828083
 30
0.0
 10
363.176577164324
 20
192.1936500765075
 30
0.0
 10
363.6319883496215
 20
192.1474641430828
 30
0.0
 10
363.9318484298281
 20
191.8851149655888
 30
0.0
 10
363.969102986316
 20
191.5701537672018
 30
0.0
 10
363.9841772832929
 20
191.4427111376749
 30
0.0
  0
SPLINE
  5
38D
330
1F
100
AcDbEntity
  8
0
  6
Continuous
 62
     7
370
    30
100
AcDbSpline
210
0.0
220
0.0
230
1.0
 70
     8
 71
     3
 72
    12
 73
     8
 74
     0
 42
0.000000001
 43
0.00000001
 40
0.0
 40
0.0
 40
0.0
 40
0.0
 40
0.2098637089367294
 40
0.4168073918312957
 40
0.6949710612848149
 40
0.9659898424898361
 40
1.0
 40
1.0
 40
1.0
 40
1.0
 10
362.2051015409363
 20
190.8324908614836
 30
0.0
 10
362.2963921966477
 20
190.9668073879421
 30
0.0
 10
362.4777032975445
 20
191.2335715719768
 30
0.0
 10
362.84334802373
 20
191.5597426775481
 30
0.0
 10
363.227627509571
 20
191.7375166304455
 30
0.0
 10
363.5203854798301
 20
191.7596995231516
 30
0.0
 10
363.6078399313346
 20
191.6636369848403
 30
0.0
 10
363.6175909394952
 20
191.6529261910626
 30
0.0
  0
SPLINE
  5
38E
330
1F
100
AcDbEntity
  8
0
  6
Continuous
 62
     7
370
    30
100
AcDbSpline
210
0.0
220
0.0
230
1.0
 70
     8
 71
     3
 72
     9
 73
     5
 74
     0
 42
0.000000001
 43
0.00000001
 40
0.0
 40
0.0
 40
0.0
 40
0.0
 40
0.2411672896818217
 40
1.0
 40
1.0
 40
1.0
 40
1.0
 10
361.9984529053783
 20
190.9389764134361
 30
0.0
 10
362.0150771800216
 20
190.9304083030826
 30
0.0
 10
362.0840097233412
 20
190.894880639423
 30
0.0
 10
362.1528575545676
 20
190.8594083755899
 30
0.0
 10
362.2051015409367
 20
190.8324908614844
 30
0.0
  0
SPLINE
  5
38F
330
1F
100
AcDbEntity
  8
0
  6
Continuous
 62
     7
370
    30
100
AcDbSpline
210
0.0
220
0.0
230
1.0
 70
     8
 71
     3
 72
     9
 73
     5
 74
     0
 42
0.000000001
 43
0.00000001
 40
0.0
 40
0.0
 40
0.0
 40
0.0
 40
0.9598399560764862
 40
1.0
 40
1.0
 40
1.0
 40
1.0
 10
362.8793713275568
 20
189.9364246254273
 30
0.0
 10
362.9769694014839
 20
190.0691425429235
 30
0.0
 10
363.0786510134122
 20
190.2074134251222
 30
0.0
 10
363.1574306753392
 20
190.3596694341244
 30
0.0
 10
363.1605944700225
 20
190.3657840421335
 30
0.0
  0
SPLINE
  5
390
330
1F
100
AcDbEntity
  8
0
  6
Continuous
 62
     7
370
    30
100
AcDbSpline
210
0.0
220
0.0
230
1.0
 70
     8
 71
     3
 72
    10
 73
     6
 74
     0
 42
0.000000001
 43
0.00000001
 40
0.0
 40
0.0
 40
0.0
 40
0.0
 40
0.3681990854248623
 40
0.731275079660778
 40
1.0
 40
1.0
 40
1.0
 40
1.0
 10
361.7101267941062
 20
191.1182337006223
 30
0.0
 10
361.8013499698852
 20
191.2513486124118
 30
0.0
 10
361.9825270498275
 20
191.5157262862744
 30
0.0
 10
362.2833155640441
 20
191.7994134445986
 30
0.0
 10
362.4661657781503
 20
191.8732799885494
 30
0.0
 10
362.5439377599347
 20
191.9046977669682
 30
0.0
  0
SPLINE
  5
391
330
1F
100
AcDbEntity
  8
0
  6
Continuous
 62
     7
370
    30
100
AcDbSpline
210
0.0
220
0.0
230
1.0
 70
     8
 71
     3
 72
    12
 73
     8
 74
     0
 42
0.000000001
 43
0.00000001
 40
0.0
 40
0.0
 40
0.0
 40
0.0
 40
0.185912820149779
 40
0.3684142356114005
 40
0.6009732102042394
 40
0.827577689534916
 40
1.0
 40
1.0
 40
1.0
 40
1.0
 10
361.3569548677488
 20
191.3002478296255
 30
0.0
 10
361.4754906611279
 20
191.4774137389702
 30
0.0
 10
361.7103871770065
 20
191.8284946542887
 30
0.0
 10
362.1801121842199
 20
192.2419781245055
 30
0.0
 10
362.6752606515757
 20
192.4733321207825
 30
0.0
 10
363.1185125556318
 20
192.4570176583796
 30
0.0
 10
363.2781957615113
 20
192.2490906343076
 30
0.0
 10
363.3471960091246
 20
192.1592438901405
 30
0.0
  0
SPLINE
  5
392
330
1F
100
AcDbEntity
  8
0
  6
Continuous
 62
     7
370
    30
100
AcDbSpline
210
0.0
220
0.0
230
1.0
 70
     8
 71
     3
 72
    10
 73
     6
 74
     0
 42
0.000000001
 43
0.00000001
 40
0.0
 40
0.0
 40
0.0
 40
0.0
 40
0.2778798561011958
 40
0.5557597322314907
 40
1.0
 40
1.0
 40
1.0
 40
1.0
 10
361.3569548677488
 20
191.3002478296255
 30
0.0
 10
361.3897003986315
 20
191.2833672685646
 30
0.0
 10
361.4551914627569
 20
191.249606145226
 30
0.0
 10
361.5729534487555
 20
191.188909932068
 30
0.0
 10
361.657880573247
 20
191.145152676668
 30
0.0
 10
361.7101267941061
 20
191.1182337006223
 30
0.0
  0
SPLINE
  5
393
330
1F
100
AcDbEntity
  8
0
  6
Continuous
 62
     7
370
    30
100
AcDbSpline
210
0.0
220
0.0
230
1.0
 70
     8
 71
     3
 72
    12
 73
     8
 74
     0
 42
0.000000001
 43
0.00000001
 40
0.0
 40
0.0
 40
0.0
 40
0.0
 40
0.2173809039949857
 40
0.430772980138258
 40
0.7026954870875373
 40
0.9676556255359299
 40
1.0
 40
1.0
 40
1.0
 40
1.0
 10
361.7900577712256
 20
191.0502228453798
 30
0.0
 10
361.9084834005575
 20
191.2272078711733
 30
0.0
 10
362.1431616097956
 20
191.5779303385096
 30
0.0
 10
362.6146475697313
 20
191.9943052001578
 30
0.0
 10
363.1013945884314
 20
192.2118644611499
 30
0.0
 10
363.46580416566
 20
192.2366460010971
 30
0.0
 10
363.5756862922057
 20
192.1174991750349
 30
0.0
 10
363.5876405966092
 20
192.1045369447592
 30
0.0
  0
LINE
  5
394
330
1F
100
AcDbEntity
  8
0
  6
Continuous
 62
     7
370
    30
100
AcDbLine
 10
361.7900577712
 20
191.0502228454
 30
0.0
 11
361.803927481
 21
191.0422160324
 31
0.0
  0
LWPOLYLINE
  5
395
330
1F
100
AcDbEntity
  8
0
  6
Continuous
 62
     7
370
    30
100
AcDbPolyline
 90
        9
 70
   128
 43
0.0
 10
363.9997692353
 20
189.9725032618
 10
364.1282321901
 20
190.4366856582
 10
364.1358532181
 20
190.8582733667
 10
364.0217477489
 20
191.1883328243
 10
363.7991599713
 20
191.3885541255
 10
363.4939255838
 20
191.4356976421
 10
363.1414730534
 20
191.3242914398
 10
362.7827114428
 20
191.0672664041
 10
362.4592821082
 20
190.6944553563
  0
ARC
  5
396
330
1F
100
AcDbEntity
  8
0
  6
Continuous
 62
     7
370
    30
100
AcDbCircle
 10
364.1070765789
 20
189.5987327705
 30
0.0
 40
2.18863838763513
100
AcDbArc
 50
118.5359809122
 51
146.9229908445
  0
SPLINE
  5
397
330
1F
100
AcDbEntity
  8
0
  6
Continuous
 62
     7
370
    30
100
AcDbSpline
210
0.0
220
0.0
230
1.0
 70
     8
 71
     3
 72
    12
 73
     8
 74
     0
 42
0.000000001
 43
0.00000001
 40
0.0
 40
0.0
 40
0.0
 40
0.0
 40
0.1661154793266615
 40
0.3947075442633634
 40
0.6233203296820181
 40
0.8495906472605432
 40
1.0
 40
1.0
 40
1.0
 40
1.0
 10
364.1326795085442
 20
190.8823821134254
 30
0.0
 10
364.1316031489096
 20
190.9930909441776
 30
0.0
 10
364.1290456071932
 20
191.2561465660354
 30
0.0
 10
363.9642131760367
 20
191.5366378656047
 30
0.0
 10
363.6862940345652
 20
191.6966673459269
 30
0.0
 10
363.3636440207499
 20
191.6780574031875
 30
0.0
 10
363.1477486261061
 20
191.5661674428881
 30
0.0
 10
363.0615409299479
 20
191.5214894370577
 30
0.0
  0
LINE
  5
398
330
1F
100
AcDbEntity
  8
0
  6
Continuous
 62
     7
370
    30
100
AcDbLine
 10
362.4592821082
 20
190.6944553563
 30
0.0
 11
362.2731337843
 21
190.7932166834
 31
0.0
  0
LINE
  5
399
330
1F
100
AcDbEntity
  8
0
  6
Continuous
 62
     7
370
    30
100
AcDbLine
 10
361.8160254772
 20
189.5311028234
 30
0.0
 11
361.9502828607
 21
190.2876357054
 31
0.0
  0
SPLINE
  5
39A
330
1F
100
AcDbEntity
  8
0
  6
Continuous
 62
     7
370
    30
100
AcDbSpline
210
0.0
220
0.0
230
1.0
 70
     8
 71
     3
 72
    12
 73
     8
 74
     0
 42
0.000000001
 43
0.00000001
 40
0.0
 40
0.0
 40
0.0
 40
0.0
 40
0.2173809039949868
 40
0.4307729801382581
 40
0.7026954870875379
 40
0.9676556255359263
 40
1.0
 40
1.0
 40
1.0
 40
1.0
 10
361.295083024395
 20
191.3359656845177
 30
0.0
 10
361.413508653727
 20
191.5129507103113
 30
0.0
 10
361.648186862965
 20
191.8636731776476
 30
0.0
 10
362.1196728229007
 20
192.2800480392958
 30
0.0
 10
362.6064198416009
 20
192.4976073002878
 30
0.0
 10
362.9708294188294
 20
192.5223888402351
 30
0.0
 10
363.080711545375
 20
192.4032420141728
 30
0.0
 10
363.0926658497786
 20
192.3902797838971
 30
0.0
  0
LINE
  5
39B
330
1F
100
AcDbEntity
  8
0
  6
Continuous
 62
     7
370
    30
100
AcDbLine
 10
361.2950830244
 20
191.3359656845
 30
0.0
 11
361.3569548677
 21
191.3002478296
 31
0.0
  0
LINE
  5
39C
330
1F
100
AcDbEntity
  8
0
  6
Continuous
 62
     7
370
    30
100
AcDbLine
 10
362.2051015409
 20
190.8324908615
 30
0.0
 11
362.2731337843
 21
190.7932166834
 31
0.0
  0
SPLINE
  5
39D
330
1F
100
AcDbEntity
  8
0
  6
Continuous
 62
     7
370
    30
100
AcDbSpline
210
0.0
220
0.0
230
1.0
 70
     8
 71
     3
 72
    10
 73
     6
 74
     0
 42
0.000000001
 43
0.00000001
 40
0.0
 40
0.0
 40
0.0
 40
0.0
 40
0.1102946109378923
 40
0.5520308025507948
 40
1.0
 40
1.0
 40
1.0
 40
1.0
 10
361.3552359749896
 20
189.5909952081135
 30
0.0
 10
361.3453545285124
 20
189.6196613242229
 30
0.0
 10
361.2958973267251
 20
189.763136866204
 30
0.0
 10
361.3278940425097
 20
190.1119141555691
 30
0.0
 10
361.412638857926
 20
190.4188403376725
 30
0.0
 10
361.4553081138579
 20
190.5733785445479
 30
0.0
  0
SPLINE
  5
39E
330
1F
100
AcDbEntity
  8
0
  6
Continuous
 62
     7
370
    30
100
AcDbSpline
210
0.0
220
0.0
230
1.0
 70
     8
 71
     3
 72
    12
 73
     8
 74
     0
 42
0.000000001
 43
0.00000001
 40
0.0
 40
0.0
 40
0.0
 40
0.0
 40
0.14872193953628
 40
0.3818159729984658
 40
0.6210350280047451
 40
0.8087629633401726
 40
0.9999999999999999
 40
0.9999999999999999
 40
0.9999999999999999
 40
0.9999999999999999
 10
361.7622232518245
 20
188.6347245293729
 30
0.0
 10
361.6497562899659
 20
188.6404417016418
 30
0.0
 10
361.3610182422638
 20
188.6551194801826
 30
0.0
 10
361.0434218208354
 20
188.9944659605558
 30
0.0
 10
360.8801748526596
 20
189.5321372972818
 30
0.0
 10
360.9048846248213
 20
190.1546476574047
 30
0.0
 10
361.0322577939409
 20
190.5560613568943
 30
0.0
 10
361.0965340970623
 20
190.7586266915238
 30
0.0
  0
LINE
  5
39F
330
1F
100
AcDbEntity
  8
0
  6
Continuous
 62
     7
370
    30
100
AcDbLine
 10
362.4592821082
 20
190.6944553563
 30
0.0
 11
363.9997692353
 21
189.9725032618
 31
0.0
  0
SPLINE
  5
3A0
330
1F
100
AcDbEntity
  8
0
  6
Continuous
 62
     7
370
    30
100
AcDbSpline
210
0.0
220
0.0
230
1.0
 70
     8
 71
     3
 72
    11
 73
     7
 74
     0
 42
0.000000001
 43
0.00000001
 40
0.0
 40
0.0
 40
0.0
 40
0.0
 40
0.2487041225236449
 40
0.5394335525798521
 40
0.7675844231042122
 40
1.0
 40
1.0
 40
1.0
 40
1.0
 10
361.3329337421171
 20
188.7586066945347
 30
0.0
 10
361.2160732817032
 20
188.8445224013385
 30
0.0
 10
360.9626056162801
 20
189.0308716040509
 30
0.0
 10
360.8208846368889
 20
189.5727317040518
 30
0.0
 10
360.8424208096542
 20
190.1892473102461
 30
0.0
 10
360.9701874122907
 20
190.5914041839134
 30
0.0
 10
361.0346622537085
 20
190.794344546416
 30
0.0
  0
LINE
  5
3A1
330
1F
100
AcDbEntity
  8
0
  6
Continuous
 62
     7
370
    30
100
AcDbLine
 10
361.3052420751
 20
191.3351606467
 30
0.0
 11
361.0541335158
 21
190.7918256462
 31
0.0
  0
ARC
  5
3A2
330
1F
100
AcDbEntity
  8
0
  6
Continuous
 62
     7
370
    30
100
AcDbCircle
 10
387.9360648489
 20
190.7884889895
 30
0.0
 40
2.183076584171334
100
AcDbArc
 50
290.7834207995
 51
69.2165792005
  0
LINE
  5
3A3
330
1F
100
AcDbEntity
  8
0
  6
Continuous
 62
     7
370
    30
100
AcDbLine
 10
349.8198270176
 20
166.2962456348
 30
0.0
 11
388.7106999828
 21
188.74746871
 31
0.0
  0
ARC
  5
3A4
330
1F
100
AcDbEntity
  8
0
  6
Continuous
 62
     7
370
    30
100
AcDbCircle
 10
346.2842931116
 20
173.1198010596
 30
0.0
 40
7.685109539558428
100
AcDbArc
 50
242.6096722366
 51
297.3903277634
  0
LINE
  5
3A5
330
1F
100
AcDbEntity
  8
0
  6
Continuous
 62
     7
370
    30
100
AcDbLine
 10
303.8578862405
 20
188.74746871
 30
0.0
 11
342.7487592057
 21
166.2962456348
 31
0.0
  0
ARC
  5
3A6
330
1F
100
AcDbEntity
  8
0
  6
Continuous
 62
     7
370
    30
100
AcDbCircle
 10
304.6325213744
 20
190.7884889895
 30
0.0
 40
2.183076584171395
100
AcDbArc
 50
110.7834207995
 51
249.2165792005
  0
LINE
  5
3A7
330
1F
100
AcDbEntity
  8
0
  6
Continuous
 62
     7
370
    30
100
AcDbLine
 10
322.5962159419
 20
203.6469167507
 30
0.0
 11
303.8578862405
 21
192.8295092691
 31
0.0
  0
LINE
  5
3A8
330
1F
100
AcDbEntity
  8
0
  6
Continuous
 62
     7
370
    30
100
AcDbLine
 10
388.7106999828
 20
192.8295092691
 30
0.0
 11
372.093690625
 21
202.422304583
 31
0.0
  0
LWPOLYLINE
  5
3A9
330
1F
100
AcDbEntity
  8
0
  6
Continuous
 62
     7
370
    30
100
AcDbPolyline
 90
       38
 70
   128
 43
0.0
 10
307.0398667558
 20
188.543366682
 10
307.7530666795
 20
188.1962332109
 10
308.5576311007
 20
187.9236742188
 10
309.4304141657
 20
187.7335307317
 10
310.3463074949
 20
187.6312728315
 10
311.2789625047
 20
187.6198422919
 10
312.2015484085
 20
187.6995679486
 10
313.0875240898
 20
187.8681562397
 10
313.9114016412
 20
188.1207571869
 10
314.6494796056
 20
188.450103921
 10
315.2805248237
 20
188.846721736
 10
315.7863832737
 20
189.2992006596
 10
316.1525023288
 20
189.7945236968
 10
316.3683494105
 20
190.3184413059
 10
316.4277149913
 20
190.8558813309
 10
316.3288912314
 20
191.391382601
 10
316.0747211105
 20
191.9095397196
 10
315.6725166402
 20
192.3954462498
 10
315.1338485108
 20
192.8351235453
 10
314.4742132238
 20
193.215922891
 10
313.7125872851
 20
193.526889383
 10
312.8708812866
 20
193.7590770814
 10
311.9733095771
 20
193.905806369
 10
311.0456936607
 20
193.9628561113
 10
310.1147193582
 20
193.928585091
 10
309.2071691055
 20
193.803979223
 10
308.3491514708
 20
193.5926231913
 10
307.5653500593
 20
193.3005973241
 10
306.8783134107
 20
192.9363026739
 10
306.3078063183
 20
192.5102193345
 10
305.8702412325
 20
192.0346049478
 10
305.5782061042
 20
191.5231420738
 10
305.4401022522
 20
190.9905445682
 10
305.459902673
 20
190.4521342914
 10
305.6370377446
 20
189.9234003269
 10
305.9664116133
 20
189.4195533881
 10
306.4385487927
 20
188.9550882342
 10
307.0398667558
 20
188.543366682
  0
LWPOLYLINE
  5
3AA
330
1F
100
AcDbEntity
  8
0
  6
Continuous
 62
     7
370
    30
100
AcDbPolyline
 90
       38
 70
   128
 43
0.0
 10
377.7505448744
 20
188.543366682
 10
378.4637447982
 20
188.1962332109
 10
379.2683092193
 20
187.9236742188
 10
380.1410922844
 20
187.7335307317
 10
381.0569856135
 20
187.6312728315
 10
381.9896406233
 20
187.6198422919
 10
382.9122265272
 20
187.6995679486
 10
383.7982022085
 20
187.8681562397
 10
384.6220797598
 20
188.1207571869
 10
385.3601577242
 20
188.450103921
 10
385.9912029424
 20
188.846721736
 10
386.4970613923
 20
189.2992006596
 10
386.8631804475
 20
189.7945236968
 10
387.0790275292
 20
190.3184413059
 10
387.1383931099
 20
190.8558813309
 10
387.03956935
 20
191.391382601
 10
386.7853992291
 20
191.9095397196
 10
386.3831947589
 20
192.3954462498
 10
385.8445266295
 20
192.8351235453
 10
385.1848913424
 20
193.215922891
 10
384.4232654038
 20
193.526889383
 10
383.5815594052
 20
193.7590770814
 10
382.6839876958
 20
193.905806369
 10
381.7563717793
 20
193.9628561113
 10
380.8253974769
 20
193.928585091
 10
379.9178472241
 20
193.803979223
 10
379.0598295894
 20
193.5926231913
 10
378.276028178
 20
193.3005973241
 10
377.5889915293
 20
192.9363026739
 10
377.0184844369
 20
192.5102193345
 10
376.5809193512
 20
192.0346049478
 10
376.2888842228
 20
191.5231420738
 10
376.1507803709
 20
190.9905445682
 10
376.1705807917
 20
190.4521342914
 10
376.3477158632
 20
189.9234003269
 10
376.677089732
 20
189.4195533881
 10
377.1492269114
 20
188.9550882342
 10
377.7505448744
 20
188.543366682
  0
LWPOLYLINE
  5
3AB
330
1F
100
AcDbEntity
  8
0
  6
Continuous
 62
     7
370
    30
100
AcDbPolyline
 90
       38
 70
   128
 43
0.0
 10
342.3952058151
 20
168.1331638864
 10
343.1084057389
 20
167.7860304153
 10
343.91297016
 20
167.5134714232
 10
344.785753225
 20
167.3233279361
 10
345.7016465542
 20
167.2210700359
 10
346.634301564
 20
167.2096394963
 10
347.5568874679
 20
167.289365153
 10
348.4428631491
 20
167.4579534441
 10
349.2667407005
 20
167.7105543914
 10
350.0048186649
 20
168.0399011254
 10
350.635863883
 20
168.4365189405
 10
351.141722333
 20
168.888997864
 10
351.5078413881
 20
169.3843209013
 10
351.7236884699
 20
169.9082385103
 10
351.7830540506
 20
170.4456785353
 10
351.6842302907
 20
170.9811798054
 10
351.4300601698
 20
171.499336924
 10
351.0278556995
 20
171.9852434542
 10
350.4891875702
 20
172.4249207498
 10
349.8295522831
 20
172.8057200955
 10
349.0679263445
 20
173.1166865874
 10
348.2262203459
 20
173.3488742859
 10
347.3286486364
 20
173.4956035734
 10
346.40103272
 20
173.5526533157
 10
345.4700584175
 20
173.5183822954
 10
344.5625081648
 20
173.3937764274
 10
343.7044905301
 20
173.1824203957
 10
342.9206891187
 20
172.8903945285
 10
342.23365247
 20
172.5260998783
 10
341.6631453776
 20
172.1000165389
 10
341.2255802918
 20
171.6244021523
 10
340.9335451635
 20
171.1129392783
 10
340.7954413116
 20
170.5803417726
 10
340.8152417324
 20
170.0419314958
 10
340.9923768039
 20
169.5131975313
 10
341.3217506726
 20
169.0093505926
 10
341.793887852
 20
168.5448854387
 10
342.3952058151
 20
168.1331638864
  0
LINE
  5
3AC
330
1F
100
AcDbEntity
  8
0
  6
Continuous
 62
     7
370
    30
100
AcDbLine
 10
349.8198270176
 20
166.2962456348
 30
0.0
 11
349.8198270176
 21
158.130837516
 31
0.0
  0
ARC
  5
3AD
330
1F
100
AcDbEntity
  8
0
  6
Continuous
 62
     7
370
    30
100
AcDbCircle
 10
346.2842931116
 20
164.9543929407
 30
0.0
 40
7.685109539558605
100
AcDbArc
 50
242.6096722366
 51
297.3903277634
  0
LINE
  5
3AE
330
1F
100
AcDbEntity
  8
0
  6
Continuous
 62
     7
370
    30
100
AcDbLine
 10
342.7487592057
 20
158.130837516
 30
0.0
 11
342.7487592057
 21
166.2962456348
 31
0.0
  0
ARC
  5
3AF
330
1F
100
AcDbEntity
  8
0
  6
Continuous
 62
     7
370
    30
100
AcDbCircle
 10
346.2842931116
 20
159.4841703819
 30
0.0
 40
8.8510660552205
100
AcDbArc
 50
69.3276398296
 51
110.6723601704
  0
LINE
  5
3B0
330
1F
100
AcDbEntity
  8
0
  6
Continuous
 62
     7
370
    30
100
AcDbLine
 10
388.7106999828
 20
180.5820605911
 30
0.0
 11
388.7106999828
 21
188.74746871
 31
0.0
  0
LINE
  5
3B1
330
1F
100
AcDbEntity
  8
0
  6
Continuous
 62
     7
370
    30
100
AcDbLine
 10
349.8198270176
 20
158.130837516
 30
0.0
 11
388.7106999828
 21
180.5820605911
 31
0.0
  0
LINE
  5
3B2
330
1F
100
AcDbEntity
  8
0
  6
Continuous
 62
     7
370
    30
100
AcDbLine
 10
303.8578862405
 20
180.5820605911
 30
0.0
 11
342.7487592057
 21
158.130837516
 31
0.0
  0
LINE
  5
3B3
330
1F
100
AcDbEntity
  8
0
  6
Continuous
 62
     7
370
    30
100
AcDbLine
 10
303.8578862405
 20
188.74746871
 30
0.0
 11
303.8578862405
 21
180.5820605911
 31
0.0
  0
ARC
  5
3B4
330
1F
100
AcDbEntity
  8
0
  6
Continuous
 62
     7
370
    30
100
AcDbCircle
 10
381.639632171
 20
179.8943731775
 30
0.0
 40
8.851066055220505
100
AcDbArc
 50
69.3276398296
 51
110.6723601704
  0
ARC
  5
3B5
330
1F
100
AcDbEntity
  8
0
  6
Continuous
 62
     7
370
    30
100
AcDbCircle
 10
310.9289540523
 20
179.8943731775
 30
0.0
 40
8.851066055220619
100
AcDbArc
 50
69.3276398296
 51
110.6723601704
  0
ARC
  5
3B6
330
1F
100
AcDbEntity
  8
0
  6
Continuous
 62
     7
370
    30
100
AcDbCircle
 10
387.6728807645
 20
182.8726127551
 30
0.0
 40
2.514696392468775
100
AcDbArc
 50
294.3746582936
 51
354.3052007488
  0
ARC
  5
3B7
330
1F
100
AcDbEntity
  8
0
  6
Continuous
 62
     7
370
    30
100
AcDbCircle
 10
304.8957054588
 20
182.8726127551
 30
0.0
 40
2.51469639246902
100
AcDbArc
 50
185.6947992512
 51
245.6253417064
  0
LINE
  5
3B8
330
1F
100
AcDbEntity
  8
0
  6
Continuous
 62
     7
370
    30
100
AcDbLine
 10
358.0929763575
 20
209.8549359021
 30
0.0
 11
366.2247043411
 21
214.5492825451
 31
0.0
  0
LINE
  5
3B9
330
1F
100
AcDbEntity
  8
0
  6
Continuous
 62
     7
370
    30
100
AcDbLine
 10
354.2042338632
 20
243.9460787736
 30
0.0
 11
366.2247043411
 21
250.885348674
 31
0.0
  0
LINE
  5
3BA
330
1F
100
AcDbEntity
  8
0
  6
Continuous
 62
     7
370
    30
100
AcDbLine
 10
366.2247043411
 20
214.5492825451
 30
0.0
 11
366.2247043411
 21
250.885348674
 31
0.0
  0
LINE
  5
3BB
330
1F
100
AcDbEntity
  8
0
  6
Continuous
 62
     7
370
    30
100
AcDbLine
 10
336.5265643335
 20
254.1511801714
 30
0.0
 11
348.5470348114
 21
261.0904500718
 31
0.0
  0
LINE
  5
3BC
330
1F
100
AcDbEntity
  8
0
  6
Continuous
 62
     7
370
    30
100
AcDbLine
 10
366.2247043411
 20
250.885348674
 30
0.0
 11
348.5470348114
 21
261.0904500718
 31
0.0
  0
LINE
  5
3BD
330
1F
100
AcDbEntity
  8
0
  6
Continuous
 62
     7
370
    30
100
AcDbLine
 10
353.8503356703
 20
187.809860032
 30
0.0
 11
358.0929763575
 21
190.2590843674
 31
0.0
  0
LINE
  5
3BE
330
1F
100
AcDbEntity
  8
0
  6
Continuous
 62
     7
370
    30
100
AcDbLine
 10
353.8503356703
 20
187.809860032
 30
0.0
 11
353.8503356703
 21
239.2519311808
 31
0.0
  0
LINE
  5
3BF
330
1F
100
AcDbEntity
  8
0
  6
Continuous
 62
     7
370
    30
100
AcDbLine
 10
353.8503356703
 20
239.2519311808
 30
0.0
 11
358.0929763575
 21
241.7011555162
 31
0.0
  0
LINE
  5
3C0
330
1F
100
AcDbEntity
  8
0
  6
Continuous
 62
     7
370
    30
100
AcDbLine
 10
358.0929763575
 20
190.2590843674
 30
0.0
 11
358.0929763575
 21
241.7011555162
 31
0.0
  0
LINE
  5
3C1
330
1F
100
AcDbEntity
  8
0
  6
Continuous
 62
     7
370
    30
100
AcDbLine
 10
353.8503356703
 20
239.2519311808
 30
0.0
 11
327.6873847664
 21
254.3554812495
 31
0.0
  0
LINE
  5
3C2
330
1F
100
AcDbEntity
  8
0
  6
Continuous
 62
     7
370
    30
100
AcDbLine
 10
327.6873847664
 20
254.3554812495
 30
0.0
 11
331.9300254536
 21
256.8047055849
 31
0.0
  0
LINE
  5
3C3
330
1F
100
AcDbEntity
  8
0
  6
Continuous
 62
     7
370
    30
100
AcDbLine
 10
358.0929763575
 20
241.7011555162
 30
0.0
 11
331.9300254536
 21
256.8047055849
 31
0.0
  0
LINE
  5
3C4
330
1F
100
AcDbEntity
  8
0
  6
Continuous
 62
     7
370
    30
100
AcDbLine
 10
327.6873847664
 20
254.3554812495
 30
0.0
 11
327.6873847664
 21
214.7533845731
 31
0.0
  0
LINE
  5
3C5
330
1F
100
AcDbEntity
  8
0
  6
Continuous
 62
     7
370
    30
100
AcDbLine
 10
353.0018075329
 20
188.299704899
 30
0.0
 11
353.8503356703
 21
187.809860032
 31
0.0
  0
LWPOLYLINE
  5
3C6
330
1F
100
AcDbEntity
  8
0
  6
Continuous
 62
     7
370
    30
100
AcDbPolyline
 90
       29
 70
   128
 43
0.0
 10
344.8347242102
 20
240.3738288342
 10
344.7771061194
 20
240.9976076782
 10
344.6071410588
 20
241.656632078
 10
344.3333517861
 20
242.3178557981
 10
343.9694672388
 20
242.9481223203
 10
343.5337341074
 20
243.5158274494
 10
343.0480018708
 20
243.9925040797
 10
342.5366271714
 20
244.3542496545
 10
342.0252524719
 20
244.5829247402
 10
341.5395202353
 20
244.6670626131
 10
341.1037871039
 20
244.6024442489
 10
340.7399025566
 20
244.3923098823
 10
340.4661132839
 20
244.0471965278
 10
340.2961482233
 20
243.5844096101
 10
340.2385301325
 20
243.0271551976
 10
340.2961482233
 20
242.4033763536
 10
340.4661132839
 20
241.7443519539
 10
340.7399025566
 20
241.0831282337
 10
341.1037871039
 20
240.4528617115
 10
341.5395202353
 20
239.8851565824
 10
342.0252524719
 20
239.4084799521
 10
342.5366271714
 20
239.0467343773
 10
343.0480018708
 20
238.8180592916
 10
343.5337341074
 20
238.7339214187
 10
343.9694672388
 20
238.7985397829
 10
344.3333517861
 20
239.0086741495
 10
344.6071410588
 20
239.353787504
 10
344.7771061194
 20
239.8165744218
 10
344.8347242102
 20
240.3738288342
  0
LWPOLYLINE
  5
3C7
330
1F
100
AcDbEntity
  8
0
  6
Continuous
 62
     7
370
    30
100
AcDbPolyline
 90
       29
 70
   128
 43
0.0
 10
337.7636563983
 20
244.4558693933
 10
337.7060383076
 20
245.0796482373
 10
337.5360732469
 20
245.7386726371
 10
337.2622839742
 20
246.3998963572
 10
336.8983994269
 20
247.0301628794
 10
336.4626662956
 20
247.5978680086
 10
335.9769340589
 20
248.0745446388
 10
335.4655593595
 20
248.4362902137
 10
334.9541846601
 20
248.6649652993
 10
334.4684524234
 20
248.7491031722
 10
334.0327192921
 20
248.684484808
 10
333.6688347447
 20
248.4743504414
 10
333.3950454721
 20
248.1292370869
 10
333.2250804114
 20
247.6664501692
 10
333.1674623206
 20
247.1091957567
 10
333.2250804114
 20
246.4854169127
 10
333.3950454721
 20
245.826392513
 10
333.6688347447
 20
245.1651687928
 10
334.0327192921
 20
244.5349022706
 10
334.4684524234
 20
243.9671971415
 10
334.9541846601
 20
243.4905205112
 10
335.4655593595
 20
243.1287749364
 10
335.9769340589
 20
242.9000998507
 10
336.4626662956
 20
242.8159619778
 10
336.8983994269
 20
242.880580342
 10
337.2622839742
 20
243.0907147086
 10
337.5360732469
 20
243.4358280631
 10
337.7060383076
 20
243.8986149809
 10
337.7636563983
 20
244.4558693933
  0
LINE
  5
3C8
330
1F
100
AcDbEntity
  8
0
  6
Continuous
 62
     7
370
    30
100
AcDbLine
 10
345.9307397211
 20
204.87484642
 30
0.0
 11
340.2738854716
 21
201.6092139727
 31
0.0
  0
LINE
  5
3C9
330
1F
100
AcDbEntity
  8
0
  6
Continuous
 62
     7
370
    30
100
AcDbLine
 10
322.5962159419
 20
211.8143153705
 30
0.0
 11
340.2738854716
 21
201.6092139727
 31
0.0
  0
LINE
  5
3CA
330
1F
100
AcDbEntity
  8
0
  6
Continuous
 62
     7
370
    30
100
AcDbLine
 10
328.2530701914
 20
215.0799478178
 30
0.0
 11
322.5962159419
 21
211.8143153705
 31
0.0
  0
LINE
  5
3CB
330
1F
100
AcDbEntity
  8
0
  6
Continuous
 62
     7
370
    30
100
AcDbLine
 10
328.2530701914
 20
215.0799478178
 30
0.0
 11
345.9307397211
 21
204.87484642
 31
0.0
  0
LINE
  5
3CC
330
1F
100
AcDbEntity
  8
0
  6
Continuous
 62
     7
370
    30
100
AcDbLine
 10
322.5962159419
 20
191.4007950734
 30
0.0
 11
340.2738854716
 21
181.1956936756
 31
0.0
  0
LINE
  5
3CD
330
1F
100
AcDbEntity
  8
0
  6
Continuous
 62
     7
370
    30
100
AcDbLine
 10
322.5962159419
 20
211.8143153705
 30
0.0
 11
322.5962159419
 21
191.4007950734
 31
0.0
  0
LINE
  5
3CE
330
1F
100
AcDbEntity
  8
0
  6
Continuous
 62
     7
370
    30
100
AcDbLine
 10
340.2738854716
 20
201.6092139727
 30
0.0
 11
340.2738854716
 21
181.1956936756
 31
0.0
  0
LWPOLYLINE
  5
3CF
330
1F
100
AcDbEntity
  8
0
  6
Continuous
 62
     7
370
    30
100
AcDbPolyline
 90
       34
 70
   128
 43
0.0
 10
338.659136426
 20
193.96771023
 10
338.6052578303
 20
194.6503797275
 10
338.4455693558
 20
195.3705826732
 10
338.1858425601
 20
196.1022890563
 10
337.8354646464
 20
196.8190531016
 10
337.4070991853
 20
197.4949690889
 10
336.9162284207
 20
198.1056076535
 10
336.3805937009
 20
198.6288987265
 10
335.8195542604
 20
199.0459292053
 10
335.2533875263
 20
199.3416265217
 10
334.7025562394
 20
199.5053034042
 10
334.1869688777
 20
199.531044144
 10
333.7252601118
 20
199.4179184035
 10
333.3341172995
 20
199.1700148419
 10
333.027677361
 20
198.7962933397
 10
332.8170158342
 20
198.3102611657
 10
332.7097465756
 20
197.729484789
 10
332.7097465756
 20
197.0749549812
 10
332.8170158342
 20
196.3703281547
 10
333.027677361
 20
195.6410713591
 10
333.3341172995
 20
194.9135418349
 10
333.7252601118
 20
194.2140343948
 10
334.1869688777
 20
193.5678310601
 10
334.7025562394
 20
192.998287303
 10
335.2533875263
 20
192.5259879189
 10
335.8195542604
 20
192.1680030381
 10
336.3805937009
 20
191.9372711669
 10
336.9162284207
 20
191.8421315562
 10
337.4070991853
 20
191.8860227995
 10
337.8354646464
 20
192.0673585528
 10
338.1858425601
 20
192.3795848697
 10
338.4455693558
 20
192.8114170775
 10
338.6052578303
 20
193.3472476351
 10
338.659136426
 20
193.96771023
  0
LINE
  5
3D0
330
1F
100
AcDbEntity
  8
0
  6
Continuous
 62
     7
370
    30
100
AcDbLine
 10
335.6261923738
 20
190.123973884
 30
0.0
 11
335.4352245576
 21
190.2061155968
 31
0.0
  0
LINE
  5
3D1
330
1F
100
AcDbEntity
  8
0
  6
Continuous
 62
     7
370
    30
100
AcDbLine
 10
347.3449532834
 20
197.5271734136
 30
0.0
 11
340.2738854716
 21
201.6092139727
 31
0.0
  0
LINE
  5
3D2
330
1F
100
AcDbEntity
  8
0
  6
Continuous
 62
     7
370
    30
100
AcDbLine
 10
347.3449532834
 20
197.5271734136
 30
0.0
 11
347.3449532834
 21
177.1136531165
 31
0.0
  0
LINE
  5
3D3
330
1F
100
AcDbEntity
  8
0
  6
Continuous
 62
     7
370
    30
100
AcDbLine
 10
347.3449532834
 20
177.1136531165
 30
0.0
 11
340.2738854716
 21
181.1956936756
 31
0.0
  0
LINE
  5
3D4
330
1F
100
AcDbEntity
  8
0
  6
Continuous
 62
     7
370
    30
100
AcDbLine
 10
345.9307397211
 20
204.87484642
 30
0.0
 11
353.0018075329
 21
200.7928058609
 31
0.0
  0
LINE
  5
3D5
330
1F
100
AcDbEntity
  8
0
  6
Continuous
 62
     7
370
    30
100
AcDbLine
 10
353.0018075329
 20
200.7928058609
 30
0.0
 11
347.3449532834
 21
197.5271734136
 31
0.0
  0
LINE
  5
3D6
330
1F
100
AcDbEntity
  8
0
  6
Continuous
 62
     7
370
    30
100
AcDbLine
 10
372.093690625
 20
211.8143153705
 30
0.0
 11
358.0929763575
 21
203.7318750635
 31
0.0
  0
LINE
  5
3D7
330
1F
100
AcDbEntity
  8
0
  6
Continuous
 62
     7
370
    30
100
AcDbLine
 10
372.093690625
 20
191.4007950734
 30
0.0
 11
372.093690625
 21
211.8143153705
 31
0.0
  0
LINE
  5
3D8
330
1F
100
AcDbEntity
  8
0
  6
Continuous
 62
     7
370
    30
100
AcDbLine
 10
347.3449532834
 20
177.1136531165
 30
0.0
 11
372.093690625
 21
191.4007950734
 31
0.0
  0
LINE
  5
3D9
330
1F
100
AcDbEntity
  8
0
  6
Continuous
 62
     7
370
    30
100
AcDbLine
 10
353.0018075329
 20
200.7928058609
 30
0.0
 11
353.0018075329
 21
188.1364232767
 31
0.0
  0
LINE
  5
3DA
330
1F
100
AcDbEntity
  8
0
  6
Continuous
 62
     7
370
    30
100
AcDbLine
 10
353.0018075329
 20
188.1364232767
 30
0.0
 11
353.1432288892
 21
188.2180640879
 31
0.0
  0
LWPOLYLINE
  5
3DB
330
1F
100
AcDbEntity
  8
0
  6
Continuous
 62
     7
370
    30
100
AcDbPolyline
 90
       29
 70
   128
 43
0.0
 10
371.5633605391
 20
197.6269685265
 10
371.5057424483
 20
198.184222939
 10
371.3357773876
 20
198.6470098567
 10
371.061988115
 20
198.9921232112
 10
370.6981035676
 20
199.2022575778
 10
370.2623704363
 20
199.266875942
 10
369.7766381996
 20
199.1827380691
 10
369.2652635002
 20
198.9540629834
 10
368.7538888008
 20
198.5923174086
 10
368.2681565641
 20
198.1156407783
 10
367.8324234328
 20
197.5479356492
 10
367.4685388855
 20
196.917669127
 10
367.1947496128
 20
196.2564454069
 10
367.0247845521
 20
195.5974210071
 10
366.9671664614
 20
194.9736421631
 10
367.0247845521
 20
194.4163877507
 10
367.1947496128
 20
193.9536008329
 10
367.4685388855
 20
193.6084874784
 10
367.8324234328
 20
193.3983531118
 10
368.2681565641
 20
193.3337347476
 10
368.7538888008
 20
193.4178726205
 10
369.2652635002
 20
193.6465477062
 10
369.7766381996
 20
194.008293281
 10
370.2623704363
 20
194.4849699113
 10
370.6981035676
 20
195.0526750404
 10
371.061988115
 20
195.6829415626
 10
371.3357773876
 20
196.3441652828
 10
371.5057424483
 20
197.0031896825
 10
371.5633605391
 20
197.6269685265
  0
LWPOLYLINE
  5
3DC
330
1F
100
AcDbEntity
  8
0
  6
Continuous
 62
     7
370
    30
100
AcDbPolyline
 90
       29
 70
   128
 43
0.0
 10
352.471477447
 20
197.2204895714
 10
352.4138593563
 20
197.7777439839
 10
352.2438942956
 20
198.2405309016
 10
351.9701050229
 20
198.5856442561
 10
351.6062204756
 20
198.7957786227
 10
351.1704873442
 20
198.8603969869
 10
350.6847551076
 20
198.776259114
 10
350.1733804082
 20
198.5475840284
 10
349.6620057088
 20
198.1858384535
 10
349.1762734721
 20
197.7091618233
 10
348.7405403408
 20
197.1414566941
 10
348.3766557934
 20
196.5111901719
 10
348.1028665207
 20
195.8499664518
 10
347.9329014601
 20
195.1909420521
 10
347.8752833693
 20
194.567163208
 10
347.9329014601
 20
194.0099087956
 10
348.1028665207
 20
193.5471218778
 10
348.3766557934
 20
193.2020085233
 10
348.7405403408
 20
192.9918741567
 10
349.1762734721
 20
192.9272557925
 10
349.6620057088
 20
193.0113936654
 10
350.1733804082
 20
193.2400687511
 10
350.6847551076
 20
193.6018143259
 10
351.1704873442
 20
194.0784909562
 10
351.6062204756
 20
194.6461960853
 10
351.9701050229
 20
195.2764626075
 10
352.2438942956
 20
195.9376863277
 10
352.4138593563
 20
196.5967107274
 10
352.471477447
 20
197.2204895714
  0
LWPOLYLINE
  5
3DD
330
1F
100
AcDbEntity
  8
0
  6
Continuous
 62
     7
370
    30
100
AcDbPolyline
 90
       34
 70
   128
 43
0.0
 10
365.1756407205
 20
199.2469316443
 10
365.1217621248
 20
199.8673942392
 10
364.9620736503
 20
200.4032247968
 10
364.7023468546
 20
200.8350570046
 10
364.3519689409
 20
201.1472833215
 10
363.9236034798
 20
201.3286190749
 10
363.4327327152
 20
201.3725103181
 10
362.8970979954
 20
201.2773707075
 10
362.3360585549
 20
201.0466388362
 10
361.7698918208
 20
200.6886539554
 10
361.2190605339
 20
200.2163545713
 10
360.7034731722
 20
199.6468108142
 10
360.2417644063
 20
199.0006074796
 10
359.850621594
 20
198.3011000394
 10
359.5441816555
 20
197.5735705152
 10
359.3335201287
 20
196.8443137196
 10
359.2262508701
 20
196.1396868932
 10
359.2262508701
 20
195.4851570853
 10
359.3335201287
 20
194.9043807087
 10
359.5441816555
 20
194.4183485347
 10
359.850621594
 20
194.0446270324
 10
360.2417644063
 20
193.7967234708
 10
360.7034731722
 20
193.6835977303
 10
361.2190605339
 20
193.7093384701
 10
361.7698918208
 20
193.8730153527
 10
362.3360585549
 20
194.168712669
 10
362.8970979954
 20
194.5857431478
 10
363.4327327152
 20
195.1090342209
 10
363.9236034798
 20
195.7196727854
 10
364.3519689409
 20
196.3955887728
 10
364.7023468546
 20
197.112352818
 10
364.9620736503
 20
197.8440592011
 10
365.1217621248
 20
198.5642621468
 10
365.1756407205
 20
199.2469316443
  0
LWPOLYLINE
  5
3DE
330
1F
100
AcDbEntity
  8
0
  6
Continuous
 62
     7
370
    30
100
AcDbPolyline
 90
        3
 70
   128
 43
0.0
 10
361.4824378772
 20
191.2418417285
 10
361.2502943737
 20
190.8321990993
 10
361.2024427772
 20
190.722320241
  0
LWPOLYLINE
  5
3DF
330
1F
100
AcDbEntity
  8
0
  6
Continuous
 62
     7
370
    30
100
AcDbPolyline
 90
        3
 70
   128
 43
0.0
 10
362.9021129838
 20
189.9229076919
 10
363.138097003
 20
190.3381672245
 10
363.1523828954
 20
190.3696324115
  0
LINE
  5
3E0
330
1F
100
AcDbEntity
  8
0
  6
Continuous
 62
     7
370
    30
100
AcDbLine
 10
372.093690625
 20
211.8143153705
 30
0.0
 11
366.2247043411
 21
215.2024090346
 31
0.0
  0
LWPOLYLINE
  5
3E1
330
1F
100
AcDbEntity
  8
0
  6
Continuous
 62
     8
370
    30
100
AcDbPolyline
 90
        3
 70
   128
 43
0.0
 10
369.7056077416
 20
199.159095889
 10
369.9183383502
 20
199.09285606
 10
370.0129355948
 20
199.0439526668
  0
LWPOLYLINE
  5
3E2
330
1F
100
AcDbEntity
  8
0
  6
Continuous
 62
     8
370
    30
100
AcDbPolyline
 90
        3
 70
   128
 43
0.0
 10
367.2762711066
 20
194.2735963778
 10
367.0285393481
 20
194.468257141
 10
367.0098203125
 20
194.4893491185
  0
LWPOLYLINE
  5
3E3
330
1F
100
AcDbEntity
  8
0
  6
Continuous
 62
     8
370
    30
100
AcDbPolyline
 90
        3
 70
   128
 43
0.0
 10
350.6137246496
 20
198.7526169339
 10
350.8264552582
 20
198.6863771049
 10
350.9210525028
 20
198.6374737117
  0
LWPOLYLINE
  5
3E4
330
1F
100
AcDbEntity
  8
0
  6
Continuous
 62
     8
370
    30
100
AcDbPolyline
 90
        3
 70
   128
 43
0.0
 10
348.1843880146
 20
193.8671174227
 10
347.9366562561
 20
194.0617781859
 10
347.9179372205
 20
194.0828701635
  0
LWPOLYLINE
  5
3E5
330
1F
100
AcDbEntity
  8
0
  6
Continuous
 62
     8
370
    30
100
AcDbPolyline
 90
        3
 70
   128
 43
0.0
 10
337.7210025474
 20
243.9715763489
 10
337.7022835116
 20
243.9504843712
 10
337.4500985166
 20
243.7534314146
  0
LWPOLYLINE
  5
3E6
330
1F
100
AcDbEntity
  8
0
  6
Continuous
 62
     8
370
    30
100
AcDbPolyline
 90
        3
 70
   128
 43
0.0
 10
334.7270672052
 20
248.5315505969
 10
334.8124845095
 20
248.5750832902
 10
335.0252151184
 20
248.6413231193
  0
LWPOLYLINE
  5
3E7
330
1F
100
AcDbEntity
  8
0
  6
Continuous
 62
     8
370
    30
100
AcDbPolyline
 90
        3
 70
   128
 43
0.0
 10
344.7920703591
 20
239.8895357897
 10
344.7733513235
 20
239.8684438121
 10
344.5211663284
 20
239.6713908555
  0
LWPOLYLINE
  5
3E8
330
1F
100
AcDbEntity
  8
0
  6
Continuous
 62
     8
370
    30
100
AcDbPolyline
 90
        3
 70
   128
 43
0.0
 10
341.798135017
 20
244.4495100378
 10
341.8835523213
 20
244.4930427311
 10
342.09628293
 20
244.5592825601
  0
ENDSEC
  0
SECTION
  2
OBJECTS
  0
DICTIONARY
  5
C
330
0
100
AcDbDictionary
281
     1
  3
ACAD_GROUP
350
D
  3
ACAD_LAYOUT
350
1A
  3
ACAD_MLINESTYLE
350
17
  3
ACAD_PLOTSETTINGS
350
19
  3
ACAD_PLOTSTYLENAME
350
E
  3
ACAD_SCALELIST
350
47
  0
DICTIONARY
  5
D
102
{ACAD_REACTORS
330
C
102
}
330
C
100
AcDbDictionary
281
     1
  0
DICTIONARY
  5
1A
102
{ACAD_REACTORS
330
C
102
}
330
C
100
AcDbDictionary
281
     1
  3
Layout1
350
1E
  3
Layout2
350
26
  3
Model
350
22
  0
DICTIONARY
  5
17
102
{ACAD_REACTORS
330
C
102
}
330
C
100
AcDbDictionary
281
     1
  3
Standard
350
18
  0
DICTIONARY
  5
19
102
{ACAD_REACTORS
330
C
102
}
330
C
100
AcDbDictionary
281
     1
  0
ACDBDICTIONARYWDFLT
  5
E
102
{ACAD_REACTORS
330
C
102
}
330
C
100
AcDbDictionary
281
     1
  3
Normal
350
F
100
AcDbDictionaryWithDefault
340
F
  0
DICTIONARY
  5
47
102
{ACAD_REACTORS
330
C
102
}
330
C
100
AcDbDictionary
281
     1
  3
A0
350
48
  3
A1
350
49
  3
A2
350
4A
  3
A3
350
4B
  3
A4
350
4C
  3
A5
350
4D
  3
A6
350
4E
  3
A7
350
4F
  3
A8
350
50
  3
A9
350
51
  3
B0
350
52
  3
B1
350
53
  3
B2
350
54
  3
B3
350
55
  3
B4
350
56
  3
B5
350
57
  3
B6
350
58
  3
B7
350
59
  3
B8
350
5A
  3
B9
350
5B
  3
C0
350
5C
  3
C1
350
5D
  3
C2
350
5E
  3
C3
350
5F
  3
C4
350
60
  3
C5
350
61
  3
C6
350
62
  3
C7
350
63
  3
C8
350
64
  3
C9
350
65
  3
D0
350
66
  3
D1
350
67
  3
D2
350
68
  0
LAYOUT
  5
1E
102
{ACAD_REACTORS
330
1A
102
}
330
1A
100
AcDbPlotSettings
  1

  2
none_device
  4

  6

 40
0.0
 41
0.0
 42
0.0
 43
0.0
 44
0.0
 45
0.0
 46
0.0
 47
0.0
 48
0.0
 49
0.0
140
0.0
141
0.0
142
1.0
143
1.0
 70
   688
 72
     1
 73
     0
 74
     5
  7

 75
    16
147
1.0
148
0.0
149
0.0
100
AcDbLayout
  1
Layout1
 70
     1
 71
     1
 10
0.0
 20
0.0
 11
420.0
 21
297.0
 12
0.0
 22
0.0
 32
0.0
 14
1.0000000000E+20
 24
1.0000000000E+20
 34
1.0000000000E+20
 15
-1.0000000000E+20
 25
-1.0000000000E+20
 35
-1.0000000000E+20
146
0.0
 13
0.0
 23
0.0
 33
0.0
 16
1.0
 26
0.0
 36
0.0
 17
0.0
 27
1.0
 37
0.0
 76
     0
330
1B
  0
LAYOUT
  5
26
102
{ACAD_REACTORS
330
1A
102
}
330
1A
100
AcDbPlotSettings
  1

  2
none_device
  4

  6

 40
0.0
 41
0.0
 42
0.0
 43
0.0
 44
0.0
 45
0.0
 46
0.0
 47
0.0
 48
0.0
 49
0.0
140
0.0
141
0.0
142
1.0
143
1.0
 70
   688
 72
     1
 73
     0
 74
     5
  7

 75
    16
147
1.0
148
0.0
149
0.0
100
AcDbLayout
  1
Layout2
 70
     1
 71
     2
 10
0.0
 20
0.0
 11
0.0
 21
0.0
 12
0.0
 22
0.0
 32
0.0
 14
0.0
 24
0.0
 34
0.0
 15
0.0
 25
0.0
 35
0.0
146
0.0
 13
0.0
 23
0.0
 33
0.0
 16
1.0
 26
0.0
 36
0.0
 17
0.0
 27
1.0
 37
0.0
 76
     0
330
23
  0
LAYOUT
  5
22
102
{ACAD_REACTORS
330
1A
102
}
330
1A
100
AcDbPlotSettings
  1

  2
none_device
  4
Letter_(8.50_x_11.00_Inches)
  6

 40
6.35
 41
6.35
 42
6.35000508
 43
6.35000508
 44
215.9
 45
279.4
 46
0.0
 47
0.0
 48
0.0
 49
0.0
140
0.0
141
0.0
142
1.0
143
1.0
 70
  1712
 72
     1
 73
     0
 74
     0
  7

 75
     0
147
1.0
148
0.0
149
0.0
100
AcDbLayout
  1
Model
 70
     1
 71
     0
 10
0.0
 20
0.0
 11
445.5
 21
315.0
 12
0.0
 22
0.0
 32
0.0
 14
0.0
 24
0.0
 34
0.0
 15
445.5
 25
315.0
 35
0.0
146
0.0
 13
0.0
 23
0.0
 33
0.0
 16
1.0
 26
0.0
 36
0.0
 17
0.0
 27
1.0
 37
0.0
 76
     0
330
1F
331
29
  0
MLINESTYLE
  5
18
102
{ACAD_REACTORS
330
17
102
}
330
17
100
AcDbMlineStyle
  2
Standard
 70
     0
  3

 62
   256
 51
90.0
 52
90.0
 71
     2
 49
0.5
 62
   256
  6
BYLAYER
 49
-0.5
 62
   256
  6
BYLAYER
  0
ACDBPLACEHOLDER
  5
F
102
{ACAD_REACTORS
330
E
102
}
330
E
  0
SCALE
  5
48
102
{ACAD_REACTORS
330
47
102
}
330
47
100
AcDbScale
 70
     0
300
1:1
140
1.0
141
1.0
290
     1
  0
SCALE
  5
49
102
{ACAD_REACTORS
330
47
102
}
330
47
100
AcDbScale
 70
     0
300
1:2
140
1.0
141
2.0
290
     0
  0
SCALE
  5
4A
102
{ACAD_REACTORS
330
47
102
}
330
47
100
AcDbScale
 70
     0
300
1:4
140
1.0
141
4.0
290
     0
  0
SCALE
  5
4B
102
{ACAD_REACTORS
330
47
102
}
330
47
100
AcDbScale
 70
     0
300
1:5
140
1.0
141
5.0
290
     0
  0
SCALE
  5
4C
102
{ACAD_REACTORS
330
47
102
}
330
47
100
AcDbScale
 70
     0
300
1:8
140
1.0
141
8.0
290
     0
  0
SCALE
  5
4D
102
{ACAD_REACTORS
330
47
102
}
330
47
100
AcDbScale
 70
     0
300
1:10
140
1.0
141
10.0
290
     0
  0
SCALE
  5
4E
102
{ACAD_REACTORS
330
47
102
}
330
47
100
AcDbScale
 70
     0
300
1:16
140
1.0
141
16.0
290
     0
  0
SCALE
  5
4F
102
{ACAD_REACTORS
330
47
102
}
330
47
100
AcDbScale
 70
     0
300
1:20
140
1.0
141
20.0
290
     0
  0
SCALE
  5
50
102
{ACAD_REACTORS
330
47
102
}
330
47
100
AcDbScale
 70
     0
300
1:30
140
1.0
141
30.0
290
     0
  0
SCALE
  5
51
102
{ACAD_REACTORS
330
47
102
}
330
47
100
AcDbScale
 70
     0
300
1:40
140
1.0
141
40.0
290
     0
  0
SCALE
  5
52
102
{ACAD_REACTORS
330
47
102
}
330
47
100
AcDbScale
 70
     0
300
1:50
140
1.0
141
50.0
290
     0
  0
SCALE
  5
53
102
{ACAD_REACTORS
330
47
102
}
330
47
100
AcDbScale
 70
     0
300
1:100
140
1.0
141
100.0
290
     0
  0
SCALE
  5
54
102
{ACAD_REACTORS
330
47
102
}
330
47
100
AcDbScale
 70
     0
300
2:1
140
2.0
141
1.0
290
     0
  0
SCALE
  5
55
102
{ACAD_REACTORS
330
47
102
}
330
47
100
AcDbScale
 70
     0
300
4:1
140
4.0
141
1.0
290
     0
  0
SCALE
  5
56
102
{ACAD_REACTORS
330
47
102
}
330
47
100
AcDbScale
 70
     0
300
8:1
140
8.0
141
1.0
290
     0
  0
SCALE
  5
57
102
{ACAD_REACTORS
330
47
102
}
330
47
100
AcDbScale
 70
     0
300
10:1
140
10.0
141
1.0
290
     0
  0
SCALE
  5
58
102
{ACAD_REACTORS
330
47
102
}
330
47
100
AcDbScale
 70
     0
300
100:1
140
100.0
141
1.0
290
     0
  0
SCALE
  5
59
102
{ACAD_REACTORS
330
47
102
}
330
47
100
AcDbScale
 70
     0
300
1/128" = 1'-0"
140
0.0078125
141
12.0
290
     0
  0
SCALE
  5
5A
102
{ACAD_REACTORS
330
47
102
}
330
47
100
AcDbScale
 70
     0
300
1/64" = 1'-0"
140
0.015625
141
12.0
290
     0
  0
SCALE
  5
5B
102
{ACAD_REACTORS
330
47
102
}
330
47
100
AcDbScale
 70
     0
300
1/32" = 1'-0"
140
0.03125
141
12.0
290
     0
  0
SCALE
  5
5C
102
{ACAD_REACTORS
330
47
102
}
330
47
100
AcDbScale
 70
     0
300
1/16" = 1'-0"
140
0.0625
141
12.0
290
     0
  0
SCALE
  5
5D
102
{ACAD_REACTORS
330
47
102
}
330
47
100
AcDbScale
 70
     0
300
3/32" = 1'-0"
140
0.09375
141
12.0
290
     0
  0
SCALE
  5
5E
102
{ACAD_REACTORS
330
47
102
}
330
47
100
AcDbScale
 70
     0
300
1/8" = 1'-0"
140
0.125
141
12.0
290
     0
  0
SCALE
  5
5F
102
{ACAD_REACTORS
330
47
102
}
330
47
100
AcDbScale
 70
     0
300
3/16" = 1'-0"
140
0.1875
141
12.0
290
     0
  0
SCALE
  5
60
102
{ACAD_REACTORS
330
47
102
}
330
47
100
AcDbScale
 70
     0
300
1/4" = 1'-0"
140
0.25
141
12.0
290
     0
  0
SCALE
  5
61
102
{ACAD_REACTORS
330
47
102
}
330
47
100
AcDbScale
 70
     0
300
3/8" = 1'-0"
140
0.375
141
12.0
290
     0
  0
SCALE
  5
62
102
{ACAD_REACTORS
330
47
102
}
330
47
100
AcDbScale
 70
     0
300
1/2" = 1'-0"
140
0.5
141
12.0
290
     0
  0
SCALE
  5
63
102
{ACAD_REACTORS
330
47
102
}
330
47
100
AcDbScale
 70
     0
300
3/4" = 1'-0"
140
0.75
141
12.0
290
     0
  0
SCALE
  5
64
102
{ACAD_REACTORS
330
47
102
}
330
47
100
AcDbScale
 70
     0
300
1" = 1'-0"
140
1.0
141
12.0
290
     0
  0
SCALE
  5
65
102
{ACAD_REACTORS
330
47
102
}
330
47
100
AcDbScale
 70
     0
300
1-1/2" = 1'-0"
140
1.5
141
12.0
290
     0
  0
SCALE
  5
66
102
{ACAD_REACTORS
330
47
102
}
330
47
100
AcDbScale
 70
     0
300
3" = 1'-0"
140
3.0
141
12.0
290
     0
  0
SCALE
  5
67
102
{ACAD_REACTORS
330
47
102
}
330
47
100
AcDbScale
 70
     0
300
6" = 1'-0"
140
6.0
141
12.0
290
     0
  0
SCALE
  5
68
102
{ACAD_REACTORS
330
47
102
}
330
47
100
AcDbScale
 70
     0
300
1'-0" = 1'-0"
140
12.0
141
12.0
290
     0
  0
ENDSEC
  0
EOF
