  0
SECTION
  2
HEADER
  9
$ACADVER
  1
AC1015
  9
$ACADMAINTVER
 70
     6
  9
$DWGCODEPAGE
  3
ANSI_950
  9
$INSBASE
 10
0.0
 20
0.0
 30
0.0
  9
$EXTMIN
 10
0.0
 20
0.0
 30
0.0
  9
$EXTMAX
 10
445.5
 20
315.0
 30
0.0
  9
$LIMMIN
 10
0.0
 20
0.0
  9
$LIMMAX
 10
445.5
 20
315.0
  9
$ORTHOMODE
 70
     0
  9
$REGENMODE
 70
     1
  9
$FILLMODE
 70
     1
  9
$QTEXTMODE
 70
     0
  9
$MIRRTEXT
 70
     1
  9
$LTSCALE
 40
1.5
  9
$ATTMODE
 70
     1
  9
$TEXTSIZE
 40
4.7625
  9
$TRACEWID
 40
1.0
  9
$TEXTSTYLE
  7
Standard
  9
$CLAYER
  8
0
  9
$CELTYPE
  6
ByLayer
  9
$CECOLOR
 62
   256
  9
$CELTSCALE
 40
1.0
  9
$DISPSILH
 70
     0
  9
$DIMSCALE
 40
1.0
  9
$DIMASZ
 40
3.0
  9
$DIMEXO
 40
1.5
  9
$DIMDLI
 40
3.75
  9
$DIMRND
 40
0.0
  9
$DIMDLE
 40
0.0
  9
$DIMEXE
 40
1.5
  9
$DIMTP
 40
0.0
  9
$DIMTM
 40
0.0
  9
$DIMTXT
 40
4.7625
  9
$DIMCEN
 40
2.5
  9
$DIMTSZ
 40
0.0
  9
$DIMTOL
 70
     0
  9
$DIMLIM
 70
     0
  9
$DIMTIH
 70
     1
  9
$DIMTOH
 70
     1
  9
$DIMSE1
 70
     0
  9
$DIMSE2
 70
     0
  9
$DIMTAD
 70
     1
  9
$DIMZIN
 70
     0
  9
$DIMBLK
  1

  9
$DIMASO
 70
     1
  9
$DIMSHO
 70
     1
  9
$DIMPOST
  1

  9
$DIMAPOST
  1

  9
$DIMALT
 70
     0
  9
$DIMALTD
 70
     3
  9
$DIMALTF
 40
0.0393700787
  9
$DIMLFAC
 40
1.0
  9
$DIMTOFL
 70
     1
  9
$DIMTVP
 40
0.0
  9
$DIMTIX
 70
     0
  9
$DIMSOXD
 70
     0
  9
$DIMSAH
 70
     0
  9
$DIMBLK1
  1

  9
$DIMBLK2
  1

  9
$DIMSTYLE
  2
ISO-25
  9
$DIMCLRD
 70
     0
  9
$DIMCLRE
 70
     0
  9
$DIMCLRT
 70
     0
  9
$DIMTFAC
 40
1.0
  9
$DIMGAP
 40
1.5
  9
$DIMJUST
 70
     0
  9
$DIMSD1
 70
     0
  9
$DIMSD2
 70
     0
  9
$DIMTOLJ
 70
     0
  9
$DIMTZIN
 70
     0
  9
$DIMALTZ
 70
     0
  9
$DIMALTTZ
 70
     0
  9
$DIMUPT
 70
     0
  9
$DIMDEC
 70
     2
  9
$DIMTDEC
 70
     2
  9
$DIMALTU
 70
     2
  9
$DIMALTTD
 70
     3
  9
$DIMTXSTY
  7
Standard
  9
$DIMAUNIT
 70
     0
  9
$DIMADEC
 70
     2
  9
$DIMALTRND
 40
0.0
  9
$DIMAZIN
 70
     0
  9
$DIMDSEP
 70
    44
  9
$DIMATFIT
 70
     3
  9
$DIMFRAC
 70
     0
  9
$DIMLDRBLK
  1

  9
$DIMLUNIT
 70
     2
  9
$DIMLWD
 70
    -2
  9
$DIMLWE
 70
    -2
  9
$DIMTMOVE
 70
     0
  9
$LUNITS
 70
     2
  9
$LUPREC
 70
     2
  9
$SKETCHINC
 40
1.0
  9
$FILLETRAD
 40
10.0
  9
$AUNITS
 70
     0
  9
$AUPREC
 70
     2
  9
$MENU
  1
.
  9
$ELEVATION
 40
0.0
  9
$PELEVATION
 40
0.0
  9
$THICKNESS
 40
0.0
  9
$LIMCHECK
 70
     0
  9
$CHAMFERA
 40
0.0
  9
$CHAMFERB
 40
0.0
  9
$CHAMFERC
 40
0.0
  9
$CHAMFERD
 40
0.0
  9
$SKPOLY
 70
     0
  9
$TDCREATE
 40
2458092.718934977
  9
$TDUCREATE
 40
2458092.385601643
  9
$TDUPDATE
 40
2458092.71894581
  9
$TDUUPDATE
 40
2458092.385612477
  9
$TDINDWG
 40
0.0000000116
  9
$TDUSRTIMER
 40
0.0000000116
  9
$USRTIMER
 70
     1
  9
$ANGBASE
 50
0.0
  9
$ANGDIR
 70
     0
  9
$PDMODE
 70
     0
  9
$PDSIZE
 40
-1.0
  9
$PLINEWID
 40
0.0
  9
$SPLFRAME
 70
     0
  9
$SPLINETYPE
 70
     6
  9
$SPLINESEGS
 70
     8
  9
$HANDSEED
  5
3EA
  9
$SURFTAB1
 70
     6
  9
$SURFTAB2
 70
     6
  9
$SURFTYPE
 70
     6
  9
$SURFU
 70
     6
  9
$SURFV
 70
     6
  9
$UCSBASE
  2

  9
$UCSNAME
  2

  9
$UCSORG
 10
0.0
 20
0.0
 30
0.0
  9
$UCSXDIR
 10
1.0
 20
0.0
 30
0.0
  9
$UCSYDIR
 10
0.0
 20
1.0
 30
0.0
  9
$UCSORTHOREF
  2

  9
$UCSORTHOVIEW
 70
     0
  9
$UCSORGTOP
 10
0.0
 20
0.0
 30
0.0
  9
$UCSORGBOTTOM
 10
0.0
 20
0.0
 30
0.0
  9
$UCSORGLEFT
 10
0.0
 20
0.0
 30
0.0
  9
$UCSORGRIGHT
 10
0.0
 20
0.0
 30
0.0
  9
$UCSORGFRONT
 10
0.0
 20
0.0
 30
0.0
  9
$UCSORGBACK
 10
0.0
 20
0.0
 30
0.0
  9
$PUCSBASE
  2

  9
$PUCSNAME
  2

  9
$PUCSORG
 10
0.0
 20
0.0
 30
0.0
  9
$PUCSXDIR
 10
1.0
 20
0.0
 30
0.0
  9
$PUCSYDIR
 10
0.0
 20
1.0
 30
0.0
  9
$PUCSORTHOREF
  2

  9
$PUCSORTHOVIEW
 70
     0
  9
$PUCSORGTOP
 10
0.0
 20
0.0
 30
0.0
  9
$PUCSORGBOTTOM
 10
0.0
 20
0.0
 30
0.0
  9
$PUCSORGLEFT
 10
0.0
 20
0.0
 30
0.0
  9
$PUCSORGRIGHT
 10
0.0
 20
0.0
 30
0.0
  9
$PUCSORGFRONT
 10
0.0
 20
0.0
 30
0.0
  9
$PUCSORGBACK
 10
0.0
 20
0.0
 30
0.0
  9
$USERI1
 70
     0
  9
$USERI2
 70
     0
  9
$USERI3
 70
     0
  9
$USERI4
 70
     0
  9
$USERI5
 70
     0
  9
$USERR1
 40
0.0
  9
$USERR2
 40
0.0
  9
$USERR3
 40
0.0
  9
$USERR4
 40
0.0
  9
$USERR5
 40
0.0
  9
$WORLDVIEW
 70
     1
  9
$SHADEDGE
 70
     3
  9
$SHADEDIF
 70
    70
  9
$TILEMODE
 70
     1
  9
$MAXACTVP
 70
    64
  9
$PINSBASE
 10
0.0
 20
0.0
 30
0.0
  9
$PLIMCHECK
 70
     0
  9
$PEXTMIN
 10
1.0000000000E+20
 20
1.0000000000E+20
 30
1.0000000000E+20
  9
$PEXTMAX
 10
-1.0000000000E+20
 20
-1.0000000000E+20
 30
-1.0000000000E+20
  9
$PLIMMIN
 10
0.0
 20
0.0
  9
$PLIMMAX
 10
420.0
 20
297.0
  9
$UNITMODE
 70
     0
  9
$VISRETAIN
 70
     1
  9
$PLINEGEN
 70
     0
  9
$PSLTSCALE
 70
     1
  9
$TREEDEPTH
 70
  3020
  9
$CMLSTYLE
  2
Standard
  9
$CMLJUST
 70
     0
  9
$CMLSCALE
 40
20.0
  9
$PROXYGRAPHICS
 70
     1
  9
$MEASUREMENT
 70
     1
  9
$CELWEIGHT
370
    -1
  9
$ENDCAPS
280
     0
  9
$JOINSTYLE
280
     0
  9
$LWDISPLAY
290
     1
  9
$INSUNITS
 70
     4
  9
$HYPERLINKBASE
  1

  9
$STYLESHEET
  1

  9
$XEDIT
290
     1
  9
$CEPSNTYPE
380
     0
  9
$PSTYLEMODE
290
     1
  9
$FINGERPRINTGUID
  2
{AA9A3F53-B0B2-4EB3-ACA9-3C029F66AEA1}
  9
$VERSIONGUID
  2
{FAEB1C32-E019-11D5-929B-00C0DF256EC4}
  9
$EXTNAMES
290
     1
  9
$PSVPSCALE
 40
0.0
  9
$OLESTARTUP
290
     0
  0
ENDSEC
  0
SECTION
  2
CLASSES
  0
CLASS
  1
ACDBDICTIONARYWDFLT
  2
AcDbDictionaryWithDefault
  3
ObjectDBX Classes
 90
        0
280
     0
281
     0
  0
CLASS
  1
VISUALSTYLE
  2
AcDbVisualStyle
  3
ObjectDBX Classes
 90
     4095
280
     0
281
     0
  0
CLASS
  1
MATERIAL
  2
AcDbMaterial
  3
ObjectDBX Classes
 90
     1153
280
     0
281
     0
  0
CLASS
  1
SCALE
  2
AcDbScale
  3
ObjectDBX Classes
 90
     1153
280
     0
281
     0
  0
CLASS
  1
TABLESTYLE
  2
AcDbTableStyle
  3
ObjectDBX Classes
 90
     4095
280
     0
281
     0
  0
CLASS
  1
MLEADERSTYLE
  2
AcDbMLeaderStyle
  3
ACDB_MLEADERSTYLE_CLASS
 90
     4095
280
     0
281
     0
  0
CLASS
  1
SUN
  2
AcDbSun
  3
SCENEOE
 90
     1153
280
     0
281
     0
  0
CLASS
  1
ACDBPLACEHOLDER
  2
AcDbPlaceHolder
  3
ObjectDBX Classes
 90
        0
280
     0
281
     0
  0
CLASS
  1
LAYOUT
  2
AcDbLayout
  3
ObjectDBX Classes
 90
        0
280
     0
281
     0
  0
ENDSEC
  0
SECTION
  2
TABLES
  0
TABLE
  2
VPORT
  5
8
330
0
100
AcDbSymbolTable
 70
     1
  0
VPORT
  5
29
330
8
100
AcDbSymbolTableRecord
100
AcDbViewportTableRecord
  2
*Active
 70
     0
 10
0.0
 20
0.0
 11
1.0
 21
1.0
 12
222.75
 22
157.5
 13
0.0
 23
0.0
 14
10.0
 24
10.0
 15
10.0
 25
10.0
 16
0.0
 26
0.0
 36
1.0
 17
0.0
 27
0.0
 37
0.0
 40
315.0
 41
1.4142857143
 42
50.0
 43
0.0
 44
0.0
 50
0.0
 51
0.0
 71
     0
 72
  2000
 73
     1
 74
     3
 75
     0
 76
     0
 77
     0
 78
     0
281
     0
 65
     1
110
0.0
120
0.0
130
0.0
111
1.0
121
0.0
131
0.0
112
0.0
122
1.0
132
0.0
 79
     0
146
0.0
  0
ENDTAB
  0
TABLE
  2
LTYPE
  5
5
330
0
100
AcDbSymbolTable
 70
     6
  0
LTYPE
  5
14
330
5
100
AcDbSymbolTableRecord
100
AcDbLinetypeTableRecord
  2
ByBlock
 70
     0
  3

 72
    65
 73
     0
 40
0.0
  0
LTYPE
  5
15
330
5
100
AcDbSymbolTableRecord
100
AcDbLinetypeTableRecord
  2
ByLayer
 70
     0
  3

 72
    65
 73
     0
 40
0.0
  0
LTYPE
  5
16
330
5
100
AcDbSymbolTableRecord
100
AcDbLinetypeTableRecord
  2
Continuous
 70
     0
  3
Solid line
 72
    65
 73
     0
 40
0.0
  0
LTYPE
  5
6E
330
5
100
AcDbSymbolTableRecord
100
AcDbLinetypeTableRecord
  2
HIDDEN
 70
     0
  3
Hidden __ __ __ __ __ __ __ __ __ __ __ __ __ __
 72
    65
 73
     2
 40
1.905
 49
1.27
 74
     0
 49
-0.635
 74
     0
  0
LTYPE
  5
6F
330
5
100
AcDbSymbolTableRecord
100
AcDbLinetypeTableRecord
  2
PHANTOM
 70
     0
  3
Phantom ______  __  __  ______  __  __  ______
 72
    65
 73
     6
 40
12.7
 49
6.35
 74
     0
 49
-1.27
 74
     0
 49
1.27
 74
     0
 49
-1.27
 74
     0
 49
1.27
 74
     0
 49
-1.27
 74
     0
  0
LTYPE
  5
70
330
5
100
AcDbSymbolTableRecord
100
AcDbLinetypeTableRecord
  2
CENTER
 70
     0
  3
Center ____ _ ____ _ ____ _ ____ _ ____ _ ____
 72
    65
 73
     4
 40
10.16
 49
6.35
 74
     0
 49
-1.27
 74
     0
 49
1.27
 74
     0
 49
-1.27
 74
     0
  0
LTYPE
  5
71
330
5
100
AcDbSymbolTableRecord
100
AcDbLinetypeTableRecord
  2
CENTERX2
 70
     0
  3
Center (2x) ________  __  ________  __  _____
 72
    65
 73
     4
 40
20.32
 49
12.7
 74
     0
 49
-2.54
 74
     0
 49
2.54
 74
     0
 49
-2.54
 74
     0
  0
LTYPE
  5
72
330
5
100
AcDbSymbolTableRecord
100
AcDbLinetypeTableRecord
  2
DOT2
 70
     0
  3
Dot (.5x) ........................................
 72
    65
 73
     2
 40
0.635
 49
0.0
 74
     0
 49
-0.635
 74
     0
  0
ENDTAB
  0
TABLE
  2
LAYER
  5
2
330
0
100
AcDbSymbolTable
 70
    10
  0
LAYER
  5
10
330
2
100
AcDbSymbolTableRecord
100
AcDbLayerTableRecord
  2
0
 70
     0
 62
     7
  6
Continuous
370
    -3
390
F
  0
LAYER
  5
73
330
2
100
AcDbSymbolTableRecord
100
AcDbLayerTableRecord
  2
SLD-0
 70
     0
 62
     7
  6
Continuous
370
    15
390
F
  0
LAYER
  5
74
330
2
100
AcDbSymbolTableRecord
100
AcDbLayerTableRecord
  2
輪廓線
 70
     0
 62
   219
  6
Continuous
370
    15
390
F
  0
LAYER
  5
75
330
2
100
AcDbSymbolTableRecord
100
AcDbLayerTableRecord
  2
DIM
 70
     0
 62
     7
  6
Continuous
370
    -3
390
F
  0
LAYER
  5
76
330
2
100
AcDbSymbolTableRecord
100
AcDbLayerTableRecord
  2
中心線
 70
     0
 62
     7
  6
CENTERX2
370
    -3
390
F
  0
LAYER
  5
77
330
2
100
AcDbSymbolTableRecord
100
AcDbLayerTableRecord
  2
虛線
 70
     0
 62
     7
  6
HIDDEN
370
    -3
390
F
  0
LAYER
  5
78
330
2
100
AcDbSymbolTableRecord
100
AcDbLayerTableRecord
  2
SECTION
 70
     0
 62
     7
  6
PHANTOM
370
    15
390
F
  0
LAYER
  5
79
330
2
100
AcDbSymbolTableRecord
100
AcDbLayerTableRecord
  2
假想線
 70
     0
 62
     7
  6
PHANTOM
370
    -3
390
F
  0
LAYER
  5
7A
330
2
100
AcDbSymbolTableRecord
100
AcDbLayerTableRecord
  2
圖層_1
 70
     0
 62
   179
  6
Continuous
370
    -3
390
F
  0
LAYER
  5
7B
330
2
100
AcDbSymbolTableRecord
100
AcDbLayerTableRecord
  2
工作區域參考線
 70
     0
 62
   179
  6
Continuous
370
    -3
390
F
  0
ENDTAB
  0
TABLE
  2
STYLE
  5
3
330
0
100
AcDbSymbolTable
 70
     3
  0
STYLE
  5
11
330
3
100
AcDbSymbolTableRecord
100
AcDbTextStyleTableRecord
  2
Standard
 70
     0
 40
0.0
 41
1.0
 50
0.0
 71
     0
 42
4.7625
  3
txt
  4

  0
STYLE
  5
CC
330
3
100
AcDbSymbolTableRecord
100
AcDbTextStyleTableRecord
  2
SLDTEXTSTYLE0
 70
     0
 40
0.0
 41
0.605
 50
0.0
 71
     0
 42
4.7625
  3
TXT
  4

  0
STYLE
  5
103
330
3
100
AcDbSymbolTableRecord
100
AcDbTextStyleTableRecord
  2
SLDTEXTSTYLE1
 70
     0
 40
0.0
 41
0.7
 50
0.0
 71
     0
 42
4.7625
  3
TXT
  4

  0
ENDTAB
  0
TABLE
  2
VIEW
  5
6
330
0
100
AcDbSymbolTable
 70
     0
  0
ENDTAB
  0
TABLE
  2
UCS
  5
7
330
0
100
AcDbSymbolTable
 70
     0
  0
ENDTAB
  0
TABLE
  2
APPID
  5
9
330
0
100
AcDbSymbolTable
 70
     1
  0
APPID
  5
12
330
9
100
AcDbSymbolTableRecord
100
AcDbRegAppTableRecord
  2
ACAD
 70
     0
  0
ENDTAB
  0
TABLE
  2
DIMSTYLE
  5
A
330
0
100
AcDbSymbolTable
 70
     2
100
AcDbDimStyleTable
  0
DIMSTYLE
105
27
330
A
100
AcDbSymbolTableRecord
100
AcDbDimStyleTableRecord
  2
ISO-25
 70
     0
 41
2.5
 42
0.625
 43
3.75
 44
1.25
 73
     0
 74
     0
 77
     1
 78
     8
140
2.5
141
2.5
143
0.0393700787
147
0.625
171
     3
172
     1
178
     0
271
     2
272
     2
274
     3
278
    44
283
     0
284
     8
340
11
  0
DIMSTYLE
105
191
102
{ACAD_REACTORS
330
190
330
233
330
23D
330
247
330
251
102
}
330
A
100
AcDbSymbolTableRecord
100
AcDbDimStyleTableRecord
  2
SLDDIMSTYLE0
 70
     0
 41
3.0
 44
0.0
 45
0.000000001
 73
     0
 74
     0
 77
     1
 78
    12
 79
     3
140
3.8137207031
147
0.9534301758
173
     1
178
     0
271
     2
272
     2
276
     2
284
    12
340
103
  0
ENDTAB
  0
TABLE
  2
BLOCK_RECORD
  5
1
330
0
100
AcDbSymbolTable
 70
    14
  0
BLOCK_RECORD
  5
1F
330
1
100
AcDbSymbolTableRecord
100
AcDbBlockTableRecord
  2
*Model_Space
340
22
  0
BLOCK_RECORD
  5
1B
330
1
100
AcDbSymbolTableRecord
100
AcDbBlockTableRecord
  2
*Paper_Space
340
1E
  0
BLOCK_RECORD
  5
23
330
1
100
AcDbSymbolTableRecord
100
AcDbBlockTableRecord
  2
*Paper_Space0
340
26
  0
BLOCK_RECORD
  5
7C
330
1
100
AcDbSymbolTableRecord
100
AcDbBlockTableRecord
  2
圖塊6
340
0
102
{BLKREFS
331
CB
102
}
  0
BLOCK_RECORD
  5
CE
330
1
100
AcDbSymbolTableRecord
100
AcDbBlockTableRecord
  2
SW_NOTE_0
340
0
102
{BLKREFS
331
D4
102
}
  0
BLOCK_RECORD
  5
105
330
1
100
AcDbSymbolTableRecord
100
AcDbBlockTableRecord
  2
SW_NOTE_1
340
0
102
{BLKREFS
331
10A
102
}
  0
BLOCK_RECORD
  5
192
330
1
100
AcDbSymbolTableRecord
100
AcDbBlockTableRecord
  2
_D
340
0
  0
BLOCK_RECORD
  5
234
330
1
100
AcDbSymbolTableRecord
100
AcDbBlockTableRecord
  2
_D_1
340
0
  0
BLOCK_RECORD
  5
23E
330
1
100
AcDbSymbolTableRecord
100
AcDbBlockTableRecord
  2
_D_2
340
0
  0
BLOCK_RECORD
  5
248
330
1
100
AcDbSymbolTableRecord
100
AcDbBlockTableRecord
  2
_D_3
340
0
  0
BLOCK_RECORD
  5
252
330
1
100
AcDbSymbolTableRecord
100
AcDbBlockTableRecord
  2
_D_4
340
0
  0
BLOCK_RECORD
  5
25B
330
1
100
AcDbSymbolTableRecord
100
AcDbBlockTableRecord
  2
SW_RADIAL_DIMENSION_0
340
0
102
{BLKREFS
331
263
102
}
  0
BLOCK_RECORD
  5
264
330
1
100
AcDbSymbolTableRecord
100
AcDbBlockTableRecord
  2
SW_CENTERMARKSYMBOL_0
340
0
102
{BLKREFS
331
26F
102
}
  0
BLOCK_RECORD
  5
270
330
1
100
AcDbSymbolTableRecord
100
AcDbBlockTableRecord
  2
SW_CENTERMARKSYMBOL_1
340
0
102
{BLKREFS
331
27B
102
}
  0
BLOCK_RECORD
  5
27C
330
1
100
AcDbSymbolTableRecord
100
AcDbBlockTableRecord
  2
SW_CENTERMARKSYMBOL_2
340
0
102
{BLKREFS
331
287
102
}
  0
BLOCK_RECORD
  5
288
330
1
100
AcDbSymbolTableRecord
100
AcDbBlockTableRecord
  2
SW_CENTERMARKSYMBOL_3
340
0
102
{BLKREFS
331
293
102
}
  0
ENDTAB
  0
ENDSEC
  0
SECTION
  2
BLOCKS
  0
BLOCK
  5
20
330
1F
100
AcDbEntity
  8
0
100
AcDbBlockBegin
  2
*Model_Space
 70
     0
 10
0.0
 20
0.0
 30
0.0
  3
*Model_Space
  1

  0
ENDBLK
  5
21
330
1F
100
AcDbEntity
  8
0
100
AcDbBlockEnd
  0
BLOCK
  5
1C
330
1B
100
AcDbEntity
 67
     1
  8
0
100
AcDbBlockBegin
  2
*Paper_Space
 70
     0
 10
0.0
 20
0.0
 30
0.0
  3
*Paper_Space
  1

  0
ENDBLK
  5
1D
330
1B
100
AcDbEntity
 67
     1
  8
0
100
AcDbBlockEnd
  0
BLOCK
  5
24
330
23
100
AcDbEntity
  8
0
100
AcDbBlockBegin
  2
*Paper_Space0
 70
     0
 10
0.0
 20
0.0
 30
0.0
  3
*Paper_Space0
  1

  0
ENDBLK
  5
25
330
23
100
AcDbEntity
  8
0
100
AcDbBlockEnd
  0
BLOCK
  5
7D
330
7C
100
AcDbEntity
  8
0
100
AcDbBlockBegin
  2
圖塊6
 70
     0
 10
0.0
 20
0.0
 30
0.0
  3
圖塊6
  1

  0
ARC
  5
7F
330
7C
100
AcDbEntity
  8
圖層_1
 62
     7
370
    30
100
AcDbCircle
 10
2.2952316509
 20
9.1531024337
 30
0.0
 40
2.295231650915506
100
AcDbArc
 50
130.2115225915
 51
228.588904108
  0
ARC
  5
80
330
7C
100
AcDbEntity
  8
圖層_1
 62
     7
370
    30
100
AcDbCircle
 10
7.2763703972
 20
8.9924181622
 30
0.0
 40
3.866003140226431
100
AcDbArc
 50
140.4331765613
 51
251.0865666567
  0
ARC
  5
81
330
7C
100
AcDbEntity
  8
圖層_1
 62
     7
370
    30
100
AcDbCircle
 10
7.7647562974
 20
9.4676339569
 30
0.0
 40
4.484454986654794
100
AcDbArc
 50
247.1485306747
 51
309.6030773927
  0
LINE
  5
82
330
7C
100
AcDbEntity
  8
圖層_1
 62
     7
370
    30
100
AcDbLine
 10
2.7733465903
 20
12.7982738976
 30
0.0
 11
0.813404208
 21
10.9058932828
 31
0.0
  0
LINE
  5
83
330
7C
100
AcDbEntity
  8
圖層_1
 62
     7
370
    30
100
AcDbLine
 10
0.7770343349
 20
7.4317177465
 30
0.0
 11
6.7908378002
 21
2.2048119861
 31
0.0
  0
LINE
  5
84
330
7C
100
AcDbEntity
  8
圖層_1
 62
     7
370
    30
100
AcDbLine
 10
6.7908378002
 20
2.2048119861
 30
0.0
 11
5.8442599196
 21
1.2809614004
 31
0.0
  0
LINE
  5
85
330
7C
100
AcDbEntity
  8
圖層_1
 62
     7
370
    30
100
AcDbLine
 10
5.8442599196
 20
1.2809614004
 30
0.0
 11
7.3320789667
 21
0.0
 31
0.0
  0
LINE
  5
86
330
7C
100
AcDbEntity
  8
圖層_1
 62
     7
370
    30
100
AcDbLine
 10
12.1465756182
 20
4.6748669483
 30
0.0
 11
10.6234410708
 21
6.0124555399
 31
0.0
  0
LINE
  5
87
330
7C
100
AcDbEntity
  8
圖層_1
 62
     7
370
    30
100
AcDbLine
 10
4.2961373614
 20
11.4549760463
 30
0.0
 11
2.7733465903
 21
12.7982738976
 31
0.0
  0
LINE
  5
88
330
7C
100
AcDbEntity
  8
圖層_1
 62
     7
370
    30
100
AcDbLine
 10
7.3320789667
 20
0.0
 30
0.0
 11
12.1465756182
 21
4.6748669483
 31
0.0
  0
ENDBLK
  5
7E
330
7C
100
AcDbEntity
  8
0
100
AcDbBlockEnd
  0
BLOCK
  5
CF
330
CE
100
AcDbEntity
  8
0
100
AcDbBlockBegin
  2
SW_NOTE_0
 70
     0
 10
0.0
 20
0.0
 30
0.0
  3
SW_NOTE_0
  1

  0
MTEXT
  5
D1
330
CE
100
AcDbEntity
  8
0
  6
Continuous
 62
     0
370
     0
100
AcDbMText
 10
0.0
 20
5.1159875922
 30
0.0
 40
3.96875
 41
0.0
 71
     1
 72
     1
  1
PROPRIETARY AND CONFIDENTIAL
  7
SLDTEXTSTYLE0
 73
     1
 44
1.0
  0
MTEXT
  5
D2
330
CE
100
AcDbEntity
  8
0
  6
Continuous
 62
     0
370
     0
100
AcDbMText
 10
0.0
 20
-0.12297522
 30
0.0
 40
2.778125
 41
0.0
 71
     1
 72
     1
  1
THE INFORMATION CONTAINED IN THIS DRAWING IS THE SOLE PROPERTY OF UNICE E-O SERVICES INC. ANY REPRODUCTION IN PART OR AS A WHOLE WITHOUT THE WRITTEN PERMISSION OF UNICE E-O SERVICES INC IS
  7
SLDTEXTSTYLE0
 73
     1
 44
1.0
  0
MTEXT
  5
D3
330
CE
100
AcDbEntity
  8
0
  6
Continuous
 62
     0
370
     0
100
AcDbMText
 10
0.0
 20
-3.8271418419
 30
0.0
 40
2.778125
 41
0.0
 71
     1
 72
     1
  1
PROHIBITED.
  7
SLDTEXTSTYLE0
 73
     1
 44
1.0
  0
ENDBLK
  5
D0
330
CE
100
AcDbEntity
  8
0
100
AcDbBlockEnd
  0
BLOCK
  5
106
330
105
100
AcDbEntity
  8
0
100
AcDbBlockBegin
  2
SW_NOTE_1
 70
     0
 10
0.0
 20
0.0
 30
0.0
  3
SW_NOTE_1
  1

  0
MTEXT
  5
108
330
105
100
AcDbEntity
  8
SLD-0
 62
     0
100
AcDbMText
 10
0.0
 20
3.0695925553
 30
0.0
 40
2.38125
 41
0.0
 71
     1
 72
     1
  1
No.5, Andong Rd., Chung Li District,
  7
SLDTEXTSTYLE0
 73
     1
 44
1.0
  0
MTEXT
  5
109
330
105
100
AcDbEntity
  8
SLD-0
 62
     0
100
AcDbMText
 10
0.0
 20
-0.1054074063
 30
0.0
 40
2.38125
 41
0.0
 71
     1
 72
     1
  1
Taoyuan City 32063, Taiwan, R.O.C.
  7
SLDTEXTSTYLE0
 73
     1
 44
1.0
  0
ENDBLK
  5
107
330
105
100
AcDbEntity
  8
0
100
AcDbBlockEnd
  0
BLOCK
  5
193
330
192
100
AcDbEntity
  8
0
100
AcDbBlockBegin
  2
_D
 70
     0
 10
0.0
 20
0.0
 30
0.0
  3
_D
  1

  0
SOLID
  5
195
330
192
100
AcDbEntity
  8
DIM
100
AcDbTrace
 10
136.8040043394
 20
151.6617062963
 30
0.0
 11
136.4290043394
 21
148.6617062963
 31
0.0
 12
137.1790043394
 22
148.6617062963
 32
0.0
 13
137.1790043394
 23
148.6617062963
 33
0.0
  0
SOLID
  5
196
330
192
100
AcDbEntity
  8
DIM
100
AcDbTrace
 10
136.8040043394
 20
69.1617062963
 30
0.0
 11
137.1790043394
 21
72.1617062963
 31
0.0
 12
136.4290043394
 22
72.1617062963
 32
0.0
 13
136.4290043394
 23
72.1617062963
 33
0.0
  0
LINE
  5
197
330
192
100
AcDbEntity
  8
DIM
100
AcDbLine
 10
113.8040043394
 20
151.6617062963
 30
0.0
 11
138.3040043394
 21
151.6617062963
 31
0.0
  0
LINE
  5
198
330
192
100
AcDbEntity
  8
DIM
100
AcDbLine
 10
127.8040043394
 20
69.1617062963
 30
0.0
 11
138.3040043394
 21
69.1617062963
 31
0.0
  0
LINE
  5
199
330
192
100
AcDbEntity
  8
DIM
100
AcDbLine
 10
136.8040043394
 20
151.6617062963
 30
0.0
 11
136.8040043394
 21
69.1617062963
 31
0.0
  0
MTEXT
  5
19A
330
192
100
AcDbEntity
  8
DIM
100
AcDbMText
 10
132.199615681
 20
106.4991805791
 30
0.0
 40
3.571875
 41
0.0
 71
     1
 72
     1
  1
82.5
  7
SLDTEXTSTYLE1
 11
-7.044195017643634E-15
 21
1.0
 31
0.0
 73
     1
 44
1.0
  0
ENDBLK
  5
194
330
192
100
AcDbEntity
  8
0
100
AcDbBlockEnd
  0
BLOCK
  5
235
330
234
100
AcDbEntity
  8
0
100
AcDbBlockBegin
  2
_D_1
 70
     0
 10
0.0
 20
0.0
 30
0.0
  3
_D_1
  1

  0
SOLID
  5
237
330
234
100
AcDbEntity
  8
DIM
100
AcDbTrace
 10
119.2040043394
 20
268.7189869957
 30
0.0
 11
116.2040043394
 21
269.0939869957
 31
0.0
 12
116.2040043394
 22
268.3439869957
 32
0.0
 13
116.2040043394
 23
268.3439869957
 33
0.0
  0
SOLID
  5
238
330
234
100
AcDbEntity
  8
DIM
100
AcDbTrace
 10
68.4040043394
 20
268.7189869957
 30
0.0
 11
71.4040043394
 21
268.3439869957
 31
0.0
 12
71.4040043394
 22
269.0939869957
 32
0.0
 13
71.4040043394
 23
269.0939869957
 33
0.0
  0
LINE
  5
239
330
234
100
AcDbEntity
  8
DIM
100
AcDbLine
 10
119.2040043394
 20
259.1189869957
 30
0.0
 11
119.2040043394
 21
270.2189869957
 31
0.0
  0
LINE
  5
23A
330
234
100
AcDbEntity
  8
DIM
100
AcDbLine
 10
68.4040043394
 20
259.1189869957
 30
0.0
 11
68.4040043394
 21
270.2189869957
 31
0.0
  0
LINE
  5
23B
330
234
100
AcDbEntity
  8
DIM
100
AcDbLine
 10
119.2040043394
 20
268.7189869957
 30
0.0
 11
68.4040043394
 21
268.7189869957
 31
0.0
  0
MTEXT
  5
23C
330
234
100
AcDbEntity
  8
DIM
100
AcDbMText
 10
89.8914786222
 20
273.3233756541
 30
0.0
 40
3.571875
 41
0.0
 71
     1
 72
     1
  1
50.8
  7
SLDTEXTSTYLE1
 73
     1
 44
1.0
  0
ENDBLK
  5
236
330
234
100
AcDbEntity
  8
0
100
AcDbBlockEnd
  0
BLOCK
  5
23F
330
23E
100
AcDbEntity
  8
0
100
AcDbBlockBegin
  2
_D_2
 70
     0
 10
0.0
 20
0.0
 30
0.0
  3
_D_2
  1

  0
SOLID
  5
241
330
23E
100
AcDbEntity
  8
DIM
100
AcDbTrace
 10
136.8040043394
 20
251.1189869957
 30
0.0
 11
136.4290043394
 21
248.1189869957
 31
0.0
 12
137.1790043394
 22
248.1189869957
 32
0.0
 13
137.1790043394
 23
248.1189869957
 33
0.0
  0
SOLID
  5
242
330
23E
100
AcDbEntity
  8
DIM
100
AcDbTrace
 10
136.8040043394
 20
200.3189869957
 30
0.0
 11
137.1790043394
 21
203.3189869957
 31
0.0
 12
136.4290043394
 22
203.3189869957
 32
0.0
 13
136.4290043394
 23
203.3189869957
 33
0.0
  0
LINE
  5
243
330
23E
100
AcDbEntity
  8
DIM
100
AcDbLine
 10
127.2040043394
 20
251.1189869957
 30
0.0
 11
138.3040043394
 21
251.1189869957
 31
0.0
  0
LINE
  5
244
330
23E
100
AcDbEntity
  8
DIM
100
AcDbLine
 10
127.2040043394
 20
200.3189869957
 30
0.0
 11
138.3040043394
 21
200.3189869957
 31
0.0
  0
LINE
  5
245
330
23E
100
AcDbEntity
  8
DIM
100
AcDbLine
 10
136.8040043394
 20
251.1189869957
 30
0.0
 11
136.8040043394
 21
200.3189869957
 31
0.0
  0
MTEXT
  5
246
330
23E
100
AcDbEntity
  8
DIM
100
AcDbMText
 10
132.199615681
 20
221.8064612785
 30
0.0
 40
3.571875
 41
0.0
 71
     1
 72
     1
  1
50.8
  7
SLDTEXTSTYLE1
 11
-7.044195017643634E-15
 21
1.0
 31
0.0
 73
     1
 44
1.0
  0
ENDBLK
  5
240
330
23E
100
AcDbEntity
  8
0
100
AcDbBlockEnd
  0
BLOCK
  5
249
330
248
100
AcDbEntity
  8
0
100
AcDbBlockBegin
  2
_D_3
 70
     0
 10
0.0
 20
0.0
 30
0.0
  3
_D_3
  1

  0
SOLID
  5
24B
330
248
100
AcDbEntity
  8
DIM
100
AcDbTrace
 10
61.3040043394
 20
182.7189869957
 30
0.0
 11
64.3040043394
 21
182.3439869957
 31
0.0
 12
64.3040043394
 22
183.0939869957
 32
0.0
 13
64.3040043394
 23
183.0939869957
 33
0.0
  0
SOLID
  5
24C
330
248
100
AcDbEntity
  8
DIM
100
AcDbTrace
 10
126.3040043394
 20
182.7189869957
 30
0.0
 11
123.3040043394
 21
183.0939869957
 31
0.0
 12
123.3040043394
 22
182.3439869957
 32
0.0
 13
123.3040043394
 23
182.3439869957
 33
0.0
  0
LINE
  5
24D
330
248
100
AcDbEntity
  8
DIM
100
AcDbLine
 10
61.3040043394
 20
196.7189869957
 30
0.0
 11
61.3040043394
 21
181.2189869957
 31
0.0
  0
LINE
  5
24E
330
248
100
AcDbEntity
  8
DIM
100
AcDbLine
 10
126.3040043394
 20
196.7189869957
 30
0.0
 11
126.3040043394
 21
181.2189869957
 31
0.0
  0
LINE
  5
24F
330
248
100
AcDbEntity
  8
DIM
100
AcDbLine
 10
61.3040043394
 20
182.7189869957
 30
0.0
 11
126.3040043394
 21
182.7189869957
 31
0.0
  0
MTEXT
  5
250
330
248
100
AcDbEntity
  8
DIM
100
AcDbMText
 10
91.5682752084
 20
187.3233756541
 30
0.0
 40
3.571875
 41
0.0
 71
     1
 72
     1
  1
65
  7
SLDTEXTSTYLE1
 73
     1
 44
1.0
  0
ENDBLK
  5
24A
330
248
100
AcDbEntity
  8
0
100
AcDbBlockEnd
  0
BLOCK
  5
253
330
252
100
AcDbEntity
  8
0
100
AcDbBlockBegin
  2
_D_4
 70
     0
 10
0.0
 20
0.0
 30
0.0
  3
_D_4
  1

  0
SOLID
  5
255
330
252
100
AcDbEntity
  8
DIM
100
AcDbTrace
 10
50.8040043394
 20
258.2189869957
 30
0.0
 11
50.4290043394
 21
255.2189869957
 31
0.0
 12
51.1790043394
 22
255.2189869957
 32
0.0
 13
51.1790043394
 23
255.2189869957
 33
0.0
  0
SOLID
  5
256
330
252
100
AcDbEntity
  8
DIM
100
AcDbTrace
 10
50.8040043394
 20
193.2189869957
 30
0.0
 11
51.1790043394
 21
196.2189869957
 31
0.0
 12
50.4290043394
 22
196.2189869957
 32
0.0
 13
50.4290043394
 23
196.2189869957
 33
0.0
  0
LINE
  5
257
330
252
100
AcDbEntity
  8
DIM
100
AcDbLine
 10
64.8040043394
 20
258.2189869957
 30
0.0
 11
49.3040043394
 21
258.2189869957
 31
0.0
  0
LINE
  5
258
330
252
100
AcDbEntity
  8
DIM
100
AcDbLine
 10
64.8040043394
 20
193.2189869957
 30
0.0
 11
49.3040043394
 21
193.2189869957
 31
0.0
  0
LINE
  5
259
330
252
100
AcDbEntity
  8
DIM
100
AcDbLine
 10
50.8040043394
 20
258.2189869957
 30
0.0
 11
50.8040043394
 21
193.2189869957
 31
0.0
  0
MTEXT
  5
25A
330
252
100
AcDbEntity
  8
DIM
100
AcDbMText
 10
46.199615681
 20
223.4832578648
 30
0.0
 40
3.571875
 41
0.0
 71
     1
 72
     1
  1
65
  7
SLDTEXTSTYLE1
 11
-7.044195017643634E-15
 21
1.0
 31
0.0
 73
     1
 44
1.0
  0
ENDBLK
  5
254
330
252
100
AcDbEntity
  8
0
100
AcDbBlockEnd
  0
BLOCK
  5
25C
330
25B
100
AcDbEntity
  8
0
100
AcDbBlockBegin
  2
SW_RADIAL_DIMENSION_0
 70
     0
 10
0.0
 20
0.0
 30
0.0
  3
SW_RADIAL_DIMENSION_0
  1

  0
SOLID
  5
25E
330
25B
100
AcDbEntity
  8
DIM
 62
     0
100
AcDbTrace
 10
-15.5859127035
 20
8.9484129357
 30
0.0
 11
-13.7297574029
 21
6.5619275491
 31
0.0
 12
-13.199427317
 22
7.092257635
 32
0.0
 13
-13.199427317
 23
7.092257635
 33
0.0
  0
LINE
  5
25F
330
25B
100
AcDbEntity
  8
DIM
 62
     0
100
AcDbLine
 10
-15.5859127035
 20
8.9484129357
 30
0.0
 11
-1.875
 21
-4.7624997678
 31
0.0
  0
LINE
  5
260
330
25B
100
AcDbEntity
  8
DIM
 62
     0
100
AcDbLine
 10
-1.875
 20
-4.7624997678
 30
0.0
 11
18.9970848151
 21
-4.7624997678
 31
0.0
  0
MTEXT
  5
261
330
25B
100
AcDbEntity
  8
DIM
 62
     0
100
AcDbMText
 10
0.0
 20
4.604388833
 30
0.0
 40
3.571875
 41
0.0
 71
     1
 72
     1
  1
4 HOLES,
  7
SLDTEXTSTYLE1
 73
     1
 44
1.0
  0
MTEXT
  5
262
330
25B
100
AcDbEntity
  8
DIM
 62
     0
100
AcDbMText
 10
0.7606779691
 20
-0.1581111094
 30
0.0
 40
3.571875
 41
0.0
 71
     1
 72
     1
  1
1/4" CLR
  7
SLDTEXTSTYLE1
 73
     1
 44
1.0
  0
ENDBLK
  5
25D
330
25B
100
AcDbEntity
  8
0
100
AcDbBlockEnd
  0
BLOCK
  5
265
330
264
100
AcDbEntity
  8
0
100
AcDbBlockBegin
  2
SW_CENTERMARKSYMBOL_0
 70
     0
 10
0.0
 20
0.0
 30
0.0
  3
SW_CENTERMARKSYMBOL_0
  1

  0
LINE
  5
267
330
264
100
AcDbEntity
  8
DIM
 62
     0
100
AcDbLine
 10
0.0
 20
0.0
 30
0.0
 11
0.0
 21
1.0
 31
0.0
  0
LINE
  5
268
330
264
100
AcDbEntity
  8
DIM
 62
     0
100
AcDbLine
 10
0.0
 20
0.0
 30
0.0
 11
-1.0
 21
0.0
 31
0.0
  0
LINE
  5
269
330
264
100
AcDbEntity
  8
DIM
 62
     0
100
AcDbLine
 10
0.0
 20
0.0
 30
0.0
 11
0.0
 21
-1.0
 31
0.0
  0
LINE
  5
26A
330
264
100
AcDbEntity
  8
DIM
 62
     0
100
AcDbLine
 10
0.0
 20
0.0
 30
0.0
 11
1.0
 21
0.0
 31
0.0
  0
LINE
  5
26B
330
264
100
AcDbEntity
  8
DIM
 62
     0
100
AcDbLine
 10
0.0
 20
2.0
 30
0.0
 11
0.0
 21
6.5
 31
0.0
  0
LINE
  5
26C
330
264
100
AcDbEntity
  8
DIM
 62
     0
100
AcDbLine
 10
-2.0
 20
0.0
 30
0.0
 11
-6.5
 21
0.0
 31
0.0
  0
LINE
  5
26D
330
264
100
AcDbEntity
  8
DIM
 62
     0
100
AcDbLine
 10
0.0
 20
-2.0
 30
0.0
 11
0.0
 21
-6.5
 31
0.0
  0
LINE
  5
26E
330
264
100
AcDbEntity
  8
DIM
 62
     0
100
AcDbLine
 10
2.0
 20
0.0
 30
0.0
 11
6.5
 21
0.0
 31
0.0
  0
ENDBLK
  5
266
330
264
100
AcDbEntity
  8
0
100
AcDbBlockEnd
  0
BLOCK
  5
271
330
270
100
AcDbEntity
  8
0
100
AcDbBlockBegin
  2
SW_CENTERMARKSYMBOL_1
 70
     0
 10
0.0
 20
0.0
 30
0.0
  3
SW_CENTERMARKSYMBOL_1
  1

  0
LINE
  5
273
330
270
100
AcDbEntity
  8
DIM
 62
     0
100
AcDbLine
 10
0.0
 20
0.0
 30
0.0
 11
0.0
 21
1.0
 31
0.0
  0
LINE
  5
274
330
270
100
AcDbEntity
  8
DIM
 62
     0
100
AcDbLine
 10
0.0
 20
0.0
 30
0.0
 11
-1.0
 21
0.0
 31
0.0
  0
LINE
  5
275
330
270
100
AcDbEntity
  8
DIM
 62
     0
100
AcDbLine
 10
0.0
 20
0.0
 30
0.0
 11
0.0
 21
-1.0
 31
0.0
  0
LINE
  5
276
330
270
100
AcDbEntity
  8
DIM
 62
     0
100
AcDbLine
 10
0.0
 20
0.0
 30
0.0
 11
1.0
 21
0.0
 31
0.0
  0
LINE
  5
277
330
270
100
AcDbEntity
  8
DIM
 62
     0
100
AcDbLine
 10
0.0
 20
2.0
 30
0.0
 11
0.0
 21
6.5
 31
0.0
  0
LINE
  5
278
330
270
100
AcDbEntity
  8
DIM
 62
     0
100
AcDbLine
 10
-2.0
 20
0.0
 30
0.0
 11
-6.5
 21
0.0
 31
0.0
  0
LINE
  5
279
330
270
100
AcDbEntity
  8
DIM
 62
     0
100
AcDbLine
 10
0.0
 20
-2.0
 30
0.0
 11
0.0
 21
-6.5
 31
0.0
  0
LINE
  5
27A
330
270
100
AcDbEntity
  8
DIM
 62
     0
100
AcDbLine
 10
2.0
 20
0.0
 30
0.0
 11
6.5
 21
0.0
 31
0.0
  0
ENDBLK
  5
272
330
270
100
AcDbEntity
  8
0
100
AcDbBlockEnd
  0
BLOCK
  5
27D
330
27C
100
AcDbEntity
  8
0
100
AcDbBlockBegin
  2
SW_CENTERMARKSYMBOL_2
 70
     0
 10
0.0
 20
0.0
 30
0.0
  3
SW_CENTERMARKSYMBOL_2
  1

  0
LINE
  5
27F
330
27C
100
AcDbEntity
  8
DIM
 62
     0
100
AcDbLine
 10
0.0
 20
0.0
 30
0.0
 11
0.0
 21
1.0
 31
0.0
  0
LINE
  5
280
330
27C
100
AcDbEntity
  8
DIM
 62
     0
100
AcDbLine
 10
0.0
 20
0.0
 30
0.0
 11
-1.0
 21
0.0
 31
0.0
  0
LINE
  5
281
330
27C
100
AcDbEntity
  8
DIM
 62
     0
100
AcDbLine
 10
0.0
 20
0.0
 30
0.0
 11
0.0
 21
-1.0
 31
0.0
  0
LINE
  5
282
330
27C
100
AcDbEntity
  8
DIM
 62
     0
100
AcDbLine
 10
0.0
 20
0.0
 30
0.0
 11
1.0
 21
0.0
 31
0.0
  0
LINE
  5
283
330
27C
100
AcDbEntity
  8
DIM
 62
     0
100
AcDbLine
 10
0.0
 20
2.0
 30
0.0
 11
0.0
 21
6.5
 31
0.0
  0
LINE
  5
284
330
27C
100
AcDbEntity
  8
DIM
 62
     0
100
AcDbLine
 10
-2.0
 20
0.0
 30
0.0
 11
-6.5
 21
0.0
 31
0.0
  0
LINE
  5
285
330
27C
100
AcDbEntity
  8
DIM
 62
     0
100
AcDbLine
 10
0.0
 20
-2.0
 30
0.0
 11
0.0
 21
-6.5
 31
0.0
  0
LINE
  5
286
330
27C
100
AcDbEntity
  8
DIM
 62
     0
100
AcDbLine
 10
2.0
 20
0.0
 30
0.0
 11
6.5
 21
0.0
 31
0.0
  0
ENDBLK
  5
27E
330
27C
100
AcDbEntity
  8
0
100
AcDbBlockEnd
  0
BLOCK
  5
289
330
288
100
AcDbEntity
  8
0
100
AcDbBlockBegin
  2
SW_CENTERMARKSYMBOL_3
 70
     0
 10
0.0
 20
0.0
 30
0.0
  3
SW_CENTERMARKSYMBOL_3
  1

  0
LINE
  5
28B
330
288
100
AcDbEntity
  8
DIM
 62
     0
100
AcDbLine
 10
0.0
 20
0.0
 30
0.0
 11
0.0
 21
1.0
 31
0.0
  0
LINE
  5
28C
330
288
100
AcDbEntity
  8
DIM
 62
     0
100
AcDbLine
 10
0.0
 20
0.0
 30
0.0
 11
-1.0
 21
0.0
 31
0.0
  0
LINE
  5
28D
330
288
100
AcDbEntity
  8
DIM
 62
     0
100
AcDbLine
 10
0.0
 20
0.0
 30
0.0
 11
0.0
 21
-1.0
 31
0.0
  0
LINE
  5
28E
330
288
100
AcDbEntity
  8
DIM
 62
     0
100
AcDbLine
 10
0.0
 20
0.0
 30
0.0
 11
1.0
 21
0.0
 31
0.0
  0
LINE
  5
28F
330
288
100
AcDbEntity
  8
DIM
 62
     0
100
AcDbLine
 10
0.0
 20
2.0
 30
0.0
 11
0.0
 21
6.5
 31
0.0
  0
LINE
  5
290
330
288
100
AcDbEntity
  8
DIM
 62
     0
100
AcDbLine
 10
-2.0
 20
0.0
 30
0.0
 11
-6.5
 21
0.0
 31
0.0
  0
LINE
  5
291
330
288
100
AcDbEntity
  8
DIM
 62
     0
100
AcDbLine
 10
0.0
 20
-2.0
 30
0.0
 11
0.0
 21
-6.5
 31
0.0
  0
LINE
  5
292
330
288
100
AcDbEntity
  8
DIM
 62
     0
100
AcDbLine
 10
2.0
 20
0.0
 30
0.0
 11
6.5
 21
0.0
 31
0.0
  0
ENDBLK
  5
28A
330
288
100
AcDbEntity
  8
0
100
AcDbBlockEnd
  0
ENDSEC
  0
SECTION
  2
ENTITIES
  0
HATCH
  5
89
330
1F
100
AcDbEntity
  8
0
  6
Continuous
 62
     7
100
AcDbHatch
 10
0.0
 20
0.0
 30
0.0
210
0.0
220
0.0
230
1.0
  2
SOLID
 70
     1
 71
     0
 91
        1
 92
        0
 93
       10
 72
     2
 10
288.210894844405
 20
53.63371321483284
 40
4.484454986654788
 50
50.3969226073138
 51
112.8514693252976
 73
     0
 72
     2
 10
287.722508944218
 20
53.15849742009306
 40
3.866003140226428
 50
108.9134333432859
 51
219.5668234386823
 73
     0
 72
     1
 10
284.7422759084405
 20
55.62105530422515
 11
283.2194851373368
 21
56.96435315545179
 72
     1
 10
283.2194851373368
 20
56.96435315545179
 11
281.2595427550144
 21
55.07197254069054
 72
     2
 10
282.7413701979584
 20
53.31918169158669
 40
2.295231650915492
 50
130.2115225915088
 51
228.5889041080187
 73
     1
 72
     1
 10
281.2231728819765
 20
51.59779700444966
 11
287.2369763472699
 21
46.37089124403766
 72
     1
 10
287.2369763472699
 20
46.37089124403766
 11
286.2903984666472
 21
45.4470406583311
 72
     1
 10
286.2903984666472
 20
45.4470406583311
 11
287.7782175137356
 21
44.16607925790036
 72
     1
 10
287.7782175137356
 20
44.16607925790036
 11
292.5927141652834
 21
48.84094620617359
 72
     1
 10
292.5927141652834
 20
48.84094620617359
 11
291.0695796177962
 21
50.17853479777325
 97
        0
 75
     0
 76
     1
 98
        1
 10
0.0
 20
0.0
  0
HATCH
  5
8A
330
1F
100
AcDbEntity
  8
0
  6
Continuous
 62
     1
100
AcDbHatch
 10
0.0
 20
0.0
 30
0.0
210
0.0
220
0.0
230
1.0
  2
SOLID
 70
     1
 71
     0
 91
        1
 92
        0
 93
       10
 72
     2
 10
288.8838683441533
 20
53.49460373447415
 40
3.866351232519375
 50
317.8184992995785
 51
398.0564711573078
 73
     0
 72
     1
 10
291.9282471087245
 20
51.1112385104617
 11
293.4064204481987
 21
49.82319310062746
 72
     1
 10
293.4064204481987
 20
49.82319310062746
 11
295.2689424203894
 21
51.62984251423828
 72
     2
 10
293.9288539318962
 20
53.47176261196967
 40
2.277829406127398
 50
306.0377529468134
 51
403.4396461533871
 73
     1
 72
     1
 10
295.5827837289046
 20
55.03797557002689
 11
289.3926499413897
 21
60.42173997297782
 72
     1
 10
289.3926499413897
 20
60.42173997297782
 11
290.3290268942806
 21
61.33532761923384
 72
     1
 10
290.3290268942806
 20
61.33532761923384
 11
288.9332671290045
 21
62.58061594900059
 72
     1
 10
288.9332671290045
 20
62.58061594900059
 11
284.0798889563897
 21
57.89023557907947
 72
     1
 10
284.0798889563897
 20
57.89023557907947
 11
285.6135007724125
 21
56.55254978839827
 72
     2
 10
288.4073839080665
 20
52.68337102625687
 40
4.772455056791814
 50
234.1674444878512
 51
314.4407074583993
 73
     0
 97
        0
 75
     0
 76
     1
 98
        1
 10
0.0
 20
0.0
  0
LINE
  5
8B
330
1F
100
AcDbEntity
  8
0
  6
Continuous
 62
     7
370
     0
100
AcDbLine
 10
251.7890662777
 20
26.6617788769
 30
0.0
 11
253.2890662777
 21
26.6617788769
 31
0.0
  0
LINE
  5
8C
330
1F
100
AcDbEntity
  8
0
  6
Continuous
 62
     7
370
     0
100
AcDbLine
 10
247.2890662777
 20
26.6617788769
 30
0.0
 11
251.0390662777
 21
26.6617788769
 31
0.0
  0
LINE
  5
8D
330
1F
100
AcDbEntity
  8
0
  6
Continuous
 62
     7
370
     0
100
AcDbLine
 10
272.0390662777
 20
22.9117788769
 30
0.0
 11
272.0390662777
 21
30.4117788769
 31
0.0
  0
LINE
  5
8E
330
1F
100
AcDbEntity
  8
0
  6
Continuous
 62
     7
370
     0
100
AcDbLine
 10
261.5390662777
 20
24.4117788769
 30
0.0
 11
272.0390662777
 21
22.9117788769
 31
0.0
  0
LINE
  5
8F
330
1F
100
AcDbEntity
  8
0
  6
Continuous
 62
     7
370
     0
100
AcDbLine
 10
252.5390662777
 20
25.1617788769
 30
0.0
 11
252.5390662777
 21
21.4117788769
 31
0.0
  0
LINE
  5
90
330
1F
100
AcDbEntity
  8
0
  6
Continuous
 62
     7
370
     0
100
AcDbLine
 10
272.0390662777
 20
30.4117788769
 30
0.0
 11
261.5390662777
 21
28.9117788769
 31
0.0
  0
LINE
  5
91
330
1F
100
AcDbEntity
  8
0
  6
Continuous
 62
     7
370
     0
100
AcDbLine
 10
260.0390662777
 20
26.6617788769
 30
0.0
 11
273.5390662777
 21
26.6617788769
 31
0.0
  0
LINE
  5
92
330
1F
100
AcDbEntity
  8
0
  6
Continuous
 62
     7
370
     0
100
AcDbLine
 10
252.5390662777
 20
27.4117788769
 30
0.0
 11
252.5390662777
 21
25.9117788769
 31
0.0
  0
LINE
  5
93
330
1F
100
AcDbEntity
  8
0
  6
Continuous
 62
     7
370
     0
100
AcDbLine
 10
254.0390662777
 20
26.6617788769
 30
0.0
 11
257.7890662777
 21
26.6617788769
 31
0.0
  0
LINE
  5
94
330
1F
100
AcDbEntity
  8
0
  6
Continuous
 62
     7
370
     0
100
AcDbLine
 10
252.5390662777
 20
31.9117788769
 30
0.0
 11
252.5390662777
 21
28.1617788769
 31
0.0
  0
LINE
  5
95
330
1F
100
AcDbEntity
  8
0
  6
Continuous
 62
     7
370
     0
100
AcDbLine
 10
261.5390662777
 20
28.9117788769
 30
0.0
 11
261.5390662777
 21
24.4117788769
 31
0.0
  0
LINE
  5
96
330
1F
100
AcDbEntity
  8
工作區域參考線
 62
     1
370
    30
100
AcDbLine
 10
285.6135007724
 20
56.5525497884
 30
0.0
 11
284.0798889564
 21
57.8902355791
 31
0.0
  0
LINE
  5
97
330
1F
100
AcDbEntity
  8
工作區域參考線
 62
     1
370
    30
100
AcDbLine
 10
284.0798889564
 20
57.8902355791
 30
0.0
 11
288.933267129
 21
62.580615949
 31
0.0
  0
LINE
  5
98
330
1F
100
AcDbEntity
  8
工作區域參考線
 62
     1
370
    30
100
AcDbLine
 10
288.933267129
 20
62.580615949
 30
0.0
 11
290.3290268943
 21
61.3353276192
 31
0.0
  0
LINE
  5
99
330
1F
100
AcDbEntity
  8
工作區域參考線
 62
     1
370
    30
100
AcDbLine
 10
290.3290268943
 20
61.3353276192
 30
0.0
 11
289.3926499414
 21
60.421739973
 31
0.0
  0
LINE
  5
9A
330
1F
100
AcDbEntity
  8
工作區域參考線
 62
     1
370
    30
100
AcDbLine
 10
289.3926499414
 20
60.421739973
 30
0.0
 11
295.5827837289
 21
55.03797557
 31
0.0
  0
LINE
  5
9B
330
1F
100
AcDbEntity
  8
工作區域參考線
 62
     1
370
    30
100
AcDbLine
 10
291.9282471087
 20
51.1112385105
 30
0.0
 11
293.4064204482
 21
49.8231931006
 31
0.0
  0
LINE
  5
9C
330
1F
100
AcDbEntity
  8
工作區域參考線
 62
     1
370
    30
100
AcDbLine
 10
293.4064204482
 20
49.8231931006
 30
0.0
 11
295.2689424204
 21
51.6298425142
 31
0.0
  0
LINE
  5
9D
330
1F
100
AcDbEntity
  8
0
  6
Continuous
 62
     7
370
     0
100
AcDbLine
 10
278.5361947814
 20
19.6728696119
 30
0.0
 11
428.5361947814
 21
19.6728696119
 31
0.0
  0
LINE
  5
9E
330
1F
100
AcDbEntity
  8
0
  6
Continuous
 62
     7
370
     0
100
AcDbLine
 10
278.5361947814
 20
27.1728696119
 30
0.0
 11
353.5361947814
 21
27.1728696119
 31
0.0
  0
LINE
  5
9F
330
1F
100
AcDbEntity
  8
0
  6
Continuous
 62
     7
370
     0
100
AcDbLine
 10
278.5361947814
 20
34.6728696119
 30
0.0
 11
353.5361947814
 21
34.6728696119
 31
0.0
  0
LINE
  5
A0
330
1F
100
AcDbEntity
  8
0
  6
Continuous
 62
     7
370
     0
100
AcDbLine
 10
278.5361947814
 20
42.1728696119
 30
0.0
 11
428.5361947814
 21
42.1728696119
 31
0.0
  0
LINE
  5
A1
330
1F
100
AcDbEntity
  8
0
  6
Continuous
 62
     7
370
     0
100
AcDbLine
 10
353.5361947814
 20
49.6728696119
 30
0.0
 11
428.5361947814
 21
49.6728696119
 31
0.0
  0
LINE
  5
A2
330
1F
100
AcDbEntity
  8
0
  6
Continuous
 62
     7
370
    15
100
AcDbLine
 10
353.5361947814
 20
27.1728696119
 30
0.0
 11
428.5361947814
 21
27.1728696119
 31
0.0
  0
LINE
  5
A3
330
1F
100
AcDbEntity
  8
0
  6
Continuous
 62
     7
370
     0
100
AcDbLine
 10
278.5361947814
 20
64.6728696119
 30
0.0
 11
428.5361947814
 21
64.6728696119
 31
0.0
  0
LINE
  5
A4
330
1F
100
AcDbEntity
  8
0
  6
Continuous
 62
     7
370
     0
100
AcDbLine
 10
376.8558265126
 20
12.1728696119
 30
0.0
 11
376.8558265126
 21
27.1728696119
 31
0.0
  0
LINE
  5
A5
330
1F
100
AcDbEntity
  8
0
  6
Continuous
 62
     7
370
     0
100
AcDbLine
 10
353.5361947814
 20
12.1728696119
 30
0.0
 11
353.5361947814
 21
64.6728696119
 31
0.0
  0
LINE
  5
A6
330
1F
100
AcDbEntity
  8
0
  6
Continuous
 62
     7
370
     0
100
AcDbLine
 10
376.8558265126
 20
42.1728696119
 30
0.0
 11
376.8558265126
 21
49.6728696119
 31
0.0
  0
LINE
  5
A7
330
1F
100
AcDbEntity
  8
0
  6
Continuous
 62
     7
370
     0
100
AcDbLine
 10
321.624612953
 20
12.1728696119
 30
0.0
 11
321.624612953
 21
42.1728696119
 31
0.0
  0
LINE
  5
A8
330
1F
100
AcDbEntity
  8
0
  6
Continuous
 62
     7
370
     0
100
AcDbLine
 10
299.6678831259
 20
12.1728696119
 30
0.0
 11
299.6678831259
 21
42.1728696119
 31
0.0
  0
LINE
  5
A9
330
1F
100
AcDbEntity
  8
0
  6
Continuous
 62
     7
370
     0
100
AcDbLine
 10
278.5361947814
 20
12.1728696119
 30
0.0
 11
278.5361947814
 21
64.6728696119
 31
0.0
  0
LINE
  5
AA
330
1F
100
AcDbEntity
  8
0
  6
Continuous
 62
     7
370
    15
100
AcDbLine
 10
64.9811947814
 20
302.0580413626
 30
0.0
 11
64.9811947814
 21
304.3080413626
 31
0.0
  0
LINE
  5
AB
330
1F
100
AcDbEntity
  8
0
  6
Continuous
 62
     7
370
    15
100
AcDbLine
 10
116.9261947814
 20
302.0580413626
 30
0.0
 11
116.9261947814
 21
304.3080413626
 31
0.0
  0
LINE
  5
AC
330
1F
100
AcDbEntity
  8
0
  6
Continuous
 62
     7
370
    15
100
AcDbLine
 10
168.8711947814
 20
302.0580413626
 30
0.0
 11
168.8711947814
 21
304.3080413626
 31
0.0
  0
LINE
  5
AD
330
1F
100
AcDbEntity
  8
0
  6
Continuous
 62
     7
370
    15
100
AcDbLine
 10
220.8161947814
 20
302.0580413626
 30
0.0
 11
220.8161947814
 21
304.3080413626
 31
0.0
  0
LINE
  5
AE
330
1F
100
AcDbEntity
  8
0
  6
Continuous
 62
     7
370
    15
100
AcDbLine
 10
272.7611947814
 20
302.0580413626
 30
0.0
 11
272.7611947814
 21
304.3080413626
 31
0.0
  0
LINE
  5
AF
330
1F
100
AcDbEntity
  8
0
  6
Continuous
 62
     7
370
    15
100
AcDbLine
 10
324.7061947814
 20
302.0580413626
 30
0.0
 11
324.7061947814
 21
304.3080413626
 31
0.0
  0
LINE
  5
B0
330
1F
100
AcDbEntity
  8
0
  6
Continuous
 62
     7
370
    15
100
AcDbLine
 10
376.6511947814
 20
302.0580413626
 30
0.0
 11
376.6511947814
 21
304.3080413626
 31
0.0
  0
LINE
  5
B1
330
1F
100
AcDbEntity
  8
0
  6
Continuous
 62
     7
370
    15
100
AcDbLine
 10
64.9736947814
 20
12.1728696119
 30
0.0
 11
64.9736947814
 21
9.9228696119
 31
0.0
  0
LINE
  5
B2
330
1F
100
AcDbEntity
  8
0
  6
Continuous
 62
     7
370
    15
100
AcDbLine
 10
116.9111947814
 20
12.1728696119
 30
0.0
 11
116.9111947814
 21
9.9228696119
 31
0.0
  0
LINE
  5
B3
330
1F
100
AcDbEntity
  8
0
  6
Continuous
 62
     7
370
    15
100
AcDbLine
 10
168.8486947814
 20
12.1728696119
 30
0.0
 11
168.8486947814
 21
9.9228696119
 31
0.0
  0
LINE
  5
B4
330
1F
100
AcDbEntity
  8
0
  6
Continuous
 62
     7
370
    15
100
AcDbLine
 10
220.7861947814
 20
12.1728696119
 30
0.0
 11
220.7861947814
 21
9.9228696119
 31
0.0
  0
LINE
  5
B5
330
1F
100
AcDbEntity
  8
0
  6
Continuous
 62
     7
370
    15
100
AcDbLine
 10
272.7236947814
 20
12.1728696119
 30
0.0
 11
272.7236947814
 21
9.9228696119
 31
0.0
  0
LINE
  5
B6
330
1F
100
AcDbEntity
  8
0
  6
Continuous
 62
     7
370
    15
100
AcDbLine
 10
324.6611947814
 20
12.1728696119
 30
0.0
 11
324.6611947814
 21
9.9228696119
 31
0.0
  0
LINE
  5
B7
330
1F
100
AcDbEntity
  8
0
  6
Continuous
 62
     7
370
     0
100
AcDbLine
 10
428.5361947814
 20
302.0580413626
 30
0.0
 11
13.0361947814
 21
302.0580413626
 31
0.0
  0
LINE
  5
B8
330
1F
100
AcDbEntity
  8
0
  6
Continuous
 62
     7
370
     0
100
AcDbLine
 10
428.5361947814
 20
12.1728696119
 30
0.0
 11
428.5361947814
 21
302.0580413626
 31
0.0
  0
LINE
  5
B9
330
1F
100
AcDbEntity
  8
0
  6
Continuous
 62
     7
370
     0
100
AcDbLine
 10
13.0361947814
 20
302.0580413626
 30
0.0
 11
13.0361947814
 21
12.1728696119
 31
0.0
  0
LINE
  5
BA
330
1F
100
AcDbEntity
  8
0
  6
Continuous
 62
     7
370
     0
100
AcDbLine
 10
13.0361947814
 20
12.1728696119
 30
0.0
 11
428.5361947814
 21
12.1728696119
 31
0.0
  0
LINE
  5
BB
330
1F
100
AcDbEntity
  8
0
  6
Continuous
 62
     7
370
    15
100
AcDbLine
 10
376.5986947814
 20
12.1728696119
 30
0.0
 11
376.5986947814
 21
9.9228696119
 31
0.0
  0
LINE
  5
BC
330
1F
100
AcDbEntity
  8
0
  6
Continuous
 62
     7
370
    15
100
AcDbLine
 10
13.0361947814
 20
60.4878696119
 30
0.0
 11
10.7861947814
 21
60.4878696119
 31
0.0
  0
LINE
  5
BD
330
1F
100
AcDbEntity
  8
0
  6
Continuous
 62
     7
370
    15
100
AcDbLine
 10
13.0361947814
 20
108.8028696119
 30
0.0
 11
10.7861947814
 21
108.8028696119
 31
0.0
  0
LINE
  5
BE
330
1F
100
AcDbEntity
  8
0
  6
Continuous
 62
     7
370
    15
100
AcDbLine
 10
13.0361947814
 20
157.1178696119
 30
0.0
 11
10.7861947814
 21
157.1178696119
 31
0.0
  0
LINE
  5
BF
330
1F
100
AcDbEntity
  8
0
  6
Continuous
 62
     7
370
    15
100
AcDbLine
 10
13.0361947814
 20
205.4328696119
 30
0.0
 11
10.7861947814
 21
205.4328696119
 31
0.0
  0
LINE
  5
C0
330
1F
100
AcDbEntity
  8
0
  6
Continuous
 62
     7
370
    15
100
AcDbLine
 10
13.0361947814
 20
253.7478696119
 30
0.0
 11
10.7861947814
 21
253.7478696119
 31
0.0
  0
LINE
  5
C1
330
1F
100
AcDbEntity
  8
0
  6
Continuous
 62
     7
370
    15
100
AcDbLine
 10
428.5361947814
 20
60.4878696119
 30
0.0
 11
430.7861947814
 21
60.4878696119
 31
0.0
  0
LINE
  5
C2
330
1F
100
AcDbEntity
  8
0
  6
Continuous
 62
     7
370
    15
100
AcDbLine
 10
428.5361947814
 20
108.8028696119
 30
0.0
 11
430.7861947814
 21
108.8028696119
 31
0.0
  0
LINE
  5
C3
330
1F
100
AcDbEntity
  8
0
  6
Continuous
 62
     7
370
    15
100
AcDbLine
 10
428.5361947814
 20
157.1178696119
 30
0.0
 11
430.7861947814
 21
157.1178696119
 31
0.0
  0
LINE
  5
C4
330
1F
100
AcDbEntity
  8
0
  6
Continuous
 62
     7
370
    15
100
AcDbLine
 10
428.5361947814
 20
205.4328696119
 30
0.0
 11
430.7861947814
 21
205.4328696119
 31
0.0
  0
LINE
  5
C5
330
1F
100
AcDbEntity
  8
0
  6
Continuous
 62
     7
370
    15
100
AcDbLine
 10
428.5361947814
 20
253.7478696119
 30
0.0
 11
430.7861947814
 21
253.7478696119
 31
0.0
  0
CIRCLE
  5
C6
330
1F
100
AcDbEntity
  8
0
  6
Continuous
 62
     7
370
     0
100
AcDbCircle
 10
252.5390662777
 20
26.6617788769
 30
0.0
 40
2.249999999999943
  0
CIRCLE
  5
C7
330
1F
100
AcDbEntity
  8
0
  6
Continuous
 62
     7
370
     0
100
AcDbCircle
 10
252.5390662777
 20
26.6617788769
 30
0.0
 40
3.749999999999943
  0
ARC
  5
C8
330
1F
100
AcDbEntity
  8
工作區域參考線
 62
     1
370
    30
100
AcDbCircle
 10
293.9288539319
 20
53.471762612
 30
0.0
 40
2.277829406127415
100
AcDbArc
 50
306.0377529468
 51
43.4396461534
  0
ARC
  5
C9
330
1F
100
AcDbEntity
  8
工作區域參考線
 62
     1
370
    30
100
AcDbCircle
 10
288.4073839081
 20
52.6833710263
 30
0.0
 40
4.772455056791824
100
AcDbArc
 50
45.5592925416
 51
125.8325555121
  0
ARC
  5
CA
330
1F
100
AcDbEntity
  8
工作區域參考線
 62
     1
370
    30
100
AcDbCircle
 10
288.8838683442
 20
53.4946037345
 30
0.0
 40
3.866351232519385
100
AcDbArc
 50
321.9435288427
 51
42.1815007004
  0
INSERT
  5
CB
330
1F
100
AcDbEntity
  8
0
  6
Continuous
 62
     7
100
AcDbBlockReference
  2
圖塊6
 10
280.446138547
 20
44.1660792579
 30
0.0
  0
MTEXT
  5
CD
330
1F
100
AcDbEntity
  8
0
  6
Continuous
 62
     7
370
     0
100
AcDbMText
 10
248.3140276206
 20
19.8312660554
 30
0.0
 40
3.96875
 41
0.0
 71
     1
 72
     1
  1
UNIT:m/m
  7
SLDTEXTSTYLE0
 73
     1
 44
1.0
  0
INSERT
  5
D4
330
1F
100
AcDbEntity
  8
0
  6
Continuous
 62
     7
370
     0
100
AcDbBlockReference
  2
SW_NOTE_0
 10
18.347261408
 20
290.8356456377
 30
0.0
  0
MTEXT
  5
D5
330
1F
100
AcDbEntity
  8
0
  6
Continuous
 62
     7
370
     0
100
AcDbMText
 10
298.0877840902
 20
60.6610161208
 30
0.0
 40
3.571875
 41
0.0
 71
     1
 72
     1
  1
Unice E-O Services Inc.
  7
SLDTEXTSTYLE0
 73
     1
 44
1.0
  0
MTEXT
  5
D6
330
1F
100
AcDbEntity
  8
0
  6
Continuous
 62
     7
370
     0
100
AcDbMText
 10
326.3385807224
 20
32.3800722766
 30
0.0
 40
2.778125
 41
0.0
 71
     1
 72
     1
  1
2017/12/4
  7
SLDTEXTSTYLE0
 73
     1
 44
1.0
  0
MTEXT
  5
D7
330
1F
100
AcDbEntity
  8
0
  6
Continuous
 62
     7
370
     0
100
AcDbMText
 10
378.913347376
 20
25.30676661
 30
0.0
 40
3.75
 41
0.0
 71
     1
 72
     1
  1
1:1.5
  7
SLDTEXTSTYLE0
 73
     1
 44
1.0
  0
MTEXT
  5
D8
330
1F
100
AcDbEntity
  8
0
  6
Continuous
 62
     7
370
     0
100
AcDbMText
 10
378.4613399977
 20
48.2278793156
 30
0.0
 40
3.75
 41
0.0
 71
     1
 72
     1
  1
CUH-4
  7
SLDTEXTSTYLE0
 73
     1
 44
1.0
  0
MTEXT
  5
D9
330
1F
100
AcDbEntity
  8
0
  6
Continuous
 62
     7
370
     0
100
AcDbMText
 10
378.4613399977
 20
57.1623176818
 30
0.0
 40
3.75
 41
0.0
 71
     1
 72
     1
  1
CUH-4
  7
SLDTEXTSTYLE0
 73
     1
 44
1.0
  0
MTEXT
  5
DA
330
1F
100
AcDbEntity
  8
0
  6
Continuous
 62
     7
370
     0
100
AcDbMText
 10
354.588280018
 20
24.7597193593
 30
0.0
 40
3.175
 41
0.0
 71
     1
 72
     1
  1
SCALE:
  7
SLDTEXTSTYLE0
 73
     1
 44
1.0
  0
MTEXT
  5
DB
330
1F
100
AcDbEntity
  8
0
  6
Continuous
 62
     7
370
     0
100
AcDbMText
 10
279.5004130184
 20
32.3800722766
 30
0.0
 40
2.778125
 41
0.0
 71
     1
 72
     1
  1
DRAWN
  7
SLDTEXTSTYLE0
 73
     1
 44
1.0
  0
MTEXT
  5
DC
330
1F
100
AcDbEntity
  8
0
  6
Continuous
 62
     7
370
     0
100
AcDbMText
 10
304.8342551905
 20
40.024812462
 30
0.0
 40
2.778125
 41
0.0
 71
     1
 72
     1
  1
NAME
  7
SLDTEXTSTYLE0
 73
     1
 44
1.0
  0
MTEXT
  5
DD
330
1F
100
AcDbEntity
  8
0
  6
Continuous
 62
     7
370
     0
100
AcDbMText
 10
331.3065233636
 20
40.024812462
 30
0.0
 40
2.778125
 41
0.0
 71
     1
 72
     1
  1
DATE
  7
SLDTEXTSTYLE0
 73
     1
 44
1.0
  0
MTEXT
  5
DE
330
1F
100
AcDbEntity
  8
0
  6
Continuous
 62
     7
370
     0
100
AcDbMText
 10
354.4134474968
 20
47.6808320649
 30
0.0
 40
3.175
 41
0.0
 71
     1
 72
     1
  1
DWG. NO.
  7
SLDTEXTSTYLE0
 73
     1
 44
1.0
  0
MTEXT
  5
DF
330
1F
100
AcDbEntity
  8
0
  6
Continuous
 62
     7
370
     0
100
AcDbMText
 10
354.5444860632
 20
62.8260987365
 30
0.0
 40
3.175
 41
0.0
 71
     1
 72
     1
  1
TITLE:
  7
SLDTEXTSTYLE0
 73
     1
 44
1.0
  0
MTEXT
  5
E0
330
1F
100
AcDbEntity
  8
0
  6
Continuous
 62
     7
370
     0
100
AcDbMText
 10
304.5471314703
 20
24.3605684586
 30
0.0
 40
2.778125
 41
0.0
 71
     1
 72
     1
  1
Johnny
  7
SLDTEXTSTYLE0
 73
     1
 44
1.0
  0
MTEXT
  5
E1
330
1F
100
AcDbEntity
  8
0
  6
Continuous
 62
     7
370
     0
100
AcDbMText
 10
326.3385807224
 20
24.3605684586
 30
0.0
 40
2.778125
 41
0.0
 71
     1
 72
     1
  1
2017/12/4
  7
SLDTEXTSTYLE0
 73
     1
 44
1.0
  0
MTEXT
  5
E2
330
1F
100
AcDbEntity
  8
0
  6
Continuous
 62
     7
370
     0
100
AcDbMText
 10
279.5004130184
 20
24.3605684586
 30
0.0
 40
2.778125
 41
0.0
 71
     1
 72
     1
  1
ENG APPR.
  7
SLDTEXTSTYLE0
 73
     1
 44
1.0
  0
MTEXT
  5
E3
330
1F
100
AcDbEntity
  8
0
  6
Continuous
 62
     7
370
     0
100
AcDbMText
 10
354.588280018
 20
17.5280083932
 30
0.0
 40
3.175
 41
0.0
 71
     1
 72
     1
  1
REV
  7
SLDTEXTSTYLE0
 73
     1
 44
1.0
  0
MTEXT
  5
E4
330
1F
100
AcDbEntity
  8
0
  6
Continuous
 62
     7
370
     0
100
AcDbMText
 10
354.5444860632
 20
40.4239633627
 30
0.0
 40
3.175
 41
0.0
 71
     1
 72
     1
  1
MATERIAL:
  7
SLDTEXTSTYLE0
 73
     1
 44
1.0
  0
MTEXT
  5
E5
330
1F
100
AcDbEntity
  8
0
  6
Continuous
 62
     7
370
     0
100
AcDbMText
 10
378.913347376
 20
33.326270428
 30
0.0
 40
3.75
 41
0.0
 71
     1
 72
     1
  1
N/A
  7
SLDTEXTSTYLE0
 73
     1
 44
1.0
  0
MTEXT
  5
E6
330
1F
100
AcDbEntity
  8
0
  6
Continuous
 62
     7
370
     0
100
AcDbMText
 10
39.90448973
 20
306.6800274854
 30
0.0
 40
3.175
 41
0.0
 71
     1
 72
     1
  1
1
  7
SLDTEXTSTYLE0
 73
     1
 44
1.0
  0
MTEXT
  5
E7
330
1F
100
AcDbEntity
  8
0
  6
Continuous
 62
     7
370
     0
100
AcDbMText
 10
91.0756493586
 20
306.6800274854
 30
0.0
 40
3.175
 41
0.0
 71
     1
 72
     1
  1
2
  7
SLDTEXTSTYLE0
 73
     1
 44
1.0
  0
MTEXT
  5
E8
330
1F
100
AcDbEntity
  8
0
  6
Continuous
 62
     7
370
     0
100
AcDbMText
 10
142.3514915859
 20
306.6800274854
 30
0.0
 40
3.175
 41
0.0
 71
     1
 72
     1
  1
3
  7
SLDTEXTSTYLE0
 73
     1
 44
1.0
  0
MTEXT
  5
E9
330
1F
100
AcDbEntity
  8
0
  6
Continuous
 62
     7
370
     0
100
AcDbMText
 10
193.8800044277
 20
306.4488876546
 30
0.0
 40
3.175
 41
0.0
 71
     1
 72
     1
  1
4
  7
SLDTEXTSTYLE0
 73
     1
 44
1.0
  0
MTEXT
  5
EA
330
1F
100
AcDbEntity
  8
0
  6
Continuous
 62
     7
370
     0
100
AcDbMText
 10
245.5534851959
 20
306.6800274854
 30
0.0
 40
3.175
 41
0.0
 71
     1
 72
     1
  1
5
  7
SLDTEXTSTYLE0
 73
     1
 44
1.0
  0
MTEXT
  5
EB
330
1F
100
AcDbEntity
  8
0
  6
Continuous
 62
     7
370
     0
100
AcDbMText
 10
297.9573255623
 20
306.6800274854
 30
0.0
 40
3.175
 41
0.0
 71
     1
 72
     1
  1
6
  7
SLDTEXTSTYLE0
 73
     1
 44
1.0
  0
MTEXT
  5
EC
330
1F
100
AcDbEntity
  8
0
  6
Continuous
 62
     7
370
     0
100
AcDbMText
 10
351.544598611
 20
306.6800274854
 30
0.0
 40
3.175
 41
0.0
 71
     1
 72
     1
  1
7
  7
SLDTEXTSTYLE0
 73
     1
 44
1.0
  0
MTEXT
  5
ED
330
1F
100
AcDbEntity
  8
0
  6
Continuous
 62
     7
370
     0
100
AcDbMText
 10
399.4181730741
 20
306.6800274854
 30
0.0
 40
3.175
 41
0.0
 71
     1
 72
     1
  1
8
  7
SLDTEXTSTYLE0
 73
     1
 44
1.0
  0
MTEXT
  5
EE
330
1F
100
AcDbEntity
  8
0
  6
Continuous
 62
     7
370
     0
100
AcDbMText
 10
8.0352354832
 20
278.7169534319
 30
0.0
 40
3.175
 41
0.0
 71
     1
 72
     1
  1
A
  7
SLDTEXTSTYLE0
 73
     1
 44
1.0
  0
MTEXT
  5
EF
330
1F
100
AcDbEntity
  8
0
  6
Continuous
 62
     7
370
     0
100
AcDbMText
 10
8.3865647747
 20
231.4489572357
 30
0.0
 40
3.175
 41
0.0
 71
     1
 72
     1
  1
B
  7
SLDTEXTSTYLE0
 73
     1
 44
1.0
  0
MTEXT
  5
F0
330
1F
100
AcDbEntity
  8
0
  6
Continuous
 62
     7
370
     0
100
AcDbMText
 10
8.3865647747
 20
181.9115271345
 30
0.0
 40
3.175
 41
0.0
 71
     1
 72
     1
  1
C
  7
SLDTEXTSTYLE0
 73
     1
 44
1.0
  0
MTEXT
  5
F1
330
1F
100
AcDbEntity
  8
0
  6
Continuous
 62
     7
370
     0
100
AcDbMText
 10
8.3865647747
 20
133.1179830331
 30
0.0
 40
3.175
 41
0.0
 71
     1
 72
     1
  1
D
  7
SLDTEXTSTYLE0
 73
     1
 44
1.0
  0
MTEXT
  5
F2
330
1F
100
AcDbEntity
  8
0
  6
Continuous
 62
     7
370
     0
100
AcDbMText
 10
8.3865647747
 20
86.3338273796
 30
0.0
 40
3.175
 41
0.0
 71
     1
 72
     1
  1
E
  7
SLDTEXTSTYLE0
 73
     1
 44
1.0
  0
MTEXT
  5
F3
330
1F
100
AcDbEntity
  8
0
  6
Continuous
 62
     7
370
     0
100
AcDbMText
 10
8.3865647747
 20
38.3541318378
 30
0.0
 40
3.175
 41
0.0
 71
     1
 72
     1
  1
F
  7
SLDTEXTSTYLE0
 73
     1
 44
1.0
  0
MTEXT
  5
F4
330
1F
100
AcDbEntity
  8
0
  6
Continuous
 62
     7
370
     0
100
AcDbMText
 10
399.2787925446
 20
9.9354335945
 30
0.0
 40
3.175
 41
0.0
 71
     1
 72
     1
  1
8
  7
SLDTEXTSTYLE0
 73
     1
 44
1.0
  0
MTEXT
  5
F5
330
1F
100
AcDbEntity
  8
0
  6
Continuous
 62
     7
370
     0
100
AcDbMText
 10
351.4052180815
 20
9.9354335945
 30
0.0
 40
3.175
 41
0.0
 71
     1
 72
     1
  1
7
  7
SLDTEXTSTYLE0
 73
     1
 44
1.0
  0
MTEXT
  5
F6
330
1F
100
AcDbEntity
  8
0
  6
Continuous
 62
     7
370
     0
100
AcDbMText
 10
297.8179450327
 20
9.9354335945
 30
0.0
 40
3.175
 41
0.0
 71
     1
 72
     1
  1
6
  7
SLDTEXTSTYLE0
 73
     1
 44
1.0
  0
MTEXT
  5
F7
330
1F
100
AcDbEntity
  8
0
  6
Continuous
 62
     7
370
     0
100
AcDbMText
 10
245.4141046664
 20
9.9354335945
 30
0.0
 40
3.175
 41
0.0
 71
     1
 72
     1
  1
5
  7
SLDTEXTSTYLE0
 73
     1
 44
1.0
  0
MTEXT
  5
F8
330
1F
100
AcDbEntity
  8
0
  6
Continuous
 62
     7
370
     0
100
AcDbMText
 10
193.7406238981
 20
9.7042937637
 30
0.0
 40
3.175
 41
0.0
 71
     1
 72
     1
  1
4
  7
SLDTEXTSTYLE0
 73
     1
 44
1.0
  0
MTEXT
  5
F9
330
1F
100
AcDbEntity
  8
0
  6
Continuous
 62
     7
370
     0
100
AcDbMText
 10
142.2121110564
 20
9.9354335945
 30
0.0
 40
3.175
 41
0.0
 71
     1
 72
     1
  1
3
  7
SLDTEXTSTYLE0
 73
     1
 44
1.0
  0
MTEXT
  5
FA
330
1F
100
AcDbEntity
  8
0
  6
Continuous
 62
     7
370
     0
100
AcDbMText
 10
90.9362688291
 20
9.9354335945
 30
0.0
 40
3.175
 41
0.0
 71
     1
 72
     1
  1
2
  7
SLDTEXTSTYLE0
 73
     1
 44
1.0
  0
MTEXT
  5
FB
330
1F
100
AcDbEntity
  8
0
  6
Continuous
 62
     7
370
     0
100
AcDbMText
 10
39.7651092004
 20
9.9354335945
 30
0.0
 40
3.175
 41
0.0
 71
     1
 72
     1
  1
1
  7
SLDTEXTSTYLE0
 73
     1
 44
1.0
  0
MTEXT
  5
FC
330
1F
100
AcDbEntity
  8
0
  6
Continuous
 62
     7
370
     0
100
AcDbMText
 10
430.6535769217
 20
279.9637363637
 30
0.0
 40
3.175
 41
0.0
 71
     1
 72
     1
  1
A
  7
SLDTEXTSTYLE0
 73
     1
 44
1.0
  0
MTEXT
  5
FD
330
1F
100
AcDbEntity
  8
0
  6
Continuous
 62
     7
370
     0
100
AcDbMText
 10
431.0049062132
 20
232.6957401676
 30
0.0
 40
3.175
 41
0.0
 71
     1
 72
     1
  1
B
  7
SLDTEXTSTYLE0
 73
     1
 44
1.0
  0
MTEXT
  5
FE
330
1F
100
AcDbEntity
  8
0
  6
Continuous
 62
     7
370
     0
100
AcDbMText
 10
431.0049062132
 20
183.1583100664
 30
0.0
 40
3.175
 41
0.0
 71
     1
 72
     1
  1
C
  7
SLDTEXTSTYLE0
 73
     1
 44
1.0
  0
MTEXT
  5
FF
330
1F
100
AcDbEntity
  8
0
  6
Continuous
 62
     7
370
     0
100
AcDbMText
 10
431.0049062132
 20
134.364765965
 30
0.0
 40
3.175
 41
0.0
 71
     1
 72
     1
  1
D
  7
SLDTEXTSTYLE0
 73
     1
 44
1.0
  0
MTEXT
  5
100
330
1F
100
AcDbEntity
  8
0
  6
Continuous
 62
     7
370
     0
100
AcDbMText
 10
431.0049062132
 20
87.5806103114
 30
0.0
 40
3.175
 41
0.0
 71
     1
 72
     1
  1
E
  7
SLDTEXTSTYLE0
 73
     1
 44
1.0
  0
MTEXT
  5
101
330
1F
100
AcDbEntity
  8
0
  6
Continuous
 62
     7
370
     0
100
AcDbMText
 10
431.0049062132
 20
39.6009147696
 30
0.0
 40
3.175
 41
0.0
 71
     1
 72
     1
  1
F
  7
SLDTEXTSTYLE0
 73
     1
 44
1.0
  0
MTEXT
  5
102
330
1F
100
AcDbEntity
  8
0
  6
Continuous
 62
     7
370
     0
100
AcDbMText
 10
304.7329693203
 20
32.3800722766
 30
0.0
 40
2.778125
 41
0.0
 71
     1
 72
     1
  1
Sky
  7
SLDTEXTSTYLE0
 73
     1
 44
1.0
  0
MTEXT
  5
104
330
1F
100
AcDbEntity
  8
0
  6
Continuous
 62
     7
370
     0
100
AcDbMText
 10
379.2723359468
 20
18.3329404977
 30
0.0
 40
3.571875
 41
0.0
 71
     1
 72
     1
  1
0
  7
SLDTEXTSTYLE1
 73
     1
 44
1.0
  0
INSERT
  5
10A
330
1F
100
AcDbEntity
  8
SLD-0
 62
     7
100
AcDbBlockReference
  2
SW_NOTE_1
 10
298.0877840902
 20
50.3219617818
 30
0.0
  0
LINE
  5
10B
330
1F
100
AcDbEntity
  8
0
  6
Continuous
 62
     7
370
    30
100
AcDbLine
 10
111.3310213704
 20
87.1905922078
 30
0.0
 11
111.3040043428
 21
87.1905922078
 31
0.0
  0
SPLINE
  5
10C
330
1F
100
AcDbEntity
  8
0
  6
Continuous
 62
     7
370
    30
100
AcDbSpline
210
0.0
220
0.0
230
1.0
 70
     8
 71
     3
 72
     9
 73
     5
 74
     0
 42
0.000000001
 43
0.00000001
 40
0.0
 40
0.0
 40
0.0
 40
0.0
 40
0.4997993380108162
 40
1.0
 40
1.0
 40
1.0
 40
1.0
 10
111.565446729358
 20
86.79543436765915
 30
0.0
 10
111.5286023723312
 20
86.85880366335024
 30
0.0
 10
111.4548840733564
 20
86.98559313838899
 30
0.0
 10
111.3812481931091
 20
87.11254837500584
 30
0.0
 10
111.3444154770633
 20
87.1760514684046
 30
0.0
  0
SPLINE
  5
10D
330
1F
100
AcDbEntity
  8
0
  6
Continuous
 62
     7
370
    30
100
AcDbSpline
210
0.0
220
0.0
230
1.0
 70
     8
 71
     3
 72
     9
 73
     5
 74
     0
 42
0.000000001
 43
0.00000001
 40
0.0
 40
0.0
 40
0.0
 40
0.0
 40
0.4998415581731465
 40
1.0
 40
1.0
 40
1.0
 40
1.0
 10
111.3629070031976
 20
83.52037660107261
 30
0.0
 10
111.3997354412777
 20
83.45700025648665
 30
0.0
 10
111.4734156654966
 20
83.33020738872756
 30
0.0
 10
111.5470240752336
 20
83.20336604472233
 30
0.0
 10
111.5838399427531
 20
83.13992527574545
 30
0.0
  0
LINE
  5
10E
330
1F
100
AcDbEntity
  8
0
  6
Continuous
 62
     7
370
    30
100
AcDbLine
 10
112.2110839942
 20
83.3060043052
 30
0.0
 11
112.5667859023
 21
83.6617061988
 31
0.0
  0
SPLINE
  5
10F
330
1F
100
AcDbEntity
  8
0
  6
Continuous
 62
     7
370
    30
100
AcDbSpline
210
0.0
220
0.0
230
1.0
 70
     8
 71
     3
 72
     9
 73
     5
 74
     0
 42
0.000000001
 43
0.00000001
 40
0.0
 40
0.0
 40
0.0
 40
0.0
 40
0.5001832345882512
 40
1.0
 40
1.0
 40
1.0
 40
1.0
 10
111.6919146888477
 20
83.14239840284235
 30
0.0
 10
111.7287339058759
 20
83.20587613142568
 30
0.0
 10
111.8023453636021
 20
83.33278508037436
 30
0.0
 10
111.8760324367856
 20
83.45960812668723
 30
0.0
 10
111.9128624713567
 20
83.522996411475
 30
0.0
  0
LINE
  5
110
330
1F
100
AcDbEntity
  8
0
  6
Continuous
 62
     7
370
    30
100
AcDbLine
 10
111.593521332
 20
83.1328206815
 30
0.0
 11
111.6810213579
 21
83.1328206815
 31
0.0
  0
SPLINE
  5
111
330
1F
100
AcDbEntity
  8
0
  6
Continuous
 62
     7
370
    30
100
AcDbSpline
210
0.0
220
0.0
230
1.0
 70
     8
 71
     3
 72
     9
 73
     5
 74
     0
 42
0.000000001
 43
0.00000001
 40
0.0
 40
0.0
 40
0.0
 40
0.0
 40
0.9021199529192235
 40
1.0
 40
1.0
 40
1.0
 40
1.0
 10
112.0606229387277
 20
83.52401807233936
 30
0.0
 10
112.0968435561322
 20
83.46173237674486
 30
0.0
 10
112.1369941118174
 20
83.39268868095591
 30
0.0
 10
112.1770860438228
 20
83.32361725583027
 30
0.0
 10
112.181010244015
 20
83.31685654148704
 30
0.0
  0
LINE
  5
112
330
1F
100
AcDbEntity
  8
0
  6
Continuous
 62
     7
370
    30
100
AcDbLine
 10
111.3040043428
 20
83.5117064536
 30
0.0
 11
111.3679441778
 21
83.5117064536
 31
0.0
  0
LINE
  5
113
330
1F
100
AcDbEntity
  8
0
  6
Continuous
 62
     7
370
    30
100
AcDbLine
 10
111.8996403975
 20
83.5117064536
 30
0.0
 11
112.0677784283
 21
83.5117064536
 31
0.0
  0
SPLINE
  5
114
330
1F
100
AcDbEntity
  8
0
  6
Continuous
 62
     7
370
    30
100
AcDbSpline
210
0.0
220
0.0
230
1.0
 70
     8
 71
     3
 72
     9
 73
     5
 74
     0
 42
0.000000001
 43
0.00000001
 40
0.0
 40
0.0
 40
0.0
 40
0.0
 40
0.5002399248411474
 40
1.0
 40
1.0
 40
1.0
 40
1.0
 10
111.9320297011228
 20
87.18058863915748
 30
0.0
 10
111.895130644356
 20
87.1169988950303
 30
0.0
 10
111.8213679258397
 20
86.98988040454327
 30
0.0
 10
111.7474965575422
 20
86.86281831125582
 30
0.0
 10
111.7105785969698
 20
86.79931774996466
 30
0.0
  0
SPLINE
  5
115
330
1F
100
AcDbEntity
  8
0
  6
Continuous
 62
     7
370
    30
100
AcDbSpline
210
0.0
220
0.0
230
1.0
 70
     8
 71
     3
 72
     9
 73
     5
 74
     0
 42
0.000000001
 43
0.00000001
 40
0.0
 40
0.0
 40
0.0
 40
0.0
 40
0.4997477420738327
 40
1.0
 40
1.0
 40
1.0
 40
1.0
 10
112.2631832267444
 20
86.79984906949348
 30
0.0
 10
112.2262871202043
 20
86.86335303301404
 30
0.0
 10
112.1524576589905
 20
86.99042506991215
 30
0.0
 10
112.0787324381894
 20
87.11753780991572
 30
0.0
 10
112.0418512300176
 20
87.18112624511367
 30
0.0
  0
LINE
  5
116
330
1F
100
AcDbEntity
  8
0
  6
Continuous
 62
     7
370
    30
100
AcDbLine
 10
112.0310213455
 20
87.1905922078
 30
0.0
 11
111.9435213486
 21
87.1905922078
 31
0.0
  0
LINE
  5
117
330
1F
100
AcDbEntity
  8
0
  6
Continuous
 62
     7
370
    30
100
AcDbLine
 10
112.5667859023
 20
86.6617062248
 30
0.0
 11
112.4167858952
 21
86.8117062029
 31
0.0
  0
LINE
  5
118
330
1F
100
AcDbEntity
  8
0
  6
Continuous
 62
     7
370
    30
100
AcDbLine
 10
112.4167858952
 20
86.8117062029
 30
0.0
 11
112.2562960818
 21
86.8117062029
 31
0.0
  0
LINE
  5
119
330
1F
100
AcDbEntity
  8
0
  6
Continuous
 62
     7
370
    30
100
AcDbLine
 10
111.7246404037
 20
86.8117062029
 30
0.0
 11
111.5559896725
 21
86.8117062029
 31
0.0
  0
CIRCLE
  5
11A
330
1F
100
AcDbEntity
  8
0
  6
Continuous
 62
     7
370
    30
100
AcDbCircle
 10
83.8040043394
 20
93.6617062963
 30
0.0
 40
1.999999999999986
  0
LINE
  5
11B
330
1F
100
AcDbEntity
  8
0
  6
Continuous
 62
     7
370
    30
100
AcDbLine
 10
83.1763766627
 20
94.6309408292
 30
0.0
 11
82.6508089821
 21
93.6027811959
 31
0.0
  0
LINE
  5
11C
330
1F
100
AcDbEntity
  8
0
  6
Continuous
 62
     7
370
    30
100
AcDbLine
 10
82.6508089821
 20
93.6027811959
 30
0.0
 11
83.2784365784
 21
92.6335468076
 31
0.0
  0
LINE
  5
11D
330
1F
100
AcDbEntity
  8
0
  6
Continuous
 62
     7
370
    30
100
AcDbLine
 10
84.9571995359
 20
93.7206312202
 30
0.0
 11
84.3295719396
 21
94.6898656085
 31
0.0
  0
LINE
  5
11E
330
1F
100
AcDbEntity
  8
0
  6
Continuous
 62
     7
370
    30
100
AcDbLine
 10
84.3295719396
 20
94.6898656085
 30
0.0
 11
83.1763766627
 21
94.6309408292
 31
0.0
  0
LINE
  5
11F
330
1F
100
AcDbEntity
  8
0
  6
Continuous
 62
     7
370
    30
100
AcDbLine
 10
83.2784365784
 20
92.6335468076
 30
0.0
 11
84.4316337179
 21
92.6924715869
 31
0.0
  0
LINE
  5
120
330
1F
100
AcDbEntity
  8
0
  6
Continuous
 62
     7
370
    30
100
AcDbLine
 10
84.4316337179
 20
92.6924715869
 30
0.0
 11
84.9571995359
 21
93.7206312202
 31
0.0
  0
SPLINE
  5
121
330
1F
100
AcDbEntity
  8
0
  6
Continuous
 62
     7
370
    30
100
AcDbSpline
210
0.0
220
0.0
230
1.0
 70
    11
 71
     3
 72
    31
 73
    27
 74
     0
 42
0.000000001
 43
0.00000001
 40
0.0
 40
0.0
 40
0.0
 40
0.0
 40
0.0598608299476027
 40
0.0924114114154967
 40
0.1250001012006181
 40
0.1575507021472543
 40
0.1901392540920414
 40
0.2500000592618725
 40
0.3098608644317036
 40
0.3424113892996448
 40
0.3749999954901533
 40
0.4075506800441188
 40
0.4401392885678901
 40
0.5000001185154929
 40
0.5598608185629647
 40
0.5924114000308586
 40
0.6250000898159799
 40
0.6575507743699454
 40
0.6901392654766794
 40
0.7500000706465105
 40
0.8098608758163416
 40
0.8424114006842828
 40
0.8750000068747915
 40
0.9075506914287569
 40
0.9401392999525282
 40
1.0
 40
1.0
 40
1.0
 40
1.0
 10
86.30400373745313
 20
148.9117071151758
 30
0.0
 10
86.58692862838365
 20
148.8814863481781
 30
0.0
 10
87.02369986123077
 20
148.8348324054454
 30
0.0
 10
87.54821670496027
 20
148.554721243916
 30
0.0
 10
87.90568254213454
 20
148.2640290790868
 30
0.0
 10
88.19838995007053
 20
147.9059700018933
 30
0.0
 10
88.46966450762109
 20
147.3816351421775
 30
0.0
 10
88.60861476157267
 20
146.6616885792511
 30
0.0
 10
88.4696987726451
 20
145.942011821324
 30
0.0
 10
88.19849021075521
 20
145.4174953646095
 30
0.0
 10
87.90593434722524
 20
145.0600291115526
 30
0.0
 10
87.54837349395115
 20
144.7673189393605
 30
0.0
 10
87.02387736527844
 20
144.4960496856234
 30
0.0
 10
86.30400505103293
 20
144.3570924888705
 30
0.0
 10
85.58430890691953
 20
144.4960157607405
 30
0.0
 10
85.05979250516691
 20
144.7672185658389
 30
0.0
 10
84.70232704658531
 20
145.0597779816437
 30
0.0
 10
84.4096169975794
 20
145.4173374015309
 30
0.0
 10
84.13834597497521
 20
145.9418354041664
 30
0.0
 10
83.9993941695754
 20
146.6616868335833
 30
0.0
 10
84.1383106195471
 20
147.3814577641563
 30
0.0
 10
84.40951911720174
 20
147.9058132527652
 30
0.0
 10
84.70207498803599
 20
148.2637776851513
 30
0.0
 10
85.05963586232792
 20
148.5546219531662
 30
0.0
 10
85.58413132897151
 20
148.8348082409664
 30
0.0
 10
86.02108033204223
 20
148.8814844102808
 30
0.0
 10
86.30400373745313
 20
148.9117071151758
 30
0.0
  0
LINE
  5
122
330
1F
100
AcDbEntity
  8
0
  6
Continuous
 62
     7
370
    30
100
AcDbLine
 10
84.8606288354
 20
146.6617062807
 30
0.0
 11
85.5823162864
 21
145.4117074728
 31
0.0
  0
LINE
  5
123
330
1F
100
AcDbEntity
  8
0
  6
Continuous
 62
     7
370
    30
100
AcDbLine
 10
85.5823162864
 20
145.4117074728
 30
0.0
 11
87.0256930511
 21
145.4117074728
 31
0.0
  0
LINE
  5
124
330
1F
100
AcDbEntity
  8
0
  6
Continuous
 62
     7
370
    30
100
AcDbLine
 10
87.0256930511
 20
145.4117074728
 30
0.0
 11
87.7473805021
 21
146.6617062807
 31
0.0
  0
LINE
  5
125
330
1F
100
AcDbEntity
  8
0
  6
Continuous
 62
     7
370
    30
100
AcDbLine
 10
87.7473805021
 20
146.6617062807
 30
0.0
 11
87.0256930511
 21
147.9117050886
 31
0.0
  0
LINE
  5
126
330
1F
100
AcDbEntity
  8
0
  6
Continuous
 62
     7
370
    30
100
AcDbLine
 10
87.0256930511
 20
147.9117050886
 30
0.0
 11
85.5823162864
 21
147.9117050886
 31
0.0
  0
LINE
  5
127
330
1F
100
AcDbEntity
  8
0
  6
Continuous
 62
     7
370
    30
100
AcDbLine
 10
85.5823162864
 20
147.9117050886
 30
0.0
 11
84.8606288354
 21
146.6617062807
 31
0.0
  0
CIRCLE
  5
128
330
1F
100
AcDbEntity
  8
0
  6
Continuous
 62
     7
370
    30
100
AcDbCircle
 10
86.3040043394
 20
146.6617062963
 30
0.0
 40
2.75
  0
SPLINE
  5
129
330
1F
100
AcDbEntity
  8
0
  6
Continuous
 62
     7
370
    30
100
AcDbSpline
210
0.0
220
0.0
230
1.0
 70
    11
 71
     3
 72
    31
 73
    27
 74
     0
 42
0.000000001
 43
0.00000001
 40
0.0
 40
0.0
 40
0.0
 40
0.0
 40
0.0598608310767154
 40
0.0924113544464761
 40
0.1250000960808426
 40
0.1575507394450829
 40
0.1901392615854849
 40
0.2500000678844282
 40
0.3098608741833716
 40
0.3424113996652903
 40
0.3750000064704949
 40
0.407550691638441
 40
0.4401393007769083
 40
0.5000001318536237
 40
0.5598608330302057
 40
0.5924114151120784
 40
0.6250001055118972
 40
0.6575507070725125
 40
0.6901392596319945
 40
0.7500000659309379
 40
0.8098608722298812
 40
0.8424113977118001
 40
0.8750000045170047
 40
0.9075506896849507
 40
0.9401392988234181
 40
1.0
 40
1.0
 40
1.0
 40
1.0
 10
96.30400351393571
 20
148.9117071151758
 30
0.0
 10
96.58692847587797
 20
148.8814864873008
 30
0.0
 10
97.02369954085526
 20
148.8348327889823
 30
0.0
 10
97.5482158568489
 20
148.5547207271374
 30
0.0
 10
97.90568217624175
 20
148.2640291150624
 30
0.0
 10
98.19839088557616
 20
147.9059705300448
 30
0.0
 10
98.46966373048109
 20
147.3816346812877
 30
0.0
 10
98.60861473498043
 20
146.6616886866634
 30
0.0
 10
98.46969852229246
 20
145.9420118066817
 30
0.0
 10
98.19848999259739
 20
145.4174953675429
 30
0.0
 10
97.90593412209816
 20
145.0600291106363
 30
0.0
 10
97.5483732715169
 20
144.7673189400945
 30
0.0
 10
97.02387713797263
 20
144.4960496828325
 30
0.0
 10
96.30400485392806
 20
144.3570925085915
 30
0.0
 10
95.58430860563327
 20
144.4960157026364
 30
0.0
 10
95.05979242929422
 20
144.767218676153
 30
0.0
 10
94.70232656649193
 20
145.0597773109722
 30
0.0
 10
94.40961916539128
 20
145.4173385539625
 30
0.0
 10
94.13834460563129
 20
145.941834431769
 30
0.0
 10
93.99939435295927
 20
146.6616870655529
 30
0.0
 10
94.13831034063267
 20
147.3814577325751
 30
0.0
 10
94.40951890465587
 20
147.90581325902
 30
0.0
 10
94.70207476158629
 20
148.2637776834796
 30
0.0
 10
95.059635639578
 20
148.5546219536037
 30
0.0
 10
95.58413110506682
 20
148.8348082407456
 30
0.0
 10
96.0210801083726
 20
148.881484410194
 30
0.0
 10
96.30400351393571
 20
148.9117071151758
 30
0.0
  0
LINE
  5
12A
330
1F
100
AcDbEntity
  8
0
  6
Continuous
 62
     7
370
    30
100
AcDbLine
 10
94.8606286119
 20
146.6617062807
 30
0.0
 11
95.5823160629
 21
145.4117074728
 31
0.0
  0
LINE
  5
12B
330
1F
100
AcDbEntity
  8
0
  6
Continuous
 62
     7
370
    30
100
AcDbLine
 10
95.5823160629
 20
145.4117074728
 30
0.0
 11
97.0256918963
 21
145.4117074728
 31
0.0
  0
LINE
  5
12C
330
1F
100
AcDbEntity
  8
0
  6
Continuous
 62
     7
370
    30
100
AcDbLine
 10
97.0256918963
 20
145.4117074728
 30
0.0
 11
97.7473802786
 21
146.6617062807
 31
0.0
  0
LINE
  5
12D
330
1F
100
AcDbEntity
  8
0
  6
Continuous
 62
     7
370
    30
100
AcDbLine
 10
97.7473802786
 20
146.6617062807
 30
0.0
 11
97.0256918963
 21
147.9117050886
 31
0.0
  0
LINE
  5
12E
330
1F
100
AcDbEntity
  8
0
  6
Continuous
 62
     7
370
    30
100
AcDbLine
 10
97.0256918963
 20
147.9117050886
 30
0.0
 11
95.5823160629
 21
147.9117050886
 31
0.0
  0
LINE
  5
12F
330
1F
100
AcDbEntity
  8
0
  6
Continuous
 62
     7
370
    30
100
AcDbLine
 10
95.5823160629
 20
147.9117050886
 30
0.0
 11
94.8606286119
 21
146.6617062807
 31
0.0
  0
CIRCLE
  5
130
330
1F
100
AcDbEntity
  8
0
  6
Continuous
 62
     7
370
    30
100
AcDbCircle
 10
96.3040043394
 20
146.6617062963
 30
0.0
 40
2.75
  0
ARC
  5
131
330
1F
100
AcDbEntity
  8
0
  6
Continuous
 62
     7
370
    30
100
AcDbCircle
 10
94.8040043394
 20
85.1617062963
 30
0.0
 40
1.500000000000004
100
AcDbArc
 50
100.5413014448
 51
257.4673833792
  0
LINE
  5
132
330
1F
100
AcDbEntity
  8
0
  6
Continuous
 62
     7
370
    30
100
AcDbLine
 10
94.4785106849
 20
83.6974475652
 30
0.0
 11
94.4758564155
 21
83.5446659595
 31
0.0
  0
ARC
  5
133
330
1F
100
AcDbEntity
  8
0
  6
Continuous
 62
     7
370
    30
100
AcDbCircle
 10
94.8040043394
 20
85.1617062963
 30
0.0
 40
1.650000000000009
100
AcDbArc
 50
217.2175521651
 51
258.5286607156
  0
SPLINE
  5
134
330
1F
100
AcDbEntity
  8
0
  6
Continuous
 62
     7
370
    30
100
AcDbSpline
210
0.0
220
0.0
230
1.0
 70
     8
 71
     3
 72
    14
 73
    10
 74
     0
 42
0.000000001
 43
0.00000001
 40
0.0
 40
0.0
 40
0.0
 40
0.0
 40
0.0628301527577823
 40
0.2336591254441799
 40
0.4023527259978159
 40
0.5661851975683849
 40
0.7300325138115007
 40
0.8922010651407987
 40
1.0
 40
1.0
 40
1.0
 40
1.0
 10
94.53482217300285
 20
86.93756094463414
 30
0.0
 10
94.462261674449
 20
86.920641222349
 30
0.0
 10
94.19241635512837
 20
86.85771844819718
 30
0.0
 10
93.7612817603671
 20
86.62735750310138
 30
0.0
 10
93.35081861303696
 20
86.17962090259934
 30
0.0
 10
93.11887595150193
 20
85.62604279474719
 30
0.0
 10
93.08418433449768
 20
85.03699830103999
 30
0.0
 10
93.2269627134446
 20
84.528078450993
 30
0.0
 10
93.4149661556303
 20
84.26768938330068
 30
0.0
 10
93.49003656912197
 20
84.1637151435042
 30
0.0
  0
LINE
  5
135
330
1F
100
AcDbEntity
  8
0
  6
Continuous
 62
     7
370
    30
100
AcDbLine
 10
94.534822173
 20
86.9375609446
 30
0.0
 11
94.5295881401
 21
86.6363912474
 31
0.0
  0
SPLINE
  5
136
330
1F
100
AcDbEntity
  8
0
  6
Continuous
 62
     7
370
    30
100
AcDbSpline
210
0.0
220
0.0
230
1.0
 70
     8
 71
     3
 72
     9
 73
     5
 74
     0
 42
0.000000001
 43
0.00000001
 40
0.0
 40
0.0
 40
0.0
 40
0.0
 40
0.5524883953857667
 40
1.0
 40
1.0
 40
1.0
 40
1.0
 10
95.82164920080056
 20
83.86289934888727
 30
0.0
 10
95.69907010404164
 20
83.75236101243708
 30
0.0
 10
95.4772028254116
 20
83.55228742288591
 30
0.0
 10
95.19827699335077
 20
83.44794732786823
 30
0.0
 10
95.07345444667686
 20
83.40125392452127
 30
0.0
  0
ARC
  5
137
330
1F
100
AcDbEntity
  8
0
  6
Continuous
 62
     7
370
    30
100
AcDbCircle
 10
94.8040043394
 20
85.1617062963
 30
0.0
 40
1.650000000000081
100
AcDbArc
 50
279.4800241084
 51
308.0795099843
  0
LINE
  5
138
330
1F
100
AcDbEntity
  8
0
  6
Continuous
 62
     7
370
    30
100
AcDbLine
 10
95.0757659893
 20
83.5342402689
 30
0.0
 11
95.0784202586
 21
83.687021409
 31
0.0
  0
ARC
  5
139
330
1F
100
AcDbEntity
  8
0
  6
Continuous
 62
     7
370
    30
100
AcDbCircle
 10
94.8040043394
 20
85.1617062963
 30
0.0
 40
1.500000000000005
100
AcDbArc
 50
280.5413014448
 51
77.4673833792
  0
LINE
  5
13A
330
1F
100
AcDbEntity
  8
0
  6
Continuous
 62
     7
370
    30
100
AcDbLine
 10
95.1294977139
 20
86.625965324
 30
0.0
 11
95.1351638805
 21
86.9520169336
 31
0.0
  0
SPLINE
  5
13B
330
1F
100
AcDbEntity
  8
0
  6
Continuous
 62
     7
370
    30
100
AcDbSpline
210
0.0
220
0.0
230
1.0
 70
     8
 71
     3
 72
    16
 73
    12
 74
     0
 42
0.000000001
 43
0.00000001
 40
0.0
 40
0.0
 40
0.0
 40
0.0
 40
0.0782695651368838
 40
0.2043827415546491
 40
0.3281384294174803
 40
0.4496263283274801
 40
0.5711436869379185
 40
0.6906294260349589
 40
0.8075311565075916
 40
0.9244543427266685
 40
1.0
 40
1.0
 40
1.0
 40
1.0
 10
95.06925790715565
 20
83.15980621874577
 30
0.0
 10
95.20703850043932
 20
83.19209667371491
 30
0.0
 10
95.56682043277912
 20
83.27641567690728
 30
0.0
 10
96.0820934065083
 20
83.59801614870858
 30
0.0
 10
96.51030655783147
 20
84.12750262324128
 30
0.0
 10
96.73266306834522
 20
84.76389367754557
 30
0.0
 10
96.73292818154931
 20
85.43000049314333
 30
0.0
 10
96.50828752154098
 20
86.04949733584313
 30
0.0
 10
96.0952086717449
 20
86.5470848463967
 30
0.0
 10
95.60945398959734
 20
86.85084684152322
 30
0.0
 10
95.26885275898243
 20
86.92349996502806
 30
0.0
 10
95.1351638804709
 20
86.95201693363732
 30
0.0
  0
LINE
  5
13C
330
1F
100
AcDbEntity
  8
0
  6
Continuous
 62
     7
370
    30
100
AcDbLine
 10
95.0692579072
 20
83.1598062187
 30
0.0
 11
95.0734544467
 21
83.4012539245
 31
0.0
  0
LINE
  5
13D
330
1F
100
AcDbEntity
  8
0
  6
Continuous
 62
     7
370
    30
100
AcDbLine
 10
95.1294977139
 20
86.625965324
 30
0.0
 11
95.0784202586
 21
83.687021409
 31
0.0
  0
LINE
  5
13E
330
1F
100
AcDbEntity
  8
0
  6
Continuous
 62
     7
370
    30
100
AcDbLine
 10
94.4785106849
 20
83.6974475652
 30
0.0
 11
94.5295881401
 21
86.6363912474
 31
0.0
  0
LWPOLYLINE
  5
13F
330
1F
100
AcDbEntity
  8
0
  6
Continuous
 62
     7
370
    30
100
AcDbPolyline
 90
        3
 70
   128
 43
0.0
 10
95.0757659893
 20
83.5342402689
 10
95.0739275585
 20
83.4284853309
 10
95.0734544467
 20
83.4012539245
  0
SPLINE
  5
140
330
1F
100
AcDbEntity
  8
0
  6
Continuous
 62
     7
370
    30
100
AcDbSpline
210
0.0
220
0.0
230
1.0
 70
     8
 71
     3
 72
    14
 73
    10
 74
     0
 42
0.000000001
 43
0.00000001
 40
0.0
 40
0.0
 40
0.0
 40
0.0
 40
0.0033087660904015
 40
0.1834456538588153
 40
0.358970151581824
 40
0.5344946597745676
 40
0.714631615720243
 40
0.855994297547193
 40
1.0
 40
1.0
 40
1.0
 40
1.0
 10
93.36147866356721
 20
83.73499662876374
 30
0.0
 10
93.35801488202885
 20
83.73851569672263
 30
0.0
 10
93.16597481278099
 20
83.93362097314704
 30
0.0
 10
92.86649193360698
 20
84.39825116200173
 30
0.0
 10
92.72360332671875
 20
85.19747249428407
 30
0.0
 10
92.8943701529407
 20
85.99360217522737
 30
0.0
 10
93.33029417741179
 20
86.61539864092889
 30
0.0
 10
93.90869019277979
 20
87.0297376919356
 30
0.0
 10
94.32754902390182
 20
87.1250850180613
 30
0.0
 10
94.53891812968601
 20
87.17320022434241
 30
0.0
  0
SPLINE
  5
141
330
1F
100
AcDbEntity
  8
0
  6
Continuous
 62
     7
370
    30
100
AcDbSpline
210
0.0
220
0.0
230
1.0
 70
     8
 71
     3
 72
    10
 73
     6
 74
     0
 42
0.000000001
 43
0.00000001
 40
0.0
 40
0.0
 40
0.0
 40
0.0
 40
0.1434072831552547
 40
0.6552836375501057
 40
1.0
 40
1.0
 40
1.0
 40
1.0
 10
94.47194672334541
 20
83.3197012662912
 30
0.0
 10
94.41472646045251
 20
83.32335201254355
 30
0.0
 10
94.15326483043582
 20
83.34003369168407
 30
0.0
 10
93.75881071933576
 20
83.46168523078059
 30
0.0
 10
93.47549333581932
 20
83.65656975881603
 30
0.0
 10
93.36147866356721
 20
83.73499662876374
 30
0.0
  0
SPLINE
  5
142
330
1F
100
AcDbEntity
  8
0
  6
Continuous
 62
     7
370
    30
100
AcDbSpline
210
0.0
220
0.0
230
1.0
 70
     8
 71
     3
 72
     9
 73
     5
 74
     0
 42
0.000000001
 43
0.00000001
 40
0.0
 40
0.0
 40
0.0
 40
0.0
 40
0.2411630946384912
 40
1.0
 40
1.0
 40
1.0
 40
1.0
 10
94.47194672334541
 20
83.3197012662912
 30
0.0
 10
94.47226086963015
 20
83.33776986255818
 30
0.0
 10
94.47356349964154
 20
83.41269258775402
 30
0.0
 10
94.47486715426986
 20
83.48772704451551
 30
0.0
 10
94.47585641551366
 20
83.54466595947987
 30
0.0
  0
SPLINE
  5
143
330
1F
100
AcDbEntity
  8
0
  6
Continuous
 62
     7
370
    30
100
AcDbSpline
210
0.0
220
0.0
230
1.0
 70
     8
 71
     3
 72
     9
 73
     5
 74
     0
 42
0.000000001
 43
0.00000001
 40
0.0
 40
0.0
 40
0.0
 40
0.0
 40
0.2679537598215135
 40
1.0
 40
1.0
 40
1.0
 40
1.0
 10
94.53482217300285
 20
86.93756094463414
 30
0.0
 10
94.53518784616237
 20
86.95860554351472
 30
0.0
 10
94.53655253371053
 20
87.03714371702122
 30
0.0
 10
94.5379183147853
 20
87.11569618528972
 30
0.0
 10
94.53891812968601
 20
87.17320022434241
 30
0.0
  0
SPLINE
  5
144
330
1F
100
AcDbEntity
  8
0
  6
Continuous
 62
     7
370
    30
100
AcDbSpline
210
0.0
220
0.0
230
1.0
 70
     8
 71
     3
 72
    11
 73
     7
 74
     0
 42
0.000000001
 43
0.00000001
 40
0.0
 40
0.0
 40
0.0
 40
0.0
 40
0.1385241703272688
 40
0.6772667173121744
 40
0.9686239458411209
 40
1.0
 40
1.0
 40
1.0
 40
1.0
 10
93.36147866356721
 20
83.73499662876374
 30
0.0
 10
93.40363717583237
 20
83.69459169580821
 30
0.0
 10
93.60975685257286
 20
83.49704554742591
 30
0.0
 10
93.97159961872833
 20
83.2865810156738
 30
0.0
 10
94.32212291892172
 20
83.18619823378334
 30
0.0
 10
94.45615225707805
 20
83.16290310265845
 30
0.0
 10
94.46918255794397
 20
83.16063835546619
 30
0.0
  0
LINE
  5
145
330
1F
100
AcDbEntity
  8
0
  6
Continuous
 62
     7
370
    30
100
AcDbLine
 10
94.4719467233
 20
83.3197012663
 30
0.0
 11
94.4691825579
 21
83.1606383555
 31
0.0
  0
SPLINE
  5
146
330
1F
100
AcDbEntity
  8
0
  6
Continuous
 62
     7
370
    30
100
AcDbSpline
210
0.0
220
0.0
230
1.0
 70
     8
 71
     3
 72
     9
 73
     5
 74
     0
 42
0.000000001
 43
0.00000001
 40
0.0
 40
0.0
 40
0.0
 40
0.0
 40
0.5046302815549378
 40
1.0
 40
1.0
 40
1.0
 40
1.0
 10
94.46918255794397
 20
83.16063835546619
 30
0.0
 10
94.25760141850205
 20
83.21421570754298
 30
0.0
 10
93.83832190402275
 20
83.32038720385448
 30
0.0
 10
93.51250154453754
 20
83.60471849433597
 30
0.0
 10
93.3511000047957
 20
83.74556760564691
 30
0.0
  0
LWPOLYLINE
  5
147
330
1F
100
AcDbEntity
  8
0
  6
Continuous
 62
     7
370
    30
100
AcDbPolyline
 90
        2
 70
   128
 43
0.0
 10
94.5389181297
 20
87.1732002243
 10
94.5389181297
 20
87.1732002243
  0
SPLINE
  5
148
330
1F
100
AcDbEntity
  8
0
  6
Continuous
 62
     7
370
    30
100
AcDbSpline
210
0.0
220
0.0
230
1.0
 70
     8
 71
     3
 72
    15
 73
    11
 74
     0
 42
0.000000001
 43
0.00000001
 40
0.0
 40
0.0
 40
0.0
 40
0.0
 40
0.1123236776418728
 40
0.2225860480108872
 40
0.3630918745921231
 40
0.5000001213024856
 40
0.636908425817023
 40
0.7774141209963426
 40
0.8876765885202408
 40
1.0
 40
1.0
 40
1.0
 40
1.0
 10
95.13882584083429
 20
87.16277430095023
 30
0.0
 10
95.34839494262908
 20
87.10734176654005
 30
0.0
 10
95.76368724014826
 20
86.99749396753077
 30
0.0
 10
96.32734126030341
 20
86.5633354182588
 30
0.0
 10
96.741377461406
 20
85.92663516980365
 30
0.0
 10
96.88444348098446
 20
85.12554978703152
 30
0.0
 10
96.71362736428317
 20
84.3299200061405
 30
0.0
 10
96.27771813291734
 20
83.70799037020402
 30
0.0
 10
95.6993184481114
 20
83.29368076925758
 30
0.0
 10
95.2804603196944
 20
83.19832934523492
 30
0.0
 10
95.06909213173738
 20
83.15021219924337
 30
0.0
  0
SPLINE
  5
149
330
1F
100
AcDbEntity
  8
0
  6
Continuous
 62
     7
370
    30
100
AcDbSpline
210
0.0
220
0.0
230
1.0
 70
     8
 71
     3
 72
     9
 73
     5
 74
     0
 42
0.000000001
 43
0.00000001
 40
0.0
 40
0.0
 40
0.0
 40
0.0
 40
0.5059688916928378
 40
1.0
 40
1.0
 40
1.0
 40
1.0
 10
95.13882584083429
 20
87.16277430095023
 30
0.0
 10
95.13820891804528
 20
87.12724881311122
 30
0.0
 10
95.13698962808665
 20
87.05703602251823
 30
0.0
 10
95.13576760024158
 20
86.98674358463191
 30
0.0
 10
95.1351638804709
 20
86.95201693363732
 30
0.0
  0
LWPOLYLINE
  5
14A
330
1F
100
AcDbEntity
  8
0
  6
Continuous
 62
     7
370
    30
100
AcDbPolyline
 90
        2
 70
   128
 43
0.0
 10
95.1388258408
 20
87.162774301
 10
95.1388258408
 20
87.162774301
  0
SPLINE
  5
14B
330
1F
100
AcDbEntity
  8
0
  6
Continuous
 62
     7
370
    30
100
AcDbSpline
210
0.0
220
0.0
230
1.0
 70
     8
 71
     3
 72
     9
 73
     5
 74
     0
 42
0.000000001
 43
0.00000001
 40
0.0
 40
0.0
 40
0.0
 40
0.0
 40
0.5643639523332503
 40
1.0
 40
1.0
 40
1.0
 40
1.0
 10
111.4057850363252
 20
86.73111723065621
 30
0.0
 10
111.3938824859224
 20
86.8569915720697
 30
0.0
 10
111.3727922827766
 20
87.08002910112005
 30
0.0
 10
111.3528829808101
 20
87.13528913705117
 30
0.0
 10
111.3442097711896
 20
87.15936240069813
 30
0.0
  0
LINE
  5
14C
330
1F
100
AcDbEntity
  8
0
  6
Continuous
 62
     7
370
    30
100
AcDbLine
 10
111.3370787507
 20
87.1876380526
 30
0.0
 11
111.3309501242
 21
87.1720882252
 31
0.0
  0
LINE
  5
14D
330
1F
100
AcDbEntity
  8
0
  6
Continuous
 62
     7
370
    30
100
AcDbLine
 10
111.3182850685
 20
86.7311172307
 30
0.0
 11
111.4057850363
 21
86.7311172307
 31
0.0
  0
LINE
  5
14E
330
1F
100
AcDbEntity
  8
0
  6
Continuous
 62
     7
370
    30
100
AcDbLine
 10
111.3182850685
 20
86.7311172307
 30
0.0
 11
111.3040043428
 21
86.862150126
 31
0.0
  0
SPLINE
  5
14F
330
1F
100
AcDbEntity
  8
0
  6
Continuous
 62
     7
370
    30
100
AcDbSpline
210
0.0
220
0.0
230
1.0
 70
     8
 71
     3
 72
     9
 73
     5
 74
     0
 42
0.000000001
 43
0.00000001
 40
0.0
 40
0.0
 40
0.0
 40
0.0
 40
0.5862164371044696
 40
1.0
 40
1.0
 40
1.0
 40
1.0
 10
111.6205738080253
 20
86.47327265963203
 30
0.0
 10
111.6094589050046
 20
86.56609298078251
 30
0.0
 10
111.5904984966688
 20
86.72443095166739
 30
0.0
 10
111.5723432805316
 20
86.76473779218685
 30
0.0
 10
111.5648309505132
 20
86.78141610026604
 30
0.0
  0
SPLINE
  5
150
330
1F
100
AcDbEntity
  8
0
  6
Continuous
 62
     7
370
    30
100
AcDbSpline
210
0.0
220
0.0
230
1.0
 70
     8
 71
     3
 72
    10
 73
     6
 74
     0
 42
0.000000001
 43
0.00000001
 40
0.0
 40
0.0
 40
0.0
 40
0.0
 40
0.2778799240917535
 40
0.5557597401833857
 40
1.0
 40
1.0
 40
1.0
 40
1.0
 10
111.4057850363252
 20
86.73111723065621
 30
0.0
 10
111.4257585404239
 20
86.70726340264228
 30
0.0
 10
111.4657055408583
 20
86.65955575588542
 30
0.0
 10
111.5373932891297
 20
86.57364187513605
 30
0.0
 10
111.5888922305625
 20
86.51150102269222
 30
0.0
 10
111.6205738080253
 20
86.47327265963203
 30
0.0
  0
LINE
  5
151
330
1F
100
AcDbEntity
  8
0
  6
Continuous
 62
     7
370
    30
100
AcDbLine
 10
111.3040043428
 20
86.7145739149
 30
0.0
 11
111.3182850685
 21
86.7311172307
 31
0.0
  0
LINE
  5
152
330
1F
100
AcDbEntity
  8
0
  6
Continuous
 62
     7
370
    30
100
AcDbLine
 10
111.3527867282
 20
86.2864169877
 30
0.0
 11
111.3040043428
 21
86.2280840639
 31
0.0
  0
SPLINE
  5
153
330
1F
100
AcDbEntity
  8
0
  6
Continuous
 62
     7
370
    30
100
AcDbSpline
210
0.0
220
0.0
230
1.0
 70
     8
 71
     3
 72
    13
 73
     9
 74
     0
 42
0.000000001
 43
0.00000001
 40
0.0
 40
0.0
 40
0.0
 40
0.0
 40
0.1254880423212248
 40
0.3134709981998487
 40
0.50145397932027
 40
0.694376710716293
 40
0.8457734882035267
 40
1.0
 40
1.0
 40
1.0
 40
1.0
 10
111.5834054225643
 20
83.17680984065181
 30
0.0
 10
111.5732733364177
 20
83.19070676237122
 30
0.0
 10
111.5479632343593
 20
83.22542147974754
 30
0.0
 10
111.5104649826447
 20
83.62704651846852
 30
0.0
 10
111.4683532013591
 20
84.26980093792844
 30
0.0
 10
111.4234657858673
 20
85.00988117430764
 30
0.0
 10
111.3884770605016
 20
85.71748264239375
 30
0.0
 10
111.3647567137319
 20
86.09560520674403
 30
0.0
 10
111.3527867282329
 20
86.2864169877047
 30
0.0
  0
SPLINE
  5
154
330
1F
100
AcDbEntity
  8
0
  6
Continuous
 62
     7
370
    30
100
AcDbSpline
210
0.0
220
0.0
230
1.0
 70
     8
 71
     3
 72
     9
 73
     5
 74
     0
 42
0.000000001
 43
0.00000001
 40
0.0
 40
0.0
 40
0.0
 40
0.0
 40
0.467924520392921
 40
1.0
 40
1.0
 40
1.0
 40
1.0
 10
111.3628795873893
 20
83.55114563629276
 30
0.0
 10
111.3533261833656
 20
83.5590537494429
 30
0.0
 10
111.3329096340989
 20
83.57595415283166
 30
0.0
 10
111.3140428800317
 20
83.75139468087264
 30
0.0
 10
111.3040043428128
 20
83.84474228397256
 30
0.0
  0
SPLINE
  5
155
330
1F
100
AcDbEntity
  8
0
  6
Continuous
 62
     7
370
    30
100
AcDbSpline
210
0.0
220
0.0
230
1.0
 70
     8
 71
     3
 72
     9
 73
     5
 74
     0
 42
0.000000001
 43
0.00000001
 40
0.0
 40
0.0
 40
0.0
 40
0.0
 40
0.5524875760219174
 40
1.0
 40
1.0
 40
1.0
 40
1.0
 10
112.4167858951779
 20
85.25076090619213
 30
0.0
 10
112.3930769021561
 20
85.41580035056636
 30
0.0
 10
112.3501637326103
 20
85.71452099431835
 30
0.0
 10
112.3057208122014
 20
85.99316542529533
 30
0.0
 10
112.2858320531605
 20
86.11786227002985
 30
0.0
  0
LINE
  5
156
330
1F
100
AcDbEntity
  8
0
  6
Continuous
 62
     7
370
    30
100
AcDbLine
 10
112.4167858952
 20
86.0285721838
 30
0.0
 11
112.4167858952
 21
85.2507609062
 31
0.0
  0
LINE
  5
157
330
1F
100
AcDbEntity
  8
0
  6
Continuous
 62
     7
370
    30
100
AcDbLine
 10
112.4167858952
 20
86.0285721838
 30
0.0
 11
112.5667859023
 21
85.9259916589
 31
0.0
  0
LINE
  5
158
330
1F
100
AcDbEntity
  8
0
  6
Continuous
 62
     7
370
    30
100
AcDbLine
 10
112.5667859023
 20
85.9259916589
 30
0.0
 11
112.5667859023
 21
83.6617061988
 31
0.0
  0
SPLINE
  5
159
330
1F
100
AcDbEntity
  8
0
  6
Continuous
 62
     7
370
    30
100
AcDbSpline
210
0.0
220
0.0
230
1.0
 70
     8
 71
     3
 72
    14
 73
    10
 74
     0
 42
0.000000001
 43
0.00000001
 40
0.0
 40
0.0
 40
0.0
 40
0.0
 40
0.1013025298153627
 40
0.264527707448192
 40
0.4247013935867022
 40
0.5819402367129866
 40
0.7392171338857244
 40
0.8938645011089142
 40
1.0
 40
1.0
 40
1.0
 40
1.0
 10
112.0473891359807
 20
86.27997549511737
 30
0.0
 10
112.0524826976725
 20
86.15501112507494
 30
0.0
 10
112.065783334878
 20
85.82869609246633
 30
0.0
 10
112.0846124146507
 20
85.22899937348463
 30
0.0
 10
112.1099601402267
 20
84.55856271650386
 30
0.0
 10
112.1354109975341
 20
83.97051819247132
 30
0.0
 10
112.1569948914427
 20
83.53811712843081
 30
0.0
 10
112.1798885014747
 20
83.3018400001828
 30
0.0
 10
112.1940616699247
 20
83.31279844966532
 30
0.0
 10
112.1998299795024
 20
83.31725840717799
 30
0.0
  0
LINE
  5
15A
330
1F
100
AcDbEntity
  8
0
  6
Continuous
 62
     7
370
    30
100
AcDbLine
 10
112.047389136
 20
86.2799754951
 30
0.0
 11
112.2858320532
 21
86.11786227
 31
0.0
  0
SPLINE
  5
15B
330
1F
100
AcDbEntity
  8
0
  6
Continuous
 62
     7
370
    30
100
AcDbSpline
210
0.0
220
0.0
230
1.0
 70
     8
 71
     3
 72
    10
 73
     6
 74
     0
 42
0.000000001
 43
0.00000001
 40
0.0
 40
0.0
 40
0.0
 40
0.0
 40
0.2754264004057016
 40
0.5508511380987618
 40
1.0
 40
1.0
 40
1.0
 40
1.0
 10
111.6629980542285
 20
86.02857218384987
 30
0.0
 10
111.6425401714359
 20
86.05224034089058
 30
0.0
 10
111.6016245293522
 20
86.09957651209045
 30
0.0
 10
111.5273817407493
 20
86.18552302099609
 30
0.0
 10
111.4736154288922
 20
86.24780785155326
 30
0.0
 10
111.4402867542168
 20
86.2864169877047
 30
0.0
  0
SPLINE
  5
15C
330
1F
100
AcDbEntity
  8
0
  6
Continuous
 62
     7
370
    30
100
AcDbSpline
210
0.0
220
0.0
230
1.0
 70
     8
 71
     3
 72
    13
 73
     9
 74
     0
 42
0.000000001
 43
0.00000001
 40
0.0
 40
0.0
 40
0.0
 40
0.0
 40
0.1630351975864239
 40
0.346407569438872
 40
0.5297798957414738
 40
0.7179865397708143
 40
0.8580054503954438
 40
1.0
 40
1.0
 40
1.0
 40
1.0
 10
111.8996403974534
 20
83.526878163966
 30
0.0
 10
111.8861252761016
 20
83.53987708934618
 30
0.0
 10
111.8574091435886
 20
83.56749643911192
 30
0.0
 10
111.8166932275186
 20
83.91150916681345
 30
0.0
 10
111.774603691747
 20
84.43693118548002
 30
0.0
 10
111.7303907017656
 20
85.02940903567453
 30
0.0
 10
111.6963625564008
 20
85.58495304515
 30
0.0
 10
111.6741713748943
 20
85.88001013234441
 30
0.0
 10
111.6629980542285
 20
86.02857218384987
 30
0.0
  0
LINE
  5
15D
330
1F
100
AcDbEntity
  8
0
  6
Continuous
 62
     7
370
    30
100
AcDbLine
 10
111.6917735935
 20
83.154390578
 30
0.0
 11
111.6870787673
 21
83.1357748367
 31
0.0
  0
SPLINE
  5
15E
330
1F
100
AcDbEntity
  8
0
  6
Continuous
 62
     7
370
    30
100
AcDbSpline
210
0.0
220
0.0
230
1.0
 70
     8
 71
     3
 72
    13
 73
     9
 74
     0
 42
0.000000001
 43
0.00000001
 40
0.0
 40
0.0
 40
0.0
 40
0.0
 40
0.1606415236891034
 40
0.3410679730036368
 40
0.5214944465453022
 40
0.706662103894
 40
0.8519730590279119
 40
1.0
 40
1.0
 40
1.0
 40
1.0
 10
111.6809501117614
 20
83.15132419839746
 30
0.0
 10
111.6674145743143
 20
83.16732251585763
 30
0.0
 10
111.6386764360385
 20
83.20128953498383
 30
0.0
 10
111.5979421581878
 20
83.62440293539376
 30
0.0
 10
111.5558596036353
 20
84.27053551382718
 30
0.0
 10
111.5109644057357
 20
85.00973017706757
 30
0.0
 10
111.4759774088429
 20
85.71751726741094
 30
0.0
 10
111.4522568478485
 20
86.09561681913561
 30
0.0
 10
111.4402867542168
 20
86.2864169877047
 30
0.0
  0
LINE
  5
15F
330
1F
100
AcDbEntity
  8
0
  6
Continuous
 62
     7
370
    30
100
AcDbLine
 10
111.4402867542
 20
86.2864169877
 30
0.0
 11
111.3527867282
 21
86.2864169877
 31
0.0
  0
SPLINE
  5
160
330
1F
100
AcDbEntity
  8
0
  6
Continuous
 62
     7
370
    30
100
AcDbSpline
210
0.0
220
0.0
230
1.0
 70
     8
 71
     3
 72
    10
 73
     6
 74
     0
 42
0.000000001
 43
0.00000001
 40
0.0
 40
0.0
 40
0.0
 40
0.0
 40
0.2593498630018254
 40
0.5443604273158424
 40
1.0
 40
1.0
 40
1.0
 40
1.0
 10
112.0473891359807
 20
86.27997549511737
 30
0.0
 10
112.0292164166605
 20
86.25826821543868
 30
0.0
 10
111.9910729253159
 20
86.2127058854456
 30
0.0
 10
111.9211785028497
 20
86.1289414241397
 30
0.0
 10
111.8696795755033
 20
86.06680054725227
 30
0.0
 10
111.8379980188848
 20
86.02857218384987
 30
0.0
  0
SPLINE
  5
161
330
1F
100
AcDbEntity
  8
0
  6
Continuous
 62
     7
370
    30
100
AcDbSpline
210
0.0
220
0.0
230
1.0
 70
     8
 71
     3
 72
    13
 73
     9
 74
     0
 42
0.000000001
 43
0.00000001
 40
0.0
 40
0.0
 40
0.0
 40
0.0
 40
0.1122909948139902
 40
0.3067810201581856
 40
0.5012709974859166
 40
0.7008883913028343
 40
0.8493964855208853
 40
0.9999999999999999
 40
0.9999999999999999
 40
0.9999999999999999
 40
0.9999999999999999
 10
112.0605870391528
 20
83.55587582364923
 30
0.0
 10
112.0518316749099
 20
83.56630747177863
 30
0.0
 10
112.0279118621168
 20
83.59480692233892
 30
0.0
 10
111.9917271785005
 20
83.91470823676828
 30
0.0
 10
111.9495942335588
 20
84.43604065337848
 30
0.0
 10
111.905392523837
 20
85.02958154174682
 30
0.0
 10
111.8713621506522
 20
85.58491470006197
 30
0.0
 10
111.8491712155214
 20
85.87999729090096
 30
0.0
 10
111.8379980188848
 20
86.02857218384987
 30
0.0
  0
LINE
  5
162
330
1F
100
AcDbEntity
  8
0
  6
Continuous
 62
     7
370
    30
100
AcDbLine
 10
111.8379980189
 20
86.0285721838
 30
0.0
 11
111.6629980542
 21
86.0285721838
 31
0.0
  0
LWPOLYLINE
  5
163
330
1F
100
AcDbEntity
  8
0
  6
Continuous
 62
     7
370
    30
100
AcDbPolyline
 90
        3
 70
   128
 43
0.0
 10
112.3629980293
 20
86.0285721838
 10
112.3016291539
 20
86.0995785452
 10
112.2858320532
 20
86.11786227
  0
SPLINE
  5
164
330
1F
100
AcDbEntity
  8
0
  6
Continuous
 62
     7
370
    30
100
AcDbSpline
210
0.0
220
0.0
230
1.0
 70
     8
 71
     3
 72
     9
 73
     5
 74
     0
 42
0.000000001
 43
0.00000001
 40
0.0
 40
0.0
 40
0.0
 40
0.0
 40
0.4930354912670452
 40
1.0
 40
1.0
 40
1.0
 40
1.0
 10
112.4167858951779
 20
85.25076090619213
 30
0.0
 10
112.4083308468992
 20
85.38614200772845
 30
0.0
 10
112.3911818821119
 20
85.66072893693392
 30
0.0
 10
112.3724794822348
 20
85.90482443140925
 30
0.0
 10
112.362998029269
 20
86.02857218384987
 30
0.0
  0
LINE
  5
165
330
1F
100
AcDbEntity
  8
0
  6
Continuous
 62
     7
370
    30
100
AcDbLine
 10
112.4167858952
 20
86.0285721838
 30
0.0
 11
112.3629980293
 21
86.0285721838
 31
0.0
  0
SPLINE
  5
166
330
1F
100
AcDbEntity
  8
0
  6
Continuous
 62
     7
370
    30
100
AcDbSpline
210
0.0
220
0.0
230
1.0
 70
    24
 71
     3
 72
    11
 73
     7
 74
     0
 42
0.000000001
 43
0.00000001
 40
0.0
 40
0.0
 40
0.0
 40
0.0
 40
0.1385236471170461
 40
0.6772676774087254
 40
0.9686251486421565
 40
1.0
 40
1.0
 40
1.0
 40
1.0
 10
112.0378997884046
 20
87.1867847282464
 30
0.0
 10
112.0378997884046
 20
87.18165161879905
 30
0.0
 10
112.0378997884046
 20
87.15655489931731
 30
0.0
 10
112.0378997884046
 20
87.02274368755317
 30
0.0
 10
112.0378997884046
 20
86.82498450603316
 30
0.0
 10
112.0378997884046
 20
86.73943412460521
 30
0.0
 10
112.0378997884046
 20
86.73111723065621
 30
0.0
  0
SPLINE
  5
167
330
1F
100
AcDbEntity
  8
0
  6
Continuous
 62
     7
370
    30
100
AcDbSpline
210
0.0
220
0.0
230
1.0
 70
     8
 71
     3
 72
    10
 73
     6
 74
     0
 42
0.000000001
 43
0.00000001
 40
0.0
 40
0.0
 40
0.0
 40
0.0
 40
0.1434066676667582
 40
0.6552831492479219
 40
1.0
 40
1.0
 40
1.0
 40
1.0
 10
112.1950902224426
 20
86.6243189785654
 30
0.0
 10
112.1868701713895
 20
86.66498618261087
 30
0.0
 10
112.149309428722
 20
86.85081110952403
 30
0.0
 10
112.0992983451503
 20
87.06763731940916
 30
0.0
 10
112.0555181499403
 20
87.15259529064073
 30
0.0
 10
112.0378997884046
 20
87.1867847282464
 30
0.0
  0
LINE
  5
168
330
1F
100
AcDbEntity
  8
0
  6
Continuous
 62
     7
370
    30
100
AcDbLine
 10
112.1950902224
 20
86.6243189786
 30
0.0
 11
112.0378997884
 21
86.7311172307
 31
0.0
  0
SPLINE
  5
169
330
1F
100
AcDbEntity
  8
0
  6
Continuous
 62
     7
370
    30
100
AcDbSpline
210
0.0
220
0.0
230
1.0
 70
     8
 71
     3
 72
    10
 73
     6
 74
     0
 42
0.000000001
 43
0.00000001
 40
0.0
 40
0.0
 40
0.0
 40
0.0
 40
0.4661155097408806
 40
0.9236783282937213
 40
1.0
 40
1.0
 40
1.0
 40
1.0
 10
112.0182850581414
 20
86.73111723065621
 30
0.0
 10
112.0062618544152
 20
86.84777778532434
 30
0.0
 10
111.9824360591209
 20
87.07895830573564
 30
0.0
 10
111.9597793689797
 20
87.2195674808552
 30
0.0
 10
111.9455554988908
 20
87.17818661547241
 30
0.0
 10
111.9435221198301
 20
87.17227099724359
 30
0.0
  0
SPLINE
  5
16A
330
1F
100
AcDbEntity
  8
0
  6
Continuous
 62
     7
370
    30
100
AcDbSpline
210
0.0
220
0.0
230
1.0
 70
     8
 71
     3
 72
    10
 73
     6
 74
     0
 42
0.000000001
 43
0.00000001
 40
0.0
 40
0.0
 40
0.0
 40
0.0
 40
0.2754265218974706
 40
0.5508520230270755
 40
0.9999999999999999
 40
0.9999999999999999
 40
0.9999999999999999
 40
0.9999999999999999
 10
111.7955737726816
 20
86.47327265963203
 30
0.0
 10
111.8160316607181
 20
86.49694071215826
 30
0.0
 10
111.8569473609713
 20
86.54427672949376
 30
0.0
 10
111.9311898102543
 20
86.63022340713162
 30
0.0
 10
111.9849563205408
 20
86.69250819226029
 30
0.0
 10
112.0182850581414
 20
86.73111723065621
 30
0.0
  0
SPLINE
  5
16B
330
1F
100
AcDbEntity
  8
0
  6
Continuous
 62
     7
370
    30
100
AcDbSpline
210
0.0
220
0.0
230
1.0
 70
     8
 71
     3
 72
    10
 73
     6
 74
     0
 42
0.000000001
 43
0.00000001
 40
0.0
 40
0.0
 40
0.0
 40
0.0
 40
0.4622442476451907
 40
0.9180569703708389
 40
1.0
 40
1.0
 40
1.0
 40
1.0
 10
111.7955737726816
 20
86.47327265963203
 30
0.0
 10
111.784351874166
 20
86.55873228492057
 30
0.0
 10
111.7620642151945
 20
86.72846247643965
 30
0.0
 10
111.7403552733362
 20
86.83394391399344
 30
0.0
 10
111.7267183874916
 20
86.80148115593762
 30
0.0
 10
111.7246404036933
 20
86.79653449245042
 30
0.0
  0
SPLINE
  5
16C
330
1F
100
AcDbEntity
  8
0
  6
Continuous
 62
     7
370
    30
100
AcDbSpline
210
0.0
220
0.0
230
1.0
 70
     8
 71
     3
 72
     9
 73
     5
 74
     0
 42
0.000000001
 43
0.00000001
 40
0.0
 40
0.0
 40
0.0
 40
0.0
 40
0.563068747463416
 40
1.0
 40
1.0
 40
1.0
 40
1.0
 10
112.3205737830659
 20
86.47327265963203
 30
0.0
 10
112.3094625187473
 20
86.56555912526589
 30
0.0
 10
112.2897291125359
 20
86.72945823358903
 30
0.0
 10
112.2708340314032
 20
86.77047376544222
 30
0.0
 10
112.2625781799371
 20
86.78839473314828
 30
0.0
  0
SPLINE
  5
16D
330
1F
100
AcDbEntity
  8
0
  6
Continuous
 62
     7
370
    30
100
AcDbSpline
210
0.0
220
0.0
230
1.0
 70
     8
 71
     3
 72
     9
 73
     5
 74
     0
 42
0.000000001
 43
0.00000001
 40
0.0
 40
0.0
 40
0.0
 40
0.0
 40
0.2411673268498565
 40
1.0
 40
1.0
 40
1.0
 40
1.0
 10
112.1950902224426
 20
86.6243189785654
 30
0.0
 10
112.2052066286156
 20
86.61218735124044
 30
0.0
 10
112.2471542933558
 20
86.56188357467408
 30
0.0
 10
112.2888975989191
 20
86.51150304877486
 30
0.0
 10
112.3205737830659
 20
86.47327265963203
 30
0.0
  0
LINE
  5
16E
330
1F
100
AcDbEntity
  8
0
  6
Continuous
 62
     7
370
    30
100
AcDbLine
 10
111.620573808
 20
86.4732726596
 30
0.0
 11
111.7955737727
 21
86.4732726596
 31
0.0
  0
LINE
  5
16F
330
1F
100
AcDbEntity
  8
0
  6
Continuous
 62
     7
370
    30
100
AcDbLine
 10
112.0182850581
 20
86.7311172307
 30
0.0
 11
112.0378997884
 21
86.7311172307
 31
0.0
  0
LINE
  5
170
330
1F
100
AcDbEntity
  8
0
  6
Continuous
 62
     7
370
    30
100
AcDbLine
 10
112.3205737831
 20
86.4732726596
 30
0.0
 11
112.4167858952
 21
86.4732726596
 31
0.0
  0
LINE
  5
171
330
1F
100
AcDbEntity
  8
0
  6
Continuous
 62
     7
370
    30
100
AcDbLine
 10
112.5667859023
 20
86.3706919018
 30
0.0
 11
112.4167858952
 21
86.4732726596
 31
0.0
  0
LINE
  5
172
330
1F
100
AcDbEntity
  8
0
  6
Continuous
 62
     7
370
    30
100
AcDbLine
 10
112.5667859023
 20
86.3706919018
 30
0.0
 11
112.5667859023
 21
85.9259916589
 31
0.0
  0
LINE
  5
173
330
1F
100
AcDbEntity
  8
0
  6
Continuous
 62
     7
370
    30
100
AcDbLine
 10
112.5667859023
 20
86.6617062248
 30
0.0
 11
112.5667859023
 21
86.3706919018
 31
0.0
  0
LINE
  5
174
330
1F
100
AcDbEntity
  8
0
  6
Continuous
 62
     7
370
    30
100
AcDbLine
 10
112.4167858952
 20
86.8117062029
 30
0.0
 11
112.4167858952
 21
86.4732726596
 31
0.0
  0
LINE
  5
175
330
1F
100
AcDbEntity
  8
0
  6
Continuous
 62
     7
370
    30
100
AcDbLine
 10
66.3040060471
 20
79.1617063925
 30
0.0
 11
66.3040060471
 21
69.1617056847
 31
0.0
  0
LINE
  5
176
330
1F
100
AcDbEntity
  8
0
  6
Continuous
 62
     7
370
    30
100
AcDbLine
 10
66.3040060471
 20
69.1617056847
 30
0.0
 11
61.3040033649
 21
69.1617056847
 31
0.0
  0
LINE
  5
177
330
1F
100
AcDbEntity
  8
0
  6
Continuous
 62
     7
370
    30
100
AcDbLine
 10
61.3040033649
 20
69.1617056847
 30
0.0
 11
61.3040033649
 21
79.1617063925
 31
0.0
  0
LINE
  5
178
330
1F
100
AcDbEntity
  8
0
  6
Continuous
 62
     7
370
    30
100
AcDbLine
 10
61.3040033649
 20
79.1617063925
 30
0.0
 11
66.3040060471
 21
79.1617063925
 31
0.0
  0
LINE
  5
179
330
1F
100
AcDbEntity
  8
0
  6
Continuous
 62
     7
370
    30
100
AcDbLine
 10
121.3040038865
 20
69.1617056847
 30
0.0
 11
121.3040038865
 21
79.1617063925
 31
0.0
  0
LINE
  5
17A
330
1F
100
AcDbEntity
  8
0
  6
Continuous
 62
     7
370
    30
100
AcDbLine
 10
66.3040060471
 20
79.1617063925
 30
0.0
 11
121.3040038865
 21
79.1617063925
 31
0.0
  0
LINE
  5
17B
330
1F
100
AcDbEntity
  8
0
  6
Continuous
 62
     7
370
    30
100
AcDbLine
 10
66.3040060471
 20
69.1617056847
 30
0.0
 11
121.3040038865
 21
69.1617056847
 31
0.0
  0
LINE
  5
17C
330
1F
100
AcDbEntity
  8
0
  6
Continuous
 62
     7
370
    30
100
AcDbLine
 10
126.304004706
 20
79.1617063925
 30
0.0
 11
126.304004706
 21
69.1617056847
 31
0.0
  0
LINE
  5
17D
330
1F
100
AcDbEntity
  8
0
  6
Continuous
 62
     7
370
    30
100
AcDbLine
 10
121.3040038865
 20
79.1617063925
 30
0.0
 11
126.304004706
 21
79.1617063925
 31
0.0
  0
LINE
  5
17E
330
1F
100
AcDbEntity
  8
0
  6
Continuous
 62
     7
370
    30
100
AcDbLine
 10
126.304004706
 20
69.1617056847
 30
0.0
 11
121.3040038865
 21
69.1617056847
 31
0.0
  0
LINE
  5
17F
330
1F
100
AcDbEntity
  8
0
  6
Continuous
 62
     7
370
    30
100
AcDbLine
 10
111.3040043428
 20
88.6617063198
 30
0.0
 11
112.3040043321
 21
88.6617063198
 31
0.0
  0
CIRCLE
  5
180
330
1F
100
AcDbEntity
  8
0
  6
Continuous
 62
     7
370
    30
100
AcDbCircle
 10
96.3040043394
 20
146.6617062963
 30
0.0
 40
3.25
  0
LINE
  5
181
330
1F
100
AcDbEntity
  8
0
  6
Continuous
 62
     7
370
    30
100
AcDbLine
 10
98.8040039237
 20
92.3282788254
 30
0.0
 11
98.8040039237
 21
94.9951335907
 31
0.0
  0
LINE
  5
182
330
1F
100
AcDbEntity
  8
0
  6
Continuous
 62
     7
370
    30
100
AcDbLine
 10
90.8040035437
 20
94.9951335907
 30
0.0
 11
90.8040035437
 21
92.3282788254
 31
0.0
  0
CIRCLE
  5
183
330
1F
100
AcDbEntity
  8
0
  6
Continuous
 62
     7
370
    30
100
AcDbCircle
 10
86.3040043394
 20
146.6617062963
 30
0.0
 40
3.25
  0
LINE
  5
184
330
1F
100
AcDbEntity
  8
0
  6
Continuous
 62
     7
370
    30
100
AcDbLine
 10
112.3040043321
 20
151.6617052376
 30
0.0
 11
75.3040056597
 21
151.6617052376
 31
0.0
  0
LINE
  5
185
330
1F
100
AcDbEntity
  8
0
  6
Continuous
 62
     7
370
    30
100
AcDbLine
 10
112.3040043321
 20
88.6617063198
 30
0.0
 11
112.3040043321
 21
151.6617052376
 31
0.0
  0
LINE
  5
186
330
1F
100
AcDbEntity
  8
0
  6
Continuous
 62
     7
370
    30
100
AcDbLine
 10
75.3040056597
 20
88.6617063198
 30
0.0
 11
76.304003961
 21
88.6617063198
 31
0.0
  0
LINE
  5
187
330
1F
100
AcDbEntity
  8
0
  6
Continuous
 62
     7
370
    30
100
AcDbLine
 10
75.3040056597
 20
151.6617052376
 30
0.0
 11
75.3040056597
 21
88.6617063198
 31
0.0
  0
LWPOLYLINE
  5
188
330
1F
100
AcDbEntity
  8
0
  6
Continuous
 62
     7
370
    30
100
AcDbPolyline
 90
        3
 70
   128
 43
0.0
 10
95.1210729699
 20
86.7809550956
 10
94.9076082479
 20
86.8084502991
 10
94.5410229187
 20
86.7906140748
  0
ARC
  5
189
330
1F
100
AcDbEntity
  8
0
  6
Continuous
 62
     7
370
    30
100
AcDbCircle
 10
94.8040043394
 20
85.1617062963
 30
0.0
 40
1.650000000000081
100
AcDbArc
 50
258.5286607156
 51
279.4800241084
  0
CIRCLE
  5
18A
330
1F
100
AcDbEntity
  8
0
  6
Continuous
 62
     7
370
    30
100
AcDbCircle
 10
94.8040043394
 20
93.6617062963
 30
0.0
 40
4.216400000000007
  0
LINE
  5
18B
330
1F
100
AcDbEntity
  8
0
  6
Continuous
 62
     7
370
    30
100
AcDbLine
 10
101.3040043335
 20
104.1617058337
 30
0.0
 11
101.3040043335
 21
79.1617063925
 31
0.0
  0
LINE
  5
18C
330
1F
100
AcDbEntity
  8
0
  6
Continuous
 62
     7
370
    30
100
AcDbLine
 10
76.304003961
 20
104.1617058337
 30
0.0
 11
76.304003961
 21
79.1617063925
 31
0.0
  0
LINE
  5
18D
330
1F
100
AcDbEntity
  8
0
  6
Continuous
 62
     7
370
    30
100
AcDbLine
 10
76.304003961
 20
104.1617058337
 30
0.0
 11
101.3040043335
 21
104.1617058337
 31
0.0
  0
LINE
  5
18E
330
1F
100
AcDbEntity
  8
0
  6
Continuous
 62
     7
370
    30
100
AcDbLine
 10
111.3040043428
 20
104.1617058337
 30
0.0
 11
101.3040043335
 21
104.1617058337
 31
0.0
  0
LINE
  5
18F
330
1F
100
AcDbEntity
  8
0
  6
Continuous
 62
     7
370
    30
100
AcDbLine
 10
111.3040043428
 20
104.1617058337
 30
0.0
 11
111.3040043428
 21
79.1617063925
 31
0.0
  0
DIMENSION
  5
190
330
1F
100
AcDbEntity
  8
DIM
100
AcDbDimension
  2
_D
 10
136.8040043394
 20
69.1617062963
 30
0.0
 11
136.8040043394
 21
110.4117062963
 31
0.0
 70
   160
  1
<>
 71
     2
 42
-1.0
  3
SLDDIMSTYLE0
100
AcDbAlignedDimension
 13
112.3040043394
 23
151.6617062963
 33
0.0
 14
126.3040043394
 24
69.1617062963
 34
0.0
 50
90.0
100
AcDbRotatedDimension
  0
LINE
  5
19B
330
1F
100
AcDbEntity
  8
0
  6
Continuous
 62
     7
370
    30
100
AcDbLine
 10
85.8040045868
 20
208.7189885454
 30
0.0
 11
85.8040045868
 21
209.7189868467
 31
0.0
  0
LINE
  5
19C
330
1F
100
AcDbEntity
  8
0
  6
Continuous
 62
     7
370
    30
100
AcDbLine
 10
81.8040039312
 20
209.7189868467
 30
0.0
 11
81.8040039312
 21
208.7189885454
 31
0.0
  0
LINE
  5
19D
330
1F
100
AcDbEntity
  8
0
  6
Continuous
 62
     7
370
    30
100
AcDbLine
 10
84.8040044229
 20
217.7189862954
 30
0.0
 11
84.8040044229
 21
217.9189878183
 31
0.0
  0
LINE
  5
19E
330
1F
100
AcDbEntity
  8
0
  6
Continuous
 62
     7
370
    30
100
AcDbLine
 10
82.8040040951
 20
217.9189878183
 30
0.0
 11
82.8040040951
 21
217.7189862954
 31
0.0
  0
LINE
  5
19F
330
1F
100
AcDbEntity
  8
0
  6
Continuous
 62
     7
370
    30
100
AcDbLine
 10
93.0852018218
 20
209.7189868467
 30
0.0
 11
93.1540042083
 21
209.6790368336
 31
0.0
  0
LINE
  5
1A0
330
1F
100
AcDbEntity
  8
0
  6
Continuous
 62
     7
370
    30
100
AcDbLine
 10
96.8232484456
 20
209.6510785299
 30
0.0
 11
96.7061504643
 21
209.7189868467
 31
0.0
  0
SPLINE
  5
1A1
330
1F
100
AcDbEntity
  8
0
  6
Continuous
 62
     7
370
    30
100
AcDbSpline
210
0.0
220
0.0
230
1.0
 70
     8
 71
     3
 72
     9
 73
     5
 74
     0
 42
0.000000001
 43
0.00000001
 40
0.0
 40
0.0
 40
0.0
 40
0.0
 40
0.4998101232683246
 40
1.0
 40
1.0
 40
1.0
 40
1.0
 10
93.16435306477895
 20
209.5213639216737
 30
0.0
 10
93.10092197866578
 20
209.4845296461818
 30
0.0
 10
92.97401161178809
 20
209.4108331086828
 30
0.0
 10
92.84704841856633
 20
209.3372242061068
 30
0.0
 10
92.78354271459926
 20
209.3004057782011
 30
0.0
  0
SPLINE
  5
1A2
330
1F
100
AcDbEntity
  8
0
  6
Continuous
 62
     7
370
    30
100
AcDbSpline
210
0.0
220
0.0
230
1.0
 70
     8
 71
     3
 72
     9
 73
     5
 74
     0
 42
0.000000001
 43
0.00000001
 40
0.0
 40
0.0
 40
0.0
 40
0.0
 40
0.514532967174178
 40
1.0
 40
1.0
 40
1.0
 40
1.0
 10
92.78362653363098
 20
209.1939630585031
 30
0.0
 10
92.84716148141854
 20
209.1571247534157
 30
0.0
 10
92.97064229186394
 20
209.085529136735
 30
0.0
 10
93.09407950885627
 20
209.0138367331688
 30
0.0
 10
93.15400420832982
 20
208.9790324347333
 30
0.0
  0
LINE
  5
1A3
330
1F
100
AcDbEntity
  8
0
  6
Continuous
 62
     7
370
    30
100
AcDbLine
 10
92.7751179706
 20
209.2910031455
 30
0.0
 11
92.7751179706
 21
209.203503527
 31
0.0
  0
SPLINE
  5
1A4
330
1F
100
AcDbEntity
  8
0
  6
Continuous
 62
     7
370
    30
100
AcDbSpline
210
0.0
220
0.0
230
1.0
 70
     8
 71
     3
 72
     9
 73
     5
 74
     0
 42
0.000000001
 43
0.00000001
 40
0.0
 40
0.0
 40
0.0
 40
0.0
 40
0.4997990793403478
 40
1.0
 40
1.0
 40
1.0
 40
1.0
 10
96.44344299245228
 20
209.3228990810231
 30
0.0
 10
96.50690396643611
 20
209.359757980949
 30
0.0
 10
96.63387693738997
 20
209.4335054155672
 30
0.0
 10
96.76089425304541
 20
209.5071528302954
 30
0.0
 10
96.82442843127598
 20
209.5439913349466
 30
0.0
  0
LINE
  5
1A5
330
1F
100
AcDbEntity
  8
0
  6
Continuous
 62
     7
370
    30
100
AcDbLine
 10
96.8328904282
 20
209.5535020011
 30
0.0
 11
96.8328904282
 21
209.6410016196
 31
0.0
  0
SPLINE
  5
1A6
330
1F
100
AcDbEntity
  8
0
  6
Continuous
 62
     7
370
    30
100
AcDbSpline
210
0.0
220
0.0
230
1.0
 70
     8
 71
     3
 72
     9
 73
     5
 74
     0
 42
0.000000001
 43
0.00000001
 40
0.0
 40
0.0
 40
0.0
 40
0.0
 40
0.2877235927107614
 40
1.0
 40
1.0
 40
1.0
 40
1.0
 10
96.70143890339484
 20
209.0217503385858
 30
0.0
 10
96.677702256418
 20
209.0355136668485
 30
0.0
 10
96.59520416596527
 20
209.0833489108517
 30
0.0
 10
96.51274085868863
 20
209.1312428391336
 30
0.0
 10
96.45400419044842
 20
209.1653565543012
 30
0.0
  0
LINE
  5
1A7
330
1F
100
AcDbEntity
  8
0
  6
Continuous
 62
     7
370
    30
100
AcDbLine
 10
96.3040035139
 20
208.58655075
 30
0.0
 11
96.708632439
 21
208.9911806064
 31
0.0
  0
LINE
  5
1A8
330
1F
100
AcDbEntity
  8
0
  6
Continuous
 62
     7
370
    30
100
AcDbLine
 10
93.1159019392
 20
208.7746518331
 30
0.0
 11
93.3040048848
 21
208.58655075
 31
0.0
  0
LINE
  5
1A9
330
1F
100
AcDbEntity
  8
0
  6
Continuous
 62
     7
370
    30
100
AcDbLine
 10
93.1540042083
 20
209.6846657472
 30
0.0
 11
93.1540042083
 21
209.5153550284
 31
0.0
  0
LINE
  5
1AA
330
1F
100
AcDbEntity
  8
0
  6
Continuous
 62
     7
370
    30
100
AcDbLine
 10
93.1540042083
 20
208.9846650737
 30
0.0
 11
93.1540042083
 21
208.8096770125
 31
0.0
  0
LINE
  5
1AB
330
1F
100
AcDbEntity
  8
0
  6
Continuous
 62
     7
370
    30
100
AcDbLine
 10
96.4540041904
 20
209.1596643107
 30
0.0
 11
96.4540041904
 21
209.3290309089
 31
0.0
  0
LINE
  5
1AC
330
1F
100
AcDbEntity
  8
0
  6
Continuous
 62
     7
370
    30
100
AcDbLine
 10
111.3843177017
 20
232.3602703067
 30
0.0
 11
111.3040043428
 21
232.4984925466
 31
0.0
  0
LINE
  5
1AD
330
1F
100
AcDbEntity
  8
0
  6
Continuous
 62
     7
370
    30
100
AcDbLine
 10
111.3040043428
 20
228.8753478455
 30
0.0
 11
111.4055739753
 21
228.7002275365
 31
0.0
  0
SPLINE
  5
1AE
330
1F
100
AcDbEntity
  8
0
  6
Continuous
 62
     7
370
    30
100
AcDbSpline
210
0.0
220
0.0
230
1.0
 70
     8
 71
     3
 72
     9
 73
     5
 74
     0
 42
0.000000001
 43
0.00000001
 40
0.0
 40
0.0
 40
0.0
 40
0.0
 40
0.5002073053618645
 40
1.0
 40
1.0
 40
1.0
 40
1.0
 10
111.7564505993442
 20
232.7393353583531
 30
0.0
 10
111.7196233585788
 20
232.6758236211531
 30
0.0
 10
111.6459994023298
 20
232.5488527902211
 30
0.0
 10
111.5722914723109
 20
232.4219326766879
 30
0.0
 10
111.5354527873506
 20
232.3584989311413
 30
0.0
  0
SPLINE
  5
1AF
330
1F
100
AcDbEntity
  8
0
  6
Continuous
 62
     7
370
    30
100
AcDbSpline
210
0.0
220
0.0
230
1.0
 70
     8
 71
     3
 72
     9
 73
     5
 74
     0
 42
0.000000001
 43
0.00000001
 40
0.0
 40
0.0
 40
0.0
 40
0.0
 40
0.4997935387783369
 40
1.0
 40
1.0
 40
1.0
 40
1.0
 10
112.0857054711024
 20
232.3580928744988
 30
0.0
 10
112.0488248780149
 20
232.4215483018384
 30
0.0
 10
111.9750332216088
 20
232.5485115825056
 30
0.0
 10
111.9013371440355
 20
232.6755261696913
 30
0.0
 10
111.8644738898666
 20
232.739059686871
 30
0.0
  0
LINE
  5
1B0
330
1F
100
AcDbEntity
  8
0
  6
Continuous
 62
     7
370
    30
100
AcDbLine
 10
111.8538954333
 20
232.7478727924
 30
0.0
 11
111.7663954364
 21
232.7478727924
 31
0.0
  0
LINE
  5
1B1
330
1F
100
AcDbEntity
  8
0
  6
Continuous
 62
     7
370
    30
100
AcDbLine
 10
112.5667859023
 20
232.2189868095
 30
0.0
 11
112.3205993799
 21
232.4651735502
 31
0.0
  0
LINE
  5
1B2
330
1F
100
AcDbEntity
  8
0
  6
Continuous
 62
     7
370
    30
100
AcDbLine
 10
112.2479793639
 20
232.3689865547
 30
0.0
 11
112.0793755189
 21
232.3689865547
 31
0.0
  0
LINE
  5
1B3
330
1F
100
AcDbEntity
  8
0
  6
Continuous
 62
     7
370
    30
100
AcDbLine
 10
111.547979367
 20
232.3689865547
 30
0.0
 11
111.3792530532
 21
232.3689865547
 31
0.0
  0
SPLINE
  5
1B4
330
1F
100
AcDbEntity
  8
0
  6
Continuous
 62
     7
370
    30
100
AcDbSpline
210
0.0
220
0.0
230
1.0
 70
     8
 71
     3
 72
     9
 73
     5
 74
     0
 42
0.000000001
 43
0.00000001
 40
0.0
 40
0.0
 40
0.0
 40
0.0
 40
0.5000974859255994
 40
1.0
 40
1.0
 40
1.0
 40
1.0
 10
112.3212026440825
 20
232.5061731638626
 30
0.0
 10
112.3068919473787
 20
232.4815184131395
 30
0.0
 10
112.2782761332493
 20
232.4322185237839
 30
0.0
 10
112.2496450902303
 20
232.3829279851167
 30
0.0
 10
112.2353323598446
 20
232.3582875209169
 30
0.0
  0
LINE
  5
1B5
330
1F
100
AcDbEntity
  8
0
  6
Continuous
 62
     7
370
    30
100
AcDbLine
 10
112.0927783713
 20
228.7449794488
 30
0.0
 11
112.5667859023
 21
229.218987249
 31
0.0
  0
SPLINE
  5
1B6
330
1F
100
AcDbEntity
  8
0
  6
Continuous
 62
     7
370
    30
100
AcDbSpline
210
0.0
220
0.0
230
1.0
 70
     8
 71
     3
 72
     9
 73
     5
 74
     0
 42
0.000000001
 43
0.00000001
 40
0.0
 40
0.0
 40
0.0
 40
0.0
 40
0.5002012780732967
 40
1.0
 40
1.0
 40
1.0
 40
1.0
 10
111.5145349912864
 20
228.6990149544791
 30
0.0
 10
111.5513929889169
 20
228.7625402657514
 30
0.0
 10
111.6250793212918
 20
228.8895397638673
 30
0.0
 10
111.6988587730972
 20
229.0164821218593
 30
0.0
 10
111.735733648814
 20
229.079927750142
 30
0.0
  0
SPLINE
  5
1B7
330
1F
100
AcDbEntity
  8
0
  6
Continuous
 62
     7
370
    30
100
AcDbSpline
210
0.0
220
0.0
230
1.0
 70
     8
 71
     3
 72
     9
 73
     5
 74
     0
 42
0.000000001
 43
0.00000001
 40
0.0
 40
0.0
 40
0.0
 40
0.0
 40
0.5756552931355761
 40
1.0
 40
1.0
 40
1.0
 40
1.0
 10
111.8855535905396
 20
229.0793000387268
 30
0.0
 10
111.9216833659087
 20
229.0170885900721
 30
0.0
 10
111.9844462307688
 20
228.9090179279997
 30
0.0
 10
112.0471411279157
 20
228.8009053988831
 30
0.0
 10
112.0737453756675
 20
228.7550284194068
 30
0.0
  0
LINE
  5
1B8
330
1F
100
AcDbEntity
  8
0
  6
Continuous
 62
     7
370
    30
100
AcDbLine
 10
111.4163954198
 20
228.6901021974
 30
0.0
 11
111.5038954458
 21
228.6901021974
 31
0.0
  0
LINE
  5
1B9
330
1F
100
AcDbEntity
  8
0
  6
Continuous
 62
     7
370
    30
100
AcDbLine
 10
111.7229793608
 20
229.0689865725
 30
0.0
 11
111.8915410925
 21
229.0689865725
 31
0.0
  0
LINE
  5
1BA
330
1F
100
AcDbEntity
  8
0
  6
Continuous
 62
     7
370
    30
100
AcDbLine
 10
83.804004259
 20
208.7189885454
 30
0.0
 11
85.8040045868
 21
208.7189885454
 31
0.0
  0
LINE
  5
1BB
330
1F
100
AcDbEntity
  8
0
  6
Continuous
 62
     7
370
    30
100
AcDbLine
 10
81.8040039312
 20
208.7189885454
 30
0.0
 11
83.804004259
 21
208.7189885454
 31
0.0
  0
SPLINE
  5
1BC
330
1F
100
AcDbEntity
  8
0
  6
Continuous
 62
     7
370
    30
100
AcDbSpline
210
0.0
220
0.0
230
1.0
 70
     8
 71
     3
 72
     9
 73
     5
 74
     0
 42
0.000000001
 43
0.00000001
 40
0.0
 40
0.0
 40
0.0
 40
0.0
 40
0.0549395611436325
 40
1.0
 40
1.0
 40
1.0
 40
1.0
 10
93.15922892797342
 20
209.6846657471971
 30
0.0
 10
93.15747063712162
 20
209.6852940737849
 30
0.0
 10
93.12546654361985
 20
209.6967307612047
 30
0.0
 10
93.19277062432688
 20
209.7081731231321
 30
0.0
 10
93.25637704837669
 20
209.7189868467168
 30
0.0
  0
SPLINE
  5
1BD
330
1F
100
AcDbEntity
  8
0
  6
Continuous
 62
     7
370
    30
100
AcDbSpline
210
0.0
220
0.0
230
1.0
 70
     8
 71
     3
 72
    12
 73
     8
 74
     0
 42
0.000000001
 43
0.00000001
 40
0.0
 40
0.0
 40
0.0
 40
0.0
 40
0.212420065134046
 40
0.4209419047616416
 40
0.6866584256296586
 40
0.9455714108003099
 40
0.9999999999999999
 40
0.9999999999999999
 40
0.9999999999999999
 40
0.9999999999999999
 10
95.13882584083429
 20
209.4850497918443
 30
0.0
 10
95.34812973726898
 20
209.4970224961384
 30
0.0
 10
95.76289649098241
 20
209.5207481877179
 30
0.0
 10
96.3307897610931
 20
209.555711277222
 30
0.0
 10
96.72460064016698
 20
209.6007180345216
 30
0.0
 10
96.8873483574088
 20
209.6314956283435
 30
0.0
 10
96.81103064739743
 20
209.648789735323
 30
0.0
 10
96.79777397919048
 20
209.6517937856034
 30
0.0
  0
SPLINE
  5
1BE
330
1F
100
AcDbEntity
  8
0
  6
Continuous
 62
     7
370
    30
100
AcDbSpline
210
0.0
220
0.0
230
1.0
 70
     8
 71
     3
 72
    10
 73
     6
 74
     0
 42
0.000000001
 43
0.00000001
 40
0.0
 40
0.0
 40
0.0
 40
0.0
 40
0.2754234088544918
 40
0.5508516199720349
 40
1.0
 40
1.0
 40
1.0
 40
1.0
 10
95.13215198326459
 20
209.7077625470475
 30
0.0
 10
95.13276478629251
 20
209.6873057038733
 30
0.0
 10
95.13399040303318
 20
209.6463916608407
 30
0.0
 10
95.13621550941694
 20
209.5721452548428
 30
0.0
 10
95.13782694743402
 20
209.5183785418278
 30
0.0
 10
95.13882584083429
 20
209.4850497918443
 30
0.0
  0
LINE
  5
1BF
330
1F
100
AcDbEntity
  8
0
  6
Continuous
 62
     7
370
    30
100
AcDbLine
 10
95.1321519833
 20
209.707762547
 30
0.0
 11
95.2899143021
 21
209.7189868467
 31
0.0
  0
SPLINE
  5
1C0
330
1F
100
AcDbEntity
  8
0
  6
Continuous
 62
     7
370
    30
100
AcDbSpline
210
0.0
220
0.0
230
1.0
 70
     8
 71
     3
 72
    10
 73
     6
 74
     0
 42
0.000000001
 43
0.00000001
 40
0.0
 40
0.0
 40
0.0
 40
0.0
 40
0.2778810458954923
 40
0.5557583907016573
 40
0.9999999999999999
 40
0.9999999999999999
 40
0.9999999999999999
 40
0.9999999999999999
 10
94.53891812968601
 20
209.4505498783902
 30
0.0
 10
94.53830028984014
 20
209.4705240445837
 30
0.0
 10
94.53706461837734
 20
209.5104721109352
 30
0.0
 10
94.53484257182485
 20
209.5821560365855
 30
0.0
 10
94.53323275529105
 20
209.6336563649684
 30
0.0
 10
94.53224240947118
 20
209.6653389411287
 30
0.0
  0
SPLINE
  5
1C1
330
1F
100
AcDbEntity
  8
0
  6
Continuous
 62
     7
370
    30
100
AcDbSpline
210
0.0
220
0.0
230
1.0
 70
     8
 71
     3
 72
    11
 73
     7
 74
     0
 42
0.000000001
 43
0.00000001
 40
0.0
 40
0.0
 40
0.0
 40
0.0
 40
0.2331082922365137
 40
0.5298729603058308
 40
0.7627593723667447
 40
1.0
 40
1.0
 40
1.0
 40
1.0
 10
92.80752613354076
 20
209.301091231616
 30
0.0
 10
92.83705397394105
 20
209.3123585403872
 30
0.0
 10
92.90417301142456
 20
209.3379699941712
 30
0.0
 10
93.3347842649609
 20
209.3798909737194
 30
0.0
 10
93.90766060396174
 20
209.4148563969244
 30
0.0
 10
94.32720371507773
 20
209.4385788139262
 30
0.0
 10
94.53891812968601
 20
209.4505498783902
 30
0.0
  0
SPLINE
  5
1C2
330
1F
100
AcDbEntity
  8
0
  6
Continuous
 62
     7
370
    30
100
AcDbSpline
210
0.0
220
0.0
230
1.0
 70
     8
 71
     3
 72
    11
 73
     7
 74
     0
 42
0.000000001
 43
0.00000001
 40
0.0
 40
0.0
 40
0.0
 40
0.0
 40
0.2294041766478147
 40
0.5378368595763233
 40
0.7672998913145169
 40
1.0
 40
1.0
 40
1.0
 40
1.0
 10
93.18611807334771
 20
209.5216731207685
 30
0.0
 10
93.20917221414444
 20
209.5323499550342
 30
0.0
 10
93.26322252337393
 20
209.5573817356042
 30
0.0
 10
93.60413479822851
 20
209.5979680449821
 30
0.0
 10
94.05080144110558
 20
209.6319674755223
 30
0.0
 10
94.37101447604981
 20
209.6541632980312
 30
0.0
 10
94.53224240947118
 20
209.6653389411287
 30
0.0
  0
SPLINE
  5
1C3
330
1F
100
AcDbEntity
  8
0
  6
Continuous
 62
     7
370
    30
100
AcDbSpline
210
0.0
220
0.0
230
1.0
 70
     8
 71
     3
 72
    12
 73
     8
 74
     0
 42
0.000000001
 43
0.00000001
 40
0.0
 40
0.0
 40
0.0
 40
0.0
 40
0.0117451243181309
 40
0.2823455518195698
 40
0.5600568400584781
 40
0.7779910905456929
 40
1.0
 40
1.0
 40
1.0
 40
1.0
 10
92.78144910145154
 20
209.2034439223127
 30
0.0
 10
92.77935752704896
 20
209.2040626330635
 30
0.0
 10
92.72907736713996
 20
209.2189360582941
 30
0.0
 10
92.91698168285441
 20
209.2473639186385
 30
0.0
 10
93.32564635473412
 20
209.2923966067843
 30
0.0
 10
93.90975595067535
 20
209.3273555741896
 30
0.0
 10
94.32790646329822
 20
209.3510787915236
 30
0.0
 10
94.53891812968601
 20
209.36305025986
 30
0.0
  0
SPLINE
  5
1C4
330
1F
100
AcDbEntity
  8
0
  6
Continuous
 62
     7
370
    30
100
AcDbSpline
210
0.0
220
0.0
230
1.0
 70
     8
 71
     3
 72
    10
 73
     6
 74
     0
 42
0.000000001
 43
0.00000001
 40
0.0
 40
0.0
 40
0.0
 40
0.0
 40
0.2754276018773978
 40
0.5508520395384114
 40
1.0
 40
1.0
 40
1.0
 40
1.0
 10
94.53224240947118
 20
209.1403375046567
 30
0.0
 10
94.5328552264497
 20
209.1607961351457
 30
0.0
 10
94.53408085336645
 20
209.2017131610872
 30
0.0
 10
94.53630567262228
 20
209.2759530420294
 30
0.0
 10
94.5379184198715
 20
209.3297207385098
 30
0.0
 10
94.53891812968601
 20
209.36305025986
 30
0.0
  0
SPLINE
  5
1C5
330
1F
100
AcDbEntity
  8
0
  6
Continuous
 62
     7
370
    30
100
AcDbSpline
210
0.0
220
0.0
230
1.0
 70
     8
 71
     3
 72
    12
 73
     8
 74
     0
 42
0.000000001
 43
0.00000001
 40
0.0
 40
0.0
 40
0.0
 40
0.0
 40
0.0122173374977829
 40
0.2893505385385816
 40
0.5737895587391351
 40
0.7854022565055372
 40
0.9999999999999999
 40
0.9999999999999999
 40
0.9999999999999999
 40
0.9999999999999999
 10
93.15922892797342
 20
208.9846650736646
 30
0.0
 10
93.15750043413598
 20
208.9852937317783
 30
0.0
 10
93.11656347689703
 20
209.000182619294
 30
0.0
 10
93.26936477145351
 20
209.0286204438615
 30
0.0
 10
93.59682527022242
 20
209.0729642941695
 30
0.0
 10
94.05242602845139
 20
209.1069719830383
 30
0.0
 10
94.37155858066235
 20
209.1291638557861
 30
0.0
 10
94.53224240947118
 20
209.1403375046567
 30
0.0
  0
LINE
  5
1C6
330
1F
100
AcDbEntity
  8
0
  6
Continuous
 62
     7
370
    30
100
AcDbLine
 10
94.5389181297
 20
209.3630502599
 30
0.0
 11
94.5389181297
 21
209.4505498784
 31
0.0
  0
SPLINE
  5
1C7
330
1F
100
AcDbEntity
  8
0
  6
Continuous
 62
     7
370
    30
100
AcDbSpline
210
0.0
220
0.0
230
1.0
 70
     8
 71
     3
 72
    10
 73
     6
 74
     0
 42
0.000000001
 43
0.00000001
 40
0.0
 40
0.0
 40
0.0
 40
0.0
 40
0.2754244427614882
 40
0.5508541413815979
 40
1.0
 40
1.0
 40
1.0
 40
1.0
 10
95.07576598930707
 20
209.4903397040681
 30
0.0
 10
95.0751531856777
 20
209.5107965293228
 30
0.0
 10
95.073927566725
 20
209.5517105702049
 30
0.0
 10
95.07170247961213
 20
209.6259570227807
 30
0.0
 10
95.07009102885355
 20
209.6797215058355
 30
0.0
 10
95.06909213173738
 20
209.7130487339811
 30
0.0
  0
SPLINE
  5
1C8
330
1F
100
AcDbEntity
  8
0
  6
Continuous
 62
     7
370
    30
100
AcDbSpline
210
0.0
220
0.0
230
1.0
 70
     8
 71
     3
 72
    11
 73
     7
 74
     0
 42
0.000000001
 43
0.00000001
 40
0.0
 40
0.0
 40
0.0
 40
0.0
 40
0.2394422646635772
 40
0.475552793781146
 40
0.7929212360748679
 40
1.0
 40
1.0
 40
1.0
 40
1.0
 10
95.13215198326459
 20
209.1827611105756
 30
0.0
 10
95.29189188942397
 20
209.1939377992218
 30
0.0
 10
95.60914899004138
 20
209.2161356577259
 30
0.0
 10
96.04323845233135
 20
209.2501178617184
 30
0.0
 10
96.36017165248856
 20
209.2892919384036
 30
0.0
 10
96.40053454299421
 20
209.3130437898067
 30
0.0
 10
96.41647189069143
 20
209.322422243865
 30
0.0
  0
SPLINE
  5
1C9
330
1F
100
AcDbEntity
  8
0
  6
Continuous
 62
     7
370
    30
100
AcDbSpline
210
0.0
220
0.0
230
1.0
 70
     8
 71
     3
 72
    10
 73
     6
 74
     0
 42
0.000000001
 43
0.00000001
 40
0.0
 40
0.0
 40
0.0
 40
0.0
 40
0.2778768561887048
 40
0.5557583577468285
 40
1.0
 40
1.0
 40
1.0
 40
1.0
 10
95.13882584083429
 20
209.397550173314
 30
0.0
 10
95.13820877959616
 20
209.3775777918985
 30
0.0
 10
95.13697464680428
 20
209.3376326951818
 30
0.0
 10
95.13475196306115
 20
209.2659423895425
 30
0.0
 10
95.13314225604071
 20
209.2144429552391
 30
0.0
 10
95.13215198326459
 20
209.1827611105756
 30
0.0
  0
SPLINE
  5
1CA
330
1F
100
AcDbEntity
  8
0
  6
Continuous
 62
     7
370
    30
100
AcDbSpline
210
0.0
220
0.0
230
1.0
 70
     8
 71
     3
 72
    11
 73
     7
 74
     0
 42
0.000000001
 43
0.00000001
 40
0.0
 40
0.0
 40
0.0
 40
0.0
 40
0.2436245166618228
 40
0.4827781595187229
 40
0.7875283672012281
 40
1.0
 40
1.0
 40
1.0
 40
1.0
 10
95.13882584083429
 20
209.397550173314
 30
0.0
 10
95.34880737232052
 20
209.4095237062334
 30
0.0
 10
95.76491696052167
 20
209.4332510398569
 30
0.0
 10
96.32197838183083
 20
209.4682008839664
 30
0.0
 10
96.72271184154887
 20
209.5087429089596
 30
0.0
 10
96.7726041924151
 20
209.5331203935725
 30
0.0
 10
96.79309967118849
 20
209.5431345181779
 30
0.0
  0
LINE
  5
1CB
330
1F
100
AcDbEntity
  8
0
  6
Continuous
 62
     7
370
    30
100
AcDbLine
 10
95.1321519833
 20
209.7189868467
 30
0.0
 11
95.1321519833
 21
209.707762547
 31
0.0
  0
LINE
  5
1CC
330
1F
100
AcDbEntity
  8
0
  6
Continuous
 62
     7
370
    30
100
AcDbLine
 10
95.1388258408
 20
209.4850497918
 30
0.0
 11
95.1388258408
 21
209.3975501733
 31
0.0
  0
LINE
  5
1CD
330
1F
100
AcDbEntity
  8
0
  6
Continuous
 62
     7
370
    30
100
AcDbLine
 10
95.1321519833
 20
209.1827611106
 30
0.0
 11
95.1321519833
 21
209.0077618735
 31
0.0
  0
LWPOLYLINE
  5
1CE
330
1F
100
AcDbEntity
  8
0
  6
Continuous
 62
     7
370
    30
100
AcDbPolyline
 90
        3
 70
   128
 43
0.0
 10
95.1321519833
 20
209.0077618735
 10
95.133990414
 20
208.9463951664
 10
95.1351638805
 20
208.9072311895
  0
LINE
  5
1CF
330
1F
100
AcDbEntity
  8
0
  6
Continuous
 62
     7
370
    30
100
AcDbLine
 10
95.1294977139
 20
208.58655075
 30
0.0
 11
95.1351638805
 21
208.9072311895
 31
0.0
  0
LINE
  5
1D0
330
1F
100
AcDbEntity
  8
0
  6
Continuous
 62
     7
370
    30
100
AcDbLine
 10
95.1294977139
 20
208.58655075
 30
0.0
 11
95.0784202586
 21
208.58655075
 31
0.0
  0
LINE
  5
1D1
330
1F
100
AcDbEntity
  8
0
  6
Continuous
 62
     7
370
    30
100
AcDbLine
 10
95.0757659893
 20
208.7365495639
 30
0.0
 11
95.0784202586
 21
208.58655075
 31
0.0
  0
LINE
  5
1D2
330
1F
100
AcDbEntity
  8
0
  6
Continuous
 62
     7
370
    30
100
AcDbLine
 10
95.0757659893
 20
208.7365495639
 30
0.0
 11
95.0757659893
 21
208.7903390305
 31
0.0
  0
LWPOLYLINE
  5
1D3
330
1F
100
AcDbEntity
  8
0
  6
Continuous
 62
     7
370
    30
100
AcDbPolyline
 90
        3
 70
   128
 43
0.0
 10
95.0757659893
 20
208.7903390305
 10
95.0739275585
 20
208.8517057376
 10
95.0734544467
 20
208.8675046938
  0
LINE
  5
1D4
330
1F
100
AcDbEntity
  8
0
  6
Continuous
 62
     7
370
    30
100
AcDbLine
 10
95.0692579072
 20
209.1059493499
 30
0.0
 11
95.0734544467
 21
208.8675046938
 31
0.0
  0
SPLINE
  5
1D5
330
1F
100
AcDbEntity
  8
0
  6
Continuous
 62
     7
370
    30
100
AcDbSpline
210
0.0
220
0.0
230
1.0
 70
     8
 71
     3
 72
    10
 73
     6
 74
     0
 42
0.000000001
 43
0.00000001
 40
0.0
 40
0.0
 40
0.0
 40
0.0
 40
0.2593470292759145
 40
0.5443593838384181
 40
0.9999999999999999
 40
0.9999999999999999
 40
0.9999999999999999
 40
0.9999999999999999
 10
95.06925790715565
 20
209.1059493499116
 30
0.0
 10
95.06981961339476
 20
209.1241208277068
 30
0.0
 10
95.07099861306587
 20
209.1622620567913
 30
0.0
 10
95.07316911582055
 20
209.2321592792559
 30
0.0
 10
95.07477690013326
 20
209.2836586724584
 30
0.0
 10
95.07576598930707
 20
209.3153404670076
 30
0.0
  0
LINE
  5
1D6
330
1F
100
AcDbEntity
  8
0
  6
Continuous
 62
     7
370
    30
100
AcDbLine
 10
95.0757659893
 20
209.315340467
 30
0.0
 11
95.0757659893
 21
209.4903397041
 31
0.0
  0
LINE
  5
1D7
330
1F
100
AcDbEntity
  8
0
  6
Continuous
 62
     7
370
    30
100
AcDbLine
 10
95.0690921317
 20
209.713048734
 30
0.0
 11
95.0690921317
 21
209.7189868467
 31
0.0
  0
SPLINE
  5
1D8
330
1F
100
AcDbEntity
  8
0
  6
Continuous
 62
     7
370
    30
100
AcDbSpline
210
0.0
220
0.0
230
1.0
 70
     8
 71
     3
 72
    12
 73
     8
 74
     0
 42
0.000000001
 43
0.00000001
 40
0.0
 40
0.0
 40
0.0
 40
0.0
 40
0.1025636797493575
 40
0.3526027691871141
 40
0.5972344922861855
 40
0.8419111142605928
 40
1.0
 40
1.0
 40
1.0
 40
1.0
 10
96.69500812101712
 20
209.0048039930181
 30
0.0
 10
96.69869226012133
 20
209.0017510938831
 30
0.0
 10
96.71135792942447
 20
208.9912555588977
 30
0.0
 10
96.49993669416025
 20
208.9711306005469
 30
0.0
 10
96.09744744047849
 20
208.9455204813012
 30
0.0
 10
95.60911825249697
 20
208.9263368215237
 30
0.0
 10
95.2687581242524
 20
208.9126165232365
 30
0.0
 10
95.1351638804709
 20
208.9072311895208
 30
0.0
  0
SPLINE
  5
1D9
330
1F
100
AcDbEntity
  8
0
  6
Continuous
 62
     7
370
    30
100
AcDbSpline
210
0.0
220
0.0
230
1.0
 70
     8
 71
     3
 72
    11
 73
     7
 74
     0
 42
0.000000001
 43
0.00000001
 40
0.0
 40
0.0
 40
0.0
 40
0.0
 40
0.219973336524359
 40
0.4368858392168046
 40
0.728449215703312
 40
1.0
 40
1.0
 40
1.0
 40
1.0
 10
95.13215198326459
 20
209.0077618735151
 30
0.0
 10
95.29174611988742
 20
209.0189358990979
 30
0.0
 10
95.60871370975178
 20
209.0411284685307
 30
0.0
 10
96.04519662547906
 20
209.0751543985187
 30
0.0
 10
96.38713502563404
 20
209.1186701831757
 30
0.0
 10
96.42872400120311
 20
209.1463272375041
 30
0.0
 10
96.44877947080482
 20
209.1596643107251
 30
0.0
  0
LINE
  5
1DA
330
1F
100
AcDbEntity
  8
0
  6
Continuous
 62
     7
370
    30
100
AcDbLine
 10
96.3040035139
 20
208.58655075
 30
0.0
 11
95.1294977139
 21
208.58655075
 31
0.0
  0
LINE
  5
1DB
330
1F
100
AcDbEntity
  8
0
  6
Continuous
 62
     7
370
    30
100
AcDbLine
 10
94.5295881401
 20
208.58655075
 30
0.0
 11
93.3040048848
 21
208.58655075
 31
0.0
  0
SPLINE
  5
1DC
330
1F
100
AcDbEntity
  8
0
  6
Continuous
 62
     7
370
    30
100
AcDbSpline
210
0.0
220
0.0
230
1.0
 70
     8
 71
     3
 72
    12
 73
     8
 74
     0
 42
0.000000001
 43
0.00000001
 40
0.0
 40
0.0
 40
0.0
 40
0.0
 40
0.0903717183658111
 40
0.3360834846231953
 40
0.5787238394560031
 40
0.8143721918804898
 40
1.0
 40
1.0
 40
1.0
 40
1.0
 10
94.53482217300285
 20
208.8826889770345
 30
0.0
 10
94.46227999123205
 20
208.8796677229422
 30
0.0
 10
94.1925027902164
 20
208.8684319777154
 30
0.0
 10
93.76017684152383
 20
208.8513055017081
 30
0.0
 10
93.35473099041846
 20
208.8265383283478
 30
0.0
 10
93.12228320292594
 20
208.8025613484574
 30
0.0
 10
93.12367968384874
 20
208.7890142144996
 30
0.0
 10
93.12429501819958
 20
208.7830449121313
 30
0.0
  0
LINE
  5
1DD
330
1F
100
AcDbEntity
  8
0
  6
Continuous
 62
     7
370
    30
100
AcDbLine
 10
94.534822173
 20
208.882688977
 30
0.0
 11
94.5295881401
 21
208.58655075
 31
0.0
  0
SPLINE
  5
1DE
330
1F
100
AcDbEntity
  8
0
  6
Continuous
 62
     7
370
    30
100
AcDbSpline
210
0.0
220
0.0
230
1.0
 70
     8
 71
     3
 72
    12
 73
     8
 74
     0
 42
0.000000001
 43
0.00000001
 40
0.0
 40
0.0
 40
0.0
 40
0.0
 40
0.0122811714314351
 40
0.2893964623065587
 40
0.5738171001914709
 40
0.7854160177844888
 40
1.0
 40
1.0
 40
1.0
 40
1.0
 10
93.1583926003014
 20
208.809677012475
 30
0.0
 10
93.15694915325959
 20
208.8103017773648
 30
0.0
 10
93.12293542177144
 20
208.8250238867255
 30
0.0
 10
93.26638219375792
 20
208.8536934887513
 30
0.0
 10
93.59740286472312
 20
208.8979531145568
 30
0.0
 10
94.05229787038677
 20
208.9319699711286
 30
0.0
 10
94.37151560955604
 20
208.9541636857995
 30
0.0
 10
94.53224240947118
 20
208.9653382675962
 30
0.0
  0
LINE
  5
1DF
330
1F
100
AcDbEntity
  8
0
  6
Continuous
 62
     7
370
    30
100
AcDbLine
 10
94.534822173
 20
208.882688977
 30
0.0
 11
94.5322424095
 21
208.9653382676
 31
0.0
  0
LINE
  5
1E0
330
1F
100
AcDbEntity
  8
0
  6
Continuous
 62
     7
370
    30
100
AcDbLine
 10
94.5322424095
 20
209.6653389411
 30
0.0
 11
94.5322424095
 21
209.7189868467
 31
0.0
  0
LINE
  5
1E1
330
1F
100
AcDbEntity
  8
0
  6
Continuous
 62
     7
370
    30
100
AcDbLine
 10
94.5322424095
 20
208.9653382676
 30
0.0
 11
94.5322424095
 21
209.1403375047
 31
0.0
  0
SPLINE
  5
1E2
330
1F
100
AcDbEntity
  8
0
  6
Continuous
 62
     7
370
    30
100
AcDbSpline
210
0.0
220
0.0
230
1.0
 70
     8
 71
     3
 72
    13
 73
     9
 74
     0
 42
0.000000001
 43
0.00000001
 40
0.0
 40
0.0
 40
0.0
 40
0.0
 40
0.1420661456057523
 40
0.2821556269029513
 40
0.4704574365970333
 40
0.6539221151407176
 40
0.8373870480674275
 40
1.0
 40
1.0
 40
1.0
 40
1.0
 10
111.6205738080253
 20
229.7178408729152
 30
0.0
 10
111.6094004784844
 20
229.8583147695785
 30
0.0
 10
111.5872092816459
 20
230.1373080526546
 30
0.0
 10
111.5531810729541
 20
230.6852144154681
 30
0.0
 10
111.5089682887499
 20
231.289122974767
 30
0.0
 10
111.4668782737184
 20
231.8510075543103
 30
0.0
 10
111.4262023257667
 20
232.2463765716142
 30
0.0
 10
111.3975284202781
 20
232.3139041820585
 30
0.0
 10
111.3840553015989
 20
232.3456336410956
 30
0.0
  0
SPLINE
  5
1E3
330
1F
100
AcDbEntity
  8
0
  6
Continuous
 62
     7
370
    30
100
AcDbSpline
210
0.0
220
0.0
230
1.0
 70
     8
 71
     3
 72
    10
 73
     6
 74
     0
 42
0.000000001
 43
0.00000001
 40
0.0
 40
0.0
 40
0.0
 40
0.0
 40
0.2778799240917535
 40
0.5557597401833857
 40
1.0
 40
1.0
 40
1.0
 40
1.0
 10
111.4057850363252
 20
229.4331690894679
 30
0.0
 10
111.4257585404239
 20
229.4595047636219
 30
0.0
 10
111.4657055408583
 20
229.5121761016941
 30
0.0
 10
111.5373932891297
 20
229.6070291465795
 30
0.0
 10
111.5888922305625
 20
229.6756351937693
 30
0.0
 10
111.6205738080253
 20
229.7178408729152
 30
0.0
  0
SPLINE
  5
1E4
330
1F
100
AcDbEntity
  8
0
  6
Continuous
 62
     7
370
    30
100
AcDbSpline
210
0.0
220
0.0
230
1.0
 70
     8
 71
     3
 72
    10
 73
     6
 74
     0
 42
0.000000001
 43
0.00000001
 40
0.0
 40
0.0
 40
0.0
 40
0.0
 40
0.3477279515056048
 40
0.6890754909726904
 40
1.0
 40
1.0
 40
1.0
 40
1.0
 10
111.4057850363252
 20
229.4331690894679
 30
0.0
 10
111.3938176071339
 20
229.6125328911874
 30
0.0
 10
111.3701023374525
 20
229.9679693730618
 30
0.0
 10
111.3389389540463
 20
230.5935058980523
 30
0.0
 10
111.315281404344
 20
230.9905681306733
 30
0.0
 10
111.3040043428128
 20
231.1798394324498
 30
0.0
  0
LINE
  5
1E5
330
1F
100
AcDbEntity
  8
0
  6
Continuous
 62
     7
370
    30
100
AcDbLine
 10
111.3182850685
 20
229.4331690895
 30
0.0
 11
111.3040043428
 21
229.6584429818
 31
0.0
  0
LINE
  5
1E6
330
1F
100
AcDbEntity
  8
0
  6
Continuous
 62
     7
370
    30
100
AcDbLine
 10
111.3040043428
 20
229.4514332565
 30
0.0
 11
111.3182850685
 21
229.4331690895
 31
0.0
  0
LINE
  5
1E7
330
1F
100
AcDbEntity
  8
0
  6
Continuous
 62
     7
370
    30
100
AcDbLine
 10
111.3527867282
 20
229.0303758012
 30
0.0
 11
111.3040043428
 21
229.0947786199
 31
0.0
  0
SPLINE
  5
1E8
330
1F
100
AcDbEntity
  8
0
  6
Continuous
 62
     7
370
    30
100
AcDbSpline
210
0.0
220
0.0
230
1.0
 70
     8
 71
     3
 72
     9
 73
     5
 74
     0
 42
0.000000001
 43
0.00000001
 40
0.0
 40
0.0
 40
0.0
 40
0.0
 40
0.3439064667374109
 40
1.0
 40
1.0
 40
1.0
 40
1.0
 10
111.4059394030419
 20
228.7250510083751
 30
0.0
 10
111.4000390915143
 20
228.731741816933
 30
0.0
 10
111.382882358221
 20
228.7511971316919
 30
0.0
 10
111.3647096950328
 20
228.9197737633482
 30
0.0
 10
111.3527867282329
 20
229.0303758012371
 30
0.0
  0
LINE
  5
1E9
330
1F
100
AcDbEntity
  8
0
  6
Continuous
 62
     7
370
    30
100
AcDbLine
 10
111.3182850685
 20
229.4331690895
 30
0.0
 11
111.4057850363
 21
229.4331690895
 31
0.0
  0
SPLINE
  5
1EA
330
1F
100
AcDbEntity
  8
0
  6
Continuous
 62
     7
370
    30
100
AcDbSpline
210
0.0
220
0.0
230
1.0
 70
     8
 71
     3
 72
    14
 73
    10
 74
     0
 42
0.000000001
 43
0.00000001
 40
0.0
 40
0.0
 40
0.0
 40
0.0
 40
0.1359920703258161
 40
0.2694888403296896
 40
0.4396017902030185
 40
0.6053590768736435
 40
0.7711163858016685
 40
0.9412293595253906
 40
1.0
 40
1.0
 40
1.0
 40
1.0
 10
112.0182850581414
 20
229.4331690894679
 30
0.0
 10
112.0063154734044
 20
229.6128498271882
 30
0.0
 10
111.9825959322407
 20
229.9689143647881
 30
0.0
 10
111.9476010137018
 20
230.6669822661028
 30
0.0
 10
111.9027432585088
 20
231.4178994216071
 30
0.0
 10
111.8605179795301
 20
232.1185760676945
 30
0.0
 10
111.8184012049579
 20
232.5919412432254
 30
0.0
 10
111.7804245259268
 20
232.7832676250569
 30
0.0
 10
111.7616268353584
 20
232.7287438913041
 30
0.0
 10
111.756800136348
 20
232.7147437857704
 30
0.0
  0
SPLINE
  5
1EB
330
1F
100
AcDbEntity
  8
0
  6
Continuous
 62
     7
370
    30
100
AcDbSpline
210
0.0
220
0.0
230
1.0
 70
     8
 71
     3
 72
    10
 73
     6
 74
     0
 42
0.000000001
 43
0.00000001
 40
0.0
 40
0.0
 40
0.0
 40
0.0
 40
0.2754265218974706
 40
0.5508520230270755
 40
0.9999999999999999
 40
0.9999999999999999
 40
0.9999999999999999
 40
0.9999999999999999
 10
111.7955737726816
 20
229.7178408729152
 30
0.0
 10
111.8160316607181
 20
229.6917101642594
 30
0.0
 10
111.8569473609713
 20
229.6394488437917
 30
0.0
 10
111.9311898102543
 20
229.5445610603998
 30
0.0
 10
111.9849563205408
 20
229.4757954538227
 30
0.0
 10
112.0182850581414
 20
229.4331690894679
 30
0.0
  0
SPLINE
  5
1EC
330
1F
100
AcDbEntity
  8
0
  6
Continuous
 62
     7
370
    30
100
AcDbSpline
210
0.0
220
0.0
230
1.0
 70
     8
 71
     3
 72
    14
 73
    10
 74
     0
 42
0.000000001
 43
0.00000001
 40
0.0
 40
0.0
 40
0.0
 40
0.0
 40
0.1357204399158762
 40
0.2695525071892436
 40
0.4494433906904963
 40
0.6247132044438263
 40
0.7999832612175884
 40
0.9798738666718174
 40
1.0
 40
1.0
 40
1.0
 40
1.0
 10
111.7955737726816
 20
229.7178408729152
 30
0.0
 10
111.7844009978315
 20
229.8582857541319
 30
0.0
 10
111.7622109026992
 20
230.137221409493
 30
0.0
 10
111.7281735863163
 20
230.6856041895629
 30
0.0
 10
111.6840069681339
 20
231.2871108431465
 30
0.0
 10
111.6417392829061
 20
231.8582357501976
 30
0.0
 10
111.5997536757699
 20
232.2382744557744
 30
0.0
 10
111.565248231086
 20
232.3914943931281
 30
0.0
 10
111.5495581392818
 20
232.362640047848
 30
0.0
 10
111.5479793670175
 20
232.359736658843
 30
0.0
  0
SPLINE
  5
1ED
330
1F
100
AcDbEntity
  8
0
  6
Continuous
 62
     7
370
    30
100
AcDbSpline
210
0.0
220
0.0
230
1.0
 70
     8
 71
     3
 72
    13
 73
     9
 74
     0
 42
0.000000001
 43
0.00000001
 40
0.0
 40
0.0
 40
0.0
 40
0.0
 40
0.0044997385684914
 40
0.2494633567855304
 40
0.4881547951440479
 40
0.7268462655533483
 40
0.9718099181150897
 40
1.0
 40
1.0
 40
1.0
 40
1.0
 10
112.0378997884046
 20
230.5947453381733
 30
0.0
 10
112.0376262514428
 20
230.5996748466082
 30
0.0
 10
112.0224614929478
 20
230.8729644394898
 30
0.0
 10
111.990331900809
 20
231.4186198776281
 30
0.0
 10
111.9479676317661
 20
232.1197579033939
 30
0.0
 10
111.906016580847
 20
232.5864313323805
 30
0.0
 10
111.8714339525047
 20
232.7777028936868
 30
0.0
 10
111.8557205297648
 20
232.739427887293
 30
0.0
 10
111.8540988690739
 20
232.735477820249
 30
0.0
  0
SPLINE
  5
1EE
330
1F
100
AcDbEntity
  8
0
  6
Continuous
 62
     7
370
    30
100
AcDbSpline
210
0.0
220
0.0
230
1.0
 70
     8
 71
     3
 72
    13
 73
     9
 74
     0
 42
0.000000001
 43
0.00000001
 40
0.0
 40
0.0
 40
0.0
 40
0.0
 40
0.1429058660908199
 40
0.283823384126821
 40
0.4732382025174084
 40
0.6577872987289247
 40
0.8423366508358144
 40
0.9999999999999999
 40
0.9999999999999999
 40
0.9999999999999999
 40
0.9999999999999999
 10
112.3205737830659
 20
229.7178408729152
 30
0.0
 10
112.3094004646663
 20
229.8583158433242
 30
0.0
 10
112.2872092899662
 20
230.1373112588184
 30
0.0
 10
112.2531808983633
 20
230.6851999908518
 30
0.0
 10
112.2089690985515
 20
231.2891974392602
 30
0.0
 10
112.1668753434273
 20
231.8507400559265
 30
0.0
 10
112.1266639377088
 20
232.2429264124921
 30
0.0
 10
112.0984827728138
 20
232.3098422589814
 30
0.0
 10
112.0854992195319
 20
232.340671554418
 30
0.0
  0
SPLINE
  5
1EF
330
1F
100
AcDbEntity
  8
0
  6
Continuous
 62
     7
370
    30
100
AcDbSpline
210
0.0
220
0.0
230
1.0
 70
     8
 71
     3
 72
     9
 73
     5
 74
     0
 42
0.000000001
 43
0.00000001
 40
0.0
 40
0.0
 40
0.0
 40
0.0
 40
0.2411673268498565
 40
1.0
 40
1.0
 40
1.0
 40
1.0
 10
112.1950902224426
 20
229.5510791840271
 30
0.0
 10
112.2052066286156
 20
229.5644730702321
 30
0.0
 10
112.2471542933558
 20
229.6200108015656
 30
0.0
 10
112.2888975989191
 20
229.6756329609916
 30
0.0
 10
112.3205737830659
 20
229.7178408729152
 30
0.0
  0
SPLINE
  5
1F0
330
1F
100
AcDbEntity
  8
0
  6
Continuous
 62
     7
370
    30
100
AcDbSpline
210
0.0
220
0.0
230
1.0
 70
     8
 71
     3
 72
    10
 73
     6
 74
     0
 42
0.000000001
 43
0.00000001
 40
0.0
 40
0.0
 40
0.0
 40
0.0
 40
0.1434066676667582
 40
0.6552831492479219
 40
1.0
 40
1.0
 40
1.0
 40
1.0
 10
112.1950902224426
 20
229.5510791840271
 30
0.0
 10
112.1868701713895
 20
229.5914973210018
 30
0.0
 10
112.149309428722
 20
229.7761841595875
 30
0.0
 10
112.0992983451503
 20
230.1274387478387
 30
0.0
 10
112.0555181499403
 20
230.4606513644237
 30
0.0
 10
112.0378997884046
 20
230.5947453381733
 30
0.0
  0
SPLINE
  5
1F1
330
1F
100
AcDbEntity
  8
0
  6
Continuous
 62
     7
370
    30
100
AcDbSpline
210
0.0
220
0.0
230
1.0
 70
    24
 71
     3
 72
    11
 73
     7
 74
     0
 42
0.000000001
 43
0.00000001
 40
0.0
 40
0.0
 40
0.0
 40
0.0
 40
0.1385236471170461
 40
0.6772676774087254
 40
0.9686251486421565
 40
1.0
 40
1.0
 40
1.0
 40
1.0
 10
112.0378997884046
 20
230.5947453381733
 30
0.0
 10
112.0378997884046
 20
230.5365773173141
 30
0.0
 10
112.0378997884046
 20
230.2521831275371
 30
0.0
 10
112.0378997884046
 20
229.8555469080869
 30
0.0
 10
112.0378997884046
 20
229.5492228112467
 30
0.0
 10
112.0378997884046
 20
229.4434517624501
 30
0.0
 10
112.0378997884046
 20
229.4331690894679
 30
0.0
  0
LINE
  5
1F2
330
1F
100
AcDbEntity
  8
0
  6
Continuous
 62
     7
370
    30
100
AcDbLine
 10
112.0182850581
 20
229.4331690895
 30
0.0
 11
112.0378997884
 21
229.4331690895
 31
0.0
  0
LINE
  5
1F3
330
1F
100
AcDbEntity
  8
0
  6
Continuous
 62
     7
370
    30
100
AcDbLine
 10
112.1950902224
 20
229.551079184
 30
0.0
 11
112.0378997884
 21
229.4331690895
 31
0.0
  0
LINE
  5
1F4
330
1F
100
AcDbEntity
  8
0
  6
Continuous
 62
     7
370
    30
100
AcDbLine
 10
112.5667859023
 20
232.2189868095
 30
0.0
 11
112.5667859023
 21
229.8310943546
 31
0.0
  0
LINE
  5
1F5
330
1F
100
AcDbEntity
  8
0
  6
Continuous
 62
     7
370
    30
100
AcDbLine
 10
112.5667859023
 20
229.8310943546
 30
0.0
 11
112.4167858952
 21
229.7178408729
 31
0.0
  0
LINE
  5
1F6
330
1F
100
AcDbEntity
  8
0
  6
Continuous
 62
     7
370
    30
100
AcDbLine
 10
112.4167858952
 20
230.832816534
 30
0.0
 11
112.4167858952
 21
229.7178408729
 31
0.0
  0
SPLINE
  5
1F7
330
1F
100
AcDbEntity
  8
0
  6
Continuous
 62
     7
370
    30
100
AcDbSpline
210
0.0
220
0.0
230
1.0
 70
     8
 71
     3
 72
    12
 73
     8
 74
     0
 42
0.000000001
 43
0.00000001
 40
0.0
 40
0.0
 40
0.0
 40
0.0
 40
0.1661154475270877
 40
0.394707520040229
 40
0.6233202319693231
 40
0.8495906512186657
 40
1.0
 40
1.0
 40
1.0
 40
1.0
 10
112.3099236437639
 20
232.4544977994875
 30
0.0
 10
112.3156256473441
 20
232.4472735174362
 30
0.0
 10
112.3291741988241
 20
232.4301078745356
 30
0.0
 10
112.3527184209667
 20
232.1734554433129
 30
0.0
 10
112.3746087171485
 20
231.758528112433
 30
0.0
 10
112.3967518794592
 20
231.280088955862
 30
0.0
 10
112.4110690189199
 20
230.9604495120624
 30
0.0
 10
112.4167858951779
 20
230.8328165339546
 30
0.0
  0
SPLINE
  5
1F8
330
1F
100
AcDbEntity
  8
0
  6
Continuous
 62
     7
370
    30
100
AcDbSpline
210
0.0
220
0.0
230
1.0
 70
     8
 71
     3
 72
    12
 73
     8
 74
     0
 42
0.000000001
 43
0.00000001
 40
0.0
 40
0.0
 40
0.0
 40
0.0
 40
0.2258978521880388
 40
0.4445925818807062
 40
0.7039843079800115
 40
0.970214235713906
 40
1.0
 40
1.0
 40
1.0
 40
1.0
 10
112.4167858951779
 20
230.8328165339546
 30
0.0
 10
112.4034623505939
 20
231.0172721479784
 30
0.0
 10
112.3772401044372
 20
231.3803017070774
 30
0.0
 10
112.3396291723283
 20
231.8775869959548
 30
0.0
 10
112.2997329929441
 20
232.2383833361697
 30
0.0
 10
112.2652487693507
 20
232.3914921299506
 30
0.0
 10
112.2495581856824
 20
232.3626398410077
 30
0.0
 10
112.2479793638859
 20
232.359736658843
 30
0.0
  0
LINE
  5
1F9
330
1F
100
AcDbEntity
  8
0
  6
Continuous
 62
     7
370
    30
100
AcDbLine
 10
112.3205737831
 20
229.7178408729
 30
0.0
 11
112.4167858952
 21
229.7178408729
 31
0.0
  0
LINE
  5
1FA
330
1F
100
AcDbEntity
  8
0
  6
Continuous
 62
     7
370
    30
100
AcDbLine
 10
111.620573808
 20
229.7178408729
 30
0.0
 11
111.7955737727
 21
229.7178408729
 31
0.0
  0
SPLINE
  5
1FB
330
1F
100
AcDbEntity
  8
0
  6
Continuous
 62
     7
370
    30
100
AcDbSpline
210
0.0
220
0.0
230
1.0
 70
     8
 71
     3
 72
     9
 73
     5
 74
     0
 42
0.000000001
 43
0.00000001
 40
0.0
 40
0.0
 40
0.0
 40
0.0
 40
0.5524875760219174
 40
1.0
 40
1.0
 40
1.0
 40
1.0
 10
112.4167858951779
 20
229.0713912474231
 30
0.0
 10
112.3930769021561
 20
229.0688859707355
 30
0.0
 10
112.3501637326103
 20
229.0643514313242
 30
0.0
 10
112.3057208122014
 20
229.1694397108027
 30
0.0
 10
112.2858320531605
 20
229.2164680214838
 30
0.0
  0
LINE
  5
1FC
330
1F
100
AcDbEntity
  8
0
  6
Continuous
 62
     7
370
    30
100
AcDbLine
 10
112.4167858952
 20
229.315048516
 30
0.0
 11
112.4167858952
 21
229.0713912474
 31
0.0
  0
LINE
  5
1FD
330
1F
100
AcDbEntity
  8
0
  6
Continuous
 62
     7
370
    30
100
AcDbLine
 10
112.4167858952
 20
229.315048516
 30
0.0
 11
112.5667859023
 21
229.4283019977
 31
0.0
  0
LINE
  5
1FE
330
1F
100
AcDbEntity
  8
0
  6
Continuous
 62
     7
370
    30
100
AcDbLine
 10
112.5667859023
 20
229.4283019977
 30
0.0
 11
112.5667859023
 21
229.218987249
 31
0.0
  0
SPLINE
  5
1FF
330
1F
100
AcDbEntity
  8
0
  6
Continuous
 62
     7
370
    30
100
AcDbSpline
210
0.0
220
0.0
230
1.0
 70
     8
 71
     3
 72
    10
 73
     6
 74
     0
 42
0.000000001
 43
0.00000001
 40
0.0
 40
0.0
 40
0.0
 40
0.0
 40
0.3617785430500469
 40
0.9446994934026103
 40
1.0
 40
1.0
 40
1.0
 40
1.0
 10
112.0473891359807
 20
229.037489243062
 30
0.0
 10
112.0525100628895
 20
228.9733322503662
 30
0.0
 10
112.0658821579168
 20
228.8058013681116
 30
0.0
 10
112.0777795631505
 20
228.6993563476684
 30
0.0
 10
112.0870306806069
 20
228.7458925137254
 30
0.0
 10
112.0878322698928
 20
228.7499247716979
 30
0.0
  0
LINE
  5
200
330
1F
100
AcDbEntity
  8
0
  6
Continuous
 62
     7
370
    30
100
AcDbLine
 10
112.047389136
 20
229.0374892431
 30
0.0
 11
112.2858320532
 21
229.2164680215
 31
0.0
  0
SPLINE
  5
201
330
1F
100
AcDbEntity
  8
0
  6
Continuous
 62
     7
370
    30
100
AcDbSpline
210
0.0
220
0.0
230
1.0
 70
     8
 71
     3
 72
    10
 73
     6
 74
     0
 42
0.000000001
 43
0.00000001
 40
0.0
 40
0.0
 40
0.0
 40
0.0
 40
0.2754264004057016
 40
0.5508511380987618
 40
1.0
 40
1.0
 40
1.0
 40
1.0
 10
111.6629980542285
 20
229.3150485160069
 30
0.0
 10
111.6425401714359
 20
229.2889178200265
 30
0.0
 10
111.6016245293522
 20
229.2366565858133
 30
0.0
 10
111.5273817407493
 20
229.1417685304777
 30
0.0
 10
111.4736154288922
 20
229.0730025032077
 30
0.0
 10
111.4402867542168
 20
229.0303758012371
 30
0.0
  0
SPLINE
  5
202
330
1F
100
AcDbEntity
  8
0
  6
Continuous
 62
     7
370
    30
100
AcDbSpline
210
0.0
220
0.0
230
1.0
 70
     8
 71
     3
 72
     9
 73
     5
 74
     0
 42
0.000000001
 43
0.00000001
 40
0.0
 40
0.0
 40
0.0
 40
0.0
 40
0.4558701348700485
 40
1.0
 40
1.0
 40
1.0
 40
1.0
 10
111.7229793607776
 20
229.0782364683465
 30
0.0
 10
111.7140683423063
 20
229.0834479478517
 30
0.0
 10
111.6945210682259
 20
229.0948798867012
 30
0.0
 10
111.6741063254576
 20
229.2374641565075
 30
0.0
 10
111.6629980542285
 20
229.3150485160069
 30
0.0
  0
LINE
  5
203
330
1F
100
AcDbEntity
  8
0
  6
Continuous
 62
     7
370
    30
100
AcDbLine
 10
111.5148193939
 20
228.7167622375
 30
0.0
 11
111.5089930399
 21
228.6921399312
 31
0.0
  0
SPLINE
  5
204
330
1F
100
AcDbEntity
  8
0
  6
Continuous
 62
     7
370
    30
100
AcDbSpline
210
0.0
220
0.0
230
1.0
 70
     8
 71
     3
 72
     9
 73
     5
 74
     0
 42
0.000000001
 43
0.00000001
 40
0.0
 40
0.0
 40
0.0
 40
0.0
 40
0.455841398327554
 40
1.0
 40
1.0
 40
1.0
 40
1.0
 10
111.5040988815536
 20
228.7024962382631
 30
0.0
 10
111.4946902076059
 20
228.7101308566633
 30
0.0
 10
111.4740499718083
 20
228.7268792661502
 30
0.0
 10
111.4521848489155
 20
228.9234241902002
 30
0.0
 10
111.4402867542168
 20
229.0303758012371
 30
0.0
  0
SPLINE
  5
205
330
1F
100
AcDbEntity
  8
0
  6
Continuous
 62
     7
370
    30
100
AcDbSpline
210
0.0
220
0.0
230
1.0
 70
     8
 71
     3
 72
    10
 73
     6
 74
     0
 42
0.000000001
 43
0.00000001
 40
0.0
 40
0.0
 40
0.0
 40
0.0
 40
0.2593498630018254
 40
0.5443604273158424
 40
1.0
 40
1.0
 40
1.0
 40
1.0
 10
112.0473891359807
 20
229.037489243062
 30
0.0
 10
112.0292164166605
 20
229.0614547175603
 30
0.0
 10
111.9910729253159
 20
229.1117568684378
 30
0.0
 10
111.9211785028497
 20
229.2042367226445
 30
0.0
 10
111.8696795755033
 20
229.2728428213767
 30
0.0
 10
111.8379980188848
 20
229.3150485160069
 30
0.0
  0
SPLINE
  5
206
330
1F
100
AcDbEntity
  8
0
  6
Continuous
 62
     7
370
    30
100
AcDbSpline
210
0.0
220
0.0
230
1.0
 70
     8
 71
     3
 72
     9
 73
     5
 74
     0
 42
0.000000001
 43
0.00000001
 40
0.0
 40
0.0
 40
0.0
 40
0.0
 40
0.3194989850479805
 40
1.0
 40
1.0
 40
1.0
 40
1.0
 10
111.8861483855226
 20
229.0970910938696
 30
0.0
 10
111.8811445345944
 20
229.1015345841923
 30
0.0
 10
111.86548297959
 20
229.1154422663151
 30
0.0
 10
111.8491277614374
 20
229.2342200878789
 30
0.0
 10
111.8379980188848
 20
229.3150485160069
 30
0.0
  0
LINE
  5
207
330
1F
100
AcDbEntity
  8
0
  6
Continuous
 62
     7
370
    30
100
AcDbLine
 10
112.5667859023
 20
229.8310943546
 30
0.0
 11
112.5667859023
 21
229.4283019977
 31
0.0
  0
LINE
  5
208
330
1F
100
AcDbEntity
  8
0
  6
Continuous
 62
     7
370
    30
100
AcDbLine
 10
112.4167858952
 20
229.315048516
 30
0.0
 11
112.3629980293
 21
229.315048516
 31
0.0
  0
LWPOLYLINE
  5
209
330
1F
100
AcDbEntity
  8
0
  6
Continuous
 62
     7
370
    30
100
AcDbPolyline
 90
        3
 70
   128
 43
0.0
 10
112.3629980293
 20
229.315048516
 10
112.3016291539
 20
229.2366544383
 10
112.2858320532
 20
229.2164680215
  0
LINE
  5
20A
330
1F
100
AcDbEntity
  8
0
  6
Continuous
 62
     7
370
    30
100
AcDbLine
 10
111.8379980189
 20
229.315048516
 30
0.0
 11
111.6629980542
 21
229.315048516
 31
0.0
  0
LINE
  5
20B
330
1F
100
AcDbEntity
  8
0
  6
Continuous
 62
     7
370
    30
100
AcDbLine
 10
111.4402867542
 20
229.0303758012
 30
0.0
 11
111.3527867282
 21
229.0303758012
 31
0.0
  0
SPLINE
  5
20C
330
1F
100
AcDbEntity
  8
0
  6
Continuous
 62
     7
370
    30
100
AcDbSpline
210
0.0
220
0.0
230
1.0
 70
     8
 71
     3
 72
     9
 73
     5
 74
     0
 42
0.000000001
 43
0.00000001
 40
0.0
 40
0.0
 40
0.0
 40
0.0
 40
0.4930354912670452
 40
1.0
 40
1.0
 40
1.0
 40
1.0
 10
112.4167858951779
 20
229.0713912474231
 30
0.0
 10
112.4083308468992
 20
229.0872656160452
 30
0.0
 10
112.3911818821119
 20
229.1194628288285
 30
0.0
 10
112.3724794822348
 20
229.2492506811933
 30
0.0
 10
112.362998029269
 20
229.3150485160069
 30
0.0
  0
LINE
  5
20D
330
1F
100
AcDbEntity
  8
0
  6
Continuous
 62
     7
370
    30
100
AcDbLine
 10
126.304004706
 20
198.218985893
 30
0.0
 11
126.304004706
 21
253.2189874577
 31
0.0
  0
ARC
  5
20E
330
1F
100
AcDbEntity
  8
0
  6
Continuous
 62
     7
370
    30
100
AcDbCircle
 10
121.3040043394
 20
198.2189869957
 30
0.0
 40
5.000000000000028
100
AcDbArc
 50
270.0
 51
0.0
  0
LINE
  5
20F
330
1F
100
AcDbEntity
  8
0
  6
Continuous
 62
     7
370
    30
100
AcDbLine
 10
66.3040060471
 20
193.2189869361
 30
0.0
 11
121.3040038865
 21
193.2189869361
 31
0.0
  0
ARC
  5
210
330
1F
100
AcDbEntity
  8
0
  6
Continuous
 62
     7
370
    30
100
AcDbCircle
 10
66.3040043394
 20
198.2189869957
 30
0.0
 40
5.000000000000007
100
AcDbArc
 50
180.0
 51
270.0
  0
LINE
  5
211
330
1F
100
AcDbEntity
  8
0
  6
Continuous
 62
     7
370
    30
100
AcDbLine
 10
61.3040033649
 20
253.2189874577
 30
0.0
 11
61.3040033649
 21
198.218985893
 31
0.0
  0
LINE
  5
212
330
1F
100
AcDbEntity
  8
0
  6
Continuous
 62
     7
370
    30
100
AcDbLine
 10
121.3040038865
 20
258.2189873459
 30
0.0
 11
66.3040060471
 21
258.2189873459
 31
0.0
  0
CIRCLE
  5
213
330
1F
100
AcDbEntity
  8
0
  6
Continuous
 62
     7
370
    30
100
AcDbCircle
 10
68.4040043394
 20
200.3189869957
 30
0.0
 40
5.500000000000028
  0
CIRCLE
  5
214
330
1F
100
AcDbEntity
  8
0
  6
Continuous
 62
     7
370
    30
100
AcDbCircle
 10
119.2040043394
 20
251.1189869957
 30
0.0
 40
5.499999999999972
  0
CIRCLE
  5
215
330
1F
100
AcDbEntity
  8
0
  6
Continuous
 62
     7
370
    30
100
AcDbCircle
 10
119.2040043394
 20
200.3189869957
 30
0.0
 40
5.499999999999972
  0
CIRCLE
  5
216
330
1F
100
AcDbEntity
  8
0
  6
Continuous
 62
     7
370
    30
100
AcDbCircle
 10
68.4040043394
 20
251.1189869957
 30
0.0
 40
5.499999999999972
  0
ARC
  5
217
330
1F
100
AcDbEntity
  8
0
  6
Continuous
 62
     7
370
    30
100
AcDbCircle
 10
66.3040043394
 20
253.2189869957
 30
0.0
 40
5.000000000000007
100
AcDbArc
 50
90.0
 51
180.0
  0
ARC
  5
218
330
1F
100
AcDbEntity
  8
0
  6
Continuous
 62
     7
370
    30
100
AcDbCircle
 10
121.3040043394
 20
253.2189869957
 30
0.0
 40
5.0
100
AcDbArc
 50
0.0
 51
90.0
  0
CIRCLE
  5
219
330
1F
100
AcDbEntity
  8
0
  6
Continuous
 62
     7
370
    30
100
AcDbCircle
 10
68.4040043394
 20
251.1189869957
 30
0.0
 40
3.299999999999983
  0
CIRCLE
  5
21A
330
1F
100
AcDbEntity
  8
0
  6
Continuous
 62
     7
370
    30
100
AcDbCircle
 10
119.2040043394
 20
251.1189869957
 30
0.0
 40
3.299999999999983
  0
CIRCLE
  5
21B
330
1F
100
AcDbEntity
  8
0
  6
Continuous
 62
     7
370
    30
100
AcDbCircle
 10
119.2040043394
 20
200.3189869957
 30
0.0
 40
3.300000000000011
  0
CIRCLE
  5
21C
330
1F
100
AcDbEntity
  8
0
  6
Continuous
 62
     7
370
    30
100
AcDbCircle
 10
68.4040043394
 20
200.3189869957
 30
0.0
 40
3.300000000000011
  0
LINE
  5
21D
330
1F
100
AcDbEntity
  8
0
  6
Continuous
 62
     7
370
    30
100
AcDbLine
 10
103.8040047433
 20
223.9189869391
 30
0.0
 11
103.8040047433
 21
243.9189870159
 31
0.0
  0
LINE
  5
21E
330
1F
100
AcDbEntity
  8
0
  6
Continuous
 62
     7
370
    30
100
AcDbLine
 10
78.8040053021
 20
223.9189869391
 30
0.0
 11
78.8040053021
 21
243.9189870159
 31
0.0
  0
LINE
  5
21F
330
1F
100
AcDbEntity
  8
0
  6
Continuous
 62
     7
370
    30
100
AcDbLine
 10
103.8040047433
 20
243.9189870159
 30
0.0
 11
78.8040053021
 21
243.9189870159
 31
0.0
  0
LINE
  5
220
330
1F
100
AcDbEntity
  8
0
  6
Continuous
 62
     7
370
    30
100
AcDbLine
 10
112.3040043321
 20
217.9189878183
 30
0.0
 11
75.3040056597
 21
217.9189878183
 31
0.0
  0
LINE
  5
221
330
1F
100
AcDbEntity
  8
0
  6
Continuous
 62
     7
370
    30
100
AcDbLine
 10
75.3040056597
 20
217.9189878183
 30
0.0
 11
75.3040056597
 21
223.9189869391
 31
0.0
  0
LINE
  5
222
330
1F
100
AcDbEntity
  8
0
  6
Continuous
 62
     7
370
    30
100
AcDbLine
 10
112.3040043321
 20
223.9189869391
 30
0.0
 11
75.3040056597
 21
223.9189869391
 31
0.0
  0
LINE
  5
223
330
1F
100
AcDbEntity
  8
0
  6
Continuous
 62
     7
370
    30
100
AcDbLine
 10
112.3040043321
 20
217.9189878183
 30
0.0
 11
112.3040043321
 21
223.9189869391
 31
0.0
  0
LINE
  5
224
330
1F
100
AcDbEntity
  8
0
  6
Continuous
 62
     7
370
    30
100
AcDbLine
 10
76.304003961
 20
244.7189869957
 30
0.0
 11
76.304003961
 21
223.9189869391
 31
0.0
  0
LINE
  5
225
330
1F
100
AcDbEntity
  8
0
  6
Continuous
 62
     7
370
    30
100
AcDbLine
 10
76.304003961
 20
244.7189869957
 30
0.0
 11
101.3040043335
 21
244.7189869957
 31
0.0
  0
LINE
  5
226
330
1F
100
AcDbEntity
  8
0
  6
Continuous
 62
     7
370
    30
100
AcDbLine
 10
101.3040043335
 20
244.7189869957
 30
0.0
 11
101.3040043335
 21
243.9189870159
 31
0.0
  0
LINE
  5
227
330
1F
100
AcDbEntity
  8
0
  6
Continuous
 62
     7
370
    30
100
AcDbLine
 10
76.304003961
 20
209.7189868467
 30
0.0
 11
101.3040043335
 21
209.7189868467
 31
0.0
  0
LINE
  5
228
330
1F
100
AcDbEntity
  8
0
  6
Continuous
 62
     7
370
    30
100
AcDbLine
 10
76.304003961
 20
217.7189862954
 30
0.0
 11
101.3040043335
 21
217.7189862954
 31
0.0
  0
LINE
  5
229
330
1F
100
AcDbEntity
  8
0
  6
Continuous
 62
     7
370
    30
100
AcDbLine
 10
101.3040043335
 20
217.7189862954
 30
0.0
 11
101.3040043335
 21
209.7189868467
 31
0.0
  0
LINE
  5
22A
330
1F
100
AcDbEntity
  8
0
  6
Continuous
 62
     7
370
    30
100
AcDbLine
 10
76.304003961
 20
217.7189862954
 30
0.0
 11
76.304003961
 21
209.7189868467
 31
0.0
  0
LINE
  5
22B
330
1F
100
AcDbEntity
  8
0
  6
Continuous
 62
     7
370
    30
100
AcDbLine
 10
101.3040043335
 20
217.7189862954
 30
0.0
 11
101.3040043335
 21
217.9189878183
 31
0.0
  0
LINE
  5
22C
330
1F
100
AcDbEntity
  8
0
  6
Continuous
 62
     7
370
    30
100
AcDbLine
 10
76.304003961
 20
217.7189862954
 30
0.0
 11
76.304003961
 21
217.9189878183
 31
0.0
  0
LINE
  5
22D
330
1F
100
AcDbEntity
  8
0
  6
Continuous
 62
     7
370
    30
100
AcDbLine
 10
111.3040043428
 20
244.7189869957
 30
0.0
 11
101.3040043335
 21
244.7189869957
 31
0.0
  0
LINE
  5
22E
330
1F
100
AcDbEntity
  8
0
  6
Continuous
 62
     7
370
    30
100
AcDbLine
 10
111.3040043428
 20
244.7189869957
 30
0.0
 11
111.3040043428
 21
223.9189869391
 31
0.0
  0
LINE
  5
22F
330
1F
100
AcDbEntity
  8
0
  6
Continuous
 62
     7
370
    30
100
AcDbLine
 10
111.3040043428
 20
209.7189868467
 30
0.0
 11
101.3040043335
 21
209.7189868467
 31
0.0
  0
LINE
  5
230
330
1F
100
AcDbEntity
  8
0
  6
Continuous
 62
     7
370
    30
100
AcDbLine
 10
101.3040043335
 20
217.7189862954
 30
0.0
 11
111.3040043428
 21
217.7189862954
 31
0.0
  0
LINE
  5
231
330
1F
100
AcDbEntity
  8
0
  6
Continuous
 62
     7
370
    30
100
AcDbLine
 10
111.3040043428
 20
217.7189862954
 30
0.0
 11
111.3040043428
 21
209.7189868467
 31
0.0
  0
LINE
  5
232
330
1F
100
AcDbEntity
  8
0
  6
Continuous
 62
     7
370
    30
100
AcDbLine
 10
111.3040043428
 20
217.7189862954
 30
0.0
 11
111.3040043428
 21
217.9189878183
 31
0.0
  0
DIMENSION
  5
233
330
1F
100
AcDbEntity
  8
DIM
100
AcDbDimension
  2
_D_1
 10
68.4040043394
 20
268.7189869957
 30
0.0
 11
93.8040043394
 21
268.7189869957
 31
0.0
 70
   160
  1
<>
 71
     2
 42
-1.0
  3
SLDDIMSTYLE0
100
AcDbAlignedDimension
 13
119.2040043394
 23
257.6189869957
 33
0.0
 14
68.4040043394
 24
257.6189869957
 34
0.0
100
AcDbRotatedDimension
  0
DIMENSION
  5
23D
330
1F
100
AcDbEntity
  8
DIM
100
AcDbDimension
  2
_D_2
 10
136.8040043394
 20
200.3189869957
 30
0.0
 11
136.8040043394
 21
225.7189869957
 31
0.0
 70
   160
  1
<>
 71
     2
 42
-1.0
  3
SLDDIMSTYLE0
100
AcDbAlignedDimension
 13
125.7040043394
 23
251.1189869957
 33
0.0
 14
125.7040043394
 24
200.3189869957
 34
0.0
 50
90.0
100
AcDbRotatedDimension
  0
DIMENSION
  5
247
330
1F
100
AcDbEntity
  8
DIM
100
AcDbDimension
  2
_D_3
 10
126.3040043394
 20
182.7189869957
 30
0.0
 11
93.8040043394
 21
182.7189869957
 31
0.0
 70
   160
  1
<>
 71
     2
 42
-1.0
  3
SLDDIMSTYLE0
100
AcDbAlignedDimension
 13
61.3040043394
 23
198.2189869957
 33
0.0
 14
126.3040043394
 24
198.2189869957
 34
0.0
100
AcDbRotatedDimension
  0
DIMENSION
  5
251
330
1F
100
AcDbEntity
  8
DIM
100
AcDbDimension
  2
_D_4
 10
50.8040043394
 20
193.2189869957
 30
0.0
 11
50.8040043394
 21
225.7189869957
 31
0.0
 70
   160
  1
<>
 71
     2
 42
-1.0
  3
SLDDIMSTYLE0
100
AcDbAlignedDimension
 13
66.3040043394
 23
258.2189869957
 33
0.0
 14
66.3040043394
 24
193.2189869957
 34
0.0
 50
90.0
100
AcDbRotatedDimension
  0
INSERT
  5
263
330
1F
100
AcDbEntity
  8
DIM
100
AcDbBlockReference
  2
SW_RADIAL_DIMENSION_0
 10
138.6790043394
 20
187.4814867635
 30
0.0
  0
INSERT
  5
26F
330
1F
100
AcDbEntity
  8
DIM
100
AcDbBlockReference
  2
SW_CENTERMARKSYMBOL_0
 10
68.4040043394
 20
251.1189869957
 30
0.0
  0
INSERT
  5
27B
330
1F
100
AcDbEntity
  8
DIM
100
AcDbBlockReference
  2
SW_CENTERMARKSYMBOL_1
 10
119.2040043394
 20
251.1189869957
 30
0.0
  0
INSERT
  5
287
330
1F
100
AcDbEntity
  8
DIM
100
AcDbBlockReference
  2
SW_CENTERMARKSYMBOL_2
 10
68.4040043394
 20
200.3189869957
 30
0.0
  0
INSERT
  5
293
330
1F
100
AcDbEntity
  8
DIM
100
AcDbBlockReference
  2
SW_CENTERMARKSYMBOL_3
 10
119.2040043394
 20
200.3189869957
 30
0.0
  0
LINE
  5
294
330
1F
100
AcDbEntity
  8
0
  6
Continuous
 62
     7
370
    30
100
AcDbLine
 10
206.2766023505
 20
91.6617063459
 30
0.0
 11
207.2766006518
 21
91.6617063459
 31
0.0
  0
LINE
  5
295
330
1F
100
AcDbEntity
  8
0
  6
Continuous
 62
     7
370
    30
100
AcDbLine
 10
207.2766006518
 20
95.6617063031
 30
0.0
 11
206.2766023505
 21
95.6617063031
 31
0.0
  0
LINE
  5
296
330
1F
100
AcDbEntity
  8
0
  6
Continuous
 62
     7
370
    30
100
AcDbLine
 10
215.2766001004
 20
92.661706277
 30
0.0
 11
215.4766016233
 21
92.661706277
 31
0.0
  0
LINE
  5
297
330
1F
100
AcDbEntity
  8
0
  6
Continuous
 62
     7
370
    30
100
AcDbLine
 10
215.4766016233
 20
94.6617061391
 30
0.0
 11
215.2766001004
 21
94.6617061391
 31
0.0
  0
SPLINE
  5
298
330
1F
100
AcDbEntity
  8
0
  6
Continuous
 62
     7
370
    30
100
AcDbSpline
210
0.0
220
0.0
230
1.0
 70
     8
 71
     3
 72
     9
 73
     5
 74
     0
 42
0.000000001
 43
0.00000001
 40
0.0
 40
0.0
 40
0.0
 40
0.0
 40
0.4999603996336097
 40
1.0
 40
1.0
 40
1.0
 40
1.0
 10
207.2764665413283
 20
86.73903067857272
 30
0.0
 10
207.2398330696483
 20
86.80018881519403
 30
0.0
 10
207.1665603230333
 20
86.92251477674249
 30
0.0
 10
207.0933049841159
 20
87.0452835684809
 30
0.0
 10
207.056674413719
 20
87.10667282603926
 30
0.0
  0
LINE
  5
299
330
1F
100
AcDbEntity
  8
0
  6
Continuous
 62
     7
370
    30
100
AcDbLine
 10
206.2766023505
 20
95.6617063031
 30
0.0
 11
206.2766023505
 21
91.6617063459
 31
0.0
  0
SPLINE
  5
29A
330
1F
100
AcDbEntity
  8
0
  6
Continuous
 62
     7
370
    30
100
AcDbSpline
210
0.0
220
0.0
230
1.0
 70
    11
 71
     3
 72
    31
 73
    27
 74
     0
 42
0.000000001
 43
0.00000001
 40
0.0
 40
0.0
 40
0.0
 40
0.0
 40
0.0598606669938365
 40
0.0924113419344618
 40
0.1249999503641177
 40
0.1575506371546249
 40
0.1901392479175436
 40
0.2499999922502835
 40
0.3098607365830234
 40
0.342411322399472
 40
0.3749999820638095
 40
0.4075506270506088
 40
0.4401392682323938
 40
0.4999999476150381
 40
0.5598607568978761
 40
0.5924112840023479
 40
0.6249998924320039
 40
0.657550579222511
 40
0.6901391899854298
 40
0.7499999590959698
 40
0.8098607282065099
 40
0.8424113119109385
 40
0.8750000039352129
 40
0.9075506489220122
 40
0.9401392031059429
 40
1.0
 40
1.0
 40
1.0
 40
1.0
 10
211.2766013074301
 20
102.4117060124898
 30
0.0
 10
211.5595259252172
 20
102.3814869712352
 30
0.0
 10
211.9962975969844
 20
102.3348356007351
 30
0.0
 10
212.5208111716703
 20
102.0547195079065
 30
0.0
 10
212.8782786388918
 20
101.7640294793398
 30
0.0
 10
213.1709885101047
 20
101.4059714266972
 30
0.0
 10
213.4422582489454
 20
100.8816336806032
 30
0.0
 10
213.5812112063865
 20
100.1616887013162
 30
0.0
 10
213.4422939986664
 20
99.44201202386293
 30
0.0
 10
213.1710858849942
 20
98.91749536836578
 30
0.0
 10
212.878530695885
 20
98.56002789415764
 30
0.0
 10
212.5209685941423
 20
98.26731916631192
 30
0.0
 10
211.9964742229434
 20
97.9960478012155
 30
0.0
 10
211.2766016648025
 20
97.8570955353797
 30
0.0
 10
210.5569043058454
 20
97.99601210471715
 30
0.0
 10
210.0323908948492
 20
98.26722051634007
 30
0.0
 10
209.6749240035784
 20
98.55977656862464
 30
0.0
 10
209.3822140017863
 20
98.9173367847282
 30
0.0
 10
209.1109448330635
 20
99.441835662121
 30
0.0
 10
208.9719875399801
 20
100.1616869047846
 30
0.0
 10
209.1109105914593
 20
100.8814561272526
 30
0.0
 10
209.3821136942116
 20
101.4058147437408
 30
0.0
 10
209.6746724970878
 20
101.7637780166174
 30
0.0
 10
210.032233772427
 20
102.0546208396075
 30
0.0
 10
210.5567268407467
 20
102.3348121240966
 30
0.0
 10
210.9936768942304
 20
102.3814852458713
 30
0.0
 10
211.2766013074301
 20
102.4117060124898
 30
0.0
  0
LINE
  5
29B
330
1F
100
AcDbEntity
  8
0
  6
Continuous
 62
     7
370
    30
100
AcDbLine
 10
209.8332264054
 20
100.1617061093
 30
0.0
 11
210.5549119938
 21
98.9117063701
 31
0.0
  0
LINE
  5
29C
330
1F
100
AcDbEntity
  8
0
  6
Continuous
 62
     7
370
    30
100
AcDbLine
 10
210.5549119938
 20
98.9117063701
 30
0.0
 11
211.9982887584
 21
98.9117063701
 31
0.0
  0
LINE
  5
29D
330
1F
100
AcDbEntity
  8
0
  6
Continuous
 62
     7
370
    30
100
AcDbLine
 10
211.9982887584
 20
98.9117063701
 30
0.0
 11
212.7199762094
 21
100.1617061093
 31
0.0
  0
LINE
  5
29E
330
1F
100
AcDbEntity
  8
0
  6
Continuous
 62
     7
370
    30
100
AcDbLine
 10
212.7199762094
 20
100.1617061093
 30
0.0
 11
211.9982887584
 21
101.4117058486
 31
0.0
  0
LINE
  5
29F
330
1F
100
AcDbEntity
  8
0
  6
Continuous
 62
     7
370
    30
100
AcDbLine
 10
211.9982887584
 20
101.4117058486
 30
0.0
 11
210.5549119938
 21
101.4117058486
 31
0.0
  0
LINE
  5
2A0
330
1F
100
AcDbEntity
  8
0
  6
Continuous
 62
     7
370
    30
100
AcDbLine
 10
210.5549119938
 20
101.4117058486
 30
0.0
 11
209.8332264054
 21
100.1617061093
 31
0.0
  0
CIRCLE
  5
2A1
330
1F
100
AcDbEntity
  8
0
  6
Continuous
 62
     7
370
    30
100
AcDbCircle
 10
211.2766008008
 20
100.1617062963
 30
0.0
 40
2.75
  0
SPLINE
  5
2A2
330
1F
100
AcDbEntity
  8
0
  6
Continuous
 62
     7
370
    30
100
AcDbSpline
210
0.0
220
0.0
230
1.0
 70
    11
 71
     3
 72
    31
 73
    27
 74
     0
 42
0.000000001
 43
0.00000001
 40
0.0
 40
0.0
 40
0.0
 40
0.0
 40
0.0598607499190142
 40
0.0924113517975429
 40
0.1249999971952398
 40
0.1575506186528146
 40
0.1901392780593821
 40
0.2500000113537231
 40
0.309860744648064
 40
0.3424113484273539
 40
0.3750000014090652
 40
0.4075506292703123
 40
0.4401392813383219
 40
0.5000000277729862
 40
0.5598607579701268
 40
0.5924113546744758
 40
0.6249999843982207
 40
0.6575506250668146
 40
0.6901392771348241
 40
0.7500000135263698
 40
0.8098607499179156
 40
0.8424113534331623
 40
0.8749999976511825
 40
0.9075506113987205
 40
0.9401392663185087
 40
1.0
 40
1.0
 40
1.0
 40
1.0
 10
238.2766006108008
 20
89.41170629724174
 30
0.0
 10
238.5595255994461
 20
89.38148695097988
 30
0.0
 10
238.9962972852901
 20
89.33483516926526
 30
0.0
 10
239.5208113553154
 20
89.05471960429334
 30
0.0
 10
239.8782787618771
 20
88.76402991603264
 30
0.0
 10
240.1709876049398
 20
88.40597100432922
 30
0.0
 10
240.4422597260393
 20
87.8816345677012
 30
0.0
 10
240.5812112272984
 20
87.16168875249146
 30
0.0
 10
240.4422947642076
 20
86.44201212846045
 30
0.0
 10
240.1710864646701
 20
85.91749536703531
 30
0.0
 10
239.8785308704601
 20
85.56002819976601
 30
0.0
 10
239.5209689391341
 20
85.26731937919091
 30
0.0
 10
238.9964745604455
 20
84.99604704885432
 30
0.0
 10
238.2766016111069
 20
84.85709619481112
 30
0.0
 10
237.5569038265698
 20
84.99601190458796
 30
0.0
 10
237.0323905332871
 20
85.26722073737695
 30
0.0
 10
236.6749226631011
 20
85.55977623020145
 30
0.0
 10
236.3822142356885
 20
85.91733770673615
 30
0.0
 10
236.1109419299722
 20
86.4418350406083
 30
0.0
 10
235.9719899958928
 20
87.16168701379861
 30
0.0
 10
236.1109071927123
 20
87.88145731489287
 30
0.0
 10
236.3821147655504
 20
88.40581353581173
 30
0.0
 10
236.6746709572422
 20
88.76377824099724
 30
0.0
 10
237.0322325550437
 20
89.0546214657551
 30
0.0
 10
237.5567267175055
 20
89.33481063333144
 30
0.0
 10
237.9936766740003
 20
89.38148485962743
 30
0.0
 10
238.2766006108008
 20
89.41170629724174
 30
0.0
  0
LINE
  5
2A3
330
1F
100
AcDbEntity
  8
0
  6
Continuous
 62
     7
370
    30
100
AcDbLine
 10
236.8332252431
 20
87.1617063068
 30
0.0
 11
237.5549131598
 21
85.9117063347
 31
0.0
  0
LINE
  5
2A4
330
1F
100
AcDbEntity
  8
0
  6
Continuous
 62
     7
370
    30
100
AcDbLine
 10
237.5549131598
 20
85.9117063347
 30
0.0
 11
238.9982885275
 21
85.9117063347
 31
0.0
  0
LINE
  5
2A5
330
1F
100
AcDbEntity
  8
0
  6
Continuous
 62
     7
370
    30
100
AcDbLine
 10
238.9982885275
 20
85.9117063347
 30
0.0
 11
239.7199764441
 21
87.1617063068
 31
0.0
  0
LINE
  5
2A6
330
1F
100
AcDbEntity
  8
0
  6
Continuous
 62
     7
370
    30
100
AcDbLine
 10
239.7199764441
 20
87.1617063068
 30
0.0
 11
238.9982885275
 21
88.4117062788
 31
0.0
  0
LINE
  5
2A7
330
1F
100
AcDbEntity
  8
0
  6
Continuous
 62
     7
370
    30
100
AcDbLine
 10
238.9982885275
 20
88.4117062788
 30
0.0
 11
237.5549131598
 21
88.4117062788
 31
0.0
  0
LINE
  5
2A8
330
1F
100
AcDbEntity
  8
0
  6
Continuous
 62
     7
370
    30
100
AcDbLine
 10
237.5549131598
 20
88.4117062788
 30
0.0
 11
236.8332252431
 21
87.1617063068
 31
0.0
  0
CIRCLE
  5
2A9
330
1F
100
AcDbEntity
  8
0
  6
Continuous
 62
     7
370
    30
100
AcDbCircle
 10
238.2766008008
 20
87.1617062963
 30
0.0
 40
2.75
  0
SPLINE
  5
2AA
330
1F
100
AcDbEntity
  8
0
  6
Continuous
 62
     7
370
    30
100
AcDbSpline
210
0.0
220
0.0
230
1.0
 70
     8
 71
     3
 72
    13
 73
     9
 74
     0
 42
0.000000001
 43
0.00000001
 40
0.0
 40
0.0
 40
0.0
 40
0.0
 40
0.0989907634716964
 40
0.2576801830997026
 40
0.4598959344925765
 40
0.6569340549324456
 40
0.853972258563987
 40
1.0
 40
1.0
 40
1.0
 40
1.0
 10
207.0563614893339
 20
87.08288009539491
 30
0.0
 10
207.0636649704499
 20
87.04708362815241
 30
0.0
 10
207.0826764649087
 20
86.95390281097437
 30
0.0
 10
207.1132942235259
 20
86.56003313563589
 30
0.0
 10
207.1582471655079
 20
85.92654175051216
 30
0.0
 10
207.2003317151167
 20
85.12925630999734
 30
0.0
 10
207.2389058725115
 20
84.3917195722574
 30
0.0
 10
207.2653461955628
 20
84.03274803792382
 30
0.0
 10
207.276600651779
 20
83.87995000258333
 30
0.0
  0
SPLINE
  5
2AB
330
1F
100
AcDbEntity
  8
0
  6
Continuous
 62
     7
370
    30
100
AcDbSpline
210
0.0
220
0.0
230
1.0
 70
     8
 71
     3
 72
    10
 73
     6
 74
     0
 42
0.000000001
 43
0.00000001
 40
0.0
 40
0.0
 40
0.0
 40
0.0
 40
0.2754244427614882
 40
0.5508541413815979
 40
1.0
 40
1.0
 40
1.0
 40
1.0
 10
207.0479535091303
 20
83.53424026891834
 30
0.0
 10
207.068410334385
 20
83.49898935175302
 30
0.0
 10
207.1093243752671
 20
83.42848684473758
 30
0.0
 10
207.1835708278429
 20
83.30048335378068
 30
0.0
 10
207.2373353108977
 20
83.2077161910922
 30
0.0
 10
207.2706625390433
 20
83.15021219924337
 30
0.0
  0
SPLINE
  5
2AC
330
1F
100
AcDbEntity
  8
0
  6
Continuous
 62
     7
370
    30
100
AcDbSpline
210
0.0
220
0.0
230
1.0
 70
     8
 71
     3
 72
    15
 73
    11
 74
     0
 42
0.000000001
 43
0.00000001
 40
0.0
 40
0.0
 40
0.0
 40
0.0
 40
0.1086263298960954
 40
0.2157411713962063
 40
0.3597198008985854
 40
0.5000001692303152
 40
0.6402803648595424
 40
0.7842590868661724
 40
0.891373990760041
 40
1.0
 40
1.0
 40
1.0
 40
1.0
 10
206.7403749156378
 20
86.77874646410591
 30
0.0
 10
206.7515485846258
 20
86.73156490596963
 30
0.0
 10
206.7737404458309
 20
86.63785830067096
 30
0.0
 10
206.8077722309043
 20
86.29405944869161
 30
0.0
 10
206.8519571487389
 20
85.78378322578035
 30
0.0
 10
206.8941673991437
 20
85.13230246676589
 30
0.0
 10
206.9363695403172
 20
84.48525546356412
 30
0.0
 10
206.980556545403
 20
83.98682070143556
 30
0.0
 10
207.0145878355084
 20
83.65850373948902
 30
0.0
 10
207.0367798051514
 20
83.57585439160266
 30
0.0
 10
207.0479535091303
 20
83.53424026891834
 30
0.0
  0
SPLINE
  5
2AD
330
1F
100
AcDbEntity
  8
0
  6
Continuous
 62
     7
370
    30
100
AcDbSpline
210
0.0
220
0.0
230
1.0
 70
     8
 71
     3
 72
    10
 73
     6
 74
     0
 42
0.000000001
 43
0.00000001
 40
0.0
 40
0.0
 40
0.0
 40
0.0
 40
0.2778768561887048
 40
0.5557583577468285
 40
1.0
 40
1.0
 40
1.0
 40
1.0
 10
206.9551639783762
 20
87.16277430095023
 30
0.0
 10
206.9351915969607
 20
87.12724682055975
 30
0.0
 10
206.895246500244
 20
87.05619126585286
 30
0.0
 10
206.8235561946047
 20
86.9282342062246
 30
0.0
 10
206.7720567603012
 20
86.83568292244978
 30
0.0
 10
206.7403749156378
 20
86.77874646410591
 30
0.0
  0
SPLINE
  5
2AE
330
1F
100
AcDbEntity
  8
0
  6
Continuous
 62
     7
370
    30
100
AcDbSpline
210
0.0
220
0.0
230
1.0
 70
     8
 71
     3
 72
    15
 73
    11
 74
     0
 42
0.000000001
 43
0.00000001
 40
0.0
 40
0.0
 40
0.0
 40
0.0
 40
0.1123236776418728
 40
0.2225860480108872
 40
0.3630918745921231
 40
0.5000001213024856
 40
0.636908425817023
 40
0.7774141209963426
 40
0.8876765885202408
 40
1.0
 40
1.0
 40
1.0
 40
1.0
 10
206.9551639783762
 20
87.16277430095023
 30
0.0
 10
206.967134764382
 20
87.10734176654005
 30
0.0
 10
206.9908566545885
 20
86.99749396753077
 30
0.0
 10
207.025850407513
 20
86.5633354182588
 30
0.0
 10
207.0707108706432
 20
85.92663516980365
 30
0.0
 10
207.1129151141322
 20
85.12554978703152
 30
0.0
 10
207.1551194235901
 20
84.3299200061405
 30
0.0
 10
207.1999795554802
 20
83.70799037020402
 30
0.0
 10
207.2349744867174
 20
83.29368076925758
 30
0.0
 10
207.2586933166293
 20
83.19832934523492
 30
0.0
 10
207.2706625390433
 20
83.15021219924337
 30
0.0
  0
LINE
  5
2AF
330
1F
100
AcDbEntity
  8
0
  6
Continuous
 62
     7
370
    30
100
AcDbLine
 10
207.270662539
 20
83.1502121992
 30
0.0
 11
207.2766006518
 21
83.1502121992
 31
0.0
  0
LINE
  5
2B0
330
1F
100
AcDbEntity
  8
0
  6
Continuous
 62
     7
370
    30
100
AcDbLine
 10
207.0426635969
 20
87.162774301
 30
0.0
 11
206.9551639784
 21
87.162774301
 31
0.0
  0
SPLINE
  5
2B1
330
1F
100
AcDbEntity
  8
0
  6
Continuous
 62
     7
370
    30
100
AcDbSpline
210
0.0
220
0.0
230
1.0
 70
     8
 71
     3
 72
    10
 73
     6
 74
     0
 42
0.000000001
 43
0.00000001
 40
0.0
 40
0.0
 40
0.0
 40
0.0
 40
0.2593470292759145
 40
0.5443593838384181
 40
0.9999999999999999
 40
0.9999999999999999
 40
0.9999999999999999
 40
0.9999999999999999
 10
206.6635631549738
 20
83.15980621874577
 30
0.0
 10
206.681734632769
 20
83.19213658696658
 30
0.0
 10
206.7198758618535
 20
83.25999677943955
 30
0.0
 10
206.7897730843181
 20
83.38475235465627
 30
0.0
 10
206.8412724775206
 20
83.47730377263535
 30
0.0
 10
206.8729542720698
 20
83.53424026891834
 30
0.0
  0
SPLINE
  5
2B2
330
1F
100
AcDbEntity
  8
0
  6
Continuous
 62
     7
370
    30
100
AcDbSpline
210
0.0
220
0.0
230
1.0
 70
     8
 71
     3
 72
    16
 73
    12
 74
     0
 42
0.000000001
 43
0.00000001
 40
0.0
 40
0.0
 40
0.0
 40
0.0
 40
0.0782695651368838
 40
0.2043827415546491
 40
0.3281384294174803
 40
0.4496263283274801
 40
0.5711436869379185
 40
0.6906294260349589
 40
0.8075311565075916
 40
0.9244543427266685
 40
1.0
 40
1.0
 40
1.0
 40
1.0
 10
206.6635631549738
 20
83.15980621874577
 30
0.0
 10
206.6584697050168
 20
83.19209667371491
 30
0.0
 10
206.6451693466419
 20
83.27641567690728
 30
0.0
 10
206.6263353616002
 20
83.59801614870858
 30
0.0
 10
206.6009908964107
 20
84.12750262324128
 30
0.0
 10
206.5755478871937
 20
84.76389367754557
 30
0.0
 10
206.553911088108
 20
85.43000049314333
 30
0.0
 10
206.5287628530815
 20
86.04949733584313
 30
0.0
 10
206.5031293407906
 20
86.5470848463967
 30
0.0
 10
206.4839513682491
 20
86.85084684152322
 30
0.0
 10
206.4702305373524
 20
86.92349996502806
 30
0.0
 10
206.464844994583
 20
86.95201693363732
 30
0.0
  0
LWPOLYLINE
  5
2B3
330
1F
100
AcDbEntity
  8
0
  6
Continuous
 62
     7
370
    30
100
AcDbPolyline
 90
        3
 70
   128
 43
0.0
 10
206.5653756786
 20
86.7787464641
 10
206.5040089715
 20
86.8845014021
 10
206.4648449946
 20
86.9520169336
  0
SPLINE
  5
2B4
330
1F
100
AcDbEntity
  8
0
  6
Continuous
 62
     7
370
    30
100
AcDbSpline
210
0.0
220
0.0
230
1.0
 70
     8
 71
     3
 72
    15
 73
    11
 74
     0
 42
0.000000001
 43
0.00000001
 40
0.0
 40
0.0
 40
0.0
 40
0.0
 40
0.1086263298960904
 40
0.2157411713961964
 40
0.3597198008985688
 40
0.500000114757874
 40
0.640280364859559
 40
0.7842590868661824
 40
0.891373990760046
 40
1.0
 40
1.0
 40
1.0
 40
1.0
 10
206.5653756785773
 20
86.77874646410591
 30
0.0
 10
206.5765493733428
 20
86.73156490770663
 30
0.0
 10
206.5987412857441
 20
86.63785830585776
 30
0.0
 10
206.6327726475657
 20
86.29405942535796
 30
0.0
 10
206.6769596931257
 20
85.7837834172576
 30
0.0
 10
206.7191617354227
 20
85.13230212384559
 30
0.0
 10
206.7613720847056
 20
84.48525565338336
 30
0.0
 10
206.8055569620639
 20
83.98682067810383
 30
0.0
 10
206.8395886754214
 20
83.65850374467539
 30
0.0
 10
206.8617805938682
 20
83.57585439333951
 30
0.0
 10
206.8729542720698
 20
83.53424026891834
 30
0.0
  0
SPLINE
  5
2B5
330
1F
100
AcDbEntity
  8
0
  6
Continuous
 62
     7
370
    30
100
AcDbSpline
210
0.0
220
0.0
230
1.0
 70
     8
 71
     3
 72
     9
 73
     5
 74
     0
 42
0.000000001
 43
0.00000001
 40
0.0
 40
0.0
 40
0.0
 40
0.0
 40
0.5524883953857667
 40
1.0
 40
1.0
 40
1.0
 40
1.0
 10
206.2941633689784
 20
83.86289934888727
 30
0.0
 10
206.3178735030977
 20
83.75236101243708
 30
0.0
 10
206.36078867438
 20
83.55228742288591
 30
0.0
 10
206.4052303384434
 20
83.44794732786823
 30
0.0
 10
206.4251184988402
 20
83.40125392452127
 30
0.0
  0
LINE
  5
2B6
330
1F
100
AcDbEntity
  8
0
  6
Continuous
 62
     7
370
    30
100
AcDbLine
 10
206.294163369
 20
83.5342402689
 30
0.0
 11
206.294163369
 21
83.8628993489
 31
0.0
  0
LINE
  5
2B7
330
1F
100
AcDbEntity
  8
0
  6
Continuous
 62
     7
370
    30
100
AcDbLine
 10
206.294163369
 20
83.5342402689
 30
0.0
 11
206.1441645551
 21
83.687021409
 31
0.0
  0
LINE
  5
2B8
330
1F
100
AcDbEntity
  8
0
  6
Continuous
 62
     7
370
    30
100
AcDbLine
 10
206.1441645551
 20
83.687021409
 30
0.0
 11
206.1441645551
 21
86.625965324
 31
0.0
  0
LINE
  5
2B9
330
1F
100
AcDbEntity
  8
0
  6
Continuous
 62
     7
370
    30
100
AcDbLine
 10
206.1441645551
 20
86.625965324
 30
0.0
 11
206.4648449946
 21
86.9520169336
 31
0.0
  0
LINE
  5
2BA
330
1F
100
AcDbEntity
  8
0
  6
Continuous
 62
     7
370
    30
100
AcDbLine
 10
206.663563155
 20
83.1598062187
 30
0.0
 11
206.4251184988
 21
83.4012539245
 31
0.0
  0
LINE
  5
2BB
330
1F
100
AcDbEntity
  8
0
  6
Continuous
 62
     7
370
    30
100
AcDbLine
 10
207.2766006518
 20
86.7787464641
 30
0.0
 11
207.2653763521
 21
86.7787464641
 31
0.0
  0
LINE
  5
2BC
330
1F
100
AcDbEntity
  8
0
  6
Continuous
 62
     7
370
    30
100
AcDbLine
 10
206.8729542721
 20
83.5342402689
 30
0.0
 11
207.0479535091
 21
83.5342402689
 31
0.0
  0
LINE
  5
2BD
330
1F
100
AcDbEntity
  8
0
  6
Continuous
 62
     7
370
    30
100
AcDbLine
 10
206.7403749156
 20
86.7787464641
 30
0.0
 11
206.5653756786
 21
86.7787464641
 31
0.0
  0
LWPOLYLINE
  5
2BE
330
1F
100
AcDbEntity
  8
0
  6
Continuous
 62
     7
370
    30
100
AcDbPolyline
 90
        3
 70
   128
 43
0.0
 10
206.3479528356
 20
83.5342402689
 10
206.4093195427
 20
83.4284853309
 10
206.4251184988
 20
83.4012539245
  0
SPLINE
  5
2BF
330
1F
100
AcDbEntity
  8
0
  6
Continuous
 62
     7
370
    30
100
AcDbSpline
210
0.0
220
0.0
230
1.0
 70
     8
 71
     3
 72
     9
 73
     5
 74
     0
 42
0.000000001
 43
0.00000001
 40
0.0
 40
0.0
 40
0.0
 40
0.0
 40
0.4930352885571591
 40
1.0
 40
1.0
 40
1.0
 40
1.0
 10
206.2941633689784
 20
83.86289934888727
 30
0.0
 10
206.3026196393486
 20
83.78572105831253
 30
0.0
 10
206.319771089897
 20
83.62918400636927
 30
0.0
 10
206.3384720889893
 20
83.56618071456688
 30
0.0
 10
206.3479528355979
 20
83.53424026891834
 30
0.0
  0
LINE
  5
2C0
330
1F
100
AcDbEntity
  8
0
  6
Continuous
 62
     7
370
    30
100
AcDbLine
 10
206.294163369
 20
83.5342402689
 30
0.0
 11
206.3479528356
 21
83.5342402689
 31
0.0
  0
LINE
  5
2C1
330
1F
100
AcDbEntity
  8
0
  6
Continuous
 62
     7
370
    30
100
AcDbLine
 10
206.1441645551
 20
86.625965324
 30
0.0
 11
206.1441645551
 21
86.6363912474
 31
0.0
  0
LINE
  5
2C2
330
1F
100
AcDbEntity
  8
0
  6
Continuous
 62
     7
370
    30
100
AcDbLine
 10
206.5593258071
 20
86.7891723875
 30
0.0
 11
206.6979513097
 21
86.7891723875
 31
0.0
  0
LINE
  5
2C3
330
1F
100
AcDbEntity
  8
0
  6
Continuous
 62
     7
370
    30
100
AcDbLine
 10
206.9206640649
 20
87.1732002243
 30
0.0
 11
207.0081636835
 21
87.1732002243
 31
0.0
  0
LINE
  5
2C4
330
1F
100
AcDbEntity
  8
0
  6
Continuous
 62
     7
370
    30
100
AcDbLine
 10
207.2464481521
 20
86.7891723875
 30
0.0
 11
207.2766006518
 21
86.7891723875
 31
0.0
  0
SPLINE
  5
2C5
330
1F
100
AcDbEntity
  8
0
  6
Continuous
 62
     7
370
    30
100
AcDbSpline
210
0.0
220
0.0
230
1.0
 70
     8
 71
     3
 72
    10
 73
     6
 74
     0
 42
0.000000001
 43
0.00000001
 40
0.0
 40
0.0
 40
0.0
 40
0.0
 40
0.2754276018773978
 40
0.5508520395384114
 40
1.0
 40
1.0
 40
1.0
 40
1.0
 10
206.6979513097189
 20
86.78917238749808
 30
0.0
 10
206.7184099402079
 20
86.82442297755571
 30
0.0
 10
206.7593269661494
 20
86.89492375269887
 30
0.0
 10
206.8335668470916
 20
87.02293171336922
 30
0.0
 10
206.8873345435721
 20
87.11569692320974
 30
0.0
 10
206.9206640649222
 20
87.17320022434241
 30
0.0
  0
LINE
  5
2C6
330
1F
100
AcDbEntity
  8
0
  6
Continuous
 62
     7
370
    30
100
AcDbLine
 10
207.0081636835
 20
87.1732002243
 30
0.0
 11
207.0140235651
 21
87.162774301
 31
0.0
  0
SPLINE
  5
2C7
330
1F
100
AcDbEntity
  8
0
  6
Continuous
 62
     7
370
    30
100
AcDbSpline
210
0.0
220
0.0
230
1.0
 70
     8
 71
     3
 72
    10
 73
     6
 74
     0
 42
0.000000001
 43
0.00000001
 40
0.0
 40
0.0
 40
0.0
 40
0.0
 40
0.2552038816096828
 40
0.5383156065879011
 40
0.9999999999999999
 40
0.9999999999999999
 40
0.9999999999999999
 40
0.9999999999999999
 10
206.909328006544
 20
83.53424026891834
 30
0.0
 10
206.8908862296636
 20
83.5024649314608
 30
0.0
 10
206.8519859737375
 20
83.43543946166739
 30
0.0
 10
206.7797624802932
 20
83.31090695508743
 30
0.0
 10
206.7259947043869
 20
83.21814170225575
 30
0.0
 10
206.6926651227854
 20
83.16063835546619
 30
0.0
  0
LINE
  5
2C8
330
1F
100
AcDbEntity
  8
0
  6
Continuous
 62
     7
370
    30
100
AcDbLine
 10
206.4403027821
 20
86.9375609446
 30
0.0
 11
206.1441645551
 21
86.6363912474
 31
0.0
  0
ARC
  5
2C9
330
1F
100
AcDbEntity
  8
0
  6
Continuous
 62
     7
370
    30
100
AcDbCircle
 10
228.2766008008
 20
85.1617062963
 30
0.0
 40
1.499999999999992
100
AcDbArc
 50
329.3678985189
 51
126.2939804532
  0
LINE
  5
2CA
330
1F
100
AcDbEntity
  8
0
  6
Continuous
 62
     7
370
    30
100
AcDbLine
 10
227.3887081597
 20
86.3706919018
 30
0.0
 11
227.275454678
 21
86.4732726596
 31
0.0
  0
ARC
  5
2CB
330
1F
100
AcDbEntity
  8
0
  6
Continuous
 62
     7
370
    30
100
AcDbCircle
 10
228.2766008008
 20
85.1617062963
 30
0.0
 40
1.650000000000003
100
AcDbArc
 50
86.0441492391
 51
127.3552577896
  0
SPLINE
  5
2CC
330
1F
100
AcDbEntity
  8
0
  6
Continuous
 62
     7
370
    30
100
AcDbSpline
210
0.0
220
0.0
230
1.0
 70
     8
 71
     3
 72
    14
 73
    10
 74
     0
 42
0.000000001
 43
0.00000001
 40
0.0
 40
0.0
 40
0.0
 40
0.0
 40
0.0628301627000746
 40
0.2336592164356561
 40
0.4023528026603862
 40
0.5661853272783194
 40
0.7300326442185978
 40
0.8922012339882492
 40
0.9999999999999999
 40
0.9999999999999999
 40
0.9999999999999999
 40
0.9999999999999999
 10
229.7905369255326
 20
84.19520921334869
 30
0.0
 10
229.825570444019
 20
84.26096598893137
 30
0.0
 10
229.9558566652653
 20
84.50550899180931
 30
0.0
 10
230.0662935051444
 20
84.9816885290511
 30
0.0
 10
229.9994965569234
 20
85.58541565492746
 30
0.0
 10
229.7355046001106
 20
86.12444643892859
 30
0.0
 10
229.3149566073138
 20
86.53835032116342
 30
0.0
 10
228.8378856952764
 20
86.7659203708346
 30
0.0
 10
228.5181155189931
 20
86.79583149118041
 30
0.0
 10
228.3904303390168
 20
86.80777509026474
 30
0.0
  0
LINE
  5
2CD
330
1F
100
AcDbEntity
  8
0
  6
Continuous
 62
     7
370
    30
100
AcDbLine
 10
229.7905369255
 20
84.1952092133
 30
0.0
 11
229.5672858659
 21
84.3974207647
 31
0.0
  0
LINE
  5
2CE
330
1F
100
AcDbEntity
  8
0
  6
Continuous
 62
     7
370
    30
100
AcDbLine
 10
227.3887081597
 20
86.3706919018
 30
0.0
 11
229.5672858659
 21
84.3974207647
 31
0.0
  0
SPLINE
  5
2CF
330
1F
100
AcDbEntity
  8
0
  6
Continuous
 62
     7
370
    30
100
AcDbSpline
210
0.0
220
0.0
230
1.0
 70
     8
 71
     3
 72
     9
 73
     5
 74
     0
 42
0.000000001
 43
0.00000001
 40
0.0
 40
0.0
 40
0.0
 40
0.0
 40
0.5524875760219174
 40
1.0
 40
1.0
 40
1.0
 40
1.0
 10
226.6290050524853
 20
85.25076090619213
 30
0.0
 10
226.6264997757977
 20
85.41580035056636
 30
0.0
 10
226.6219652363864
 20
85.71452099431835
 30
0.0
 10
226.727053515865
 20
85.99316542529533
 30
0.0
 10
226.774081826546
 20
86.11786227002985
 30
0.0
  0
ARC
  5
2D0
330
1F
100
AcDbEntity
  8
0
  6
Continuous
 62
     7
370
    30
100
AcDbCircle
 10
228.2766008008
 20
85.1617062963
 30
0.0
 40
1.650000000000081
100
AcDbArc
 50
148.3066211824
 51
176.9061070584
  0
LINE
  5
2D1
330
1F
100
AcDbEntity
  8
0
  6
Continuous
 62
     7
370
    30
100
AcDbLine
 10
226.8726623211
 20
86.0285721838
 30
0.0
 11
226.9859158028
 21
85.9259916589
 31
0.0
  0
ARC
  5
2D2
330
1F
100
AcDbEntity
  8
0
  6
Continuous
 62
     7
370
    30
100
AcDbCircle
 10
228.2766008008
 20
85.1617062963
 30
0.0
 40
1.50000000000001
100
AcDbArc
 50
149.3678985189
 51
306.2939804532
  0
LINE
  5
2D3
330
1F
100
AcDbEntity
  8
0
  6
Continuous
 62
     7
370
    30
100
AcDbLine
 10
229.164493509
 20
83.9527207546
 30
0.0
 11
229.4061884809
 21
83.7338022076
 31
0.0
  0
SPLINE
  5
2D4
330
1F
100
AcDbEntity
  8
0
  6
Continuous
 62
     7
370
    30
100
AcDbSpline
210
0.0
220
0.0
230
1.0
 70
     8
 71
     3
 72
    16
 73
    12
 74
     0
 42
0.000000001
 43
0.00000001
 40
0.0
 40
0.0
 40
0.0
 40
0.0
 40
0.0782697055901828
 40
0.2043829094905401
 40
0.328138429517586
 40
0.4496263921703098
 40
0.571143756645652
 40
0.6906294587788314
 40
0.807531158329971
 40
0.9244544230065955
 40
1.0
 40
1.0
 40
1.0
 40
1.0
 10
226.5951030481241
 20
86.27997549511737
 30
0.0
 10
226.5287018096245
 20
86.15500703569552
 30
0.0
 10
226.3553106078051
 20
85.82868132463533
 30
0.0
 10
226.2581607600781
 20
85.22910176654494
 30
0.0
 10
226.3748075263267
 20
84.55819540757095
 30
0.0
 10
226.7074456162827
 20
83.97186100037412
 30
0.0
 10
227.2086632654336
 20
83.53313675723834
 30
0.0
 10
227.822861133767
 20
83.29438802741197
 30
0.0
 10
228.469351989099
 20
83.27773989274793
 30
0.0
 10
229.0177916611541
 20
83.44339822401982
 30
0.0
 10
229.2967105580406
 20
83.65194565444324
 30
0.0
 10
229.406188480892
 20
83.7338022075618
 30
0.0
  0
LINE
  5
2D5
330
1F
100
AcDbEntity
  8
0
  6
Continuous
 62
     7
370
    30
100
AcDbLine
 10
226.5951030481
 20
86.2799754951
 30
0.0
 11
226.7740818265
 21
86.11786227
 31
0.0
  0
LINE
  5
2D6
330
1F
100
AcDbEntity
  8
0
  6
Continuous
 62
     7
370
    30
100
AcDbLine
 10
229.164493509
 20
83.9527207546
 30
0.0
 11
226.9859158028
 21
85.9259916589
 31
0.0
  0
LWPOLYLINE
  5
2D7
330
1F
100
AcDbEntity
  8
0
  6
Continuous
 62
     7
370
    30
100
AcDbPolyline
 90
        3
 70
   128
 43
0.0
 10
226.8726623211
 20
86.0285721838
 10
226.7942682434
 20
86.0995785452
 10
226.7740818265
 20
86.11786227
  0
SPLINE
  5
2D8
330
1F
100
AcDbEntity
  8
0
  6
Continuous
 62
     7
370
    30
100
AcDbSpline
210
0.0
220
0.0
230
1.0
 70
     8
 71
     3
 72
    14
 73
    10
 74
     0
 42
0.000000001
 43
0.00000001
 40
0.0
 40
0.0
 40
0.0
 40
0.0
 40
0.0033089346647778
 40
0.1834457571912288
 40
0.3589702599036108
 40
0.5344947861849058
 40
0.7146316339671298
 40
0.8559945347702983
 40
1.0
 40
1.0
 40
1.0
 40
1.0
 10
228.1523591432355
 20
87.1867847282464
 30
0.0
 10
228.1572885822301
 20
87.18707537696679
 30
0.0
 10
228.4305743253744
 20
87.20318880318746
 30
0.0
 10
228.9774751481671
 20
87.12272126211069
 30
0.0
 10
229.6731349567689
 20
86.70412269787997
 30
0.0
 10
230.1599733423248
 20
86.05145620126373
 30
0.0
 10
230.3410285394632
 20
85.31397452695592
 30
0.0
 10
230.2721278117499
 20
84.60582790360962
 30
0.0
 10
230.0681463268231
 20
84.2277733655808
 30
0.0
 10
229.9652111310147
 20
84.03699566871173
 30
0.0
  0
SPLINE
  5
2D9
330
1F
100
AcDbEntity
  8
0
  6
Continuous
 62
     7
370
    30
100
AcDbSpline
210
0.0
220
0.0
230
1.0
 70
     8
 71
     3
 72
    10
 73
     6
 74
     0
 42
0.000000001
 43
0.00000001
 40
0.0
 40
0.0
 40
0.0
 40
0.0
 40
0.1434066676667582
 40
0.6552831492479219
 40
1.0
 40
1.0
 40
1.0
 40
1.0
 10
227.1086929890893
 20
86.6243189785654
 30
0.0
 10
227.149111126064
 20
86.66498618261087
 30
0.0
 10
227.3337979646498
 20
86.85081110952403
 30
0.0
 10
227.6850525529009
 20
87.06763731940916
 30
0.0
 10
228.0182651694859
 20
87.15259529064073
 30
0.0
 10
228.1523591432355
 20
87.1867847282464
 30
0.0
  0
SPLINE
  5
2DA
330
1F
100
AcDbEntity
  8
0
  6
Continuous
 62
     7
370
    30
100
AcDbSpline
210
0.0
220
0.0
230
1.0
 70
     8
 71
     3
 72
     9
 73
     5
 74
     0
 42
0.000000001
 43
0.00000001
 40
0.0
 40
0.0
 40
0.0
 40
0.0
 40
0.2411673268498565
 40
1.0
 40
1.0
 40
1.0
 40
1.0
 10
227.1086929890893
 20
86.6243189785654
 30
0.0
 10
227.1220868752943
 20
86.61218735124044
 30
0.0
 10
227.1776246066278
 20
86.56188357467408
 30
0.0
 10
227.2332467660538
 20
86.51150304877486
 30
0.0
 10
227.2754546779774
 20
86.47327265963203
 30
0.0
  0
SPLINE
  5
2DB
330
1F
100
AcDbEntity
  8
0
  6
Continuous
 62
     7
370
    30
100
AcDbSpline
210
0.0
220
0.0
230
1.0
 70
     8
 71
     3
 72
     9
 73
     5
 74
     0
 42
0.000000001
 43
0.00000001
 40
0.0
 40
0.0
 40
0.0
 40
0.0
 40
0.267955924335925
 40
1.0
 40
1.0
 40
1.0
 40
1.0
 10
229.7905369255326
 20
84.19520921334869
 30
0.0
 10
229.8061365781192
 20
84.18107944214871
 30
0.0
 10
229.8643538115136
 20
84.12834774295233
 30
0.0
 10
229.9225840383988
 20
84.07560539330653
 30
0.0
 10
229.9652111310147
 20
84.03699566871173
 30
0.0
  0
SPLINE
  5
2DC
330
1F
100
AcDbEntity
  8
0
  6
Continuous
 62
     7
370
    30
100
AcDbSpline
210
0.0
220
0.0
230
1.0
 70
     8
 71
     3
 72
    11
 73
     7
 74
     0
 42
0.000000001
 43
0.00000001
 40
0.0
 40
0.0
 40
0.0
 40
0.0
 40
0.1385236471170461
 40
0.6772676774087254
 40
0.9686251486421565
 40
1.0
 40
1.0
 40
1.0
 40
1.0
 10
228.1523591432355
 20
87.1867847282464
 30
0.0
 10
228.0941911223763
 20
87.18165161879905
 30
0.0
 10
227.8097969325993
 20
87.15655489931731
 30
0.0
 10
227.4131607131491
 20
87.02274368755317
 30
0.0
 10
227.1068366163089
 20
86.82498450603316
 30
0.0
 10
227.0010655675123
 20
86.73943412460521
 30
0.0
 10
226.9907828945301
 20
86.73111723065621
 30
0.0
  0
LINE
  5
2DD
330
1F
100
AcDbEntity
  8
0
  6
Continuous
 62
     7
370
    30
100
AcDbLine
 10
227.1086929891
 20
86.6243189786
 30
0.0
 11
226.9907828945
 21
86.7311172307
 31
0.0
  0
SPLINE
  5
2DE
330
1F
100
AcDbEntity
  8
0
  6
Continuous
 62
     7
370
    30
100
AcDbSpline
210
0.0
220
0.0
230
1.0
 70
     8
 71
     3
 72
     9
 73
     5
 74
     0
 42
0.000000001
 43
0.00000001
 40
0.0
 40
0.0
 40
0.0
 40
0.0
 40
0.5046296913795947
 40
1.0
 40
1.0
 40
1.0
 40
1.0
 10
226.9907828945301
 20
86.73111723065621
 30
0.0
 10
227.1704038078257
 20
86.85510620661196
 30
0.0
 10
227.5263497942865
 20
87.10080910137582
 30
0.0
 10
227.9548722004507
 20
87.15887428474814
 30
0.0
 10
228.167149477043
 20
87.18763805255539
 30
0.0
  0
LWPOLYLINE
  5
2DF
330
1F
100
AcDbEntity
  8
0
  6
Continuous
 62
     7
370
    30
100
AcDbPolyline
 90
        2
 70
   128
 43
0.0
 10
229.965211131
 20
84.0369956687
 10
229.965211131
 20
84.0369956687
  0
SPLINE
  5
2E0
330
1F
100
AcDbEntity
  8
0
  6
Continuous
 62
     7
370
    30
100
AcDbSpline
210
0.0
220
0.0
230
1.0
 70
     8
 71
     3
 72
    15
 73
    11
 74
     0
 42
0.000000001
 43
0.00000001
 40
0.0
 40
0.0
 40
0.0
 40
0.0
 40
0.1123234612901092
 40
0.2225859259062966
 40
0.3630917446090109
 40
0.4999999885864577
 40
0.63690825094754
 40
0.7774141407732272
 40
0.8876766204354424
 40
1.0
 40
1.0
 40
1.0
 40
1.0
 10
229.5624187741064
 20
83.59229519292957
 30
0.0
 10
229.3827260099457
 20
83.47104212270331
 30
0.0
 10
229.026637621732
 20
83.230760826211
 30
0.0
 10
228.3287619069055
 20
83.09231090320938
 30
0.0
 10
227.5769280208985
 20
83.19982217705487
 30
0.0
 10
226.8797482557376
 20
83.61951993242995
 30
0.0
 10
226.3933173201632
 20
84.27189235580018
 30
0.0
 10
226.2121527934504
 20
85.00945127591493
 30
0.0
 10
226.2810798447202
 20
85.71758121982921
 30
0.0
 10
226.4850568184003
 20
86.09563826778773
 30
0.0
 10
226.5879896062992
 20
86.2864169877047
 30
0.0
  0
SPLINE
  5
2E1
330
1F
100
AcDbEntity
  8
0
  6
Continuous
 62
     7
370
    30
100
AcDbSpline
210
0.0
220
0.0
230
1.0
 70
     8
 71
     3
 72
     9
 73
     5
 74
     0
 42
0.000000001
 43
0.00000001
 40
0.0
 40
0.0
 40
0.0
 40
0.0
 40
0.5059718361359978
 40
1.0
 40
1.0
 40
1.0
 40
1.0
 10
229.5624187741064
 20
83.59229519292957
 30
0.0
 10
229.5360845513779
 20
83.61614782767677
 30
0.0
 10
229.4840377360265
 20
83.66329004596577
 30
0.0
 10
229.4319307831474
 20
83.71048605157094
 30
0.0
 10
229.406188480892
 20
83.7338022075618
 30
0.0
  0
SPLINE
  5
2E2
330
1F
100
AcDbEntity
  8
0
  6
Continuous
 62
     7
370
    30
100
AcDbSpline
210
0.0
220
0.0
230
1.0
 70
     8
 71
     3
 72
    15
 73
    11
 74
     0
 42
0.000000001
 43
0.00000001
 40
0.0
 40
0.0
 40
0.0
 40
0.0
 40
0.1123234615386247
 40
0.2225859258603111
 40
0.3630917448173918
 40
0.4999999887601257
 40
0.6369082510864952
 40
0.777414140296575
 40
0.8876766204639217
 40
0.9999999999999999
 40
0.9999999999999999
 40
0.9999999999999999
 40
0.9999999999999999
 10
229.5624187741064
 20
83.59229519292957
 30
0.0
 10
229.3827260103015
 20
83.4710421227336
 30
0.0
 10
229.0266376236545
 20
83.23076082688256
 30
0.0
 10
228.3287619045663
 20
83.09231090301043
 30
0.0
 10
227.5769280222452
 20
83.19982217670406
 30
0.0
 10
226.8797482554889
 20
83.61951993284687
 30
0.0
 10
226.3933173209936
 20
84.27189235325439
 30
0.0
 10
226.2121527932648
 20
85.00945128036156
 30
0.0
 10
226.2810798443091
 20
85.7175812176673
 30
0.0
 10
226.4850568184262
 20
86.09563826736633
 30
0.0
 10
226.5879896062992
 20
86.2864169877047
 30
0.0
  0
LWPOLYLINE
  5
2E3
330
1F
100
AcDbEntity
  8
0
  6
Continuous
 62
     7
370
    30
100
AcDbPolyline
 90
        2
 70
   128
 43
0.0
 10
229.5624187741
 20
83.5922951929
 10
229.5624187741
 20
83.5922951929
  0
SPLINE
  5
2E4
330
1F
100
AcDbEntity
  8
0
  6
Continuous
 62
     7
370
    30
100
AcDbSpline
210
0.0
220
0.0
230
1.0
 70
     8
 71
     3
 72
     9
 73
     5
 74
     0
 42
0.000000001
 43
0.00000001
 40
0.0
 40
0.0
 40
0.0
 40
0.0
 40
0.8161898086770731
 40
1.0
 40
1.0
 40
1.0
 40
1.0
 10
229.2828040722393
 20
83.84555951953179
 30
0.0
 10
229.4193396814595
 20
83.94062684245205
 30
0.0
 10
229.586623820233
 20
84.05710382110281
 30
0.0
 10
229.7158199401491
 20
84.21276310974572
 30
0.0
 10
229.7395675036691
 20
84.24137487337238
 30
0.0
  0
LINE
  5
2E5
330
1F
100
AcDbEntity
  8
0
  6
Continuous
 62
     7
370
    30
100
AcDbLine
 10
227.056648821
 20
86.6714581035
 30
0.0
 11
226.7015280727
 21
86.1835791849
 31
0.0
  0
LINE
  5
2E6
330
1F
100
AcDbEntity
  8
0
  6
Continuous
 62
     7
370
    30
100
AcDbLine
 10
255.776601151
 20
79.1617063925
 30
0.0
 11
255.776601151
 21
69.1617056847
 31
0.0
  0
LINE
  5
2E7
330
1F
100
AcDbEntity
  8
0
  6
Continuous
 62
     7
370
    30
100
AcDbLine
 10
255.776601151
 20
69.1617056847
 30
0.0
 11
250.7766012627
 21
69.1617056847
 31
0.0
  0
LINE
  5
2E8
330
1F
100
AcDbEntity
  8
0
  6
Continuous
 62
     7
370
    30
100
AcDbLine
 10
250.7766012627
 20
69.1617056847
 30
0.0
 11
250.7766012627
 21
79.1617063925
 31
0.0
  0
LINE
  5
2E9
330
1F
100
AcDbEntity
  8
0
  6
Continuous
 62
     7
370
    30
100
AcDbLine
 10
250.7766012627
 20
79.1617063925
 30
0.0
 11
255.776601151
 21
79.1617063925
 31
0.0
  0
LINE
  5
2EA
330
1F
100
AcDbEntity
  8
0
  6
Continuous
 62
     7
370
    30
100
AcDbLine
 10
195.7765996981
 20
79.1617063925
 30
0.0
 11
195.7765996981
 21
69.1617056847
 31
0.0
  0
LINE
  5
2EB
330
1F
100
AcDbEntity
  8
0
  6
Continuous
 62
     7
370
    30
100
AcDbLine
 10
195.7765996981
 20
69.1617056847
 30
0.0
 11
250.7766012627
 21
69.1617056847
 31
0.0
  0
LINE
  5
2EC
330
1F
100
AcDbEntity
  8
0
  6
Continuous
 62
     7
370
    30
100
AcDbLine
 10
195.7765996981
 20
79.1617063925
 30
0.0
 11
250.7766012627
 21
79.1617063925
 31
0.0
  0
LINE
  5
2ED
330
1F
100
AcDbEntity
  8
0
  6
Continuous
 62
     7
370
    30
100
AcDbLine
 10
190.7766007412
 20
69.1617056847
 30
0.0
 11
190.7766007412
 21
79.1617063925
 31
0.0
  0
LINE
  5
2EE
330
1F
100
AcDbEntity
  8
0
  6
Continuous
 62
     7
370
    30
100
AcDbLine
 10
195.7765996981
 20
69.1617056847
 30
0.0
 11
190.7766007412
 21
69.1617056847
 31
0.0
  0
LINE
  5
2EF
330
1F
100
AcDbEntity
  8
0
  6
Continuous
 62
     7
370
    30
100
AcDbLine
 10
190.7766007412
 20
79.1617063925
 30
0.0
 11
195.7765996981
 21
79.1617063925
 31
0.0
  0
LINE
  5
2F0
330
1F
100
AcDbEntity
  8
0
  6
Continuous
 62
     7
370
    30
100
AcDbLine
 10
221.4766007442
 20
148.6617066085
 30
0.0
 11
241.476600821
 21
148.6617066085
 31
0.0
  0
LINE
  5
2F1
330
1F
100
AcDbEntity
  8
0
  6
Continuous
 62
     7
370
    30
100
AcDbLine
 10
241.476600821
 20
104.1617058337
 30
0.0
 11
241.476600821
 21
148.6617066085
 31
0.0
  0
LINE
  5
2F2
330
1F
100
AcDbEntity
  8
0
  6
Continuous
 62
     7
370
    30
100
AcDbLine
 10
215.4766016233
 20
88.6617063198
 30
0.0
 11
215.4766016233
 21
151.6617052376
 31
0.0
  0
LINE
  5
2F3
330
1F
100
AcDbEntity
  8
0
  6
Continuous
 62
     7
370
    30
100
AcDbLine
 10
221.4766007442
 20
88.6617063198
 30
0.0
 11
221.4766007442
 21
151.6617052376
 31
0.0
  0
LINE
  5
2F4
330
1F
100
AcDbEntity
  8
0
  6
Continuous
 62
     7
370
    30
100
AcDbLine
 10
215.4766016233
 20
151.6617052376
 30
0.0
 11
221.4766007442
 21
151.6617052376
 31
0.0
  0
LINE
  5
2F5
330
1F
100
AcDbEntity
  8
0
  6
Continuous
 62
     7
370
    30
100
AcDbLine
 10
215.4766016233
 20
88.6617063198
 30
0.0
 11
221.4766007442
 21
88.6617063198
 31
0.0
  0
LINE
  5
2F6
330
1F
100
AcDbEntity
  8
0
  6
Continuous
 62
     7
370
    30
100
AcDbLine
 10
242.2766008008
 20
104.1617058337
 30
0.0
 11
221.4766007442
 21
104.1617058337
 31
0.0
  0
LINE
  5
2F7
330
1F
100
AcDbEntity
  8
0
  6
Continuous
 62
     7
370
    30
100
AcDbLine
 10
242.2766008008
 20
79.1617063925
 30
0.0
 11
242.2766008008
 21
104.1617058337
 31
0.0
  0
LINE
  5
2F8
330
1F
100
AcDbEntity
  8
0
  6
Continuous
 62
     7
370
    30
100
AcDbLine
 10
207.2766006518
 20
104.1617058337
 30
0.0
 11
207.2766006518
 21
79.1617063925
 31
0.0
  0
LINE
  5
2F9
330
1F
100
AcDbEntity
  8
0
  6
Continuous
 62
     7
370
    30
100
AcDbLine
 10
215.2766001004
 20
104.1617058337
 30
0.0
 11
207.2766006518
 21
104.1617058337
 31
0.0
  0
LINE
  5
2FA
330
1F
100
AcDbEntity
  8
0
  6
Continuous
 62
     7
370
    30
100
AcDbLine
 10
215.2766001004
 20
104.1617058337
 30
0.0
 11
215.2766001004
 21
88.6617063198
 31
0.0
  0
LINE
  5
2FB
330
1F
100
AcDbEntity
  8
0
  6
Continuous
 62
     7
370
    30
100
AcDbLine
 10
215.2766001004
 20
88.6617063198
 30
0.0
 11
215.4766016233
 21
88.6617063198
 31
0.0
  0
CIRCLE
  5
2FC
330
1F
100
AcDbEntity
  8
0
  6
Continuous
 62
     7
370
    30
100
AcDbCircle
 10
238.2766008008
 20
87.1617062963
 30
0.0
 40
3.25
  0
CIRCLE
  5
2FD
330
1F
100
AcDbEntity
  8
0
  6
Continuous
 62
     7
370
    30
100
AcDbCircle
 10
211.2766008008
 20
100.1617062963
 30
0.0
 40
3.25
  0
CIRCLE
  5
2FE
330
1F
100
AcDbEntity
  8
0
  6
Continuous
 62
     7
370
    30
100
AcDbCircle
 10
228.2766008008
 20
93.6617062963
 30
0.0
 40
4.216400000000021
  0
ARC
  5
2FF
330
1F
100
AcDbEntity
  8
0
  6
Continuous
 62
     7
370
    30
100
AcDbCircle
 10
228.2766008008
 20
85.1617062963
 30
0.0
 40
1.649999999999992
100
AcDbArc
 50
127.3552577896
 51
148.3066211824
  0
LWPOLYLINE
  5
300
330
1F
100
AcDbEntity
  8
0
  6
Continuous
 62
     7
370
    30
100
AcDbPolyline
 90
        3
 70
   128
 43
0.0
 10
229.2777469907
 20
83.850139764
 10
229.4793988172
 20
84.0322035484
 10
229.6672931466
 20
84.2737453178
  0
LINE
  5
301
330
1F
100
AcDbEntity
  8
0
  6
Continuous
 62
     7
370
    30
100
AcDbLine
 10
328.4974898801
 20
193.9937214471
 30
0.0
 11
329.2045966612
 21
194.401925503
 31
0.0
  0
LINE
  5
302
330
1F
100
AcDbEntity
  8
0
  6
Continuous
 62
     7
370
    30
100
AcDbLine
 10
327.204759196
 20
197.8661209526
 30
0.0
 11
326.4976524148
 21
197.4579168967
 31
0.0
  0
SPLINE
  5
303
330
1F
100
AcDbEntity
  8
0
  6
Continuous
 62
     7
370
    30
100
AcDbSpline
210
0.0
220
0.0
230
1.0
 70
     8
 71
     3
 72
    18
 73
    14
 74
     0
 42
0.000000001
 43
0.00000001
 40
0.0
 40
0.0
 40
0.0
 40
0.0
 40
0.0973367369809015
 40
0.1731918547388488
 40
0.2719208089617167
 40
0.3688115464891599
 40
0.476799546193776
 40
0.5866414072953697
 40
0.6973158490641099
 40
0.7590256945340937
 40
0.8298529421056995
 40
0.9102155972122603
 40
1.0
 40
1.0
 40
1.0
 40
1.0
 10
348.4672578968209
 20
189.8344920535356
 30
0.0
 10
348.6538348165228
 20
189.7588099206974
 30
0.0
 10
348.9858122772115
 20
189.6241482362871
 30
0.0
 10
349.5932430368447
 20
189.6999961775508
 30
0.0
 10
350.1779025089542
 20
189.960757359132
 30
0.0
 10
350.785542855093
 20
190.4550228653596
 30
0.0
 10
351.3301078348266
 20
191.1404617590076
 30
0.0
 10
351.7430484052218
 20
191.970499902343
 30
0.0
 10
351.9229452511101
 20
192.7049135897656
 30
0.0
 10
351.941651651334
 20
193.3063772393459
 30
0.0
 10
351.8572630742117
 20
193.794872653637
 30
0.0
 10
351.6379351842398
 20
194.2769557558662
 30
0.0
 10
351.3624191947802
 20
194.4869502497734
 30
0.0
 10
351.2170329690162
 20
194.5977616293971
 30
0.0
  0
LINE
  5
304
330
1F
100
AcDbEntity
  8
0
  6
Continuous
 62
     7
370
    30
100
AcDbLine
 10
348.2375575009
 20
189.9670952695
 30
0.0
 11
348.4672571755
 21
189.8344924699
 31
0.0
  0
LINE
  5
305
330
1F
100
AcDbEntity
  8
0
  6
Continuous
 62
     7
370
    30
100
AcDbLine
 10
351.2170336903
 20
194.597761213
 30
0.0
 11
350.9873340157
 21
194.7303640126
 31
0.0
  0
SPLINE
  5
306
330
1F
100
AcDbEntity
  8
0
  6
Continuous
 62
     7
370
    30
100
AcDbSpline
210
0.0
220
0.0
230
1.0
 70
     8
 71
     3
 72
    18
 73
    14
 74
     0
 42
0.000000001
 43
0.00000001
 40
0.0
 40
0.0
 40
0.0
 40
0.0
 40
0.0973367369809018
 40
0.173191854738849
 40
0.2719208089617166
 40
0.36881154648916
 40
0.4767995461937758
 40
0.5866414072953695
 40
0.6973158490641097
 40
0.7590256945340934
 40
0.8298529421056989
 40
0.91021559721226
 40
1.0
 40
1.0
 40
1.0
 40
1.0
 10
367.5591409888577
 20
190.2409710086274
 30
0.0
 10
367.7457179085596
 20
190.1652888757892
 30
0.0
 10
368.0776953692484
 20
190.0306271913789
 30
0.0
 10
368.6851261288815
 20
190.1064751326426
 30
0.0
 10
369.269785600991
 20
190.3672363142238
 30
0.0
 10
369.8774259471298
 20
190.8615018204515
 30
0.0
 10
370.4219909268634
 20
191.5469407140993
 30
0.0
 10
370.8349314972587
 20
192.3769788574348
 30
0.0
 10
371.014828343147
 20
193.1113925448574
 30
0.0
 10
371.0335347433709
 20
193.7128561944377
 30
0.0
 10
370.9491461662485
 20
194.2013516087288
 30
0.0
 10
370.7298182762766
 20
194.683434710958
 30
0.0
 10
370.454302286817
 20
194.8934292048652
 30
0.0
 10
370.308916061053
 20
195.0042405844889
 30
0.0
  0
LINE
  5
307
330
1F
100
AcDbEntity
  8
0
  6
Continuous
 62
     7
370
    30
100
AcDbLine
 10
367.329440593
 20
190.3735742246
 30
0.0
 11
367.5591402676
 21
190.240971425
 31
0.0
  0
LINE
  5
308
330
1F
100
AcDbEntity
  8
0
  6
Continuous
 62
     7
370
    30
100
AcDbLine
 10
370.3089167823
 20
195.0042401681
 30
0.0
 11
370.0792171077
 21
195.1368429677
 31
0.0
  0
SPLINE
  5
309
330
1F
100
AcDbEntity
  8
0
  6
Continuous
 62
     7
370
    30
100
AcDbSpline
210
0.0
220
0.0
230
1.0
 70
     8
 71
     3
 72
    18
 73
    14
 74
     0
 42
0.000000001
 43
0.00000001
 40
0.0
 40
0.0
 40
0.0
 40
0.0
 40
0.0973376828697077
 40
0.173199274936486
 40
0.2719532888755056
 40
0.3688593130381324
 40
0.4768494671363188
 40
0.586691557585594
 40
0.6973668420628683
 40
0.7590733506954611
 40
0.8298912004997459
 40
0.910238004674393
 40
1.0
 40
1.0
 40
1.0
 40
1.0
 10
335.0322290542765
 20
244.486467814696
 30
0.0
 10
334.8733847332333
 20
244.3627417681776
 30
0.0
 10
334.5907426934667
 20
244.1425879601561
 30
0.0
 10
334.3526425854051
 20
243.578566221646
 30
0.0
 10
334.2861043251564
 20
242.9417361850952
 30
0.0
 10
334.4103528102856
 20
242.1682268397966
 30
0.0
 10
334.7317045512787
 20
241.3538393728709
 30
0.0
 10
335.244069949755
 20
240.5812028425788
 30
0.0
 10
335.7901282814718
 20
240.058231704604
 30
0.0
 10
336.3016183818443
 20
239.7413509876133
 30
0.0
 10
336.7667835492211
 20
239.5702380740833
 30
0.0
 10
337.2938223669079
 20
239.5191662212827
 30
0.0
 10
337.6133812196562
 20
239.6527235207423
 30
0.0
 10
337.7820041264718
 20
239.7231982388346
 30
0.0
  0
LINE
  5
30A
330
1F
100
AcDbEntity
  8
0
  6
Continuous
 62
     7
370
    30
100
AcDbLine
 10
335.2619280076
 20
244.6190701979
 30
0.0
 11
335.032228333
 21
244.4864673983
 31
0.0
  0
LINE
  5
30B
330
1F
100
AcDbEntity
  8
0
  6
Continuous
 62
     7
370
    30
100
AcDbLine
 10
337.7820048477
 20
239.7231986552
 30
0.0
 11
338.0117045223
 21
239.8558014548
 31
0.0
  0
SPLINE
  5
30C
330
1F
100
AcDbEntity
  8
0
  6
Continuous
 62
     7
370
    30
100
AcDbSpline
210
0.0
220
0.0
230
1.0
 70
     8
 71
     3
 72
    18
 73
    14
 74
     0
 42
0.000000001
 43
0.00000001
 40
0.0
 40
0.0
 40
0.0
 40
0.0
 40
0.0973376828697077
 40
0.173199274936486
 40
0.2719532888755056
 40
0.3688593130381324
 40
0.4768494671363185
 40
0.5866915575855941
 40
0.6973668420628684
 40
0.7590733506954612
 40
0.829891200499746
 40
0.9102380046743933
 40
1.0
 40
1.0
 40
1.0
 40
1.0
 10
342.103296866142
 20
240.4044272555825
 30
0.0
 10
341.9444525450988
 20
240.280701209064
 30
0.0
 10
341.6618105053321
 20
240.0605474010425
 30
0.0
 10
341.4237103972705
 20
239.4965256625325
 30
0.0
 10
341.3571721370219
 20
238.8596956259817
 30
0.0
 10
341.4814206221511
 20
238.086186280683
 30
0.0
 10
341.8027723631442
 20
237.2717988137573
 30
0.0
 10
342.3151377616205
 20
236.4991622834653
 30
0.0
 10
342.8611960933372
 20
235.9761911454904
 30
0.0
 10
343.3726861937098
 20
235.6593104284997
 30
0.0
 10
343.8378513610866
 20
235.4881975149698
 30
0.0
 10
344.3648901787734
 20
235.4371256621691
 30
0.0
 10
344.6844490315217
 20
235.5706829616288
 30
0.0
 10
344.8530719383373
 20
235.641157679721
 30
0.0
  0
LINE
  5
30D
330
1F
100
AcDbEntity
  8
0
  6
Continuous
 62
     7
370
    30
100
AcDbLine
 10
342.3329958195
 20
240.5370296388
 30
0.0
 11
342.1032961449
 21
240.4044268392
 31
0.0
  0
LINE
  5
30E
330
1F
100
AcDbEntity
  8
0
  6
Continuous
 62
     7
370
    30
100
AcDbLine
 10
344.8530726596
 20
235.6411580961
 30
0.0
 11
345.0827723342
 21
235.7737608957
 31
0.0
  0
LINE
  5
30F
330
1F
100
AcDbEntity
  8
0
  6
Continuous
 62
     7
370
    30
100
AcDbLine
 10
336.9425153724
 20
182.9144908946
 30
0.0
 11
336.9970262444
 21
182.9459593512
 31
0.0
  0
LINE
  5
310
330
1F
100
AcDbEntity
  8
0
  6
Continuous
 62
     7
370
    30
100
AcDbLine
 10
334.121439036
 20
185.0067905043
 30
0.0
 11
334.121439036
 21
184.8532227471
 31
0.0
  0
LINE
  5
311
330
1F
100
AcDbEntity
  8
0
  6
Continuous
 62
     7
370
    30
100
AcDbLine
 10
334.7285523969
 20
186.3217820511
 30
0.0
 11
334.6666805536
 21
186.2860641962
 31
0.0
  0
LINE
  5
312
330
1F
100
AcDbEntity
  8
0
  6
Continuous
 62
     7
370
    30
100
AcDbLine
 10
363.1409732782
 20
184.6546937495
 30
0.0
 11
363.3924506118
 21
184.7999157217
 31
0.0
  0
LINE
  5
313
330
1F
100
AcDbEntity
  8
0
  6
Continuous
 62
     7
370
    30
100
AcDbLine
 10
363.9648485287
 20
188.0367813955
 30
0.0
 11
363.9029766853
 21
188.0724992504
 31
0.0
  0
LINE
  5
314
330
1F
100
AcDbEntity
  8
0
  6
Continuous
 62
     7
370
    30
100
AcDbLine
 10
364.4529383965
 20
186.6369334902
 30
0.0
 11
364.4529383965
 21
186.8379221669
 31
0.0
  0
LINE
  5
315
330
1F
100
AcDbEntity
  8
0
  6
Continuous
 62
     7
370
    30
100
AcDbLine
 10
363.9319280808
 20
187.6182984564
 30
0.0
 11
363.9305730293
 21
187.619080711
 31
0.0
  0
LINE
  5
316
330
1F
100
AcDbEntity
  8
0
  6
Continuous
 62
     7
370
    30
100
AcDbLine
 10
361.6282665993
 20
184.7002778517
 30
0.0
 11
361.6901384426
 21
184.6645599968
 31
0.0
  0
LINE
  5
317
330
1F
100
AcDbEntity
  8
0
  6
Continuous
 62
     7
370
    30
100
AcDbLine
 10
390.4803272047
 20
178.5779976721
 30
0.0
 11
390.4803272047
 21
186.7434057909
 31
0.0
  0
LINE
  5
318
330
1F
100
AcDbEntity
  8
0
  6
Continuous
 62
     7
370
    30
100
AcDbLine
 10
302.6985812742
 20
186.7434057909
 30
0.0
 11
302.6985812742
 21
178.5779976721
 31
0.0
  0
LWPOLYLINE
  5
319
330
1F
100
AcDbEntity
  8
0
  6
Continuous
 62
     7
370
    30
100
AcDbPolyline
 90
       23
 70
   128
 43
0.0
 10
327.4975711474
 20
197.3589007957
 10
327.8960011503
 20
197.0627407705
 10
328.2621527238
 20
196.6582713083
 10
328.5663624452
 20
196.1782601196
 10
328.783985052
 20
195.6615948561
 10
328.8973900549
 20
195.1501326647
 10
328.8973900549
 20
194.6853091703
 10
328.783985052
 20
194.3047816081
 10
328.5663624452
 20
194.0393780581
 10
328.2621527238
 20
193.9105999375
 10
327.8960011503
 20
193.9288800838
 10
327.4975711474
 20
194.0927375481
 10
327.0991411446
 20
194.3888975733
 10
326.732989571
 20
194.7933670354
 10
326.4287798496
 20
195.2733782242
 10
326.2111572428
 20
195.7900434877
 10
326.09775224
 20
196.3015056791
 10
326.09775224
 20
196.7663291735
 10
326.2111572428
 20
197.1468567356
 10
326.4287798496
 20
197.4122602856
 10
326.732989571
 20
197.5410384062
 10
327.0991411446
 20
197.52275826
 10
327.4975711474
 20
197.3589007957
  0
LINE
  5
31A
330
1F
100
AcDbEntity
  8
0
  6
Continuous
 62
     7
370
    30
100
AcDbLine
 10
327.0537707867
 20
196.7734393174
 30
0.0
 11
326.6821383817
 21
196.1484439107
 31
0.0
  0
LINE
  5
31B
330
1F
100
AcDbEntity
  8
0
  6
Continuous
 62
     7
370
    30
100
AcDbLine
 10
326.6821383817
 20
196.1484439107
 30
0.0
 11
327.1259387425
 21
195.1008237652
 31
0.0
  0
LINE
  5
31C
330
1F
100
AcDbEntity
  8
0
  6
Continuous
 62
     7
370
    30
100
AcDbLine
 10
327.1259387425
 20
195.1008237652
 30
0.0
 11
327.9413715082
 21
194.6781990264
 31
0.0
  0
LINE
  5
31D
330
1F
100
AcDbEntity
  8
0
  6
Continuous
 62
     7
370
    30
100
AcDbLine
 10
327.9413715082
 20
194.6781990264
 30
0.0
 11
328.3130039131
 21
195.3031944331
 31
0.0
  0
LINE
  5
31E
330
1F
100
AcDbEntity
  8
0
  6
Continuous
 62
     7
370
    30
100
AcDbLine
 10
328.3130039131
 20
195.3031944331
 30
0.0
 11
327.8692035524
 21
196.3508145786
 31
0.0
  0
LINE
  5
31F
330
1F
100
AcDbEntity
  8
0
  6
Continuous
 62
     7
370
    30
100
AcDbLine
 10
327.8692035524
 20
196.3508145786
 30
0.0
 11
327.0537707867
 21
196.7734393174
 31
0.0
  0
LINE
  5
320
330
1F
100
AcDbEntity
  8
0
  6
Continuous
 62
     7
370
    30
100
AcDbLine
 10
327.4284218008
 20
196.5792641583
 30
0.0
 11
326.6821383817
 21
196.1484439107
 31
0.0
  0
LINE
  5
321
330
1F
100
AcDbEntity
  8
0
  6
Continuous
 62
     7
370
    30
100
AcDbLine
 10
328.148629687
 20
195.6912106808
 30
0.0
 11
327.1259387425
 21
195.1008237652
 31
0.0
  0
SPLINE
  5
322
330
1F
100
AcDbEntity
  8
0
  6
Continuous
 62
     7
370
    30
100
AcDbSpline
210
0.0
220
0.0
230
1.0
 70
    11
 71
     3
 72
    31
 73
    27
 74
     0
 42
0.000000001
 43
0.00000001
 40
0.0
 40
0.0
 40
0.0
 40
0.0
 40
0.0598607364726976
 40
0.0924113420178385
 40
0.1249999828727494
 40
0.1575506055353725
 40
0.190139263527303
 40
0.2500000000000007
 40
0.3098607364726985
 40
0.342411342017849
 40
0.3749999828727508
 40
0.4075506055353869
 40
0.440139263527304
 40
0.5000000000000017
 40
0.5598607364726993
 40
0.5924113420178698
 40
0.6249999828727514
 40
0.6575506055353653
 40
0.690139263527303
 40
0.7500000000000009
 40
0.8098607364726987
 40
0.842411342017874
 40
0.8749999828727509
 40
0.9075506055353709
 40
0.9401392635273025
 40
1.0
 40
1.0
 40
1.0
 40
1.0
 10
350.1956988235119
 20
193.8492416402536
 30
0.0
 10
350.3957569504294
 20
193.9400573914392
 30
0.0
 10
350.7046011290917
 20
194.0802562252314
 30
0.0
 10
351.0754885638406
 20
194.0656392720199
 30
0.0
 10
351.3282561862999
 20
193.9741988972236
 30
0.0
 10
351.5352325076188
 20
193.8013140229911
 30
0.0
 10
351.7270509965925
 20
193.4839064593145
 30
0.0
 10
351.8253045440052
 20
192.952761810572
 30
0.0
 10
351.7270756610498
 20
192.3084102004557
 30
0.0
 10
351.5353026381068
 20
191.7694125280516
 30
0.0
 10
351.3284343530458
 20
191.3581037790072
 30
0.0
 10
351.075599988901
 20
190.9731368600296
 30
0.0
 10
350.7047264864298
 20
190.5375312755721
 30
0.0
 10
350.1956994386727
 20
190.1302166207574
 30
0.0
 10
349.686796434181
 20
189.9498642837121
 30
0.0
 10
349.3159090997707
 20
189.9572079472458
 30
0.0
 10
349.0631414562876
 20
190.050172290283
 30
0.0
 10
348.8561651405764
 20
190.2226506833068
 30
0.0
 10
348.6643466497889
 20
190.5401897183629
 30
0.0
 10
348.5660931034343
 20
191.071257674112
 30
0.0
 10
348.6643219853319
 20
191.7156859608762
 30
0.0
 10
348.8560950100877
 20
192.2545522335661
 30
0.0
 10
349.0629632895372
 20
192.6662677395528
 30
0.0
 10
349.3157976746995
 20
193.049711152645
 30
0.0
 10
349.6866710767257
 20
193.4925977282727
 30
0.0
 10
349.9956413774303
 20
193.7090738976465
 30
0.0
 10
350.1956988235119
 20
193.8492416402536
 30
0.0
  0
LINE
  5
323
330
1F
100
AcDbEntity
  8
0
  6
Continuous
 62
     7
370
    30
100
AcDbLine
 10
349.1750780974
 20
191.4228330096
 30
0.0
 11
349.6853884604
 21
190.6967528967
 31
0.0
  0
LINE
  5
324
330
1F
100
AcDbEntity
  8
0
  6
Continuous
 62
     7
370
    30
100
AcDbLine
 10
349.6853884604
 20
190.6967528967
 30
0.0
 11
350.7060091866
 21
191.2859447006
 31
0.0
  0
LINE
  5
325
330
1F
100
AcDbEntity
  8
0
  6
Continuous
 62
     7
370
    30
100
AcDbLine
 10
350.7060091866
 20
191.2859447006
 30
0.0
 11
351.2163195497
 21
192.6012166174
 31
0.0
  0
LINE
  5
326
330
1F
100
AcDbEntity
  8
0
  6
Continuous
 62
     7
370
    30
100
AcDbLine
 10
351.2163195497
 20
192.6012166174
 30
0.0
 11
350.7060091866
 21
193.3272967303
 31
0.0
  0
LINE
  5
327
330
1F
100
AcDbEntity
  8
0
  6
Continuous
 62
     7
370
    30
100
AcDbLine
 10
350.7060091866
 20
193.3272967303
 30
0.0
 11
349.6853884604
 21
192.7381049264
 31
0.0
  0
LINE
  5
328
330
1F
100
AcDbEntity
  8
0
  6
Continuous
 62
     7
370
    30
100
AcDbLine
 10
349.6853884604
 20
192.7381049264
 30
0.0
 11
349.1750780974
 21
191.4228330096
 31
0.0
  0
LINE
  5
329
330
1F
100
AcDbEntity
  8
0
  6
Continuous
 62
     7
370
    30
100
AcDbLine
 10
349.8244455979
 20
191.794860528
 30
0.0
 11
350.3347559609
 21
193.1101324446
 31
0.0
  0
LINE
  5
32A
330
1F
100
AcDbEntity
  8
0
  6
Continuous
 62
     7
370
    30
100
AcDbLine
 10
349.1949502474
 20
191.4314605972
 30
0.0
 11
349.8244455978
 21
191.7948605278
 31
0.0
  0
LINE
  5
32B
330
1F
100
AcDbEntity
  8
0
  6
Continuous
 62
     7
370
    30
100
AcDbLine
 10
351.2163195497
 20
192.6012166174
 30
0.0
 11
350.3347559609
 21
193.1101324446
 31
0.0
  0
LINE
  5
32C
330
1F
100
AcDbEntity
  8
0
  6
Continuous
 62
     7
370
    30
100
AcDbLine
 10
350.7060091866
 20
191.2859447006
 30
0.0
 11
349.8244455978
 21
191.7948605278
 31
0.0
  0
SPLINE
  5
32D
330
1F
100
AcDbEntity
  8
0
  6
Continuous
 62
     7
370
    30
100
AcDbSpline
210
0.0
220
0.0
230
1.0
 70
    11
 71
     3
 72
    31
 73
    27
 74
     0
 42
0.000000001
 43
0.00000001
 40
0.0
 40
0.0
 40
0.0
 40
0.0
 40
0.0598607364726977
 40
0.0924113420178385
 40
0.1249999828727494
 40
0.1575506055353726
 40
0.1901392635273031
 40
0.2500000000000008
 40
0.3098607364726985
 40
0.3424113420178491
 40
0.3749999828727508
 40
0.4075506055353868
 40
0.4401392635273039
 40
0.5000000000000017
 40
0.5598607364726994
 40
0.5924113420178698
 40
0.6249999828727514
 40
0.6575506055353653
 40
0.690139263527303
 40
0.7500000000000008
 40
0.8098607364726986
 40
0.8424113420178738
 40
0.8749999828727508
 40
0.9075506055353705
 40
0.9401392635273023
 40
1.0
 40
1.0
 40
1.0
 40
1.0
 10
369.2875819155486
 20
194.2557205953454
 30
0.0
 10
369.4876400424662
 20
194.346536346531
 30
0.0
 10
369.7964842211285
 20
194.4867351803232
 30
0.0
 10
370.1673716558775
 20
194.4721182271117
 30
0.0
 10
370.4201392783366
 20
194.3806778523154
 30
0.0
 10
370.6271155996557
 20
194.2077929780829
 30
0.0
 10
370.8189340886293
 20
193.8903854144062
 30
0.0
 10
370.9171876360421
 20
193.3592407656638
 30
0.0
 10
370.8189587530866
 20
192.7148891555476
 30
0.0
 10
370.6271857301436
 20
192.1758914831434
 30
0.0
 10
370.4203174450826
 20
191.764582734099
 30
0.0
 10
370.1674830809379
 20
191.3796158151214
 30
0.0
 10
369.7966095784665
 20
190.9440102306639
 30
0.0
 10
369.2875825307095
 20
190.5366955758493
 30
0.0
 10
368.7786795262177
 20
190.3563432388039
 30
0.0
 10
368.4077921918075
 20
190.3636869023375
 30
0.0
 10
368.1550245483244
 20
190.4566512453748
 30
0.0
 10
367.9480482326133
 20
190.6291296383986
 30
0.0
 10
367.7562297418257
 20
190.9466686734547
 30
0.0
 10
367.6579761954711
 20
191.4777366292039
 30
0.0
 10
367.7562050773687
 20
192.122164915968
 30
0.0
 10
367.9479781021245
 20
192.6610311886579
 30
0.0
 10
368.154846381574
 20
193.0727466946445
 30
0.0
 10
368.4076807667363
 20
193.4561901077368
 30
0.0
 10
368.7785541687625
 20
193.8990766833645
 30
0.0
 10
369.0875244694672
 20
194.1155528527383
 30
0.0
 10
369.2875819155486
 20
194.2557205953454
 30
0.0
  0
LINE
  5
32E
330
1F
100
AcDbEntity
  8
0
  6
Continuous
 62
     7
370
    30
100
AcDbLine
 10
368.2669611894
 20
191.8293119647
 30
0.0
 11
368.7772715525
 21
191.1032318518
 31
0.0
  0
LINE
  5
32F
330
1F
100
AcDbEntity
  8
0
  6
Continuous
 62
     7
370
    30
100
AcDbLine
 10
368.7772715525
 20
191.1032318518
 30
0.0
 11
369.7978922786
 21
191.6924236557
 31
0.0
  0
LINE
  5
330
330
1F
100
AcDbEntity
  8
0
  6
Continuous
 62
     7
370
    30
100
AcDbLine
 10
369.7978922786
 20
191.6924236557
 30
0.0
 11
370.3082026417
 21
193.0076955725
 31
0.0
  0
LINE
  5
331
330
1F
100
AcDbEntity
  8
0
  6
Continuous
 62
     7
370
    30
100
AcDbLine
 10
370.3082026417
 20
193.0076955725
 30
0.0
 11
369.7978922786
 21
193.7337756854
 31
0.0
  0
LINE
  5
332
330
1F
100
AcDbEntity
  8
0
  6
Continuous
 62
     7
370
    30
100
AcDbLine
 10
369.7978922786
 20
193.7337756854
 30
0.0
 11
368.7772715525
 21
193.1445838815
 31
0.0
  0
LINE
  5
333
330
1F
100
AcDbEntity
  8
0
  6
Continuous
 62
     7
370
    30
100
AcDbLine
 10
368.7772715525
 20
193.1445838815
 30
0.0
 11
368.2669611894
 21
191.8293119647
 31
0.0
  0
LINE
  5
334
330
1F
100
AcDbEntity
  8
0
  6
Continuous
 62
     7
370
    30
100
AcDbLine
 10
368.9163286899
 20
192.201339483
 30
0.0
 11
369.4266390529
 21
193.5166113997
 31
0.0
  0
LINE
  5
335
330
1F
100
AcDbEntity
  8
0
  6
Continuous
 62
     7
370
    30
100
AcDbLine
 10
368.2868333395
 20
191.8379395523
 30
0.0
 11
368.9163286899
 21
192.2013394829
 31
0.0
  0
LINE
  5
336
330
1F
100
AcDbEntity
  8
0
  6
Continuous
 62
     7
370
    30
100
AcDbLine
 10
370.3082026417
 20
193.0076955725
 30
0.0
 11
369.4266390529
 21
193.5166113997
 31
0.0
  0
LINE
  5
337
330
1F
100
AcDbEntity
  8
0
  6
Continuous
 62
     7
370
    30
100
AcDbLine
 10
369.7978922786
 20
191.6924236557
 30
0.0
 11
368.9163286899
 21
192.2013394829
 31
0.0
  0
LINE
  5
338
330
1F
100
AcDbEntity
  8
0
  6
Continuous
 62
     7
370
    30
100
AcDbLine
 10
334.9935344037
 20
244.4628358341
 30
0.0
 11
335.032228333
 21
244.4864673983
 31
0.0
  0
SPLINE
  5
339
330
1F
100
AcDbEntity
  8
0
  6
Continuous
 62
     7
370
    30
100
AcDbSpline
210
0.0
220
0.0
230
1.0
 70
    11
 71
     3
 72
    31
 73
    27
 74
     0
 42
0.000000001
 43
0.00000001
 40
0.0
 40
0.0
 40
0.0
 40
0.0
 40
0.0598607364726973
 40
0.0924113420178671
 40
0.1249999828727489
 40
0.157550605535399
 40
0.1901392635273021
 40
0.2499999999999997
 40
0.3098607364726973
 40
0.342411342017846
 40
0.3749999828727491
 40
0.4075506055354013
 40
0.4401392635273029
 40
0.5000000000000002
 40
0.5598607364726975
 40
0.5924113420178623
 40
0.6249999828727495
 40
0.6575506055354076
 40
0.6901392635273029
 40
0.7500000000000006
 40
0.8098607364726981
 40
0.8424113420178686
 40
0.8749999828727495
 40
0.9075506055353961
 40
0.9401392635273024
 40
1.0
 40
1.0
 40
1.0
 40
1.0
 10
336.0535631997809
 20
243.7379478255525
 30
0.0
 10
336.2536213266985
 20
243.5977813799934
 30
0.0
 10
336.5624655053608
 20
243.3813963152038
 30
0.0
 10
336.9333529401098
 20
242.9385618446971
 30
0.0
 10
337.186120562569
 20
242.5552821849833
 30
0.0
 10
337.393096883888
 20
242.1434275367705
 30
0.0
 10
337.5849153728616
 20
241.6045510598234
 30
0.0
 10
337.6831689202743
 20
240.9599652799006
 30
0.0
 10
337.5849400373188
 20
240.4290263239886
 30
0.0
 10
337.3931670143758
 20
240.1114450708934
 30
0.0
 10
337.1862987293148
 20
239.9389813598208
 30
0.0
 10
336.9334643651702
 20
239.8459307840706
 30
0.0
 10
336.5625908626988
 20
239.8385266310428
 30
0.0
 10
336.0535638149418
 20
240.0189220958068
 30
0.0
 10
335.54466081045
 20
240.4261366610343
 30
0.0
 10
335.1737734760399
 20
240.8616977260144
 30
0.0
 10
334.9210058325566
 20
241.2465013782431
 30
0.0
 10
334.7140295168453
 20
241.6579495387724
 30
0.0
 10
334.522211026058
 20
242.1969574891935
 30
0.0
 10
334.4239574797033
 20
242.8414665749011
 30
0.0
 10
334.522186361601
 20
243.3724822086825
 30
0.0
 10
334.7139593863568
 20
243.6899320599703
 30
0.0
 10
334.9208276658064
 20
243.8628025344641
 30
0.0
 10
335.1736620509686
 20
243.9543295800627
 30
0.0
 10
335.5445354529949
 20
243.969014840232
 30
0.0
 10
335.8535057536994
 20
243.8287614936135
 30
0.0
 10
336.0535631997809
 20
243.7379478255525
 30
0.0
  0
LINE
  5
33A
330
1F
100
AcDbEntity
  8
0
  6
Continuous
 62
     7
370
    30
100
AcDbLine
 10
335.0329424736
 20
242.4899228027
 30
0.0
 11
335.5432528367
 21
241.1746508859
 31
0.0
  0
LINE
  5
33B
330
1F
100
AcDbEntity
  8
0
  6
Continuous
 62
     7
370
    30
100
AcDbLine
 10
335.5432528367
 20
241.1746508859
 30
0.0
 11
336.5638735629
 21
240.585459082
 31
0.0
  0
LINE
  5
33C
330
1F
100
AcDbEntity
  8
0
  6
Continuous
 62
     7
370
    30
100
AcDbLine
 10
336.5638735629
 20
240.585459082
 30
0.0
 11
337.0741839259
 21
241.3115391949
 31
0.0
  0
LINE
  5
33D
330
1F
100
AcDbEntity
  8
0
  6
Continuous
 62
     7
370
    30
100
AcDbLine
 10
337.0741839259
 20
241.3115391949
 30
0.0
 11
336.5638735629
 21
242.6268111117
 31
0.0
  0
LINE
  5
33E
330
1F
100
AcDbEntity
  8
0
  6
Continuous
 62
     7
370
    30
100
AcDbLine
 10
336.5638735629
 20
242.6268111117
 30
0.0
 11
335.5432528367
 21
243.2160029156
 31
0.0
  0
LINE
  5
33F
330
1F
100
AcDbEntity
  8
0
  6
Continuous
 62
     7
370
    30
100
AcDbLine
 10
335.5432528367
 20
243.2160029156
 30
0.0
 11
335.0329424736
 21
242.4899228027
 31
0.0
  0
LINE
  5
340
330
1F
100
AcDbEntity
  8
0
  6
Continuous
 62
     7
370
    30
100
AcDbLine
 10
335.9145060624
 20
242.9988386299
 30
0.0
 11
336.4248164254
 21
241.6835667132
 31
0.0
  0
LINE
  5
341
330
1F
100
AcDbEntity
  8
0
  6
Continuous
 62
     7
370
    30
100
AcDbLine
 10
336.4248164257
 20
241.683566713
 30
0.0
 11
337.0727618227
 21
241.3095157971
 31
0.0
  0
LINE
  5
342
330
1F
100
AcDbEntity
  8
0
  6
Continuous
 62
     7
370
    30
100
AcDbLine
 10
335.0329424736
 20
242.4899228027
 30
0.0
 11
335.9145060624
 21
242.9988386299
 31
0.0
  0
LINE
  5
343
330
1F
100
AcDbEntity
  8
0
  6
Continuous
 62
     7
370
    30
100
AcDbLine
 10
336.4248164255
 20
241.6835667131
 30
0.0
 11
335.5432528367
 21
241.1746508859
 31
0.0
  0
LINE
  5
344
330
1F
100
AcDbEntity
  8
0
  6
Continuous
 62
     7
370
    30
100
AcDbLine
 10
342.0646022156
 20
240.3807952749
 30
0.0
 11
342.1032961449
 21
240.4044268392
 31
0.0
  0
SPLINE
  5
345
330
1F
100
AcDbEntity
  8
0
  6
Continuous
 62
     7
370
    30
100
AcDbSpline
210
0.0
220
0.0
230
1.0
 70
    11
 71
     3
 72
    31
 73
    27
 74
     0
 42
0.000000001
 43
0.00000001
 40
0.0
 40
0.0
 40
0.0
 40
0.0
 40
0.0598607364726974
 40
0.0924113420178671
 40
0.1249999828727489
 40
0.157550605535399
 40
0.1901392635273021
 40
0.2499999999999998
 40
0.3098607364726974
 40
0.3424113420178461
 40
0.3749999828727492
 40
0.4075506055354015
 40
0.4401392635273028
 40
0.5000000000000003
 40
0.5598607364726976
 40
0.5924113420178624
 40
0.6249999828727496
 40
0.6575506055354077
 40
0.690139263527303
 40
0.7500000000000007
 40
0.8098607364726982
 40
0.8424113420178687
 40
0.8749999828727496
 40
0.9075506055353962
 40
0.9401392635273024
 40
1.0
 40
1.0
 40
1.0
 40
1.0
 10
343.1246310116463
 20
239.655907266439
 30
0.0
 10
343.3246891385639
 20
239.5157408208798
 30
0.0
 10
343.6335333172264
 20
239.2993557560903
 30
0.0
 10
344.0044207519753
 20
238.8565212855836
 30
0.0
 10
344.2571883744345
 20
238.4732416258697
 30
0.0
 10
344.4641646957535
 20
238.061386977657
 30
0.0
 10
344.655983184727
 20
237.5225105007098
 30
0.0
 10
344.7542367321398
 20
236.8779247207871
 30
0.0
 10
344.6560078491843
 20
236.346985764875
 30
0.0
 10
344.4642348262413
 20
236.0294045117799
 30
0.0
 10
344.2573665411803
 20
235.8569408007072
 30
0.0
 10
344.0045321770356
 20
235.763890224957
 30
0.0
 10
343.6336586745642
 20
235.7564860719293
 30
0.0
 10
343.1246316268072
 20
235.9368815366932
 30
0.0
 10
342.6157286223155
 20
236.3440961019208
 30
0.0
 10
342.2448412879053
 20
236.7796571669008
 30
0.0
 10
341.9920736444221
 20
237.1644608191295
 30
0.0
 10
341.7850973287108
 20
237.5759089796589
 30
0.0
 10
341.5932788379235
 20
238.1149169300799
 30
0.0
 10
341.4950252915688
 20
238.7594260157875
 30
0.0
 10
341.5932541734664
 20
239.2904416495689
 30
0.0
 10
341.7850271982223
 20
239.6078915008568
 30
0.0
 10
341.9918954776718
 20
239.7807619753505
 30
0.0
 10
342.244729862834
 20
239.8722890209492
 30
0.0
 10
342.6156032648603
 20
239.8869742811184
 30
0.0
 10
342.9245735655649
 20
239.7467209344999
 30
0.0
 10
343.1246310116463
 20
239.655907266439
 30
0.0
  0
LINE
  5
346
330
1F
100
AcDbEntity
  8
0
  6
Continuous
 62
     7
370
    30
100
AcDbLine
 10
342.1040102855
 20
238.4078822436
 30
0.0
 11
342.6143206486
 21
237.0926103268
 31
0.0
  0
LINE
  5
347
330
1F
100
AcDbEntity
  8
0
  6
Continuous
 62
     7
370
    30
100
AcDbLine
 10
342.6143206486
 20
237.0926103268
 30
0.0
 11
343.6349413747
 21
236.5034185229
 31
0.0
  0
LINE
  5
348
330
1F
100
AcDbEntity
  8
0
  6
Continuous
 62
     7
370
    30
100
AcDbLine
 10
343.6349413747
 20
236.5034185229
 30
0.0
 11
344.1452517378
 21
237.2294986358
 31
0.0
  0
LINE
  5
349
330
1F
100
AcDbEntity
  8
0
  6
Continuous
 62
     7
370
    30
100
AcDbLine
 10
344.1452517378
 20
237.2294986358
 30
0.0
 11
343.6349413747
 21
238.5447705526
 31
0.0
  0
LINE
  5
34A
330
1F
100
AcDbEntity
  8
0
  6
Continuous
 62
     7
370
    30
100
AcDbLine
 10
343.6349413747
 20
238.5447705526
 30
0.0
 11
342.6143206486
 21
239.1339623565
 31
0.0
  0
LINE
  5
34B
330
1F
100
AcDbEntity
  8
0
  6
Continuous
 62
     7
370
    30
100
AcDbLine
 10
342.6143206486
 20
239.1339623565
 30
0.0
 11
342.1040102855
 21
238.4078822436
 31
0.0
  0
LINE
  5
34C
330
1F
100
AcDbEntity
  8
0
  6
Continuous
 62
     7
370
    30
100
AcDbLine
 10
342.9855738743
 20
238.9167980708
 30
0.0
 11
343.4958842373
 21
237.601526154
 31
0.0
  0
LINE
  5
34D
330
1F
100
AcDbEntity
  8
0
  6
Continuous
 62
     7
370
    30
100
AcDbLine
 10
343.4958842375
 20
237.6015261539
 30
0.0
 11
344.1438296346
 21
237.227475238
 31
0.0
  0
LINE
  5
34E
330
1F
100
AcDbEntity
  8
0
  6
Continuous
 62
     7
370
    30
100
AcDbLine
 10
342.1040102855
 20
238.4078822436
 30
0.0
 11
342.9855738742
 21
238.9167980708
 31
0.0
  0
LINE
  5
34F
330
1F
100
AcDbEntity
  8
0
  6
Continuous
 62
     7
370
    30
100
AcDbLine
 10
343.4958842373
 20
237.601526154
 30
0.0
 11
342.6143206486
 21
237.0926103268
 31
0.0
  0
SPLINE
  5
350
330
1F
100
AcDbEntity
  8
0
  6
Continuous
 62
     7
370
    30
100
AcDbSpline
210
0.0
220
0.0
230
1.0
 70
     8
 71
     3
 72
     9
 73
     5
 74
     0
 42
0.000000001
 43
0.00000001
 40
0.0
 40
0.0
 40
0.0
 40
0.0
 40
0.552487512786373
 40
1.0
 40
1.0
 40
1.0
 40
1.0
 10
336.0077487512036
 20
182.8262117871107
 30
0.0
 10
335.9378371011719
 20
182.7956681021341
 30
0.0
 10
335.8112973180748
 20
182.7403841649053
 30
0.0
 10
335.6454929806728
 20
182.7871865553577
 30
0.0
 10
335.5712934692513
 20
182.8081312095166
 30
0.0
  0
ARC
  5
351
330
1F
100
AcDbEntity
  8
0
  6
Continuous
 62
     7
370
    30
100
AcDbCircle
 10
335.7948422562
 20
183.5863136795
 30
0.0
 40
0.789356739622048
100
AcDbArc
 50
246.5191839249
 51
285.6476960015
  0
LINE
  5
352
330
1F
100
AcDbEntity
  8
0
  6
Continuous
 62
     7
370
    30
100
AcDbLine
 10
335.4803293828
 20
182.8623207825
 30
0.0
 11
335.3761408913
 21
182.9247583517
 31
0.0
  0
LWPOLYLINE
  5
353
330
1F
100
AcDbEntity
  8
0
  6
Continuous
 62
     7
370
    30
100
AcDbPolyline
 90
        9
 70
   128
 43
0.0
 10
335.3761408913
 20
182.9247583517
 10
335.714945291
 20
182.8742762737
 10
335.9919024004
 20
182.9824197491
 10
336.1748658884
 20
183.236636596
 10
336.2425992358
 20
183.6074199389
 10
336.1872406528
 20
184.0517330627
 10
336.015215594
 20
184.5180046721
 10
335.7464909581
 20
184.9521147567
 10
335.4122575355
 20
185.3036762851
  0
LINE
  5
354
330
1F
100
AcDbEntity
  8
0
  6
Continuous
 62
     7
370
    30
100
AcDbLine
 10
335.4122575355
 20
185.3036762851
 30
0.0
 11
335.6430200252
 21
185.6985009647
 31
0.0
  0
SPLINE
  5
355
330
1F
100
AcDbEntity
  8
0
  6
Continuous
 62
     7
370
    30
100
AcDbSpline
210
0.0
220
0.0
230
1.0
 70
     8
 71
     3
 72
    16
 73
    12
 74
     0
 42
0.000000001
 43
0.00000001
 40
0.0
 40
0.0
 40
0.0
 40
0.0
 40
0.0782696309245437
 40
0.2043827934319914
 40
0.3281383400111597
 40
0.4496262972864822
 40
0.5711436410835683
 40
0.690629371947373
 40
0.8075310787845524
 40
0.9244542918099141
 40
1.0
 40
1.0
 40
1.0
 40
1.0
 10
335.736930927595
 20
182.7100257858168
 30
0.0
 10
335.8307548971647
 20
182.6780703352919
 30
0.0
 10
336.0757541997682
 20
182.594626167145
 30
0.0
 10
336.4267939297113
 20
182.6392040050617
 30
0.0
 10
336.7116588458045
 20
182.8864046840335
 30
0.0
 10
336.8509042833386
 20
183.3048944085139
 30
0.0
 10
336.8357865196022
 20
183.8398537372483
 30
0.0
 10
336.6591622279251
 20
184.4271337374056
 30
0.0
 10
336.3489462286204
 20
184.9915912997463
 30
0.0
 10
335.9919016366864
 20
185.4300819714784
 30
0.0
 10
335.7413598377519
 20
185.6228412778442
 30
0.0
 10
335.6430200252138
 20
185.6985009647051
 30
0.0
  0
LINE
  5
356
330
1F
100
AcDbEntity
  8
0
  6
Continuous
 62
     7
370
    30
100
AcDbLine
 10
335.7369309276
 20
182.7100257858
 30
0.0
 11
335.5712934693
 21
182.8081312095
 31
0.0
  0
SPLINE
  5
357
330
1F
100
AcDbEntity
  8
0
  6
Continuous
 62
     7
370
    30
100
AcDbSpline
210
0.0
220
0.0
230
1.0
 70
     8
 71
     3
 72
    12
 73
     8
 74
     0
 42
0.000000001
 43
0.00000001
 40
0.0
 40
0.0
 40
0.0
 40
0.0
 40
0.1737051674229597
 40
0.3449934157173122
 40
0.5752307779475828
 40
0.7995542829620753
 40
1.0
 40
1.0
 40
1.0
 40
1.0
 10
335.8357206951623
 20
185.6707206687112
 30
0.0
 10
335.9563004099616
 20
185.5717246882238
 30
0.0
 10
336.195782103523
 20
185.3751101490173
 30
0.0
 10
336.531292284886
 20
184.9282025091001
 30
0.0
 10
336.7940629540005
 20
184.3973384018193
 30
0.0
 10
336.9139052150439
 20
183.8428768938244
 30
0.0
 10
336.8507292741262
 20
183.5821247616138
 30
0.0
 10
336.8209169757783
 20
183.4590775976559
 30
0.0
  0
SPLINE
  5
358
330
1F
100
AcDbEntity
  8
0
  6
Continuous
 62
     7
370
    30
100
AcDbSpline
210
0.0
220
0.0
230
1.0
 70
     8
 71
     3
 72
    10
 73
     6
 74
     0
 42
0.000000001
 43
0.00000001
 40
0.0
 40
0.0
 40
0.0
 40
0.0
 40
0.2778798561011919
 40
0.5557597322314907
 40
1.0
 40
1.0
 40
1.0
 40
1.0
 10
335.9923185705719
 20
186.0692482768953
 30
0.0
 10
335.9777585731701
 20
186.0323375383734
 30
0.0
 10
335.9486385773172
 20
185.9585160586691
 30
0.0
 10
335.8963752618605
 20
185.8256773375231
 30
0.0
 10
335.8588226460532
 20
185.7297401547611
 30
0.0
 10
335.8357206951624
 20
185.6707206687113
 30
0.0
  0
SPLINE
  5
359
330
1F
100
AcDbEntity
  8
0
  6
Continuous
 62
     7
370
    30
100
AcDbSpline
210
0.0
220
0.0
230
1.0
 70
     8
 71
     3
 72
    14
 73
    10
 74
     0
 42
0.000000001
 43
0.00000001
 40
0.0
 40
0.0
 40
0.0
 40
0.0
 40
0.1275016779039431
 40
0.2526637655558574
 40
0.4121560450464192
 40
0.5675646463033615
 40
0.722973247560304
 40
0.8824655270508664
 40
1.0
 40
1.0
 40
1.0
 40
1.0
 10
335.9923185705719
 20
186.0692482768953
 30
0.0
 10
336.1489683183036
 20
185.9433295816232
 30
0.0
 10
336.4593933714162
 20
185.6938027344135
 30
0.0
 10
336.8827258143049
 20
185.1234132126982
 30
0.0
 10
337.2070991319189
 20
184.4532078166756
 30
0.0
 10
337.338552901646
 20
183.7564511552352
 30
0.0
 10
337.2459321564896
 20
183.1992142330872
 30
0.0
 10
336.980064255087
 20
182.8739447560525
 30
0.0
 10
336.7124371518765
 20
182.8490918914451
 30
0.0
 10
336.5988906793942
 20
182.8385475367314
 30
0.0
  0
LINE
  5
35A
330
1F
100
AcDbEntity
  8
0
  6
Continuous
 62
     7
370
    30
100
AcDbLine
 10
336.0541904139
 20
186.1049661318
 30
0.0
 11
335.9923185706
 21
186.0692482769
 31
0.0
  0
SPLINE
  5
35B
330
1F
100
AcDbEntity
  8
0
  6
Continuous
 62
     7
370
    30
100
AcDbSpline
210
0.0
220
0.0
230
1.0
 70
     8
 71
     3
 72
    13
 73
     9
 74
     0
 42
0.000000001
 43
0.00000001
 40
0.0
 40
0.0
 40
0.0
 40
0.0
 40
0.1458957395507666
 40
0.2891143672730704
 40
0.4716158405983361
 40
0.6494445028220086
 40
0.8272731650456815
 40
1.0
 40
1.0
 40
1.0
 40
1.0
 10
336.0541904139257
 20
186.1049661317875
 30
0.0
 10
336.2108513524983
 20
185.9790272901662
 30
0.0
 10
336.5212985819463
 20
185.7294605199332
 30
0.0
 10
336.9444521412331
 20
185.1593930340313
 30
0.0
 10
337.2696789067433
 20
184.4876512155273
 30
0.0
 10
337.3978770393745
 20
183.7967555258549
 30
0.0
 10
337.3188821191758
 20
183.2281383543986
 30
0.0
 10
337.1049638978141
 20
183.0463798722972
 30
0.0
 10
336.9995614219941
 20
182.9568232469063
 30
0.0
  0
LINE
  5
35C
330
1F
100
AcDbEntity
  8
0
  6
Continuous
 62
     7
370
    30
100
AcDbLine
 10
335.4122575355
 20
185.3036762851
 30
0.0
 11
335.3761408913
 21
182.9247583517
 31
0.0
  0
LINE
  5
35D
330
1F
100
AcDbEntity
  8
0
  6
Continuous
 62
     7
370
    30
100
AcDbLine
 10
335.8357206952
 20
185.6707206687
 30
0.0
 11
335.7119770071
 21
185.5992849581
 31
0.0
  0
LINE
  5
35E
330
1F
100
AcDbEntity
  8
0
  6
Continuous
 62
     7
370
    30
100
AcDbLine
 10
335.9073494269
 20
186.091236968
 30
0.0
 11
335.9035949717
 21
185.8439398801
 31
0.0
  0
LINE
  5
35F
330
1F
100
AcDbEntity
  8
0
  6
Continuous
 62
     7
370
    30
100
AcDbLine
 10
335.3784945294
 20
183.0797869282
 30
0.0
 11
335.3331927079
 21
182.9675391528
 31
0.0
  0
LINE
  5
360
330
1F
100
AcDbEntity
  8
0
  6
Continuous
 62
     7
370
    30
100
AcDbLine
 10
335.3331927079
 20
182.9675391528
 30
0.0
 11
335.3193229981
 21
182.9595323398
 31
0.0
  0
LINE
  5
361
330
1F
100
AcDbEntity
  8
0
  6
Continuous
 62
     7
370
    30
100
AcDbLine
 10
335.2101273029
 20
183.0241195423
 30
0.0
 11
335.3193229981
 21
182.9595323398
 31
0.0
  0
SPLINE
  5
362
330
1F
100
AcDbEntity
  8
0
  6
Continuous
 62
     7
370
    30
100
AcDbSpline
210
0.0
220
0.0
230
1.0
 70
     8
 71
     3
 72
     9
 73
     5
 74
     0
 42
0.000000001
 43
0.00000001
 40
0.0
 40
0.0
 40
0.0
 40
0.0
 40
0.2411672896818216
 40
1.0
 40
1.0
 40
1.0
 40
1.0
 10
335.2101273028778
 20
183.0241195423075
 30
0.0
 10
335.2031959677531
 20
183.034615540629
 30
0.0
 10
335.1744551914488
 20
183.0781371904157
 30
0.0
 10
335.1458603306555
 20
183.1218346151335
 30
0.0
 10
335.1241616149385
 20
183.1549936503661
 30
0.0
  0
LINE
  5
363
330
1F
100
AcDbEntity
  8
0
  6
Continuous
 62
     7
370
    30
100
AcDbLine
 10
335.1241616149
 20
183.1549936504
 30
0.0
 11
335.0561293716
 21
183.1157194723
 31
0.0
  0
LINE
  5
364
330
1F
100
AcDbEntity
  8
0
  6
Continuous
 62
     7
370
    30
100
AcDbLine
 10
334.9519408801
 20
183.1781570414
 30
0.0
 11
335.0561293716
 21
183.1157194723
 31
0.0
  0
LINE
  5
365
330
1F
100
AcDbEntity
  8
0
  6
Continuous
 62
     7
370
    30
100
AcDbLine
 10
334.9519408801
 20
183.1781570414
 30
0.0
 11
334.9880575243
 21
185.5570749748
 31
0.0
  0
LINE
  5
366
330
1F
100
AcDbEntity
  8
0
  6
Continuous
 62
     7
370
    30
100
AcDbLine
 10
335.2011611049
 20
185.9217411631
 30
0.0
 11
334.9880575243
 21
185.5570749748
 31
0.0
  0
LINE
  5
367
330
1F
100
AcDbEntity
  8
0
  6
Continuous
 62
     7
370
    30
100
AcDbLine
 10
335.2011611049
 20
185.9217411631
 30
0.0
 11
335.2577785264
 21
185.8353659001
 31
0.0
  0
LINE
  5
368
330
1F
100
AcDbEntity
  8
0
  6
Continuous
 62
     7
370
    30
100
AcDbLine
 10
335.2577785264
 20
185.8353659001
 30
0.0
 11
335.3815222145
 21
185.9068016106
 31
0.0
  0
SPLINE
  5
369
330
1F
100
AcDbEntity
  8
0
  6
Continuous
 62
     7
370
    30
100
AcDbSpline
210
0.0
220
0.0
230
1.0
 70
     8
 71
     3
 72
    10
 73
     6
 74
     0
 42
0.000000001
 43
0.00000001
 40
0.0
 40
0.0
 40
0.0
 40
0.0
 40
0.2754262180560838
 40
0.5508524355694256
 40
1.0
 40
1.0
 40
1.0
 40
1.0
 10
335.3815222144599
 20
185.9068016106429
 30
0.0
 10
335.3964213302469
 20
185.9436861625007
 30
0.0
 10
335.4262195617913
 20
186.0174552661436
 30
0.0
 10
335.4802897582007
 20
186.1513755037326
 30
0.0
 10
335.5194485160488
 20
186.2484122583038
 30
0.0
 10
335.5437221803076
 20
186.308563236799
 30
0.0
  0
LINE
  5
36A
330
1F
100
AcDbEntity
  8
0
  6
Continuous
 62
     7
370
    30
100
AcDbLine
 10
335.5437221803
 20
186.3085632368
 30
0.0
 11
335.6055940237
 21
186.3442810917
 31
0.0
  0
SPLINE
  5
36B
330
1F
100
AcDbEntity
  8
0
  6
Continuous
 62
     7
370
    30
100
AcDbSpline
210
0.0
220
0.0
230
1.0
 70
     8
 71
     3
 72
    10
 73
     6
 74
     0
 42
0.000000001
 43
0.00000001
 40
0.0
 40
0.0
 40
0.0
 40
0.0
 40
0.2778798561011884
 40
0.5557597322314988
 40
1.0
 40
1.0
 40
1.0
 40
1.0
 10
335.6055940236617
 20
186.3442810916913
 30
0.0
 10
335.6192808313143
 20
186.3236768866331
 30
0.0
 10
335.646654447606
 20
186.2824684750317
 30
0.0
 10
335.6957728034845
 20
186.2081561469781
 30
0.0
 10
335.7310507026662
 20
186.1542631255842
 30
0.0
 10
335.7527532732304
 20
186.1211087392162
 30
0.0
  0
LINE
  5
36C
330
1F
100
AcDbEntity
  8
0
  6
Continuous
 62
     7
370
    30
100
AcDbLine
 10
335.7527532732
 20
186.1211087392
 30
0.0
 11
335.7906883639
 21
186.1430082009
 31
0.0
  0
LWPOLYLINE
  5
36D
330
1F
100
AcDbEntity
  8
0
  6
Continuous
 62
     7
370
    30
100
AcDbPolyline
 90
        9
 70
   128
 43
0.0
 10
334.9880575243
 20
185.5570749748
 10
334.6492531247
 20
185.6075570528
 10
334.3722960152
 20
185.4994135775
 10
334.1893325273
 20
185.2451967305
 10
334.1215991798
 20
184.8744133877
 10
334.1769577628
 20
184.4301002639
 10
334.3489828216
 20
183.9638286545
 10
334.6177074575
 20
183.5297185698
 10
334.9519408801
 20
183.1781570414
  0
SPLINE
  5
36E
330
1F
100
AcDbEntity
  8
0
  6
Continuous
 62
     7
370
    30
100
AcDbSpline
210
0.0
220
0.0
230
1.0
 70
     8
 71
     3
 72
    12
 73
     8
 74
     0
 42
0.000000001
 43
0.00000001
 40
0.0
 40
0.0
 40
0.0
 40
0.0
 40
0.0903718331622144
 40
0.3360836089599655
 40
0.5787238197060044
 40
0.8143721523175985
 40
1.0
 40
1.0
 40
1.0
 40
1.0
 10
335.2011611048571
 20
185.9217411631478
 30
0.0
 10
335.1477294204932
 20
185.9363039830367
 30
0.0
 10
334.949022448581
 20
185.9904616214696
 30
0.0
 10
334.6312122461875
 20
185.9718622948261
 30
0.0
 10
334.3270062826053
 20
185.7616075460496
 30
0.0
 10
334.1456835862133
 20
185.4265487471139
 30
0.0
 10
334.1370925248694
 20
185.1347075353835
 30
0.0
 10
334.133307026659
 20
185.006112901904
 30
0.0
  0
SPLINE
  5
36F
330
1F
100
AcDbEntity
  8
0
  6
Continuous
 62
     7
370
    30
100
AcDbSpline
210
0.0
220
0.0
230
1.0
 70
     8
 71
     3
 72
    11
 73
     7
 74
     0
 42
0.000000001
 43
0.00000001
 40
0.0
 40
0.0
 40
0.0
 40
0.0
 40
0.2235301659633795
 40
0.5240011775488354
 40
0.7597967860199275
 40
1.0
 40
1.0
 40
1.0
 40
1.0
 10
334.2200465164503
 20
185.4868705067758
 30
0.0
 10
334.2476541502368
 20
185.6432203375516
 30
0.0
 10
334.3123721830408
 20
186.009736843648
 30
0.0
 10
334.6425834420824
 20
186.3150609946241
 30
0.0
 10
335.0720530121233
 20
186.4346965518564
 30
0.0
 10
335.3855315520072
 20
186.3508664223886
 30
0.0
 10
335.5437221803078
 20
186.308563236799
 30
0.0
  0
LINE
  5
370
330
1F
100
AcDbEntity
  8
0
  6
Continuous
 62
     7
370
    30
100
AcDbLine
 10
335.0775704346
 20
185.9519974825
 30
0.0
 11
335.3815222145
 21
185.9068016106
 31
0.0
  0
SPLINE
  5
371
330
1F
100
AcDbEntity
  8
0
  6
Continuous
 62
     7
370
    30
100
AcDbSpline
210
0.0
220
0.0
230
1.0
 70
     8
 71
     3
 72
     9
 73
     5
 74
     0
 42
0.000000001
 43
0.00000001
 40
0.0
 40
0.0
 40
0.0
 40
0.0
 40
0.8581584660475216
 40
1.0
 40
1.0
 40
1.0
 40
1.0
 10
335.2101273028778
 20
183.0241195423075
 30
0.0
 10
335.1749771499914
 20
183.050814623429
 30
0.0
 10
335.1340171708302
 20
183.0819220262896
 30
0.0
 10
335.0950191918034
 20
183.1283862453571
 30
0.0
 10
335.0894876586372
 20
183.1349768014636
 30
0.0
  0
SPLINE
  5
372
330
1F
100
AcDbEntity
  8
0
  6
Continuous
 62
     7
370
    30
100
AcDbSpline
210
0.0
220
0.0
230
1.0
 70
     8
 71
     3
 72
    10
 73
     6
 74
     0
 42
0.000000001
 43
0.00000001
 40
0.0
 40
0.0
 40
0.0
 40
0.0
 40
0.0327032382802958
 40
0.5118731810278224
 40
1.0
 40
1.0
 40
1.0
 40
1.0
 10
334.7333336269749
 20
186.3151418276052
 30
0.0
 10
334.7396489401649
 20
186.3219034167334
 30
0.0
 10
334.8384966268702
 20
186.4277362430174
 30
0.0
 10
335.1436218913266
 20
186.456591644508
 30
0.0
 10
335.4506556329402
 20
186.3819483341427
 30
0.0
 10
335.6055940236617
 20
186.3442810916913
 30
0.0
  0
LWPOLYLINE
  5
373
330
1F
100
AcDbEntity
  8
0
  6
Continuous
 62
     7
370
    30
100
AcDbPolyline
 90
        3
 70
   128
 43
0.0
 10
335.5391459523
 20
182.8543818279
 10
335.5604578799
 20
182.8237253037
 10
335.5712934693
 20
182.8081312095
  0
SPLINE
  5
374
330
1F
100
AcDbEntity
  8
0
  6
Continuous
 62
     7
370
    30
100
AcDbSpline
210
0.0
220
0.0
230
1.0
 70
     8
 71
     3
 72
     9
 73
     5
 74
     0
 42
0.000000001
 43
0.00000001
 40
0.0
 40
0.0
 40
0.0
 40
0.0
 40
0.5524875127863716
 40
1.0
 40
1.0
 40
1.0
 40
1.0
 10
362.1211866050223
 20
185.4860196248435
 30
0.0
 10
362.1026499541683
 20
185.6294363795222
 30
0.0
 10
362.0690986965835
 20
185.8890200829717
 30
0.0
 10
362.1119819444018
 20
186.177584119185
 30
0.0
 10
362.1311727332927
 20
186.3067201287512
 30
0.0
  0
ARC
  5
375
330
1F
100
AcDbEntity
  8
0
  6
Continuous
 62
     7
370
    30
100
AcDbCircle
 10
364.3585037359
 20
185.3487615432
 30
0.0
 40
2.241523527683988
100
AcDbArc
 50
157.1109865582
 51
176.4893378488
  0
LINE
  5
376
330
1F
100
AcDbEntity
  8
0
  6
Continuous
 62
     7
370
    30
100
AcDbLine
 10
362.2934777623
 20
186.2205960766
 30
0.0
 11
362.4796260862
 21
186.1218347494
 31
0.0
  0
LWPOLYLINE
  5
377
330
1F
100
AcDbEntity
  8
0
  6
Continuous
 62
     7
370
    30
100
AcDbPolyline
 90
        9
 70
   128
 43
0.0
 10
362.4796260862
 20
186.1218347494
 10
362.3511631315
 20
185.657652353
 10
362.3435421035
 20
185.2360646446
 10
362.4576475726
 20
184.906005187
 10
362.6802353503
 20
184.7057838857
 10
362.9854697378
 20
184.6586403691
 10
363.3379222682
 20
184.7700465715
 10
363.6966838788
 20
185.0270716072
 10
364.0201132134
 20
185.399882655
  0
LINE
  5
378
330
1F
100
AcDbEntity
  8
0
  6
Continuous
 62
     7
370
    30
100
AcDbLine
 10
364.0201132134
 20
185.399882655
 30
0.0
 11
363.9642619807
 21
185.4506912387
 31
0.0
  0
SPLINE
  5
379
330
1F
100
AcDbEntity
  8
0
  6
Continuous
 62
     7
370
    30
100
AcDbSpline
210
0.0
220
0.0
230
1.0
 70
     8
 71
     3
 72
    14
 73
    10
 74
     0
 42
0.000000001
 43
0.00000001
 40
0.0
 40
0.0
 40
0.0
 40
0.0
 40
0.1012951447003607
 40
0.2645085250870332
 40
0.424670721460417
 40
0.5818982446541682
 40
0.7391637993543815
 40
0.8938000772377629
 40
1.0
 40
1.0
 40
1.0
 40
1.0
 10
361.8360101964849
 20
186.4633651001452
 30
0.0
 10
361.79265936932
 20
186.3321422643982
 30
0.0
 10
361.6794588463471
 20
185.9894845897007
 30
0.0
 10
361.6240770620922
 20
185.452464619781
 30
0.0
 10
361.7244855199129
 20
184.9422958429205
 30
0.0
 10
361.9776798159378
 20
184.5875224186308
 30
0.0
 10
362.3474033610161
 20
184.4302599390917
 30
0.0
 10
362.755463241885
 20
184.454187048217
 30
0.0
 10
363.0241626024275
 20
184.6066865276213
 30
0.0
 10
363.1335640247196
 20
184.668776961748
 30
0.0
  0
LINE
  5
37A
330
1F
100
AcDbEntity
  8
0
  6
Continuous
 62
     7
370
    30
100
AcDbLine
 10
361.8360101965
 20
186.4633651001
 30
0.0
 11
362.1311727333
 21
186.3067201288
 31
0.0
  0
SPLINE
  5
37B
330
1F
100
AcDbEntity
  8
0
  6
Continuous
 62
     7
370
    30
100
AcDbSpline
210
0.0
220
0.0
230
1.0
 70
     8
 71
     3
 72
    11
 73
     7
 74
     0
 42
0.000000001
 43
0.00000001
 40
0.0
 40
0.0
 40
0.0
 40
0.0
 40
0.138523673553172
 40
0.6772674573979638
 40
0.9686248691206574
 40
1.0
 40
1.0
 40
1.0
 40
1.0
 10
362.9304469625461
 20
187.8433640226768
 30
0.0
 10
362.8893159654075
 20
187.8154281832113
 30
0.0
 10
362.6882190327482
 20
187.6788447785135
 30
0.0
 10
362.4077545245484
 20
187.4076745573564
 30
0.0
 10
362.1911516792609
 20
187.1211525403167
 30
0.0
 10
362.1163596728355
 20
187.0081213969264
 30
0.0
 10
362.1090886087792
 20
186.9971328338001
 30
0.0
  0
SPLINE
  5
37C
330
1F
100
AcDbEntity
  8
0
  6
Continuous
 62
     7
370
    30
100
AcDbSpline
210
0.0
220
0.0
230
1.0
 70
     8
 71
     3
 72
    10
 73
     6
 74
     0
 42
0.000000001
 43
0.00000001
 40
0.0
 40
0.0
 40
0.0
 40
0.0
 40
0.1434065881516367
 40
0.6552835829148708
 40
1.0
 40
1.0
 40
1.0
 40
1.0
 10
362.3036140331934
 20
186.8938932148583
 30
0.0
 10
362.3263814904446
 20
186.9469539269614
 30
0.0
 10
362.4304153507698
 20
187.1894101068836
 30
0.0
 10
362.643426914519
 20
187.5302555865833
 30
0.0
 10
362.8480864255684
 20
187.7535174105459
 30
0.0
 10
362.9304469625461
 20
187.8433640226768
 30
0.0
  0
LINE
  5
37D
330
1F
100
AcDbEntity
  8
0
  6
Continuous
 62
     7
370
    30
100
AcDbLine
 10
362.3036140332
 20
186.8938932149
 30
0.0
 11
362.1090886088
 21
186.9971328338
 31
0.0
  0
LINE
  5
37E
330
1F
100
AcDbEntity
  8
0
  6
Continuous
 62
     7
370
    30
100
AcDbLine
 10
361.3398233815
 20
186.7492613478
 30
0.0
 11
361.3508600942
 21
186.7478335833
 31
0.0
  0
LINE
  5
37F
330
1F
100
AcDbEntity
  8
0
  6
Continuous
 62
     7
370
    30
100
AcDbLine
 10
361.507603905
 20
186.6772370425
 30
0.0
 11
363.1809567046
 21
185.893017209
 31
0.0
  0
LINE
  5
380
330
1F
100
AcDbEntity
  8
0
  6
Continuous
 62
     7
370
    30
100
AcDbLine
 10
363.1836351393
 20
185.8914709815
 30
0.0
 11
363.3073788274
 21
185.8200352709
 31
0.0
  0
SPLINE
  5
381
330
1F
100
AcDbEntity
  8
0
  6
Continuous
 62
     7
370
    30
100
AcDbSpline
210
0.0
220
0.0
230
1.0
 70
     8
 71
     3
 72
    10
 73
     6
 74
     0
 42
0.000000001
 43
0.00000001
 40
0.0
 40
0.0
 40
0.0
 40
0.0
 40
0.2754262180560893
 40
0.5508524355694315
 40
0.9999999999999999
 40
0.9999999999999999
 40
0.9999999999999999
 40
0.9999999999999999
 10
363.3073788274083
 20
185.8200352709183
 30
0.0
 10
363.3403218762936
 20
185.8030249329475
 30
0.0
 10
363.4062079739992
 20
185.7690042570396
 30
0.0
 10
363.5258013556564
 20
185.7072535287865
 30
0.0
 10
363.6124445859019
 20
185.6625178194256
 30
0.0
 10
363.6661528442035
 20
185.6347871239419
 30
0.0
  0
LINE
  5
382
330
1F
100
AcDbEntity
  8
0
  6
Continuous
 62
     7
370
    30
100
AcDbLine
 10
363.6661528442
 20
185.6347871239
 30
0.0
 11
363.7280246876
 21
185.599069269
 31
0.0
  0
SPLINE
  5
383
330
1F
100
AcDbEntity
  8
0
  6
Continuous
 62
     7
370
    30
100
AcDbSpline
210
0.0
220
0.0
230
1.0
 70
     8
 71
     3
 72
    10
 73
     6
 74
     0
 42
0.000000001
 43
0.00000001
 40
0.0
 40
0.0
 40
0.0
 40
0.0
 40
0.2778798561011901
 40
0.5557597322314916
 40
1.0
 40
1.0
 40
1.0
 40
1.0
 10
363.7280246875575
 20
185.5990692690499
 30
0.0
 10
363.7235259617294
 20
185.5996432966472
 30
0.0
 10
363.7145285097488
 20
185.6007913518831
 30
0.0
 10
363.6981481950855
 20
185.6029611719487
 30
0.0
 10
363.6860515855829
 20
185.6046742659807
 30
0.0
 10
363.6786098861788
 20
185.6057281423445
 30
0.0
  0
LINE
  5
384
330
1F
100
AcDbEntity
  8
0
  6
Continuous
 62
     7
370
    30
100
AcDbLine
 10
363.6786098862
 20
185.6057281423
 30
0.0
 11
363.8023535742
 21
185.5342924318
 31
0.0
  0
LWPOLYLINE
  5
385
330
1F
100
AcDbEntity
  8
0
  6
Continuous
 62
     7
370
    30
100
AcDbPolyline
 90
        3
 70
   128
 43
0.0
 10
363.8023535742
 20
185.5342924318
 10
363.9011807729
 20
185.4832627021
 10
363.9642619807
 20
185.4506912387
  0
LINE
  5
386
330
1F
100
AcDbEntity
  8
0
  6
Continuous
 62
     7
370
    30
100
AcDbLine
 10
364.0201132134
 20
185.399882655
 30
0.0
 11
362.4796260862
 21
186.1218347494
 31
0.0
  0
LINE
  5
387
330
1F
100
AcDbEntity
  8
0
  6
Continuous
 62
     7
370
    30
100
AcDbLine
 10
362.2934777623
 20
186.2205960766
 30
0.0
 11
362.2554439885
 21
186.2425525068
 31
0.0
  0
LWPOLYLINE
  5
388
330
1F
100
AcDbEntity
  8
0
  6
Continuous
 62
     7
370
    30
100
AcDbPolyline
 90
        3
 70
   128
 43
0.0
 10
362.2554439885
 20
186.2425525068
 10
362.1566167899
 20
186.2935822365
 10
362.1311727333
 20
186.3067201288
  0
SPLINE
  5
389
330
1F
100
AcDbEntity
  8
0
  6
Continuous
 62
     7
370
    30
100
AcDbSpline
210
0.0
220
0.0
230
1.0
 70
     8
 71
     3
 72
    10
 73
     6
 74
     0
 42
0.000000001
 43
0.00000001
 40
0.0
 40
0.0
 40
0.0
 40
0.0
 40
0.2593507015191911
 40
0.5443608027561518
 40
0.9999999999999999
 40
0.9999999999999999
 40
0.9999999999999999
 40
0.9999999999999999
 10
361.8360101964849
 20
186.4633651001452
 30
0.0
 10
361.8401065057517
 20
186.4628413328227
 30
0.0
 10
361.848704401141
 20
186.461741978171
 30
0.0
 10
361.8646744863351
 20
186.45962667915
 30
0.0
 10
361.876771179104
 20
186.457913539706
 30
0.0
 10
361.8842129297325
 20
186.4568596354052
 30
0.0
  0
LINE
  5
38A
330
1F
100
AcDbEntity
  8
0
  6
Continuous
 62
     7
370
    30
100
AcDbLine
 10
361.8842129297
 20
186.4568596354
 30
0.0
 11
361.7604692417
 21
186.528295346
 31
0.0
  0
SPLINE
  5
38B
330
1F
100
AcDbEntity
  8
0
  6
Continuous
 62
     7
370
    30
100
AcDbSpline
210
0.0
220
0.0
230
1.0
 70
     8
 71
     3
 72
    10
 73
     6
 74
     0
 42
0.000000001
 43
0.00000001
 40
0.0
 40
0.0
 40
0.0
 40
0.0
 40
0.2754262180560815
 40
0.5508524355694169
 40
1.0
 40
1.0
 40
1.0
 40
1.0
 10
361.7604692416733
 20
186.5282953459709
 30
0.0
 10
361.7275261927876
 20
186.545305683941
 30
0.0
 10
361.6616400950813
 20
186.5793263598476
 30
0.0
 10
361.5420467134245
 20
186.6410770881013
 30
0.0
 10
361.4554034831789
 20
186.6858127974621
 30
0.0
 10
361.4016952248774
 20
186.7135434929457
 30
0.0
  0
LINE
  5
38C
330
1F
100
AcDbEntity
  8
0
  6
Continuous
 62
     7
370
    30
100
AcDbLine
 10
361.4016952249
 20
186.7135434929
 30
0.0
 11
361.3398233815
 21
186.7492613478
 31
0.0
  0
SPLINE
  5
38D
330
1F
100
AcDbEntity
  8
0
  6
Continuous
 62
     7
370
    30
100
AcDbSpline
210
0.0
220
0.0
230
1.0
 70
     8
 71
     3
 72
    12
 73
     8
 74
     0
 42
0.000000001
 43
0.00000001
 40
0.0
 40
0.0
 40
0.0
 40
0.0
 40
0.005061139314647
 40
0.2805898568761562
 40
0.5490638716631071
 40
0.8175378864500574
 40
1.0
 40
1.0
 40
1.0
 40
1.0
 10
362.9304469625461
 20
187.8433640226768
 30
0.0
 10
362.9337390651401
 20
187.8457251047111
 30
0.0
 10
363.1162534237149
 20
187.9766236295052
 30
0.0
 10
363.4817382921391
 20
188.1485668779297
 30
0.0
 10
363.9371494774366
 20
188.102380944505
 30
0.0
 10
364.2370095576432
 20
187.840031767011
 30
0.0
 10
364.2742641141311
 20
187.525070568624
 30
0.0
 10
364.289338411108
 20
187.3976279390972
 30
0.0
  0
SPLINE
  5
38E
330
1F
100
AcDbEntity
  8
0
  6
Continuous
 62
     7
370
    30
100
AcDbSpline
210
0.0
220
0.0
230
1.0
 70
     8
 71
     3
 72
    12
 73
     8
 74
     0
 42
0.000000001
 43
0.00000001
 40
0.0
 40
0.0
 40
0.0
 40
0.0
 40
0.2098637089367294
 40
0.4168073918312957
 40
0.6949710612848149
 40
0.9659898424898361
 40
1.0
 40
1.0
 40
1.0
 40
1.0
 10
362.5102626687514
 20
186.7874076629058
 30
0.0
 10
362.6015533244628
 20
186.9217241893643
 30
0.0
 10
362.7828644253596
 20
187.188488373399
 30
0.0
 10
363.1485091515451
 20
187.5146594789703
 30
0.0
 10
363.532788637386
 20
187.6924334318677
 30
0.0
 10
363.8255466076452
 20
187.7146163245738
 30
0.0
 10
363.9130010591497
 20
187.6185537862625
 30
0.0
 10
363.9227520673103
 20
187.6078429924848
 30
0.0
  0
SPLINE
  5
38F
330
1F
100
AcDbEntity
  8
0
  6
Continuous
 62
     7
370
    30
100
AcDbSpline
210
0.0
220
0.0
230
1.0
 70
     8
 71
     3
 72
     9
 73
     5
 74
     0
 42
0.000000001
 43
0.00000001
 40
0.0
 40
0.0
 40
0.0
 40
0.0
 40
0.2411672896818217
 40
1.0
 40
1.0
 40
1.0
 40
1.0
 10
362.3036140331934
 20
186.8938932148583
 30
0.0
 10
362.3202383078367
 20
186.8853251045048
 30
0.0
 10
362.3891708511563
 20
186.8497974408452
 30
0.0
 10
362.4580186823827
 20
186.8143251770122
 30
0.0
 10
362.5102626687517
 20
186.7874076629066
 30
0.0
  0
SPLINE
  5
390
330
1F
100
AcDbEntity
  8
0
  6
Continuous
 62
     7
370
    30
100
AcDbSpline
210
0.0
220
0.0
230
1.0
 70
     8
 71
     3
 72
     9
 73
     5
 74
     0
 42
0.000000001
 43
0.00000001
 40
0.0
 40
0.0
 40
0.0
 40
0.0
 40
0.9598399560764862
 40
1.0
 40
1.0
 40
1.0
 40
1.0
 10
363.1845324553719
 20
185.8913414268495
 30
0.0
 10
363.282130529299
 20
186.0240593443457
 30
0.0
 10
363.3838121412273
 20
186.1623302265444
 30
0.0
 10
363.4625918031543
 20
186.3145862355466
 30
0.0
 10
363.4657555978376
 20
186.3207008435557
 30
0.0
  0
SPLINE
  5
391
330
1F
100
AcDbEntity
  8
0
  6
Continuous
 62
     7
370
    30
100
AcDbSpline
210
0.0
220
0.0
230
1.0
 70
     8
 71
     3
 72
    10
 73
     6
 74
     0
 42
0.000000001
 43
0.00000001
 40
0.0
 40
0.0
 40
0.0
 40
0.0
 40
0.3681990854248623
 40
0.731275079660778
 40
1.0
 40
1.0
 40
1.0
 40
1.0
 10
362.0152879219213
 20
187.0731505020445
 30
0.0
 10
362.1065110977003
 20
187.206265413834
 30
0.0
 10
362.2876881776425
 20
187.4706430876966
 30
0.0
 10
362.5884766918592
 20
187.7543302460208
 30
0.0
 10
362.7713269059654
 20
187.8281967899716
 30
0.0
 10
362.8490988877498
 20
187.8596145683904
 30
0.0
  0
SPLINE
  5
392
330
1F
100
AcDbEntity
  8
0
  6
Continuous
 62
     7
370
    30
100
AcDbSpline
210
0.0
220
0.0
230
1.0
 70
     8
 71
     3
 72
    12
 73
     8
 74
     0
 42
0.000000001
 43
0.00000001
 40
0.0
 40
0.0
 40
0.0
 40
0.0
 40
0.185912820149779
 40
0.3684142356114005
 40
0.6009732102042394
 40
0.827577689534916
 40
1.0
 40
1.0
 40
1.0
 40
1.0
 10
361.6621159955639
 20
187.2551646310477
 30
0.0
 10
361.780651788943
 20
187.4323305403924
 30
0.0
 10
362.0155483048216
 20
187.7834114557109
 30
0.0
 10
362.485273312035
 20
188.1968949259277
 30
0.0
 10
362.9804217793908
 20
188.4282489222047
 30
0.0
 10
363.4236736834469
 20
188.4119344598018
 30
0.0
 10
363.5833568893264
 20
188.2040074357298
 30
0.0
 10
363.6523571369397
 20
188.1141606915627
 30
0.0
  0
SPLINE
  5
393
330
1F
100
AcDbEntity
  8
0
  6
Continuous
 62
     7
370
    30
100
AcDbSpline
210
0.0
220
0.0
230
1.0
 70
     8
 71
     3
 72
    10
 73
     6
 74
     0
 42
0.000000001
 43
0.00000001
 40
0.0
 40
0.0
 40
0.0
 40
0.0
 40
0.2778798561011958
 40
0.5557597322314907
 40
1.0
 40
1.0
 40
1.0
 40
1.0
 10
361.6621159955639
 20
187.2551646310477
 30
0.0
 10
361.6948615264466
 20
187.2382840699868
 30
0.0
 10
361.760352590572
 20
187.2045229466482
 30
0.0
 10
361.8781145765706
 20
187.1438267334902
 30
0.0
 10
361.9630417010621
 20
187.1000694780902
 30
0.0
 10
362.0152879219212
 20
187.0731505020445
 30
0.0
  0
SPLINE
  5
394
330
1F
100
AcDbEntity
  8
0
  6
Continuous
 62
     7
370
    30
100
AcDbSpline
210
0.0
220
0.0
230
1.0
 70
     8
 71
     3
 72
    12
 73
     8
 74
     0
 42
0.000000001
 43
0.00000001
 40
0.0
 40
0.0
 40
0.0
 40
0.0
 40
0.2173809039949857
 40
0.430772980138258
 40
0.7026954870875373
 40
0.9676556255359299
 40
1.0
 40
1.0
 40
1.0
 40
1.0
 10
362.0952188990407
 20
187.005139646802
 30
0.0
 10
362.2136445283726
 20
187.1821246725955
 30
0.0
 10
362.4483227376107
 20
187.5328471399318
 30
0.0
 10
362.9198086975464
 20
187.9492220015801
 30
0.0
 10
363.4065557162465
 20
188.1667812625721
 30
0.0
 10
363.770965293475
 20
188.1915628025193
 30
0.0
 10
363.8808474200208
 20
188.0724159764571
 30
0.0
 10
363.8928017244243
 20
188.0594537461814
 30
0.0
  0
LINE
  5
395
330
1F
100
AcDbEntity
  8
0
  6
Continuous
 62
     7
370
    30
100
AcDbLine
 10
362.095218899
 20
187.0051396468
 30
0.0
 11
362.1090886088
 21
186.9971328338
 31
0.0
  0
LWPOLYLINE
  5
396
330
1F
100
AcDbEntity
  8
0
  6
Continuous
 62
     7
370
    30
100
AcDbPolyline
 90
        9
 70
   128
 43
0.0
 10
364.3049303632
 20
185.9274200633
 10
364.4333933179
 20
186.3916024597
 10
364.4410143459
 20
186.8131901681
 10
364.3269088768
 20
187.1432496257
 10
364.1043210991
 20
187.343470927
 10
363.7990867116
 20
187.3906144436
 10
363.4466341812
 20
187.2792082412
 10
363.0878725706
 20
187.0221832055
 10
362.764443236
 20
186.6493721577
  0
ARC
  5
397
330
1F
100
AcDbEntity
  8
0
  6
Continuous
 62
     7
370
    30
100
AcDbCircle
 10
364.4122377067
 20
185.5536495719
 30
0.0
 40
2.188638387633924
100
AcDbArc
 50
118.5359809122
 51
146.9229908445
  0
SPLINE
  5
398
330
1F
100
AcDbEntity
  8
0
  6
Continuous
 62
     7
370
    30
100
AcDbSpline
210
0.0
220
0.0
230
1.0
 70
     8
 71
     3
 72
    12
 73
     8
 74
     0
 42
0.000000001
 43
0.00000001
 40
0.0
 40
0.0
 40
0.0
 40
0.0
 40
0.1661154793266615
 40
0.3947075442633634
 40
0.6233203296820181
 40
0.8495906472605432
 40
1.0
 40
1.0
 40
1.0
 40
1.0
 10
364.4378406363593
 20
186.8372989148476
 30
0.0
 10
364.4367642767247
 20
186.9480077455998
 30
0.0
 10
364.4342067350082
 20
187.2110633674576
 30
0.0
 10
364.2693743038517
 20
187.4915546670269
 30
0.0
 10
363.9914551623803
 20
187.6515841473491
 30
0.0
 10
363.668805148565
 20
187.6329742046097
 30
0.0
 10
363.4529097539212
 20
187.5210842443103
 30
0.0
 10
363.366702057763
 20
187.4764062384799
 30
0.0
  0
LINE
  5
399
330
1F
100
AcDbEntity
  8
0
  6
Continuous
 62
     7
370
    30
100
AcDbLine
 10
362.764443236
 20
186.6493721577
 30
0.0
 11
362.5782949121
 21
186.7481334848
 31
0.0
  0
LINE
  5
39A
330
1F
100
AcDbEntity
  8
0
  6
Continuous
 62
     7
370
    30
100
AcDbLine
 10
362.121186605
 20
185.4860196248
 30
0.0
 11
362.2554439885
 21
186.2425525068
 31
0.0
  0
SPLINE
  5
39B
330
1F
100
AcDbEntity
  8
0
  6
Continuous
 62
     7
370
    30
100
AcDbSpline
210
0.0
220
0.0
230
1.0
 70
     8
 71
     3
 72
    12
 73
     8
 74
     0
 42
0.000000001
 43
0.00000001
 40
0.0
 40
0.0
 40
0.0
 40
0.0
 40
0.2173809039949868
 40
0.4307729801382581
 40
0.7026954870875379
 40
0.9676556255359263
 40
1.0
 40
1.0
 40
1.0
 40
1.0
 10
361.6002441522101
 20
187.29088248594
 30
0.0
 10
361.718669781542
 20
187.4678675117335
 30
0.0
 10
361.9533479907801
 20
187.8185899790698
 30
0.0
 10
362.4248339507158
 20
188.234964840718
 30
0.0
 10
362.9115809694159
 20
188.45252410171
 30
0.0
 10
363.2759905466444
 20
188.4773056416573
 30
0.0
 10
363.3858726731901
 20
188.358158815595
 30
0.0
 10
363.3978269775937
 20
188.3451965853193
 30
0.0
  0
LINE
  5
39C
330
1F
100
AcDbEntity
  8
0
  6
Continuous
 62
     7
370
    30
100
AcDbLine
 10
361.6002441522
 20
187.2908824859
 30
0.0
 11
361.6621159956
 21
187.255164631
 31
0.0
  0
LINE
  5
39D
330
1F
100
AcDbEntity
  8
0
  6
Continuous
 62
     7
370
    30
100
AcDbLine
 10
362.5102626688
 20
186.7874076629
 30
0.0
 11
362.5782949121
 21
186.7481334848
 31
0.0
  0
SPLINE
  5
39E
330
1F
100
AcDbEntity
  8
0
  6
Continuous
 62
     7
370
    30
100
AcDbSpline
210
0.0
220
0.0
230
1.0
 70
     8
 71
     3
 72
    10
 73
     6
 74
     0
 42
0.000000001
 43
0.00000001
 40
0.0
 40
0.0
 40
0.0
 40
0.0
 40
0.1102946109378923
 40
0.5520308025507948
 40
1.0
 40
1.0
 40
1.0
 40
1.0
 10
361.6603971028047
 20
185.5459120095357
 30
0.0
 10
361.6505156563275
 20
185.5745781256451
 30
0.0
 10
361.6010584545402
 20
185.7180536676262
 30
0.0
 10
361.6330551703248
 20
186.0668309569913
 30
0.0
 10
361.717799985741
 20
186.3737571390947
 30
0.0
 10
361.760469241673
 20
186.5282953459701
 30
0.0
  0
SPLINE
  5
39F
330
1F
100
AcDbEntity
  8
0
  6
Continuous
 62
     7
370
    30
100
AcDbSpline
210
0.0
220
0.0
230
1.0
 70
     8
 71
     3
 72
    12
 73
     8
 74
     0
 42
0.000000001
 43
0.00000001
 40
0.0
 40
0.0
 40
0.0
 40
0.0
 40
0.14872193953628
 40
0.3818159729984658
 40
0.6210350280047451
 40
0.8087629633401726
 40
0.9999999999999999
 40
0.9999999999999999
 40
0.9999999999999999
 40
0.9999999999999999
 10
362.0673843796395
 20
184.5896413307951
 30
0.0
 10
361.954917417781
 20
184.595358503064
 30
0.0
 10
361.6661793700789
 20
184.6100362816047
 30
0.0
 10
361.3485829486505
 20
184.949382761978
 30
0.0
 10
361.1853359804747
 20
185.487054098704
 30
0.0
 10
361.2100457526364
 20
186.1095644588269
 30
0.0
 10
361.337418921756
 20
186.5109781583165
 30
0.0
 10
361.4016952248774
 20
186.713543492946
 30
0.0
  0
LINE
  5
3A0
330
1F
100
AcDbEntity
  8
0
  6
Continuous
 62
     7
370
    30
100
AcDbLine
 10
362.764443236
 20
186.6493721577
 30
0.0
 11
364.3049303632
 21
185.9274200633
 31
0.0
  0
SPLINE
  5
3A1
330
1F
100
AcDbEntity
  8
0
  6
Continuous
 62
     7
370
    30
100
AcDbSpline
210
0.0
220
0.0
230
1.0
 70
     8
 71
     3
 72
    11
 73
     7
 74
     0
 42
0.000000001
 43
0.00000001
 40
0.0
 40
0.0
 40
0.0
 40
0.0
 40
0.2487041225236449
 40
0.5394335525798521
 40
0.7675844231042122
 40
1.0
 40
1.0
 40
1.0
 40
1.0
 10
361.6380948699322
 20
184.7135234959569
 30
0.0
 10
361.5212344095183
 20
184.7994392027607
 30
0.0
 10
361.2677667440952
 20
184.9857884054731
 30
0.0
 10
361.1260457647039
 20
185.527648505474
 30
0.0
 10
361.1475819374693
 20
186.1441641116683
 30
0.0
 10
361.2753485401058
 20
186.5463209853356
 30
0.0
 10
361.3398233815236
 20
186.7492613478382
 30
0.0
  0
LINE
  5
3A2
330
1F
100
AcDbEntity
  8
0
  6
Continuous
 62
     7
370
    30
100
AcDbLine
 10
361.610403203
 20
187.2900774481
 30
0.0
 11
361.3592946437
 21
186.7467424476
 31
0.0
  0
ARC
  5
3A3
330
1F
100
AcDbEntity
  8
0
  6
Continuous
 62
     7
370
    30
100
AcDbCircle
 10
388.219585414
 20
186.7434057909
 30
0.0
 40
2.190848868964151
100
AcDbArc
 50
291.3125518932
 51
68.6874481068
  0
LINE
  5
3A4
330
1F
100
AcDbEntity
  8
0
  6
Continuous
 62
     7
370
    30
100
AcDbLine
 10
350.1249881454
 20
162.2511624362
 30
0.0
 11
389.0158611107
 21
184.7023855114
 31
0.0
  0
ARC
  5
3A5
330
1F
100
AcDbEntity
  8
0
  6
Continuous
 62
     7
370
    30
100
AcDbCircle
 10
346.5894542395
 20
169.0372312452
 30
0.0
 40
7.651844867748221
100
AcDbArc
 50
242.4805390039
 51
297.5194609961
  0
LINE
  5
3A6
330
1F
100
AcDbEntity
  8
0
  6
Continuous
 62
     7
370
    30
100
AcDbLine
 10
304.1630473683
 20
184.7023855114
 30
0.0
 11
343.0539203335
 21
162.2511624362
 31
0.0
  0
ARC
  5
3A7
330
1F
100
AcDbEntity
  8
0
  6
Continuous
 62
     7
370
    30
100
AcDbCircle
 10
304.9593230649
 20
186.7434057909
 30
0.0
 40
2.190848868964204
100
AcDbArc
 50
111.3125518932
 51
248.6874481068
  0
LINE
  5
3A8
330
1F
100
AcDbEntity
  8
0
  6
Continuous
 62
     7
370
    30
100
AcDbLine
 10
322.9013770697
 20
199.6018335521
 30
0.0
 11
304.1630473683
 21
188.7844260705
 31
0.0
  0
LINE
  5
3A9
330
1F
100
AcDbEntity
  8
0
  6
Continuous
 62
     7
370
    30
100
AcDbLine
 10
389.0158611107
 20
188.7844260705
 30
0.0
 11
372.3988517528
 21
198.3772213844
 31
0.0
  0
LWPOLYLINE
  5
3AA
330
1F
100
AcDbEntity
  8
0
  6
Continuous
 62
     7
370
    30
100
AcDbPolyline
 90
       38
 70
   128
 43
0.0
 10
306.7793424587
 20
184.4982834834
 10
307.4925423824
 20
184.1511500123
 10
308.2971068036
 20
183.8785910202
 10
309.1698898686
 20
183.6884475331
 10
310.0857831977
 20
183.5861896329
 10
311.0184382075
 20
183.5747590933
 10
311.9410241114
 20
183.65448475
 10
312.8269997927
 20
183.8230730411
 10
313.650877344
 20
184.0756739883
 10
314.3889553084
 20
184.4050207224
 10
315.0200005266
 20
184.8016385375
 10
315.5258589765
 20
185.254117461
 10
315.8919780317
 20
185.7494404983
 10
316.1078251134
 20
186.2733581073
 10
316.1671906941
 20
186.8107981323
 10
316.0683669342
 20
187.3462994024
 10
315.8141968134
 20
187.864456521
 10
315.4119923431
 20
188.3503630512
 10
314.8733242137
 20
188.7900403468
 10
314.2136889266
 20
189.1708396925
 10
313.452062988
 20
189.4818061844
 10
312.6103569894
 20
189.7139938829
 10
311.71278528
 20
189.8607231704
 10
310.7851693635
 20
189.9177729127
 10
309.8541950611
 20
189.8835018924
 10
308.9466448083
 20
189.7588960244
 10
308.0886271737
 20
189.5475399927
 10
307.3048257622
 20
189.2555141255
 10
306.6177891135
 20
188.8912194753
 10
306.0472820212
 20
188.4651361359
 10
305.6097169354
 20
187.9895217492
 10
305.317681807
 20
187.4780588752
 10
305.1795779551
 20
186.9454613696
 10
305.1993783759
 20
186.4070510928
 10
305.3765134474
 20
185.8783171283
 10
305.7058873162
 20
185.3744701896
 10
306.1780244956
 20
184.9100050357
 10
306.7793424587
 20
184.4982834834
  0
LWPOLYLINE
  5
3AB
330
1F
100
AcDbEntity
  8
0
  6
Continuous
 62
     7
370
    30
100
AcDbPolyline
 90
       38
 70
   128
 43
0.0
 10
378.6213914272
 20
184.4982834834
 10
379.334591351
 20
184.1511500123
 10
380.1391557721
 20
183.8785910202
 10
381.0119388371
 20
183.6884475331
 10
381.9278321663
 20
183.5861896329
 10
382.8604871761
 20
183.5747590933
 10
383.78307308
 20
183.65448475
 10
384.6690487612
 20
183.8230730411
 10
385.4929263126
 20
184.0756739883
 10
386.231004277
 20
184.4050207224
 10
386.8620494951
 20
184.8016385375
 10
387.3679079451
 20
185.254117461
 10
387.7340270002
 20
185.7494404983
 10
387.9498740819
 20
186.2733581073
 10
388.0092396627
 20
186.8107981323
 10
387.9104159028
 20
187.3462994024
 10
387.6562457819
 20
187.864456521
 10
387.2540413116
 20
188.3503630512
 10
386.7153731823
 20
188.7900403468
 10
386.0557378952
 20
189.1708396925
 10
385.2941119565
 20
189.4818061844
 10
384.452405958
 20
189.7139938829
 10
383.5548342485
 20
189.8607231704
 10
382.6272183321
 20
189.9177729127
 10
381.6962440296
 20
189.8835018924
 10
380.7886937769
 20
189.7588960244
 10
379.9306761422
 20
189.5475399927
 10
379.1468747308
 20
189.2555141255
 10
378.4598380821
 20
188.8912194753
 10
377.8893309897
 20
188.4651361359
 10
377.4517659039
 20
187.9895217492
 10
377.1597307756
 20
187.4780588752
 10
377.0216269237
 20
186.9454613696
 10
377.0414273445
 20
186.4070510928
 10
377.218562416
 20
185.8783171283
 10
377.5479362847
 20
185.3744701896
 10
378.0200734641
 20
184.9100050357
 10
378.6213914272
 20
184.4982834834
  0
LWPOLYLINE
  5
3AC
330
1F
100
AcDbEntity
  8
0
  6
Continuous
 62
     7
370
    30
100
AcDbPolyline
 90
       38
 70
   128
 43
0.0
 10
342.7003669429
 20
163.7615174431
 10
343.4135668667
 20
163.414383972
 10
344.2181312878
 20
163.1418249799
 10
345.0909143528
 20
162.9516814928
 10
346.006807682
 20
162.8494235926
 10
346.9394626918
 20
162.837993053
 10
347.8620485957
 20
162.9177187097
 10
348.7480242769
 20
163.0863070008
 10
349.5719018283
 20
163.338907948
 10
350.3099797927
 20
163.6682546821
 10
350.9410250109
 20
164.0648724972
 10
351.4468834608
 20
164.5173514207
 10
351.8130025159
 20
165.012674458
 10
352.0288495977
 20
165.536592067
 10
352.0882151784
 20
166.074032092
 10
351.9893914185
 20
166.6095333621
 10
351.7352212976
 20
167.1276904807
 10
351.3330168273
 20
167.6135970109
 10
350.794348698
 20
168.0532743065
 10
350.1347134109
 20
168.4340736522
 10
349.3730874723
 20
168.7450401441
 10
348.5313814737
 20
168.9772278426
 10
347.6338097642
 20
169.1239571301
 10
346.7061938478
 20
169.1810068724
 10
345.7752195454
 20
169.1467358521
 10
344.8676692926
 20
169.0221299841
 10
344.0096516579
 20
168.8107739524
 10
343.2258502465
 20
168.5187480852
 10
342.5388135978
 20
168.154453435
 10
341.9683065054
 20
167.7283700956
 10
341.5307414197
 20
167.2527557089
 10
341.2387062913
 20
166.7412928349
 10
341.1006024394
 20
166.2086953293
 10
341.1204028602
 20
165.6702850525
 10
341.2975379317
 20
165.141551088
 10
341.6269118004
 20
164.6377041493
 10
342.0990489799
 20
164.1732389954
 10
342.7003669429
 20
163.7615174431
  0
LINE
  5
3AD
330
1F
100
AcDbEntity
  8
0
  6
Continuous
 62
     7
370
    30
100
AcDbLine
 10
350.1249881454
 20
162.2511624362
 30
0.0
 11
350.1249881454
 21
154.0857543174
 31
0.0
  0
ARC
  5
3AE
330
1F
100
AcDbEntity
  8
0
  6
Continuous
 62
     7
370
    30
100
AcDbCircle
 10
346.5894542395
 20
160.8718231264
 30
0.0
 40
7.651844867748021
100
AcDbArc
 50
242.4805390039
 51
297.5194609961
  0
LINE
  5
3AF
330
1F
100
AcDbEntity
  8
0
  6
Continuous
 62
     7
370
    30
100
AcDbLine
 10
343.0539203335
 20
154.0857543174
 30
0.0
 11
343.0539203335
 21
162.2511624362
 31
0.0
  0
ARC
  5
3B0
330
1F
100
AcDbEntity
  8
0
  6
Continuous
 62
     7
370
    30
100
AcDbCircle
 10
346.5894542395
 20
155.1125239386
 30
0.0
 40
8.851066055221057
100
AcDbArc
 50
69.3276398296
 51
110.6723601704
  0
LINE
  5
3B1
330
1F
100
AcDbEntity
  8
0
  6
Continuous
 62
     7
370
    30
100
AcDbLine
 10
389.0158611107
 20
176.5369773925
 30
0.0
 11
389.0158611107
 21
184.7023855114
 31
0.0
  0
LINE
  5
3B2
330
1F
100
AcDbEntity
  8
0
  6
Continuous
 62
     7
370
    30
100
AcDbLine
 10
350.1249881454
 20
154.0857543174
 30
0.0
 11
389.0158611107
 21
176.5369773925
 31
0.0
  0
LINE
  5
3B3
330
1F
100
AcDbEntity
  8
0
  6
Continuous
 62
     7
370
    30
100
AcDbLine
 10
304.1630473683
 20
176.5369773925
 30
0.0
 11
343.0539203335
 21
154.0857543174
 31
0.0
  0
LINE
  5
3B4
330
1F
100
AcDbEntity
  8
0
  6
Continuous
 62
     7
370
    30
100
AcDbLine
 10
304.1630473683
 20
184.7023855114
 30
0.0
 11
304.1630473683
 21
176.5369773925
 31
0.0
  0
ARC
  5
3B5
330
1F
100
AcDbEntity
  8
0
  6
Continuous
 62
     7
370
    30
100
AcDbCircle
 10
382.5104787237
 20
175.8492899789
 30
0.0
 40
8.851066055220294
100
AcDbArc
 50
69.3276398296
 51
110.6723601704
  0
ARC
  5
3B6
330
1F
100
AcDbEntity
  8
0
  6
Continuous
 62
     7
370
    30
100
AcDbCircle
 10
310.6684297552
 20
175.8492899789
 30
0.0
 40
8.851066055220725
100
AcDbArc
 50
69.3276398296
 51
110.6723601704
  0
ARC
  5
3B7
330
1F
100
AcDbEntity
  8
0
  6
Continuous
 62
     7
370
    30
100
AcDbCircle
 10
387.9809955588
 20
178.8254102516
 30
0.0
 40
2.51154766248444
100
AcDbArc
 50
294.333235592
 51
354.3466234504
  0
ARC
  5
3B8
330
1F
100
AcDbEntity
  8
0
  6
Continuous
 62
     7
370
    30
100
AcDbCircle
 10
305.1374625113
 20
178.7820360749
 30
0.0
 40
2.447401348072144
100
AcDbArc
 50
184.7822660226
 51
246.537874935
  0
LINE
  5
3B9
330
1F
100
AcDbEntity
  8
0
  6
Continuous
 62
     7
370
    30
100
AcDbLine
 10
358.3981374853
 20
205.8098527036
 30
0.0
 11
366.5298654689
 21
210.5041993465
 31
0.0
  0
LINE
  5
3BA
330
1F
100
AcDbEntity
  8
0
  6
Continuous
 62
     7
370
    30
100
AcDbLine
 10
354.509394991
 20
239.9009955751
 30
0.0
 11
366.5298654689
 21
246.8402654755
 31
0.0
  0
LINE
  5
3BB
330
1F
100
AcDbEntity
  8
0
  6
Continuous
 62
     7
370
    30
100
AcDbLine
 10
366.5298654689
 20
210.5041993465
 30
0.0
 11
366.5298654689
 21
246.8402654755
 31
0.0
  0
LINE
  5
3BC
330
1F
100
AcDbEntity
  8
0
  6
Continuous
 62
     7
370
    30
100
AcDbLine
 10
336.8317254613
 20
250.1060969728
 30
0.0
 11
348.8521959393
 21
257.0453668732
 31
0.0
  0
LINE
  5
3BD
330
1F
100
AcDbEntity
  8
0
  6
Continuous
 62
     7
370
    30
100
AcDbLine
 10
366.5298654689
 20
246.8402654755
 30
0.0
 11
348.8521959393
 21
257.0453668732
 31
0.0
  0
LINE
  5
3BE
330
1F
100
AcDbEntity
  8
0
  6
Continuous
 62
     7
370
    30
100
AcDbLine
 10
354.1554967982
 20
183.7647768334
 30
0.0
 11
358.3981374853
 21
186.2140011688
 31
0.0
  0
LINE
  5
3BF
330
1F
100
AcDbEntity
  8
0
  6
Continuous
 62
     7
370
    30
100
AcDbLine
 10
354.1554967982
 20
183.7647768334
 30
0.0
 11
354.1554967982
 21
235.2068479822
 31
0.0
  0
LINE
  5
3C0
330
1F
100
AcDbEntity
  8
0
  6
Continuous
 62
     7
370
    30
100
AcDbLine
 10
354.1554967982
 20
235.2068479822
 30
0.0
 11
358.3981374853
 21
237.6560723176
 31
0.0
  0
LINE
  5
3C1
330
1F
100
AcDbEntity
  8
0
  6
Continuous
 62
     7
370
    30
100
AcDbLine
 10
358.3981374853
 20
186.2140011688
 30
0.0
 11
358.3981374853
 21
237.6560723176
 31
0.0
  0
LINE
  5
3C2
330
1F
100
AcDbEntity
  8
0
  6
Continuous
 62
     7
370
    30
100
AcDbLine
 10
354.1554967982
 20
235.2068479822
 30
0.0
 11
327.9925458943
 21
250.3103980509
 31
0.0
  0
LINE
  5
3C3
330
1F
100
AcDbEntity
  8
0
  6
Continuous
 62
     7
370
    30
100
AcDbLine
 10
327.9925458943
 20
250.3103980509
 30
0.0
 11
332.2351865814
 21
252.7596223864
 31
0.0
  0
LINE
  5
3C4
330
1F
100
AcDbEntity
  8
0
  6
Continuous
 62
     7
370
    30
100
AcDbLine
 10
358.3981374853
 20
237.6560723176
 30
0.0
 11
332.2351865814
 21
252.7596223864
 31
0.0
  0
LINE
  5
3C5
330
1F
100
AcDbEntity
  8
0
  6
Continuous
 62
     7
370
    30
100
AcDbLine
 10
327.9925458943
 20
250.3103980509
 30
0.0
 11
327.9925458943
 21
210.7083013745
 31
0.0
  0
LINE
  5
3C6
330
1F
100
AcDbEntity
  8
0
  6
Continuous
 62
     7
370
    30
100
AcDbLine
 10
353.3069686607
 20
184.2546217005
 30
0.0
 11
354.1554967982
 21
183.7647768334
 31
0.0
  0
LWPOLYLINE
  5
3C7
330
1F
100
AcDbEntity
  8
0
  6
Continuous
 62
     7
370
    30
100
AcDbPolyline
 90
       30
 70
   128
 43
0.0
 10
345.139885338
 20
236.3287456356
 10
345.0861571063
 20
236.9302417314
 10
344.9274846837
 20
237.5656458341
 10
344.6712874161
 20
238.2052471541
 10
344.3295448032
 20
238.8191386446
 10
343.9182363497
 20
239.3786154218
 10
343.4565943818
 20
239.8575169734
 10
342.9662047647
 20
240.233450395
 10
342.469997572
 20
240.4888374578
 10
341.9911749004
 20
240.6117365465
 10
341.552125966
 20
240.5964010363
 10
341.173380209
 20
240.4435479986
 10
340.8726473599
 20
240.1603246715
 10
340.6639893526
 20
239.7599742632
 10
340.5571628036
 20
239.2612167137
 10
340.5571628036
 20
238.6873733716
 10
340.6639893526
 20
238.0652765139
 10
340.8726473599
 20
237.4240146983
 10
341.173380209
 20
236.7935726145
 10
341.552125966
 20
236.2034290337
 10
341.9911749004
 20
235.6811784138
 10
342.469997572
 20
235.2512406134
 10
342.9662047647
 20
234.9337190462
 10
343.4565943818
 20
234.7434606677
 10
343.9182363497
 20
234.6893617483
 10
344.3295448032
 20
234.7739518933
 10
344.6712874161
 20
234.9932757616
 10
344.9274846837
 20
235.3370780128
 10
345.0861571063
 20
235.7892828358
 10
345.139885338
 20
236.3287456356
  0
LWPOLYLINE
  5
3C8
330
1F
100
AcDbEntity
  8
0
  6
Continuous
 62
     7
370
    30
100
AcDbPolyline
 90
       30
 70
   128
 43
0.0
 10
338.0688175262
 20
240.4107861947
 10
338.0150892945
 20
241.0122822905
 10
337.8564168718
 20
241.6476863932
 10
337.6002196043
 20
242.2872877132
 10
337.2584769914
 20
242.9011792037
 10
336.8471685379
 20
243.4606559809
 10
336.3855265699
 20
243.9395575325
 10
335.8951369528
 20
244.3154909542
 10
335.3989297601
 20
244.5708780169
 10
334.9201070886
 20
244.6937771056
 10
334.4810581542
 20
244.6784415954
 10
334.1023123971
 20
244.5255885577
 10
333.801579548
 20
244.2423652307
 10
333.5929215407
 20
243.8420148223
 10
333.4860949918
 20
243.3432572728
 10
333.4860949918
 20
242.7694139307
 10
333.5929215407
 20
242.1473170731
 10
333.801579548
 20
241.5060552574
 10
334.1023123971
 20
240.8756131737
 10
334.4810581542
 20
240.2854695928
 10
334.9201070886
 20
239.763218973
 10
335.3989297601
 20
239.3332811725
 10
335.8951369528
 20
239.0157596053
 10
336.3855265699
 20
238.8255012268
 10
336.8471685379
 20
238.7714023074
 10
337.2584769914
 20
238.8559924524
 10
337.6002196043
 20
239.0753163207
 10
337.8564168718
 20
239.4191185719
 10
338.0150892945
 20
239.8713233949
 10
338.0688175262
 20
240.4107861947
  0
LINE
  5
3C9
330
1F
100
AcDbEntity
  8
0
  6
Continuous
 62
     7
370
    30
100
AcDbLine
 10
340.5790465994
 20
197.5641307742
 30
0.0
 11
340.5790465994
 21
177.150610477
 31
0.0
  0
LINE
  5
3CA
330
1F
100
AcDbEntity
  8
0
  6
Continuous
 62
     7
370
    30
100
AcDbLine
 10
346.2359008489
 20
200.8297632214
 30
0.0
 11
340.5790465994
 21
197.5641307742
 31
0.0
  0
LINE
  5
3CB
330
1F
100
AcDbEntity
  8
0
  6
Continuous
 62
     7
370
    30
100
AcDbLine
 10
322.9013770697
 20
187.3557118748
 30
0.0
 11
340.5790465994
 21
177.150610477
 31
0.0
  0
LINE
  5
3CC
330
1F
100
AcDbEntity
  8
0
  6
Continuous
 62
     7
370
    30
100
AcDbLine
 10
322.9013770697
 20
207.7692321719
 30
0.0
 11
322.9013770697
 21
187.3557118748
 31
0.0
  0
LINE
  5
3CD
330
1F
100
AcDbEntity
  8
0
  6
Continuous
 62
     7
370
    30
100
AcDbLine
 10
322.9013770697
 20
207.7692321719
 30
0.0
 11
340.5790465994
 21
197.5641307742
 31
0.0
  0
LWPOLYLINE
  5
3CE
330
1F
100
AcDbEntity
  8
0
  6
Continuous
 62
     7
370
    30
100
AcDbPolyline
 90
       34
 70
   128
 43
0.0
 10
338.9642975539
 20
189.9226270314
 10
338.9104189581
 20
190.6052965289
 10
338.7507304836
 20
191.3254994747
 10
338.4910036879
 20
192.0572058577
 10
338.1406257742
 20
192.773969903
 10
337.7122603131
 20
193.4498858903
 10
337.2213895485
 20
194.0605244549
 10
336.6857548287
 20
194.5838155279
 10
336.1247153882
 20
195.0008460067
 10
335.5585486541
 20
195.2965433231
 10
335.0077173672
 20
195.4602202057
 10
334.4921300056
 20
195.4859609454
 10
334.0304212397
 20
195.372835205
 10
333.6392784273
 20
195.1249316433
 10
333.3328384888
 20
194.7512101411
 10
333.1221769621
 20
194.2651779671
 10
333.0149077034
 20
193.6844015904
 10
333.0149077034
 20
193.0298717826
 10
333.1221769621
 20
192.3252449561
 10
333.3328384888
 20
191.5959881605
 10
333.6392784273
 20
190.8684586363
 10
334.0304212397
 20
190.1689511962
 10
334.4921300056
 20
189.5227478615
 10
335.0077173672
 20
188.9532041045
 10
335.5585486541
 20
188.4809047204
 10
336.1247153882
 20
188.1229198395
 10
336.6857548287
 20
187.8921879683
 10
337.2213895485
 20
187.7970483576
 10
337.7122603131
 20
187.8409396009
 10
338.1406257742
 20
188.0222753543
 10
338.4910036879
 20
188.3345016711
 10
338.7507304836
 20
188.7663338789
 10
338.9104189581
 20
189.3021644365
 10
338.9642975539
 20
189.9226270314
  0
LINE
  5
3CF
330
1F
100
AcDbEntity
  8
0
  6
Continuous
 62
     7
370
    30
100
AcDbLine
 10
335.931558231
 20
186.0787829222
 30
0.0
 11
335.7403856854
 21
186.1610323982
 31
0.0
  0
LINE
  5
3D0
330
1F
100
AcDbEntity
  8
0
  6
Continuous
 62
     7
370
    30
100
AcDbLine
 10
328.5582313192
 20
211.0348646192
 30
0.0
 11
322.9013770697
 21
207.7692321719
 31
0.0
  0
LINE
  5
3D1
330
1F
100
AcDbEntity
  8
0
  6
Continuous
 62
     7
370
    30
100
AcDbLine
 10
328.5582313192
 20
211.0348646192
 30
0.0
 11
346.2359008489
 21
200.8297632214
 31
0.0
  0
LINE
  5
3D2
330
1F
100
AcDbEntity
  8
0
  6
Continuous
 62
     7
370
    30
100
AcDbLine
 10
347.6501144112
 20
193.482090215
 30
0.0
 11
340.5790465994
 21
197.5641307742
 31
0.0
  0
LINE
  5
3D3
330
1F
100
AcDbEntity
  8
0
  6
Continuous
 62
     7
370
    30
100
AcDbLine
 10
347.6501144112
 20
193.482090215
 30
0.0
 11
347.6501144112
 21
173.0685699179
 31
0.0
  0
LINE
  5
3D4
330
1F
100
AcDbEntity
  8
0
  6
Continuous
 62
     7
370
    30
100
AcDbLine
 10
347.6501144112
 20
173.0685699179
 30
0.0
 11
340.5790465994
 21
177.150610477
 31
0.0
  0
LINE
  5
3D5
330
1F
100
AcDbEntity
  8
0
  6
Continuous
 62
     7
370
    30
100
AcDbLine
 10
346.2359008489
 20
200.8297632214
 30
0.0
 11
353.3069686607
 21
196.7477226623
 31
0.0
  0
LINE
  5
3D6
330
1F
100
AcDbEntity
  8
0
  6
Continuous
 62
     7
370
    30
100
AcDbLine
 10
353.3069686607
 20
196.7477226623
 30
0.0
 11
347.6501144112
 21
193.482090215
 31
0.0
  0
LINE
  5
3D7
330
1F
100
AcDbEntity
  8
0
  6
Continuous
 62
     7
370
    30
100
AcDbLine
 10
372.3988517528
 20
207.7692321719
 30
0.0
 11
358.3981374853
 21
199.6867918649
 31
0.0
  0
LINE
  5
3D8
330
1F
100
AcDbEntity
  8
0
  6
Continuous
 62
     7
370
    30
100
AcDbLine
 10
372.3988517528
 20
187.3557118748
 30
0.0
 11
372.3988517528
 21
207.7692321719
 31
0.0
  0
LINE
  5
3D9
330
1F
100
AcDbEntity
  8
0
  6
Continuous
 62
     7
370
    30
100
AcDbLine
 10
347.6501144112
 20
173.0685699179
 30
0.0
 11
372.3988517528
 21
187.3557118748
 31
0.0
  0
LINE
  5
3DA
330
1F
100
AcDbEntity
  8
0
  6
Continuous
 62
     7
370
    30
100
AcDbLine
 10
353.3069686607
 20
196.7477226623
 30
0.0
 11
353.3069686607
 21
184.0913400781
 31
0.0
  0
LINE
  5
3DB
330
1F
100
AcDbEntity
  8
0
  6
Continuous
 62
     7
370
    30
100
AcDbLine
 10
353.3069686607
 20
184.0913400781
 30
0.0
 11
353.448390017
 21
184.1729808893
 31
0.0
  0
LWPOLYLINE
  5
3DC
330
1F
100
AcDbEntity
  8
0
  6
Continuous
 62
     7
370
    30
100
AcDbPolyline
 90
       30
 70
   128
 43
0.0
 10
371.8685216669
 20
193.5818853279
 10
371.8147934352
 20
194.1213481278
 10
371.6561210125
 20
194.5735529508
 10
371.399923745
 20
194.917355202
 10
371.0581811321
 20
195.1366790703
 10
370.6468726786
 20
195.2212692153
 10
370.1852307106
 20
195.1671702959
 10
369.6948410935
 20
194.9769119174
 10
369.1986339008
 20
194.6593903501
 10
368.7198112293
 20
194.2294525497
 10
368.2807622949
 20
193.7072019298
 10
367.9020165378
 20
193.117058349
 10
367.6012836887
 20
192.4866162652
 10
367.3926256815
 20
191.8453544496
 10
367.2857991325
 20
191.223257592
 10
367.2857991325
 20
190.6494142499
 10
367.3926256815
 20
190.1506567004
 10
367.6012836887
 20
189.750306292
 10
367.9020165378
 20
189.467082965
 10
368.2807622949
 20
189.3142299273
 10
368.7198112293
 20
189.2988944171
 10
369.1986339008
 20
189.4217935058
 10
369.6948410935
 20
189.6771805685
 10
370.1852307106
 20
190.0531139902
 10
370.6468726786
 20
190.5320155417
 10
371.0581811321
 20
191.0914923189
 10
371.399923745
 20
191.7053838095
 10
371.6561210125
 20
192.3449851295
 10
371.8147934352
 20
192.9803892322
 10
371.8685216669
 20
193.5818853279
  0
LWPOLYLINE
  5
3DD
330
1F
100
AcDbEntity
  8
0
  6
Continuous
 62
     7
370
    30
100
AcDbPolyline
 90
       30
 70
   128
 43
0.0
 10
352.7766385748
 20
193.1754063729
 10
352.7229103431
 20
193.7148691727
 10
352.5642379205
 20
194.1670739957
 10
352.3080406529
 20
194.5108762469
 10
351.96629804
 20
194.7302001152
 10
351.5549895865
 20
194.8147902602
 10
351.0933476186
 20
194.7606913408
 10
350.6029580015
 20
194.5704329623
 10
350.1067508088
 20
194.2529113951
 10
349.6279281372
 20
193.8229735946
 10
349.1888792028
 20
193.3007229747
 10
348.8101334458
 20
192.7105793939
 10
348.5094005967
 20
192.0801373101
 10
348.3007425894
 20
191.4388754945
 10
348.1939160404
 20
190.8167786369
 10
348.1939160404
 20
190.2429352948
 10
348.3007425894
 20
189.7441777453
 10
348.5094005967
 20
189.3438273369
 10
348.8101334458
 20
189.0606040099
 10
349.1888792028
 20
188.9077509722
 10
349.6279281372
 20
188.892415462
 10
350.1067508088
 20
189.0153145507
 10
350.6029580015
 20
189.2707016134
 10
351.0933476186
 20
189.6466350351
 10
351.5549895865
 20
190.1255365867
 10
351.96629804
 20
190.6850133638
 10
352.3080406529
 20
191.2989048544
 10
352.5642379205
 20
191.9385061744
 10
352.7229103431
 20
192.5739102771
 10
352.7766385748
 20
193.1754063729
  0
LWPOLYLINE
  5
3DE
330
1F
100
AcDbEntity
  8
0
  6
Continuous
 62
     7
370
    30
100
AcDbPolyline
 90
       34
 70
   128
 43
0.0
 10
365.4808018484
 20
195.2018484457
 10
365.4269232526
 20
195.8223110407
 10
365.2672347781
 20
196.3581415982
 10
365.0075079824
 20
196.789973806
 10
364.6571300687
 20
197.1022001229
 10
364.2287646076
 20
197.2835358763
 10
363.737893843
 20
197.3274271196
 10
363.2022591232
 20
197.2322875089
 10
362.6412196827
 20
197.0015556376
 10
362.0750529486
 20
196.6435707568
 10
361.5242216617
 20
196.1712713727
 10
361.0086343001
 20
195.6017276157
 10
360.5469255342
 20
194.955524281
 10
360.1557827218
 20
194.2560168408
 10
359.8493427833
 20
193.5284873167
 10
359.6386812565
 20
192.799230521
 10
359.5314119979
 20
192.0946036946
 10
359.5314119979
 20
191.4400738867
 10
359.6386812565
 20
190.8592975101
 10
359.8493427833
 20
190.3732653361
 10
360.1557827218
 20
189.9995438339
 10
360.5469255342
 20
189.7516402722
 10
361.0086343001
 20
189.6385145318
 10
361.5242216617
 20
189.6642552715
 10
362.0750529486
 20
189.8279321541
 10
362.6412196827
 20
190.1236294705
 10
363.2022591232
 20
190.5406599492
 10
363.737893843
 20
191.0639510223
 10
364.2287646076
 20
191.6745895868
 10
364.6571300687
 20
192.3505055742
 10
365.0075079824
 20
193.0672696194
 10
365.2672347781
 20
193.7989760025
 10
365.4269232526
 20
194.5191789482
 10
365.4808018484
 20
195.2018484457
  0
LWPOLYLINE
  5
3DF
330
1F
100
AcDbEntity
  8
0
  6
Continuous
 62
     7
370
    30
100
AcDbPolyline
 90
        3
 70
   128
 43
0.0
 10
361.7875990051
 20
187.1967585299
 10
361.5554555015
 20
186.7871159007
 10
361.507603905
 20
186.6772370425
  0
LWPOLYLINE
  5
3E0
330
1F
100
AcDbEntity
  8
0
  6
Continuous
 62
     7
370
    30
100
AcDbPolyline
 90
        3
 70
   128
 43
0.0
 10
363.2072741116
 20
185.8778244933
 10
363.4432581308
 20
186.293084026
 10
363.4575440232
 20
186.3245492129
  0
LINE
  5
3E1
330
1F
100
AcDbEntity
  8
0
  6
Continuous
 62
     7
370
    30
100
AcDbLine
 10
372.3988517528
 20
207.7692321719
 30
0.0
 11
366.5298654689
 21
211.157325836
 31
0.0
  0
LWPOLYLINE
  5
3E2
330
1F
100
AcDbEntity
  8
0
  6
Continuous
 62
     8
370
    30
100
AcDbPolyline
 90
        3
 70
   128
 43
0.0
 10
350.9188857774
 20
194.7075337353
 10
351.131616386
 20
194.6412939063
 10
351.2262136306
 20
194.5923905131
  0
LWPOLYLINE
  5
3E3
330
1F
100
AcDbEntity
  8
0
  6
Continuous
 62
     8
370
    30
100
AcDbPolyline
 90
        3
 70
   128
 43
0.0
 10
348.4895491424
 20
189.8220342241
 10
348.2418173839
 20
190.0166949873
 10
348.2230983483
 20
190.0377869649
  0
LWPOLYLINE
  5
3E4
330
1F
100
AcDbEntity
  8
0
  6
Continuous
 62
     8
370
    30
100
AcDbPolyline
 90
        3
 70
   128
 43
0.0
 10
370.0107688695
 20
195.1140126904
 10
370.2234994781
 20
195.0477728614
 10
370.3180967226
 20
194.9988694682
  0
LWPOLYLINE
  5
3E5
330
1F
100
AcDbEntity
  8
0
  6
Continuous
 62
     8
370
    30
100
AcDbPolyline
 90
        3
 70
   128
 43
0.0
 10
367.5814322344
 20
190.2285131792
 10
367.3337004759
 20
190.4231739424
 10
367.3149814403
 20
190.44426592
  0
LWPOLYLINE
  5
3E6
330
1F
100
AcDbEntity
  8
0
  6
Continuous
 62
     8
370
    30
100
AcDbPolyline
 90
        3
 70
   128
 43
0.0
 10
338.0261636752
 20
239.9264931504
 10
338.0074446394
 20
239.9054011726
 10
337.7552596444
 20
239.7083482161
  0
LWPOLYLINE
  5
3E7
330
1F
100
AcDbEntity
  8
0
  6
Continuous
 62
     8
370
    30
100
AcDbPolyline
 90
        3
 70
   128
 43
0.0
 10
335.032228333
 20
244.4864673983
 10
335.1176456373
 20
244.5300000916
 10
335.3303762462
 20
244.5962399207
  0
LWPOLYLINE
  5
3E8
330
1F
100
AcDbEntity
  8
0
  6
Continuous
 62
     8
370
    30
100
AcDbPolyline
 90
        3
 70
   128
 43
0.0
 10
345.0972314869
 20
235.8444525911
 10
345.0785124513
 20
235.8233606135
 10
344.8263274562
 20
235.6263076569
  0
LWPOLYLINE
  5
3E9
330
1F
100
AcDbEntity
  8
0
  6
Continuous
 62
     8
370
    30
100
AcDbPolyline
 90
        3
 70
   128
 43
0.0
 10
342.1032961449
 20
240.4044268392
 10
342.1887134491
 20
240.4479595325
 10
342.4014440578
 20
240.5141993615
  0
ENDSEC
  0
SECTION
  2
OBJECTS
  0
DICTIONARY
  5
C
330
0
100
AcDbDictionary
281
     1
  3
ACAD_GROUP
350
D
  3
ACAD_LAYOUT
350
1A
  3
ACAD_MLINESTYLE
350
17
  3
ACAD_PLOTSETTINGS
350
19
  3
ACAD_PLOTSTYLENAME
350
E
  3
ACAD_SCALELIST
350
47
  0
DICTIONARY
  5
D
102
{ACAD_REACTORS
330
C
102
}
330
C
100
AcDbDictionary
281
     1
  0
DICTIONARY
  5
1A
102
{ACAD_REACTORS
330
C
102
}
330
C
100
AcDbDictionary
281
     1
  3
Layout1
350
1E
  3
Layout2
350
26
  3
Model
350
22
  0
DICTIONARY
  5
17
102
{ACAD_REACTORS
330
C
102
}
330
C
100
AcDbDictionary
281
     1
  3
Standard
350
18
  0
DICTIONARY
  5
19
102
{ACAD_REACTORS
330
C
102
}
330
C
100
AcDbDictionary
281
     1
  0
ACDBDICTIONARYWDFLT
  5
E
102
{ACAD_REACTORS
330
C
102
}
330
C
100
AcDbDictionary
281
     1
  3
Normal
350
F
100
AcDbDictionaryWithDefault
340
F
  0
DICTIONARY
  5
47
102
{ACAD_REACTORS
330
C
102
}
330
C
100
AcDbDictionary
281
     1
  3
A0
350
48
  3
A1
350
49
  3
A2
350
4A
  3
A3
350
4B
  3
A4
350
4C
  3
A5
350
4D
  3
A6
350
4E
  3
A7
350
4F
  3
A8
350
50
  3
A9
350
51
  3
B0
350
52
  3
B1
350
53
  3
B2
350
54
  3
B3
350
55
  3
B4
350
56
  3
B5
350
57
  3
B6
350
58
  3
B7
350
59
  3
B8
350
5A
  3
B9
350
5B
  3
C0
350
5C
  3
C1
350
5D
  3
C2
350
5E
  3
C3
350
5F
  3
C4
350
60
  3
C5
350
61
  3
C6
350
62
  3
C7
350
63
  3
C8
350
64
  3
C9
350
65
  3
D0
350
66
  3
D1
350
67
  3
D2
350
68
  0
LAYOUT
  5
1E
102
{ACAD_REACTORS
330
1A
102
}
330
1A
100
AcDbPlotSettings
  1

  2
none_device
  4

  6

 40
0.0
 41
0.0
 42
0.0
 43
0.0
 44
0.0
 45
0.0
 46
0.0
 47
0.0
 48
0.0
 49
0.0
140
0.0
141
0.0
142
1.0
143
1.0
 70
   688
 72
     1
 73
     0
 74
     5
  7

 75
    16
147
1.0
148
0.0
149
0.0
100
AcDbLayout
  1
Layout1
 70
     1
 71
     1
 10
0.0
 20
0.0
 11
420.0
 21
297.0
 12
0.0
 22
0.0
 32
0.0
 14
1.0000000000E+20
 24
1.0000000000E+20
 34
1.0000000000E+20
 15
-1.0000000000E+20
 25
-1.0000000000E+20
 35
-1.0000000000E+20
146
0.0
 13
0.0
 23
0.0
 33
0.0
 16
1.0
 26
0.0
 36
0.0
 17
0.0
 27
1.0
 37
0.0
 76
     0
330
1B
  0
LAYOUT
  5
26
102
{ACAD_REACTORS
330
1A
102
}
330
1A
100
AcDbPlotSettings
  1

  2
none_device
  4

  6

 40
0.0
 41
0.0
 42
0.0
 43
0.0
 44
0.0
 45
0.0
 46
0.0
 47
0.0
 48
0.0
 49
0.0
140
0.0
141
0.0
142
1.0
143
1.0
 70
   688
 72
     1
 73
     0
 74
     5
  7

 75
    16
147
1.0
148
0.0
149
0.0
100
AcDbLayout
  1
Layout2
 70
     1
 71
     2
 10
0.0
 20
0.0
 11
0.0
 21
0.0
 12
0.0
 22
0.0
 32
0.0
 14
0.0
 24
0.0
 34
0.0
 15
0.0
 25
0.0
 35
0.0
146
0.0
 13
0.0
 23
0.0
 33
0.0
 16
1.0
 26
0.0
 36
0.0
 17
0.0
 27
1.0
 37
0.0
 76
     0
330
23
  0
LAYOUT
  5
22
102
{ACAD_REACTORS
330
1A
102
}
330
1A
100
AcDbPlotSettings
  1

  2
none_device
  4
Letter_(8.50_x_11.00_Inches)
  6

 40
6.35
 41
6.35
 42
6.35000508
 43
6.35000508
 44
215.9
 45
279.4
 46
0.0
 47
0.0
 48
0.0
 49
0.0
140
0.0
141
0.0
142
1.0
143
1.0
 70
  1712
 72
     1
 73
     0
 74
     0
  7

 75
     0
147
1.0
148
0.0
149
0.0
100
AcDbLayout
  1
Model
 70
     1
 71
     0
 10
0.0
 20
0.0
 11
445.5
 21
315.0
 12
0.0
 22
0.0
 32
0.0
 14
0.0
 24
0.0
 34
0.0
 15
445.5
 25
315.0
 35
0.0
146
0.0
 13
0.0
 23
0.0
 33
0.0
 16
1.0
 26
0.0
 36
0.0
 17
0.0
 27
1.0
 37
0.0
 76
     0
330
1F
331
29
  0
MLINESTYLE
  5
18
102
{ACAD_REACTORS
330
17
102
}
330
17
100
AcDbMlineStyle
  2
Standard
 70
     0
  3

 62
   256
 51
90.0
 52
90.0
 71
     2
 49
0.5
 62
   256
  6
BYLAYER
 49
-0.5
 62
   256
  6
BYLAYER
  0
ACDBPLACEHOLDER
  5
F
102
{ACAD_REACTORS
330
E
102
}
330
E
  0
SCALE
  5
48
102
{ACAD_REACTORS
330
47
102
}
330
47
100
AcDbScale
 70
     0
300
1:1
140
1.0
141
1.0
290
     1
  0
SCALE
  5
49
102
{ACAD_REACTORS
330
47
102
}
330
47
100
AcDbScale
 70
     0
300
1:2
140
1.0
141
2.0
290
     0
  0
SCALE
  5
4A
102
{ACAD_REACTORS
330
47
102
}
330
47
100
AcDbScale
 70
     0
300
1:4
140
1.0
141
4.0
290
     0
  0
SCALE
  5
4B
102
{ACAD_REACTORS
330
47
102
}
330
47
100
AcDbScale
 70
     0
300
1:5
140
1.0
141
5.0
290
     0
  0
SCALE
  5
4C
102
{ACAD_REACTORS
330
47
102
}
330
47
100
AcDbScale
 70
     0
300
1:8
140
1.0
141
8.0
290
     0
  0
SCALE
  5
4D
102
{ACAD_REACTORS
330
47
102
}
330
47
100
AcDbScale
 70
     0
300
1:10
140
1.0
141
10.0
290
     0
  0
SCALE
  5
4E
102
{ACAD_REACTORS
330
47
102
}
330
47
100
AcDbScale
 70
     0
300
1:16
140
1.0
141
16.0
290
     0
  0
SCALE
  5
4F
102
{ACAD_REACTORS
330
47
102
}
330
47
100
AcDbScale
 70
     0
300
1:20
140
1.0
141
20.0
290
     0
  0
SCALE
  5
50
102
{ACAD_REACTORS
330
47
102
}
330
47
100
AcDbScale
 70
     0
300
1:30
140
1.0
141
30.0
290
     0
  0
SCALE
  5
51
102
{ACAD_REACTORS
330
47
102
}
330
47
100
AcDbScale
 70
     0
300
1:40
140
1.0
141
40.0
290
     0
  0
SCALE
  5
52
102
{ACAD_REACTORS
330
47
102
}
330
47
100
AcDbScale
 70
     0
300
1:50
140
1.0
141
50.0
290
     0
  0
SCALE
  5
53
102
{ACAD_REACTORS
330
47
102
}
330
47
100
AcDbScale
 70
     0
300
1:100
140
1.0
141
100.0
290
     0
  0
SCALE
  5
54
102
{ACAD_REACTORS
330
47
102
}
330
47
100
AcDbScale
 70
     0
300
2:1
140
2.0
141
1.0
290
     0
  0
SCALE
  5
55
102
{ACAD_REACTORS
330
47
102
}
330
47
100
AcDbScale
 70
     0
300
4:1
140
4.0
141
1.0
290
     0
  0
SCALE
  5
56
102
{ACAD_REACTORS
330
47
102
}
330
47
100
AcDbScale
 70
     0
300
8:1
140
8.0
141
1.0
290
     0
  0
SCALE
  5
57
102
{ACAD_REACTORS
330
47
102
}
330
47
100
AcDbScale
 70
     0
300
10:1
140
10.0
141
1.0
290
     0
  0
SCALE
  5
58
102
{ACAD_REACTORS
330
47
102
}
330
47
100
AcDbScale
 70
     0
300
100:1
140
100.0
141
1.0
290
     0
  0
SCALE
  5
59
102
{ACAD_REACTORS
330
47
102
}
330
47
100
AcDbScale
 70
     0
300
1/128" = 1'-0"
140
0.0078125
141
12.0
290
     0
  0
SCALE
  5
5A
102
{ACAD_REACTORS
330
47
102
}
330
47
100
AcDbScale
 70
     0
300
1/64" = 1'-0"
140
0.015625
141
12.0
290
     0
  0
SCALE
  5
5B
102
{ACAD_REACTORS
330
47
102
}
330
47
100
AcDbScale
 70
     0
300
1/32" = 1'-0"
140
0.03125
141
12.0
290
     0
  0
SCALE
  5
5C
102
{ACAD_REACTORS
330
47
102
}
330
47
100
AcDbScale
 70
     0
300
1/16" = 1'-0"
140
0.0625
141
12.0
290
     0
  0
SCALE
  5
5D
102
{ACAD_REACTORS
330
47
102
}
330
47
100
AcDbScale
 70
     0
300
3/32" = 1'-0"
140
0.09375
141
12.0
290
     0
  0
SCALE
  5
5E
102
{ACAD_REACTORS
330
47
102
}
330
47
100
AcDbScale
 70
     0
300
1/8" = 1'-0"
140
0.125
141
12.0
290
     0
  0
SCALE
  5
5F
102
{ACAD_REACTORS
330
47
102
}
330
47
100
AcDbScale
 70
     0
300
3/16" = 1'-0"
140
0.1875
141
12.0
290
     0
  0
SCALE
  5
60
102
{ACAD_REACTORS
330
47
102
}
330
47
100
AcDbScale
 70
     0
300
1/4" = 1'-0"
140
0.25
141
12.0
290
     0
  0
SCALE
  5
61
102
{ACAD_REACTORS
330
47
102
}
330
47
100
AcDbScale
 70
     0
300
3/8" = 1'-0"
140
0.375
141
12.0
290
     0
  0
SCALE
  5
62
102
{ACAD_REACTORS
330
47
102
}
330
47
100
AcDbScale
 70
     0
300
1/2" = 1'-0"
140
0.5
141
12.0
290
     0
  0
SCALE
  5
63
102
{ACAD_REACTORS
330
47
102
}
330
47
100
AcDbScale
 70
     0
300
3/4" = 1'-0"
140
0.75
141
12.0
290
     0
  0
SCALE
  5
64
102
{ACAD_REACTORS
330
47
102
}
330
47
100
AcDbScale
 70
     0
300
1" = 1'-0"
140
1.0
141
12.0
290
     0
  0
SCALE
  5
65
102
{ACAD_REACTORS
330
47
102
}
330
47
100
AcDbScale
 70
     0
300
1-1/2" = 1'-0"
140
1.5
141
12.0
290
     0
  0
SCALE
  5
66
102
{ACAD_REACTORS
330
47
102
}
330
47
100
AcDbScale
 70
     0
300
3" = 1'-0"
140
3.0
141
12.0
290
     0
  0
SCALE
  5
67
102
{ACAD_REACTORS
330
47
102
}
330
47
100
AcDbScale
 70
     0
300
6" = 1'-0"
140
6.0
141
12.0
290
     0
  0
SCALE
  5
68
102
{ACAD_REACTORS
330
47
102
}
330
47
100
AcDbScale
 70
     0
300
1'-0" = 1'-0"
140
12.0
141
12.0
290
     0
  0
ENDSEC
  0
EOF
