  0
SECTION
  2
HEADER
  9
$ACADVER
  1
AC1015
  9
$ACADMAINTVER
 70
     6
  9
$DWGCODEPAGE
  3
ANSI_950
  9
$INSBASE
 10
0.0
 20
0.0
 30
0.0
  9
$EXTMIN
 10
0.0
 20
0.0
 30
0.0
  9
$EXTMAX
 10
165.0
 20
116.6666666667
 30
0.0
  9
$LIMMIN
 10
0.0
 20
0.0
  9
$LIMMAX
 10
165.0
 20
116.6666666667
  9
$ORTHOMODE
 70
     0
  9
$REGENMODE
 70
     1
  9
$FILLMODE
 70
     1
  9
$QTEXTMODE
 70
     0
  9
$MIRRTEXT
 70
     1
  9
$LTSCALE
 40
0.5555555556
  9
$ATTMODE
 70
     1
  9
$TEXTSIZE
 40
1.9598765432
  9
$TRACEWID
 40
1.0
  9
$TEXTSTYLE
  7
Standard
  9
$CLAYER
  8
0
  9
$CELTYPE
  6
ByLayer
  9
$CECOLOR
 62
   256
  9
$CELTSCALE
 40
1.0
  9
$DISPSILH
 70
     0
  9
$DIMSCALE
 40
1.0
  9
$DIMASZ
 40
1.1111111111
  9
$DIMEXO
 40
0.5555555556
  9
$DIMDLI
 40
3.75
  9
$DIMRND
 40
0.0
  9
$DIMDLE
 40
0.0
  9
$DIMEXE
 40
0.5555555556
  9
$DIMTP
 40
0.0
  9
$DIMTM
 40
0.0
  9
$DIMTXT
 40
1.3888888889
  9
$DIMCEN
 40
2.5
  9
$DIMTSZ
 40
0.0
  9
$DIMTOL
 70
     0
  9
$DIMLIM
 70
     0
  9
$DIMTIH
 70
     1
  9
$DIMTOH
 70
     1
  9
$DIMSE1
 70
     0
  9
$DIMSE2
 70
     0
  9
$DIMTAD
 70
     1
  9
$DIMZIN
 70
     0
  9
$DIMBLK
  1

  9
$DIMASO
 70
     1
  9
$DIMSHO
 70
     1
  9
$DIMPOST
  1

  9
$DIMAPOST
  1

  9
$DIMALT
 70
     0
  9
$DIMALTD
 70
     3
  9
$DIMALTF
 40
0.0393700787
  9
$DIMLFAC
 40
1.0
  9
$DIMTOFL
 70
     1
  9
$DIMTVP
 40
0.0
  9
$DIMTIX
 70
     0
  9
$DIMSOXD
 70
     0
  9
$DIMSAH
 70
     0
  9
$DIMBLK1
  1

  9
$DIMBLK2
  1

  9
$DIMSTYLE
  2
ISO-25
  9
$DIMCLRD
 70
     0
  9
$DIMCLRE
 70
     0
  9
$DIMCLRT
 70
     0
  9
$DIMTFAC
 40
1.0
  9
$DIMGAP
 40
0.5555555556
  9
$DIMJUST
 70
     0
  9
$DIMSD1
 70
     0
  9
$DIMSD2
 70
     0
  9
$DIMTOLJ
 70
     0
  9
$DIMTZIN
 70
     0
  9
$DIMALTZ
 70
     0
  9
$DIMALTTZ
 70
     0
  9
$DIMUPT
 70
     0
  9
$DIMDEC
 70
     2
  9
$DIMTDEC
 70
     2
  9
$DIMALTU
 70
     2
  9
$DIMALTTD
 70
     3
  9
$DIMTXSTY
  7
Standard
  9
$DIMAUNIT
 70
     0
  9
$DIMADEC
 70
     1
  9
$DIMALTRND
 40
0.0
  9
$DIMAZIN
 70
     0
  9
$DIMDSEP
 70
    44
  9
$DIMATFIT
 70
     3
  9
$DIMFRAC
 70
     0
  9
$DIMLDRBLK
  1

  9
$DIMLUNIT
 70
     2
  9
$DIMLWD
 70
    -2
  9
$DIMLWE
 70
    -2
  9
$DIMTMOVE
 70
     0
  9
$LUNITS
 70
     2
  9
$LUPREC
 70
     2
  9
$SKETCHINC
 40
1.0
  9
$FILLETRAD
 40
10.0
  9
$AUNITS
 70
     0
  9
$AUPREC
 70
     1
  9
$MENU
  1
.
  9
$ELEVATION
 40
0.0
  9
$PELEVATION
 40
0.0
  9
$THICKNESS
 40
0.0
  9
$LIMCHECK
 70
     0
  9
$CHAMFERA
 40
0.0
  9
$CHAMFERB
 40
0.0
  9
$CHAMFERC
 40
0.0
  9
$CHAMFERD
 40
0.0
  9
$SKPOLY
 70
     0
  9
$TDCREATE
 40
2458431.572206979
  9
$TDUCREATE
 40
2458431.238873646
  9
$TDUPDATE
 40
2458431.572220255
  9
$TDUUPDATE
 40
2458431.238886921
  9
$TDINDWG
 40
0.0000000116
  9
$TDUSRTIMER
 40
0.0000000116
  9
$USRTIMER
 70
     1
  9
$ANGBASE
 50
0.0
  9
$ANGDIR
 70
     0
  9
$PDMODE
 70
     0
  9
$PDSIZE
 40
-1.0
  9
$PLINEWID
 40
0.0
  9
$SPLFRAME
 70
     0
  9
$SPLINETYPE
 70
     6
  9
$SPLINESEGS
 70
     8
  9
$HANDSEED
  5
2D4
  9
$SURFTAB1
 70
     6
  9
$SURFTAB2
 70
     6
  9
$SURFTYPE
 70
     6
  9
$SURFU
 70
     6
  9
$SURFV
 70
     6
  9
$UCSBASE
  2

  9
$UCSNAME
  2

  9
$UCSORG
 10
0.0
 20
0.0
 30
0.0
  9
$UCSXDIR
 10
1.0
 20
0.0
 30
0.0
  9
$UCSYDIR
 10
0.0
 20
1.0
 30
0.0
  9
$UCSORTHOREF
  2

  9
$UCSORTHOVIEW
 70
     0
  9
$UCSORGTOP
 10
0.0
 20
0.0
 30
0.0
  9
$UCSORGBOTTOM
 10
0.0
 20
0.0
 30
0.0
  9
$UCSORGLEFT
 10
0.0
 20
0.0
 30
0.0
  9
$UCSORGRIGHT
 10
0.0
 20
0.0
 30
0.0
  9
$UCSORGFRONT
 10
0.0
 20
0.0
 30
0.0
  9
$UCSORGBACK
 10
0.0
 20
0.0
 30
0.0
  9
$PUCSBASE
  2

  9
$PUCSNAME
  2

  9
$PUCSORG
 10
0.0
 20
0.0
 30
0.0
  9
$PUCSXDIR
 10
1.0
 20
0.0
 30
0.0
  9
$PUCSYDIR
 10
0.0
 20
1.0
 30
0.0
  9
$PUCSORTHOREF
  2

  9
$PUCSORTHOVIEW
 70
     0
  9
$PUCSORGTOP
 10
0.0
 20
0.0
 30
0.0
  9
$PUCSORGBOTTOM
 10
0.0
 20
0.0
 30
0.0
  9
$PUCSORGLEFT
 10
0.0
 20
0.0
 30
0.0
  9
$PUCSORGRIGHT
 10
0.0
 20
0.0
 30
0.0
  9
$PUCSORGFRONT
 10
0.0
 20
0.0
 30
0.0
  9
$PUCSORGBACK
 10
0.0
 20
0.0
 30
0.0
  9
$USERI1
 70
     0
  9
$USERI2
 70
     0
  9
$USERI3
 70
     0
  9
$USERI4
 70
     0
  9
$USERI5
 70
     0
  9
$USERR1
 40
0.0
  9
$USERR2
 40
0.0
  9
$USERR3
 40
0.0
  9
$USERR4
 40
0.0
  9
$USERR5
 40
0.0
  9
$WORLDVIEW
 70
     1
  9
$SHADEDGE
 70
     3
  9
$SHADEDIF
 70
    70
  9
$TILEMODE
 70
     1
  9
$MAXACTVP
 70
    64
  9
$PINSBASE
 10
0.0
 20
0.0
 30
0.0
  9
$PLIMCHECK
 70
     0
  9
$PEXTMIN
 10
1.0000000000E+20
 20
1.0000000000E+20
 30
1.0000000000E+20
  9
$PEXTMAX
 10
-1.0000000000E+20
 20
-1.0000000000E+20
 30
-1.0000000000E+20
  9
$PLIMMIN
 10
0.0
 20
0.0
  9
$PLIMMAX
 10
420.0
 20
297.0
  9
$UNITMODE
 70
     0
  9
$VISRETAIN
 70
     1
  9
$PLINEGEN
 70
     0
  9
$PSLTSCALE
 70
     1
  9
$TREEDEPTH
 70
  3020
  9
$CMLSTYLE
  2
Standard
  9
$CMLJUST
 70
     0
  9
$CMLSCALE
 40
20.0
  9
$PROXYGRAPHICS
 70
     1
  9
$MEASUREMENT
 70
     1
  9
$CELWEIGHT
370
    -1
  9
$ENDCAPS
280
     0
  9
$JOINSTYLE
280
     0
  9
$LWDISPLAY
290
     1
  9
$INSUNITS
 70
     4
  9
$HYPERLINKBASE
  1

  9
$STYLESHEET
  1

  9
$XEDIT
290
     1
  9
$CEPSNTYPE
380
     0
  9
$PSTYLEMODE
290
     1
  9
$FINGERPRINTGUID
  2
{2A60EE5B-8EBB-4E6F-BA9F-A2CE1591A8C5}
  9
$VERSIONGUID
  2
{FAEB1C32-E019-11D5-929B-00C0DF256EC4}
  9
$EXTNAMES
290
     1
  9
$PSVPSCALE
 40
0.0
  9
$OLESTARTUP
290
     0
  0
ENDSEC
  0
SECTION
  2
CLASSES
  0
CLASS
  1
ACDBDICTIONARYWDFLT
  2
AcDbDictionaryWithDefault
  3
ObjectDBX Classes
 90
        0
280
     0
281
     0
  0
CLASS
  1
VISUALSTYLE
  2
AcDbVisualStyle
  3
ObjectDBX Classes
 90
     4095
280
     0
281
     0
  0
CLASS
  1
MATERIAL
  2
AcDbMaterial
  3
ObjectDBX Classes
 90
     1153
280
     0
281
     0
  0
CLASS
  1
SCALE
  2
AcDbScale
  3
ObjectDBX Classes
 90
     1153
280
     0
281
     0
  0
CLASS
  1
TABLESTYLE
  2
AcDbTableStyle
  3
ObjectDBX Classes
 90
     4095
280
     0
281
     0
  0
CLASS
  1
MLEADERSTYLE
  2
AcDbMLeaderStyle
  3
ACDB_MLEADERSTYLE_CLASS
 90
     4095
280
     0
281
     0
  0
CLASS
  1
SUN
  2
AcDbSun
  3
SCENEOE
 90
     1153
280
     0
281
     0
  0
CLASS
  1
ACDBPLACEHOLDER
  2
AcDbPlaceHolder
  3
ObjectDBX Classes
 90
        0
280
     0
281
     0
  0
CLASS
  1
LAYOUT
  2
AcDbLayout
  3
ObjectDBX Classes
 90
        0
280
     0
281
     0
  0
ENDSEC
  0
SECTION
  2
TABLES
  0
TABLE
  2
VPORT
  5
8
330
0
100
AcDbSymbolTable
 70
     1
  0
VPORT
  5
29
330
8
100
AcDbSymbolTableRecord
100
AcDbViewportTableRecord
  2
*Active
 70
     0
 10
0.0
 20
0.0
 11
1.0
 21
1.0
 12
82.5
 22
58.3333333333
 13
0.0
 23
0.0
 14
10.0
 24
10.0
 15
10.0
 25
10.0
 16
0.0
 26
0.0
 36
1.0
 17
0.0
 27
0.0
 37
0.0
 40
116.6666666667
 41
1.4142857143
 42
50.0
 43
0.0
 44
0.0
 50
0.0
 51
0.0
 71
     0
 72
  2000
 73
     1
 74
     3
 75
     0
 76
     0
 77
     0
 78
     0
281
     0
 65
     1
110
0.0
120
0.0
130
0.0
111
1.0
121
0.0
131
0.0
112
0.0
122
1.0
132
0.0
 79
     0
146
0.0
  0
ENDTAB
  0
TABLE
  2
LTYPE
  5
5
330
0
100
AcDbSymbolTable
 70
     6
  0
LTYPE
  5
14
330
5
100
AcDbSymbolTableRecord
100
AcDbLinetypeTableRecord
  2
ByBlock
 70
     0
  3

 72
    65
 73
     0
 40
0.0
  0
LTYPE
  5
15
330
5
100
AcDbSymbolTableRecord
100
AcDbLinetypeTableRecord
  2
ByLayer
 70
     0
  3

 72
    65
 73
     0
 40
0.0
  0
LTYPE
  5
16
330
5
100
AcDbSymbolTableRecord
100
AcDbLinetypeTableRecord
  2
Continuous
 70
     0
  3
Solid line
 72
    65
 73
     0
 40
0.0
  0
LTYPE
  5
6E
330
5
100
AcDbSymbolTableRecord
100
AcDbLinetypeTableRecord
  2
HIDDEN
 70
     0
  3
Hidden __ __ __ __ __ __ __ __ __ __ __ __ __ __
 72
    65
 73
     2
 40
1.905
 49
1.27
 74
     0
 49
-0.635
 74
     0
  0
LTYPE
  5
6F
330
5
100
AcDbSymbolTableRecord
100
AcDbLinetypeTableRecord
  2
PHANTOM
 70
     0
  3
Phantom ______  __  __  ______  __  __  ______
 72
    65
 73
     6
 40
12.7
 49
6.35
 74
     0
 49
-1.27
 74
     0
 49
1.27
 74
     0
 49
-1.27
 74
     0
 49
1.27
 74
     0
 49
-1.27
 74
     0
  0
LTYPE
  5
70
330
5
100
AcDbSymbolTableRecord
100
AcDbLinetypeTableRecord
  2
CENTER
 70
     0
  3
Center ____ _ ____ _ ____ _ ____ _ ____ _ ____
 72
    65
 73
     4
 40
10.16
 49
6.35
 74
     0
 49
-1.27
 74
     0
 49
1.27
 74
     0
 49
-1.27
 74
     0
  0
LTYPE
  5
71
330
5
100
AcDbSymbolTableRecord
100
AcDbLinetypeTableRecord
  2
CENTERX2
 70
     0
  3
Center (2x) ________  __  ________  __  _____
 72
    65
 73
     4
 40
20.32
 49
12.7
 74
     0
 49
-2.54
 74
     0
 49
2.54
 74
     0
 49
-2.54
 74
     0
  0
LTYPE
  5
72
330
5
100
AcDbSymbolTableRecord
100
AcDbLinetypeTableRecord
  2
DOT2
 70
     0
  3
Dot (.5x) ........................................
 72
    65
 73
     2
 40
0.635
 49
0.0
 74
     0
 49
-0.635
 74
     0
  0
ENDTAB
  0
TABLE
  2
LAYER
  5
2
330
0
100
AcDbSymbolTable
 70
    10
  0
LAYER
  5
10
330
2
100
AcDbSymbolTableRecord
100
AcDbLayerTableRecord
  2
0
 70
     0
 62
     7
  6
Continuous
370
    -3
390
F
  0
LAYER
  5
73
330
2
100
AcDbSymbolTableRecord
100
AcDbLayerTableRecord
  2
SLD-0
 70
     0
 62
   179
  6
Continuous
370
    15
390
F
  0
LAYER
  5
74
330
2
100
AcDbSymbolTableRecord
100
AcDbLayerTableRecord
  2
輪廓線
 70
     0
 62
   219
  6
Continuous
370
    15
390
F
  0
LAYER
  5
75
330
2
100
AcDbSymbolTableRecord
100
AcDbLayerTableRecord
  2
DIM
 70
     0
 62
     7
  6
Continuous
370
    -3
390
F
  0
LAYER
  5
76
330
2
100
AcDbSymbolTableRecord
100
AcDbLayerTableRecord
  2
中心線
 70
     0
 62
     1
  6
CENTERX2
370
    -3
390
F
  0
LAYER
  5
77
330
2
100
AcDbSymbolTableRecord
100
AcDbLayerTableRecord
  2
虛線
 70
     0
 62
     6
  6
HIDDEN
370
    -3
390
F
  0
LAYER
  5
78
330
2
100
AcDbSymbolTableRecord
100
AcDbLayerTableRecord
  2
SECTION
 70
     0
 62
     5
  6
PHANTOM
370
    15
390
F
  0
LAYER
  5
79
330
2
100
AcDbSymbolTableRecord
100
AcDbLayerTableRecord
  2
假想線
 70
     0
 62
     5
  6
PHANTOM
370
    -3
390
F
  0
LAYER
  5
7A
330
2
100
AcDbSymbolTableRecord
100
AcDbLayerTableRecord
  2
工作區域參考線
 70
     0
 62
   179
  6
Continuous
370
    -3
390
F
  0
LAYER
  5
7B
330
2
100
AcDbSymbolTableRecord
100
AcDbLayerTableRecord
  2
圖層_1
 70
     0
 62
   179
  6
Continuous
370
    -3
390
F
  0
ENDTAB
  0
TABLE
  2
STYLE
  5
3
330
0
100
AcDbSymbolTable
 70
     2
  0
STYLE
  5
11
330
3
100
AcDbSymbolTableRecord
100
AcDbTextStyleTableRecord
  2
Standard
 70
     0
 40
0.0
 41
1.0
 50
0.0
 71
     0
 42
1.9598765432
  3
txt
  4

  0
STYLE
  5
CC
330
3
100
AcDbSymbolTableRecord
100
AcDbTextStyleTableRecord
  2
SLDTEXTSTYLE0
 70
     0
 40
0.0
 41
0.605
 50
0.0
 71
     0
 42
1.9598765432
  3
TXT
  4

  0
ENDTAB
  0
TABLE
  2
VIEW
  5
6
330
0
100
AcDbSymbolTable
 70
     0
  0
ENDTAB
  0
TABLE
  2
UCS
  5
7
330
0
100
AcDbSymbolTable
 70
     0
  0
ENDTAB
  0
TABLE
  2
APPID
  5
9
330
0
100
AcDbSymbolTable
 70
     1
  0
APPID
  5
12
330
9
100
AcDbSymbolTableRecord
100
AcDbRegAppTableRecord
  2
ACAD
 70
     0
  0
ENDTAB
  0
TABLE
  2
DIMSTYLE
  5
A
330
0
100
AcDbSymbolTable
 70
     5
100
AcDbDimStyleTable
  0
DIMSTYLE
105
27
330
A
100
AcDbSymbolTableRecord
100
AcDbDimStyleTableRecord
  2
ISO-25
 70
     0
 41
2.5
 42
0.625
 43
3.75
 44
1.25
 73
     0
 74
     0
 77
     1
 78
     8
140
2.5
141
2.5
143
0.0393700787
147
0.625
171
     3
172
     1
178
     0
271
     2
272
     2
274
     3
278
    44
283
     0
284
     8
340
11
  0
DIMSTYLE
105
16E
102
{ACAD_REACTORS
330
16D
330
178
330
203
330
20D
330
217
330
221
330
237
330
261
330
26B
102
}
330
A
100
AcDbSymbolTableRecord
100
AcDbDimStyleTableRecord
  2
SLDDIMSTYLE0
 70
     0
 41
1.1111111111
 44
0.0
 45
0.000000001
 73
     0
 74
     0
 77
     1
 78
    12
 79
     3
140
1.3888888889
147
0.3472222222
173
     1
178
     0
271
     2
272
     2
276
     2
284
    12
340
CC
  0
DIMSTYLE
105
183
102
{ACAD_REACTORS
330
182
102
}
330
A
100
AcDbSymbolTableRecord
100
AcDbDimStyleTableRecord
  2
SLDDIMSTYLE1
 70
     0
  3
<>
 41
1.1111111111
 44
0.0
 45
0.000000001
 78
    12
 79
     3
140
1.3888888889
141
0.0
147
0.3472222222
173
     1
178
     0
271
     2
272
     2
276
     2
284
    12
340
CC
  0
DIMSTYLE
105
22C
102
{ACAD_REACTORS
330
22B
102
}
330
A
100
AcDbSymbolTableRecord
100
AcDbDimStyleTableRecord
  2
SLDDIMSTYLE2
 70
     0
 41
1.1111111111
 44
0.0
 45
0.000000001
 73
     0
 74
     0
 77
     1
 78
    12
 79
     3
140
1.3888888889
147
0.3472222222
173
     1
178
     0
271
     1
272
     1
276
     2
284
    12
340
CC
  0
DIMSTYLE
105
276
102
{ACAD_REACTORS
330
275
102
}
330
A
100
AcDbSymbolTableRecord
100
AcDbDimStyleTableRecord
  2
SLDDIMSTYLE3
 70
     0
 41
1.1111111111
 44
0.0
 45
0.000000001
 78
    12
 79
     3
140
1.3888888889
141
0.0
147
0.3472222222
173
     1
178
     0
271
     2
272
     2
276
     2
284
    12
340
CC
  0
ENDTAB
  0
TABLE
  2
BLOCK_RECORD
  5
1
330
0
100
AcDbSymbolTable
 70
    19
  0
BLOCK_RECORD
  5
1F
330
1
100
AcDbSymbolTableRecord
100
AcDbBlockTableRecord
  2
*Model_Space
340
22
  0
BLOCK_RECORD
  5
1B
330
1
100
AcDbSymbolTableRecord
100
AcDbBlockTableRecord
  2
*Paper_Space
340
1E
  0
BLOCK_RECORD
  5
23
330
1
100
AcDbSymbolTableRecord
100
AcDbBlockTableRecord
  2
*Paper_Space0
340
26
  0
BLOCK_RECORD
  5
7C
330
1
100
AcDbSymbolTableRecord
100
AcDbBlockTableRecord
  2
圖塊6
340
0
102
{BLKREFS
331
CB
102
}
  0
BLOCK_RECORD
  5
CE
330
1
100
AcDbSymbolTableRecord
100
AcDbBlockTableRecord
  2
SW_NOTE_0
340
0
102
{BLKREFS
331
D4
102
}
  0
BLOCK_RECORD
  5
104
330
1
100
AcDbSymbolTableRecord
100
AcDbBlockTableRecord
  2
SW_NOTE_1
340
0
102
{BLKREFS
331
109
102
}
  0
BLOCK_RECORD
  5
16F
330
1
100
AcDbSymbolTableRecord
100
AcDbBlockTableRecord
  2
_D
340
0
  0
BLOCK_RECORD
  5
179
330
1
100
AcDbSymbolTableRecord
100
AcDbBlockTableRecord
  2
_D_1
340
0
  0
BLOCK_RECORD
  5
184
330
1
100
AcDbSymbolTableRecord
100
AcDbBlockTableRecord
  2
_D_2
340
0
  0
BLOCK_RECORD
  5
18C
330
1
100
AcDbSymbolTableRecord
100
AcDbBlockTableRecord
  2
SW_CENTERMARKSYMBOL_0
340
0
102
{BLKREFS
331
197
102
}
  0
BLOCK_RECORD
  5
204
330
1
100
AcDbSymbolTableRecord
100
AcDbBlockTableRecord
  2
_D_3
340
0
  0
BLOCK_RECORD
  5
20E
330
1
100
AcDbSymbolTableRecord
100
AcDbBlockTableRecord
  2
_D_4
340
0
  0
BLOCK_RECORD
  5
218
330
1
100
AcDbSymbolTableRecord
100
AcDbBlockTableRecord
  2
_D_5
340
0
  0
BLOCK_RECORD
  5
222
330
1
100
AcDbSymbolTableRecord
100
AcDbBlockTableRecord
  2
_D_6
340
0
  0
BLOCK_RECORD
  5
22D
330
1
100
AcDbSymbolTableRecord
100
AcDbBlockTableRecord
  2
_D_7
340
0
  0
BLOCK_RECORD
  5
238
330
1
100
AcDbSymbolTableRecord
100
AcDbBlockTableRecord
  2
_D_8
340
0
  0
BLOCK_RECORD
  5
241
330
1
100
AcDbSymbolTableRecord
100
AcDbBlockTableRecord
  2
SW_CENTERMARKSYMBOL_1
340
0
102
{BLKREFS
331
24C
102
}
  0
BLOCK_RECORD
  5
262
330
1
100
AcDbSymbolTableRecord
100
AcDbBlockTableRecord
  2
_D_9
340
0
  0
BLOCK_RECORD
  5
26C
330
1
100
AcDbSymbolTableRecord
100
AcDbBlockTableRecord
  2
_D_10
340
0
  0
BLOCK_RECORD
  5
277
330
1
100
AcDbSymbolTableRecord
100
AcDbBlockTableRecord
  2
_D_11
340
0
  0
BLOCK_RECORD
  5
280
330
1
100
AcDbSymbolTableRecord
100
AcDbBlockTableRecord
  2
SW_CENTERMARKSYMBOL_2
340
0
102
{BLKREFS
331
28B
102
}
  0
ENDTAB
  0
ENDSEC
  0
SECTION
  2
BLOCKS
  0
BLOCK
  5
20
330
1F
100
AcDbEntity
  8
0
100
AcDbBlockBegin
  2
*Model_Space
 70
     0
 10
0.0
 20
0.0
 30
0.0
  3
*Model_Space
  1

  0
ENDBLK
  5
21
330
1F
100
AcDbEntity
  8
0
100
AcDbBlockEnd
  0
BLOCK
  5
1C
330
1B
100
AcDbEntity
 67
     1
  8
0
100
AcDbBlockBegin
  2
*Paper_Space
 70
     0
 10
0.0
 20
0.0
 30
0.0
  3
*Paper_Space
  1

  0
ENDBLK
  5
1D
330
1B
100
AcDbEntity
 67
     1
  8
0
100
AcDbBlockEnd
  0
BLOCK
  5
24
330
23
100
AcDbEntity
  8
0
100
AcDbBlockBegin
  2
*Paper_Space0
 70
     0
 10
0.0
 20
0.0
 30
0.0
  3
*Paper_Space0
  1

  0
ENDBLK
  5
25
330
23
100
AcDbEntity
  8
0
100
AcDbBlockEnd
  0
BLOCK
  5
7D
330
7C
100
AcDbEntity
  8
0
100
AcDbBlockBegin
  2
圖塊6
 70
     0
 10
0.0
 20
0.0
 30
0.0
  3
圖塊6
  1

  0
ARC
  5
7F
330
7C
100
AcDbEntity
  8
工作區域參考線
 62
     7
370
    30
100
AcDbCircle
 10
0.8500857966
 20
3.3900379384
 30
0.0
 40
0.8500857966353726
100
AcDbArc
 50
130.2115225915
 51
228.588904108
  0
ARC
  5
80
330
7C
100
AcDbEntity
  8
工作區域參考線
 62
     7
370
    30
100
AcDbCircle
 10
2.694951999
 20
3.3305252453
 30
0.0
 40
1.431853014898679
100
AcDbArc
 50
140.4331765613
 51
251.0865666567
  0
ARC
  5
81
330
7C
100
AcDbEntity
  8
工作區域參考線
 62
     7
370
    30
100
AcDbCircle
 10
2.8758356657
 20
3.5065310952
 30
0.0
 40
1.66090925431659
100
AcDbArc
 50
247.1485306747
 51
309.6030773927
  0
LINE
  5
82
330
7C
100
AcDbEntity
  8
工作區域參考線
 62
     7
370
    30
100
AcDbLine
 10
1.0271654038
 20
4.7401014435
 30
0.0
 11
0.3012608178
 21
4.0392197344
 31
0.0
  0
LINE
  5
83
330
7C
100
AcDbEntity
  8
工作區域參考線
 62
     7
370
    30
100
AcDbLine
 10
0.2877904944
 20
2.7524880543
 30
0.0
 11
2.5151251112
 21
0.8165970319
 31
0.0
  0
LINE
  5
84
330
7C
100
AcDbEntity
  8
工作區域參考線
 62
     7
370
    30
100
AcDbLine
 10
2.5151251112
 20
0.8165970319
 30
0.0
 11
2.164540711
 21
0.4744301483
 31
0.0
  0
LINE
  5
85
330
7C
100
AcDbEntity
  8
工作區域參考線
 62
     7
370
    30
100
AcDbLine
 10
2.164540711
 20
0.4744301483
 30
0.0
 11
2.7155848025
 21
0.0
 31
0.0
  0
LINE
  5
86
330
7C
100
AcDbEntity
  8
工作區域參考線
 62
     7
370
    30
100
AcDbLine
 10
4.4987317105
 20
1.7314322031
 30
0.0
 11
3.934607804
 21
2.2268353851
 31
0.0
  0
LINE
  5
87
330
7C
100
AcDbEntity
  8
工作區域參考線
 62
     7
370
    30
100
AcDbLine
 10
1.5911619857
 20
4.2425837209
 30
0.0
 11
1.0271654038
 21
4.7401014435
 31
0.0
  0
LINE
  5
88
330
7C
100
AcDbEntity
  8
工作區域參考線
 62
     7
370
    30
100
AcDbLine
 10
2.7155848025
 20
0.0
 30
0.0
 11
4.4987317105
 21
1.7314322031
 31
0.0
  0
ENDBLK
  5
7E
330
7C
100
AcDbEntity
  8
0
100
AcDbBlockEnd
  0
BLOCK
  5
CF
330
CE
100
AcDbEntity
  8
0
100
AcDbBlockBegin
  2
SW_NOTE_0
 70
     0
 10
0.0
 20
0.0
 30
0.0
  3
SW_NOTE_0
  1

  0
MTEXT
  5
D1
330
CE
100
AcDbEntity
  8
0
  6
Continuous
 62
     0
370
     0
100
AcDbMText
 10
0.0
 20
1.8948102193
 30
0.0
 40
1.4699074074
 41
0.0
 71
     1
 72
     1
  1
PROPRIETARY AND CONFIDENTIAL
  7
SLDTEXTSTYLE0
 73
     1
 44
1.0
  0
MTEXT
  5
D2
330
CE
100
AcDbEntity
  8
0
  6
Continuous
 62
     0
370
     0
100
AcDbMText
 10
0.0
 20
-0.0455463778
 30
0.0
 40
1.0289351852
 41
0.0
 71
     1
 72
     1
  1
THE INFORMATION CONTAINED IN THIS DRAWING IS THE SOLE PROPERTY OF UNICE E-O SERVICES INC. ANY REPRODUCTION IN PART OR AS A WHOLE WITHOUT THE WRITTEN PERMISSION OF UNICE E-O SERVICES INC IS
  7
SLDTEXTSTYLE0
 73
     1
 44
1.0
  0
MTEXT
  5
D3
330
CE
100
AcDbEntity
  8
0
  6
Continuous
 62
     0
370
     0
100
AcDbMText
 10
0.0
 20
-1.4174599415
 30
0.0
 40
1.0289351852
 41
0.0
 71
     1
 72
     1
  1
PROHIBITED.
  7
SLDTEXTSTYLE0
 73
     1
 44
1.0
  0
ENDBLK
  5
D0
330
CE
100
AcDbEntity
  8
0
100
AcDbBlockEnd
  0
BLOCK
  5
105
330
104
100
AcDbEntity
  8
0
100
AcDbBlockBegin
  2
SW_NOTE_1
 70
     0
 10
0.0
 20
0.0
 30
0.0
  3
SW_NOTE_1
  1

  0
MTEXT
  5
107
330
104
100
AcDbEntity
  8
SLD-0
 62
     0
100
AcDbMText
 10
0.0
 20
1.1368861316
 30
0.0
 40
0.8819444444
 41
0.0
 71
     1
 72
     1
  1
No.5, Andong Rd., Chung Li District,
  7
SLDTEXTSTYLE0
 73
     1
 44
1.0
  0
MTEXT
  5
108
330
104
100
AcDbEntity
  8
SLD-0
 62
     0
100
AcDbMText
 10
0.0
 20
-0.0390397801
 30
0.0
 40
0.8819444444
 41
0.0
 71
     1
 72
     1
  1
Taoyuan City 32063, Taiwan, R.O.C.
  7
SLDTEXTSTYLE0
 73
     1
 44
1.0
  0
ENDBLK
  5
106
330
104
100
AcDbEntity
  8
0
100
AcDbBlockEnd
  0
BLOCK
  5
170
330
16F
100
AcDbEntity
  8
0
100
AcDbBlockBegin
  2
_D
 70
     0
 10
0.0
 20
0.0
 30
0.0
  3
_D
  1

  0
SOLID
  5
172
330
16F
100
AcDbEntity
  8
DIM
 62
     7
100
AcDbTrace
 10
31.4126421118
 20
32.5451442087
 30
0.0
 11
30.3015310007
 21
32.6840330976
 31
0.0
 12
30.3015310007
 22
32.4062553199
 32
0.0
 13
30.3015310007
 23
32.4062553199
 33
0.0
  0
SOLID
  5
173
330
16F
100
AcDbEntity
  8
DIM
 62
     7
100
AcDbTrace
 10
17.9126421118
 20
32.5451442087
 30
0.0
 11
19.0237532229
 21
32.4062553199
 31
0.0
 12
19.0237532229
 22
32.6840330976
 32
0.0
 13
19.0237532229
 23
32.6840330976
 33
0.0
  0
LINE
  5
174
330
16F
100
AcDbEntity
  8
DIM
 62
     7
100
AcDbLine
 10
31.4126421118
 20
48.0127857563
 30
0.0
 11
31.4126421118
 21
31.9895886532
 31
0.0
  0
LINE
  5
175
330
16F
100
AcDbEntity
  8
DIM
 62
     7
100
AcDbLine
 10
17.9126421118
 20
39.2399857563
 30
0.0
 11
17.9126421118
 21
31.9895886532
 31
0.0
  0
LINE
  5
176
330
16F
100
AcDbEntity
  8
DIM
 62
     7
100
AcDbLine
 10
31.4126421118
 20
32.5451442087
 30
0.0
 11
17.9126421118
 21
32.5451442087
 31
0.0
  0
MTEXT
  5
177
330
16F
100
AcDbEntity
  8
DIM
 62
     7
100
AcDbMText
 10
22.8059677751
 20
34.3355159725
 30
0.0
 40
1.3888888889
 41
0.0
 71
     1
 72
     1
  1
13.5
  7
SLDTEXTSTYLE0
 73
     1
 44
1.0
  0
ENDBLK
  5
171
330
16F
100
AcDbEntity
  8
0
100
AcDbBlockEnd
  0
BLOCK
  5
17A
330
179
100
AcDbEntity
  8
0
100
AcDbBlockBegin
  2
_D_1
 70
     0
 10
0.0
 20
0.0
 30
0.0
  3
_D_1
  1

  0
SOLID
  5
17C
330
179
100
AcDbEntity
  8
DIM
 62
     7
100
AcDbTrace
 10
14.2266588629
 20
51.2955413118
 30
0.0
 11
14.087769974
 21
50.1844302007
 31
0.0
 12
14.3655477518
 22
50.1844302007
 32
0.0
 13
14.3655477518
 23
50.1844302007
 33
0.0
  0
SOLID
  5
17D
330
179
100
AcDbEntity
  8
DIM
 62
     7
100
AcDbTrace
 10
14.2266588629
 20
37.7955413118
 30
0.0
 11
14.3655477518
 21
38.906652423
 31
0.0
 12
14.087769974
 22
38.906652423
 32
0.0
 13
14.087769974
 23
38.906652423
 33
0.0
  0
LINE
  5
17E
330
179
100
AcDbEntity
  8
DIM
 62
     7
100
AcDbLine
 10
28.1298865563
 20
51.2955413118
 30
0.0
 11
13.6711033073
 21
51.2955413118
 31
0.0
  0
LINE
  5
17F
330
179
100
AcDbEntity
  8
DIM
 62
     7
100
AcDbLine
 10
19.3570865563
 20
37.7955413118
 30
0.0
 11
13.6711033073
 21
37.7955413118
 31
0.0
  0
LINE
  5
180
330
179
100
AcDbEntity
  8
DIM
 62
     7
100
AcDbLine
 10
14.2266588629
 20
51.2955413118
 30
0.0
 11
14.2266588629
 21
37.7955413118
 31
0.0
  0
MTEXT
  5
181
330
179
100
AcDbEntity
  8
DIM
 62
     7
100
AcDbMText
 10
12.4362870991
 20
42.6888669751
 30
0.0
 40
1.3888888889
 41
0.0
 71
     1
 72
     1
  1
13.5
  7
SLDTEXTSTYLE0
 11
-3.491481338843133E-15
 21
1.0
 31
0.0
 73
     1
 44
1.0
  0
ENDBLK
  5
17B
330
179
100
AcDbEntity
  8
0
100
AcDbBlockEnd
  0
BLOCK
  5
185
330
184
100
AcDbEntity
  8
0
100
AcDbBlockBegin
  2
_D_2
 70
     0
 10
0.0
 20
0.0
 30
0.0
  3
_D_2
  1

  0
SOLID
  5
187
330
184
100
AcDbEntity
  8
DIM
 62
     7
100
AcDbTrace
 10
31.8596743665
 20
52.963888399
 30
0.0
 11
32.2814074481
 21
54.0011922275
 31
0.0
 12
32.0130947185
 22
54.0730864067
 32
0.0
 13
32.0130947185
 23
54.0730864067
 33
0.0
  0
LINE
  5
188
330
184
100
AcDbEntity
  8
DIM
 62
     7
100
AcDbLine
 10
31.8596743665
 20
52.963888399
 30
0.0
 11
35.6155183262
 21
66.980888882
 31
0.0
  0
LINE
  5
189
330
184
100
AcDbEntity
  8
DIM
 62
     7
100
AcDbLine
 10
35.6155183262
 20
66.980888882
 30
0.0
 11
44.899854591
 21
66.980888882
 31
0.0
  0
MTEXT
  5
18A
330
184
100
AcDbEntity
  8
DIM
 62
     7
100
AcDbMText
 10
36.3099627707
 20
70.9028192383
 30
0.0
 40
1.3888888889
 41
0.0
 71
     1
 72
     1
  1
4 HOLES,
  7
SLDTEXTSTYLE0
 73
     1
 44
1.0
  0
MTEXT
  5
18B
330
184
100
AcDbEntity
  8
DIM
 62
     7
100
AcDbMText
 10
36.830796104
 20
68.7712606457
 30
0.0
 40
1.3888888889
 41
0.0
 71
     1
 72
     1
  1
8-32
  7
SLDTEXTSTYLE0
 73
     1
 44
1.0
  0
ENDBLK
  5
186
330
184
100
AcDbEntity
  8
0
100
AcDbBlockEnd
  0
BLOCK
  5
18D
330
18C
100
AcDbEntity
  8
0
100
AcDbBlockBegin
  2
SW_CENTERMARKSYMBOL_0
 70
     0
 10
0.0
 20
0.0
 30
0.0
  3
SW_CENTERMARKSYMBOL_0
  1

  0
LINE
  5
18F
330
18C
100
AcDbEntity
  8
DIM
 62
     0
100
AcDbLine
 10
0.0
 20
0.0
 30
0.0
 11
0.0
 21
1.0
 31
0.0
  0
LINE
  5
190
330
18C
100
AcDbEntity
  8
DIM
 62
     0
100
AcDbLine
 10
0.0
 20
0.0
 30
0.0
 11
-1.0
 21
0.0
 31
0.0
  0
LINE
  5
191
330
18C
100
AcDbEntity
  8
DIM
 62
     0
100
AcDbLine
 10
0.0
 20
0.0
 30
0.0
 11
0.0
 21
-1.0
 31
0.0
  0
LINE
  5
192
330
18C
100
AcDbEntity
  8
DIM
 62
     0
100
AcDbLine
 10
0.0
 20
0.0
 30
0.0
 11
1.0
 21
0.0
 31
0.0
  0
LINE
  5
193
330
18C
100
AcDbEntity
  8
DIM
 62
     0
100
AcDbLine
 10
0.0
 20
2.0
 30
0.0
 11
0.0
 21
2.7272
 31
0.0
  0
LINE
  5
194
330
18C
100
AcDbEntity
  8
DIM
 62
     0
100
AcDbLine
 10
-2.0
 20
0.0
 30
0.0
 11
-2.7272
 21
0.0
 31
0.0
  0
LINE
  5
195
330
18C
100
AcDbEntity
  8
DIM
 62
     0
100
AcDbLine
 10
0.0
 20
-2.0
 30
0.0
 11
0.0
 21
-2.7272
 31
0.0
  0
LINE
  5
196
330
18C
100
AcDbEntity
  8
DIM
 62
     0
100
AcDbLine
 10
2.0
 20
0.0
 30
0.0
 11
2.7272
 21
0.0
 31
0.0
  0
ENDBLK
  5
18E
330
18C
100
AcDbEntity
  8
0
100
AcDbBlockEnd
  0
BLOCK
  5
205
330
204
100
AcDbEntity
  8
0
100
AcDbBlockBegin
  2
_D_3
 70
     0
 10
0.0
 20
0.0
 30
0.0
  3
_D_3
  1

  0
SOLID
  5
207
330
204
100
AcDbEntity
  8
DIM
 62
     7
100
AcDbTrace
 10
64.2984818764
 20
33.8347833856
 30
0.0
 11
65.4095929875
 21
33.6958944967
 31
0.0
 12
65.4095929875
 22
33.9736722745
 32
0.0
 13
65.4095929875
 23
33.9736722745
 33
0.0
  0
SOLID
  5
208
330
204
100
AcDbEntity
  8
DIM
 62
     7
100
AcDbTrace
 10
68.2984818764
 20
33.8347833856
 30
0.0
 11
67.1873707653
 21
33.9736722745
 31
0.0
 12
67.1873707653
 22
33.6958944967
 32
0.0
 13
67.1873707653
 23
33.6958944967
 33
0.0
  0
LINE
  5
209
330
204
100
AcDbEntity
  8
DIM
 62
     7
100
AcDbLine
 10
64.2984818764
 20
37.2399857563
 30
0.0
 11
64.2984818764
 21
33.27922783
 31
0.0
  0
LINE
  5
20A
330
204
100
AcDbEntity
  8
DIM
 62
     7
100
AcDbLine
 10
68.2984818764
 20
48.0127857563
 30
0.0
 11
68.2984818764
 21
33.27922783
 31
0.0
  0
LINE
  5
20B
330
204
100
AcDbEntity
  8
DIM
 62
     7
100
AcDbLine
 10
64.2984818764
 20
33.8347833856
 30
0.0
 11
68.2984818764
 21
33.8347833856
 31
0.0
  0
MTEXT
  5
20C
330
204
100
AcDbEntity
  8
DIM
 62
     7
100
AcDbMText
 10
65.7680034806
 20
35.6251551493
 30
0.0
 40
1.3888888889
 41
0.0
 71
     1
 72
     1
  1
4
  7
SLDTEXTSTYLE0
 73
     1
 44
1.0
  0
ENDBLK
  5
206
330
204
100
AcDbEntity
  8
0
100
AcDbBlockEnd
  0
BLOCK
  5
20F
330
20E
100
AcDbEntity
  8
0
100
AcDbBlockBegin
  2
_D_4
 70
     0
 10
0.0
 20
0.0
 30
0.0
  3
_D_4
  1

  0
SOLID
  5
211
330
20E
100
AcDbEntity
  8
DIM
 62
     7
100
AcDbTrace
 10
64.2984818764
 20
30.4015605066
 30
0.0
 11
65.4095929875
 21
30.2626716177
 31
0.0
 12
65.4095929875
 22
30.5404493955
 32
0.0
 13
65.4095929875
 23
30.5404493955
 33
0.0
  0
SOLID
  5
212
330
20E
100
AcDbEntity
  8
DIM
 62
     7
100
AcDbTrace
 10
72.2984818764
 20
30.4015605066
 30
0.0
 11
71.1873707653
 21
30.5404493955
 31
0.0
 12
71.1873707653
 22
30.2626716177
 32
0.0
 13
71.1873707653
 23
30.2626716177
 33
0.0
  0
LINE
  5
213
330
20E
100
AcDbEntity
  8
DIM
 62
     7
100
AcDbLine
 10
64.2984818764
 20
37.2399857563
 30
0.0
 11
64.2984818764
 21
29.846004951
 31
0.0
  0
LINE
  5
214
330
20E
100
AcDbEntity
  8
DIM
 62
     7
100
AcDbLine
 10
72.2984818764
 20
37.2399857563
 30
0.0
 11
72.2984818764
 21
29.846004951
 31
0.0
  0
LINE
  5
215
330
20E
100
AcDbEntity
  8
DIM
 62
     7
100
AcDbLine
 10
64.2984818764
 20
30.4015605066
 30
0.0
 11
72.2984818764
 21
30.4015605066
 31
0.0
  0
MTEXT
  5
216
330
20E
100
AcDbEntity
  8
DIM
 62
     7
100
AcDbMText
 10
67.7680034806
 20
32.1919322704
 30
0.0
 40
1.3888888889
 41
0.0
 71
     1
 72
     1
  1
8
  7
SLDTEXTSTYLE0
 73
     1
 44
1.0
  0
ENDBLK
  5
210
330
20E
100
AcDbEntity
  8
0
100
AcDbBlockEnd
  0
BLOCK
  5
219
330
218
100
AcDbEntity
  8
0
100
AcDbBlockBegin
  2
_D_5
 70
     0
 10
0.0
 20
0.0
 30
0.0
  3
_D_5
  1

  0
SOLID
  5
21B
330
218
100
AcDbEntity
  8
DIM
 62
     7
100
AcDbTrace
 10
74.4984818764
 20
30.4015605066
 30
0.0
 11
75.6095929875
 21
30.2626716177
 31
0.0
 12
75.6095929875
 22
30.5404493955
 32
0.0
 13
75.6095929875
 23
30.5404493955
 33
0.0
  0
SOLID
  5
21C
330
218
100
AcDbEntity
  8
DIM
 62
     7
100
AcDbTrace
 10
80.4984818764
 20
30.4015605066
 30
0.0
 11
79.3873707653
 21
30.5404493955
 31
0.0
 12
79.3873707653
 22
30.2626716177
 32
0.0
 13
79.3873707653
 23
30.2626716177
 33
0.0
  0
LINE
  5
21D
330
218
100
AcDbEntity
  8
DIM
 62
     7
100
AcDbLine
 10
74.4984818764
 20
38.2399857563
 30
0.0
 11
74.4984818764
 21
29.846004951
 31
0.0
  0
LINE
  5
21E
330
218
100
AcDbEntity
  8
DIM
 62
     7
100
AcDbLine
 10
80.4984818764
 20
38.2399857563
 30
0.0
 11
80.4984818764
 21
29.846004951
 31
0.0
  0
LINE
  5
21F
330
218
100
AcDbEntity
  8
DIM
 62
     7
100
AcDbLine
 10
74.4984818764
 20
30.4015605066
 30
0.0
 11
80.4984818764
 21
30.4015605066
 31
0.0
  0
MTEXT
  5
220
330
218
100
AcDbEntity
  8
DIM
 62
     7
100
AcDbMText
 10
76.9680034806
 20
32.1919322704
 30
0.0
 40
1.3888888889
 41
0.0
 71
     1
 72
     1
  1
6
  7
SLDTEXTSTYLE0
 73
     1
 44
1.0
  0
ENDBLK
  5
21A
330
218
100
AcDbEntity
  8
0
100
AcDbBlockEnd
  0
BLOCK
  5
223
330
222
100
AcDbEntity
  8
0
100
AcDbBlockBegin
  2
_D_6
 70
     0
 10
0.0
 20
0.0
 30
0.0
  3
_D_6
  1

  0
SOLID
  5
225
330
222
100
AcDbEntity
  8
DIM
 62
     7
100
AcDbTrace
 10
64.2984818764
 20
26.4425287182
 30
0.0
 11
65.4095929875
 21
26.3036398293
 31
0.0
 12
65.4095929875
 22
26.5814176071
 32
0.0
 13
65.4095929875
 23
26.5814176071
 33
0.0
  0
SOLID
  5
226
330
222
100
AcDbEntity
  8
DIM
 62
     7
100
AcDbTrace
 10
80.4984818764
 20
26.4425287182
 30
0.0
 11
79.3873707653
 21
26.5814176071
 31
0.0
 12
79.3873707653
 22
26.3036398293
 32
0.0
 13
79.3873707653
 23
26.3036398293
 33
0.0
  0
LINE
  5
227
330
222
100
AcDbEntity
  8
DIM
 62
     7
100
AcDbLine
 10
64.2984818764
 20
37.2399857563
 30
0.0
 11
64.2984818764
 21
25.8869731627
 31
0.0
  0
LINE
  5
228
330
222
100
AcDbEntity
  8
DIM
 62
     7
100
AcDbLine
 10
80.4984818764
 20
38.2399857563
 30
0.0
 11
80.4984818764
 21
25.8869731627
 31
0.0
  0
LINE
  5
229
330
222
100
AcDbEntity
  8
DIM
 62
     7
100
AcDbLine
 10
64.2984818764
 20
26.4425287182
 30
0.0
 11
80.4984818764
 21
26.4425287182
 31
0.0
  0
MTEXT
  5
22A
330
222
100
AcDbEntity
  8
DIM
 62
     7
100
AcDbMText
 10
70.5418075397
 20
28.232900482
 30
0.0
 40
1.3888888889
 41
0.0
 71
     1
 72
     1
  1
16.2
  7
SLDTEXTSTYLE0
 73
     1
 44
1.0
  0
ENDBLK
  5
224
330
222
100
AcDbEntity
  8
0
100
AcDbBlockEnd
  0
BLOCK
  5
22E
330
22D
100
AcDbEntity
  8
0
100
AcDbBlockBegin
  2
_D_7
 70
     0
 10
0.0
 20
0.0
 30
0.0
  3
_D_7
  1

  0
SOLID
  5
230
330
22D
100
AcDbEntity
  8
DIM
 62
     7
100
AcDbTrace
 10
52.9184818764
 20
20.5967708432
 30
0.0
 11
54.0295929875
 21
20.4578819543
 31
0.0
 12
54.0295929875
 22
20.7356597321
 32
0.0
 13
54.0295929875
 23
20.7356597321
 33
0.0
  0
SOLID
  5
231
330
22D
100
AcDbEntity
  8
DIM
 62
     7
100
AcDbTrace
 10
80.4984818764
 20
20.5967708432
 30
0.0
 11
79.3873707653
 21
20.7356597321
 31
0.0
 12
79.3873707653
 22
20.4578819543
 32
0.0
 13
79.3873707653
 23
20.4578819543
 33
0.0
  0
LINE
  5
232
330
22D
100
AcDbEntity
  8
DIM
 62
     7
100
AcDbLine
 10
52.9184818764
 20
38.7399857563
 30
0.0
 11
52.9184818764
 21
20.0412152876
 31
0.0
  0
LINE
  5
233
330
22D
100
AcDbEntity
  8
DIM
 62
     7
100
AcDbLine
 10
80.4984818764
 20
38.2399857563
 30
0.0
 11
80.4984818764
 21
20.0412152876
 31
0.0
  0
LINE
  5
234
330
22D
100
AcDbEntity
  8
DIM
 62
     7
100
AcDbLine
 10
52.9184818764
 20
20.5967708432
 30
0.0
 11
80.4984818764
 21
20.5967708432
 31
0.0
  0
MTEXT
  5
235
330
22D
100
AcDbEntity
  8
DIM
 62
     7
100
AcDbMText
 10
64.8518075397
 20
24.5187011995
 30
0.0
 40
1.3888888889
 41
0.0
 71
     1
 72
     1
  1
27.6
  7
SLDTEXTSTYLE0
 73
     1
 44
1.0
  0
MTEXT
  5
236
330
22D
100
AcDbEntity
  8
DIM
 62
     7
100
AcDbMText
 10
62.3624169636
 20
22.387142607
 30
0.0
 40
1.3888888889
 41
0.0
 71
     1
 72
     1
  1
NOMINAL
  7
SLDTEXTSTYLE0
 73
     1
 44
1.0
  0
ENDBLK
  5
22F
330
22D
100
AcDbEntity
  8
0
100
AcDbBlockEnd
  0
BLOCK
  5
239
330
238
100
AcDbEntity
  8
0
100
AcDbBlockBegin
  2
_D_8
 70
     0
 10
0.0
 20
0.0
 30
0.0
  3
_D_8
  1

  0
SOLID
  5
23B
330
238
100
AcDbEntity
  8
DIM
 62
     7
100
AcDbTrace
 10
84.3906565531
 20
37.7955413118
 30
0.0
 11
84.529545442
 21
38.906652423
 31
0.0
 12
84.2517676642
 22
38.906652423
 32
0.0
 13
84.2517676642
 23
38.906652423
 33
0.0
  0
SOLID
  5
23C
330
238
100
AcDbEntity
  8
DIM
 62
     7
100
AcDbTrace
 10
84.3906565531
 20
51.2955413118
 30
0.0
 11
84.2517676642
 21
50.1844302007
 31
0.0
 12
84.529545442
 22
50.1844302007
 32
0.0
 13
84.529545442
 23
50.1844302007
 33
0.0
  0
LINE
  5
23D
330
238
100
AcDbEntity
  8
DIM
 62
     7
100
AcDbLine
 10
72.854037432
 20
37.7955413118
 30
0.0
 11
84.9462121086
 21
37.7955413118
 31
0.0
  0
LINE
  5
23E
330
238
100
AcDbEntity
  8
DIM
 62
     7
100
AcDbLine
 10
71.581237432
 20
51.2955413118
 30
0.0
 11
84.9462121086
 21
51.2955413118
 31
0.0
  0
LINE
  5
23F
330
238
100
AcDbEntity
  8
DIM
 62
     7
100
AcDbLine
 10
84.3906565531
 20
37.7955413118
 30
0.0
 11
84.3906565531
 21
51.2955413118
 31
0.0
  0
MTEXT
  5
240
330
238
100
AcDbEntity
  8
DIM
 62
     7
100
AcDbMText
 10
82.6002847893
 20
42.6888669751
 30
0.0
 40
1.3888888889
 41
0.0
 71
     1
 72
     1
  1
13.5
  7
SLDTEXTSTYLE0
 11
6.123233995736766E-17
 21
1.0
 31
0.0
 73
     1
 44
1.0
  0
ENDBLK
  5
23A
330
238
100
AcDbEntity
  8
0
100
AcDbBlockEnd
  0
BLOCK
  5
242
330
241
100
AcDbEntity
  8
0
100
AcDbBlockBegin
  2
SW_CENTERMARKSYMBOL_1
 70
     0
 10
0.0
 20
0.0
 30
0.0
  3
SW_CENTERMARKSYMBOL_1
  1

  0
LINE
  5
244
330
241
100
AcDbEntity
  8
DIM
 62
     0
100
AcDbLine
 10
0.0
 20
0.0
 30
0.0
 11
0.0
 21
1.0
 31
0.0
  0
LINE
  5
245
330
241
100
AcDbEntity
  8
DIM
 62
     0
100
AcDbLine
 10
0.0
 20
0.0
 30
0.0
 11
-1.0
 21
0.0
 31
0.0
  0
LINE
  5
246
330
241
100
AcDbEntity
  8
DIM
 62
     0
100
AcDbLine
 10
0.0
 20
0.0
 30
0.0
 11
0.0
 21
-1.0
 31
0.0
  0
LINE
  5
247
330
241
100
AcDbEntity
  8
DIM
 62
     0
100
AcDbLine
 10
0.0
 20
0.0
 30
0.0
 11
1.0
 21
0.0
 31
0.0
  0
LINE
  5
248
330
241
100
AcDbEntity
  8
DIM
 62
     0
100
AcDbLine
 10
0.0
 20
2.0
 30
0.0
 11
0.0
 21
2.7272
 31
0.0
  0
LINE
  5
249
330
241
100
AcDbEntity
  8
DIM
 62
     0
100
AcDbLine
 10
-2.0
 20
0.0
 30
0.0
 11
-2.7272
 21
0.0
 31
0.0
  0
LINE
  5
24A
330
241
100
AcDbEntity
  8
DIM
 62
     0
100
AcDbLine
 10
0.0
 20
-2.0
 30
0.0
 11
0.0
 21
-2.7272
 31
0.0
  0
LINE
  5
24B
330
241
100
AcDbEntity
  8
DIM
 62
     0
100
AcDbLine
 10
2.0
 20
0.0
 30
0.0
 11
2.7272
 21
0.0
 31
0.0
  0
ENDBLK
  5
243
330
241
100
AcDbEntity
  8
0
100
AcDbBlockEnd
  0
BLOCK
  5
263
330
262
100
AcDbEntity
  8
0
100
AcDbBlockBegin
  2
_D_9
 70
     0
 10
0.0
 20
0.0
 30
0.0
  3
_D_9
  1

  0
SOLID
  5
265
330
262
100
AcDbEntity
  8
DIM
 62
     7
100
AcDbTrace
 10
123.5561624901
 20
37.7955413118
 30
0.0
 11
123.695051379
 21
38.906652423
 31
0.0
 12
123.4172736012
 22
38.906652423
 32
0.0
 13
123.4172736012
 23
38.906652423
 33
0.0
  0
SOLID
  5
266
330
262
100
AcDbEntity
  8
DIM
 62
     7
100
AcDbTrace
 10
123.5561624901
 20
63.7955413118
 30
0.0
 11
123.4172736012
 21
62.6844302007
 31
0.0
 12
123.695051379
 22
62.6844302007
 32
0.0
 13
123.695051379
 23
62.6844302007
 33
0.0
  0
LINE
  5
267
330
262
100
AcDbEntity
  8
DIM
 62
     7
100
AcDbLine
 10
116.0637664695
 20
37.7955413118
 30
0.0
 11
124.1117180457
 21
37.7955413118
 31
0.0
  0
LINE
  5
268
330
262
100
AcDbEntity
  8
DIM
 62
     7
100
AcDbLine
 10
115.0637664695
 20
63.7955413118
 30
0.0
 11
124.1117180457
 21
63.7955413118
 31
0.0
  0
LINE
  5
269
330
262
100
AcDbEntity
  8
DIM
 62
     7
100
AcDbLine
 10
123.5561624901
 20
37.7955413118
 30
0.0
 11
123.5561624901
 21
63.7955413118
 31
0.0
  0
MTEXT
  5
26A
330
262
100
AcDbEntity
  8
DIM
 62
     7
100
AcDbMText
 10
121.7657907263
 20
49.7345845203
 30
0.0
 40
1.3888888889
 41
0.0
 71
     1
 72
     1
  1
26
  7
SLDTEXTSTYLE0
 11
-3.713525943768165E-15
 21
1.0
 31
0.0
 73
     1
 44
1.0
  0
ENDBLK
  5
264
330
262
100
AcDbEntity
  8
0
100
AcDbBlockEnd
  0
BLOCK
  5
26D
330
26C
100
AcDbEntity
  8
0
100
AcDbBlockBegin
  2
_D_10
 70
     0
 10
0.0
 20
0.0
 30
0.0
  3
_D_10
  1

  0
SOLID
  5
26F
330
26C
100
AcDbEntity
  8
DIM
 62
     7
100
AcDbTrace
 10
117.5082109139
 20
31.6562553199
 30
0.0
 11
116.3970998028
 21
31.7951442087
 31
0.0
 12
116.3970998028
 22
31.517366431
 32
0.0
 13
116.3970998028
 23
31.517366431
 33
0.0
  0
SOLID
  5
270
330
26C
100
AcDbEntity
  8
DIM
 62
     7
100
AcDbTrace
 10
90.5082109139
 20
31.6562553199
 30
0.0
 11
91.6193220251
 21
31.517366431
 31
0.0
 12
91.6193220251
 22
31.7951442087
 32
0.0
 13
91.6193220251
 23
31.7951442087
 33
0.0
  0
LINE
  5
271
330
26C
100
AcDbEntity
  8
DIM
 62
     7
100
AcDbLine
 10
117.5082109139
 20
39.2399857563
 30
0.0
 11
117.5082109139
 21
31.1006997643
 31
0.0
  0
LINE
  5
272
330
26C
100
AcDbEntity
  8
DIM
 62
     7
100
AcDbLine
 10
90.5082109139
 20
39.2399857563
 30
0.0
 11
90.5082109139
 21
31.1006997643
 31
0.0
  0
LINE
  5
273
330
26C
100
AcDbEntity
  8
DIM
 62
     7
100
AcDbLine
 10
117.5082109139
 20
31.6562553199
 30
0.0
 11
90.5082109139
 21
31.6562553199
 31
0.0
  0
MTEXT
  5
274
330
26C
100
AcDbEntity
  8
DIM
 62
     7
100
AcDbMText
 10
102.9472541224
 20
33.4466270836
 30
0.0
 40
1.3888888889
 41
0.0
 71
     1
 72
     1
  1
27
  7
SLDTEXTSTYLE0
 73
     1
 44
1.0
  0
ENDBLK
  5
26E
330
26C
100
AcDbEntity
  8
0
100
AcDbBlockEnd
  0
BLOCK
  5
278
330
277
100
AcDbEntity
  8
0
100
AcDbBlockBegin
  2
_D_11
 70
     0
 10
0.0
 20
0.0
 30
0.0
  3
_D_11
  1

  0
SOLID
  5
27A
330
277
100
AcDbEntity
  8
DIM
 62
     7
100
AcDbTrace
 10
102.3141839175
 20
54.0691260925
 30
0.0
 11
101.853558653
 21
55.0897545216
 31
0.0
 12
101.6165001247
 22
54.9449658894
 32
0.0
 13
101.6165001247
 23
54.9449658894
 33
0.0
  0
LINE
  5
27B
330
277
100
AcDbEntity
  8
DIM
 62
     7
100
AcDbLine
 10
102.3141839175
 20
54.0691260925
 30
0.0
 11
93.5988779002
 21
68.3384619293
 31
0.0
  0
LINE
  5
27C
330
277
100
AcDbEntity
  8
DIM
 62
     7
100
AcDbLine
 10
93.5988779002
 20
68.3384619293
 30
0.0
 11
82.5017517358
 21
68.3384619293
 31
0.0
  0
MTEXT
  5
27D
330
277
100
AcDbEntity
  8
DIM
 62
     7
100
AcDbMText
 10
82.5017517358
 20
70.1288336607
 30
0.0
 40
1.3888888889
 41
0.0
 71
     1
 72
     1
  1
%%c
  7
SLDTEXTSTYLE0
 73
     1
 44
1.0
  0
MTEXT
  5
27E
330
277
100
AcDbEntity
  8
DIM
 62
     7
100
AcDbMText
 10
84.5267324893
 20
70.1326916968
 30
0.0
 40
1.3888888889
 41
0.0
 71
     1
 72
     1
  1
6.5
  7
SLDTEXTSTYLE0
 73
     1
 44
1.0
  0
MTEXT
  5
27F
330
277
100
AcDbEntity
  8
DIM
 62
     7
100
AcDbMText
 10
87.6999576398
 20
70.1326916968
 30
0.0
 40
1.3888888889
 41
0.0
 71
     1
 72
     1
  1
HOLE
  7
SLDTEXTSTYLE0
 73
     1
 44
1.0
  0
ENDBLK
  5
279
330
277
100
AcDbEntity
  8
0
100
AcDbBlockEnd
  0
BLOCK
  5
281
330
280
100
AcDbEntity
  8
0
100
AcDbBlockBegin
  2
SW_CENTERMARKSYMBOL_2
 70
     0
 10
0.0
 20
0.0
 30
0.0
  3
SW_CENTERMARKSYMBOL_2
  1

  0
LINE
  5
283
330
280
100
AcDbEntity
  8
DIM
 62
     0
100
AcDbLine
 10
0.0
 20
0.0
 30
0.0
 11
0.0
 21
1.0
 31
0.0
  0
LINE
  5
284
330
280
100
AcDbEntity
  8
DIM
 62
     0
100
AcDbLine
 10
0.0
 20
0.0
 30
0.0
 11
-1.0
 21
0.0
 31
0.0
  0
LINE
  5
285
330
280
100
AcDbEntity
  8
DIM
 62
     0
100
AcDbLine
 10
0.0
 20
0.0
 30
0.0
 11
0.0
 21
-1.0
 31
0.0
  0
LINE
  5
286
330
280
100
AcDbEntity
  8
DIM
 62
     0
100
AcDbLine
 10
0.0
 20
0.0
 30
0.0
 11
1.0
 21
0.0
 31
0.0
  0
LINE
  5
287
330
280
100
AcDbEntity
  8
DIM
 62
     0
100
AcDbLine
 10
0.0
 20
2.0
 30
0.0
 11
0.0
 21
4.25
 31
0.0
  0
LINE
  5
288
330
280
100
AcDbEntity
  8
DIM
 62
     0
100
AcDbLine
 10
-2.0
 20
0.0
 30
0.0
 11
-4.25
 21
0.0
 31
0.0
  0
LINE
  5
289
330
280
100
AcDbEntity
  8
DIM
 62
     0
100
AcDbLine
 10
0.0
 20
-2.0
 30
0.0
 11
0.0
 21
-4.25
 31
0.0
  0
LINE
  5
28A
330
280
100
AcDbEntity
  8
DIM
 62
     0
100
AcDbLine
 10
2.0
 20
0.0
 30
0.0
 11
4.25
 21
0.0
 31
0.0
  0
ENDBLK
  5
282
330
280
100
AcDbEntity
  8
0
100
AcDbBlockEnd
  0
ENDSEC
  0
SECTION
  2
ENTITIES
  0
HATCH
  5
89
330
1F
100
AcDbEntity
  8
0
  6
Continuous
 62
     7
100
AcDbHatch
 10
0.0
 20
0.0
 30
0.0
210
0.0
220
0.0
230
1.0
  2
SOLID
 70
     1
 71
     0
 91
        1
 92
        0
 93
       10
 72
     2
 10
106.7447758682981
 20
19.86433822771587
 40
1.660909254316588
 50
50.39692260731408
 51
112.8514693252978
 73
     0
 72
     2
 10
106.5638922015622
 20
19.68833237781224
 40
1.431853014898677
 50
108.913433343286
 51
219.5668234386825
 73
     0
 72
     1
 10
105.4601021883113
 20
20.60039085341672
 11
104.896105606421
 21
21.09790857609326
 72
     1
 10
104.896105606421
 20
21.09790857609326
 11
104.1702010203757
 21
20.39702686692242
 72
     2
 10
104.7190259992438
 20
19.74784507095804
 40
0.8500857966353675
 50
130.2115225915093
 51
228.5889041080188
 73
     1
 72
     1
 10
104.1567306970283
 20
19.11029518683321
 11
106.3840653138037
 21
17.17440416445839
 72
     1
 10
106.3840653138037
 20
17.17440416445839
 11
106.033480913573
 21
16.83223728086337
 72
     1
 10
106.033480913573
 20
16.83223728086337
 11
106.5845250050872
 21
16.35780713255569
 72
     1
 10
106.5845250050872
 20
16.35780713255569
 11
108.367671913068
 21
18.08923933561985
 72
     1
 10
108.367671913068
 20
18.08923933561985
 11
107.8035480065912
 21
18.58464251769379
 97
        0
 75
     0
 76
     1
 98
        1
 10
0.0
 20
0.0
  0
HATCH
  5
8A
330
1F
100
AcDbEntity
  8
0
  6
Continuous
 62
     1
100
AcDbHatch
 10
0.0
 20
0.0
 30
0.0
210
0.0
220
0.0
230
1.0
  2
SOLID
 70
     1
 71
     0
 91
        1
 92
        0
 93
       10
 72
     2
 10
106.9940253126494
 20
19.81281619795339
 40
1.431981937970139
 50
317.8184992995784
 51
398.0564711573077
 73
     0
 72
     1
 10
108.1215730032313
 20
18.93008833720804
 11
108.6690446104439
 21
18.45303448171387
 72
     1
 10
108.6690446104439
 20
18.45303448171387
 11
109.3588675631072
 21
19.12216389416233
 72
     2
 10
108.8625384932949
 20
19.80435652295173
 40
0.8436405207879251
 50
306.0377529468131
 51
403.4396461533876
 73
     1
 72
     1
 10
109.4751050847795
 20
20.38443539630626
 11
107.1824629412554
 21
22.37842221221401
 72
     1
 10
107.1824629412554
 20
22.37842221221401
 11
107.5292692201039
 21
22.71678800712364
 72
     1
 10
107.5292692201039
 20
22.71678800712364
 11
107.0123211588906
 21
23.17800590703725
 72
     1
 10
107.0123211588906
 20
23.17800590703725
 11
105.2147736875517
 21
21.44082799225165
 72
     1
 10
105.2147736875517
 20
21.44082799225165
 11
105.7827780638565
 21
20.94538881051788
 72
     2
 10
106.8175495955802
 20
19.5123596393544
 40
1.767575946959931
 50
234.1674444878514
 51
314.4407074583992
 73
     0
 97
        0
 75
     0
 76
     1
 98
        1
 10
0.0
 20
0.0
  0
LINE
  5
8B
330
1F
100
AcDbEntity
  8
0
  6
Continuous
 62
     7
370
     0
100
AcDbLine
 10
93.2552097325
 20
9.8747329174
 30
0.0
 11
93.8107652881
 21
9.8747329174
 31
0.0
  0
LINE
  5
8C
330
1F
100
AcDbEntity
  8
0
  6
Continuous
 62
     7
370
     0
100
AcDbLine
 10
91.5885430658
 20
9.8747329174
 30
0.0
 11
92.9774319547
 21
9.8747329174
 31
0.0
  0
LINE
  5
8D
330
1F
100
AcDbEntity
  8
0
  6
Continuous
 62
     7
370
     0
100
AcDbLine
 10
100.7552097325
 20
8.4858440285
 30
0.0
 11
100.7552097325
 21
11.2636218063
 31
0.0
  0
LINE
  5
8E
330
1F
100
AcDbEntity
  8
0
  6
Continuous
 62
     7
370
     0
100
AcDbLine
 10
96.8663208436
 20
9.041399584
 30
0.0
 11
100.7552097325
 21
8.4858440285
 31
0.0
  0
LINE
  5
8F
330
1F
100
AcDbEntity
  8
0
  6
Continuous
 62
     7
370
     0
100
AcDbLine
 10
93.5329875103
 20
9.3191773618
 30
0.0
 11
93.5329875103
 21
7.9302884729
 31
0.0
  0
LINE
  5
90
330
1F
100
AcDbEntity
  8
0
  6
Continuous
 62
     7
370
     0
100
AcDbLine
 10
100.7552097325
 20
11.2636218063
 30
0.0
 11
96.8663208436
 21
10.7080662507
 31
0.0
  0
LINE
  5
91
330
1F
100
AcDbEntity
  8
0
  6
Continuous
 62
     7
370
     0
100
AcDbLine
 10
96.3107652881
 20
9.8747329174
 30
0.0
 11
101.3107652881
 21
9.8747329174
 31
0.0
  0
LINE
  5
92
330
1F
100
AcDbEntity
  8
0
  6
Continuous
 62
     7
370
     0
100
AcDbLine
 10
93.5329875103
 20
10.1525106951
 30
0.0
 11
93.5329875103
 21
9.5969551396
 31
0.0
  0
LINE
  5
93
330
1F
100
AcDbEntity
  8
0
  6
Continuous
 62
     7
370
     0
100
AcDbLine
 10
94.0885430658
 20
9.8747329174
 30
0.0
 11
95.4774319547
 21
9.8747329174
 31
0.0
  0
LINE
  5
94
330
1F
100
AcDbEntity
  8
0
  6
Continuous
 62
     7
370
     0
100
AcDbLine
 10
93.5329875103
 20
11.8191773618
 30
0.0
 11
93.5329875103
 21
10.4302884729
 31
0.0
  0
LINE
  5
95
330
1F
100
AcDbEntity
  8
0
  6
Continuous
 62
     7
370
     0
100
AcDbLine
 10
96.8663208436
 20
10.7080662507
 30
0.0
 11
96.8663208436
 21
9.041399584
 31
0.0
  0
LINE
  5
96
330
1F
100
AcDbEntity
  8
工作區域參考線
 62
     1
370
    30
100
AcDbLine
 10
105.7827780639
 20
20.9453888105
 30
0.0
 11
105.2147736876
 21
21.4408279923
 31
0.0
  0
LINE
  5
97
330
1F
100
AcDbEntity
  8
工作區域參考線
 62
     1
370
    30
100
AcDbLine
 10
105.2147736876
 20
21.4408279923
 30
0.0
 11
107.0123211589
 21
23.178005907
 31
0.0
  0
LINE
  5
98
330
1F
100
AcDbEntity
  8
工作區域參考線
 62
     1
370
    30
100
AcDbLine
 10
107.0123211589
 20
23.178005907
 30
0.0
 11
107.5292692201
 21
22.7167880071
 31
0.0
  0
LINE
  5
99
330
1F
100
AcDbEntity
  8
工作區域參考線
 62
     1
370
    30
100
AcDbLine
 10
107.5292692201
 20
22.7167880071
 30
0.0
 11
107.1824629413
 21
22.3784222122
 31
0.0
  0
LINE
  5
9A
330
1F
100
AcDbEntity
  8
工作區域參考線
 62
     1
370
    30
100
AcDbLine
 10
107.1824629413
 20
22.3784222122
 30
0.0
 11
109.4751050848
 21
20.3844353963
 31
0.0
  0
LINE
  5
9B
330
1F
100
AcDbEntity
  8
工作區域參考線
 62
     1
370
    30
100
AcDbLine
 10
108.1215730032
 20
18.9300883372
 30
0.0
 11
108.6690446104
 21
18.4530344817
 31
0.0
  0
LINE
  5
9C
330
1F
100
AcDbEntity
  8
工作區域參考線
 62
     1
370
    30
100
AcDbLine
 10
108.6690446104
 20
18.4530344817
 30
0.0
 11
109.3588675631
 21
19.1221638942
 31
0.0
  0
LINE
  5
9D
330
1F
100
AcDbEntity
  8
0
  6
Continuous
 62
     7
370
     0
100
AcDbLine
 10
103.1615536227
 20
7.2862480044
 30
0.0
 11
158.7171091783
 21
7.2862480044
 31
0.0
  0
LINE
  5
9E
330
1F
100
AcDbEntity
  8
0
  6
Continuous
 62
     7
370
     0
100
AcDbLine
 10
103.1615536227
 20
10.0640257822
 30
0.0
 11
130.9393314005
 21
10.0640257822
 31
0.0
  0
LINE
  5
9F
330
1F
100
AcDbEntity
  8
0
  6
Continuous
 62
     7
370
     0
100
AcDbLine
 10
103.1615536227
 20
12.84180356
 30
0.0
 11
130.9393314005
 21
12.84180356
 31
0.0
  0
LINE
  5
A0
330
1F
100
AcDbEntity
  8
0
  6
Continuous
 62
     7
370
     0
100
AcDbLine
 10
103.1615536227
 20
15.6195813377
 30
0.0
 11
158.7171091783
 21
15.6195813377
 31
0.0
  0
LINE
  5
A1
330
1F
100
AcDbEntity
  8
0
  6
Continuous
 62
     7
370
     0
100
AcDbLine
 10
130.9393314005
 20
18.3973591155
 30
0.0
 11
158.7171091783
 21
18.3973591155
 31
0.0
  0
LINE
  5
A2
330
1F
100
AcDbEntity
  8
0
  6
Continuous
 62
     7
370
    15
100
AcDbLine
 10
130.9393314005
 20
10.0640257822
 30
0.0
 11
158.7171091783
 21
10.0640257822
 31
0.0
  0
LINE
  5
A3
330
1F
100
AcDbEntity
  8
0
  6
Continuous
 62
     7
370
     0
100
AcDbLine
 10
103.1615536227
 20
23.9529146711
 30
0.0
 11
158.7171091783
 21
23.9529146711
 31
0.0
  0
LINE
  5
A4
330
1F
100
AcDbEntity
  8
0
  6
Continuous
 62
     7
370
     0
100
AcDbLine
 10
139.5762320417
 20
4.5084702266
 30
0.0
 11
139.5762320417
 21
10.0640257822
 31
0.0
  0
LINE
  5
A5
330
1F
100
AcDbEntity
  8
0
  6
Continuous
 62
     7
370
     0
100
AcDbLine
 10
130.9393314005
 20
4.5084702266
 30
0.0
 11
130.9393314005
 21
23.9529146711
 31
0.0
  0
LINE
  5
A6
330
1F
100
AcDbEntity
  8
0
  6
Continuous
 62
     7
370
     0
100
AcDbLine
 10
139.5762320417
 20
15.6195813377
 30
0.0
 11
139.5762320417
 21
18.3973591155
 31
0.0
  0
LINE
  5
A7
330
1F
100
AcDbEntity
  8
0
  6
Continuous
 62
     7
370
     0
100
AcDbLine
 10
119.1202270196
 20
4.5084702266
 30
0.0
 11
119.1202270196
 21
15.6195813377
 31
0.0
  0
LINE
  5
A8
330
1F
100
AcDbEntity
  8
0
  6
Continuous
 62
     7
370
     0
100
AcDbLine
 10
110.9881048614
 20
4.5084702266
 30
0.0
 11
110.9881048614
 21
15.6195813377
 31
0.0
  0
LINE
  5
A9
330
1F
100
AcDbEntity
  8
0
  6
Continuous
 62
     7
370
     0
100
AcDbLine
 10
103.1615536227
 20
4.5084702266
 30
0.0
 11
103.1615536227
 21
23.9529146711
 31
0.0
  0
LINE
  5
AA
330
1F
100
AcDbEntity
  8
0
  6
Continuous
 62
     7
370
    15
100
AcDbLine
 10
24.0671091783
 20
111.8733486528
 30
0.0
 11
24.0671091783
 21
112.7066819861
 31
0.0
  0
LINE
  5
AB
330
1F
100
AcDbEntity
  8
0
  6
Continuous
 62
     7
370
    15
100
AcDbLine
 10
43.3059980672
 20
111.8733486528
 30
0.0
 11
43.3059980672
 21
112.7066819861
 31
0.0
  0
LINE
  5
AC
330
1F
100
AcDbEntity
  8
0
  6
Continuous
 62
     7
370
    15
100
AcDbLine
 10
62.5448869561
 20
111.8733486528
 30
0.0
 11
62.5448869561
 21
112.7066819861
 31
0.0
  0
LINE
  5
AD
330
1F
100
AcDbEntity
  8
0
  6
Continuous
 62
     7
370
    15
100
AcDbLine
 10
81.783775845
 20
111.8733486528
 30
0.0
 11
81.783775845
 21
112.7066819861
 31
0.0
  0
LINE
  5
AE
330
1F
100
AcDbEntity
  8
0
  6
Continuous
 62
     7
370
    15
100
AcDbLine
 10
101.0226647338
 20
111.8733486528
 30
0.0
 11
101.0226647338
 21
112.7066819861
 31
0.0
  0
LINE
  5
AF
330
1F
100
AcDbEntity
  8
0
  6
Continuous
 62
     7
370
    15
100
AcDbLine
 10
120.2615536227
 20
111.8733486528
 30
0.0
 11
120.2615536227
 21
112.7066819861
 31
0.0
  0
LINE
  5
B0
330
1F
100
AcDbEntity
  8
0
  6
Continuous
 62
     7
370
    15
100
AcDbLine
 10
139.5004425116
 20
111.8733486528
 30
0.0
 11
139.5004425116
 21
112.7066819861
 31
0.0
  0
LINE
  5
B1
330
1F
100
AcDbEntity
  8
0
  6
Continuous
 62
     7
370
    15
100
AcDbLine
 10
24.0643314005
 20
4.5084702266
 30
0.0
 11
24.0643314005
 21
3.6751368933
 31
0.0
  0
LINE
  5
B2
330
1F
100
AcDbEntity
  8
0
  6
Continuous
 62
     7
370
    15
100
AcDbLine
 10
43.3004425116
 20
4.5084702266
 30
0.0
 11
43.3004425116
 21
3.6751368933
 31
0.0
  0
LINE
  5
B3
330
1F
100
AcDbEntity
  8
0
  6
Continuous
 62
     7
370
    15
100
AcDbLine
 10
62.5365536227
 20
4.5084702266
 30
0.0
 11
62.5365536227
 21
3.6751368933
 31
0.0
  0
LINE
  5
B4
330
1F
100
AcDbEntity
  8
0
  6
Continuous
 62
     7
370
    15
100
AcDbLine
 10
81.7726647338
 20
4.5084702266
 30
0.0
 11
81.7726647338
 21
3.6751368933
 31
0.0
  0
LINE
  5
B5
330
1F
100
AcDbEntity
  8
0
  6
Continuous
 62
     7
370
    15
100
AcDbLine
 10
101.008775845
 20
4.5084702266
 30
0.0
 11
101.008775845
 21
3.6751368933
 31
0.0
  0
LINE
  5
B6
330
1F
100
AcDbEntity
  8
0
  6
Continuous
 62
     7
370
    15
100
AcDbLine
 10
120.2448869561
 20
4.5084702266
 30
0.0
 11
120.2448869561
 21
3.6751368933
 31
0.0
  0
LINE
  5
B7
330
1F
100
AcDbEntity
  8
0
  6
Continuous
 62
     7
370
     0
100
AcDbLine
 10
158.7171091783
 20
111.8733486528
 30
0.0
 11
4.8282202894
 21
111.8733486528
 31
0.0
  0
LINE
  5
B8
330
1F
100
AcDbEntity
  8
0
  6
Continuous
 62
     7
370
     0
100
AcDbLine
 10
158.7171091783
 20
4.5084702266
 30
0.0
 11
158.7171091783
 21
111.8733486528
 31
0.0
  0
LINE
  5
B9
330
1F
100
AcDbEntity
  8
0
  6
Continuous
 62
     7
370
     0
100
AcDbLine
 10
4.8282202894
 20
111.8733486528
 30
0.0
 11
4.8282202894
 21
4.5084702266
 31
0.0
  0
LINE
  5
BA
330
1F
100
AcDbEntity
  8
0
  6
Continuous
 62
     7
370
     0
100
AcDbLine
 10
4.8282202894
 20
4.5084702266
 30
0.0
 11
158.7171091783
 21
4.5084702266
 31
0.0
  0
LINE
  5
BB
330
1F
100
AcDbEntity
  8
0
  6
Continuous
 62
     7
370
    15
100
AcDbLine
 10
139.4809980672
 20
4.5084702266
 30
0.0
 11
139.4809980672
 21
3.6751368933
 31
0.0
  0
LINE
  5
BC
330
1F
100
AcDbEntity
  8
0
  6
Continuous
 62
     7
370
    15
100
AcDbLine
 10
4.8282202894
 20
22.4029146711
 30
0.0
 11
3.9948869561
 21
22.4029146711
 31
0.0
  0
LINE
  5
BD
330
1F
100
AcDbEntity
  8
0
  6
Continuous
 62
     7
370
    15
100
AcDbLine
 10
4.8282202894
 20
40.2973591155
 30
0.0
 11
3.9948869561
 21
40.2973591155
 31
0.0
  0
LINE
  5
BE
330
1F
100
AcDbEntity
  8
0
  6
Continuous
 62
     7
370
    15
100
AcDbLine
 10
4.8282202894
 20
58.19180356
 30
0.0
 11
3.9948869561
 21
58.19180356
 31
0.0
  0
LINE
  5
BF
330
1F
100
AcDbEntity
  8
0
  6
Continuous
 62
     7
370
    15
100
AcDbLine
 10
4.8282202894
 20
76.0862480044
 30
0.0
 11
3.9948869561
 21
76.0862480044
 31
0.0
  0
LINE
  5
C0
330
1F
100
AcDbEntity
  8
0
  6
Continuous
 62
     7
370
    15
100
AcDbLine
 10
4.8282202894
 20
93.9806924488
 30
0.0
 11
3.9948869561
 21
93.9806924488
 31
0.0
  0
LINE
  5
C1
330
1F
100
AcDbEntity
  8
0
  6
Continuous
 62
     7
370
    15
100
AcDbLine
 10
158.7171091783
 20
22.4029146711
 30
0.0
 11
159.5504425116
 21
22.4029146711
 31
0.0
  0
LINE
  5
C2
330
1F
100
AcDbEntity
  8
0
  6
Continuous
 62
     7
370
    15
100
AcDbLine
 10
158.7171091783
 20
40.2973591155
 30
0.0
 11
159.5504425116
 21
40.2973591155
 31
0.0
  0
LINE
  5
C3
330
1F
100
AcDbEntity
  8
0
  6
Continuous
 62
     7
370
    15
100
AcDbLine
 10
158.7171091783
 20
58.19180356
 30
0.0
 11
159.5504425116
 21
58.19180356
 31
0.0
  0
LINE
  5
C4
330
1F
100
AcDbEntity
  8
0
  6
Continuous
 62
     7
370
    15
100
AcDbLine
 10
158.7171091783
 20
76.0862480044
 30
0.0
 11
159.5504425116
 21
76.0862480044
 31
0.0
  0
LINE
  5
C5
330
1F
100
AcDbEntity
  8
0
  6
Continuous
 62
     7
370
    15
100
AcDbLine
 10
158.7171091783
 20
93.9806924488
 30
0.0
 11
159.5504425116
 21
93.9806924488
 31
0.0
  0
CIRCLE
  5
C6
330
1F
100
AcDbEntity
  8
0
  6
Continuous
 62
     7
370
     0
100
AcDbCircle
 10
93.5329875103
 20
9.8747329174
 30
0.0
 40
0.833333333333357
  0
CIRCLE
  5
C7
330
1F
100
AcDbEntity
  8
0
  6
Continuous
 62
     7
370
     0
100
AcDbCircle
 10
93.5329875103
 20
9.8747329174
 30
0.0
 40
1.388888888888914
  0
ARC
  5
C8
330
1F
100
AcDbEntity
  8
工作區域參考線
 62
     1
370
    30
100
AcDbCircle
 10
108.8625384933
 20
19.804356523
 30
0.0
 40
0.8436405207879161
100
AcDbArc
 50
306.0377529468
 51
43.4396461534
  0
ARC
  5
C9
330
1F
100
AcDbEntity
  8
工作區域參考線
 62
     1
370
    30
100
AcDbCircle
 10
106.8175495956
 20
19.5123596394
 30
0.0
 40
1.767575946959935
100
AcDbArc
 50
45.5592925416
 51
125.8325555121
  0
ARC
  5
CA
330
1F
100
AcDbEntity
  8
工作區域參考線
 62
     1
370
    30
100
AcDbCircle
 10
106.9940253126
 20
19.812816198
 30
0.0
 40
1.431981937970136
100
AcDbArc
 50
321.9435288427
 51
42.1815007004
  0
INSERT
  5
CB
330
1F
100
AcDbEntity
  8
0
  6
Continuous
 62
     7
100
AcDbBlockReference
  2
圖塊6
 10
103.8689402026
 20
16.3578071326
 30
0.0
  0
MTEXT
  5
CD
330
1F
100
AcDbEntity
  8
0
  6
Continuous
 62
     7
370
     0
100
AcDbMText
 10
91.968158378
 20
7.3449133538
 30
0.0
 40
1.4699074074
 41
0.0
 71
     1
 72
     1
  1
UNIT:m/m
  7
SLDTEXTSTYLE0
 73
     1
 44
1.0
  0
INSERT
  5
D4
330
1F
100
AcDbEntity
  8
0
  6
Continuous
 62
     7
370
     0
100
AcDbBlockReference
  2
SW_NOTE_0
 10
6.795282003
 20
107.7169057917
 30
0.0
  0
MTEXT
  5
D5
330
1F
100
AcDbEntity
  8
0
  6
Continuous
 62
     7
370
     0
100
AcDbMText
 10
110.4028829964
 20
22.4670430077
 30
0.0
 40
1.3229166667
 41
0.0
 71
     1
 72
     1
  1
Unice E-O Services Inc.
  7
SLDTEXTSTYLE0
 73
     1
 44
1.0
  0
MTEXT
  5
D6
330
1F
100
AcDbEntity
  8
0
  6
Continuous
 62
     7
370
     0
100
AcDbMText
 10
120.8661410083
 20
11.9926193617
 30
0.0
 40
1.0289351852
 41
0.0
 71
     1
 72
     1
  1
2018/11/8
  7
SLDTEXTSTYLE0
 73
     1
 44
1.0
  0
MTEXT
  5
D7
330
1F
100
AcDbEntity
  8
0
  6
Continuous
 62
     7
370
     0
100
AcDbMText
 10
140.3382768059
 20
9.3728765222
 30
0.0
 40
1.3888888889
 41
0.0
 71
     1
 72
     1
  1
1.8:1
  7
SLDTEXTSTYLE0
 73
     1
 44
1.0
  0
MTEXT
  5
D8
330
1F
100
AcDbEntity
  8
0
  6
Continuous
 62
     7
370
     0
100
AcDbMText
 10
140.1708666658
 20
17.8621775243
 30
0.0
 40
1.3888888889
 41
0.0
 71
     1
 72
     1
  1
54MMT-1
  7
SLDTEXTSTYLE0
 73
     1
 44
1.0
  0
MTEXT
  5
D9
330
1F
100
AcDbEntity
  8
0
  6
Continuous
 62
     7
370
     0
100
AcDbMText
 10
140.1708666658
 20
21.171228771
 30
0.0
 40
1.3888888889
 41
0.0
 71
     1
 72
     1
  1
54MMT-1
  7
SLDTEXTSTYLE0
 73
     1
 44
1.0
  0
MTEXT
  5
DA
330
1F
100
AcDbEntity
  8
0
  6
Continuous
 62
     7
370
     0
100
AcDbMText
 10
131.3289925992
 20
9.1702664294
 30
0.0
 40
1.1759259259
 41
0.0
 71
     1
 72
     1
  1
SCALE:
  7
SLDTEXTSTYLE0
 73
     1
 44
1.0
  0
MTEXT
  5
DB
330
1F
100
AcDbEntity
  8
0
  6
Continuous
 62
     7
370
     0
100
AcDbMText
 10
103.5186714883
 20
11.9926193617
 30
0.0
 40
1.0289351852
 41
0.0
 71
     1
 72
     1
  1
DRAWN
  7
SLDTEXTSTYLE0
 73
     1
 44
1.0
  0
MTEXT
  5
DC
330
1F
100
AcDbEntity
  8
0
  6
Continuous
 62
     7
370
     0
100
AcDbMText
 10
112.9015759965
 20
14.8240046156
 30
0.0
 40
1.0289351852
 41
0.0
 71
     1
 72
     1
  1
NAME
  7
SLDTEXTSTYLE0
 73
     1
 44
1.0
  0
MTEXT
  5
DD
330
1F
100
AcDbEntity
  8
0
  6
Continuous
 62
     7
370
     0
100
AcDbMText
 10
122.7061197643
 20
14.8240046156
 30
0.0
 40
1.0289351852
 41
0.0
 71
     1
 72
     1
  1
DATE
  7
SLDTEXTSTYLE0
 73
     1
 44
1.0
  0
MTEXT
  5
DE
330
1F
100
AcDbEntity
  8
0
  6
Continuous
 62
     7
370
     0
100
AcDbMText
 10
131.2642398136
 20
17.6595674315
 30
0.0
 40
1.1759259259
 41
0.0
 71
     1
 72
     1
  1
DWG. NO.
  7
SLDTEXTSTYLE0
 73
     1
 44
1.0
  0
MTEXT
  5
DF
330
1F
100
AcDbEntity
  8
0
  6
Continuous
 62
     7
370
     0
100
AcDbMText
 10
131.312772616
 20
23.268925458
 30
0.0
 40
1.1759259259
 41
0.0
 71
     1
 72
     1
  1
TITLE:
  7
SLDTEXTSTYLE0
 73
     1
 44
1.0
  0
MTEXT
  5
E0
330
1F
100
AcDbEntity
  8
0
  6
Continuous
 62
     7
370
     0
100
AcDbMText
 10
112.7952338779
 20
9.0224327624
 30
0.0
 40
1.0289351852
 41
0.0
 71
     1
 72
     1
  1
Johnny
  7
SLDTEXTSTYLE0
 73
     1
 44
1.0
  0
MTEXT
  5
E1
330
1F
100
AcDbEntity
  8
0
  6
Continuous
 62
     7
370
     0
100
AcDbMText
 10
120.8661410083
 20
9.0224327624
 30
0.0
 40
1.0289351852
 41
0.0
 71
     1
 72
     1
  1
2018/11/8
  7
SLDTEXTSTYLE0
 73
     1
 44
1.0
  0
MTEXT
  5
E2
330
1F
100
AcDbEntity
  8
0
  6
Continuous
 62
     7
370
     0
100
AcDbMText
 10
103.5186714883
 20
9.0224327624
 30
0.0
 40
1.0289351852
 41
0.0
 71
     1
 72
     1
  1
ENG APPR.
  7
SLDTEXTSTYLE0
 73
     1
 44
1.0
  0
MTEXT
  5
E3
330
1F
100
AcDbEntity
  8
0
  6
Continuous
 62
     7
370
     0
100
AcDbMText
 10
131.3289925992
 20
6.4918549604
 30
0.0
 40
1.1759259259
 41
0.0
 71
     1
 72
     1
  1
REV
  7
SLDTEXTSTYLE0
 73
     1
 44
1.0
  0
MTEXT
  5
E4
330
1F
100
AcDbEntity
  8
0
  6
Continuous
 62
     7
370
     0
100
AcDbMText
 10
131.312772616
 20
14.9718382825
 30
0.0
 40
1.1759259259
 41
0.0
 71
     1
 72
     1
  1
MATERIAL:
  7
SLDTEXTSTYLE0
 73
     1
 44
1.0
  0
MTEXT
  5
E5
330
1F
100
AcDbEntity
  8
0
  6
Continuous
 62
     7
370
     0
100
AcDbMText
 10
140.3382768059
 20
12.3430631215
 30
0.0
 40
1.3888888889
 41
0.0
 71
     1
 72
     1
  1
N/A
  7
SLDTEXTSTYLE0
 73
     1
 44
1.0
  0
MTEXT
  5
E6
330
1F
100
AcDbEntity
  8
0
  6
Continuous
 62
     7
370
     0
100
AcDbMText
 10
14.7794406407
 20
113.585195365
 30
0.0
 40
1.1759259259
 41
0.0
 71
     1
 72
     1
  1
1
  7
SLDTEXTSTYLE0
 73
     1
 44
1.0
  0
MTEXT
  5
E7
330
1F
100
AcDbEntity
  8
0
  6
Continuous
 62
     7
370
     0
100
AcDbMText
 10
33.7317219847
 20
113.585195365
 30
0.0
 40
1.1759259259
 41
0.0
 71
     1
 72
     1
  1
2
  7
SLDTEXTSTYLE0
 73
     1
 44
1.0
  0
MTEXT
  5
E8
330
1F
100
AcDbEntity
  8
0
  6
Continuous
 62
     7
370
     0
100
AcDbMText
 10
52.7227746615
 20
113.585195365
 30
0.0
 40
1.1759259259
 41
0.0
 71
     1
 72
     1
  1
3
  7
SLDTEXTSTYLE0
 73
     1
 44
1.0
  0
MTEXT
  5
E9
330
1F
100
AcDbEntity
  8
0
  6
Continuous
 62
     7
370
     0
100
AcDbMText
 10
71.8074090473
 20
113.4995880202
 30
0.0
 40
1.1759259259
 41
0.0
 71
     1
 72
     1
  1
4
  7
SLDTEXTSTYLE0
 73
     1
 44
1.0
  0
MTEXT
  5
EA
330
1F
100
AcDbEntity
  8
0
  6
Continuous
 62
     7
370
     0
100
AcDbMText
 10
90.9457352578
 20
113.585195365
 30
0.0
 40
1.1759259259
 41
0.0
 71
     1
 72
     1
  1
5
  7
SLDTEXTSTYLE0
 73
     1
 44
1.0
  0
MTEXT
  5
EB
330
1F
100
AcDbEntity
  8
0
  6
Continuous
 62
     7
370
     0
100
AcDbMText
 10
110.3545650231
 20
113.585195365
 30
0.0
 40
1.1759259259
 41
0.0
 71
     1
 72
     1
  1
6
  7
SLDTEXTSTYLE0
 73
     1
 44
1.0
  0
MTEXT
  5
EC
330
1F
100
AcDbEntity
  8
0
  6
Continuous
 62
     7
370
     0
100
AcDbMText
 10
130.2017031893
 20
113.585195365
 30
0.0
 40
1.1759259259
 41
0.0
 71
     1
 72
     1
  1
7
  7
SLDTEXTSTYLE0
 73
     1
 44
1.0
  0
MTEXT
  5
ED
330
1F
100
AcDbEntity
  8
0
  6
Continuous
 62
     7
370
     0
100
AcDbMText
 10
147.9326566941
 20
113.585195365
 30
0.0
 40
1.1759259259
 41
0.0
 71
     1
 72
     1
  1
8
  7
SLDTEXTSTYLE0
 73
     1
 44
1.0
  0
MTEXT
  5
EE
330
1F
100
AcDbEntity
  8
0
  6
Continuous
 62
     7
370
     0
100
AcDbMText
 10
2.9760131419
 20
103.2285012711
 30
0.0
 40
1.1759259259
 41
0.0
 71
     1
 72
     1
  1
A
  7
SLDTEXTSTYLE0
 73
     1
 44
1.0
  0
MTEXT
  5
EF
330
1F
100
AcDbEntity
  8
0
  6
Continuous
 62
     7
370
     0
100
AcDbMText
 10
3.1061351017
 20
85.7218360132
 30
0.0
 40
1.1759259259
 41
0.0
 71
     1
 72
     1
  1
B
  7
SLDTEXTSTYLE0
 73
     1
 44
1.0
  0
MTEXT
  5
F0
330
1F
100
AcDbEntity
  8
0
  6
Continuous
 62
     7
370
     0
100
AcDbMText
 10
3.1061351017
 20
67.3746396794
 30
0.0
 40
1.1759259259
 41
0.0
 71
     1
 72
     1
  1
C
  7
SLDTEXTSTYLE0
 73
     1
 44
1.0
  0
MTEXT
  5
F1
330
1F
100
AcDbEntity
  8
0
  6
Continuous
 62
     7
370
     0
100
AcDbMText
 10
3.1061351017
 20
49.3029566789
 30
0.0
 40
1.1759259259
 41
0.0
 71
     1
 72
     1
  1
D
  7
SLDTEXTSTYLE0
 73
     1
 44
1.0
  0
MTEXT
  5
F2
330
1F
100
AcDbEntity
  8
0
  6
Continuous
 62
     7
370
     0
100
AcDbMText
 10
3.1061351017
 20
31.9754916221
 30
0.0
 40
1.1759259259
 41
0.0
 71
     1
 72
     1
  1
E
  7
SLDTEXTSTYLE0
 73
     1
 44
1.0
  0
MTEXT
  5
F3
330
1F
100
AcDbEntity
  8
0
  6
Continuous
 62
     7
370
     0
100
AcDbMText
 10
3.1061351017
 20
14.205234014
 30
0.0
 40
1.1759259259
 41
0.0
 71
     1
 72
     1
  1
F
  7
SLDTEXTSTYLE0
 73
     1
 44
1.0
  0
MTEXT
  5
F4
330
1F
100
AcDbEntity
  8
0
  6
Continuous
 62
     7
370
     0
100
AcDbMText
 10
147.8810342758
 20
3.6797902202
 30
0.0
 40
1.1759259259
 41
0.0
 71
     1
 72
     1
  1
8
  7
SLDTEXTSTYLE0
 73
     1
 44
1.0
  0
MTEXT
  5
F5
330
1F
100
AcDbEntity
  8
0
  6
Continuous
 62
     7
370
     0
100
AcDbMText
 10
130.1500807709
 20
3.6797902202
 30
0.0
 40
1.1759259259
 41
0.0
 71
     1
 72
     1
  1
7
  7
SLDTEXTSTYLE0
 73
     1
 44
1.0
  0
MTEXT
  5
F6
330
1F
100
AcDbEntity
  8
0
  6
Continuous
 62
     7
370
     0
100
AcDbMText
 10
110.3029426047
 20
3.6797902202
 30
0.0
 40
1.1759259259
 41
0.0
 71
     1
 72
     1
  1
6
  7
SLDTEXTSTYLE0
 73
     1
 44
1.0
  0
MTEXT
  5
F7
330
1F
100
AcDbEntity
  8
0
  6
Continuous
 62
     7
370
     0
100
AcDbMText
 10
90.8941128394
 20
3.6797902202
 30
0.0
 40
1.1759259259
 41
0.0
 71
     1
 72
     1
  1
5
  7
SLDTEXTSTYLE0
 73
     1
 44
1.0
  0
MTEXT
  5
F8
330
1F
100
AcDbEntity
  8
0
  6
Continuous
 62
     7
370
     0
100
AcDbMText
 10
71.7557866289
 20
3.5941828754
 30
0.0
 40
1.1759259259
 41
0.0
 71
     1
 72
     1
  1
4
  7
SLDTEXTSTYLE0
 73
     1
 44
1.0
  0
MTEXT
  5
F9
330
1F
100
AcDbEntity
  8
0
  6
Continuous
 62
     7
370
     0
100
AcDbMText
 10
52.6711522431
 20
3.6797902202
 30
0.0
 40
1.1759259259
 41
0.0
 71
     1
 72
     1
  1
3
  7
SLDTEXTSTYLE0
 73
     1
 44
1.0
  0
MTEXT
  5
FA
330
1F
100
AcDbEntity
  8
0
  6
Continuous
 62
     7
370
     0
100
AcDbMText
 10
33.6800995663
 20
3.6797902202
 30
0.0
 40
1.1759259259
 41
0.0
 71
     1
 72
     1
  1
2
  7
SLDTEXTSTYLE0
 73
     1
 44
1.0
  0
MTEXT
  5
FB
330
1F
100
AcDbEntity
  8
0
  6
Continuous
 62
     7
370
     0
100
AcDbMText
 10
14.7278182224
 20
3.6797902202
 30
0.0
 40
1.1759259259
 41
0.0
 71
     1
 72
     1
  1
1
  7
SLDTEXTSTYLE0
 73
     1
 44
1.0
  0
MTEXT
  5
FC
330
1F
100
AcDbEntity
  8
0
  6
Continuous
 62
     7
370
     0
100
AcDbMText
 10
159.5013247858
 20
103.6902727273
 30
0.0
 40
1.1759259259
 41
0.0
 71
     1
 72
     1
  1
A
  7
SLDTEXTSTYLE0
 73
     1
 44
1.0
  0
MTEXT
  5
FD
330
1F
100
AcDbEntity
  8
0
  6
Continuous
 62
     7
370
     0
100
AcDbMText
 10
159.6314467456
 20
86.1836074695
 30
0.0
 40
1.1759259259
 41
0.0
 71
     1
 72
     1
  1
B
  7
SLDTEXTSTYLE0
 73
     1
 44
1.0
  0
MTEXT
  5
FE
330
1F
100
AcDbEntity
  8
0
  6
Continuous
 62
     7
370
     0
100
AcDbMText
 10
159.6314467456
 20
67.8364111357
 30
0.0
 40
1.1759259259
 41
0.0
 71
     1
 72
     1
  1
C
  7
SLDTEXTSTYLE0
 73
     1
 44
1.0
  0
MTEXT
  5
FF
330
1F
100
AcDbEntity
  8
0
  6
Continuous
 62
     7
370
     0
100
AcDbMText
 10
159.6314467456
 20
49.7647281352
 30
0.0
 40
1.1759259259
 41
0.0
 71
     1
 72
     1
  1
D
  7
SLDTEXTSTYLE0
 73
     1
 44
1.0
  0
MTEXT
  5
100
330
1F
100
AcDbEntity
  8
0
  6
Continuous
 62
     7
370
     0
100
AcDbMText
 10
159.6314467456
 20
32.4372630783
 30
0.0
 40
1.1759259259
 41
0.0
 71
     1
 72
     1
  1
E
  7
SLDTEXTSTYLE0
 73
     1
 44
1.0
  0
MTEXT
  5
101
330
1F
100
AcDbEntity
  8
0
  6
Continuous
 62
     7
370
     0
100
AcDbMText
 10
159.6314467456
 20
14.6670054702
 30
0.0
 40
1.1759259259
 41
0.0
 71
     1
 72
     1
  1
F
  7
SLDTEXTSTYLE0
 73
     1
 44
1.0
  0
MTEXT
  5
102
330
1F
100
AcDbEntity
  8
0
  6
Continuous
 62
     7
370
     0
100
AcDbMText
 10
112.8640627112
 20
11.9926193617
 30
0.0
 40
1.0289351852
 41
0.0
 71
     1
 72
     1
  1
Sky
  7
SLDTEXTSTYLE0
 73
     1
 44
1.0
  0
MTEXT
  5
103
330
1F
100
AcDbEntity
  8
0
  6
Continuous
 62
     7
370
     0
100
AcDbMText
 10
140.4712355358
 20
6.7834713644
 30
0.0
 40
1.4699074074
 41
0.0
 71
     1
 72
     1
  1
0
  7
SLDTEXTSTYLE0
 73
     1
 44
1.0
  0
INSERT
  5
109
330
1F
100
AcDbEntity
  8
SLD-0
 62
     7
100
AcDbBlockReference
  2
SW_NOTE_1
 10
110.4028829964
 20
18.6377636229
 30
0.0
  0
SPLINE
  5
10A
330
1F
100
AcDbEntity
  8
0
  6
Continuous
 62
     7
370
    15
100
AcDbSpline
210
0.0
220
0.0
230
1.0
 70
     8
 71
     3
 72
    18
 73
    14
 74
     0
 42
0.000000001
 43
0.00000001
 40
0.0
 40
0.0
 40
0.0
 40
0.0
 40
0.1585802331230394
 40
0.289912941348536
 40
0.3889197343833576
 40
0.4847826148779095
 40
0.5330489470192528
 40
0.5807658533552625
 40
0.6327563541399855
 40
0.693887707762547
 40
0.7630228270493565
 40
0.8382986630653209
 40
1.0
 40
1.0
 40
1.0
 40
1.0
 10
32.39756267313873
 20
43.30104586748435
 30
0.0
 10
32.33892264291314
 20
43.30133245355765
 30
0.0
 10
32.23171821201616
 20
43.30185638399856
 30
0.0
 10
32.0890919737857
 20
43.2426309755771
 30
0.0
 10
31.97960332378948
 20
43.13376060763001
 30
0.0
 10
31.93038659137976
 20
43.02148242132941
 30
0.0
 10
31.91689474223277
 20
42.92539344234989
 30
0.0
 10
31.92005148002095
 20
42.84974101389736
 30
0.0
 10
31.9390526106839
 20
42.76936354234653
 30
0.0
 10
31.97815101257301
 20
42.68794104340912
 30
0.0
 10
32.03989714887648
 20
42.61318800154326
 30
0.0
 10
32.15160752921764
 20
42.53121641104148
 30
0.0
 10
32.24685300669604
 20
42.51566821060132
 30
0.0
 10
32.31184374337112
 20
42.5050588984604
 30
0.0
  0
SPLINE
  5
10B
330
1F
100
AcDbEntity
  8
0
  6
Continuous
 62
     7
370
    15
100
AcDbSpline
210
0.0
220
0.0
230
1.0
 70
     8
 71
     3
 72
    24
 73
    20
 74
     0
 42
0.000000001
 43
0.00000001
 40
0.0
 40
0.0
 40
0.0
 40
0.0
 40
0.0436286198765018
 40
0.1284540349739142
 40
0.2033989696860031
 40
0.2684828490909431
 40
0.3237008486628775
 40
0.3690567637980687
 40
0.4046279413602875
 40
0.4335205251818733
 40
0.4704131951787459
 40
0.5172469718167984
 40
0.574017644304705
 40
0.6407670775302984
 40
0.7174424262607284
 40
0.8039914183743281
 40
0.9004052232430851
 40
0.9524485236009561
 40
1.0
 40
1.0
 40
1.0
 40
1.0
 10
32.30733614210998
 20
42.50536996020033
 30
0.0
 10
32.30309161871457
 20
42.50566297309296
 30
0.0
 10
32.29059463489471
 20
42.50652567946472
 30
0.0
 10
32.39264153564095
 20
42.49948188482104
 30
0.0
 10
32.57311539461168
 20
42.48702968206221
 30
0.0
 10
32.79559194870825
 20
42.47167512028309
 30
0.0
 10
33.01844441651745
 20
42.45629736700771
 30
0.0
 10
33.22095052667666
 20
42.44232206156301
 30
0.0
 10
33.39390231649979
 20
42.43038774190571
 30
0.0
 10
33.55859889315788
 20
42.41902129927836
 30
0.0
 10
33.745836527843
 20
42.40610134069064
 30
0.0
 10
33.98251933043341
 20
42.38976820154716
 30
0.0
 10
34.26743049646344
 20
42.37010703935387
 30
0.0
 10
34.58569087988766
 20
42.34814393944069
 30
0.0
 10
34.91593977756329
 20
42.32535388461352
 30
0.0
 10
35.2210600426041
 20
42.30429781433259
 30
0.0
 10
35.39169818469089
 20
42.2925234316413
 30
0.0
 10
35.46997543353973
 20
42.28712040150539
 30
0.0
 10
35.47513675607429
 20
42.2867646772233
 30
0.0
 10
35.4776010269395
 20
42.28659483684255
 30
0.0
  0
SPLINE
  5
10C
330
1F
100
AcDbEntity
  8
0
  6
Continuous
 62
     7
370
    15
100
AcDbSpline
210
0.0
220
0.0
230
1.0
 70
     8
 71
     3
 72
    22
 73
    18
 74
     0
 42
0.000000001
 43
0.00000001
 40
0.0
 40
0.0
 40
0.0
 40
0.0
 40
0.080823550859094
 40
0.1667585031069451
 40
0.2415318902948472
 40
0.3050920781818946
 40
0.3574166506663781
 40
0.3985024921317677
 40
0.4318073782305344
 40
0.4742758033802874
 40
0.5281661896529418
 40
0.5935182556074307
 40
0.6702737608616914
 40
0.7582791280253416
 40
0.8574909037813484
 40
0.9680118307794643
 40
1.0
 40
1.0
 40
1.0
 40
1.0
 10
35.43557602708255
 20
43.09139723969651
 30
0.0
 10
35.39208037312562
 20
43.09439873436844
 30
0.0
 10
35.3023383354594
 20
43.1005915426929
 30
0.0
 10
35.06306493090055
 20
43.11710374173803
 30
0.0
 10
34.79557324293022
 20
43.1355630769511
 30
0.0
 10
34.54001010574856
 20
43.15319905696504
 30
0.0
 10
34.31593896202618
 20
43.16866188218982
 30
0.0
 10
34.12907789526198
 20
43.18155694535707
 30
0.0
 10
33.95466019224627
 20
43.19359309072203
 30
0.0
 10
33.76071613303504
 20
43.20697658084012
 30
0.0
 10
33.5221118564209
 20
43.22344262127448
 30
0.0
 10
33.24490652032082
 20
43.24257163325447
 30
0.0
 10
32.94888710393705
 20
43.26299973433532
 30
0.0
 10
32.66320455683437
 20
43.28271461590051
 30
0.0
 10
32.43973186942745
 20
43.29813581338134
 30
0.0
 10
32.34609033491949
 20
43.30459768285552
 30
0.0
 10
32.34952062506902
 20
43.30436134076629
 30
0.0
 10
32.3502906018964
 20
43.30430829046323
 30
0.0
  0
LINE
  5
10D
330
1F
100
AcDbEntity
  8
0
  6
Continuous
 62
     7
370
    15
100
AcDbLine
 10
34.5206149275
 20
41.9710757871
 30
0.0
 11
34.9325351769
 21
41.7273672958
 31
0.0
  0
ARC
  5
10E
330
1F
100
AcDbEntity
  8
0
  6
Continuous
 62
     7
370
    15
100
AcDbCircle
 10
35.3398912769
 20
42.4158876899
 30
0.0
 40
0.800000000000008
100
AcDbArc
 50
239.3897277283
 51
286.0909497695
  0
LINE
  5
10F
330
1F
100
AcDbEntity
  8
0
  6
Continuous
 62
     7
370
    15
100
AcDbLine
 10
35.0286290402
 20
43.712469722
 30
0.0
 11
34.5206149275
 21
43.4933691014
 31
0.0
  0
SPLINE
  5
110
330
1F
100
AcDbEntity
  8
0
  6
Continuous
 62
     7
370
    15
100
AcDbSpline
210
0.0
220
0.0
230
1.0
 70
     8
 71
     3
 72
    23
 73
    19
 74
     0
 42
0.000000001
 43
0.00000001
 40
0.0
 40
0.0
 40
0.0
 40
0.0
 40
0.0297836395823996
 40
0.1132132842778973
 40
0.1856654409703524
 40
0.247134942878255
 40
0.2976256774103774
 40
0.3372240916404406
 40
0.3693878395400013
 40
0.4104571668839324
 40
0.4625930355752175
 40
0.5257908143728333
 40
0.6000971906079788
 40
0.685453106353756
 40
0.7818007220121709
 40
0.8891295564366155
 40
0.9470650821804971
 40
1.0
 40
1.0
 40
1.0
 40
1.0
 10
22.595195134925
 20
55.32650879664374
 30
0.0
 10
22.59464807496811
 20
55.31643467074215
 30
0.0
 10
22.59256859592239
 20
55.27814100027268
 30
0.0
 10
22.58430774762544
 20
55.12603026444289
 30
0.0
 10
22.57250046401638
 20
54.9086537097588
 30
0.0
 10
22.56033039495166
 20
54.6844887269903
 30
0.0
 10
22.54933175244313
 20
54.4820213905731
 30
0.0
 10
22.53992945020167
 20
54.30887122973071
 30
0.0
 10
22.53097776611305
 20
54.14403416960985
 30
0.0
 10
22.52080189915239
 20
53.95662452478609
 30
0.0
 10
22.50793522144451
 20
53.71972943517599
 30
0.0
 10
22.49245034584198
 20
53.4345606560884
 30
0.0
 10
22.47514918142055
 20
53.11601296187872
 30
0.0
 10
22.45720018747577
 20
52.78546594756904
 30
0.0
 10
22.44061145550187
 20
52.48006904908462
 30
0.0
 10
22.43133915677885
 20
52.30927806886597
 30
0.0
 10
22.42708290857801
 20
52.23092849149474
 30
0.0
 10
22.42680247995858
 20
52.22576288614756
 30
0.0
 10
22.42666858975803
 20
52.22329657604946
 30
0.0
  0
SPLINE
  5
111
330
1F
100
AcDbEntity
  8
0
  6
Continuous
 62
     7
370
    15
100
AcDbSpline
210
0.0
220
0.0
230
1.0
 70
     8
 71
     3
 72
    18
 73
    14
 74
     0
 42
0.000000001
 43
0.00000001
 40
0.0
 40
0.0
 40
0.0
 40
0.0
 40
0.1187162648754392
 40
0.2425540388467155
 40
0.3528523542877049
 40
0.4400942540767326
 40
0.5546461914345492
 40
0.6255186085590583
 40
0.7022723234162606
 40
0.7814730609254165
 40
0.859432079524599
 40
0.9329802443916055
 40
1.0
 40
1.0
 40
1.0
 40
1.0
 10
22.42654751782333
 20
52.22106442866875
 30
0.0
 10
22.42922536539573
 20
52.1712185115279
 30
0.0
 10
22.43469658490205
 20
52.06937628683175
 30
0.0
 10
22.51176788298622
 20
51.93774520690998
 30
0.0
 10
22.6165285017014
 20
51.85074489168524
 30
0.0
 10
22.73913898542446
 20
51.80177097100097
 30
0.0
 10
22.85553701624614
 20
51.79448952121595
 30
0.0
 10
22.96296803620598
 20
51.8195757303861
 30
0.0
 10
23.04868961197981
 20
51.86208302306152
 30
0.0
 10
23.1239345379862
 20
51.92609575982589
 30
0.0
 10
23.18002555388597
 20
52.0054245478679
 30
0.0
 10
23.21532507671084
 20
52.09087001660982
 30
0.0
 10
23.22211115801701
 20
52.14936566598275
 30
0.0
 10
23.22534661536132
 20
52.17725513117416
 30
0.0
  0
SPLINE
  5
112
330
1F
100
AcDbEntity
  8
0
  6
Continuous
 62
     7
370
    15
100
AcDbSpline
210
0.0
220
0.0
230
1.0
 70
     8
 71
     3
 72
    23
 73
    19
 74
     0
 42
0.000000001
 43
0.00000001
 40
0.0
 40
0.0
 40
0.0
 40
0.0
 40
0.0948904690605254
 40
0.1814149767801539
 40
0.2579454795875102
 40
0.3245359288230051
 40
0.3811403521309855
 40
0.427738768617196
 40
0.4643281544120982
 40
0.49398827247498
 40
0.5318090300863576
 40
0.5798018382704913
 40
0.6380021012196792
 40
0.7063578436642984
 40
0.7847322515264231
 40
0.8730865840819989
 40
0.9715125061114235
 40
1.0
 40
1.0
 40
1.0
 40
1.0
 10
23.2254099452964
 20
52.1784185859005
 30
0.0
 10
23.22613919819787
 20
52.19183394515883
 30
0.0
 10
23.22753340985575
 20
52.21748190656574
 30
0.0
 10
23.23754510496958
 20
52.40185317700546
 30
0.0
 10
23.25092773310201
 20
52.64829218729258
 30
0.0
 10
23.26557810443635
 20
52.91803496937627
 30
0.0
 10
23.27944422661327
 20
53.17340779698091
 30
0.0
 10
23.29163081755371
 20
53.39776556015368
 30
0.0
 10
23.30178651805374
 20
53.58477934555759
 30
0.0
 10
23.31126593684665
 20
53.75935762448091
 30
0.0
 10
23.32180856578616
 20
53.95347561496066
 30
0.0
 10
23.33477946683868
 20
54.19229584741465
 30
0.0
 10
23.34984492324266
 20
54.46975193721831
 30
0.0
 10
23.36593622675586
 20
54.76603925791297
 30
0.0
 10
23.38146456659966
 20
55.05198047851029
 30
0.0
 10
23.39361321558489
 20
55.27565378018539
 30
0.0
 10
23.39870139264784
 20
55.36938168828156
 30
0.0
 10
23.39851559821074
 20
55.36594727972561
 30
0.0
 10
23.39847389404689
 20
55.3651763786192
 30
0.0
  0
LINE
  5
113
330
1F
100
AcDbEntity
  8
0
  6
Continuous
 62
     7
370
    15
100
AcDbLine
 10
22.5105490888
 20
51.5640622199
 30
0.0
 11
22.7906313146
 21
51.5488518596
 31
0.0
  0
LINE
  5
114
330
1F
100
AcDbEntity
  8
0
  6
Continuous
 62
     7
370
    15
100
AcDbLine
 10
22.1085995788
 20
53.1955412318
 30
0.0
 11
21.8595192188
 21
52.7601146333
 31
0.0
  0
ARC
  5
115
330
1F
100
AcDbEntity
  8
0
  6
Continuous
 62
     7
370
    15
100
AcDbCircle
 10
22.5539314442
 20
52.3628851393
 30
0.0
 40
0.8000000000000025
100
AcDbArc
 50
150.2288614051
 51
266.8914998961
  0
ARC
  5
116
330
1F
100
AcDbEntity
  8
0
  6
Continuous
 62
     7
370
    15
100
AcDbCircle
 10
23.131211748
 20
52.3315348614
 30
0.0
 40
0.7999999999999985
100
AcDbArc
 50
266.8914998961
 51
298.141488489
  0
LINE
  5
117
330
1F
100
AcDbEntity
  8
0
  6
Continuous
 62
     7
370
    15
100
AcDbLine
 10
22.7906313146
 20
51.5488518596
 30
0.0
 11
23.0878293866
 21
51.5327119812
 31
0.0
  0
LINE
  5
118
330
1F
100
AcDbEntity
  8
0
  6
Continuous
 62
     7
370
    15
100
AcDbLine
 10
23.8458160663
 20
52.693103413
 30
0.0
 11
23.6203372831
 21
53.1955412318
 31
0.0
  0
LINE
  5
119
330
1F
100
AcDbEntity
  8
0
  6
Continuous
 62
     7
370
    15
100
AcDbLine
 10
33.3126429821
 20
45.2224733037
 30
0.0
 11
33.3126429821
 21
44.9481908892
 31
0.0
  0
LINE
  5
11A
330
1F
100
AcDbEntity
  8
0
  6
Continuous
 62
     7
370
    15
100
AcDbLine
 10
33.3126429821
 20
44.1106650707
 30
0.0
 11
33.3126429821
 21
41.4877696623
 31
0.0
  0
LINE
  5
11B
330
1F
100
AcDbEntity
  8
0
  6
Continuous
 62
     7
370
    15
100
AcDbLine
 10
33.3126429821
 20
40.6420700912
 30
0.0
 11
33.3126429821
 21
40.3686086376
 31
0.0
  0
LINE
  5
11C
330
1F
100
AcDbEntity
  8
0
  6
Continuous
 62
     7
370
    15
100
AcDbLine
 10
33.3206151033
 20
46.7955413934
 30
0.0
 11
33.3206151033
 21
43.2373475943
 31
0.0
  0
LINE
  5
11D
330
1F
100
AcDbEntity
  8
0
  6
Continuous
 62
     7
370
    15
100
AcDbLine
 10
33.3206151033
 20
42.43544533
 30
0.0
 11
33.3206151033
 21
38.7955414791
 31
0.0
  0
LINE
  5
11E
330
1F
100
AcDbEntity
  8
0
  6
Continuous
 62
     7
370
    15
100
AcDbLine
 10
34.5206149275
 20
38.7955414791
 30
0.0
 11
34.5206149275
 21
42.3526349206
 31
0.0
  0
LINE
  5
11F
330
1F
100
AcDbEntity
  8
0
  6
Continuous
 62
     7
370
    15
100
AcDbLine
 10
34.5206149275
 20
43.154537185
 30
0.0
 11
34.5206149275
 21
46.7955413934
 31
0.0
  0
LINE
  5
120
330
1F
100
AcDbEntity
  8
0
  6
Continuous
 62
     7
370
    15
100
AcDbLine
 10
26.9126426781
 20
54.3955412888
 30
0.0
 11
23.345815053
 21
54.3955412888
 31
0.0
  0
LINE
  5
121
330
1F
100
AcDbEntity
  8
0
  6
Continuous
 62
     7
370
    15
100
AcDbLine
 10
22.5446373576
 20
54.3955412888
 30
0.0
 11
18.9126422981
 21
54.3955412888
 31
0.0
  0
LINE
  5
122
330
1F
100
AcDbEntity
  8
0
  6
Continuous
 62
     7
370
    15
100
AcDbLine
 10
18.9126422981
 20
53.1955412318
 30
0.0
 11
22.4794689918
 21
53.1955412318
 31
0.0
  0
LINE
  5
123
330
1F
100
AcDbEntity
  8
0
  6
Continuous
 62
     7
370
    15
100
AcDbLine
 10
23.2806466872
 20
53.1955412318
 30
0.0
 11
26.9126426781
 21
53.1955412318
 31
0.0
  0
SPLINE
  5
124
330
1F
100
AcDbEntity
  8
0
  6
Continuous
 62
     7
370
    15
100
AcDbSpline
210
0.0
220
0.0
230
1.0
 70
     8
 71
     3
 72
    10
 73
     6
 74
     0
 42
0.000000001
 43
0.00000001
 40
0.0
 40
0.0
 40
0.0
 40
0.0
 40
0.2965428751259321
 40
0.7114699438165064
 40
1.0
 40
1.0
 40
1.0
 40
1.0
 10
35.65626222436344
 20
41.40057272357895
 30
0.0
 10
35.5693545118234
 20
41.29369002737205
 30
0.0
 10
35.36084427419984
 20
41.03725552078348
 30
0.0
 10
34.96282254102431
 20
40.77507687013334
 30
0.0
 10
34.64923573025001
 20
40.68325100435503
 30
0.0
 10
34.52061492745792
 20
40.64558769656374
 30
0.0
  0
SPLINE
  5
125
330
1F
100
AcDbEntity
  8
0
  6
Continuous
 62
     7
370
    15
100
AcDbSpline
210
0.0
220
0.0
230
1.0
 70
     8
 71
     3
 72
    18
 73
    14
 74
     0
 42
0.000000001
 43
0.00000001
 40
0.0
 40
0.0
 40
0.0
 40
0.0
 40
0.0258928010475118
 40
0.1246207555507061
 40
0.2233485648984128
 40
0.3255824738746548
 40
0.4278164882927417
 40
0.5265443132703747
 40
0.6252721415952568
 40
0.7275060851625609
 40
0.829740097101551
 40
0.9284678526975793
 40
1.0
 40
1.0
 40
1.0
 40
1.0
 10
33.32061510329162
 20
40.64043655140354
 30
0.0
 10
33.27085962453025
 20
40.64938935857548
 30
0.0
 10
33.03138899542938
 20
40.69247877142114
 30
0.0
 10
32.64394659911677
 20
40.91574122911334
 30
0.0
 10
32.19824296435828
 20
41.29616124822331
 30
0.0
 10
31.86734189692957
 20
41.79616804613971
 30
0.0
 10
31.67829925823677
 20
42.36255167841334
 30
0.0
 10
31.64308255867165
 20
42.95225731608541
 30
0.0
 10
31.75902696814578
 20
43.53094222749591
 30
0.0
 10
32.02369501256369
 20
44.06784663928644
 30
0.0
 10
32.42159999581257
 20
44.51087823696028
 30
0.0
 10
32.86574330449339
 20
44.82004381543313
 30
0.0
 10
33.18604510196891
 20
44.91217786277922
 30
0.0
 10
33.32061510329162
 20
44.95088660238339
 30
0.0
  0
SPLINE
  5
126
330
1F
100
AcDbEntity
  8
0
  6
Continuous
 62
     7
370
    15
100
AcDbSpline
210
0.0
220
0.0
230
1.0
 70
     8
 71
     3
 72
    11
 73
     7
 74
     0
 42
0.000000001
 43
0.00000001
 40
0.0
 40
0.0
 40
0.0
 40
0.0
 40
0.0970148149574846
 40
0.5115081798662832
 40
0.9260009353632209
 40
1.0
 40
1.0
 40
1.0
 40
1.0
 10
34.52061492745792
 20
44.9473787759061
 30
0.0
 10
34.5650491503295
 20
44.93934253684202
 30
0.0
 10
34.79932747652921
 20
44.89697166783156
 30
0.0
 10
35.17373772974717
 20
44.66930213951475
 30
0.0
 10
35.51872523505542
 20
44.41558423875296
 30
0.0
 10
35.64120788078236
 20
44.22421698535187
 30
0.0
 10
35.65976213459884
 20
44.19522776348545
 30
0.0
  0
SPLINE
  5
127
330
1F
100
AcDbEntity
  8
0
  6
Continuous
 62
     7
370
    15
100
AcDbSpline
210
0.0
220
0.0
230
1.0
 70
     8
 71
     3
 72
    10
 73
     6
 74
     0
 42
0.000000001
 43
0.00000001
 40
0.0
 40
0.0
 40
0.0
 40
0.0
 40
0.1365850341309873
 40
0.9346447113649392
 40
1.0
 40
1.0
 40
1.0
 40
1.0
 10
34.90215170924579
 20
41.74534275276614
 30
0.0
 10
34.88830737804577
 20
41.72930317655285
 30
0.0
 10
34.79357129644786
 20
41.6195451406474
 30
0.0
 10
34.65757596592653
 20
41.52833917270335
 30
0.0
 10
34.53025254037399
 20
41.4862963667439
 30
0.0
 10
34.52061492745792
 20
41.48311398072197
 30
0.0
  0
SPLINE
  5
128
330
1F
100
AcDbEntity
  8
0
  6
Continuous
 62
     7
370
    15
100
AcDbSpline
210
0.0
220
0.0
230
1.0
 70
     8
 71
     3
 72
    11
 73
     7
 74
     0
 42
0.000000001
 43
0.00000001
 40
0.0
 40
0.0
 40
0.0
 40
0.0
 40
0.1800071162651851
 40
0.4550619644945915
 40
0.7399751538578686
 40
0.9999999999999999
 40
0.9999999999999999
 40
0.9999999999999999
 40
0.9999999999999999
 10
33.32061510329162
 20
41.48378173900797
 30
0.0
 10
33.24616608576275
 20
41.51702292404129
 30
0.0
 10
33.05795732560757
 20
41.60105737377445
 30
0.0
 10
32.8105542974013
 20
41.83321938663317
 30
0.0
 10
32.59520900157446
 20
42.13994654010612
 30
0.0
 10
32.53001916714577
 20
42.37837798727453
 30
0.0
 10
32.49891292099868
 20
42.49214890493108
 30
0.0
  0
SPLINE
  5
129
330
1F
100
AcDbEntity
  8
0
  6
Continuous
 62
     7
370
    15
100
AcDbSpline
210
0.0
220
0.0
230
1.0
 70
     8
 71
     3
 72
    11
 73
     7
 74
     0
 42
0.000000001
 43
0.00000001
 40
0.0
 40
0.0
 40
0.0
 40
0.0
 40
0.3041353598937708
 40
0.6373802837957819
 40
0.959094788902839
 40
1.0
 40
1.0
 40
1.0
 40
1.0
 10
32.55398761277115
 20
43.29025137318327
 30
0.0
 10
32.60031764497701
 20
43.39892133929432
 30
0.0
 10
32.69741207387194
 20
43.62666234864007
 30
0.0
 10
32.95467652070764
 20
43.89672906542236
 30
0.0
 10
33.17247084035584
 20
44.06541930387347
 30
0.0
 10
33.30559776002923
 20
44.10850096921934
 30
0.0
 10
33.32061510329162
 20
44.11336078388644
 30
0.0
  0
SPLINE
  5
12A
330
1F
100
AcDbEntity
  8
0
  6
Continuous
 62
     7
370
    15
100
AcDbSpline
210
0.0
220
0.0
230
1.0
 70
     8
 71
     3
 72
    11
 73
     7
 74
     0
 42
0.000000001
 43
0.00000001
 40
0.0
 40
0.0
 40
0.0
 40
0.0
 40
0.169051290930792
 40
0.4477807752527931
 40
0.736501597869599
 40
1.0
 40
1.0
 40
1.0
 40
1.0
 10
34.52061492745792
 20
44.09932389004184
 30
0.0
 10
34.58953561196911
 20
44.0683947412619
 30
0.0
 10
34.77209178986907
 20
43.98647002987796
 30
0.0
 10
35.01461051624676
 20
43.75766895653714
 30
0.0
 10
35.23010446582221
 20
43.4511810910321
 30
0.0
 10
35.2952743624592
 20
43.2127188044007
 30
0.0
 10
35.32637100462829
 20
43.09893350197031
 30
0.0
  0
LWPOLYLINE
  5
12B
330
1F
100
AcDbEntity
  8
0
  6
Continuous
 62
     7
370
    15
100
AcDbPolyline
 90
        8
 70
   128
 43
0.0
 10
22.8045750762
 20
51.8056198218
 10
22.8040218705
 20
51.7954152039
 10
22.8002723659
 20
51.7263621752
 10
22.7969847972
 20
51.6658368016
 10
22.794287687
 20
51.6161648285
 10
22.7922834808
 20
51.5792552343
 10
22.7910485471
 20
51.5565264233
 10
22.7906313146
 20
51.5488518596
  0
SPLINE
  5
12C
330
1F
100
AcDbEntity
  8
0
  6
Continuous
 62
     7
370
    15
100
AcDbSpline
210
0.0
220
0.0
230
1.0
 70
     8
 71
     3
 72
    10
 73
     6
 74
     0
 42
0.000000001
 43
0.00000001
 40
0.0
 40
0.0
 40
0.0
 40
0.0
 40
0.1286404465556274
 40
0.8802828593203407
 40
1.0
 40
1.0
 40
1.0
 40
1.0
 10
21.87704764102613
 20
52.79075724152876
 30
0.0
 10
21.86079654067784
 20
52.80436224972719
 30
0.0
 10
21.74959073049346
 20
52.89746092777635
 30
0.0
 10
21.6522654608983
 20
53.0408822248118
 30
0.0
 10
21.60599704690071
 20
53.1768591921162
 30
0.0
 10
21.59964017366087
 20
53.1955412317629
 30
0.0
  0
SPLINE
  5
12D
330
1F
100
AcDbEntity
  8
0
  6
Continuous
 62
     7
370
    15
100
AcDbSpline
210
0.0
220
0.0
230
1.0
 70
     8
 71
     3
 72
    11
 73
     7
 74
     0
 42
0.000000001
 43
0.00000001
 40
0.0
 40
0.0
 40
0.0
 40
0.0
 40
0.1612456264878656
 40
0.4425934584450217
 40
0.7340250888216987
 40
1.0
 40
1.0
 40
1.0
 40
1.0
 10
21.60548887942945
 20
54.39554128875984
 30
0.0
 10
21.63384408078267
 20
54.46103815297676
 30
0.0
 10
21.71167457395742
 20
54.64081657104907
 30
0.0
 10
21.93462330787341
 20
54.88321490398931
 30
0.0
 10
22.23774555621216
 20
55.10327955805089
 30
0.0
 10
22.47525013771932
 20
55.1719221342269
 30
0.0
 10
22.58857901935493
 20
55.20467597140028
 30
0.0
  0
SPLINE
  5
12E
330
1F
100
AcDbEntity
  8
0
  6
Continuous
 62
     7
370
    15
100
AcDbSpline
210
0.0
220
0.0
230
1.0
 70
     8
 71
     3
 72
    11
 73
     7
 74
     0
 42
0.000000001
 43
0.00000001
 40
0.0
 40
0.0
 40
0.0
 40
0.0
 40
0.3010240042311274
 40
0.6308598962216637
 40
0.949283694347221
 40
1.0
 40
1.0
 40
1.0
 40
1.0
 10
23.38740046863472
 20
55.16129450021339
 30
0.0
 10
23.4967154695485
 20
55.11655155973049
 30
0.0
 10
23.72580832979427
 20
55.02278320108483
 30
0.0
 10
23.99998477648859
 20
54.76966868078922
 30
0.0
 10
24.17339251305368
 20
54.55071149258223
 30
0.0
 10
24.21933138057564
 20
54.41428498138543
 30
0.0
 10
24.22564293985283
 20
54.39554128875984
 30
0.0
  0
SPLINE
  5
12F
330
1F
100
AcDbEntity
  8
0
  6
Continuous
 62
     7
370
    15
100
AcDbSpline
210
0.0
220
0.0
230
1.0
 70
     8
 71
     3
 72
    11
 73
     7
 74
     0
 42
0.000000001
 43
0.00000001
 40
0.0
 40
0.0
 40
0.0
 40
0.0
 40
0.1612457970496906
 40
0.4425937008881052
 40
0.7340252679547228
 40
1.0
 40
1.0
 40
1.0
 40
1.0
 10
24.21979609672939
 20
53.1955412317629
 30
0.0
 10
24.19144053034552
 20
53.13004447848211
 30
0.0
 10
24.11360907491388
 20
52.95026645659815
 30
0.0
 10
23.89066095490806
 20
52.70786754824311
 30
0.0
 10
23.58753853804757
 20
52.48780296316682
 30
0.0
 10
23.35003390478059
 20
52.41916053885085
 30
0.0
 10
23.23670502548134
 20
52.38640678195311
 30
0.0
  0
SPLINE
  5
130
330
1F
100
AcDbEntity
  8
0
  6
Continuous
 62
     7
370
    15
100
AcDbSpline
210
0.0
220
0.0
230
1.0
 70
     8
 71
     3
 72
    11
 73
     7
 74
     0
 42
0.000000001
 43
0.00000001
 40
0.0
 40
0.0
 40
0.0
 40
0.0
 40
0.2502297567322837
 40
0.5271878193597858
 40
0.7946476271955604
 40
1.0
 40
1.0
 40
1.0
 40
1.0
 10
22.17101122980034
 20
51.6786216486807
 30
0.0
 10
22.00351061268039
 20
51.74757373708292
 30
0.0
 10
21.65061779036366
 20
51.89284303518627
 30
0.0
 10
21.21987860034316
 20
52.28160889728316
 30
0.0
 10
20.89940293604508
 20
52.72595497494559
 30
0.0
 10
20.80071719580789
 20
53.05334764233982
 30
0.0
 10
20.7578558826915
 20
53.1955412317629
 30
0.0
  0
SPLINE
  5
131
330
1F
100
AcDbEntity
  8
0
  6
Continuous
 62
     7
370
    15
100
AcDbSpline
210
0.0
220
0.0
230
1.0
 70
     8
 71
     3
 72
    11
 73
     7
 74
     0
 42
0.000000001
 43
0.00000001
 40
0.0
 40
0.0
 40
0.0
 40
0.0
 40
0.0802447692685401
 40
0.4972756276373943
 40
0.9143068318851406
 40
0.9999999999999999
 40
0.9999999999999999
 40
0.9999999999999999
 40
0.9999999999999999
 10
20.75660884176409
 20
54.39554128875984
 30
0.0
 10
20.76280119697216
 20
54.43212452575744
 30
0.0
 10
20.80117512901424
 20
54.65883029492858
 30
0.0
 10
21.02093986267349
 20
55.02919306006179
 30
0.0
 10
21.27296749340502
 20
55.38128423494335
 30
0.0
 10
21.46722202590051
 20
55.50901836220157
 30
0.0
 10
21.5003341788522
 20
55.53079160941793
 30
0.0
  0
SPLINE
  5
132
330
1F
100
AcDbEntity
  8
0
  6
Continuous
 62
     7
370
    15
100
AcDbSpline
210
0.0
220
0.0
230
1.0
 70
     8
 71
     3
 72
    10
 73
     6
 74
     0
 42
0.000000001
 43
0.00000001
 40
0.0
 40
0.0
 40
0.0
 40
0.0
 40
0.2669040458818778
 40
0.681600412765715
 40
1.0
 40
1.0
 40
1.0
 40
1.0
 10
24.31300099735176
 20
55.53263795642211
 30
0.0
 10
24.41024704105448
 20
55.4555898021386
 30
0.0
 10
24.65858701397845
 20
55.25882975082892
 30
0.0
 10
24.92406548568062
 20
54.86264194654996
 30
0.0
 10
25.02401702513484
 20
54.53698236082178
 30
0.0
 10
25.06742816214477
 20
54.39554128875984
 30
0.0
  0
SPLINE
  5
133
330
1F
100
AcDbEntity
  8
0
  6
Continuous
 62
     7
370
    15
100
AcDbSpline
210
0.0
220
0.0
230
1.0
 70
     8
 71
     3
 72
    13
 73
     9
 74
     0
 42
0.000000001
 43
0.00000001
 40
0.0
 40
0.0
 40
0.0
 40
0.0
 40
0.0365576794800107
 40
0.2265475618152285
 40
0.4165368813128099
 40
0.6132736970348328
 40
0.8100102869938111
 40
1.0
 40
1.0
 40
1.0
 40
1.0
 10
25.06867613439476
 20
53.1955412317629
 30
0.0
 10
25.06245492823406
 20
53.15899420635244
 30
0.0
 10
25.02390217796921
 20
52.93251266769609
 30
0.0
 10
24.80992015070983
 20
52.55489235244546
 30
0.0
 10
24.43719388115814
 20
52.10272728601952
 30
0.0
 10
23.94190396906272
 20
51.7670047279164
 30
0.0
 10
23.37791997625728
 20
51.56083145746269
 30
0.0
 10
22.98410401377202
 20
51.55279834332296
 30
0.0
 10
22.79063131456291
 20
51.54885185962571
 30
0.0
  0
LINE
  5
134
330
1F
100
AcDbEntity
  8
0
  6
Continuous
 62
     7
370
    15
100
AcDbLine
 10
34.5206149275
 20
46.7955413934
 30
0.0
 11
33.3206151033
 21
46.7955413934
 31
0.0
  0
LINE
  5
135
330
1F
100
AcDbEntity
  8
0
  6
Continuous
 62
     7
370
    15
100
AcDbLine
 10
34.5206149275
 20
38.7955414791
 30
0.0
 11
33.3206151033
 21
38.7955414791
 31
0.0
  0
LINE
  5
136
330
1F
100
AcDbEntity
  8
0
  6
Continuous
 62
     7
370
    15
100
AcDbLine
 10
18.9126422981
 20
53.1955412318
 30
0.0
 11
18.9126422981
 21
54.3955412888
 31
0.0
  0
LINE
  5
137
330
1F
100
AcDbEntity
  8
0
  6
Continuous
 62
     7
370
    15
100
AcDbLine
 10
26.9126426781
 20
53.1955412318
 30
0.0
 11
26.9126426781
 21
54.3955412888
 31
0.0
  0
CIRCLE
  5
138
330
1F
100
AcDbEntity
  8
0
  6
Continuous
 62
     7
370
    15
100
AcDbCircle
 10
22.9126421118
 20
59.7955413118
 30
0.0
 40
3.500000000000004
  0
CIRCLE
  5
139
330
1F
100
AcDbEntity
  8
0
  6
Continuous
 62
     7
370
    15
100
AcDbCircle
 10
22.9126421118
 20
59.7955413118
 30
0.0
 40
4.500000000000004
  0
CIRCLE
  5
13A
330
1F
100
AcDbEntity
  8
0
  6
Continuous
 62
     7
370
    15
100
AcDbCircle
 10
39.9126421118
 20
42.7955413118
 30
0.0
 40
3.500000000000008
  0
CIRCLE
  5
13B
330
1F
100
AcDbEntity
  8
0
  6
Continuous
 62
     7
370
    15
100
AcDbCircle
 10
39.9126421118
 20
42.7955413118
 30
0.0
 40
4.500000000000006
  0
ARC
  5
13C
330
1F
100
AcDbEntity
  8
0
  6
Continuous
 62
     7
370
    15
100
AcDbCircle
 10
42.9126421118
 20
61.7955413118
 30
0.0
 40
2.000000000000007
100
AcDbArc
 50
0.0
 51
90.0
  0
ARC
  5
13D
330
1F
100
AcDbEntity
  8
0
  6
Continuous
 62
     7
370
    15
100
AcDbCircle
 10
42.9126421118
 20
39.7955413118
 30
0.0
 40
2.000000000000007
100
AcDbArc
 50
270.0
 51
0.0
  0
LINE
  5
13E
330
1F
100
AcDbEntity
  8
0
  6
Continuous
 62
     7
370
    15
100
AcDbLine
 10
42.9126415754
 20
37.7955413152
 30
0.0
 11
19.912642462
 21
37.7955413152
 31
0.0
  0
ARC
  5
13F
330
1F
100
AcDbEntity
  8
0
  6
Continuous
 62
     7
370
    15
100
AcDbCircle
 10
19.9126421118
 20
39.7955413118
 30
0.0
 40
2.0
100
AcDbArc
 50
180.0
 51
270.0
  0
LINE
  5
140
330
1F
100
AcDbEntity
  8
0
  6
Continuous
 62
     7
370
    15
100
AcDbLine
 10
20.5277940611
 20
54.5455412668
 30
0.0
 11
18.9126422981
 21
54.5455412668
 31
0.0
  0
ARC
  5
141
330
1F
100
AcDbEntity
  8
0
  6
Continuous
 62
     7
370
    15
100
AcDbCircle
 10
18.9126421118
 20
53.7955413118
 30
0.0
 40
0.7500000000000071
100
AcDbArc
 50
90.0
 51
270.0
  0
LINE
  5
142
330
1F
100
AcDbEntity
  8
0
  6
Continuous
 62
     7
370
    15
100
AcDbLine
 10
18.9126422981
 20
53.0455412537
 30
0.0
 11
20.5277940611
 21
53.0455412537
 31
0.0
  0
ARC
  5
143
330
1F
100
AcDbEntity
  8
0
  6
Continuous
 62
     7
370
    15
100
AcDbCircle
 10
22.9126421118
 20
53.7955413118
 30
0.0
 40
2.500000000000004
100
AcDbArc
 50
197.4576031237
 51
342.5423968763
  0
ARC
  5
144
330
1F
100
AcDbEntity
  8
0
  6
Continuous
 62
     7
370
    15
100
AcDbCircle
 10
26.9126421118
 20
53.7955413118
 30
0.0
 40
0.7500000000000071
100
AcDbArc
 50
270.0
 51
90.0
  0
ARC
  5
145
330
1F
100
AcDbEntity
  8
0
  6
Continuous
 62
     7
370
    15
100
AcDbCircle
 10
22.9126421118
 20
53.7955413118
 30
0.0
 40
2.5
100
AcDbArc
 50
132.8334280661
 51
162.5423968763
  0
ARC
  5
146
330
1F
100
AcDbEntity
  8
0
  6
Continuous
 62
     7
370
    15
100
AcDbCircle
 10
22.9126421118
 20
53.7955413118
 30
0.0
 40
2.499999999999996
100
AcDbArc
 50
17.4576031237
 51
47.1665719339
  0
LINE
  5
147
330
1F
100
AcDbEntity
  8
0
  6
Continuous
 62
     7
370
    15
100
AcDbLine
 10
33.1626423055
 20
40.4106932421
 30
0.0
 11
33.1626423055
 21
38.7955414791
 31
0.0
  0
LINE
  5
148
330
1F
100
AcDbEntity
  8
0
  6
Continuous
 62
     7
370
    15
100
AcDbLine
 10
34.6626416201
 20
38.7955414791
 30
0.0
 11
34.6626416201
 21
40.4106932421
 31
0.0
  0
ARC
  5
149
330
1F
100
AcDbEntity
  8
0
  6
Continuous
 62
     7
370
    15
100
AcDbCircle
 10
33.9126421118
 20
42.7955413118
 30
0.0
 40
2.5
100
AcDbArc
 50
42.8334280661
 51
72.5423968763
  0
ARC
  5
14A
330
1F
100
AcDbEntity
  8
0
  6
Continuous
 62
     7
370
    15
100
AcDbCircle
 10
33.9126421118
 20
42.7955413118
 30
0.0
 40
2.499999999999997
100
AcDbArc
 50
287.4576031237
 51
317.1665719339
  0
LINE
  5
14B
330
1F
100
AcDbEntity
  8
0
  6
Continuous
 62
     7
370
    15
100
AcDbLine
 10
34.6626416201
 20
45.1803891648
 30
0.0
 11
34.6626416201
 21
46.7955413934
 31
0.0
  0
LINE
  5
14C
330
1F
100
AcDbEntity
  8
0
  6
Continuous
 62
     7
370
    15
100
AcDbLine
 10
33.1626423055
 20
46.7955413934
 30
0.0
 11
33.1626423055
 21
45.1803891648
 31
0.0
  0
ARC
  5
14D
330
1F
100
AcDbEntity
  8
0
  6
Continuous
 62
     7
370
    15
100
AcDbCircle
 10
33.9126421118
 20
42.7955413118
 30
0.0
 40
2.500000000000004
100
AcDbArc
 50
107.4576031237
 51
252.5423968763
  0
CIRCLE
  5
14E
330
1F
100
AcDbEntity
  8
0
  6
Continuous
 62
     7
370
    15
100
AcDbCircle
 10
31.4126421118
 20
51.2955413118
 30
0.0
 40
1.727199999999993
  0
LINE
  5
14F
330
1F
100
AcDbEntity
  8
0
  6
Continuous
 62
     7
370
    15
100
AcDbLine
 10
17.9126421342
 20
39.795541643
 30
0.0
 11
17.9126421342
 21
61.7955415238
 31
0.0
  0
LINE
  5
150
330
1F
100
AcDbEntity
  8
0
  6
Continuous
 62
     7
370
    15
100
AcDbLine
 10
19.912642462
 20
63.7955409203
 30
0.0
 11
20.8510896543
 21
63.7955409203
 31
0.0
  0
LINE
  5
151
330
1F
100
AcDbEntity
  8
0
  6
Continuous
 62
     7
370
    15
100
AcDbLine
 10
24.9741953218
 20
63.7955409203
 30
0.0
 11
42.9126415754
 21
63.7955409203
 31
0.0
  0
LINE
  5
152
330
1F
100
AcDbEntity
  8
0
  6
Continuous
 62
     7
370
    15
100
AcDbLine
 10
26.9126426781
 20
54.5455412668
 30
0.0
 11
25.2974909151
 21
54.5455412668
 31
0.0
  0
LINE
  5
153
330
1F
100
AcDbEntity
  8
0
  6
Continuous
 62
     7
370
    15
100
AcDbLine
 10
25.2974909151
 20
53.0455412537
 30
0.0
 11
26.9126426781
 21
53.0455412537
 31
0.0
  0
ARC
  5
154
330
1F
100
AcDbEntity
  8
0
  6
Continuous
 62
     7
370
    15
100
AcDbCircle
 10
33.9126421118
 20
46.7955413118
 30
0.0
 40
0.7500000000000071
100
AcDbArc
 50
0.0
 51
180.0
  0
LINE
  5
155
330
1F
100
AcDbEntity
  8
0
  6
Continuous
 62
     7
370
    15
100
AcDbLine
 10
44.9126419032
 20
61.7955415238
 30
0.0
 11
44.9126419032
 21
39.795541643
 31
0.0
  0
ARC
  5
156
330
1F
100
AcDbEntity
  8
0
  6
Continuous
 62
     7
370
    15
100
AcDbCircle
 10
33.9126421118
 20
38.7955413118
 30
0.0
 40
0.7500000000000071
100
AcDbArc
 50
180.0
 51
0.0
  0
ARC
  5
157
330
1F
100
AcDbEntity
  8
0
  6
Continuous
 62
     7
370
    15
100
AcDbCircle
 10
19.9126421118
 20
61.7955413118
 30
0.0
 40
2.0
100
AcDbArc
 50
90.0
 51
180.0
  0
LINE
  5
158
330
1F
100
AcDbEntity
  8
0
  6
Continuous
 62
     7
370
    15
100
AcDbLine
 10
34.6626416201
 20
40.4106932421
 30
0.0
 11
34.5206149275
 21
40.3705942173
 31
0.0
  0
LINE
  5
159
330
1F
100
AcDbEntity
  8
0
  6
Continuous
 62
     7
370
    15
100
AcDbLine
 10
33.3206151033
 20
40.3666519289
 30
0.0
 11
33.1626423055
 21
40.4106932421
 31
0.0
  0
LINE
  5
15A
330
1F
100
AcDbEntity
  8
0
  6
Continuous
 62
     7
370
    15
100
AcDbLine
 10
20.5277940611
 20
53.0455412537
 30
0.0
 11
20.4857094566
 21
53.1955412318
 31
0.0
  0
LINE
  5
15B
330
1F
100
AcDbEntity
  8
0
  6
Continuous
 62
     7
370
    15
100
AcDbLine
 10
20.4857094566
 20
54.3955412888
 30
0.0
 11
20.5277940611
 21
54.5455412668
 31
0.0
  0
LINE
  5
15C
330
1F
100
AcDbEntity
  8
0
  6
Continuous
 62
     7
370
    15
100
AcDbLine
 10
25.2974909151
 20
54.5455412668
 30
0.0
 11
25.339573657
 21
54.3955412888
 31
0.0
  0
LINE
  5
15D
330
1F
100
AcDbEntity
  8
0
  6
Continuous
 62
     7
370
    15
100
AcDbLine
 10
25.339573657
 20
53.1955412318
 30
0.0
 11
25.2974909151
 21
53.0455412537
 31
0.0
  0
LINE
  5
15E
330
1F
100
AcDbEntity
  8
0
  6
Continuous
 62
     7
370
    15
100
AcDbLine
 10
33.1626423055
 20
45.1803891648
 30
0.0
 11
33.3206151033
 21
45.224430478
 31
0.0
  0
LINE
  5
15F
330
1F
100
AcDbEntity
  8
0
  6
Continuous
 62
     7
370
    15
100
AcDbLine
 10
34.5206149275
 20
45.2204886553
 30
0.0
 11
34.6626416201
 21
45.1803891648
 31
0.0
  0
LWPOLYLINE
  5
160
330
1F
100
AcDbEntity
  8
0
  6
Continuous
 62
     8
370
    15
100
AcDbPolyline
 90
        8
 70
   128
 43
0.0
 10
34.9325351769
 20
41.7273672958
 10
34.9360034222
 20
41.73322904
 10
34.9630415792
 20
41.7789318327
 10
35.0134689713
 20
41.8641646121
 10
35.0804739053
 20
41.9774162312
 10
35.1550057883
 20
42.1033915792
 10
35.2270007486
 20
42.2250772555
 10
35.2743063474
 20
42.3050359551
  0
SPLINE
  5
161
330
1F
100
AcDbEntity
  8
0
  6
Continuous
 62
     8
370
    15
100
AcDbSpline
210
0.0
220
0.0
230
1.0
 70
     8
 71
     3
 72
    10
 73
     6
 74
     0
 42
0.000000001
 43
0.00000001
 40
0.0
 40
0.0
 40
0.0
 40
0.0
 40
0.303869636646685
 40
0.7823240579852961
 40
1.0
 40
1.0
 40
1.0
 40
1.0
 10
35.31702425126945
 20
41.62393554193927
 30
0.0
 10
35.25495668221624
 20
41.54476164615497
 30
0.0
 10
35.09516134028332
 20
41.34092540861573
 30
0.0
 10
34.80978545541834
 20
41.15234351502374
 30
0.0
 10
34.58949765097045
 20
41.0853110404363
 30
0.0
 10
34.52061492745792
 20
41.06435037298156
 30
0.0
  0
SPLINE
  5
162
330
1F
100
AcDbEntity
  8
0
  6
Continuous
 62
     8
370
    15
100
AcDbSpline
210
0.0
220
0.0
230
1.0
 70
     8
 71
     3
 72
    13
 73
     9
 74
     0
 42
0.000000001
 43
0.00000001
 40
0.0
 40
0.0
 40
0.0
 40
0.0
 40
0.0081595836161891
 40
0.2358686085512716
 40
0.4635767276033282
 40
0.6993979064050638
 40
0.9352188920007974
 40
1.0
 40
1.0
 40
1.0
 40
1.0
 10
33.32061510329163
 20
41.04512973768664
 30
0.0
 10
33.31505728604944
 20
41.04624466994499
 30
0.0
 10
33.15439778659935
 20
41.07847395182674
 30
0.0
 10
32.87073038348623
 20
41.25278709437617
 30
0.0
 10
32.5012248927706
 20
41.56181947769128
 30
0.0
 10
32.23702710658183
 20
41.97456968092344
 30
0.0
 10
32.09619582602023
 20
42.32967303227179
 30
0.0
 10
32.08887567164905
 20
42.5388648057323
 30
0.0
 10
32.08729814534103
 20
42.58394657714321
 30
0.0
  0
SPLINE
  5
163
330
1F
100
AcDbEntity
  8
0
  6
Continuous
 62
     8
370
    15
100
AcDbSpline
210
0.0
220
0.0
230
1.0
 70
     8
 71
     3
 72
    12
 73
     8
 74
     0
 42
0.000000001
 43
0.00000001
 40
0.0
 40
0.0
 40
0.0
 40
0.0
 40
0.0780793323185358
 40
0.3461453948390015
 40
0.6142115658481985
 40
0.8730559041818174
 40
1.0
 40
1.0
 40
1.0
 40
1.0
 10
32.13206868414795
 20
43.24788131831242
 30
0.0
 10
32.1402444920155
 20
43.29499333385221
 30
0.0
 10
32.1764899126461
 20
43.5038527943065
 30
0.0
 10
32.36506622437309
 20
43.84078135124247
 30
0.0
 10
32.6857176759727
 20
44.20489347972023
 30
0.0
 10
33.01944353078407
 20
44.44231665679514
 30
0.0
 10
33.24605000214552
 20
44.509889131182
 30
0.0
 10
33.32061510329162
 20
44.53212392596556
 30
0.0
  0
SPLINE
  5
164
330
1F
100
AcDbEntity
  8
0
  6
Continuous
 62
     8
370
    15
100
AcDbSpline
210
0.0
220
0.0
230
1.0
 70
     8
 71
     3
 72
    11
 73
     7
 74
     0
 42
0.000000001
 43
0.00000001
 40
0.0
 40
0.0
 40
0.0
 40
0.0
 40
0.0005398771339518
 40
0.3549903361524906
 40
0.7094406539501849
 40
1.0
 40
1.0
 40
1.0
 40
1.0
 10
34.52061492745792
 20
44.54268605528428
 30
0.0
 10
34.52085087539945
 20
44.54263766924026
 30
0.0
 10
34.67599587749275
 20
44.51082195238141
 30
0.0
 10
34.95263859887153
 20
44.33647573082753
 30
0.0
 10
35.30350704424566
 20
44.05549739351777
 30
0.0
 10
35.45129506188712
 20
43.80576622369872
 30
0.0
 10
35.51786955242073
 20
43.69326911015464
 30
0.0
  0
LINE
  5
165
330
1F
100
AcDbEntity
  8
0
  6
Continuous
 62
     8
370
    15
100
AcDbLine
 10
35.3347566331
 20
43.0968384918
 30
0.0
 11
35.3026446307
 21
43.1712921437
 31
0.0
  0
LWPOLYLINE
  5
166
330
1F
100
AcDbEntity
  8
0
  6
Continuous
 62
     8
370
    15
100
AcDbPolyline
 90
        6
 70
   128
 43
0.0
 10
22.5105490888
 20
51.5640622199
 10
22.5107074136
 20
51.5669720209
 10
22.5131884569
 20
51.6126480381
 10
22.5183535719
 20
51.7077542337
 10
22.5254744643
 20
51.8388903894
 10
22.5305408592
 20
51.9321703779
  0
LWPOLYLINE
  5
167
330
1F
100
AcDbEntity
  8
0
  6
Continuous
 62
     8
370
    15
100
AcDbPolyline
 90
        8
 70
   128
 43
0.0
 10
21.8595192188
 20
52.7601146333
 10
21.8654303232
 20
52.7567327682
 10
21.9115242714
 20
52.7303653963
 10
21.9974862764
 20
52.6811920301
 10
22.1117083335
 20
52.6158532322
 10
22.2387612218
 20
52.5431739826
 10
22.3614890481
 20
52.4729696064
 10
22.4421322698
 20
52.4268387545
  0
SPLINE
  5
168
330
1F
100
AcDbEntity
  8
0
  6
Continuous
 62
     8
370
    15
100
AcDbSpline
210
0.0
220
0.0
230
1.0
 70
     8
 71
     3
 72
    10
 73
     6
 74
     0
 42
0.000000001
 43
0.00000001
 40
0.0
 40
0.0
 40
0.0
 40
0.0
 40
0.2934300683666742
 40
0.7554468661426741
 40
1.0
 40
1.0
 40
1.0
 40
1.0
 10
21.7617294171921
 20
52.37415209027036
 30
0.0
 10
21.68158765653023
 20
52.43502947231319
 30
0.0
 10
21.47525964701107
 20
52.59176060671679
 30
0.0
 10
21.27719875632026
 20
52.88494107822182
 30
0.0
 10
21.20406206375581
 20
53.11567959904574
 30
0.0
 10
21.17874849383747
 20
53.1955412317629
 30
0.0
  0
SPLINE
  5
169
330
1F
100
AcDbEntity
  8
0
  6
Continuous
 62
     8
370
    15
100
AcDbSpline
210
0.0
220
0.0
230
1.0
 70
     8
 71
     3
 72
    10
 73
     6
 74
     0
 42
0.000000001
 43
0.00000001
 40
0.0
 40
0.0
 40
0.0
 40
0.0
 40
0.3365862952269632
 40
0.6870856681840367
 40
1.0
 40
1.0
 40
1.0
 40
1.0
 10
21.16509716753875
 20
54.39554128875984
 30
0.0
 10
21.22433486600447
 20
54.53592524570426
 30
0.0
 10
21.34525890304691
 20
54.82249604857798
 30
0.0
 10
21.64377761096632
 20
55.17508741912481
 30
0.0
 10
21.89944942011165
 20
55.33272693474493
 30
0.0
 10
22.02004290913259
 20
55.40708123786403
 30
0.0
  0
SPLINE
  5
16A
330
1F
100
AcDbEntity
  8
0
  6
Continuous
 62
     8
370
    15
100
AcDbSpline
210
0.0
220
0.0
230
1.0
 70
     8
 71
     3
 72
    11
 73
     7
 74
     0
 42
0.000000001
 43
0.00000001
 40
0.0
 40
0.0
 40
0.0
 40
0.0
 40
0.1050833469979127
 40
0.4664166858031694
 40
0.8153196527690199
 40
1.0
 40
1.0
 40
1.0
 40
1.0
 10
23.79417050425922
 20
55.40663466868951
 30
0.0
 10
23.83783993254211
 20
55.38725721739283
 30
0.0
 10
24.03166845620937
 20
55.30124961608103
 30
0.0
 10
24.30098664622041
 20
55.03618478369699
 30
0.0
 10
24.54953359448633
 20
54.70817457506278
 30
0.0
 10
24.62159435464871
 20
54.4759257310907
 30
0.0
 10
24.6465355509988
 20
54.39554128875984
 30
0.0
  0
SPLINE
  5
16B
330
1F
100
AcDbEntity
  8
0
  6
Continuous
 62
     8
370
    15
100
AcDbSpline
210
0.0
220
0.0
230
1.0
 70
     8
 71
     3
 72
    12
 73
     8
 74
     0
 42
0.000000001
 43
0.00000001
 40
0.0
 40
0.0
 40
0.0
 40
0.0
 40
0.2226960636797447
 40
0.45459770757873
 40
0.6947603633883186
 40
0.9349231754947605
 40
1.0
 40
1.0
 40
1.0
 40
1.0
 10
24.66018687729752
 20
53.1955412317629
 30
0.0
 10
24.60123822781404
 20
53.05475947868261
 30
0.0
 10
24.48090417036707
 20
52.76737648159806
 30
0.0
 10
24.16281741584113
 20
52.40348938922489
 30
0.0
 10
23.75920839072426
 20
52.13184301635722
 30
0.0
 10
23.40559538543159
 20
51.98626967473243
 30
0.0
 10
23.19720632616838
 20
51.97584953434238
 30
0.0
 10
23.15277796034729
 20
51.97362796949251
 30
0.0
  0
LINE
  5
16C
330
1F
100
AcDbEntity
  8
0
  6
Continuous
 62
     8
370
    15
100
AcDbLine
 10
23.2347343469
 20
52.3779925153
 30
0.0
 11
23.308709299
 21
52.4111905562
 31
0.0
  0
DIMENSION
  5
16D
330
1F
100
AcDbEntity
  8
DIM
 62
     7
100
AcDbDimension
  2
_D
 10
17.9126421118
 20
32.5451442087
 30
0.0
 11
24.6626421118
 21
32.5451442087
 31
0.0
 70
   160
  1
<>
 71
     2
 42
-1.0
  3
SLDDIMSTYLE0
100
AcDbAlignedDimension
 13
31.4126421118
 23
48.5683413118
 33
0.0
 14
17.9126421118
 24
39.7955413118
 34
0.0
 50
0.0
100
AcDbRotatedDimension
  0
DIMENSION
  5
178
330
1F
100
AcDbEntity
  8
DIM
 62
     7
100
AcDbDimension
  2
_D_1
 10
14.2266588629
 20
37.7955413118
 30
0.0
 11
14.2266588629
 21
44.5455413118
 31
0.0
 70
   160
  1
<>
 71
     2
 42
-1.0
  3
SLDDIMSTYLE0
100
AcDbAlignedDimension
 13
28.6854421118
 23
51.2955413118
 33
0.0
 14
19.9126421118
 24
37.7955413118
 34
0.0
 50
90.0
100
AcDbRotatedDimension
  0
DIMENSION
  5
182
330
1F
100
AcDbEntity
  8
DIM
 62
     7
100
AcDbDimension
  2
_D_2
 10
30.9656098571
 20
49.6271942247
 30
0.0
 11
40.6049086808
 21
69.1124474745
 31
0.0
 70
   163
  1
4 HOLES,\P 8-32
 71
     1
 42
-1.0
  3
SLDDIMSTYLE1
100
AcDbDiametricDimension
 15
31.8596743665
 25
52.963888399
 35
0.0
 40
0.0
  0
INSERT
  5
197
330
1F
100
AcDbEntity
  8
DIM
 62
     7
100
AcDbBlockReference
  2
SW_CENTERMARKSYMBOL_0
 10
31.4126421118
 20
51.2955413118
 30
0.0
  0
SPLINE
  5
198
330
1F
100
AcDbEntity
  8
0
  6
Continuous
 62
     7
370
    15
100
AcDbSpline
210
0.0
220
0.0
230
1.0
 70
     8
 71
     3
 72
    10
 73
     6
 74
     0
 42
0.000000001
 43
0.00000001
 40
0.0
 40
0.0
 40
0.0
 40
0.0
 40
0.1765918005857082
 40
0.7001159712335197
 40
1.0
 40
1.0
 40
1.0
 40
1.0
 10
72.2984819269052
 20
40.5903435040827
 30
0.0
 10
72.31956620702141
 20
40.600192251999
 30
0.0
 10
72.40315695813429
 20
40.63923860460421
 30
0.0
 10
72.48102306196604
 20
40.745817457832
 30
0.0
 10
72.50054347948729
 20
40.79969735672094
 30
0.0
 10
72.50765278621223
 20
40.81932033492281
 30
0.0
  0
SPLINE
  5
199
330
1F
100
AcDbEntity
  8
0
  6
Continuous
 62
     7
370
    15
100
AcDbSpline
210
0.0
220
0.0
230
1.0
 70
     8
 71
     3
 72
    13
 73
     9
 74
     0
 42
0.000000001
 43
0.00000001
 40
0.0
 40
0.0
 40
0.0
 40
0.0
 40
0.1303698565781347
 40
0.2536791649353118
 40
0.4655298781461533
 40
0.6533393012166843
 40
0.8944319444971872
 40
0.9999999999999999
 40
0.9999999999999999
 40
0.9999999999999999
 40
0.9999999999999999
 10
72.92395444272664
 20
40.5455431629534
 30
0.0
 10
72.96842189483336
 20
40.5500186280652
 30
0.0
 10
73.05494853844033
 20
40.55872717682072
 30
0.0
 10
73.18991657880511
 20
40.63233684240614
 30
0.0
 10
73.29126200339321
 20
40.75901989197757
 30
0.0
 10
73.32692794648945
 20
40.86353335519394
 30
0.0
 10
73.34764483104084
 20
40.94536392207253
 30
0.0
 10
73.35870759485854
 20
41.02340178761905
 30
0.0
 10
73.362076521503
 20
41.04716654015734
 30
0.0
  0
SPLINE
  5
19A
330
1F
100
AcDbEntity
  8
0
  6
Continuous
 62
     7
370
    15
100
AcDbSpline
210
0.0
220
0.0
230
1.0
 70
     8
 71
     3
 72
    12
 73
     8
 74
     0
 42
0.000000001
 43
0.00000001
 40
0.0
 40
0.0
 40
0.0
 40
0.0
 40
0.0132379764756822
 40
0.3610387622115351
 40
0.6894570551495048
 40
0.8483406081720192
 40
0.9999999999999999
 40
0.9999999999999999
 40
0.9999999999999999
 40
0.9999999999999999
 10
72.94172268046646
 20
44.65601031748606
 30
0.0
 10
72.94133573988934
 20
44.65824779294761
 30
0.0
 10
72.93078272619684
 20
44.71927036483369
 30
0.0
 10
72.88770856319685
 20
44.83128711781395
 30
0.0
 10
72.77815848019239
 20
44.96604817621017
 30
0.0
 10
72.64331272786119
 20
45.0345629361257
 30
0.0
 10
72.56311867362002
 20
45.04193766075219
 30
0.0
 10
72.52395442372766
 20
45.045539243948
 30
0.0
  0
SPLINE
  5
19B
330
1F
100
AcDbEntity
  8
0
  6
Continuous
 62
     7
370
    15
100
AcDbSpline
210
0.0
220
0.0
230
1.0
 70
     8
 71
     3
 72
    11
 73
     7
 74
     0
 42
0.000000001
 43
0.00000001
 40
0.0
 40
0.0
 40
0.0
 40
0.0
 40
0.1718213639687077
 40
0.4419110674420028
 40
0.7193245201564821
 40
0.9999999999999999
 40
0.9999999999999999
 40
0.9999999999999999
 40
0.9999999999999999
 10
72.53830074949768
 20
40.82749269051506
 30
0.0
 10
72.54534107344003
 20
40.80821820467862
 30
0.0
 10
72.56344823425309
 20
40.75864573933647
 30
0.0
 10
72.62879455087958
 20
40.66581473252413
 30
0.0
 10
72.74959622596589
 20
40.56908099885095
 30
0.0
 10
72.86560900575958
 20
40.55341962181043
 30
0.0
 10
72.92395444272664
 20
40.5455431629534
 30
0.0
  0
SPLINE
  5
19C
330
1F
100
AcDbEntity
  8
0
  6
Continuous
 62
     7
370
    15
100
AcDbSpline
210
0.0
220
0.0
230
1.0
 70
     8
 71
     3
 72
    10
 73
     6
 74
     0
 42
0.000000001
 43
0.00000001
 40
0.0
 40
0.0
 40
0.0
 40
0.0
 40
0.4879531346696865
 40
0.9743476078966755
 40
1.0
 40
1.0
 40
1.0
 40
1.0
 10
72.52395442372766
 20
45.045539243948
 30
0.0
 10
72.48379894804421
 20
45.04133202903827
 30
0.0
 10
72.40361626471619
 20
45.03293103826284
 30
0.0
 10
72.32274827397632
 20
45.00075924798963
 30
0.0
 10
72.29963961838678
 20
44.97585015539602
 30
0.0
 10
72.2984819269052
 20
44.97460226608469
 30
0.0
  0
LINE
  5
19D
330
1F
100
AcDbEntity
  8
0
  6
Continuous
 62
     7
370
    15
100
AcDbLine
 10
72.8259841973
 20
53.6620025252
 30
0.0
 11
72.8361158228
 21
53.7990259201
 31
0.0
  0
SPLINE
  5
19E
330
1F
100
AcDbEntity
  8
0
  6
Continuous
 62
     7
370
    15
100
AcDbSpline
210
0.0
220
0.0
230
1.0
 70
     8
 71
     3
 72
    17
 73
    13
 74
     0
 42
0.000000001
 43
0.00000001
 40
0.0
 40
0.0
 40
0.0
 40
0.0
 40
0.0247340700762145
 40
0.0683592971737894
 40
0.114430167856003
 40
0.1639191032787682
 40
0.278227335212488
 40
0.4142337146801154
 40
0.558928359661701
 40
0.7085786145345568
 40
0.8718651763205353
 40
1.0
 40
1.0
 40
1.0
 40
1.0
 10
72.2984819269052
 20
51.58273919565632
 30
0.0
 10
72.3204951732989
 20
51.58600747281162
 30
0.0
 10
72.38133473780853
 20
51.59504024132151
 30
0.0
 10
72.46359856350335
 20
51.64462029720877
 30
0.0
 10
72.53899352482844
 20
51.7155949340649
 30
0.0
 10
72.61397066562132
 20
51.8324531721519
 30
0.0
 10
72.66090619863526
 20
51.98851352124181
 30
0.0
 10
72.69492168428287
 20
52.20085375178
 30
0.0
 10
72.73342139914621
 20
52.50226967048773
 30
0.0
 10
72.76591493650857
 20
52.87301997794756
 30
0.0
 10
72.79721690958509
 20
53.2683756116523
 30
0.0
 10
72.81719850600827
 20
53.54178665406148
 30
0.0
 10
72.82598419732062
 20
53.66200252516224
 30
0.0
  0
SPLINE
  5
19F
330
1F
100
AcDbEntity
  8
0
  6
Continuous
 62
     7
370
    15
100
AcDbSpline
210
0.0
220
0.0
230
1.0
 70
     8
 71
     3
 72
    12
 73
     8
 74
     0
 42
0.000000001
 43
0.00000001
 40
0.0
 40
0.0
 40
0.0
 40
0.0
 40
0.1934826122664196
 40
0.4796007372671841
 40
0.7461130574526149
 40
0.8755963444554651
 40
1.0
 40
1.0
 40
1.0
 40
1.0
 10
73.07863780914452
 20
55.52244090555264
 30
0.0
 10
73.0721457032393
 20
55.56415802681154
 30
0.0
 10
73.05605320406282
 20
55.66756557273035
 30
0.0
 10
73.00593412305335
 20
55.8202261516934
 30
0.0
 10
72.89472628781755
 20
55.96186633592663
 30
0.0
 10
72.75715120773049
 20
56.03416068730399
 30
0.0
 10
72.67505498603936
 20
56.04179728160128
 30
0.0
 10
72.63482814340499
 20
56.04553918434335
 30
0.0
  0
SPLINE
  5
1A0
330
1F
100
AcDbEntity
  8
0
  6
Continuous
 62
     7
370
    15
100
AcDbSpline
210
0.0
220
0.0
230
1.0
 70
     8
 71
     3
 72
    10
 73
     6
 74
     0
 42
0.000000001
 43
0.00000001
 40
0.0
 40
0.0
 40
0.0
 40
0.0
 40
0.3717494567410919
 40
0.7363272848333757
 40
1.0
 40
1.0
 40
1.0
 40
1.0
 10
72.63482814340499
 20
56.04553918434335
 30
0.0
 10
72.5777101228943
 20
56.03793618879853
 30
0.0
 10
72.46457597785378
 20
56.02287687138836
 30
0.0
 10
72.35068136740833
 20
55.93589465772574
 30
0.0
 10
72.31391326371318
 20
55.87984476120531
 30
0.0
 10
72.2984819269052
 20
55.85632097987486
 30
0.0
  0
SPLINE
  5
1A1
330
1F
100
AcDbEntity
  8
0
  6
Continuous
 62
     7
370
    15
100
AcDbSpline
210
0.0
220
0.0
230
1.0
 70
     8
 71
     3
 72
    15
 73
    11
 74
     0
 42
0.000000001
 43
0.00000001
 40
0.0
 40
0.0
 40
0.0
 40
0.0
 40
0.1292206959392023
 40
0.2980489895141465
 40
0.4745990727312309
 40
0.652907987044259
 40
0.8237633543395584
 40
0.9049617676312115
 40
0.9824872653353646
 40
1.0
 40
1.0
 40
1.0
 40
1.0
 10
72.84073332010415
 20
53.8694576554562
 30
0.0
 10
72.84697490272569
 20
53.96314001119182
 30
0.0
 10
72.86137118328895
 20
54.17921941905574
 30
0.0
 10
72.88060446067482
 20
54.50565904563435
 30
0.0
 10
72.90550855449534
 20
54.84378389694873
 30
0.0
 10
72.93037767333664
 20
55.12209134587789
 30
0.0
 10
72.94965559827783
 20
55.28851400367054
 30
0.0
 10
72.9550933098005
 20
55.36282683628698
 30
0.0
 10
72.9644360834417
 20
55.40347931166285
 30
0.0
 10
72.95673942134033
 20
55.39789110986451
 30
0.0
 10
72.95532115420906
 20
55.39686136959149
 30
0.0
  0
LINE
  5
1A2
330
1F
100
AcDbEntity
  8
0
  6
Continuous
 62
     7
370
    15
100
AcDbLine
 10
72.8361158228
 20
53.7990259201
 30
0.0
 11
72.8407333201
 21
53.8694576555
 31
0.0
  0
ARC
  5
1A3
330
1F
100
AcDbEntity
  8
0
  6
Continuous
 62
     7
370
    15
100
AcDbCircle
 10
73.0286347655
 20
51.9315348614
 30
0.0
 40
0.4000000000000057
100
AcDbArc
 50
190.2663740369
 51
0.0
  0
LINE
  5
1A4
330
1F
100
AcDbEntity
  8
0
  6
Continuous
 62
     7
370
    15
100
AcDbLine
 10
73.4286346535
 20
51.9315348667
 30
0.0
 11
73.4286346535
 21
52.4953073783
 31
0.0
  0
LINE
  5
1A5
330
1F
100
AcDbEntity
  8
0
  6
Continuous
 62
     7
370
    15
100
AcDbLine
 10
73.4286346535
 20
52.4953073783
 30
0.0
 11
73.4286346535
 21
53.7955413767
 31
0.0
  0
SPLINE
  5
1A6
330
1F
100
AcDbEntity
  8
0
  6
Continuous
 62
     7
370
    15
100
AcDbSpline
210
0.0
220
0.0
230
1.0
 70
     8
 71
     3
 72
    17
 73
    13
 74
     0
 42
0.000000001
 43
0.00000001
 40
0.0
 40
0.0
 40
0.0
 40
0.0
 40
0.0332341122347788
 40
0.1433345325619568
 40
0.2471649974348623
 40
0.4504249835533999
 40
0.5540408286906823
 40
0.6611378732056451
 40
0.7709734205599876
 40
0.8792779841559746
 40
0.9879377263715967
 40
1.0
 40
1.0
 40
1.0
 40
1.0
 10
64.29848154692559
 20
55.07353969929768
 30
0.0
 10
64.27751436418788
 20
55.05095101084667
 30
0.0
 10
64.18708555069588
 20
54.95352884781605
 30
0.0
 10
64.06846206815435
 20
54.75505776325539
 30
0.0
 10
63.90600924371137
 20
54.40427532655777
 30
0.0
 10
63.82654799016095
 20
54.02549955735149
 30
0.0
 10
63.82666775218851
 20
53.64111727532672
 30
0.0
 10
63.87296133970647
 20
53.34669897937879
 30
0.0
 10
63.96377237893581
 20
53.05780841112737
 30
0.0
 10
64.10111758973693
 20
52.78793592770135
 30
0.0
 10
64.21387538386803
 20
52.60560341972537
 30
0.0
 10
64.29079582827991
 20
52.52433926110893
 30
0.0
 10
64.29848154692559
 20
52.51621952826186
 30
0.0
  0
SPLINE
  5
1A7
330
1F
100
AcDbEntity
  8
0
  6
Continuous
 62
     7
370
    15
100
AcDbSpline
210
0.0
220
0.0
230
1.0
 70
     8
 71
     3
 72
    13
 73
     9
 74
     0
 42
0.000000001
 43
0.00000001
 40
0.0
 40
0.0
 40
0.0
 40
0.0
 40
0.1983683254239859
 40
0.3745566728711297
 40
0.5269169869888956
 40
0.6622966256235711
 40
0.8658194693994552
 40
1.0
 40
1.0
 40
1.0
 40
1.0
 10
73.42863465345111
 20
53.7955413766767
 30
0.0
 10
73.43829458812259
 20
53.91120138772734
 30
0.0
 10
73.45653435993576
 20
54.12958922172641
 30
0.0
 10
73.58689500754741
 20
54.41268355595344
 30
0.0
 10
73.75473385975134
 20
54.6266815872256
 30
0.0
 10
73.97629342009354
 20
54.80814829766156
 30
0.0
 10
74.22418961237561
 20
54.94360042467354
 30
0.0
 10
74.42048669981483
 20
54.96790151556772
 30
0.0
 10
74.49848191498427
 20
54.97755712909652
 30
0.0
  0
SPLINE
  5
1A8
330
1F
100
AcDbEntity
  8
0
  6
Continuous
 62
     7
370
    15
100
AcDbSpline
210
0.0
220
0.0
230
1.0
 70
     8
 71
     3
 72
     9
 73
     5
 74
     0
 42
0.000000001
 43
0.00000001
 40
0.0
 40
0.0
 40
0.0
 40
0.0
 40
0.4261625411078299
 40
1.0
 40
1.0
 40
1.0
 40
1.0
 10
74.49848191498427
 20
52.61253586119069
 30
0.0
 10
74.39828019458325
 20
52.62686429077039
 30
0.0
 10
74.1631546010937
 20
52.66048627345909
 30
0.0
 10
73.96866129342689
 20
52.79887571333902
 30
0.0
 10
73.85705374798385
 20
52.87828875785722
 30
0.0
  0
SPLINE
  5
1A9
330
1F
100
AcDbEntity
  8
0
  6
Continuous
 62
     7
370
    15
100
AcDbSpline
210
0.0
220
0.0
230
1.0
 70
     8
 71
     3
 72
    13
 73
     9
 74
     0
 42
0.000000001
 43
0.00000001
 40
0.0
 40
0.0
 40
0.0
 40
0.0
 40
0.0930481183364925
 40
0.2693866293290945
 40
0.4242976256371862
 40
0.6329362612192176
 40
0.8069554833489652
 40
1.0
 40
1.0
 40
1.0
 40
1.0
 10
73.42863465345111
 20
52.20124192615999
 30
0.0
 10
73.45708795209522
 20
52.17932517282554
 30
0.0
 10
73.53946402108039
 20
52.11587326845434
 30
0.0
 10
73.68100162056446
 20
52.03244165112826
 30
0.0
 10
73.86968619282352
 20
51.94361397182249
 30
0.0
 10
74.06582635788304
 20
51.87502629837302
 30
0.0
 10
74.28228651036684
 20
51.82133289221499
 30
0.0
 10
74.42396893114265
 20
51.81232971716606
 30
0.0
 10
74.49848191498427
 20
51.80759480768843
 30
0.0
  0
SPLINE
  5
1AA
330
1F
100
AcDbEntity
  8
0
  6
Continuous
 62
     7
370
    15
100
AcDbSpline
210
0.0
220
0.0
230
1.0
 70
     8
 71
     3
 72
    14
 73
    10
 74
     0
 42
0.000000001
 43
0.00000001
 40
0.0
 40
0.0
 40
0.0
 40
0.0
 40
0.0032899778819459
 40
0.1660617250674604
 40
0.3310260967483092
 40
0.496002376637253
 40
0.6616682282092267
 40
0.8400136609615362
 40
1.0
 40
1.0
 40
1.0
 40
1.0
 10
74.49848191498427
 20
55.78711533067776
 30
0.0
 10
74.49633261462495
 20
55.78715456130319
 30
0.0
 10
74.38784661922855
 20
55.78913472821245
 30
0.0
 10
74.1728026575234
 20
55.74639524643993
 30
0.0
 10
73.86536796195516
 20
55.65073431445232
 30
0.0
 10
73.57647913711305
 20
55.50004105252536
 30
0.0
 10
73.30818710994711
 20
55.3028551770869
 30
0.0
 10
73.07161588554497
 20
55.06955080871018
 30
0.0
 10
72.95668667730088
 20
54.88011754117474
 30
0.0
 10
72.90234030841496
 20
54.79054057119443
 30
0.0
  0
ARC
  5
1AB
330
1F
100
AcDbEntity
  8
0
  6
Continuous
 62
     7
370
    15
100
AcDbCircle
 10
73.6737764121
 20
42.7955413118
 30
0.0
 40
1.500000000000005
100
AcDbArc
 50
279.3890246935
 51
303.3535430922
  0
ARC
  5
1AC
330
1F
100
AcDbEntity
  8
0
  6
Continuous
 62
     7
370
    15
100
AcDbCircle
 10
73.6737764121
 20
42.7955413118
 30
0.0
 40
1.500000000000005
100
AcDbArc
 50
56.6464569078
 51
80.6109753065
  0
ARC
  5
1AD
330
1F
100
AcDbEntity
  8
0
  6
Continuous
 62
     7
370
    15
100
AcDbCircle
 10
73.6737764121
 20
59.7955413118
 30
0.0
 40
1.499999999999998
100
AcDbArc
 50
279.3890246935
 51
303.3535430922
  0
ARC
  5
1AE
330
1F
100
AcDbEntity
  8
0
  6
Continuous
 62
     7
370
    15
100
AcDbCircle
 10
73.6737764121
 20
59.7955413118
 30
0.0
 40
1.499999999999998
100
AcDbArc
 50
56.6464569078
 51
80.6109753065
  0
ARC
  5
1AF
330
1F
100
AcDbEntity
  8
0
  6
Continuous
 62
     7
370
    15
100
AcDbCircle
 10
59.9184818764
 20
63.2955413118
 30
0.0
 40
1.0
100
AcDbArc
 50
0.0
 51
90.0
  0
ARC
  5
1B0
330
1F
100
AcDbEntity
  8
0
  6
Continuous
 62
     7
370
    15
100
AcDbCircle
 10
59.9184818764
 20
56.2955413118
 30
0.0
 40
1.0
100
AcDbArc
 50
270.0
 51
0.0
  0
LINE
  5
1B1
330
1F
100
AcDbEntity
  8
0
  6
Continuous
 62
     7
370
    15
100
AcDbLine
 10
53.9184816709
 20
55.2955413897
 30
0.0
 11
59.9184826544
 21
55.2955413897
 31
0.0
  0
LINE
  5
1B2
330
1F
100
AcDbEntity
  8
0
  6
Continuous
 62
     7
370
    15
100
AcDbLine
 10
59.9184826544
 20
64.2955410023
 30
0.0
 11
53.9184816709
 21
64.2955410023
 31
0.0
  0
ARC
  5
1B3
330
1F
100
AcDbEntity
  8
0
  6
Continuous
 62
     7
370
    15
100
AcDbCircle
 10
53.9184818764
 20
56.2955413118
 30
0.0
 40
1.0
100
AcDbArc
 50
180.0
 51
270.0
  0
ARC
  5
1B4
330
1F
100
AcDbEntity
  8
0
  6
Continuous
 62
     7
370
    15
100
AcDbCircle
 10
53.9184818764
 20
63.2955413118
 30
0.0
 40
1.0
100
AcDbArc
 50
90.0
 51
180.0
  0
LINE
  5
1B5
330
1F
100
AcDbEntity
  8
0
  6
Continuous
 62
     7
370
    15
100
AcDbLine
 10
72.4184819093
 20
57.7955413338
 30
0.0
 11
73.9184819224
 21
58.19554112
 31
0.0
  0
LINE
  5
1B6
330
1F
100
AcDbEntity
  8
0
  6
Continuous
 62
     7
370
    15
100
AcDbLine
 10
73.9184819224
 20
61.395541272
 30
0.0
 11
72.4184819093
 21
61.7955415238
 31
0.0
  0
LINE
  5
1B7
330
1F
100
AcDbEntity
  8
0
  6
Continuous
 62
     7
370
    15
100
AcDbLine
 10
60.918481887
 20
57.7955413338
 30
0.0
 11
64.2984815469
 21
57.7955413338
 31
0.0
  0
LINE
  5
1B8
330
1F
100
AcDbEntity
  8
0
  6
Continuous
 62
     7
370
    15
100
AcDbLine
 10
72.2984819269
 20
57.7955413338
 30
0.0
 11
72.4184819093
 21
57.7955413338
 31
0.0
  0
LINE
  5
1B9
330
1F
100
AcDbEntity
  8
0
  6
Continuous
 62
     7
370
    15
100
AcDbLine
 10
72.4184819093
 20
61.7955415238
 30
0.0
 11
72.2984819269
 21
61.7955415238
 31
0.0
  0
LINE
  5
1BA
330
1F
100
AcDbEntity
  8
0
  6
Continuous
 62
     7
370
    15
100
AcDbLine
 10
64.2984815469
 20
61.7955415238
 30
0.0
 11
60.918481887
 21
61.7955415238
 31
0.0
  0
LINE
  5
1BB
330
1F
100
AcDbEntity
  8
0
  6
Continuous
 62
     7
370
    15
100
AcDbLine
 10
53.9184816709
 20
38.2955413972
 30
0.0
 11
59.9184826544
 21
38.2955413972
 31
0.0
  0
LINE
  5
1BC
330
1F
100
AcDbEntity
  8
0
  6
Continuous
 62
     7
370
    15
100
AcDbLine
 10
59.9184826544
 20
47.2955412426
 30
0.0
 11
53.9184816709
 21
47.2955412426
 31
0.0
  0
ARC
  5
1BD
330
1F
100
AcDbEntity
  8
0
  6
Continuous
 62
     7
370
    15
100
AcDbCircle
 10
59.9184818764
 20
46.2955413118
 30
0.0
 40
1.0
100
AcDbArc
 50
0.0
 51
90.0
  0
ARC
  5
1BE
330
1F
100
AcDbEntity
  8
0
  6
Continuous
 62
     7
370
    15
100
AcDbCircle
 10
59.9184818764
 20
39.2955413118
 30
0.0
 40
1.0
100
AcDbArc
 50
270.0
 51
0.0
  0
ARC
  5
1BF
330
1F
100
AcDbEntity
  8
0
  6
Continuous
 62
     7
370
    15
100
AcDbCircle
 10
53.9184818764
 20
39.2955413118
 30
0.0
 40
1.000000000000007
100
AcDbArc
 50
180.0
 51
270.0
  0
ARC
  5
1C0
330
1F
100
AcDbEntity
  8
0
  6
Continuous
 62
     7
370
    15
100
AcDbCircle
 10
53.9184818764
 20
46.2955413118
 30
0.0
 40
1.0
100
AcDbArc
 50
90.0
 51
180.0
  0
LINE
  5
1C1
330
1F
100
AcDbEntity
  8
0
  6
Continuous
 62
     7
370
    15
100
AcDbLine
 10
72.4184819093
 20
40.7955408756
 30
0.0
 11
73.9184819224
 21
41.1955411275
 31
0.0
  0
LINE
  5
1C2
330
1F
100
AcDbEntity
  8
0
  6
Continuous
 62
     7
370
    15
100
AcDbLine
 10
73.9184819224
 20
44.3955412794
 30
0.0
 11
72.4184819093
 21
44.7955415313
 31
0.0
  0
LINE
  5
1C3
330
1F
100
AcDbEntity
  8
0
  6
Continuous
 62
     7
370
    15
100
AcDbLine
 10
60.918481887
 20
40.7955408756
 30
0.0
 11
64.2984815469
 21
40.7955408756
 31
0.0
  0
LINE
  5
1C4
330
1F
100
AcDbEntity
  8
0
  6
Continuous
 62
     7
370
    15
100
AcDbLine
 10
72.2984819269
 20
40.7955408756
 30
0.0
 11
72.4184819093
 21
40.7955408756
 31
0.0
  0
LINE
  5
1C5
330
1F
100
AcDbEntity
  8
0
  6
Continuous
 62
     7
370
    15
100
AcDbLine
 10
72.4184819093
 20
44.7955415313
 30
0.0
 11
72.2984819269
 21
44.7955415313
 31
0.0
  0
LINE
  5
1C6
330
1F
100
AcDbEntity
  8
0
  6
Continuous
 62
     7
370
    15
100
AcDbLine
 10
64.2984815469
 20
44.7955415313
 30
0.0
 11
60.918481887
 21
44.7955415313
 31
0.0
  0
ARC
  5
1C7
330
1F
100
AcDbEntity
  8
0
  6
Continuous
 62
     7
370
    15
100
AcDbCircle
 10
73.3984818764
 20
42.7955413118
 30
0.0
 40
2.499999999999993
100
AcDbArc
 50
270.0
 51
296.1038811373
  0
ARC
  5
1C8
330
1F
100
AcDbEntity
  8
0
  6
Continuous
 62
     7
370
    15
100
AcDbCircle
 10
73.3984818764
 20
42.7955413118
 30
0.0
 40
2.500000000000005
100
AcDbArc
 50
63.8961188627
 51
116.1038811373
  0
ARC
  5
1C9
330
1F
100
AcDbEntity
  8
0
  6
Continuous
 62
     7
370
    15
100
AcDbCircle
 10
73.3984818764
 20
42.7955413118
 30
0.0
 40
2.499999999999998
100
AcDbArc
 50
243.8961188627
 51
270.0
  0
SPLINE
  5
1CA
330
1F
100
AcDbEntity
  8
0
  6
Continuous
 62
     7
370
    15
100
AcDbSpline
210
0.0
220
0.0
230
1.0
 70
     8
 71
     3
 72
     9
 73
     5
 74
     0
 42
0.000000001
 43
0.00000001
 40
0.0
 40
0.0
 40
0.0
 40
0.0
 40
0.8378142840009449
 40
1.0
 40
1.0
 40
1.0
 40
1.0
 10
72.84111795632747
 20
53.86942901728703
 30
0.0
 10
72.83695690217239
 20
53.81100845039595
 30
0.0
 10
72.83199034307385
 20
53.74127871672262
 30
0.0
 10
72.82702370919004
 20
53.67305067643002
 30
0.0
 10
72.8262181921175
 20
53.66198506286396
 30
0.0
  0
SPLINE
  5
1CB
330
1F
100
AcDbEntity
  8
0
  6
Continuous
 62
     7
370
    15
100
AcDbSpline
210
0.0
220
0.0
230
1.0
 70
     8
 71
     3
 72
    16
 73
    12
 74
     0
 42
0.000000001
 43
0.00000001
 40
0.0
 40
0.0
 40
0.0
 40
0.0
 40
0.162256757863015
 40
0.3153630156890176
 40
0.4530902870710092
 40
0.5730065760267704
 40
0.6755060227325527
 40
0.762428514467993
 40
0.84935128434501
 40
0.9518507310507921
 40
1.0
 40
1.0
 40
1.0
 40
1.0
 10
73.42863465345111
 20
53.7955413766767
 30
0.0
 10
73.42443282602791
 20
53.80381552496413
 30
0.0
 10
73.41626613402047
 20
53.81989719940746
 30
0.0
 10
73.35559905352982
 20
53.84069144769144
 30
0.0
 10
73.27560432100998
 20
53.85586369931698
 30
0.0
 10
73.18834101931239
 20
53.86524525092523
 30
0.0
 10
73.1055415357347
 20
53.86985500676883
 30
0.0
 10
73.02855245523125
 20
53.87120451627043
 30
0.0
 10
72.95208689301235
 20
53.86975791888932
 30
0.0
 10
72.88698544747999
 20
53.8666798498575
 30
0.0
 10
72.85152845745714
 20
53.86257334459478
 30
0.0
 10
72.8401959469786
 20
53.86126085264637
 30
0.0
  0
LWPOLYLINE
  5
1CC
330
1F
100
AcDbEntity
  8
0
  6
Continuous
 62
     7
370
    15
100
AcDbPolyline
 90
       14
 70
   128
 43
0.0
 10
73.4286346535
 20
52.351383698
 10
73.4855684979
 20
52.4158755744
 10
73.5764509129
 20
52.521844251
 10
73.6705375431
 20
52.6345427808
 10
73.7551209579
 20
52.7387503263
 10
73.8187782528
 20
52.8203933228
 10
73.8529116908
 20
52.8684451439
 10
73.8529116908
 20
52.8764165667
 10
73.8187782528
 20
52.8432307494
 10
73.7551209579
 20
52.7733694491
 10
73.6705375431
 20
52.6762681276
 10
73.5764509129
 20
52.5650407382
 10
73.4855684979
 20
52.4547091647
 10
73.4286346535
 20
52.3836987287
  0
LINE
  5
1CD
330
1F
100
AcDbEntity
  8
0
  6
Continuous
 62
     7
370
    15
100
AcDbLine
 10
60.918481887
 20
63.0128890936
 30
0.0
 11
60.918481887
 21
56.295541088
 31
0.0
  0
LINE
  5
1CE
330
1F
100
AcDbEntity
  8
0
  6
Continuous
 62
     7
370
    15
100
AcDbLine
 10
60.918481887
 20
63.2955417697
 30
0.0
 11
60.918481887
 21
63.0128890936
 31
0.0
  0
LINE
  5
1CF
330
1F
100
AcDbEntity
  8
0
  6
Continuous
 62
     7
370
    15
100
AcDbLine
 10
52.918481507
 20
56.295541088
 30
0.0
 11
52.918481507
 21
63.2955417697
 31
0.0
  0
LINE
  5
1D0
330
1F
100
AcDbEntity
  8
0
  6
Continuous
 62
     7
370
    15
100
AcDbLine
 10
72.4184819093
 20
57.7955413338
 30
0.0
 11
72.4184819093
 21
61.7955415238
 31
0.0
  0
LINE
  5
1D1
330
1F
100
AcDbEntity
  8
0
  6
Continuous
 62
     7
370
    15
100
AcDbLine
 10
73.9184819224
 20
58.19554112
 30
0.0
 11
73.9184819224
 21
61.395541272
 31
0.0
  0
LINE
  5
1D2
330
1F
100
AcDbEntity
  8
0
  6
Continuous
 62
     7
370
    15
100
AcDbLine
 10
60.918481887
 20
46.2955413115
 30
0.0
 11
60.918481887
 21
39.2955415611
 31
0.0
  0
LINE
  5
1D3
330
1F
100
AcDbEntity
  8
0
  6
Continuous
 62
     7
370
    15
100
AcDbLine
 10
52.918481507
 20
43.2881917533
 30
0.0
 11
52.918481507
 21
46.2955413115
 31
0.0
  0
LINE
  5
1D4
330
1F
100
AcDbEntity
  8
0
  6
Continuous
 62
     7
370
    15
100
AcDbLine
 10
52.918481507
 20
39.2955415611
 30
0.0
 11
52.918481507
 21
43.2881917533
 31
0.0
  0
LINE
  5
1D5
330
1F
100
AcDbEntity
  8
0
  6
Continuous
 62
     7
370
    15
100
AcDbLine
 10
72.4184819093
 20
43.0770558034
 30
0.0
 11
72.4184819093
 21
44.7955415313
 31
0.0
  0
LINE
  5
1D6
330
1F
100
AcDbEntity
  8
0
  6
Continuous
 62
     7
370
    15
100
AcDbLine
 10
72.4184819093
 20
40.7955408756
 30
0.0
 11
72.4184819093
 21
43.0770558034
 31
0.0
  0
LINE
  5
1D7
330
1F
100
AcDbEntity
  8
0
  6
Continuous
 62
     7
370
    15
100
AcDbLine
 10
73.9184819224
 20
43.0207526971
 30
0.0
 11
73.9184819224
 21
44.3955412794
 31
0.0
  0
LINE
  5
1D8
330
1F
100
AcDbEntity
  8
0
  6
Continuous
 62
     7
370
    15
100
AcDbLine
 10
73.9184819224
 20
41.1955411275
 30
0.0
 11
73.9184819224
 21
43.0207526971
 31
0.0
  0
LINE
  5
1D9
330
1F
100
AcDbEntity
  8
0
  6
Continuous
 62
     7
370
    15
100
AcDbLine
 10
64.2984815469
 20
61.7955415238
 30
0.0
 11
72.2984819269
 21
61.7955415238
 31
0.0
  0
LINE
  5
1DA
330
1F
100
AcDbEntity
  8
0
  6
Continuous
 62
     7
370
    15
100
AcDbLine
 10
64.2984815469
 20
63.7955409203
 30
0.0
 11
64.2984815469
 21
61.7955415238
 31
0.0
  0
LINE
  5
1DB
330
1F
100
AcDbEntity
  8
0
  6
Continuous
 62
     7
370
    15
100
AcDbLine
 10
64.2984815469
 20
63.7955409203
 30
0.0
 11
72.2984819269
 21
63.7955409203
 31
0.0
  0
LINE
  5
1DC
330
1F
100
AcDbEntity
  8
0
  6
Continuous
 62
     7
370
    15
100
AcDbLine
 10
72.2984819269
 20
63.7955409203
 30
0.0
 11
72.2984819269
 21
61.7955415238
 31
0.0
  0
LINE
  5
1DD
330
1F
100
AcDbEntity
  8
0
  6
Continuous
 62
     7
370
    15
100
AcDbLine
 10
64.2984815469
 20
39.795541643
 30
0.0
 11
72.2984819269
 21
39.795541643
 31
0.0
  0
LINE
  5
1DE
330
1F
100
AcDbEntity
  8
0
  6
Continuous
 62
     7
370
    15
100
AcDbLine
 10
64.2984815469
 20
61.7955415238
 30
0.0
 11
64.2984815469
 21
39.795541643
 31
0.0
  0
CIRCLE
  5
1DF
330
1F
100
AcDbEntity
  8
0
  6
Continuous
 62
     7
370
    15
100
AcDbCircle
 10
68.2984818764
 20
51.2955413118
 30
0.0
 40
1.727200000000003
  0
LINE
  5
1E0
330
1F
100
AcDbEntity
  8
0
  6
Continuous
 62
     7
370
    15
100
AcDbLine
 10
72.2984819269
 20
61.7955415238
 30
0.0
 11
72.2984819269
 21
39.795541643
 31
0.0
  0
LINE
  5
1E1
330
1F
100
AcDbEntity
  8
0
  6
Continuous
 62
     7
370
    15
100
AcDbLine
 10
64.2984815469
 20
37.7955413152
 30
0.0
 11
72.2984819269
 21
37.7955413152
 31
0.0
  0
LINE
  5
1E2
330
1F
100
AcDbEntity
  8
0
  6
Continuous
 62
     7
370
    15
100
AcDbLine
 10
64.2984815469
 20
39.795541643
 30
0.0
 11
64.2984815469
 21
37.7955413152
 31
0.0
  0
LINE
  5
1E3
330
1F
100
AcDbEntity
  8
0
  6
Continuous
 62
     7
370
    15
100
AcDbLine
 10
72.2984819269
 20
39.795541643
 30
0.0
 11
72.2984819269
 21
37.7955413152
 31
0.0
  0
LINE
  5
1E4
330
1F
100
AcDbEntity
  8
0
  6
Continuous
 62
     7
370
    15
100
AcDbLine
 10
74.498481915
 20
61.7955415238
 30
0.0
 11
80.4984819671
 21
61.7955415238
 31
0.0
  0
LINE
  5
1E5
330
1F
100
AcDbEntity
  8
0
  6
Continuous
 62
     7
370
    15
100
AcDbLine
 10
74.498481915
 20
61.7955415238
 30
0.0
 11
74.498481915
 21
63.7955409203
 31
0.0
  0
LINE
  5
1E6
330
1F
100
AcDbEntity
  8
0
  6
Continuous
 62
     7
370
    15
100
AcDbLine
 10
74.498481915
 20
63.7955409203
 30
0.0
 11
80.4984819671
 21
63.7955409203
 31
0.0
  0
LINE
  5
1E7
330
1F
100
AcDbEntity
  8
0
  6
Continuous
 62
     7
370
    15
100
AcDbLine
 10
80.4984819671
 20
61.7955415238
 30
0.0
 11
80.4984819671
 21
63.7955409203
 31
0.0
  0
LINE
  5
1E8
330
1F
100
AcDbEntity
  8
0
  6
Continuous
 62
     7
370
    15
100
AcDbLine
 10
74.498481915
 20
40.7955408756
 30
0.0
 11
80.4984819671
 21
40.7955408756
 31
0.0
  0
LINE
  5
1E9
330
1F
100
AcDbEntity
  8
0
  6
Continuous
 62
     7
370
    15
100
AcDbLine
 10
74.498481915
 20
61.7955415238
 30
0.0
 11
74.498481915
 21
40.7955408756
 31
0.0
  0
LINE
  5
1EA
330
1F
100
AcDbEntity
  8
0
  6
Continuous
 62
     7
370
    15
100
AcDbLine
 10
80.4984819671
 20
61.7955415238
 30
0.0
 11
80.4984819671
 21
40.7955408756
 31
0.0
  0
LINE
  5
1EB
330
1F
100
AcDbEntity
  8
0
  6
Continuous
 62
     7
370
    15
100
AcDbLine
 10
74.498481915
 20
38.7955414791
 30
0.0
 11
80.4984819671
 21
38.7955414791
 31
0.0
  0
LINE
  5
1EC
330
1F
100
AcDbEntity
  8
0
  6
Continuous
 62
     7
370
    15
100
AcDbLine
 10
74.498481915
 20
38.7955414791
 30
0.0
 11
74.498481915
 21
40.7955408756
 31
0.0
  0
LINE
  5
1ED
330
1F
100
AcDbEntity
  8
0
  6
Continuous
 62
     7
370
    15
100
AcDbLine
 10
80.4984819671
 20
38.7955414791
 30
0.0
 11
80.4984819671
 21
40.7955408756
 31
0.0
  0
SPLINE
  5
1EE
330
1F
100
AcDbEntity
  8
0
  6
Continuous
 62
     8
370
    15
100
AcDbSpline
210
0.0
220
0.0
230
1.0
 70
     8
 71
     3
 72
    10
 73
     6
 74
     0
 42
0.000000001
 43
0.00000001
 40
0.0
 40
0.0
 40
0.0
 40
0.0
 40
0.2393322347948232
 40
0.6713367462190096
 40
1.0
 40
1.0
 40
1.0
 40
1.0
 10
72.99875990173426
 20
40.95028198404267
 30
0.0
 10
72.99290599582395
 20
40.88827528688411
 30
0.0
 10
72.97648554936848
 20
40.71434395519407
 30
0.0
 10
72.95286671215499
 20
40.57123269704
 30
0.0
 10
72.93264979347177
 20
40.56413176686561
 30
0.0
 10
72.92391462868659
 20
40.56106365365937
 30
0.0
  0
SPLINE
  5
1EF
330
1F
100
AcDbEntity
  8
0
  6
Continuous
 62
     8
370
    15
100
AcDbSpline
210
0.0
220
0.0
230
1.0
 70
     8
 71
     3
 72
    10
 73
     6
 74
     0
 42
0.000000001
 43
0.00000001
 40
0.0
 40
0.0
 40
0.0
 40
0.0
 40
0.1459517583379567
 40
0.696341697429001
 40
1.0
 40
1.0
 40
1.0
 40
1.0
 10
72.52391018590536
 20
45.03002387551619
 30
0.0
 10
72.52081609397128
 20
45.03459295508193
 30
0.0
 10
72.5060540571591
 20
45.0563922170896
 30
0.0
 10
72.4840484122948
 20
44.97235887994116
 30
0.0
 10
72.46739242643719
 20
44.82509344959256
 30
0.0
 10
72.46147036238222
 20
44.77273297576262
 30
0.0
  0
SPLINE
  5
1F0
330
1F
100
AcDbEntity
  8
0
  6
Continuous
 62
     8
370
    15
100
AcDbSpline
210
0.0
220
0.0
230
1.0
 70
     8
 71
     3
 72
    18
 73
    14
 74
     0
 42
0.000000001
 43
0.00000001
 40
0.0
 40
0.0
 40
0.0
 40
0.0
 40
0.0201319323803431
 40
0.1173050524778878
 40
0.2179291849986275
 40
0.3185534320624782
 40
0.4157265210790425
 40
0.5128997733412062
 40
0.6135238558783561
 40
0.7141479154584294
 40
0.8113212690728687
 40
0.9084943390903233
 40
1.0
 40
1.0
 40
1.0
 40
1.0
 10
72.63517529389468
 20
56.03334630919649
 30
0.0
 10
72.63299135422275
 20
56.03708957827276
 30
0.0
 10
72.62026594103418
 20
56.05890091595933
 30
0.0
 10
72.59734206776444
 20
55.95148104743015
 30
0.0
 10
72.56194780334783
 20
55.70490053196457
 30
0.0
 10
72.52667316433897
 20
55.31196489176209
 30
0.0
 10
72.49530030463515
 20
54.82466880686075
 30
0.0
 10
72.46393513761551
 20
54.26787455752246
 30
0.0
 10
72.42863408753291
 20
53.67223994563896
 30
0.0
 10
72.39333680704327
 20
53.08426121463899
 30
0.0
 10
72.36196063258257
 20
52.55486945211496
 30
0.0
 10
72.33159981693223
 20
52.11046187649528
 30
0.0
 10
72.30929792702207
 20
51.91454823731728
 30
0.0
 10
72.2984819269052
 20
51.81953378101839
 30
0.0
  0
SPLINE
  5
1F1
330
1F
100
AcDbEntity
  8
0
  6
Continuous
 62
     8
370
    15
100
AcDbSpline
210
0.0
220
0.0
230
1.0
 70
     8
 71
     3
 72
    17
 73
    13
 74
     0
 42
0.000000001
 43
0.00000001
 40
0.0
 40
0.0
 40
0.0
 40
0.0
 40
0.0166490892665512
 40
0.1322459951668185
 40
0.2478428495669162
 40
0.3594635449739573
 40
0.4710839153794482
 40
0.5866808391377507
 40
0.7022778627911557
 40
0.8138981984228987
 40
0.9255186119260845
 40
1.0
 40
1.0
 40
1.0
 40
1.0
 10
73.13510692364183
 20
55.11320472775055
 30
0.0
 10
73.13354491599075
 20
55.13139731080571
 30
0.0
 10
73.12113767539228
 20
55.27590348842698
 30
0.0
 10
73.09516834342348
 20
55.46001102839703
 30
0.0
 10
73.0600375500309
 20
55.62854486333589
 30
0.0
 10
73.02862577274614
 20
55.66295830367432
 30
0.0
 10
72.99726938698227
 20
55.57510404903561
 30
0.0
 10
72.96196443374252
 20
55.36356265147733
 30
0.0
 10
72.92668059557244
 20
55.04293690193879
 30
0.0
 10
72.8952645799039
 20
54.64140283804229
 30
0.0
 10
72.86785691482402
 20
54.24003718420958
 30
0.0
 10
72.84876063944583
 20
53.97535837804468
 30
0.0
 10
72.84111795632747
 20
53.86942901728703
 30
0.0
  0
LWPOLYLINE
  5
1F2
330
1F
100
AcDbEntity
  8
0
  6
Continuous
 62
     8
370
    15
100
AcDbPolyline
 90
        8
 70
   128
 43
0.0
 10
72.7368151831
 20
52.607316031
 10
72.8180619018
 20
52.6345495329
 10
72.9551348897
 20
52.6562912584
 10
73.102134612
 20
52.6562912584
 10
73.2392075999
 20
52.6345495329
 10
73.3478417216
 20
52.5940023091
 10
73.4133649213
 20
52.5401257638
 10
73.4286346535
 20
52.4953073783
  0
LINE
  5
1F3
330
1F
100
AcDbEntity
  8
0
  6
Continuous
 62
     8
370
    15
100
AcDbLine
 10
59.9184826544
 20
63.9321314831
 30
0.0
 11
59.9184826544
 21
64.2955410023
 31
0.0
  0
LINE
  5
1F4
330
1F
100
AcDbEntity
  8
0
  6
Continuous
 62
     8
370
    15
100
AcDbLine
 10
59.9184826544
 20
55.2955413897
 30
0.0
 11
59.9184826544
 21
63.9321314831
 31
0.0
  0
LINE
  5
1F5
330
1F
100
AcDbEntity
  8
0
  6
Continuous
 62
     8
370
    15
100
AcDbLine
 10
53.9184816709
 20
64.2955410023
 30
0.0
 11
53.9184816709
 21
55.2955413897
 31
0.0
  0
LINE
  5
1F6
330
1F
100
AcDbEntity
  8
0
  6
Continuous
 62
     8
370
    15
100
AcDbLine
 10
53.9184816709
 20
43.4289485876
 30
0.0
 11
53.9184816709
 21
38.2955413972
 31
0.0
  0
LINE
  5
1F7
330
1F
100
AcDbEntity
  8
0
  6
Continuous
 62
     8
370
    15
100
AcDbLine
 10
53.9184816709
 20
47.2955412426
 30
0.0
 11
53.9184816709
 21
43.4289485876
 31
0.0
  0
LINE
  5
1F8
330
1F
100
AcDbEntity
  8
0
  6
Continuous
 62
     8
370
    15
100
AcDbLine
 10
59.9184826544
 20
38.2955413972
 30
0.0
 11
59.9184826544
 21
47.2955412426
 31
0.0
  0
LINE
  5
1F9
330
1F
100
AcDbEntity
  8
DIM
 62
     7
370
     0
100
AcDbLine
 10
53.9184818764
 20
55.2955413118
 30
0.0
 11
59.9184818764
 21
55.2955413118
 31
0.0
  0
LINE
  5
1FA
330
1F
100
AcDbEntity
  8
DIM
 62
     7
370
     0
100
AcDbLine
 10
53.9184818764
 20
55.2955413118
 30
0.0
 11
53.9184818764
 21
64.2955413118
 31
0.0
  0
LINE
  5
1FB
330
1F
100
AcDbEntity
  8
DIM
 62
     7
370
     0
100
AcDbLine
 10
53.9184818764
 20
64.2955413118
 30
0.0
 11
59.9184818764
 21
64.2955413118
 31
0.0
  0
LINE
  5
1FC
330
1F
100
AcDbEntity
  8
DIM
 62
     7
370
     0
100
AcDbLine
 10
59.9184818764
 20
55.2955413118
 30
0.0
 11
59.9184818764
 21
64.2955413118
 31
0.0
  0
LINE
  5
1FD
330
1F
100
AcDbEntity
  8
DIM
 62
     7
370
     0
100
AcDbLine
 10
53.9184818764
 20
38.2955413118
 30
0.0
 11
59.9184818764
 21
38.2955413118
 31
0.0
  0
LINE
  5
1FE
330
1F
100
AcDbEntity
  8
DIM
 62
     7
370
     0
100
AcDbLine
 10
53.9184818764
 20
38.2955413118
 30
0.0
 11
53.9184818764
 21
47.2955413118
 31
0.0
  0
LINE
  5
1FF
330
1F
100
AcDbEntity
  8
DIM
 62
     7
370
     0
100
AcDbLine
 10
53.9184818764
 20
47.2955413118
 30
0.0
 11
59.9184818764
 21
47.2955413118
 31
0.0
  0
LINE
  5
200
330
1F
100
AcDbEntity
  8
DIM
 62
     7
370
     0
100
AcDbLine
 10
59.9184818764
 20
38.2955413118
 30
0.0
 11
59.9184818764
 21
47.2955413118
 31
0.0
  0
HATCH
  5
201
330
1F
100
AcDbEntity
  8
DIM
 62
     7
100
AcDbHatch
 10
0.0
 20
0.0
 30
0.0
210
0.0
220
0.0
230
1.0
  2
ANSI37
 70
     0
 71
     0
 91
        1
 92
        0
 93
        4
 72
     1
 10
53.91848187640803
 20
55.29554131184355
 11
59.91848187640804
 21
55.29554131184355
 72
     1
 10
59.91848187640804
 20
55.29554131184355
 11
59.91848187640804
 21
64.29554131184355
 72
     1
 10
59.91848187640804
 20
64.29554131184355
 11
53.91848187640803
 21
64.29554131184355
 72
     1
 10
53.91848187640803
 20
64.29554131184355
 11
53.91848187640803
 21
55.29554131184355
 97
        0
 75
     0
 76
     1
 52
0.0
 41
0.25
 77
     0
 78
     2
 53
45.0
 43
0.0
 44
0.0
 45
-0.561266007566822
 46
0.5612660075668221
 79
     0
 53
135.0
 43
0.0
 44
0.0
 45
-0.5612660075668221
 46
-0.561266007566822
 79
     0
 98
        1
 10
0.0
 20
0.0
  0
HATCH
  5
202
330
1F
100
AcDbEntity
  8
DIM
 62
     7
100
AcDbHatch
 10
0.0
 20
0.0
 30
0.0
210
0.0
220
0.0
230
1.0
  2
ANSI37
 70
     0
 71
     0
 91
        1
 92
        0
 93
        4
 72
     1
 10
53.91848187640798
 20
38.29554131184348
 11
59.91848187640798
 21
38.29554131184348
 72
     1
 10
59.91848187640798
 20
38.29554131184348
 11
59.91848187640798
 21
47.29554131184348
 72
     1
 10
59.91848187640798
 20
47.29554131184348
 11
53.91848187640798
 21
47.29554131184348
 72
     1
 10
53.91848187640798
 20
47.29554131184348
 11
53.91848187640798
 21
38.29554131184348
 97
        0
 75
     0
 76
     1
 52
0.0
 41
0.25
 77
     0
 78
     2
 53
45.0
 43
0.0
 44
0.0
 45
-0.561266007566822
 46
0.5612660075668221
 79
     0
 53
135.0
 43
0.0
 44
0.0
 45
-0.5612660075668221
 46
-0.561266007566822
 79
     0
 98
        1
 10
0.0
 20
0.0
  0
DIMENSION
  5
203
330
1F
100
AcDbEntity
  8
DIM
 62
     7
100
AcDbDimension
  2
_D_3
 10
68.2984818764
 20
33.8347833856
 30
0.0
 11
66.2984818764
 21
33.8347833856
 31
0.0
 70
   160
  1
<>
 71
     2
 42
-1.0
  3
SLDDIMSTYLE0
100
AcDbAlignedDimension
 13
64.2984818764
 23
37.7955413118
 33
0.0
 14
68.2984818764
 24
48.5683413118
 34
0.0
100
AcDbRotatedDimension
  0
DIMENSION
  5
20D
330
1F
100
AcDbEntity
  8
DIM
 62
     7
100
AcDbDimension
  2
_D_4
 10
72.2984818764
 20
30.4015605066
 30
0.0
 11
68.2984818764
 21
30.4015605066
 31
0.0
 70
   160
  1
<>
 71
     2
 42
-1.0
  3
SLDDIMSTYLE0
100
AcDbAlignedDimension
 13
64.2984818764
 23
37.7955413118
 33
0.0
 14
72.2984818764
 24
37.7955413118
 34
0.0
100
AcDbRotatedDimension
  0
DIMENSION
  5
217
330
1F
100
AcDbEntity
  8
DIM
 62
     7
100
AcDbDimension
  2
_D_5
 10
80.4984818764
 20
30.4015605066
 30
0.0
 11
77.4984818764
 21
30.4015605066
 31
0.0
 70
   160
  1
<>
 71
     2
 42
-1.0
  3
SLDDIMSTYLE0
100
AcDbAlignedDimension
 13
74.4984818764
 23
38.7955413118
 33
0.0
 14
80.4984818764
 24
38.7955413118
 34
0.0
100
AcDbRotatedDimension
  0
DIMENSION
  5
221
330
1F
100
AcDbEntity
  8
DIM
 62
     7
100
AcDbDimension
  2
_D_6
 10
80.4984818764
 20
26.4425287182
 30
0.0
 11
72.3984818764
 21
26.4425287182
 31
0.0
 70
   160
  1
<>
 71
     2
 42
-1.0
  3
SLDDIMSTYLE0
100
AcDbAlignedDimension
 13
64.2984818764
 23
37.7955413118
 33
0.0
 14
80.4984818764
 24
38.7955413118
 34
0.0
100
AcDbRotatedDimension
  0
DIMENSION
  5
22B
330
1F
100
AcDbEntity
  8
DIM
 62
     7
100
AcDbDimension
  2
_D_7
 10
80.4984818764
 20
20.5967708432
 30
0.0
 11
66.7084818764
 21
20.5967708432
 31
0.0
 70
   160
  1
<>\PNOMINAL
 71
     2
 42
-1.0
  3
SLDDIMSTYLE2
100
AcDbAlignedDimension
 13
52.9184818764
 23
39.2955413118
 33
0.0
 14
80.4984818764
 24
38.7955413118
 34
0.0
100
AcDbRotatedDimension
  0
DIMENSION
  5
237
330
1F
100
AcDbEntity
  8
DIM
 62
     7
100
AcDbDimension
  2
_D_8
 10
84.3906565531
 20
51.2955413118
 30
0.0
 11
84.3906565531
 21
44.5455413118
 31
0.0
 70
   160
  1
<>
 71
     2
 42
-1.0
  3
SLDDIMSTYLE0
100
AcDbAlignedDimension
 13
72.2984818764
 23
37.7955413118
 33
0.0
 14
71.0256818764
 24
51.2955413118
 34
0.0
 50
90.0
100
AcDbRotatedDimension
  0
INSERT
  5
24C
330
1F
100
AcDbEntity
  8
DIM
 62
     7
100
AcDbBlockReference
  2
SW_CENTERMARKSYMBOL_1
 10
68.2984818764
 20
51.2955413118
 30
0.0
  0
ARC
  5
24D
330
1F
100
AcDbEntity
  8
0
  6
Continuous
 62
     7
370
    15
100
AcDbCircle
 10
112.5082109139
 20
59.7955413118
 30
0.0
 40
4.500000000000005
100
AcDbArc
 50
62.7059375793
 51
117.2660444507
  0
LINE
  5
24E
330
1F
100
AcDbEntity
  8
0
  6
Continuous
 62
     7
370
    15
100
AcDbLine
 10
117.5082108916
 20
39.795541643
 30
0.0
 11
117.5082108916
 21
61.7955415238
 31
0.0
  0
ARC
  5
24F
330
1F
100
AcDbEntity
  8
0
  6
Continuous
 62
     7
370
    15
100
AcDbCircle
 10
115.5082109139
 20
39.7955413118
 30
0.0
 40
2.0
100
AcDbArc
 50
270.0
 51
0.0
  0
LINE
  5
250
330
1F
100
AcDbEntity
  8
0
  6
Continuous
 62
     7
370
    15
100
AcDbLine
 10
92.5082114504
 20
37.7955413152
 30
0.0
 11
115.5082105638
 21
37.7955413152
 31
0.0
  0
ARC
  5
251
330
1F
100
AcDbEntity
  8
0
  6
Continuous
 62
     7
370
    15
100
AcDbCircle
 10
92.5082109139
 20
39.7955413118
 30
0.0
 40
2.0
100
AcDbArc
 50
180.0
 51
270.0
  0
LINE
  5
252
330
1F
100
AcDbEntity
  8
0
  6
Continuous
 62
     7
370
    15
100
AcDbLine
 10
90.5082111226
 20
61.7955415238
 30
0.0
 11
90.5082111226
 21
39.795541643
 31
0.0
  0
ARC
  5
253
330
1F
100
AcDbEntity
  8
0
  6
Continuous
 62
     7
370
    15
100
AcDbCircle
 10
92.5082109139
 20
61.7955413118
 30
0.0
 40
2.0
100
AcDbArc
 50
90.0
 51
180.0
  0
LINE
  5
254
330
1F
100
AcDbEntity
  8
0
  6
Continuous
 62
     7
370
    15
100
AcDbLine
 10
115.5082105638
 20
63.7955409203
 30
0.0
 11
114.5082113312
 21
63.7955409203
 31
0.0
  0
LINE
  5
255
330
1F
100
AcDbEntity
  8
0
  6
Continuous
 62
     7
370
    15
100
AcDbLine
 10
93.5082097517
 20
63.7955409203
 30
0.0
 11
92.5082114504
 21
63.7955409203
 31
0.0
  0
CIRCLE
  5
256
330
1F
100
AcDbEntity
  8
0
  6
Continuous
 62
     7
370
    15
100
AcDbCircle
 10
104.0082109139
 20
51.2955413118
 30
0.0
 40
1.727199999999996
  0
ARC
  5
257
330
1F
100
AcDbEntity
  8
0
  6
Continuous
 62
     7
370
    15
100
AcDbCircle
 10
115.5082109139
 20
61.7955413118
 30
0.0
 40
2.0
100
AcDbArc
 50
0.0
 51
90.0
  0
LINE
  5
258
330
1F
100
AcDbEntity
  8
0
  6
Continuous
 62
     7
370
    15
100
AcDbLine
 10
114.5082113312
 20
63.7955409203
 30
0.0
 11
93.5082097517
 21
63.7955409203
 31
0.0
  0
LINE
  5
259
330
1F
100
AcDbEntity
  8
0
  6
Continuous
 62
     7
370
    15
100
AcDbLine
 10
116.5082107277
 20
61.7955415238
 30
0.0
 11
116.5082107277
 21
40.7955408756
 31
0.0
  0
LINE
  5
25A
330
1F
100
AcDbEntity
  8
0
  6
Continuous
 62
     7
370
    15
100
AcDbLine
 10
114.5082113312
 20
38.7955414791
 30
0.0
 11
93.5082097517
 21
38.7955414791
 31
0.0
  0
ARC
  5
25B
330
1F
100
AcDbEntity
  8
0
  6
Continuous
 62
     7
370
    15
100
AcDbCircle
 10
93.5082109139
 20
40.7955413118
 30
0.0
 40
2.0
100
AcDbArc
 50
180.0
 51
270.0
  0
LINE
  5
25C
330
1F
100
AcDbEntity
  8
0
  6
Continuous
 62
     7
370
    15
100
AcDbLine
 10
91.5082094238
 20
61.7955415238
 30
0.0
 11
91.5082094238
 21
40.7955408756
 31
0.0
  0
ARC
  5
25D
330
1F
100
AcDbEntity
  8
0
  6
Continuous
 62
     7
370
    15
100
AcDbCircle
 10
93.5082109139
 20
61.7955413118
 30
0.0
 40
2.0
100
AcDbArc
 50
90.0
 51
180.0
  0
CIRCLE
  5
25E
330
1F
100
AcDbEntity
  8
0
  6
Continuous
 62
     7
370
    15
100
AcDbCircle
 10
104.0082109139
 20
51.2955413118
 30
0.0
 40
3.25
  0
ARC
  5
25F
330
1F
100
AcDbEntity
  8
0
  6
Continuous
 62
     7
370
    15
100
AcDbCircle
 10
114.5082109139
 20
61.7955413118
 30
0.0
 40
2.0
100
AcDbArc
 50
0.0
 51
90.0
  0
ARC
  5
260
330
1F
100
AcDbEntity
  8
0
  6
Continuous
 62
     7
370
    15
100
AcDbCircle
 10
114.5082109139
 20
40.7955413118
 30
0.0
 40
2.0
100
AcDbArc
 50
270.0
 51
0.0
  0
DIMENSION
  5
261
330
1F
100
AcDbEntity
  8
DIM
 62
     7
100
AcDbDimension
  2
_D_9
 10
123.5561624901
 20
63.7955413118
 30
0.0
 11
123.5561624901
 21
50.7955413118
 31
0.0
 70
   160
  1
<>
 71
     2
 42
-1.0
  3
SLDDIMSTYLE0
100
AcDbAlignedDimension
 13
115.5082109139
 23
37.7955413118
 33
0.0
 14
114.5082109139
 24
63.7955413118
 34
0.0
 50
90.0
100
AcDbRotatedDimension
  0
DIMENSION
  5
26B
330
1F
100
AcDbEntity
  8
DIM
 62
     7
100
AcDbDimension
  2
_D_10
 10
90.5082109139
 20
31.6562553199
 30
0.0
 11
104.0082109139
 21
31.6562553199
 31
0.0
 70
   160
  1
<>
 71
     2
 42
-1.0
  3
SLDDIMSTYLE0
100
AcDbAlignedDimension
 13
117.5082109139
 23
39.7955413118
 33
0.0
 14
90.5082109139
 24
39.7955413118
 34
0.0
 50
0.0
100
AcDbRotatedDimension
  0
DIMENSION
  5
275
330
1F
100
AcDbEntity
  8
DIM
 62
     7
100
AcDbDimension
  2
_D_11
 10
105.7022379104
 20
48.5219565312
 30
0.0
 11
87.7030925958
 21
69.513230414
 31
0.0
 70
   163
  1
<> HOLE
 71
     1
 42
-1.0
  3
SLDDIMSTYLE3
100
AcDbDiametricDimension
 15
102.3141839175
 25
54.0691260925
 35
0.0
 40
0.0
  0
INSERT
  5
28B
330
1F
100
AcDbEntity
  8
DIM
 62
     7
100
AcDbBlockReference
  2
SW_CENTERMARKSYMBOL_2
 10
104.0082109139
 20
51.2955413118
 30
0.0
  0
SPLINE
  5
28C
330
1F
100
AcDbEntity
  8
0
  6
Continuous
 62
     7
370
    15
100
AcDbSpline
210
0.0
220
0.0
230
1.0
 70
     8
 71
     3
 72
     9
 73
     5
 74
     0
 42
0.000000001
 43
0.00000001
 40
0.0
 40
0.0
 40
0.0
 40
0.0
 40
0.0814046518747736
 40
1.0
 40
1.0
 40
1.0
 40
1.0
 10
141.0344111174589
 20
82.03565103327819
 30
0.0
 10
141.0389507050789
 20
82.03612816996325
 30
0.0
 10
141.094716407843
 20
82.04198946503756
 30
0.0
 10
141.1415542867711
 20
82.06819688420399
 30
0.0
 10
141.1845793444706
 20
82.09227089753664
 30
0.0
  0
SPLINE
  5
28D
330
1F
100
AcDbEntity
  8
0
  6
Continuous
 62
     7
370
    15
100
AcDbSpline
210
0.0
220
0.0
230
1.0
 70
     8
 71
     3
 72
    10
 73
     6
 74
     0
 42
0.000000001
 43
0.00000001
 40
0.0
 40
0.0
 40
0.0
 40
0.0
 40
0.2727208945027599
 40
0.6864926361567597
 40
1.0
 40
1.0
 40
1.0
 40
1.0
 10
140.9018064613142
 20
81.92458301336983
 30
0.0
 10
140.9388001748396
 20
81.95066033668282
 30
0.0
 10
141.031920696337
 20
82.01630213672784
 30
0.0
 10
141.1453327159769
 20
82.14836071929945
 30
0.0
 10
141.1960356269422
 20
82.27123903334414
 30
0.0
 10
141.2178920721993
 20
82.32420804622856
 30
0.0
  0
LINE
  5
28E
330
1F
100
AcDbEntity
  8
0
  6
Continuous
 62
     7
370
    15
100
AcDbLine
 10
138.64343375
 20
79.9778534195
 30
0.0
 11
138.8309489864
 21
79.8696031777
 31
0.0
  0
LINE
  5
28F
330
1F
100
AcDbEntity
  8
0
  6
Continuous
 62
     7
370
    15
100
AcDbLine
 10
139.3309083527
 20
80.7356520401
 30
0.0
 11
139.1433931163
 21
80.8439022819
 31
0.0
  0
LINE
  5
290
330
1F
100
AcDbEntity
  8
0
  6
Continuous
 62
     7
370
    15
100
AcDbLine
 10
145.6604991485
 20
92.8294459978
 30
0.0
 11
145.1926842529
 21
92.5593822071
 31
0.0
  0
LINE
  5
291
330
1F
100
AcDbEntity
  8
0
  6
Continuous
 62
     7
370
    15
100
AcDbLine
 10
139.8865405411
 20
89.4962106437
 30
0.0
 11
139.1822766129
 21
89.0896477319
 31
0.0
  0
LINE
  5
292
330
1F
100
AcDbEntity
  8
0
  6
Continuous
 62
     7
370
    15
100
AcDbLine
 10
140.8486956225
 20
86.2027534123
 30
0.0
 11
141.5530717622
 21
86.6093811024
 31
0.0
  0
SPLINE
  5
293
330
1F
100
AcDbEntity
  8
0
  6
Continuous
 62
     7
370
    15
100
AcDbSpline
210
0.0
220
0.0
230
1.0
 70
     8
 71
     3
 72
    15
 73
    11
 74
     0
 42
0.000000001
 43
0.00000001
 40
0.0
 40
0.0
 40
0.0
 40
0.0
 40
0.0404444940954347
 40
0.190761954782558
 40
0.3402187401995642
 40
0.4912686980837921
 40
0.646243045338409
 40
0.8067197578357296
 40
0.9730301964053902
 40
0.9999999999999999
 40
0.9999999999999999
 40
0.9999999999999999
 40
0.9999999999999999
 10
145.2205559604535
 20
94.9742556194809
 30
0.0
 10
145.1945338490534
 20
94.96144631203711
 30
0.0
 10
145.0717970229593
 20
94.90102947206816
 30
0.0
 10
144.8823818513644
 20
94.74268911545663
 30
0.0
 10
144.6612096781814
 20
94.50608338108871
 30
0.0
 10
144.4823789159722
 20
94.22853876747331
 30
0.0
 10
144.3421876532853
 20
93.9177354848931
 30
0.0
 10
144.2476224360258
 20
93.57186299674774
 30
0.0
 10
144.2000096203301
 20
93.30764492434058
 30
0.0
 10
144.1975801836075
 20
93.15529741752982
 30
0.0
 10
144.1972411865609
 20
93.1340392574054
 30
0.0
  0
SPLINE
  5
294
330
1F
100
AcDbEntity
  8
0
  6
Continuous
 62
     7
370
    15
100
AcDbSpline
210
0.0
220
0.0
230
1.0
 70
     8
 71
     3
 72
    12
 73
     8
 74
     0
 42
0.000000001
 43
0.00000001
 40
0.0
 40
0.0
 40
0.0
 40
0.0
 40
0.1590648432931773
 40
0.3751138334193919
 40
0.5840431853319649
 40
0.8086759533659712
 40
1.0
 40
1.0
 40
1.0
 40
1.0
 10
147.4483589136209
 20
88.30571894868817
 30
0.0
 10
147.5297017124853
 20
88.28590562845542
 30
0.0
 10
147.7215279417852
 20
88.23918096981059
 30
0.0
 10
148.0232733569437
 20
88.22261730120054
 30
0.0
 10
148.354393047433
 20
88.25126674386074
 30
0.0
 10
148.665528211361
 20
88.32939700499155
 30
0.0
 10
148.8535101397628
 20
88.42704987527233
 30
0.0
 10
148.9399745561821
 20
88.47196641864585
 30
0.0
  0
LINE
  5
295
330
1F
100
AcDbEntity
  8
0
  6
Continuous
 62
     7
370
    15
100
AcDbLine
 10
148.7437066922
 20
97.0149047873
 30
0.0
 11
145.2081727863
 21
94.9738845077
 31
0.0
  0
LINE
  5
296
330
1F
100
AcDbEntity
  8
0
  6
Continuous
 62
     7
370
    15
100
AcDbLine
 10
148.9578680337
 20
88.4785180399
 30
0.0
 11
152.4934019396
 21
90.5195383194
 31
0.0
  0
SPLINE
  5
297
330
1F
100
AcDbEntity
  8
0
  6
Continuous
 62
     7
370
    15
100
AcDbSpline
210
0.0
220
0.0
230
1.0
 70
     8
 71
     3
 72
    33
 73
    29
 74
     0
 42
0.000000001
 43
0.00000001
 40
0.0
 40
0.0
 40
0.0
 40
0.0
 40
0.0098078760654915
 40
0.045862572812182
 40
0.0817108305615689
 40
0.1179412218961581
 40
0.1551129055331752
 40
0.1936043700479974
 40
0.2334950946586211
 40
0.2745138320341571
 40
0.3161723056381339
 40
0.357969095079007
 40
0.3996444147354971
 40
0.4411545551787157
 40
0.4825410101440095
 40
0.5238843168668509
 40
0.565280593334217
 40
0.6068016992963028
 40
0.648554887827308
 40
0.6906406585844628
 40
0.7331283729486066
 40
0.775999939594864
 40
0.818959650964318
 40
0.8570511389230654
 40
0.8938028743143308
 40
0.9293434998570553
 40
0.9675554074719461
 40
1.0
 40
1.0
 40
1.0
 40
1.0
 10
152.4801660514426
 20
90.51872936695722
 30
0.0
 10
152.5064771153011
 20
90.53167636737253
 30
0.0
 10
152.6295101832069
 20
90.59221778788817
 30
0.0
 10
152.8192121840209
 20
90.75071750198367
 30
0.0
 10
153.0403192468337
 20
90.98735710075422
 30
0.0
 10
153.2193634678356
 20
91.26482848013701
 30
0.0
 10
153.3587358233131
 20
91.57590057054465
 30
0.0
 10
153.456515122702
 20
91.92072148200936
 30
0.0
 10
153.5108930898369
 20
92.29665306247264
 30
0.0
 10
153.5198356034768
 20
92.6991524637143
 30
0.0
 10
153.4826086221498
 20
93.12085027176788
 30
0.0
 10
153.400273049113
 20
93.55316734838657
 30
0.0
 10
153.2752817789084
 20
93.98796626974985
 30
0.0
 10
153.11061899978
 20
94.41838376390176
 30
0.0
 10
152.9093529437522
 20
94.83845337340277
 30
0.0
 10
152.6745769777017
 20
95.24258638164433
 30
0.0
 10
152.4094546541845
 20
95.6253045972322
 30
0.0
 10
152.1171460292305
 20
95.98130454238078
 30
0.0
 10
151.80073130829
 20
96.3054265802603
 30
0.0
 10
151.463077713581
 20
96.59259961585998
 30
0.0
 10
151.1070147143177
 20
96.83750200423668
 30
0.0
 10
150.736079171923
 20
97.03407730814968
 30
0.0
 10
150.3684015941814
 20
97.17088965313962
 30
0.0
 10
150.0132303510387
 20
97.2484251230031
 30
0.0
 10
149.6783835860863
 20
97.27181541076814
 30
0.0
 10
149.3471600875591
 20
97.24186201316681
 30
0.0
 10
149.0363397621307
 20
97.16418100432922
 30
0.0
 10
148.8486187079201
 20
97.06663663904502
 30
0.0
 10
148.7624195174638
 20
97.02184547080641
 30
0.0
  0
LINE
  5
298
330
1F
100
AcDbEntity
  8
0
  6
Continuous
 62
     7
370
    15
100
AcDbLine
 10
140.8486956225
 20
74.3813517402
 30
0.0
 11
140.9895743495
 21
74.6145000623
 31
0.0
  0
LINE
  5
299
330
1F
100
AcDbEntity
  8
0
  6
Continuous
 62
     7
370
    15
100
AcDbLine
 10
142.3890680143
 20
71.4419576551
 30
0.0
 11
147.1031132222
 21
74.1633180279
 31
0.0
  0
LINE
  5
29A
330
1F
100
AcDbEntity
  8
0
  6
Continuous
 62
     7
370
    15
100
AcDbLine
 10
131.8837020284
 20
99.8439735253
 30
0.0
 11
127.1696568205
 21
97.1226131526
 31
0.0
  0
LINE
  5
29B
330
1F
100
AcDbEntity
  8
0
  6
Continuous
 62
     7
370
    15
100
AcDbLine
 10
136.9679160252
 20
69.6731839962
 30
0.0
 11
140.5034499311
 21
71.7142042758
 31
0.0
  0
LINE
  5
29C
330
1F
100
AcDbEntity
  8
0
  6
Continuous
 62
     7
370
    15
100
AcDbLine
 10
126.4625500393
 20
96.0340690035
 30
0.0
 11
122.9270161333
 21
93.9930487239
 31
0.0
  0
SPLINE
  5
29D
330
1F
100
AcDbEntity
  8
0
  6
Continuous
 62
     7
370
    15
100
AcDbSpline
210
0.0
220
0.0
230
1.0
 70
     8
 71
     3
 72
    11
 73
     7
 74
     0
 42
0.000000001
 43
0.00000001
 40
0.0
 40
0.0
 40
0.0
 40
0.0
 40
0.0589927878187331
 40
0.4183285055511755
 40
0.7776642232836177
 40
1.0
 40
1.0
 40
1.0
 40
1.0
 10
140.834570345472
 20
81.88185827587132
 30
0.0
 10
140.8499963533851
 20
81.8879921884286
 30
0.0
 10
140.9593849596112
 20
81.93148886943227
 30
0.0
 10
141.0970861281609
 20
82.11922726690968
 30
0.0
 10
141.2277351322433
 20
82.3829651900673
 30
0.0
 10
141.2448713965972
 20
82.59876999277199
 30
0.0
 10
141.2514214934844
 20
82.6812583541347
 30
0.0
  0
LINE
  5
29E
330
1F
100
AcDbEntity
  8
0
  6
Continuous
 62
     7
370
    15
100
AcDbLine
 10
138.7550222135
 20
80.2727557007
 30
0.0
 11
138.6886077362
 21
80.3110959623
 31
0.0
  0
LINE
  5
29F
330
1F
100
AcDbEntity
  8
0
  6
Continuous
 62
     7
370
    15
100
AcDbLine
 10
138.7643557254
 20
79.938089245
 30
0.0
 11
138.6402456842
 21
80.0097364467
 31
0.0
  0
LWPOLYLINE
  5
2A0
330
1F
100
AcDbEntity
  8
0
  6
Continuous
 62
     7
370
    15
100
AcDbPolyline
 90
       16
 70
   128
 43
0.0
 10
138.7643557254
 20
79.938089245
 10
138.8405127943
 20
79.8644892112
 10
138.9477601515
 20
79.8475487018
 10
139.0722286994
 20
79.8894584429
 10
139.1978223169
 20
79.9847987178
 10
139.3082993902
 20
80.121240238
 10
139.3893731586
 20
80.2811385524
 10
139.430559261
 20
80.4438158054
 10
139.4265315608
 20
80.5882347726
 10
139.3778109152
 20
80.695719369
 10
139.290697819
 20
80.7523698173
 10
139.1764576316
 20
80.7508601505
 10
139.0498637551
 20
80.6913855969
 10
138.9272871555
 20
80.5816373334
 10
138.8245792896
 20
80.4358078718
 10
138.7550222135
 20
80.2727557007
  0
LWPOLYLINE
  5
2A1
330
1F
100
AcDbEntity
  8
0
  6
Continuous
 62
     7
370
    15
100
AcDbPolyline
 90
       15
 70
   128
 43
0.0
 10
138.8577015539
 20
80.2611366257
 10
138.9047741626
 20
80.3817775212
 10
138.9796453412
 20
80.4899279365
 10
139.0704998273
 20
80.5685208837
 10
139.163000067
 20
80.6051537761
 10
139.2425487932
 20
80.5940456546
 10
139.2965925899
 20
80.5369494682
 10
139.3166029199
 20
80.4428754453
 10
139.2994219954
 20
80.3266692082
 10
139.2477611017
 20
80.2066690173
 10
139.1697727351
 20
80.1018118485
 10
139.0777640747
 20
80.0286449897
 10
138.9862548122
 20
79.998714748
 10
138.9096858308
 20
80.0167443515
 10
138.8601403192
 20
80.0798885865
  0
LINE
  5
2A2
330
1F
100
AcDbEntity
  8
0
  6
Continuous
 62
     7
370
    15
100
AcDbLine
 10
138.7550222135
 20
80.2727557007
 30
0.0
 11
138.8577015539
 21
80.2611366257
 31
0.0
  0
LINE
  5
2A3
330
1F
100
AcDbEntity
  8
0
  6
Continuous
 62
     7
370
    15
100
AcDbLine
 10
138.8601403192
 20
80.0798885865
 30
0.0
 11
138.7643557254
 21
79.938089245
 31
0.0
  0
LINE
  5
2A4
330
1F
100
AcDbEntity
  8
0
  6
Continuous
 62
     7
370
    15
100
AcDbLine
 10
138.8601403192
 20
80.0798885865
 30
0.0
 11
138.6560343148
 21
80.1977164749
 31
0.0
  0
ARC
  5
2A5
330
1F
100
AcDbEntity
  8
0
  6
Continuous
 62
     7
370
    15
100
AcDbCircle
 10
138.588680015
 20
86.8225785136
 30
0.0
 40
2.292185817694984
100
AcDbArc
 50
350.3894351369
 51
69.5905754041
  0
LWPOLYLINE
  5
2A6
330
1F
100
AcDbEntity
  8
0
  6
Continuous
 62
     7
370
    15
100
AcDbPolyline
 90
       17
 70
   128
 43
0.0
 10
145.6604991485
 20
92.8294459978
 10
145.726760764
 20
92.8620479363
 10
145.9225750538
 20
92.9061480676
 10
146.1417739172
 20
92.8880144369
 10
146.375383327
 20
92.8083894371
 10
146.6138392866
 20
92.670532925
 10
146.8473793809
 20
92.4800887625
 10
147.0664424511
 20
92.244853756
 10
147.2620600292
 20
91.9744584543
 10
147.4262235087
 20
91.6799728727
 10
147.5522120174
 20
91.3734532856
 10
147.634867571
 20
91.0674486409
 10
147.6708062415
 20
90.7744868048
 10
147.6585566953
 20
90.5065616691
 10
147.5986204304
 20
90.2746421205
 10
147.4934512445
 20
90.0882229725
 10
147.4428180662
 20
90.031317296
  0
LINE
  5
2A7
330
1F
100
AcDbEntity
  8
0
  6
Continuous
 62
     7
370
    15
100
AcDbLine
 10
142.7343137057
 20
72.2050323326
 30
0.0
 11
142.7343137057
 21
87.1749472171
 31
0.0
  0
ARC
  5
2A8
330
1F
100
AcDbEntity
  8
0
  6
Continuous
 62
     7
370
    15
100
AcDbCircle
 10
142.0158564267
 20
72.0884870044
 30
0.0
 40
0.7278486623808115
100
AcDbArc
 50
230.7967147643
 51
9.2140369905
  0
LINE
  5
2A9
330
1F
100
AcDbEntity
  8
0
  6
Continuous
 62
     7
370
    15
100
AcDbLine
 10
140.7502157983
 20
71.9895263209
 30
0.0
 11
141.5558024037
 21
71.5244710726
 31
0.0
  0
LINE
  5
2AA
330
1F
100
AcDbEntity
  8
0
  6
Continuous
 62
     7
370
    15
100
AcDbLine
 10
126.824411129
 20
96.3595384752
 30
0.0
 11
126.824411129
 21
96.110076963
 31
0.0
  0
ARC
  5
2AB
330
1F
100
AcDbEntity
  8
0
  6
Continuous
 62
     7
370
    15
100
AcDbCircle
 10
127.5428684081
 20
96.4760838033
 30
0.0
 40
0.7278486623807997
100
AcDbArc
 50
50.7967147643
 51
189.2140369905
  0
LINE
  5
2AC
330
1F
100
AcDbEntity
  8
0
  6
Continuous
 62
     7
370
    15
100
AcDbLine
 10
141.5558024037
 20
89.2161886635
 30
0.0
 11
128.002922431
 21
97.0400997351
 31
0.0
  0
ARC
  5
2AD
330
1F
100
AcDbEntity
  8
0
  6
Continuous
 62
     7
370
    15
100
AcDbCircle
 10
140.1756202034
 20
87.0585124634
 30
0.0
 40
2.561341345953305
100
AcDbArc
 50
2.6054784857
 51
57.39452166
  0
LWPOLYLINE
  5
2AE
330
1F
100
AcDbEntity
  8
0
  6
Continuous
 62
     7
370
    15
100
AcDbPolyline
 90
       10
 70
   128
 43
0.0
 10
140.8486956225
 20
81.6393481521
 10
140.97983004
 20
81.7442864844
 10
141.1152879427
 20
81.9278942735
 10
141.2080868583
 20
82.1598514305
 10
141.2552441532
 20
82.4327026616
 10
141.2552441532
 20
82.7376783035
 10
141.2080868583
 20
83.0649761883
 10
141.1152879427
 20
83.4040766927
 10
140.97983004
 20
83.7440808474
 10
140.8486956225
 20
84.0004237553
  0
LWPOLYLINE
  5
2AF
330
1F
100
AcDbEntity
  8
0
  6
Continuous
 62
     7
370
    15
100
AcDbPolyline
 90
       24
 70
   128
 43
0.0
 10
140.8486956225
 20
85.2695083893
 10
140.9060514853
 20
85.2882377673
 10
141.1112280153
 20
85.3973665044
 10
141.282134553
 20
85.5613381456
 10
141.4143447087
 20
85.7759059117
 10
141.5044343089
 20
86.0355126101
 10
141.5500700802
 20
86.3334345637
 10
141.5500700802
 20
86.6619557505
 10
141.5044343089
 20
87.0125676442
 10
141.4143447087
 20
87.3761895809
 10
141.282134553
 20
87.7434039436
 10
141.1112280153
 20
88.1047000731
 10
140.9060514853
 20
88.4507205894
 10
140.6719189272
 20
88.7725037429
 10
140.4148942514
 20
89.0617155189
 10
140.141634262
 20
89.3108654845
 10
139.859216249
 20
89.5135007863
 10
139.5749546908
 20
89.6643732764
 10
139.2962118123
 20
89.7595754367
 10
139.0302069077
 20
89.7966415812
 10
138.7838293644
 20
89.7746117161
 10
138.5634602311
 20
89.6940564035
 10
138.3748069528
 20
89.5570619836
 10
138.3739799216
 20
89.5562674794
  0
ARC
  5
2B0
330
1F
100
AcDbEntity
  8
0
  6
Continuous
 62
     7
370
    15
100
AcDbCircle
 10
139.1574843921
 20
75.2792295354
 30
0.0
 40
1.948953279188146
100
AcDbArc
 50
340.0579230245
 51
29.8013661707
  0
LINE
  5
2B1
330
1F
100
AcDbEntity
  8
0
  6
Continuous
 62
     7
370
    15
100
AcDbLine
 10
146.2698476116
 20
91.9375490362
 30
0.0
 11
141.5558024037
 21
89.2161886635
 31
0.0
  0
ARC
  5
2B2
330
1F
100
AcDbEntity
  8
0
  6
Continuous
 62
     7
370
    15
100
AcDbCircle
 10
144.8896654113
 20
89.7798728361
 30
0.0
 40
2.561341345953407
100
AcDbArc
 50
2.6054784857
 51
57.39452166
  0
LINE
  5
2B3
330
1F
100
AcDbEntity
  8
0
  6
Continuous
 62
     7
370
    15
100
AcDbLine
 10
147.4483589136
 20
89.8963075899
 30
0.0
 11
142.7343137057
 21
87.1749472171
 31
0.0
  0
LINE
  5
2B4
330
1F
100
AcDbEntity
  8
0
  6
Continuous
 62
     7
370
    15
100
AcDbLine
 10
147.4483589136
 20
74.9263927053
 30
0.0
 11
147.4483589136
 21
89.8963075899
 31
0.0
  0
LINE
  5
2B5
330
1F
100
AcDbEntity
  8
0
  6
Continuous
 62
     7
370
    15
100
AcDbLine
 10
147.4483589136
 20
74.9263927053
 30
0.0
 11
142.7343137057
 21
72.2050323326
 31
0.0
  0
LWPOLYLINE
  5
2B6
330
1F
100
AcDbEntity
  8
0
  6
Continuous
 62
     7
370
    15
100
AcDbPolyline
 90
       30
 70
   128
 43
0.0
 10
145.0913363097
 20
82.5661697081
 10
144.872547487
 20
82.4123883467
 10
144.6639889866
 20
82.2108431057
 10
144.475412772
 20
81.9709580166
 10
144.3156364574
 20
81.7039498395
 10
144.1921310059
 20
81.4223035801
 10
144.1106713949
 20
81.1391887044
 10
144.0750665855
 20
80.8678433493
 10
144.0869814188
 20
80.6209553221
 10
144.1458587706
 20
80.4100688325
 10
144.2489456012
 20
80.2450446984
 10
144.3914216852
 20
80.1335992649
 10
144.5666249991
 20
80.0809435966
 10
144.7663632307
 20
80.089539814
 10
144.9812968423
 20
80.1589859675
 10
145.2013757771
 20
80.2860348323
 10
145.4163093887
 20
80.4647457445
 10
145.6160476203
 20
80.6867623806
 10
145.7912509341
 20
80.9417034893
 10
145.9337270181
 20
81.2176483079
 10
146.0368138488
 20
81.5016939633
 10
146.0956912005
 20
81.7805587963
 10
146.1076060339
 20
82.0412033972
 10
146.0720012244
 20
82.2714403143
 10
145.9905416135
 20
82.4605039251
 10
145.8670361619
 20
82.5995538254
 10
145.7072598474
 20
82.6820881964
 10
145.5186836328
 20
82.7042478225
 10
145.3101251323
 20
82.6649965444
 10
145.0913363097
 20
82.5661697081
  0
LINE
  5
2B7
330
1F
100
AcDbEntity
  8
0
  6
Continuous
 62
     7
370
    15
100
AcDbLine
 10
132.7169676389
 20
99.7614601079
 30
0.0
 11
128.002922431
 21
97.0400997351
 31
0.0
  0
LINE
  5
2B8
330
1F
100
AcDbEntity
  8
0
  6
Continuous
 62
     7
370
    15
100
AcDbLine
 10
146.2698476116
 20
91.9375490362
 30
0.0
 11
132.7169676389
 21
99.7614601079
 31
0.0
  0
ARC
  5
2B9
330
1F
100
AcDbEntity
  8
0
  6
Continuous
 62
     7
370
    15
100
AcDbCircle
 10
146.6316890764
 20
74.836248143
 30
0.0
 40
0.8216298832924872
100
AcDbArc
 50
305.0133328731
 51
6.2988475203
  0
ARC
  5
2BA
330
1F
100
AcDbEntity
  8
0
  6
Continuous
 62
     7
370
    15
100
AcDbCircle
 10
132.2287675475
 20
99.079991226
 30
0.0
 40
0.8382953931696651
100
AcDbArc
 50
54.3824225248
 51
114.3071190461
  0
LINE
  5
2BB
330
1F
100
AcDbEntity
  8
0
  6
Continuous
 62
     7
370
    15
100
AcDbLine
 10
136.1346504146
 20
86.766964328
 30
0.0
 11
123.7602817439
 21
93.9105353065
 31
0.0
  0
ARC
  5
2BC
330
1F
100
AcDbEntity
  8
0
  6
Continuous
 62
     7
370
    15
100
AcDbCircle
 10
134.7544682143
 20
84.6092881279
 30
0.0
 40
2.561341345953524
100
AcDbArc
 50
2.6054784857
 51
57.39452166
  0
LINE
  5
2BD
330
1F
100
AcDbEntity
  8
0
  6
Continuous
 62
     7
370
    15
100
AcDbLine
 10
137.3131617166
 20
84.7257228817
 30
0.0
 11
137.3131617166
 21
70.4362586737
 31
0.0
  0
ARC
  5
2BE
330
1F
100
AcDbEntity
  8
0
  6
Continuous
 62
     7
370
    15
100
AcDbCircle
 10
136.5947044376
 20
70.3197133455
 30
0.0
 40
0.7278486623808222
100
AcDbArc
 50
230.7967147643
 51
9.2140369905
  0
LINE
  5
2BF
330
1F
100
AcDbEntity
  8
0
  6
Continuous
 62
     7
370
    15
100
AcDbLine
 10
136.1346504146
 20
69.7556974137
 30
0.0
 11
123.7602817439
 21
76.8992683922
 31
0.0
  0
ARC
  5
2C0
330
1F
100
AcDbEntity
  8
0
  6
Continuous
 62
     7
370
    15
100
AcDbCircle
 10
125.1404639442
 20
79.0569445923
 30
0.0
 40
2.561341345953468
100
AcDbArc
 50
182.6054784857
 51
237.39452166
  0
LINE
  5
2C1
330
1F
100
AcDbEntity
  8
0
  6
Continuous
 62
     7
370
    15
100
AcDbLine
 10
122.5817704419
 20
93.2299740465
 30
0.0
 11
122.5817704419
 21
78.9405098385
 31
0.0
  0
ARC
  5
2C2
330
1F
100
AcDbEntity
  8
0
  6
Continuous
 62
     7
370
    15
100
AcDbCircle
 10
123.3002277209
 20
93.3465193747
 30
0.0
 40
0.7278486623807879
100
AcDbArc
 50
50.7967147643
 51
189.2140369905
  0
LWPOLYLINE
  5
2C3
330
1F
100
AcDbEntity
  8
0
  6
Continuous
 62
     7
370
    15
100
AcDbPolyline
 90
       41
 70
   128
 43
0.0
 10
128.0323852135
 20
82.9386690115
 10
128.0559630369
 20
82.5791085267
 10
128.1261159427
 20
82.2011792389
 10
128.2411165336
 20
81.8141870216
 10
128.3981331133
 20
81.4276609073
 10
128.5932994126
 20
81.051118452
 10
128.8218097894
 20
80.6938313804
 10
129.07803756
 20
80.3645972861
 10
129.3556735461
 20
80.0715230051
 10
129.6478814285
 20
79.821824999
 10
129.9474660793
 20
79.6216516612
 10
130.24705073
 20
79.4759319238
 10
130.5392586124
 20
79.3882538902
 10
130.8168945985
 20
79.3607764847
 10
131.0731223691
 20
79.3941762921
 10
131.3016327459
 20
79.4876308984
 10
131.4967990452
 20
79.638839141
 10
131.653815625
 20
79.844077771
 10
131.7688162158
 20
80.0982931324
 10
131.8389691216
 20
80.3952255992
 10
131.862546945
 20
80.7275637087
 10
131.8389691216
 20
81.0871241935
 10
131.7688162158
 20
81.4650534812
 10
131.653815625
 20
81.8520456986
 10
131.4967990452
 20
82.2385718129
 10
131.3016327459
 20
82.6151142682
 10
131.0731223691
 20
82.9724013398
 10
130.8168945985
 20
83.3016354341
 10
130.5392586124
 20
83.594709715
 10
130.24705073
 20
83.8444077212
 10
129.9474660793
 20
84.0445810589
 10
129.6478814285
 20
84.1903007964
 10
129.3556735461
 20
84.27797883
 10
129.07803756
 20
84.3054562355
 10
128.8218097894
 20
84.2720564281
 10
128.5932994126
 20
84.1786018218
 10
128.3981331133
 20
84.0273935792
 10
128.2411165336
 20
83.8221549491
 10
128.1261159427
 20
83.5679395877
 10
128.0559630369
 20
83.2710071209
 10
128.0323852135
 20
82.9386690115
  0
LINE
  5
2C4
330
1F
100
AcDbEntity
  8
0
  6
Continuous
 62
     7
370
    15
100
AcDbLine
 10
139.6701843206
 20
88.8079846076
 30
0.0
 11
136.1346504146
 21
86.766964328
 31
0.0
  0
ARC
  5
2C5
330
1F
100
AcDbEntity
  8
0
  6
Continuous
 62
     7
370
    15
100
AcDbCircle
 10
138.2900021203
 20
86.6503084075
 30
0.0
 40
2.561341345953641
100
AcDbArc
 50
2.6054784857
 51
57.39452166
  0
LINE
  5
2C6
330
1F
100
AcDbEntity
  8
0
  6
Continuous
 62
     7
370
    15
100
AcDbLine
 10
140.8486956225
 20
86.7667431612
 30
0.0
 11
137.3131617166
 21
84.7257228817
 31
0.0
  0
LINE
  5
2C7
330
1F
100
AcDbEntity
  8
0
  6
Continuous
 62
     7
370
    15
100
AcDbLine
 10
140.8486956225
 20
86.7667431612
 30
0.0
 11
140.8486956225
 21
72.4772789532
 31
0.0
  0
LINE
  5
2C8
330
1F
100
AcDbEntity
  8
0
  6
Continuous
 62
     7
370
    15
100
AcDbLine
 10
140.8486956225
 20
72.4772789532
 30
0.0
 11
137.3131617166
 21
70.4362586737
 31
0.0
  0
LWPOLYLINE
  5
2C9
330
1F
100
AcDbEntity
  8
0
  6
Continuous
 62
     7
370
    15
100
AcDbPolyline
 90
       20
 70
   128
 43
0.0
 10
139.0809286696
 20
80.8129656163
 10
138.9374304218
 20
80.7024743202
 10
138.8094824357
 20
80.5486534287
 10
138.710949861
 20
80.3681718221
 10
138.652510231
 20
80.180587483
 10
138.6404963864
 20
80.0062280852
 10
138.6762102138
 20
79.8639881749
 10
138.7557815656
 20
79.7692816534
 10
138.8705876514
 20
79.732371442
 10
139.0081874502
 20
79.7572573346
 10
139.1536698889
 20
79.8412425588
 10
139.2912696878
 20
79.9752260123
 10
139.4060757735
 20
80.1446885089
 10
139.4856471254
 20
80.3312661577
 10
139.5213609527
 20
80.5147403753
 10
139.5093471082
 20
80.6752288835
 10
139.4509074782
 20
80.795340262
 10
139.3523749035
 20
80.8620585794
 10
139.2244269174
 20
80.8681538706
 10
139.0809286696
 20
80.8129656163
  0
LINE
  5
2CA
330
1F
100
AcDbEntity
  8
0
  6
Continuous
 62
     7
370
    15
100
AcDbLine
 10
127.2958156498
 20
95.951555586
 30
0.0
 11
123.7602817439
 21
93.9105353065
 31
0.0
  0
LINE
  5
2CB
330
1F
100
AcDbEntity
  8
0
  6
Continuous
 62
     7
370
    15
100
AcDbLine
 10
139.6701843206
 20
88.8079846076
 30
0.0
 11
127.2958156498
 21
95.951555586
 31
0.0
  0
LWPOLYLINE
  5
2CC
330
1F
100
AcDbEntity
  8
0
  6
Continuous
 62
     7
370
    15
100
AcDbPolyline
 90
       26
 70
   128
 43
0.0
 10
130.9786634685
 20
91.7844725152
 10
130.8186267541
 20
91.6653676177
 10
130.7149271096
 20
91.52702885
 10
130.6740803652
 20
91.3781485458
 10
130.6986530719
 20
91.2280814021
 10
130.7871012362
 20
91.0862566894
 10
130.9338673347
 20
90.9615857761
 10
131.1297295136
 20
90.8619021941
 10
131.362381032
 20
90.7934694295
 10
131.6172035392
 20
90.7605873645
 10
131.8781856
 20
90.7653221003
 10
132.1289287516
 20
90.8073761361
 10
132.3536778798
 20
90.8841070619
 10
132.5383111701
 20
90.9906935917
 10
132.671227434
 20
91.1204385016
 10
132.7440750537
 20
91.265189442
 10
132.7522767453
 20
91.4158511788
 10
132.6953171665
 20
91.5629570809
 10
132.5767752971
 20
91.6972639437
 10
132.4040995586
 20
91.8103327728
 10
132.1881398028
 20
91.8950590381
 10
131.9424655753
 20
91.9461190765
 10
131.6825134915
 20
91.9603045981
 10
131.4246172968
 20
91.9367242744
 10
131.1849815575
 20
91.876859744
 10
130.9786634685
 20
91.7844725152
  0
ARC
  5
2CD
330
1F
100
AcDbEntity
  8
0
  6
Continuous
 62
     7
370
    15
100
AcDbCircle
 10
140.0558863627
 20
72.3763389056
 30
0.0
 40
0.7992092440446208
100
AcDbArc
 50
304.0563508324
 51
7.255829561
  0
ARC
  5
2CE
330
1F
100
AcDbEntity
  8
0
  6
Continuous
 62
     7
370
    15
100
AcDbCircle
 10
126.8076155584
 20
95.2700867041
 30
0.0
 40
0.8382953931696838
100
AcDbArc
 50
54.3824225248
 51
114.3071190461
  0
LWPOLYLINE
  5
2CF
330
1F
100
AcDbEntity
  8
0
  6
Continuous
 62
     8
370
    15
100
AcDbPolyline
 90
       22
 70
   128
 43
0.0
 10
146.0390862058
 20
95.1435973844
 10
146.3732889086
 20
95.0862286519
 10
146.7201567869
 20
94.9689001513
 10
147.0734999752
 20
94.7937056123
 10
147.4270130558
 20
94.5637713857
 10
147.7743875795
 20
94.2832006533
 10
148.1094246397
 20
93.9570002064
 10
148.4261454921
 20
93.5909910997
 10
148.7188982456
 20
93.1917047743
 10
148.9824587204
 20
92.7662665043
 10
149.2121236735
 20
92.3222682456
 10
149.4037947285
 20
91.8676331576
 10
149.5540515107
 20
91.4104742144
 10
149.6602126844
 20
90.958949428
 10
149.720383801
 20
90.5211162689
 10
149.7334911053
 20
90.1047878803
 10
149.6993006973
 20
89.7173936522
 10
149.6184227056
 20
89.3658466436
 10
149.4923003998
 20
89.0564202193
 10
149.3231844356
 20
88.7946361012
 10
149.1140926912
 20
88.5851658331
 10
148.9464578623
 20
88.4720107671
  0
ARC
  5
2D0
330
1F
100
AcDbEntity
  8
0
  6
Continuous
 62
     8
370
    15
100
AcDbCircle
 10
145.8914274874
 20
93.7466385022
 30
0.0
 40
1.40474097812517
100
AcDbArc
 50
83.9662335817
 51
118.7938415243
  0
ARC
  5
2D1
330
1F
100
AcDbEntity
  8
0
  6
Continuous
 62
     8
370
    15
100
AcDbCircle
 10
145.6192364904
 20
92.8867457163
 30
0.0
 40
1.158951036270572
100
AcDbArc
 50
86.9047159825
 51
175.383905135
  0
LWPOLYLINE
  5
2D2
330
1F
100
AcDbEntity
  8
0
  6
Continuous
 62
     8
370
    15
100
AcDbPolyline
 90
       22
 70
   128
 43
0.0
 10
147.4483589136
 20
88.7238472469
 10
147.5792051564
 20
88.7343685281
 10
147.8284497834
 20
88.7999143446
 10
148.0478797524
 20
88.9232297389
 10
148.2325933606
 20
89.1015600487
 10
148.3784644112
 20
89.3309216698
 10
148.4822343859
 20
89.6061910423
 10
148.541585235
 20
89.9212191035
 10
148.5551911585
 20
90.268968647
 10
148.5227482228
 20
90.6416715227
 10
148.4449811492
 20
91.0310021641
 10
148.3236271258
 20
91.4282635682
 10
148.1613970008
 20
91.8245815715
 10
147.9619147273
 20
92.2111030848
 10
147.7296364095
 20
92.5791938563
 10
147.4697507612
 20
92.9206313462
 10
147.1880631984
 20
93.2277884053
 10
146.8908661558
 20
93.4938036525
 10
146.5847985242
 20
93.7127347466
 10
146.2766973487
 20
93.8796911289
 10
145.9734451004
 20
93.9909432697
 10
145.6818159335
 20
94.0440059799
  0
LWPOLYLINE
  5
2D3
330
1F
100
AcDbEntity
  8
0
  6
Continuous
 62
     8
370
    15
100
AcDbPolyline
 90
       26
 70
   128
 43
0.0
 10
152.4934019396
 20
90.5195383194
 10
152.5312296948
 20
90.5422752079
 10
152.7589522377
 20
90.7241256442
 10
152.948479329
 20
90.9602801991
 10
153.0964288532
 20
91.246524689
 10
153.2001606476
 20
91.5777510741
 10
153.2578236159
 20
91.9480486118
 10
153.268388761
 20
92.3508093338
 10
153.2316675476
 20
92.7788459653
 10
153.1483152668
 20
93.2245201827
 10
153.0198193418
 20
93.6798789188
 10
152.8484727855
 20
94.1367962864
 10
152.6373332814
 20
94.5871185841
 10
152.3901686187
 20
95.0228097998
 10
152.1113894569
 20
95.4360950135
 10
151.8059706166
 20
95.8195991408
 10
151.4793623043
 20
96.1664785415
 10
151.137392853
 20
96.4705431443
 10
150.7861647158
 20
96.7263669093
 10
150.431945567
 20
96.9293846554
 10
150.0810564557
 20
97.0759735259
 10
149.7397590065
 20
97.1635176391
 10
149.4141436804
 20
97.1904547682
 10
149.1100210907
 20
97.1563042195
 10
148.8328183121
 20
97.0616754104
 10
148.7437066922
 20
97.0149047873
  0
ENDSEC
  0
SECTION
  2
OBJECTS
  0
DICTIONARY
  5
C
330
0
100
AcDbDictionary
281
     1
  3
ACAD_GROUP
350
D
  3
ACAD_LAYOUT
350
1A
  3
ACAD_MLINESTYLE
350
17
  3
ACAD_PLOTSETTINGS
350
19
  3
ACAD_PLOTSTYLENAME
350
E
  3
ACAD_SCALELIST
350
47
  0
DICTIONARY
  5
D
102
{ACAD_REACTORS
330
C
102
}
330
C
100
AcDbDictionary
281
     1
  0
DICTIONARY
  5
1A
102
{ACAD_REACTORS
330
C
102
}
330
C
100
AcDbDictionary
281
     1
  3
Layout1
350
1E
  3
Layout2
350
26
  3
Model
350
22
  0
DICTIONARY
  5
17
102
{ACAD_REACTORS
330
C
102
}
330
C
100
AcDbDictionary
281
     1
  3
Standard
350
18
  0
DICTIONARY
  5
19
102
{ACAD_REACTORS
330
C
102
}
330
C
100
AcDbDictionary
281
     1
  0
ACDBDICTIONARYWDFLT
  5
E
102
{ACAD_REACTORS
330
C
102
}
330
C
100
AcDbDictionary
281
     1
  3
Normal
350
F
100
AcDbDictionaryWithDefault
340
F
  0
DICTIONARY
  5
47
102
{ACAD_REACTORS
330
C
102
}
330
C
100
AcDbDictionary
281
     1
  3
A0
350
48
  3
A1
350
49
  3
A2
350
4A
  3
A3
350
4B
  3
A4
350
4C
  3
A5
350
4D
  3
A6
350
4E
  3
A7
350
4F
  3
A8
350
50
  3
A9
350
51
  3
B0
350
52
  3
B1
350
53
  3
B2
350
54
  3
B3
350
55
  3
B4
350
56
  3
B5
350
57
  3
B6
350
58
  3
B7
350
59
  3
B8
350
5A
  3
B9
350
5B
  3
C0
350
5C
  3
C1
350
5D
  3
C2
350
5E
  3
C3
350
5F
  3
C4
350
60
  3
C5
350
61
  3
C6
350
62
  3
C7
350
63
  3
C8
350
64
  3
C9
350
65
  3
D0
350
66
  3
D1
350
67
  3
D2
350
68
  0
LAYOUT
  5
1E
102
{ACAD_REACTORS
330
1A
102
}
330
1A
100
AcDbPlotSettings
  1

  2
none_device
  4

  6

 40
0.0
 41
0.0
 42
0.0
 43
0.0
 44
0.0
 45
0.0
 46
0.0
 47
0.0
 48
0.0
 49
0.0
140
0.0
141
0.0
142
1.0
143
1.0
 70
   688
 72
     1
 73
     0
 74
     5
  7

 75
    16
147
1.0
148
0.0
149
0.0
100
AcDbLayout
  1
Layout1
 70
     1
 71
     1
 10
0.0
 20
0.0
 11
420.0
 21
297.0
 12
0.0
 22
0.0
 32
0.0
 14
1.0000000000E+20
 24
1.0000000000E+20
 34
1.0000000000E+20
 15
-1.0000000000E+20
 25
-1.0000000000E+20
 35
-1.0000000000E+20
146
0.0
 13
0.0
 23
0.0
 33
0.0
 16
1.0
 26
0.0
 36
0.0
 17
0.0
 27
1.0
 37
0.0
 76
     0
330
1B
  0
LAYOUT
  5
26
102
{ACAD_REACTORS
330
1A
102
}
330
1A
100
AcDbPlotSettings
  1

  2
none_device
  4

  6

 40
0.0
 41
0.0
 42
0.0
 43
0.0
 44
0.0
 45
0.0
 46
0.0
 47
0.0
 48
0.0
 49
0.0
140
0.0
141
0.0
142
1.0
143
1.0
 70
   688
 72
     1
 73
     0
 74
     5
  7

 75
    16
147
1.0
148
0.0
149
0.0
100
AcDbLayout
  1
Layout2
 70
     1
 71
     2
 10
0.0
 20
0.0
 11
0.0
 21
0.0
 12
0.0
 22
0.0
 32
0.0
 14
0.0
 24
0.0
 34
0.0
 15
0.0
 25
0.0
 35
0.0
146
0.0
 13
0.0
 23
0.0
 33
0.0
 16
1.0
 26
0.0
 36
0.0
 17
0.0
 27
1.0
 37
0.0
 76
     0
330
23
  0
LAYOUT
  5
22
102
{ACAD_REACTORS
330
1A
102
}
330
1A
100
AcDbPlotSettings
  1

  2
none_device
  4
Letter_(8.50_x_11.00_Inches)
  6

 40
6.35
 41
6.35
 42
6.35000508
 43
6.35000508
 44
215.9
 45
279.4
 46
0.0
 47
0.0
 48
0.0
 49
0.0
140
0.0
141
0.0
142
1.0
143
1.0
 70
  1712
 72
     1
 73
     0
 74
     0
  7

 75
     0
147
1.0
148
0.0
149
0.0
100
AcDbLayout
  1
Model
 70
     1
 71
     0
 10
0.0
 20
0.0
 11
165.0
 21
116.6666666667
 12
0.0
 22
0.0
 32
0.0
 14
0.0
 24
0.0
 34
0.0
 15
165.0
 25
116.6666666667
 35
0.0
146
0.0
 13
0.0
 23
0.0
 33
0.0
 16
1.0
 26
0.0
 36
0.0
 17
0.0
 27
1.0
 37
0.0
 76
     0
330
1F
331
29
  0
MLINESTYLE
  5
18
102
{ACAD_REACTORS
330
17
102
}
330
17
100
AcDbMlineStyle
  2
Standard
 70
     0
  3

 62
   256
 51
90.0
 52
90.0
 71
     2
 49
0.5
 62
   256
  6
BYLAYER
 49
-0.5
 62
   256
  6
BYLAYER
  0
ACDBPLACEHOLDER
  5
F
102
{ACAD_REACTORS
330
E
102
}
330
E
  0
SCALE
  5
48
102
{ACAD_REACTORS
330
47
102
}
330
47
100
AcDbScale
 70
     0
300
1:1
140
1.0
141
1.0
290
     1
  0
SCALE
  5
49
102
{ACAD_REACTORS
330
47
102
}
330
47
100
AcDbScale
 70
     0
300
1:2
140
1.0
141
2.0
290
     0
  0
SCALE
  5
4A
102
{ACAD_REACTORS
330
47
102
}
330
47
100
AcDbScale
 70
     0
300
1:4
140
1.0
141
4.0
290
     0
  0
SCALE
  5
4B
102
{ACAD_REACTORS
330
47
102
}
330
47
100
AcDbScale
 70
     0
300
1:5
140
1.0
141
5.0
290
     0
  0
SCALE
  5
4C
102
{ACAD_REACTORS
330
47
102
}
330
47
100
AcDbScale
 70
     0
300
1:8
140
1.0
141
8.0
290
     0
  0
SCALE
  5
4D
102
{ACAD_REACTORS
330
47
102
}
330
47
100
AcDbScale
 70
     0
300
1:10
140
1.0
141
10.0
290
     0
  0
SCALE
  5
4E
102
{ACAD_REACTORS
330
47
102
}
330
47
100
AcDbScale
 70
     0
300
1:16
140
1.0
141
16.0
290
     0
  0
SCALE
  5
4F
102
{ACAD_REACTORS
330
47
102
}
330
47
100
AcDbScale
 70
     0
300
1:20
140
1.0
141
20.0
290
     0
  0
SCALE
  5
50
102
{ACAD_REACTORS
330
47
102
}
330
47
100
AcDbScale
 70
     0
300
1:30
140
1.0
141
30.0
290
     0
  0
SCALE
  5
51
102
{ACAD_REACTORS
330
47
102
}
330
47
100
AcDbScale
 70
     0
300
1:40
140
1.0
141
40.0
290
     0
  0
SCALE
  5
52
102
{ACAD_REACTORS
330
47
102
}
330
47
100
AcDbScale
 70
     0
300
1:50
140
1.0
141
50.0
290
     0
  0
SCALE
  5
53
102
{ACAD_REACTORS
330
47
102
}
330
47
100
AcDbScale
 70
     0
300
1:100
140
1.0
141
100.0
290
     0
  0
SCALE
  5
54
102
{ACAD_REACTORS
330
47
102
}
330
47
100
AcDbScale
 70
     0
300
2:1
140
2.0
141
1.0
290
     0
  0
SCALE
  5
55
102
{ACAD_REACTORS
330
47
102
}
330
47
100
AcDbScale
 70
     0
300
4:1
140
4.0
141
1.0
290
     0
  0
SCALE
  5
56
102
{ACAD_REACTORS
330
47
102
}
330
47
100
AcDbScale
 70
     0
300
8:1
140
8.0
141
1.0
290
     0
  0
SCALE
  5
57
102
{ACAD_REACTORS
330
47
102
}
330
47
100
AcDbScale
 70
     0
300
10:1
140
10.0
141
1.0
290
     0
  0
SCALE
  5
58
102
{ACAD_REACTORS
330
47
102
}
330
47
100
AcDbScale
 70
     0
300
100:1
140
100.0
141
1.0
290
     0
  0
SCALE
  5
59
102
{ACAD_REACTORS
330
47
102
}
330
47
100
AcDbScale
 70
     0
300
1/128" = 1'-0"
140
0.0078125
141
12.0
290
     0
  0
SCALE
  5
5A
102
{ACAD_REACTORS
330
47
102
}
330
47
100
AcDbScale
 70
     0
300
1/64" = 1'-0"
140
0.015625
141
12.0
290
     0
  0
SCALE
  5
5B
102
{ACAD_REACTORS
330
47
102
}
330
47
100
AcDbScale
 70
     0
300
1/32" = 1'-0"
140
0.03125
141
12.0
290
     0
  0
SCALE
  5
5C
102
{ACAD_REACTORS
330
47
102
}
330
47
100
AcDbScale
 70
     0
300
1/16" = 1'-0"
140
0.0625
141
12.0
290
     0
  0
SCALE
  5
5D
102
{ACAD_REACTORS
330
47
102
}
330
47
100
AcDbScale
 70
     0
300
3/32" = 1'-0"
140
0.09375
141
12.0
290
     0
  0
SCALE
  5
5E
102
{ACAD_REACTORS
330
47
102
}
330
47
100
AcDbScale
 70
     0
300
1/8" = 1'-0"
140
0.125
141
12.0
290
     0
  0
SCALE
  5
5F
102
{ACAD_REACTORS
330
47
102
}
330
47
100
AcDbScale
 70
     0
300
3/16" = 1'-0"
140
0.1875
141
12.0
290
     0
  0
SCALE
  5
60
102
{ACAD_REACTORS
330
47
102
}
330
47
100
AcDbScale
 70
     0
300
1/4" = 1'-0"
140
0.25
141
12.0
290
     0
  0
SCALE
  5
61
102
{ACAD_REACTORS
330
47
102
}
330
47
100
AcDbScale
 70
     0
300
3/8" = 1'-0"
140
0.375
141
12.0
290
     0
  0
SCALE
  5
62
102
{ACAD_REACTORS
330
47
102
}
330
47
100
AcDbScale
 70
     0
300
1/2" = 1'-0"
140
0.5
141
12.0
290
     0
  0
SCALE
  5
63
102
{ACAD_REACTORS
330
47
102
}
330
47
100
AcDbScale
 70
     0
300
3/4" = 1'-0"
140
0.75
141
12.0
290
     0
  0
SCALE
  5
64
102
{ACAD_REACTORS
330
47
102
}
330
47
100
AcDbScale
 70
     0
300
1" = 1'-0"
140
1.0
141
12.0
290
     0
  0
SCALE
  5
65
102
{ACAD_REACTORS
330
47
102
}
330
47
100
AcDbScale
 70
     0
300
1-1/2" = 1'-0"
140
1.5
141
12.0
290
     0
  0
SCALE
  5
66
102
{ACAD_REACTORS
330
47
102
}
330
47
100
AcDbScale
 70
     0
300
3" = 1'-0"
140
3.0
141
12.0
290
     0
  0
SCALE
  5
67
102
{ACAD_REACTORS
330
47
102
}
330
47
100
AcDbScale
 70
     0
300
6" = 1'-0"
140
6.0
141
12.0
290
     0
  0
SCALE
  5
68
102
{ACAD_REACTORS
330
47
102
}
330
47
100
AcDbScale
 70
     0
300
1'-0" = 1'-0"
140
12.0
141
12.0
290
     0
  0
ENDSEC
  0
EOF
