  0
SECTION
  2
HEADER
  9
$ACADVER
  1
AC1015
  9
$ACADMAINTVER
 70
     6
  9
$DWGCODEPAGE
  3
ANSI_950
  9
$INSBASE
 10
0.0
 20
0.0
 30
0.0
  9
$EXTMIN
 10
0.0
 20
0.0
 30
0.0
  9
$EXTMAX
 10
228.4615384615
 20
161.5384615385
 30
0.0
  9
$LIMMIN
 10
0.0
 20
0.0
  9
$LIMMAX
 10
228.4615384615
 20
161.5384615385
  9
$ORTHOMODE
 70
     0
  9
$REGENMODE
 70
     1
  9
$FILLMODE
 70
     1
  9
$QTEXTMODE
 70
     0
  9
$MIRRTEXT
 70
     1
  9
$LTSCALE
 40
0.7692307692
  9
$ATTMODE
 70
     1
  9
$TEXTSIZE
 40
1.9230769231
  9
$TRACEWID
 40
1.0
  9
$TEXTSTYLE
  7
Standard
  9
$CLAYER
  8
0
  9
$CELTYPE
  6
ByLayer
  9
$CECOLOR
 62
   256
  9
$CELTSCALE
 40
1.0
  9
$DISPSILH
 70
     0
  9
$DIMSCALE
 40
1.0
  9
$DIMASZ
 40
1.5384615385
  9
$DIMEXO
 40
0.7692307692
  9
$DIMDLI
 40
3.75
  9
$DIMRND
 40
0.0
  9
$DIMDLE
 40
0.0
  9
$DIMEXE
 40
0.7692307692
  9
$DIMTP
 40
0.0
  9
$DIMTM
 40
0.0
  9
$DIMTXT
 40
1.9230769231
  9
$DIMCEN
 40
2.5
  9
$DIMTSZ
 40
0.0
  9
$DIMTOL
 70
     0
  9
$DIMLIM
 70
     0
  9
$DIMTIH
 70
     1
  9
$DIMTOH
 70
     1
  9
$DIMSE1
 70
     0
  9
$DIMSE2
 70
     0
  9
$DIMTAD
 70
     1
  9
$DIMZIN
 70
     0
  9
$DIMBLK
  1

  9
$DIMASO
 70
     1
  9
$DIMSHO
 70
     1
  9
$DIMPOST
  1

  9
$DIMAPOST
  1

  9
$DIMALT
 70
     0
  9
$DIMALTD
 70
     3
  9
$DIMALTF
 40
0.0393700787
  9
$DIMLFAC
 40
1.0
  9
$DIMTOFL
 70
     1
  9
$DIMTVP
 40
0.0
  9
$DIMTIX
 70
     0
  9
$DIMSOXD
 70
     0
  9
$DIMSAH
 70
     0
  9
$DIMBLK1
  1

  9
$DIMBLK2
  1

  9
$DIMSTYLE
  2
ISO-25
  9
$DIMCLRD
 70
     0
  9
$DIMCLRE
 70
     0
  9
$DIMCLRT
 70
     0
  9
$DIMTFAC
 40
1.0
  9
$DIMGAP
 40
0.7692307692
  9
$DIMJUST
 70
     0
  9
$DIMSD1
 70
     0
  9
$DIMSD2
 70
     0
  9
$DIMTOLJ
 70
     0
  9
$DIMTZIN
 70
     0
  9
$DIMALTZ
 70
     0
  9
$DIMALTTZ
 70
     0
  9
$DIMUPT
 70
     0
  9
$DIMDEC
 70
     2
  9
$DIMTDEC
 70
     2
  9
$DIMALTU
 70
     2
  9
$DIMALTTD
 70
     3
  9
$DIMTXSTY
  7
Standard
  9
$DIMAUNIT
 70
     0
  9
$DIMADEC
 70
     1
  9
$DIMALTRND
 40
0.0
  9
$DIMAZIN
 70
     0
  9
$DIMDSEP
 70
    44
  9
$DIMATFIT
 70
     3
  9
$DIMFRAC
 70
     0
  9
$DIMLDRBLK
  1

  9
$DIMLUNIT
 70
     2
  9
$DIMLWD
 70
    -2
  9
$DIMLWE
 70
    -2
  9
$DIMTMOVE
 70
     0
  9
$LUNITS
 70
     2
  9
$LUPREC
 70
     2
  9
$SKETCHINC
 40
1.0
  9
$FILLETRAD
 40
10.0
  9
$AUNITS
 70
     0
  9
$AUPREC
 70
     1
  9
$MENU
  1
.
  9
$ELEVATION
 40
0.0
  9
$PELEVATION
 40
0.0
  9
$THICKNESS
 40
0.0
  9
$LIMCHECK
 70
     0
  9
$CHAMFERA
 40
0.0
  9
$CHAMFERB
 40
0.0
  9
$CHAMFERC
 40
0.0
  9
$CHAMFERD
 40
0.0
  9
$SKPOLY
 70
     0
  9
$TDCREATE
 40
2458577.509840197
  9
$TDUCREATE
 40
2458577.176506863
  9
$TDUPDATE
 40
2458577.509844711
  9
$TDUUPDATE
 40
2458577.176511377
  9
$TDINDWG
 40
0.0000000116
  9
$TDUSRTIMER
 40
0.0000000116
  9
$USRTIMER
 70
     1
  9
$ANGBASE
 50
0.0
  9
$ANGDIR
 70
     0
  9
$PDMODE
 70
     0
  9
$PDSIZE
 40
-1.0
  9
$PLINEWID
 40
0.0
  9
$SPLFRAME
 70
     0
  9
$SPLINETYPE
 70
     6
  9
$SPLINESEGS
 70
     8
  9
$HANDSEED
  5
199
  9
$SURFTAB1
 70
     6
  9
$SURFTAB2
 70
     6
  9
$SURFTYPE
 70
     6
  9
$SURFU
 70
     6
  9
$SURFV
 70
     6
  9
$UCSBASE
  2

  9
$UCSNAME
  2

  9
$UCSORG
 10
0.0
 20
0.0
 30
0.0
  9
$UCSXDIR
 10
1.0
 20
0.0
 30
0.0
  9
$UCSYDIR
 10
0.0
 20
1.0
 30
0.0
  9
$UCSORTHOREF
  2

  9
$UCSORTHOVIEW
 70
     0
  9
$UCSORGTOP
 10
0.0
 20
0.0
 30
0.0
  9
$UCSORGBOTTOM
 10
0.0
 20
0.0
 30
0.0
  9
$UCSORGLEFT
 10
0.0
 20
0.0
 30
0.0
  9
$UCSORGRIGHT
 10
0.0
 20
0.0
 30
0.0
  9
$UCSORGFRONT
 10
0.0
 20
0.0
 30
0.0
  9
$UCSORGBACK
 10
0.0
 20
0.0
 30
0.0
  9
$PUCSBASE
  2

  9
$PUCSNAME
  2

  9
$PUCSORG
 10
0.0
 20
0.0
 30
0.0
  9
$PUCSXDIR
 10
1.0
 20
0.0
 30
0.0
  9
$PUCSYDIR
 10
0.0
 20
1.0
 30
0.0
  9
$PUCSORTHOREF
  2

  9
$PUCSORTHOVIEW
 70
     0
  9
$PUCSORGTOP
 10
0.0
 20
0.0
 30
0.0
  9
$PUCSORGBOTTOM
 10
0.0
 20
0.0
 30
0.0
  9
$PUCSORGLEFT
 10
0.0
 20
0.0
 30
0.0
  9
$PUCSORGRIGHT
 10
0.0
 20
0.0
 30
0.0
  9
$PUCSORGFRONT
 10
0.0
 20
0.0
 30
0.0
  9
$PUCSORGBACK
 10
0.0
 20
0.0
 30
0.0
  9
$USERI1
 70
     0
  9
$USERI2
 70
     0
  9
$USERI3
 70
     0
  9
$USERI4
 70
     0
  9
$USERI5
 70
     0
  9
$USERR1
 40
0.0
  9
$USERR2
 40
0.0
  9
$USERR3
 40
0.0
  9
$USERR4
 40
0.0
  9
$USERR5
 40
0.0
  9
$WORLDVIEW
 70
     1
  9
$SHADEDGE
 70
     3
  9
$SHADEDIF
 70
    70
  9
$TILEMODE
 70
     1
  9
$MAXACTVP
 70
    64
  9
$PINSBASE
 10
0.0
 20
0.0
 30
0.0
  9
$PLIMCHECK
 70
     0
  9
$PEXTMIN
 10
1.0000000000E+20
 20
1.0000000000E+20
 30
1.0000000000E+20
  9
$PEXTMAX
 10
-1.0000000000E+20
 20
-1.0000000000E+20
 30
-1.0000000000E+20
  9
$PLIMMIN
 10
0.0
 20
0.0
  9
$PLIMMAX
 10
420.0
 20
297.0
  9
$UNITMODE
 70
     0
  9
$VISRETAIN
 70
     1
  9
$PLINEGEN
 70
     0
  9
$PSLTSCALE
 70
     1
  9
$TREEDEPTH
 70
  3020
  9
$CMLSTYLE
  2
Standard
  9
$CMLJUST
 70
     0
  9
$CMLSCALE
 40
20.0
  9
$PROXYGRAPHICS
 70
     1
  9
$MEASUREMENT
 70
     1
  9
$CELWEIGHT
370
    -1
  9
$ENDCAPS
280
     0
  9
$JOINSTYLE
280
     0
  9
$LWDISPLAY
290
     1
  9
$INSUNITS
 70
     4
  9
$HYPERLINKBASE
  1

  9
$STYLESHEET
  1

  9
$XEDIT
290
     1
  9
$CEPSNTYPE
380
     0
  9
$PSTYLEMODE
290
     1
  9
$FINGERPRINTGUID
  2
{4945131D-B3A9-4EA4-86E6-59096B8A0D88}
  9
$VERSIONGUID
  2
{FAEB1C32-E019-11D5-929B-00C0DF256EC4}
  9
$EXTNAMES
290
     1
  9
$PSVPSCALE
 40
0.0
  9
$OLESTARTUP
290
     0
  0
ENDSEC
  0
SECTION
  2
CLASSES
  0
CLASS
  1
ACDBDICTIONARYWDFLT
  2
AcDbDictionaryWithDefault
  3
ObjectDBX Classes
 90
        0
280
     0
281
     0
  0
CLASS
  1
VISUALSTYLE
  2
AcDbVisualStyle
  3
ObjectDBX Classes
 90
     4095
280
     0
281
     0
  0
CLASS
  1
MATERIAL
  2
AcDbMaterial
  3
ObjectDBX Classes
 90
     1153
280
     0
281
     0
  0
CLASS
  1
SCALE
  2
AcDbScale
  3
ObjectDBX Classes
 90
     1153
280
     0
281
     0
  0
CLASS
  1
TABLESTYLE
  2
AcDbTableStyle
  3
ObjectDBX Classes
 90
     4095
280
     0
281
     0
  0
CLASS
  1
MLEADERSTYLE
  2
AcDbMLeaderStyle
  3
ACDB_MLEADERSTYLE_CLASS
 90
     4095
280
     0
281
     0
  0
CLASS
  1
SUN
  2
AcDbSun
  3
SCENEOE
 90
     1153
280
     0
281
     0
  0
CLASS
  1
ACDBPLACEHOLDER
  2
AcDbPlaceHolder
  3
ObjectDBX Classes
 90
        0
280
     0
281
     0
  0
CLASS
  1
LAYOUT
  2
AcDbLayout
  3
ObjectDBX Classes
 90
        0
280
     0
281
     0
  0
ENDSEC
  0
SECTION
  2
TABLES
  0
TABLE
  2
VPORT
  5
8
330
0
100
AcDbSymbolTable
 70
     1
  0
VPORT
  5
29
330
8
100
AcDbSymbolTableRecord
100
AcDbViewportTableRecord
  2
*Active
 70
     0
 10
0.0
 20
0.0
 11
1.0
 21
1.0
 12
114.2307692308
 22
80.7692307692
 13
0.0
 23
0.0
 14
10.0
 24
10.0
 15
10.0
 25
10.0
 16
0.0
 26
0.0
 36
1.0
 17
0.0
 27
0.0
 37
0.0
 40
161.5384615385
 41
1.4142857143
 42
50.0
 43
0.0
 44
0.0
 50
0.0
 51
0.0
 71
     0
 72
  2000
 73
     1
 74
     3
 75
     0
 76
     0
 77
     0
 78
     0
281
     0
 65
     1
110
0.0
120
0.0
130
0.0
111
1.0
121
0.0
131
0.0
112
0.0
122
1.0
132
0.0
 79
     0
146
0.0
  0
ENDTAB
  0
TABLE
  2
LTYPE
  5
5
330
0
100
AcDbSymbolTable
 70
     6
  0
LTYPE
  5
14
330
5
100
AcDbSymbolTableRecord
100
AcDbLinetypeTableRecord
  2
ByBlock
 70
     0
  3

 72
    65
 73
     0
 40
0.0
  0
LTYPE
  5
15
330
5
100
AcDbSymbolTableRecord
100
AcDbLinetypeTableRecord
  2
ByLayer
 70
     0
  3

 72
    65
 73
     0
 40
0.0
  0
LTYPE
  5
16
330
5
100
AcDbSymbolTableRecord
100
AcDbLinetypeTableRecord
  2
Continuous
 70
     0
  3
Solid line
 72
    65
 73
     0
 40
0.0
  0
LTYPE
  5
6E
330
5
100
AcDbSymbolTableRecord
100
AcDbLinetypeTableRecord
  2
HIDDEN
 70
     0
  3
Hidden __ __ __ __ __ __ __ __ __ __ __ __ __ __
 72
    65
 73
     2
 40
1.905
 49
1.27
 74
     0
 49
-0.635
 74
     0
  0
LTYPE
  5
6F
330
5
100
AcDbSymbolTableRecord
100
AcDbLinetypeTableRecord
  2
PHANTOM
 70
     0
  3
Phantom ______  __  __  ______  __  __  ______
 72
    65
 73
     6
 40
12.7
 49
6.35
 74
     0
 49
-1.27
 74
     0
 49
1.27
 74
     0
 49
-1.27
 74
     0
 49
1.27
 74
     0
 49
-1.27
 74
     0
  0
LTYPE
  5
70
330
5
100
AcDbSymbolTableRecord
100
AcDbLinetypeTableRecord
  2
CENTER
 70
     0
  3
Center ____ _ ____ _ ____ _ ____ _ ____ _ ____
 72
    65
 73
     4
 40
10.16
 49
6.35
 74
     0
 49
-1.27
 74
     0
 49
1.27
 74
     0
 49
-1.27
 74
     0
  0
LTYPE
  5
71
330
5
100
AcDbSymbolTableRecord
100
AcDbLinetypeTableRecord
  2
CENTERX2
 70
     0
  3
Center (2x) ________  __  ________  __  _____
 72
    65
 73
     4
 40
20.32
 49
12.7
 74
     0
 49
-2.54
 74
     0
 49
2.54
 74
     0
 49
-2.54
 74
     0
  0
LTYPE
  5
72
330
5
100
AcDbSymbolTableRecord
100
AcDbLinetypeTableRecord
  2
DOT2
 70
     0
  3
Dot (.5x) ........................................
 72
    65
 73
     2
 40
0.635
 49
0.0
 74
     0
 49
-0.635
 74
     0
  0
ENDTAB
  0
TABLE
  2
LAYER
  5
2
330
0
100
AcDbSymbolTable
 70
     3
  0
LAYER
  5
10
330
2
100
AcDbSymbolTableRecord
100
AcDbLayerTableRecord
  2
0
 70
     0
 62
     7
  6
Continuous
370
    -3
390
F
  0
LAYER
  5
73
330
2
100
AcDbSymbolTableRecord
100
AcDbLayerTableRecord
  2
SLD-0
 70
     0
 62
     7
  6
Continuous
370
    15
390
F
  0
LAYER
  5
74
330
2
100
AcDbSymbolTableRecord
100
AcDbLayerTableRecord
  2
工作區域參考線
 70
     0
 62
   179
  6
Continuous
370
    -3
390
F
  0
ENDTAB
  0
TABLE
  2
STYLE
  5
3
330
0
100
AcDbSymbolTable
 70
     2
  0
STYLE
  5
11
330
3
100
AcDbSymbolTableRecord
100
AcDbTextStyleTableRecord
  2
Standard
 70
     0
 40
0.0
 41
1.0
 50
0.0
 71
     0
 42
1.9230769231
  3
txt
  4

  0
STYLE
  5
C5
330
3
100
AcDbSymbolTableRecord
100
AcDbTextStyleTableRecord
  2
SLDTEXTSTYLE0
 70
     0
 40
0.0
 41
0.605
 50
0.0
 71
     0
 42
1.9230769231
  3
TXT
  4

  0
ENDTAB
  0
TABLE
  2
VIEW
  5
6
330
0
100
AcDbSymbolTable
 70
     0
  0
ENDTAB
  0
TABLE
  2
UCS
  5
7
330
0
100
AcDbSymbolTable
 70
     0
  0
ENDTAB
  0
TABLE
  2
APPID
  5
9
330
0
100
AcDbSymbolTable
 70
     1
  0
APPID
  5
12
330
9
100
AcDbSymbolTableRecord
100
AcDbRegAppTableRecord
  2
ACAD
 70
     0
  0
ENDTAB
  0
TABLE
  2
DIMSTYLE
  5
A
330
0
100
AcDbSymbolTable
 70
     5
100
AcDbDimStyleTable
  0
DIMSTYLE
105
27
330
A
100
AcDbSymbolTableRecord
100
AcDbDimStyleTableRecord
  2
ISO-25
 70
     0
 41
2.5
 42
0.625
 43
3.75
 44
1.25
 73
     0
 74
     0
 77
     1
 78
     8
140
2.5
141
2.5
143
0.0393700787
147
0.625
171
     3
172
     1
178
     0
271
     2
272
     2
274
     3
278
    44
283
     0
284
     8
340
11
  0
DIMSTYLE
105
113
102
{ACAD_REACTORS
330
112
330
11D
330
13A
330
18F
102
}
330
A
100
AcDbSymbolTableRecord
100
AcDbDimStyleTableRecord
  2
SLDDIMSTYLE0
 70
     0
 41
1.5384615385
 44
0.0
 45
0.000000001
 73
     0
 74
     0
 77
     1
 78
    12
 79
     3
140
1.9230769231
147
0.4807692308
173
     1
178
     0
271
     2
272
     2
276
     2
284
    12
340
C5
  0
DIMSTYLE
105
128
102
{ACAD_REACTORS
330
127
102
}
330
A
100
AcDbSymbolTableRecord
100
AcDbDimStyleTableRecord
  2
SLDDIMSTYLE1
 70
     0
  3
<>
 41
1.5384615385
 44
0.0
 45
0.000000001
 78
    12
 79
     3
140
1.9230769231
141
0.0
147
0.4807692308
173
     1
178
     0
271
     2
272
     2
276
     2
284
    12
340
C5
  0
DIMSTYLE
105
132
102
{ACAD_REACTORS
330
131
102
}
330
A
100
AcDbSymbolTableRecord
100
AcDbDimStyleTableRecord
  2
SLDDIMSTYLE2
 70
     0
 41
1.5384615385
 44
0.0
 45
0.000000001
 78
    12
 79
     3
140
1.9230769231
141
0.0
147
0.4807692308
173
     1
178
     0
271
     2
272
     2
276
     2
279
     1
284
    12
340
C5
  0
DIMSTYLE
105
145
102
{ACAD_REACTORS
330
144
102
}
330
A
100
AcDbSymbolTableRecord
100
AcDbDimStyleTableRecord
  2
SLDDIMSTYLE3
 70
     0
 41
1.5384615385
 44
0.0
 45
0.000000001
 78
    12
 79
     3
140
1.9230769231
141
0.0
147
0.4807692308
173
     1
178
     0
271
     2
272
     2
276
     2
284
    12
340
C5
  0
ENDTAB
  0
TABLE
  2
BLOCK_RECORD
  5
1
330
0
100
AcDbSymbolTable
 70
    13
  0
BLOCK_RECORD
  5
1F
330
1
100
AcDbSymbolTableRecord
100
AcDbBlockTableRecord
  2
*Model_Space
340
22
  0
BLOCK_RECORD
  5
1B
330
1
100
AcDbSymbolTableRecord
100
AcDbBlockTableRecord
  2
*Paper_Space
340
1E
  0
BLOCK_RECORD
  5
23
330
1
100
AcDbSymbolTableRecord
100
AcDbBlockTableRecord
  2
*Paper_Space0
340
26
  0
BLOCK_RECORD
  5
75
330
1
100
AcDbSymbolTableRecord
100
AcDbBlockTableRecord
  2
圖塊6
340
0
102
{BLKREFS
331
C4
102
}
  0
BLOCK_RECORD
  5
C7
330
1
100
AcDbSymbolTableRecord
100
AcDbBlockTableRecord
  2
SW_NOTE_0
340
0
102
{BLKREFS
331
CD
102
}
  0
BLOCK_RECORD
  5
FD
330
1
100
AcDbSymbolTableRecord
100
AcDbBlockTableRecord
  2
SW_NOTE_1
340
0
102
{BLKREFS
331
102
102
}
  0
BLOCK_RECORD
  5
114
330
1
100
AcDbSymbolTableRecord
100
AcDbBlockTableRecord
  2
_D
340
0
  0
BLOCK_RECORD
  5
11E
330
1
100
AcDbSymbolTableRecord
100
AcDbBlockTableRecord
  2
_D_1
340
0
  0
BLOCK_RECORD
  5
129
330
1
100
AcDbSymbolTableRecord
100
AcDbBlockTableRecord
  2
_D_2
340
0
  0
BLOCK_RECORD
  5
133
330
1
100
AcDbSymbolTableRecord
100
AcDbBlockTableRecord
  2
_D_3
340
0
  0
BLOCK_RECORD
  5
13B
330
1
100
AcDbSymbolTableRecord
100
AcDbBlockTableRecord
  2
_D_4
340
0
  0
BLOCK_RECORD
  5
146
330
1
100
AcDbSymbolTableRecord
100
AcDbBlockTableRecord
  2
_D_5
340
0
  0
BLOCK_RECORD
  5
14D
330
1
100
AcDbSymbolTableRecord
100
AcDbBlockTableRecord
  2
SW_CENTERMARKSYMBOL_0
340
0
102
{BLKREFS
331
158
102
}
  0
BLOCK_RECORD
  5
159
330
1
100
AcDbSymbolTableRecord
100
AcDbBlockTableRecord
  2
SW_CENTERMARKSYMBOL_1
340
0
102
{BLKREFS
331
164
102
}
  0
BLOCK_RECORD
  5
190
330
1
100
AcDbSymbolTableRecord
100
AcDbBlockTableRecord
  2
_D_6
340
0
  0
ENDTAB
  0
ENDSEC
  0
SECTION
  2
BLOCKS
  0
BLOCK
  5
20
330
1F
100
AcDbEntity
  8
0
100
AcDbBlockBegin
  2
*Model_Space
 70
     0
 10
0.0
 20
0.0
 30
0.0
  3
*Model_Space
  1

  0
ENDBLK
  5
21
330
1F
100
AcDbEntity
  8
0
100
AcDbBlockEnd
  0
BLOCK
  5
1C
330
1B
100
AcDbEntity
 67
     1
  8
0
100
AcDbBlockBegin
  2
*Paper_Space
 70
     0
 10
0.0
 20
0.0
 30
0.0
  3
*Paper_Space
  1

  0
ENDBLK
  5
1D
330
1B
100
AcDbEntity
 67
     1
  8
0
100
AcDbBlockEnd
  0
BLOCK
  5
24
330
23
100
AcDbEntity
  8
0
100
AcDbBlockBegin
  2
*Paper_Space0
 70
     0
 10
0.0
 20
0.0
 30
0.0
  3
*Paper_Space0
  1

  0
ENDBLK
  5
25
330
23
100
AcDbEntity
  8
0
100
AcDbBlockEnd
  0
BLOCK
  5
76
330
75
100
AcDbEntity
  8
0
100
AcDbBlockBegin
  2
圖塊6
 70
     0
 10
0.0
 20
0.0
 30
0.0
  3
圖塊6
  1

  0
ARC
  5
78
330
75
100
AcDbEntity
  8
0
 62
     7
370
    30
100
AcDbCircle
 10
1.1770418723
 20
4.6938986839
 30
0.0
 40
1.177041872264362
100
AcDbArc
 50
130.2115225915
 51
228.588904108
  0
ARC
  5
79
330
75
100
AcDbEntity
  8
0
 62
     7
370
    30
100
AcDbCircle
 10
3.7314719986
 20
4.6114964934
 30
0.0
 40
1.982565712936631
100
AcDbArc
 50
140.4331765613
 51
251.0865666567
  0
ARC
  5
7A
330
75
100
AcDbEntity
  8
0
 62
     7
370
    30
100
AcDbCircle
 10
3.9819263063
 20
4.855196901
 30
0.0
 40
2.299720505976817
100
AcDbArc
 50
247.1485306747
 51
309.6030773927
  0
LINE
  5
7B
330
75
100
AcDbEntity
  8
0
 62
     7
370
    30
100
AcDbLine
 10
1.4222290207
 20
6.5632173834
 30
0.0
 11
0.4171303631
 21
5.592765786
 31
0.0
  0
LINE
  5
7C
330
75
100
AcDbEntity
  8
0
 62
     7
370
    30
100
AcDbLine
 10
0.3984791461
 20
3.8111373059
 30
0.0
 11
3.4824809232
 21
1.1306728134
 31
0.0
  0
LINE
  5
7D
330
75
100
AcDbEntity
  8
0
 62
     7
370
    30
100
AcDbLine
 10
3.4824809232
 20
1.1306728134
 30
0.0
 11
2.997056369
 21
0.6569032823
 31
0.0
  0
LINE
  5
7E
330
75
100
AcDbEntity
  8
0
 62
     7
370
    30
100
AcDbLine
 10
2.997056369
 20
0.6569032823
 30
0.0
 11
3.7600404957
 21
0.0
 31
0.0
  0
LINE
  5
7F
330
75
100
AcDbEntity
  8
0
 62
     7
370
    30
100
AcDbLine
 10
6.2290131376
 20
2.3973676658
 30
0.0
 11
5.4479184978
 21
3.0833105333
 31
0.0
  0
LINE
  5
80
330
75
100
AcDbEntity
  8
0
 62
     7
370
    30
100
AcDbLine
 10
2.2031473648
 20
5.8743466904
 30
0.0
 11
1.4222290207
 21
6.5632173834
 31
0.0
  0
LINE
  5
81
330
75
100
AcDbEntity
  8
0
 62
     7
370
    30
100
AcDbLine
 10
3.7600404957
 20
0.0
 30
0.0
 11
6.2290131376
 21
2.3973676658
 31
0.0
  0
ENDBLK
  5
77
330
75
100
AcDbEntity
  8
0
100
AcDbBlockEnd
  0
BLOCK
  5
C8
330
C7
100
AcDbEntity
  8
0
100
AcDbBlockBegin
  2
SW_NOTE_0
 70
     0
 10
0.0
 20
0.0
 30
0.0
  3
SW_NOTE_0
  1

  0
MTEXT
  5
CA
330
C7
100
AcDbEntity
  8
0
  6
Continuous
 62
     0
370
     0
100
AcDbMText
 10
0.0
 20
2.6235833806
 30
0.0
 40
2.0352564103
 41
0.0
 71
     1
 72
     1
  1
PROPRIETARY AND CONFIDENTIAL
  7
SLDTEXTSTYLE0
 73
     1
 44
1.0
  0
MTEXT
  5
CB
330
C7
100
AcDbEntity
  8
0
  6
Continuous
 62
     0
370
     0
100
AcDbMText
 10
0.0
 20
-0.0630642154
 30
0.0
 40
1.4246794872
 41
0.0
 71
     1
 72
     1
  1
THE INFORMATION CONTAINED IN THIS DRAWING IS THE SOLE PROPERTY OF UNICE E-O SERVICES INC. ANY REPRODUCTION IN PART OR AS A WHOLE WITHOUT THE WRITTEN PERMISSION OF UNICE E-O SERVICES INC IS
  7
SLDTEXTSTYLE0
 73
     1
 44
1.0
  0
MTEXT
  5
CC
330
C7
100
AcDbEntity
  8
0
  6
Continuous
 62
     0
370
     0
100
AcDbMText
 10
0.0
 20
-1.962636842
 30
0.0
 40
1.4246794872
 41
0.0
 71
     1
 72
     1
  1
PROHIBITED.
  7
SLDTEXTSTYLE0
 73
     1
 44
1.0
  0
ENDBLK
  5
C9
330
C7
100
AcDbEntity
  8
0
100
AcDbBlockEnd
  0
BLOCK
  5
FE
330
FD
100
AcDbEntity
  8
0
100
AcDbBlockBegin
  2
SW_NOTE_1
 70
     0
 10
0.0
 20
0.0
 30
0.0
  3
SW_NOTE_1
  1

  0
MTEXT
  5
100
330
FD
100
AcDbEntity
  8
SLD-0
 62
     0
100
AcDbMText
 10
0.0
 20
1.5741500284
 30
0.0
 40
1.2211538462
 41
0.0
 71
     1
 72
     1
  1
No.5, Andong Rd., Chung Li District,
  7
SLDTEXTSTYLE0
 73
     1
 44
1.0
  0
MTEXT
  5
101
330
FD
100
AcDbEntity
  8
SLD-0
 62
     0
100
AcDbMText
 10
0.0
 20
-0.0540550802
 30
0.0
 40
1.2211538462
 41
0.0
 71
     1
 72
     1
  1
Taoyuan City 32063, Taiwan, R.O.C.
  7
SLDTEXTSTYLE0
 73
     1
 44
1.0
  0
ENDBLK
  5
FF
330
FD
100
AcDbEntity
  8
0
100
AcDbBlockEnd
  0
BLOCK
  5
115
330
114
100
AcDbEntity
  8
0
100
AcDbBlockBegin
  2
_D
 70
     0
 10
0.0
 20
0.0
 30
0.0
  3
_D
  1

  0
SOLID
  5
117
330
114
100
AcDbEntity
  8
SLD-0
 62
     7
100
AcDbTrace
 10
76.117768045
 20
70.8111964537
 30
0.0
 11
74.5793065065
 21
71.003504146
 31
0.0
 12
74.5793065065
 22
70.6188887613
 32
0.0
 13
74.5793065065
 23
70.6188887613
 33
0.0
  0
SOLID
  5
118
330
114
100
AcDbEntity
  8
SLD-0
 62
     7
100
AcDbTrace
 10
50.617768045
 20
70.8111964537
 30
0.0
 11
52.1562295835
 21
70.6188887613
 31
0.0
 12
52.1562295835
 22
71.003504146
 32
0.0
 13
52.1562295835
 23
71.003504146
 33
0.0
  0
LINE
  5
119
330
114
100
AcDbEntity
  8
SLD-0
 62
     7
100
AcDbLine
 10
76.117768045
 20
84.1114191342
 30
0.0
 11
76.117768045
 21
70.0419656844
 31
0.0
  0
LINE
  5
11A
330
114
100
AcDbEntity
  8
SLD-0
 62
     7
100
AcDbLine
 10
50.617768045
 20
78.1114191342
 30
0.0
 11
50.617768045
 21
70.0419656844
 31
0.0
  0
LINE
  5
11B
330
114
100
AcDbEntity
  8
SLD-0
 62
     7
100
AcDbLine
 10
76.117768045
 20
70.8111964537
 30
0.0
 11
50.617768045
 21
70.8111964537
 31
0.0
  0
MTEXT
  5
11C
330
114
100
AcDbEntity
  8
SLD-0
 62
     7
100
AcDbMText
 10
60.7978011302
 20
73.290172742
 30
0.0
 40
1.9230769231
 41
0.0
 71
     1
 72
     1
  1
25.5
  7
SLDTEXTSTYLE0
 73
     1
 44
1.0
  0
ENDBLK
  5
116
330
114
100
AcDbEntity
  8
0
100
AcDbBlockEnd
  0
BLOCK
  5
11F
330
11E
100
AcDbEntity
  8
0
100
AcDbBlockBegin
  2
_D_1
 70
     0
 10
0.0
 20
0.0
 30
0.0
  3
_D_1
  1

  0
SOLID
  5
121
330
11E
100
AcDbEntity
  8
SLD-0
 62
     7
100
AcDbTrace
 10
44.2759424246
 20
78.8806499034
 30
0.0
 11
44.4682501169
 21
80.4191114418
 31
0.0
 12
44.0836347323
 22
80.4191114418
 32
0.0
 13
44.0836347323
 23
80.4191114418
 33
0.0
  0
SOLID
  5
122
330
11E
100
AcDbEntity
  8
SLD-0
 62
     7
100
AcDbTrace
 10
44.2759424246
 20
97.8806499034
 30
0.0
 11
44.0836347323
 21
96.3421883649
 31
0.0
 12
44.4682501169
 22
96.3421883649
 32
0.0
 13
44.4682501169
 23
96.3421883649
 33
0.0
  0
LINE
  5
123
330
11E
100
AcDbEntity
  8
SLD-0
 62
     7
100
AcDbLine
 10
49.8485372758
 20
78.8806499034
 30
0.0
 11
43.5067116554
 21
78.8806499034
 31
0.0
  0
LINE
  5
124
330
11E
100
AcDbEntity
  8
SLD-0
 62
     7
100
AcDbLine
 10
49.8485372758
 20
97.8806499034
 30
0.0
 11
43.5067116554
 21
97.8806499034
 31
0.0
  0
LINE
  5
125
330
11E
100
AcDbEntity
  8
SLD-0
 62
     7
100
AcDbLine
 10
44.2759424246
 20
78.8806499034
 30
0.0
 11
44.2759424246
 21
97.8806499034
 31
0.0
  0
MTEXT
  5
126
330
11E
100
AcDbEntity
  8
SLD-0
 62
     7
100
AcDbMText
 10
41.7969661363
 20
86.9120973806
 30
0.0
 40
1.9230769231
 41
0.0
 71
     1
 72
     1
  1
19
  7
SLDTEXTSTYLE0
 11
6.123233995736766E-17
 21
1.0
 31
0.0
 73
     1
 44
1.0
  0
ENDBLK
  5
120
330
11E
100
AcDbEntity
  8
0
100
AcDbBlockEnd
  0
BLOCK
  5
12A
330
129
100
AcDbEntity
  8
0
100
AcDbBlockBegin
  2
_D_2
 70
     0
 10
0.0
 20
0.0
 30
0.0
  3
_D_2
  1

  0
SOLID
  5
12C
330
129
100
AcDbEntity
  8
SLD-0
 62
     7
100
AcDbTrace
 10
102.5201767826
 20
91.0770996054
 30
0.0
 11
103.5642163864
 21
92.2233227335
 31
0.0
 12
103.2499448594
 22
92.4450486935
 32
0.0
 13
103.2499448594
 23
92.4450486935
 33
0.0
  0
LINE
  5
12D
330
129
100
AcDbEntity
  8
SLD-0
 62
     7
100
AcDbLine
 10
102.5201767826
 20
91.0770996054
 30
0.0
 11
114.0271280632
 21
107.3869045062
 31
0.0
  0
LINE
  5
12E
330
129
100
AcDbEntity
  8
SLD-0
 62
     7
100
AcDbLine
 10
114.0271280632
 20
107.3869045062
 30
0.0
 11
137.3017103626
 21
107.3869045062
 31
0.0
  0
MTEXT
  5
12F
330
129
100
AcDbEntity
  8
SLD-0
 62
     7
100
AcDbMText
 10
116.2098203709
 20
109.8658807945
 30
0.0
 40
1.9230769231
 41
0.0
 71
     1
 72
     1
  1
M6(1/4"-20) CLR
  7
SLDTEXTSTYLE0
 73
     1
 44
1.0
  0
MTEXT
  5
130
330
129
100
AcDbEntity
  8
SLD-0
 62
     7
100
AcDbMText
 10
116.2098203709
 20
112.8167658235
 30
0.0
 40
1.9230769231
 41
0.0
 71
     1
 72
     1
  1
1 HOLE,
  7
SLDTEXTSTYLE0
 73
     1
 44
1.0
  0
ENDBLK
  5
12B
330
129
100
AcDbEntity
  8
0
100
AcDbBlockEnd
  0
BLOCK
  5
134
330
133
100
AcDbEntity
  8
0
100
AcDbBlockBegin
  2
_D_3
 70
     0
 10
0.0
 20
0.0
 30
0.0
  3
_D_3
  1

  0
SOLID
  5
136
330
133
100
AcDbEntity
  8
SLD-0
 62
     7
100
AcDbTrace
 10
78.4475922477
 20
85.7687695109
 30
0.0
 11
77.5670036088
 21
87.0448611232
 31
0.0
 12
77.2799837854
 22
86.7888364855
 32
0.0
 13
77.2799837854
 23
86.7888364855
 33
0.0
  0
LINE
  5
137
330
133
100
AcDbEntity
  8
SLD-0
 62
     7
100
AcDbLine
 10
78.4475922477
 20
85.7687695109
 30
0.0
 11
58.9901508418
 21
107.5817928437
 31
0.0
  0
LINE
  5
138
330
133
100
AcDbEntity
  8
SLD-0
 62
     7
100
AcDbLine
 10
58.9901508418
 20
107.5817928437
 30
0.0
 11
30.523272469
 21
107.5817928437
 31
0.0
  0
MTEXT
  5
139
330
133
100
AcDbEntity
  8
SLD-0
 62
     7
100
AcDbMText
 10
30.523272469
 20
110.060769132
 30
0.0
 40
1.9230769231
 41
0.0
 71
     1
 72
     1
  1
M6(1/4"-20) SLOT CLR
  7
SLDTEXTSTYLE0
 73
     1
 44
1.0
  0
ENDBLK
  5
135
330
133
100
AcDbEntity
  8
0
100
AcDbBlockEnd
  0
BLOCK
  5
13C
330
13B
100
AcDbEntity
  8
0
100
AcDbBlockBegin
  2
_D_4
 70
     0
 10
0.0
 20
0.0
 30
0.0
  3
_D_4
  1

  0
SOLID
  5
13E
330
13B
100
AcDbEntity
  8
SLD-0
100
AcDbTrace
 10
50.617768045
 20
62.7268037495
 30
0.0
 11
52.1562295835
 21
62.5344960572
 31
0.0
 12
52.1562295835
 22
62.9191114418
 32
0.0
 13
52.1562295835
 23
62.9191114418
 33
0.0
  0
SOLID
  5
13F
330
13B
100
AcDbEntity
  8
SLD-0
100
AcDbTrace
 10
110.117768045
 20
62.7268037495
 30
0.0
 11
108.5793065065
 21
62.9191114418
 31
0.0
 12
108.5793065065
 22
62.5344960572
 32
0.0
 13
108.5793065065
 23
62.5344960572
 33
0.0
  0
LINE
  5
140
330
13B
100
AcDbEntity
  8
SLD-0
100
AcDbLine
 10
50.617768045
 20
78.1114191342
 30
0.0
 11
50.617768045
 21
61.9575729803
 31
0.0
  0
LINE
  5
141
330
13B
100
AcDbEntity
  8
SLD-0
100
AcDbLine
 10
110.117768045
 20
87.6114191342
 30
0.0
 11
110.117768045
 21
61.9575729803
 31
0.0
  0
LINE
  5
142
330
13B
100
AcDbEntity
  8
SLD-0
100
AcDbLine
 10
50.617768045
 20
62.7268037495
 30
0.0
 11
110.117768045
 21
62.7268037495
 31
0.0
  0
MTEXT
  5
143
330
13B
100
AcDbEntity
  8
SLD-0
100
AcDbMText
 10
77.7969881942
 20
65.2057800379
 30
0.0
 40
1.9230769231
 41
0.0
 71
     1
 72
     1
  1
59.5
  7
SLDTEXTSTYLE0
 73
     1
 44
1.0
  0
ENDBLK
  5
13D
330
13B
100
AcDbEntity
  8
0
100
AcDbBlockEnd
  0
BLOCK
  5
147
330
146
100
AcDbEntity
  8
0
100
AcDbBlockBegin
  2
_D_5
 70
     0
 10
0.0
 20
0.0
 30
0.0
  3
_D_5
  1

  0
SOLID
  5
149
330
146
100
AcDbEntity
  8
SLD-0
100
AcDbTrace
 10
107.7507027067
 20
82.1059990675
 30
0.0
 11
108.7788166026
 21
80.9454698904
 31
0.0
 12
109.0328510494
 22
81.2342526702
 32
0.0
 13
109.0328510494
 23
81.2342526702
 33
0.0
  0
LINE
  5
14A
330
146
100
AcDbEntity
  8
SLD-0
100
AcDbLine
 10
107.7507027067
 20
82.1059990675
 30
0.0
 11
119.0888576862
 21
72.1321289854
 31
0.0
  0
LINE
  5
14B
330
146
100
AcDbEntity
  8
SLD-0
100
AcDbLine
 10
119.0888576862
 20
72.1321289854
 30
0.0
 11
125.629990169
 21
72.1321289854
 31
0.0
  0
MTEXT
  5
14C
330
146
100
AcDbEntity
  8
SLD-0
100
AcDbMText
 10
120.0503961477
 20
74.6111052738
 30
0.0
 40
1.9230769231
 41
0.0
 71
     1
 72
     1
  1
R9.5
  7
SLDTEXTSTYLE0
 73
     1
 44
1.0
  0
ENDBLK
  5
148
330
146
100
AcDbEntity
  8
0
100
AcDbBlockEnd
  0
BLOCK
  5
14E
330
14D
100
AcDbEntity
  8
0
100
AcDbBlockBegin
  2
SW_CENTERMARKSYMBOL_0
 70
     0
 10
0.0
 20
0.0
 30
0.0
  3
SW_CENTERMARKSYMBOL_0
  1

  0
LINE
  5
150
330
14D
100
AcDbEntity
  8
SLD-0
 62
     0
100
AcDbLine
 10
0.0
 20
0.0
 30
0.0
 11
0.0
 21
1.0
 31
0.0
  0
LINE
  5
151
330
14D
100
AcDbEntity
  8
SLD-0
 62
     0
100
AcDbLine
 10
0.0
 20
0.0
 30
0.0
 11
-1.0
 21
0.0
 31
0.0
  0
LINE
  5
152
330
14D
100
AcDbEntity
  8
SLD-0
 62
     0
100
AcDbLine
 10
0.0
 20
0.0
 30
0.0
 11
0.0
 21
-1.0
 31
0.0
  0
LINE
  5
153
330
14D
100
AcDbEntity
  8
SLD-0
 62
     0
100
AcDbLine
 10
0.0
 20
0.0
 30
0.0
 11
1.0
 21
0.0
 31
0.0
  0
LINE
  5
154
330
14D
100
AcDbEntity
  8
SLD-0
 62
     0
100
AcDbLine
 10
0.0
 20
2.0
 30
0.0
 11
0.0
 21
6.5
 31
0.0
  0
LINE
  5
155
330
14D
100
AcDbEntity
  8
SLD-0
 62
     0
100
AcDbLine
 10
-2.0
 20
0.0
 30
0.0
 11
-6.5
 21
0.0
 31
0.0
  0
LINE
  5
156
330
14D
100
AcDbEntity
  8
SLD-0
 62
     0
100
AcDbLine
 10
0.0
 20
-2.0
 30
0.0
 11
0.0
 21
-6.5
 31
0.0
  0
LINE
  5
157
330
14D
100
AcDbEntity
  8
SLD-0
 62
     0
100
AcDbLine
 10
2.0
 20
0.0
 30
0.0
 11
6.5
 21
0.0
 31
0.0
  0
ENDBLK
  5
14F
330
14D
100
AcDbEntity
  8
0
100
AcDbBlockEnd
  0
BLOCK
  5
15A
330
159
100
AcDbEntity
  8
0
100
AcDbBlockBegin
  2
SW_CENTERMARKSYMBOL_1
 70
     0
 10
0.0
 20
0.0
 30
0.0
  3
SW_CENTERMARKSYMBOL_1
  1

  0
LINE
  5
15C
330
159
100
AcDbEntity
  8
SLD-0
 62
     0
100
AcDbLine
 10
0.0
 20
0.0
 30
0.0
 11
0.0
 21
1.0
 31
0.0
  0
LINE
  5
15D
330
159
100
AcDbEntity
  8
SLD-0
 62
     0
100
AcDbLine
 10
0.0
 20
0.0
 30
0.0
 11
-1.0
 21
0.0
 31
0.0
  0
LINE
  5
15E
330
159
100
AcDbEntity
  8
SLD-0
 62
     0
100
AcDbLine
 10
0.0
 20
0.0
 30
0.0
 11
0.0
 21
-1.0
 31
0.0
  0
LINE
  5
15F
330
159
100
AcDbEntity
  8
SLD-0
 62
     0
100
AcDbLine
 10
0.0
 20
0.0
 30
0.0
 11
1.0
 21
0.0
 31
0.0
  0
LINE
  5
160
330
159
100
AcDbEntity
  8
SLD-0
 62
     0
100
AcDbLine
 10
0.0
 20
2.0
 30
0.0
 11
0.0
 21
4.5
 31
0.0
  0
LINE
  5
161
330
159
100
AcDbEntity
  8
SLD-0
 62
     0
100
AcDbLine
 10
-2.0
 20
0.0
 30
0.0
 11
-4.5
 21
0.0
 31
0.0
  0
LINE
  5
162
330
159
100
AcDbEntity
  8
SLD-0
 62
     0
100
AcDbLine
 10
0.0
 20
-2.0
 30
0.0
 11
0.0
 21
-4.5
 31
0.0
  0
LINE
  5
163
330
159
100
AcDbEntity
  8
SLD-0
 62
     0
100
AcDbLine
 10
2.0
 20
0.0
 30
0.0
 11
4.5
 21
0.0
 31
0.0
  0
ENDBLK
  5
15B
330
159
100
AcDbEntity
  8
0
100
AcDbBlockEnd
  0
BLOCK
  5
191
330
190
100
AcDbEntity
  8
0
100
AcDbBlockBegin
  2
_D_6
 70
     0
 10
0.0
 20
0.0
 30
0.0
  3
_D_6
  1

  0
SOLID
  5
193
330
190
100
AcDbEntity
  8
SLD-0
100
AcDbTrace
 10
41.6120264334
 20
49.4872199346
 30
0.0
 11
41.4197187411
 21
47.9487583961
 31
0.0
 12
41.8043341257
 22
47.9487583961
 32
0.0
 13
41.8043341257
 23
47.9487583961
 33
0.0
  0
SOLID
  5
194
330
190
100
AcDbEntity
  8
SLD-0
100
AcDbTrace
 10
41.6120264334
 20
41.9872199346
 30
0.0
 11
41.8043341257
 21
43.525681473
 31
0.0
 12
41.4197187411
 22
43.525681473
 32
0.0
 13
41.4197187411
 23
43.525681473
 33
0.0
  0
LINE
  5
195
330
190
100
AcDbEntity
  8
SLD-0
100
AcDbLine
 10
49.8485372758
 20
49.4872199346
 30
0.0
 11
40.8427956642
 21
49.4872199346
 31
0.0
  0
LINE
  5
196
330
190
100
AcDbEntity
  8
SLD-0
100
AcDbLine
 10
49.8485372758
 20
41.9872199346
 30
0.0
 11
40.8427956642
 21
41.9872199346
 31
0.0
  0
LINE
  5
197
330
190
100
AcDbEntity
  8
SLD-0
100
AcDbLine
 10
41.6120264334
 20
49.4872199346
 30
0.0
 11
41.6120264334
 21
41.9872199346
 31
0.0
  0
MTEXT
  5
198
330
190
100
AcDbEntity
  8
SLD-0
100
AcDbMText
 10
39.1330501451
 20
43.9009485869
 30
0.0
 40
1.9230769231
 41
0.0
 71
     1
 72
     1
  1
7.5
  7
SLDTEXTSTYLE0
 11
-7.044195017643634E-15
 21
1.0
 31
0.0
 73
     1
 44
1.0
  0
ENDBLK
  5
192
330
190
100
AcDbEntity
  8
0
100
AcDbBlockEnd
  0
ENDSEC
  0
SECTION
  2
ENTITIES
  0
HATCH
  5
82
330
1F
100
AcDbEntity
  8
0
  6
Continuous
 62
     7
100
AcDbHatch
 10
0.0
 20
0.0
 30
0.0
210
0.0
220
0.0
230
1.0
  2
SOLID
 70
     1
 71
     0
 91
        1
 92
        0
 93
       10
 72
     2
 10
147.8004588945666
 20
27.50446831529889
 40
2.299720505976814
 50
50.3969226073139
 51
112.8514693252976
 73
     0
 72
     2
 10
147.5500045867784
 20
27.26076790774003
 40
1.98256571293663
 50
108.9134333432856
 51
219.5668234386828
 73
     0
 72
     1
 10
146.0216799530464
 20
28.52361810473085
 11
145.2407616088907
 21
29.21248879766758
 72
     1
 10
145.2407616088907
 20
29.21248879766758
 11
144.2356629512894
 21
28.24203720035412
 72
     2
 10
144.9955744604915
 20
27.34317009824958
 40
1.177041872264355
 50
130.211522591509
 51
228.5889041080177
 73
     1
 72
     1
 10
144.2170117343469
 20
26.4604087202306
 11
147.3010135114205
 21
23.77994422771162
 72
     1
 10
147.3010135114205
 20
23.77994422771162
 11
146.815588957255
 21
23.30617469658005
 72
     1
 10
146.815588957255
 20
23.30617469658005
 11
147.5785730839669
 21
22.64927141430788
 72
     1
 10
147.5785730839669
 20
22.64927141430788
 11
150.0475457257864
 21
25.04663908008902
 72
     1
 10
150.0475457257864
 20
25.04663908008902
 11
149.2664510860493
 21
25.73258194757602
 97
        0
 75
     0
 76
     1
 98
        1
 10
0.0
 20
0.0
  0
HATCH
  5
83
330
1F
100
AcDbEntity
  8
0
  6
Continuous
 62
     1
100
AcDbHatch
 10
0.0
 20
0.0
 30
0.0
210
0.0
220
0.0
230
1.0
  2
SOLID
 70
     1
 71
     0
 91
        1
 92
        0
 93
       10
 72
     2
 10
148.1455735098222
 20
27.43313012024315
 40
1.982744221804807
 50
317.8184992995783
 51
398.0564711573081
 73
     0
 72
     1
 10
149.7067933890895
 20
26.21089154382651
 11
150.4648309990762
 21
25.55035543621921
 72
     1
 10
150.4648309990762
 20
25.55035543621921
 11
151.4199704719945
 21
26.47684231499399
 72
     2
 10
150.7327456061006
 20
27.42141672408701
 40
1.168117644167896
 50
306.0377529468126
 51
403.4396461533875
 73
     1
 72
     1
 10
151.5809147327716
 20
28.22460285642405
 11
148.4064871494306
 21
30.98550767845016
 72
     1
 10
148.4064871494306
 20
30.98550767845016
 11
148.8866804586054
 21
31.45401416370966
 72
     1
 10
148.8866804586054
 20
31.45401416370966
 11
148.1709062200023
 21
32.09262356359004
 72
     1
 10
148.1709062200023
 20
32.09262356359004
 11
145.6819943366101
 21
29.68730029696383
 72
     1
 10
145.6819943366101
 20
29.68730029696383
 11
146.4684619345705
 21
29.00130758379398
 72
     2
 10
147.9012225169572
 20
27.0171133467984
 40
2.447412849636827
 50
234.167444487851
 51
314.4407074583992
 73
     0
 97
        0
 75
     0
 76
     1
 98
        1
 10
0.0
 20
0.0
  0
LINE
  5
84
330
1F
100
AcDbEntity
  8
0
  6
Continuous
 62
     7
370
     0
100
AcDbLine
 10
129.1225980912
 20
13.6727071164
 30
0.0
 11
129.8918288604
 21
13.6727071164
 31
0.0
  0
LINE
  5
85
330
1F
100
AcDbEntity
  8
0
  6
Continuous
 62
     7
370
     0
100
AcDbLine
 10
126.8149057835
 20
13.6727071164
 30
0.0
 11
128.7379827065
 21
13.6727071164
 31
0.0
  0
LINE
  5
86
330
1F
100
AcDbEntity
  8
0
  6
Continuous
 62
     7
370
     0
100
AcDbLine
 10
139.5072134758
 20
11.7496301933
 30
0.0
 11
139.5072134758
 21
15.5957840394
 31
0.0
  0
LINE
  5
87
330
1F
100
AcDbEntity
  8
0
  6
Continuous
 62
     7
370
     0
100
AcDbLine
 10
134.1225980912
 20
12.5188609625
 30
0.0
 11
139.5072134758
 21
11.7496301933
 31
0.0
  0
LINE
  5
88
330
1F
100
AcDbEntity
  8
0
  6
Continuous
 62
     7
370
     0
100
AcDbLine
 10
129.5072134758
 20
12.9034763471
 30
0.0
 11
129.5072134758
 21
10.980399424
 31
0.0
  0
LINE
  5
89
330
1F
100
AcDbEntity
  8
0
  6
Continuous
 62
     7
370
     0
100
AcDbLine
 10
139.5072134758
 20
15.5957840394
 30
0.0
 11
134.1225980912
 21
14.8265532702
 31
0.0
  0
LINE
  5
8A
330
1F
100
AcDbEntity
  8
0
  6
Continuous
 62
     7
370
     0
100
AcDbLine
 10
133.3533673219
 20
13.6727071164
 30
0.0
 11
140.276444245
 21
13.6727071164
 31
0.0
  0
LINE
  5
8B
330
1F
100
AcDbEntity
  8
0
  6
Continuous
 62
     7
370
     0
100
AcDbLine
 10
129.5072134758
 20
14.057322501
 30
0.0
 11
129.5072134758
 21
13.2880917317
 31
0.0
  0
LINE
  5
8C
330
1F
100
AcDbEntity
  8
0
  6
Continuous
 62
     7
370
     0
100
AcDbLine
 10
130.276444245
 20
13.6727071164
 30
0.0
 11
132.1995211681
 21
13.6727071164
 31
0.0
  0
LINE
  5
8D
330
1F
100
AcDbEntity
  8
0
  6
Continuous
 62
     7
370
     0
100
AcDbLine
 10
129.5072134758
 20
16.3650148087
 30
0.0
 11
129.5072134758
 21
14.4419378856
 31
0.0
  0
LINE
  5
8E
330
1F
100
AcDbEntity
  8
0
  6
Continuous
 62
     7
370
     0
100
AcDbLine
 10
134.1225980912
 20
14.8265532702
 30
0.0
 11
134.1225980912
 21
12.5188609625
 31
0.0
  0
LINE
  5
8F
330
1F
100
AcDbEntity
  8
工作區域參考線
 62
     1
370
    30
100
AcDbLine
 10
146.4684619346
 20
29.0013075838
 30
0.0
 11
145.6819943366
 21
29.687300297
 31
0.0
  0
LINE
  5
90
330
1F
100
AcDbEntity
  8
工作區域參考線
 62
     1
370
    30
100
AcDbLine
 10
145.6819943366
 20
29.687300297
 30
0.0
 11
148.17090622
 21
32.0926235636
 31
0.0
  0
LINE
  5
91
330
1F
100
AcDbEntity
  8
工作區域參考線
 62
     1
370
    30
100
AcDbLine
 10
148.17090622
 20
32.0926235636
 30
0.0
 11
148.8866804586
 21
31.4540141637
 31
0.0
  0
LINE
  5
92
330
1F
100
AcDbEntity
  8
工作區域參考線
 62
     1
370
    30
100
AcDbLine
 10
148.8866804586
 20
31.4540141637
 30
0.0
 11
148.4064871494
 21
30.9855076785
 31
0.0
  0
LINE
  5
93
330
1F
100
AcDbEntity
  8
工作區域參考線
 62
     1
370
    30
100
AcDbLine
 10
148.4064871494
 20
30.9855076785
 30
0.0
 11
151.5809147328
 21
28.2246028564
 31
0.0
  0
LINE
  5
94
330
1F
100
AcDbEntity
  8
工作區域參考線
 62
     1
370
    30
100
AcDbLine
 10
149.7067933891
 20
26.2108915438
 30
0.0
 11
150.4648309991
 21
25.5503554362
 31
0.0
  0
LINE
  5
95
330
1F
100
AcDbEntity
  8
工作區域參考線
 62
     1
370
    30
100
AcDbLine
 10
150.4648309991
 20
25.5503554362
 30
0.0
 11
151.419970472
 21
26.476842315
 31
0.0
  0
LINE
  5
96
330
1F
100
AcDbEntity
  8
0
  6
Continuous
 62
     7
370
     0
100
AcDbLine
 10
142.8390742469
 20
10.088651083
 30
0.0
 11
219.7621511699
 21
10.088651083
 31
0.0
  0
LINE
  5
97
330
1F
100
AcDbEntity
  8
0
  6
Continuous
 62
     7
370
     0
100
AcDbLine
 10
142.8390742469
 20
13.9348049292
 30
0.0
 11
181.3006127084
 21
13.9348049292
 31
0.0
  0
LINE
  5
98
330
1F
100
AcDbEntity
  8
0
  6
Continuous
 62
     7
370
     0
100
AcDbLine
 10
142.8390742469
 20
17.7809587753
 30
0.0
 11
181.3006127084
 21
17.7809587753
 31
0.0
  0
LINE
  5
99
330
1F
100
AcDbEntity
  8
0
  6
Continuous
 62
     7
370
     0
100
AcDbLine
 10
142.8390742469
 20
21.6271126215
 30
0.0
 11
219.7621511699
 21
21.6271126215
 31
0.0
  0
LINE
  5
9A
330
1F
100
AcDbEntity
  8
0
  6
Continuous
 62
     7
370
     0
100
AcDbLine
 10
181.3006127084
 20
25.4732664676
 30
0.0
 11
219.7621511699
 21
25.4732664676
 31
0.0
  0
LINE
  5
9B
330
1F
100
AcDbEntity
  8
0
  6
Continuous
 62
     7
370
    15
100
AcDbLine
 10
181.3006127084
 20
13.9348049292
 30
0.0
 11
219.7621511699
 21
13.9348049292
 31
0.0
  0
LINE
  5
9C
330
1F
100
AcDbEntity
  8
0
  6
Continuous
 62
     7
370
     0
100
AcDbLine
 10
142.8390742469
 20
33.1655741599
 30
0.0
 11
219.7621511699
 21
33.1655741599
 31
0.0
  0
LINE
  5
9D
330
1F
100
AcDbEntity
  8
0
  6
Continuous
 62
     7
370
     0
100
AcDbLine
 10
193.2593982116
 20
6.2424972369
 30
0.0
 11
193.2593982116
 21
13.9348049292
 31
0.0
  0
LINE
  5
9E
330
1F
100
AcDbEntity
  8
0
  6
Continuous
 62
     7
370
     0
100
AcDbLine
 10
181.3006127084
 20
6.2424972369
 30
0.0
 11
181.3006127084
 21
33.1655741599
 31
0.0
  0
LINE
  5
9F
330
1F
100
AcDbEntity
  8
0
  6
Continuous
 62
     7
370
     0
100
AcDbLine
 10
193.2593982116
 20
21.6271126215
 30
0.0
 11
193.2593982116
 21
25.4732664676
 31
0.0
  0
LINE
  5
A0
330
1F
100
AcDbEntity
  8
0
  6
Continuous
 62
     7
370
     0
100
AcDbLine
 10
164.9356989502
 20
6.2424972369
 30
0.0
 11
164.9356989502
 21
21.6271126215
 31
0.0
  0
LINE
  5
A1
330
1F
100
AcDbEntity
  8
0
  6
Continuous
 62
     7
370
     0
100
AcDbLine
 10
153.6758375004
 20
6.2424972369
 30
0.0
 11
153.6758375004
 21
21.6271126215
 31
0.0
  0
LINE
  5
A2
330
1F
100
AcDbEntity
  8
0
  6
Continuous
 62
     7
370
     0
100
AcDbLine
 10
142.8390742469
 20
6.2424972369
 30
0.0
 11
142.8390742469
 21
33.1655741599
 31
0.0
  0
LINE
  5
A3
330
1F
100
AcDbEntity
  8
0
  6
Continuous
 62
     7
370
    15
100
AcDbLine
 10
33.3236896315
 20
154.9015596731
 30
0.0
 11
33.3236896315
 21
156.055405827
 31
0.0
  0
LINE
  5
A4
330
1F
100
AcDbEntity
  8
0
  6
Continuous
 62
     7
370
    15
100
AcDbLine
 10
59.9621511699
 20
154.9015596731
 30
0.0
 11
59.9621511699
 21
156.055405827
 31
0.0
  0
LINE
  5
A5
330
1F
100
AcDbEntity
  8
0
  6
Continuous
 62
     7
370
    15
100
AcDbLine
 10
86.6006127084
 20
154.9015596731
 30
0.0
 11
86.6006127084
 21
156.055405827
 31
0.0
  0
LINE
  5
A6
330
1F
100
AcDbEntity
  8
0
  6
Continuous
 62
     7
370
    15
100
AcDbLine
 10
113.2390742469
 20
154.9015596731
 30
0.0
 11
113.2390742469
 21
156.055405827
 31
0.0
  0
LINE
  5
A7
330
1F
100
AcDbEntity
  8
0
  6
Continuous
 62
     7
370
    15
100
AcDbLine
 10
139.8775357853
 20
154.9015596731
 30
0.0
 11
139.8775357853
 21
156.055405827
 31
0.0
  0
LINE
  5
A8
330
1F
100
AcDbEntity
  8
0
  6
Continuous
 62
     7
370
    15
100
AcDbLine
 10
166.5159973238
 20
154.9015596731
 30
0.0
 11
166.5159973238
 21
156.055405827
 31
0.0
  0
LINE
  5
A9
330
1F
100
AcDbEntity
  8
0
  6
Continuous
 62
     7
370
    15
100
AcDbLine
 10
193.1544588623
 20
154.9015596731
 30
0.0
 11
193.1544588623
 21
156.055405827
 31
0.0
  0
LINE
  5
AA
330
1F
100
AcDbEntity
  8
0
  6
Continuous
 62
     7
370
    15
100
AcDbLine
 10
33.3198434776
 20
6.2424972369
 30
0.0
 11
33.3198434776
 21
5.088651083
 31
0.0
  0
LINE
  5
AB
330
1F
100
AcDbEntity
  8
0
  6
Continuous
 62
     7
370
    15
100
AcDbLine
 10
59.9544588623
 20
6.2424972369
 30
0.0
 11
59.9544588623
 21
5.088651083
 31
0.0
  0
LINE
  5
AC
330
1F
100
AcDbEntity
  8
0
  6
Continuous
 62
     7
370
    15
100
AcDbLine
 10
86.5890742469
 20
6.2424972369
 30
0.0
 11
86.5890742469
 21
5.088651083
 31
0.0
  0
LINE
  5
AD
330
1F
100
AcDbEntity
  8
0
  6
Continuous
 62
     7
370
    15
100
AcDbLine
 10
113.2236896315
 20
6.2424972369
 30
0.0
 11
113.2236896315
 21
5.088651083
 31
0.0
  0
LINE
  5
AE
330
1F
100
AcDbEntity
  8
0
  6
Continuous
 62
     7
370
    15
100
AcDbLine
 10
139.8583050161
 20
6.2424972369
 30
0.0
 11
139.8583050161
 21
5.088651083
 31
0.0
  0
LINE
  5
AF
330
1F
100
AcDbEntity
  8
0
  6
Continuous
 62
     7
370
    15
100
AcDbLine
 10
166.4929204007
 20
6.2424972369
 30
0.0
 11
166.4929204007
 21
5.088651083
 31
0.0
  0
LINE
  5
B0
330
1F
100
AcDbEntity
  8
0
  6
Continuous
 62
     7
370
     0
100
AcDbLine
 10
219.7621511699
 20
154.9015596731
 30
0.0
 11
6.685228093
 21
154.9015596731
 31
0.0
  0
LINE
  5
B1
330
1F
100
AcDbEntity
  8
0
  6
Continuous
 62
     7
370
     0
100
AcDbLine
 10
219.7621511699
 20
6.2424972369
 30
0.0
 11
219.7621511699
 21
154.9015596731
 31
0.0
  0
LINE
  5
B2
330
1F
100
AcDbEntity
  8
0
  6
Continuous
 62
     7
370
     0
100
AcDbLine
 10
6.685228093
 20
154.9015596731
 30
0.0
 11
6.685228093
 21
6.2424972369
 31
0.0
  0
LINE
  5
B3
330
1F
100
AcDbEntity
  8
0
  6
Continuous
 62
     7
370
     0
100
AcDbLine
 10
6.685228093
 20
6.2424972369
 30
0.0
 11
219.7621511699
 21
6.2424972369
 31
0.0
  0
LINE
  5
B4
330
1F
100
AcDbEntity
  8
0
  6
Continuous
 62
     7
370
    15
100
AcDbLine
 10
193.1275357853
 20
6.2424972369
 30
0.0
 11
193.1275357853
 21
5.088651083
 31
0.0
  0
LINE
  5
B5
330
1F
100
AcDbEntity
  8
0
  6
Continuous
 62
     7
370
    15
100
AcDbLine
 10
6.685228093
 20
31.0194203138
 30
0.0
 11
5.5313819392
 21
31.0194203138
 31
0.0
  0
LINE
  5
B6
330
1F
100
AcDbEntity
  8
0
  6
Continuous
 62
     7
370
    15
100
AcDbLine
 10
6.685228093
 20
55.7963433907
 30
0.0
 11
5.5313819392
 21
55.7963433907
 31
0.0
  0
LINE
  5
B7
330
1F
100
AcDbEntity
  8
0
  6
Continuous
 62
     7
370
    15
100
AcDbLine
 10
6.685228093
 20
80.5732664676
 30
0.0
 11
5.5313819392
 21
80.5732664676
 31
0.0
  0
LINE
  5
B8
330
1F
100
AcDbEntity
  8
0
  6
Continuous
 62
     7
370
    15
100
AcDbLine
 10
6.685228093
 20
105.3501895446
 30
0.0
 11
5.5313819392
 21
105.3501895446
 31
0.0
  0
LINE
  5
B9
330
1F
100
AcDbEntity
  8
0
  6
Continuous
 62
     7
370
    15
100
AcDbLine
 10
6.685228093
 20
130.1271126215
 30
0.0
 11
5.5313819392
 21
130.1271126215
 31
0.0
  0
LINE
  5
BA
330
1F
100
AcDbEntity
  8
0
  6
Continuous
 62
     7
370
    15
100
AcDbLine
 10
219.7621511699
 20
31.0194203138
 30
0.0
 11
220.9159973238
 21
31.0194203138
 31
0.0
  0
LINE
  5
BB
330
1F
100
AcDbEntity
  8
0
  6
Continuous
 62
     7
370
    15
100
AcDbLine
 10
219.7621511699
 20
55.7963433907
 30
0.0
 11
220.9159973238
 21
55.7963433907
 31
0.0
  0
LINE
  5
BC
330
1F
100
AcDbEntity
  8
0
  6
Continuous
 62
     7
370
    15
100
AcDbLine
 10
219.7621511699
 20
80.5732664676
 30
0.0
 11
220.9159973238
 21
80.5732664676
 31
0.0
  0
LINE
  5
BD
330
1F
100
AcDbEntity
  8
0
  6
Continuous
 62
     7
370
    15
100
AcDbLine
 10
219.7621511699
 20
105.3501895446
 30
0.0
 11
220.9159973238
 21
105.3501895446
 31
0.0
  0
LINE
  5
BE
330
1F
100
AcDbEntity
  8
0
  6
Continuous
 62
     7
370
    15
100
AcDbLine
 10
219.7621511699
 20
130.1271126215
 30
0.0
 11
220.9159973238
 21
130.1271126215
 31
0.0
  0
CIRCLE
  5
BF
330
1F
100
AcDbEntity
  8
0
  6
Continuous
 62
     7
370
     0
100
AcDbCircle
 10
129.5072134758
 20
13.6727071164
 30
0.0
 40
1.15384615384616
  0
CIRCLE
  5
C0
330
1F
100
AcDbEntity
  8
0
  6
Continuous
 62
     7
370
     0
100
AcDbCircle
 10
129.5072134758
 20
13.6727071164
 30
0.0
 40
1.923076923076934
  0
ARC
  5
C1
330
1F
100
AcDbEntity
  8
工作區域參考線
 62
     1
370
    30
100
AcDbCircle
 10
150.7327456061
 20
27.4214167241
 30
0.0
 40
1.168117644167898
100
AcDbArc
 50
306.0377529468
 51
43.4396461534
  0
ARC
  5
C2
330
1F
100
AcDbEntity
  8
工作區域參考線
 62
     1
370
    30
100
AcDbCircle
 10
147.901222517
 20
27.0171133468
 30
0.0
 40
2.447412849636847
100
AcDbArc
 50
45.5592925416
 51
125.8325555121
  0
ARC
  5
C3
330
1F
100
AcDbEntity
  8
工作區域參考線
 62
     1
370
    30
100
AcDbCircle
 10
148.1455735098
 20
27.4331301202
 30
0.0
 40
1.982744221804808
100
AcDbArc
 50
321.9435288427
 51
42.1815007004
  0
INSERT
  5
C4
330
1F
100
AcDbEntity
  8
0
  6
Continuous
 62
     7
100
AcDbBlockReference
  2
圖塊6
 10
143.8185325882
 20
22.6492714143
 30
0.0
  0
MTEXT
  5
C6
330
1F
100
AcDbEntity
  8
0
  6
Continuous
 62
     7
370
     0
100
AcDbMText
 10
127.3405269849
 20
10.1698800284
 30
0.0
 40
2.0352564103
 41
0.0
 71
     1
 72
     1
  1
UNIT:m/m
  7
SLDTEXTSTYLE0
 73
     1
 44
1.0
  0
INSERT
  5
CD
330
1F
100
AcDbEntity
  8
0
  6
Continuous
 62
     7
370
     0
100
AcDbBlockReference
  2
SW_NOTE_0
 10
9.4088520041
 20
149.1464849424
 30
0.0
  0
MTEXT
  5
CE
330
1F
100
AcDbEntity
  8
0
  6
Continuous
 62
     7
370
     0
100
AcDbMText
 10
152.8655303027
 20
31.1082133953
 30
0.0
 40
1.8317307692
 41
0.0
 71
     1
 72
     1
  1
Unice E-O Services Inc.
  7
SLDTEXTSTYLE0
 73
     1
 44
1.0
  0
MTEXT
  5
CF
330
1F
100
AcDbEntity
  8
0
  6
Continuous
 62
     7
370
     0
100
AcDbMText
 10
167.3531183192
 20
16.6051652701
 30
0.0
 40
1.4246794872
 41
0.0
 71
     1
 72
     1
  1
2019/4/3
  7
SLDTEXTSTYLE0
 73
     1
 44
1.0
  0
MTEXT
  5
D0
330
1F
100
AcDbEntity
  8
0
  6
Continuous
 62
     7
370
     0
100
AcDbMText
 10
194.3145371159
 20
12.9778290308
 30
0.0
 40
1.9230769231
 41
0.0
 71
     1
 72
     1
  1
1.3:1
  7
SLDTEXTSTYLE0
 73
     1
 44
1.0
  0
MTEXT
  5
D1
330
1F
100
AcDbEntity
  8
0
  6
Continuous
 62
     7
370
     0
100
AcDbMText
 10
194.0827384604
 20
24.7322458029
 30
0.0
 40
1.9230769231
 41
0.0
 71
     1
 72
     1
  1
52SDB-5(M)
  7
SLDTEXTSTYLE0
 73
     1
 44
1.0
  0
MTEXT
  5
D2
330
1F
100
AcDbEntity
  8
0
  6
Continuous
 62
     7
370
     0
100
AcDbMText
 10
194.0827384604
 20
29.3140090676
 30
0.0
 40
1.9230769231
 41
0.0
 71
     1
 72
     1
  1
52SDB-5(M)
  7
SLDTEXTSTYLE0
 73
     1
 44
1.0
  0
MTEXT
  5
D3
330
1F
100
AcDbEntity
  8
0
  6
Continuous
 62
     7
370
     0
100
AcDbMText
 10
181.840143599
 20
12.6972919791
 30
0.0
 40
1.6282051282
 41
0.0
 71
     1
 72
     1
  1
SCALE:
  7
SLDTEXTSTYLE0
 73
     1
 44
1.0
  0
MTEXT
  5
D4
330
1F
100
AcDbEntity
  8
0
  6
Continuous
 62
     7
370
     0
100
AcDbMText
 10
143.3335451376
 20
16.6051652701
 30
0.0
 40
1.4246794872
 41
0.0
 71
     1
 72
     1
  1
DRAWN
  7
SLDTEXTSTYLE0
 73
     1
 44
1.0
  0
MTEXT
  5
D5
330
1F
100
AcDbEntity
  8
0
  6
Continuous
 62
     7
370
     0
100
AcDbMText
 10
156.3252590721
 20
20.5255448523
 30
0.0
 40
1.4246794872
 41
0.0
 71
     1
 72
     1
  1
NAME
  7
SLDTEXTSTYLE0
 73
     1
 44
1.0
  0
MTEXT
  5
D6
330
1F
100
AcDbEntity
  8
0
  6
Continuous
 62
     7
370
     0
100
AcDbMText
 10
169.9007812121
 20
20.5255448523
 30
0.0
 40
1.4246794872
 41
0.0
 71
     1
 72
     1
  1
DATE
  7
SLDTEXTSTYLE0
 73
     1
 44
1.0
  0
MTEXT
  5
D7
330
1F
100
AcDbEntity
  8
0
  6
Continuous
 62
     7
370
     0
100
AcDbMText
 10
181.7504858958
 20
24.4517087512
 30
0.0
 40
1.6282051282
 41
0.0
 71
     1
 72
     1
  1
DWG. NO.
  7
SLDTEXTSTYLE0
 73
     1
 44
1.0
  0
MTEXT
  5
D8
330
1F
100
AcDbEntity
  8
0
  6
Continuous
 62
     7
370
     0
100
AcDbMText
 10
181.8176851606
 20
32.2185121726
 30
0.0
 40
1.6282051282
 41
0.0
 71
     1
 72
     1
  1
TITLE:
  7
SLDTEXTSTYLE0
 73
     1
 44
1.0
  0
MTEXT
  5
D9
330
1F
100
AcDbEntity
  8
0
  6
Continuous
 62
     7
370
     0
100
AcDbMText
 10
156.1780161386
 20
12.4925992095
 30
0.0
 40
1.4246794872
 41
0.0
 71
     1
 72
     1
  1
Johnny
  7
SLDTEXTSTYLE0
 73
     1
 44
1.0
  0
MTEXT
  5
DA
330
1F
100
AcDbEntity
  8
0
  6
Continuous
 62
     7
370
     0
100
AcDbMText
 10
167.3531183192
 20
12.4925992095
 30
0.0
 40
1.4246794872
 41
0.0
 71
     1
 72
     1
  1
2019/4/3
  7
SLDTEXTSTYLE0
 73
     1
 44
1.0
  0
MTEXT
  5
DB
330
1F
100
AcDbEntity
  8
0
  6
Continuous
 62
     7
370
     0
100
AcDbMText
 10
143.3335451376
 20
12.4925992095
 30
0.0
 40
1.4246794872
 41
0.0
 71
     1
 72
     1
  1
ENG APPR.
  7
SLDTEXTSTYLE0
 73
     1
 44
1.0
  0
MTEXT
  5
DC
330
1F
100
AcDbEntity
  8
0
  6
Continuous
 62
     7
370
     0
100
AcDbMText
 10
181.840143599
 20
8.9887222529
 30
0.0
 40
1.6282051282
 41
0.0
 71
     1
 72
     1
  1
REV
  7
SLDTEXTSTYLE0
 73
     1
 44
1.0
  0
MTEXT
  5
DD
330
1F
100
AcDbEntity
  8
0
  6
Continuous
 62
     7
370
     0
100
AcDbMText
 10
181.8176851606
 20
20.7302376219
 30
0.0
 40
1.6282051282
 41
0.0
 71
     1
 72
     1
  1
MATERIAL:
  7
SLDTEXTSTYLE0
 73
     1
 44
1.0
  0
MTEXT
  5
DE
330
1F
100
AcDbEntity
  8
0
  6
Continuous
 62
     7
370
     0
100
AcDbMText
 10
194.3145371159
 20
17.0903950913
 30
0.0
 40
1.9230769231
 41
0.0
 71
     1
 72
     1
  1
N/A
  7
SLDTEXTSTYLE0
 73
     1
 44
1.0
  0
MTEXT
  5
DF
330
1F
100
AcDbEntity
  8
0
  6
Continuous
 62
     7
370
     0
100
AcDbMText
 10
20.4638408872
 20
157.2718089669
 30
0.0
 40
1.6282051282
 41
0.0
 71
     1
 72
     1
  1
1
  7
SLDTEXTSTYLE0
 73
     1
 44
1.0
  0
MTEXT
  5
E0
330
1F
100
AcDbEntity
  8
0
  6
Continuous
 62
     7
370
     0
100
AcDbMText
 10
46.7054612095
 20
157.2718089669
 30
0.0
 40
1.6282051282
 41
0.0
 71
     1
 72
     1
  1
2
  7
SLDTEXTSTYLE0
 73
     1
 44
1.0
  0
MTEXT
  5
E1
330
1F
100
AcDbEntity
  8
0
  6
Continuous
 62
     7
370
     0
100
AcDbMText
 10
73.0007649159
 20
157.2718089669
 30
0.0
 40
1.6282051282
 41
0.0
 71
     1
 72
     1
  1
3
  7
SLDTEXTSTYLE0
 73
     1
 44
1.0
  0
MTEXT
  5
E2
330
1F
100
AcDbEntity
  8
0
  6
Continuous
 62
     7
370
     0
100
AcDbMText
 10
99.4256432962
 20
157.1532757203
 30
0.0
 40
1.6282051282
 41
0.0
 71
     1
 72
     1
  1
4
  7
SLDTEXTSTYLE0
 73
     1
 44
1.0
  0
MTEXT
  5
E3
330
1F
100
AcDbEntity
  8
0
  6
Continuous
 62
     7
370
     0
100
AcDbMText
 10
125.924864203
 20
157.2718089669
 30
0.0
 40
1.6282051282
 41
0.0
 71
     1
 72
     1
  1
5
  7
SLDTEXTSTYLE0
 73
     1
 44
1.0
  0
MTEXT
  5
E4
330
1F
100
AcDbEntity
  8
0
  6
Continuous
 62
     7
370
     0
100
AcDbMText
 10
152.7986284935
 20
157.2718089669
 30
0.0
 40
1.6282051282
 41
0.0
 71
     1
 72
     1
  1
6
  7
SLDTEXTSTYLE0
 73
     1
 44
1.0
  0
MTEXT
  5
E5
330
1F
100
AcDbEntity
  8
0
  6
Continuous
 62
     7
370
     0
100
AcDbMText
 10
180.279281339
 20
157.2718089669
 30
0.0
 40
1.6282051282
 41
0.0
 71
     1
 72
     1
  1
7
  7
SLDTEXTSTYLE0
 73
     1
 44
1.0
  0
MTEXT
  5
E6
330
1F
100
AcDbEntity
  8
0
  6
Continuous
 62
     7
370
     0
100
AcDbMText
 10
204.8298323457
 20
157.2718089669
 30
0.0
 40
1.6282051282
 41
0.0
 71
     1
 72
     1
  1
8
  7
SLDTEXTSTYLE0
 73
     1
 44
1.0
  0
MTEXT
  5
E7
330
1F
100
AcDbEntity
  8
0
  6
Continuous
 62
     7
370
     0
100
AcDbMText
 10
4.1206335811
 20
142.9317709907
 30
0.0
 40
1.6282051282
 41
0.0
 71
     1
 72
     1
  1
A
  7
SLDTEXTSTYLE0
 73
     1
 44
1.0
  0
MTEXT
  5
E8
330
1F
100
AcDbEntity
  8
0
  6
Continuous
 62
     7
370
     0
100
AcDbMText
 10
4.3008024486
 20
118.6917729414
 30
0.0
 40
1.6282051282
 41
0.0
 71
     1
 72
     1
  1
B
  7
SLDTEXTSTYLE0
 73
     1
 44
1.0
  0
MTEXT
  5
E9
330
1F
100
AcDbEntity
  8
0
  6
Continuous
 62
     7
370
     0
100
AcDbMText
 10
4.3008024486
 20
93.2879626331
 30
0.0
 40
1.6282051282
 41
0.0
 71
     1
 72
     1
  1
C
  7
SLDTEXTSTYLE0
 73
     1
 44
1.0
  0
MTEXT
  5
EA
330
1F
100
AcDbEntity
  8
0
  6
Continuous
 62
     7
370
     0
100
AcDbMText
 10
4.3008024486
 20
68.2656323247
 30
0.0
 40
1.6282051282
 41
0.0
 71
     1
 72
     1
  1
D
  7
SLDTEXTSTYLE0
 73
     1
 44
1.0
  0
MTEXT
  5
EB
330
1F
100
AcDbEntity
  8
0
  6
Continuous
 62
     7
370
     0
100
AcDbMText
 10
4.3008024486
 20
44.2737576305
 30
0.0
 40
1.6282051282
 41
0.0
 71
     1
 72
     1
  1
E
  7
SLDTEXTSTYLE0
 73
     1
 44
1.0
  0
MTEXT
  5
EC
330
1F
100
AcDbEntity
  8
0
  6
Continuous
 62
     7
370
     0
100
AcDbMText
 10
4.3008024486
 20
19.6687855578
 30
0.0
 40
1.6282051282
 41
0.0
 71
     1
 72
     1
  1
F
  7
SLDTEXTSTYLE0
 73
     1
 44
1.0
  0
MTEXT
  5
ED
330
1F
100
AcDbEntity
  8
0
  6
Continuous
 62
     7
370
     0
100
AcDbMText
 10
204.7583551511
 20
5.095094151
 30
0.0
 40
1.6282051282
 41
0.0
 71
     1
 72
     1
  1
8
  7
SLDTEXTSTYLE0
 73
     1
 44
1.0
  0
MTEXT
  5
EE
330
1F
100
AcDbEntity
  8
0
  6
Continuous
 62
     7
370
     0
100
AcDbMText
 10
180.2078041443
 20
5.095094151
 30
0.0
 40
1.6282051282
 41
0.0
 71
     1
 72
     1
  1
7
  7
SLDTEXTSTYLE0
 73
     1
 44
1.0
  0
MTEXT
  5
EF
330
1F
100
AcDbEntity
  8
0
  6
Continuous
 62
     7
370
     0
100
AcDbMText
 10
152.7271512988
 20
5.095094151
 30
0.0
 40
1.6282051282
 41
0.0
 71
     1
 72
     1
  1
6
  7
SLDTEXTSTYLE0
 73
     1
 44
1.0
  0
MTEXT
  5
F0
330
1F
100
AcDbEntity
  8
0
  6
Continuous
 62
     7
370
     0
100
AcDbMText
 10
125.8533870084
 20
5.095094151
 30
0.0
 40
1.6282051282
 41
0.0
 71
     1
 72
     1
  1
5
  7
SLDTEXTSTYLE0
 73
     1
 44
1.0
  0
MTEXT
  5
F1
330
1F
100
AcDbEntity
  8
0
  6
Continuous
 62
     7
370
     0
100
AcDbMText
 10
99.3541661016
 20
4.9765609045
 30
0.0
 40
1.6282051282
 41
0.0
 71
     1
 72
     1
  1
4
  7
SLDTEXTSTYLE0
 73
     1
 44
1.0
  0
MTEXT
  5
F2
330
1F
100
AcDbEntity
  8
0
  6
Continuous
 62
     7
370
     0
100
AcDbMText
 10
72.9292877212
 20
5.095094151
 30
0.0
 40
1.6282051282
 41
0.0
 71
     1
 72
     1
  1
3
  7
SLDTEXTSTYLE0
 73
     1
 44
1.0
  0
MTEXT
  5
F3
330
1F
100
AcDbEntity
  8
0
  6
Continuous
 62
     7
370
     0
100
AcDbMText
 10
46.6339840149
 20
5.095094151
 30
0.0
 40
1.6282051282
 41
0.0
 71
     1
 72
     1
  1
2
  7
SLDTEXTSTYLE0
 73
     1
 44
1.0
  0
MTEXT
  5
F4
330
1F
100
AcDbEntity
  8
0
  6
Continuous
 62
     7
370
     0
100
AcDbMText
 10
20.3923636925
 20
5.095094151
 30
0.0
 40
1.6282051282
 41
0.0
 71
     1
 72
     1
  1
1
  7
SLDTEXTSTYLE0
 73
     1
 44
1.0
  0
MTEXT
  5
F5
330
1F
100
AcDbEntity
  8
0
  6
Continuous
 62
     7
370
     0
100
AcDbMText
 10
220.847988165
 20
143.5711468532
 30
0.0
 40
1.6282051282
 41
0.0
 71
     1
 72
     1
  1
A
  7
SLDTEXTSTYLE0
 73
     1
 44
1.0
  0
MTEXT
  5
F6
330
1F
100
AcDbEntity
  8
0
  6
Continuous
 62
     7
370
     0
100
AcDbMText
 10
221.0281570324
 20
119.3311488039
 30
0.0
 40
1.6282051282
 41
0.0
 71
     1
 72
     1
  1
B
  7
SLDTEXTSTYLE0
 73
     1
 44
1.0
  0
MTEXT
  5
F7
330
1F
100
AcDbEntity
  8
0
  6
Continuous
 62
     7
370
     0
100
AcDbMText
 10
221.0281570324
 20
93.9273384956
 30
0.0
 40
1.6282051282
 41
0.0
 71
     1
 72
     1
  1
C
  7
SLDTEXTSTYLE0
 73
     1
 44
1.0
  0
MTEXT
  5
F8
330
1F
100
AcDbEntity
  8
0
  6
Continuous
 62
     7
370
     0
100
AcDbMText
 10
221.0281570324
 20
68.9050081872
 30
0.0
 40
1.6282051282
 41
0.0
 71
     1
 72
     1
  1
D
  7
SLDTEXTSTYLE0
 73
     1
 44
1.0
  0
MTEXT
  5
F9
330
1F
100
AcDbEntity
  8
0
  6
Continuous
 62
     7
370
     0
100
AcDbMText
 10
221.0281570324
 20
44.913133493
 30
0.0
 40
1.6282051282
 41
0.0
 71
     1
 72
     1
  1
E
  7
SLDTEXTSTYLE0
 73
     1
 44
1.0
  0
MTEXT
  5
FA
330
1F
100
AcDbEntity
  8
0
  6
Continuous
 62
     7
370
     0
100
AcDbMText
 10
221.0281570324
 20
20.3081614203
 30
0.0
 40
1.6282051282
 41
0.0
 71
     1
 72
     1
  1
F
  7
SLDTEXTSTYLE0
 73
     1
 44
1.0
  0
MTEXT
  5
FB
330
1F
100
AcDbEntity
  8
0
  6
Continuous
 62
     7
370
     0
100
AcDbMText
 10
156.2733176002
 20
16.6051652701
 30
0.0
 40
1.4246794872
 41
0.0
 71
     1
 72
     1
  1
Sky
  7
SLDTEXTSTYLE0
 73
     1
 44
1.0
  0
MTEXT
  5
FC
330
1F
100
AcDbEntity
  8
0
  6
Continuous
 62
     7
370
     0
100
AcDbMText
 10
194.4986338189
 20
9.2692593045
 30
0.0
 40
1.9230769231
 41
0.0
 71
     1
 72
     1
  1
0
  7
SLDTEXTSTYLE0
 73
     1
 44
1.0
  0
INSERT
  5
102
330
1F
100
AcDbEntity
  8
SLD-0
 62
     7
100
AcDbBlockReference
  2
SW_NOTE_1
 10
152.8655303027
 20
25.8061342471
 30
0.0
  0
CIRCLE
  5
103
330
1F
100
AcDbEntity
  8
0
  6
Continuous
 62
     7
370
    30
100
AcDbCircle
 10
100.617768045
 20
88.3806499034
 30
0.0
 40
3.299999999999997
  0
LINE
  5
104
330
1F
100
AcDbEntity
  8
0
  6
Continuous
 62
     7
370
    30
100
AcDbLine
 10
50.6177672999
 20
97.8806495979
 30
0.0
 11
50.6177672999
 21
93.8806498736
 31
0.0
  0
LINE
  5
105
330
1F
100
AcDbEntity
  8
0
  6
Continuous
 62
     7
370
    30
100
AcDbLine
 10
100.617768045
 20
97.8806495979
 30
0.0
 11
50.6177672999
 21
97.8806495979
 31
0.0
  0
ARC
  5
106
330
1F
100
AcDbEntity
  8
0
  6
Continuous
 62
     7
370
    30
100
AcDbCircle
 10
100.617768045
 20
88.3806499034
 30
0.0
 40
9.5
100
AcDbArc
 50
270.0
 51
90.0
  0
LINE
  5
107
330
1F
100
AcDbEntity
  8
0
  6
Continuous
 62
     7
370
    30
100
AcDbLine
 10
50.6177672999
 20
78.8806502089
 30
0.0
 11
100.617768045
 21
78.8806502089
 31
0.0
  0
LINE
  5
108
330
1F
100
AcDbEntity
  8
0
  6
Continuous
 62
     7
370
    30
100
AcDbLine
 10
50.6177672999
 20
82.8806499332
 30
0.0
 11
50.6177672999
 21
78.8806502089
 31
0.0
  0
LINE
  5
109
330
1F
100
AcDbEntity
  8
0
  6
Continuous
 62
     7
370
    30
100
AcDbLine
 10
50.6177672999
 20
82.8806499332
 30
0.0
 11
76.1177686858
 21
82.8806499332
 31
0.0
  0
ARC
  5
10A
330
1F
100
AcDbEntity
  8
0
  6
Continuous
 62
     7
370
    30
100
AcDbCircle
 10
76.117768045
 20
88.3806499034
 30
0.0
 40
5.5
100
AcDbArc
 50
270.0
 51
90.0
  0
LINE
  5
10B
330
1F
100
AcDbEntity
  8
0
  6
Continuous
 62
     7
370
    30
100
AcDbLine
 10
76.1177686858
 20
93.8806498736
 30
0.0
 11
50.6177672999
 21
93.8806498736
 31
0.0
  0
LINE
  5
10C
330
1F
100
AcDbEntity
  8
0
  6
Continuous
 62
     7
370
    30
100
AcDbLine
 10
76.1177686858
 20
84.8806497954
 30
0.0
 11
50.6177672999
 21
84.8806497954
 31
0.0
  0
ARC
  5
10D
330
1F
100
AcDbEntity
  8
0
  6
Continuous
 62
     7
370
    30
100
AcDbCircle
 10
76.117768045
 20
88.3806499034
 30
0.0
 40
3.500000000000014
100
AcDbArc
 50
270.0
 51
90.0
  0
LINE
  5
10E
330
1F
100
AcDbEntity
  8
0
  6
Continuous
 62
     7
370
    30
100
AcDbLine
 10
50.6177672999
 20
91.8806500114
 30
0.0
 11
76.1177686858
 21
91.8806500114
 31
0.0
  0
LINE
  5
10F
330
1F
100
AcDbEntity
  8
0
  6
Continuous
 62
     7
370
    30
100
AcDbLine
 10
50.6177672999
 20
84.8806497954
 30
0.0
 11
50.6177672999
 21
82.8806499332
 31
0.0
  0
LINE
  5
110
330
1F
100
AcDbEntity
  8
0
  6
Continuous
 62
     7
370
    30
100
AcDbLine
 10
50.6177672999
 20
93.8806498736
 30
0.0
 11
50.6177672999
 21
91.8806500114
 31
0.0
  0
CIRCLE
  5
111
330
1F
100
AcDbEntity
  8
0
  6
HIDDEN
 62
     7
370
     0
100
AcDbCircle
 10
100.617768045
 20
88.3806499034
 30
0.0
 40
5.5
  0
DIMENSION
  5
112
330
1F
100
AcDbEntity
  8
SLD-0
 62
     7
100
AcDbDimension
  2
_D
 10
50.617768045
 20
70.8111964537
 30
0.0
 11
63.367768045
 21
70.8111964537
 31
0.0
 70
   160
  1
<>
 71
     2
 42
-1.0
  3
SLDDIMSTYLE0
100
AcDbAlignedDimension
 13
76.117768045
 23
84.8806499034
 33
0.0
 14
50.617768045
 24
78.8806499034
 34
0.0
100
AcDbRotatedDimension
  0
DIMENSION
  5
11D
330
1F
100
AcDbEntity
  8
SLD-0
 62
     7
100
AcDbDimension
  2
_D_1
 10
44.2759424246
 20
97.8806499034
 30
0.0
 11
44.2759424246
 21
88.3806499034
 31
0.0
 70
   160
  1
<>
 71
     2
 42
-1.0
  3
SLDDIMSTYLE0
100
AcDbAlignedDimension
 13
50.617768045
 23
78.8806499034
 33
0.0
 14
50.617768045
 24
97.8806499034
 34
0.0
 50
90.0
100
AcDbRotatedDimension
  0
DIMENSION
  5
127
330
1F
100
AcDbEntity
  8
SLD-0
 62
     7
100
AcDbDimension
  2
_D_2
 10
98.7153593074
 20
85.6842002014
 30
0.0
 11
126.1451884437
 21
110.3377895352
 31
0.0
 70
   163
  1
1 HOLE,\PM6(1/4"-20) CLR
 71
     1
 42
-1.0
  3
SLDDIMSTYLE1
100
AcDbDiametricDimension
 15
102.5201767826
 25
91.0770996054
 35
0.0
 40
0.0
  0
DIMENSION
  5
131
330
1F
100
AcDbEntity
  8
SLD-0
 62
     7
100
AcDbDimension
  2
_D_3
 10
76.117768045
 20
88.3806499034
 30
0.0
 11
44.2759424246
 21
109.0574872539
 31
0.0
 70
   164
  1
M6(1/4"-20) SLOT CLR
 71
     1
 42
-1.0
  3
SLDDIMSTYLE2
100
AcDbRadialDimension
 15
78.4475922477
 25
85.7687695109
 35
0.0
 40
0.0
  0
DIMENSION
  5
13A
330
1F
100
AcDbEntity
  8
SLD-0
100
AcDbDimension
  2
_D_4
 10
110.117768045
 20
62.7268037495
 30
0.0
 11
80.367768045
 21
62.7268037495
 31
0.0
 70
   160
  1
<>
 71
     2
 42
-1.0
  3
SLDDIMSTYLE0
100
AcDbAlignedDimension
 13
50.617768045
 23
78.8806499034
 33
0.0
 14
110.117768045
 24
88.3806499034
 34
0.0
 50
0.0
100
AcDbRotatedDimension
  0
DIMENSION
  5
144
330
1F
100
AcDbEntity
  8
SLD-0
100
AcDbDimension
  2
_D_5
 10
100.617768045
 20
88.3806499034
 30
0.0
 11
122.8401931584
 21
73.6078233957
 31
0.0
 70
   164
  1
<>
 71
     1
 42
-1.0
  3
SLDDIMSTYLE3
100
AcDbRadialDimension
 15
107.7507027067
 25
82.1059990675
 35
0.0
 40
0.0
  0
INSERT
  5
158
330
1F
100
AcDbEntity
  8
SLD-0
 62
     7
100
AcDbBlockReference
  2
SW_CENTERMARKSYMBOL_0
 10
100.617768045
 20
88.3806499034
 30
0.0
  0
INSERT
  5
164
330
1F
100
AcDbEntity
  8
SLD-0
 62
     7
100
AcDbBlockReference
  2
SW_CENTERMARKSYMBOL_1
 10
76.117768045
 20
88.3806499034
 30
0.0
  0
LINE
  5
165
330
1F
100
AcDbEntity
  8
0
  6
Continuous
 62
     7
370
    30
100
AcDbLine
 10
206.7395833167
 20
101.1343398323
 30
0.0
 11
206.7395833167
 21
107.2583959214
 31
0.0
  0
LWPOLYLINE
  5
166
330
1F
100
AcDbEntity
  8
0
  6
Continuous
 62
     7
370
    30
100
AcDbPolyline
 90
       51
 70
   128
 43
0.0
 10
199.5730356946
 20
108.6054693059
 10
199.8470948575
 20
108.4260141668
 10
200.0800320058
 20
108.2281449905
 10
200.2681735814
 20
108.014982292
 10
200.4085524794
 20
107.7898877745
 10
200.4989548406
 20
107.556411313
 10
200.5379549659
 20
107.3182349707
 10
200.5249377999
 20
107.0791149309
 10
200.4601086311
 20
106.8428222594
 10
200.3444898542
 20
106.6130834328
 10
200.1799048465
 20
106.3935215696
 10
199.9689492118
 20
106.1875992916
 10
199.7149498465
 20
105.9985641162
 10
199.4219124722
 20
105.8293972409
 10
199.0944584636
 20
105.6827665284
 10
198.7377519658
 20
105.5609844327
 10
198.3574184535
 20
105.4659715301
 10
197.9594560133
 20
105.3992262309
 10
197.5501407506
 20
105.3618011484
 10
197.1359278117
 20
105.3542864984
 10
196.723349582
 20
105.3768007915
 10
196.3189126667
 20
105.4289889638
 10
195.9289952776
 20
105.5100279766
 10
195.5597466447
 20
105.6186397964
 10
195.2169900396
 20
105.7531115498
 10
194.9061309388
 20
105.9113225369
 10
194.6320717758
 20
106.090777676
 10
194.3991346276
 20
106.2886468524
 10
194.2109930519
 20
106.5018095508
 10
194.0706141539
 20
106.7269040683
 10
193.9802117927
 20
106.9603805298
 10
193.9412116675
 20
107.1985568721
 10
193.9542288335
 20
107.4376769119
 10
194.0190580023
 20
107.6739695834
 10
194.1346767791
 20
107.90370841
 10
194.2992617868
 20
108.1232702732
 10
194.5102174216
 20
108.3291925512
 10
194.7642167869
 20
108.5182277266
 10
195.0572541611
 20
108.687394602
 10
195.3847081698
 20
108.8340253144
 10
195.7414146675
 20
108.9558074102
 10
196.1217481799
 20
109.0508203127
 10
196.5197106201
 20
109.1175656119
 10
196.9290258827
 20
109.1549906944
 10
197.3432388216
 20
109.1625053444
 10
197.7558170513
 20
109.1399910513
 10
198.1602539666
 20
109.087802879
 10
198.5501713558
 20
109.0067638662
 10
198.9194199886
 20
108.8981520464
 10
199.2621765937
 20
108.7636802931
 10
199.5730356946
 20
108.6054693059
  0
LINE
  5
167
330
1F
100
AcDbEntity
  8
0
  6
Continuous
 62
     7
370
    30
100
AcDbLine
 10
168.6017586786
 20
131.5465372481
 30
0.0
 11
165.7733315539
 21
129.9137210245
 31
0.0
  0
LINE
  5
168
330
1F
100
AcDbEntity
  8
0
  6
Continuous
 62
     7
370
    30
100
AcDbLine
 10
203.9570977379
 20
111.1363344526
 30
0.0
 11
168.6017586786
 21
131.5465372481
 31
0.0
  0
LWPOLYLINE
  5
169
330
1F
100
AcDbEntity
  8
0
  6
Continuous
 62
     7
370
    30
100
AcDbPolyline
 90
       43
 70
   128
 43
0.0
 10
190.5220688954
 20
103.3804573903
 10
191.0428529095
 20
103.1015021835
 10
191.5982915537
 20
102.8457940128
 10
192.1852785898
 20
102.6147629019
 10
192.8005313481
 20
102.4097008704
 10
193.4406090856
 20
102.2317547085
 10
194.1019322281
 20
102.0819195632
 10
194.7808023882
 20
101.9610333735
 10
195.4734230486
 20
101.869772184
 10
196.1759207937
 20
101.8086463643
 10
196.884366971
 20
101.7779977547
 10
197.5947996623
 20
101.7779977547
 10
198.3032458397
 20
101.8086463643
 10
199.0057435847
 20
101.869772184
 10
199.6983642451
 20
101.9610333735
 10
200.3772344052
 20
102.0819195632
 10
201.0385575477
 20
102.2317547085
 10
201.6786352853
 20
102.4097008704
 10
202.2938880436
 20
102.6147629019
 10
202.8808750796
 20
102.8457940128
 10
203.4363137238
 20
103.1015021835
 10
203.9570977379
 20
103.3804573903
 10
204.4403146866
 20
103.6810996023
 10
204.8832622245
 20
104.0017475064
 10
205.2834632093
 20
104.3406079094
 10
205.638679555
 20
104.6957857666
 10
205.9469247474
 20
105.0652947793
 10
206.2064749546
 20
105.4470685032
 10
206.4158786664
 20
105.8389719047
 10
206.5739648124
 20
106.2388133011
 10
206.6798493107
 20
106.6443566171
 10
206.7329400122
 20
107.05333389
 10
206.7329400122
 20
107.4634579529
 10
206.6798493107
 20
107.8724352257
 10
206.5739648124
 20
108.2779785417
 10
206.4158786664
 20
108.6778199381
 10
206.2064749546
 20
109.0697233397
 10
205.9469247474
 20
109.4514970635
 10
205.638679555
 20
109.8210060762
 10
205.2834632093
 20
110.1761839334
 10
204.8832622245
 20
110.5150443365
 10
204.4403146866
 20
110.8356922406
 10
203.9570977379
 20
111.1363344526
  0
LINE
  5
16A
330
1F
100
AcDbEntity
  8
0
  6
Continuous
 62
     7
370
    30
100
AcDbLine
 10
155.1667298361
 20
123.7906601858
 30
0.0
 11
190.5220688954
 21
103.3804573903
 31
0.0
  0
LINE
  5
16B
330
1F
100
AcDbEntity
  8
0
  6
Continuous
 62
     7
370
    30
100
AcDbLine
 10
157.9951569608
 20
125.4234764095
 30
0.0
 11
155.1667298361
 21
123.7906601858
 31
0.0
  0
LINE
  5
16C
330
1F
100
AcDbEntity
  8
0
  6
Continuous
 62
     7
370
    30
100
AcDbLine
 10
157.9951569608
 20
125.4234764095
 30
0.0
 11
176.0263798811
 21
115.0142729837
 31
0.0
  0
LWPOLYLINE
  5
16D
330
1F
100
AcDbEntity
  8
0
  6
Continuous
 62
     7
370
    30
100
AcDbPolyline
 90
       33
 70
   128
 43
0.0
 10
176.0263798811
 20
115.0142729837
 10
176.4263041147
 20
114.805023393
 10
176.859830896
 20
114.6194107454
 10
177.3227851251
 20
114.4592225921
 10
177.8107082996
 20
114.3260016326
 10
178.3189014527
 20
114.2210308576
 10
178.8424704065
 20
114.1453211931
 10
179.3763729058
 20
114.0996017644
 10
179.9154671776
 20
114.0843128748
 10
180.4545614494
 20
114.0996017644
 10
180.9884639487
 20
114.1453211931
 10
181.5120329025
 20
114.2210308576
 10
182.0202260556
 20
114.3260016326
 10
182.5081492301
 20
114.4592225921
 10
182.9711034592
 20
114.6194107454
 10
183.4046302405
 20
114.805023393
 10
183.8045544741
 20
115.0142729837
 10
184.1670246711
 20
115.2451443296
 10
184.4885500453
 20
115.4954140133
 10
184.7660341315
 20
115.762671801
 10
184.9968046064
 20
116.0443438541
 10
185.1786390241
 20
116.3377175167
 10
185.3097862198
 20
116.6399674402
 10
185.3889831743
 20
116.9481827925
 10
185.4154671776
 20
117.2593952912
 10
185.3889831743
 20
117.57060779
 10
185.3097862198
 20
117.8788231423
 10
185.1786390241
 20
118.1810730658
 10
184.9968046064
 20
118.4744467284
 10
184.7660341315
 20
118.7561187815
 10
184.4885500453
 20
119.0233765692
 10
184.1670246711
 20
119.2736462529
 10
183.8045544741
 20
119.5045175988
  0
LINE
  5
16E
330
1F
100
AcDbEntity
  8
0
  6
Continuous
 62
     7
370
    30
100
AcDbLine
 10
183.8045544741
 20
119.5045175988
 30
0.0
 11
165.7733315539
 21
129.9137210245
 31
0.0
  0
LINE
  5
16F
330
1F
100
AcDbEntity
  8
0
  6
Continuous
 62
     7
370
    30
100
AcDbLine
 10
190.5220688954
 20
103.3804573903
 30
0.0
 11
190.5220688954
 21
97.2564013011
 31
0.0
  0
LWPOLYLINE
  5
170
330
1F
100
AcDbEntity
  8
0
  6
Continuous
 62
     7
370
    30
100
AcDbPolyline
 90
       33
 70
   128
 43
0.0
 10
190.5220688954
 20
97.2564013011
 10
191.0428529095
 20
96.9774460944
 10
191.5982915537
 20
96.7217379237
 10
192.1852785898
 20
96.4907068127
 10
192.8005313481
 20
96.2856447813
 10
193.4406090856
 20
96.1076986194
 10
194.1019322281
 20
95.9578634741
 10
194.7808023882
 20
95.8369772844
 10
195.4734230486
 20
95.7457160949
 10
196.1759207937
 20
95.6845902751
 10
196.884366971
 20
95.6539416655
 10
197.5947996623
 20
95.6539416655
 10
198.3032458397
 20
95.6845902751
 10
199.0057435847
 20
95.7457160949
 10
199.6983642451
 20
95.8369772844
 10
200.3772344052
 20
95.9578634741
 10
201.0385575477
 20
96.1076986194
 10
201.6786352853
 20
96.2856447813
 10
202.2938880436
 20
96.4907068127
 10
202.8808750796
 20
96.7217379237
 10
203.4363137238
 20
96.9774460944
 10
203.9570977379
 20
97.2564013011
 10
204.4403146866
 20
97.5570435131
 10
204.8832622245
 20
97.8776914172
 10
205.2834632093
 20
98.2165518203
 10
205.638679555
 20
98.5717296775
 10
205.9469247474
 20
98.9412386902
 10
206.2064749546
 20
99.323012414
 10
206.4158786664
 20
99.7149158156
 10
206.5739648124
 20
100.114757212
 10
206.6798493107
 20
100.5203005279
 10
206.7329400122
 20
100.9292778008
 10
206.7395833167
 20
101.1343398323
  0
LINE
  5
171
330
1F
100
AcDbEntity
  8
0
  6
Continuous
 62
     7
370
    30
100
AcDbLine
 10
155.1667298361
 20
123.7906601858
 30
0.0
 11
155.1667298361
 21
117.6666040967
 31
0.0
  0
LINE
  5
172
330
1F
100
AcDbEntity
  8
0
  6
Continuous
 62
     7
370
    30
100
AcDbLine
 10
155.1667298361
 20
117.6666040967
 30
0.0
 11
190.5220688954
 21
97.2564013011
 31
0.0
  0
ARC
  5
173
330
1F
100
AcDbEntity
  8
0
  6
Continuous
 62
     7
370
    30
100
AcDbCircle
 10
198.5788515472
 20
105.5161374648
 30
0.0
 40
2.113016628805926
100
AcDbArc
 50
32.3243018542
 51
61.9329406178
  0
ARC
  5
174
330
1F
100
AcDbEntity
  8
0
  6
Continuous
 62
     7
370
    30
100
AcDbCircle
 10
197.3052741704
 20
103.5854113493
 30
0.0
 40
4.421158234991021
100
AcDbArc
 50
59.1405525022
 51
136.1909413791
  0
LINE
  5
175
330
1F
100
AcDbEntity
  8
0
  6
Continuous
 62
     7
370
    30
100
AcDbLine
 10
164.3591179915
 20
124.1980680414
 30
0.0
 11
181.6107602365
 21
114.23890696
 31
0.0
  0
LINE
  5
176
330
1F
100
AcDbEntity
  8
0
  6
Continuous
 62
     7
370
    30
100
AcDbLine
 10
165.7733315539
 20
125.0144761532
 30
0.0
 11
164.3591179915
 21
124.1980680414
 31
0.0
  0
LINE
  5
177
330
1F
100
AcDbEntity
  8
0
  6
Continuous
 62
     7
370
    30
100
AcDbLine
 10
183.4341445148
 20
114.8191058454
 30
0.0
 11
165.7733315539
 21
125.0144761532
 31
0.0
  0
LINE
  5
178
330
1F
100
AcDbEntity
  8
0
  6
Continuous
 62
     7
370
    30
100
AcDbLine
 10
165.7733315539
 20
125.0144761532
 30
0.0
 11
165.7733315539
 21
129.9137210245
 31
0.0
  0
LINE
  5
179
330
1F
100
AcDbEntity
  8
0
  6
Continuous
 62
     7
370
    30
100
AcDbLine
 10
164.3591179915
 20
122.9732568235
 30
0.0
 11
164.3591179915
 21
124.1980680414
 31
0.0
  0
LINE
  5
17A
330
1F
100
AcDbEntity
  8
0
  6
Continuous
 62
     7
370
    30
100
AcDbLine
 10
179.7545339113
 20
114.0856723906
 30
0.0
 11
164.3591179915
 21
122.9732568235
 31
0.0
  0
LINE
  5
17B
330
1F
100
AcDbEntity
  8
0
  6
Continuous
 62
     8
370
    30
100
AcDbLine
 10
183.8045544741
 20
115.0142729837
 30
0.0
 11
183.8045544741
 21
119.5045175988
 31
0.0
  0
LINE
  5
17C
330
1F
100
AcDbEntity
  8
0
  6
Continuous
 62
     7
370
    30
100
AcDbLine
 10
110.117768045
 20
41.9872199346
 30
0.0
 11
110.117768045
 21
49.4872199346
 31
0.0
  0
LINE
  5
17D
330
1F
100
AcDbEntity
  8
0
  6
Continuous
 62
     7
370
    30
100
AcDbLine
 10
100.617768045
 20
49.4872199346
 30
0.0
 11
100.617768045
 21
41.9872199346
 31
0.0
  0
LINE
  5
17E
330
1F
100
AcDbEntity
  8
0
  6
Continuous
 62
     7
370
    30
100
AcDbLine
 10
100.617768045
 20
41.9872199346
 30
0.0
 11
110.117768045
 21
41.9872199346
 31
0.0
  0
LINE
  5
17F
330
1F
100
AcDbEntity
  8
0
  6
Continuous
 62
     7
370
    30
100
AcDbLine
 10
100.617768045
 20
49.4872199346
 30
0.0
 11
110.117768045
 21
49.4872199346
 31
0.0
  0
LINE
  5
180
330
1F
100
AcDbEntity
  8
0
  6
Continuous
 62
     7
370
    30
100
AcDbLine
 10
50.617768045
 20
49.4872199346
 30
0.0
 11
50.617768045
 21
41.9872199346
 31
0.0
  0
LINE
  5
181
330
1F
100
AcDbEntity
  8
0
  6
Continuous
 62
     7
370
    30
100
AcDbLine
 10
50.617768045
 20
41.9872199346
 30
0.0
 11
100.617768045
 21
41.9872199346
 31
0.0
  0
LINE
  5
182
330
1F
100
AcDbEntity
  8
0
  6
Continuous
 62
     7
370
    30
100
AcDbLine
 10
50.617768045
 20
49.4872199346
 30
0.0
 11
100.617768045
 21
49.4872199346
 31
0.0
  0
LINE
  5
183
330
1F
100
AcDbEntity
  8
0
  6
HIDDEN
 62
     7
370
     0
100
AcDbLine
 10
100.617768045
 20
49.4872199346
 30
0.0
 11
100.617768045
 21
41.9872199346
 31
0.0
  0
LINE
  5
184
330
1F
100
AcDbEntity
  8
0
  6
HIDDEN
 62
     7
370
     0
100
AcDbLine
 10
76.117768045
 20
43.4872199346
 30
0.0
 11
81.617768045
 21
43.4872199346
 31
0.0
  0
LINE
  5
185
330
1F
100
AcDbEntity
  8
0
  6
HIDDEN
 62
     7
370
     0
100
AcDbLine
 10
76.117768045
 20
43.4872199346
 30
0.0
 11
76.117768045
 21
49.4872199346
 31
0.0
  0
LINE
  5
186
330
1F
100
AcDbEntity
  8
0
  6
HIDDEN
 62
     7
370
     0
100
AcDbLine
 10
50.617768045
 20
43.4872199346
 30
0.0
 11
76.117768045
 21
43.4872199346
 31
0.0
  0
LINE
  5
187
330
1F
100
AcDbEntity
  8
0
  6
HIDDEN
 62
     7
370
     0
100
AcDbLine
 10
106.117768045
 20
47.9872199346
 30
0.0
 11
95.117768045
 21
47.9872199346
 31
0.0
  0
LINE
  5
188
330
1F
100
AcDbEntity
  8
0
  6
HIDDEN
 62
     7
370
     0
100
AcDbLine
 10
76.117768045
 20
41.9872199346
 30
0.0
 11
76.117768045
 21
43.4872199346
 31
0.0
  0
LINE
  5
189
330
1F
100
AcDbEntity
  8
0
  6
HIDDEN
 62
     7
370
     0
100
AcDbLine
 10
81.617768045
 20
43.4872199346
 30
0.0
 11
81.617768045
 21
49.4872199346
 31
0.0
  0
LINE
  5
18A
330
1F
100
AcDbEntity
  8
0
  6
HIDDEN
 62
     7
370
     0
100
AcDbLine
 10
106.117768045
 20
41.9872199346
 30
0.0
 11
106.117768045
 21
47.9872199346
 31
0.0
  0
LINE
  5
18B
330
1F
100
AcDbEntity
  8
0
  6
HIDDEN
 62
     7
370
     0
100
AcDbLine
 10
95.117768045
 20
47.9872199346
 30
0.0
 11
95.117768045
 21
41.9872199346
 31
0.0
  0
LINE
  5
18C
330
1F
100
AcDbEntity
  8
0
  6
HIDDEN
 62
     7
370
     0
100
AcDbLine
 10
79.617768045
 20
41.9872199346
 30
0.0
 11
79.617768045
 21
43.4872199346
 31
0.0
  0
LINE
  5
18D
330
1F
100
AcDbEntity
  8
0
  6
HIDDEN
 62
     7
370
     0
100
AcDbLine
 10
103.917768045
 20
47.9872199346
 30
0.0
 11
103.917768045
 21
49.4872199346
 31
0.0
  0
LINE
  5
18E
330
1F
100
AcDbEntity
  8
0
  6
HIDDEN
 62
     7
370
     0
100
AcDbLine
 10
97.317768045
 20
49.4872199346
 30
0.0
 11
97.317768045
 21
47.9872199346
 31
0.0
  0
DIMENSION
  5
18F
330
1F
100
AcDbEntity
  8
SLD-0
100
AcDbDimension
  2
_D_6
 10
41.6120264334
 20
41.9872199346
 30
0.0
 11
41.6120264334
 21
45.7372199346
 31
0.0
 70
   160
  1
<>
 71
     2
 42
-1.0
  3
SLDDIMSTYLE0
100
AcDbAlignedDimension
 13
50.617768045
 23
49.4872199346
 33
0.0
 14
50.617768045
 24
41.9872199346
 34
0.0
 50
90.0
100
AcDbRotatedDimension
  0
ENDSEC
  0
SECTION
  2
OBJECTS
  0
DICTIONARY
  5
C
330
0
100
AcDbDictionary
281
     1
  3
ACAD_GROUP
350
D
  3
ACAD_LAYOUT
350
1A
  3
ACAD_MLINESTYLE
350
17
  3
ACAD_PLOTSETTINGS
350
19
  3
ACAD_PLOTSTYLENAME
350
E
  3
ACAD_SCALELIST
350
47
  0
DICTIONARY
  5
D
102
{ACAD_REACTORS
330
C
102
}
330
C
100
AcDbDictionary
281
     1
  0
DICTIONARY
  5
1A
102
{ACAD_REACTORS
330
C
102
}
330
C
100
AcDbDictionary
281
     1
  3
Layout1
350
1E
  3
Layout2
350
26
  3
Model
350
22
  0
DICTIONARY
  5
17
102
{ACAD_REACTORS
330
C
102
}
330
C
100
AcDbDictionary
281
     1
  3
Standard
350
18
  0
DICTIONARY
  5
19
102
{ACAD_REACTORS
330
C
102
}
330
C
100
AcDbDictionary
281
     1
  0
ACDBDICTIONARYWDFLT
  5
E
102
{ACAD_REACTORS
330
C
102
}
330
C
100
AcDbDictionary
281
     1
  3
Normal
350
F
100
AcDbDictionaryWithDefault
340
F
  0
DICTIONARY
  5
47
102
{ACAD_REACTORS
330
C
102
}
330
C
100
AcDbDictionary
281
     1
  3
A0
350
48
  3
A1
350
49
  3
A2
350
4A
  3
A3
350
4B
  3
A4
350
4C
  3
A5
350
4D
  3
A6
350
4E
  3
A7
350
4F
  3
A8
350
50
  3
A9
350
51
  3
B0
350
52
  3
B1
350
53
  3
B2
350
54
  3
B3
350
55
  3
B4
350
56
  3
B5
350
57
  3
B6
350
58
  3
B7
350
59
  3
B8
350
5A
  3
B9
350
5B
  3
C0
350
5C
  3
C1
350
5D
  3
C2
350
5E
  3
C3
350
5F
  3
C4
350
60
  3
C5
350
61
  3
C6
350
62
  3
C7
350
63
  3
C8
350
64
  3
C9
350
65
  3
D0
350
66
  3
D1
350
67
  3
D2
350
68
  0
LAYOUT
  5
1E
102
{ACAD_REACTORS
330
1A
102
}
330
1A
100
AcDbPlotSettings
  1

  2
none_device
  4

  6

 40
0.0
 41
0.0
 42
0.0
 43
0.0
 44
0.0
 45
0.0
 46
0.0
 47
0.0
 48
0.0
 49
0.0
140
0.0
141
0.0
142
1.0
143
1.0
 70
   688
 72
     1
 73
     0
 74
     5
  7

 75
    16
147
1.0
148
0.0
149
0.0
100
AcDbLayout
  1
Layout1
 70
     1
 71
     1
 10
0.0
 20
0.0
 11
420.0
 21
297.0
 12
0.0
 22
0.0
 32
0.0
 14
1.0000000000E+20
 24
1.0000000000E+20
 34
1.0000000000E+20
 15
-1.0000000000E+20
 25
-1.0000000000E+20
 35
-1.0000000000E+20
146
0.0
 13
0.0
 23
0.0
 33
0.0
 16
1.0
 26
0.0
 36
0.0
 17
0.0
 27
1.0
 37
0.0
 76
     0
330
1B
  0
LAYOUT
  5
26
102
{ACAD_REACTORS
330
1A
102
}
330
1A
100
AcDbPlotSettings
  1

  2
none_device
  4

  6

 40
0.0
 41
0.0
 42
0.0
 43
0.0
 44
0.0
 45
0.0
 46
0.0
 47
0.0
 48
0.0
 49
0.0
140
0.0
141
0.0
142
1.0
143
1.0
 70
   688
 72
     1
 73
     0
 74
     5
  7

 75
    16
147
1.0
148
0.0
149
0.0
100
AcDbLayout
  1
Layout2
 70
     1
 71
     2
 10
0.0
 20
0.0
 11
0.0
 21
0.0
 12
0.0
 22
0.0
 32
0.0
 14
0.0
 24
0.0
 34
0.0
 15
0.0
 25
0.0
 35
0.0
146
0.0
 13
0.0
 23
0.0
 33
0.0
 16
1.0
 26
0.0
 36
0.0
 17
0.0
 27
1.0
 37
0.0
 76
     0
330
23
  0
LAYOUT
  5
22
102
{ACAD_REACTORS
330
1A
102
}
330
1A
100
AcDbPlotSettings
  1

  2
none_device
  4
Letter_(8.50_x_11.00_Inches)
  6

 40
6.35
 41
6.35
 42
6.35000508
 43
6.35000508
 44
215.9
 45
279.4
 46
0.0
 47
0.0
 48
0.0
 49
0.0
140
0.0
141
0.0
142
1.0
143
1.0
 70
  1712
 72
     1
 73
     0
 74
     0
  7

 75
     0
147
1.0
148
0.0
149
0.0
100
AcDbLayout
  1
Model
 70
     1
 71
     0
 10
0.0
 20
0.0
 11
228.4615384615
 21
161.5384615385
 12
0.0
 22
0.0
 32
0.0
 14
0.0
 24
0.0
 34
0.0
 15
228.4615384615
 25
161.5384615385
 35
0.0
146
0.0
 13
0.0
 23
0.0
 33
0.0
 16
1.0
 26
0.0
 36
0.0
 17
0.0
 27
1.0
 37
0.0
 76
     0
330
1F
331
29
  0
MLINESTYLE
  5
18
102
{ACAD_REACTORS
330
17
102
}
330
17
100
AcDbMlineStyle
  2
Standard
 70
     0
  3

 62
   256
 51
90.0
 52
90.0
 71
     2
 49
0.5
 62
   256
  6
BYLAYER
 49
-0.5
 62
   256
  6
BYLAYER
  0
ACDBPLACEHOLDER
  5
F
102
{ACAD_REACTORS
330
E
102
}
330
E
  0
SCALE
  5
48
102
{ACAD_REACTORS
330
47
102
}
330
47
100
AcDbScale
 70
     0
300
1:1
140
1.0
141
1.0
290
     1
  0
SCALE
  5
49
102
{ACAD_REACTORS
330
47
102
}
330
47
100
AcDbScale
 70
     0
300
1:2
140
1.0
141
2.0
290
     0
  0
SCALE
  5
4A
102
{ACAD_REACTORS
330
47
102
}
330
47
100
AcDbScale
 70
     0
300
1:4
140
1.0
141
4.0
290
     0
  0
SCALE
  5
4B
102
{ACAD_REACTORS
330
47
102
}
330
47
100
AcDbScale
 70
     0
300
1:5
140
1.0
141
5.0
290
     0
  0
SCALE
  5
4C
102
{ACAD_REACTORS
330
47
102
}
330
47
100
AcDbScale
 70
     0
300
1:8
140
1.0
141
8.0
290
     0
  0
SCALE
  5
4D
102
{ACAD_REACTORS
330
47
102
}
330
47
100
AcDbScale
 70
     0
300
1:10
140
1.0
141
10.0
290
     0
  0
SCALE
  5
4E
102
{ACAD_REACTORS
330
47
102
}
330
47
100
AcDbScale
 70
     0
300
1:16
140
1.0
141
16.0
290
     0
  0
SCALE
  5
4F
102
{ACAD_REACTORS
330
47
102
}
330
47
100
AcDbScale
 70
     0
300
1:20
140
1.0
141
20.0
290
     0
  0
SCALE
  5
50
102
{ACAD_REACTORS
330
47
102
}
330
47
100
AcDbScale
 70
     0
300
1:30
140
1.0
141
30.0
290
     0
  0
SCALE
  5
51
102
{ACAD_REACTORS
330
47
102
}
330
47
100
AcDbScale
 70
     0
300
1:40
140
1.0
141
40.0
290
     0
  0
SCALE
  5
52
102
{ACAD_REACTORS
330
47
102
}
330
47
100
AcDbScale
 70
     0
300
1:50
140
1.0
141
50.0
290
     0
  0
SCALE
  5
53
102
{ACAD_REACTORS
330
47
102
}
330
47
100
AcDbScale
 70
     0
300
1:100
140
1.0
141
100.0
290
     0
  0
SCALE
  5
54
102
{ACAD_REACTORS
330
47
102
}
330
47
100
AcDbScale
 70
     0
300
2:1
140
2.0
141
1.0
290
     0
  0
SCALE
  5
55
102
{ACAD_REACTORS
330
47
102
}
330
47
100
AcDbScale
 70
     0
300
4:1
140
4.0
141
1.0
290
     0
  0
SCALE
  5
56
102
{ACAD_REACTORS
330
47
102
}
330
47
100
AcDbScale
 70
     0
300
8:1
140
8.0
141
1.0
290
     0
  0
SCALE
  5
57
102
{ACAD_REACTORS
330
47
102
}
330
47
100
AcDbScale
 70
     0
300
10:1
140
10.0
141
1.0
290
     0
  0
SCALE
  5
58
102
{ACAD_REACTORS
330
47
102
}
330
47
100
AcDbScale
 70
     0
300
100:1
140
100.0
141
1.0
290
     0
  0
SCALE
  5
59
102
{ACAD_REACTORS
330
47
102
}
330
47
100
AcDbScale
 70
     0
300
1/128" = 1'-0"
140
0.0078125
141
12.0
290
     0
  0
SCALE
  5
5A
102
{ACAD_REACTORS
330
47
102
}
330
47
100
AcDbScale
 70
     0
300
1/64" = 1'-0"
140
0.015625
141
12.0
290
     0
  0
SCALE
  5
5B
102
{ACAD_REACTORS
330
47
102
}
330
47
100
AcDbScale
 70
     0
300
1/32" = 1'-0"
140
0.03125
141
12.0
290
     0
  0
SCALE
  5
5C
102
{ACAD_REACTORS
330
47
102
}
330
47
100
AcDbScale
 70
     0
300
1/16" = 1'-0"
140
0.0625
141
12.0
290
     0
  0
SCALE
  5
5D
102
{ACAD_REACTORS
330
47
102
}
330
47
100
AcDbScale
 70
     0
300
3/32" = 1'-0"
140
0.09375
141
12.0
290
     0
  0
SCALE
  5
5E
102
{ACAD_REACTORS
330
47
102
}
330
47
100
AcDbScale
 70
     0
300
1/8" = 1'-0"
140
0.125
141
12.0
290
     0
  0
SCALE
  5
5F
102
{ACAD_REACTORS
330
47
102
}
330
47
100
AcDbScale
 70
     0
300
3/16" = 1'-0"
140
0.1875
141
12.0
290
     0
  0
SCALE
  5
60
102
{ACAD_REACTORS
330
47
102
}
330
47
100
AcDbScale
 70
     0
300
1/4" = 1'-0"
140
0.25
141
12.0
290
     0
  0
SCALE
  5
61
102
{ACAD_REACTORS
330
47
102
}
330
47
100
AcDbScale
 70
     0
300
3/8" = 1'-0"
140
0.375
141
12.0
290
     0
  0
SCALE
  5
62
102
{ACAD_REACTORS
330
47
102
}
330
47
100
AcDbScale
 70
     0
300
1/2" = 1'-0"
140
0.5
141
12.0
290
     0
  0
SCALE
  5
63
102
{ACAD_REACTORS
330
47
102
}
330
47
100
AcDbScale
 70
     0
300
3/4" = 1'-0"
140
0.75
141
12.0
290
     0
  0
SCALE
  5
64
102
{ACAD_REACTORS
330
47
102
}
330
47
100
AcDbScale
 70
     0
300
1" = 1'-0"
140
1.0
141
12.0
290
     0
  0
SCALE
  5
65
102
{ACAD_REACTORS
330
47
102
}
330
47
100
AcDbScale
 70
     0
300
1-1/2" = 1'-0"
140
1.5
141
12.0
290
     0
  0
SCALE
  5
66
102
{ACAD_REACTORS
330
47
102
}
330
47
100
AcDbScale
 70
     0
300
3" = 1'-0"
140
3.0
141
12.0
290
     0
  0
SCALE
  5
67
102
{ACAD_REACTORS
330
47
102
}
330
47
100
AcDbScale
 70
     0
300
6" = 1'-0"
140
6.0
141
12.0
290
     0
  0
SCALE
  5
68
102
{ACAD_REACTORS
330
47
102
}
330
47
100
AcDbScale
 70
     0
300
1'-0" = 1'-0"
140
12.0
141
12.0
290
     0
  0
ENDSEC
  0
EOF
