  0
SECTION
  2
HEADER
  9
$ACADVER
  1
AC1015
  9
$ACADMAINTVER
 70
     6
  9
$DWGCODEPAGE
  3
ANSI_950
  9
$INSBASE
 10
0.0
 20
0.0
 30
0.0
  9
$EXTMIN
 10
0.0
 20
0.0
 30
0.0
  9
$EXTMAX
 10
297.0
 20
210.0
 30
0.0
  9
$LIMMIN
 10
0.0
 20
0.0
  9
$LIMMAX
 10
297.0
 20
210.0
  9
$ORTHOMODE
 70
     0
  9
$REGENMODE
 70
     1
  9
$FILLMODE
 70
     1
  9
$QTEXTMODE
 70
     0
  9
$MIRRTEXT
 70
     1
  9
$LTSCALE
 40
1.0
  9
$ATTMODE
 70
     1
  9
$TEXTSIZE
 40
2.5
  9
$TRACEWID
 40
1.0
  9
$TEXTSTYLE
  7
Standard
  9
$CLAYER
  8
0
  9
$CELTYPE
  6
ByLayer
  9
$CECOLOR
 62
   256
  9
$CELTSCALE
 40
1.0
  9
$DISPSILH
 70
     0
  9
$DIMSCALE
 40
1.0
  9
$DIMASZ
 40
2.0
  9
$DIMEXO
 40
1.0
  9
$DIMDLI
 40
3.75
  9
$DIMRND
 40
0.0
  9
$DIMDLE
 40
0.0
  9
$DIMEXE
 40
1.0
  9
$DIMTP
 40
0.0
  9
$DIMTM
 40
0.0
  9
$DIMTXT
 40
2.5
  9
$DIMCEN
 40
2.5
  9
$DIMTSZ
 40
0.0
  9
$DIMTOL
 70
     0
  9
$DIMLIM
 70
     0
  9
$DIMTIH
 70
     1
  9
$DIMTOH
 70
     1
  9
$DIMSE1
 70
     0
  9
$DIMSE2
 70
     0
  9
$DIMTAD
 70
     1
  9
$DIMZIN
 70
     0
  9
$DIMBLK
  1

  9
$DIMASO
 70
     1
  9
$DIMSHO
 70
     1
  9
$DIMPOST
  1

  9
$DIMAPOST
  1

  9
$DIMALT
 70
     0
  9
$DIMALTD
 70
     3
  9
$DIMALTF
 40
0.0393700787
  9
$DIMLFAC
 40
1.0
  9
$DIMTOFL
 70
     1
  9
$DIMTVP
 40
0.0
  9
$DIMTIX
 70
     0
  9
$DIMSOXD
 70
     0
  9
$DIMSAH
 70
     0
  9
$DIMBLK1
  1

  9
$DIMBLK2
  1

  9
$DIMSTYLE
  2
ISO-25
  9
$DIMCLRD
 70
     0
  9
$DIMCLRE
 70
     0
  9
$DIMCLRT
 70
     0
  9
$DIMTFAC
 40
1.0
  9
$DIMGAP
 40
1.0
  9
$DIMJUST
 70
     0
  9
$DIMSD1
 70
     0
  9
$DIMSD2
 70
     0
  9
$DIMTOLJ
 70
     0
  9
$DIMTZIN
 70
     0
  9
$DIMALTZ
 70
     0
  9
$DIMALTTZ
 70
     0
  9
$DIMUPT
 70
     0
  9
$DIMDEC
 70
     2
  9
$DIMTDEC
 70
     2
  9
$DIMALTU
 70
     2
  9
$DIMALTTD
 70
     3
  9
$DIMTXSTY
  7
Standard
  9
$DIMAUNIT
 70
     0
  9
$DIMADEC
 70
     1
  9
$DIMALTRND
 40
0.0
  9
$DIMAZIN
 70
     0
  9
$DIMDSEP
 70
    44
  9
$DIMATFIT
 70
     3
  9
$DIMFRAC
 70
     0
  9
$DIMLDRBLK
  1

  9
$DIMLUNIT
 70
     2
  9
$DIMLWD
 70
    -2
  9
$DIMLWE
 70
    -2
  9
$DIMTMOVE
 70
     0
  9
$LUNITS
 70
     2
  9
$LUPREC
 70
     2
  9
$SKETCHINC
 40
1.0
  9
$FILLETRAD
 40
10.0
  9
$AUNITS
 70
     0
  9
$AUPREC
 70
     1
  9
$MENU
  1
.
  9
$ELEVATION
 40
0.0
  9
$PELEVATION
 40
0.0
  9
$THICKNESS
 40
0.0
  9
$LIMCHECK
 70
     0
  9
$CHAMFERA
 40
0.0
  9
$CHAMFERB
 40
0.0
  9
$CHAMFERC
 40
0.0
  9
$CHAMFERD
 40
0.0
  9
$SKPOLY
 70
     0
  9
$TDCREATE
 40
2458227.426990822
  9
$TDUCREATE
 40
2458227.093657488
  9
$TDUPDATE
 40
2458227.427001748
  9
$TDUUPDATE
 40
2458227.093668414
  9
$TDINDWG
 40
0.0000000116
  9
$TDUSRTIMER
 40
0.0000000116
  9
$USRTIMER
 70
     1
  9
$ANGBASE
 50
0.0
  9
$ANGDIR
 70
     0
  9
$PDMODE
 70
     0
  9
$PDSIZE
 40
-1.0
  9
$PLINEWID
 40
0.0
  9
$SPLFRAME
 70
     0
  9
$SPLINETYPE
 70
     6
  9
$SPLINESEGS
 70
     8
  9
$HANDSEED
  5
330
  9
$SURFTAB1
 70
     6
  9
$SURFTAB2
 70
     6
  9
$SURFTYPE
 70
     6
  9
$SURFU
 70
     6
  9
$SURFV
 70
     6
  9
$UCSBASE
  2

  9
$UCSNAME
  2

  9
$UCSORG
 10
0.0
 20
0.0
 30
0.0
  9
$UCSXDIR
 10
1.0
 20
0.0
 30
0.0
  9
$UCSYDIR
 10
0.0
 20
1.0
 30
0.0
  9
$UCSORTHOREF
  2

  9
$UCSORTHOVIEW
 70
     0
  9
$UCSORGTOP
 10
0.0
 20
0.0
 30
0.0
  9
$UCSORGBOTTOM
 10
0.0
 20
0.0
 30
0.0
  9
$UCSORGLEFT
 10
0.0
 20
0.0
 30
0.0
  9
$UCSORGRIGHT
 10
0.0
 20
0.0
 30
0.0
  9
$UCSORGFRONT
 10
0.0
 20
0.0
 30
0.0
  9
$UCSORGBACK
 10
0.0
 20
0.0
 30
0.0
  9
$PUCSBASE
  2

  9
$PUCSNAME
  2

  9
$PUCSORG
 10
0.0
 20
0.0
 30
0.0
  9
$PUCSXDIR
 10
1.0
 20
0.0
 30
0.0
  9
$PUCSYDIR
 10
0.0
 20
1.0
 30
0.0
  9
$PUCSORTHOREF
  2

  9
$PUCSORTHOVIEW
 70
     0
  9
$PUCSORGTOP
 10
0.0
 20
0.0
 30
0.0
  9
$PUCSORGBOTTOM
 10
0.0
 20
0.0
 30
0.0
  9
$PUCSORGLEFT
 10
0.0
 20
0.0
 30
0.0
  9
$PUCSORGRIGHT
 10
0.0
 20
0.0
 30
0.0
  9
$PUCSORGFRONT
 10
0.0
 20
0.0
 30
0.0
  9
$PUCSORGBACK
 10
0.0
 20
0.0
 30
0.0
  9
$USERI1
 70
     0
  9
$USERI2
 70
     0
  9
$USERI3
 70
     0
  9
$USERI4
 70
     0
  9
$USERI5
 70
     0
  9
$USERR1
 40
0.0
  9
$USERR2
 40
0.0
  9
$USERR3
 40
0.0
  9
$USERR4
 40
0.0
  9
$USERR5
 40
0.0
  9
$WORLDVIEW
 70
     1
  9
$SHADEDGE
 70
     3
  9
$SHADEDIF
 70
    70
  9
$TILEMODE
 70
     1
  9
$MAXACTVP
 70
    64
  9
$PINSBASE
 10
0.0
 20
0.0
 30
0.0
  9
$PLIMCHECK
 70
     0
  9
$PEXTMIN
 10
1.0000000000E+20
 20
1.0000000000E+20
 30
1.0000000000E+20
  9
$PEXTMAX
 10
-1.0000000000E+20
 20
-1.0000000000E+20
 30
-1.0000000000E+20
  9
$PLIMMIN
 10
0.0
 20
0.0
  9
$PLIMMAX
 10
420.0
 20
297.0
  9
$UNITMODE
 70
     0
  9
$VISRETAIN
 70
     1
  9
$PLINEGEN
 70
     0
  9
$PSLTSCALE
 70
     1
  9
$TREEDEPTH
 70
  3020
  9
$CMLSTYLE
  2
Standard
  9
$CMLJUST
 70
     0
  9
$CMLSCALE
 40
20.0
  9
$PROXYGRAPHICS
 70
     1
  9
$MEASUREMENT
 70
     1
  9
$CELWEIGHT
370
    -1
  9
$ENDCAPS
280
     0
  9
$JOINSTYLE
280
     0
  9
$LWDISPLAY
290
     1
  9
$INSUNITS
 70
     4
  9
$HYPERLINKBASE
  1

  9
$STYLESHEET
  1

  9
$XEDIT
290
     1
  9
$CEPSNTYPE
380
     0
  9
$PSTYLEMODE
290
     1
  9
$FINGERPRINTGUID
  2
{FC00FFCC-4718-4EC3-B489-EAA1C4000E32}
  9
$VERSIONGUID
  2
{FAEB1C32-E019-11D5-929B-00C0DF256EC4}
  9
$EXTNAMES
290
     1
  9
$PSVPSCALE
 40
0.0
  9
$OLESTARTUP
290
     0
  0
ENDSEC
  0
SECTION
  2
CLASSES
  0
CLASS
  1
ACDBDICTIONARYWDFLT
  2
AcDbDictionaryWithDefault
  3
ObjectDBX Classes
 90
        0
280
     0
281
     0
  0
CLASS
  1
VISUALSTYLE
  2
AcDbVisualStyle
  3
ObjectDBX Classes
 90
     4095
280
     0
281
     0
  0
CLASS
  1
MATERIAL
  2
AcDbMaterial
  3
ObjectDBX Classes
 90
     1153
280
     0
281
     0
  0
CLASS
  1
SCALE
  2
AcDbScale
  3
ObjectDBX Classes
 90
     1153
280
     0
281
     0
  0
CLASS
  1
TABLESTYLE
  2
AcDbTableStyle
  3
ObjectDBX Classes
 90
     4095
280
     0
281
     0
  0
CLASS
  1
MLEADERSTYLE
  2
AcDbMLeaderStyle
  3
ACDB_MLEADERSTYLE_CLASS
 90
     4095
280
     0
281
     0
  0
CLASS
  1
SUN
  2
AcDbSun
  3
SCENEOE
 90
     1153
280
     0
281
     0
  0
CLASS
  1
ACDBPLACEHOLDER
  2
AcDbPlaceHolder
  3
ObjectDBX Classes
 90
        0
280
     0
281
     0
  0
CLASS
  1
LAYOUT
  2
AcDbLayout
  3
ObjectDBX Classes
 90
        0
280
     0
281
     0
  0
ENDSEC
  0
SECTION
  2
TABLES
  0
TABLE
  2
VPORT
  5
8
330
0
100
AcDbSymbolTable
 70
     1
  0
VPORT
  5
29
330
8
100
AcDbSymbolTableRecord
100
AcDbViewportTableRecord
  2
*Active
 70
     0
 10
0.0
 20
0.0
 11
1.0
 21
1.0
 12
148.5
 22
105.0
 13
0.0
 23
0.0
 14
10.0
 24
10.0
 15
10.0
 25
10.0
 16
0.0
 26
0.0
 36
1.0
 17
0.0
 27
0.0
 37
0.0
 40
210.0
 41
1.4142857143
 42
50.0
 43
0.0
 44
0.0
 50
0.0
 51
0.0
 71
     0
 72
  2000
 73
     1
 74
     3
 75
     0
 76
     0
 77
     0
 78
     0
281
     0
 65
     1
110
0.0
120
0.0
130
0.0
111
1.0
121
0.0
131
0.0
112
0.0
122
1.0
132
0.0
 79
     0
146
0.0
  0
ENDTAB
  0
TABLE
  2
LTYPE
  5
5
330
0
100
AcDbSymbolTable
 70
     6
  0
LTYPE
  5
14
330
5
100
AcDbSymbolTableRecord
100
AcDbLinetypeTableRecord
  2
ByBlock
 70
     0
  3

 72
    65
 73
     0
 40
0.0
  0
LTYPE
  5
15
330
5
100
AcDbSymbolTableRecord
100
AcDbLinetypeTableRecord
  2
ByLayer
 70
     0
  3

 72
    65
 73
     0
 40
0.0
  0
LTYPE
  5
16
330
5
100
AcDbSymbolTableRecord
100
AcDbLinetypeTableRecord
  2
Continuous
 70
     0
  3
Solid line
 72
    65
 73
     0
 40
0.0
  0
LTYPE
  5
6E
330
5
100
AcDbSymbolTableRecord
100
AcDbLinetypeTableRecord
  2
HIDDEN
 70
     0
  3
Hidden __ __ __ __ __ __ __ __ __ __ __ __ __ __
 72
    65
 73
     2
 40
1.905
 49
1.27
 74
     0
 49
-0.635
 74
     0
  0
LTYPE
  5
6F
330
5
100
AcDbSymbolTableRecord
100
AcDbLinetypeTableRecord
  2
PHANTOM
 70
     0
  3
Phantom ______  __  __  ______  __  __  ______
 72
    65
 73
     6
 40
12.7
 49
6.35
 74
     0
 49
-1.27
 74
     0
 49
1.27
 74
     0
 49
-1.27
 74
     0
 49
1.27
 74
     0
 49
-1.27
 74
     0
  0
LTYPE
  5
70
330
5
100
AcDbSymbolTableRecord
100
AcDbLinetypeTableRecord
  2
CENTER
 70
     0
  3
Center ____ _ ____ _ ____ _ ____ _ ____ _ ____
 72
    65
 73
     4
 40
10.16
 49
6.35
 74
     0
 49
-1.27
 74
     0
 49
1.27
 74
     0
 49
-1.27
 74
     0
  0
LTYPE
  5
71
330
5
100
AcDbSymbolTableRecord
100
AcDbLinetypeTableRecord
  2
CENTERX2
 70
     0
  3
Center (2x) ________  __  ________  __  _____
 72
    65
 73
     4
 40
20.32
 49
12.7
 74
     0
 49
-2.54
 74
     0
 49
2.54
 74
     0
 49
-2.54
 74
     0
  0
LTYPE
  5
72
330
5
100
AcDbSymbolTableRecord
100
AcDbLinetypeTableRecord
  2
DOT2
 70
     0
  3
Dot (.5x) ........................................
 72
    65
 73
     2
 40
0.635
 49
0.0
 74
     0
 49
-0.635
 74
     0
  0
ENDTAB
  0
TABLE
  2
LAYER
  5
2
330
0
100
AcDbSymbolTable
 70
    10
  0
LAYER
  5
10
330
2
100
AcDbSymbolTableRecord
100
AcDbLayerTableRecord
  2
0
 70
     0
 62
     7
  6
Continuous
370
    -3
390
F
  0
LAYER
  5
73
330
2
100
AcDbSymbolTableRecord
100
AcDbLayerTableRecord
  2
SLD-0
 70
     0
 62
   179
  6
Continuous
370
    15
390
F
  0
LAYER
  5
74
330
2
100
AcDbSymbolTableRecord
100
AcDbLayerTableRecord
  2
輪廓線
 70
     0
 62
   219
  6
Continuous
370
    15
390
F
  0
LAYER
  5
75
330
2
100
AcDbSymbolTableRecord
100
AcDbLayerTableRecord
  2
DIM
 70
     0
 62
     7
  6
Continuous
370
    -3
390
F
  0
LAYER
  5
76
330
2
100
AcDbSymbolTableRecord
100
AcDbLayerTableRecord
  2
中心線
 70
     0
 62
     7
  6
CENTERX2
370
    -3
390
F
  0
LAYER
  5
77
330
2
100
AcDbSymbolTableRecord
100
AcDbLayerTableRecord
  2
虛線
 70
     0
 62
     7
  6
HIDDEN
370
    -3
390
F
  0
LAYER
  5
78
330
2
100
AcDbSymbolTableRecord
100
AcDbLayerTableRecord
  2
SECTION
 70
     0
 62
     7
  6
PHANTOM
370
    15
390
F
  0
LAYER
  5
79
330
2
100
AcDbSymbolTableRecord
100
AcDbLayerTableRecord
  2
假想線
 70
     0
 62
     7
  6
PHANTOM
370
    -3
390
F
  0
LAYER
  5
7A
330
2
100
AcDbSymbolTableRecord
100
AcDbLayerTableRecord
  2
圖層_1
 70
     0
 62
   179
  6
Continuous
370
    -3
390
F
  0
LAYER
  5
7B
330
2
100
AcDbSymbolTableRecord
100
AcDbLayerTableRecord
  2
工作區域參考線
 70
     0
 62
   179
  6
Continuous
370
    -3
390
F
  0
ENDTAB
  0
TABLE
  2
STYLE
  5
3
330
0
100
AcDbSymbolTable
 70
     3
  0
STYLE
  5
11
330
3
100
AcDbSymbolTableRecord
100
AcDbTextStyleTableRecord
  2
Standard
 70
     0
 40
0.0
 41
1.0
 50
0.0
 71
     0
 42
2.5
  3
txt
  4

  0
STYLE
  5
CC
330
3
100
AcDbSymbolTableRecord
100
AcDbTextStyleTableRecord
  2
SLDTEXTSTYLE0
 70
     0
 40
0.0
 41
0.605
 50
0.0
 71
     0
 42
2.5
  3
TXT
  4

  0
STYLE
  5
198
330
3
100
AcDbSymbolTableRecord
100
AcDbTextStyleTableRecord
  2
SLDTEXTSTYLE1
 70
     0
 40
0.0
 41
0.57
 50
0.0
 71
     0
 42
2.5
  3
TXT
  4

  0
ENDTAB
  0
TABLE
  2
VIEW
  5
6
330
0
100
AcDbSymbolTable
 70
     0
  0
ENDTAB
  0
TABLE
  2
UCS
  5
7
330
0
100
AcDbSymbolTable
 70
     0
  0
ENDTAB
  0
TABLE
  2
APPID
  5
9
330
0
100
AcDbSymbolTable
 70
     1
  0
APPID
  5
12
330
9
100
AcDbSymbolTableRecord
100
AcDbRegAppTableRecord
  2
ACAD
 70
     0
  0
ENDTAB
  0
TABLE
  2
DIMSTYLE
  5
A
330
0
100
AcDbSymbolTable
 70
     5
100
AcDbDimStyleTable
  0
DIMSTYLE
105
27
330
A
100
AcDbSymbolTableRecord
100
AcDbDimStyleTableRecord
  2
ISO-25
 70
     0
 41
2.5
 42
0.625
 43
3.75
 44
1.25
 73
     0
 74
     0
 77
     1
 78
     8
140
2.5
141
2.5
143
0.0393700787
147
0.625
171
     3
172
     1
178
     0
271
     2
272
     2
274
     3
278
    44
283
     0
284
     8
340
11
  0
DIMSTYLE
105
12F
102
{ACAD_REACTORS
330
12E
330
139
330
143
330
14D
330
157
330
161
330
16B
330
175
330
221
330
22B
330
236
330
240
330
24A
330
310
330
31A
102
}
330
A
100
AcDbSymbolTableRecord
100
AcDbDimStyleTableRecord
  2
SLDDIMSTYLE0
 70
     0
 41
2.0
 44
0.0
 45
0.000000001
 73
     0
 74
     0
 77
     1
 78
    12
 79
     3
140
2.5
147
0.625
173
     1
178
     0
271
     2
272
     2
276
     2
284
    12
340
CC
  0
DIMSTYLE
105
180
102
{ACAD_REACTORS
330
17F
102
}
330
A
100
AcDbSymbolTableRecord
100
AcDbDimStyleTableRecord
  2
SLDDIMSTYLE1
 70
     0
  3
<>
 41
2.0
 44
0.0
 45
0.000000001
 78
    12
 79
     3
140
2.5
141
0.0
147
0.625
173
     1
178
     0
271
     2
272
     2
276
     2
284
    12
340
CC
  0
DIMSTYLE
105
18D
102
{ACAD_REACTORS
330
18C
330
254
330
307
102
}
330
A
100
AcDbSymbolTableRecord
100
AcDbDimStyleTableRecord
  2
SLDDIMSTYLE2
 70
     0
  3
<>
 41
2.0
 44
0.0
 45
0.000000001
 78
    12
 79
     3
140
2.5
141
0.0
147
0.625
172
     1
173
     1
178
     0
271
     6
272
     2
276
     2
284
    12
340
CC
341
18E
343
18E
  0
DIMSTYLE
105
19B
102
{ACAD_REACTORS
330
19A
102
}
330
A
100
AcDbSymbolTableRecord
100
AcDbDimStyleTableRecord
  2
SLDDIMSTYLE3
 70
     0
 41
2.0
 44
0.0
 45
0.000000001
 78
    12
 79
     3
140
2.5
141
0.0
147
0.625
172
     1
173
     1
178
     0
271
     2
272
     2
276
     2
284
    12
340
CC
  0
ENDTAB
  0
TABLE
  2
BLOCK_RECORD
  5
1
330
0
100
AcDbSymbolTable
 70
    32
  0
BLOCK_RECORD
  5
1F
330
1
100
AcDbSymbolTableRecord
100
AcDbBlockTableRecord
  2
*Model_Space
340
22
  0
BLOCK_RECORD
  5
1B
330
1
100
AcDbSymbolTableRecord
100
AcDbBlockTableRecord
  2
*Paper_Space
340
1E
  0
BLOCK_RECORD
  5
23
330
1
100
AcDbSymbolTableRecord
100
AcDbBlockTableRecord
  2
*Paper_Space0
340
26
  0
BLOCK_RECORD
  5
7C
330
1
100
AcDbSymbolTableRecord
100
AcDbBlockTableRecord
  2
圖塊6_1
340
0
102
{BLKREFS
331
CB
102
}
  0
BLOCK_RECORD
  5
CE
330
1
100
AcDbSymbolTableRecord
100
AcDbBlockTableRecord
  2
SW_NOTE_0
340
0
102
{BLKREFS
331
D4
102
}
  0
BLOCK_RECORD
  5
104
330
1
100
AcDbSymbolTableRecord
100
AcDbBlockTableRecord
  2
SW_NOTE_1
340
0
102
{BLKREFS
331
109
102
}
  0
BLOCK_RECORD
  5
130
330
1
100
AcDbSymbolTableRecord
100
AcDbBlockTableRecord
  2
_D
340
0
  0
BLOCK_RECORD
  5
13A
330
1
100
AcDbSymbolTableRecord
100
AcDbBlockTableRecord
  2
_D_1
340
0
  0
BLOCK_RECORD
  5
144
330
1
100
AcDbSymbolTableRecord
100
AcDbBlockTableRecord
  2
_D_2
340
0
  0
BLOCK_RECORD
  5
14E
330
1
100
AcDbSymbolTableRecord
100
AcDbBlockTableRecord
  2
_D_3
340
0
  0
BLOCK_RECORD
  5
158
330
1
100
AcDbSymbolTableRecord
100
AcDbBlockTableRecord
  2
_D_4
340
0
  0
BLOCK_RECORD
  5
162
330
1
100
AcDbSymbolTableRecord
100
AcDbBlockTableRecord
  2
_D_5
340
0
  0
BLOCK_RECORD
  5
16C
330
1
100
AcDbSymbolTableRecord
100
AcDbBlockTableRecord
  2
_D_6
340
0
  0
BLOCK_RECORD
  5
176
330
1
100
AcDbSymbolTableRecord
100
AcDbBlockTableRecord
  2
_D_7
340
0
  0
BLOCK_RECORD
  5
181
330
1
100
AcDbSymbolTableRecord
100
AcDbBlockTableRecord
  2
_D_8
340
0
  0
BLOCK_RECORD
  5
18E
330
1
100
AcDbSymbolTableRecord
100
AcDbBlockTableRecord
  2
_NONE
340
0
  0
BLOCK_RECORD
  5
191
330
1
100
AcDbSymbolTableRecord
100
AcDbBlockTableRecord
  2
_D_9
340
0
  0
BLOCK_RECORD
  5
19C
330
1
100
AcDbSymbolTableRecord
100
AcDbBlockTableRecord
  2
_D_10
340
0
  0
BLOCK_RECORD
  5
1A7
330
1
100
AcDbSymbolTableRecord
100
AcDbBlockTableRecord
  2
SW_CENTERMARKSYMBOL_0
340
0
102
{BLKREFS
331
1B2
102
}
  0
BLOCK_RECORD
  5
1B3
330
1
100
AcDbSymbolTableRecord
100
AcDbBlockTableRecord
  2
SW_CENTERMARKSYMBOL_1
340
0
102
{BLKREFS
331
1BE
102
}
  0
BLOCK_RECORD
  5
1BF
330
1
100
AcDbSymbolTableRecord
100
AcDbBlockTableRecord
  2
SW_CENTERMARKSYMBOL_2
340
0
102
{BLKREFS
331
1CA
102
}
  0
BLOCK_RECORD
  5
1CB
330
1
100
AcDbSymbolTableRecord
100
AcDbBlockTableRecord
  2
SW_CENTERMARKSYMBOL_3
340
0
102
{BLKREFS
331
1D6
102
}
  0
BLOCK_RECORD
  5
1D7
330
1
100
AcDbSymbolTableRecord
100
AcDbBlockTableRecord
  2
SW_CENTERMARKSYMBOL_4
340
0
102
{BLKREFS
331
1E2
102
}
  0
BLOCK_RECORD
  5
222
330
1
100
AcDbSymbolTableRecord
100
AcDbBlockTableRecord
  2
_D_11
340
0
  0
BLOCK_RECORD
  5
22C
330
1
100
AcDbSymbolTableRecord
100
AcDbBlockTableRecord
  2
_D_12
340
0
  0
BLOCK_RECORD
  5
237
330
1
100
AcDbSymbolTableRecord
100
AcDbBlockTableRecord
  2
_D_13
340
0
  0
BLOCK_RECORD
  5
241
330
1
100
AcDbSymbolTableRecord
100
AcDbBlockTableRecord
  2
_D_14
340
0
  0
BLOCK_RECORD
  5
24B
330
1
100
AcDbSymbolTableRecord
100
AcDbBlockTableRecord
  2
_D_15
340
0
  0
BLOCK_RECORD
  5
255
330
1
100
AcDbSymbolTableRecord
100
AcDbBlockTableRecord
  2
_D_16
340
0
  0
BLOCK_RECORD
  5
25D
330
1
100
AcDbSymbolTableRecord
100
AcDbBlockTableRecord
  2
SW_CENTERMARKSYMBOL_5
340
0
102
{BLKREFS
331
268
102
}
  0
BLOCK_RECORD
  5
308
330
1
100
AcDbSymbolTableRecord
100
AcDbBlockTableRecord
  2
_D_17
340
0
  0
BLOCK_RECORD
  5
311
330
1
100
AcDbSymbolTableRecord
100
AcDbBlockTableRecord
  2
_D_18
340
0
  0
BLOCK_RECORD
  5
31B
330
1
100
AcDbSymbolTableRecord
100
AcDbBlockTableRecord
  2
_D_19
340
0
  0
BLOCK_RECORD
  5
324
330
1
100
AcDbSymbolTableRecord
100
AcDbBlockTableRecord
  2
SW_CENTERMARKSYMBOL_6
340
0
102
{BLKREFS
331
32F
102
}
  0
ENDTAB
  0
ENDSEC
  0
SECTION
  2
BLOCKS
  0
BLOCK
  5
20
330
1F
100
AcDbEntity
  8
0
100
AcDbBlockBegin
  2
*Model_Space
 70
     0
 10
0.0
 20
0.0
 30
0.0
  3
*Model_Space
  1

  0
ENDBLK
  5
21
330
1F
100
AcDbEntity
  8
0
100
AcDbBlockEnd
  0
BLOCK
  5
1C
330
1B
100
AcDbEntity
 67
     1
  8
0
100
AcDbBlockBegin
  2
*Paper_Space
 70
     0
 10
0.0
 20
0.0
 30
0.0
  3
*Paper_Space
  1

  0
ENDBLK
  5
1D
330
1B
100
AcDbEntity
 67
     1
  8
0
100
AcDbBlockEnd
  0
BLOCK
  5
24
330
23
100
AcDbEntity
  8
0
100
AcDbBlockBegin
  2
*Paper_Space0
 70
     0
 10
0.0
 20
0.0
 30
0.0
  3
*Paper_Space0
  1

  0
ENDBLK
  5
25
330
23
100
AcDbEntity
  8
0
100
AcDbBlockEnd
  0
BLOCK
  5
7D
330
7C
100
AcDbEntity
  8
0
100
AcDbBlockBegin
  2
圖塊6_1
 70
     0
 10
0.0
 20
0.0
 30
0.0
  3
圖塊6_1
  1

  0
ARC
  5
7F
330
7C
100
AcDbEntity
  8
0
 62
     7
370
    30
100
AcDbCircle
 10
1.5301544339
 20
6.1020682891
 30
0.0
 40
1.53015443394367
100
AcDbArc
 50
130.2115225915
 51
228.588904108
  0
ARC
  5
80
330
7C
100
AcDbEntity
  8
0
 62
     7
370
    30
100
AcDbCircle
 10
4.8509135981
 20
5.9949454415
 30
0.0
 40
2.577335426817622
100
AcDbArc
 50
140.4331765613
 51
251.0865666567
  0
ARC
  5
81
330
7C
100
AcDbEntity
  8
0
 62
     7
370
    30
100
AcDbCircle
 10
5.1765041982
 20
6.3117559713
 30
0.0
 40
2.989636657769863
100
AcDbArc
 50
247.1485306747
 51
309.6030773927
  0
LINE
  5
82
330
7C
100
AcDbEntity
  8
0
 62
     7
370
    30
100
AcDbLine
 10
1.8488977269
 20
8.5321825984
 30
0.0
 11
0.542269472
 21
7.2705955219
 31
0.0
  0
LINE
  5
83
330
7C
100
AcDbEntity
  8
0
 62
     7
370
    30
100
AcDbLine
 10
0.51802289
 20
4.9544784977
 30
0.0
 11
4.5272252002
 21
1.4698746574
 31
0.0
  0
LINE
  5
84
330
7C
100
AcDbEntity
  8
0
 62
     7
370
    30
100
AcDbLine
 10
4.5272252002
 20
1.4698746574
 30
0.0
 11
3.8961732797
 21
0.853974267
 31
0.0
  0
LINE
  5
85
330
7C
100
AcDbEntity
  8
0
 62
     7
370
    30
100
AcDbLine
 10
3.8961732797
 20
0.853974267
 30
0.0
 11
4.8880526445
 21
0.0
 31
0.0
  0
LINE
  5
86
330
7C
100
AcDbEntity
  8
0
 62
     7
370
    30
100
AcDbLine
 10
8.0977170788
 20
3.1165779655
 30
0.0
 11
7.0822940472
 21
4.0083036932
 31
0.0
  0
LINE
  5
87
330
7C
100
AcDbEntity
  8
0
 62
     7
370
    30
100
AcDbLine
 10
2.8640915743
 20
7.6366506975
 30
0.0
 11
1.8488977269
 21
8.5321825984
 31
0.0
  0
LINE
  5
88
330
7C
100
AcDbEntity
  8
0
 62
     7
370
    30
100
AcDbLine
 10
4.8880526445
 20
0.0
 30
0.0
 11
8.0977170788
 21
3.1165779655
 31
0.0
  0
ENDBLK
  5
7E
330
7C
100
AcDbEntity
  8
0
100
AcDbBlockEnd
  0
BLOCK
  5
CF
330
CE
100
AcDbEntity
  8
0
100
AcDbBlockBegin
  2
SW_NOTE_0
 70
     0
 10
0.0
 20
0.0
 30
0.0
  3
SW_NOTE_0
  1

  0
MTEXT
  5
D1
330
CE
100
AcDbEntity
  8
0
  6
Continuous
 62
     0
370
     0
100
AcDbMText
 10
0.0
 20
3.4106583948
 30
0.0
 40
2.6458333333
 41
0.0
 71
     1
 72
     1
  1
PROPRIETARY AND CONFIDENTIAL
  7
SLDTEXTSTYLE0
 73
     1
 44
1.0
  0
MTEXT
  5
D2
330
CE
100
AcDbEntity
  8
0
  6
Continuous
 62
     0
370
     0
100
AcDbMText
 10
0.0
 20
-0.08198348
 30
0.0
 40
1.8520833333
 41
0.0
 71
     1
 72
     1
  1
THE INFORMATION CONTAINED IN THIS DRAWING IS THE SOLE PROPERTY OF UNICE E-O SERVICES INC. ANY REPRODUCTION IN PART OR AS A WHOLE WITHOUT THE WRITTEN PERMISSION OF UNICE E-O SERVICES INC IS
  7
SLDTEXTSTYLE0
 73
     1
 44
1.0
  0
MTEXT
  5
D3
330
CE
100
AcDbEntity
  8
0
  6
Continuous
 62
     0
370
     0
100
AcDbMText
 10
0.0
 20
-2.5514278946
 30
0.0
 40
1.8520833333
 41
0.0
 71
     1
 72
     1
  1
PROHIBITED.
  7
SLDTEXTSTYLE0
 73
     1
 44
1.0
  0
ENDBLK
  5
D0
330
CE
100
AcDbEntity
  8
0
100
AcDbBlockEnd
  0
BLOCK
  5
105
330
104
100
AcDbEntity
  8
0
100
AcDbBlockBegin
  2
SW_NOTE_1
 70
     0
 10
0.0
 20
0.0
 30
0.0
  3
SW_NOTE_1
  1

  0
MTEXT
  5
107
330
104
100
AcDbEntity
  8
SLD-0
 62
     0
100
AcDbMText
 10
0.0
 20
2.0463950369
 30
0.0
 40
1.5875
 41
0.0
 71
     1
 72
     1
  1
No.5, Andong Rd., Chung Li District,
  7
SLDTEXTSTYLE0
 73
     1
 44
1.0
  0
MTEXT
  5
108
330
104
100
AcDbEntity
  8
SLD-0
 62
     0
100
AcDbMText
 10
0.0
 20
-0.0702716042
 30
0.0
 40
1.5875
 41
0.0
 71
     1
 72
     1
  1
Taoyuan City 32063, Taiwan, R.O.C.
  7
SLDTEXTSTYLE0
 73
     1
 44
1.0
  0
ENDBLK
  5
106
330
104
100
AcDbEntity
  8
0
100
AcDbBlockEnd
  0
BLOCK
  5
131
330
130
100
AcDbEntity
  8
0
100
AcDbBlockBegin
  2
_D
 70
     0
 10
0.0
 20
0.0
 30
0.0
  3
_D
  1

  0
SOLID
  5
133
330
130
100
AcDbEntity
  8
SLD-0
100
AcDbTrace
 10
46.8541230686
 20
169.4669640522
 30
0.0
 11
48.8541230686
 21
169.2169640522
 31
0.0
 12
48.8541230686
 22
169.7169640522
 32
0.0
 13
48.8541230686
 23
169.7169640522
 33
0.0
  0
SOLID
  5
134
330
130
100
AcDbEntity
  8
SLD-0
100
AcDbTrace
 10
68.8541230686
 20
169.4669640522
 30
0.0
 11
66.8541230686
 21
169.7169640522
 31
0.0
 12
66.8541230686
 22
169.2169640522
 32
0.0
 13
66.8541230686
 23
169.2169640522
 33
0.0
  0
LINE
  5
135
330
130
100
AcDbEntity
  8
SLD-0
100
AcDbLine
 10
46.8541230686
 20
164.1169640522
 30
0.0
 11
46.8541230686
 21
170.4669640522
 31
0.0
  0
LINE
  5
136
330
130
100
AcDbEntity
  8
SLD-0
100
AcDbLine
 10
68.8541230686
 20
155.4669640522
 30
0.0
 11
68.8541230686
 21
170.4669640522
 31
0.0
  0
LINE
  5
137
330
130
100
AcDbEntity
  8
SLD-0
100
AcDbLine
 10
46.8541230686
 20
169.4669640522
 30
0.0
 11
68.8541230686
 21
169.4669640522
 31
0.0
  0
MTEXT
  5
138
330
130
100
AcDbEntity
  8
SLD-0
100
AcDbMText
 10
55.9444008438
 20
172.689633227
 30
0.0
 40
2.5
 41
0.0
 71
     1
 72
     1
  1
22
  7
SLDTEXTSTYLE0
 73
     1
 44
1.0
  0
ENDBLK
  5
132
330
130
100
AcDbEntity
  8
0
100
AcDbBlockEnd
  0
BLOCK
  5
13B
330
13A
100
AcDbEntity
  8
0
100
AcDbBlockBegin
  2
_D_1
 70
     0
 10
0.0
 20
0.0
 30
0.0
  3
_D_1
  1

  0
SOLID
  5
13D
330
13A
100
AcDbEntity
  8
SLD-0
100
AcDbTrace
 10
68.8541230686
 20
169.4669640522
 30
0.0
 11
70.8541230686
 21
169.2169640522
 31
0.0
 12
70.8541230686
 22
169.7169640522
 32
0.0
 13
70.8541230686
 23
169.7169640522
 33
0.0
  0
SOLID
  5
13E
330
13A
100
AcDbEntity
  8
SLD-0
100
AcDbTrace
 10
90.8541230686
 20
169.4669640522
 30
0.0
 11
88.8541230686
 21
169.7169640522
 31
0.0
 12
88.8541230686
 22
169.2169640522
 32
0.0
 13
88.8541230686
 23
169.2169640522
 33
0.0
  0
LINE
  5
13F
330
13A
100
AcDbEntity
  8
SLD-0
100
AcDbLine
 10
68.8541230686
 20
155.4669640522
 30
0.0
 11
68.8541230686
 21
170.4669640522
 31
0.0
  0
LINE
  5
140
330
13A
100
AcDbEntity
  8
SLD-0
100
AcDbLine
 10
90.8541230686
 20
164.1169640522
 30
0.0
 11
90.8541230686
 21
170.4669640522
 31
0.0
  0
LINE
  5
141
330
13A
100
AcDbEntity
  8
SLD-0
100
AcDbLine
 10
68.8541230686
 20
169.4669640522
 30
0.0
 11
90.8541230686
 21
169.4669640522
 31
0.0
  0
MTEXT
  5
142
330
13A
100
AcDbEntity
  8
SLD-0
100
AcDbMText
 10
77.9444008438
 20
172.689633227
 30
0.0
 40
2.5
 41
0.0
 71
     1
 72
     1
  1
22
  7
SLDTEXTSTYLE0
 73
     1
 44
1.0
  0
ENDBLK
  5
13C
330
13A
100
AcDbEntity
  8
0
100
AcDbBlockEnd
  0
BLOCK
  5
145
330
144
100
AcDbEntity
  8
0
100
AcDbBlockBegin
  2
_D_2
 70
     0
 10
0.0
 20
0.0
 30
0.0
  3
_D_2
  1

  0
SOLID
  5
147
330
144
100
AcDbEntity
  8
SLD-0
100
AcDbTrace
 10
68.8541230686
 20
174.4669640522
 30
0.0
 11
66.8541230686
 21
174.7169640522
 31
0.0
 12
66.8541230686
 22
174.2169640522
 32
0.0
 13
66.8541230686
 23
174.2169640522
 33
0.0
  0
SOLID
  5
148
330
144
100
AcDbEntity
  8
SLD-0
100
AcDbTrace
 10
43.8541230686
 20
174.4669640522
 30
0.0
 11
45.8541230686
 21
174.2169640522
 31
0.0
 12
45.8541230686
 22
174.7169640522
 32
0.0
 13
45.8541230686
 23
174.7169640522
 33
0.0
  0
LINE
  5
149
330
144
100
AcDbEntity
  8
SLD-0
100
AcDbLine
 10
68.8541230686
 20
155.4669640522
 30
0.0
 11
68.8541230686
 21
175.4669640522
 31
0.0
  0
LINE
  5
14A
330
144
100
AcDbEntity
  8
SLD-0
100
AcDbLine
 10
43.8541230686
 20
161.4669640522
 30
0.0
 11
43.8541230686
 21
175.4669640522
 31
0.0
  0
LINE
  5
14B
330
144
100
AcDbEntity
  8
SLD-0
100
AcDbLine
 10
68.8541230686
 20
174.4669640522
 30
0.0
 11
43.8541230686
 21
174.4669640522
 31
0.0
  0
MTEXT
  5
14C
330
144
100
AcDbEntity
  8
SLD-0
100
AcDbMText
 10
54.4444008438
 20
177.689633227
 30
0.0
 40
2.5
 41
0.0
 71
     1
 72
     1
  1
25
  7
SLDTEXTSTYLE0
 73
     1
 44
1.0
  0
ENDBLK
  5
146
330
144
100
AcDbEntity
  8
0
100
AcDbBlockEnd
  0
BLOCK
  5
14F
330
14E
100
AcDbEntity
  8
0
100
AcDbBlockBegin
  2
_D_3
 70
     0
 10
0.0
 20
0.0
 30
0.0
  3
_D_3
  1

  0
SOLID
  5
151
330
14E
100
AcDbEntity
  8
SLD-0
100
AcDbTrace
 10
43.8541230686
 20
179.4669640522
 30
0.0
 11
45.8541230686
 21
179.2169640522
 31
0.0
 12
45.8541230686
 22
179.7169640522
 32
0.0
 13
45.8541230686
 23
179.7169640522
 33
0.0
  0
SOLID
  5
152
330
14E
100
AcDbEntity
  8
SLD-0
100
AcDbTrace
 10
93.8541230686
 20
179.4669640522
 30
0.0
 11
91.8541230686
 21
179.7169640522
 31
0.0
 12
91.8541230686
 22
179.2169640522
 32
0.0
 13
91.8541230686
 23
179.2169640522
 33
0.0
  0
LINE
  5
153
330
14E
100
AcDbEntity
  8
SLD-0
100
AcDbLine
 10
43.8541230686
 20
161.4669640522
 30
0.0
 11
43.8541230686
 21
180.4669640522
 31
0.0
  0
LINE
  5
154
330
14E
100
AcDbEntity
  8
SLD-0
100
AcDbLine
 10
93.8541230686
 20
161.4669640522
 30
0.0
 11
93.8541230686
 21
180.4669640522
 31
0.0
  0
LINE
  5
155
330
14E
100
AcDbEntity
  8
SLD-0
100
AcDbLine
 10
43.8541230686
 20
179.4669640522
 30
0.0
 11
93.8541230686
 21
179.4669640522
 31
0.0
  0
MTEXT
  5
156
330
14E
100
AcDbEntity
  8
SLD-0
100
AcDbMText
 10
66.9444008438
 20
182.689633227
 30
0.0
 40
2.5
 41
0.0
 71
     1
 72
     1
  1
50
  7
SLDTEXTSTYLE0
 73
     1
 44
1.0
  0
ENDBLK
  5
150
330
14E
100
AcDbEntity
  8
0
100
AcDbBlockEnd
  0
BLOCK
  5
159
330
158
100
AcDbEntity
  8
0
100
AcDbBlockBegin
  2
_D_4
 70
     0
 10
0.0
 20
0.0
 30
0.0
  3
_D_4
  1

  0
SOLID
  5
15B
330
158
100
AcDbEntity
  8
SLD-0
100
AcDbTrace
 10
37.8541230686
 20
160.4669640522
 30
0.0
 11
37.6041230686
 21
158.4669640522
 31
0.0
 12
38.1041230686
 22
158.4669640522
 32
0.0
 13
38.1041230686
 23
158.4669640522
 33
0.0
  0
SOLID
  5
15C
330
158
100
AcDbEntity
  8
SLD-0
100
AcDbTrace
 10
37.8541230686
 20
138.4669640522
 30
0.0
 11
38.1041230686
 21
140.4669640522
 31
0.0
 12
37.6041230686
 22
140.4669640522
 32
0.0
 13
37.6041230686
 23
140.4669640522
 33
0.0
  0
LINE
  5
15D
330
158
100
AcDbEntity
  8
SLD-0
100
AcDbLine
 10
43.2041230686
 20
160.4669640522
 30
0.0
 11
36.8541230686
 21
160.4669640522
 31
0.0
  0
LINE
  5
15E
330
158
100
AcDbEntity
  8
SLD-0
100
AcDbLine
 10
51.8541230686
 20
138.4669640522
 30
0.0
 11
36.8541230686
 21
138.4669640522
 31
0.0
  0
LINE
  5
15F
330
158
100
AcDbEntity
  8
SLD-0
100
AcDbLine
 10
37.8541230686
 20
160.4669640522
 30
0.0
 11
37.8541230686
 21
138.4669640522
 31
0.0
  0
MTEXT
  5
160
330
158
100
AcDbEntity
  8
SLD-0
100
AcDbMText
 10
34.6314538938
 20
147.5572418274
 30
0.0
 40
2.5
 41
0.0
 71
     1
 72
     1
  1
22
  7
SLDTEXTSTYLE0
 11
-7.044195017643634E-15
 21
1.0
 31
0.0
 73
     1
 44
1.0
  0
ENDBLK
  5
15A
330
158
100
AcDbEntity
  8
0
100
AcDbBlockEnd
  0
BLOCK
  5
163
330
162
100
AcDbEntity
  8
0
100
AcDbBlockBegin
  2
_D_5
 70
     0
 10
0.0
 20
0.0
 30
0.0
  3
_D_5
  1

  0
SOLID
  5
165
330
162
100
AcDbEntity
  8
SLD-0
100
AcDbTrace
 10
37.8541230686
 20
138.4669640522
 30
0.0
 11
37.6041230686
 21
136.4669640522
 31
0.0
 12
38.1041230686
 22
136.4669640522
 32
0.0
 13
38.1041230686
 23
136.4669640522
 33
0.0
  0
SOLID
  5
166
330
162
100
AcDbEntity
  8
SLD-0
100
AcDbTrace
 10
37.8541230686
 20
106.4669640522
 30
0.0
 11
38.1041230686
 21
108.4669640522
 31
0.0
 12
37.6041230686
 22
108.4669640522
 32
0.0
 13
37.6041230686
 23
108.4669640522
 33
0.0
  0
LINE
  5
167
330
162
100
AcDbEntity
  8
SLD-0
100
AcDbLine
 10
51.8541230686
 20
138.4669640522
 30
0.0
 11
36.8541230686
 21
138.4669640522
 31
0.0
  0
LINE
  5
168
330
162
100
AcDbEntity
  8
SLD-0
100
AcDbLine
 10
43.2041230686
 20
106.4669640522
 30
0.0
 11
36.8541230686
 21
106.4669640522
 31
0.0
  0
LINE
  5
169
330
162
100
AcDbEntity
  8
SLD-0
100
AcDbLine
 10
37.8541230686
 20
138.4669640522
 30
0.0
 11
37.8541230686
 21
106.4669640522
 31
0.0
  0
MTEXT
  5
16A
330
162
100
AcDbEntity
  8
SLD-0
100
AcDbMText
 10
34.6314538938
 20
120.5572418274
 30
0.0
 40
2.5
 41
0.0
 71
     1
 72
     1
  1
32
  7
SLDTEXTSTYLE0
 11
-7.044195017643634E-15
 21
1.0
 31
0.0
 73
     1
 44
1.0
  0
ENDBLK
  5
164
330
162
100
AcDbEntity
  8
0
100
AcDbBlockEnd
  0
BLOCK
  5
16D
330
16C
100
AcDbEntity
  8
0
100
AcDbBlockBegin
  2
_D_6
 70
     0
 10
0.0
 20
0.0
 30
0.0
  3
_D_6
  1

  0
SOLID
  5
16F
330
16C
100
AcDbEntity
  8
SLD-0
100
AcDbTrace
 10
32.8541230686
 20
163.4669640522
 30
0.0
 11
32.6041230686
 21
161.4669640522
 31
0.0
 12
33.1041230686
 22
161.4669640522
 32
0.0
 13
33.1041230686
 23
161.4669640522
 33
0.0
  0
SOLID
  5
170
330
16C
100
AcDbEntity
  8
SLD-0
100
AcDbTrace
 10
32.8541230686
 20
138.4669640522
 30
0.0
 11
33.1041230686
 21
140.4669640522
 31
0.0
 12
32.6041230686
 22
140.4669640522
 32
0.0
 13
32.6041230686
 23
140.4669640522
 33
0.0
  0
LINE
  5
171
330
16C
100
AcDbEntity
  8
SLD-0
100
AcDbLine
 10
45.8541230686
 20
163.4669640522
 30
0.0
 11
31.8541230686
 21
163.4669640522
 31
0.0
  0
LINE
  5
172
330
16C
100
AcDbEntity
  8
SLD-0
100
AcDbLine
 10
51.8541230686
 20
138.4669640522
 30
0.0
 11
31.8541230686
 21
138.4669640522
 31
0.0
  0
LINE
  5
173
330
16C
100
AcDbEntity
  8
SLD-0
100
AcDbLine
 10
32.8541230686
 20
163.4669640522
 30
0.0
 11
32.8541230686
 21
138.4669640522
 31
0.0
  0
MTEXT
  5
174
330
16C
100
AcDbEntity
  8
SLD-0
100
AcDbMText
 10
29.6314538938
 20
149.0572418274
 30
0.0
 40
2.5
 41
0.0
 71
     1
 72
     1
  1
25
  7
SLDTEXTSTYLE0
 11
-1.414962237524464E-14
 21
1.0
 31
0.0
 73
     1
 44
1.0
  0
ENDBLK
  5
16E
330
16C
100
AcDbEntity
  8
0
100
AcDbBlockEnd
  0
BLOCK
  5
177
330
176
100
AcDbEntity
  8
0
100
AcDbBlockBegin
  2
_D_7
 70
     0
 10
0.0
 20
0.0
 30
0.0
  3
_D_7
  1

  0
SOLID
  5
179
330
176
100
AcDbEntity
  8
SLD-0
100
AcDbTrace
 10
27.8541230686
 20
163.4669640522
 30
0.0
 11
27.6041230686
 21
161.4669640522
 31
0.0
 12
28.1041230686
 22
161.4669640522
 32
0.0
 13
28.1041230686
 23
161.4669640522
 33
0.0
  0
SOLID
  5
17A
330
176
100
AcDbEntity
  8
SLD-0
100
AcDbTrace
 10
27.8541230686
 20
103.4669640522
 30
0.0
 11
28.1041230686
 21
105.4669640522
 31
0.0
 12
27.6041230686
 22
105.4669640522
 32
0.0
 13
27.6041230686
 23
105.4669640522
 33
0.0
  0
LINE
  5
17B
330
176
100
AcDbEntity
  8
SLD-0
100
AcDbLine
 10
45.8541230686
 20
163.4669640522
 30
0.0
 11
26.8541230686
 21
163.4669640522
 31
0.0
  0
LINE
  5
17C
330
176
100
AcDbEntity
  8
SLD-0
100
AcDbLine
 10
45.8541230686
 20
103.4669640522
 30
0.0
 11
26.8541230686
 21
103.4669640522
 31
0.0
  0
LINE
  5
17D
330
176
100
AcDbEntity
  8
SLD-0
100
AcDbLine
 10
27.8541230686
 20
163.4669640522
 30
0.0
 11
27.8541230686
 21
103.4669640522
 31
0.0
  0
MTEXT
  5
17E
330
176
100
AcDbEntity
  8
SLD-0
100
AcDbMText
 10
24.6314538938
 20
131.5572418274
 30
0.0
 40
2.5
 41
0.0
 71
     1
 72
     1
  1
60
  7
SLDTEXTSTYLE0
 11
-1.414962237524464E-14
 21
1.0
 31
0.0
 73
     1
 44
1.0
  0
ENDBLK
  5
178
330
176
100
AcDbEntity
  8
0
100
AcDbBlockEnd
  0
BLOCK
  5
182
330
181
100
AcDbEntity
  8
0
100
AcDbBlockBegin
  2
_D_8
 70
     0
 10
0.0
 20
0.0
 30
0.0
  3
_D_8
  1

  0
SOLID
  5
184
330
181
100
AcDbEntity
  8
SLD-0
100
AcDbTrace
 10
80.2375939886
 20
131.8947140522
 30
0.0
 11
81.8446447962
 21
130.6782077013
 31
0.0
 12
82.0946447962
 22
131.1112204032
 32
0.0
 13
82.0946447962
 23
131.1112204032
 33
0.0
  0
LINE
  5
185
330
181
100
AcDbEntity
  8
SLD-0
100
AcDbLine
 10
80.2375939886
 20
131.8947140522
 30
0.0
 11
96.5669359897
 21
122.4669640522
 31
0.0
  0
LINE
  5
186
330
181
100
AcDbEntity
  8
SLD-0
100
AcDbLine
 10
96.5669359897
 20
122.4669640522
 30
0.0
 11
120.2396799509
 21
122.4669640522
 31
0.0
  0
MTEXT
  5
187
330
181
100
AcDbEntity
  8
SLD-0
100
AcDbMText
 10
97.8169359897
 20
133.3701885669
 30
0.0
 40
2.5
 41
0.0
 71
     1
 72
     1
  1
ACCEPTS
  7
SLDTEXTSTYLE0
 73
     1
 44
1.0
  0
MTEXT
  5
188
330
181
100
AcDbEntity
  8
SLD-0
100
AcDbMText
 10
98.7544359897
 20
129.5333831004
 30
0.0
 40
2.5
 41
0.0
 71
     1
 72
     1
  1

  7
SLDTEXTSTYLE0
 73
     1
 44
1.0
  0
MTEXT
  5
189
330
181
100
AcDbEntity
  8
SLD-0
100
AcDbMText
 10
98.7717971021
 20
129.5264386354
 30
0.0
 40
2.5
 41
0.0
 71
     1
 72
     1
  1
%%c
  7
SLDTEXTSTYLE0
 73
     1
 44
1.0
  0
MTEXT
  5
18A
330
181
100
AcDbEntity
  8
SLD-0
100
AcDbMText
 10
103.3542624001
 20
129.5333831004
 30
0.0
 40
2.5
 41
0.0
 71
     1
 72
     1
  1
1" OPTICS
  7
SLDTEXTSTYLE0
 73
     1
 44
1.0
  0
MTEXT
  5
18B
330
181
100
AcDbEntity
  8
SLD-0
100
AcDbMText
 10
97.8169359897
 20
125.6896329942
 30
0.0
 40
2.5
 41
0.0
 71
     1
 72
     1
  1
Max.THK 7.4
  7
SLDTEXTSTYLE0
 73
     1
 44
1.0
  0
ENDBLK
  5
183
330
181
100
AcDbEntity
  8
0
100
AcDbBlockEnd
  0
BLOCK
  5
18F
330
18E
100
AcDbEntity
  8
0
100
AcDbBlockBegin
  2
_NONE
 70
     0
 10
0.0
 20
0.0
 30
0.0
  3
_NONE
  1

  0
ENDBLK
  5
190
330
18E
100
AcDbEntity
  8
0
100
AcDbBlockEnd
  0
BLOCK
  5
192
330
191
100
AcDbEntity
  8
0
100
AcDbBlockBegin
  2
_D_9
 70
     0
 10
0.0
 20
0.0
 30
0.0
  3
_D_9
  1

  0
SOLID
  5
194
330
191
100
AcDbEntity
  8
SLD-0
100
AcDbTrace
 10
91.6495887094
 20
161.9125554241
 30
0.0
 11
92.8328184818
 21
163.5442622928
 31
0.0
 12
92.3947604903
 22
163.785312487
 32
0.0
 13
92.3947604903
 23
163.785312487
 33
0.0
  0
LINE
  5
195
330
191
100
AcDbEntity
  8
SLD-0
100
AcDbLine
 10
91.6495887094
 20
161.9125554241
 30
0.0
 11
98.5579038104
 21
174.4669640522
 31
0.0
  0
LINE
  5
196
330
191
100
AcDbEntity
  8
SLD-0
100
AcDbLine
 10
90.0586574278
 20
159.0213726804
 30
0.0
 11
91.6495887094
 21
161.9125554241
 31
0.0
  0
LINE
  5
197
330
191
100
AcDbEntity
  8
SLD-0
100
AcDbLine
 10
98.5579038104
 20
174.4669640522
 30
0.0
 11
110.1169322496
 21
174.4669640522
 31
0.0
  0
MTEXT
  5
199
330
191
100
AcDbEntity
  8
SLD-0
100
AcDbMText
 10
99.8079038104
 20
177.689633227
 30
0.0
 40
2.5
 41
0.0
 71
     1
 72
     1
  1
4 x M4
  7
SLDTEXTSTYLE1
 73
     1
 44
1.0
  0
ENDBLK
  5
193
330
191
100
AcDbEntity
  8
0
100
AcDbBlockEnd
  0
BLOCK
  5
19D
330
19C
100
AcDbEntity
  8
0
100
AcDbBlockBegin
  2
_D_10
 70
     0
 10
0.0
 20
0.0
 30
0.0
  3
_D_10
  1

  0
SOLID
  5
19F
330
19C
100
AcDbEntity
  8
SLD-0
100
AcDbTrace
 10
61.5922921868
 20
146.7292768182
 30
0.0
 11
62.7248452388
 21
145.0619965226
 31
0.0
 12
63.10040491
 22
145.3920797445
 32
0.0
 13
63.10040491
 23
145.3920797445
 33
0.0
  0
SOLID
  5
1A0
330
19C
100
AcDbEntity
  8
SLD-0
100
AcDbTrace
 10
76.1159539504
 20
130.2046512862
 30
0.0
 11
74.9834008984
 21
131.8719315819
 31
0.0
 12
74.6078412272
 22
131.54184836
 32
0.0
 13
74.6078412272
 23
131.54184836
 33
0.0
  0
LINE
  5
1A1
330
19C
100
AcDbEntity
  8
SLD-0
100
AcDbLine
 10
76.1159539504
 20
130.2046512862
 30
0.0
 11
96.6399348406
 21
106.8530265957
 31
0.0
  0
LINE
  5
1A2
330
19C
100
AcDbEntity
  8
SLD-0
100
AcDbLine
 10
61.5922921868
 20
146.7292768182
 30
0.0
 11
76.1159539504
 21
130.2046512862
 31
0.0
  0
LINE
  5
1A3
330
19C
100
AcDbEntity
  8
SLD-0
100
AcDbLine
 10
96.6399348406
 20
106.8530265957
 30
0.0
 11
112.0349012194
 21
106.8530265957
 31
0.0
  0
MTEXT
  5
1A4
330
19C
100
AcDbEntity
  8
SLD-0
100
AcDbMText
 10
97.8899348406
 20
110.0826401773
 30
0.0
 40
2.5
 41
0.0
 71
     1
 72
     1
  1
C.A.
  7
SLDTEXTSTYLE0
 73
     1
 44
1.0
  0
MTEXT
  5
1A5
330
19C
100
AcDbEntity
  8
SLD-0
100
AcDbMText
 10
104.5704904822
 20
110.0756957123
 30
0.0
 40
2.5
 41
0.0
 71
     1
 72
     1
  1
%%c
  7
SLDTEXTSTYLE0
 73
     1
 44
1.0
  0
MTEXT
  5
1A6
330
19C
100
AcDbEntity
  8
SLD-0
100
AcDbMText
 10
108.2154560713
 20
110.0826401773
 30
0.0
 40
2.5
 41
0.0
 71
     1
 72
     1
  1
22
  7
SLDTEXTSTYLE0
 73
     1
 44
1.0
  0
ENDBLK
  5
19E
330
19C
100
AcDbEntity
  8
0
100
AcDbBlockEnd
  0
BLOCK
  5
1A8
330
1A7
100
AcDbEntity
  8
0
100
AcDbBlockBegin
  2
SW_CENTERMARKSYMBOL_0
 70
     0
 10
0.0
 20
0.0
 30
0.0
  3
SW_CENTERMARKSYMBOL_0
  1

  0
LINE
  5
1AA
330
1A7
100
AcDbEntity
  8
SLD-0
 62
     0
100
AcDbLine
 10
0.0
 20
0.0
 30
0.0
 11
0.0
 21
1.0
 31
0.0
  0
LINE
  5
1AB
330
1A7
100
AcDbEntity
  8
SLD-0
 62
     0
100
AcDbLine
 10
0.0
 20
0.0
 30
0.0
 11
-1.0
 21
0.0
 31
0.0
  0
LINE
  5
1AC
330
1A7
100
AcDbEntity
  8
SLD-0
 62
     0
100
AcDbLine
 10
0.0
 20
0.0
 30
0.0
 11
0.0
 21
-1.0
 31
0.0
  0
LINE
  5
1AD
330
1A7
100
AcDbEntity
  8
SLD-0
 62
     0
100
AcDbLine
 10
0.0
 20
0.0
 30
0.0
 11
1.0
 21
0.0
 31
0.0
  0
LINE
  5
1AE
330
1A7
100
AcDbEntity
  8
SLD-0
 62
     0
100
AcDbLine
 10
0.0
 20
2.0
 30
0.0
 11
0.0
 21
16.0
 31
0.0
  0
LINE
  5
1AF
330
1A7
100
AcDbEntity
  8
SLD-0
 62
     0
100
AcDbLine
 10
-2.0
 20
0.0
 30
0.0
 11
-16.0
 21
0.0
 31
0.0
  0
LINE
  5
1B0
330
1A7
100
AcDbEntity
  8
SLD-0
 62
     0
100
AcDbLine
 10
0.0
 20
-2.0
 30
0.0
 11
0.0
 21
-16.0
 31
0.0
  0
LINE
  5
1B1
330
1A7
100
AcDbEntity
  8
SLD-0
 62
     0
100
AcDbLine
 10
2.0
 20
0.0
 30
0.0
 11
16.0
 21
0.0
 31
0.0
  0
ENDBLK
  5
1A9
330
1A7
100
AcDbEntity
  8
0
100
AcDbBlockEnd
  0
BLOCK
  5
1B4
330
1B3
100
AcDbEntity
  8
0
100
AcDbBlockBegin
  2
SW_CENTERMARKSYMBOL_1
 70
     0
 10
0.0
 20
0.0
 30
0.0
  3
SW_CENTERMARKSYMBOL_1
  1

  0
LINE
  5
1B6
330
1B3
100
AcDbEntity
  8
SLD-0
 62
     0
100
AcDbLine
 10
0.0
 20
0.0
 30
0.0
 11
0.0
 21
1.0
 31
0.0
  0
LINE
  5
1B7
330
1B3
100
AcDbEntity
  8
SLD-0
 62
     0
100
AcDbLine
 10
0.0
 20
0.0
 30
0.0
 11
-1.0
 21
0.0
 31
0.0
  0
LINE
  5
1B8
330
1B3
100
AcDbEntity
  8
SLD-0
 62
     0
100
AcDbLine
 10
0.0
 20
0.0
 30
0.0
 11
0.0
 21
-1.0
 31
0.0
  0
LINE
  5
1B9
330
1B3
100
AcDbEntity
  8
SLD-0
 62
     0
100
AcDbLine
 10
0.0
 20
0.0
 30
0.0
 11
1.0
 21
0.0
 31
0.0
  0
LINE
  5
1BA
330
1B3
100
AcDbEntity
  8
SLD-0
 62
     0
100
AcDbLine
 10
0.0
 20
2.0
 30
0.0
 11
0.0
 21
2.65
 31
0.0
  0
LINE
  5
1BB
330
1B3
100
AcDbEntity
  8
SLD-0
 62
     0
100
AcDbLine
 10
-2.0
 20
0.0
 30
0.0
 11
-2.65
 21
0.0
 31
0.0
  0
LINE
  5
1BC
330
1B3
100
AcDbEntity
  8
SLD-0
 62
     0
100
AcDbLine
 10
0.0
 20
-2.0
 30
0.0
 11
0.0
 21
-2.65
 31
0.0
  0
LINE
  5
1BD
330
1B3
100
AcDbEntity
  8
SLD-0
 62
     0
100
AcDbLine
 10
2.0
 20
0.0
 30
0.0
 11
2.65
 21
0.0
 31
0.0
  0
ENDBLK
  5
1B5
330
1B3
100
AcDbEntity
  8
0
100
AcDbBlockEnd
  0
BLOCK
  5
1C0
330
1BF
100
AcDbEntity
  8
0
100
AcDbBlockBegin
  2
SW_CENTERMARKSYMBOL_2
 70
     0
 10
0.0
 20
0.0
 30
0.0
  3
SW_CENTERMARKSYMBOL_2
  1

  0
LINE
  5
1C2
330
1BF
100
AcDbEntity
  8
SLD-0
 62
     0
100
AcDbLine
 10
0.0
 20
0.0
 30
0.0
 11
0.0
 21
1.0
 31
0.0
  0
LINE
  5
1C3
330
1BF
100
AcDbEntity
  8
SLD-0
 62
     0
100
AcDbLine
 10
0.0
 20
0.0
 30
0.0
 11
-1.0
 21
0.0
 31
0.0
  0
LINE
  5
1C4
330
1BF
100
AcDbEntity
  8
SLD-0
 62
     0
100
AcDbLine
 10
0.0
 20
0.0
 30
0.0
 11
0.0
 21
-1.0
 31
0.0
  0
LINE
  5
1C5
330
1BF
100
AcDbEntity
  8
SLD-0
 62
     0
100
AcDbLine
 10
0.0
 20
0.0
 30
0.0
 11
1.0
 21
0.0
 31
0.0
  0
LINE
  5
1C6
330
1BF
100
AcDbEntity
  8
SLD-0
 62
     0
100
AcDbLine
 10
0.0
 20
2.0
 30
0.0
 11
0.0
 21
2.65
 31
0.0
  0
LINE
  5
1C7
330
1BF
100
AcDbEntity
  8
SLD-0
 62
     0
100
AcDbLine
 10
-2.0
 20
0.0
 30
0.0
 11
-2.65
 21
0.0
 31
0.0
  0
LINE
  5
1C8
330
1BF
100
AcDbEntity
  8
SLD-0
 62
     0
100
AcDbLine
 10
0.0
 20
-2.0
 30
0.0
 11
0.0
 21
-2.65
 31
0.0
  0
LINE
  5
1C9
330
1BF
100
AcDbEntity
  8
SLD-0
 62
     0
100
AcDbLine
 10
2.0
 20
0.0
 30
0.0
 11
2.65
 21
0.0
 31
0.0
  0
ENDBLK
  5
1C1
330
1BF
100
AcDbEntity
  8
0
100
AcDbBlockEnd
  0
BLOCK
  5
1CC
330
1CB
100
AcDbEntity
  8
0
100
AcDbBlockBegin
  2
SW_CENTERMARKSYMBOL_3
 70
     0
 10
0.0
 20
0.0
 30
0.0
  3
SW_CENTERMARKSYMBOL_3
  1

  0
LINE
  5
1CE
330
1CB
100
AcDbEntity
  8
SLD-0
 62
     0
100
AcDbLine
 10
0.0
 20
0.0
 30
0.0
 11
0.0
 21
1.0
 31
0.0
  0
LINE
  5
1CF
330
1CB
100
AcDbEntity
  8
SLD-0
 62
     0
100
AcDbLine
 10
0.0
 20
0.0
 30
0.0
 11
-1.0
 21
0.0
 31
0.0
  0
LINE
  5
1D0
330
1CB
100
AcDbEntity
  8
SLD-0
 62
     0
100
AcDbLine
 10
0.0
 20
0.0
 30
0.0
 11
0.0
 21
-1.0
 31
0.0
  0
LINE
  5
1D1
330
1CB
100
AcDbEntity
  8
SLD-0
 62
     0
100
AcDbLine
 10
0.0
 20
0.0
 30
0.0
 11
1.0
 21
0.0
 31
0.0
  0
LINE
  5
1D2
330
1CB
100
AcDbEntity
  8
SLD-0
 62
     0
100
AcDbLine
 10
0.0
 20
2.0
 30
0.0
 11
0.0
 21
2.65
 31
0.0
  0
LINE
  5
1D3
330
1CB
100
AcDbEntity
  8
SLD-0
 62
     0
100
AcDbLine
 10
-2.0
 20
0.0
 30
0.0
 11
-2.65
 21
0.0
 31
0.0
  0
LINE
  5
1D4
330
1CB
100
AcDbEntity
  8
SLD-0
 62
     0
100
AcDbLine
 10
0.0
 20
-2.0
 30
0.0
 11
0.0
 21
-2.65
 31
0.0
  0
LINE
  5
1D5
330
1CB
100
AcDbEntity
  8
SLD-0
 62
     0
100
AcDbLine
 10
2.0
 20
0.0
 30
0.0
 11
2.65
 21
0.0
 31
0.0
  0
ENDBLK
  5
1CD
330
1CB
100
AcDbEntity
  8
0
100
AcDbBlockEnd
  0
BLOCK
  5
1D8
330
1D7
100
AcDbEntity
  8
0
100
AcDbBlockBegin
  2
SW_CENTERMARKSYMBOL_4
 70
     0
 10
0.0
 20
0.0
 30
0.0
  3
SW_CENTERMARKSYMBOL_4
  1

  0
LINE
  5
1DA
330
1D7
100
AcDbEntity
  8
SLD-0
 62
     0
100
AcDbLine
 10
0.0
 20
0.0
 30
0.0
 11
0.0
 21
1.0
 31
0.0
  0
LINE
  5
1DB
330
1D7
100
AcDbEntity
  8
SLD-0
 62
     0
100
AcDbLine
 10
0.0
 20
0.0
 30
0.0
 11
-1.0
 21
0.0
 31
0.0
  0
LINE
  5
1DC
330
1D7
100
AcDbEntity
  8
SLD-0
 62
     0
100
AcDbLine
 10
0.0
 20
0.0
 30
0.0
 11
0.0
 21
-1.0
 31
0.0
  0
LINE
  5
1DD
330
1D7
100
AcDbEntity
  8
SLD-0
 62
     0
100
AcDbLine
 10
0.0
 20
0.0
 30
0.0
 11
1.0
 21
0.0
 31
0.0
  0
LINE
  5
1DE
330
1D7
100
AcDbEntity
  8
SLD-0
 62
     0
100
AcDbLine
 10
0.0
 20
2.0
 30
0.0
 11
0.0
 21
2.65
 31
0.0
  0
LINE
  5
1DF
330
1D7
100
AcDbEntity
  8
SLD-0
 62
     0
100
AcDbLine
 10
-2.0
 20
0.0
 30
0.0
 11
-2.65
 21
0.0
 31
0.0
  0
LINE
  5
1E0
330
1D7
100
AcDbEntity
  8
SLD-0
 62
     0
100
AcDbLine
 10
0.0
 20
-2.0
 30
0.0
 11
0.0
 21
-2.65
 31
0.0
  0
LINE
  5
1E1
330
1D7
100
AcDbEntity
  8
SLD-0
 62
     0
100
AcDbLine
 10
2.0
 20
0.0
 30
0.0
 11
2.65
 21
0.0
 31
0.0
  0
ENDBLK
  5
1D9
330
1D7
100
AcDbEntity
  8
0
100
AcDbBlockEnd
  0
BLOCK
  5
223
330
222
100
AcDbEntity
  8
0
100
AcDbBlockBegin
  2
_D_11
 70
     0
 10
0.0
 20
0.0
 30
0.0
  3
_D_11
  1

  0
SOLID
  5
225
330
222
100
AcDbEntity
  8
SLD-0
100
AcDbTrace
 10
143.0649055567
 20
163.4669640522
 30
0.0
 11
142.8149055567
 21
161.4669640522
 31
0.0
 12
143.3149055567
 22
161.4669640522
 32
0.0
 13
143.3149055567
 23
161.4669640522
 33
0.0
  0
SOLID
  5
226
330
222
100
AcDbEntity
  8
SLD-0
100
AcDbTrace
 10
143.0649055567
 20
138.4669640522
 30
0.0
 11
143.3149055567
 21
140.4669640522
 31
0.0
 12
142.8149055567
 22
140.4669640522
 32
0.0
 13
142.8149055567
 23
140.4669640522
 33
0.0
  0
LINE
  5
227
330
222
100
AcDbEntity
  8
SLD-0
100
AcDbLine
 10
149.0649055567
 20
163.4669640522
 30
0.0
 11
142.0649055567
 21
163.4669640522
 31
0.0
  0
LINE
  5
228
330
222
100
AcDbEntity
  8
SLD-0
100
AcDbLine
 10
150.9149055567
 20
138.4669640522
 30
0.0
 11
142.0649055567
 21
138.4669640522
 31
0.0
  0
LINE
  5
229
330
222
100
AcDbEntity
  8
SLD-0
100
AcDbLine
 10
143.0649055567
 20
163.4669640522
 30
0.0
 11
143.0649055567
 21
138.4669640522
 31
0.0
  0
MTEXT
  5
22A
330
222
100
AcDbEntity
  8
SLD-0
100
AcDbMText
 10
139.8422363819
 20
149.0572418274
 30
0.0
 40
2.5
 41
0.0
 71
     1
 72
     1
  1
25
  7
SLDTEXTSTYLE0
 11
-7.044195017643634E-15
 21
1.0
 31
0.0
 73
     1
 44
1.0
  0
ENDBLK
  5
224
330
222
100
AcDbEntity
  8
0
100
AcDbBlockEnd
  0
BLOCK
  5
22D
330
22C
100
AcDbEntity
  8
0
100
AcDbBlockBegin
  2
_D_12
 70
     0
 10
0.0
 20
0.0
 30
0.0
  3
_D_12
  1

  0
SOLID
  5
22F
330
22C
100
AcDbEntity
  8
SLD-0
 62
     7
100
AcDbTrace
 10
207.1649055567
 20
122.0906819627
 30
0.0
 11
206.9149055567
 21
120.0906819627
 31
0.0
 12
207.4149055567
 22
120.0906819627
 32
0.0
 13
207.4149055567
 23
120.0906819627
 33
0.0
  0
SOLID
  5
230
330
22C
100
AcDbEntity
  8
SLD-0
 62
     7
100
AcDbTrace
 10
207.1649055567
 20
107.0906819627
 30
0.0
 11
207.4149055567
 21
109.0906819627
 31
0.0
 12
206.9149055567
 22
109.0906819627
 32
0.0
 13
206.9149055567
 23
109.0906819627
 33
0.0
  0
LINE
  5
231
330
22C
100
AcDbEntity
  8
SLD-0
 62
     7
100
AcDbLine
 10
199.4649055567
 20
122.0906819627
 30
0.0
 11
208.1649055567
 21
122.0906819627
 31
0.0
  0
LINE
  5
232
330
22C
100
AcDbEntity
  8
SLD-0
 62
     7
100
AcDbLine
 10
199.4649055567
 20
107.0906819627
 30
0.0
 11
208.1649055567
 21
107.0906819627
 31
0.0
  0
LINE
  5
233
330
22C
100
AcDbEntity
  8
SLD-0
 62
     7
100
AcDbLine
 10
207.1649055567
 20
122.0906819627
 30
0.0
 11
207.1649055567
 21
107.0906819627
 31
0.0
  0
MTEXT
  5
234
330
22C
100
AcDbEntity
  8
SLD-0
 62
     7
100
AcDbMText
 10
203.9422364401
 20
110.8584770598
 30
0.0
 40
2.5
 41
0.0
 71
     1
 72
     1
  1
%%c
  7
SLDTEXTSTYLE0
 11
-7.044195017643634E-15
 21
1.0
 31
0.0
 73
     1
 44
1.0
  0
MTEXT
  5
235
330
22C
100
AcDbEntity
  8
SLD-0
 62
     7
100
AcDbMText
 10
203.9352919751
 20
114.503442416
 30
0.0
 40
2.5
 41
0.0
 71
     1
 72
     1
  1
15
  7
SLDTEXTSTYLE0
 11
-7.044195017643634E-15
 21
1.0
 31
0.0
 73
     1
 44
1.0
  0
ENDBLK
  5
22E
330
22C
100
AcDbEntity
  8
0
100
AcDbBlockEnd
  0
BLOCK
  5
238
330
237
100
AcDbEntity
  8
0
100
AcDbBlockBegin
  2
_D_13
 70
     0
 10
0.0
 20
0.0
 30
0.0
  3
_D_13
  1

  0
SOLID
  5
23A
330
237
100
AcDbEntity
  8
SLD-0
100
AcDbTrace
 10
149.5649055567
 20
179.4669640522
 30
0.0
 11
151.5649055567
 21
179.2169640522
 31
0.0
 12
151.5649055567
 22
179.7169640522
 32
0.0
 13
151.5649055567
 23
179.7169640522
 33
0.0
  0
SOLID
  5
23B
330
237
100
AcDbEntity
  8
SLD-0
100
AcDbTrace
 10
199.9649055567
 20
179.4669640522
 30
0.0
 11
197.9649055567
 21
179.7169640522
 31
0.0
 12
197.9649055567
 22
179.2169640522
 32
0.0
 13
197.9649055567
 23
179.2169640522
 33
0.0
  0
LINE
  5
23C
330
237
100
AcDbEntity
  8
SLD-0
100
AcDbLine
 10
149.5649055567
 20
163.9669640522
 30
0.0
 11
149.5649055567
 21
180.4669640522
 31
0.0
  0
LINE
  5
23D
330
237
100
AcDbEntity
  8
SLD-0
100
AcDbLine
 10
199.9649055567
 20
122.9906819627
 30
0.0
 11
199.9649055567
 21
180.4669640522
 31
0.0
  0
LINE
  5
23E
330
237
100
AcDbEntity
  8
SLD-0
100
AcDbLine
 10
149.5649055567
 20
179.4669640522
 30
0.0
 11
199.9649055567
 21
179.4669640522
 31
0.0
  0
MTEXT
  5
23F
330
237
100
AcDbEntity
  8
SLD-0
100
AcDbMText
 10
171.4228917506
 20
182.689633227
 30
0.0
 40
2.5
 41
0.0
 71
     1
 72
     1
  1
50.4
  7
SLDTEXTSTYLE0
 73
     1
 44
1.0
  0
ENDBLK
  5
239
330
237
100
AcDbEntity
  8
0
100
AcDbBlockEnd
  0
BLOCK
  5
242
330
241
100
AcDbEntity
  8
0
100
AcDbBlockBegin
  2
_D_14
 70
     0
 10
0.0
 20
0.0
 30
0.0
  3
_D_14
  1

  0
SOLID
  5
244
330
241
100
AcDbEntity
  8
SLD-0
100
AcDbTrace
 10
149.5649055567
 20
169.4669640522
 30
0.0
 11
151.5649055567
 21
169.2169640522
 31
0.0
 12
151.5649055567
 22
169.7169640522
 32
0.0
 13
151.5649055567
 23
169.7169640522
 33
0.0
  0
SOLID
  5
245
330
241
100
AcDbEntity
  8
SLD-0
100
AcDbTrace
 10
154.5649055567
 20
169.4669640522
 30
0.0
 11
152.5649055567
 21
169.7169640522
 31
0.0
 12
152.5649055567
 22
169.2169640522
 32
0.0
 13
152.5649055567
 23
169.2169640522
 33
0.0
  0
LINE
  5
246
330
241
100
AcDbEntity
  8
SLD-0
100
AcDbLine
 10
149.5649055567
 20
163.9669640522
 30
0.0
 11
149.5649055567
 21
170.4669640522
 31
0.0
  0
LINE
  5
247
330
241
100
AcDbEntity
  8
SLD-0
100
AcDbLine
 10
154.5649055567
 20
142.1169640522
 30
0.0
 11
154.5649055567
 21
170.4669640522
 31
0.0
  0
LINE
  5
248
330
241
100
AcDbEntity
  8
SLD-0
100
AcDbLine
 10
149.5649055567
 20
169.4669640522
 30
0.0
 11
154.5649055567
 21
169.4669640522
 31
0.0
  0
MTEXT
  5
249
330
241
100
AcDbEntity
  8
SLD-0
100
AcDbMText
 10
151.1100444443
 20
172.689633227
 30
0.0
 40
2.5
 41
0.0
 71
     1
 72
     1
  1
5
  7
SLDTEXTSTYLE0
 73
     1
 44
1.0
  0
ENDBLK
  5
243
330
241
100
AcDbEntity
  8
0
100
AcDbBlockEnd
  0
BLOCK
  5
24C
330
24B
100
AcDbEntity
  8
0
100
AcDbBlockBegin
  2
_D_15
 70
     0
 10
0.0
 20
0.0
 30
0.0
  3
_D_15
  1

  0
SOLID
  5
24E
330
24B
100
AcDbEntity
  8
SLD-0
100
AcDbTrace
 10
149.5649055567
 20
174.4669640522
 30
0.0
 11
151.5649055567
 21
174.2169640522
 31
0.0
 12
151.5649055567
 22
174.7169640522
 32
0.0
 13
151.5649055567
 23
174.7169640522
 33
0.0
  0
SOLID
  5
24F
330
24B
100
AcDbEntity
  8
SLD-0
100
AcDbTrace
 10
165.5649055567
 20
174.4669640522
 30
0.0
 11
163.5649055567
 21
174.7169640522
 31
0.0
 12
163.5649055567
 22
174.2169640522
 32
0.0
 13
163.5649055567
 23
174.2169640522
 33
0.0
  0
LINE
  5
250
330
24B
100
AcDbEntity
  8
SLD-0
100
AcDbLine
 10
149.5649055567
 20
163.9669640522
 30
0.0
 11
149.5649055567
 21
175.4669640522
 31
0.0
  0
LINE
  5
251
330
24B
100
AcDbEntity
  8
SLD-0
100
AcDbLine
 10
165.5649055567
 20
163.9669640522
 30
0.0
 11
165.5649055567
 21
175.4669640522
 31
0.0
  0
LINE
  5
252
330
24B
100
AcDbEntity
  8
SLD-0
100
AcDbLine
 10
149.5649055567
 20
174.4669640522
 30
0.0
 11
165.5649055567
 21
174.4669640522
 31
0.0
  0
MTEXT
  5
253
330
24B
100
AcDbEntity
  8
SLD-0
100
AcDbMText
 10
155.6551833319
 20
177.689633227
 30
0.0
 40
2.5
 41
0.0
 71
     1
 72
     1
  1
16
  7
SLDTEXTSTYLE0
 73
     1
 44
1.0
  0
ENDBLK
  5
24D
330
24B
100
AcDbEntity
  8
0
100
AcDbBlockEnd
  0
BLOCK
  5
256
330
255
100
AcDbEntity
  8
0
100
AcDbBlockBegin
  2
_D_16
 70
     0
 10
0.0
 20
0.0
 30
0.0
  3
_D_16
  1

  0
SOLID
  5
258
330
255
100
AcDbEntity
  8
SLD-0
100
AcDbTrace
 10
153.7399055567
 20
137.038022136
 30
0.0
 11
152.5233992057
 21
135.4309713284
 31
0.0
 12
152.9564119076
 22
135.1809713284
 32
0.0
 13
152.9564119076
 23
135.1809713284
 33
0.0
  0
LINE
  5
259
330
255
100
AcDbEntity
  8
SLD-0
100
AcDbLine
 10
153.7399055567
 20
137.038022136
 30
0.0
 11
145.9818266445
 21
123.6006352909
 31
0.0
  0
LINE
  5
25A
330
255
100
AcDbEntity
  8
SLD-0
100
AcDbLine
 10
155.3899055567
 20
139.8959059685
 30
0.0
 11
153.7399055567
 21
137.038022136
 31
0.0
  0
LINE
  5
25B
330
255
100
AcDbEntity
  8
SLD-0
100
AcDbLine
 10
145.9818266445
 20
123.6006352909
 30
0.0
 11
139.9609931112
 21
123.6006352909
 31
0.0
  0
MTEXT
  5
25C
330
255
100
AcDbEntity
  8
SLD-0
100
AcDbMText
 10
139.9609931112
 20
126.8233044657
 30
0.0
 40
2.5
 41
0.0
 71
     1
 72
     1
  1
M4
  7
SLDTEXTSTYLE0
 73
     1
 44
1.0
  0
ENDBLK
  5
257
330
255
100
AcDbEntity
  8
0
100
AcDbBlockEnd
  0
BLOCK
  5
25E
330
25D
100
AcDbEntity
  8
0
100
AcDbBlockBegin
  2
SW_CENTERMARKSYMBOL_5
 70
     0
 10
0.0
 20
0.0
 30
0.0
  3
SW_CENTERMARKSYMBOL_5
  1

  0
LINE
  5
260
330
25D
100
AcDbEntity
  8
SLD-0
 62
     0
100
AcDbLine
 10
0.0
 20
0.0
 30
0.0
 11
0.0
 21
1.0
 31
0.0
  0
LINE
  5
261
330
25D
100
AcDbEntity
  8
SLD-0
 62
     0
100
AcDbLine
 10
0.0
 20
0.0
 30
0.0
 11
-1.0
 21
0.0
 31
0.0
  0
LINE
  5
262
330
25D
100
AcDbEntity
  8
SLD-0
 62
     0
100
AcDbLine
 10
0.0
 20
0.0
 30
0.0
 11
0.0
 21
-1.0
 31
0.0
  0
LINE
  5
263
330
25D
100
AcDbEntity
  8
SLD-0
 62
     0
100
AcDbLine
 10
0.0
 20
0.0
 30
0.0
 11
1.0
 21
0.0
 31
0.0
  0
LINE
  5
264
330
25D
100
AcDbEntity
  8
SLD-0
 62
     0
100
AcDbLine
 10
0.0
 20
2.0
 30
0.0
 11
0.0
 21
2.65
 31
0.0
  0
LINE
  5
265
330
25D
100
AcDbEntity
  8
SLD-0
 62
     0
100
AcDbLine
 10
-2.0
 20
0.0
 30
0.0
 11
-2.65
 21
0.0
 31
0.0
  0
LINE
  5
266
330
25D
100
AcDbEntity
  8
SLD-0
 62
     0
100
AcDbLine
 10
0.0
 20
-2.0
 30
0.0
 11
0.0
 21
-2.65
 31
0.0
  0
LINE
  5
267
330
25D
100
AcDbEntity
  8
SLD-0
 62
     0
100
AcDbLine
 10
2.0
 20
0.0
 30
0.0
 11
2.65
 21
0.0
 31
0.0
  0
ENDBLK
  5
25F
330
25D
100
AcDbEntity
  8
0
100
AcDbBlockEnd
  0
BLOCK
  5
309
330
308
100
AcDbEntity
  8
0
100
AcDbBlockBegin
  2
_D_17
 70
     0
 10
0.0
 20
0.0
 30
0.0
  3
_D_17
  1

  0
SOLID
  5
30B
330
308
100
AcDbEntity
  8
SLD-0
100
AcDbTrace
 10
71.0191865781
 20
70.5946289189
 30
0.0
 11
72.8762373856
 21
71.3781225679
 31
0.0
 12
72.6262373856
 22
71.8111352698
 32
0.0
 13
72.6262373856
 23
71.8111352698
 33
0.0
  0
LINE
  5
30C
330
308
100
AcDbEntity
  8
SLD-0
100
AcDbLine
 10
71.0191865781
 20
70.5946289189
 30
0.0
 11
87.9066819519
 21
80.3446289189
 31
0.0
  0
LINE
  5
30D
330
308
100
AcDbEntity
  8
SLD-0
100
AcDbLine
 10
66.6890595591
 20
68.0946289189
 30
0.0
 11
71.0191865781
 21
70.5946289189
 31
0.0
  0
LINE
  5
30E
330
308
100
AcDbEntity
  8
SLD-0
100
AcDbLine
 10
87.9066819519
 20
80.3446289189
 30
0.0
 11
93.9275154851
 21
80.3446289189
 31
0.0
  0
MTEXT
  5
30F
330
308
100
AcDbEntity
  8
SLD-0
100
AcDbMText
 10
89.1566819519
 20
83.5672980937
 30
0.0
 40
2.5
 41
0.0
 71
     1
 72
     1
  1
M6
  7
SLDTEXTSTYLE0
 73
     1
 44
1.0
  0
ENDBLK
  5
30A
330
308
100
AcDbEntity
  8
0
100
AcDbBlockEnd
  0
BLOCK
  5
312
330
311
100
AcDbEntity
  8
0
100
AcDbBlockBegin
  2
_D_18
 70
     0
 10
0.0
 20
0.0
 30
0.0
  3
_D_18
  1

  0
SOLID
  5
314
330
311
100
AcDbEntity
  8
SLD-0
100
AcDbTrace
 10
68.8541230686
 20
80.3446289189
 30
0.0
 11
66.8541230686
 21
80.5946289189
 31
0.0
 12
66.8541230686
 22
80.0946289189
 32
0.0
 13
66.8541230686
 23
80.0946289189
 33
0.0
  0
SOLID
  5
315
330
311
100
AcDbEntity
  8
SLD-0
100
AcDbTrace
 10
43.8541230686
 20
80.3446289189
 30
0.0
 11
45.8541230686
 21
80.0946289189
 31
0.0
 12
45.8541230686
 22
80.5946289189
 32
0.0
 13
45.8541230686
 23
80.5946289189
 33
0.0
  0
LINE
  5
316
330
311
100
AcDbEntity
  8
SLD-0
100
AcDbLine
 10
68.8541230686
 20
73.8446289189
 30
0.0
 11
68.8541230686
 21
81.3446289189
 31
0.0
  0
LINE
  5
317
330
311
100
AcDbEntity
  8
SLD-0
100
AcDbLine
 10
43.8541230686
 20
74.8446289189
 30
0.0
 11
43.8541230686
 21
81.3446289189
 31
0.0
  0
LINE
  5
318
330
311
100
AcDbEntity
  8
SLD-0
100
AcDbLine
 10
68.8541230686
 20
80.3446289189
 30
0.0
 11
43.8541230686
 21
80.3446289189
 31
0.0
  0
MTEXT
  5
319
330
311
100
AcDbEntity
  8
SLD-0
100
AcDbMText
 10
54.4444008438
 20
83.5672980937
 30
0.0
 40
2.5
 41
0.0
 71
     1
 72
     1
  1
25
  7
SLDTEXTSTYLE0
 73
     1
 44
1.0
  0
ENDBLK
  5
313
330
311
100
AcDbEntity
  8
0
100
AcDbBlockEnd
  0
BLOCK
  5
31C
330
31B
100
AcDbEntity
  8
0
100
AcDbBlockBegin
  2
_D_19
 70
     0
 10
0.0
 20
0.0
 30
0.0
  3
_D_19
  1

  0
SOLID
  5
31E
330
31B
100
AcDbEntity
  8
SLD-0
100
AcDbTrace
 10
100.2753523057
 20
69.3446289189
 30
0.0
 11
100.5253523057
 21
71.3446289189
 31
0.0
 12
100.0253523057
 22
71.3446289189
 32
0.0
 13
100.0253523057
 23
71.3446289189
 33
0.0
  0
SOLID
  5
31F
330
31B
100
AcDbEntity
  8
SLD-0
100
AcDbTrace
 10
100.2753523057
 20
74.3446289189
 30
0.0
 11
100.0253523057
 21
72.3446289189
 31
0.0
 12
100.5253523057
 22
72.3446289189
 32
0.0
 13
100.5253523057
 23
72.3446289189
 33
0.0
  0
LINE
  5
320
330
31B
100
AcDbEntity
  8
SLD-0
100
AcDbLine
 10
73.3541230686
 20
69.3446289189
 30
0.0
 11
101.2753523057
 21
69.3446289189
 31
0.0
  0
LINE
  5
321
330
31B
100
AcDbEntity
  8
SLD-0
100
AcDbLine
 10
94.3541230686
 20
74.3446289189
 30
0.0
 11
101.2753523057
 21
74.3446289189
 31
0.0
  0
LINE
  5
322
330
31B
100
AcDbEntity
  8
SLD-0
100
AcDbLine
 10
100.2753523057
 20
69.3446289189
 30
0.0
 11
100.2753523057
 21
74.3446289189
 31
0.0
  0
MTEXT
  5
323
330
31B
100
AcDbEntity
  8
SLD-0
100
AcDbMText
 10
97.0526831309
 20
70.8897678065
 30
0.0
 40
2.5
 41
0.0
 71
     1
 72
     1
  1
5
  7
SLDTEXTSTYLE0
 11
6.123233995736766E-17
 21
1.0
 31
0.0
 73
     1
 44
1.0
  0
ENDBLK
  5
31D
330
31B
100
AcDbEntity
  8
0
100
AcDbBlockEnd
  0
BLOCK
  5
325
330
324
100
AcDbEntity
  8
0
100
AcDbBlockBegin
  2
SW_CENTERMARKSYMBOL_6
 70
     0
 10
0.0
 20
0.0
 30
0.0
  3
SW_CENTERMARKSYMBOL_6
  1

  0
LINE
  5
327
330
324
100
AcDbEntity
  8
SLD-0
 62
     0
100
AcDbLine
 10
0.0
 20
0.0
 30
0.0
 11
0.0
 21
1.0
 31
0.0
  0
LINE
  5
328
330
324
100
AcDbEntity
  8
SLD-0
 62
     0
100
AcDbLine
 10
0.0
 20
0.0
 30
0.0
 11
-1.0
 21
0.0
 31
0.0
  0
LINE
  5
329
330
324
100
AcDbEntity
  8
SLD-0
 62
     0
100
AcDbLine
 10
0.0
 20
0.0
 30
0.0
 11
0.0
 21
-1.0
 31
0.0
  0
LINE
  5
32A
330
324
100
AcDbEntity
  8
SLD-0
 62
     0
100
AcDbLine
 10
0.0
 20
0.0
 30
0.0
 11
1.0
 21
0.0
 31
0.0
  0
LINE
  5
32B
330
324
100
AcDbEntity
  8
SLD-0
 62
     0
100
AcDbLine
 10
0.0
 20
2.0
 30
0.0
 11
0.0
 21
3.5
 31
0.0
  0
LINE
  5
32C
330
324
100
AcDbEntity
  8
SLD-0
 62
     0
100
AcDbLine
 10
-2.0
 20
0.0
 30
0.0
 11
-3.5
 21
0.0
 31
0.0
  0
LINE
  5
32D
330
324
100
AcDbEntity
  8
SLD-0
 62
     0
100
AcDbLine
 10
0.0
 20
-2.0
 30
0.0
 11
0.0
 21
-3.5
 31
0.0
  0
LINE
  5
32E
330
324
100
AcDbEntity
  8
SLD-0
 62
     0
100
AcDbLine
 10
2.0
 20
0.0
 30
0.0
 11
3.5
 21
0.0
 31
0.0
  0
ENDBLK
  5
326
330
324
100
AcDbEntity
  8
0
100
AcDbBlockEnd
  0
ENDSEC
  0
SECTION
  2
ENTITIES
  0
HATCH
  5
89
330
1F
100
AcDbEntity
  8
0
  6
Continuous
 62
     7
100
AcDbHatch
 10
0.0
 20
0.0
 30
0.0
210
0.0
220
0.0
230
1.0
  2
SOLID
 70
     1
 71
     0
 91
        1
 92
        0
 93
       10
 72
     2
 10
192.1405965629367
 20
35.75580880988856
 40
2.989636657769859
 50
50.39692260731407
 51
112.8514693252983
 73
     0
 72
     2
 10
191.815005962812
 20
35.43899828006204
 40
2.577335426817619
 50
108.9134333432861
 51
219.5668234386827
 73
     0
 72
     1
 10
189.8281839389603
 20
37.0807035361501
 11
188.8129900915579
 21
37.97623543696786
 72
     1
 10
188.8129900915579
 20
37.97623543696786
 11
187.5063618366762
 21
36.71464836046036
 72
     2
 10
188.4942467986389
 20
35.54612112772446
 40
1.530154433943661
 50
130.2115225915088
 51
228.5889041080191
 73
     1
 72
     1
 10
187.482115254651
 20
34.39853133629978
 11
191.4913175648466
 21
30.9139274960251
 72
     1
 10
191.4913175648466
 20
30.9139274960251
 11
190.8602656444315
 21
30.29802710555407
 72
     1
 10
190.8602656444315
 20
30.29802710555407
 11
191.852145009157
 21
29.44405283860024
 72
     1
 10
191.852145009157
 20
29.44405283860024
 11
195.0618094435223
 21
32.56063080411572
 72
     1
 10
195.0618094435223
 20
32.56063080411572
 11
194.0463864118641
 21
33.45235653184883
 97
        0
 75
     0
 76
     1
 98
        1
 10
0.0
 20
0.0
  0
HATCH
  5
8A
330
1F
100
AcDbEntity
  8
0
  6
Continuous
 62
     1
100
AcDbHatch
 10
0.0
 20
0.0
 30
0.0
210
0.0
220
0.0
230
1.0
  2
SOLID
 70
     1
 71
     0
 91
        1
 92
        0
 93
       10
 72
     2
 10
192.5892455627688
 20
35.6630691563161
 40
2.57756748834625
 50
317.8184992995785
 51
398.0564711573078
 73
     0
 72
     1
 10
194.6188314058163
 20
34.07415900697447
 11
195.6042802987991
 21
33.21546206708498
 72
     1
 10
195.6042802987991
 20
33.21546206708498
 11
196.8459616135929
 21
34.41989500949219
 72
     2
 10
195.9525692879308
 20
35.64784174131312
 40
1.518552937418265
 50
306.0377529468138
 51
403.4396461533871
 73
     1
 72
     1
 10
197.0551891526031
 20
36.69198371335126
 11
192.9284332942598
 21
40.28115998198521
 72
     1
 10
192.9284332942598
 20
40.28115998198521
 11
193.552684596187
 21
40.89021841282256
 72
     1
 10
193.552684596187
 20
40.89021841282256
 11
192.622178086003
 21
41.72041063266705
 72
     1
 10
192.622178086003
 20
41.72041063266705
 11
189.3865926375931
 21
38.59349038605298
 72
     1
 10
189.3865926375931
 20
38.59349038605298
 11
190.4090005149417
 21
37.70169985893218
 72
     2
 10
192.2715892720444
 20
35.12224735083792
 40
3.181636704527876
 50
234.1674444878512
 51
314.4407074583994
 73
     0
 97
        0
 75
     0
 76
     1
 98
        1
 10
0.0
 20
0.0
  0
LINE
  5
8B
330
1F
100
AcDbEntity
  8
0
  6
Continuous
 62
     7
370
     0
100
AcDbLine
 10
167.8593775185
 20
17.7745192513
 30
0.0
 11
168.8593775185
 21
17.7745192513
 31
0.0
  0
LINE
  5
8C
330
1F
100
AcDbEntity
  8
0
  6
Continuous
 62
     7
370
     0
100
AcDbLine
 10
164.8593775185
 20
17.7745192513
 30
0.0
 11
167.3593775185
 21
17.7745192513
 31
0.0
  0
LINE
  5
8D
330
1F
100
AcDbEntity
  8
0
  6
Continuous
 62
     7
370
     0
100
AcDbLine
 10
181.3593775185
 20
15.2745192513
 30
0.0
 11
181.3593775185
 21
20.2745192513
 31
0.0
  0
LINE
  5
8E
330
1F
100
AcDbEntity
  8
0
  6
Continuous
 62
     7
370
     0
100
AcDbLine
 10
174.3593775185
 20
16.2745192513
 30
0.0
 11
181.3593775185
 21
15.2745192513
 31
0.0
  0
LINE
  5
8F
330
1F
100
AcDbEntity
  8
0
  6
Continuous
 62
     7
370
     0
100
AcDbLine
 10
168.3593775185
 20
16.7745192513
 30
0.0
 11
168.3593775185
 21
14.2745192513
 31
0.0
  0
LINE
  5
90
330
1F
100
AcDbEntity
  8
0
  6
Continuous
 62
     7
370
     0
100
AcDbLine
 10
181.3593775185
 20
20.2745192513
 30
0.0
 11
174.3593775185
 21
19.2745192513
 31
0.0
  0
LINE
  5
91
330
1F
100
AcDbEntity
  8
0
  6
Continuous
 62
     7
370
     0
100
AcDbLine
 10
173.3593775185
 20
17.7745192513
 30
0.0
 11
182.3593775185
 21
17.7745192513
 31
0.0
  0
LINE
  5
92
330
1F
100
AcDbEntity
  8
0
  6
Continuous
 62
     7
370
     0
100
AcDbLine
 10
168.3593775185
 20
18.2745192513
 30
0.0
 11
168.3593775185
 21
17.2745192513
 31
0.0
  0
LINE
  5
93
330
1F
100
AcDbEntity
  8
0
  6
Continuous
 62
     7
370
     0
100
AcDbLine
 10
169.3593775185
 20
17.7745192513
 30
0.0
 11
171.8593775185
 21
17.7745192513
 31
0.0
  0
LINE
  5
94
330
1F
100
AcDbEntity
  8
0
  6
Continuous
 62
     7
370
     0
100
AcDbLine
 10
168.3593775185
 20
21.2745192513
 30
0.0
 11
168.3593775185
 21
18.7745192513
 31
0.0
  0
LINE
  5
95
330
1F
100
AcDbEntity
  8
0
  6
Continuous
 62
     7
370
     0
100
AcDbLine
 10
174.3593775185
 20
19.2745192513
 30
0.0
 11
174.3593775185
 21
16.2745192513
 31
0.0
  0
LINE
  5
96
330
1F
100
AcDbEntity
  8
工作區域參考線
 62
     1
370
    30
100
AcDbLine
 10
190.4090005149
 20
37.7016998589
 30
0.0
 11
189.3865926376
 21
38.5934903861
 31
0.0
  0
LINE
  5
97
330
1F
100
AcDbEntity
  8
工作區域參考線
 62
     1
370
    30
100
AcDbLine
 10
189.3865926376
 20
38.5934903861
 30
0.0
 11
192.622178086
 21
41.7204106327
 31
0.0
  0
LINE
  5
98
330
1F
100
AcDbEntity
  8
工作區域參考線
 62
     1
370
    30
100
AcDbLine
 10
192.622178086
 20
41.7204106327
 30
0.0
 11
193.5526845962
 21
40.8902184128
 31
0.0
  0
LINE
  5
99
330
1F
100
AcDbEntity
  8
工作區域參考線
 62
     1
370
    30
100
AcDbLine
 10
193.5526845962
 20
40.8902184128
 30
0.0
 11
192.9284332943
 21
40.281159982
 31
0.0
  0
LINE
  5
9A
330
1F
100
AcDbEntity
  8
工作區域參考線
 62
     1
370
    30
100
AcDbLine
 10
192.9284332943
 20
40.281159982
 30
0.0
 11
197.0551891526
 21
36.6919837134
 31
0.0
  0
LINE
  5
9B
330
1F
100
AcDbEntity
  8
工作區域參考線
 62
     1
370
    30
100
AcDbLine
 10
194.6188314058
 20
34.074159007
 30
0.0
 11
195.6042802988
 21
33.2154620671
 31
0.0
  0
LINE
  5
9C
330
1F
100
AcDbEntity
  8
工作區域參考線
 62
     1
370
    30
100
AcDbLine
 10
195.6042802988
 20
33.2154620671
 30
0.0
 11
196.8459616136
 21
34.4198950095
 31
0.0
  0
LINE
  5
9D
330
1F
100
AcDbEntity
  8
0
  6
Continuous
 62
     7
370
     0
100
AcDbLine
 10
185.6907965209
 20
13.1152464079
 30
0.0
 11
285.6907965209
 21
13.1152464079
 31
0.0
  0
LINE
  5
9E
330
1F
100
AcDbEntity
  8
0
  6
Continuous
 62
     7
370
     0
100
AcDbLine
 10
185.6907965209
 20
18.1152464079
 30
0.0
 11
235.6907965209
 21
18.1152464079
 31
0.0
  0
LINE
  5
9F
330
1F
100
AcDbEntity
  8
0
  6
Continuous
 62
     7
370
     0
100
AcDbLine
 10
185.6907965209
 20
23.1152464079
 30
0.0
 11
235.6907965209
 21
23.1152464079
 31
0.0
  0
LINE
  5
A0
330
1F
100
AcDbEntity
  8
0
  6
Continuous
 62
     7
370
     0
100
AcDbLine
 10
185.6907965209
 20
28.1152464079
 30
0.0
 11
285.6907965209
 21
28.1152464079
 31
0.0
  0
LINE
  5
A1
330
1F
100
AcDbEntity
  8
0
  6
Continuous
 62
     7
370
     0
100
AcDbLine
 10
235.6907965209
 20
33.1152464079
 30
0.0
 11
285.6907965209
 21
33.1152464079
 31
0.0
  0
LINE
  5
A2
330
1F
100
AcDbEntity
  8
0
  6
Continuous
 62
     7
370
    15
100
AcDbLine
 10
235.6907965209
 20
18.1152464079
 30
0.0
 11
285.6907965209
 21
18.1152464079
 31
0.0
  0
LINE
  5
A3
330
1F
100
AcDbEntity
  8
0
  6
Continuous
 62
     7
370
     0
100
AcDbLine
 10
185.6907965209
 20
43.1152464079
 30
0.0
 11
285.6907965209
 21
43.1152464079
 31
0.0
  0
LINE
  5
A4
330
1F
100
AcDbEntity
  8
0
  6
Continuous
 62
     7
370
     0
100
AcDbLine
 10
251.237217675
 20
8.1152464079
 30
0.0
 11
251.237217675
 21
18.1152464079
 31
0.0
  0
LINE
  5
A5
330
1F
100
AcDbEntity
  8
0
  6
Continuous
 62
     7
370
     0
100
AcDbLine
 10
235.6907965209
 20
8.1152464079
 30
0.0
 11
235.6907965209
 21
43.1152464079
 31
0.0
  0
LINE
  5
A6
330
1F
100
AcDbEntity
  8
0
  6
Continuous
 62
     7
370
     0
100
AcDbLine
 10
251.237217675
 20
28.1152464079
 30
0.0
 11
251.237217675
 21
33.1152464079
 31
0.0
  0
LINE
  5
A7
330
1F
100
AcDbEntity
  8
0
  6
Continuous
 62
     7
370
     0
100
AcDbLine
 10
214.4164086353
 20
8.1152464079
 30
0.0
 11
214.4164086353
 21
28.1152464079
 31
0.0
  0
LINE
  5
A8
330
1F
100
AcDbEntity
  8
0
  6
Continuous
 62
     7
370
     0
100
AcDbLine
 10
199.7785887506
 20
8.1152464079
 30
0.0
 11
199.7785887506
 21
28.1152464079
 31
0.0
  0
LINE
  5
A9
330
1F
100
AcDbEntity
  8
0
  6
Continuous
 62
     7
370
     0
100
AcDbLine
 10
185.6907965209
 20
8.1152464079
 30
0.0
 11
185.6907965209
 21
43.1152464079
 31
0.0
  0
LINE
  5
AA
330
1F
100
AcDbEntity
  8
0
  6
Continuous
 62
     7
370
    15
100
AcDbLine
 10
43.3207965209
 20
201.3720275751
 30
0.0
 11
43.3207965209
 21
202.8720275751
 31
0.0
  0
LINE
  5
AB
330
1F
100
AcDbEntity
  8
0
  6
Continuous
 62
     7
370
    15
100
AcDbLine
 10
77.9507965209
 20
201.3720275751
 30
0.0
 11
77.9507965209
 21
202.8720275751
 31
0.0
  0
LINE
  5
AC
330
1F
100
AcDbEntity
  8
0
  6
Continuous
 62
     7
370
    15
100
AcDbLine
 10
112.5807965209
 20
201.3720275751
 30
0.0
 11
112.5807965209
 21
202.8720275751
 31
0.0
  0
LINE
  5
AD
330
1F
100
AcDbEntity
  8
0
  6
Continuous
 62
     7
370
    15
100
AcDbLine
 10
147.2107965209
 20
201.3720275751
 30
0.0
 11
147.2107965209
 21
202.8720275751
 31
0.0
  0
LINE
  5
AE
330
1F
100
AcDbEntity
  8
0
  6
Continuous
 62
     7
370
    15
100
AcDbLine
 10
181.8407965209
 20
201.3720275751
 30
0.0
 11
181.8407965209
 21
202.8720275751
 31
0.0
  0
LINE
  5
AF
330
1F
100
AcDbEntity
  8
0
  6
Continuous
 62
     7
370
    15
100
AcDbLine
 10
216.4707965209
 20
201.3720275751
 30
0.0
 11
216.4707965209
 21
202.8720275751
 31
0.0
  0
LINE
  5
B0
330
1F
100
AcDbEntity
  8
0
  6
Continuous
 62
     7
370
    15
100
AcDbLine
 10
251.1007965209
 20
201.3720275751
 30
0.0
 11
251.1007965209
 21
202.8720275751
 31
0.0
  0
LINE
  5
B1
330
1F
100
AcDbEntity
  8
0
  6
Continuous
 62
     7
370
    15
100
AcDbLine
 10
43.3157965209
 20
8.1152464079
 30
0.0
 11
43.3157965209
 21
6.6152464079
 31
0.0
  0
LINE
  5
B2
330
1F
100
AcDbEntity
  8
0
  6
Continuous
 62
     7
370
    15
100
AcDbLine
 10
77.9407965209
 20
8.1152464079
 30
0.0
 11
77.9407965209
 21
6.6152464079
 31
0.0
  0
LINE
  5
B3
330
1F
100
AcDbEntity
  8
0
  6
Continuous
 62
     7
370
    15
100
AcDbLine
 10
112.5657965209
 20
8.1152464079
 30
0.0
 11
112.5657965209
 21
6.6152464079
 31
0.0
  0
LINE
  5
B4
330
1F
100
AcDbEntity
  8
0
  6
Continuous
 62
     7
370
    15
100
AcDbLine
 10
147.1907965209
 20
8.1152464079
 30
0.0
 11
147.1907965209
 21
6.6152464079
 31
0.0
  0
LINE
  5
B5
330
1F
100
AcDbEntity
  8
0
  6
Continuous
 62
     7
370
    15
100
AcDbLine
 10
181.8157965209
 20
8.1152464079
 30
0.0
 11
181.8157965209
 21
6.6152464079
 31
0.0
  0
LINE
  5
B6
330
1F
100
AcDbEntity
  8
0
  6
Continuous
 62
     7
370
    15
100
AcDbLine
 10
216.4407965209
 20
8.1152464079
 30
0.0
 11
216.4407965209
 21
6.6152464079
 31
0.0
  0
LINE
  5
B7
330
1F
100
AcDbEntity
  8
0
  6
Continuous
 62
     7
370
     0
100
AcDbLine
 10
285.6907965209
 20
201.3720275751
 30
0.0
 11
8.6907965209
 21
201.3720275751
 31
0.0
  0
LINE
  5
B8
330
1F
100
AcDbEntity
  8
0
  6
Continuous
 62
     7
370
     0
100
AcDbLine
 10
285.6907965209
 20
8.1152464079
 30
0.0
 11
285.6907965209
 21
201.3720275751
 31
0.0
  0
LINE
  5
B9
330
1F
100
AcDbEntity
  8
0
  6
Continuous
 62
     7
370
     0
100
AcDbLine
 10
8.6907965209
 20
201.3720275751
 30
0.0
 11
8.6907965209
 21
8.1152464079
 31
0.0
  0
LINE
  5
BA
330
1F
100
AcDbEntity
  8
0
  6
Continuous
 62
     7
370
     0
100
AcDbLine
 10
8.6907965209
 20
8.1152464079
 30
0.0
 11
285.6907965209
 21
8.1152464079
 31
0.0
  0
LINE
  5
BB
330
1F
100
AcDbEntity
  8
0
  6
Continuous
 62
     7
370
    15
100
AcDbLine
 10
251.0657965209
 20
8.1152464079
 30
0.0
 11
251.0657965209
 21
6.6152464079
 31
0.0
  0
LINE
  5
BC
330
1F
100
AcDbEntity
  8
0
  6
Continuous
 62
     7
370
    15
100
AcDbLine
 10
8.6907965209
 20
40.3252464079
 30
0.0
 11
7.1907965209
 21
40.3252464079
 31
0.0
  0
LINE
  5
BD
330
1F
100
AcDbEntity
  8
0
  6
Continuous
 62
     7
370
    15
100
AcDbLine
 10
8.6907965209
 20
72.5352464079
 30
0.0
 11
7.1907965209
 21
72.5352464079
 31
0.0
  0
LINE
  5
BE
330
1F
100
AcDbEntity
  8
0
  6
Continuous
 62
     7
370
    15
100
AcDbLine
 10
8.6907965209
 20
104.7452464079
 30
0.0
 11
7.1907965209
 21
104.7452464079
 31
0.0
  0
LINE
  5
BF
330
1F
100
AcDbEntity
  8
0
  6
Continuous
 62
     7
370
    15
100
AcDbLine
 10
8.6907965209
 20
136.9552464079
 30
0.0
 11
7.1907965209
 21
136.9552464079
 31
0.0
  0
LINE
  5
C0
330
1F
100
AcDbEntity
  8
0
  6
Continuous
 62
     7
370
    15
100
AcDbLine
 10
8.6907965209
 20
169.1652464079
 30
0.0
 11
7.1907965209
 21
169.1652464079
 31
0.0
  0
LINE
  5
C1
330
1F
100
AcDbEntity
  8
0
  6
Continuous
 62
     7
370
    15
100
AcDbLine
 10
285.6907965209
 20
40.3252464079
 30
0.0
 11
287.1907965209
 21
40.3252464079
 31
0.0
  0
LINE
  5
C2
330
1F
100
AcDbEntity
  8
0
  6
Continuous
 62
     7
370
    15
100
AcDbLine
 10
285.6907965209
 20
72.5352464079
 30
0.0
 11
287.1907965209
 21
72.5352464079
 31
0.0
  0
LINE
  5
C3
330
1F
100
AcDbEntity
  8
0
  6
Continuous
 62
     7
370
    15
100
AcDbLine
 10
285.6907965209
 20
104.7452464079
 30
0.0
 11
287.1907965209
 21
104.7452464079
 31
0.0
  0
LINE
  5
C4
330
1F
100
AcDbEntity
  8
0
  6
Continuous
 62
     7
370
    15
100
AcDbLine
 10
285.6907965209
 20
136.9552464079
 30
0.0
 11
287.1907965209
 21
136.9552464079
 31
0.0
  0
LINE
  5
C5
330
1F
100
AcDbEntity
  8
0
  6
Continuous
 62
     7
370
    15
100
AcDbLine
 10
285.6907965209
 20
169.1652464079
 30
0.0
 11
287.1907965209
 21
169.1652464079
 31
0.0
  0
CIRCLE
  5
C6
330
1F
100
AcDbEntity
  8
0
  6
Continuous
 62
     7
370
     0
100
AcDbCircle
 10
168.3593775185
 20
17.7745192513
 30
0.0
 40
1.5
  0
CIRCLE
  5
C7
330
1F
100
AcDbEntity
  8
0
  6
Continuous
 62
     7
370
     0
100
AcDbCircle
 10
168.3593775185
 20
17.7745192513
 30
0.0
 40
2.5
  0
ARC
  5
C8
330
1F
100
AcDbEntity
  8
工作區域參考線
 62
     1
370
    30
100
AcDbCircle
 10
195.9525692879
 20
35.6478417413
 30
0.0
 40
1.518552937418275
100
AcDbArc
 50
306.0377529468
 51
43.4396461534
  0
ARC
  5
C9
330
1F
100
AcDbEntity
  8
工作區域參考線
 62
     1
370
    30
100
AcDbCircle
 10
192.271589272
 20
35.1222473508
 30
0.0
 40
3.181636704527891
100
AcDbArc
 50
45.5592925416
 51
125.8325555121
  0
ARC
  5
CA
330
1F
100
AcDbEntity
  8
工作區域參考線
 62
     1
370
    30
100
AcDbCircle
 10
192.5892455628
 20
35.6630691563
 30
0.0
 40
2.577567488346266
100
AcDbArc
 50
321.9435288427
 51
42.1815007004
  0
INSERT
  5
CB
330
1F
100
AcDbEntity
  8
0
  6
Continuous
 62
     7
100
AcDbBlockReference
  2
圖塊6_1
 10
186.9640923647
 20
29.4440528386
 30
0.0
  0
MTEXT
  5
CD
330
1F
100
AcDbEntity
  8
0
  6
Continuous
 62
     7
370
     0
100
AcDbMText
 10
165.5426850804
 20
13.2208440369
 30
0.0
 40
2.6458333333
 41
0.0
 71
     1
 72
     1
  1
UNIT:m/m
  7
SLDTEXTSTYLE0
 73
     1
 44
1.0
  0
INSERT
  5
D4
330
1F
100
AcDbEntity
  8
0
  6
Continuous
 62
     7
370
     0
100
AcDbBlockReference
  2
SW_NOTE_0
 10
12.2315076053
 20
193.8904304251
 30
0.0
  0
MTEXT
  5
D5
330
1F
100
AcDbEntity
  8
0
  6
Continuous
 62
     7
370
     0
100
AcDbMText
 10
198.7251893935
 20
40.4406774139
 30
0.0
 40
2.38125
 41
0.0
 71
     1
 72
     1
  1
Unice E-O Services Inc.
  7
SLDTEXTSTYLE0
 73
     1
 44
1.0
  0
MTEXT
  5
D6
330
1F
100
AcDbEntity
  8
0
  6
Continuous
 62
     7
370
     0
100
AcDbMText
 10
217.5590538149
 20
21.5867148511
 30
0.0
 40
1.8520833333
 41
0.0
 71
     1
 72
     1
  1
2018/4/18
  7
SLDTEXTSTYLE0
 73
     1
 44
1.0
  0
MTEXT
  5
D7
330
1F
100
AcDbEntity
  8
0
  6
Continuous
 62
     7
370
     0
100
AcDbMText
 10
252.6088982507
 20
16.87117774
 30
0.0
 40
2.5
 41
0.0
 71
     1
 72
     1
  1
1:1
  7
SLDTEXTSTYLE0
 73
     1
 44
1.0
  0
MTEXT
  5
D8
330
1F
100
AcDbEntity
  8
0
  6
Continuous
 62
     7
370
     0
100
AcDbMText
 10
252.3075599985
 20
32.1519195438
 30
0.0
 40
2.5
 41
0.0
 71
     1
 72
     1
  1
08PMR-1M
  7
SLDTEXTSTYLE0
 73
     1
 44
1.0
  0
MTEXT
  5
D9
330
1F
100
AcDbEntity
  8
0
  6
Continuous
 62
     7
370
     0
100
AcDbMText
 10
252.3075599985
 20
38.1082117879
 30
0.0
 40
2.5
 41
0.0
 71
     1
 72
     1
  1
08PMR-1M
  7
SLDTEXTSTYLE0
 73
     1
 44
1.0
  0
MTEXT
  5
DA
330
1F
100
AcDbEntity
  8
0
  6
Continuous
 62
     7
370
     0
100
AcDbMText
 10
236.3921866786
 20
16.5064795728
 30
0.0
 40
2.1166666667
 41
0.0
 71
     1
 72
     1
  1
SCALE:
  7
SLDTEXTSTYLE0
 73
     1
 44
1.0
  0
MTEXT
  5
DB
330
1F
100
AcDbEntity
  8
0
  6
Continuous
 62
     7
370
     0
100
AcDbMText
 10
186.3336086789
 20
21.5867148511
 30
0.0
 40
1.8520833333
 41
0.0
 71
     1
 72
     1
  1
DRAWN
  7
SLDTEXTSTYLE0
 73
     1
 44
1.0
  0
MTEXT
  5
DC
330
1F
100
AcDbEntity
  8
0
  6
Continuous
 62
     7
370
     0
100
AcDbMText
 10
203.2228367937
 20
26.683208308
 30
0.0
 40
1.8520833333
 41
0.0
 71
     1
 72
     1
  1
NAME
  7
SLDTEXTSTYLE0
 73
     1
 44
1.0
  0
MTEXT
  5
DD
330
1F
100
AcDbEntity
  8
0
  6
Continuous
 62
     7
370
     0
100
AcDbMText
 10
220.8710155758
 20
26.683208308
 30
0.0
 40
1.8520833333
 41
0.0
 71
     1
 72
     1
  1
DATE
  7
SLDTEXTSTYLE0
 73
     1
 44
1.0
  0
MTEXT
  5
DE
330
1F
100
AcDbEntity
  8
0
  6
Continuous
 62
     7
370
     0
100
AcDbMText
 10
236.2756316645
 20
31.7872213766
 30
0.0
 40
2.1166666667
 41
0.0
 71
     1
 72
     1
  1
DWG. NO.
  7
SLDTEXTSTYLE0
 73
     1
 44
1.0
  0
MTEXT
  5
DF
330
1F
100
AcDbEntity
  8
0
  6
Continuous
 62
     7
370
     0
100
AcDbMText
 10
236.3629907088
 20
41.8840658243
 30
0.0
 40
2.1166666667
 41
0.0
 71
     1
 72
     1
  1
TITLE:
  7
SLDTEXTSTYLE0
 73
     1
 44
1.0
  0
MTEXT
  5
E0
330
1F
100
AcDbEntity
  8
0
  6
Continuous
 62
     7
370
     0
100
AcDbMText
 10
203.0314209802
 20
16.2403789724
 30
0.0
 40
1.8520833333
 41
0.0
 71
     1
 72
     1
  1
Johnny
  7
SLDTEXTSTYLE0
 73
     1
 44
1.0
  0
MTEXT
  5
E1
330
1F
100
AcDbEntity
  8
0
  6
Continuous
 62
     7
370
     0
100
AcDbMText
 10
217.5590538149
 20
16.2403789724
 30
0.0
 40
1.8520833333
 41
0.0
 71
     1
 72
     1
  1
2018/4/18
  7
SLDTEXTSTYLE0
 73
     1
 44
1.0
  0
MTEXT
  5
E2
330
1F
100
AcDbEntity
  8
0
  6
Continuous
 62
     7
370
     0
100
AcDbMText
 10
186.3336086789
 20
16.2403789724
 30
0.0
 40
1.8520833333
 41
0.0
 71
     1
 72
     1
  1
ENG APPR.
  7
SLDTEXTSTYLE0
 73
     1
 44
1.0
  0
MTEXT
  5
E3
330
1F
100
AcDbEntity
  8
0
  6
Continuous
 62
     7
370
     0
100
AcDbMText
 10
236.3921866786
 20
11.6853389288
 30
0.0
 40
2.1166666667
 41
0.0
 71
     1
 72
     1
  1
REV
  7
SLDTEXTSTYLE0
 73
     1
 44
1.0
  0
MTEXT
  5
E4
330
1F
100
AcDbEntity
  8
0
  6
Continuous
 62
     7
370
     0
100
AcDbMText
 10
236.3629907088
 20
26.9493089085
 30
0.0
 40
2.1166666667
 41
0.0
 71
     1
 72
     1
  1
MATERIAL:
  7
SLDTEXTSTYLE0
 73
     1
 44
1.0
  0
MTEXT
  5
E5
330
1F
100
AcDbEntity
  8
0
  6
Continuous
 62
     7
370
     0
100
AcDbMText
 10
252.6088982507
 20
22.2175136187
 30
0.0
 40
2.5
 41
0.0
 71
     1
 72
     1
  1
N/A
  7
SLDTEXTSTYLE0
 73
     1
 44
1.0
  0
MTEXT
  5
E6
330
1F
100
AcDbEntity
  8
0
  6
Continuous
 62
     7
370
     0
100
AcDbMText
 10
26.6029931533
 20
204.453351657
 30
0.0
 40
2.1166666667
 41
0.0
 71
     1
 72
     1
  1
1
  7
SLDTEXTSTYLE0
 73
     1
 44
1.0
  0
MTEXT
  5
E7
330
1F
100
AcDbEntity
  8
0
  6
Continuous
 62
     7
370
     0
100
AcDbMText
 10
60.7170995724
 20
204.453351657
 30
0.0
 40
2.1166666667
 41
0.0
 71
     1
 72
     1
  1
2
  7
SLDTEXTSTYLE0
 73
     1
 44
1.0
  0
MTEXT
  5
E8
330
1F
100
AcDbEntity
  8
0
  6
Continuous
 62
     7
370
     0
100
AcDbMText
 10
94.9009943906
 20
204.453351657
 30
0.0
 40
2.1166666667
 41
0.0
 71
     1
 72
     1
  1
3
  7
SLDTEXTSTYLE0
 73
     1
 44
1.0
  0
MTEXT
  5
E9
330
1F
100
AcDbEntity
  8
0
  6
Continuous
 62
     7
370
     0
100
AcDbMText
 10
129.2533362851
 20
204.2992584364
 30
0.0
 40
2.1166666667
 41
0.0
 71
     1
 72
     1
  1
4
  7
SLDTEXTSTYLE0
 73
     1
 44
1.0
  0
MTEXT
  5
EA
330
1F
100
AcDbEntity
  8
0
  6
Continuous
 62
     7
370
     0
100
AcDbMText
 10
163.702323464
 20
204.453351657
 30
0.0
 40
2.1166666667
 41
0.0
 71
     1
 72
     1
  1
5
  7
SLDTEXTSTYLE0
 73
     1
 44
1.0
  0
MTEXT
  5
EB
330
1F
100
AcDbEntity
  8
0
  6
Continuous
 62
     7
370
     0
100
AcDbMText
 10
198.6382170415
 20
204.453351657
 30
0.0
 40
2.1166666667
 41
0.0
 71
     1
 72
     1
  1
6
  7
SLDTEXTSTYLE0
 73
     1
 44
1.0
  0
MTEXT
  5
EC
330
1F
100
AcDbEntity
  8
0
  6
Continuous
 62
     7
370
     0
100
AcDbMText
 10
234.3630657407
 20
204.453351657
 30
0.0
 40
2.1166666667
 41
0.0
 71
     1
 72
     1
  1
7
  7
SLDTEXTSTYLE0
 73
     1
 44
1.0
  0
MTEXT
  5
ED
330
1F
100
AcDbEntity
  8
0
  6
Continuous
 62
     7
370
     0
100
AcDbMText
 10
266.2787820494
 20
204.453351657
 30
0.0
 40
2.1166666667
 41
0.0
 71
     1
 72
     1
  1
8
  7
SLDTEXTSTYLE0
 73
     1
 44
1.0
  0
MTEXT
  5
EE
330
1F
100
AcDbEntity
  8
0
  6
Continuous
 62
     7
370
     0
100
AcDbMText
 10
5.3568236555
 20
185.8113022879
 30
0.0
 40
2.1166666667
 41
0.0
 71
     1
 72
     1
  1
A
  7
SLDTEXTSTYLE0
 73
     1
 44
1.0
  0
MTEXT
  5
EF
330
1F
100
AcDbEntity
  8
0
  6
Continuous
 62
     7
370
     0
100
AcDbMText
 10
5.5910431831
 20
154.2993048238
 30
0.0
 40
2.1166666667
 41
0.0
 71
     1
 72
     1
  1
B
  7
SLDTEXTSTYLE0
 73
     1
 44
1.0
  0
MTEXT
  5
F0
330
1F
100
AcDbEntity
  8
0
  6
Continuous
 62
     7
370
     0
100
AcDbMText
 10
5.5910431831
 20
121.274351423
 30
0.0
 40
2.1166666667
 41
0.0
 71
     1
 72
     1
  1
C
  7
SLDTEXTSTYLE0
 73
     1
 44
1.0
  0
MTEXT
  5
F1
330
1F
100
AcDbEntity
  8
0
  6
Continuous
 62
     7
370
     0
100
AcDbMText
 10
5.5910431831
 20
88.7453220221
 30
0.0
 40
2.1166666667
 41
0.0
 71
     1
 72
     1
  1
D
  7
SLDTEXTSTYLE0
 73
     1
 44
1.0
  0
MTEXT
  5
F2
330
1F
100
AcDbEntity
  8
0
  6
Continuous
 62
     7
370
     0
100
AcDbMText
 10
5.5910431831
 20
57.5558849197
 30
0.0
 40
2.1166666667
 41
0.0
 71
     1
 72
     1
  1
E
  7
SLDTEXTSTYLE0
 73
     1
 44
1.0
  0
MTEXT
  5
F3
330
1F
100
AcDbEntity
  8
0
  6
Continuous
 62
     7
370
     0
100
AcDbMText
 10
5.5910431831
 20
25.5694212252
 30
0.0
 40
2.1166666667
 41
0.0
 71
     1
 72
     1
  1
F
  7
SLDTEXTSTYLE0
 73
     1
 44
1.0
  0
MTEXT
  5
F4
330
1F
100
AcDbEntity
  8
0
  6
Continuous
 62
     7
370
     0
100
AcDbMText
 10
266.1858616964
 20
6.6236223963
 30
0.0
 40
2.1166666667
 41
0.0
 71
     1
 72
     1
  1
8
  7
SLDTEXTSTYLE0
 73
     1
 44
1.0
  0
MTEXT
  5
F5
330
1F
100
AcDbEntity
  8
0
  6
Continuous
 62
     7
370
     0
100
AcDbMText
 10
234.2701453876
 20
6.6236223963
 30
0.0
 40
2.1166666667
 41
0.0
 71
     1
 72
     1
  1
7
  7
SLDTEXTSTYLE0
 73
     1
 44
1.0
  0
MTEXT
  5
F6
330
1F
100
AcDbEntity
  8
0
  6
Continuous
 62
     7
370
     0
100
AcDbMText
 10
198.5452966885
 20
6.6236223963
 30
0.0
 40
2.1166666667
 41
0.0
 71
     1
 72
     1
  1
6
  7
SLDTEXTSTYLE0
 73
     1
 44
1.0
  0
MTEXT
  5
F7
330
1F
100
AcDbEntity
  8
0
  6
Continuous
 62
     7
370
     0
100
AcDbMText
 10
163.6094031109
 20
6.6236223963
 30
0.0
 40
2.1166666667
 41
0.0
 71
     1
 72
     1
  1
5
  7
SLDTEXTSTYLE0
 73
     1
 44
1.0
  0
MTEXT
  5
F8
330
1F
100
AcDbEntity
  8
0
  6
Continuous
 62
     7
370
     0
100
AcDbMText
 10
129.1604159321
 20
6.4695291758
 30
0.0
 40
2.1166666667
 41
0.0
 71
     1
 72
     1
  1
4
  7
SLDTEXTSTYLE0
 73
     1
 44
1.0
  0
MTEXT
  5
F9
330
1F
100
AcDbEntity
  8
0
  6
Continuous
 62
     7
370
     0
100
AcDbMText
 10
94.8080740376
 20
6.6236223963
 30
0.0
 40
2.1166666667
 41
0.0
 71
     1
 72
     1
  1
3
  7
SLDTEXTSTYLE0
 73
     1
 44
1.0
  0
MTEXT
  5
FA
330
1F
100
AcDbEntity
  8
0
  6
Continuous
 62
     7
370
     0
100
AcDbMText
 10
60.6241792194
 20
6.6236223963
 30
0.0
 40
2.1166666667
 41
0.0
 71
     1
 72
     1
  1
2
  7
SLDTEXTSTYLE0
 73
     1
 44
1.0
  0
MTEXT
  5
FB
330
1F
100
AcDbEntity
  8
0
  6
Continuous
 62
     7
370
     0
100
AcDbMText
 10
26.5100728003
 20
6.6236223963
 30
0.0
 40
2.1166666667
 41
0.0
 71
     1
 72
     1
  1
1
  7
SLDTEXTSTYLE0
 73
     1
 44
1.0
  0
MTEXT
  5
FC
330
1F
100
AcDbEntity
  8
0
  6
Continuous
 62
     7
370
     0
100
AcDbMText
 10
287.1023846145
 20
186.6424909092
 30
0.0
 40
2.1166666667
 41
0.0
 71
     1
 72
     1
  1
A
  7
SLDTEXTSTYLE0
 73
     1
 44
1.0
  0
MTEXT
  5
FD
330
1F
100
AcDbEntity
  8
0
  6
Continuous
 62
     7
370
     0
100
AcDbMText
 10
287.3366041421
 20
155.1304934451
 30
0.0
 40
2.1166666667
 41
0.0
 71
     1
 72
     1
  1
B
  7
SLDTEXTSTYLE0
 73
     1
 44
1.0
  0
MTEXT
  5
FE
330
1F
100
AcDbEntity
  8
0
  6
Continuous
 62
     7
370
     0
100
AcDbMText
 10
287.3366041421
 20
122.1055400442
 30
0.0
 40
2.1166666667
 41
0.0
 71
     1
 72
     1
  1
C
  7
SLDTEXTSTYLE0
 73
     1
 44
1.0
  0
MTEXT
  5
FF
330
1F
100
AcDbEntity
  8
0
  6
Continuous
 62
     7
370
     0
100
AcDbMText
 10
287.3366041421
 20
89.5765106433
 30
0.0
 40
2.1166666667
 41
0.0
 71
     1
 72
     1
  1
D
  7
SLDTEXTSTYLE0
 73
     1
 44
1.0
  0
MTEXT
  5
100
330
1F
100
AcDbEntity
  8
0
  6
Continuous
 62
     7
370
     0
100
AcDbMText
 10
287.3366041421
 20
58.3870735409
 30
0.0
 40
2.1166666667
 41
0.0
 71
     1
 72
     1
  1
E
  7
SLDTEXTSTYLE0
 73
     1
 44
1.0
  0
MTEXT
  5
101
330
1F
100
AcDbEntity
  8
0
  6
Continuous
 62
     7
370
     0
100
AcDbMText
 10
287.3366041421
 20
26.4006098464
 30
0.0
 40
2.1166666667
 41
0.0
 71
     1
 72
     1
  1
F
  7
SLDTEXTSTYLE0
 73
     1
 44
1.0
  0
MTEXT
  5
102
330
1F
100
AcDbEntity
  8
0
  6
Continuous
 62
     7
370
     0
100
AcDbMText
 10
203.1553128802
 20
21.5867148511
 30
0.0
 40
1.8520833333
 41
0.0
 71
     1
 72
     1
  1
Sky
  7
SLDTEXTSTYLE0
 73
     1
 44
1.0
  0
MTEXT
  5
103
330
1F
100
AcDbEntity
  8
0
  6
Continuous
 62
     7
370
     0
100
AcDbMText
 10
252.8482239645
 20
12.0500370959
 30
0.0
 40
2.5
 41
0.0
 71
     1
 72
     1
  1
0
  7
SLDTEXTSTYLE0
 73
     1
 44
1.0
  0
INSERT
  5
109
330
1F
100
AcDbEntity
  8
SLD-0
 62
     7
100
AcDbBlockReference
  2
SW_NOTE_1
 10
198.7251893935
 20
33.5479745212
 30
0.0
  0
CIRCLE
  5
10A
330
1F
100
AcDbEntity
  8
0
  6
Continuous
 62
     7
370
    30
100
AcDbCircle
 10
80.8541230686
 20
138.4669640522
 30
0.0
 40
0.5
  0
CIRCLE
  5
10B
330
1F
100
AcDbEntity
  8
0
  6
Continuous
 62
     7
370
    30
100
AcDbCircle
 10
56.8541230686
 20
138.4669640522
 30
0.0
 40
0.5
  0
CIRCLE
  5
10C
330
1F
100
AcDbEntity
  8
0
  6
Continuous
 62
     7
370
    30
100
AcDbCircle
 10
68.8541230686
 20
138.4669640522
 30
0.0
 40
11.0
  0
CIRCLE
  5
10D
330
1F
100
AcDbEntity
  8
0
  6
Continuous
 62
     7
370
    30
100
AcDbCircle
 10
68.8541230686
 20
138.4669640522
 30
0.0
 40
13.1445
  0
CIRCLE
  5
10E
330
1F
100
AcDbEntity
  8
0
  6
Continuous
 62
     7
370
    30
100
AcDbCircle
 10
68.8541230686
 20
138.4669640522
 30
0.0
 40
15.0
  0
CIRCLE
  5
10F
330
1F
100
AcDbEntity
  8
0
  6
Continuous
 62
     7
370
    30
100
AcDbCircle
 10
68.8541230686
 20
138.4669640522
 30
0.0
 40
12.82700000000001
  0
ARC
  5
110
330
1F
100
AcDbEntity
  8
0
  6
Continuous
 62
     7
370
    30
100
AcDbCircle
 10
90.8541230686
 20
160.4669640522
 30
0.0
 40
2.500000000000014
100
AcDbArc
 50
0.0
 51
90.0
  0
LINE
  5
111
330
1F
100
AcDbEntity
  8
0
  6
Continuous
 62
     7
370
    30
100
AcDbLine
 10
90.8541212833
 20
162.9669631262
 30
0.0
 11
90.8541212833
 21
163.4669641395
 31
0.0
  0
ARC
  5
112
330
1F
100
AcDbEntity
  8
0
  6
Continuous
 62
     7
370
    30
100
AcDbCircle
 10
90.8541230686
 20
160.4669640522
 30
0.0
 40
3.000000000000014
100
AcDbArc
 50
0.0
 51
90.0
  0
LINE
  5
113
330
1F
100
AcDbEntity
  8
0
  6
Continuous
 62
     7
370
    30
100
AcDbLine
 10
93.3541226244
 20
160.4669636477
 30
0.0
 11
93.8541236377
 21
160.4669636477
 31
0.0
  0
LINE
  5
114
330
1F
100
AcDbEntity
  8
0
  6
Continuous
 62
     7
370
    30
100
AcDbLine
 10
43.8541228926
 20
106.4669641097
 30
0.0
 11
43.8541228926
 21
160.4669636477
 31
0.0
  0
LINE
  5
115
330
1F
100
AcDbEntity
  8
0
  6
Continuous
 62
     7
370
    30
100
AcDbLine
 10
43.8541228926
 20
160.4669636477
 30
0.0
 11
44.3541229746
 21
160.4669636477
 31
0.0
  0
LINE
  5
116
330
1F
100
AcDbEntity
  8
0
  6
Continuous
 62
     7
370
    30
100
AcDbLine
 10
44.3541229746
 20
160.4669636477
 30
0.0
 11
44.3541229746
 21
106.4669641097
 31
0.0
  0
LINE
  5
117
330
1F
100
AcDbEntity
  8
0
  6
Continuous
 62
     7
370
    30
100
AcDbLine
 10
43.8541228926
 20
106.4669641097
 30
0.0
 11
44.3541229746
 21
106.4669641097
 31
0.0
  0
CIRCLE
  5
118
330
1F
100
AcDbEntity
  8
0
  6
Continuous
 62
     7
370
    30
100
AcDbCircle
 10
90.8541230686
 20
160.4669640522
 30
0.0
 40
1.649999999999991
  0
CIRCLE
  5
119
330
1F
100
AcDbEntity
  8
0
  6
Continuous
 62
     7
370
    30
100
AcDbCircle
 10
90.8541230686
 20
106.4669640522
 30
0.0
 40
1.649999999999991
  0
CIRCLE
  5
11A
330
1F
100
AcDbEntity
  8
0
  6
Continuous
 62
     7
370
    30
100
AcDbCircle
 10
46.8541230686
 20
106.4669640522
 30
0.0
 40
1.649999999999999
  0
CIRCLE
  5
11B
330
1F
100
AcDbEntity
  8
0
  6
Continuous
 62
     7
370
    30
100
AcDbCircle
 10
68.8541230686
 20
138.4669640522
 30
0.0
 40
15.34999999999997
  0
LINE
  5
11C
330
1F
100
AcDbEntity
  8
0
  6
Continuous
 62
     7
370
    30
100
AcDbLine
 10
93.3541226244
 20
106.4669641097
 30
0.0
 11
93.3541226244
 21
160.4669636477
 31
0.0
  0
ARC
  5
11D
330
1F
100
AcDbEntity
  8
0
  6
Continuous
 62
     7
370
    30
100
AcDbCircle
 10
90.8541230686
 20
106.4669640522
 30
0.0
 40
2.500000000000014
100
AcDbArc
 50
270.0
 51
0.0
  0
LINE
  5
11E
330
1F
100
AcDbEntity
  8
0
  6
Continuous
 62
     7
370
    30
100
AcDbLine
 10
46.8541233844
 20
103.9669627685
 30
0.0
 11
90.8541212833
 21
103.9669627685
 31
0.0
  0
ARC
  5
11F
330
1F
100
AcDbEntity
  8
0
  6
Continuous
 62
     7
370
    30
100
AcDbCircle
 10
46.8541230686
 20
106.4669640522
 30
0.0
 40
2.5
100
AcDbArc
 50
180.0
 51
270.0
  0
ARC
  5
120
330
1F
100
AcDbEntity
  8
0
  6
Continuous
 62
     7
370
    30
100
AcDbCircle
 10
46.8541230686
 20
160.4669640522
 30
0.0
 40
2.5
100
AcDbArc
 50
90.0
 51
180.0
  0
LINE
  5
121
330
1F
100
AcDbEntity
  8
0
  6
Continuous
 62
     7
370
    30
100
AcDbLine
 10
90.8541212833
 20
162.9669631262
 30
0.0
 11
46.8541233844
 21
162.9669631262
 31
0.0
  0
CIRCLE
  5
122
330
1F
100
AcDbEntity
  8
0
  6
Continuous
 62
     7
370
    30
100
AcDbCircle
 10
46.8541230686
 20
160.4669640522
 30
0.0
 40
1.649999999999999
  0
ARC
  5
123
330
1F
100
AcDbEntity
  8
0
  6
Continuous
 62
     7
370
    30
100
AcDbCircle
 10
46.8541230686
 20
106.4669640522
 30
0.0
 40
3.0
100
AcDbArc
 50
180.0
 51
270.0
  0
LINE
  5
124
330
1F
100
AcDbEntity
  8
0
  6
Continuous
 62
     7
370
    30
100
AcDbLine
 10
46.8541233844
 20
103.4669654806
 30
0.0
 11
46.8541233844
 21
103.9669627685
 31
0.0
  0
LINE
  5
125
330
1F
100
AcDbEntity
  8
0
  6
Continuous
 62
     7
370
    30
100
AcDbLine
 10
90.8541212833
 20
103.4669654806
 30
0.0
 11
46.8541233844
 21
103.4669654806
 31
0.0
  0
LINE
  5
126
330
1F
100
AcDbEntity
  8
0
  6
Continuous
 62
     7
370
    30
100
AcDbLine
 10
90.8541212833
 20
103.4669654806
 30
0.0
 11
90.8541212833
 21
103.9669627685
 31
0.0
  0
ARC
  5
127
330
1F
100
AcDbEntity
  8
0
  6
Continuous
 62
     7
370
    30
100
AcDbCircle
 10
46.8541230686
 20
160.4669640522
 30
0.0
 40
3.0
100
AcDbArc
 50
90.0
 51
180.0
  0
LINE
  5
128
330
1F
100
AcDbEntity
  8
0
  6
Continuous
 62
     7
370
    30
100
AcDbLine
 10
46.8541233844
 20
162.9669631262
 30
0.0
 11
46.8541233844
 21
163.4669641395
 31
0.0
  0
LINE
  5
129
330
1F
100
AcDbEntity
  8
0
  6
Continuous
 62
     7
370
    30
100
AcDbLine
 10
93.8541236377
 20
160.4669636477
 30
0.0
 11
93.8541236377
 21
106.4669641097
 31
0.0
  0
LINE
  5
12A
330
1F
100
AcDbEntity
  8
0
  6
Continuous
 62
     7
370
    30
100
AcDbLine
 10
93.3541226244
 20
106.4669641097
 30
0.0
 11
93.8541236377
 21
106.4669641097
 31
0.0
  0
LINE
  5
12B
330
1F
100
AcDbEntity
  8
0
  6
Continuous
 62
     7
370
    30
100
AcDbLine
 10
46.8541233844
 20
163.4669641395
 30
0.0
 11
90.8541212833
 21
163.4669641395
 31
0.0
  0
ARC
  5
12C
330
1F
100
AcDbEntity
  8
0
  6
Continuous
 62
     7
370
    30
100
AcDbCircle
 10
90.8541230686
 20
106.4669640522
 30
0.0
 40
3.000000000000014
100
AcDbArc
 50
270.0
 51
0.0
  0
CIRCLE
  5
12D
330
1F
100
AcDbEntity
  8
0
  6
Continuous
 62
     7
370
    30
100
AcDbCircle
 10
68.8541230686
 20
138.4669640522
 30
0.0
 40
15.25
  0
DIMENSION
  5
12E
330
1F
100
AcDbEntity
  8
SLD-0
100
AcDbDimension
  2
_D
 10
68.8541230686
 20
169.4669640522
 30
0.0
 11
57.8541230686
 21
169.4669640522
 31
0.0
 70
   160
  1
<>
 71
     2
 42
-1.0
  3
SLDDIMSTYLE0
100
AcDbAlignedDimension
 13
46.8541230686
 23
163.1169640522
 33
0.0
 14
68.8541230686
 24
154.4669640522
 34
0.0
100
AcDbRotatedDimension
  0
DIMENSION
  5
139
330
1F
100
AcDbEntity
  8
SLD-0
100
AcDbDimension
  2
_D_1
 10
90.8541230686
 20
169.4669640522
 30
0.0
 11
79.8541230686
 21
169.4669640522
 31
0.0
 70
   160
  1
<>
 71
     2
 42
-1.0
  3
SLDDIMSTYLE0
100
AcDbAlignedDimension
 13
68.8541230686
 23
154.4669640522
 33
0.0
 14
90.8541230686
 24
163.1169640522
 34
0.0
100
AcDbRotatedDimension
  0
DIMENSION
  5
143
330
1F
100
AcDbEntity
  8
SLD-0
100
AcDbDimension
  2
_D_2
 10
43.8541230686
 20
174.4669640522
 30
0.0
 11
56.3541230686
 21
174.4669640522
 31
0.0
 70
   160
  1
<>
 71
     2
 42
-1.0
  3
SLDDIMSTYLE0
100
AcDbAlignedDimension
 13
68.8541230686
 23
154.4669640522
 33
0.0
 14
43.8541230686
 24
160.4669640522
 34
0.0
 50
0.0
100
AcDbRotatedDimension
  0
DIMENSION
  5
14D
330
1F
100
AcDbEntity
  8
SLD-0
100
AcDbDimension
  2
_D_3
 10
93.8541230686
 20
179.4669640522
 30
0.0
 11
68.8541230686
 21
179.4669640522
 31
0.0
 70
   160
  1
<>
 71
     2
 42
-1.0
  3
SLDDIMSTYLE0
100
AcDbAlignedDimension
 13
43.8541230686
 23
160.4669640522
 33
0.0
 14
93.8541230686
 24
160.4669640522
 34
0.0
 50
0.0
100
AcDbRotatedDimension
  0
DIMENSION
  5
157
330
1F
100
AcDbEntity
  8
SLD-0
100
AcDbDimension
  2
_D_4
 10
37.8541230686
 20
138.4669640522
 30
0.0
 11
37.8541230686
 21
149.4669640522
 31
0.0
 70
   160
  1
<>
 71
     2
 42
-1.0
  3
SLDDIMSTYLE0
100
AcDbAlignedDimension
 13
44.2041230686
 23
160.4669640522
 33
0.0
 14
52.8541230686
 24
138.4669640522
 34
0.0
 50
90.0
100
AcDbRotatedDimension
  0
DIMENSION
  5
161
330
1F
100
AcDbEntity
  8
SLD-0
100
AcDbDimension
  2
_D_5
 10
37.8541230686
 20
106.4669640522
 30
0.0
 11
37.8541230686
 21
122.4669640522
 31
0.0
 70
   160
  1
<>
 71
     2
 42
-1.0
  3
SLDDIMSTYLE0
100
AcDbAlignedDimension
 13
52.8541230686
 23
138.4669640522
 33
0.0
 14
44.2041230686
 24
106.4669640522
 34
0.0
 50
90.0
100
AcDbRotatedDimension
  0
DIMENSION
  5
16B
330
1F
100
AcDbEntity
  8
SLD-0
100
AcDbDimension
  2
_D_6
 10
32.8541230686
 20
138.4669640522
 30
0.0
 11
32.8541230686
 21
150.9669640522
 31
0.0
 70
   160
  1
<>
 71
     2
 42
-1.0
  3
SLDDIMSTYLE0
100
AcDbAlignedDimension
 13
46.8541230686
 23
163.4669640522
 33
0.0
 14
52.8541230686
 24
138.4669640522
 34
0.0
 50
90.0
100
AcDbRotatedDimension
  0
DIMENSION
  5
175
330
1F
100
AcDbEntity
  8
SLD-0
100
AcDbDimension
  2
_D_7
 10
27.8541230686
 20
103.4669640522
 30
0.0
 11
27.8541230686
 21
133.4669640522
 31
0.0
 70
   160
  1
<>
 71
     2
 42
-1.0
  3
SLDDIMSTYLE0
100
AcDbAlignedDimension
 13
46.8541230686
 23
163.4669640522
 33
0.0
 14
46.8541230686
 24
103.4669640522
 34
0.0
 50
90.0
100
AcDbRotatedDimension
  0
DIMENSION
  5
17F
330
1F
100
AcDbEntity
  8
SLD-0
100
AcDbDimension
  2
_D_8
 10
57.4706521486
 20
145.0392140522
 30
0.0
 11
109.0283079703
 21
128.2256444555
 31
0.0
 70
   163
  1
ACCEPTS\P %%c 1" OPTICS\PMax.THK 7.4
 71
     1
 42
-1.0
  3
SLDDIMSTYLE1
100
AcDbDiametricDimension
 15
80.2375939886
 25
131.8947140522
 35
0.0
 40
0.0
  0
DIMENSION
  5
18C
330
1F
100
AcDbEntity
  8
SLD-0
100
AcDbDimension
  2
_D_9
 10
90.0586574278
 20
159.0213726804
 30
0.0
 11
104.96241803
 21
176.3853667855
 31
0.0
 70
   163
  1
4 x M4\P
 71
     1
 42
-1.0
  3
SLDDIMSTYLE2
100
AcDbDiametricDimension
 15
91.6495887094
 25
161.9125554241
 35
0.0
 40
0.0
  0
DIMENSION
  5
19A
330
1F
100
AcDbEntity
  8
SLD-0
100
AcDbDimension
  2
_D_10
 10
76.1159539504
 20
130.2046512862
 30
0.0
 11
104.96241803
 21
108.9676098682
 31
0.0
 70
   163
  1
C.A.<>
 71
     1
 42
-1.0
  3
SLDDIMSTYLE3
100
AcDbDiametricDimension
 15
61.5922921868
 25
146.7292768182
 35
0.0
 40
0.0
  0
INSERT
  5
1B2
330
1F
100
AcDbEntity
  8
SLD-0
100
AcDbBlockReference
  2
SW_CENTERMARKSYMBOL_0
 10
68.8541230686
 20
138.4669640522
 30
0.0
  0
INSERT
  5
1BE
330
1F
100
AcDbEntity
  8
SLD-0
100
AcDbBlockReference
  2
SW_CENTERMARKSYMBOL_1
 10
46.8541230686
 20
160.4669640522
 30
0.0
  0
INSERT
  5
1CA
330
1F
100
AcDbEntity
  8
SLD-0
100
AcDbBlockReference
  2
SW_CENTERMARKSYMBOL_2
 10
90.8541230686
 20
160.4669640522
 30
0.0
  0
INSERT
  5
1D6
330
1F
100
AcDbEntity
  8
SLD-0
100
AcDbBlockReference
  2
SW_CENTERMARKSYMBOL_3
 10
90.8541230686
 20
106.4669640522
 30
0.0
  0
INSERT
  5
1E2
330
1F
100
AcDbEntity
  8
SLD-0
100
AcDbBlockReference
  2
SW_CENTERMARKSYMBOL_4
 10
46.8541230686
 20
106.4669640522
 30
0.0
  0
LINE
  5
1E3
330
1F
100
AcDbEntity
  8
0
  6
Continuous
 62
     7
370
    30
100
AcDbLine
 10
198.464904013
 20
122.0906826098
 30
0.0
 11
183.4649052796
 21
122.0906826098
 31
0.0
  0
LINE
  5
1E4
330
1F
100
AcDbEntity
  8
0
  6
Continuous
 62
     7
370
    30
100
AcDbLine
 10
183.4649052796
 20
107.0906820137
 30
0.0
 11
198.464904013
 21
107.0906820137
 31
0.0
  0
LINE
  5
1E5
330
1F
100
AcDbEntity
  8
0
  6
Continuous
 62
     7
370
    30
100
AcDbLine
 10
198.464904013
 20
107.1906837065
 30
0.0
 11
199.9649070528
 21
107.1906837065
 31
0.0
  0
LINE
  5
1E6
330
1F
100
AcDbEntity
  8
0
  6
Continuous
 62
     7
370
    30
100
AcDbLine
 10
199.9649070528
 20
121.9906827797
 30
0.0
 11
198.464904013
 21
121.9906827797
 31
0.0
  0
LINE
  5
1E7
330
1F
100
AcDbEntity
  8
0
  6
Continuous
 62
     7
370
    30
100
AcDbLine
 10
199.9649070528
 20
114.7325711687
 30
0.0
 11
199.9849044111
 21
114.7325711687
 31
0.0
  0
LINE
  5
1E8
330
1F
100
AcDbEntity
  8
0
  6
Continuous
 62
     7
370
    30
100
AcDbLine
 10
199.9849044111
 20
116.5325718362
 30
0.0
 11
199.9649070528
 21
116.5325718362
 31
0.0
  0
LINE
  5
1E9
330
1F
100
AcDbEntity
  8
0
  6
Continuous
 62
     7
370
    30
100
AcDbLine
 10
199.9649070528
 20
109.4845498342
 30
0.0
 11
199.9849044111
 21
109.4845498342
 31
0.0
  0
LINE
  5
1EA
330
1F
100
AcDbEntity
  8
0
  6
Continuous
 62
     7
370
    30
100
AcDbLine
 10
199.9849044111
 20
120.8793579031
 30
0.0
 11
199.9649070528
 21
120.8793579031
 31
0.0
  0
LINE
  5
1EB
330
1F
100
AcDbEntity
  8
0
  6
Continuous
 62
     7
370
    30
100
AcDbLine
 10
199.9849044111
 20
111.59068182
 30
0.0
 11
200.1649067131
 21
111.59068182
 31
0.0
  0
LINE
  5
1EC
330
1F
100
AcDbEntity
  8
0
  6
Continuous
 62
     7
370
    30
100
AcDbLine
 10
200.1649067131
 20
117.5906828035
 30
0.0
 11
199.9849044111
 21
117.5906828035
 31
0.0
  0
LINE
  5
1ED
330
1F
100
AcDbEntity
  8
0
  6
Continuous
 62
     7
370
    30
100
AcDbLine
 10
200.1649067131
 20
113.8406826545
 30
0.0
 11
201.1649050143
 21
113.8406826545
 31
0.0
  0
LINE
  5
1EE
330
1F
100
AcDbEntity
  8
0
  6
Continuous
 62
     7
370
    30
100
AcDbLine
 10
201.1649050143
 20
115.340681969
 30
0.0
 11
200.1649067131
 21
115.340681969
 31
0.0
  0
LINE
  5
1EF
330
1F
100
AcDbEntity
  8
0
  6
Continuous
 62
     7
370
    30
100
AcDbLine
 10
199.9649070528
 20
108.4426606436
 30
0.0
 11
199.9849044111
 21
108.4426606436
 31
0.0
  0
LINE
  5
1F0
330
1F
100
AcDbEntity
  8
0
  6
Continuous
 62
     7
370
    30
100
AcDbLine
 10
183.4649052796
 20
122.0906826098
 30
0.0
 11
165.5649056517
 21
122.0906826098
 31
0.0
  0
LINE
  5
1F1
330
1F
100
AcDbEntity
  8
0
  6
Continuous
 62
     7
370
    30
100
AcDbLine
 10
165.5649056517
 20
107.0906820137
 30
0.0
 11
183.4649052796
 21
107.0906820137
 31
0.0
  0
LINE
  5
1F2
330
1F
100
AcDbEntity
  8
0
  6
Continuous
 62
     7
370
    30
100
AcDbLine
 10
183.4649052796
 20
107.0906820137
 30
0.0
 11
183.4649052796
 21
122.0906826098
 31
0.0
  0
LINE
  5
1F3
330
1F
100
AcDbEntity
  8
0
  6
Continuous
 62
     7
370
    30
100
AcDbLine
 10
198.464904013
 20
107.0906820137
 30
0.0
 11
198.464904013
 21
122.0906826098
 31
0.0
  0
LINE
  5
1F4
330
1F
100
AcDbEntity
  8
0
  6
Continuous
 62
     7
370
    30
100
AcDbLine
 10
199.9649070528
 20
121.9906827797
 30
0.0
 11
199.9649070528
 21
107.1906837065
 31
0.0
  0
LINE
  5
1F5
330
1F
100
AcDbEntity
  8
0
  6
Continuous
 62
     7
370
    30
100
AcDbLine
 10
199.9849044111
 20
116.5325718362
 30
0.0
 11
199.9849044111
 21
114.7325711687
 31
0.0
  0
LINE
  5
1F6
330
1F
100
AcDbEntity
  8
0
  6
Continuous
 62
     7
370
    30
100
AcDbLine
 10
199.9849044111
 20
119.4087380905
 30
0.0
 11
199.9649070528
 21
119.4087380905
 31
0.0
  0
LINE
  5
1F7
330
1F
100
AcDbEntity
  8
0
  6
Continuous
 62
     7
370
    30
100
AcDbLine
 10
199.9849044111
 20
119.4087380905
 30
0.0
 11
199.9849044111
 21
116.5325718362
 31
0.0
  0
LINE
  5
1F8
330
1F
100
AcDbEntity
  8
0
  6
Continuous
 62
     7
370
    30
100
AcDbLine
 10
199.9849044111
 20
110.5408335466
 30
0.0
 11
199.9649070528
 21
110.5408335466
 31
0.0
  0
LINE
  5
1F9
330
1F
100
AcDbEntity
  8
0
  6
Continuous
 62
     7
370
    30
100
AcDbLine
 10
199.9849044111
 20
110.5408335466
 30
0.0
 11
199.9849044111
 21
109.4845498342
 31
0.0
  0
LINE
  5
1FA
330
1F
100
AcDbEntity
  8
0
  6
Continuous
 62
     7
370
    30
100
AcDbLine
 10
199.9849044111
 20
114.7325711687
 30
0.0
 11
199.9849044111
 21
110.5408335466
 31
0.0
  0
LINE
  5
1FB
330
1F
100
AcDbEntity
  8
0
  6
Continuous
 62
     7
370
    30
100
AcDbLine
 10
199.9849044111
 20
120.8793579031
 30
0.0
 11
199.9849044111
 21
119.4087380905
 31
0.0
  0
LINE
  5
1FC
330
1F
100
AcDbEntity
  8
0
  6
Continuous
 62
     7
370
    30
100
AcDbLine
 10
200.1649067131
 20
117.5906828035
 30
0.0
 11
200.1649067131
 21
111.59068182
 31
0.0
  0
LINE
  5
1FD
330
1F
100
AcDbEntity
  8
0
  6
Continuous
 62
     7
370
    30
100
AcDbLine
 10
201.1649050143
 20
115.340681969
 30
0.0
 11
201.1649050143
 21
113.8406826545
 31
0.0
  0
LINE
  5
1FE
330
1F
100
AcDbEntity
  8
0
  6
Continuous
 62
     7
370
    30
100
AcDbLine
 10
199.9849044111
 20
109.4845498342
 30
0.0
 11
199.9849044111
 21
108.4426606436
 31
0.0
  0
LINE
  5
1FF
330
1F
100
AcDbEntity
  8
0
  6
Continuous
 62
     7
370
    30
100
AcDbLine
 10
183.4649052796
 20
114.5906823118
 30
0.0
 11
183.4649052796
 21
122.0906826098
 31
0.0
  0
LINE
  5
200
330
1F
100
AcDbEntity
  8
0
  6
Continuous
 62
     7
370
    30
100
AcDbLine
 10
183.4649052796
 20
107.0906820137
 30
0.0
 11
183.4649052796
 21
114.5906823118
 31
0.0
  0
LINE
  5
201
330
1F
100
AcDbEntity
  8
0
  6
Continuous
 62
     7
370
    30
100
AcDbLine
 10
163.5649055567
 20
106.4669641097
 30
0.0
 11
165.0649055698
 21
106.4669641097
 31
0.0
  0
LINE
  5
202
330
1F
100
AcDbEntity
  8
0
  6
Continuous
 62
     7
370
    30
100
AcDbLine
 10
165.0649055698
 20
103.4669654806
 30
0.0
 11
165.0649055698
 21
106.4669641097
 31
0.0
  0
LINE
  5
203
330
1F
100
AcDbEntity
  8
0
  6
Continuous
 62
     7
370
    30
100
AcDbLine
 10
165.0649055698
 20
103.4669654806
 30
0.0
 11
163.5649055567
 21
103.4669654806
 31
0.0
  0
LINE
  5
204
330
1F
100
AcDbEntity
  8
0
  6
Continuous
 62
     7
370
    30
100
AcDbLine
 10
163.5649055567
 20
103.4669654806
 30
0.0
 11
163.5649055567
 21
106.4669641097
 31
0.0
  0
LINE
  5
205
330
1F
100
AcDbEntity
  8
0
  6
Continuous
 62
     7
370
    30
100
AcDbLine
 10
165.5649056517
 20
106.4669641097
 30
0.0
 11
165.5649056517
 21
103.9669627685
 31
0.0
  0
ARC
  5
206
330
1F
100
AcDbEntity
  8
0
  6
Continuous
 62
     7
370
    30
100
AcDbCircle
 10
165.0649055567
 20
103.9669640522
 30
0.0
 40
0.5
100
AcDbArc
 50
270.0
 51
0.0
  0
LINE
  5
207
330
1F
100
AcDbEntity
  8
0
  6
Continuous
 62
     7
370
    30
100
AcDbLine
 10
165.5649056517
 20
106.4669641097
 30
0.0
 11
165.0649055698
 21
106.4669641097
 31
0.0
  0
LINE
  5
208
330
1F
100
AcDbEntity
  8
0
  6
Continuous
 62
     7
370
    30
100
AcDbLine
 10
165.5649056517
 20
160.4669636477
 30
0.0
 11
165.5649056517
 21
106.4669641097
 31
0.0
  0
LINE
  5
209
330
1F
100
AcDbEntity
  8
0
  6
Continuous
 62
     7
370
    30
100
AcDbLine
 10
165.0649055698
 20
106.4669641097
 30
0.0
 11
165.0649055698
 21
160.4669636477
 31
0.0
  0
LINE
  5
20A
330
1F
100
AcDbEntity
  8
0
  6
Continuous
 62
     7
370
    30
100
AcDbLine
 10
165.5649056517
 20
160.4669636477
 30
0.0
 11
165.0649055698
 21
160.4669636477
 31
0.0
  0
LINE
  5
20B
330
1F
100
AcDbEntity
  8
0
  6
Continuous
 62
     7
370
    30
100
AcDbLine
 10
165.0649055698
 20
160.4669636477
 30
0.0
 11
163.5649055567
 21
160.4669636477
 31
0.0
  0
LINE
  5
20C
330
1F
100
AcDbEntity
  8
0
  6
Continuous
 62
     7
370
    30
100
AcDbLine
 10
163.5649055567
 20
160.4669636477
 30
0.0
 11
163.5649055567
 21
106.4669641097
 31
0.0
  0
LINE
  5
20D
330
1F
100
AcDbEntity
  8
0
  6
Continuous
 62
     7
370
    30
100
AcDbLine
 10
165.5649056517
 20
162.9669631262
 30
0.0
 11
165.5649056517
 21
160.4669636477
 31
0.0
  0
LINE
  5
20E
330
1F
100
AcDbEntity
  8
0
  6
Continuous
 62
     7
370
    30
100
AcDbLine
 10
165.0649055698
 20
160.4669636477
 30
0.0
 11
165.0649055698
 21
163.4669641395
 31
0.0
  0
ARC
  5
20F
330
1F
100
AcDbEntity
  8
0
  6
Continuous
 62
     7
370
    30
100
AcDbCircle
 10
165.0649055567
 20
162.9669640522
 30
0.0
 40
0.5
100
AcDbArc
 50
0.0
 51
90.0
  0
LINE
  5
210
330
1F
100
AcDbEntity
  8
0
  6
Continuous
 62
     7
370
    30
100
AcDbLine
 10
163.5649055567
 20
163.4669641395
 30
0.0
 11
165.0649055698
 21
163.4669641395
 31
0.0
  0
LINE
  5
211
330
1F
100
AcDbEntity
  8
0
  6
Continuous
 62
     7
370
    30
100
AcDbLine
 10
163.5649055567
 20
160.4669636477
 30
0.0
 11
163.5649055567
 21
163.4669641395
 31
0.0
  0
LINE
  5
212
330
1F
100
AcDbEntity
  8
0
  6
Continuous
 62
     7
370
    30
100
AcDbLine
 10
163.5649055567
 20
103.4669654806
 30
0.0
 11
150.0649052065
 21
103.4669654806
 31
0.0
  0
LINE
  5
213
330
1F
100
AcDbEntity
  8
0
  6
Continuous
 62
     7
370
    30
100
AcDbLine
 10
150.0649052065
 20
106.4669641097
 30
0.0
 11
150.0649052065
 21
103.4669654806
 31
0.0
  0
LINE
  5
214
330
1F
100
AcDbEntity
  8
0
  6
Continuous
 62
     7
370
    30
100
AcDbLine
 10
150.0649052065
 20
106.4669641097
 30
0.0
 11
163.5649055567
 21
106.4669641097
 31
0.0
  0
LINE
  5
215
330
1F
100
AcDbEntity
  8
0
  6
Continuous
 62
     7
370
    30
100
AcDbLine
 10
150.0649052065
 20
160.4669636477
 30
0.0
 11
150.0649052065
 21
106.4669641097
 31
0.0
  0
LINE
  5
216
330
1F
100
AcDbEntity
  8
0
  6
Continuous
 62
     7
370
    30
100
AcDbLine
 10
163.5649055567
 20
160.4669636477
 30
0.0
 11
150.0649052065
 21
160.4669636477
 31
0.0
  0
CIRCLE
  5
217
330
1F
100
AcDbEntity
  8
0
  6
Continuous
 62
     7
370
    30
100
AcDbCircle
 10
154.5649055567
 20
138.4669640522
 30
0.0
 40
1.649999999999977
  0
LINE
  5
218
330
1F
100
AcDbEntity
  8
0
  6
Continuous
 62
     7
370
    30
100
AcDbLine
 10
149.5649051246
 20
103.9669627685
 30
0.0
 11
149.5649051246
 21
106.4669641097
 31
0.0
  0
LINE
  5
219
330
1F
100
AcDbEntity
  8
0
  6
Continuous
 62
     7
370
    30
100
AcDbLine
 10
149.5649051246
 20
106.4669641097
 30
0.0
 11
150.0649052065
 21
106.4669641097
 31
0.0
  0
ARC
  5
21A
330
1F
100
AcDbEntity
  8
0
  6
Continuous
 62
     7
370
    30
100
AcDbCircle
 10
150.0649055567
 20
103.9669640522
 30
0.0
 40
0.5
100
AcDbArc
 50
180.0
 51
270.0
  0
LINE
  5
21B
330
1F
100
AcDbEntity
  8
0
  6
Continuous
 62
     7
370
    30
100
AcDbLine
 10
149.5649051246
 20
106.4669641097
 30
0.0
 11
149.5649051246
 21
160.4669636477
 31
0.0
  0
LINE
  5
21C
330
1F
100
AcDbEntity
  8
0
  6
Continuous
 62
     7
370
    30
100
AcDbLine
 10
149.5649051246
 20
160.4669636477
 30
0.0
 11
150.0649052065
 21
160.4669636477
 31
0.0
  0
LINE
  5
21D
330
1F
100
AcDbEntity
  8
0
  6
Continuous
 62
     7
370
    30
100
AcDbLine
 10
150.0649052065
 20
163.4669641395
 30
0.0
 11
150.0649052065
 21
160.4669636477
 31
0.0
  0
LINE
  5
21E
330
1F
100
AcDbEntity
  8
0
  6
Continuous
 62
     7
370
    30
100
AcDbLine
 10
150.0649052065
 20
163.4669641395
 30
0.0
 11
163.5649055567
 21
163.4669641395
 31
0.0
  0
LINE
  5
21F
330
1F
100
AcDbEntity
  8
0
  6
Continuous
 62
     7
370
    30
100
AcDbLine
 10
149.5649051246
 20
160.4669636477
 30
0.0
 11
149.5649051246
 21
162.9669631262
 31
0.0
  0
ARC
  5
220
330
1F
100
AcDbEntity
  8
0
  6
Continuous
 62
     7
370
    30
100
AcDbCircle
 10
150.0649055567
 20
162.9669640522
 30
0.0
 40
0.5
100
AcDbArc
 50
90.0
 51
180.0
  0
DIMENSION
  5
221
330
1F
100
AcDbEntity
  8
SLD-0
100
AcDbDimension
  2
_D_11
 10
143.0649055567
 20
138.4669640522
 30
0.0
 11
143.0649055567
 21
150.9669640522
 31
0.0
 70
   160
  1
<>
 71
     2
 42
-1.0
  3
SLDDIMSTYLE0
100
AcDbAlignedDimension
 13
150.0649055567
 23
163.4669640522
 33
0.0
 14
151.9149055567
 24
138.4669640522
 34
0.0
 50
90.0
100
AcDbRotatedDimension
  0
DIMENSION
  5
22B
330
1F
100
AcDbEntity
  8
SLD-0
 62
     7
100
AcDbDimension
  2
_D_12
 10
207.1649055567
 20
107.0906819627
 30
0.0
 11
207.1649055567
 21
114.5906819627
 31
0.0
 70
   160
  1
%%c<>
 71
     2
 42
-1.0
  3
SLDDIMSTYLE0
100
AcDbAlignedDimension
 13
198.4649055567
 23
122.0906819627
 33
0.0
 14
198.4649055567
 24
107.0906819627
 34
0.0
 50
90.0
100
AcDbRotatedDimension
  0
DIMENSION
  5
236
330
1F
100
AcDbEntity
  8
SLD-0
100
AcDbDimension
  2
_D_13
 10
199.9649055567
 20
179.4669640522
 30
0.0
 11
174.7649055567
 21
179.4669640522
 31
0.0
 70
   160
  1
<>
 71
     2
 42
-1.0
  3
SLDDIMSTYLE0
100
AcDbAlignedDimension
 13
149.5649055567
 23
162.9669640522
 33
0.0
 14
199.9649055567
 24
121.9906819627
 34
0.0
100
AcDbRotatedDimension
  0
DIMENSION
  5
240
330
1F
100
AcDbEntity
  8
SLD-0
100
AcDbDimension
  2
_D_14
 10
154.5649055567
 20
169.4669640522
 30
0.0
 11
152.0649055567
 21
169.4669640522
 31
0.0
 70
   160
  1
<>
 71
     2
 42
-1.0
  3
SLDDIMSTYLE0
100
AcDbAlignedDimension
 13
149.5649055567
 23
162.9669640522
 33
0.0
 14
154.5649055567
 24
141.1169640522
 34
0.0
100
AcDbRotatedDimension
  0
DIMENSION
  5
24A
330
1F
100
AcDbEntity
  8
SLD-0
100
AcDbDimension
  2
_D_15
 10
165.5649055567
 20
174.4669640522
 30
0.0
 11
157.5649055567
 21
174.4669640522
 31
0.0
 70
   160
  1
<>
 71
     2
 42
-1.0
  3
SLDDIMSTYLE0
100
AcDbAlignedDimension
 13
149.5649055567
 23
162.9669640522
 33
0.0
 14
165.5649055567
 24
162.9669640522
 34
0.0
100
AcDbRotatedDimension
  0
DIMENSION
  5
254
330
1F
100
AcDbEntity
  8
SLD-0
100
AcDbDimension
  2
_D_16
 10
155.3899055567
 20
139.8959059685
 30
0.0
 11
142.3464098779
 21
125.5190380242
 31
0.0
 70
   163
  1
M4\P
 71
     1
 42
-1.0
  3
SLDDIMSTYLE2
100
AcDbDiametricDimension
 15
153.7399055567
 25
137.038022136
 35
0.0
 40
0.0
  0
INSERT
  5
268
330
1F
100
AcDbEntity
  8
SLD-0
100
AcDbBlockReference
  2
SW_CENTERMARKSYMBOL_5
 10
154.5649055567
 20
138.4669640522
 30
0.0
  0
SPLINE
  5
269
330
1F
100
AcDbEntity
  8
0
  6
Continuous
 62
     7
370
    30
100
AcDbSpline
210
0.0
220
0.0
230
1.0
 70
     8
 71
     3
 72
    16
 73
    12
 74
     0
 42
0.000000001
 43
0.00000001
 40
0.0
 40
0.0
 40
0.0
 40
0.0
 40
0.0707134311968541
 40
0.2013787149007733
 40
0.3315932484666937
 40
0.461348705112007
 40
0.5909560486510531
 40
0.7208821451191032
 40
0.8515558915291358
 40
0.976258891454094
 40
1.0
 40
1.0
 40
1.0
 40
1.0
 10
274.79001586382
 20
162.9841663339585
 30
0.0
 10
274.7874654682046
 20
163.0749416742741
 30
0.0
 10
274.7802024153048
 20
163.3334529792418
 30
0.0
 10
274.7023484193921
 20
163.7794828469594
 30
0.0
 10
274.536422467084
 20
164.3110583349863
 30
0.0
 10
274.2984131814154
 20
164.8317455691166
 30
0.0
 10
273.9987701093906
 20
165.3232727950861
 30
0.0
 10
273.6469375348495
 20
165.7693807899637
 30
0.0
 10
273.2604792819265
 20
166.1466757958126
 30
0.0
 10
272.9612300829925
 20
166.3674014812894
 30
0.0
 10
272.7982883507267
 20
166.4636582955473
 30
0.0
 10
272.7722285940126
 20
166.4790529346416
 30
0.0
  0
LINE
  5
26A
330
1F
100
AcDbEntity
  8
0
  6
Continuous
 62
     7
370
    30
100
AcDbLine
 10
274.7900158638
 20
118.8909624921
 30
0.0
 11
274.7900158638
 21
162.984166334
 31
0.0
  0
LINE
  5
26B
330
1F
100
AcDbEntity
  8
0
  6
Continuous
 62
     7
370
    30
100
AcDbLine
 10
272.772228594
 20
166.4790529346
 30
0.0
 11
241.6595302218
 21
184.4400313947
 31
0.0
  0
LINE
  5
26C
330
1F
100
AcDbEntity
  8
0
  6
Continuous
 62
     7
370
    30
100
AcDbLine
 10
239.9096724397
 20
184.563801521
 30
0.0
 11
238.8490122679
 21
183.9514954371
 31
0.0
  0
SPLINE
  5
26D
330
1F
100
AcDbEntity
  8
0
  6
Continuous
 62
     7
370
    30
100
AcDbSpline
210
0.0
220
0.0
230
1.0
 70
     8
 71
     3
 72
    12
 73
     8
 74
     0
 42
0.000000001
 43
0.00000001
 40
0.0
 40
0.0
 40
0.0
 40
0.0
 40
0.1346421846562604
 40
0.3871550069267477
 40
0.60800795685056
 40
0.8193050747549318
 40
1.0
 40
1.0
 40
1.0
 40
1.0
 10
241.6595302218045
 20
184.440031394741
 30
0.0
 10
241.5805956432477
 20
184.4825895107062
 30
0.0
 10
241.353624301495
 20
184.6049626564134
 30
0.0
 10
240.9867241738056
 20
184.7243122642642
 30
0.0
 10
240.5750637977643
 20
184.7615147570954
 30
0.0
 10
240.2111028262994
 20
184.7138667508226
 30
0.0
 10
240.0083362902989
 20
184.6057388287215
 30
0.0
 10
239.9148678520866
 20
184.5558955547509
 30
0.0
  0
LINE
  5
26E
330
1F
100
AcDbEntity
  8
0
  6
Continuous
 62
     7
370
    30
100
AcDbLine
 10
272.961466838
 20
116.7010199609
 30
0.0
 11
274.0221270098
 21
117.3133260448
 31
0.0
  0
SPLINE
  5
26F
330
1F
100
AcDbEntity
  8
0
  6
Continuous
 62
     7
370
    30
100
AcDbSpline
210
0.0
220
0.0
230
1.0
 70
     8
 71
     3
 72
    13
 73
     9
 74
     0
 42
0.000000001
 43
0.00000001
 40
0.0
 40
0.0
 40
0.0
 40
0.0
 40
0.0455300042545551
 40
0.2631004842579124
 40
0.4791194519240135
 40
0.7018352382128475
 40
0.9356149118655517
 40
1.0
 40
1.0
 40
1.0
 40
1.0
 10
274.0169315974127
 20
117.3212320109914
 30
0.0
 10
274.0413533243299
 20
117.3319007875797
 30
0.0
 10
274.1824771455003
 20
117.3935515678243
 30
0.0
 10
274.3847372365555
 20
117.6007532331275
 30
0.0
 10
274.6023422500487
 20
117.923016377789
 30
0.0
 10
274.7391592216696
 20
118.3151490969711
 30
0.0
 10
274.786547094282
 20
118.6479390690609
 30
0.0
 10
274.7893998463746
 20
118.8478040560774
 30
0.0
 10
274.7900158638201
 20
118.8909624921277
 30
0.0
  0
LINE
  5
270
330
1F
100
AcDbEntity
  8
0
  6
Continuous
 62
     7
370
    30
100
AcDbLine
 10
239.3902375981
 20
162.1950929813
 30
0.0
 11
238.5063541216
 21
161.6848379114
 31
0.0
  0
LINE
  5
271
330
1F
100
AcDbEntity
  8
0
  6
Continuous
 62
     7
370
    30
100
AcDbLine
 10
253.5051351111
 20
135.70337204
 30
0.0
 11
254.3890185876
 21
136.2136271099
 31
0.0
  0
SPLINE
  5
272
330
1F
100
AcDbEntity
  8
0
  6
Continuous
 62
     7
370
    30
100
AcDbSpline
210
0.0
220
0.0
230
1.0
 70
     8
 71
     3
 72
    13
 73
     9
 74
     0
 42
0.000000001
 43
0.00000001
 40
0.0
 40
0.0
 40
0.0
 40
0.0
 40
0.0452326633073415
 40
0.2628709218819511
 40
0.4789571847849564
 40
0.7017423525348742
 40
0.9355948543224862
 40
1.0
 40
1.0
 40
1.0
 40
1.0
 10
229.3077711531942
 20
178.4326051127364
 30
0.0
 10
229.2835181157786
 20
178.4220064604283
 30
0.0
 10
229.1425708922965
 20
178.3604120881493
 30
0.0
 10
228.9404677729701
 20
178.1533008709585
 30
0.0
 10
228.7228534685453
 20
177.8310538409063
 30
0.0
 10
228.5860391058731
 20
177.4389165966464
 30
0.0
 10
228.5386506034165
 20
177.1061277169867
 30
0.0
 10
228.535797879288
 20
176.9062626814681
 30
0.0
 10
228.535181867881
 20
176.8631042349443
 30
0.0
  0
LINE
  5
273
330
1F
100
AcDbEntity
  8
0
  6
Continuous
 62
     7
370
    30
100
AcDbLine
 10
238.8490122679
 20
183.9514954371
 30
0.0
 11
229.3030707219
 21
178.4407406823
 31
0.0
  0
LINE
  5
274
330
1F
100
AcDbEntity
  8
0
  6
Continuous
 62
     7
370
    30
100
AcDbLine
 10
228.5351818679
 20
176.8631042349
 30
0.0
 11
228.5351818679
 21
132.7699003931
 31
0.0
  0
SPLINE
  5
275
330
1F
100
AcDbEntity
  8
0
  6
Continuous
 62
     7
370
    30
100
AcDbSpline
210
0.0
220
0.0
230
1.0
 70
     8
 71
     3
 72
    12
 73
     8
 74
     0
 42
0.000000001
 43
0.00000001
 40
0.0
 40
0.0
 40
0.0
 40
0.0
 40
0.1346002067343928
 40
0.3870343020921266
 40
0.607818395825735
 40
0.8190496367991321
 40
1.0
 40
1.0
 40
1.0
 40
1.0
 10
261.6656675098965
 20
111.3140353323311
 30
0.0
 10
261.7446021104659
 20
111.2714771594514
 30
0.0
 10
261.9715735155141
 20
111.1491038500901
 30
0.0
 10
262.3384728851289
 20
111.0297562022821
 30
0.0
 10
262.750136027729
 20
110.9925465563646
 30
0.0
 10
263.1142731088981
 20
111.0402423560547
 30
0.0
 10
263.3171969525608
 20
111.1484666852623
 30
0.0
 10
263.4108248607086
 20
111.1984007756654
 30
0.0
  0
LINE
  5
276
330
1F
100
AcDbEntity
  8
0
  6
Continuous
 62
     7
370
    30
100
AcDbLine
 10
263.415525292
 20
111.1902652061
 30
0.0
 11
272.961466838
 21
116.7010199609
 31
0.0
  0
LINE
  5
277
330
1F
100
AcDbEntity
  8
0
  6
Continuous
 62
     7
370
    30
100
AcDbLine
 10
230.5529691377
 20
129.2750137924
 30
0.0
 11
261.6656675099
 21
111.3140353323
 31
0.0
  0
SPLINE
  5
278
330
1F
100
AcDbEntity
  8
0
  6
Continuous
 62
     7
370
    30
100
AcDbSpline
210
0.0
220
0.0
230
1.0
 70
     8
 71
     3
 72
    16
 73
    12
 74
     0
 42
0.000000001
 43
0.00000001
 40
0.0
 40
0.0
 40
0.0
 40
0.0
 40
0.0707134311968542
 40
0.2013787149007721
 40
0.3315932484666934
 40
0.4613487051120029
 40
0.5909560486510481
 40
0.720882145119097
 40
0.8515558915291237
 40
0.9762588914540818
 40
0.9999999999999999
 40
0.9999999999999999
 40
0.9999999999999999
 40
0.9999999999999999
 10
228.5351818678811
 20
132.7699003931136
 30
0.0
 10
228.5377322634965
 20
132.679125052798
 30
0.0
 10
228.5449953163963
 20
132.4206137478303
 30
0.0
 10
228.622849312309
 20
131.9745838801126
 30
0.0
 10
228.7887752646171
 20
131.4430083920858
 30
0.0
 10
229.0267845502858
 20
130.9223211579555
 30
0.0
 10
229.3264276223104
 20
130.430793931986
 30
0.0
 10
229.6782601968516
 20
129.9846859371084
 30
0.0
 10
230.0647184497746
 20
129.6073909312595
 30
0.0
 10
230.3639676487086
 20
129.3866652457827
 30
0.0
 10
230.5269093809744
 20
129.2904084315248
 30
0.0
 10
230.5529691376885
 20
129.2750137924305
 30
0.0
  0
LWPOLYLINE
  5
279
330
1F
100
AcDbEntity
  8
0
  6
Continuous
 62
     7
370
    30
100
AcDbPolyline
 90
        3
 70
   128
 43
0.0
 10
254.3890185876
 20
136.2136271099
 10
254.6132381416
 20
136.3510473057
 10
255.1069194159
 20
136.7162877961
  0
LWPOLYLINE
  5
27A
330
1F
100
AcDbEntity
  8
0
  6
Continuous
 62
     7
370
    30
100
AcDbPolyline
 90
        3
 70
   128
 43
0.0
 10
240.1845396893
 20
162.5654084586
 10
239.5048912842
 20
162.2592878865
 10
239.3902375981
 20
162.1950929813
  0
ARC
  5
27B
330
1F
100
AcDbEntity
  8
0
  6
Continuous
 62
     7
370
    30
100
AcDbCircle
 10
268.710672524
 20
153.7283089568
 30
0.0
 40
6.786610465904051
100
AcDbArc
 50
333.6094294487
 51
26.3905705513
  0
LWPOLYLINE
  5
27C
330
1F
100
AcDbEntity
  8
0
  6
Continuous
 62
     7
370
    30
100
AcDbPolyline
 90
       22
 70
   128
 43
0.0
 10
240.3488903669
 20
154.4089617584
 10
240.3929552799
 20
153.4288009658
 10
240.5246507461
 20
152.408869521
 10
240.742484603
 20
151.3607236546
 10
241.0439887061
 20
150.2962392783
 10
241.4257468935
 20
149.2274774254
 10
241.8834336922
 20
148.1665475947
 10
242.411863328
 20
147.1254705451
 10
243.005048482
 20
146.1160420956
 10
243.6562681294
 20
145.1496994738
 10
244.3581436913
 20
144.2373917279
 10
245.1027226371
 20
143.389455669
 10
245.8815685899
 20
142.6154987516
 10
246.6858569138
 20
141.9242902168
 10
247.5064747008
 20
141.3236617335
 10
248.3341240234
 20
140.8204186624
 10
249.1594272841
 20
140.4202629486
 10
249.9730334671
 20
140.1277285162
 10
250.7657240893
 20
139.9461298972
 10
251.5285176493
 20
139.8775246766
 10
252.2527713911
 20
139.9226901789
 10
252.4627414301
 20
139.9586689736
  0
ARC
  5
27D
330
1F
100
AcDbEntity
  8
0
  6
Continuous
 62
     7
370
    30
100
AcDbCircle
 10
246.6649637336
 20
154.7714718065
 30
0.0
 40
6.32646791730538
100
AcDbArc
 50
142.141011404
 51
183.2848785319
  0
LWPOLYLINE
  5
27E
330
1F
100
AcDbEntity
  8
0
  6
Continuous
 62
     7
370
    30
100
AcDbPolyline
 90
       21
 70
   128
 43
0.0
 10
240.7731544356
 20
154.653884192
 10
240.8172193486
 20
153.6737233994
 10
240.9489148148
 20
152.6537919545
 10
241.1667486717
 20
151.6056460882
 10
241.4682527749
 20
150.5411617119
 10
241.8500109622
 20
149.472399859
 10
242.3076977609
 20
148.4114700282
 10
242.8361273968
 20
147.3703929786
 10
243.4293125508
 20
146.3609645291
 10
244.0805321981
 20
145.3946219074
 10
244.78240776
 20
144.4823141614
 10
245.5269867058
 20
143.6343781026
 10
246.3058326586
 20
142.8604211852
 10
247.1101209826
 20
142.1692126504
 10
247.9307387695
 20
141.5685841671
 10
248.7583880921
 20
141.065341096
 10
249.5836913528
 20
140.6651853822
 10
250.3972975358
 20
140.3726509498
 10
251.189988158
 20
140.1910523308
 10
251.952781718
 20
140.1224471102
 10
252.6288274716
 20
140.1608928319
  0
ARC
  5
27F
330
1F
100
AcDbEntity
  8
0
  6
Continuous
 62
     7
370
    30
100
AcDbCircle
 10
247.2271187354
 20
154.9964520785
 30
0.0
 40
6.463049430389447
100
AcDbArc
 50
145.071971666
 51
183.0383329706
  0
LWPOLYLINE
  5
280
330
1F
100
AcDbEntity
  8
0
  6
Continuous
 62
     7
370
    30
100
AcDbPolyline
 90
       66
 70
   128
 43
0.0
 10
236.7111795311
 20
154.0597431886
 10
236.754569956
 20
152.9988085183
 10
236.8843361062
 20
151.8976819908
 10
237.09926639
 20
150.7666445279
 10
237.3973540613
 20
149.6162563216
 10
237.7758159557
 20
148.4572582366
 10
238.2311184767
 20
147.3004715259
 10
238.7590105872
 20
146.1566967951
 10
239.3545635007
 20
145.0366131609
 10
240.0122167003
 20
143.9506785423
 10
240.7258298552
 20
142.9090320182
 10
241.4887401516
 20
141.9213991617
 10
242.2938245016
 20
140.9970012345
 10
243.1335660497
 20
140.1444690911
 10
244.0001243551
 20
139.3717625944
 10
244.8854085966
 20
138.6860962967
 10
245.7811531136
 20
138.0938720796
 10
246.6789945809
 20
137.6006193809
 10
247.5705500947
 20
137.2109435682
 10
248.4474954414
 20
136.9284829397
 10
249.3016428185
 20
136.755874754
 10
250.1250172822
 20
136.6947306073
 10
250.9099312068
 20
136.745621386
 10
251.6490560626
 20
136.9080719367
 10
252.33549084
 20
137.1805655023
 10
252.9628264823
 20
137.5605578837
 10
253.5252057257
 20
138.0445011947
 10
254.0173777867
 20
138.6278769867
 10
254.4347473875
 20
139.3052384373
 10
254.7734176604
 20
140.070261205
 10
255.0302265325
 20
140.9158024785
 10
255.2027762484
 20
141.8339676666
 10
255.289455758
 20
142.8161841085
 10
255.289455758
 20
143.8532811137
 10
255.2027762484
 20
144.9355755871
 10
255.0302265325
 20
146.0529624366
 10
254.7734176604
 20
147.1950089225
 10
254.4347473875
 20
148.3510520643
 10
254.0173777867
 20
149.5102981987
 10
253.5252057257
 20
150.6619237568
 10
252.9628264823
 20
151.7951763213
 10
252.33549084
 20
152.8994750181
 10
251.6490560626
 20
153.9645093078
 10
250.9099312068
 20
154.9803352524
 10
250.1250172822
 20
155.9374683586
 10
249.3016428185
 20
156.8269721326
 10
248.4474954414
 20
157.6405415171
 10
247.5705500947
 20
158.3705804342
 10
246.6789945809
 20
159.0102727071
 10
245.7811531136
 20
159.5536457014
 10
244.8854085966
 20
159.9956260899
 10
244.0001243551
 20
160.3320872208
 10
243.1335660497
 20
160.5598876471
 10
242.2938245016
 20
160.6769004578
 10
241.4887401516
 20
160.6820331355
 10
240.7258298552
 20
160.5752377581
 10
240.0122167003
 20
160.357511445
 10
239.3545635007
 20
160.0308870483
 10
238.7590105872
 20
159.5984141718
 10
238.2311184767
 20
159.0641306985
 10
237.7758159557
 20
158.433025089
 10
237.3973540613
 20
157.7109898064
 10
237.09926639
 20
156.9047662996
 10
236.8843361062
 20
156.0218820602
 10
236.754569956
 20
155.0705803406
 10
236.7111795311
 20
154.0597431886
  0
LWPOLYLINE
  5
281
330
1F
100
AcDbEntity
  8
0
  6
Continuous
 62
     7
370
    30
100
AcDbPolyline
 90
       60
 70
   128
 43
0.0
 10
238.2275700233
 20
153.1843495907
 10
238.2716349364
 20
152.2041887981
 10
238.4033304025
 20
151.1842573532
 10
238.6211642595
 20
150.1361114869
 10
238.9226683626
 20
149.0716271106
 10
239.3044265499
 20
148.0028652577
 10
239.7621133487
 20
146.941935427
 10
240.2905429845
 20
145.9008583774
 10
240.8837281385
 20
144.8914299278
 10
241.5349477858
 20
143.9250873061
 10
242.2368233477
 20
143.0127795601
 10
242.9814022935
 20
142.1648435013
 10
243.7602482463
 20
141.3908865839
 10
244.5645365703
 20
140.6996780491
 10
245.3851543573
 20
140.0990495658
 10
246.2128036799
 20
139.5958064947
 10
247.0381069405
 20
139.1956507809
 10
247.8517131235
 20
138.9031163485
 10
248.6444037458
 20
138.7215177295
 10
249.4071973057
 20
138.6529125089
 10
250.1314510475
 20
138.6980780112
 10
250.8089588869
 20
138.8565024932
 10
251.4320443894
 20
139.1263909422
 10
251.9936477471
 20
139.5046854143
 10
252.4874057698
 20
139.9870996819
 10
252.9077239817
 20
140.5681677987
 10
253.2498400094
 20
141.2413060306
 10
253.5098775418
 20
141.9988874525
 10
253.6848902496
 20
142.8323283643
 10
253.7728951689
 20
143.7321855473
 10
253.7728951689
 20
144.6882632602
 10
253.6848902496
 20
145.6897287603
 10
253.5098775418
 20
146.7252350434
 10
253.2498400094
 20
147.7830494096
 10
252.9077239817
 20
148.8511863994
 10
252.4874057698
 20
149.9175435939
 10
251.9936477471
 20
150.97003874
 10
251.4320443894
 20
151.9967466471
 10
250.8089588869
 20
152.9860343044
 10
250.1314510475
 20
153.9266926874
 10
249.4071973057
 20
154.8080637609
 10
248.6444037458
 20
155.6201612383
 10
247.8517131235
 20
156.3537837307
 10
247.0381069405
 20
157.0006190022
 10
246.2128036799
 20
157.5533381506
 10
245.3851543573
 20
158.0056786472
 10
244.5645365703
 20
158.3525152934
 10
243.7602482463
 20
158.5899182914
 10
242.9814022935
 20
158.7151977703
 10
242.2368233477
 20
158.7269342637
 10
241.5349477858
 20
158.6249947923
 10
240.8837281385
 20
158.4105343711
 10
240.2905429845
 20
158.0859829223
 10
239.7621133487
 20
157.6550177437
 10
239.3044265499
 20
157.1225218427
 10
238.9226683626
 20
156.4945286109
 10
238.6211642595
 20
155.7781534623
 10
238.4033304025
 20
154.9815132138
 10
238.2716349364
 20
154.1136341176
 10
238.2275700233
 20
153.1843495907
  0
LWPOLYLINE
  5
282
330
1F
100
AcDbEntity
  8
0
  6
Continuous
 62
     7
370
    30
100
AcDbPolyline
 90
       17
 70
   128
 43
0.0
 10
237.1669098515
 20
153.7966556746
 10
237.1938225009
 20
153.6248810125
 10
237.2704632421
 20
153.448184802
 10
237.3851642171
 20
153.2934674394
 10
237.5204632421
 20
153.1842832407
 10
237.6557622672
 20
153.1372545102
 10
237.7704632421
 20
153.159540946
 10
237.8471039833
 20
153.2477496402
 10
237.8740166327
 20
153.3884516187
 10
237.8471039833
 20
153.5602262807
 10
237.7704632421
 20
153.7369224912
 10
237.6557622672
 20
153.8916398538
 10
237.5204632421
 20
154.0008240526
 10
237.3851642171
 20
154.047852783
 10
237.2704632421
 20
154.0255663472
 10
237.1938225009
 20
153.9373576531
 10
237.1669098515
 20
153.7966556746
  0
LWPOLYLINE
  5
283
330
1F
100
AcDbEntity
  8
0
  6
Continuous
 62
     7
370
    30
100
AcDbPolyline
 90
       17
 70
   128
 43
0.0
 10
254.8445793812
 20
143.5915542768
 10
254.8176667318
 20
143.7633289388
 10
254.7410259906
 20
143.9400251493
 10
254.6263250156
 20
144.0947425119
 10
254.4910259906
 20
144.2039267107
 10
254.3557269656
 20
144.2509554411
 10
254.2410259906
 20
144.2286690054
 10
254.1643852494
 20
144.1404603112
 10
254.1374726
 20
143.9997583327
 10
254.1643852494
 20
143.8279836706
 10
254.2410259906
 20
143.6512874602
 10
254.3557269656
 20
143.4965700976
 10
254.4910259906
 20
143.3873858988
 10
254.6263250156
 20
143.3403571683
 10
254.7410259906
 20
143.3626436041
 10
254.8176667318
 20
143.4508522983
 10
254.8445793812
 20
143.5915542768
  0
LWPOLYLINE
  5
284
330
1F
100
AcDbEntity
  8
0
  6
Continuous
 62
     7
370
    30
100
AcDbPolyline
 90
       22
 70
   128
 43
0.0
 10
240.3488903669
 20
154.4089617584
 10
240.3929552799
 20
153.4288009658
 10
240.5246507461
 20
152.408869521
 10
240.742484603
 20
151.3607236546
 10
241.0439887061
 20
150.2962392783
 10
241.4257468935
 20
149.2274774254
 10
241.8834336922
 20
148.1665475947
 10
242.411863328
 20
147.1254705451
 10
243.005048482
 20
146.1160420956
 10
243.6562681294
 20
145.1496994738
 10
244.3581436913
 20
144.2373917279
 10
245.1027226371
 20
143.389455669
 10
245.8815685899
 20
142.6154987516
 10
246.6858569138
 20
141.9242902168
 10
247.5064747008
 20
141.3236617335
 10
248.3341240234
 20
140.8204186624
 10
249.1594272841
 20
140.4202629486
 10
249.9730334671
 20
140.1277285162
 10
250.7657240893
 20
139.9461298972
 10
251.5285176493
 20
139.8775246766
 10
252.2527713911
 20
139.9226901789
 10
252.4627414301
 20
139.9586689736
  0
ARC
  5
285
330
1F
100
AcDbEntity
  8
0
  6
Continuous
 62
     7
370
    30
100
AcDbCircle
 10
268.9772607785
 20
161.9581756654
 30
0.0
 40
4.610414422716111
100
AcDbArc
 50
2.6054784857
 51
57.39452166
  0
LINE
  5
286
330
1F
100
AcDbEntity
  8
0
  6
Continuous
 62
     7
370
    30
100
AcDbLine
 10
271.4615887391
 20
165.8419928255
 30
0.0
 11
272.5222489109
 21
166.4542989094
 31
0.0
  0
ARC
  5
287
330
1F
100
AcDbEntity
  8
0
  6
Continuous
 62
     7
370
    30
100
AcDbCircle
 10
270.0379209503
 20
162.5704817492
 30
0.0
 40
4.610414422715947
100
AcDbArc
 50
2.6054784857
 51
57.39452166
  0
LINE
  5
288
330
1F
100
AcDbEntity
  8
0
  6
Continuous
 62
     7
370
    30
100
AcDbLine
 10
274.6435692544
 20
162.780064306
 30
0.0
 11
273.5829090826
 21
162.1677582221
 31
0.0
  0
ARC
  5
289
330
1F
100
AcDbEntity
  8
0
  6
Continuous
 62
     7
370
    30
100
AcDbCircle
 10
272.1129033755
 20
117.9122941683
 30
0.0
 40
1.478933790082361
100
AcDbArc
 50
305.0133328767
 51
6.2988475167
  0
ARC
  5
28A
330
1F
100
AcDbEntity
  8
0
  6
Continuous
 62
     7
370
    30
100
AcDbCircle
 10
239.4701302023
 20
182.5763272983
 30
0.0
 40
1.508931707705481
100
AcDbArc
 50
54.3824225248
 51
114.3071190461
  0
LINE
  5
28B
330
1F
100
AcDbEntity
  8
0
  6
Continuous
 62
     7
370
    30
100
AcDbLine
 10
240.3488903669
 20
183.8029712856
 30
0.0
 11
271.4615887391
 21
165.8419928255
 31
0.0
  0
LINE
  5
28C
330
1F
100
AcDbEntity
  8
0
  6
Continuous
 62
     7
370
    30
100
AcDbLine
 10
273.5829090826
 20
162.1677582221
 30
0.0
 11
273.5829090826
 21
118.0745543803
 31
0.0
  0
LINE
  5
28D
330
1F
100
AcDbEntity
  8
0
  6
Continuous
 62
     7
370
    30
100
AcDbLine
 10
274.6435692544
 20
118.6868604642
 30
0.0
 11
274.6435692544
 21
162.780064306
 31
0.0
  0
LINE
  5
28E
330
1F
100
AcDbEntity
  8
0
  6
Continuous
 62
     7
370
    30
100
AcDbLine
 10
273.5829090826
 20
118.0745543803
 30
0.0
 11
274.6435692544
 21
118.6868604642
 31
0.0
  0
LINE
  5
28F
330
1F
100
AcDbEntity
  8
0
  6
Continuous
 62
     7
370
    30
100
AcDbLine
 10
241.4095505386
 20
184.4152773695
 30
0.0
 11
240.3488903669
 21
183.8029712856
 31
0.0
  0
LINE
  5
290
330
1F
100
AcDbEntity
  8
0
  6
Continuous
 62
     7
370
    30
100
AcDbLine
 10
272.5222489109
 20
166.4542989094
 30
0.0
 11
241.4095505386
 21
184.4152773695
 31
0.0
  0
LWPOLYLINE
  5
291
330
1F
100
AcDbEntity
  8
0
  6
Continuous
 62
     7
370
    30
100
AcDbPolyline
 90
       70
 70
   128
 43
0.0
 10
235.3991428986
 20
154.8171658143
 10
235.4430877197
 20
153.6780166146
 10
235.5745580424
 20
152.4975691534
 10
235.7924644623
 20
151.2856049902
 10
236.095001338
 20
150.0521668418
 10
236.4796617538
 20
148.8074753649
 10
236.9432582924
 20
147.5618444654
 10
237.4819494467
 20
146.325595833
 10
238.0912714523
 20
145.1089734133
 10
238.766175275
 20
143.9220585228
 10
239.5010684493
 20
142.7746863121
 10
240.2898614189
 20
141.6763642688
 10
241.1260179969
 20
140.636193435
 10
242.0026095264
 20
139.662792994
 10
242.9123722939
 20
138.7642288484
 10
243.8477677188
 20
137.9479467837
 10
244.8010448199
 20
137.2207107701
 10
245.7643044429
 20
136.5885469143
 10
246.7295647152
 20
136.056693525
 10
247.6888271862
 20
135.6295577071
 10
248.634143105
 20
135.3106788423
 10
249.5576792861
 20
135.1026992614
 10
250.4517830179
 20
135.0073423487
 10
251.3090454753
 20
135.0253982615
 10
252.1223631115
 20
135.156717383
 10
252.8849965206
 20
135.4002115615
 10
253.5906262818
 20
135.7538631276
 10
254.2334053249
 20
136.214741613
 10
254.8080073801
 20
136.7790280334
 10
255.3096711138
 20
137.4420465339
 10
255.7342395825
 20
138.1983031343
 10
256.078194678
 20
139.0415312542
 10
256.3386862801
 20
139.96474364
 10
256.5135558734
 20
140.960290263
 10
256.6013544333
 20
142.0199217104
 10
256.6013544333
 20
143.1348575422
 10
256.5135558734
 20
144.2958590492
 10
256.3386862801
 20
145.493305807
 10
256.078194678
 20
146.7172753948
 10
255.7342395825
 20
147.957625615
 10
255.3096711138
 20
149.2040785352
 10
254.8080073801
 20
150.4463056539
 10
254.2334053249
 20
151.6740134859
 10
253.5906262818
 20
152.8770288575
 10
252.8849965206
 20
154.0453832045
 10
252.1223631115
 20
155.1693951748
 10
251.3090454753
 20
156.2397508511
 10
250.4517830179
 20
157.2475809294
 10
249.5576792861
 20
158.184534212
 10
248.634143105
 20
159.0428468092
 10
247.6888271862
 20
159.8154064723
 10
246.7295647152
 20
160.4958115287
 10
245.7643044429
 20
161.0784239278
 10
244.8010448199
 20
161.5584159598
 10
243.8477677188
 20
161.9318102595
 10
242.9123722939
 20
162.1955127642
 10
242.0026095264
 20
162.3473383519
 10
241.1260179969
 20
162.3860289479
 10
240.2898614189
 20
162.3112639498
 10
239.5010684493
 20
162.1236628838
 10
238.766175275
 20
161.8247802716
 10
238.0912714523
 20
161.4170927486
 10
237.4819494467
 20
160.9039785419
 10
236.9432582924
 20
160.2896894775
 10
236.4796617538
 20
159.5793157481
 10
236.095001338
 20
158.778743734
 10
235.7924644623
 20
157.8946072272
 10
235.5745580424
 20
156.9342324611
 10
235.4430877197
 20
155.9055774036
 10
235.3991428986
 20
154.8171658143
  0
LWPOLYLINE
  5
292
330
1F
100
AcDbEntity
  8
0
  6
Continuous
 62
     7
370
    30
100
AcDbPolyline
 90
       65
 70
   128
 43
0.0
 10
236.9356859341
 20
153.9301384008
 10
236.9793607457
 20
152.8783165835
 10
237.1099645684
 20
151.786198521
 10
237.3262396158
 20
150.6643019074
 10
237.6261030411
 20
149.5234312203
 10
238.0066669956
 20
148.3745736681
 10
238.4642664402
 20
147.2287933771
 10
238.9944944423
 20
146.0971248378
 10
239.5922446164
 20
144.9904666369
 10
240.2517603013
 20
143.9194764977
 10
240.9666900007
 20
142.894468641
 10
241.7301485507
 20
141.9253144525
 10
242.5347834281
 20
141.0213474169
 10
243.3728455591
 20
140.191273231
 10
244.2362639473
 20
139.443085963
 10
245.1167234017
 20
138.7839910651
 10
246.0057446164
 20
138.2203359816
 10
246.894765831
 20
137.7575490191
 10
247.7752252854
 20
137.400087069
 10
248.6386436736
 20
137.1513926852
 10
249.4767058046
 20
137.0138609307
 10
250.281340682
 20
136.9888163114
 10
251.044799232
 20
137.0765000207
 10
251.7597289314
 20
137.2760676166
 10
252.4192446164
 20
137.5855971539
 10
253.0169947904
 20
138.0021076941
 10
253.5472227925
 20
138.521588013
 10
254.0048222371
 20
139.1390352311
 10
254.3853861916
 20
139.8485029942
 10
254.6852496169
 20
140.6431587398
 10
254.9015246643
 20
141.5153494988
 10
255.032128487
 20
142.4566755973
 10
255.0758032986
 20
143.4580715505
 10
255.032128487
 20
144.5098933679
 10
254.9015246643
 20
145.6020114303
 10
254.6852496169
 20
146.723908044
 10
254.3853861916
 20
147.8647787311
 10
254.0048222371
 20
149.0136362832
 10
253.5472227925
 20
150.1594165743
 10
253.0169947904
 20
151.2910851136
 10
252.4192446164
 20
152.3977433145
 10
251.7597289314
 20
153.4687334536
 10
251.044799232
 20
154.4937413104
 10
250.281340682
 20
155.4628954989
 10
249.4767058046
 20
156.3668625344
 10
248.6386436736
 20
157.1969367203
 10
247.7752252854
 20
157.9451239884
 10
246.894765831
 20
158.6042188862
 10
246.0057446164
 20
159.1678739697
 10
245.1167234017
 20
159.6306609323
 10
244.2362639473
 20
159.9881228824
 10
243.3728455591
 20
160.2368172662
 10
242.5347834281
 20
160.3743490207
 10
241.7301485507
 20
160.3993936399
 10
240.9666900007
 20
160.3117099306
 10
240.2517603013
 20
160.1121423348
 10
239.5922446164
 20
159.8026127974
 10
238.9944944423
 20
159.3861022572
 10
238.4642664402
 20
158.8666219383
 10
238.0066669956
 20
158.2491747202
 10
237.6261030411
 20
157.5397069572
 10
237.3262396158
 20
156.7450512115
 10
237.1099645684
 20
155.8728604526
 10
236.9793607457
 20
154.931534354
 10
236.9356859341
 20
153.9301384008
  0
LINE
  5
293
330
1F
100
AcDbEntity
  8
0
  6
Continuous
 62
     7
370
    30
100
AcDbLine
 10
244.3603071365
 20
158.2162809879
 30
0.0
 11
244.3620757509
 21
158.4220875178
 31
0.0
  0
ARC
  5
294
330
1F
100
AcDbEntity
  8
0
  6
Continuous
 62
     7
370
    30
100
AcDbCircle
 10
263.9105975962
 20
159.0418009509
 30
0.0
 40
19.56771167683748
100
AcDbArc
 50
182.417904165
 51
238.2300431673
  0
ARC
  5
295
330
1F
100
AcDbEntity
  8
0
  6
Continuous
 62
     7
370
    30
100
AcDbCircle
 10
266.876060206
 20
160.7422817129
 30
0.0
 40
22.91350883266502
100
AcDbArc
 50
199.8566259471
 51
220.1379975201
  0
ARC
  5
296
330
1F
100
AcDbEntity
  8
0
  6
Continuous
 62
     7
370
    30
100
AcDbCircle
 10
263.2764583715
 20
158.6638405471
 30
0.0
 40
17.64174719283462
100
AcDbArc
 50
182.5507858478
 51
237.4162744725
  0
ARC
  5
297
330
1F
100
AcDbEntity
  8
0
  6
Continuous
 62
     7
370
    30
100
AcDbCircle
 10
259.491820502
 20
156.4823513367
 30
0.0
 40
3.842012018929983
100
AcDbArc
 50
2.6054784857
 51
57.39452166
  0
ARC
  5
298
330
1F
100
AcDbEntity
  8
0
  6
Continuous
 62
     7
370
    30
100
AcDbCircle
 10
262.3297018531
 20
159.6839352107
 30
0.0
 40
0.768402403786206
100
AcDbArc
 50
122.60547834
 51
177.3945215143
  0
ARC
  5
299
330
1F
100
AcDbEntity
  8
0
  6
Continuous
 62
     7
370
    30
100
AcDbCircle
 10
259.4313192325
 20
156.4474209106
 30
0.0
 40
4.610414422716517
100
AcDbArc
 50
2.6054784857
 51
57.39452166
  0
ARC
  5
29A
330
1F
100
AcDbEntity
  8
0
  6
Continuous
 62
     7
370
    30
100
AcDbCircle
 10
263.683414146
 20
157.3393590098
 30
0.0
 40
0.7685109539561651
100
AcDbArc
 50
242.6096722366
 51
297.3903277634
  0
LINE
  5
29B
330
1F
100
AcDbEntity
  8
0
  6
Continuous
 62
     7
370
    30
100
AcDbLine
 10
273.5829090826
 20
162.1677582221
 30
0.0
 11
264.0369675366
 21
156.6570034673
 31
0.0
  0
LINE
  5
29C
330
1F
100
AcDbEntity
  8
0
  6
Continuous
 62
     7
370
    30
100
AcDbLine
 10
261.9156471931
 20
160.3312380707
 30
0.0
 11
271.4615887391
 21
165.8419928255
 31
0.0
  0
LWPOLYLINE
  5
29D
330
1F
100
AcDbEntity
  8
0
  6
Continuous
 62
     7
370
    30
100
AcDbPolyline
 90
       24
 70
   128
 43
0.0
 10
229.2826692413
 20
176.3120287595
 10
229.3259346133
 20
175.9235570688
 10
229.4525219346
 20
175.5139434111
 10
229.6530428027
 20
175.1135669574
 10
229.9126255021
 20
174.7521217977
 10
230.2120179715
 20
174.4564146661
 10
230.5290156411
 20
174.2483768076
 10
230.8401082439
 20
174.1434374386
 10
231.1222234647
 20
174.149379432
 10
231.3544381082
 20
174.2657620973
 10
231.5195298765
 20
174.4839538647
 10
231.6052546685
 20
174.7877724488
 10
231.6052546685
 20
175.1546850153
 10
231.5195298765
 20
175.5574793375
 10
231.3544381082
 20
175.9662820033
 10
231.1222234647
 20
176.3507739891
 10
230.8401082439
 20
176.6824392832
 10
230.5290156411
 20
176.936679788
 10
230.2120179715
 20
177.0946396484
 10
229.9126255021
 20
177.1446037042
 10
229.6530428027
 20
177.0828663498
 10
229.4525219346
 20
176.9140063624
 10
229.3259346133
 20
176.6505473149
 10
229.2826692413
 20
176.3120287595
  0
LWPOLYLINE
  5
29E
330
1F
100
AcDbEntity
  8
0
  6
Continuous
 62
     7
370
    30
100
AcDbPolyline
 90
       24
 70
   128
 43
0.0
 10
260.3953676135
 20
158.3510502994
 10
260.4386329855
 20
157.9625786087
 10
260.5652203068
 20
157.552964951
 10
260.7657411749
 20
157.1525884973
 10
261.0253238743
 20
156.7911433376
 10
261.3247163437
 20
156.495436206
 10
261.6417140133
 20
156.2873983475
 10
261.9528066161
 20
156.1824589785
 10
262.2349218369
 20
156.1884009719
 10
262.4671364804
 20
156.3047836372
 10
262.6322282487
 20
156.5229754046
 10
262.7179530407
 20
156.8267939887
 10
262.7179530407
 20
157.1937065552
 10
262.6322282487
 20
157.5965008774
 10
262.4671364804
 20
158.0053035432
 10
262.2349218369
 20
158.389795529
 10
261.9528066161
 20
158.7214608231
 10
261.6417140133
 20
158.9757013279
 10
261.3247163437
 20
159.1336611883
 10
261.0253238743
 20
159.1836252441
 10
260.7657411749
 20
159.1218878897
 10
260.5652203068
 20
158.9530279023
 10
260.4386329855
 20
158.6895688548
 10
260.3953676135
 20
158.3510502994
  0
LWPOLYLINE
  5
29F
330
1F
100
AcDbEntity
  8
0
  6
Continuous
 62
     7
370
    30
100
AcDbPolyline
 90
       24
 70
   128
 43
0.0
 10
260.3953676135
 20
114.2578464575
 10
260.4386329855
 20
113.8693747669
 10
260.5652203068
 20
113.4597611091
 10
260.7657411749
 20
113.0593846555
 10
261.0253238743
 20
112.6979394958
 10
261.3247163437
 20
112.4022323642
 10
261.6417140133
 20
112.1941945057
 10
261.9528066161
 20
112.0892551367
 10
262.2349218369
 20
112.0951971301
 10
262.4671364804
 20
112.2115797954
 10
262.6322282487
 20
112.4297715627
 10
262.7179530407
 20
112.7335901469
 10
262.7179530407
 20
113.1005027134
 10
262.6322282487
 20
113.5032970356
 10
262.4671364804
 20
113.9120997014
 10
262.2349218369
 20
114.2965916872
 10
261.9528066161
 20
114.6282569813
 10
261.6417140133
 20
114.8824974861
 10
261.3247163437
 20
115.0404573465
 10
261.0253238743
 20
115.0904214022
 10
260.7657411749
 20
115.0286840478
 10
260.5652203068
 20
114.8598240605
 10
260.4386329855
 20
114.5963650129
 10
260.3953676135
 20
114.2578464575
  0
LWPOLYLINE
  5
2A0
330
1F
100
AcDbEntity
  8
0
  6
Continuous
 62
     7
370
    30
100
AcDbPolyline
 90
       24
 70
   128
 43
0.0
 10
229.2826692413
 20
132.2188249176
 10
229.3259346133
 20
131.830353227
 10
229.4525219346
 20
131.4207395692
 10
229.6530428027
 20
131.0203631156
 10
229.9126255021
 20
130.6589179559
 10
230.2120179715
 20
130.3632108243
 10
230.5290156411
 20
130.1551729658
 10
230.8401082439
 20
130.0502335968
 10
231.1222234647
 20
130.0561755902
 10
231.3544381082
 20
130.1725582555
 10
231.5195298765
 20
130.3907500228
 10
231.6052546685
 20
130.694568607
 10
231.6052546685
 20
131.0614811735
 10
231.5195298765
 20
131.4642754957
 10
231.3544381082
 20
131.8730781615
 10
231.1222234647
 20
132.2575701473
 10
230.8401082439
 20
132.5892354414
 10
230.5290156411
 20
132.8434759462
 10
230.2120179715
 20
133.0014358066
 10
229.9126255021
 20
133.0513998623
 10
229.6530428027
 20
132.9896625079
 10
229.4525219346
 20
132.8208025206
 10
229.3259346133
 20
132.557343473
 10
229.2826692413
 20
132.2188249176
  0
LWPOLYLINE
  5
2A1
330
1F
100
AcDbEntity
  8
0
  6
Continuous
 62
     7
370
    30
100
AcDbPolyline
 90
       71
 70
   128
 43
0.0
 10
235.1516555251
 20
154.9600372339
 10
235.1953508968
 20
156.0583426978
 10
235.3260852022
 20
157.0973556496
 10
235.5428058457
 20
158.068710568
 10
235.8437679201
 20
158.9645866743
 10
236.2265482557
 20
159.777770901
 10
236.6880649304
 20
160.5017159667
 10
237.2246020831
 20
161.1305930915
 10
237.8318398323
 20
161.6593389265
 10
238.5048890566
 20
162.0836963212
 10
239.2383307595
 20
162.4002485993
 10
240.0262596996
 20
162.6064470681
 10
240.8623319363
 20
162.7006315386
 10
241.7398159077
 20
162.682043693
 10
242.6516466287
 20
162.5508331895
 10
243.5904825745
 20
162.3080564582
 10
244.5487647902
 20
161.9556681943
 10
245.5187777507
 20
161.4965056211
 10
246.492711482
 20
160.9342656456
 10
247.4627244425
 20
160.2734750935
 10
248.4210066582
 20
159.5194542617
 10
249.359842604
 20
158.6782740827
 10
250.271673325
 20
157.7567072447
 10
251.1491572964
 20
156.7621736619
 10
251.9852295331
 20
155.702680734
 10
252.7731584732
 20
154.586758875
 10
253.5066001761
 20
153.4233928317
 10
254.1796494004
 20
152.2219493433
 10
254.7868871496
 20
150.9921017265
 10
255.3234243024
 20
149.743751991
 10
255.784940977
 20
148.4869511149
 10
256.1677213126
 20
147.2318181199
 10
256.468683387
 20
145.9884585988
 10
256.6854040305
 20
144.7668833515
 10
256.8161383359
 20
143.5769277835
 10
256.8598337076
 20
142.4281727174
 10
256.8161383359
 20
141.3298672536
 10
256.6854040305
 20
140.2908543018
 10
256.468683387
 20
139.3194993834
 10
256.1677213126
 20
138.423623277
 10
255.784940977
 20
137.6104390504
 10
255.3234243024
 20
136.8864939846
 10
254.7868871496
 20
136.2576168598
 10
254.1796494004
 20
135.7288710248
 10
253.5066001761
 20
135.3045136301
 10
252.7731584732
 20
134.987961352
 10
251.9852295331
 20
134.7817628833
 10
251.1491572964
 20
134.6875784128
 10
250.271673325
 20
134.7061662584
 10
249.359842604
 20
134.8373767618
 10
248.4210066582
 20
135.0801534932
 10
247.4627244425
 20
135.432541757
 10
246.492711482
 20
135.8917043302
 10
245.5187777507
 20
136.4539443057
 10
244.5487647902
 20
137.1147348579
 10
243.5904825745
 20
137.8687556896
 10
242.6516466287
 20
138.7099358686
 10
241.7398159077
 20
139.6315027067
 10
240.8623319363
 20
140.6260362895
 10
240.0262596996
 20
141.6855292174
 10
239.2383307595
 20
142.8014510763
 10
238.5048890566
 20
143.9648171197
 10
237.8318398323
 20
145.166260608
 10
237.2246020831
 20
146.3961082249
 10
236.6880649304
 20
147.6444579604
 10
236.2265482557
 20
148.9012588365
 10
235.8437679201
 20
150.1563918315
 10
235.5428058457
 20
151.3997513525
 10
235.3260852022
 20
152.6213265999
 10
235.1953508968
 20
153.8112821678
 10
235.1516555251
 20
154.9600372339
  0
LINE
  5
2A2
330
1F
100
AcDbEntity
  8
0
  6
Continuous
 62
     7
370
    30
100
AcDbLine
 10
263.3298607554
 20
112.5637996255
 30
0.0
 11
263.3298607554
 21
156.6570034673
 31
0.0
  0
ARC
  5
2A3
330
1F
100
AcDbEntity
  8
0
  6
Continuous
 62
     7
370
    30
100
AcDbCircle
 10
262.2521748369
 20
112.3889816333
 30
0.0
 40
1.091772993571167
100
AcDbArc
 50
230.7967147643
 51
9.2140369905
  0
LINE
  5
2A4
330
1F
100
AcDbEntity
  8
0
  6
Continuous
 62
     7
370
    30
100
AcDbLine
 10
230.4493954303
 20
129.5039361957
 30
0.0
 11
261.5620938025
 21
111.5429577356
 31
0.0
  0
ARC
  5
2A5
330
1F
100
AcDbEntity
  8
0
  6
Continuous
 62
     7
370
    30
100
AcDbCircle
 10
232.5196687307
 20
132.7404504958
 30
0.0
 40
3.842012018929966
100
AcDbArc
 50
182.6054784857
 51
237.39452166
  0
LINE
  5
2A6
330
1F
100
AcDbEntity
  8
0
  6
Continuous
 62
     7
370
    30
100
AcDbLine
 10
228.6816284773
 20
176.659002207
 30
0.0
 11
228.6816284773
 21
132.5657983652
 31
0.0
  0
ARC
  5
2A7
330
1F
100
AcDbEntity
  8
0
  6
Continuous
 62
     7
370
    30
100
AcDbCircle
 10
229.7593143959
 20
176.8338201992
 30
0.0
 40
1.091772993571171
100
AcDbArc
 50
50.7967147643
 51
189.2140369905
  0
LINE
  5
2A8
330
1F
100
AcDbEntity
  8
0
  6
Continuous
 62
     7
370
    30
100
AcDbLine
 10
261.5620938025
 20
159.7188656368
 30
0.0
 11
230.4493954303
 21
177.6798440969
 31
0.0
  0
LINE
  5
2A9
330
1F
100
AcDbEntity
  8
0
  6
Continuous
 62
     7
370
    30
100
AcDbLine
 10
264.0369675366
 20
156.6570034673
 30
0.0
 11
264.0369675366
 21
112.5637996255
 31
0.0
  0
ARC
  5
2AA
330
1F
100
AcDbEntity
  8
0
  6
Continuous
 62
     7
370
    30
100
AcDbCircle
 10
263.683414146
 20
113.246155168
 30
0.0
 40
0.7685109539560001
100
AcDbArc
 50
242.6096722366
 51
297.3903277634
  0
ARC
  5
2AB
330
1F
100
AcDbEntity
  8
0
  6
Continuous
 62
     7
370
    30
100
AcDbCircle
 10
231.2170034809
 20
177.6449136708
 30
0.0
 40
0.7684024037861226
100
AcDbArc
 50
122.60547834
 51
177.3945215143
  0
LINE
  5
2AC
330
1F
100
AcDbEntity
  8
0
  6
Continuous
 62
     7
370
    30
100
AcDbLine
 10
230.8029488208
 20
178.2922165308
 30
0.0
 11
261.9156471931
 21
160.3312380707
 31
0.0
  0
LINE
  5
2AD
330
1F
100
AcDbEntity
  8
0
  6
Continuous
 62
     7
370
    30
100
AcDbLine
 10
264.0369675366
 20
112.5637996255
 30
0.0
 11
273.5829090826
 21
118.0745543803
 31
0.0
  0
LWPOLYLINE
  5
2AE
330
1F
100
AcDbEntity
  8
0
  6
Continuous
 62
     7
370
    30
100
AcDbPolyline
 90
       24
 70
   128
 43
0.0
 10
266.052221863
 20
139.8564871652
 10
266.095487235
 20
139.5179686098
 10
266.2220745563
 20
139.2545095622
 10
266.4225954244
 20
139.0856495749
 10
266.6821781238
 20
139.0239122205
 10
266.9815705932
 20
139.0738762762
 10
267.2985682628
 20
139.2318361366
 10
267.6096608656
 20
139.4860766414
 10
267.8917760864
 20
139.8177419355
 10
268.1239907299
 20
140.2022339213
 10
268.2890824982
 20
140.6110365871
 10
268.3748072902
 20
141.0138309094
 10
268.3748072902
 20
141.3807434758
 10
268.2890824982
 20
141.68456206
 10
268.1239907299
 20
141.9027538273
 10
267.8917760864
 20
142.0191364926
 10
267.6096608656
 20
142.025078486
 10
267.2985682628
 20
141.920139117
 10
266.9815705932
 20
141.7121012586
 10
266.6821781238
 20
141.4163941269
 10
266.4225954244
 20
141.0549489673
 10
266.2220745563
 20
140.6545725136
 10
266.095487235
 20
140.2449588558
 10
266.052221863
 20
139.8564871652
  0
LINE
  5
2AF
330
1F
100
AcDbEntity
  8
0
  6
Continuous
 62
     7
370
    30
100
AcDbLine
 10
240.3488903669
 20
183.8029712856
 30
0.0
 11
230.8029488208
 21
178.2922165308
 31
0.0
  0
LWPOLYLINE
  5
2B0
330
1F
100
AcDbEntity
  8
0
  6
Continuous
 62
     7
370
    30
100
AcDbPolyline
 90
       37
 70
   128
 43
0.0
 10
235.2930768814
 20
154.9600372339
 10
235.3364875926
 20
153.8187659142
 10
235.4663702088
 20
152.6365624998
 10
235.6816789914
 20
151.4229453974
 10
235.9806804008
 20
150.1876859383
 10
236.3609670535
 20
148.9407297055
 10
236.8194771048
 20
147.6921164573
 10
237.3525189015
 20
146.4518992933
 10
237.9558007045
 20
145.2300637131
 10
238.6244652433
 20
144.0364472181
 10
239.3531288243
 20
142.8806601067
 10
240.1359246768
 20
141.772008097
 10
240.9665501889
 20
140.7194174031
 10
241.8383176523
 20
139.7313628665
 10
242.7442081081
 20
138.8157997212
 10
243.6769278588
 20
137.9800995433
 10
244.6289671935
 20
137.2309908994
 10
245.5926608514
 20
136.5745051717
 10
246.5602497376
 20
136.0159279973
 10
247.5239433954
 20
135.5597567113
 10
248.4759827302
 20
135.2096641365
 10
249.4087024809
 20
134.9684690124
 10
250.3145929366
 20
134.8381133006
 10
251.1863604
 20
134.8196465484
 10
252.0169859121
 20
134.9132174393
 10
252.7997817646
 20
135.1180725956
 10
253.5284453457
 20
135.4325626439
 10
254.1971098845
 20
135.8541554952
 10
254.8003916874
 20
136.379456732
 10
255.3334334842
 20
137.0042369374
 10
255.7919435355
 20
137.7234657486
 10
256.1722301881
 20
138.5313523582
 10
256.4712315975
 20
139.4213921381
 10
256.6865403802
 20
140.3864190114
 10
256.8164229963
 20
141.4186631492
 10
256.8598337076
 20
142.5098135286
 10
256.8598337076
 20
142.5098135286
  0
LWPOLYLINE
  5
2B1
330
1F
100
AcDbEntity
  8
0
  6
Continuous
 62
     7
370
    30
100
AcDbPolyline
 90
       19
 70
   128
 43
0.0
 10
246.0782078967
 20
161.1861608423
 10
245.5926608514
 20
161.4539227652
 10
244.6289671935
 20
161.9100940513
 10
243.6769278588
 20
162.2601866261
 10
242.7442081081
 20
162.5013817501
 10
241.8383176523
 20
162.6317374619
 10
240.9665501889
 20
162.6502042141
 10
240.1359246768
 20
162.5566333232
 10
239.3531288243
 20
162.351778167
 10
238.6244652433
 20
162.0372881187
 10
237.9558007045
 20
161.6156952673
 10
237.3525189015
 20
161.0903940305
 10
236.8194771048
 20
160.4656138251
 10
236.3609670535
 20
159.7463850139
 10
235.9806804008
 20
158.9384984044
 10
235.6816789914
 20
158.0484586244
 10
235.4663702088
 20
157.0834317511
 10
235.3364875926
 20
156.0511876133
 10
235.2930768814
 20
154.9600372339
  0
ARC
  5
2B2
330
1F
100
AcDbEntity
  8
0
  6
Continuous
 62
     7
370
    30
100
AcDbCircle
 10
251.5115492376
 20
140.5656464664
 30
0.0
 40
5.460054450185757
100
AcDbArc
 50
274.9954503995
 51
296.4588850162
  0
ARC
  5
2B3
330
1F
100
AcDbEntity
  8
0
  6
Continuous
 62
     7
370
    30
100
AcDbCircle
 10
241.7259968282
 20
157.5207757646
 30
0.0
 40
5.468461693776275
100
AcDbArc
 50
123.5524326827
 51
144.9824788365
  0
ARC
  5
2B4
330
1F
100
AcDbEntity
  8
0
  6
Continuous
 62
     7
370
    30
100
AcDbCircle
 10
272.1558524148
 20
117.8928622946
 30
0.0
 40
1.438576639335169
100
AcDbArc
 50
304.0563508338
 51
7.2558295596
  0
ARC
  5
2B5
330
1F
100
AcDbEntity
  8
0
  6
Continuous
 62
     8
370
    30
100
AcDbCircle
 10
241.8053863517
 20
157.6756528785
 30
0.0
 40
5.373431032665032
100
AcDbArc
 50
124.3052194713
 51
141.7150489807
  0
ARC
  5
2B6
330
1F
100
AcDbEntity
  8
0
  6
Continuous
 62
     8
370
    30
100
AcDbCircle
 10
251.6792533881
 20
140.5776159057
 30
0.0
 40
5.38628333617692
100
AcDbArc
 50
278.3005061539
 51
295.6684723288
  0
ARC
  5
2B7
330
1F
100
AcDbEntity
  8
0
  6
Continuous
 62
     8
370
    30
100
AcDbCircle
 10
274.5397734886
 20
163.0091358828
 30
0.0
 40
0.251490254931963
100
AcDbArc
 50
294.3759929085
 51
354.2898884754
  0
ARC
  5
2B8
330
1F
100
AcDbEntity
  8
0
  6
Continuous
 62
     8
370
    30
100
AcDbCircle
 10
272.668749957
 20
166.2497440309
 30
0.0
 40
0.2516053553200251
100
AcDbArc
 50
65.7795470094
 51
125.6100239712
  0
ARC
  5
2B9
330
1F
100
AcDbEntity
  8
0
  6
Continuous
 62
     8
370
    30
100
AcDbCircle
 10
274.5397873326
 20
118.9159156806
 30
0.0
 40
0.2514696392468237
100
AcDbArc
 50
294.3746582936
 51
354.3052007488
  0
ARC
  5
2BA
330
1F
100
AcDbEntity
  8
0
  6
Continuous
 62
     8
370
    30
100
AcDbCircle
 10
241.5560105661
 20
184.2108367049
 30
0.0
 40
0.2514886179508792
100
AcDbArc
 50
65.6928809539
 51
125.6175774752
  0
ARC
  5
2BB
330
1F
100
AcDbEntity
  8
0
  6
Continuous
 62
     8
370
    30
100
AcDbCircle
 10
240.5307903741
 20
183.1886333821
 30
0.0
 40
1.508931707705441
100
AcDbArc
 50
54.3824225248
 51
114.3071190461
  0
ARC
  5
2BC
330
1F
100
AcDbEntity
  8
0
  6
Continuous
 62
     8
370
    30
100
AcDbCircle
 10
273.1735635473
 20
118.5246002521
 30
0.0
 40
1.47893379002687
100
AcDbArc
 50
305.0133328754
 51
6.298847518
  0
ARC
  5
2BD
330
1F
100
AcDbEntity
  8
0
  6
Continuous
 62
     8
370
    30
100
AcDbCircle
 10
228.7854246643
 20
176.8880742815
 30
0.0
 40
0.2514908820726017
100
AcDbArc
 50
185.710577247
 51
245.623966495
  0
ARC
  5
2BE
330
1F
100
AcDbEntity
  8
0
  6
Continuous
 62
     8
370
    30
100
AcDbCircle
 10
229.9277003737
 20
177.1005974801
 30
0.0
 40
1.47851811159943
100
AcDbArc
 50
53.7025849477
 51
115.0092910028
  0
ARC
  5
2BF
330
1F
100
AcDbEntity
  8
0
  6
Continuous
 62
     8
370
    30
100
AcDbCircle
 10
228.7854103991
 20
132.7948535816
 30
0.0
 40
0.2514696392469378
100
AcDbArc
 50
185.6947992512
 51
245.6253417064
  0
ARC
  5
2C0
330
1F
100
AcDbEntity
  8
0
  6
Continuous
 62
     8
370
    30
100
AcDbCircle
 10
262.534843106
 20
112.4160162685
 30
0.0
 40
1.509376601708653
100
AcDbArc
 50
305.715666381
 51
5.6188428542
  0
ARC
  5
2C1
330
1F
100
AcDbEntity
  8
0
  6
Continuous
 62
     8
370
    30
100
AcDbCircle
 10
261.812435466
 20
111.5183249345
 30
0.0
 40
0.2515506378213466
100
AcDbArc
 50
174.3803723177
 51
234.2933395212
  0
ARC
  5
2C2
330
1F
100
AcDbEntity
  8
0
  6
Continuous
 62
     8
370
    30
100
AcDbCircle
 10
230.6943963814
 20
129.476892827
 30
0.0
 40
0.2464889649765699
100
AcDbArc
 50
173.7011524782
 51
234.9866671284
  0
LINE
  5
2C3
330
1F
100
AcDbEntity
  8
0
  6
Continuous
 62
     7
370
    30
100
AcDbLine
 10
60.2493674485
 20
25.4446289189
 30
0.0
 11
60.2493674485
 21
40.4446289189
 31
0.0
  0
LINE
  5
2C4
330
1F
100
AcDbEntity
  8
0
  6
Continuous
 62
     7
370
    30
100
AcDbLine
 10
45.2493674485
 20
40.4446289189
 30
0.0
 11
45.2493674485
 21
25.4446289189
 31
0.0
  0
LINE
  5
2C5
330
1F
100
AcDbEntity
  8
0
  6
Continuous
 62
     7
370
    30
100
AcDbLine
 10
45.3493674485
 20
25.4446289189
 30
0.0
 11
45.3493674485
 21
23.9446289189
 31
0.0
  0
LINE
  5
2C6
330
1F
100
AcDbEntity
  8
0
  6
Continuous
 62
     7
370
    30
100
AcDbLine
 10
60.1493674485
 20
23.9446289189
 30
0.0
 11
60.1493674485
 21
25.4446289189
 31
0.0
  0
LINE
  5
2C7
330
1F
100
AcDbEntity
  8
0
  6
Continuous
 62
     7
370
    30
100
AcDbLine
 10
51.5284554423
 20
23.9246289189
 30
0.0
 11
51.5284554423
 21
23.9446289189
 31
0.0
  0
LINE
  5
2C8
330
1F
100
AcDbEntity
  8
0
  6
Continuous
 62
     7
370
    30
100
AcDbLine
 10
55.6373019604
 20
23.9446289189
 30
0.0
 11
55.6373019604
 21
23.9246289189
 31
0.0
  0
LINE
  5
2C9
330
1F
100
AcDbEntity
  8
0
  6
Continuous
 62
     7
370
    30
100
AcDbLine
 10
57.4373019604
 20
23.9246289189
 30
0.0
 11
57.4373019604
 21
23.9446289189
 31
0.0
  0
LINE
  5
2CA
330
1F
100
AcDbEntity
  8
0
  6
Continuous
 62
     7
370
    30
100
AcDbLine
 10
49.7493674485
 20
23.9246289189
 30
0.0
 11
49.7493674485
 21
23.7446289189
 31
0.0
  0
LINE
  5
2CB
330
1F
100
AcDbEntity
  8
0
  6
Continuous
 62
     7
370
    30
100
AcDbLine
 10
55.7493674485
 20
23.7446289189
 30
0.0
 11
55.7493674485
 21
23.9246289189
 31
0.0
  0
LINE
  5
2CC
330
1F
100
AcDbEntity
  8
0
  6
Continuous
 62
     7
370
    30
100
AcDbLine
 10
45.9405209305
 20
23.9446289189
 30
0.0
 11
45.9405209305
 21
23.9246289189
 31
0.0
  0
LINE
  5
2CD
330
1F
100
AcDbEntity
  8
0
  6
Continuous
 62
     7
370
    30
100
AcDbLine
 10
47.7405209305
 20
23.9246289189
 30
0.0
 11
47.7405209305
 21
23.9446289189
 31
0.0
  0
LINE
  5
2CE
330
1F
100
AcDbEntity
  8
0
  6
Continuous
 62
     7
370
    30
100
AcDbLine
 10
51.9993674485
 20
23.7446289189
 30
0.0
 11
51.9993674485
 21
22.7446289189
 31
0.0
  0
LINE
  5
2CF
330
1F
100
AcDbEntity
  8
0
  6
Continuous
 62
     7
370
    30
100
AcDbLine
 10
53.4993674485
 20
22.7446289189
 30
0.0
 11
53.4993674485
 21
23.7446289189
 31
0.0
  0
LINE
  5
2D0
330
1F
100
AcDbEntity
  8
0
  6
Continuous
 62
     7
370
    30
100
AcDbLine
 10
57.7582139666
 20
23.9446289189
 30
0.0
 11
57.7582139666
 21
23.9246289189
 31
0.0
  0
LINE
  5
2D1
330
1F
100
AcDbEntity
  8
0
  6
Continuous
 62
     7
370
    30
100
AcDbLine
 10
59.5582139666
 20
23.9246289189
 30
0.0
 11
59.5582139666
 21
23.9446289189
 31
0.0
  0
LINE
  5
2D2
330
1F
100
AcDbEntity
  8
0
  6
Continuous
 62
     7
370
    30
100
AcDbLine
 10
60.2493674485
 20
40.4446289189
 30
0.0
 11
60.2493674485
 21
58.3446289189
 31
0.0
  0
LINE
  5
2D3
330
1F
100
AcDbEntity
  8
0
  6
Continuous
 62
     7
370
    30
100
AcDbLine
 10
45.2493674485
 20
58.3446289189
 30
0.0
 11
45.2493674485
 21
40.4446289189
 31
0.0
  0
LINE
  5
2D4
330
1F
100
AcDbEntity
  8
0
  6
Continuous
 62
     7
370
    30
100
AcDbLine
 10
45.2493674485
 20
25.4446289189
 30
0.0
 11
60.2493674485
 21
25.4446289189
 31
0.0
  0
LINE
  5
2D5
330
1F
100
AcDbEntity
  8
0
  6
Continuous
 62
     7
370
    30
100
AcDbLine
 10
45.2493674485
 20
40.4446289189
 30
0.0
 11
60.2493674485
 21
40.4446289189
 31
0.0
  0
LINE
  5
2D6
330
1F
100
AcDbEntity
  8
0
  6
Continuous
 62
     7
370
    30
100
AcDbLine
 10
52.7493674485
 20
23.9446289189
 30
0.0
 11
45.3493674485
 21
23.9446289189
 31
0.0
  0
LINE
  5
2D7
330
1F
100
AcDbEntity
  8
0
  6
Continuous
 62
     7
370
    30
100
AcDbLine
 10
60.1493674485
 20
23.9446289189
 30
0.0
 11
52.7493674485
 21
23.9446289189
 31
0.0
  0
LINE
  5
2D8
330
1F
100
AcDbEntity
  8
0
  6
Continuous
 62
     7
370
    30
100
AcDbLine
 10
49.7421284646
 20
23.9246289189
 30
0.0
 11
49.7421284646
 21
23.9446289189
 31
0.0
  0
LINE
  5
2D9
330
1F
100
AcDbEntity
  8
0
  6
Continuous
 62
     7
370
    30
100
AcDbLine
 10
51.5284554423
 20
23.9246289189
 30
0.0
 11
49.7421284646
 21
23.9246289189
 31
0.0
  0
LINE
  5
2DA
330
1F
100
AcDbEntity
  8
0
  6
Continuous
 62
     7
370
    30
100
AcDbLine
 10
48.7696986697
 20
23.9246289189
 30
0.0
 11
48.7696986697
 21
23.9446289189
 31
0.0
  0
LINE
  5
2DB
330
1F
100
AcDbEntity
  8
0
  6
Continuous
 62
     7
370
    30
100
AcDbLine
 10
49.7421284646
 20
23.9246289189
 30
0.0
 11
48.7696986697
 21
23.9246289189
 31
0.0
  0
LINE
  5
2DC
330
1F
100
AcDbEntity
  8
0
  6
Continuous
 62
     7
370
    30
100
AcDbLine
 10
57.4373019604
 20
23.9246289189
 30
0.0
 11
55.6373019604
 21
23.9246289189
 31
0.0
  0
LINE
  5
2DD
330
1F
100
AcDbEntity
  8
0
  6
Continuous
 62
     7
370
    30
100
AcDbLine
 10
52.7493674485
 20
23.7446289189
 30
0.0
 11
49.7493674485
 21
23.7446289189
 31
0.0
  0
LINE
  5
2DE
330
1F
100
AcDbEntity
  8
0
  6
Continuous
 62
     7
370
    30
100
AcDbLine
 10
55.7493674485
 20
23.7446289189
 30
0.0
 11
52.7493674485
 21
23.7446289189
 31
0.0
  0
LINE
  5
2DF
330
1F
100
AcDbEntity
  8
0
  6
Continuous
 62
     7
370
    30
100
AcDbLine
 10
47.7405209305
 20
23.9246289189
 30
0.0
 11
45.9405209305
 21
23.9246289189
 31
0.0
  0
LINE
  5
2E0
330
1F
100
AcDbEntity
  8
0
  6
Continuous
 62
     7
370
    30
100
AcDbLine
 10
52.7493674485
 20
22.7446289189
 30
0.0
 11
51.9993674485
 21
22.7446289189
 31
0.0
  0
LINE
  5
2E1
330
1F
100
AcDbEntity
  8
0
  6
Continuous
 62
     7
370
    30
100
AcDbLine
 10
53.4993674485
 20
22.7446289189
 30
0.0
 11
52.7493674485
 21
22.7446289189
 31
0.0
  0
LINE
  5
2E2
330
1F
100
AcDbEntity
  8
0
  6
Continuous
 62
     7
370
    30
100
AcDbLine
 10
48.1889117407
 20
23.9246289189
 30
0.0
 11
48.1889117407
 21
23.9446289189
 31
0.0
  0
LINE
  5
2E3
330
1F
100
AcDbEntity
  8
0
  6
Continuous
 62
     7
370
    30
100
AcDbLine
 10
48.1889117407
 20
23.9246289189
 30
0.0
 11
47.7405209305
 21
23.9246289189
 31
0.0
  0
LINE
  5
2E4
330
1F
100
AcDbEntity
  8
0
  6
Continuous
 62
     7
370
    30
100
AcDbLine
 10
59.5582139666
 20
23.9246289189
 30
0.0
 11
57.7582139666
 21
23.9246289189
 31
0.0
  0
LINE
  5
2E5
330
1F
100
AcDbEntity
  8
0
  6
Continuous
 62
     7
370
    30
100
AcDbLine
 10
57.7582139666
 20
23.9246289189
 30
0.0
 11
57.4373019604
 21
23.9246289189
 31
0.0
  0
LINE
  5
2E6
330
1F
100
AcDbEntity
  8
0
  6
Continuous
 62
     7
370
    30
100
AcDbLine
 10
48.7696986697
 20
23.9246289189
 30
0.0
 11
48.1889117407
 21
23.9246289189
 31
0.0
  0
LINE
  5
2E7
330
1F
100
AcDbEntity
  8
0
  6
Continuous
 62
     7
370
    30
100
AcDbLine
 10
46.8541230686
 20
60.3446289189
 30
0.0
 11
46.8541230686
 21
58.8446289189
 31
0.0
  0
LINE
  5
2E8
330
1F
100
AcDbEntity
  8
0
  6
Continuous
 62
     7
370
    30
100
AcDbLine
 10
43.8541230686
 20
58.8446289189
 30
0.0
 11
46.8541230686
 21
58.8446289189
 31
0.0
  0
LINE
  5
2E9
330
1F
100
AcDbEntity
  8
0
  6
Continuous
 62
     7
370
    30
100
AcDbLine
 10
43.8541230686
 20
58.8446289189
 30
0.0
 11
43.8541230686
 21
60.3446289189
 31
0.0
  0
LINE
  5
2EA
330
1F
100
AcDbEntity
  8
0
  6
Continuous
 62
     7
370
    30
100
AcDbLine
 10
43.8541230686
 20
60.3446289189
 30
0.0
 11
46.8541230686
 21
60.3446289189
 31
0.0
  0
LINE
  5
2EB
330
1F
100
AcDbEntity
  8
0
  6
Continuous
 62
     7
370
    30
100
AcDbLine
 10
46.8541230686
 20
58.8446289189
 30
0.0
 11
46.8541230686
 21
58.3446289189
 31
0.0
  0
LINE
  5
2EC
330
1F
100
AcDbEntity
  8
0
  6
Continuous
 62
     7
370
    30
100
AcDbLine
 10
46.8541230686
 20
58.3446289189
 30
0.0
 11
44.3541230686
 21
58.3446289189
 31
0.0
  0
ARC
  5
2ED
330
1F
100
AcDbEntity
  8
0
  6
Continuous
 62
     7
370
    30
100
AcDbCircle
 10
44.3541230686
 20
58.8446289189
 30
0.0
 40
0.5000000000000213
100
AcDbArc
 50
180.0
 51
270.0
  0
LINE
  5
2EE
330
1F
100
AcDbEntity
  8
0
  6
Continuous
 62
     7
370
    30
100
AcDbLine
 10
90.8541230686
 20
58.8446289189
 30
0.0
 11
90.8541230686
 21
60.3446289189
 31
0.0
  0
LINE
  5
2EF
330
1F
100
AcDbEntity
  8
0
  6
Continuous
 62
     7
370
    30
100
AcDbLine
 10
46.8541230686
 20
58.8446289189
 30
0.0
 11
90.8541230686
 21
58.8446289189
 31
0.0
  0
LINE
  5
2F0
330
1F
100
AcDbEntity
  8
0
  6
Continuous
 62
     7
370
    30
100
AcDbLine
 10
90.8541230686
 20
60.3446289189
 30
0.0
 11
46.8541230686
 21
60.3446289189
 31
0.0
  0
LINE
  5
2F1
330
1F
100
AcDbEntity
  8
0
  6
Continuous
 62
     7
370
    30
100
AcDbLine
 10
90.8541230686
 20
58.3446289189
 30
0.0
 11
46.8541230686
 21
58.3446289189
 31
0.0
  0
LINE
  5
2F2
330
1F
100
AcDbEntity
  8
0
  6
Continuous
 62
     7
370
    30
100
AcDbLine
 10
90.8541230686
 20
58.3446289189
 30
0.0
 11
90.8541230686
 21
58.8446289189
 31
0.0
  0
LINE
  5
2F3
330
1F
100
AcDbEntity
  8
0
  6
Continuous
 62
     7
370
    30
100
AcDbLine
 10
93.8541230686
 20
60.3446289189
 30
0.0
 11
93.8541230686
 21
58.8446289189
 31
0.0
  0
LINE
  5
2F4
330
1F
100
AcDbEntity
  8
0
  6
Continuous
 62
     7
370
    30
100
AcDbLine
 10
90.8541230686
 20
58.8446289189
 30
0.0
 11
93.8541230686
 21
58.8446289189
 31
0.0
  0
LINE
  5
2F5
330
1F
100
AcDbEntity
  8
0
  6
Continuous
 62
     7
370
    30
100
AcDbLine
 10
90.8541230686
 20
60.3446289189
 30
0.0
 11
93.8541230686
 21
60.3446289189
 31
0.0
  0
LINE
  5
2F6
330
1F
100
AcDbEntity
  8
0
  6
Continuous
 62
     7
370
    30
100
AcDbLine
 10
93.3541230686
 20
58.3446289189
 30
0.0
 11
90.8541230686
 21
58.3446289189
 31
0.0
  0
ARC
  5
2F7
330
1F
100
AcDbEntity
  8
0
  6
Continuous
 62
     7
370
    30
100
AcDbCircle
 10
93.3541230686
 20
58.8446289189
 30
0.0
 40
0.5
100
AcDbArc
 50
270.0
 51
0.0
  0
LINE
  5
2F8
330
1F
100
AcDbEntity
  8
0
  6
Continuous
 62
     7
370
    30
100
AcDbLine
 10
43.8541230686
 20
60.3446289189
 30
0.0
 11
43.8541230686
 21
73.8446289189
 31
0.0
  0
LINE
  5
2F9
330
1F
100
AcDbEntity
  8
0
  6
Continuous
 62
     7
370
    30
100
AcDbLine
 10
46.8541230686
 20
73.8446289189
 30
0.0
 11
43.8541230686
 21
73.8446289189
 31
0.0
  0
LINE
  5
2FA
330
1F
100
AcDbEntity
  8
0
  6
Continuous
 62
     7
370
    30
100
AcDbLine
 10
46.8541230686
 20
73.8446289189
 30
0.0
 11
46.8541230686
 21
60.3446289189
 31
0.0
  0
LINE
  5
2FB
330
1F
100
AcDbEntity
  8
0
  6
Continuous
 62
     7
370
    30
100
AcDbLine
 10
90.8541230686
 20
73.8446289189
 30
0.0
 11
46.8541230686
 21
73.8446289189
 31
0.0
  0
LINE
  5
2FC
330
1F
100
AcDbEntity
  8
0
  6
Continuous
 62
     7
370
    30
100
AcDbLine
 10
90.8541230686
 20
60.3446289189
 30
0.0
 11
90.8541230686
 21
73.8446289189
 31
0.0
  0
CIRCLE
  5
2FD
330
1F
100
AcDbEntity
  8
0
  6
Continuous
 62
     7
370
    30
100
AcDbCircle
 10
68.8541230686
 20
69.3446289189
 30
0.0
 40
2.5
  0
ARC
  5
2FE
330
1F
100
AcDbEntity
  8
0
  6
Continuous
 62
     7
370
    30
100
AcDbCircle
 10
44.3541230686
 20
73.8446289189
 30
0.0
 40
0.5
100
AcDbArc
 50
90.0
 51
180.0
  0
LINE
  5
2FF
330
1F
100
AcDbEntity
  8
0
  6
Continuous
 62
     7
370
    30
100
AcDbLine
 10
44.3541230686
 20
74.3446289189
 30
0.0
 11
46.8541230686
 21
74.3446289189
 31
0.0
  0
LINE
  5
300
330
1F
100
AcDbEntity
  8
0
  6
Continuous
 62
     7
370
    30
100
AcDbLine
 10
46.8541230686
 20
73.8446289189
 30
0.0
 11
46.8541230686
 21
74.3446289189
 31
0.0
  0
LINE
  5
301
330
1F
100
AcDbEntity
  8
0
  6
Continuous
 62
     7
370
    30
100
AcDbLine
 10
46.8541230686
 20
74.3446289189
 30
0.0
 11
90.8541230686
 21
74.3446289189
 31
0.0
  0
LINE
  5
302
330
1F
100
AcDbEntity
  8
0
  6
Continuous
 62
     7
370
    30
100
AcDbLine
 10
90.8541230686
 20
73.8446289189
 30
0.0
 11
90.8541230686
 21
74.3446289189
 31
0.0
  0
LINE
  5
303
330
1F
100
AcDbEntity
  8
0
  6
Continuous
 62
     7
370
    30
100
AcDbLine
 10
93.8541230686
 20
73.8446289189
 30
0.0
 11
90.8541230686
 21
73.8446289189
 31
0.0
  0
LINE
  5
304
330
1F
100
AcDbEntity
  8
0
  6
Continuous
 62
     7
370
    30
100
AcDbLine
 10
93.8541230686
 20
73.8446289189
 30
0.0
 11
93.8541230686
 21
60.3446289189
 31
0.0
  0
LINE
  5
305
330
1F
100
AcDbEntity
  8
0
  6
Continuous
 62
     7
370
    30
100
AcDbLine
 10
90.8541230686
 20
74.3446289189
 30
0.0
 11
93.3541230686
 21
74.3446289189
 31
0.0
  0
ARC
  5
306
330
1F
100
AcDbEntity
  8
0
  6
Continuous
 62
     7
370
    30
100
AcDbCircle
 10
93.3541230686
 20
73.8446289189
 30
0.0
 40
0.5
100
AcDbArc
 50
0.0
 51
90.0
  0
DIMENSION
  5
307
330
1F
100
AcDbEntity
  8
SLD-0
100
AcDbDimension
  2
_D_17
 10
66.6890595591
 20
68.0946289189
 30
0.0
 11
91.5420987185
 21
82.2630316522
 31
0.0
 70
   163
  1
M6\P
 71
     1
 42
-1.0
  3
SLDDIMSTYLE2
100
AcDbDiametricDimension
 15
71.0191865781
 25
70.5946289189
 35
0.0
 40
0.0
  0
DIMENSION
  5
310
330
1F
100
AcDbEntity
  8
SLD-0
100
AcDbDimension
  2
_D_18
 10
43.8541230686
 20
80.3446289189
 30
0.0
 11
56.3541230686
 21
80.3446289189
 31
0.0
 70
   160
  1
<>
 71
     2
 42
-1.0
  3
SLDDIMSTYLE0
100
AcDbAlignedDimension
 13
68.8541230686
 23
72.8446289189
 33
0.0
 14
43.8541230686
 24
73.8446289189
 34
0.0
100
AcDbRotatedDimension
  0
DIMENSION
  5
31A
330
1F
100
AcDbEntity
  8
SLD-0
100
AcDbDimension
  2
_D_19
 10
100.2753523057
 20
74.3446289189
 30
0.0
 11
100.2753523057
 21
71.8446289189
 31
0.0
 70
   160
  1
<>
 71
     2
 42
-1.0
  3
SLDDIMSTYLE0
100
AcDbAlignedDimension
 13
72.3541230686
 23
69.3446289189
 33
0.0
 14
93.3541230686
 24
74.3446289189
 34
0.0
 50
90.0
100
AcDbRotatedDimension
  0
INSERT
  5
32F
330
1F
100
AcDbEntity
  8
SLD-0
100
AcDbBlockReference
  2
SW_CENTERMARKSYMBOL_6
 10
68.8541230686
 20
69.3446289189
 30
0.0
  0
ENDSEC
  0
SECTION
  2
OBJECTS
  0
DICTIONARY
  5
C
330
0
100
AcDbDictionary
281
     1
  3
ACAD_GROUP
350
D
  3
ACAD_LAYOUT
350
1A
  3
ACAD_MLINESTYLE
350
17
  3
ACAD_PLOTSETTINGS
350
19
  3
ACAD_PLOTSTYLENAME
350
E
  3
ACAD_SCALELIST
350
47
  0
DICTIONARY
  5
D
102
{ACAD_REACTORS
330
C
102
}
330
C
100
AcDbDictionary
281
     1
  0
DICTIONARY
  5
1A
102
{ACAD_REACTORS
330
C
102
}
330
C
100
AcDbDictionary
281
     1
  3
Layout1
350
1E
  3
Layout2
350
26
  3
Model
350
22
  0
DICTIONARY
  5
17
102
{ACAD_REACTORS
330
C
102
}
330
C
100
AcDbDictionary
281
     1
  3
Standard
350
18
  0
DICTIONARY
  5
19
102
{ACAD_REACTORS
330
C
102
}
330
C
100
AcDbDictionary
281
     1
  0
ACDBDICTIONARYWDFLT
  5
E
102
{ACAD_REACTORS
330
C
102
}
330
C
100
AcDbDictionary
281
     1
  3
Normal
350
F
100
AcDbDictionaryWithDefault
340
F
  0
DICTIONARY
  5
47
102
{ACAD_REACTORS
330
C
102
}
330
C
100
AcDbDictionary
281
     1
  3
A0
350
48
  3
A1
350
49
  3
A2
350
4A
  3
A3
350
4B
  3
A4
350
4C
  3
A5
350
4D
  3
A6
350
4E
  3
A7
350
4F
  3
A8
350
50
  3
A9
350
51
  3
B0
350
52
  3
B1
350
53
  3
B2
350
54
  3
B3
350
55
  3
B4
350
56
  3
B5
350
57
  3
B6
350
58
  3
B7
350
59
  3
B8
350
5A
  3
B9
350
5B
  3
C0
350
5C
  3
C1
350
5D
  3
C2
350
5E
  3
C3
350
5F
  3
C4
350
60
  3
C5
350
61
  3
C6
350
62
  3
C7
350
63
  3
C8
350
64
  3
C9
350
65
  3
D0
350
66
  3
D1
350
67
  3
D2
350
68
  0
LAYOUT
  5
1E
102
{ACAD_REACTORS
330
1A
102
}
330
1A
100
AcDbPlotSettings
  1

  2
none_device
  4

  6

 40
0.0
 41
0.0
 42
0.0
 43
0.0
 44
0.0
 45
0.0
 46
0.0
 47
0.0
 48
0.0
 49
0.0
140
0.0
141
0.0
142
1.0
143
1.0
 70
   688
 72
     1
 73
     0
 74
     5
  7

 75
    16
147
1.0
148
0.0
149
0.0
100
AcDbLayout
  1
Layout1
 70
     1
 71
     1
 10
0.0
 20
0.0
 11
420.0
 21
297.0
 12
0.0
 22
0.0
 32
0.0
 14
1.0000000000E+20
 24
1.0000000000E+20
 34
1.0000000000E+20
 15
-1.0000000000E+20
 25
-1.0000000000E+20
 35
-1.0000000000E+20
146
0.0
 13
0.0
 23
0.0
 33
0.0
 16
1.0
 26
0.0
 36
0.0
 17
0.0
 27
1.0
 37
0.0
 76
     0
330
1B
  0
LAYOUT
  5
26
102
{ACAD_REACTORS
330
1A
102
}
330
1A
100
AcDbPlotSettings
  1

  2
none_device
  4

  6

 40
0.0
 41
0.0
 42
0.0
 43
0.0
 44
0.0
 45
0.0
 46
0.0
 47
0.0
 48
0.0
 49
0.0
140
0.0
141
0.0
142
1.0
143
1.0
 70
   688
 72
     1
 73
     0
 74
     5
  7

 75
    16
147
1.0
148
0.0
149
0.0
100
AcDbLayout
  1
Layout2
 70
     1
 71
     2
 10
0.0
 20
0.0
 11
0.0
 21
0.0
 12
0.0
 22
0.0
 32
0.0
 14
0.0
 24
0.0
 34
0.0
 15
0.0
 25
0.0
 35
0.0
146
0.0
 13
0.0
 23
0.0
 33
0.0
 16
1.0
 26
0.0
 36
0.0
 17
0.0
 27
1.0
 37
0.0
 76
     0
330
23
  0
LAYOUT
  5
22
102
{ACAD_REACTORS
330
1A
102
}
330
1A
100
AcDbPlotSettings
  1

  2
none_device
  4
Letter_(8.50_x_11.00_Inches)
  6

 40
6.35
 41
6.35
 42
6.35000508
 43
6.35000508
 44
215.9
 45
279.4
 46
0.0
 47
0.0
 48
0.0
 49
0.0
140
0.0
141
0.0
142
1.0
143
1.0
 70
  1712
 72
     1
 73
     0
 74
     0
  7

 75
     0
147
1.0
148
0.0
149
0.0
100
AcDbLayout
  1
Model
 70
     1
 71
     0
 10
0.0
 20
0.0
 11
297.0
 21
210.0
 12
0.0
 22
0.0
 32
0.0
 14
0.0
 24
0.0
 34
0.0
 15
297.0
 25
210.0
 35
0.0
146
0.0
 13
0.0
 23
0.0
 33
0.0
 16
1.0
 26
0.0
 36
0.0
 17
0.0
 27
1.0
 37
0.0
 76
     0
330
1F
331
29
  0
MLINESTYLE
  5
18
102
{ACAD_REACTORS
330
17
102
}
330
17
100
AcDbMlineStyle
  2
Standard
 70
     0
  3

 62
   256
 51
90.0
 52
90.0
 71
     2
 49
0.5
 62
   256
  6
BYLAYER
 49
-0.5
 62
   256
  6
BYLAYER
  0
ACDBPLACEHOLDER
  5
F
102
{ACAD_REACTORS
330
E
102
}
330
E
  0
SCALE
  5
48
102
{ACAD_REACTORS
330
47
102
}
330
47
100
AcDbScale
 70
     0
300
1:1
140
1.0
141
1.0
290
     1
  0
SCALE
  5
49
102
{ACAD_REACTORS
330
47
102
}
330
47
100
AcDbScale
 70
     0
300
1:2
140
1.0
141
2.0
290
     0
  0
SCALE
  5
4A
102
{ACAD_REACTORS
330
47
102
}
330
47
100
AcDbScale
 70
     0
300
1:4
140
1.0
141
4.0
290
     0
  0
SCALE
  5
4B
102
{ACAD_REACTORS
330
47
102
}
330
47
100
AcDbScale
 70
     0
300
1:5
140
1.0
141
5.0
290
     0
  0
SCALE
  5
4C
102
{ACAD_REACTORS
330
47
102
}
330
47
100
AcDbScale
 70
     0
300
1:8
140
1.0
141
8.0
290
     0
  0
SCALE
  5
4D
102
{ACAD_REACTORS
330
47
102
}
330
47
100
AcDbScale
 70
     0
300
1:10
140
1.0
141
10.0
290
     0
  0
SCALE
  5
4E
102
{ACAD_REACTORS
330
47
102
}
330
47
100
AcDbScale
 70
     0
300
1:16
140
1.0
141
16.0
290
     0
  0
SCALE
  5
4F
102
{ACAD_REACTORS
330
47
102
}
330
47
100
AcDbScale
 70
     0
300
1:20
140
1.0
141
20.0
290
     0
  0
SCALE
  5
50
102
{ACAD_REACTORS
330
47
102
}
330
47
100
AcDbScale
 70
     0
300
1:30
140
1.0
141
30.0
290
     0
  0
SCALE
  5
51
102
{ACAD_REACTORS
330
47
102
}
330
47
100
AcDbScale
 70
     0
300
1:40
140
1.0
141
40.0
290
     0
  0
SCALE
  5
52
102
{ACAD_REACTORS
330
47
102
}
330
47
100
AcDbScale
 70
     0
300
1:50
140
1.0
141
50.0
290
     0
  0
SCALE
  5
53
102
{ACAD_REACTORS
330
47
102
}
330
47
100
AcDbScale
 70
     0
300
1:100
140
1.0
141
100.0
290
     0
  0
SCALE
  5
54
102
{ACAD_REACTORS
330
47
102
}
330
47
100
AcDbScale
 70
     0
300
2:1
140
2.0
141
1.0
290
     0
  0
SCALE
  5
55
102
{ACAD_REACTORS
330
47
102
}
330
47
100
AcDbScale
 70
     0
300
4:1
140
4.0
141
1.0
290
     0
  0
SCALE
  5
56
102
{ACAD_REACTORS
330
47
102
}
330
47
100
AcDbScale
 70
     0
300
8:1
140
8.0
141
1.0
290
     0
  0
SCALE
  5
57
102
{ACAD_REACTORS
330
47
102
}
330
47
100
AcDbScale
 70
     0
300
10:1
140
10.0
141
1.0
290
     0
  0
SCALE
  5
58
102
{ACAD_REACTORS
330
47
102
}
330
47
100
AcDbScale
 70
     0
300
100:1
140
100.0
141
1.0
290
     0
  0
SCALE
  5
59
102
{ACAD_REACTORS
330
47
102
}
330
47
100
AcDbScale
 70
     0
300
1/128" = 1'-0"
140
0.0078125
141
12.0
290
     0
  0
SCALE
  5
5A
102
{ACAD_REACTORS
330
47
102
}
330
47
100
AcDbScale
 70
     0
300
1/64" = 1'-0"
140
0.015625
141
12.0
290
     0
  0
SCALE
  5
5B
102
{ACAD_REACTORS
330
47
102
}
330
47
100
AcDbScale
 70
     0
300
1/32" = 1'-0"
140
0.03125
141
12.0
290
     0
  0
SCALE
  5
5C
102
{ACAD_REACTORS
330
47
102
}
330
47
100
AcDbScale
 70
     0
300
1/16" = 1'-0"
140
0.0625
141
12.0
290
     0
  0
SCALE
  5
5D
102
{ACAD_REACTORS
330
47
102
}
330
47
100
AcDbScale
 70
     0
300
3/32" = 1'-0"
140
0.09375
141
12.0
290
     0
  0
SCALE
  5
5E
102
{ACAD_REACTORS
330
47
102
}
330
47
100
AcDbScale
 70
     0
300
1/8" = 1'-0"
140
0.125
141
12.0
290
     0
  0
SCALE
  5
5F
102
{ACAD_REACTORS
330
47
102
}
330
47
100
AcDbScale
 70
     0
300
3/16" = 1'-0"
140
0.1875
141
12.0
290
     0
  0
SCALE
  5
60
102
{ACAD_REACTORS
330
47
102
}
330
47
100
AcDbScale
 70
     0
300
1/4" = 1'-0"
140
0.25
141
12.0
290
     0
  0
SCALE
  5
61
102
{ACAD_REACTORS
330
47
102
}
330
47
100
AcDbScale
 70
     0
300
3/8" = 1'-0"
140
0.375
141
12.0
290
     0
  0
SCALE
  5
62
102
{ACAD_REACTORS
330
47
102
}
330
47
100
AcDbScale
 70
     0
300
1/2" = 1'-0"
140
0.5
141
12.0
290
     0
  0
SCALE
  5
63
102
{ACAD_REACTORS
330
47
102
}
330
47
100
AcDbScale
 70
     0
300
3/4" = 1'-0"
140
0.75
141
12.0
290
     0
  0
SCALE
  5
64
102
{ACAD_REACTORS
330
47
102
}
330
47
100
AcDbScale
 70
     0
300
1" = 1'-0"
140
1.0
141
12.0
290
     0
  0
SCALE
  5
65
102
{ACAD_REACTORS
330
47
102
}
330
47
100
AcDbScale
 70
     0
300
1-1/2" = 1'-0"
140
1.5
141
12.0
290
     0
  0
SCALE
  5
66
102
{ACAD_REACTORS
330
47
102
}
330
47
100
AcDbScale
 70
     0
300
3" = 1'-0"
140
3.0
141
12.0
290
     0
  0
SCALE
  5
67
102
{ACAD_REACTORS
330
47
102
}
330
47
100
AcDbScale
 70
     0
300
6" = 1'-0"
140
6.0
141
12.0
290
     0
  0
SCALE
  5
68
102
{ACAD_REACTORS
330
47
102
}
330
47
100
AcDbScale
 70
     0
300
1'-0" = 1'-0"
140
12.0
141
12.0
290
     0
  0
ENDSEC
  0
EOF
