  0
SECTION
  2
HEADER
  9
$ACADVER
  1
AC1015
  9
$ACADMAINTVER
 70
     6
  9
$DWGCODEPAGE
  3
ANSI_950
  9
$INSBASE
 10
0.0
 20
0.0
 30
0.0
  9
$EXTMIN
 10
0.0
 20
0.0
 30
0.0
  9
$EXTMAX
 10
247.5
 20
175.0
 30
0.0
  9
$LIMMIN
 10
0.0
 20
0.0
  9
$LIMMAX
 10
247.5
 20
175.0
  9
$ORTHOMODE
 70
     0
  9
$REGENMODE
 70
     1
  9
$FILLMODE
 70
     1
  9
$QTEXTMODE
 70
     0
  9
$MIRRTEXT
 70
     1
  9
$LTSCALE
 40
0.8333333333
  9
$ATTMODE
 70
     1
  9
$TEXTSIZE
 40
2.0833333333
  9
$TRACEWID
 40
1.0
  9
$TEXTSTYLE
  7
Standard
  9
$CLAYER
  8
0
  9
$CELTYPE
  6
ByLayer
  9
$CECOLOR
 62
   256
  9
$CELTSCALE
 40
1.0
  9
$DISPSILH
 70
     0
  9
$DIMSCALE
 40
1.0
  9
$DIMASZ
 40
1.6666666667
  9
$DIMEXO
 40
0.8333333333
  9
$DIMDLI
 40
3.75
  9
$DIMRND
 40
0.0
  9
$DIMDLE
 40
0.0
  9
$DIMEXE
 40
0.8333333333
  9
$DIMTP
 40
0.0
  9
$DIMTM
 40
0.0
  9
$DIMTXT
 40
2.0833333333
  9
$DIMCEN
 40
2.5
  9
$DIMTSZ
 40
0.0
  9
$DIMTOL
 70
     0
  9
$DIMLIM
 70
     0
  9
$DIMTIH
 70
     1
  9
$DIMTOH
 70
     1
  9
$DIMSE1
 70
     0
  9
$DIMSE2
 70
     0
  9
$DIMTAD
 70
     1
  9
$DIMZIN
 70
     0
  9
$DIMBLK
  1

  9
$DIMASO
 70
     1
  9
$DIMSHO
 70
     1
  9
$DIMPOST
  1

  9
$DIMAPOST
  1

  9
$DIMALT
 70
     0
  9
$DIMALTD
 70
     3
  9
$DIMALTF
 40
0.0393700787
  9
$DIMLFAC
 40
1.0
  9
$DIMTOFL
 70
     1
  9
$DIMTVP
 40
0.0
  9
$DIMTIX
 70
     0
  9
$DIMSOXD
 70
     0
  9
$DIMSAH
 70
     0
  9
$DIMBLK1
  1

  9
$DIMBLK2
  1

  9
$DIMSTYLE
  2
ISO-25
  9
$DIMCLRD
 70
     0
  9
$DIMCLRE
 70
     0
  9
$DIMCLRT
 70
     0
  9
$DIMTFAC
 40
1.0
  9
$DIMGAP
 40
0.8333333333
  9
$DIMJUST
 70
     0
  9
$DIMSD1
 70
     0
  9
$DIMSD2
 70
     0
  9
$DIMTOLJ
 70
     0
  9
$DIMTZIN
 70
     0
  9
$DIMALTZ
 70
     0
  9
$DIMALTTZ
 70
     0
  9
$DIMUPT
 70
     0
  9
$DIMDEC
 70
     2
  9
$DIMTDEC
 70
     2
  9
$DIMALTU
 70
     2
  9
$DIMALTTD
 70
     3
  9
$DIMTXSTY
  7
Standard
  9
$DIMAUNIT
 70
     0
  9
$DIMADEC
 70
     1
  9
$DIMALTRND
 40
0.0
  9
$DIMAZIN
 70
     0
  9
$DIMDSEP
 70
    44
  9
$DIMATFIT
 70
     3
  9
$DIMFRAC
 70
     0
  9
$DIMLDRBLK
  1

  9
$DIMLUNIT
 70
     2
  9
$DIMLWD
 70
    -2
  9
$DIMLWE
 70
    -2
  9
$DIMTMOVE
 70
     0
  9
$LUNITS
 70
     2
  9
$LUPREC
 70
     2
  9
$SKETCHINC
 40
1.0
  9
$FILLETRAD
 40
10.0
  9
$AUNITS
 70
     0
  9
$AUPREC
 70
     1
  9
$MENU
  1
.
  9
$ELEVATION
 40
0.0
  9
$PELEVATION
 40
0.0
  9
$THICKNESS
 40
0.0
  9
$LIMCHECK
 70
     0
  9
$CHAMFERA
 40
0.0
  9
$CHAMFERB
 40
0.0
  9
$CHAMFERC
 40
0.0
  9
$CHAMFERD
 40
0.0
  9
$SKPOLY
 70
     0
  9
$TDCREATE
 40
2458227.47256838
  9
$TDUCREATE
 40
2458227.139235046
  9
$TDUPDATE
 40
2458227.472580301
  9
$TDUUPDATE
 40
2458227.139246968
  9
$TDINDWG
 40
0.0000000116
  9
$TDUSRTIMER
 40
0.0000000116
  9
$USRTIMER
 70
     1
  9
$ANGBASE
 50
0.0
  9
$ANGDIR
 70
     0
  9
$PDMODE
 70
     0
  9
$PDSIZE
 40
-1.0
  9
$PLINEWID
 40
0.0
  9
$SPLFRAME
 70
     0
  9
$SPLINETYPE
 70
     6
  9
$SPLINESEGS
 70
     8
  9
$HANDSEED
  5
33F
  9
$SURFTAB1
 70
     6
  9
$SURFTAB2
 70
     6
  9
$SURFTYPE
 70
     6
  9
$SURFU
 70
     6
  9
$SURFV
 70
     6
  9
$UCSBASE
  2

  9
$UCSNAME
  2

  9
$UCSORG
 10
0.0
 20
0.0
 30
0.0
  9
$UCSXDIR
 10
1.0
 20
0.0
 30
0.0
  9
$UCSYDIR
 10
0.0
 20
1.0
 30
0.0
  9
$UCSORTHOREF
  2

  9
$UCSORTHOVIEW
 70
     0
  9
$UCSORGTOP
 10
0.0
 20
0.0
 30
0.0
  9
$UCSORGBOTTOM
 10
0.0
 20
0.0
 30
0.0
  9
$UCSORGLEFT
 10
0.0
 20
0.0
 30
0.0
  9
$UCSORGRIGHT
 10
0.0
 20
0.0
 30
0.0
  9
$UCSORGFRONT
 10
0.0
 20
0.0
 30
0.0
  9
$UCSORGBACK
 10
0.0
 20
0.0
 30
0.0
  9
$PUCSBASE
  2

  9
$PUCSNAME
  2

  9
$PUCSORG
 10
0.0
 20
0.0
 30
0.0
  9
$PUCSXDIR
 10
1.0
 20
0.0
 30
0.0
  9
$PUCSYDIR
 10
0.0
 20
1.0
 30
0.0
  9
$PUCSORTHOREF
  2

  9
$PUCSORTHOVIEW
 70
     0
  9
$PUCSORGTOP
 10
0.0
 20
0.0
 30
0.0
  9
$PUCSORGBOTTOM
 10
0.0
 20
0.0
 30
0.0
  9
$PUCSORGLEFT
 10
0.0
 20
0.0
 30
0.0
  9
$PUCSORGRIGHT
 10
0.0
 20
0.0
 30
0.0
  9
$PUCSORGFRONT
 10
0.0
 20
0.0
 30
0.0
  9
$PUCSORGBACK
 10
0.0
 20
0.0
 30
0.0
  9
$USERI1
 70
     0
  9
$USERI2
 70
     0
  9
$USERI3
 70
     0
  9
$USERI4
 70
     0
  9
$USERI5
 70
     0
  9
$USERR1
 40
0.0
  9
$USERR2
 40
0.0
  9
$USERR3
 40
0.0
  9
$USERR4
 40
0.0
  9
$USERR5
 40
0.0
  9
$WORLDVIEW
 70
     1
  9
$SHADEDGE
 70
     3
  9
$SHADEDIF
 70
    70
  9
$TILEMODE
 70
     1
  9
$MAXACTVP
 70
    64
  9
$PINSBASE
 10
0.0
 20
0.0
 30
0.0
  9
$PLIMCHECK
 70
     0
  9
$PEXTMIN
 10
1.0000000000E+20
 20
1.0000000000E+20
 30
1.0000000000E+20
  9
$PEXTMAX
 10
-1.0000000000E+20
 20
-1.0000000000E+20
 30
-1.0000000000E+20
  9
$PLIMMIN
 10
0.0
 20
0.0
  9
$PLIMMAX
 10
420.0
 20
297.0
  9
$UNITMODE
 70
     0
  9
$VISRETAIN
 70
     1
  9
$PLINEGEN
 70
     0
  9
$PSLTSCALE
 70
     1
  9
$TREEDEPTH
 70
  3020
  9
$CMLSTYLE
  2
Standard
  9
$CMLJUST
 70
     0
  9
$CMLSCALE
 40
20.0
  9
$PROXYGRAPHICS
 70
     1
  9
$MEASUREMENT
 70
     1
  9
$CELWEIGHT
370
    -1
  9
$ENDCAPS
280
     0
  9
$JOINSTYLE
280
     0
  9
$LWDISPLAY
290
     1
  9
$INSUNITS
 70
     4
  9
$HYPERLINKBASE
  1

  9
$STYLESHEET
  1

  9
$XEDIT
290
     1
  9
$CEPSNTYPE
380
     0
  9
$PSTYLEMODE
290
     1
  9
$FINGERPRINTGUID
  2
{F7E63B5D-A320-45B5-8A1F-8CCEF6C87E7E}
  9
$VERSIONGUID
  2
{FAEB1C32-E019-11D5-929B-00C0DF256EC4}
  9
$EXTNAMES
290
     1
  9
$PSVPSCALE
 40
0.0
  9
$OLESTARTUP
290
     0
  0
ENDSEC
  0
SECTION
  2
CLASSES
  0
CLASS
  1
ACDBDICTIONARYWDFLT
  2
AcDbDictionaryWithDefault
  3
ObjectDBX Classes
 90
        0
280
     0
281
     0
  0
CLASS
  1
VISUALSTYLE
  2
AcDbVisualStyle
  3
ObjectDBX Classes
 90
     4095
280
     0
281
     0
  0
CLASS
  1
MATERIAL
  2
AcDbMaterial
  3
ObjectDBX Classes
 90
     1153
280
     0
281
     0
  0
CLASS
  1
SCALE
  2
AcDbScale
  3
ObjectDBX Classes
 90
     1153
280
     0
281
     0
  0
CLASS
  1
TABLESTYLE
  2
AcDbTableStyle
  3
ObjectDBX Classes
 90
     4095
280
     0
281
     0
  0
CLASS
  1
MLEADERSTYLE
  2
AcDbMLeaderStyle
  3
ACDB_MLEADERSTYLE_CLASS
 90
     4095
280
     0
281
     0
  0
CLASS
  1
SUN
  2
AcDbSun
  3
SCENEOE
 90
     1153
280
     0
281
     0
  0
CLASS
  1
ACDBPLACEHOLDER
  2
AcDbPlaceHolder
  3
ObjectDBX Classes
 90
        0
280
     0
281
     0
  0
CLASS
  1
LAYOUT
  2
AcDbLayout
  3
ObjectDBX Classes
 90
        0
280
     0
281
     0
  0
ENDSEC
  0
SECTION
  2
TABLES
  0
TABLE
  2
VPORT
  5
8
330
0
100
AcDbSymbolTable
 70
     1
  0
VPORT
  5
29
330
8
100
AcDbSymbolTableRecord
100
AcDbViewportTableRecord
  2
*Active
 70
     0
 10
0.0
 20
0.0
 11
1.0
 21
1.0
 12
123.75
 22
87.5
 13
0.0
 23
0.0
 14
10.0
 24
10.0
 15
10.0
 25
10.0
 16
0.0
 26
0.0
 36
1.0
 17
0.0
 27
0.0
 37
0.0
 40
175.0
 41
1.4142857143
 42
50.0
 43
0.0
 44
0.0
 50
0.0
 51
0.0
 71
     0
 72
  2000
 73
     1
 74
     3
 75
     0
 76
     0
 77
     0
 78
     0
281
     0
 65
     1
110
0.0
120
0.0
130
0.0
111
1.0
121
0.0
131
0.0
112
0.0
122
1.0
132
0.0
 79
     0
146
0.0
  0
ENDTAB
  0
TABLE
  2
LTYPE
  5
5
330
0
100
AcDbSymbolTable
 70
     6
  0
LTYPE
  5
14
330
5
100
AcDbSymbolTableRecord
100
AcDbLinetypeTableRecord
  2
ByBlock
 70
     0
  3

 72
    65
 73
     0
 40
0.0
  0
LTYPE
  5
15
330
5
100
AcDbSymbolTableRecord
100
AcDbLinetypeTableRecord
  2
ByLayer
 70
     0
  3

 72
    65
 73
     0
 40
0.0
  0
LTYPE
  5
16
330
5
100
AcDbSymbolTableRecord
100
AcDbLinetypeTableRecord
  2
Continuous
 70
     0
  3
Solid line
 72
    65
 73
     0
 40
0.0
  0
LTYPE
  5
6E
330
5
100
AcDbSymbolTableRecord
100
AcDbLinetypeTableRecord
  2
HIDDEN
 70
     0
  3
Hidden __ __ __ __ __ __ __ __ __ __ __ __ __ __
 72
    65
 73
     2
 40
1.905
 49
1.27
 74
     0
 49
-0.635
 74
     0
  0
LTYPE
  5
6F
330
5
100
AcDbSymbolTableRecord
100
AcDbLinetypeTableRecord
  2
PHANTOM
 70
     0
  3
Phantom ______  __  __  ______  __  __  ______
 72
    65
 73
     6
 40
12.7
 49
6.35
 74
     0
 49
-1.27
 74
     0
 49
1.27
 74
     0
 49
-1.27
 74
     0
 49
1.27
 74
     0
 49
-1.27
 74
     0
  0
LTYPE
  5
70
330
5
100
AcDbSymbolTableRecord
100
AcDbLinetypeTableRecord
  2
CENTER
 70
     0
  3
Center ____ _ ____ _ ____ _ ____ _ ____ _ ____
 72
    65
 73
     4
 40
10.16
 49
6.35
 74
     0
 49
-1.27
 74
     0
 49
1.27
 74
     0
 49
-1.27
 74
     0
  0
LTYPE
  5
71
330
5
100
AcDbSymbolTableRecord
100
AcDbLinetypeTableRecord
  2
CENTERX2
 70
     0
  3
Center (2x) ________  __  ________  __  _____
 72
    65
 73
     4
 40
20.32
 49
12.7
 74
     0
 49
-2.54
 74
     0
 49
2.54
 74
     0
 49
-2.54
 74
     0
  0
LTYPE
  5
72
330
5
100
AcDbSymbolTableRecord
100
AcDbLinetypeTableRecord
  2
DOT2
 70
     0
  3
Dot (.5x) ........................................
 72
    65
 73
     2
 40
0.635
 49
0.0
 74
     0
 49
-0.635
 74
     0
  0
ENDTAB
  0
TABLE
  2
LAYER
  5
2
330
0
100
AcDbSymbolTable
 70
    10
  0
LAYER
  5
10
330
2
100
AcDbSymbolTableRecord
100
AcDbLayerTableRecord
  2
0
 70
     0
 62
     7
  6
Continuous
370
    -3
390
F
  0
LAYER
  5
73
330
2
100
AcDbSymbolTableRecord
100
AcDbLayerTableRecord
  2
SLD-0
 70
     0
 62
   179
  6
Continuous
370
    15
390
F
  0
LAYER
  5
74
330
2
100
AcDbSymbolTableRecord
100
AcDbLayerTableRecord
  2
工作區域參考線
 70
     0
 62
   179
  6
Continuous
370
    -3
390
F
  0
LAYER
  5
75
330
2
100
AcDbSymbolTableRecord
100
AcDbLayerTableRecord
  2
輪廓線
 70
     0
 62
   219
  6
Continuous
370
    15
390
F
  0
LAYER
  5
76
330
2
100
AcDbSymbolTableRecord
100
AcDbLayerTableRecord
  2
DIM
 70
     0
 62
     7
  6
Continuous
370
    -3
390
F
  0
LAYER
  5
77
330
2
100
AcDbSymbolTableRecord
100
AcDbLayerTableRecord
  2
中心線
 70
     0
 62
     7
  6
CENTERX2
370
    -3
390
F
  0
LAYER
  5
78
330
2
100
AcDbSymbolTableRecord
100
AcDbLayerTableRecord
  2
虛線
 70
     0
 62
     7
  6
HIDDEN
370
    -3
390
F
  0
LAYER
  5
79
330
2
100
AcDbSymbolTableRecord
100
AcDbLayerTableRecord
  2
SECTION
 70
     0
 62
     7
  6
PHANTOM
370
    15
390
F
  0
LAYER
  5
7A
330
2
100
AcDbSymbolTableRecord
100
AcDbLayerTableRecord
  2
假想線
 70
     0
 62
     7
  6
PHANTOM
370
    -3
390
F
  0
LAYER
  5
7B
330
2
100
AcDbSymbolTableRecord
100
AcDbLayerTableRecord
  2
圖層_1
 70
     0
 62
   179
  6
Continuous
370
    -3
390
F
  0
ENDTAB
  0
TABLE
  2
STYLE
  5
3
330
0
100
AcDbSymbolTable
 70
     3
  0
STYLE
  5
11
330
3
100
AcDbSymbolTableRecord
100
AcDbTextStyleTableRecord
  2
Standard
 70
     0
 40
0.0
 41
1.0
 50
0.0
 71
     0
 42
2.0833333333
  3
txt
  4

  0
STYLE
  5
CC
330
3
100
AcDbSymbolTableRecord
100
AcDbTextStyleTableRecord
  2
SLDTEXTSTYLE0
 70
     0
 40
0.0
 41
0.605
 50
0.0
 71
     0
 42
2.0833333333
  3
TXT
  4

  0
STYLE
  5
1A9
330
3
100
AcDbSymbolTableRecord
100
AcDbTextStyleTableRecord
  2
SLDTEXTSTYLE1
 70
     0
 40
0.0
 41
0.57
 50
0.0
 71
     0
 42
2.0833333333
  3
TXT
  4

  0
ENDTAB
  0
TABLE
  2
VIEW
  5
6
330
0
100
AcDbSymbolTable
 70
     0
  0
ENDTAB
  0
TABLE
  2
UCS
  5
7
330
0
100
AcDbSymbolTable
 70
     0
  0
ENDTAB
  0
TABLE
  2
APPID
  5
9
330
0
100
AcDbSymbolTable
 70
     1
  0
APPID
  5
12
330
9
100
AcDbSymbolTableRecord
100
AcDbRegAppTableRecord
  2
ACAD
 70
     0
  0
ENDTAB
  0
TABLE
  2
DIMSTYLE
  5
A
330
0
100
AcDbSymbolTable
 70
     5
100
AcDbDimStyleTable
  0
DIMSTYLE
105
27
330
A
100
AcDbSymbolTableRecord
100
AcDbDimStyleTableRecord
  2
ISO-25
 70
     0
 41
2.5
 42
0.625
 43
3.75
 44
1.25
 73
     0
 74
     0
 77
     1
 78
     8
140
2.5
141
2.5
143
0.0393700787
147
0.625
171
     3
172
     1
178
     0
271
     2
272
     2
274
     3
278
    44
283
     0
284
     8
340
11
  0
DIMSTYLE
105
133
102
{ACAD_REACTORS
330
132
330
13D
330
147
330
151
330
15B
330
165
330
16F
330
179
330
227
330
231
330
23C
330
246
330
250
330
316
330
320
102
}
330
A
100
AcDbSymbolTableRecord
100
AcDbDimStyleTableRecord
  2
SLDDIMSTYLE0
 70
     0
 41
1.6666666667
 44
0.0
 45
0.000000001
 73
     0
 74
     0
 77
     1
 78
    12
 79
     3
140
2.0833333333
147
0.5208333333
173
     1
178
     0
271
     2
272
     2
276
     2
284
    12
340
CC
  0
DIMSTYLE
105
184
102
{ACAD_REACTORS
330
183
102
}
330
A
100
AcDbSymbolTableRecord
100
AcDbDimStyleTableRecord
  2
SLDDIMSTYLE1
 70
     0
  3
<>
 41
1.6666666667
 44
0.0
 45
0.000000001
 78
    12
 79
     3
140
2.0833333333
141
0.0
147
0.5208333333
173
     1
178
     0
271
     2
272
     2
276
     2
284
    12
340
CC
  0
DIMSTYLE
105
191
102
{ACAD_REACTORS
330
190
102
}
330
A
100
AcDbSymbolTableRecord
100
AcDbDimStyleTableRecord
  2
SLDDIMSTYLE2
 70
     0
 41
1.6666666667
 44
0.0
 45
0.000000001
 78
    12
 79
     3
140
2.0833333333
141
0.0
147
0.5208333333
172
     1
173
     1
178
     0
271
     2
272
     2
276
     2
284
    12
340
CC
  0
DIMSTYLE
105
19E
102
{ACAD_REACTORS
330
19D
330
25A
330
32A
102
}
330
A
100
AcDbSymbolTableRecord
100
AcDbDimStyleTableRecord
  2
SLDDIMSTYLE3
 70
     0
  3
<>
 41
1.6666666667
 44
0.0
 45
0.000000001
 78
    12
 79
     3
140
2.0833333333
141
0.0
147
0.5208333333
172
     1
173
     1
178
     0
271
     6
272
     2
276
     2
284
    12
340
CC
341
19F
343
19F
  0
ENDTAB
  0
TABLE
  2
BLOCK_RECORD
  5
1
330
0
100
AcDbSymbolTable
 70
    32
  0
BLOCK_RECORD
  5
1F
330
1
100
AcDbSymbolTableRecord
100
AcDbBlockTableRecord
  2
*Model_Space
340
22
  0
BLOCK_RECORD
  5
1B
330
1
100
AcDbSymbolTableRecord
100
AcDbBlockTableRecord
  2
*Paper_Space
340
1E
  0
BLOCK_RECORD
  5
23
330
1
100
AcDbSymbolTableRecord
100
AcDbBlockTableRecord
  2
*Paper_Space0
340
26
  0
BLOCK_RECORD
  5
7C
330
1
100
AcDbSymbolTableRecord
100
AcDbBlockTableRecord
  2
圖塊6_1
340
0
102
{BLKREFS
331
CB
102
}
  0
BLOCK_RECORD
  5
CE
330
1
100
AcDbSymbolTableRecord
100
AcDbBlockTableRecord
  2
SW_NOTE_0
340
0
102
{BLKREFS
331
D4
102
}
  0
BLOCK_RECORD
  5
104
330
1
100
AcDbSymbolTableRecord
100
AcDbBlockTableRecord
  2
SW_NOTE_1
340
0
102
{BLKREFS
331
109
102
}
  0
BLOCK_RECORD
  5
134
330
1
100
AcDbSymbolTableRecord
100
AcDbBlockTableRecord
  2
_D
340
0
  0
BLOCK_RECORD
  5
13E
330
1
100
AcDbSymbolTableRecord
100
AcDbBlockTableRecord
  2
_D_1
340
0
  0
BLOCK_RECORD
  5
148
330
1
100
AcDbSymbolTableRecord
100
AcDbBlockTableRecord
  2
_D_2
340
0
  0
BLOCK_RECORD
  5
152
330
1
100
AcDbSymbolTableRecord
100
AcDbBlockTableRecord
  2
_D_3
340
0
  0
BLOCK_RECORD
  5
15C
330
1
100
AcDbSymbolTableRecord
100
AcDbBlockTableRecord
  2
_D_4
340
0
  0
BLOCK_RECORD
  5
166
330
1
100
AcDbSymbolTableRecord
100
AcDbBlockTableRecord
  2
_D_5
340
0
  0
BLOCK_RECORD
  5
170
330
1
100
AcDbSymbolTableRecord
100
AcDbBlockTableRecord
  2
_D_6
340
0
  0
BLOCK_RECORD
  5
17A
330
1
100
AcDbSymbolTableRecord
100
AcDbBlockTableRecord
  2
_D_7
340
0
  0
BLOCK_RECORD
  5
185
330
1
100
AcDbSymbolTableRecord
100
AcDbBlockTableRecord
  2
_D_8
340
0
  0
BLOCK_RECORD
  5
192
330
1
100
AcDbSymbolTableRecord
100
AcDbBlockTableRecord
  2
_D_9
340
0
  0
BLOCK_RECORD
  5
19F
330
1
100
AcDbSymbolTableRecord
100
AcDbBlockTableRecord
  2
_NONE
340
0
  0
BLOCK_RECORD
  5
1A2
330
1
100
AcDbSymbolTableRecord
100
AcDbBlockTableRecord
  2
_D_10
340
0
  0
BLOCK_RECORD
  5
1AB
330
1
100
AcDbSymbolTableRecord
100
AcDbBlockTableRecord
  2
SW_CENTERMARKSYMBOL_0
340
0
102
{BLKREFS
331
1B6
102
}
  0
BLOCK_RECORD
  5
1B7
330
1
100
AcDbSymbolTableRecord
100
AcDbBlockTableRecord
  2
SW_CENTERMARKSYMBOL_1
340
0
102
{BLKREFS
331
1C2
102
}
  0
BLOCK_RECORD
  5
1C3
330
1
100
AcDbSymbolTableRecord
100
AcDbBlockTableRecord
  2
SW_CENTERMARKSYMBOL_2
340
0
102
{BLKREFS
331
1CE
102
}
  0
BLOCK_RECORD
  5
1CF
330
1
100
AcDbSymbolTableRecord
100
AcDbBlockTableRecord
  2
SW_CENTERMARKSYMBOL_3
340
0
102
{BLKREFS
331
1DA
102
}
  0
BLOCK_RECORD
  5
1DB
330
1
100
AcDbSymbolTableRecord
100
AcDbBlockTableRecord
  2
SW_CENTERMARKSYMBOL_4
340
0
102
{BLKREFS
331
1E6
102
}
  0
BLOCK_RECORD
  5
228
330
1
100
AcDbSymbolTableRecord
100
AcDbBlockTableRecord
  2
_D_11
340
0
  0
BLOCK_RECORD
  5
232
330
1
100
AcDbSymbolTableRecord
100
AcDbBlockTableRecord
  2
_D_12
340
0
  0
BLOCK_RECORD
  5
23D
330
1
100
AcDbSymbolTableRecord
100
AcDbBlockTableRecord
  2
_D_13
340
0
  0
BLOCK_RECORD
  5
247
330
1
100
AcDbSymbolTableRecord
100
AcDbBlockTableRecord
  2
_D_14
340
0
  0
BLOCK_RECORD
  5
251
330
1
100
AcDbSymbolTableRecord
100
AcDbBlockTableRecord
  2
_D_15
340
0
  0
BLOCK_RECORD
  5
25B
330
1
100
AcDbSymbolTableRecord
100
AcDbBlockTableRecord
  2
_D_16
340
0
  0
BLOCK_RECORD
  5
263
330
1
100
AcDbSymbolTableRecord
100
AcDbBlockTableRecord
  2
SW_CENTERMARKSYMBOL_5
340
0
102
{BLKREFS
331
26E
102
}
  0
BLOCK_RECORD
  5
317
330
1
100
AcDbSymbolTableRecord
100
AcDbBlockTableRecord
  2
_D_17
340
0
  0
BLOCK_RECORD
  5
321
330
1
100
AcDbSymbolTableRecord
100
AcDbBlockTableRecord
  2
_D_18
340
0
  0
BLOCK_RECORD
  5
32B
330
1
100
AcDbSymbolTableRecord
100
AcDbBlockTableRecord
  2
_D_19
340
0
  0
BLOCK_RECORD
  5
333
330
1
100
AcDbSymbolTableRecord
100
AcDbBlockTableRecord
  2
SW_CENTERMARKSYMBOL_6
340
0
102
{BLKREFS
331
33E
102
}
  0
ENDTAB
  0
ENDSEC
  0
SECTION
  2
BLOCKS
  0
BLOCK
  5
20
330
1F
100
AcDbEntity
  8
0
100
AcDbBlockBegin
  2
*Model_Space
 70
     0
 10
0.0
 20
0.0
 30
0.0
  3
*Model_Space
  1

  0
ENDBLK
  5
21
330
1F
100
AcDbEntity
  8
0
100
AcDbBlockEnd
  0
BLOCK
  5
1C
330
1B
100
AcDbEntity
 67
     1
  8
0
100
AcDbBlockBegin
  2
*Paper_Space
 70
     0
 10
0.0
 20
0.0
 30
0.0
  3
*Paper_Space
  1

  0
ENDBLK
  5
1D
330
1B
100
AcDbEntity
 67
     1
  8
0
100
AcDbBlockEnd
  0
BLOCK
  5
24
330
23
100
AcDbEntity
  8
0
100
AcDbBlockBegin
  2
*Paper_Space0
 70
     0
 10
0.0
 20
0.0
 30
0.0
  3
*Paper_Space0
  1

  0
ENDBLK
  5
25
330
23
100
AcDbEntity
  8
0
100
AcDbBlockEnd
  0
BLOCK
  5
7D
330
7C
100
AcDbEntity
  8
0
100
AcDbBlockBegin
  2
圖塊6_1
 70
     0
 10
0.0
 20
0.0
 30
0.0
  3
圖塊6_1
  1

  0
ARC
  5
7F
330
7C
100
AcDbEntity
  8
0
 62
     7
370
    30
100
AcDbCircle
 10
1.275128695
 20
5.0850569076
 30
0.0
 40
1.275128694953059
100
AcDbArc
 50
130.2115225915
 51
228.588904108
  0
ARC
  5
80
330
7C
100
AcDbEntity
  8
0
 62
     7
370
    30
100
AcDbCircle
 10
4.0424279984
 20
4.9957878679
 30
0.0
 40
2.147779522348018
100
AcDbArc
 50
140.4331765613
 51
251.0865666567
  0
ARC
  5
81
330
7C
100
AcDbEntity
  8
0
 62
     7
370
    30
100
AcDbCircle
 10
4.3137534985
 20
5.2597966427
 30
0.0
 40
2.491363881474885
100
AcDbArc
 50
247.1485306747
 51
309.6030773927
  0
LINE
  5
82
330
7C
100
AcDbEntity
  8
0
 62
     7
370
    30
100
AcDbLine
 10
1.5407481057
 20
7.1101521653
 30
0.0
 11
0.4518912267
 21
6.0588296016
 31
0.0
  0
LINE
  5
83
330
7C
100
AcDbEntity
  8
0
 62
     7
370
    30
100
AcDbLine
 10
0.4316857416
 20
4.1287320814
 30
0.0
 11
3.7726876668
 21
1.2248955479
 31
0.0
  0
LINE
  5
84
330
7C
100
AcDbEntity
  8
0
 62
     7
370
    30
100
AcDbLine
 10
3.7726876668
 20
1.2248955479
 30
0.0
 11
3.2468110664
 21
0.7116452225
 31
0.0
  0
LINE
  5
85
330
7C
100
AcDbEntity
  8
0
 62
     7
370
    30
100
AcDbLine
 10
3.2468110664
 20
0.7116452225
 30
0.0
 11
4.0733772037
 21
0.0
 31
0.0
  0
LINE
  5
86
330
7C
100
AcDbEntity
  8
0
 62
     7
370
    30
100
AcDbLine
 10
6.7480975657
 20
2.5971483046
 30
0.0
 11
5.901911706
 21
3.3402530777
 31
0.0
  0
LINE
  5
87
330
7C
100
AcDbEntity
  8
0
 62
     7
370
    30
100
AcDbLine
 10
2.3867429786
 20
6.3638755813
 30
0.0
 11
1.5407481057
 21
7.1101521653
 31
0.0
  0
LINE
  5
88
330
7C
100
AcDbEntity
  8
0
 62
     7
370
    30
100
AcDbLine
 10
4.0733772037
 20
0.0
 30
0.0
 11
6.7480975657
 21
2.5971483046
 31
0.0
  0
ENDBLK
  5
7E
330
7C
100
AcDbEntity
  8
0
100
AcDbBlockEnd
  0
BLOCK
  5
CF
330
CE
100
AcDbEntity
  8
0
100
AcDbBlockBegin
  2
SW_NOTE_0
 70
     0
 10
0.0
 20
0.0
 30
0.0
  3
SW_NOTE_0
  1

  0
MTEXT
  5
D1
330
CE
100
AcDbEntity
  8
0
  6
Continuous
 62
     0
370
     0
100
AcDbMText
 10
0.0
 20
2.842215329
 30
0.0
 40
2.2048611111
 41
0.0
 71
     1
 72
     1
  1
PROPRIETARY AND CONFIDENTIAL
  7
SLDTEXTSTYLE0
 73
     1
 44
1.0
  0
MTEXT
  5
D2
330
CE
100
AcDbEntity
  8
0
  6
Continuous
 62
     0
370
     0
100
AcDbMText
 10
0.0
 20
-0.0683195667
 30
0.0
 40
1.5434027778
 41
0.0
 71
     1
 72
     1
  1
THE INFORMATION CONTAINED IN THIS DRAWING IS THE SOLE PROPERTY OF UNICE E-O SERVICES INC. ANY REPRODUCTION IN PART OR AS A WHOLE WITHOUT THE WRITTEN PERMISSION OF UNICE E-O SERVICES INC IS
  7
SLDTEXTSTYLE0
 73
     1
 44
1.0
  0
MTEXT
  5
D3
330
CE
100
AcDbEntity
  8
0
  6
Continuous
 62
     0
370
     0
100
AcDbMText
 10
0.0
 20
-2.1261899122
 30
0.0
 40
1.5434027778
 41
0.0
 71
     1
 72
     1
  1
PROHIBITED.
  7
SLDTEXTSTYLE0
 73
     1
 44
1.0
  0
ENDBLK
  5
D0
330
CE
100
AcDbEntity
  8
0
100
AcDbBlockEnd
  0
BLOCK
  5
105
330
104
100
AcDbEntity
  8
0
100
AcDbBlockBegin
  2
SW_NOTE_1
 70
     0
 10
0.0
 20
0.0
 30
0.0
  3
SW_NOTE_1
  1

  0
MTEXT
  5
107
330
104
100
AcDbEntity
  8
SLD-0
 62
     0
100
AcDbMText
 10
0.0
 20
1.7053291974
 30
0.0
 40
1.3229166667
 41
0.0
 71
     1
 72
     1
  1
No.5, Andong Rd., Chung Li District,
  7
SLDTEXTSTYLE0
 73
     1
 44
1.0
  0
MTEXT
  5
108
330
104
100
AcDbEntity
  8
SLD-0
 62
     0
100
AcDbMText
 10
0.0
 20
-0.0585596702
 30
0.0
 40
1.3229166667
 41
0.0
 71
     1
 72
     1
  1
Taoyuan City 32063, Taiwan, R.O.C.
  7
SLDTEXTSTYLE0
 73
     1
 44
1.0
  0
ENDBLK
  5
106
330
104
100
AcDbEntity
  8
0
100
AcDbBlockEnd
  0
BLOCK
  5
135
330
134
100
AcDbEntity
  8
0
100
AcDbBlockBegin
  2
_D
 70
     0
 10
0.0
 20
0.0
 30
0.0
  3
_D
  1

  0
SOLID
  5
137
330
134
100
AcDbEntity
  8
SLD-0
100
AcDbTrace
 10
28.2169619777
 20
88.0283069619
 30
0.0
 11
28.4252953111
 21
89.6949736286
 31
0.0
 12
28.0086286444
 22
89.6949736286
 32
0.0
 13
28.0086286444
 23
89.6949736286
 33
0.0
  0
SOLID
  5
138
330
134
100
AcDbEntity
  8
SLD-0
100
AcDbTrace
 10
28.2169619777
 20
130.0283069619
 30
0.0
 11
28.0086286444
 21
128.3616402953
 31
0.0
 12
28.4252953111
 22
128.3616402953
 32
0.0
 13
28.4252953111
 23
128.3616402953
 33
0.0
  0
LINE
  5
139
330
134
100
AcDbEntity
  8
SLD-0
100
AcDbLine
 10
44.5964890162
 20
88.0283069619
 30
0.0
 11
27.3836286444
 21
88.0283069619
 31
0.0
  0
LINE
  5
13A
330
134
100
AcDbEntity
  8
SLD-0
100
AcDbLine
 10
44.5964890162
 20
130.0283069619
 30
0.0
 11
27.3836286444
 21
130.0283069619
 31
0.0
  0
LINE
  5
13B
330
134
100
AcDbEntity
  8
SLD-0
100
AcDbLine
 10
28.2169619777
 20
88.0283069619
 30
0.0
 11
28.2169619777
 21
130.0283069619
 31
0.0
  0
MTEXT
  5
13C
330
134
100
AcDbEntity
  8
SLD-0
100
AcDbMText
 10
25.5314043321
 20
107.3819115915
 30
0.0
 40
2.0833333333
 41
0.0
 71
     1
 72
     1
  1
42
  7
SLDTEXTSTYLE0
 11
-7.044195017643634E-15
 21
1.0
 31
0.0
 73
     1
 44
1.0
  0
ENDBLK
  5
136
330
134
100
AcDbEntity
  8
0
100
AcDbBlockEnd
  0
BLOCK
  5
13F
330
13E
100
AcDbEntity
  8
0
100
AcDbBlockBegin
  2
_D_1
 70
     0
 10
0.0
 20
0.0
 30
0.0
  3
_D_1
  1

  0
SOLID
  5
141
330
13E
100
AcDbEntity
  8
SLD-0
100
AcDbTrace
 10
42.4298223495
 20
148.7116402953
 30
0.0
 11
44.0964890162
 21
148.5033069619
 31
0.0
 12
44.0964890162
 22
148.9199736286
 32
0.0
 13
44.0964890162
 23
148.9199736286
 33
0.0
  0
SOLID
  5
142
330
13E
100
AcDbEntity
  8
SLD-0
100
AcDbTrace
 10
84.4298223495
 20
148.7116402953
 30
0.0
 11
82.7631556828
 21
148.9199736286
 31
0.0
 12
82.7631556828
 22
148.5033069619
 32
0.0
 13
82.7631556828
 23
148.5033069619
 33
0.0
  0
LINE
  5
143
330
13E
100
AcDbEntity
  8
SLD-0
100
AcDbLine
 10
42.4298223495
 20
127.8616402953
 30
0.0
 11
42.4298223495
 21
149.5449736286
 31
0.0
  0
LINE
  5
144
330
13E
100
AcDbEntity
  8
SLD-0
100
AcDbLine
 10
84.4298223495
 20
127.8616402953
 30
0.0
 11
84.4298223495
 21
149.5449736286
 31
0.0
  0
LINE
  5
145
330
13E
100
AcDbEntity
  8
SLD-0
100
AcDbLine
 10
42.4298223495
 20
148.7116402953
 30
0.0
 11
84.4298223495
 21
148.7116402953
 31
0.0
  0
MTEXT
  5
146
330
13E
100
AcDbEntity
  8
SLD-0
100
AcDbMText
 10
61.3436094671
 20
151.3971979409
 30
0.0
 40
2.0833333333
 41
0.0
 71
     1
 72
     1
  1
42
  7
SLDTEXTSTYLE0
 73
     1
 44
1.0
  0
ENDBLK
  5
140
330
13E
100
AcDbEntity
  8
0
100
AcDbBlockEnd
  0
BLOCK
  5
149
330
148
100
AcDbEntity
  8
0
100
AcDbBlockBegin
  2
_D_2
 70
     0
 10
0.0
 20
0.0
 30
0.0
  3
_D_2
  1

  0
SOLID
  5
14B
330
148
100
AcDbEntity
  8
SLD-0
100
AcDbTrace
 10
31.9131556828
 20
130.0283069619
 30
0.0
 11
31.7048223495
 21
128.3616402953
 31
0.0
 12
32.1214890162
 22
128.3616402953
 32
0.0
 13
32.1214890162
 23
128.3616402953
 33
0.0
  0
SOLID
  5
14C
330
148
100
AcDbEntity
  8
SLD-0
100
AcDbTrace
 10
31.9131556828
 20
113.0283069619
 30
0.0
 11
32.1214890162
 21
114.6949736286
 31
0.0
 12
31.7048223495
 22
114.6949736286
 32
0.0
 13
31.7048223495
 23
114.6949736286
 33
0.0
  0
LINE
  5
14D
330
148
100
AcDbEntity
  8
SLD-0
100
AcDbLine
 10
44.5964890162
 20
130.0283069619
 30
0.0
 11
31.0798223495
 21
130.0283069619
 31
0.0
  0
LINE
  5
14E
330
148
100
AcDbEntity
  8
SLD-0
100
AcDbLine
 10
62.5964890162
 20
113.0283069619
 30
0.0
 11
31.0798223495
 21
113.0283069619
 31
0.0
  0
LINE
  5
14F
330
148
100
AcDbEntity
  8
SLD-0
100
AcDbLine
 10
31.9131556828
 20
130.0283069619
 30
0.0
 11
31.9131556828
 21
113.0283069619
 31
0.0
  0
MTEXT
  5
150
330
148
100
AcDbEntity
  8
SLD-0
100
AcDbMText
 10
29.2275980372
 20
118.4374567936
 30
0.0
 40
2.0833333333
 41
0.0
 71
     1
 72
     1
  1
17
  7
SLDTEXTSTYLE0
 11
-7.044195017643634E-15
 21
1.0
 31
0.0
 73
     1
 44
1.0
  0
ENDBLK
  5
14A
330
148
100
AcDbEntity
  8
0
100
AcDbBlockEnd
  0
BLOCK
  5
153
330
152
100
AcDbEntity
  8
0
100
AcDbBlockBegin
  2
_D_3
 70
     0
 10
0.0
 20
0.0
 30
0.0
  3
_D_3
  1

  0
SOLID
  5
155
330
152
100
AcDbEntity
  8
SLD-0
100
AcDbTrace
 10
63.4298223495
 20
144.5449736286
 30
0.0
 11
61.7631556828
 21
144.7533069619
 31
0.0
 12
61.7631556828
 22
144.3366402953
 32
0.0
 13
61.7631556828
 23
144.3366402953
 33
0.0
  0
SOLID
  5
156
330
152
100
AcDbEntity
  8
SLD-0
100
AcDbTrace
 10
42.4298223495
 20
144.5449736286
 30
0.0
 11
44.0964890162
 21
144.3366402953
 31
0.0
 12
44.0964890162
 22
144.7533069619
 32
0.0
 13
44.0964890162
 23
144.7533069619
 33
0.0
  0
LINE
  5
157
330
152
100
AcDbEntity
  8
SLD-0
100
AcDbLine
 10
63.4298223495
 20
113.8616402953
 30
0.0
 11
63.4298223495
 21
145.3783069619
 31
0.0
  0
LINE
  5
158
330
152
100
AcDbEntity
  8
SLD-0
100
AcDbLine
 10
42.4298223495
 20
127.8616402953
 30
0.0
 11
42.4298223495
 21
145.3783069619
 31
0.0
  0
LINE
  5
159
330
152
100
AcDbEntity
  8
SLD-0
100
AcDbLine
 10
63.4298223495
 20
144.5449736286
 30
0.0
 11
42.4298223495
 21
144.5449736286
 31
0.0
  0
MTEXT
  5
15A
330
152
100
AcDbEntity
  8
SLD-0
100
AcDbMText
 10
52.8389721812
 20
147.2305312743
 30
0.0
 40
2.0833333333
 41
0.0
 71
     1
 72
     1
  1
21
  7
SLDTEXTSTYLE0
 73
     1
 44
1.0
  0
ENDBLK
  5
154
330
152
100
AcDbEntity
  8
0
100
AcDbBlockEnd
  0
BLOCK
  5
15D
330
15C
100
AcDbEntity
  8
0
100
AcDbBlockBegin
  2
_D_4
 70
     0
 10
0.0
 20
0.0
 30
0.0
  3
_D_4
  1

  0
SOLID
  5
15F
330
15C
100
AcDbEntity
  8
SLD-0
100
AcDbTrace
 10
45.4298223495
 20
140.3783069619
 30
0.0
 11
47.0964890162
 21
140.1699736286
 31
0.0
 12
47.0964890162
 22
140.5866402953
 32
0.0
 13
47.0964890162
 23
140.5866402953
 33
0.0
  0
SOLID
  5
160
330
15C
100
AcDbEntity
  8
SLD-0
100
AcDbTrace
 10
63.4298223495
 20
140.3783069619
 30
0.0
 11
61.7631556828
 21
140.5866402953
 31
0.0
 12
61.7631556828
 22
140.1699736286
 32
0.0
 13
61.7631556828
 23
140.1699736286
 33
0.0
  0
LINE
  5
161
330
15C
100
AcDbEntity
  8
SLD-0
100
AcDbLine
 10
45.4298223495
 20
130.5116402953
 30
0.0
 11
45.4298223495
 21
141.2116402953
 31
0.0
  0
LINE
  5
162
330
15C
100
AcDbEntity
  8
SLD-0
100
AcDbLine
 10
63.4298223495
 20
113.8616402953
 30
0.0
 11
63.4298223495
 21
141.2116402953
 31
0.0
  0
LINE
  5
163
330
15C
100
AcDbEntity
  8
SLD-0
100
AcDbLine
 10
45.4298223495
 20
140.3783069619
 30
0.0
 11
63.4298223495
 21
140.3783069619
 31
0.0
  0
MTEXT
  5
164
330
15C
100
AcDbEntity
  8
SLD-0
100
AcDbMText
 10
52.8383871622
 20
143.0638646076
 30
0.0
 40
2.0833333333
 41
0.0
 71
     1
 72
     1
  1
18
  7
SLDTEXTSTYLE0
 73
     1
 44
1.0
  0
ENDBLK
  5
15E
330
15C
100
AcDbEntity
  8
0
100
AcDbBlockEnd
  0
BLOCK
  5
167
330
166
100
AcDbEntity
  8
0
100
AcDbBlockBegin
  2
_D_5
 70
     0
 10
0.0
 20
0.0
 30
0.0
  3
_D_5
  1

  0
SOLID
  5
169
330
166
100
AcDbEntity
  8
SLD-0
100
AcDbTrace
 10
81.4298223495
 20
140.3783069619
 30
0.0
 11
79.7631556828
 21
140.5866402953
 31
0.0
 12
79.7631556828
 22
140.1699736286
 32
0.0
 13
79.7631556828
 23
140.1699736286
 33
0.0
  0
SOLID
  5
16A
330
166
100
AcDbEntity
  8
SLD-0
100
AcDbTrace
 10
63.4298223495
 20
140.3783069619
 30
0.0
 11
65.0964890162
 21
140.1699736286
 31
0.0
 12
65.0964890162
 22
140.5866402953
 32
0.0
 13
65.0964890162
 23
140.5866402953
 33
0.0
  0
LINE
  5
16B
330
166
100
AcDbEntity
  8
SLD-0
100
AcDbLine
 10
81.4298223495
 20
130.5116402953
 30
0.0
 11
81.4298223495
 21
141.2116402953
 31
0.0
  0
LINE
  5
16C
330
166
100
AcDbEntity
  8
SLD-0
100
AcDbLine
 10
63.4298223495
 20
113.8616402953
 30
0.0
 11
63.4298223495
 21
141.2116402953
 31
0.0
  0
LINE
  5
16D
330
166
100
AcDbEntity
  8
SLD-0
100
AcDbLine
 10
81.4298223495
 20
140.3783069619
 30
0.0
 11
63.4298223495
 21
140.3783069619
 31
0.0
  0
MTEXT
  5
16E
330
166
100
AcDbEntity
  8
SLD-0
100
AcDbMText
 10
70.8383871622
 20
143.0638646076
 30
0.0
 40
2.0833333333
 41
0.0
 71
     1
 72
     1
  1
18
  7
SLDTEXTSTYLE0
 73
     1
 44
1.0
  0
ENDBLK
  5
168
330
166
100
AcDbEntity
  8
0
100
AcDbBlockEnd
  0
BLOCK
  5
171
330
170
100
AcDbEntity
  8
0
100
AcDbBlockBegin
  2
_D_6
 70
     0
 10
0.0
 20
0.0
 30
0.0
  3
_D_6
  1

  0
SOLID
  5
173
330
170
100
AcDbEntity
  8
SLD-0
100
AcDbTrace
 10
36.0798223495
 20
127.0283069619
 30
0.0
 11
35.8714890162
 21
125.3616402953
 31
0.0
 12
36.2881556828
 22
125.3616402953
 32
0.0
 13
36.2881556828
 23
125.3616402953
 33
0.0
  0
SOLID
  5
174
330
170
100
AcDbEntity
  8
SLD-0
100
AcDbTrace
 10
36.0798223495
 20
113.0283069619
 30
0.0
 11
36.2881556828
 21
114.6949736286
 31
0.0
 12
35.8714890162
 22
114.6949736286
 32
0.0
 13
35.8714890162
 23
114.6949736286
 33
0.0
  0
LINE
  5
175
330
170
100
AcDbEntity
  8
SLD-0
100
AcDbLine
 10
41.9464890162
 20
127.0283069619
 30
0.0
 11
35.2464890162
 21
127.0283069619
 31
0.0
  0
LINE
  5
176
330
170
100
AcDbEntity
  8
SLD-0
100
AcDbLine
 10
62.5964890162
 20
113.0283069619
 30
0.0
 11
35.2464890162
 21
113.0283069619
 31
0.0
  0
LINE
  5
177
330
170
100
AcDbEntity
  8
SLD-0
100
AcDbLine
 10
36.0798223495
 20
127.0283069619
 30
0.0
 11
36.0798223495
 21
113.0283069619
 31
0.0
  0
MTEXT
  5
178
330
170
100
AcDbEntity
  8
SLD-0
100
AcDbMText
 10
33.3942647038
 20
118.4368717746
 30
0.0
 40
2.0833333333
 41
0.0
 71
     1
 72
     1
  1
14
  7
SLDTEXTSTYLE0
 11
-7.044195017643634E-15
 21
1.0
 31
0.0
 73
     1
 44
1.0
  0
ENDBLK
  5
172
330
170
100
AcDbEntity
  8
0
100
AcDbBlockEnd
  0
BLOCK
  5
17B
330
17A
100
AcDbEntity
  8
0
100
AcDbBlockBegin
  2
_D_7
 70
     0
 10
0.0
 20
0.0
 30
0.0
  3
_D_7
  1

  0
SOLID
  5
17D
330
17A
100
AcDbEntity
  8
SLD-0
100
AcDbTrace
 10
36.0798223495
 20
91.0283069619
 30
0.0
 11
36.2881556828
 21
92.6949736286
 31
0.0
 12
35.8714890162
 22
92.6949736286
 32
0.0
 13
35.8714890162
 23
92.6949736286
 33
0.0
  0
SOLID
  5
17E
330
17A
100
AcDbEntity
  8
SLD-0
100
AcDbTrace
 10
36.0798223495
 20
113.0283069619
 30
0.0
 11
35.8714890162
 21
111.3616402953
 31
0.0
 12
36.2881556828
 22
111.3616402953
 32
0.0
 13
36.2881556828
 23
111.3616402953
 33
0.0
  0
LINE
  5
17F
330
17A
100
AcDbEntity
  8
SLD-0
100
AcDbLine
 10
41.9464890162
 20
91.0283069619
 30
0.0
 11
35.2464890162
 21
91.0283069619
 31
0.0
  0
LINE
  5
180
330
17A
100
AcDbEntity
  8
SLD-0
100
AcDbLine
 10
62.5964890162
 20
113.0283069619
 30
0.0
 11
35.2464890162
 21
113.0283069619
 31
0.0
  0
LINE
  5
181
330
17A
100
AcDbEntity
  8
SLD-0
100
AcDbLine
 10
36.0798223495
 20
91.0283069619
 30
0.0
 11
36.0798223495
 21
113.0283069619
 31
0.0
  0
MTEXT
  5
182
330
17A
100
AcDbEntity
  8
SLD-0
100
AcDbMText
 10
33.3942647038
 20
100.4368717746
 30
0.0
 40
2.0833333333
 41
0.0
 71
     1
 72
     1
  1
22
  7
SLDTEXTSTYLE0
 11
6.123233995736766E-17
 21
1.0
 31
0.0
 73
     1
 44
1.0
  0
ENDBLK
  5
17C
330
17A
100
AcDbEntity
  8
0
100
AcDbBlockEnd
  0
BLOCK
  5
186
330
185
100
AcDbEntity
  8
0
100
AcDbBlockBegin
  2
_D_8
 70
     0
 10
0.0
 20
0.0
 30
0.0
  3
_D_8
  1

  0
SOLID
  5
188
330
185
100
AcDbEntity
  8
SLD-0
100
AcDbTrace
 10
69.6861239264
 20
114.7046779171
 30
0.0
 11
71.3499209379
 21
114.9348084451
 31
0.0
 12
71.2420796691
 22
115.3372775394
 32
0.0
 13
71.2420796691
 23
115.3372775394
 33
0.0
  0
LINE
  5
189
330
185
100
AcDbEntity
  8
SLD-0
100
AcDbLine
 10
69.6861239264
 20
114.7046779171
 30
0.0
 11
85.1241486551
 21
118.8412841758
 31
0.0
  0
LINE
  5
18A
330
185
100
AcDbEntity
  8
SLD-0
100
AcDbLine
 10
85.1241486551
 20
118.8412841758
 30
0.0
 11
106.4428699917
 21
118.8412841758
 31
0.0
  0
MTEXT
  5
18B
330
185
100
AcDbEntity
  8
SLD-0
100
AcDbMText
 10
86.1658153217
 20
127.9273046048
 30
0.0
 40
2.0833333333
 41
0.0
 71
     1
 72
     1
  1
ACCEPTS
  7
SLDTEXTSTYLE0
 73
     1
 44
1.0
  0
MTEXT
  5
18C
330
185
100
AcDbEntity
  8
SLD-0
100
AcDbMText
 10
86.9470653217
 20
124.729966716
 30
0.0
 40
2.0833333333
 41
0.0
 71
     1
 72
     1
  1

  7
SLDTEXTSTYLE0
 73
     1
 44
1.0
  0
MTEXT
  5
18D
330
185
100
AcDbEntity
  8
SLD-0
100
AcDbMText
 10
86.9615329154
 20
124.7241796618
 30
0.0
 40
2.0833333333
 41
0.0
 71
     1
 72
     1
  1
%%c
  7
SLDTEXTSTYLE0
 73
     1
 44
1.0
  0
MTEXT
  5
18E
330
185
100
AcDbEntity
  8
SLD-0
100
AcDbMText
 10
89.9990039971
 20
124.729966716
 30
0.0
 40
2.0833333333
 41
0.0
 71
     1
 72
     1
  1
0.5" OPTICS
  7
SLDTEXTSTYLE0
 73
     1
 44
1.0
  0
MTEXT
  5
18F
330
185
100
AcDbEntity
  8
SLD-0
100
AcDbMText
 10
86.1658153217
 20
121.5268416275
 30
0.0
 40
2.0833333333
 41
0.0
 71
     1
 72
     1
  1
Max.THK 6.4
  7
SLDTEXTSTYLE0
 73
     1
 44
1.0
  0
ENDBLK
  5
187
330
185
100
AcDbEntity
  8
0
100
AcDbBlockEnd
  0
BLOCK
  5
193
330
192
100
AcDbEntity
  8
0
100
AcDbBlockBegin
  2
_D_9
 70
     0
 10
0.0
 20
0.0
 30
0.0
  3
_D_9
  1

  0
SOLID
  5
195
330
192
100
AcDbEntity
  8
SLD-0
100
AcDbTrace
 10
60.1110099045
 20
116.7680240575
 30
0.0
 11
61.0614591739
 21
115.3831678404
 31
0.0
 12
61.3731022651
 22
115.6597355442
 32
0.0
 13
61.3731022651
 23
115.6597355442
 33
0.0
  0
SOLID
  5
196
330
192
100
AcDbEntity
  8
SLD-0
100
AcDbTrace
 10
66.7486347945
 20
109.2885898664
 30
0.0
 11
65.7981855252
 21
110.6734460834
 31
0.0
 12
65.4865424339
 22
110.3968783797
 32
0.0
 13
65.4865424339
 23
110.3968783797
 33
0.0
  0
LINE
  5
197
330
192
100
AcDbEntity
  8
SLD-0
100
AcDbLine
 10
66.7486347945
 20
109.2885898664
 30
0.0
 11
88.5836411286
 21
84.6843834458
 31
0.0
  0
LINE
  5
198
330
192
100
AcDbEntity
  8
SLD-0
100
AcDbLine
 10
60.1110099045
 20
116.7680240575
 30
0.0
 11
66.7486347945
 21
109.2885898664
 31
0.0
  0
LINE
  5
199
330
192
100
AcDbEntity
  8
SLD-0
100
AcDbLine
 10
88.5836411286
 20
84.6843834458
 30
0.0
 11
101.4127797776
 21
84.6843834458
 31
0.0
  0
MTEXT
  5
19A
330
192
100
AcDbEntity
  8
SLD-0
100
AcDbMText
 10
89.6253077952
 20
87.3757280971
 30
0.0
 40
2.0833333333
 41
0.0
 71
     1
 72
     1
  1
C.A.
  7
SLDTEXTSTYLE0
 73
     1
 44
1.0
  0
MTEXT
  5
19B
330
192
100
AcDbEntity
  8
SLD-0
100
AcDbMText
 10
95.1924374966
 20
87.3699410429
 30
0.0
 40
2.0833333333
 41
0.0
 71
     1
 72
     1
  1
%%c
  7
SLDTEXTSTYLE0
 73
     1
 44
1.0
  0
MTEXT
  5
19C
330
192
100
AcDbEntity
  8
SLD-0
100
AcDbMText
 10
98.2299088208
 20
87.3757280971
 30
0.0
 40
2.0833333333
 41
0.0
 71
     1
 72
     1
  1
10
  7
SLDTEXTSTYLE0
 73
     1
 44
1.0
  0
ENDBLK
  5
194
330
192
100
AcDbEntity
  8
0
100
AcDbBlockEnd
  0
BLOCK
  5
1A0
330
19F
100
AcDbEntity
  8
0
100
AcDbBlockBegin
  2
_NONE
 70
     0
 10
0.0
 20
0.0
 30
0.0
  3
_NONE
  1

  0
ENDBLK
  5
1A1
330
19F
100
AcDbEntity
  8
0
100
AcDbBlockEnd
  0
BLOCK
  5
1A3
330
1A2
100
AcDbEntity
  8
0
100
AcDbBlockBegin
  2
_D_10
 70
     0
 10
0.0
 20
0.0
 30
0.0
  3
_D_10
  1

  0
SOLID
  5
1A5
330
1A2
100
AcDbEntity
  8
SLD-0
100
AcDbTrace
 10
44.3331527392
 20
128.2611150434
 30
0.0
 11
43.381063244
 21
129.6448441169
 31
0.0
 12
43.0697480719
 22
129.3679073466
 32
0.0
 13
43.0697480719
 23
129.3679073466
 33
0.0
  0
LINE
  5
1A6
330
1A2
100
AcDbEntity
  8
SLD-0
100
AcDbLine
 10
44.3331527392
 20
128.2611150434
 30
0.0
 11
33.5540571607
 21
140.3783069619
 31
0.0
  0
LINE
  5
1A7
330
1A2
100
AcDbEntity
  8
SLD-0
100
AcDbLine
 10
46.5264919599
 20
125.7954988805
 30
0.0
 11
44.3331527392
 21
128.2611150434
 31
0.0
  0
LINE
  5
1A8
330
1A2
100
AcDbEntity
  8
SLD-0
100
AcDbLine
 10
33.5540571607
 20
140.3783069619
 30
0.0
 11
23.9215334614
 21
140.3783069619
 31
0.0
  0
MTEXT
  5
1AA
330
1A2
100
AcDbEntity
  8
SLD-0
100
AcDbMText
 10
23.9215334614
 20
143.0638646076
 30
0.0
 40
2.0833333333
 41
0.0
 71
     1
 72
     1
  1
4 x M4
  7
SLDTEXTSTYLE1
 73
     1
 44
1.0
  0
ENDBLK
  5
1A4
330
1A2
100
AcDbEntity
  8
0
100
AcDbBlockEnd
  0
BLOCK
  5
1AC
330
1AB
100
AcDbEntity
  8
0
100
AcDbBlockBegin
  2
SW_CENTERMARKSYMBOL_0
 70
     0
 10
0.0
 20
0.0
 30
0.0
  3
SW_CENTERMARKSYMBOL_0
  1

  0
LINE
  5
1AE
330
1AB
100
AcDbEntity
  8
SLD-0
 62
     0
100
AcDbLine
 10
0.0
 20
0.0
 30
0.0
 11
0.0
 21
1.0
 31
0.0
  0
LINE
  5
1AF
330
1AB
100
AcDbEntity
  8
SLD-0
 62
     0
100
AcDbLine
 10
0.0
 20
0.0
 30
0.0
 11
-1.0
 21
0.0
 31
0.0
  0
LINE
  5
1B0
330
1AB
100
AcDbEntity
  8
SLD-0
 62
     0
100
AcDbLine
 10
0.0
 20
0.0
 30
0.0
 11
0.0
 21
-1.0
 31
0.0
  0
LINE
  5
1B1
330
1AB
100
AcDbEntity
  8
SLD-0
 62
     0
100
AcDbLine
 10
0.0
 20
0.0
 30
0.0
 11
1.0
 21
0.0
 31
0.0
  0
LINE
  5
1B2
330
1AB
100
AcDbEntity
  8
SLD-0
 62
     0
100
AcDbLine
 10
0.0
 20
2.0
 30
0.0
 11
0.0
 21
2.65
 31
0.0
  0
LINE
  5
1B3
330
1AB
100
AcDbEntity
  8
SLD-0
 62
     0
100
AcDbLine
 10
-2.0
 20
0.0
 30
0.0
 11
-2.65
 21
0.0
 31
0.0
  0
LINE
  5
1B4
330
1AB
100
AcDbEntity
  8
SLD-0
 62
     0
100
AcDbLine
 10
0.0
 20
-2.0
 30
0.0
 11
0.0
 21
-2.65
 31
0.0
  0
LINE
  5
1B5
330
1AB
100
AcDbEntity
  8
SLD-0
 62
     0
100
AcDbLine
 10
2.0
 20
0.0
 30
0.0
 11
2.65
 21
0.0
 31
0.0
  0
ENDBLK
  5
1AD
330
1AB
100
AcDbEntity
  8
0
100
AcDbBlockEnd
  0
BLOCK
  5
1B8
330
1B7
100
AcDbEntity
  8
0
100
AcDbBlockBegin
  2
SW_CENTERMARKSYMBOL_1
 70
     0
 10
0.0
 20
0.0
 30
0.0
  3
SW_CENTERMARKSYMBOL_1
  1

  0
LINE
  5
1BA
330
1B7
100
AcDbEntity
  8
SLD-0
 62
     0
100
AcDbLine
 10
0.0
 20
0.0
 30
0.0
 11
0.0
 21
1.0
 31
0.0
  0
LINE
  5
1BB
330
1B7
100
AcDbEntity
  8
SLD-0
 62
     0
100
AcDbLine
 10
0.0
 20
0.0
 30
0.0
 11
-1.0
 21
0.0
 31
0.0
  0
LINE
  5
1BC
330
1B7
100
AcDbEntity
  8
SLD-0
 62
     0
100
AcDbLine
 10
0.0
 20
0.0
 30
0.0
 11
0.0
 21
-1.0
 31
0.0
  0
LINE
  5
1BD
330
1B7
100
AcDbEntity
  8
SLD-0
 62
     0
100
AcDbLine
 10
0.0
 20
0.0
 30
0.0
 11
1.0
 21
0.0
 31
0.0
  0
LINE
  5
1BE
330
1B7
100
AcDbEntity
  8
SLD-0
 62
     0
100
AcDbLine
 10
0.0
 20
2.0
 30
0.0
 11
0.0
 21
2.65
 31
0.0
  0
LINE
  5
1BF
330
1B7
100
AcDbEntity
  8
SLD-0
 62
     0
100
AcDbLine
 10
-2.0
 20
0.0
 30
0.0
 11
-2.65
 21
0.0
 31
0.0
  0
LINE
  5
1C0
330
1B7
100
AcDbEntity
  8
SLD-0
 62
     0
100
AcDbLine
 10
0.0
 20
-2.0
 30
0.0
 11
0.0
 21
-2.65
 31
0.0
  0
LINE
  5
1C1
330
1B7
100
AcDbEntity
  8
SLD-0
 62
     0
100
AcDbLine
 10
2.0
 20
0.0
 30
0.0
 11
2.65
 21
0.0
 31
0.0
  0
ENDBLK
  5
1B9
330
1B7
100
AcDbEntity
  8
0
100
AcDbBlockEnd
  0
BLOCK
  5
1C4
330
1C3
100
AcDbEntity
  8
0
100
AcDbBlockBegin
  2
SW_CENTERMARKSYMBOL_2
 70
     0
 10
0.0
 20
0.0
 30
0.0
  3
SW_CENTERMARKSYMBOL_2
  1

  0
LINE
  5
1C6
330
1C3
100
AcDbEntity
  8
SLD-0
 62
     0
100
AcDbLine
 10
0.0
 20
0.0
 30
0.0
 11
0.0
 21
1.0
 31
0.0
  0
LINE
  5
1C7
330
1C3
100
AcDbEntity
  8
SLD-0
 62
     0
100
AcDbLine
 10
0.0
 20
0.0
 30
0.0
 11
-1.0
 21
0.0
 31
0.0
  0
LINE
  5
1C8
330
1C3
100
AcDbEntity
  8
SLD-0
 62
     0
100
AcDbLine
 10
0.0
 20
0.0
 30
0.0
 11
0.0
 21
-1.0
 31
0.0
  0
LINE
  5
1C9
330
1C3
100
AcDbEntity
  8
SLD-0
 62
     0
100
AcDbLine
 10
0.0
 20
0.0
 30
0.0
 11
1.0
 21
0.0
 31
0.0
  0
LINE
  5
1CA
330
1C3
100
AcDbEntity
  8
SLD-0
 62
     0
100
AcDbLine
 10
0.0
 20
2.0
 30
0.0
 11
0.0
 21
2.65
 31
0.0
  0
LINE
  5
1CB
330
1C3
100
AcDbEntity
  8
SLD-0
 62
     0
100
AcDbLine
 10
-2.0
 20
0.0
 30
0.0
 11
-2.65
 21
0.0
 31
0.0
  0
LINE
  5
1CC
330
1C3
100
AcDbEntity
  8
SLD-0
 62
     0
100
AcDbLine
 10
0.0
 20
-2.0
 30
0.0
 11
0.0
 21
-2.65
 31
0.0
  0
LINE
  5
1CD
330
1C3
100
AcDbEntity
  8
SLD-0
 62
     0
100
AcDbLine
 10
2.0
 20
0.0
 30
0.0
 11
2.65
 21
0.0
 31
0.0
  0
ENDBLK
  5
1C5
330
1C3
100
AcDbEntity
  8
0
100
AcDbBlockEnd
  0
BLOCK
  5
1D0
330
1CF
100
AcDbEntity
  8
0
100
AcDbBlockBegin
  2
SW_CENTERMARKSYMBOL_3
 70
     0
 10
0.0
 20
0.0
 30
0.0
  3
SW_CENTERMARKSYMBOL_3
  1

  0
LINE
  5
1D2
330
1CF
100
AcDbEntity
  8
SLD-0
 62
     0
100
AcDbLine
 10
0.0
 20
0.0
 30
0.0
 11
0.0
 21
1.0
 31
0.0
  0
LINE
  5
1D3
330
1CF
100
AcDbEntity
  8
SLD-0
 62
     0
100
AcDbLine
 10
0.0
 20
0.0
 30
0.0
 11
-1.0
 21
0.0
 31
0.0
  0
LINE
  5
1D4
330
1CF
100
AcDbEntity
  8
SLD-0
 62
     0
100
AcDbLine
 10
0.0
 20
0.0
 30
0.0
 11
0.0
 21
-1.0
 31
0.0
  0
LINE
  5
1D5
330
1CF
100
AcDbEntity
  8
SLD-0
 62
     0
100
AcDbLine
 10
0.0
 20
0.0
 30
0.0
 11
1.0
 21
0.0
 31
0.0
  0
LINE
  5
1D6
330
1CF
100
AcDbEntity
  8
SLD-0
 62
     0
100
AcDbLine
 10
0.0
 20
2.0
 30
0.0
 11
0.0
 21
2.65
 31
0.0
  0
LINE
  5
1D7
330
1CF
100
AcDbEntity
  8
SLD-0
 62
     0
100
AcDbLine
 10
-2.0
 20
0.0
 30
0.0
 11
-2.65
 21
0.0
 31
0.0
  0
LINE
  5
1D8
330
1CF
100
AcDbEntity
  8
SLD-0
 62
     0
100
AcDbLine
 10
0.0
 20
-2.0
 30
0.0
 11
0.0
 21
-2.65
 31
0.0
  0
LINE
  5
1D9
330
1CF
100
AcDbEntity
  8
SLD-0
 62
     0
100
AcDbLine
 10
2.0
 20
0.0
 30
0.0
 11
2.65
 21
0.0
 31
0.0
  0
ENDBLK
  5
1D1
330
1CF
100
AcDbEntity
  8
0
100
AcDbBlockEnd
  0
BLOCK
  5
1DC
330
1DB
100
AcDbEntity
  8
0
100
AcDbBlockBegin
  2
SW_CENTERMARKSYMBOL_4
 70
     0
 10
0.0
 20
0.0
 30
0.0
  3
SW_CENTERMARKSYMBOL_4
  1

  0
LINE
  5
1DE
330
1DB
100
AcDbEntity
  8
SLD-0
 62
     0
100
AcDbLine
 10
0.0
 20
0.0
 30
0.0
 11
0.0
 21
1.0
 31
0.0
  0
LINE
  5
1DF
330
1DB
100
AcDbEntity
  8
SLD-0
 62
     0
100
AcDbLine
 10
0.0
 20
0.0
 30
0.0
 11
-1.0
 21
0.0
 31
0.0
  0
LINE
  5
1E0
330
1DB
100
AcDbEntity
  8
SLD-0
 62
     0
100
AcDbLine
 10
0.0
 20
0.0
 30
0.0
 11
0.0
 21
-1.0
 31
0.0
  0
LINE
  5
1E1
330
1DB
100
AcDbEntity
  8
SLD-0
 62
     0
100
AcDbLine
 10
0.0
 20
0.0
 30
0.0
 11
1.0
 21
0.0
 31
0.0
  0
LINE
  5
1E2
330
1DB
100
AcDbEntity
  8
SLD-0
 62
     0
100
AcDbLine
 10
0.0
 20
2.0
 30
0.0
 11
0.0
 21
11.0
 31
0.0
  0
LINE
  5
1E3
330
1DB
100
AcDbEntity
  8
SLD-0
 62
     0
100
AcDbLine
 10
-2.0
 20
0.0
 30
0.0
 11
-11.0
 21
0.0
 31
0.0
  0
LINE
  5
1E4
330
1DB
100
AcDbEntity
  8
SLD-0
 62
     0
100
AcDbLine
 10
0.0
 20
-2.0
 30
0.0
 11
0.0
 21
-11.0
 31
0.0
  0
LINE
  5
1E5
330
1DB
100
AcDbEntity
  8
SLD-0
 62
     0
100
AcDbLine
 10
2.0
 20
0.0
 30
0.0
 11
11.0
 21
0.0
 31
0.0
  0
ENDBLK
  5
1DD
330
1DB
100
AcDbEntity
  8
0
100
AcDbBlockEnd
  0
BLOCK
  5
229
330
228
100
AcDbEntity
  8
0
100
AcDbBlockBegin
  2
_D_11
 70
     0
 10
0.0
 20
0.0
 30
0.0
  3
_D_11
  1

  0
SOLID
  5
22B
330
228
100
AcDbEntity
  8
SLD-0
100
AcDbTrace
 10
113.2971902761
 20
113.0283069619
 30
0.0
 11
113.5055236095
 21
114.6949736286
 31
0.0
 12
113.0888569428
 22
114.6949736286
 32
0.0
 13
113.0888569428
 23
114.6949736286
 33
0.0
  0
SOLID
  5
22C
330
228
100
AcDbEntity
  8
SLD-0
100
AcDbTrace
 10
113.2971902761
 20
130.0283069619
 30
0.0
 11
113.0888569428
 21
128.3616402953
 31
0.0
 12
113.5055236095
 22
128.3616402953
 32
0.0
 13
113.5055236095
 23
128.3616402953
 33
0.0
  0
LINE
  5
22D
330
228
100
AcDbEntity
  8
SLD-0
100
AcDbLine
 10
122.119619616
 20
113.0283069619
 30
0.0
 11
112.4638569428
 21
113.0283069619
 31
0.0
  0
LINE
  5
22E
330
228
100
AcDbEntity
  8
SLD-0
100
AcDbLine
 10
117.619619616
 20
130.0283069619
 30
0.0
 11
112.4638569428
 21
130.0283069619
 31
0.0
  0
LINE
  5
22F
330
228
100
AcDbEntity
  8
SLD-0
100
AcDbLine
 10
113.2971902761
 20
113.0283069619
 30
0.0
 11
113.2971902761
 21
130.0283069619
 31
0.0
  0
MTEXT
  5
230
330
228
100
AcDbEntity
  8
SLD-0
100
AcDbMText
 10
110.6116326305
 20
120.2482667652
 30
0.0
 40
2.0833333333
 41
0.0
 71
     1
 72
     1
  1
17
  7
SLDTEXTSTYLE0
 11
6.123233995736766E-17
 21
1.0
 31
0.0
 73
     1
 44
1.0
  0
ENDBLK
  5
22A
330
228
100
AcDbEntity
  8
0
100
AcDbBlockEnd
  0
BLOCK
  5
233
330
232
100
AcDbEntity
  8
0
100
AcDbBlockBegin
  2
_D_12
 70
     0
 10
0.0
 20
0.0
 30
0.0
  3
_D_12
  1

  0
SOLID
  5
235
330
232
100
AcDbEntity
  8
SLD-0
 62
     7
100
AcDbTrace
 10
174.5529529493
 20
106.0469027626
 30
0.0
 11
174.344619616
 21
104.380236096
 31
0.0
 12
174.7612862826
 22
104.380236096
 32
0.0
 13
174.7612862826
 23
104.380236096
 33
0.0
  0
SOLID
  5
236
330
232
100
AcDbEntity
  8
SLD-0
 62
     7
100
AcDbTrace
 10
174.5529529493
 20
91.0469027626
 30
0.0
 11
174.7612862826
 21
92.7135694293
 31
0.0
 12
174.344619616
 22
92.7135694293
 32
0.0
 13
174.344619616
 23
92.7135694293
 33
0.0
  0
LINE
  5
237
330
232
100
AcDbEntity
  8
SLD-0
 62
     7
100
AcDbLine
 10
167.6862862826
 20
106.0469027626
 30
0.0
 11
175.3862862826
 21
106.0469027626
 31
0.0
  0
LINE
  5
238
330
232
100
AcDbEntity
  8
SLD-0
 62
     7
100
AcDbLine
 10
167.6862862826
 20
91.0469027626
 30
0.0
 11
175.3862862826
 21
91.0469027626
 31
0.0
  0
LINE
  5
239
330
232
100
AcDbEntity
  8
SLD-0
 62
     7
100
AcDbLine
 10
174.5529529493
 20
106.0469027626
 30
0.0
 11
174.5529529493
 21
91.0469027626
 31
0.0
  0
MTEXT
  5
23A
330
232
100
AcDbEntity
  8
SLD-0
 62
     7
100
AcDbMText
 10
171.8673953521
 20
95.4367320102
 30
0.0
 40
2.0833333333
 41
0.0
 71
     1
 72
     1
  1
%%c
  7
SLDTEXTSTYLE0
 11
-7.044195017643634E-15
 21
1.0
 31
0.0
 73
     1
 44
1.0
  0
MTEXT
  5
23B
330
232
100
AcDbEntity
  8
SLD-0
 62
     7
100
AcDbMText
 10
171.861608298
 20
98.4742031404
 30
0.0
 40
2.0833333333
 41
0.0
 71
     1
 72
     1
  1
15
  7
SLDTEXTSTYLE0
 11
-7.044195017643634E-15
 21
1.0
 31
0.0
 73
     1
 44
1.0
  0
ENDBLK
  5
234
330
232
100
AcDbEntity
  8
0
100
AcDbBlockEnd
  0
BLOCK
  5
23E
330
23D
100
AcDbEntity
  8
0
100
AcDbBlockBegin
  2
_D_13
 70
     0
 10
0.0
 20
0.0
 30
0.0
  3
_D_13
  1

  0
SOLID
  5
240
330
23D
100
AcDbEntity
  8
SLD-0
100
AcDbTrace
 10
117.9529529493
 20
148.7116402953
 30
0.0
 11
119.619619616
 21
148.5033069619
 31
0.0
 12
119.619619616
 22
148.9199736286
 32
0.0
 13
119.619619616
 23
148.9199736286
 33
0.0
  0
SOLID
  5
241
330
23D
100
AcDbEntity
  8
SLD-0
100
AcDbTrace
 10
168.3529529493
 20
148.7116402953
 30
0.0
 11
166.6862862826
 21
148.9199736286
 31
0.0
 12
166.6862862826
 22
148.5033069619
 32
0.0
 13
166.6862862826
 23
148.5033069619
 33
0.0
  0
LINE
  5
242
330
23D
100
AcDbEntity
  8
SLD-0
100
AcDbLine
 10
117.9529529493
 20
130.3616402953
 30
0.0
 11
117.9529529493
 21
149.5449736286
 31
0.0
  0
LINE
  5
243
330
23D
100
AcDbEntity
  8
SLD-0
100
AcDbLine
 10
168.3529529493
 20
106.780236096
 30
0.0
 11
168.3529529493
 21
149.5449736286
 31
0.0
  0
LINE
  5
244
330
23D
100
AcDbEntity
  8
SLD-0
100
AcDbLine
 10
117.9529529493
 20
148.7116402953
 30
0.0
 11
168.3529529493
 21
148.7116402953
 31
0.0
  0
MTEXT
  5
245
330
23D
100
AcDbEntity
  8
SLD-0
100
AcDbMText
 10
140.3679414442
 20
151.3971979409
 30
0.0
 40
2.0833333333
 41
0.0
 71
     1
 72
     1
  1
50.4
  7
SLDTEXTSTYLE0
 73
     1
 44
1.0
  0
ENDBLK
  5
23F
330
23D
100
AcDbEntity
  8
0
100
AcDbBlockEnd
  0
BLOCK
  5
248
330
247
100
AcDbEntity
  8
0
100
AcDbBlockBegin
  2
_D_14
 70
     0
 10
0.0
 20
0.0
 30
0.0
  3
_D_14
  1

  0
SOLID
  5
24A
330
247
100
AcDbEntity
  8
SLD-0
100
AcDbTrace
 10
117.9529529493
 20
140.3783069619
 30
0.0
 11
119.619619616
 21
140.1699736286
 31
0.0
 12
119.619619616
 22
140.5866402953
 32
0.0
 13
119.619619616
 23
140.5866402953
 33
0.0
  0
SOLID
  5
24B
330
247
100
AcDbEntity
  8
SLD-0
100
AcDbTrace
 10
122.9529529493
 20
140.3783069619
 30
0.0
 11
121.2862862826
 21
140.5866402953
 31
0.0
 12
121.2862862826
 22
140.1699736286
 32
0.0
 13
121.2862862826
 23
140.1699736286
 33
0.0
  0
LINE
  5
24C
330
247
100
AcDbEntity
  8
SLD-0
100
AcDbLine
 10
117.9529529493
 20
130.3616402953
 30
0.0
 11
117.9529529493
 21
141.2116402953
 31
0.0
  0
LINE
  5
24D
330
247
100
AcDbEntity
  8
SLD-0
100
AcDbLine
 10
122.9529529493
 20
116.5888402953
 30
0.0
 11
122.9529529493
 21
141.2116402953
 31
0.0
  0
LINE
  5
24E
330
247
100
AcDbEntity
  8
SLD-0
100
AcDbLine
 10
117.9529529493
 20
140.3783069619
 30
0.0
 11
122.9529529493
 21
140.3783069619
 31
0.0
  0
MTEXT
  5
24F
330
247
100
AcDbEntity
  8
SLD-0
100
AcDbMText
 10
119.6572353556
 20
143.0638646076
 30
0.0
 40
2.0833333333
 41
0.0
 71
     1
 72
     1
  1
5
  7
SLDTEXTSTYLE0
 73
     1
 44
1.0
  0
ENDBLK
  5
249
330
247
100
AcDbEntity
  8
0
100
AcDbBlockEnd
  0
BLOCK
  5
252
330
251
100
AcDbEntity
  8
0
100
AcDbBlockBegin
  2
_D_15
 70
     0
 10
0.0
 20
0.0
 30
0.0
  3
_D_15
  1

  0
SOLID
  5
254
330
251
100
AcDbEntity
  8
SLD-0
100
AcDbTrace
 10
117.9529529493
 20
144.5449736286
 30
0.0
 11
119.619619616
 21
144.3366402953
 31
0.0
 12
119.619619616
 22
144.7533069619
 32
0.0
 13
119.619619616
 23
144.7533069619
 33
0.0
  0
SOLID
  5
255
330
251
100
AcDbEntity
  8
SLD-0
100
AcDbTrace
 10
133.9529529493
 20
144.5449736286
 30
0.0
 11
132.2862862826
 21
144.7533069619
 31
0.0
 12
132.2862862826
 22
144.3366402953
 32
0.0
 13
132.2862862826
 23
144.3366402953
 33
0.0
  0
LINE
  5
256
330
251
100
AcDbEntity
  8
SLD-0
100
AcDbLine
 10
117.9529529493
 20
130.3616402953
 30
0.0
 11
117.9529529493
 21
145.3783069619
 31
0.0
  0
LINE
  5
257
330
251
100
AcDbEntity
  8
SLD-0
100
AcDbLine
 10
133.9529529493
 20
130.3616402953
 30
0.0
 11
133.9529529493
 21
145.3783069619
 31
0.0
  0
LINE
  5
258
330
251
100
AcDbEntity
  8
SLD-0
100
AcDbLine
 10
117.9529529493
 20
144.5449736286
 30
0.0
 11
133.9529529493
 21
144.5449736286
 31
0.0
  0
MTEXT
  5
259
330
251
100
AcDbEntity
  8
SLD-0
100
AcDbMText
 10
124.3615177619
 20
147.2305312743
 30
0.0
 40
2.0833333333
 41
0.0
 71
     1
 72
     1
  1
16
  7
SLDTEXTSTYLE0
 73
     1
 44
1.0
  0
ENDBLK
  5
253
330
251
100
AcDbEntity
  8
0
100
AcDbBlockEnd
  0
BLOCK
  5
25C
330
25B
100
AcDbEntity
  8
0
100
AcDbBlockBegin
  2
_D_16
 70
     0
 10
0.0
 20
0.0
 30
0.0
  3
_D_16
  1

  0
SOLID
  5
25E
330
25B
100
AcDbEntity
  8
SLD-0
100
AcDbTrace
 10
122.0893529493
 20
111.5325078845
 30
0.0
 11
121.0755976568
 21
110.1932988782
 31
0.0
 12
121.4364415751
 22
109.9849655449
 32
0.0
 13
121.4364415751
 23
109.9849655449
 33
0.0
  0
LINE
  5
25F
330
25B
100
AcDbEntity
  8
SLD-0
100
AcDbLine
 10
122.0893529493
 20
111.5325078845
 30
0.0
 11
116.3327490949
 21
101.5617775296
 31
0.0
  0
LINE
  5
260
330
25B
100
AcDbEntity
  8
SLD-0
100
AcDbLine
 10
123.8165529493
 20
114.5241060393
 30
0.0
 11
122.0893529493
 21
111.5325078845
 31
0.0
  0
LINE
  5
261
330
25B
100
AcDbEntity
  8
SLD-0
100
AcDbLine
 10
116.3327490949
 20
101.5617775296
 30
0.0
 11
102.5711749408
 21
101.5617775296
 31
0.0
  0
MTEXT
  5
262
330
25B
100
AcDbEntity
  8
SLD-0
100
AcDbMText
 10
102.5711749408
 20
104.2473351753
 30
0.0
 40
2.0833333333
 41
0.0
 71
     1
 72
     1
  1
8-32 UNC
  7
SLDTEXTSTYLE0
 73
     1
 44
1.0
  0
ENDBLK
  5
25D
330
25B
100
AcDbEntity
  8
0
100
AcDbBlockEnd
  0
BLOCK
  5
264
330
263
100
AcDbEntity
  8
0
100
AcDbBlockBegin
  2
SW_CENTERMARKSYMBOL_5
 70
     0
 10
0.0
 20
0.0
 30
0.0
  3
SW_CENTERMARKSYMBOL_5
  1

  0
LINE
  5
266
330
263
100
AcDbEntity
  8
SLD-0
 62
     0
100
AcDbLine
 10
0.0
 20
0.0
 30
0.0
 11
0.0
 21
1.0
 31
0.0
  0
LINE
  5
267
330
263
100
AcDbEntity
  8
SLD-0
 62
     0
100
AcDbLine
 10
0.0
 20
0.0
 30
0.0
 11
-1.0
 21
0.0
 31
0.0
  0
LINE
  5
268
330
263
100
AcDbEntity
  8
SLD-0
 62
     0
100
AcDbLine
 10
0.0
 20
0.0
 30
0.0
 11
0.0
 21
-1.0
 31
0.0
  0
LINE
  5
269
330
263
100
AcDbEntity
  8
SLD-0
 62
     0
100
AcDbLine
 10
0.0
 20
0.0
 30
0.0
 11
1.0
 21
0.0
 31
0.0
  0
LINE
  5
26A
330
263
100
AcDbEntity
  8
SLD-0
 62
     0
100
AcDbLine
 10
0.0
 20
2.0
 30
0.0
 11
0.0
 21
2.7272
 31
0.0
  0
LINE
  5
26B
330
263
100
AcDbEntity
  8
SLD-0
 62
     0
100
AcDbLine
 10
-2.0
 20
0.0
 30
0.0
 11
-2.7272
 21
0.0
 31
0.0
  0
LINE
  5
26C
330
263
100
AcDbEntity
  8
SLD-0
 62
     0
100
AcDbLine
 10
0.0
 20
-2.0
 30
0.0
 11
0.0
 21
-2.7272
 31
0.0
  0
LINE
  5
26D
330
263
100
AcDbEntity
  8
SLD-0
 62
     0
100
AcDbLine
 10
2.0
 20
0.0
 30
0.0
 11
2.7272
 21
0.0
 31
0.0
  0
ENDBLK
  5
265
330
263
100
AcDbEntity
  8
0
100
AcDbBlockEnd
  0
BLOCK
  5
318
330
317
100
AcDbEntity
  8
0
100
AcDbBlockBegin
  2
_D_17
 70
     0
 10
0.0
 20
0.0
 30
0.0
  3
_D_17
  1

  0
SOLID
  5
31A
330
317
100
AcDbEntity
  8
SLD-0
100
AcDbTrace
 10
63.4298223495
 20
72.52874672
 30
0.0
 11
61.7631556829
 21
72.7370800533
 31
0.0
 12
61.7631556829
 22
72.3204133866
 32
0.0
 13
61.7631556829
 23
72.3204133866
 33
0.0
  0
SOLID
  5
31B
330
317
100
AcDbEntity
  8
SLD-0
100
AcDbTrace
 10
42.4298223495
 20
72.52874672
 30
0.0
 11
44.0964890162
 21
72.3204133866
 31
0.0
 12
44.0964890162
 22
72.7370800533
 32
0.0
 13
44.0964890162
 23
72.7370800533
 33
0.0
  0
LINE
  5
31C
330
317
100
AcDbEntity
  8
SLD-0
100
AcDbLine
 10
63.4298223495
 20
66.8947800533
 30
0.0
 11
63.4298223495
 21
73.3620800533
 31
0.0
  0
LINE
  5
31D
330
317
100
AcDbEntity
  8
SLD-0
100
AcDbLine
 10
42.4298223495
 20
67.8420800533
 30
0.0
 11
42.4298223495
 21
73.3620800533
 31
0.0
  0
LINE
  5
31E
330
317
100
AcDbEntity
  8
SLD-0
100
AcDbLine
 10
63.4298223495
 20
72.52874672
 30
0.0
 11
42.4298223495
 21
72.52874672
 31
0.0
  0
MTEXT
  5
31F
330
317
100
AcDbEntity
  8
SLD-0
100
AcDbMText
 10
51.3383871622
 20
75.2143043656
 30
0.0
 40
2.0833333333
 41
0.0
 71
     1
 72
     1
  1
21
  7
SLDTEXTSTYLE0
 73
     1
 44
1.0
  0
ENDBLK
  5
319
330
317
100
AcDbEntity
  8
0
100
AcDbBlockEnd
  0
BLOCK
  5
322
330
321
100
AcDbEntity
  8
0
100
AcDbBlockBegin
  2
_D_18
 70
     0
 10
0.0
 20
0.0
 30
0.0
  3
_D_18
  1

  0
SOLID
  5
324
330
321
100
AcDbEntity
  8
SLD-0
100
AcDbTrace
 10
90.7798223495
 20
62.50874672
 30
0.0
 11
90.9881556829
 21
64.1754133866
 31
0.0
 12
90.5714890162
 22
64.1754133866
 32
0.0
 13
90.5714890162
 23
64.1754133866
 33
0.0
  0
SOLID
  5
325
330
321
100
AcDbEntity
  8
SLD-0
100
AcDbTrace
 10
90.7798223495
 20
67.50874672
 30
0.0
 11
90.5714890162
 21
65.8420800533
 31
0.0
 12
90.9881556829
 22
65.8420800533
 32
0.0
 13
90.9881556829
 23
65.8420800533
 33
0.0
  0
LINE
  5
326
330
321
100
AcDbEntity
  8
SLD-0
100
AcDbLine
 10
67.8158556829
 20
62.50874672
 30
0.0
 11
91.6131556829
 21
62.50874672
 31
0.0
  0
LINE
  5
327
330
321
100
AcDbEntity
  8
SLD-0
100
AcDbLine
 10
84.7631556829
 20
67.50874672
 30
0.0
 11
91.6131556829
 21
67.50874672
 31
0.0
  0
LINE
  5
328
330
321
100
AcDbEntity
  8
SLD-0
100
AcDbLine
 10
90.7798223495
 20
62.50874672
 30
0.0
 11
90.7798223495
 21
67.50874672
 31
0.0
  0
MTEXT
  5
329
330
321
100
AcDbEntity
  8
SLD-0
100
AcDbMText
 10
88.0942647038
 20
64.2130291263
 30
0.0
 40
2.0833333333
 41
0.0
 71
     1
 72
     1
  1
5
  7
SLDTEXTSTYLE0
 11
6.123233995736766E-17
 21
1.0
 31
0.0
 73
     1
 44
1.0
  0
ENDBLK
  5
323
330
321
100
AcDbEntity
  8
0
100
AcDbBlockEnd
  0
BLOCK
  5
32C
330
32B
100
AcDbEntity
  8
0
100
AcDbBlockBegin
  2
_D_19
 70
     0
 10
0.0
 20
0.0
 30
0.0
  3
_D_19
  1

  0
SOLID
  5
32E
330
32B
100
AcDbEntity
  8
SLD-0
100
AcDbTrace
 10
64.4713636308
 20
64.8392979529
 30
0.0
 11
65.3415926597
 21
66.2759196821
 31
0.0
 12
64.9611864178
 22
66.4459261591
 32
0.0
 13
64.9611864178
 23
66.4459261591
 33
0.0
  0
LINE
  5
32F
330
32B
100
AcDbEntity
  8
SLD-0
100
AcDbLine
 10
64.4713636308
 20
64.8392979529
 30
0.0
 11
67.923498959
 21
72.5637908659
 31
0.0
  0
LINE
  5
330
330
32B
100
AcDbEntity
  8
SLD-0
100
AcDbLine
 10
62.3882810683
 20
60.178195487
 30
0.0
 11
64.4713636308
 21
64.8392979529
 31
0.0
  0
LINE
  5
331
330
32B
100
AcDbEntity
  8
SLD-0
100
AcDbLine
 10
67.923498959
 20
72.5637908659
 30
0.0
 11
84.0722267187
 21
72.5637908659
 31
0.0
  0
MTEXT
  5
332
330
32B
100
AcDbEntity
  8
SLD-0
100
AcDbMText
 10
68.9651656257
 20
75.2493485116
 30
0.0
 40
2.0833333333
 41
0.0
 71
     1
 72
     1
  1
1/4-20 UNC
  7
SLDTEXTSTYLE0
 73
     1
 44
1.0
  0
ENDBLK
  5
32D
330
32B
100
AcDbEntity
  8
0
100
AcDbBlockEnd
  0
BLOCK
  5
334
330
333
100
AcDbEntity
  8
0
100
AcDbBlockBegin
  2
SW_CENTERMARKSYMBOL_6
 70
     0
 10
0.0
 20
0.0
 30
0.0
  3
SW_CENTERMARKSYMBOL_6
  1

  0
LINE
  5
336
330
333
100
AcDbEntity
  8
SLD-0
 62
     0
100
AcDbLine
 10
0.0
 20
0.0
 30
0.0
 11
0.0
 21
1.0
 31
0.0
  0
LINE
  5
337
330
333
100
AcDbEntity
  8
SLD-0
 62
     0
100
AcDbLine
 10
0.0
 20
0.0
 30
0.0
 11
-1.0
 21
0.0
 31
0.0
  0
LINE
  5
338
330
333
100
AcDbEntity
  8
SLD-0
 62
     0
100
AcDbLine
 10
0.0
 20
0.0
 30
0.0
 11
0.0
 21
-1.0
 31
0.0
  0
LINE
  5
339
330
333
100
AcDbEntity
  8
SLD-0
 62
     0
100
AcDbLine
 10
0.0
 20
0.0
 30
0.0
 11
1.0
 21
0.0
 31
0.0
  0
LINE
  5
33A
330
333
100
AcDbEntity
  8
SLD-0
 62
     0
100
AcDbLine
 10
0.0
 20
2.0
 30
0.0
 11
0.0
 21
3.5527
 31
0.0
  0
LINE
  5
33B
330
333
100
AcDbEntity
  8
SLD-0
 62
     0
100
AcDbLine
 10
-2.0
 20
0.0
 30
0.0
 11
-3.5527
 21
0.0
 31
0.0
  0
LINE
  5
33C
330
333
100
AcDbEntity
  8
SLD-0
 62
     0
100
AcDbLine
 10
0.0
 20
-2.0
 30
0.0
 11
0.0
 21
-3.5527
 31
0.0
  0
LINE
  5
33D
330
333
100
AcDbEntity
  8
SLD-0
 62
     0
100
AcDbLine
 10
2.0
 20
0.0
 30
0.0
 11
3.5527
 21
0.0
 31
0.0
  0
ENDBLK
  5
335
330
333
100
AcDbEntity
  8
0
100
AcDbBlockEnd
  0
ENDSEC
  0
SECTION
  2
ENTITIES
  0
HATCH
  5
89
330
1F
100
AcDbEntity
  8
0
  6
Continuous
 62
     7
100
AcDbHatch
 10
0.0
 20
0.0
 30
0.0
210
0.0
220
0.0
230
1.0
  2
SOLID
 70
     1
 71
     0
 91
        1
 92
        0
 93
       10
 72
     2
 10
160.1171638024472
 20
29.7965073415738
 40
2.491363881474883
 50
50.39692260731405
 51
112.8514693252981
 73
     0
 72
     2
 10
159.8458383023433
 20
29.53249856671837
 40
2.147779522348015
 50
108.913433343286
 51
219.5668234386826
 73
     0
 72
     1
 10
158.190153282467
 20
30.90058628012509
 11
157.3441584096316
 21
31.64686286413989
 72
     1
 10
157.3441584096316
 20
31.64686286413989
 11
156.2553015305635
 21
30.59554030038363
 72
     2
 10
157.0785389988658
 20
29.62176760643705
 40
1.275128694953051
 50
130.2115225915085
 51
228.5889041080194
 73
     1
 72
     1
 10
156.2350960455425
 20
28.66544278024982
 11
159.5760979707055
 21
25.76160624668759
 72
     1
 10
159.5760979707055
 20
25.76160624668759
 11
159.0502213703596
 21
25.24835592129506
 72
     1
 10
159.0502213703596
 20
25.24835592129506
 11
159.8767875076309
 21
24.53671069883354
 72
     1
 10
159.8767875076309
 20
24.53671069883354
 11
162.5515078696019
 21
27.13385900342977
 72
     1
 10
162.5515078696019
 20
27.13385900342977
 11
161.7053220098868
 21
27.87696377654069
 97
        0
 75
     0
 76
     1
 98
        1
 10
0.0
 20
0.0
  0
HATCH
  5
8A
330
1F
100
AcDbEntity
  8
0
  6
Continuous
 62
     1
100
AcDbHatch
 10
0.0
 20
0.0
 30
0.0
210
0.0
220
0.0
230
1.0
  2
SOLID
 70
     1
 71
     0
 91
        1
 92
        0
 93
       10
 72
     2
 10
160.491037968974
 20
29.71922429693008
 40
2.147972906955208
 50
317.8184992995787
 51
398.0564711573077
 73
     0
 72
     1
 10
162.1823595048469
 20
28.39513250581206
 11
163.0035669156659
 21
27.67955172257082
 72
     1
 10
163.0035669156659
 20
27.67955172257082
 11
164.0383013446607
 21
28.68324584124349
 72
     2
 10
163.2938077399423
 20
29.7065347844276
 40
1.265460781181888
 50
306.0377529468126
 51
403.4396461533875
 73
     1
 72
     1
 10
164.2126576271692
 20
30.57665309445939
 11
160.7736944118832
 21
33.56763331832101
 72
     1
 10
160.7736944118832
 20
33.56763331832101
 11
161.2939038301559
 21
34.07518201068547
 72
     1
 10
161.2939038301559
 20
34.07518201068547
 11
160.5184817383359
 21
34.76700886055588
 72
     1
 10
160.5184817383359
 20
34.76700886055588
 11
157.8221605313276
 21
32.16124198837748
 72
     1
 10
157.8221605313276
 20
32.16124198837748
 11
158.6741670957848
 21
31.41808321577682
 72
     2
 10
160.2263243933703
 20
29.2685394590316
 40
2.651363920439897
 50
234.1674444878511
 51
314.4407074583992
 73
     0
 97
        0
 75
     0
 76
     1
 98
        1
 10
0.0
 20
0.0
  0
LINE
  5
8B
330
1F
100
AcDbEntity
  8
0
  6
Continuous
 62
     7
370
     0
100
AcDbLine
 10
139.8828145987
 20
14.812099376
 30
0.0
 11
140.7161479321
 21
14.812099376
 31
0.0
  0
LINE
  5
8C
330
1F
100
AcDbEntity
  8
0
  6
Continuous
 62
     7
370
     0
100
AcDbLine
 10
137.3828145987
 20
14.812099376
 30
0.0
 11
139.4661479321
 21
14.812099376
 31
0.0
  0
LINE
  5
8D
330
1F
100
AcDbEntity
  8
0
  6
Continuous
 62
     7
370
     0
100
AcDbLine
 10
151.1328145987
 20
12.7287660427
 30
0.0
 11
151.1328145987
 21
16.8954327094
 31
0.0
  0
LINE
  5
8E
330
1F
100
AcDbEntity
  8
0
  6
Continuous
 62
     7
370
     0
100
AcDbLine
 10
145.2994812654
 20
13.562099376
 30
0.0
 11
151.1328145987
 21
12.7287660427
 31
0.0
  0
LINE
  5
8F
330
1F
100
AcDbEntity
  8
0
  6
Continuous
 62
     7
370
     0
100
AcDbLine
 10
140.2994812654
 20
13.9787660427
 30
0.0
 11
140.2994812654
 21
11.8954327094
 31
0.0
  0
LINE
  5
90
330
1F
100
AcDbEntity
  8
0
  6
Continuous
 62
     7
370
     0
100
AcDbLine
 10
151.1328145987
 20
16.8954327094
 30
0.0
 11
145.2994812654
 21
16.062099376
 31
0.0
  0
LINE
  5
91
330
1F
100
AcDbEntity
  8
0
  6
Continuous
 62
     7
370
     0
100
AcDbLine
 10
144.4661479321
 20
14.812099376
 30
0.0
 11
151.9661479321
 21
14.812099376
 31
0.0
  0
LINE
  5
92
330
1F
100
AcDbEntity
  8
0
  6
Continuous
 62
     7
370
     0
100
AcDbLine
 10
140.2994812654
 20
15.2287660427
 30
0.0
 11
140.2994812654
 21
14.3954327094
 31
0.0
  0
LINE
  5
93
330
1F
100
AcDbEntity
  8
0
  6
Continuous
 62
     7
370
     0
100
AcDbLine
 10
141.1328145987
 20
14.812099376
 30
0.0
 11
143.2161479321
 21
14.812099376
 31
0.0
  0
LINE
  5
94
330
1F
100
AcDbEntity
  8
0
  6
Continuous
 62
     7
370
     0
100
AcDbLine
 10
140.2994812654
 20
17.7287660427
 30
0.0
 11
140.2994812654
 21
15.6454327094
 31
0.0
  0
LINE
  5
95
330
1F
100
AcDbEntity
  8
0
  6
Continuous
 62
     7
370
     0
100
AcDbLine
 10
145.2994812654
 20
16.062099376
 30
0.0
 11
145.2994812654
 21
13.562099376
 31
0.0
  0
LINE
  5
96
330
1F
100
AcDbEntity
  8
工作區域參考線
 62
     1
370
    30
100
AcDbLine
 10
158.6741670958
 20
31.4180832158
 30
0.0
 11
157.8221605313
 21
32.1612419884
 31
0.0
  0
LINE
  5
97
330
1F
100
AcDbEntity
  8
工作區域參考線
 62
     1
370
    30
100
AcDbLine
 10
157.8221605313
 20
32.1612419884
 30
0.0
 11
160.5184817383
 21
34.7670088606
 31
0.0
  0
LINE
  5
98
330
1F
100
AcDbEntity
  8
工作區域參考線
 62
     1
370
    30
100
AcDbLine
 10
160.5184817383
 20
34.7670088606
 30
0.0
 11
161.2939038302
 21
34.0751820107
 31
0.0
  0
LINE
  5
99
330
1F
100
AcDbEntity
  8
工作區域參考線
 62
     1
370
    30
100
AcDbLine
 10
161.2939038302
 20
34.0751820107
 30
0.0
 11
160.7736944119
 21
33.5676333183
 31
0.0
  0
LINE
  5
9A
330
1F
100
AcDbEntity
  8
工作區域參考線
 62
     1
370
    30
100
AcDbLine
 10
160.7736944119
 20
33.5676333183
 30
0.0
 11
164.2126576272
 21
30.5766530945
 31
0.0
  0
LINE
  5
9B
330
1F
100
AcDbEntity
  8
工作區域參考線
 62
     1
370
    30
100
AcDbLine
 10
162.1823595048
 20
28.3951325058
 30
0.0
 11
163.0035669157
 21
27.6795517226
 31
0.0
  0
LINE
  5
9C
330
1F
100
AcDbEntity
  8
工作區域參考線
 62
     1
370
    30
100
AcDbLine
 10
163.0035669157
 20
27.6795517226
 30
0.0
 11
164.0383013447
 21
28.6832458412
 31
0.0
  0
LINE
  5
9D
330
1F
100
AcDbEntity
  8
0
  6
Continuous
 62
     7
370
     0
100
AcDbLine
 10
154.7423304341
 20
10.9293720066
 30
0.0
 11
238.0756637674
 21
10.9293720066
 31
0.0
  0
LINE
  5
9E
330
1F
100
AcDbEntity
  8
0
  6
Continuous
 62
     7
370
     0
100
AcDbLine
 10
154.7423304341
 20
15.0960386733
 30
0.0
 11
196.4089971008
 21
15.0960386733
 31
0.0
  0
LINE
  5
9F
330
1F
100
AcDbEntity
  8
0
  6
Continuous
 62
     7
370
     0
100
AcDbLine
 10
154.7423304341
 20
19.2627053399
 30
0.0
 11
196.4089971008
 21
19.2627053399
 31
0.0
  0
LINE
  5
A0
330
1F
100
AcDbEntity
  8
0
  6
Continuous
 62
     7
370
     0
100
AcDbLine
 10
154.7423304341
 20
23.4293720066
 30
0.0
 11
238.0756637674
 21
23.4293720066
 31
0.0
  0
LINE
  5
A1
330
1F
100
AcDbEntity
  8
0
  6
Continuous
 62
     7
370
     0
100
AcDbLine
 10
196.4089971008
 20
27.5960386733
 30
0.0
 11
238.0756637674
 21
27.5960386733
 31
0.0
  0
LINE
  5
A2
330
1F
100
AcDbEntity
  8
0
  6
Continuous
 62
     7
370
    15
100
AcDbLine
 10
196.4089971008
 20
15.0960386733
 30
0.0
 11
238.0756637674
 21
15.0960386733
 31
0.0
  0
LINE
  5
A3
330
1F
100
AcDbEntity
  8
0
  6
Continuous
 62
     7
370
     0
100
AcDbLine
 10
154.7423304341
 20
35.9293720066
 30
0.0
 11
238.0756637674
 21
35.9293720066
 31
0.0
  0
LINE
  5
A4
330
1F
100
AcDbEntity
  8
0
  6
Continuous
 62
     7
370
     0
100
AcDbLine
 10
209.3643480625
 20
6.7627053399
 30
0.0
 11
209.3643480625
 21
15.0960386733
 31
0.0
  0
LINE
  5
A5
330
1F
100
AcDbEntity
  8
0
  6
Continuous
 62
     7
370
     0
100
AcDbLine
 10
196.4089971008
 20
6.7627053399
 30
0.0
 11
196.4089971008
 21
35.9293720066
 31
0.0
  0
LINE
  5
A6
330
1F
100
AcDbEntity
  8
0
  6
Continuous
 62
     7
370
     0
100
AcDbLine
 10
209.3643480625
 20
23.4293720066
 30
0.0
 11
209.3643480625
 21
27.5960386733
 31
0.0
  0
LINE
  5
A7
330
1F
100
AcDbEntity
  8
0
  6
Continuous
 62
     7
370
     0
100
AcDbLine
 10
178.6803405294
 20
6.7627053399
 30
0.0
 11
178.6803405294
 21
23.4293720066
 31
0.0
  0
LINE
  5
A8
330
1F
100
AcDbEntity
  8
0
  6
Continuous
 62
     7
370
     0
100
AcDbLine
 10
166.4821572921
 20
6.7627053399
 30
0.0
 11
166.4821572921
 21
23.4293720066
 31
0.0
  0
LINE
  5
A9
330
1F
100
AcDbEntity
  8
0
  6
Continuous
 62
     7
370
     0
100
AcDbLine
 10
154.7423304341
 20
6.7627053399
 30
0.0
 11
154.7423304341
 21
35.9293720066
 31
0.0
  0
LINE
  5
AA
330
1F
100
AcDbEntity
  8
0
  6
Continuous
 62
     7
370
    15
100
AcDbLine
 10
36.1006637674
 20
167.8100229792
 30
0.0
 11
36.1006637674
 21
169.0600229792
 31
0.0
  0
LINE
  5
AB
330
1F
100
AcDbEntity
  8
0
  6
Continuous
 62
     7
370
    15
100
AcDbLine
 10
64.9589971008
 20
167.8100229792
 30
0.0
 11
64.9589971008
 21
169.0600229792
 31
0.0
  0
LINE
  5
AC
330
1F
100
AcDbEntity
  8
0
  6
Continuous
 62
     7
370
    15
100
AcDbLine
 10
93.8173304341
 20
167.8100229792
 30
0.0
 11
93.8173304341
 21
169.0600229792
 31
0.0
  0
LINE
  5
AD
330
1F
100
AcDbEntity
  8
0
  6
Continuous
 62
     7
370
    15
100
AcDbLine
 10
122.6756637674
 20
167.8100229792
 30
0.0
 11
122.6756637674
 21
169.0600229792
 31
0.0
  0
LINE
  5
AE
330
1F
100
AcDbEntity
  8
0
  6
Continuous
 62
     7
370
    15
100
AcDbLine
 10
151.5339971008
 20
167.8100229792
 30
0.0
 11
151.5339971008
 21
169.0600229792
 31
0.0
  0
LINE
  5
AF
330
1F
100
AcDbEntity
  8
0
  6
Continuous
 62
     7
370
    15
100
AcDbLine
 10
180.3923304341
 20
167.8100229792
 30
0.0
 11
180.3923304341
 21
169.0600229792
 31
0.0
  0
LINE
  5
B0
330
1F
100
AcDbEntity
  8
0
  6
Continuous
 62
     7
370
    15
100
AcDbLine
 10
209.2506637674
 20
167.8100229792
 30
0.0
 11
209.2506637674
 21
169.0600229792
 31
0.0
  0
LINE
  5
B1
330
1F
100
AcDbEntity
  8
0
  6
Continuous
 62
     7
370
    15
100
AcDbLine
 10
36.0964971008
 20
6.7627053399
 30
0.0
 11
36.0964971008
 21
5.5127053399
 31
0.0
  0
LINE
  5
B2
330
1F
100
AcDbEntity
  8
0
  6
Continuous
 62
     7
370
    15
100
AcDbLine
 10
64.9506637674
 20
6.7627053399
 30
0.0
 11
64.9506637674
 21
5.5127053399
 31
0.0
  0
LINE
  5
B3
330
1F
100
AcDbEntity
  8
0
  6
Continuous
 62
     7
370
    15
100
AcDbLine
 10
93.8048304341
 20
6.7627053399
 30
0.0
 11
93.8048304341
 21
5.5127053399
 31
0.0
  0
LINE
  5
B4
330
1F
100
AcDbEntity
  8
0
  6
Continuous
 62
     7
370
    15
100
AcDbLine
 10
122.6589971008
 20
6.7627053399
 30
0.0
 11
122.6589971008
 21
5.5127053399
 31
0.0
  0
LINE
  5
B5
330
1F
100
AcDbEntity
  8
0
  6
Continuous
 62
     7
370
    15
100
AcDbLine
 10
151.5131637674
 20
6.7627053399
 30
0.0
 11
151.5131637674
 21
5.5127053399
 31
0.0
  0
LINE
  5
B6
330
1F
100
AcDbEntity
  8
0
  6
Continuous
 62
     7
370
    15
100
AcDbLine
 10
180.3673304341
 20
6.7627053399
 30
0.0
 11
180.3673304341
 21
5.5127053399
 31
0.0
  0
LINE
  5
B7
330
1F
100
AcDbEntity
  8
0
  6
Continuous
 62
     7
370
     0
100
AcDbLine
 10
238.0756637674
 20
167.8100229792
 30
0.0
 11
7.2423304341
 21
167.8100229792
 31
0.0
  0
LINE
  5
B8
330
1F
100
AcDbEntity
  8
0
  6
Continuous
 62
     7
370
     0
100
AcDbLine
 10
238.0756637674
 20
6.7627053399
 30
0.0
 11
238.0756637674
 21
167.8100229792
 31
0.0
  0
LINE
  5
B9
330
1F
100
AcDbEntity
  8
0
  6
Continuous
 62
     7
370
     0
100
AcDbLine
 10
7.2423304341
 20
167.8100229792
 30
0.0
 11
7.2423304341
 21
6.7627053399
 31
0.0
  0
LINE
  5
BA
330
1F
100
AcDbEntity
  8
0
  6
Continuous
 62
     7
370
     0
100
AcDbLine
 10
7.2423304341
 20
6.7627053399
 30
0.0
 11
238.0756637674
 21
6.7627053399
 31
0.0
  0
LINE
  5
BB
330
1F
100
AcDbEntity
  8
0
  6
Continuous
 62
     7
370
    15
100
AcDbLine
 10
209.2214971008
 20
6.7627053399
 30
0.0
 11
209.2214971008
 21
5.5127053399
 31
0.0
  0
LINE
  5
BC
330
1F
100
AcDbEntity
  8
0
  6
Continuous
 62
     7
370
    15
100
AcDbLine
 10
7.2423304341
 20
33.6043720066
 30
0.0
 11
5.9923304341
 21
33.6043720066
 31
0.0
  0
LINE
  5
BD
330
1F
100
AcDbEntity
  8
0
  6
Continuous
 62
     7
370
    15
100
AcDbLine
 10
7.2423304341
 20
60.4460386733
 30
0.0
 11
5.9923304341
 21
60.4460386733
 31
0.0
  0
LINE
  5
BE
330
1F
100
AcDbEntity
  8
0
  6
Continuous
 62
     7
370
    15
100
AcDbLine
 10
7.2423304341
 20
87.2877053399
 30
0.0
 11
5.9923304341
 21
87.2877053399
 31
0.0
  0
LINE
  5
BF
330
1F
100
AcDbEntity
  8
0
  6
Continuous
 62
     7
370
    15
100
AcDbLine
 10
7.2423304341
 20
114.1293720066
 30
0.0
 11
5.9923304341
 21
114.1293720066
 31
0.0
  0
LINE
  5
C0
330
1F
100
AcDbEntity
  8
0
  6
Continuous
 62
     7
370
    15
100
AcDbLine
 10
7.2423304341
 20
140.9710386733
 30
0.0
 11
5.9923304341
 21
140.9710386733
 31
0.0
  0
LINE
  5
C1
330
1F
100
AcDbEntity
  8
0
  6
Continuous
 62
     7
370
    15
100
AcDbLine
 10
238.0756637674
 20
33.6043720066
 30
0.0
 11
239.3256637674
 21
33.6043720066
 31
0.0
  0
LINE
  5
C2
330
1F
100
AcDbEntity
  8
0
  6
Continuous
 62
     7
370
    15
100
AcDbLine
 10
238.0756637674
 20
60.4460386733
 30
0.0
 11
239.3256637674
 21
60.4460386733
 31
0.0
  0
LINE
  5
C3
330
1F
100
AcDbEntity
  8
0
  6
Continuous
 62
     7
370
    15
100
AcDbLine
 10
238.0756637674
 20
87.2877053399
 30
0.0
 11
239.3256637674
 21
87.2877053399
 31
0.0
  0
LINE
  5
C4
330
1F
100
AcDbEntity
  8
0
  6
Continuous
 62
     7
370
    15
100
AcDbLine
 10
238.0756637674
 20
114.1293720066
 30
0.0
 11
239.3256637674
 21
114.1293720066
 31
0.0
  0
LINE
  5
C5
330
1F
100
AcDbEntity
  8
0
  6
Continuous
 62
     7
370
    15
100
AcDbLine
 10
238.0756637674
 20
140.9710386733
 30
0.0
 11
239.3256637674
 21
140.9710386733
 31
0.0
  0
CIRCLE
  5
C6
330
1F
100
AcDbEntity
  8
0
  6
Continuous
 62
     7
370
     0
100
AcDbCircle
 10
140.2994812654
 20
14.812099376
 30
0.0
 40
1.25
  0
CIRCLE
  5
C7
330
1F
100
AcDbEntity
  8
0
  6
Continuous
 62
     7
370
     0
100
AcDbCircle
 10
140.2994812654
 20
14.812099376
 30
0.0
 40
2.083333333333343
  0
ARC
  5
C8
330
1F
100
AcDbEntity
  8
工作區域參考線
 62
     1
370
    30
100
AcDbCircle
 10
163.2938077399
 20
29.7065347844
 30
0.0
 40
1.26546078118191
100
AcDbArc
 50
306.0377529468
 51
43.4396461534
  0
ARC
  5
C9
330
1F
100
AcDbEntity
  8
工作區域參考線
 62
     1
370
    30
100
AcDbCircle
 10
160.2263243934
 20
29.268539459
 30
0.0
 40
2.651363920439922
100
AcDbArc
 50
45.5592925416
 51
125.8325555121
  0
ARC
  5
CA
330
1F
100
AcDbEntity
  8
工作區域參考線
 62
     1
370
    30
100
AcDbCircle
 10
160.491037969
 20
29.7192242969
 30
0.0
 40
2.147972906955223
100
AcDbArc
 50
321.9435288427
 51
42.1815007004
  0
INSERT
  5
CB
330
1F
100
AcDbEntity
  8
0
  6
Continuous
 62
     7
100
AcDbBlockReference
  2
圖塊6_1
 10
155.8034103039
 20
24.5367106988
 30
0.0
  0
MTEXT
  5
CD
330
1F
100
AcDbEntity
  8
0
  6
Continuous
 62
     7
370
     0
100
AcDbMText
 10
137.952237567
 20
11.0173700308
 30
0.0
 40
2.2048611111
 41
0.0
 71
     1
 72
     1
  1
UNIT:m/m
  7
SLDTEXTSTYLE0
 73
     1
 44
1.0
  0
INSERT
  5
D4
330
1F
100
AcDbEntity
  8
0
  6
Continuous
 62
     7
370
     0
100
AcDbBlockReference
  2
SW_NOTE_0
 10
10.1929230044
 20
161.5753586876
 30
0.0
  0
MTEXT
  5
D5
330
1F
100
AcDbEntity
  8
0
  6
Continuous
 62
     7
370
     0
100
AcDbMText
 10
165.6043244946
 20
33.7005645116
 30
0.0
 40
1.984375
 41
0.0
 71
     1
 72
     1
  1
Unice E-O Services Inc.
  7
SLDTEXTSTYLE0
 73
     1
 44
1.0
  0
MTEXT
  5
D6
330
1F
100
AcDbEntity
  8
0
  6
Continuous
 62
     7
370
     0
100
AcDbMText
 10
181.2992115124
 20
17.9889290426
 30
0.0
 40
1.5434027778
 41
0.0
 71
     1
 72
     1
  1
2018/4/18
  7
SLDTEXTSTYLE0
 73
     1
 44
1.0
  0
MTEXT
  5
D7
330
1F
100
AcDbEntity
  8
0
  6
Continuous
 62
     7
370
     0
100
AcDbMText
 10
210.5074152089
 20
14.0593147833
 30
0.0
 40
2.0833333333
 41
0.0
 71
     1
 72
     1
  1
1.2:1
  7
SLDTEXTSTYLE0
 73
     1
 44
1.0
  0
MTEXT
  5
D8
330
1F
100
AcDbEntity
  8
0
  6
Continuous
 62
     7
370
     0
100
AcDbMText
 10
210.2562999987
 20
26.7932662865
 30
0.0
 40
2.0833333333
 41
0.0
 71
     1
 72
     1
  1
08PMR-0.5
  7
SLDTEXTSTYLE0
 73
     1
 44
1.0
  0
MTEXT
  5
D9
330
1F
100
AcDbEntity
  8
0
  6
Continuous
 62
     7
370
     0
100
AcDbMText
 10
210.2562999987
 20
31.7568431566
 30
0.0
 40
2.0833333333
 41
0.0
 71
     1
 72
     1
  1
08PMR-0.5
  7
SLDTEXTSTYLE0
 73
     1
 44
1.0
  0
MTEXT
  5
DA
330
1F
100
AcDbEntity
  8
0
  6
Continuous
 62
     7
370
     0
100
AcDbMText
 10
196.9934888989
 20
13.755399644
 30
0.0
 40
1.7638888889
 41
0.0
 71
     1
 72
     1
  1
SCALE:
  7
SLDTEXTSTYLE0
 73
     1
 44
1.0
  0
MTEXT
  5
DB
330
1F
100
AcDbEntity
  8
0
  6
Continuous
 62
     7
370
     0
100
AcDbMText
 10
155.2780072324
 20
17.9889290426
 30
0.0
 40
1.5434027778
 41
0.0
 71
     1
 72
     1
  1
DRAWN
  7
SLDTEXTSTYLE0
 73
     1
 44
1.0
  0
MTEXT
  5
DC
330
1F
100
AcDbEntity
  8
0
  6
Continuous
 62
     7
370
     0
100
AcDbMText
 10
169.3523639947
 20
22.2360069233
 30
0.0
 40
1.5434027778
 41
0.0
 71
     1
 72
     1
  1
NAME
  7
SLDTEXTSTYLE0
 73
     1
 44
1.0
  0
MTEXT
  5
DD
330
1F
100
AcDbEntity
  8
0
  6
Continuous
 62
     7
370
     0
100
AcDbMText
 10
184.0591796465
 20
22.2360069233
 30
0.0
 40
1.5434027778
 41
0.0
 71
     1
 72
     1
  1
DATE
  7
SLDTEXTSTYLE0
 73
     1
 44
1.0
  0
MTEXT
  5
DE
330
1F
100
AcDbEntity
  8
0
  6
Continuous
 62
     7
370
     0
100
AcDbMText
 10
196.8963597204
 20
26.4893511472
 30
0.0
 40
1.7638888889
 41
0.0
 71
     1
 72
     1
  1
DWG. NO.
  7
SLDTEXTSTYLE0
 73
     1
 44
1.0
  0
MTEXT
  5
DF
330
1F
100
AcDbEntity
  8
0
  6
Continuous
 62
     7
370
     0
100
AcDbMText
 10
196.969158924
 20
34.9033881869
 30
0.0
 40
1.7638888889
 41
0.0
 71
     1
 72
     1
  1
TITLE:
  7
SLDTEXTSTYLE0
 73
     1
 44
1.0
  0
MTEXT
  5
E0
330
1F
100
AcDbEntity
  8
0
  6
Continuous
 62
     7
370
     0
100
AcDbMText
 10
169.1928508168
 20
13.5336491437
 30
0.0
 40
1.5434027778
 41
0.0
 71
     1
 72
     1
  1
Johnny
  7
SLDTEXTSTYLE0
 73
     1
 44
1.0
  0
MTEXT
  5
E1
330
1F
100
AcDbEntity
  8
0
  6
Continuous
 62
     7
370
     0
100
AcDbMText
 10
181.2992115124
 20
13.5336491437
 30
0.0
 40
1.5434027778
 41
0.0
 71
     1
 72
     1
  1
2018/4/18
  7
SLDTEXTSTYLE0
 73
     1
 44
1.0
  0
MTEXT
  5
E2
330
1F
100
AcDbEntity
  8
0
  6
Continuous
 62
     7
370
     0
100
AcDbMText
 10
155.2780072324
 20
13.5336491437
 30
0.0
 40
1.5434027778
 41
0.0
 71
     1
 72
     1
  1
ENG APPR.
  7
SLDTEXTSTYLE0
 73
     1
 44
1.0
  0
MTEXT
  5
E3
330
1F
100
AcDbEntity
  8
0
  6
Continuous
 62
     7
370
     0
100
AcDbMText
 10
196.9934888989
 20
9.7377824406
 30
0.0
 40
1.7638888889
 41
0.0
 71
     1
 72
     1
  1
REV
  7
SLDTEXTSTYLE0
 73
     1
 44
1.0
  0
MTEXT
  5
E4
330
1F
100
AcDbEntity
  8
0
  6
Continuous
 62
     7
370
     0
100
AcDbMText
 10
196.969158924
 20
22.4577574237
 30
0.0
 40
1.7638888889
 41
0.0
 71
     1
 72
     1
  1
MATERIAL:
  7
SLDTEXTSTYLE0
 73
     1
 44
1.0
  0
MTEXT
  5
E5
330
1F
100
AcDbEntity
  8
0
  6
Continuous
 62
     7
370
     0
100
AcDbMText
 10
210.5074152089
 20
18.5145946822
 30
0.0
 40
2.0833333333
 41
0.0
 71
     1
 72
     1
  1
N/A
  7
SLDTEXTSTYLE0
 73
     1
 44
1.0
  0
MTEXT
  5
E6
330
1F
100
AcDbEntity
  8
0
  6
Continuous
 62
     7
370
     0
100
AcDbMText
 10
22.1691609611
 20
170.3777930475
 30
0.0
 40
1.7638888889
 41
0.0
 71
     1
 72
     1
  1
1
  7
SLDTEXTSTYLE0
 73
     1
 44
1.0
  0
MTEXT
  5
E7
330
1F
100
AcDbEntity
  8
0
  6
Continuous
 62
     7
370
     0
100
AcDbMText
 10
50.597582977
 20
170.3777930475
 30
0.0
 40
1.7638888889
 41
0.0
 71
     1
 72
     1
  1
2
  7
SLDTEXTSTYLE0
 73
     1
 44
1.0
  0
MTEXT
  5
E8
330
1F
100
AcDbEntity
  8
0
  6
Continuous
 62
     7
370
     0
100
AcDbMText
 10
79.0841619922
 20
170.3777930475
 30
0.0
 40
1.7638888889
 41
0.0
 71
     1
 72
     1
  1
3
  7
SLDTEXTSTYLE0
 73
     1
 44
1.0
  0
MTEXT
  5
E9
330
1F
100
AcDbEntity
  8
0
  6
Continuous
 62
     7
370
     0
100
AcDbMText
 10
107.7111135709
 20
170.2493820304
 30
0.0
 40
1.7638888889
 41
0.0
 71
     1
 72
     1
  1
4
  7
SLDTEXTSTYLE0
 73
     1
 44
1.0
  0
MTEXT
  5
EA
330
1F
100
AcDbEntity
  8
0
  6
Continuous
 62
     7
370
     0
100
AcDbMText
 10
136.4186028866
 20
170.3777930475
 30
0.0
 40
1.7638888889
 41
0.0
 71
     1
 72
     1
  1
5
  7
SLDTEXTSTYLE0
 73
     1
 44
1.0
  0
MTEXT
  5
EB
330
1F
100
AcDbEntity
  8
0
  6
Continuous
 62
     7
370
     0
100
AcDbMText
 10
165.5318475346
 20
170.3777930475
 30
0.0
 40
1.7638888889
 41
0.0
 71
     1
 72
     1
  1
6
  7
SLDTEXTSTYLE0
 73
     1
 44
1.0
  0
MTEXT
  5
EC
330
1F
100
AcDbEntity
  8
0
  6
Continuous
 62
     7
370
     0
100
AcDbMText
 10
195.3025547839
 20
170.3777930475
 30
0.0
 40
1.7638888889
 41
0.0
 71
     1
 72
     1
  1
7
  7
SLDTEXTSTYLE0
 73
     1
 44
1.0
  0
MTEXT
  5
ED
330
1F
100
AcDbEntity
  8
0
  6
Continuous
 62
     7
370
     0
100
AcDbMText
 10
221.8989850411
 20
170.3777930475
 30
0.0
 40
1.7638888889
 41
0.0
 71
     1
 72
     1
  1
8
  7
SLDTEXTSTYLE0
 73
     1
 44
1.0
  0
MTEXT
  5
EE
330
1F
100
AcDbEntity
  8
0
  6
Continuous
 62
     7
370
     0
100
AcDbMText
 10
4.4640197129
 20
154.8427519066
 30
0.0
 40
1.7638888889
 41
0.0
 71
     1
 72
     1
  1
A
  7
SLDTEXTSTYLE0
 73
     1
 44
1.0
  0
MTEXT
  5
EF
330
1F
100
AcDbEntity
  8
0
  6
Continuous
 62
     7
370
     0
100
AcDbMText
 10
4.6592026526
 20
128.5827540198
 30
0.0
 40
1.7638888889
 41
0.0
 71
     1
 72
     1
  1
B
  7
SLDTEXTSTYLE0
 73
     1
 44
1.0
  0
MTEXT
  5
F0
330
1F
100
AcDbEntity
  8
0
  6
Continuous
 62
     7
370
     0
100
AcDbMText
 10
4.6592026526
 20
101.0619595192
 30
0.0
 40
1.7638888889
 41
0.0
 71
     1
 72
     1
  1
C
  7
SLDTEXTSTYLE0
 73
     1
 44
1.0
  0
MTEXT
  5
F1
330
1F
100
AcDbEntity
  8
0
  6
Continuous
 62
     7
370
     0
100
AcDbMText
 10
4.6592026526
 20
73.9544350184
 30
0.0
 40
1.7638888889
 41
0.0
 71
     1
 72
     1
  1
D
  7
SLDTEXTSTYLE0
 73
     1
 44
1.0
  0
MTEXT
  5
F2
330
1F
100
AcDbEntity
  8
0
  6
Continuous
 62
     7
370
     0
100
AcDbMText
 10
4.6592026526
 20
47.9632374331
 30
0.0
 40
1.7638888889
 41
0.0
 71
     1
 72
     1
  1
E
  7
SLDTEXTSTYLE0
 73
     1
 44
1.0
  0
MTEXT
  5
F3
330
1F
100
AcDbEntity
  8
0
  6
Continuous
 62
     7
370
     0
100
AcDbMText
 10
4.6592026526
 20
21.307851021
 30
0.0
 40
1.7638888889
 41
0.0
 71
     1
 72
     1
  1
F
  7
SLDTEXTSTYLE0
 73
     1
 44
1.0
  0
MTEXT
  5
F4
330
1F
100
AcDbEntity
  8
0
  6
Continuous
 62
     7
370
     0
100
AcDbMText
 10
221.8215514136
 20
5.5196853303
 30
0.0
 40
1.7638888889
 41
0.0
 71
     1
 72
     1
  1
8
  7
SLDTEXTSTYLE0
 73
     1
 44
1.0
  0
MTEXT
  5
F5
330
1F
100
AcDbEntity
  8
0
  6
Continuous
 62
     7
370
     0
100
AcDbMText
 10
195.2251211564
 20
5.5196853303
 30
0.0
 40
1.7638888889
 41
0.0
 71
     1
 72
     1
  1
7
  7
SLDTEXTSTYLE0
 73
     1
 44
1.0
  0
MTEXT
  5
F6
330
1F
100
AcDbEntity
  8
0
  6
Continuous
 62
     7
370
     0
100
AcDbMText
 10
165.4544139071
 20
5.5196853303
 30
0.0
 40
1.7638888889
 41
0.0
 71
     1
 72
     1
  1
6
  7
SLDTEXTSTYLE0
 73
     1
 44
1.0
  0
MTEXT
  5
F7
330
1F
100
AcDbEntity
  8
0
  6
Continuous
 62
     7
370
     0
100
AcDbMText
 10
136.3411692591
 20
5.5196853303
 30
0.0
 40
1.7638888889
 41
0.0
 71
     1
 72
     1
  1
5
  7
SLDTEXTSTYLE0
 73
     1
 44
1.0
  0
MTEXT
  5
F8
330
1F
100
AcDbEntity
  8
0
  6
Continuous
 62
     7
370
     0
100
AcDbMText
 10
107.6336799434
 20
5.3912743132
 30
0.0
 40
1.7638888889
 41
0.0
 71
     1
 72
     1
  1
4
  7
SLDTEXTSTYLE0
 73
     1
 44
1.0
  0
MTEXT
  5
F9
330
1F
100
AcDbEntity
  8
0
  6
Continuous
 62
     7
370
     0
100
AcDbMText
 10
79.0067283647
 20
5.5196853303
 30
0.0
 40
1.7638888889
 41
0.0
 71
     1
 72
     1
  1
3
  7
SLDTEXTSTYLE0
 73
     1
 44
1.0
  0
MTEXT
  5
FA
330
1F
100
AcDbEntity
  8
0
  6
Continuous
 62
     7
370
     0
100
AcDbMText
 10
50.5201493495
 20
5.5196853303
 30
0.0
 40
1.7638888889
 41
0.0
 71
     1
 72
     1
  1
2
  7
SLDTEXTSTYLE0
 73
     1
 44
1.0
  0
MTEXT
  5
FB
330
1F
100
AcDbEntity
  8
0
  6
Continuous
 62
     7
370
     0
100
AcDbMText
 10
22.0917273336
 20
5.5196853303
 30
0.0
 40
1.7638888889
 41
0.0
 71
     1
 72
     1
  1
1
  7
SLDTEXTSTYLE0
 73
     1
 44
1.0
  0
MTEXT
  5
FC
330
1F
100
AcDbEntity
  8
0
  6
Continuous
 62
     7
370
     0
100
AcDbMText
 10
239.2519871787
 20
155.535409091
 30
0.0
 40
1.7638888889
 41
0.0
 71
     1
 72
     1
  1
A
  7
SLDTEXTSTYLE0
 73
     1
 44
1.0
  0
MTEXT
  5
FD
330
1F
100
AcDbEntity
  8
0
  6
Continuous
 62
     7
370
     0
100
AcDbMText
 10
239.4471701184
 20
129.2754112042
 30
0.0
 40
1.7638888889
 41
0.0
 71
     1
 72
     1
  1
B
  7
SLDTEXTSTYLE0
 73
     1
 44
1.0
  0
MTEXT
  5
FE
330
1F
100
AcDbEntity
  8
0
  6
Continuous
 62
     7
370
     0
100
AcDbMText
 10
239.4471701184
 20
101.7546167035
 30
0.0
 40
1.7638888889
 41
0.0
 71
     1
 72
     1
  1
C
  7
SLDTEXTSTYLE0
 73
     1
 44
1.0
  0
MTEXT
  5
FF
330
1F
100
AcDbEntity
  8
0
  6
Continuous
 62
     7
370
     0
100
AcDbMText
 10
239.4471701184
 20
74.6470922028
 30
0.0
 40
1.7638888889
 41
0.0
 71
     1
 72
     1
  1
D
  7
SLDTEXTSTYLE0
 73
     1
 44
1.0
  0
MTEXT
  5
100
330
1F
100
AcDbEntity
  8
0
  6
Continuous
 62
     7
370
     0
100
AcDbMText
 10
239.4471701184
 20
48.6558946175
 30
0.0
 40
1.7638888889
 41
0.0
 71
     1
 72
     1
  1
E
  7
SLDTEXTSTYLE0
 73
     1
 44
1.0
  0
MTEXT
  5
101
330
1F
100
AcDbEntity
  8
0
  6
Continuous
 62
     7
370
     0
100
AcDbMText
 10
239.4471701184
 20
22.0005082054
 30
0.0
 40
1.7638888889
 41
0.0
 71
     1
 72
     1
  1
F
  7
SLDTEXTSTYLE0
 73
     1
 44
1.0
  0
MTEXT
  5
102
330
1F
100
AcDbEntity
  8
0
  6
Continuous
 62
     7
370
     0
100
AcDbMText
 10
169.2960940668
 20
17.9889290426
 30
0.0
 40
1.5434027778
 41
0.0
 71
     1
 72
     1
  1
Sky
  7
SLDTEXTSTYLE0
 73
     1
 44
1.0
  0
MTEXT
  5
103
330
1F
100
AcDbEntity
  8
0
  6
Continuous
 62
     7
370
     0
100
AcDbMText
 10
210.7068533038
 20
10.0416975799
 30
0.0
 40
2.0833333333
 41
0.0
 71
     1
 72
     1
  1
0
  7
SLDTEXTSTYLE0
 73
     1
 44
1.0
  0
INSERT
  5
109
330
1F
100
AcDbEntity
  8
SLD-0
 62
     7
100
AcDbBlockReference
  2
SW_NOTE_1
 10
165.6043244946
 20
27.9566454344
 30
0.0
  0
CIRCLE
  5
10A
330
1F
100
AcDbEntity
  8
0
  6
Continuous
 62
     7
370
    30
100
AcDbCircle
 10
63.4298223495
 20
113.0283069619
 30
0.0
 40
10.20000000000001
  0
LINE
  5
10B
330
1F
100
AcDbEntity
  8
0
  6
Continuous
 62
     7
370
    30
100
AcDbLine
 10
57.1798224305
 20
113.0283069229
 30
0.0
 11
57.1839169902
 21
112.8021021737
 31
0.0
  0
LINE
  5
10C
330
1F
100
AcDbEntity
  8
0
  6
Continuous
 62
     7
370
    30
100
AcDbLine
 10
69.6757280571
 20
112.8021021737
 30
0.0
 11
69.6757280571
 21
113.2545116721
 31
0.0
  0
LINE
  5
10D
330
1F
100
AcDbEntity
  8
0
  6
Continuous
 62
     7
370
    30
100
AcDbLine
 10
57.1839169902
 20
113.2545116721
 30
0.0
 11
57.1798224305
 21
113.0283069229
 31
0.0
  0
CIRCLE
  5
10E
330
1F
100
AcDbEntity
  8
0
  6
Continuous
 62
     7
370
    30
100
AcDbCircle
 10
63.4298223495
 20
113.0283069619
 30
0.0
 40
4.999999999999993
  0
CIRCLE
  5
10F
330
1F
100
AcDbEntity
  8
0
  6
Continuous
 62
     7
370
    30
100
AcDbCircle
 10
57.6298223495
 20
113.0283069619
 30
0.0
 40
0.5000000000000071
  0
CIRCLE
  5
110
330
1F
100
AcDbEntity
  8
0
  6
Continuous
 62
     7
370
    30
100
AcDbCircle
 10
69.2298223495
 20
113.0283069619
 30
0.0
 40
0.5
  0
CIRCLE
  5
111
330
1F
100
AcDbEntity
  8
0
  6
Continuous
 62
     7
370
    30
100
AcDbCircle
 10
63.4298223495
 20
113.0283069619
 30
0.0
 40
6.794499999999992
  0
CIRCLE
  5
112
330
1F
100
AcDbEntity
  8
0
  6
Continuous
 62
     7
370
    30
100
AcDbCircle
 10
63.4298223495
 20
113.0283069619
 30
0.0
 40
10.0
  0
CIRCLE
  5
113
330
1F
100
AcDbEntity
  8
0
  6
Continuous
 62
     7
370
    30
100
AcDbCircle
 10
63.4298223495
 20
113.0283069619
 30
0.0
 40
6.477
  0
ARC
  5
114
330
1F
100
AcDbEntity
  8
0
  6
Continuous
 62
     7
370
    30
100
AcDbCircle
 10
45.4298223495
 20
91.0283069619
 30
0.0
 40
2.5
100
AcDbArc
 50
180.0
 51
270.0
  0
LINE
  5
115
330
1F
100
AcDbEntity
  8
0
  6
Continuous
 62
     7
370
    30
100
AcDbLine
 10
45.4298223672
 20
88.5283077965
 30
0.0
 11
45.4298223672
 21
88.0283067832
 31
0.0
  0
ARC
  5
116
330
1F
100
AcDbEntity
  8
0
  6
Continuous
 62
     7
370
    30
100
AcDbCircle
 10
45.4298223495
 20
91.0283069619
 30
0.0
 40
3.0
100
AcDbArc
 50
180.0
 51
270.0
  0
LINE
  5
117
330
1F
100
AcDbEntity
  8
0
  6
Continuous
 62
     7
370
    30
100
AcDbLine
 10
42.9298219574
 20
91.0283072749
 30
0.0
 11
42.4298228068
 21
91.0283072749
 31
0.0
  0
ARC
  5
118
330
1F
100
AcDbEntity
  8
0
  6
Continuous
 62
     7
370
    30
100
AcDbCircle
 10
81.4298223495
 20
91.0283069619
 30
0.0
 40
2.5
100
AcDbArc
 50
270.0
 51
0.0
  0
LINE
  5
119
330
1F
100
AcDbEntity
  8
0
  6
Continuous
 62
     7
370
    30
100
AcDbLine
 10
84.4298241032
 20
91.0283072749
 30
0.0
 11
83.9298230899
 21
91.0283072749
 31
0.0
  0
ARC
  5
11A
330
1F
100
AcDbEntity
  8
0
  6
Continuous
 62
     7
370
    30
100
AcDbCircle
 10
81.4298223495
 20
91.0283069619
 30
0.0
 40
3.0
100
AcDbArc
 50
270.0
 51
0.0
  0
LINE
  5
11B
330
1F
100
AcDbEntity
  8
0
  6
Continuous
 62
     7
370
    30
100
AcDbLine
 10
81.4298217488
 20
88.5283077965
 30
0.0
 11
81.4298217488
 21
88.0283067832
 31
0.0
  0
LINE
  5
11C
330
1F
100
AcDbEntity
  8
0
  6
Continuous
 62
     7
370
    30
100
AcDbLine
 10
45.4298223672
 20
88.5283077965
 30
0.0
 11
81.4298217488
 21
88.5283077965
 31
0.0
  0
LINE
  5
11D
330
1F
100
AcDbEntity
  8
0
  6
Continuous
 62
     7
370
    30
100
AcDbLine
 10
81.4298217488
 20
88.0283067832
 30
0.0
 11
45.4298223672
 21
88.0283067832
 31
0.0
  0
CIRCLE
  5
11E
330
1F
100
AcDbEntity
  8
0
  6
Continuous
 62
     7
370
    30
100
AcDbCircle
 10
63.4298223495
 20
113.0283069619
 30
0.0
 40
10.35
  0
CIRCLE
  5
11F
330
1F
100
AcDbEntity
  8
0
  6
Continuous
 62
     7
370
    30
100
AcDbCircle
 10
63.4298223495
 20
113.0283069619
 30
0.0
 40
10.25
  0
CIRCLE
  5
120
330
1F
100
AcDbEntity
  8
0
  6
Continuous
 62
     7
370
    30
100
AcDbCircle
 10
81.4298223495
 20
91.0283069619
 30
0.0
 40
1.650000000000006
  0
CIRCLE
  5
121
330
1F
100
AcDbEntity
  8
0
  6
Continuous
 62
     7
370
    30
100
AcDbCircle
 10
45.4298223495
 20
91.0283069619
 30
0.0
 40
1.649999999999999
  0
LINE
  5
122
330
1F
100
AcDbEntity
  8
0
  6
Continuous
 62
     7
370
    30
100
AcDbLine
 10
42.9298219574
 20
127.0283066565
 30
0.0
 11
42.9298219574
 21
91.0283072749
 31
0.0
  0
ARC
  5
123
330
1F
100
AcDbEntity
  8
0
  6
Continuous
 62
     7
370
    30
100
AcDbCircle
 10
45.4298223495
 20
127.0283069619
 30
0.0
 40
2.5
100
AcDbArc
 50
90.0
 51
180.0
  0
LINE
  5
124
330
1F
100
AcDbEntity
  8
0
  6
Continuous
 62
     7
370
    30
100
AcDbLine
 10
81.4298217488
 20
129.5283070663
 30
0.0
 11
45.4298223672
 21
129.5283070663
 31
0.0
  0
ARC
  5
125
330
1F
100
AcDbEntity
  8
0
  6
Continuous
 62
     7
370
    30
100
AcDbCircle
 10
81.4298223495
 20
127.0283069619
 30
0.0
 40
2.5
100
AcDbArc
 50
0.0
 51
90.0
  0
LINE
  5
126
330
1F
100
AcDbEntity
  8
0
  6
Continuous
 62
     7
370
    30
100
AcDbLine
 10
83.9298230899
 20
91.0283072749
 30
0.0
 11
83.9298230899
 21
127.0283066565
 31
0.0
  0
CIRCLE
  5
127
330
1F
100
AcDbEntity
  8
0
  6
Continuous
 62
     7
370
    30
100
AcDbCircle
 10
81.4298223495
 20
127.0283069619
 30
0.0
 40
1.650000000000006
  0
CIRCLE
  5
128
330
1F
100
AcDbEntity
  8
0
  6
Continuous
 62
     7
370
    30
100
AcDbCircle
 10
45.4298223495
 20
127.0283069619
 30
0.0
 40
1.649999999999999
  0
LINE
  5
129
330
1F
100
AcDbEntity
  8
0
  6
Continuous
 62
     7
370
    30
100
AcDbLine
 10
42.9298219574
 20
127.0283066565
 30
0.0
 11
42.4298228068
 21
127.0283066565
 31
0.0
  0
ARC
  5
12A
330
1F
100
AcDbEntity
  8
0
  6
Continuous
 62
     7
370
    30
100
AcDbCircle
 10
45.4298223495
 20
127.0283069619
 30
0.0
 40
3.000000000000007
100
AcDbArc
 50
90.0
 51
180.0
  0
LINE
  5
12B
330
1F
100
AcDbEntity
  8
0
  6
Continuous
 62
     7
370
    30
100
AcDbLine
 10
45.4298223672
 20
130.0283071483
 30
0.0
 11
45.4298223672
 21
129.5283070663
 31
0.0
  0
LINE
  5
12C
330
1F
100
AcDbEntity
  8
0
  6
Continuous
 62
     7
370
    30
100
AcDbLine
 10
45.4298223672
 20
130.0283071483
 30
0.0
 11
81.4298217488
 21
130.0283071483
 31
0.0
  0
LINE
  5
12D
330
1F
100
AcDbEntity
  8
0
  6
Continuous
 62
     7
370
    30
100
AcDbLine
 10
81.4298217488
 20
130.0283071483
 30
0.0
 11
81.4298217488
 21
129.5283070663
 31
0.0
  0
ARC
  5
12E
330
1F
100
AcDbEntity
  8
0
  6
Continuous
 62
     7
370
    30
100
AcDbCircle
 10
81.4298223495
 20
127.0283069619
 30
0.0
 40
3.0
100
AcDbArc
 50
0.0
 51
90.0
  0
LINE
  5
12F
330
1F
100
AcDbEntity
  8
0
  6
Continuous
 62
     7
370
    30
100
AcDbLine
 10
84.4298241032
 20
127.0283066565
 30
0.0
 11
83.9298230899
 21
127.0283066565
 31
0.0
  0
LINE
  5
130
330
1F
100
AcDbEntity
  8
0
  6
Continuous
 62
     7
370
    30
100
AcDbLine
 10
84.4298241032
 20
127.0283066565
 30
0.0
 11
84.4298241032
 21
91.0283072749
 31
0.0
  0
LINE
  5
131
330
1F
100
AcDbEntity
  8
0
  6
Continuous
 62
     7
370
    30
100
AcDbLine
 10
42.4298228068
 20
91.0283072749
 30
0.0
 11
42.4298228068
 21
127.0283066565
 31
0.0
  0
DIMENSION
  5
132
330
1F
100
AcDbEntity
  8
SLD-0
100
AcDbDimension
  2
_D
 10
28.2169619777
 20
130.0283069619
 30
0.0
 11
28.2169619777
 21
108.9727617598
 31
0.0
 70
   160
  1
<>
 71
     2
 42
-1.0
  3
SLDDIMSTYLE0
100
AcDbAlignedDimension
 13
45.4298223495
 23
88.0283069619
 33
0.0
 14
45.4298223495
 24
130.0283069619
 34
0.0
 50
90.0
100
AcDbRotatedDimension
  0
DIMENSION
  5
13D
330
1F
100
AcDbEntity
  8
SLD-0
100
AcDbDimension
  2
_D_1
 10
84.4298223495
 20
148.7116402953
 30
0.0
 11
62.9344596354
 21
148.7116402953
 31
0.0
 70
   160
  1
<>
 71
     2
 42
-1.0
  3
SLDDIMSTYLE0
100
AcDbAlignedDimension
 13
42.4298223495
 23
127.0283069619
 33
0.0
 14
84.4298223495
 24
127.0283069619
 34
0.0
 50
0.0
100
AcDbRotatedDimension
  0
DIMENSION
  5
147
330
1F
100
AcDbEntity
  8
SLD-0
100
AcDbDimension
  2
_D_2
 10
31.9131556828
 20
113.0283069619
 30
0.0
 11
31.9131556828
 21
120.0283069619
 31
0.0
 70
   160
  1
<>
 71
     2
 42
-1.0
  3
SLDDIMSTYLE0
100
AcDbAlignedDimension
 13
45.4298223495
 23
130.0283069619
 33
0.0
 14
63.4298223495
 24
113.0283069619
 34
0.0
 50
90.0
100
AcDbRotatedDimension
  0
DIMENSION
  5
151
330
1F
100
AcDbEntity
  8
SLD-0
100
AcDbDimension
  2
_D_3
 10
42.4298223495
 20
144.5449736286
 30
0.0
 11
54.4298223495
 21
144.5449736286
 31
0.0
 70
   160
  1
<>
 71
     2
 42
-1.0
  3
SLDDIMSTYLE0
100
AcDbAlignedDimension
 13
63.4298223495
 23
113.0283069619
 33
0.0
 14
42.4298223495
 24
127.0283069619
 34
0.0
100
AcDbRotatedDimension
  0
DIMENSION
  5
15B
330
1F
100
AcDbEntity
  8
SLD-0
100
AcDbDimension
  2
_D_4
 10
63.4298223495
 20
140.3783069619
 30
0.0
 11
54.4298223495
 21
140.3783069619
 31
0.0
 70
   160
  1
<>
 71
     2
 42
-1.0
  3
SLDDIMSTYLE0
100
AcDbAlignedDimension
 13
45.4298223495
 23
129.6783069619
 33
0.0
 14
63.4298223495
 24
113.0283069619
 34
0.0
100
AcDbRotatedDimension
  0
DIMENSION
  5
165
330
1F
100
AcDbEntity
  8
SLD-0
100
AcDbDimension
  2
_D_5
 10
63.4298223495
 20
140.3783069619
 30
0.0
 11
72.4298223495
 21
140.3783069619
 31
0.0
 70
   160
  1
<>
 71
     2
 42
-1.0
  3
SLDDIMSTYLE0
100
AcDbAlignedDimension
 13
81.4298223495
 23
129.6783069619
 33
0.0
 14
63.4298223495
 24
113.0283069619
 34
0.0
100
AcDbRotatedDimension
  0
DIMENSION
  5
16F
330
1F
100
AcDbEntity
  8
SLD-0
100
AcDbDimension
  2
_D_6
 10
36.0798223495
 20
113.0283069619
 30
0.0
 11
36.0798223495
 21
120.0283069619
 31
0.0
 70
   160
  1
<>
 71
     2
 42
-1.0
  3
SLDDIMSTYLE0
100
AcDbAlignedDimension
 13
42.7798223495
 23
127.0283069619
 33
0.0
 14
63.4298223495
 24
113.0283069619
 34
0.0
 50
90.0
100
AcDbRotatedDimension
  0
DIMENSION
  5
179
330
1F
100
AcDbEntity
  8
SLD-0
100
AcDbDimension
  2
_D_7
 10
36.0798223495
 20
113.0283069619
 30
0.0
 11
36.0798223495
 21
102.0283069619
 31
0.0
 70
   160
  1
<>
 71
     2
 42
-1.0
  3
SLDDIMSTYLE0
100
AcDbAlignedDimension
 13
42.7798223495
 23
91.0283069619
 33
0.0
 14
63.4298223495
 24
113.0283069619
 34
0.0
 50
90.0
100
AcDbRotatedDimension
  0
DIMENSION
  5
183
330
1F
100
AcDbEntity
  8
SLD-0
100
AcDbDimension
  2
_D_8
 10
57.1735207726
 20
111.3519360068
 30
0.0
 11
96.3043426567
 21
123.6401845119
 31
0.0
 70
   163
  1
ACCEPTS\P %%c0.5" OPTICS\PMax.THK 6.4
 71
     1
 42
-1.0
  3
SLDDIMSTYLE1
100
AcDbDiametricDimension
 15
69.6861239264
 25
114.7046779171
 35
0.0
 40
0.0
  0
DIMENSION
  5
190
330
1F
100
AcDbEntity
  8
SLD-0
100
AcDbDimension
  2
_D_9
 10
66.7486347945
 20
109.2885898664
 30
0.0
 11
95.5190437864
 21
86.4465361728
 31
0.0
 70
   163
  1
C.A.<>
 71
     1
 42
-1.0
  3
SLDDIMSTYLE2
100
AcDbDiametricDimension
 15
60.1110099045
 25
116.7680240575
 35
0.0
 40
0.0
  0
DIMENSION
  5
19D
330
1F
100
AcDbEntity
  8
SLD-0
100
AcDbDimension
  2
_D_10
 10
46.5264919599
 20
125.7954988805
 30
0.0
 11
28.2169619777
 21
141.9769759063
 31
0.0
 70
   163
  1
4 x M4\P
 71
     1
 42
-1.0
  3
SLDDIMSTYLE3
100
AcDbDiametricDimension
 15
44.3331527392
 25
128.2611150434
 35
0.0
 40
0.0
  0
INSERT
  5
1B6
330
1F
100
AcDbEntity
  8
SLD-0
100
AcDbBlockReference
  2
SW_CENTERMARKSYMBOL_0
 10
45.4298223495
 20
127.0283069619
 30
0.0
  0
INSERT
  5
1C2
330
1F
100
AcDbEntity
  8
SLD-0
100
AcDbBlockReference
  2
SW_CENTERMARKSYMBOL_1
 10
81.4298223495
 20
127.0283069619
 30
0.0
  0
INSERT
  5
1CE
330
1F
100
AcDbEntity
  8
SLD-0
100
AcDbBlockReference
  2
SW_CENTERMARKSYMBOL_2
 10
81.4298223495
 20
91.0283069619
 30
0.0
  0
INSERT
  5
1DA
330
1F
100
AcDbEntity
  8
SLD-0
100
AcDbBlockReference
  2
SW_CENTERMARKSYMBOL_3
 10
45.4298223495
 20
91.0283069619
 30
0.0
  0
INSERT
  5
1E6
330
1F
100
AcDbEntity
  8
SLD-0
100
AcDbBlockReference
  2
SW_CENTERMARKSYMBOL_4
 10
63.4298223495
 20
113.0283069619
 30
0.0
  0
LINE
  5
1E7
330
1F
100
AcDbEntity
  8
0
  6
Continuous
 62
     7
370
    30
100
AcDbLine
 10
166.8529531042
 20
106.0469026575
 30
0.0
 11
151.8529525082
 21
106.0469026575
 31
0.0
  0
LINE
  5
1E8
330
1F
100
AcDbEntity
  8
0
  6
Continuous
 62
     7
370
    30
100
AcDbLine
 10
151.8529525082
 20
91.0469020615
 30
0.0
 11
166.8529531042
 21
91.0469020615
 31
0.0
  0
LINE
  5
1E9
330
1F
100
AcDbEntity
  8
0
  6
Continuous
 62
     7
370
    30
100
AcDbLine
 10
166.8529531042
 20
91.1469018916
 30
0.0
 11
168.3529524188
 21
91.1469018916
 31
0.0
  0
LINE
  5
1EA
330
1F
100
AcDbEntity
  8
0
  6
Continuous
 62
     7
370
    30
100
AcDbLine
 10
168.3529524188
 20
105.9469028274
 30
0.0
 11
166.8529531042
 21
105.9469028274
 31
0.0
  0
LINE
  5
1EB
330
1F
100
AcDbEntity
  8
0
  6
Continuous
 62
     7
370
    30
100
AcDbLine
 10
168.3729535024
 20
100.4887918839
 30
0.0
 11
168.3529524188
 21
100.4887918839
 31
0.0
  0
LINE
  5
1EC
330
1F
100
AcDbEntity
  8
0
  6
Continuous
 62
     7
370
    30
100
AcDbLine
 10
168.3529524188
 20
93.5814256678
 30
0.0
 11
168.3729535024
 21
93.5814256678
 31
0.0
  0
LINE
  5
1ED
330
1F
100
AcDbEntity
  8
0
  6
Continuous
 62
     7
370
    30
100
AcDbLine
 10
168.3729535024
 20
104.694924959
 30
0.0
 11
168.3529524188
 21
104.694924959
 31
0.0
  0
LINE
  5
1EE
330
1F
100
AcDbEntity
  8
0
  6
Continuous
 62
     7
370
    30
100
AcDbLine
 10
168.3729535024
 20
95.5469018677
 30
0.0
 11
168.552952079
 21
95.5469018677
 31
0.0
  0
LINE
  5
1EF
330
1F
100
AcDbEntity
  8
0
  6
Continuous
 62
     7
370
    30
100
AcDbLine
 10
168.552952079
 20
101.5469028512
 30
0.0
 11
168.3729535024
 21
101.5469028512
 31
0.0
  0
LINE
  5
1F0
330
1F
100
AcDbEntity
  8
0
  6
Continuous
 62
     7
370
    30
100
AcDbLine
 10
168.3529524188
 20
93.140358747
 30
0.0
 11
168.3729535024
 21
93.140358747
 31
0.0
  0
LINE
  5
1F1
330
1F
100
AcDbEntity
  8
0
  6
Continuous
 62
     7
370
    30
100
AcDbLine
 10
168.552952079
 20
97.7969027022
 30
0.0
 11
169.5529541056
 21
97.7969027022
 31
0.0
  0
LINE
  5
1F2
330
1F
100
AcDbEntity
  8
0
  6
Continuous
 62
     7
370
    30
100
AcDbLine
 10
169.5529541056
 20
99.2969020168
 30
0.0
 11
168.552952079
 21
99.2969020168
 31
0.0
  0
LINE
  5
1F3
330
1F
100
AcDbEntity
  8
0
  6
Continuous
 62
     7
370
    30
100
AcDbLine
 10
168.3529524188
 20
92.6992918262
 30
0.0
 11
168.3729535024
 21
92.6992918262
 31
0.0
  0
LINE
  5
1F4
330
1F
100
AcDbEntity
  8
0
  6
Continuous
 62
     7
370
    30
100
AcDbLine
 10
168.3529524188
 20
92.2582267681
 30
0.0
 11
168.3729535024
 21
92.2582267681
 31
0.0
  0
LINE
  5
1F5
330
1F
100
AcDbEntity
  8
0
  6
Continuous
 62
     7
370
    30
100
AcDbLine
 10
151.8529525082
 20
106.0469026575
 30
0.0
 11
133.9529529968
 21
106.0469026575
 31
0.0
  0
LINE
  5
1F6
330
1F
100
AcDbEntity
  8
0
  6
Continuous
 62
     7
370
    30
100
AcDbLine
 10
133.9529529968
 20
91.0469020615
 30
0.0
 11
151.8529525082
 21
91.0469020615
 31
0.0
  0
LINE
  5
1F7
330
1F
100
AcDbEntity
  8
0
  6
Continuous
 62
     7
370
    30
100
AcDbLine
 10
166.8529531042
 20
91.0469020615
 30
0.0
 11
166.8529531042
 21
106.0469026575
 31
0.0
  0
LINE
  5
1F8
330
1F
100
AcDbEntity
  8
0
  6
Continuous
 62
     7
370
    30
100
AcDbLine
 10
151.8529525082
 20
91.0469020615
 30
0.0
 11
151.8529525082
 21
106.0469026575
 31
0.0
  0
LINE
  5
1F9
330
1F
100
AcDbEntity
  8
0
  6
Continuous
 62
     7
370
    30
100
AcDbLine
 10
168.3529524188
 20
105.9469028274
 30
0.0
 11
168.3529524188
 21
91.1469018916
 31
0.0
  0
LINE
  5
1FA
330
1F
100
AcDbEntity
  8
0
  6
Continuous
 62
     7
370
    30
100
AcDbLine
 10
168.3729535024
 20
100.4887918839
 30
0.0
 11
168.3729535024
 21
98.6891432563
 31
0.0
  0
LINE
  5
1FB
330
1F
100
AcDbEntity
  8
0
  6
Continuous
 62
     7
370
    30
100
AcDbLine
 10
168.3729535024
 20
98.6891432563
 30
0.0
 11
168.3529524188
 21
98.6891432563
 31
0.0
  0
LINE
  5
1FC
330
1F
100
AcDbEntity
  8
0
  6
Continuous
 62
     7
370
    30
100
AcDbLine
 10
168.3529524188
 20
95.2556735734
 30
0.0
 11
168.3729535024
 21
95.2556735734
 31
0.0
  0
LINE
  5
1FD
330
1F
100
AcDbEntity
  8
0
  6
Continuous
 62
     7
370
    30
100
AcDbLine
 10
168.3729535024
 20
98.6891432563
 30
0.0
 11
168.3729535024
 21
95.2556735734
 31
0.0
  0
LINE
  5
1FE
330
1F
100
AcDbEntity
  8
0
  6
Continuous
 62
     7
370
    30
100
AcDbLine
 10
168.3729535024
 20
95.2556735734
 30
0.0
 11
168.3729535024
 21
93.5814256678
 31
0.0
  0
LINE
  5
1FF
330
1F
100
AcDbEntity
  8
0
  6
Continuous
 62
     7
370
    30
100
AcDbLine
 10
168.3729535024
 20
103.9512080038
 30
0.0
 11
168.3529524188
 21
103.9512080038
 31
0.0
  0
LINE
  5
200
330
1F
100
AcDbEntity
  8
0
  6
Continuous
 62
     7
370
    30
100
AcDbLine
 10
168.3729535024
 20
103.9512080038
 30
0.0
 11
168.3729535024
 21
100.4887918839
 31
0.0
  0
LINE
  5
201
330
1F
100
AcDbEntity
  8
0
  6
Continuous
 62
     7
370
    30
100
AcDbLine
 10
168.3729535024
 20
104.694924959
 30
0.0
 11
168.3729535024
 21
103.9512080038
 31
0.0
  0
LINE
  5
202
330
1F
100
AcDbEntity
  8
0
  6
Continuous
 62
     7
370
    30
100
AcDbLine
 10
168.552952079
 20
101.5469028512
 30
0.0
 11
168.552952079
 21
95.5469018677
 31
0.0
  0
LINE
  5
203
330
1F
100
AcDbEntity
  8
0
  6
Continuous
 62
     7
370
    30
100
AcDbLine
 10
168.3729535024
 20
93.5814256678
 30
0.0
 11
168.3729535024
 21
93.140358747
 31
0.0
  0
LINE
  5
204
330
1F
100
AcDbEntity
  8
0
  6
Continuous
 62
     7
370
    30
100
AcDbLine
 10
169.5529541056
 20
99.2969020168
 30
0.0
 11
169.5529541056
 21
97.7969027022
 31
0.0
  0
LINE
  5
205
330
1F
100
AcDbEntity
  8
0
  6
Continuous
 62
     7
370
    30
100
AcDbLine
 10
168.3729535024
 20
93.140358747
 30
0.0
 11
168.3729535024
 21
92.6992918262
 31
0.0
  0
LINE
  5
206
330
1F
100
AcDbEntity
  8
0
  6
Continuous
 62
     7
370
    30
100
AcDbLine
 10
168.3729535024
 20
92.6992918262
 30
0.0
 11
168.3729535024
 21
92.2582267681
 31
0.0
  0
LINE
  5
207
330
1F
100
AcDbEntity
  8
0
  6
Continuous
 62
     7
370
    30
100
AcDbLine
 10
131.9529529018
 20
91.0283072749
 30
0.0
 11
131.9529529018
 21
88.0283067832
 31
0.0
  0
LINE
  5
208
330
1F
100
AcDbEntity
  8
0
  6
Continuous
 62
     7
370
    30
100
AcDbLine
 10
131.9529529018
 20
88.0283067832
 30
0.0
 11
118.4529533665
 21
88.0283067832
 31
0.0
  0
LINE
  5
209
330
1F
100
AcDbEntity
  8
0
  6
Continuous
 62
     7
370
    30
100
AcDbLine
 10
118.4529533665
 20
91.0283072749
 30
0.0
 11
118.4529533665
 21
88.0283067832
 31
0.0
  0
LINE
  5
20A
330
1F
100
AcDbEntity
  8
0
  6
Continuous
 62
     7
370
    30
100
AcDbLine
 10
118.4529533665
 20
91.0283072749
 30
0.0
 11
131.9529529018
 21
91.0283072749
 31
0.0
  0
LINE
  5
20B
330
1F
100
AcDbEntity
  8
0
  6
Continuous
 62
     7
370
    30
100
AcDbLine
 10
118.4529533665
 20
127.0283066565
 30
0.0
 11
118.4529533665
 21
91.0283072749
 31
0.0
  0
LINE
  5
20C
330
1F
100
AcDbEntity
  8
0
  6
Continuous
 62
     7
370
    30
100
AcDbLine
 10
131.9529529018
 20
127.0283066565
 30
0.0
 11
118.4529533665
 21
127.0283066565
 31
0.0
  0
CIRCLE
  5
20D
330
1F
100
AcDbEntity
  8
0
  6
Continuous
 62
     7
370
    30
100
AcDbCircle
 10
122.9529529493
 20
113.0283069619
 30
0.0
 40
1.727199999999996
  0
LINE
  5
20E
330
1F
100
AcDbEntity
  8
0
  6
Continuous
 62
     7
370
    30
100
AcDbLine
 10
131.9529529018
 20
91.0283072749
 30
0.0
 11
131.9529529018
 21
127.0283066565
 31
0.0
  0
LINE
  5
20F
330
1F
100
AcDbEntity
  8
0
  6
Continuous
 62
     7
370
    30
100
AcDbLine
 10
117.9529532845
 20
88.5283077965
 30
0.0
 11
117.9529532845
 21
91.0283072749
 31
0.0
  0
LINE
  5
210
330
1F
100
AcDbEntity
  8
0
  6
Continuous
 62
     7
370
    30
100
AcDbLine
 10
118.4529533665
 20
91.0283072749
 30
0.0
 11
117.9529532845
 21
91.0283072749
 31
0.0
  0
ARC
  5
211
330
1F
100
AcDbEntity
  8
0
  6
Continuous
 62
     7
370
    30
100
AcDbCircle
 10
118.4529529493
 20
88.5283069619
 30
0.0
 40
0.5
100
AcDbArc
 50
180.0
 51
270.0
  0
LINE
  5
212
330
1F
100
AcDbEntity
  8
0
  6
Continuous
 62
     7
370
    30
100
AcDbLine
 10
117.9529532845
 20
91.0283072749
 30
0.0
 11
117.9529532845
 21
127.0283066565
 31
0.0
  0
LINE
  5
213
330
1F
100
AcDbEntity
  8
0
  6
Continuous
 62
     7
370
    30
100
AcDbLine
 10
118.4529533665
 20
127.0283066565
 30
0.0
 11
117.9529532845
 21
127.0283066565
 31
0.0
  0
LINE
  5
214
330
1F
100
AcDbEntity
  8
0
  6
Continuous
 62
     7
370
    30
100
AcDbLine
 10
118.4529533665
 20
130.0283071483
 30
0.0
 11
118.4529533665
 21
127.0283066565
 31
0.0
  0
LINE
  5
215
330
1F
100
AcDbEntity
  8
0
  6
Continuous
 62
     7
370
    30
100
AcDbLine
 10
118.4529533665
 20
130.0283071483
 30
0.0
 11
131.9529529018
 21
130.0283071483
 31
0.0
  0
LINE
  5
216
330
1F
100
AcDbEntity
  8
0
  6
Continuous
 62
     7
370
    30
100
AcDbLine
 10
131.9529529018
 20
130.0283071483
 30
0.0
 11
131.9529529018
 21
127.0283066565
 31
0.0
  0
LINE
  5
217
330
1F
100
AcDbEntity
  8
0
  6
Continuous
 62
     7
370
    30
100
AcDbLine
 10
117.9529532845
 20
127.0283066565
 30
0.0
 11
117.9529532845
 21
129.5283070663
 31
0.0
  0
ARC
  5
218
330
1F
100
AcDbEntity
  8
0
  6
Continuous
 62
     7
370
    30
100
AcDbCircle
 10
118.4529529493
 20
129.5283069619
 30
0.0
 40
0.5
100
AcDbArc
 50
90.0
 51
180.0
  0
LINE
  5
219
330
1F
100
AcDbEntity
  8
0
  6
Continuous
 62
     7
370
    30
100
AcDbLine
 10
133.9529529968
 20
91.0283072749
 30
0.0
 11
133.9529529968
 21
88.5283077965
 31
0.0
  0
ARC
  5
21A
330
1F
100
AcDbEntity
  8
0
  6
Continuous
 62
     7
370
    30
100
AcDbCircle
 10
133.4529529493
 20
88.5283069619
 30
0.0
 40
0.5
100
AcDbArc
 50
270.0
 51
0.0
  0
LINE
  5
21B
330
1F
100
AcDbEntity
  8
0
  6
Continuous
 62
     7
370
    30
100
AcDbLine
 10
133.452952973
 20
88.0283067832
 30
0.0
 11
133.452952973
 21
91.0283072749
 31
0.0
  0
LINE
  5
21C
330
1F
100
AcDbEntity
  8
0
  6
Continuous
 62
     7
370
    30
100
AcDbLine
 10
133.9529529968
 20
91.0283072749
 30
0.0
 11
133.452952973
 21
91.0283072749
 31
0.0
  0
LINE
  5
21D
330
1F
100
AcDbEntity
  8
0
  6
Continuous
 62
     7
370
    30
100
AcDbLine
 10
131.9529529018
 20
91.0283072749
 30
0.0
 11
133.452952973
 21
91.0283072749
 31
0.0
  0
LINE
  5
21E
330
1F
100
AcDbEntity
  8
0
  6
Continuous
 62
     7
370
    30
100
AcDbLine
 10
133.452952973
 20
88.0283067832
 30
0.0
 11
131.9529529018
 21
88.0283067832
 31
0.0
  0
LINE
  5
21F
330
1F
100
AcDbEntity
  8
0
  6
Continuous
 62
     7
370
    30
100
AcDbLine
 10
133.9529529968
 20
127.0283066565
 30
0.0
 11
133.9529529968
 21
91.0283072749
 31
0.0
  0
LINE
  5
220
330
1F
100
AcDbEntity
  8
0
  6
Continuous
 62
     7
370
    30
100
AcDbLine
 10
133.452952973
 20
91.0283072749
 30
0.0
 11
133.452952973
 21
127.0283066565
 31
0.0
  0
LINE
  5
221
330
1F
100
AcDbEntity
  8
0
  6
Continuous
 62
     7
370
    30
100
AcDbLine
 10
133.9529529968
 20
127.0283066565
 30
0.0
 11
133.452952973
 21
127.0283066565
 31
0.0
  0
LINE
  5
222
330
1F
100
AcDbEntity
  8
0
  6
Continuous
 62
     7
370
    30
100
AcDbLine
 10
133.452952973
 20
127.0283066565
 30
0.0
 11
131.9529529018
 21
127.0283066565
 31
0.0
  0
LINE
  5
223
330
1F
100
AcDbEntity
  8
0
  6
Continuous
 62
     7
370
    30
100
AcDbLine
 10
133.9529529968
 20
129.5283070663
 30
0.0
 11
133.9529529968
 21
127.0283066565
 31
0.0
  0
LINE
  5
224
330
1F
100
AcDbEntity
  8
0
  6
Continuous
 62
     7
370
    30
100
AcDbLine
 10
133.452952973
 20
127.0283066565
 30
0.0
 11
133.452952973
 21
130.0283071483
 31
0.0
  0
ARC
  5
225
330
1F
100
AcDbEntity
  8
0
  6
Continuous
 62
     7
370
    30
100
AcDbCircle
 10
133.4529529493
 20
129.5283069619
 30
0.0
 40
0.5
100
AcDbArc
 50
0.0
 51
90.0
  0
LINE
  5
226
330
1F
100
AcDbEntity
  8
0
  6
Continuous
 62
     7
370
    30
100
AcDbLine
 10
131.9529529018
 20
130.0283071483
 30
0.0
 11
133.452952973
 21
130.0283071483
 31
0.0
  0
DIMENSION
  5
227
330
1F
100
AcDbEntity
  8
SLD-0
100
AcDbDimension
  2
_D_11
 10
113.2971902761
 20
130.0283069619
 30
0.0
 11
113.2971902761
 21
121.8391169335
 31
0.0
 70
   160
  1
<>
 71
     2
 42
-1.0
  3
SLDDIMSTYLE0
100
AcDbAlignedDimension
 13
122.9529529493
 23
113.0283069619
 33
0.0
 14
118.4529529493
 24
130.0283069619
 34
0.0
 50
90.0
100
AcDbRotatedDimension
  0
DIMENSION
  5
231
330
1F
100
AcDbEntity
  8
SLD-0
 62
     7
100
AcDbDimension
  2
_D_12
 10
174.5529529493
 20
91.0469027626
 30
0.0
 11
174.5529529493
 21
98.5469027626
 31
0.0
 70
   160
  1
%%c<>
 71
     2
 42
-1.0
  3
SLDDIMSTYLE0
100
AcDbAlignedDimension
 13
166.8529529493
 23
106.0469027626
 33
0.0
 14
166.8529529493
 24
91.0469027626
 34
0.0
 50
90.0
100
AcDbRotatedDimension
  0
DIMENSION
  5
23C
330
1F
100
AcDbEntity
  8
SLD-0
100
AcDbDimension
  2
_D_13
 10
168.3529529493
 20
148.7116402953
 30
0.0
 11
143.1529529493
 21
148.7116402953
 31
0.0
 70
   160
  1
<>
 71
     2
 42
-1.0
  3
SLDDIMSTYLE0
100
AcDbAlignedDimension
 13
117.9529529493
 23
129.5283069619
 33
0.0
 14
168.3529529493
 24
105.9469027626
 34
0.0
100
AcDbRotatedDimension
  0
DIMENSION
  5
246
330
1F
100
AcDbEntity
  8
SLD-0
100
AcDbDimension
  2
_D_14
 10
122.9529529493
 20
140.3783069619
 30
0.0
 11
120.4529529493
 21
140.3783069619
 31
0.0
 70
   160
  1
<>
 71
     2
 42
-1.0
  3
SLDDIMSTYLE0
100
AcDbAlignedDimension
 13
117.9529529493
 23
129.5283069619
 33
0.0
 14
122.9529529493
 24
115.7555069619
 34
0.0
100
AcDbRotatedDimension
  0
DIMENSION
  5
250
330
1F
100
AcDbEntity
  8
SLD-0
100
AcDbDimension
  2
_D_15
 10
133.9529529493
 20
144.5449736286
 30
0.0
 11
125.9529529493
 21
144.5449736286
 31
0.0
 70
   160
  1
<>
 71
     2
 42
-1.0
  3
SLDDIMSTYLE0
100
AcDbAlignedDimension
 13
117.9529529493
 23
129.5283069619
 33
0.0
 14
133.9529529493
 24
129.5283069619
 34
0.0
100
AcDbRotatedDimension
  0
DIMENSION
  5
25A
330
1F
100
AcDbEntity
  8
SLD-0
100
AcDbDimension
  2
_D_16
 10
123.8165529493
 20
114.5241060393
 30
0.0
 11
108.9311286845
 21
103.160446474
 31
0.0
 70
   163
  1
8-32 UNC\P
 71
     1
 42
-1.0
  3
SLDDIMSTYLE3
100
AcDbDiametricDimension
 15
122.0893529493
 25
111.5325078845
 35
0.0
 40
0.0
  0
INSERT
  5
26E
330
1F
100
AcDbEntity
  8
SLD-0
100
AcDbBlockReference
  2
SW_CENTERMARKSYMBOL_5
 10
122.9529529493
 20
113.0283069619
 30
0.0
  0
LINE
  5
26F
330
1F
100
AcDbEntity
  8
SLD-0
  6
CENTERX2
370
     0
100
AcDbLine
 10
124.9529529493
 20
113.0283069619
 30
0.0
 11
129.9529529493
 21
113.0283069619
 31
0.0
  0
LINE
  5
270
330
1F
100
AcDbEntity
  8
0
  6
Continuous
 62
     7
370
    30
100
AcDbLine
 10
221.056886843
 20
144.0517248144
 30
0.0
 11
216.9256215573
 21
141.6667961296
 31
0.0
  0
LINE
  5
271
330
1F
100
AcDbEntity
  8
0
  6
Continuous
 62
     7
370
    30
100
AcDbLine
 10
223.1966701399
 20
130.8536296545
 30
0.0
 11
227.306378922
 21
133.2261140347
 31
0.0
  0
LINE
  5
272
330
1F
100
AcDbEntity
  8
0
  6
Continuous
 62
     7
370
    30
100
AcDbLine
 10
227.7733634552
 20
133.5919209058
 30
0.0
 11
228.148599118
 21
133.8085398431
 31
0.0
  0
LINE
  5
273
330
1F
100
AcDbEntity
  8
0
  6
Continuous
 62
     7
370
    30
100
AcDbLine
 10
221.9824336
 20
144.4898091458
 30
0.0
 11
221.6071979373
 21
144.2731902085
 31
0.0
  0
LINE
  5
274
330
1F
100
AcDbEntity
  8
0
  6
Continuous
 62
     7
370
    30
100
AcDbLine
 10
205.7213429773
 20
121.055558011
 30
0.0
 11
206.7296298374
 21
121.6376296256
 31
0.0
  0
LINE
  5
275
330
1F
100
AcDbEntity
  8
0
  6
Continuous
 62
     7
370
    30
100
AcDbLine
 10
198.3969737321
 20
136.0717773319
 30
0.0
 11
197.388686872
 21
135.4897057173
 31
0.0
  0
SPLINE
  5
276
330
1F
100
AcDbEntity
  8
0
  6
Continuous
 62
     7
370
    30
100
AcDbSpline
210
0.0
220
0.0
230
1.0
 70
     8
 71
     3
 72
    12
 73
     8
 74
     0
 42
0.000000001
 43
0.00000001
 40
0.0
 40
0.0
 40
0.0
 40
0.0
 40
0.1302866244672934
 40
0.3744957799983407
 40
0.5888847836752432
 40
0.7939966610146179
 40
1.0
 40
1.0
 40
1.0
 40
1.0
 10
212.2597131783306
 20
105.294564181057
 30
0.0
 10
212.3237172922462
 20
105.2599879966507
 30
0.0
 10
212.5076906714166
 20
105.1606022369725
 30
0.0
 10
212.8052011237705
 20
105.0619042263145
 30
0.0
 10
213.1399945623129
 20
105.0265051555857
 30
0.0
 10
213.4515629493881
 20
105.0623587402433
 30
0.0
 10
213.6324273140033
 20
105.1524509567203
 30
0.0
 10
213.7230555893254
 20
105.1975947428754
 30
0.0
  0
SPLINE
  5
277
330
1F
100
AcDbEntity
  8
0
  6
Continuous
 62
     7
370
    30
100
AcDbSpline
210
0.0
220
0.0
230
1.0
 70
     8
 71
     3
 72
    13
 73
     9
 74
     0
 42
0.000000001
 43
0.00000001
 40
0.0
 40
0.0
 40
0.0
 40
0.0
 40
0.0140286427861773
 40
0.227432573015927
 40
0.4386114774588338
 40
0.6551620878689471
 40
0.8820126311398341
 40
1.0
 40
1.0
 40
1.0
 40
1.0
 10
189.9998001370043
 20
146.2578404213262
 30
0.0
 10
189.9935276373756
 20
146.2552193198117
 30
0.0
 10
189.8918377767424
 20
146.2127259816715
 30
0.0
 10
189.7348464548007
 20
146.0580755784032
 30
0.0
 10
189.5479479678013
 20
145.8066605836669
 30
0.0
 10
189.4259439964641
 20
145.4969325093621
 30
0.0
 10
189.3714706850419
 20
145.2054893125429
 30
0.0
 10
189.3666647253498
 20
145.014621674231
 30
0.0
 10
189.365020351228
 20
144.9493157155393
 30
0.0
  0
LINE
  5
278
330
1F
100
AcDbEntity
  8
0
  6
Continuous
 62
     7
370
    30
100
AcDbLine
 10
213.7179279968
 20
105.1914224092
 30
0.0
 11
221.6728792851
 21
109.7837180382
 31
0.0
  0
LINE
  5
279
330
1F
100
AcDbEntity
  8
0
  6
Continuous
 62
     7
370
    30
100
AcDbLine
 10
197.9598790179
 20
150.856308384
 30
0.0
 11
190.0049277296
 21
146.264012755
 31
0.0
  0
LINE
  5
27A
330
1F
100
AcDbEntity
  8
0
  6
Continuous
 62
     7
370
    30
100
AcDbLine
 10
191.0465097427
 20
117.5406858584
 30
0.0
 11
212.2597131783
 21
105.2945641811
 31
0.0
  0
LINE
  5
27B
330
1F
100
AcDbEntity
  8
0
  6
Continuous
 62
     7
370
    30
100
AcDbLine
 10
189.3650203512
 20
144.9493157155
 30
0.0
 11
189.3650203512
 21
120.453091359
 31
0.0
  0
SPLINE
  5
27C
330
1F
100
AcDbEntity
  8
0
  6
Continuous
 62
     7
370
    30
100
AcDbSpline
210
0.0
220
0.0
230
1.0
 70
     8
 71
     3
 72
    16
 73
    12
 74
     0
 42
0.000000001
 43
0.00000001
 40
0.0
 40
0.0
 40
0.0
 40
0.0
 40
0.0688252222988697
 40
0.1959798244499761
 40
0.3226999076875272
 40
0.4489666722469405
 40
0.5750513027374127
 40
0.7013933003489023
 40
0.8283641713561383
 40
0.9564997672305366
 40
1.0
 40
1.0
 40
1.0
 40
1.0
 10
189.3650203512281
 20
120.4530913589667
 30
0.0
 10
189.3670340830926
 20
120.3794804947417
 30
0.0
 10
189.3727681846927
 20
120.1698735546322
 30
0.0
 10
189.4342521079432
 20
119.808576000355
 30
0.0
 10
189.5654287006515
 20
119.3775763481054
 30
0.0
 10
189.7538845788103
 20
118.954244479708
 30
0.0
 10
189.9916477465623
 20
118.5526477271773
 30
0.0
 10
190.2715266749247
 20
118.1852383810194
 30
0.0
 10
190.5857223519741
 20
117.8649759924335
 30
0.0
 10
190.8500305488318
 20
117.6588332638911
 30
0.0
 10
191.0067819043933
 20
117.5645751106517
 30
0.0
 10
191.0465097427342
 20
117.5406858583975
 30
0.0
  0
SPLINE
  5
27D
330
1F
100
AcDbEntity
  8
0
  6
Continuous
 62
     7
370
    30
100
AcDbSpline
210
0.0
220
0.0
230
1.0
 70
     8
 71
     3
 72
    16
 73
    12
 74
     0
 42
0.000000001
 43
0.00000001
 40
0.0
 40
0.0
 40
0.0
 40
0.0
 40
0.0688252222988697
 40
0.1959798244499753
 40
0.3226999076875248
 40
0.4489666722469455
 40
0.575051302737412
 40
0.7013933003489015
 40
0.8283641713561399
 40
0.9564997672305333
 40
1.0
 40
1.0
 40
1.0
 40
1.0
 10
223.1966701399335
 20
136.1048945041268
 30
0.0
 10
223.1946564080689
 20
136.1785053683518
 30
0.0
 10
223.1889223064688
 20
136.3881123084612
 30
0.0
 10
223.1274383832184
 20
136.7494098627385
 30
0.0
 10
222.9962617905101
 20
137.180409514988
 30
0.0
 10
222.8078059123512
 20
137.6037413833855
 30
0.0
 10
222.5700427445993
 20
138.0053381359162
 30
0.0
 10
222.2901638162368
 20
138.372747482074
 30
0.0
 10
221.9759681391875
 20
138.69300987066
 30
0.0
 10
221.7116599423298
 20
138.8991525992024
 30
0.0
 10
221.5549085867682
 20
138.9934107524418
 30
0.0
 10
221.5151807484274
 20
139.017300004696
 30
0.0
  0
LINE
  5
27E
330
1F
100
AcDbEntity
  8
0
  6
Continuous
 62
     7
370
    30
100
AcDbLine
 10
223.1966701399
 20
111.6086701476
 30
0.0
 11
223.1966701399
 21
136.1048945041
 31
0.0
  0
LINE
  5
27F
330
1F
100
AcDbEntity
  8
0
  6
Continuous
 62
     7
370
    30
100
AcDbLine
 10
221.5151807484
 20
139.0173000047
 30
0.0
 11
200.3019773128
 21
151.263421682
 31
0.0
  0
LINE
  5
280
330
1F
100
AcDbEntity
  8
0
  6
Continuous
 62
     7
370
    30
100
AcDbLine
 10
221.6728792851
 20
109.7837180382
 30
0.0
 11
222.5567627616
 21
110.2939731081
 31
0.0
  0
LINE
  5
281
330
1F
100
AcDbEntity
  8
0
  6
Continuous
 62
     7
370
    30
100
AcDbLine
 10
198.8437624944
 20
151.3665634539
 30
0.0
 11
197.9598790179
 21
150.856308384
 31
0.0
  0
SPLINE
  5
282
330
1F
100
AcDbEntity
  8
0
  6
Continuous
 62
     7
370
    30
100
AcDbSpline
210
0.0
220
0.0
230
1.0
 70
     8
 71
     3
 72
    13
 73
     9
 74
     0
 42
0.000000001
 43
0.00000001
 40
0.0
 40
0.0
 40
0.0
 40
0.0
 40
0.0163379894845605
 40
0.2292420840364283
 40
0.4399263642672133
 40
0.6559697688305075
 40
0.8822889817039294
 40
0.9999999999999999
 40
0.9999999999999999
 40
0.9999999999999999
 40
0.9999999999999999
 10
222.5587541484514
 20
110.2988055091882
 30
0.0
 10
222.5660809720034
 20
110.3018566746669
 30
0.0
 10
222.6688853165653
 20
110.3446682784893
 30
0.0
 10
222.8268992154895
 20
110.4998077426153
 30
0.0
 10
223.0137273914075
 20
110.751353399875
 30
0.0
 10
223.1357508790788
 20
111.0610452060212
 30
0.0
 10
223.1902192855501
 20
111.3524975179505
 30
0.0
 10
223.1950256331038
 20
111.5433644354803
 30
0.0
 10
223.1966701399336
 20
111.6086701475541
 30
0.0
  0
SPLINE
  5
283
330
1F
100
AcDbEntity
  8
0
  6
Continuous
 62
     7
370
    30
100
AcDbSpline
210
0.0
220
0.0
230
1.0
 70
     8
 71
     3
 72
    12
 73
     8
 74
     0
 42
0.000000001
 43
0.00000001
 40
0.0
 40
0.0
 40
0.0
 40
0.0
 40
0.1305902352721974
 40
0.3753684786783786
 40
0.5902570794415974
 40
0.795846935103223
 40
1.0
 40
1.0
 40
1.0
 40
1.0
 10
200.301977312831
 20
151.2634216820365
 30
0.0
 10
200.2379733053005
 20
151.297997570501
 30
0.0
 10
200.0540002319236
 20
151.3973824795245
 30
0.0
 10
199.7564861139386
 20
151.4960906872186
 30
0.0
 10
199.4217060960695
 20
151.5314524243776
 30
0.0
 10
199.1112494707471
 20
151.4958608843708
 30
0.0
 10
198.9313869953718
 20
151.4063363554195
 30
0.0
 10
198.841771107542
 20
151.3617310527971
 30
0.0
  0
LWPOLYLINE
  5
284
330
1F
100
AcDbEntity
  8
0
  6
Continuous
 62
     7
370
    30
100
AcDbPolyline
 90
       27
 70
   128
 43
0.0
 10
227.306378922
 20
133.2261140347
 10
227.586852501
 20
133.4201110937
 10
227.9130703929
 20
133.7502786126
 10
228.1804412862
 20
134.1575429174
 10
228.3847485823
 20
134.6354812069
 10
228.5227702329
 20
135.1765561085
 10
228.5923295542
 20
135.772234548
 10
228.5923295542
 20
136.4131223204
 10
228.5227702329
 20
137.0891122428
 10
228.3847485823
 20
137.7895435503
 10
228.1804412863
 20
138.5033700227
 10
227.9130703929
 20
139.2193341901
 10
227.586852501
 20
139.92614487
 10
227.2069322615
 20
140.6126552356
 10
226.7793012436
 20
141.2680386084
 10
226.3107034439
 20
141.8819592012
 10
225.8085289296
 20
142.4447351194
 10
225.2806972927
 20
142.9474910505
 10
224.7355327535
 20
143.3822982334
 10
224.1816328825
 20
143.7422994988
 10
223.6277330115
 20
144.0218174119
 10
223.0825684724
 20
144.2164438081
 10
222.5547368355
 20
144.323109313
 10
222.0525623212
 20
144.3401317477
 10
221.5839645214
 20
144.2672426583
 10
221.1563335035
 20
144.1055915494
 10
221.056886843
 20
144.0517248144
  0
LWPOLYLINE
  5
285
330
1F
100
AcDbEntity
  8
0
  6
Continuous
 62
     7
370
    30
100
AcDbPolyline
 90
       20
 70
   128
 43
0.0
 10
225.065516359
 20
144.1845095011
 10
225.6120308984
 20
143.8293082525
 10
226.149926577
 20
143.4002984988
 10
226.6707204587
 20
142.90424598
 10
227.1661993129
 20
142.3489737407
 10
227.628549142
 20
141.7432387559
 10
228.050478413
 20
141.096593828
 10
228.4253330493
 20
140.4192369339
 10
228.7472013693
 20
139.7218503965
 10
229.0110073174
 20
139.0154324179
 10
229.2125905161
 20
138.3111236318
 10
229.3487718781
 20
137.6200314085
 10
229.4174037418
 20
136.953054685
 10
229.4174037418
 20
136.3207120829
 10
229.348771878
 20
135.7329760226
 10
229.2125905161
 20
135.199115453
 10
229.0110073173
 20
134.7275496741
 10
228.7472013693
 20
134.32571556
 10
228.4253330492
 20
133.9999502746
 10
228.148599118
 20
133.8085398431
  0
ARC
  5
286
330
1F
100
AcDbEntity
  8
0
  6
Continuous
 62
     7
370
    30
100
AcDbCircle
 10
223.2553274866
 20
141.6242100356
 30
0.0
 40
3.135588797483127
100
AcDbArc
 50
54.738836559
 51
113.9507050116
  0
LWPOLYLINE
  5
287
330
1F
100
AcDbEntity
  8
0
  6
Continuous
 62
     7
370
    30
100
AcDbPolyline
 90
       49
 70
   128
 43
0.0
 10
197.551317404
 20
130.5839172457
 10
197.5855695913
 20
129.9606792469
 10
197.6877400888
 20
129.3085582893
 10
197.856080731
 20
128.6387123434
 10
198.0877111627
 20
127.962602659
 10
198.3786681231
 20
127.2917976603
 10
198.723973258
 20
126.6377750067
 10
199.1177183007
 20
126.0117252072
 10
199.5531661643
 20
125.4243601474
 10
200.0228662153
 20
124.8857298065
 10
200.5187817555
 20
124.4050502987
 10
201.0324275325
 20
123.9905461839
 10
201.5550149247
 20
123.6493097422
 10
202.0776023168
 20
123.3871796239
 10
202.5912480938
 20
123.2086409479
 10
203.087163634
 20
123.1167485605
 10
203.556863685
 20
123.1130747659
 10
203.9923115486
 20
123.1976824237
 10
204.3860565913
 20
123.3691238735
 10
204.7313617262
 20
123.6244657046
 10
205.0223186866
 20
123.9593389473
 10
205.2539491183
 20
124.3680138278
 10
205.4222897605
 20
124.8434978054
 10
205.524460258
 20
125.3776552174
 10
205.5587124453
 20
125.9613464826
 10
205.524460258
 20
126.5845844814
 10
205.4222897605
 20
127.236705439
 10
205.2539491183
 20
127.9065513849
 10
205.0223186866
 20
128.5826610693
 10
204.7313617262
 20
129.2534660681
 10
204.3860565913
 20
129.9074887216
 10
203.9923115486
 20
130.5335385211
 10
203.556863685
 20
131.1209035809
 10
203.087163634
 20
131.6595339219
 10
202.5912480938
 20
132.1402134296
 10
202.0776023168
 20
132.5547175445
 10
201.5550149247
 20
132.8959539861
 10
201.0324275325
 20
133.1580841044
 10
200.5187817555
 20
133.3366227804
 10
200.0228662153
 20
133.4285151678
 10
199.5531661643
 20
133.4321889624
 10
199.1177183007
 20
133.3475813046
 10
198.723973258
 20
133.1761398548
 10
198.3786681231
 20
132.9207980237
 10
198.0877111627
 20
132.585924781
 10
197.856080731
 20
132.1772499006
 10
197.6877400888
 20
131.701765923
 10
197.5855695913
 20
131.1676085109
 10
197.551317404
 20
130.5839172457
  0
LWPOLYLINE
  5
288
330
1F
100
AcDbEntity
  8
0
  6
Continuous
 62
     7
370
    30
100
AcDbPolyline
 90
       42
 70
   128
 43
0.0
 10
198.6087366697
 20
129.9734820971
 10
198.6432658023
 20
129.4341973096
 10
198.7460438664
 20
128.8676864124
 10
198.9146618313
 20
128.2872279411
 10
199.1451674349
 20
127.70642735
 10
199.4321578212
 20
127.1388981129
 10
199.7689061787
 20
126.597942634
 10
200.1475194114
 20
126.0962404512
 10
200.559123146
 20
125.6455510386
 10
200.9940697398
 20
125.2564381738
 10
201.4421644133
 20
124.9380223328
 10
201.8929042071
 20
124.6977669129
 10
202.3357241625
 20
124.5413032976
 10
202.7602449551
 20
124.4722988613
 10
203.1565161773
 20
124.4923710096
 10
203.5152495675
 20
124.6010492683
 10
203.8280367191
 20
124.7957863112
 10
204.0875461663
 20
125.072017667
 10
204.2876952277
 20
125.4232687069
 10
204.423792579
 20
125.8413064042
 10
204.4926482134
 20
126.3163323095
 10
204.4926482134
 20
126.8372122184
 10
204.423792579
 20
127.3917371471
 10
204.2876952277
 20
127.9669095014
 10
204.0875461663
 20
128.5492477287
 10
203.8280367191
 20
129.1251023147
 10
203.5152495675
 20
129.6809757157
 10
203.1565161773
 20
130.2038387306
 10
202.7602449551
 20
130.6814358934
 10
202.3357241625
 20
131.1025727313
 10
201.8929042071
 20
131.4573781538
 10
201.4421644133
 20
131.7375358225
 10
200.9940697398
 20
131.9364790792
 10
200.559123146
 20
132.0495448625
 10
200.1475194114
 20
132.0740830063
 10
199.7689061787
 20
132.0095183573
 10
199.4321578212
 20
131.8573642561
 10
199.1451674349
 20
131.6211870659
 10
198.9146618313
 20
131.3065225799
 10
198.7460438664
 20
130.9207462669
 10
198.6432658023
 20
130.4729003968
 10
198.6087366697
 20
129.9734820971
  0
LWPOLYLINE
  5
289
330
1F
100
AcDbEntity
  8
0
  6
Continuous
 62
     7
370
    30
100
AcDbPolyline
 90
       17
 70
   128
 43
0.0
 10
197.8427043234
 20
130.4157031577
 10
197.8651315312
 20
130.272557606
 10
197.9289988156
 20
130.1253107639
 10
198.0245829614
 20
129.9963796284
 10
198.1373321489
 20
129.9053927961
 10
198.2500813364
 20
129.8662021874
 10
198.3456654822
 20
129.8847742172
 10
198.4095327666
 20
129.9582814624
 10
198.4319599744
 20
130.0755331111
 10
198.4095327666
 20
130.2186786628
 10
198.3456654822
 20
130.3659255049
 10
198.2500813364
 20
130.4948566404
 10
198.1373321489
 20
130.5858434727
 10
198.0245829614
 20
130.6250340814
 10
197.9289988156
 20
130.6064620516
 10
197.8651315312
 20
130.5329548064
 10
197.8427043234
 20
130.4157031577
  0
LWPOLYLINE
  5
28A
330
1F
100
AcDbEntity
  8
0
  6
Continuous
 62
     7
370
    30
100
AcDbPolyline
 90
       17
 70
   128
 43
0.0
 10
205.2673255259
 20
126.1295605706
 10
205.2448983181
 20
126.2727061223
 10
205.1810310337
 20
126.4199529644
 10
205.0854468879
 20
126.5488840999
 10
204.9726977004
 20
126.6398709322
 10
204.8599485129
 20
126.6790615409
 10
204.7643643671
 20
126.6604895111
 10
204.7004970827
 20
126.586982266
 10
204.6780698749
 20
126.4697306172
 10
204.7004970827
 20
126.3265850655
 10
204.7643643671
 20
126.1793382234
 10
204.8599485129
 20
126.0504070879
 10
204.9726977004
 20
125.9594202556
 10
205.0854468879
 20
125.9202296469
 10
205.1810310337
 20
125.9388016767
 10
205.2448983181
 20
126.0123089219
 10
205.2673255259
 20
126.1295605706
  0
LWPOLYLINE
  5
28B
330
1F
100
AcDbEntity
  8
0
  6
Continuous
 62
     7
370
    30
100
AcDbPolyline
 90
       15
 70
   128
 43
0.0
 10
199.7872479717
 20
130.6538221903
 10
199.8217771043
 20
130.1145374027
 10
199.9245551684
 20
129.5480265056
 10
200.0931731333
 20
128.9675680343
 10
200.3236787369
 20
128.3867674432
 10
200.6106691232
 20
127.8192382061
 10
200.9474174807
 20
127.2782827272
 10
201.3260307134
 20
126.7765805444
 10
201.737634448
 20
126.3258911317
 10
202.1725810418
 20
125.936778267
 10
202.6206757153
 20
125.618362426
 10
203.0714155091
 20
125.3781070061
 10
203.5142354645
 20
125.2216433908
 10
203.9387562571
 20
125.1526389545
 10
204.1423854339
 20
125.1515904274
  0
ARC
  5
28C
330
1F
100
AcDbEntity
  8
0
  6
Continuous
 62
     7
370
    30
100
AcDbCircle
 10
202.3167992067
 20
130.7700061103
 30
0.0
 40
2.532218030510536
100
AcDbArc
 50
149.0047887303
 51
182.6297838672
  0
LWPOLYLINE
  5
28D
330
1F
100
AcDbEntity
  8
0
  6
Continuous
 62
     7
370
    30
100
AcDbPolyline
 90
       59
 70
   128
 43
0.0
 10
199.7341148228
 20
122.8523446182
 10
200.3507046756
 20
122.3069881604
 10
200.9814139649
 20
121.8315734206
 10
201.6188482011
 20
121.4316742019
 10
202.2555340504
 20
121.111978957
 10
202.8840069535
 20
120.8762358205
 10
203.4968986402
 20
120.7272086649
 10
204.0870235158
 20
120.6666446975
 10
204.6474629056
 20
120.6952539755
 10
205.1716461704
 20
120.8127010811
 10
205.6534277405
 20
121.0176090545
 10
206.0871591676
 20
121.3075755369
 10
206.4677553472
 20
121.6792009367
 10
206.7907541371
 20
122.1281282856
 10
207.0523686718
 20
122.6490943209
 10
207.2495317602
 20
123.2359911924
 10
207.3799318451
 20
123.8819380706
 10
207.442040105
 20
124.5793618192
 10
207.4351283771
 20
125.3200857822
 10
207.3592776953
 20
126.0954256485
 10
207.2153773394
 20
126.8962912671
 10
207.0051144095
 20
127.7132932207
 10
206.7309540462
 20
128.5368529085
 10
206.3961105291
 20
129.3573148462
 10
206.0045095923
 20
130.1650598676
 10
205.5607423987
 20
130.950617901
 10
205.070011713
 20
131.7047789966
 10
204.5380709037
 20
132.4187013051
 10
203.9711564905
 20
133.0840147402
 10
203.3759150265
 20
133.6929191101
 10
202.7593251737
 20
134.2382755679
 10
202.1286158844
 20
134.7136903078
 10
201.4911816482
 20
135.1135895265
 10
200.8544957989
 20
135.4332847713
 10
200.2260228958
 20
135.6690279079
 10
199.6131312091
 20
135.8180550634
 10
199.0230063335
 20
135.8786190308
 10
198.4625669437
 20
135.8500097528
 10
197.9383836789
 20
135.7325626472
 10
197.4566021088
 20
135.5276546739
 10
197.0228706817
 20
135.2376881914
 10
196.6422745021
 20
134.8660627917
 10
196.3192757122
 20
134.4171354428
 10
196.0576611775
 20
133.8961694074
 10
195.8604980891
 20
133.3092725359
 10
195.7300980042
 20
132.6633256577
 10
195.6679897443
 20
131.9659019091
 10
195.6749014722
 20
131.2251779461
 10
195.750752154
 20
130.4498380798
 10
195.8946525099
 20
129.6489724613
 10
196.1049154398
 20
128.8319705076
 10
196.3790758031
 20
128.0084108198
 10
196.7139193202
 20
127.1879488821
 10
197.105520257
 20
126.3802038607
 10
197.5492874506
 20
125.5946458273
 10
198.0400181363
 20
124.8404847317
 10
198.5719589456
 20
124.1265624232
 10
199.1388733588
 20
123.4612489882
 10
199.7341148228
 20
122.8523446182
  0
LWPOLYLINE
  5
28E
330
1F
100
AcDbEntity
  8
0
  6
Continuous
 62
     7
370
    30
100
AcDbPolyline
 90
       48
 70
   128
 43
0.0
 10
200.3756179287
 20
124.7619118149
 10
200.8699475316
 20
124.3324140359
 10
201.3765021783
 20
123.9732295374
 10
201.8862423893
 20
123.6907679753
 10
202.3900718383
 20
123.4900698828
 10
202.8789996768
 20
123.3747167221
 10
203.3443009761
 20
123.3467669732
 10
203.7776724235
 20
123.4067194
 10
204.1713804951
 20
123.55350415
 10
204.5183994611
 20
123.7845018458
 10
204.8125367599
 20
124.0955903281
 10
205.0485435043
 20
124.4812182156
 10
205.2222081485
 20
124.9345039695
 10
205.3304316427
 20
125.4473586947
 10
205.3712827362
 20
126.0106304866
 10
205.3440324401
 20
126.6142677467
 10
205.2491670367
 20
127.2474985537
 10
205.0883794014
 20
127.8990228889
 10
204.8645387933
 20
128.5572142851
 10
204.5816396533
 20
129.2103273013
 10
204.2447303233
 20
129.8467071202
 10
203.8598229584
 20
130.4549975289
 10
203.4337862394
 20
131.0243435706
 10
202.9742228019
 20
131.5445852517
 10
202.4893335661
 20
132.0064388471
 10
201.9877713921
 20
132.4016625684
 10
201.4784866686
 20
132.723203639
 10
200.9705675937
 20
132.9653241508
 10
200.4730779953
 20
133.1237034576
 10
199.994895587
 20
133.1955152768
 10
199.5445535452
 20
133.179478125
 10
199.1300882344
 20
133.0758781854
 10
198.7588957978
 20
132.8865642014
 10
198.4376001733
 20
132.6149144855
 10
198.1719348888
 20
132.2657766334
 10
197.9666407478
 20
131.8453810183
 10
197.8253812289
 20
131.3612296099
 10
197.7506771117
 20
130.8219621015
 10
197.7438614929
 20
130.2372017346
 10
197.8050559974
 20
129.6173835719
 10
197.9331686078
 20
128.9735682831
 10
198.1259131515
 20
128.3172447673
 10
198.3798500976
 20
127.6601251332
 10
198.6904479352
 20
127.0139356962
 10
199.0521640386
 20
126.3902077221
 10
199.4585435754
 20
125.8000716515
 10
199.9023346931
 20
125.2540584764
 10
200.3756179287
 20
124.7619118149
  0
ARC
  5
28F
330
1F
100
AcDbEntity
  8
0
  6
Continuous
 62
     7
370
    30
100
AcDbCircle
 10
210.3977562805
 20
130.6576066513
 30
0.0
 40
3.842012018930116
100
AcDbArc
 50
2.6054784857
 51
57.39452166
  0
ARC
  5
290
330
1F
100
AcDbEntity
  8
0
  6
Continuous
 62
     7
370
    30
100
AcDbCircle
 10
213.9411687084
 20
131.4008884007
 30
0.0
 40
0.6404257949627925
100
AcDbArc
 50
242.6096722366
 51
297.3903277634
  0
ARC
  5
291
330
1F
100
AcDbEntity
  8
0
  6
Continuous
 62
     7
370
    30
100
AcDbCircle
 10
210.4481740051
 20
130.6867153397
 30
0.0
 40
3.201676682442155
100
AcDbArc
 50
2.6054784857
 51
57.39452166
  0
ARC
  5
292
330
1F
100
AcDbEntity
  8
0
  6
Continuous
 62
     7
370
    30
100
AcDbCircle
 10
212.813075131
 20
133.3547019014
 30
0.0
 40
0.6403353364883964
100
AcDbArc
 50
122.60547834
 51
177.3945215143
  0
ARC
  5
293
330
1F
100
AcDbEntity
  8
0
  6
Continuous
 62
     7
370
    30
100
AcDbCircle
 10
218.3527075689
 20
135.2499022803
 30
0.0
 40
3.842012018930278
100
AcDbArc
 50
2.6054784857
 51
57.39452166
  0
LINE
  5
294
330
1F
100
AcDbEntity
  8
0
  6
Continuous
 62
     7
370
    30
100
AcDbLine
 10
222.1907478223
 20
135.4245544109
 30
0.0
 11
214.2357965339
 21
130.8322587819
 31
0.0
  0
LINE
  5
295
330
1F
100
AcDbEntity
  8
0
  6
Continuous
 62
     7
370
    30
100
AcDbLine
 10
212.468029581
 20
133.8941209514
 30
0.0
 11
220.4229808693
 21
138.4864165804
 31
0.0
  0
LWPOLYLINE
  5
296
330
1F
100
AcDbEntity
  8
0
  6
Continuous
 62
     7
370
    30
100
AcDbPolyline
 90
       60
 70
   128
 43
0.0
 10
195.4680040499
 20
131.8001952473
 10
195.5025549477
 20
132.5288387968
 10
195.6058161655
 20
133.2093349063
 10
195.7766177124
 20
133.833973283
 10
196.0130243387
 20
134.3956765245
 10
196.3123574629
 20
134.8880803086
 10
196.6712255209
 20
135.3056055036
 10
197.0855623945
 20
135.6435213824
 10
197.5506734812
 20
135.8979992228
 10
198.0612888865
 20
136.0661556895
 10
198.6116231338
 20
136.1460855023
 10
199.1954407164
 20
136.1368830245
 10
199.8061267475
 20
136.038652524
 10
200.4367619106
 20
135.8525069915
 10
201.0802008572
 20
135.5805555303
 10
201.729153167
 20
135.2258794591
 10
202.3762659509
 20
134.7924973995
 10
203.0142071626
 20
134.2853197434
 10
203.6357486732
 20
133.7100930164
 10
204.2338481691
 20
133.0733347671
 10
204.8017289439
 20
132.3822597209
 10
205.3329566816
 20
131.6446980342
 10
205.8215123597
 20
130.8690065756
 10
206.261860447
 20
130.0639742394
 10
206.6490116239
 20
129.2387223635
 10
206.9785793127
 20
128.4026013814
 10
207.2468293799
 20
127.5650848781
 10
207.4507224451
 20
126.73566225
 10
207.5879483183
 20
125.9237311871
 10
207.6569521755
 20
125.1384911927
 10
207.6569521755
 20
124.3888393497
 10
207.5879483183
 20
123.683269513
 10
207.4507224451
 20
123.0297760708
 10
207.2468293799
 20
122.435763365
 10
206.9785793127
 20
121.9079617967
 10
206.6490116239
 20
121.4523515688
 10
206.261860447
 20
121.0740949272
 10
205.8215123597
 20
120.7774776706
 10
205.3329566816
 20
120.5658605913
 10
204.8017289439
 20
120.4416413952
 10
204.2338481691
 20
120.4062275354
 10
203.6357486732
 20
120.4600202653
 10
203.0142071626
 20
120.6024100915
 10
202.3762659509
 20
120.8317836805
 10
201.729153167
 20
121.145542138
 10
201.0802008572
 20
121.5401304551
 10
200.4367619106
 20
122.0110777886
 10
199.8061267475
 20
122.553048117
 10
199.1954407164
 20
123.1599006999
 10
198.6116231338
 20
123.8247596552
 10
198.0612888865
 20
124.5400918651
 10
197.5506734812
 20
125.2977923299
 10
197.0855623945
 20
126.0892760005
 10
196.6712255209
 20
126.9055750508
 10
196.3123574629
 20
127.7374404862
 10
196.0130243387
 20
128.5754469391
 10
195.7766177124
 20
129.4100994614
 10
195.6058161655
 20
130.2319411066
 10
195.5025549477
 20
131.0316600804
 10
195.4680040499
 20
131.8001952473
  0
LWPOLYLINE
  5
297
330
1F
100
AcDbEntity
  8
0
  6
Continuous
 62
     7
370
    30
100
AcDbPolyline
 90
       24
 70
   128
 43
0.0
 10
189.9879264957
 20
144.4900861526
 10
190.0239809724
 20
144.1663597438
 10
190.1294704068
 20
143.825015029
 10
190.2965711302
 20
143.4913679842
 10
190.5128900464
 20
143.1901636845
 10
190.7623837709
 20
142.9437410748
 10
191.0265484956
 20
142.7703761928
 10
191.2857923313
 20
142.6829267186
 10
191.5208883486
 20
142.6878783798
 10
191.7144005515
 20
142.7848639342
 10
191.8519770251
 20
142.966690407
 10
191.9234143518
 20
143.2198725604
 10
191.9234143518
 20
143.5256330325
 10
191.8519770251
 20
143.8612949677
 10
191.7144005515
 20
144.2019638559
 10
191.5208883486
 20
144.522373844
 10
191.2857923313
 20
144.7987615891
 10
191.0265484956
 20
145.0106286765
 10
190.7623837709
 20
145.1422618934
 10
190.5128900464
 20
145.1838986065
 10
190.2965711302
 20
145.1324508112
 10
190.1294704068
 20
144.9917341551
 10
190.0239809724
 20
144.7721849488
 10
189.9879264957
 20
144.4900861526
  0
LWPOLYLINE
  5
298
330
1F
100
AcDbEntity
  8
0
  6
Continuous
 62
     7
370
    30
100
AcDbPolyline
 90
       24
 70
   128
 43
0.0
 10
211.2011299313
 20
132.2439644753
 10
211.237184408
 20
131.9202380664
 10
211.3426738424
 20
131.5788933516
 10
211.5097745658
 20
131.2452463069
 10
211.726093482
 20
130.9440420072
 10
211.9755872065
 20
130.6976193975
 10
212.2397519312
 20
130.5242545154
 10
212.4989957669
 20
130.4368050413
 10
212.7340917842
 20
130.4417567024
 10
212.9276039871
 20
130.5387422568
 10
213.0651804607
 20
130.7205687296
 10
213.1366177874
 20
130.9737508831
 10
213.1366177874
 20
131.2795113552
 10
213.0651804607
 20
131.6151732904
 10
212.9276039871
 20
131.9558421785
 10
212.7340917842
 20
132.2762521667
 10
212.4989957669
 20
132.5526399118
 10
212.2397519312
 20
132.7645069991
 10
211.9755872065
 20
132.8961402161
 10
211.726093482
 20
132.9377769292
 10
211.5097745658
 20
132.8863291339
 10
211.3426738424
 20
132.7456124778
 10
211.237184408
 20
132.5260632715
 10
211.2011299313
 20
132.2439644753
  0
LWPOLYLINE
  5
299
330
1F
100
AcDbEntity
  8
0
  6
Continuous
 62
     7
370
    30
100
AcDbPolyline
 90
       24
 70
   128
 43
0.0
 10
211.2011299313
 20
107.7477401187
 10
211.237184408
 20
107.4240137098
 10
211.3426738424
 20
107.0826689951
 10
211.5097745658
 20
106.7490219503
 10
211.726093482
 20
106.4478176506
 10
211.9755872065
 20
106.2013950409
 10
212.2397519312
 20
106.0280301589
 10
212.4989957669
 20
105.9405806847
 10
212.7340917842
 20
105.9455323459
 10
212.9276039871
 20
106.0425179003
 10
213.0651804607
 20
106.2243443731
 10
213.1366177874
 20
106.4775265265
 10
213.1366177874
 20
106.7832869986
 10
213.0651804607
 20
107.1189489338
 10
212.9276039871
 20
107.459617822
 10
212.7340917842
 20
107.7800278101
 10
212.4989957669
 20
108.0564155552
 10
212.2397519312
 20
108.2682826425
 10
211.9755872065
 20
108.3999158595
 10
211.726093482
 20
108.4415525726
 10
211.5097745658
 20
108.3901047773
 10
211.3426738424
 20
108.2493881212
 10
211.237184408
 20
108.0298389149
 10
211.2011299313
 20
107.7477401187
  0
LWPOLYLINE
  5
29A
330
1F
100
AcDbEntity
  8
0
  6
Continuous
 62
     7
370
    30
100
AcDbPolyline
 90
       24
 70
   128
 43
0.0
 10
189.9879264957
 20
119.9938617961
 10
190.0239809724
 20
119.6701353872
 10
190.1294704068
 20
119.3287906724
 10
190.2965711302
 20
118.9951436277
 10
190.5128900464
 20
118.693939328
 10
190.7623837709
 20
118.4475167183
 10
191.0265484956
 20
118.2741518362
 10
191.2857923313
 20
118.186702362
 10
191.5208883486
 20
118.1916540232
 10
191.7144005515
 20
118.2886395776
 10
191.8519770251
 20
118.4704660504
 10
191.9234143518
 20
118.7236482039
 10
191.9234143518
 20
119.0294086759
 10
191.8519770251
 20
119.3650706111
 10
191.7144005515
 20
119.7057394993
 10
191.5208883486
 20
120.0261494874
 10
191.2857923313
 20
120.3025372325
 10
191.0265484956
 20
120.5144043199
 10
190.7623837709
 20
120.6460375369
 10
190.5128900464
 20
120.68767425
 10
190.2965711302
 20
120.6362264547
 10
190.1294704068
 20
120.4955097985
 10
190.0239809724
 20
120.2759605922
 10
189.9879264957
 20
119.9938617961
  0
ARC
  5
29B
330
1F
100
AcDbEntity
  8
0
  6
Continuous
 62
     7
370
    30
100
AcDbCircle
 10
192.6854260702
 20
120.4285497779
 30
0.0
 40
3.201676682441948
100
AcDbArc
 50
182.6054784857
 51
237.39452166
  0
LINE
  5
29C
330
1F
100
AcDbEntity
  8
0
  6
Continuous
 62
     7
370
    30
100
AcDbLine
 10
189.4870591924
 20
144.7792306922
 30
0.0
 11
189.4870591924
 21
120.2830063357
 31
0.0
  0
ARC
  5
29D
330
1F
100
AcDbEntity
  8
0
  6
Continuous
 62
     7
370
    30
100
AcDbCircle
 10
190.3851307912
 20
144.9249123525
 30
0.0
 40
0.9098108279760306
100
AcDbArc
 50
50.7967147643
 51
189.2140369905
  0
LINE
  5
29E
330
1F
100
AcDbEntity
  8
0
  6
Continuous
 62
     7
370
    30
100
AcDbLine
 10
212.1734017555
 20
133.3838105898
 30
0.0
 11
190.9601983199
 21
145.6299322672
 31
0.0
  0
LINE
  5
29F
330
1F
100
AcDbEntity
  8
0
  6
Continuous
 62
     7
370
    30
100
AcDbLine
 10
213.6465408829
 20
106.3360344254
 30
0.0
 11
213.6465408829
 21
130.8322587819
 31
0.0
  0
ARC
  5
2A0
330
1F
100
AcDbEntity
  8
0
  6
Continuous
 62
     7
370
    30
100
AcDbCircle
 10
212.7484692841
 20
106.1903527652
 30
0.0
 40
0.9098108279759878
100
AcDbArc
 50
230.7967147643
 51
9.2140369905
  0
LINE
  5
2A1
330
1F
100
AcDbEntity
  8
0
  6
Continuous
 62
     7
370
    30
100
AcDbLine
 10
190.9601983199
 20
117.7314545278
 30
0.0
 11
212.1734017555
 21
105.4853328504
 31
0.0
  0
LINE
  5
2A2
330
1F
100
AcDbEntity
  8
0
  6
Continuous
 62
     7
370
    30
100
AcDbLine
 10
214.2357965339
 20
130.8322587819
 30
0.0
 11
214.2357965339
 21
106.3360344254
 31
0.0
  0
ARC
  5
2A3
330
1F
100
AcDbEntity
  8
0
  6
Continuous
 62
     7
370
    30
100
AcDbCircle
 10
213.9411687084
 20
106.9046640441
 30
0.0
 40
0.6404257949631459
100
AcDbArc
 50
242.6096722366
 51
297.3903277634
  0
LINE
  5
2A4
330
1F
100
AcDbEntity
  8
0
  6
Continuous
 62
     7
370
    30
100
AcDbLine
 10
191.2548261454
 20
146.1402426288
 30
0.0
 11
212.468029581
 21
133.8941209514
 31
0.0
  0
ARC
  5
2A5
330
1F
100
AcDbEntity
  8
0
  6
Continuous
 62
     7
370
    30
100
AcDbCircle
 10
191.5998716954
 20
145.6008235787
 30
0.0
 40
0.6403353364883492
100
AcDbArc
 50
122.60547834
 51
177.3945215143
  0
LINE
  5
2A6
330
1F
100
AcDbEntity
  8
0
  6
Continuous
 62
     7
370
    30
100
AcDbLine
 10
222.1907478223
 20
110.9283300544
 30
0.0
 11
222.1907478223
 21
135.4245544109
 31
0.0
  0
LINE
  5
2A7
330
1F
100
AcDbEntity
  8
0
  6
Continuous
 62
     7
370
    30
100
AcDbLine
 10
214.2357965339
 20
106.3360344254
 30
0.0
 11
222.1907478223
 21
110.9283300544
 31
0.0
  0
LWPOLYLINE
  5
2A8
330
1F
100
AcDbEntity
  8
0
  6
Continuous
 62
     7
370
    30
100
AcDbPolyline
 90
       25
 70
   128
 43
0.0
 10
215.869684603
 20
122.2491728151
 10
215.9043640145
 20
121.9650094131
 10
216.0060389043
 20
121.7402512735
 10
216.1677802967
 20
121.5902152921
 10
216.3785657832
 20
121.5251261731
 10
216.6240306811
 20
121.5494196325
 10
216.8874469634
 20
121.661440111
 10
217.1508632456
 20
121.8535535983
 10
217.3963281436
 20
122.1126678776
 10
217.60711363
 20
122.421124739
 10
217.7688550225
 20
122.7579033572
 10
217.8705299123
 20
123.1000528258
 10
217.9052093238
 20
123.4242562241
 10
217.8705299123
 20
123.7084196261
 10
217.7688550225
 20
123.9331777658
 10
217.60711363
 20
124.0832137471
 10
217.3963281436
 20
124.1483028661
 10
217.1508632456
 20
124.1240094067
 10
216.8874469634
 20
124.0119889282
 10
216.6240306811
 20
123.8198754409
 10
216.3785657832
 20
123.5607611616
 10
216.1677802967
 20
123.2523043002
 10
216.0060389043
 20
122.915525682
 10
215.9043640145
 20
122.5733762134
 10
215.869684603
 20
122.2491728151
  0
LINE
  5
2A9
330
1F
100
AcDbEntity
  8
0
  6
Continuous
 62
     7
370
    30
100
AcDbLine
 10
220.4229808693
 20
138.4864165804
 30
0.0
 11
199.2097774337
 21
150.7325382578
 31
0.0
  0
LINE
  5
2AA
330
1F
100
AcDbEntity
  8
0
  6
Continuous
 62
     7
370
    30
100
AcDbLine
 10
199.2097774337
 20
150.7325382578
 30
0.0
 11
191.2548261454
 21
146.1402426288
 31
0.0
  0
LWPOLYLINE
  5
2AB
330
1F
100
AcDbEntity
  8
0
  6
Continuous
 62
     7
370
    30
100
AcDbPolyline
 90
       31
 70
   128
 43
0.0
 10
195.5858551801
 20
131.8001952473
 10
195.6200722528
 20
131.0390855409
 10
195.7223357776
 20
130.2470933205
 10
195.8914870681
 20
129.4331921743
 10
196.1256095724
 20
128.6066039276
 10
196.4220505891
 20
127.7766941554
 10
196.7774513229
 20
126.9528660671
 10
197.1877849417
 20
126.1444539642
 10
197.6484022014
 20
125.3606174788
 10
198.1540841245
 20
124.6102377915
 10
198.6991011328
 20
123.9018170039
 10
199.2772779657
 20
123.2433818067
 10
199.8820636488
 20
122.6423925337
 10
200.5066057185
 20
122.1056586336
 10
201.1438278637
 20
121.6392615159
 10
201.7865101028
 20
121.2484856463
 10
202.4273705893
 20
120.9377586715
 10
203.0591481178
 20
120.7106012524
 10
203.6746843964
 20
120.5695871733
 10
204.2670051532
 20
120.51631418
 10
204.8293991573
 20
120.5513858768
 10
205.3554942598
 20
120.6744048875
 10
205.8393295932
 20
120.8839773574
 10
206.2754231096
 20
121.1777287467
 10
206.6588336954
 20
121.5523307348
 10
206.9852171554
 20
122.0035389315
 10
207.2508754345
 20
122.5262409677
 10
207.4527985183
 20
123.1145144203
 10
207.5886985377
 20
123.7616939162
 10
207.6570356909
 20
124.460446653
 10
207.6655960254
 20
124.8267092922
  0
LWPOLYLINE
  5
2AC
330
1F
100
AcDbEntity
  8
0
  6
Continuous
 62
     7
370
    30
100
AcDbPolyline
 90
       16
 70
   128
 43
0.0
 10
201.6267072516
 20
135.2875049187
 10
201.1438278637
 20
135.5440303101
 10
200.5066057185
 20
135.813354221
 10
199.8820636488
 20
135.9977012459
 10
199.2772779657
 20
136.0949826595
 10
198.6991011328
 20
136.1040962244
 10
198.1540841245
 20
136.0249386804
 10
197.6484022014
 20
135.8584069139
 10
197.1877849417
 20
135.6063877965
 10
196.7774513229
 20
135.2717368055
 10
196.4220505891
 20
134.8582456703
 10
196.1256095724
 20
134.3705994107
 10
195.8914870681
 20
133.8143232537
 10
195.7223357776
 20
133.1957200304
 10
195.6200722528
 20
132.5217987625
 10
195.5858551801
 20
131.8001952473
  0
LWPOLYLINE
  5
2AD
330
1F
100
AcDbEntity
  8
0
  6
Continuous
 62
     7
370
    30
100
AcDbPolyline
 90
        3
 70
   128
 43
0.0
 10
197.8855710572
 20
135.949058132
 10
197.5943521168
 20
135.6528628839
 10
197.5235559748
 20
135.5675639931
  0
LWPOLYLINE
  5
2AE
330
1F
100
AcDbEntity
  8
0
  6
Continuous
 62
     7
370
    30
100
AcDbPolyline
 90
        3
 70
   128
 43
0.0
 10
205.8562120801
 20
121.1334162868
 10
206.0991016877
 20
121.1802549383
 10
206.367614755
 20
121.2561354867
  0
ARC
  5
2AF
330
1F
100
AcDbEntity
  8
0
  6
Continuous
 62
     7
370
    30
100
AcDbCircle
 10
221.0015339324
 20
110.7769199829
 30
0.0
 40
1.198813866157988
100
AcDbArc
 50
304.0563508351
 51
7.2558295583
  0
ARC
  5
2B0
330
1F
100
AcDbEntity
  8
0
  6
Continuous
 62
     7
370
    30
100
AcDbCircle
 10
198.4774772966
 20
149.710334935
 30
0.0
 40
1.257443089754505
100
AcDbArc
 50
54.3824225248
 51
114.3071190461
  0
LINE
  5
2B1
330
1F
100
AcDbEntity
  8
0
  6
Continuous
 62
     7
370
    30
100
AcDbLine
 10
220.4229808693
 20
138.4864165804
 30
0.0
 11
221.3068643458
 21
138.9966716503
 31
0.0
  0
ARC
  5
2B2
330
1F
100
AcDbEntity
  8
0
  6
Continuous
 62
     7
370
    30
100
AcDbCircle
 10
219.2365910453
 20
135.7601573502
 30
0.0
 40
3.842012018930081
100
AcDbArc
 50
2.6054784857
 51
57.39452166
  0
LINE
  5
2B3
330
1F
100
AcDbEntity
  8
0
  6
Continuous
 62
     7
370
    30
100
AcDbLine
 10
223.0746312988
 20
135.9348094808
 30
0.0
 11
222.1907478223
 21
135.4245544109
 31
0.0
  0
ARC
  5
2B4
330
1F
100
AcDbEntity
  8
0
  6
Continuous
 62
     7
370
    30
100
AcDbCircle
 10
220.9657430664
 20
110.793113211
 30
0.0
 40
1.232444825002974
100
AcDbArc
 50
305.0133328749
 51
6.2988475185
  0
LINE
  5
2B5
330
1F
100
AcDbEntity
  8
0
  6
Continuous
 62
     7
370
    30
100
AcDbLine
 10
223.0746312988
 20
111.4385851243
 30
0.0
 11
223.0746312988
 21
135.9348094808
 31
0.0
  0
LINE
  5
2B6
330
1F
100
AcDbEntity
  8
0
  6
Continuous
 62
     7
370
    30
100
AcDbLine
 10
222.1907478223
 20
110.9283300544
 30
0.0
 11
223.0746312988
 21
111.4385851243
 31
0.0
  0
LINE
  5
2B7
330
1F
100
AcDbEntity
  8
0
  6
Continuous
 62
     7
370
    30
100
AcDbLine
 10
200.0936609102
 20
151.2427933277
 30
0.0
 11
199.2097774337
 21
150.7325382578
 31
0.0
  0
LINE
  5
2B8
330
1F
100
AcDbEntity
  8
0
  6
Continuous
 62
     7
370
    30
100
AcDbLine
 10
221.3068643458
 20
138.9966716503
 30
0.0
 11
200.0936609102
 21
151.2427933277
 31
0.0
  0
LWPOLYLINE
  5
2B9
330
1F
100
AcDbEntity
  8
0
  6
Continuous
 62
     8
370
    30
100
AcDbPolyline
 90
        3
 70
   128
 43
0.0
 10
197.7414255969
 20
135.6933374488
 10
197.8197973105
 20
135.7807505068
 10
198.0423981811
 20
135.9966109997
  0
LWPOLYLINE
  5
2BA
330
1F
100
AcDbEntity
  8
0
  6
Continuous
 62
     8
370
    30
100
AcDbPolyline
 90
        3
 70
   128
 43
0.0
 10
206.4872208214
 20
121.3681641031
 10
206.07828385
 20
121.2599945385
 10
206.0740817022
 20
121.2591897424
  0
ARC
  5
2BB
330
1F
100
AcDbEntity
  8
0
  6
Continuous
 62
     8
370
    30
100
AcDbCircle
 10
212.9818347238
 20
106.2132776148
 30
0.0
 40
1.2599561324967
100
AcDbArc
 50
306.0325956271
 51
5.5911648547
  0
ARC
  5
2BC
330
1F
100
AcDbEntity
  8
0
  6
Continuous
 62
     8
370
    30
100
AcDbCircle
 10
212.3715878563
 20
105.4600939988
 30
0.0
 40
0.1997867117812965
100
AcDbArc
 50
172.7424907843
 51
235.9603769986
  0
ARC
  5
2BD
330
1F
100
AcDbEntity
  8
0
  6
Continuous
 62
     8
370
    30
100
AcDbCircle
 10
189.564259794
 20
144.9634444385
 30
0.0
 40
0.199736419310193
100
AcDbArc
 50
184.0426911699
 51
247.2623363287
  0
ARC
  5
2BE
330
1F
100
AcDbEntity
  8
0
  6
Continuous
 62
     8
370
    30
100
AcDbCircle
 10
190.52611397
 20
145.1491831554
 30
0.0
 40
1.23013020214987
100
AcDbArc
 50
53.673475207
 51
115.3283674379
  0
ARC
  5
2BF
330
1F
100
AcDbEntity
  8
0
  6
Continuous
 62
     8
370
    30
100
AcDbCircle
 10
191.1584006348
 20
117.7062195158
 30
0.0
 40
0.1998023110016177
100
AcDbArc
 50
172.7441704374
 51
235.9436491693
  0
ARC
  5
2C0
330
1F
100
AcDbEntity
  8
0
  6
Continuous
 62
     8
370
    30
100
AcDbCircle
 10
189.5735441273
 20
120.4738856827
 30
0.0
 40
0.2095580327057893
100
AcDbArc
 50
185.6947992512
 51
245.6253417064
  0
ARC
  5
2C1
330
1F
100
AcDbEntity
  8
0
  6
Continuous
 62
     8
370
    30
100
AcDbCircle
 10
222.988134802
 20
136.1257024913
 30
0.0
 40
0.2095752499586001
100
AcDbArc
 50
294.3759958227
 51
354.2898550441
  0
ARC
  5
2C2
330
1F
100
AcDbEntity
  8
0
  6
Continuous
 62
     8
370
    30
100
AcDbCircle
 10
221.4289205481
 20
138.8262872241
 30
0.0
 40
0.2095914339907241
100
AcDbArc
 50
65.708560683
 51
125.6162115221
  0
ARC
  5
2C3
330
1F
100
AcDbEntity
  8
0
  6
Continuous
 62
     8
370
    30
100
AcDbCircle
 10
222.9881463639
 20
111.6294644713
 30
0.0
 40
0.2095580327058501
100
AcDbArc
 50
294.3746582936
 51
354.3052007488
  0
ARC
  5
2C4
330
1F
100
AcDbEntity
  8
0
  6
Continuous
 62
     8
370
    30
100
AcDbCircle
 10
200.2157109331
 20
151.0724261072
 30
0.0
 40
0.2095738482924648
100
AcDbArc
 50
65.6928809539
 51
125.6175774752
  0
ARC
  5
2C5
330
1F
100
AcDbEntity
  8
0
  6
Continuous
 62
     8
370
    30
100
AcDbCircle
 10
221.8496265428
 20
111.3033682809
 30
0.0
 40
1.232444825050261
100
AcDbArc
 50
305.0133328762
 51
6.2988475172
  0
ARC
  5
2C6
330
1F
100
AcDbEntity
  8
0
  6
Continuous
 62
     8
370
    30
100
AcDbCircle
 10
199.3613607731
 20
150.2205900049
 30
0.0
 40
1.257443089754458
100
AcDbArc
 50
54.3824225248
 51
114.3071190461
  0
LINE
  5
2C7
330
1F
100
AcDbEntity
  8
0
  6
Continuous
 62
     7
370
    30
100
AcDbLine
 10
60.4084663335
 20
18.60874672
 30
0.0
 11
60.4084663335
 21
33.60874672
 31
0.0
  0
LINE
  5
2C8
330
1F
100
AcDbEntity
  8
0
  6
Continuous
 62
     7
370
    30
100
AcDbLine
 10
45.4084663335
 20
33.60874672
 30
0.0
 11
45.4084663335
 21
18.60874672
 31
0.0
  0
LINE
  5
2C9
330
1F
100
AcDbEntity
  8
0
  6
Continuous
 62
     7
370
    30
100
AcDbLine
 10
45.5084663335
 20
18.60874672
 30
0.0
 11
45.5084663335
 21
17.10874672
 31
0.0
  0
LINE
  5
2CA
330
1F
100
AcDbEntity
  8
0
  6
Continuous
 62
     7
370
    30
100
AcDbLine
 10
60.3084663335
 20
17.10874672
 30
0.0
 11
60.3084663335
 21
18.60874672
 31
0.0
  0
LINE
  5
2CB
330
1F
100
AcDbEntity
  8
0
  6
Continuous
 62
     7
370
    30
100
AcDbLine
 10
49.0898600473
 20
17.10874672
 30
0.0
 11
49.0898600473
 21
17.08874672
 31
0.0
  0
LINE
  5
2CC
330
1F
100
AcDbEntity
  8
0
  6
Continuous
 62
     7
370
    30
100
AcDbLine
 10
50.8898600473
 20
17.08874672
 30
0.0
 11
50.8898600473
 21
17.10874672
 31
0.0
  0
LINE
  5
2CD
330
1F
100
AcDbEntity
  8
0
  6
Continuous
 62
     7
370
    30
100
AcDbLine
 10
51.5912717399
 20
17.10874672
 30
0.0
 11
51.5912717399
 21
17.08874672
 31
0.0
  0
LINE
  5
2CE
330
1F
100
AcDbEntity
  8
0
  6
Continuous
 62
     7
370
    30
100
AcDbLine
 10
53.3912717399
 20
17.08874672
 30
0.0
 11
53.3912717399
 21
17.10874672
 31
0.0
  0
LINE
  5
2CF
330
1F
100
AcDbEntity
  8
0
  6
Continuous
 62
     7
370
    30
100
AcDbLine
 10
54.0926834326
 20
17.10874672
 30
0.0
 11
54.0926834326
 21
17.08874672
 31
0.0
  0
LINE
  5
2D0
330
1F
100
AcDbEntity
  8
0
  6
Continuous
 62
     7
370
    30
100
AcDbLine
 10
55.8926834326
 20
17.08874672
 30
0.0
 11
55.8926834326
 21
17.10874672
 31
0.0
  0
LINE
  5
2D1
330
1F
100
AcDbEntity
  8
0
  6
Continuous
 62
     7
370
    30
100
AcDbLine
 10
56.5940951252
 20
17.10874672
 30
0.0
 11
56.5940951252
 21
17.08874672
 31
0.0
  0
LINE
  5
2D2
330
1F
100
AcDbEntity
  8
0
  6
Continuous
 62
     7
370
    30
100
AcDbLine
 10
58.3940951252
 20
17.08874672
 30
0.0
 11
58.3940951252
 21
17.10874672
 31
0.0
  0
LINE
  5
2D3
330
1F
100
AcDbEntity
  8
0
  6
Continuous
 62
     7
370
    30
100
AcDbLine
 10
49.9084663335
 20
17.08874672
 30
0.0
 11
49.9084663335
 21
16.90874672
 31
0.0
  0
LINE
  5
2D4
330
1F
100
AcDbEntity
  8
0
  6
Continuous
 62
     7
370
    30
100
AcDbLine
 10
55.9084663335
 20
16.90874672
 30
0.0
 11
55.9084663335
 21
17.08874672
 31
0.0
  0
LINE
  5
2D5
330
1F
100
AcDbEntity
  8
0
  6
Continuous
 62
     7
370
    30
100
AcDbLine
 10
46.0996198154
 20
17.10874672
 30
0.0
 11
46.0996198154
 21
17.08874672
 31
0.0
  0
LINE
  5
2D6
330
1F
100
AcDbEntity
  8
0
  6
Continuous
 62
     7
370
    30
100
AcDbLine
 10
52.1584663335
 20
16.90874672
 30
0.0
 11
52.1584663335
 21
15.90874672
 31
0.0
  0
LINE
  5
2D7
330
1F
100
AcDbEntity
  8
0
  6
Continuous
 62
     7
370
    30
100
AcDbLine
 10
53.6584663335
 20
15.90874672
 30
0.0
 11
53.6584663335
 21
16.90874672
 31
0.0
  0
LINE
  5
2D8
330
1F
100
AcDbEntity
  8
0
  6
Continuous
 62
     7
370
    30
100
AcDbLine
 10
59.7173128516
 20
17.08874672
 30
0.0
 11
59.7173128516
 21
17.10874672
 31
0.0
  0
LINE
  5
2D9
330
1F
100
AcDbEntity
  8
0
  6
Continuous
 62
     7
370
    30
100
AcDbLine
 10
60.408466333
 20
33.60874672
 30
0.0
 11
60.408466333
 21
51.50874672
 31
0.0
  0
LINE
  5
2DA
330
1F
100
AcDbEntity
  8
0
  6
Continuous
 62
     7
370
    30
100
AcDbLine
 10
45.408466333
 20
51.50874672
 30
0.0
 11
45.408466333
 21
33.60874672
 31
0.0
  0
LINE
  5
2DB
330
1F
100
AcDbEntity
  8
0
  6
Continuous
 62
     7
370
    30
100
AcDbLine
 10
53.4298223495
 20
67.52874672
 30
0.0
 11
53.4298223495
 21
67.50874672
 31
0.0
  0
LINE
  5
2DC
330
1F
100
AcDbEntity
  8
0
  6
Continuous
 62
     7
370
    30
100
AcDbLine
 10
73.4298223495
 20
67.50874672
 30
0.0
 11
73.4298223495
 21
67.52874672
 31
0.0
  0
LINE
  5
2DD
330
1F
100
AcDbEntity
  8
0
  6
Continuous
 62
     7
370
    30
100
AcDbLine
 10
64.3902909851
 20
51.50874672
 30
0.0
 11
62.4693537139
 21
51.50874672
 31
0.0
  0
LINE
  5
2DE
330
1F
100
AcDbEntity
  8
0
  6
Continuous
 62
     7
370
    30
100
AcDbLine
 10
52.9084663335
 20
18.60874672
 30
0.0
 11
60.4084663335
 21
18.60874672
 31
0.0
  0
LINE
  5
2DF
330
1F
100
AcDbEntity
  8
0
  6
Continuous
 62
     7
370
    30
100
AcDbLine
 10
45.4084663335
 20
18.60874672
 30
0.0
 11
52.9084663335
 21
18.60874672
 31
0.0
  0
LINE
  5
2E0
330
1F
100
AcDbEntity
  8
0
  6
Continuous
 62
     7
370
    30
100
AcDbLine
 10
52.9084663335
 20
33.60874672
 30
0.0
 11
60.4084663335
 21
33.60874672
 31
0.0
  0
LINE
  5
2E1
330
1F
100
AcDbEntity
  8
0
  6
Continuous
 62
     7
370
    30
100
AcDbLine
 10
45.4084663335
 20
33.60874672
 30
0.0
 11
52.9084663335
 21
33.60874672
 31
0.0
  0
LINE
  5
2E2
330
1F
100
AcDbEntity
  8
0
  6
Continuous
 62
     7
370
    30
100
AcDbLine
 10
60.3084663335
 20
17.10874672
 30
0.0
 11
45.5084663335
 21
17.10874672
 31
0.0
  0
LINE
  5
2E3
330
1F
100
AcDbEntity
  8
0
  6
Continuous
 62
     7
370
    30
100
AcDbLine
 10
50.8898600473
 20
17.08874672
 30
0.0
 11
49.0898600473
 21
17.08874672
 31
0.0
  0
LINE
  5
2E4
330
1F
100
AcDbEntity
  8
0
  6
Continuous
 62
     7
370
    30
100
AcDbLine
 10
53.3912717399
 20
17.08874672
 30
0.0
 11
51.5912717399
 21
17.08874672
 31
0.0
  0
LINE
  5
2E5
330
1F
100
AcDbEntity
  8
0
  6
Continuous
 62
     7
370
    30
100
AcDbLine
 10
55.8926834326
 20
17.08874672
 30
0.0
 11
54.0926834326
 21
17.08874672
 31
0.0
  0
LINE
  5
2E6
330
1F
100
AcDbEntity
  8
0
  6
Continuous
 62
     7
370
    30
100
AcDbLine
 10
58.3940951252
 20
17.08874672
 30
0.0
 11
56.5940951252
 21
17.08874672
 31
0.0
  0
LINE
  5
2E7
330
1F
100
AcDbEntity
  8
0
  6
Continuous
 62
     7
370
    30
100
AcDbLine
 10
47.2836625525
 20
17.10874672
 30
0.0
 11
47.2836625525
 21
17.08874672
 31
0.0
  0
LINE
  5
2E8
330
1F
100
AcDbEntity
  8
0
  6
Continuous
 62
     7
370
    30
100
AcDbLine
 10
49.0898600473
 20
17.08874672
 30
0.0
 11
47.2836625525
 21
17.08874672
 31
0.0
  0
LINE
  5
2E9
330
1F
100
AcDbEntity
  8
0
  6
Continuous
 62
     7
370
    30
100
AcDbLine
 10
51.5912717399
 20
17.08874672
 30
0.0
 11
50.8898600473
 21
17.08874672
 31
0.0
  0
LINE
  5
2EA
330
1F
100
AcDbEntity
  8
0
  6
Continuous
 62
     7
370
    30
100
AcDbLine
 10
56.5940951252
 20
17.08874672
 30
0.0
 11
55.8926834326
 21
17.08874672
 31
0.0
  0
LINE
  5
2EB
330
1F
100
AcDbEntity
  8
0
  6
Continuous
 62
     7
370
    30
100
AcDbLine
 10
58.8424859355
 20
17.08874672
 30
0.0
 11
58.8424859355
 21
17.10874672
 31
0.0
  0
LINE
  5
2EC
330
1F
100
AcDbEntity
  8
0
  6
Continuous
 62
     7
370
    30
100
AcDbLine
 10
58.8424859355
 20
17.08874672
 30
0.0
 11
58.3940951252
 21
17.08874672
 31
0.0
  0
LINE
  5
2ED
330
1F
100
AcDbEntity
  8
0
  6
Continuous
 62
     7
370
    30
100
AcDbLine
 10
55.9084663335
 20
16.90874672
 30
0.0
 11
49.9084663335
 21
16.90874672
 31
0.0
  0
LINE
  5
2EE
330
1F
100
AcDbEntity
  8
0
  6
Continuous
 62
     7
370
    30
100
AcDbLine
 10
47.2836625525
 20
17.08874672
 30
0.0
 11
46.0996198154
 21
17.08874672
 31
0.0
  0
LINE
  5
2EF
330
1F
100
AcDbEntity
  8
0
  6
Continuous
 62
     7
370
    30
100
AcDbLine
 10
53.6584663335
 20
15.90874672
 30
0.0
 11
52.1584663335
 21
15.90874672
 31
0.0
  0
LINE
  5
2F0
330
1F
100
AcDbEntity
  8
0
  6
Continuous
 62
     7
370
    30
100
AcDbLine
 10
59.7173128516
 20
17.08874672
 30
0.0
 11
58.8424859355
 21
17.08874672
 31
0.0
  0
LINE
  5
2F1
330
1F
100
AcDbEntity
  8
0
  6
Continuous
 62
     7
370
    30
100
AcDbLine
 10
45.408466333
 20
33.60874672
 30
0.0
 11
60.408466333
 21
33.60874672
 31
0.0
  0
LINE
  5
2F2
330
1F
100
AcDbEntity
  8
0
  6
Continuous
 62
     7
370
    30
100
AcDbLine
 10
60.3396524058
 20
67.52874672
 30
0.0
 11
73.4298223495
 21
67.52874672
 31
0.0
  0
LINE
  5
2F3
330
1F
100
AcDbEntity
  8
0
  6
Continuous
 62
     7
370
    30
100
AcDbLine
 10
53.4298223495
 20
67.52874672
 30
0.0
 11
60.3396524058
 21
67.52874672
 31
0.0
  0
LINE
  5
2F4
330
1F
100
AcDbEntity
  8
0
  6
Continuous
 62
     7
370
    30
100
AcDbLine
 10
42.4298223495
 20
53.50874672
 30
0.0
 11
42.4298223495
 21
67.00874672
 31
0.0
  0
LINE
  5
2F5
330
1F
100
AcDbEntity
  8
0
  6
Continuous
 62
     7
370
    30
100
AcDbLine
 10
45.4298223495
 20
67.00874672
 30
0.0
 11
42.4298223495
 21
67.00874672
 31
0.0
  0
LINE
  5
2F6
330
1F
100
AcDbEntity
  8
0
  6
Continuous
 62
     7
370
    30
100
AcDbLine
 10
45.4298223495
 20
67.00874672
 30
0.0
 11
45.4298223495
 21
53.50874672
 31
0.0
  0
LINE
  5
2F7
330
1F
100
AcDbEntity
  8
0
  6
Continuous
 62
     7
370
    30
100
AcDbLine
 10
45.4298223495
 20
53.50874672
 30
0.0
 11
42.4298223495
 21
53.50874672
 31
0.0
  0
LINE
  5
2F8
330
1F
100
AcDbEntity
  8
0
  6
Continuous
 62
     7
370
    30
100
AcDbLine
 10
81.4298223495
 20
67.00874672
 30
0.0
 11
45.4298223495
 21
67.00874672
 31
0.0
  0
LINE
  5
2F9
330
1F
100
AcDbEntity
  8
0
  6
Continuous
 62
     7
370
    30
100
AcDbLine
 10
81.4298223495
 20
53.50874672
 30
0.0
 11
81.4298223495
 21
67.00874672
 31
0.0
  0
CIRCLE
  5
2FA
330
1F
100
AcDbEntity
  8
0
  6
Continuous
 62
     7
370
    30
100
AcDbCircle
 10
63.4298223495
 20
62.50874672
 30
0.0
 40
2.552699999999994
  0
LINE
  5
2FB
330
1F
100
AcDbEntity
  8
0
  6
Continuous
 62
     7
370
    30
100
AcDbLine
 10
45.4298223495
 20
53.50874672
 30
0.0
 11
81.4298223495
 21
53.50874672
 31
0.0
  0
LINE
  5
2FC
330
1F
100
AcDbEntity
  8
0
  6
Continuous
 62
     7
370
    30
100
AcDbLine
 10
42.9298223495
 20
67.50874672
 30
0.0
 11
45.4298223495
 21
67.50874672
 31
0.0
  0
LINE
  5
2FD
330
1F
100
AcDbEntity
  8
0
  6
Continuous
 62
     7
370
    30
100
AcDbLine
 10
45.4298223495
 20
67.50874672
 30
0.0
 11
45.4298223495
 21
67.00874672
 31
0.0
  0
ARC
  5
2FE
330
1F
100
AcDbEntity
  8
0
  6
Continuous
 62
     7
370
    30
100
AcDbCircle
 10
42.9298223495
 20
67.00874672
 30
0.0
 40
0.5
100
AcDbArc
 50
90.0
 51
180.0
  0
LINE
  5
2FF
330
1F
100
AcDbEntity
  8
0
  6
Continuous
 62
     7
370
    30
100
AcDbLine
 10
45.4298223495
 20
67.50874672
 30
0.0
 11
81.4298223495
 21
67.50874672
 31
0.0
  0
LINE
  5
300
330
1F
100
AcDbEntity
  8
0
  6
Continuous
 62
     7
370
    30
100
AcDbLine
 10
81.4298223495
 20
67.50874672
 30
0.0
 11
81.4298223495
 21
67.00874672
 31
0.0
  0
LINE
  5
301
330
1F
100
AcDbEntity
  8
0
  6
Continuous
 62
     7
370
    30
100
AcDbLine
 10
84.4298223495
 20
67.00874672
 30
0.0
 11
81.4298223495
 21
67.00874672
 31
0.0
  0
LINE
  5
302
330
1F
100
AcDbEntity
  8
0
  6
Continuous
 62
     7
370
    30
100
AcDbLine
 10
84.4298223495
 20
67.00874672
 30
0.0
 11
84.4298223495
 21
53.50874672
 31
0.0
  0
LINE
  5
303
330
1F
100
AcDbEntity
  8
0
  6
Continuous
 62
     7
370
    30
100
AcDbLine
 10
84.4298223495
 20
53.50874672
 30
0.0
 11
81.4298223495
 21
53.50874672
 31
0.0
  0
LINE
  5
304
330
1F
100
AcDbEntity
  8
0
  6
Continuous
 62
     7
370
    30
100
AcDbLine
 10
81.4298223495
 20
67.50874672
 30
0.0
 11
83.9298223495
 21
67.50874672
 31
0.0
  0
ARC
  5
305
330
1F
100
AcDbEntity
  8
0
  6
Continuous
 62
     7
370
    30
100
AcDbCircle
 10
83.9298223495
 20
67.00874672
 30
0.0
 40
0.5
100
AcDbArc
 50
0.0
 51
90.0
  0
LINE
  5
306
330
1F
100
AcDbEntity
  8
0
  6
Continuous
 62
     7
370
    30
100
AcDbLine
 10
42.4298223495
 20
52.00874672
 30
0.0
 11
45.4298223495
 21
52.00874672
 31
0.0
  0
LINE
  5
307
330
1F
100
AcDbEntity
  8
0
  6
Continuous
 62
     7
370
    30
100
AcDbLine
 10
45.4298223495
 20
52.00874672
 30
0.0
 11
45.4298223495
 21
51.50874672
 31
0.0
  0
LINE
  5
308
330
1F
100
AcDbEntity
  8
0
  6
Continuous
 62
     7
370
    30
100
AcDbLine
 10
45.4298223495
 20
51.50874672
 30
0.0
 11
42.9298223495
 21
51.50874672
 31
0.0
  0
ARC
  5
309
330
1F
100
AcDbEntity
  8
0
  6
Continuous
 62
     7
370
    30
100
AcDbCircle
 10
42.9298223495
 20
52.00874672
 30
0.0
 40
0.5000000000000071
100
AcDbArc
 50
180.0
 51
270.0
  0
LINE
  5
30A
330
1F
100
AcDbEntity
  8
0
  6
Continuous
 62
     7
370
    30
100
AcDbLine
 10
45.4298223495
 20
53.50874672
 30
0.0
 11
45.4298223495
 21
52.00874672
 31
0.0
  0
LINE
  5
30B
330
1F
100
AcDbEntity
  8
0
  6
Continuous
 62
     7
370
    30
100
AcDbLine
 10
42.4298223495
 20
52.00874672
 30
0.0
 11
42.4298223495
 21
53.50874672
 31
0.0
  0
LINE
  5
30C
330
1F
100
AcDbEntity
  8
0
  6
Continuous
 62
     7
370
    30
100
AcDbLine
 10
62.4693537139
 20
51.50874672
 30
0.0
 11
45.4298223495
 21
51.50874672
 31
0.0
  0
LINE
  5
30D
330
1F
100
AcDbEntity
  8
0
  6
Continuous
 62
     7
370
    30
100
AcDbLine
 10
45.4298223495
 20
52.00874672
 30
0.0
 11
81.4298223495
 21
52.00874672
 31
0.0
  0
LINE
  5
30E
330
1F
100
AcDbEntity
  8
0
  6
Continuous
 62
     7
370
    30
100
AcDbLine
 10
81.4298223495
 20
52.00874672
 30
0.0
 11
81.4298223495
 21
51.50874672
 31
0.0
  0
LINE
  5
30F
330
1F
100
AcDbEntity
  8
0
  6
Continuous
 62
     7
370
    30
100
AcDbLine
 10
81.4298223495
 20
51.50874672
 30
0.0
 11
64.3902909851
 21
51.50874672
 31
0.0
  0
SPLINE
  5
310
330
1F
100
AcDbEntity
  8
0
  6
Continuous
 62
     7
370
    30
100
AcDbSpline
210
0.0
220
0.0
230
1.0
 70
     8
 71
     3
 72
    11
 73
     7
 74
     0
 42
0.000000001
 43
0.00000001
 40
0.0
 40
0.0
 40
0.0
 40
0.0
 40
0.2280256436108701
 40
0.4613159061212944
 40
0.7275558210580306
 40
0.9999999999999999
 40
0.9999999999999999
 40
0.9999999999999999
 40
0.9999999999999999
 10
64.39029098513144
 20
51.50874671995541
 30
0.0
 10
64.24675982745053
 20
51.51169129082258
 30
0.0
 10
63.9563836881107
 20
51.51764841632921
 30
0.0
 10
63.48406774931961
 20
51.53012918933199
 30
0.0
 10
62.9814723650484
 20
51.52057503145575
 30
0.0
 10
62.64136565098691
 20
51.51271964843411
 30
0.0
 10
62.4693537139016
 20
51.50874671995539
 30
0.0
  0
LINE
  5
311
330
1F
100
AcDbEntity
  8
0
  6
Continuous
 62
     7
370
    30
100
AcDbLine
 10
81.4298223495
 20
52.00874672
 30
0.0
 11
81.4298223495
 21
53.50874672
 31
0.0
  0
LINE
  5
312
330
1F
100
AcDbEntity
  8
0
  6
Continuous
 62
     7
370
    30
100
AcDbLine
 10
83.9298223495
 20
51.50874672
 30
0.0
 11
81.4298223495
 21
51.50874672
 31
0.0
  0
LINE
  5
313
330
1F
100
AcDbEntity
  8
0
  6
Continuous
 62
     7
370
    30
100
AcDbLine
 10
81.4298223495
 20
52.00874672
 30
0.0
 11
84.4298223495
 21
52.00874672
 31
0.0
  0
ARC
  5
314
330
1F
100
AcDbEntity
  8
0
  6
Continuous
 62
     7
370
    30
100
AcDbCircle
 10
83.9298223495
 20
52.00874672
 30
0.0
 40
0.5000000000000071
100
AcDbArc
 50
270.0
 51
0.0
  0
LINE
  5
315
330
1F
100
AcDbEntity
  8
0
  6
Continuous
 62
     7
370
    30
100
AcDbLine
 10
84.4298223495
 20
53.50874672
 30
0.0
 11
84.4298223495
 21
52.00874672
 31
0.0
  0
DIMENSION
  5
316
330
1F
100
AcDbEntity
  8
SLD-0
100
AcDbDimension
  2
_D_17
 10
42.4298223495
 20
72.52874672
 30
0.0
 11
52.9298223495
 21
72.52874672
 31
0.0
 70
   160
  1
<>
 71
     2
 42
-1.0
  3
SLDDIMSTYLE0
100
AcDbAlignedDimension
 13
63.4298223495
 23
66.06144672
 33
0.0
 14
42.4298223495
 24
67.00874672
 34
0.0
100
AcDbRotatedDimension
  0
DIMENSION
  5
320
330
1F
100
AcDbEntity
  8
SLD-0
100
AcDbDimension
  2
_D_18
 10
90.7798223495
 20
67.50874672
 30
0.0
 11
90.7798223495
 21
65.00874672
 31
0.0
 70
   160
  1
<>
 71
     2
 42
-1.0
  3
SLDDIMSTYLE0
100
AcDbAlignedDimension
 13
66.9825223495
 23
62.50874672
 33
0.0
 14
83.9298223495
 24
67.50874672
 34
0.0
 50
90.0
100
AcDbRotatedDimension
  0
DIMENSION
  5
32A
330
1F
100
AcDbEntity
  8
SLD-0
100
AcDbDimension
  2
_D_19
 10
62.3882810683
 20
60.178195487
 30
0.0
 11
76.5186961722
 21
74.1624598103
 31
0.0
 70
   163
  1
1/4-20 UNC\P
 71
     1
 42
-1.0
  3
SLDDIMSTYLE3
100
AcDbDiametricDimension
 15
64.4713636308
 25
64.8392979529
 35
0.0
 40
0.0
  0
INSERT
  5
33E
330
1F
100
AcDbEntity
  8
SLD-0
100
AcDbBlockReference
  2
SW_CENTERMARKSYMBOL_6
 10
63.4298223495
 20
62.50874672
 30
0.0
  0
ENDSEC
  0
SECTION
  2
OBJECTS
  0
DICTIONARY
  5
C
330
0
100
AcDbDictionary
281
     1
  3
ACAD_GROUP
350
D
  3
ACAD_LAYOUT
350
1A
  3
ACAD_MLINESTYLE
350
17
  3
ACAD_PLOTSETTINGS
350
19
  3
ACAD_PLOTSTYLENAME
350
E
  3
ACAD_SCALELIST
350
47
  0
DICTIONARY
  5
D
102
{ACAD_REACTORS
330
C
102
}
330
C
100
AcDbDictionary
281
     1
  0
DICTIONARY
  5
1A
102
{ACAD_REACTORS
330
C
102
}
330
C
100
AcDbDictionary
281
     1
  3
Layout1
350
1E
  3
Layout2
350
26
  3
Model
350
22
  0
DICTIONARY
  5
17
102
{ACAD_REACTORS
330
C
102
}
330
C
100
AcDbDictionary
281
     1
  3
Standard
350
18
  0
DICTIONARY
  5
19
102
{ACAD_REACTORS
330
C
102
}
330
C
100
AcDbDictionary
281
     1
  0
ACDBDICTIONARYWDFLT
  5
E
102
{ACAD_REACTORS
330
C
102
}
330
C
100
AcDbDictionary
281
     1
  3
Normal
350
F
100
AcDbDictionaryWithDefault
340
F
  0
DICTIONARY
  5
47
102
{ACAD_REACTORS
330
C
102
}
330
C
100
AcDbDictionary
281
     1
  3
A0
350
48
  3
A1
350
49
  3
A2
350
4A
  3
A3
350
4B
  3
A4
350
4C
  3
A5
350
4D
  3
A6
350
4E
  3
A7
350
4F
  3
A8
350
50
  3
A9
350
51
  3
B0
350
52
  3
B1
350
53
  3
B2
350
54
  3
B3
350
55
  3
B4
350
56
  3
B5
350
57
  3
B6
350
58
  3
B7
350
59
  3
B8
350
5A
  3
B9
350
5B
  3
C0
350
5C
  3
C1
350
5D
  3
C2
350
5E
  3
C3
350
5F
  3
C4
350
60
  3
C5
350
61
  3
C6
350
62
  3
C7
350
63
  3
C8
350
64
  3
C9
350
65
  3
D0
350
66
  3
D1
350
67
  3
D2
350
68
  0
LAYOUT
  5
1E
102
{ACAD_REACTORS
330
1A
102
}
330
1A
100
AcDbPlotSettings
  1

  2
none_device
  4

  6

 40
0.0
 41
0.0
 42
0.0
 43
0.0
 44
0.0
 45
0.0
 46
0.0
 47
0.0
 48
0.0
 49
0.0
140
0.0
141
0.0
142
1.0
143
1.0
 70
   688
 72
     1
 73
     0
 74
     5
  7

 75
    16
147
1.0
148
0.0
149
0.0
100
AcDbLayout
  1
Layout1
 70
     1
 71
     1
 10
0.0
 20
0.0
 11
420.0
 21
297.0
 12
0.0
 22
0.0
 32
0.0
 14
1.0000000000E+20
 24
1.0000000000E+20
 34
1.0000000000E+20
 15
-1.0000000000E+20
 25
-1.0000000000E+20
 35
-1.0000000000E+20
146
0.0
 13
0.0
 23
0.0
 33
0.0
 16
1.0
 26
0.0
 36
0.0
 17
0.0
 27
1.0
 37
0.0
 76
     0
330
1B
  0
LAYOUT
  5
26
102
{ACAD_REACTORS
330
1A
102
}
330
1A
100
AcDbPlotSettings
  1

  2
none_device
  4

  6

 40
0.0
 41
0.0
 42
0.0
 43
0.0
 44
0.0
 45
0.0
 46
0.0
 47
0.0
 48
0.0
 49
0.0
140
0.0
141
0.0
142
1.0
143
1.0
 70
   688
 72
     1
 73
     0
 74
     5
  7

 75
    16
147
1.0
148
0.0
149
0.0
100
AcDbLayout
  1
Layout2
 70
     1
 71
     2
 10
0.0
 20
0.0
 11
0.0
 21
0.0
 12
0.0
 22
0.0
 32
0.0
 14
0.0
 24
0.0
 34
0.0
 15
0.0
 25
0.0
 35
0.0
146
0.0
 13
0.0
 23
0.0
 33
0.0
 16
1.0
 26
0.0
 36
0.0
 17
0.0
 27
1.0
 37
0.0
 76
     0
330
23
  0
LAYOUT
  5
22
102
{ACAD_REACTORS
330
1A
102
}
330
1A
100
AcDbPlotSettings
  1

  2
none_device
  4
Letter_(8.50_x_11.00_Inches)
  6

 40
6.35
 41
6.35
 42
6.35000508
 43
6.35000508
 44
215.9
 45
279.4
 46
0.0
 47
0.0
 48
0.0
 49
0.0
140
0.0
141
0.0
142
1.0
143
1.0
 70
  1712
 72
     1
 73
     0
 74
     0
  7

 75
     0
147
1.0
148
0.0
149
0.0
100
AcDbLayout
  1
Model
 70
     1
 71
     0
 10
0.0
 20
0.0
 11
247.5
 21
175.0
 12
0.0
 22
0.0
 32
0.0
 14
0.0
 24
0.0
 34
0.0
 15
247.5
 25
175.0
 35
0.0
146
0.0
 13
0.0
 23
0.0
 33
0.0
 16
1.0
 26
0.0
 36
0.0
 17
0.0
 27
1.0
 37
0.0
 76
     0
330
1F
331
29
  0
MLINESTYLE
  5
18
102
{ACAD_REACTORS
330
17
102
}
330
17
100
AcDbMlineStyle
  2
Standard
 70
     0
  3

 62
   256
 51
90.0
 52
90.0
 71
     2
 49
0.5
 62
   256
  6
BYLAYER
 49
-0.5
 62
   256
  6
BYLAYER
  0
ACDBPLACEHOLDER
  5
F
102
{ACAD_REACTORS
330
E
102
}
330
E
  0
SCALE
  5
48
102
{ACAD_REACTORS
330
47
102
}
330
47
100
AcDbScale
 70
     0
300
1:1
140
1.0
141
1.0
290
     1
  0
SCALE
  5
49
102
{ACAD_REACTORS
330
47
102
}
330
47
100
AcDbScale
 70
     0
300
1:2
140
1.0
141
2.0
290
     0
  0
SCALE
  5
4A
102
{ACAD_REACTORS
330
47
102
}
330
47
100
AcDbScale
 70
     0
300
1:4
140
1.0
141
4.0
290
     0
  0
SCALE
  5
4B
102
{ACAD_REACTORS
330
47
102
}
330
47
100
AcDbScale
 70
     0
300
1:5
140
1.0
141
5.0
290
     0
  0
SCALE
  5
4C
102
{ACAD_REACTORS
330
47
102
}
330
47
100
AcDbScale
 70
     0
300
1:8
140
1.0
141
8.0
290
     0
  0
SCALE
  5
4D
102
{ACAD_REACTORS
330
47
102
}
330
47
100
AcDbScale
 70
     0
300
1:10
140
1.0
141
10.0
290
     0
  0
SCALE
  5
4E
102
{ACAD_REACTORS
330
47
102
}
330
47
100
AcDbScale
 70
     0
300
1:16
140
1.0
141
16.0
290
     0
  0
SCALE
  5
4F
102
{ACAD_REACTORS
330
47
102
}
330
47
100
AcDbScale
 70
     0
300
1:20
140
1.0
141
20.0
290
     0
  0
SCALE
  5
50
102
{ACAD_REACTORS
330
47
102
}
330
47
100
AcDbScale
 70
     0
300
1:30
140
1.0
141
30.0
290
     0
  0
SCALE
  5
51
102
{ACAD_REACTORS
330
47
102
}
330
47
100
AcDbScale
 70
     0
300
1:40
140
1.0
141
40.0
290
     0
  0
SCALE
  5
52
102
{ACAD_REACTORS
330
47
102
}
330
47
100
AcDbScale
 70
     0
300
1:50
140
1.0
141
50.0
290
     0
  0
SCALE
  5
53
102
{ACAD_REACTORS
330
47
102
}
330
47
100
AcDbScale
 70
     0
300
1:100
140
1.0
141
100.0
290
     0
  0
SCALE
  5
54
102
{ACAD_REACTORS
330
47
102
}
330
47
100
AcDbScale
 70
     0
300
2:1
140
2.0
141
1.0
290
     0
  0
SCALE
  5
55
102
{ACAD_REACTORS
330
47
102
}
330
47
100
AcDbScale
 70
     0
300
4:1
140
4.0
141
1.0
290
     0
  0
SCALE
  5
56
102
{ACAD_REACTORS
330
47
102
}
330
47
100
AcDbScale
 70
     0
300
8:1
140
8.0
141
1.0
290
     0
  0
SCALE
  5
57
102
{ACAD_REACTORS
330
47
102
}
330
47
100
AcDbScale
 70
     0
300
10:1
140
10.0
141
1.0
290
     0
  0
SCALE
  5
58
102
{ACAD_REACTORS
330
47
102
}
330
47
100
AcDbScale
 70
     0
300
100:1
140
100.0
141
1.0
290
     0
  0
SCALE
  5
59
102
{ACAD_REACTORS
330
47
102
}
330
47
100
AcDbScale
 70
     0
300
1/128" = 1'-0"
140
0.0078125
141
12.0
290
     0
  0
SCALE
  5
5A
102
{ACAD_REACTORS
330
47
102
}
330
47
100
AcDbScale
 70
     0
300
1/64" = 1'-0"
140
0.015625
141
12.0
290
     0
  0
SCALE
  5
5B
102
{ACAD_REACTORS
330
47
102
}
330
47
100
AcDbScale
 70
     0
300
1/32" = 1'-0"
140
0.03125
141
12.0
290
     0
  0
SCALE
  5
5C
102
{ACAD_REACTORS
330
47
102
}
330
47
100
AcDbScale
 70
     0
300
1/16" = 1'-0"
140
0.0625
141
12.0
290
     0
  0
SCALE
  5
5D
102
{ACAD_REACTORS
330
47
102
}
330
47
100
AcDbScale
 70
     0
300
3/32" = 1'-0"
140
0.09375
141
12.0
290
     0
  0
SCALE
  5
5E
102
{ACAD_REACTORS
330
47
102
}
330
47
100
AcDbScale
 70
     0
300
1/8" = 1'-0"
140
0.125
141
12.0
290
     0
  0
SCALE
  5
5F
102
{ACAD_REACTORS
330
47
102
}
330
47
100
AcDbScale
 70
     0
300
3/16" = 1'-0"
140
0.1875
141
12.0
290
     0
  0
SCALE
  5
60
102
{ACAD_REACTORS
330
47
102
}
330
47
100
AcDbScale
 70
     0
300
1/4" = 1'-0"
140
0.25
141
12.0
290
     0
  0
SCALE
  5
61
102
{ACAD_REACTORS
330
47
102
}
330
47
100
AcDbScale
 70
     0
300
3/8" = 1'-0"
140
0.375
141
12.0
290
     0
  0
SCALE
  5
62
102
{ACAD_REACTORS
330
47
102
}
330
47
100
AcDbScale
 70
     0
300
1/2" = 1'-0"
140
0.5
141
12.0
290
     0
  0
SCALE
  5
63
102
{ACAD_REACTORS
330
47
102
}
330
47
100
AcDbScale
 70
     0
300
3/4" = 1'-0"
140
0.75
141
12.0
290
     0
  0
SCALE
  5
64
102
{ACAD_REACTORS
330
47
102
}
330
47
100
AcDbScale
 70
     0
300
1" = 1'-0"
140
1.0
141
12.0
290
     0
  0
SCALE
  5
65
102
{ACAD_REACTORS
330
47
102
}
330
47
100
AcDbScale
 70
     0
300
1-1/2" = 1'-0"
140
1.5
141
12.0
290
     0
  0
SCALE
  5
66
102
{ACAD_REACTORS
330
47
102
}
330
47
100
AcDbScale
 70
     0
300
3" = 1'-0"
140
3.0
141
12.0
290
     0
  0
SCALE
  5
67
102
{ACAD_REACTORS
330
47
102
}
330
47
100
AcDbScale
 70
     0
300
6" = 1'-0"
140
6.0
141
12.0
290
     0
  0
SCALE
  5
68
102
{ACAD_REACTORS
330
47
102
}
330
47
100
AcDbScale
 70
     0
300
1'-0" = 1'-0"
140
12.0
141
12.0
290
     0
  0
ENDSEC
  0
EOF
