  0
SECTION
  2
HEADER
  9
$ACADVER
  1
AC1015
  9
$ACADMAINTVER
 70
     6
  9
$DWGCODEPAGE
  3
ANSI_950
  9
$INSBASE
 10
0.0
 20
0.0
 30
0.0
  9
$EXTMIN
 10
0.0
 20
0.0
 30
0.0
  9
$EXTMAX
 10
297.0
 20
210.0
 30
0.0
  9
$LIMMIN
 10
0.0
 20
0.0
  9
$LIMMAX
 10
297.0
 20
210.0
  9
$ORTHOMODE
 70
     0
  9
$REGENMODE
 70
     1
  9
$FILLMODE
 70
     1
  9
$QTEXTMODE
 70
     0
  9
$MIRRTEXT
 70
     1
  9
$LTSCALE
 40
1.0
  9
$ATTMODE
 70
     1
  9
$TEXTSIZE
 40
3.175
  9
$TRACEWID
 40
1.0
  9
$TEXTSTYLE
  7
Standard
  9
$CLAYER
  8
0
  9
$CELTYPE
  6
ByLayer
  9
$CECOLOR
 62
   256
  9
$CELTSCALE
 40
1.0
  9
$DISPSILH
 70
     0
  9
$DIMSCALE
 40
1.0
  9
$DIMASZ
 40
2.0
  9
$DIMEXO
 40
1.0
  9
$DIMDLI
 40
3.75
  9
$DIMRND
 40
0.0
  9
$DIMDLE
 40
0.0
  9
$DIMEXE
 40
1.0
  9
$DIMTP
 40
0.0
  9
$DIMTM
 40
0.0
  9
$DIMTXT
 40
3.175
  9
$DIMCEN
 40
2.5
  9
$DIMTSZ
 40
0.0
  9
$DIMTOL
 70
     0
  9
$DIMLIM
 70
     0
  9
$DIMTIH
 70
     1
  9
$DIMTOH
 70
     1
  9
$DIMSE1
 70
     0
  9
$DIMSE2
 70
     0
  9
$DIMTAD
 70
     1
  9
$DIMZIN
 70
     0
  9
$DIMBLK
  1

  9
$DIMASO
 70
     1
  9
$DIMSHO
 70
     1
  9
$DIMPOST
  1

  9
$DIMAPOST
  1

  9
$DIMALT
 70
     0
  9
$DIMALTD
 70
     3
  9
$DIMALTF
 40
0.0393700787
  9
$DIMLFAC
 40
1.0
  9
$DIMTOFL
 70
     1
  9
$DIMTVP
 40
0.0
  9
$DIMTIX
 70
     0
  9
$DIMSOXD
 70
     0
  9
$DIMSAH
 70
     0
  9
$DIMBLK1
  1

  9
$DIMBLK2
  1

  9
$DIMSTYLE
  2
ISO-25
  9
$DIMCLRD
 70
     0
  9
$DIMCLRE
 70
     0
  9
$DIMCLRT
 70
     0
  9
$DIMTFAC
 40
1.0
  9
$DIMGAP
 40
1.0
  9
$DIMJUST
 70
     0
  9
$DIMSD1
 70
     0
  9
$DIMSD2
 70
     0
  9
$DIMTOLJ
 70
     0
  9
$DIMTZIN
 70
     0
  9
$DIMALTZ
 70
     0
  9
$DIMALTTZ
 70
     0
  9
$DIMUPT
 70
     0
  9
$DIMDEC
 70
     2
  9
$DIMTDEC
 70
     2
  9
$DIMALTU
 70
     2
  9
$DIMALTTD
 70
     3
  9
$DIMTXSTY
  7
Standard
  9
$DIMAUNIT
 70
     0
  9
$DIMADEC
 70
     2
  9
$DIMALTRND
 40
0.0
  9
$DIMAZIN
 70
     0
  9
$DIMDSEP
 70
    44
  9
$DIMATFIT
 70
     3
  9
$DIMFRAC
 70
     0
  9
$DIMLDRBLK
  1

  9
$DIMLUNIT
 70
     2
  9
$DIMLWD
 70
    -2
  9
$DIMLWE
 70
    -2
  9
$DIMTMOVE
 70
     0
  9
$LUNITS
 70
     2
  9
$LUPREC
 70
     2
  9
$SKETCHINC
 40
1.0
  9
$FILLETRAD
 40
10.0
  9
$AUNITS
 70
     0
  9
$AUPREC
 70
     2
  9
$MENU
  1
.
  9
$ELEVATION
 40
0.0
  9
$PELEVATION
 40
0.0
  9
$THICKNESS
 40
0.0
  9
$LIMCHECK
 70
     0
  9
$CHAMFERA
 40
0.0
  9
$CHAMFERB
 40
0.0
  9
$CHAMFERC
 40
0.0
  9
$CHAMFERD
 40
0.0
  9
$SKPOLY
 70
     0
  9
$TDCREATE
 40
2458954.615785555
  9
$TDUCREATE
 40
2458954.282452222
  9
$TDUPDATE
 40
2458954.615793136
  9
$TDUUPDATE
 40
2458954.282459803
  9
$TDINDWG
 40
0.0000000116
  9
$TDUSRTIMER
 40
0.0000000116
  9
$USRTIMER
 70
     1
  9
$ANGBASE
 50
0.0
  9
$ANGDIR
 70
     0
  9
$PDMODE
 70
     0
  9
$PDSIZE
 40
-1.0
  9
$PLINEWID
 40
0.0
  9
$SPLFRAME
 70
     0
  9
$SPLINETYPE
 70
     6
  9
$SPLINESEGS
 70
     8
  9
$HANDSEED
  5
354
  9
$SURFTAB1
 70
     6
  9
$SURFTAB2
 70
     6
  9
$SURFTYPE
 70
     6
  9
$SURFU
 70
     6
  9
$SURFV
 70
     6
  9
$UCSBASE
  2

  9
$UCSNAME
  2

  9
$UCSORG
 10
0.0
 20
0.0
 30
0.0
  9
$UCSXDIR
 10
1.0
 20
0.0
 30
0.0
  9
$UCSYDIR
 10
0.0
 20
1.0
 30
0.0
  9
$UCSORTHOREF
  2

  9
$UCSORTHOVIEW
 70
     0
  9
$UCSORGTOP
 10
0.0
 20
0.0
 30
0.0
  9
$UCSORGBOTTOM
 10
0.0
 20
0.0
 30
0.0
  9
$UCSORGLEFT
 10
0.0
 20
0.0
 30
0.0
  9
$UCSORGRIGHT
 10
0.0
 20
0.0
 30
0.0
  9
$UCSORGFRONT
 10
0.0
 20
0.0
 30
0.0
  9
$UCSORGBACK
 10
0.0
 20
0.0
 30
0.0
  9
$PUCSBASE
  2

  9
$PUCSNAME
  2

  9
$PUCSORG
 10
0.0
 20
0.0
 30
0.0
  9
$PUCSXDIR
 10
1.0
 20
0.0
 30
0.0
  9
$PUCSYDIR
 10
0.0
 20
1.0
 30
0.0
  9
$PUCSORTHOREF
  2

  9
$PUCSORTHOVIEW
 70
     0
  9
$PUCSORGTOP
 10
0.0
 20
0.0
 30
0.0
  9
$PUCSORGBOTTOM
 10
0.0
 20
0.0
 30
0.0
  9
$PUCSORGLEFT
 10
0.0
 20
0.0
 30
0.0
  9
$PUCSORGRIGHT
 10
0.0
 20
0.0
 30
0.0
  9
$PUCSORGFRONT
 10
0.0
 20
0.0
 30
0.0
  9
$PUCSORGBACK
 10
0.0
 20
0.0
 30
0.0
  9
$USERI1
 70
     0
  9
$USERI2
 70
     0
  9
$USERI3
 70
     0
  9
$USERI4
 70
     0
  9
$USERI5
 70
     0
  9
$USERR1
 40
0.0
  9
$USERR2
 40
0.0
  9
$USERR3
 40
0.0
  9
$USERR4
 40
0.0
  9
$USERR5
 40
0.0
  9
$WORLDVIEW
 70
     1
  9
$SHADEDGE
 70
     3
  9
$SHADEDIF
 70
    70
  9
$TILEMODE
 70
     1
  9
$MAXACTVP
 70
    64
  9
$PINSBASE
 10
0.0
 20
0.0
 30
0.0
  9
$PLIMCHECK
 70
     0
  9
$PEXTMIN
 10
1.0000000000E+20
 20
1.0000000000E+20
 30
1.0000000000E+20
  9
$PEXTMAX
 10
-1.0000000000E+20
 20
-1.0000000000E+20
 30
-1.0000000000E+20
  9
$PLIMMIN
 10
0.0
 20
0.0
  9
$PLIMMAX
 10
420.0
 20
297.0
  9
$UNITMODE
 70
     0
  9
$VISRETAIN
 70
     1
  9
$PLINEGEN
 70
     0
  9
$PSLTSCALE
 70
     1
  9
$TREEDEPTH
 70
  3020
  9
$CMLSTYLE
  2
Standard
  9
$CMLJUST
 70
     0
  9
$CMLSCALE
 40
20.0
  9
$PROXYGRAPHICS
 70
     1
  9
$MEASUREMENT
 70
     1
  9
$CELWEIGHT
370
    -1
  9
$ENDCAPS
280
     0
  9
$JOINSTYLE
280
     0
  9
$LWDISPLAY
290
     1
  9
$INSUNITS
 70
     4
  9
$HYPERLINKBASE
  1

  9
$STYLESHEET
  1

  9
$XEDIT
290
     1
  9
$CEPSNTYPE
380
     0
  9
$PSTYLEMODE
290
     1
  9
$FINGERPRINTGUID
  2
{2E36B317-0529-444D-B65E-31439C691197}
  9
$VERSIONGUID
  2
{FAEB1C32-E019-11D5-929B-00C0DF256EC4}
  9
$EXTNAMES
290
     1
  9
$PSVPSCALE
 40
0.0
  9
$OLESTARTUP
290
     0
  0
ENDSEC
  0
SECTION
  2
CLASSES
  0
CLASS
  1
ACDBDICTIONARYWDFLT
  2
AcDbDictionaryWithDefault
  3
ObjectDBX Classes
 90
        0
280
     0
281
     0
  0
CLASS
  1
VISUALSTYLE
  2
AcDbVisualStyle
  3
ObjectDBX Classes
 90
     4095
280
     0
281
     0
  0
CLASS
  1
MATERIAL
  2
AcDbMaterial
  3
ObjectDBX Classes
 90
     1153
280
     0
281
     0
  0
CLASS
  1
SCALE
  2
AcDbScale
  3
ObjectDBX Classes
 90
     1153
280
     0
281
     0
  0
CLASS
  1
TABLESTYLE
  2
AcDbTableStyle
  3
ObjectDBX Classes
 90
     4095
280
     0
281
     0
  0
CLASS
  1
MLEADERSTYLE
  2
AcDbMLeaderStyle
  3
ACDB_MLEADERSTYLE_CLASS
 90
     4095
280
     0
281
     0
  0
CLASS
  1
SUN
  2
AcDbSun
  3
SCENEOE
 90
     1153
280
     0
281
     0
  0
CLASS
  1
ACDBPLACEHOLDER
  2
AcDbPlaceHolder
  3
ObjectDBX Classes
 90
        0
280
     0
281
     0
  0
CLASS
  1
LAYOUT
  2
AcDbLayout
  3
ObjectDBX Classes
 90
        0
280
     0
281
     0
  0
ENDSEC
  0
SECTION
  2
TABLES
  0
TABLE
  2
VPORT
  5
8
330
0
100
AcDbSymbolTable
 70
     1
  0
VPORT
  5
29
330
8
100
AcDbSymbolTableRecord
100
AcDbViewportTableRecord
  2
*Active
 70
     0
 10
0.0
 20
0.0
 11
1.0
 21
1.0
 12
148.5
 22
105.0
 13
0.0
 23
0.0
 14
10.0
 24
10.0
 15
10.0
 25
10.0
 16
0.0
 26
0.0
 36
1.0
 17
0.0
 27
0.0
 37
0.0
 40
210.0
 41
1.4142857143
 42
50.0
 43
0.0
 44
0.0
 50
0.0
 51
0.0
 71
     0
 72
  2000
 73
     1
 74
     3
 75
     0
 76
     0
 77
     0
 78
     0
281
     0
 65
     1
110
0.0
120
0.0
130
0.0
111
1.0
121
0.0
131
0.0
112
0.0
122
1.0
132
0.0
 79
     0
146
0.0
  0
ENDTAB
  0
TABLE
  2
LTYPE
  5
5
330
0
100
AcDbSymbolTable
 70
     6
  0
LTYPE
  5
14
330
5
100
AcDbSymbolTableRecord
100
AcDbLinetypeTableRecord
  2
ByBlock
 70
     0
  3

 72
    65
 73
     0
 40
0.0
  0
LTYPE
  5
15
330
5
100
AcDbSymbolTableRecord
100
AcDbLinetypeTableRecord
  2
ByLayer
 70
     0
  3

 72
    65
 73
     0
 40
0.0
  0
LTYPE
  5
16
330
5
100
AcDbSymbolTableRecord
100
AcDbLinetypeTableRecord
  2
Continuous
 70
     0
  3
Solid line
 72
    65
 73
     0
 40
0.0
  0
LTYPE
  5
6E
330
5
100
AcDbSymbolTableRecord
100
AcDbLinetypeTableRecord
  2
HIDDEN
 70
     0
  3
Hidden __ __ __ __ __ __ __ __ __ __ __ __ __ __
 72
    65
 73
     2
 40
1.905
 49
1.27
 74
     0
 49
-0.635
 74
     0
  0
LTYPE
  5
6F
330
5
100
AcDbSymbolTableRecord
100
AcDbLinetypeTableRecord
  2
PHANTOM
 70
     0
  3
Phantom ______  __  __  ______  __  __  ______
 72
    65
 73
     6
 40
12.7
 49
6.35
 74
     0
 49
-1.27
 74
     0
 49
1.27
 74
     0
 49
-1.27
 74
     0
 49
1.27
 74
     0
 49
-1.27
 74
     0
  0
LTYPE
  5
70
330
5
100
AcDbSymbolTableRecord
100
AcDbLinetypeTableRecord
  2
CENTER
 70
     0
  3
Center ____ _ ____ _ ____ _ ____ _ ____ _ ____
 72
    65
 73
     4
 40
10.16
 49
6.35
 74
     0
 49
-1.27
 74
     0
 49
1.27
 74
     0
 49
-1.27
 74
     0
  0
LTYPE
  5
71
330
5
100
AcDbSymbolTableRecord
100
AcDbLinetypeTableRecord
  2
CENTERX2
 70
     0
  3
Center (2x) ________  __  ________  __  _____
 72
    65
 73
     4
 40
20.32
 49
12.7
 74
     0
 49
-2.54
 74
     0
 49
2.54
 74
     0
 49
-2.54
 74
     0
  0
LTYPE
  5
72
330
5
100
AcDbSymbolTableRecord
100
AcDbLinetypeTableRecord
  2
DOT2
 70
     0
  3
Dot (.5x) ........................................
 72
    65
 73
     2
 40
0.635
 49
0.0
 74
     0
 49
-0.635
 74
     0
  0
ENDTAB
  0
TABLE
  2
LAYER
  5
2
330
0
100
AcDbSymbolTable
 70
    10
  0
LAYER
  5
10
330
2
100
AcDbSymbolTableRecord
100
AcDbLayerTableRecord
  2
0
 70
     0
 62
     7
  6
Continuous
370
    -3
390
F
  0
LAYER
  5
73
330
2
100
AcDbSymbolTableRecord
100
AcDbLayerTableRecord
  2
SLD-0
 70
     0
 62
     7
  6
Continuous
370
    15
390
F
  0
LAYER
  5
74
330
2
100
AcDbSymbolTableRecord
100
AcDbLayerTableRecord
  2
輪廓線
 70
     0
 62
   219
  6
Continuous
370
    15
390
F
  0
LAYER
  5
75
330
2
100
AcDbSymbolTableRecord
100
AcDbLayerTableRecord
  2
DIM
 70
     0
 62
     7
  6
Continuous
370
    -3
390
F
  0
LAYER
  5
76
330
2
100
AcDbSymbolTableRecord
100
AcDbLayerTableRecord
  2
中心線
 70
     0
 62
     7
  6
CENTERX2
370
    -3
390
F
  0
LAYER
  5
77
330
2
100
AcDbSymbolTableRecord
100
AcDbLayerTableRecord
  2
虛線
 70
     0
 62
     7
  6
HIDDEN
370
    -3
390
F
  0
LAYER
  5
78
330
2
100
AcDbSymbolTableRecord
100
AcDbLayerTableRecord
  2
SECTION
 70
     0
 62
     7
  6
PHANTOM
370
    15
390
F
  0
LAYER
  5
79
330
2
100
AcDbSymbolTableRecord
100
AcDbLayerTableRecord
  2
假想線
 70
     0
 62
     7
  6
PHANTOM
370
    -3
390
F
  0
LAYER
  5
7A
330
2
100
AcDbSymbolTableRecord
100
AcDbLayerTableRecord
  2
圖層_1
 70
     0
 62
   179
  6
Continuous
370
    -3
390
F
  0
LAYER
  5
7B
330
2
100
AcDbSymbolTableRecord
100
AcDbLayerTableRecord
  2
工作區域參考線
 70
     0
 62
   179
  6
Continuous
370
    -3
390
F
  0
ENDTAB
  0
TABLE
  2
STYLE
  5
3
330
0
100
AcDbSymbolTable
 70
     3
  0
STYLE
  5
11
330
3
100
AcDbSymbolTableRecord
100
AcDbTextStyleTableRecord
  2
Standard
 70
     0
 40
0.0
 41
1.0
 50
0.0
 71
     0
 42
3.175
  3
txt
  4

  0
STYLE
  5
CC
330
3
100
AcDbSymbolTableRecord
100
AcDbTextStyleTableRecord
  2
SLDTEXTSTYLE0
 70
     0
 40
0.0
 41
0.605
 50
0.0
 71
     0
 42
3.175
  3
TXT
  4

  0
STYLE
  5
103
330
3
100
AcDbSymbolTableRecord
100
AcDbTextStyleTableRecord
  2
SLDTEXTSTYLE1
 70
     0
 40
0.0
 41
0.7
 50
0.0
 71
     0
 42
3.175
  3
TXT
  4

  0
ENDTAB
  0
TABLE
  2
VIEW
  5
6
330
0
100
AcDbSymbolTable
 70
     0
  0
ENDTAB
  0
TABLE
  2
UCS
  5
7
330
0
100
AcDbSymbolTable
 70
     0
  0
ENDTAB
  0
TABLE
  2
APPID
  5
9
330
0
100
AcDbSymbolTable
 70
     1
  0
APPID
  5
12
330
9
100
AcDbSymbolTableRecord
100
AcDbRegAppTableRecord
  2
ACAD
 70
     0
  0
ENDTAB
  0
TABLE
  2
DIMSTYLE
  5
A
330
0
100
AcDbSymbolTable
 70
     4
100
AcDbDimStyleTable
  0
DIMSTYLE
105
27
330
A
100
AcDbSymbolTableRecord
100
AcDbDimStyleTableRecord
  2
ISO-25
 70
     0
 41
2.5
 42
0.625
 43
3.75
 44
1.25
 73
     0
 74
     0
 77
     1
 78
     8
140
2.5
141
2.5
143
0.0393700787
147
0.625
171
     3
172
     1
178
     0
271
     2
272
     2
274
     3
278
    44
283
     0
284
     8
340
11
  0
DIMSTYLE
105
184
102
{ACAD_REACTORS
330
183
330
18E
330
198
330
1A2
330
1AC
330
1B6
330
1C0
330
248
330
252
102
}
330
A
100
AcDbSymbolTableRecord
100
AcDbDimStyleTableRecord
  2
SLDDIMSTYLE0
 70
     0
 41
2.0
 44
0.0
 45
0.000000001
 73
     0
 74
     0
 77
     1
 78
    12
 79
     3
140
2.5424804688
147
0.6356201172
173
     1
178
     0
271
     2
272
     2
276
     2
284
    12
340
103
  0
DIMSTYLE
105
1CB
102
{ACAD_REACTORS
330
1CA
102
}
330
A
100
AcDbSymbolTableRecord
100
AcDbDimStyleTableRecord
  2
SLDDIMSTYLE1
 70
     0
  3
<>
 41
2.0
 44
0.0
 45
0.000000001
 78
    12
 79
     3
140
2.5424804688
141
0.0
147
0.6356201172
173
     1
178
     0
271
     2
272
     2
276
     2
284
    12
340
103
  0
DIMSTYLE
105
33C
102
{ACAD_REACTORS
330
33B
102
}
330
A
100
AcDbSymbolTableRecord
100
AcDbDimStyleTableRecord
  2
SLDDIMSTYLE2
 70
     0
 41
2.0
 44
0.0
 45
0.000000001
 73
     0
 74
     0
 77
     1
 78
    12
 79
     3
140
2.5424804688
147
0.6356201172
172
     1
173
     1
178
     0
271
     2
272
     2
276
     2
284
    12
289
     0
340
103
  0
ENDTAB
  0
TABLE
  2
BLOCK_RECORD
  5
1
330
0
100
AcDbSymbolTable
 70
    22
  0
BLOCK_RECORD
  5
1F
330
1
100
AcDbSymbolTableRecord
100
AcDbBlockTableRecord
  2
*Model_Space
340
22
  0
BLOCK_RECORD
  5
1B
330
1
100
AcDbSymbolTableRecord
100
AcDbBlockTableRecord
  2
*Paper_Space
340
1E
  0
BLOCK_RECORD
  5
23
330
1
100
AcDbSymbolTableRecord
100
AcDbBlockTableRecord
  2
*Paper_Space0
340
26
  0
BLOCK_RECORD
  5
7C
330
1
100
AcDbSymbolTableRecord
100
AcDbBlockTableRecord
  2
圖塊6
340
0
102
{BLKREFS
331
CB
102
}
  0
BLOCK_RECORD
  5
CE
330
1
100
AcDbSymbolTableRecord
100
AcDbBlockTableRecord
  2
SW_NOTE_0
340
0
102
{BLKREFS
331
D4
102
}
  0
BLOCK_RECORD
  5
105
330
1
100
AcDbSymbolTableRecord
100
AcDbBlockTableRecord
  2
SW_NOTE_1
340
0
102
{BLKREFS
331
10A
102
}
  0
BLOCK_RECORD
  5
185
330
1
100
AcDbSymbolTableRecord
100
AcDbBlockTableRecord
  2
_D
340
0
  0
BLOCK_RECORD
  5
18F
330
1
100
AcDbSymbolTableRecord
100
AcDbBlockTableRecord
  2
_D_1
340
0
  0
BLOCK_RECORD
  5
199
330
1
100
AcDbSymbolTableRecord
100
AcDbBlockTableRecord
  2
_D_2
340
0
  0
BLOCK_RECORD
  5
1A3
330
1
100
AcDbSymbolTableRecord
100
AcDbBlockTableRecord
  2
_D_3
340
0
  0
BLOCK_RECORD
  5
1AD
330
1
100
AcDbSymbolTableRecord
100
AcDbBlockTableRecord
  2
_D_4
340
0
  0
BLOCK_RECORD
  5
1B7
330
1
100
AcDbSymbolTableRecord
100
AcDbBlockTableRecord
  2
_D_5
340
0
  0
BLOCK_RECORD
  5
1C1
330
1
100
AcDbSymbolTableRecord
100
AcDbBlockTableRecord
  2
_D_6
340
0
  0
BLOCK_RECORD
  5
1CC
330
1
100
AcDbSymbolTableRecord
100
AcDbBlockTableRecord
  2
_D_7
340
0
  0
BLOCK_RECORD
  5
1D3
330
1
100
AcDbSymbolTableRecord
100
AcDbBlockTableRecord
  2
SW_CENTERMARKSYMBOL_0
340
0
102
{BLKREFS
331
1DE
102
}
  0
BLOCK_RECORD
  5
1DF
330
1
100
AcDbSymbolTableRecord
100
AcDbBlockTableRecord
  2
SW_CENTERMARKSYMBOL_1
340
0
102
{BLKREFS
331
1EA
102
}
  0
BLOCK_RECORD
  5
1EB
330
1
100
AcDbSymbolTableRecord
100
AcDbBlockTableRecord
  2
SW_CENTERMARKSYMBOL_2
340
0
102
{BLKREFS
331
1F6
102
}
  0
BLOCK_RECORD
  5
1F7
330
1
100
AcDbSymbolTableRecord
100
AcDbBlockTableRecord
  2
SW_CENTERMARKSYMBOL_3
340
0
102
{BLKREFS
331
202
102
}
  0
BLOCK_RECORD
  5
203
330
1
100
AcDbSymbolTableRecord
100
AcDbBlockTableRecord
  2
SW_CENTERMARKSYMBOL_4
340
0
102
{BLKREFS
331
20E
102
}
  0
BLOCK_RECORD
  5
249
330
1
100
AcDbSymbolTableRecord
100
AcDbBlockTableRecord
  2
_D_8
340
0
  0
BLOCK_RECORD
  5
253
330
1
100
AcDbSymbolTableRecord
100
AcDbBlockTableRecord
  2
_D_9
340
0
  0
BLOCK_RECORD
  5
332
330
1
100
AcDbSymbolTableRecord
100
AcDbBlockTableRecord
  2
SW_RADIAL_DIMENSION_0
340
0
102
{BLKREFS
331
33A
102
}
  0
BLOCK_RECORD
  5
33D
330
1
100
AcDbSymbolTableRecord
100
AcDbBlockTableRecord
  2
_D_10
340
0
  0
BLOCK_RECORD
  5
348
330
1
100
AcDbSymbolTableRecord
100
AcDbBlockTableRecord
  2
SW_CENTERMARKSYMBOL_5
340
0
102
{BLKREFS
331
353
102
}
  0
ENDTAB
  0
ENDSEC
  0
SECTION
  2
BLOCKS
  0
BLOCK
  5
20
330
1F
100
AcDbEntity
  8
0
100
AcDbBlockBegin
  2
*Model_Space
 70
     0
 10
0.0
 20
0.0
 30
0.0
  3
*Model_Space
  1

  0
ENDBLK
  5
21
330
1F
100
AcDbEntity
  8
0
100
AcDbBlockEnd
  0
BLOCK
  5
1C
330
1B
100
AcDbEntity
 67
     1
  8
0
100
AcDbBlockBegin
  2
*Paper_Space
 70
     0
 10
0.0
 20
0.0
 30
0.0
  3
*Paper_Space
  1

  0
ENDBLK
  5
1D
330
1B
100
AcDbEntity
 67
     1
  8
0
100
AcDbBlockEnd
  0
BLOCK
  5
24
330
23
100
AcDbEntity
  8
0
100
AcDbBlockBegin
  2
*Paper_Space0
 70
     0
 10
0.0
 20
0.0
 30
0.0
  3
*Paper_Space0
  1

  0
ENDBLK
  5
25
330
23
100
AcDbEntity
  8
0
100
AcDbBlockEnd
  0
BLOCK
  5
7D
330
7C
100
AcDbEntity
  8
0
100
AcDbBlockBegin
  2
圖塊6
 70
     0
 10
0.0
 20
0.0
 30
0.0
  3
圖塊6
  1

  0
ARC
  5
7F
330
7C
100
AcDbEntity
  8
圖層_1
 62
     7
370
    30
100
AcDbCircle
 10
1.5301544339
 20
6.1020682891
 30
0.0
 40
1.53015443394367
100
AcDbArc
 50
130.2115225915
 51
228.588904108
  0
ARC
  5
80
330
7C
100
AcDbEntity
  8
圖層_1
 62
     7
370
    30
100
AcDbCircle
 10
4.8509135981
 20
5.9949454415
 30
0.0
 40
2.577335426817622
100
AcDbArc
 50
140.4331765613
 51
251.0865666567
  0
ARC
  5
81
330
7C
100
AcDbEntity
  8
圖層_1
 62
     7
370
    30
100
AcDbCircle
 10
5.1765041982
 20
6.3117559713
 30
0.0
 40
2.989636657769863
100
AcDbArc
 50
247.1485306747
 51
309.6030773927
  0
LINE
  5
82
330
7C
100
AcDbEntity
  8
圖層_1
 62
     7
370
    30
100
AcDbLine
 10
1.8488977269
 20
8.5321825984
 30
0.0
 11
0.542269472
 21
7.2705955219
 31
0.0
  0
LINE
  5
83
330
7C
100
AcDbEntity
  8
圖層_1
 62
     7
370
    30
100
AcDbLine
 10
0.51802289
 20
4.9544784977
 30
0.0
 11
4.5272252002
 21
1.4698746574
 31
0.0
  0
LINE
  5
84
330
7C
100
AcDbEntity
  8
圖層_1
 62
     7
370
    30
100
AcDbLine
 10
4.5272252002
 20
1.4698746574
 30
0.0
 11
3.8961732797
 21
0.853974267
 31
0.0
  0
LINE
  5
85
330
7C
100
AcDbEntity
  8
圖層_1
 62
     7
370
    30
100
AcDbLine
 10
3.8961732797
 20
0.853974267
 30
0.0
 11
4.8880526445
 21
0.0
 31
0.0
  0
LINE
  5
86
330
7C
100
AcDbEntity
  8
圖層_1
 62
     7
370
    30
100
AcDbLine
 10
8.0977170788
 20
3.1165779655
 30
0.0
 11
7.0822940472
 21
4.0083036932
 31
0.0
  0
LINE
  5
87
330
7C
100
AcDbEntity
  8
圖層_1
 62
     7
370
    30
100
AcDbLine
 10
2.8640915743
 20
7.6366506975
 30
0.0
 11
1.8488977269
 21
8.5321825984
 31
0.0
  0
LINE
  5
88
330
7C
100
AcDbEntity
  8
圖層_1
 62
     7
370
    30
100
AcDbLine
 10
4.8880526445
 20
0.0
 30
0.0
 11
8.0977170788
 21
3.1165779655
 31
0.0
  0
ENDBLK
  5
7E
330
7C
100
AcDbEntity
  8
0
100
AcDbBlockEnd
  0
BLOCK
  5
CF
330
CE
100
AcDbEntity
  8
0
100
AcDbBlockBegin
  2
SW_NOTE_0
 70
     0
 10
0.0
 20
0.0
 30
0.0
  3
SW_NOTE_0
  1

  0
MTEXT
  5
D1
330
CE
100
AcDbEntity
  8
0
  6
Continuous
 62
     0
370
     0
100
AcDbMText
 10
0.0
 20
3.4106583948
 30
0.0
 40
2.6458333333
 41
0.0
 71
     1
 72
     1
  1
PROPRIETARY AND CONFIDENTIAL
  7
SLDTEXTSTYLE0
 73
     1
 44
1.0
  0
MTEXT
  5
D2
330
CE
100
AcDbEntity
  8
0
  6
Continuous
 62
     0
370
     0
100
AcDbMText
 10
0.0
 20
-0.08198348
 30
0.0
 40
1.8520833333
 41
0.0
 71
     1
 72
     1
  1
THE INFORMATION CONTAINED IN THIS DRAWING IS THE SOLE PROPERTY OF UNICE E-O SERVICES INC. ANY REPRODUCTION IN PART OR AS A WHOLE WITHOUT THE WRITTEN PERMISSION OF UNICE E-O SERVICES INC IS
  7
SLDTEXTSTYLE0
 73
     1
 44
1.0
  0
MTEXT
  5
D3
330
CE
100
AcDbEntity
  8
0
  6
Continuous
 62
     0
370
     0
100
AcDbMText
 10
0.0
 20
-2.5514278946
 30
0.0
 40
1.8520833333
 41
0.0
 71
     1
 72
     1
  1
PROHIBITED.
  7
SLDTEXTSTYLE0
 73
     1
 44
1.0
  0
ENDBLK
  5
D0
330
CE
100
AcDbEntity
  8
0
100
AcDbBlockEnd
  0
BLOCK
  5
106
330
105
100
AcDbEntity
  8
0
100
AcDbBlockBegin
  2
SW_NOTE_1
 70
     0
 10
0.0
 20
0.0
 30
0.0
  3
SW_NOTE_1
  1

  0
MTEXT
  5
108
330
105
100
AcDbEntity
  8
SLD-0
 62
     0
100
AcDbMText
 10
0.0
 20
2.0463950369
 30
0.0
 40
1.5875
 41
0.0
 71
     1
 72
     1
  1
No.5, Andong Rd., Chung Li District,
  7
SLDTEXTSTYLE0
 73
     1
 44
1.0
  0
MTEXT
  5
109
330
105
100
AcDbEntity
  8
SLD-0
 62
     0
100
AcDbMText
 10
0.0
 20
-0.0702716042
 30
0.0
 40
1.5875
 41
0.0
 71
     1
 72
     1
  1
Taoyuan City 32063, Taiwan, R.O.C.
  7
SLDTEXTSTYLE0
 73
     1
 44
1.0
  0
ENDBLK
  5
107
330
105
100
AcDbEntity
  8
0
100
AcDbBlockEnd
  0
BLOCK
  5
186
330
185
100
AcDbEntity
  8
0
100
AcDbBlockBegin
  2
_D
 70
     0
 10
0.0
 20
0.0
 30
0.0
  3
_D
  1

  0
SOLID
  5
188
330
185
100
AcDbEntity
  8
DIM
100
AcDbTrace
 10
48.0275878031
 20
175.170667767
 30
0.0
 11
50.0275878031
 21
174.920667767
 31
0.0
 12
50.0275878031
 22
175.420667767
 32
0.0
 13
50.0275878031
 23
175.420667767
 33
0.0
  0
SOLID
  5
189
330
185
100
AcDbEntity
  8
DIM
100
AcDbTrace
 10
66.7775878031
 20
175.170667767
 30
0.0
 11
64.7775878031
 21
175.420667767
 31
0.0
 12
64.7775878031
 22
174.920667767
 32
0.0
 13
64.7775878031
 23
174.920667767
 33
0.0
  0
LINE
  5
18A
330
185
100
AcDbEntity
  8
DIM
100
AcDbLine
 10
48.0275878031
 20
161.8447288024
 30
0.0
 11
48.0275878031
 21
176.170667767
 31
0.0
  0
LINE
  5
18B
330
185
100
AcDbEntity
  8
DIM
100
AcDbLine
 10
66.7775878031
 20
153.9447288024
 30
0.0
 11
66.7775878031
 21
176.170667767
 31
0.0
  0
LINE
  5
18C
330
185
100
AcDbEntity
  8
DIM
100
AcDbLine
 10
48.0275878031
 20
175.170667767
 30
0.0
 11
66.7775878031
 21
175.170667767
 31
0.0
  0
MTEXT
  5
18D
330
185
100
AcDbEntity
  8
DIM
100
AcDbMText
 10
54.0489943978
 20
178.240260206
 30
0.0
 40
2.38125
 41
0.0
 71
     1
 72
     1
  1
18.75
  7
SLDTEXTSTYLE1
 73
     1
 44
1.0
  0
ENDBLK
  5
187
330
185
100
AcDbEntity
  8
0
100
AcDbBlockEnd
  0
BLOCK
  5
190
330
18F
100
AcDbEntity
  8
0
100
AcDbBlockBegin
  2
_D_1
 70
     0
 10
0.0
 20
0.0
 30
0.0
  3
_D_1
  1

  0
SOLID
  5
192
330
18F
100
AcDbEntity
  8
DIM
100
AcDbTrace
 10
66.7775878031
 20
175.170667767
 30
0.0
 11
68.7775878031
 21
174.920667767
 31
0.0
 12
68.7775878031
 22
175.420667767
 32
0.0
 13
68.7775878031
 23
175.420667767
 33
0.0
  0
SOLID
  5
193
330
18F
100
AcDbEntity
  8
DIM
100
AcDbTrace
 10
85.5275878031
 20
175.170667767
 30
0.0
 11
83.5275878031
 21
175.420667767
 31
0.0
 12
83.5275878031
 22
174.920667767
 32
0.0
 13
83.5275878031
 23
174.920667767
 33
0.0
  0
LINE
  5
194
330
18F
100
AcDbEntity
  8
DIM
100
AcDbLine
 10
66.7775878031
 20
153.9447288024
 30
0.0
 11
66.7775878031
 21
176.170667767
 31
0.0
  0
LINE
  5
195
330
18F
100
AcDbEntity
  8
DIM
100
AcDbLine
 10
85.5275878031
 20
161.8447288024
 30
0.0
 11
85.5275878031
 21
176.170667767
 31
0.0
  0
LINE
  5
196
330
18F
100
AcDbEntity
  8
DIM
100
AcDbLine
 10
66.7775878031
 20
175.170667767
 30
0.0
 11
85.5275878031
 21
175.170667767
 31
0.0
  0
MTEXT
  5
197
330
18F
100
AcDbEntity
  8
DIM
100
AcDbMText
 10
72.7989943978
 20
178.240260206
 30
0.0
 40
2.38125
 41
0.0
 71
     1
 72
     1
  1
18.75
  7
SLDTEXTSTYLE1
 73
     1
 44
1.0
  0
ENDBLK
  5
191
330
18F
100
AcDbEntity
  8
0
100
AcDbBlockEnd
  0
BLOCK
  5
19A
330
199
100
AcDbEntity
  8
0
100
AcDbBlockBegin
  2
_D_2
 70
     0
 10
0.0
 20
0.0
 30
0.0
  3
_D_2
  1

  0
SOLID
  5
19C
330
199
100
AcDbEntity
  8
DIM
100
AcDbTrace
 10
41.7775878031
 20
179.5921394005
 30
0.0
 11
43.7775878031
 21
179.3421394005
 31
0.0
 12
43.7775878031
 22
179.8421394005
 32
0.0
 13
43.7775878031
 23
179.8421394005
 33
0.0
  0
SOLID
  5
19D
330
199
100
AcDbEntity
  8
DIM
100
AcDbTrace
 10
91.7775878031
 20
179.5921394005
 30
0.0
 11
89.7775878031
 21
179.8421394005
 31
0.0
 12
89.7775878031
 22
179.3421394005
 32
0.0
 13
89.7775878031
 23
179.3421394005
 33
0.0
  0
LINE
  5
19E
330
199
100
AcDbEntity
  8
DIM
100
AcDbLine
 10
41.7775878031
 20
163.4447288024
 30
0.0
 11
41.7775878031
 21
180.5921394005
 31
0.0
  0
LINE
  5
19F
330
199
100
AcDbEntity
  8
DIM
100
AcDbLine
 10
91.7775878031
 20
163.4447288024
 30
0.0
 11
91.7775878031
 21
180.5921394005
 31
0.0
  0
LINE
  5
1A0
330
199
100
AcDbEntity
  8
DIM
100
AcDbLine
 10
41.7775878031
 20
179.5921394005
 30
0.0
 11
91.7775878031
 21
179.5921394005
 31
0.0
  0
MTEXT
  5
1A1
330
199
100
AcDbEntity
  8
DIM
100
AcDbMText
 10
65.2871017158
 20
182.6617318394
 30
0.0
 40
2.38125
 41
0.0
 71
     1
 72
     1
  1
50
  7
SLDTEXTSTYLE1
 73
     1
 44
1.0
  0
ENDBLK
  5
19B
330
199
100
AcDbEntity
  8
0
100
AcDbBlockEnd
  0
BLOCK
  5
1A4
330
1A3
100
AcDbEntity
  8
0
100
AcDbBlockBegin
  2
_D_3
 70
     0
 10
0.0
 20
0.0
 30
0.0
  3
_D_3
  1

  0
SOLID
  5
1A6
330
1A3
100
AcDbEntity
  8
DIM
100
AcDbTrace
 10
106.9249984012
 20
158.1947288024
 30
0.0
 11
106.6749984012
 21
156.1947288024
 31
0.0
 12
107.1749984012
 22
156.1947288024
 32
0.0
 13
107.1749984012
 23
156.1947288024
 33
0.0
  0
SOLID
  5
1A7
330
1A3
100
AcDbEntity
  8
DIM
100
AcDbTrace
 10
106.9249984012
 20
139.4447288024
 30
0.0
 11
107.1749984012
 21
141.4447288024
 31
0.0
 12
106.6749984012
 22
141.4447288024
 32
0.0
 13
106.6749984012
 23
141.4447288024
 33
0.0
  0
LINE
  5
1A8
330
1A3
100
AcDbEntity
  8
DIM
100
AcDbLine
 10
89.1775878031
 20
158.1947288024
 30
0.0
 11
107.9249984012
 21
158.1947288024
 31
0.0
  0
LINE
  5
1A9
330
1A3
100
AcDbEntity
  8
DIM
100
AcDbLine
 10
81.2775878031
 20
139.4447288024
 30
0.0
 11
107.9249984012
 21
139.4447288024
 31
0.0
  0
LINE
  5
1AA
330
1A3
100
AcDbEntity
  8
DIM
100
AcDbLine
 10
106.9249984012
 20
158.1947288024
 30
0.0
 11
106.9249984012
 21
139.4447288024
 31
0.0
  0
MTEXT
  5
1AB
330
1A3
100
AcDbEntity
  8
DIM
100
AcDbMText
 10
103.8554059623
 20
145.466135397
 30
0.0
 40
2.38125
 41
0.0
 71
     1
 72
     1
  1
18.75
  7
SLDTEXTSTYLE1
 11
-7.044195017643634E-15
 21
1.0
 31
0.0
 73
     1
 44
1.0
  0
ENDBLK
  5
1A5
330
1A3
100
AcDbEntity
  8
0
100
AcDbBlockEnd
  0
BLOCK
  5
1AE
330
1AD
100
AcDbEntity
  8
0
100
AcDbBlockBegin
  2
_D_4
 70
     0
 10
0.0
 20
0.0
 30
0.0
  3
_D_4
  1

  0
SOLID
  5
1B0
330
1AD
100
AcDbEntity
  8
DIM
100
AcDbTrace
 10
106.9249984012
 20
139.4447288024
 30
0.0
 11
106.6749984012
 21
137.4447288024
 31
0.0
 12
107.1749984012
 22
137.4447288024
 32
0.0
 13
107.1749984012
 23
137.4447288024
 33
0.0
  0
SOLID
  5
1B1
330
1AD
100
AcDbEntity
  8
DIM
100
AcDbTrace
 10
106.9249984012
 20
120.6947288024
 30
0.0
 11
107.1749984012
 21
122.6947288024
 31
0.0
 12
106.6749984012
 22
122.6947288024
 32
0.0
 13
106.6749984012
 23
122.6947288024
 33
0.0
  0
LINE
  5
1B2
330
1AD
100
AcDbEntity
  8
DIM
100
AcDbLine
 10
81.2775878031
 20
139.4447288024
 30
0.0
 11
107.9249984012
 21
139.4447288024
 31
0.0
  0
LINE
  5
1B3
330
1AD
100
AcDbEntity
  8
DIM
100
AcDbLine
 10
89.1775878031
 20
120.6947288024
 30
0.0
 11
107.9249984012
 21
120.6947288024
 31
0.0
  0
LINE
  5
1B4
330
1AD
100
AcDbEntity
  8
DIM
100
AcDbLine
 10
106.9249984012
 20
139.4447288024
 30
0.0
 11
106.9249984012
 21
120.6947288024
 31
0.0
  0
MTEXT
  5
1B5
330
1AD
100
AcDbEntity
  8
DIM
100
AcDbMText
 10
103.8554059623
 20
126.716135397
 30
0.0
 40
2.38125
 41
0.0
 71
     1
 72
     1
  1
18.75
  7
SLDTEXTSTYLE1
 11
-7.044195017643634E-15
 21
1.0
 31
0.0
 73
     1
 44
1.0
  0
ENDBLK
  5
1AF
330
1AD
100
AcDbEntity
  8
0
100
AcDbBlockEnd
  0
BLOCK
  5
1B8
330
1B7
100
AcDbEntity
  8
0
100
AcDbBlockBegin
  2
_D_5
 70
     0
 10
0.0
 20
0.0
 30
0.0
  3
_D_5
  1

  0
SOLID
  5
1BA
330
1B7
100
AcDbEntity
  8
DIM
100
AcDbTrace
 10
111.9249984012
 20
164.4447288024
 30
0.0
 11
111.6749984012
 21
162.4447288024
 31
0.0
 12
112.1749984012
 22
162.4447288024
 32
0.0
 13
112.1749984012
 23
162.4447288024
 33
0.0
  0
SOLID
  5
1BB
330
1B7
100
AcDbEntity
  8
DIM
100
AcDbTrace
 10
111.9249984012
 20
139.4447288024
 30
0.0
 11
112.1749984012
 21
141.4447288024
 31
0.0
 12
111.6749984012
 22
141.4447288024
 32
0.0
 13
111.6749984012
 23
141.4447288024
 33
0.0
  0
LINE
  5
1BC
330
1B7
100
AcDbEntity
  8
DIM
100
AcDbLine
 10
90.7775878031
 20
164.4447288024
 30
0.0
 11
112.9249984012
 21
164.4447288024
 31
0.0
  0
LINE
  5
1BD
330
1B7
100
AcDbEntity
  8
DIM
100
AcDbLine
 10
81.2775878031
 20
139.4447288024
 30
0.0
 11
112.9249984012
 21
139.4447288024
 31
0.0
  0
LINE
  5
1BE
330
1B7
100
AcDbEntity
  8
DIM
100
AcDbLine
 10
111.9249984012
 20
164.4447288024
 30
0.0
 11
111.9249984012
 21
139.4447288024
 31
0.0
  0
MTEXT
  5
1BF
330
1B7
100
AcDbEntity
  8
DIM
100
AcDbMText
 10
108.8554059623
 20
150.4542427151
 30
0.0
 40
2.38125
 41
0.0
 71
     1
 72
     1
  1
25
  7
SLDTEXTSTYLE1
 11
-1.414962237524464E-14
 21
1.0
 31
0.0
 73
     1
 44
1.0
  0
ENDBLK
  5
1B9
330
1B7
100
AcDbEntity
  8
0
100
AcDbBlockEnd
  0
BLOCK
  5
1C2
330
1C1
100
AcDbEntity
  8
0
100
AcDbBlockBegin
  2
_D_6
 70
     0
 10
0.0
 20
0.0
 30
0.0
  3
_D_6
  1

  0
SOLID
  5
1C4
330
1C1
100
AcDbEntity
  8
DIM
100
AcDbTrace
 10
116.9249984012
 20
164.4447288024
 30
0.0
 11
116.6749984012
 21
162.4447288024
 31
0.0
 12
117.1749984012
 22
162.4447288024
 32
0.0
 13
117.1749984012
 23
162.4447288024
 33
0.0
  0
SOLID
  5
1C5
330
1C1
100
AcDbEntity
  8
DIM
100
AcDbTrace
 10
116.9249984012
 20
104.4447288024
 30
0.0
 11
117.1749984012
 21
106.4447288024
 31
0.0
 12
116.6749984012
 22
106.4447288024
 32
0.0
 13
116.6749984012
 23
106.4447288024
 33
0.0
  0
LINE
  5
1C6
330
1C1
100
AcDbEntity
  8
DIM
100
AcDbLine
 10
90.7775878031
 20
164.4447288024
 30
0.0
 11
117.9249984012
 21
164.4447288024
 31
0.0
  0
LINE
  5
1C7
330
1C1
100
AcDbEntity
  8
DIM
100
AcDbLine
 10
90.7775878031
 20
104.4447288024
 30
0.0
 11
117.9249984012
 21
104.4447288024
 31
0.0
  0
LINE
  5
1C8
330
1C1
100
AcDbEntity
  8
DIM
100
AcDbLine
 10
116.9249984012
 20
164.4447288024
 30
0.0
 11
116.9249984012
 21
104.4447288024
 31
0.0
  0
MTEXT
  5
1C9
330
1C1
100
AcDbEntity
  8
DIM
100
AcDbMText
 10
113.8554059623
 20
132.9542427151
 30
0.0
 40
2.38125
 41
0.0
 71
     1
 72
     1
  1
60
  7
SLDTEXTSTYLE1
 11
-1.414962237524464E-14
 21
1.0
 31
0.0
 73
     1
 44
1.0
  0
ENDBLK
  5
1C3
330
1C1
100
AcDbEntity
  8
0
100
AcDbBlockEnd
  0
BLOCK
  5
1CD
330
1CC
100
AcDbEntity
  8
0
100
AcDbBlockBegin
  2
_D_7
 70
     0
 10
0.0
 20
0.0
 30
0.0
  3
_D_7
  1

  0
SOLID
  5
1CF
330
1CC
100
AcDbEntity
  8
DIM
100
AcDbTrace
 10
69.8367525085
 20
134.2831872395
 30
0.0
 11
70.6414098452
 21
132.4352081892
 31
0.0
 12
71.0715383088
 22
132.6901385813
 32
0.0
 13
71.0715383088
 23
132.6901385813
 33
0.0
  0
LINE
  5
1D0
330
1CC
100
AcDbEntity
  8
DIM
100
AcDbLine
 10
69.8367525085
 20
134.2831872395
 30
0.0
 11
98.6503120852
 21
85.6678298953
 31
0.0
  0
LINE
  5
1D1
330
1CC
100
AcDbEntity
  8
DIM
100
AcDbLine
 10
98.6503120852
 20
85.6678298953
 30
0.0
 11
138.820520897
 21
85.6678298953
 31
0.0
  0
MTEXT
  5
1D2
330
1CC
100
AcDbEntity
  8
DIM
100
AcDbMText
 10
99.9003120852
 20
88.7374223342
 30
0.0
 40
2.38125
 41
0.0
 71
     1
 72
     1
  1
Aperture diameter in 0 to 25mm
  7
SLDTEXTSTYLE1
 73
     1
 44
1.0
  0
ENDBLK
  5
1CE
330
1CC
100
AcDbEntity
  8
0
100
AcDbBlockEnd
  0
BLOCK
  5
1D4
330
1D3
100
AcDbEntity
  8
0
100
AcDbBlockBegin
  2
SW_CENTERMARKSYMBOL_0
 70
     0
 10
0.0
 20
0.0
 30
0.0
  3
SW_CENTERMARKSYMBOL_0
  1

  0
LINE
  5
1D6
330
1D3
100
AcDbEntity
  8
DIM
 62
     0
100
AcDbLine
 10
0.0
 20
0.0
 30
0.0
 11
0.0
 21
1.0
 31
0.0
  0
LINE
  5
1D7
330
1D3
100
AcDbEntity
  8
DIM
 62
     0
100
AcDbLine
 10
0.0
 20
0.0
 30
0.0
 11
-1.0
 21
0.0
 31
0.0
  0
LINE
  5
1D8
330
1D3
100
AcDbEntity
  8
DIM
 62
     0
100
AcDbLine
 10
0.0
 20
0.0
 30
0.0
 11
0.0
 21
-1.0
 31
0.0
  0
LINE
  5
1D9
330
1D3
100
AcDbEntity
  8
DIM
 62
     0
100
AcDbLine
 10
0.0
 20
0.0
 30
0.0
 11
1.0
 21
0.0
 31
0.0
  0
LINE
  5
1DA
330
1D3
100
AcDbEntity
  8
DIM
 62
     0
100
AcDbLine
 10
0.0
 20
2.0
 30
0.0
 11
0.0
 21
2.65
 31
0.0
  0
LINE
  5
1DB
330
1D3
100
AcDbEntity
  8
DIM
 62
     0
100
AcDbLine
 10
-2.0
 20
0.0
 30
0.0
 11
-2.65
 21
0.0
 31
0.0
  0
LINE
  5
1DC
330
1D3
100
AcDbEntity
  8
DIM
 62
     0
100
AcDbLine
 10
0.0
 20
-2.0
 30
0.0
 11
0.0
 21
-2.65
 31
0.0
  0
LINE
  5
1DD
330
1D3
100
AcDbEntity
  8
DIM
 62
     0
100
AcDbLine
 10
2.0
 20
0.0
 30
0.0
 11
2.65
 21
0.0
 31
0.0
  0
ENDBLK
  5
1D5
330
1D3
100
AcDbEntity
  8
0
100
AcDbBlockEnd
  0
BLOCK
  5
1E0
330
1DF
100
AcDbEntity
  8
0
100
AcDbBlockBegin
  2
SW_CENTERMARKSYMBOL_1
 70
     0
 10
0.0
 20
0.0
 30
0.0
  3
SW_CENTERMARKSYMBOL_1
  1

  0
LINE
  5
1E2
330
1DF
100
AcDbEntity
  8
DIM
 62
     0
100
AcDbLine
 10
0.0
 20
0.0
 30
0.0
 11
0.0
 21
1.0
 31
0.0
  0
LINE
  5
1E3
330
1DF
100
AcDbEntity
  8
DIM
 62
     0
100
AcDbLine
 10
0.0
 20
0.0
 30
0.0
 11
-1.0
 21
0.0
 31
0.0
  0
LINE
  5
1E4
330
1DF
100
AcDbEntity
  8
DIM
 62
     0
100
AcDbLine
 10
0.0
 20
0.0
 30
0.0
 11
0.0
 21
-1.0
 31
0.0
  0
LINE
  5
1E5
330
1DF
100
AcDbEntity
  8
DIM
 62
     0
100
AcDbLine
 10
0.0
 20
0.0
 30
0.0
 11
1.0
 21
0.0
 31
0.0
  0
LINE
  5
1E6
330
1DF
100
AcDbEntity
  8
DIM
 62
     0
100
AcDbLine
 10
0.0
 20
2.0
 30
0.0
 11
0.0
 21
2.65
 31
0.0
  0
LINE
  5
1E7
330
1DF
100
AcDbEntity
  8
DIM
 62
     0
100
AcDbLine
 10
-2.0
 20
0.0
 30
0.0
 11
-2.65
 21
0.0
 31
0.0
  0
LINE
  5
1E8
330
1DF
100
AcDbEntity
  8
DIM
 62
     0
100
AcDbLine
 10
0.0
 20
-2.0
 30
0.0
 11
0.0
 21
-2.65
 31
0.0
  0
LINE
  5
1E9
330
1DF
100
AcDbEntity
  8
DIM
 62
     0
100
AcDbLine
 10
2.0
 20
0.0
 30
0.0
 11
2.65
 21
0.0
 31
0.0
  0
ENDBLK
  5
1E1
330
1DF
100
AcDbEntity
  8
0
100
AcDbBlockEnd
  0
BLOCK
  5
1EC
330
1EB
100
AcDbEntity
  8
0
100
AcDbBlockBegin
  2
SW_CENTERMARKSYMBOL_2
 70
     0
 10
0.0
 20
0.0
 30
0.0
  3
SW_CENTERMARKSYMBOL_2
  1

  0
LINE
  5
1EE
330
1EB
100
AcDbEntity
  8
DIM
 62
     0
100
AcDbLine
 10
0.0
 20
0.0
 30
0.0
 11
0.0
 21
1.0
 31
0.0
  0
LINE
  5
1EF
330
1EB
100
AcDbEntity
  8
DIM
 62
     0
100
AcDbLine
 10
0.0
 20
0.0
 30
0.0
 11
-1.0
 21
0.0
 31
0.0
  0
LINE
  5
1F0
330
1EB
100
AcDbEntity
  8
DIM
 62
     0
100
AcDbLine
 10
0.0
 20
0.0
 30
0.0
 11
0.0
 21
-1.0
 31
0.0
  0
LINE
  5
1F1
330
1EB
100
AcDbEntity
  8
DIM
 62
     0
100
AcDbLine
 10
0.0
 20
0.0
 30
0.0
 11
1.0
 21
0.0
 31
0.0
  0
LINE
  5
1F2
330
1EB
100
AcDbEntity
  8
DIM
 62
     0
100
AcDbLine
 10
0.0
 20
2.0
 30
0.0
 11
0.0
 21
2.65
 31
0.0
  0
LINE
  5
1F3
330
1EB
100
AcDbEntity
  8
DIM
 62
     0
100
AcDbLine
 10
-2.0
 20
0.0
 30
0.0
 11
-2.65
 21
0.0
 31
0.0
  0
LINE
  5
1F4
330
1EB
100
AcDbEntity
  8
DIM
 62
     0
100
AcDbLine
 10
0.0
 20
-2.0
 30
0.0
 11
0.0
 21
-2.65
 31
0.0
  0
LINE
  5
1F5
330
1EB
100
AcDbEntity
  8
DIM
 62
     0
100
AcDbLine
 10
2.0
 20
0.0
 30
0.0
 11
2.65
 21
0.0
 31
0.0
  0
ENDBLK
  5
1ED
330
1EB
100
AcDbEntity
  8
0
100
AcDbBlockEnd
  0
BLOCK
  5
1F8
330
1F7
100
AcDbEntity
  8
0
100
AcDbBlockBegin
  2
SW_CENTERMARKSYMBOL_3
 70
     0
 10
0.0
 20
0.0
 30
0.0
  3
SW_CENTERMARKSYMBOL_3
  1

  0
LINE
  5
1FA
330
1F7
100
AcDbEntity
  8
DIM
 62
     0
100
AcDbLine
 10
0.0
 20
0.0
 30
0.0
 11
0.0
 21
1.0
 31
0.0
  0
LINE
  5
1FB
330
1F7
100
AcDbEntity
  8
DIM
 62
     0
100
AcDbLine
 10
0.0
 20
0.0
 30
0.0
 11
-1.0
 21
0.0
 31
0.0
  0
LINE
  5
1FC
330
1F7
100
AcDbEntity
  8
DIM
 62
     0
100
AcDbLine
 10
0.0
 20
0.0
 30
0.0
 11
0.0
 21
-1.0
 31
0.0
  0
LINE
  5
1FD
330
1F7
100
AcDbEntity
  8
DIM
 62
     0
100
AcDbLine
 10
0.0
 20
0.0
 30
0.0
 11
1.0
 21
0.0
 31
0.0
  0
LINE
  5
1FE
330
1F7
100
AcDbEntity
  8
DIM
 62
     0
100
AcDbLine
 10
0.0
 20
2.0
 30
0.0
 11
0.0
 21
2.65
 31
0.0
  0
LINE
  5
1FF
330
1F7
100
AcDbEntity
  8
DIM
 62
     0
100
AcDbLine
 10
-2.0
 20
0.0
 30
0.0
 11
-2.65
 21
0.0
 31
0.0
  0
LINE
  5
200
330
1F7
100
AcDbEntity
  8
DIM
 62
     0
100
AcDbLine
 10
0.0
 20
-2.0
 30
0.0
 11
0.0
 21
-2.65
 31
0.0
  0
LINE
  5
201
330
1F7
100
AcDbEntity
  8
DIM
 62
     0
100
AcDbLine
 10
2.0
 20
0.0
 30
0.0
 11
2.65
 21
0.0
 31
0.0
  0
ENDBLK
  5
1F9
330
1F7
100
AcDbEntity
  8
0
100
AcDbBlockEnd
  0
BLOCK
  5
204
330
203
100
AcDbEntity
  8
0
100
AcDbBlockBegin
  2
SW_CENTERMARKSYMBOL_4
 70
     0
 10
0.0
 20
0.0
 30
0.0
  3
SW_CENTERMARKSYMBOL_4
  1

  0
LINE
  5
206
330
203
100
AcDbEntity
  8
DIM
 62
     0
100
AcDbLine
 10
0.0
 20
0.0
 30
0.0
 11
0.0
 21
1.0
 31
0.0
  0
LINE
  5
207
330
203
100
AcDbEntity
  8
DIM
 62
     0
100
AcDbLine
 10
0.0
 20
0.0
 30
0.0
 11
-1.0
 21
0.0
 31
0.0
  0
LINE
  5
208
330
203
100
AcDbEntity
  8
DIM
 62
     0
100
AcDbLine
 10
0.0
 20
0.0
 30
0.0
 11
0.0
 21
-1.0
 31
0.0
  0
LINE
  5
209
330
203
100
AcDbEntity
  8
DIM
 62
     0
100
AcDbLine
 10
0.0
 20
0.0
 30
0.0
 11
1.0
 21
0.0
 31
0.0
  0
LINE
  5
20A
330
203
100
AcDbEntity
  8
DIM
 62
     0
100
AcDbLine
 10
0.0
 20
2.0
 30
0.0
 11
0.0
 21
13.5
 31
0.0
  0
LINE
  5
20B
330
203
100
AcDbEntity
  8
DIM
 62
     0
100
AcDbLine
 10
-2.0
 20
0.0
 30
0.0
 11
-13.5
 21
0.0
 31
0.0
  0
LINE
  5
20C
330
203
100
AcDbEntity
  8
DIM
 62
     0
100
AcDbLine
 10
0.0
 20
-2.0
 30
0.0
 11
0.0
 21
-13.5
 31
0.0
  0
LINE
  5
20D
330
203
100
AcDbEntity
  8
DIM
 62
     0
100
AcDbLine
 10
2.0
 20
0.0
 30
0.0
 11
13.5
 21
0.0
 31
0.0
  0
ENDBLK
  5
205
330
203
100
AcDbEntity
  8
0
100
AcDbBlockEnd
  0
BLOCK
  5
24A
330
249
100
AcDbEntity
  8
0
100
AcDbBlockBegin
  2
_D_8
 70
     0
 10
0.0
 20
0.0
 30
0.0
  3
_D_8
  1

  0
SOLID
  5
24C
330
249
100
AcDbEntity
  8
DIM
100
AcDbTrace
 10
148.1063951549
 20
97.4447288024
 30
0.0
 11
150.1063951549
 21
97.1947288024
 31
0.0
 12
150.1063951549
 22
97.6947288024
 32
0.0
 13
150.1063951549
 23
97.6947288024
 33
0.0
  0
SOLID
  5
24D
330
249
100
AcDbEntity
  8
DIM
100
AcDbTrace
 10
166.1063951549
 20
97.4447288024
 30
0.0
 11
164.1063951549
 21
97.6947288024
 31
0.0
 12
164.1063951549
 22
97.1947288024
 32
0.0
 13
164.1063951549
 23
97.1947288024
 33
0.0
  0
LINE
  5
24E
330
249
100
AcDbEntity
  8
DIM
100
AcDbLine
 10
148.1063951549
 20
103.4447288024
 30
0.0
 11
148.1063951549
 21
96.4447288024
 31
0.0
  0
LINE
  5
24F
330
249
100
AcDbEntity
  8
DIM
100
AcDbLine
 10
166.1063951549
 20
103.4447288024
 30
0.0
 11
166.1063951549
 21
96.4447288024
 31
0.0
  0
LINE
  5
250
330
249
100
AcDbEntity
  8
DIM
100
AcDbLine
 10
148.1063951549
 20
97.4447288024
 30
0.0
 11
166.1063951549
 21
97.4447288024
 31
0.0
  0
MTEXT
  5
251
330
249
100
AcDbEntity
  8
DIM
100
AcDbMText
 10
155.6159090676
 20
100.5143212413
 30
0.0
 40
2.38125
 41
0.0
 71
     1
 72
     1
  1
18
  7
SLDTEXTSTYLE1
 73
     1
 44
1.0
  0
ENDBLK
  5
24B
330
249
100
AcDbEntity
  8
0
100
AcDbBlockEnd
  0
BLOCK
  5
254
330
253
100
AcDbEntity
  8
0
100
AcDbBlockBegin
  2
_D_9
 70
     0
 10
0.0
 20
0.0
 30
0.0
  3
_D_9
  1

  0
SOLID
  5
256
330
253
100
AcDbEntity
  8
DIM
100
AcDbTrace
 10
148.1063951549
 20
92.4447288024
 30
0.0
 11
150.1063951549
 21
92.1947288024
 31
0.0
 12
150.1063951549
 22
92.6947288024
 32
0.0
 13
150.1063951549
 23
92.6947288024
 33
0.0
  0
SOLID
  5
257
330
253
100
AcDbEntity
  8
DIM
100
AcDbTrace
 10
200.5063951549
 20
92.4447288024
 30
0.0
 11
198.5063951549
 21
92.6947288024
 31
0.0
 12
198.5063951549
 22
92.1947288024
 32
0.0
 13
198.5063951549
 23
92.1947288024
 33
0.0
  0
LINE
  5
258
330
253
100
AcDbEntity
  8
DIM
100
AcDbLine
 10
148.1063951549
 20
103.4447288024
 30
0.0
 11
148.1063951549
 21
91.4447288024
 31
0.0
  0
LINE
  5
259
330
253
100
AcDbEntity
  8
DIM
100
AcDbLine
 10
200.5063951549
 20
106.1031971734
 30
0.0
 11
200.5063951549
 21
91.4447288024
 31
0.0
  0
LINE
  5
25A
330
253
100
AcDbEntity
  8
DIM
100
AcDbLine
 10
148.1063951549
 20
92.4447288024
 30
0.0
 11
200.5063951549
 21
92.4447288024
 31
0.0
  0
MTEXT
  5
25B
330
253
100
AcDbEntity
  8
DIM
100
AcDbMText
 10
171.6980446767
 20
95.5143212413
 30
0.0
 40
2.38125
 41
0.0
 71
     1
 72
     1
  1
52.4
  7
SLDTEXTSTYLE1
 73
     1
 44
1.0
  0
ENDBLK
  5
255
330
253
100
AcDbEntity
  8
0
100
AcDbBlockEnd
  0
BLOCK
  5
333
330
332
100
AcDbEntity
  8
0
100
AcDbBlockBegin
  2
SW_RADIAL_DIMENSION_0
 70
     0
 10
0.0
 20
0.0
 30
0.0
  3
SW_RADIAL_DIMENSION_0
  1

  0
SOLID
  5
335
330
332
100
AcDbEntity
  8
DIM
 62
     0
100
AcDbTrace
 10
-20.223233098
 20
15.79823302
 30
0.0
 11
-18.985796231
 21
14.2072427623
 31
0.0
 12
-18.6322428404
 22
14.5607961529
 32
0.0
 13
-18.6322428404
 23
14.5607961529
 33
0.0
  0
LINE
  5
336
330
332
100
AcDbEntity
  8
DIM
 62
     0
100
AcDbLine
 10
-20.223233098
 20
15.79823302
 30
0.0
 11
-1.25
 21
-3.175000078
 31
0.0
  0
LINE
  5
337
330
332
100
AcDbEntity
  8
DIM
 62
     0
100
AcDbLine
 10
-1.25
 20
-3.175000078
 30
0.0
 11
11.0066672787
 21
-3.175000078
 31
0.0
  0
MTEXT
  5
338
330
332
100
AcDbEntity
  8
DIM
 62
     0
100
AcDbMText
 10
0.0
 20
3.0695925553
 30
0.0
 40
2.38125
 41
0.0
 71
     1
 72
     1
  1
1 HOLE,
  7
SLDTEXTSTYLE1
 73
     1
 44
1.0
  0
MTEXT
  5
339
330
332
100
AcDbEntity
  8
DIM
 62
     0
100
AcDbMText
 10
1.6095489264
 20
-0.1054074063
 30
0.0
 40
2.38125
 41
0.0
 71
     1
 72
     1
  1
1/4-20
  7
SLDTEXTSTYLE1
 73
     1
 44
1.0
  0
ENDBLK
  5
334
330
332
100
AcDbEntity
  8
0
100
AcDbBlockEnd
  0
BLOCK
  5
33E
330
33D
100
AcDbEntity
  8
0
100
AcDbBlockBegin
  2
_D_10
 70
     0
 10
0.0
 20
0.0
 30
0.0
  3
_D_10
  1

  0
SOLID
  5
340
330
33D
100
AcDbEntity
  8
DIM
100
AcDbTrace
 10
26.630177205
 20
73.5841420316
 30
0.0
 11
26.380177205
 21
71.5841420316
 31
0.0
 12
26.880177205
 22
71.5841420316
 32
0.0
 13
26.880177205
 23
71.5841420316
 33
0.0
  0
SOLID
  5
341
330
33D
100
AcDbEntity
  8
DIM
100
AcDbTrace
 10
26.630177205
 20
81.0841420316
 30
0.0
 11
26.880177205
 21
83.0841420316
 31
0.0
 12
26.380177205
 22
83.0841420316
 32
0.0
 13
26.380177205
 23
83.0841420316
 33
0.0
  0
LINE
  5
342
330
33D
100
AcDbEntity
  8
DIM
100
AcDbLine
 10
62.2775878031
 20
73.5841420316
 30
0.0
 11
25.630177205
 21
73.5841420316
 31
0.0
  0
LINE
  5
343
330
33D
100
AcDbEntity
  8
DIM
100
AcDbLine
 10
40.7775878031
 20
81.0841420316
 30
0.0
 11
25.630177205
 21
81.0841420316
 31
0.0
  0
LINE
  5
344
330
33D
100
AcDbEntity
  8
DIM
100
AcDbLine
 10
26.630177205
 20
73.5841420316
 30
0.0
 11
26.630177205
 21
70.5841420316
 31
0.0
  0
LINE
  5
345
330
33D
100
AcDbEntity
  8
DIM
100
AcDbLine
 10
26.630177205
 20
73.5841420316
 30
0.0
 11
26.630177205
 21
81.0841420316
 31
0.0
  0
LINE
  5
346
330
33D
100
AcDbEntity
  8
DIM
100
AcDbLine
 10
26.630177205
 20
81.0841420316
 30
0.0
 11
26.630177205
 21
84.0841420316
 31
0.0
  0
MTEXT
  5
347
330
33D
100
AcDbEntity
  8
DIM
100
AcDbMText
 10
23.5605847661
 20
75.4710343643
 30
0.0
 40
2.38125
 41
0.0
 71
     1
 72
     1
  1
7.5
  7
SLDTEXTSTYLE1
 11
6.123233995736766E-17
 21
1.0
 31
0.0
 73
     1
 44
1.0
  0
ENDBLK
  5
33F
330
33D
100
AcDbEntity
  8
0
100
AcDbBlockEnd
  0
BLOCK
  5
349
330
348
100
AcDbEntity
  8
0
100
AcDbBlockBegin
  2
SW_CENTERMARKSYMBOL_5
 70
     0
 10
0.0
 20
0.0
 30
0.0
  3
SW_CENTERMARKSYMBOL_5
  1

  0
LINE
  5
34B
330
348
100
AcDbEntity
  8
DIM
 62
     0
100
AcDbLine
 10
0.0
 20
0.0
 30
0.0
 11
0.0
 21
1.0
 31
0.0
  0
LINE
  5
34C
330
348
100
AcDbEntity
  8
DIM
 62
     0
100
AcDbLine
 10
0.0
 20
0.0
 30
0.0
 11
-1.0
 21
0.0
 31
0.0
  0
LINE
  5
34D
330
348
100
AcDbEntity
  8
DIM
 62
     0
100
AcDbLine
 10
0.0
 20
0.0
 30
0.0
 11
0.0
 21
-1.0
 31
0.0
  0
LINE
  5
34E
330
348
100
AcDbEntity
  8
DIM
 62
     0
100
AcDbLine
 10
0.0
 20
0.0
 30
0.0
 11
1.0
 21
0.0
 31
0.0
  0
LINE
  5
34F
330
348
100
AcDbEntity
  8
DIM
 62
     0
100
AcDbLine
 10
0.0
 20
2.0
 30
0.0
 11
0.0
 21
3.5
 31
0.0
  0
LINE
  5
350
330
348
100
AcDbEntity
  8
DIM
 62
     0
100
AcDbLine
 10
-2.0
 20
0.0
 30
0.0
 11
-3.5
 21
0.0
 31
0.0
  0
LINE
  5
351
330
348
100
AcDbEntity
  8
DIM
 62
     0
100
AcDbLine
 10
0.0
 20
-2.0
 30
0.0
 11
0.0
 21
-3.5
 31
0.0
  0
LINE
  5
352
330
348
100
AcDbEntity
  8
DIM
 62
     0
100
AcDbLine
 10
2.0
 20
0.0
 30
0.0
 11
3.5
 21
0.0
 31
0.0
  0
ENDBLK
  5
34A
330
348
100
AcDbEntity
  8
0
100
AcDbBlockEnd
  0
ENDSEC
  0
SECTION
  2
ENTITIES
  0
HATCH
  5
89
330
1F
100
AcDbEntity
  8
0
  6
Continuous
 62
     7
100
AcDbHatch
 10
0.0
 20
0.0
 30
0.0
210
0.0
220
0.0
230
1.0
  2
SOLID
 70
     1
 71
     0
 91
        1
 92
        0
 93
       10
 72
     2
 10
192.1405965629367
 20
35.75580880988856
 40
2.989636657769859
 50
50.39692260731407
 51
112.8514693252983
 73
     0
 72
     2
 10
191.815005962812
 20
35.43899828006204
 40
2.577335426817619
 50
108.9134333432861
 51
219.5668234386827
 73
     0
 72
     1
 10
189.8281839389603
 20
37.0807035361501
 11
188.8129900915579
 21
37.97623543696786
 72
     1
 10
188.8129900915579
 20
37.97623543696786
 11
187.5063618366762
 21
36.71464836046036
 72
     2
 10
188.4942467986389
 20
35.54612112772446
 40
1.530154433943661
 50
130.2115225915088
 51
228.5889041080191
 73
     1
 72
     1
 10
187.482115254651
 20
34.39853133629978
 11
191.4913175648466
 21
30.9139274960251
 72
     1
 10
191.4913175648466
 20
30.9139274960251
 11
190.8602656444315
 21
30.29802710555407
 72
     1
 10
190.8602656444315
 20
30.29802710555407
 11
191.852145009157
 21
29.44405283860024
 72
     1
 10
191.852145009157
 20
29.44405283860024
 11
195.0618094435223
 21
32.56063080411572
 72
     1
 10
195.0618094435223
 20
32.56063080411572
 11
194.0463864118641
 21
33.45235653184883
 97
        0
 75
     0
 76
     1
 98
        1
 10
0.0
 20
0.0
  0
HATCH
  5
8A
330
1F
100
AcDbEntity
  8
0
  6
Continuous
 62
     1
100
AcDbHatch
 10
0.0
 20
0.0
 30
0.0
210
0.0
220
0.0
230
1.0
  2
SOLID
 70
     1
 71
     0
 91
        1
 92
        0
 93
       10
 72
     2
 10
192.5892455627688
 20
35.6630691563161
 40
2.57756748834625
 50
317.8184992995785
 51
398.0564711573078
 73
     0
 72
     1
 10
194.6188314058163
 20
34.07415900697447
 11
195.6042802987991
 21
33.21546206708498
 72
     1
 10
195.6042802987991
 20
33.21546206708498
 11
196.8459616135929
 21
34.41989500949219
 72
     2
 10
195.9525692879308
 20
35.64784174131312
 40
1.518552937418265
 50
306.0377529468138
 51
403.4396461533871
 73
     1
 72
     1
 10
197.0551891526031
 20
36.69198371335126
 11
192.9284332942598
 21
40.28115998198521
 72
     1
 10
192.9284332942598
 20
40.28115998198521
 11
193.552684596187
 21
40.89021841282256
 72
     1
 10
193.552684596187
 20
40.89021841282256
 11
192.622178086003
 21
41.72041063266705
 72
     1
 10
192.622178086003
 20
41.72041063266705
 11
189.3865926375931
 21
38.59349038605298
 72
     1
 10
189.3865926375931
 20
38.59349038605298
 11
190.4090005149417
 21
37.70169985893218
 72
     2
 10
192.2715892720444
 20
35.12224735083792
 40
3.181636704527876
 50
234.1674444878512
 51
314.4407074583994
 73
     0
 97
        0
 75
     0
 76
     1
 98
        1
 10
0.0
 20
0.0
  0
LINE
  5
8B
330
1F
100
AcDbEntity
  8
0
  6
Continuous
 62
     7
370
     0
100
AcDbLine
 10
167.8593775185
 20
17.7745192513
 30
0.0
 11
168.8593775185
 21
17.7745192513
 31
0.0
  0
LINE
  5
8C
330
1F
100
AcDbEntity
  8
0
  6
Continuous
 62
     7
370
     0
100
AcDbLine
 10
164.8593775185
 20
17.7745192513
 30
0.0
 11
167.3593775185
 21
17.7745192513
 31
0.0
  0
LINE
  5
8D
330
1F
100
AcDbEntity
  8
0
  6
Continuous
 62
     7
370
     0
100
AcDbLine
 10
181.3593775185
 20
15.2745192513
 30
0.0
 11
181.3593775185
 21
20.2745192513
 31
0.0
  0
LINE
  5
8E
330
1F
100
AcDbEntity
  8
0
  6
Continuous
 62
     7
370
     0
100
AcDbLine
 10
174.3593775185
 20
16.2745192513
 30
0.0
 11
181.3593775185
 21
15.2745192513
 31
0.0
  0
LINE
  5
8F
330
1F
100
AcDbEntity
  8
0
  6
Continuous
 62
     7
370
     0
100
AcDbLine
 10
168.3593775185
 20
16.7745192513
 30
0.0
 11
168.3593775185
 21
14.2745192513
 31
0.0
  0
LINE
  5
90
330
1F
100
AcDbEntity
  8
0
  6
Continuous
 62
     7
370
     0
100
AcDbLine
 10
181.3593775185
 20
20.2745192513
 30
0.0
 11
174.3593775185
 21
19.2745192513
 31
0.0
  0
LINE
  5
91
330
1F
100
AcDbEntity
  8
0
  6
Continuous
 62
     7
370
     0
100
AcDbLine
 10
173.3593775185
 20
17.7745192513
 30
0.0
 11
182.3593775185
 21
17.7745192513
 31
0.0
  0
LINE
  5
92
330
1F
100
AcDbEntity
  8
0
  6
Continuous
 62
     7
370
     0
100
AcDbLine
 10
168.3593775185
 20
18.2745192513
 30
0.0
 11
168.3593775185
 21
17.2745192513
 31
0.0
  0
LINE
  5
93
330
1F
100
AcDbEntity
  8
0
  6
Continuous
 62
     7
370
     0
100
AcDbLine
 10
169.3593775185
 20
17.7745192513
 30
0.0
 11
171.8593775185
 21
17.7745192513
 31
0.0
  0
LINE
  5
94
330
1F
100
AcDbEntity
  8
0
  6
Continuous
 62
     7
370
     0
100
AcDbLine
 10
168.3593775185
 20
21.2745192513
 30
0.0
 11
168.3593775185
 21
18.7745192513
 31
0.0
  0
LINE
  5
95
330
1F
100
AcDbEntity
  8
0
  6
Continuous
 62
     7
370
     0
100
AcDbLine
 10
174.3593775185
 20
19.2745192513
 30
0.0
 11
174.3593775185
 21
16.2745192513
 31
0.0
  0
LINE
  5
96
330
1F
100
AcDbEntity
  8
工作區域參考線
 62
     1
370
    30
100
AcDbLine
 10
190.4090005149
 20
37.7016998589
 30
0.0
 11
189.3865926376
 21
38.5934903861
 31
0.0
  0
LINE
  5
97
330
1F
100
AcDbEntity
  8
工作區域參考線
 62
     1
370
    30
100
AcDbLine
 10
189.3865926376
 20
38.5934903861
 30
0.0
 11
192.622178086
 21
41.7204106327
 31
0.0
  0
LINE
  5
98
330
1F
100
AcDbEntity
  8
工作區域參考線
 62
     1
370
    30
100
AcDbLine
 10
192.622178086
 20
41.7204106327
 30
0.0
 11
193.5526845962
 21
40.8902184128
 31
0.0
  0
LINE
  5
99
330
1F
100
AcDbEntity
  8
工作區域參考線
 62
     1
370
    30
100
AcDbLine
 10
193.5526845962
 20
40.8902184128
 30
0.0
 11
192.9284332943
 21
40.281159982
 31
0.0
  0
LINE
  5
9A
330
1F
100
AcDbEntity
  8
工作區域參考線
 62
     1
370
    30
100
AcDbLine
 10
192.9284332943
 20
40.281159982
 30
0.0
 11
197.0551891526
 21
36.6919837134
 31
0.0
  0
LINE
  5
9B
330
1F
100
AcDbEntity
  8
工作區域參考線
 62
     1
370
    30
100
AcDbLine
 10
194.6188314058
 20
34.074159007
 30
0.0
 11
195.6042802988
 21
33.2154620671
 31
0.0
  0
LINE
  5
9C
330
1F
100
AcDbEntity
  8
工作區域參考線
 62
     1
370
    30
100
AcDbLine
 10
195.6042802988
 20
33.2154620671
 30
0.0
 11
196.8459616136
 21
34.4198950095
 31
0.0
  0
LINE
  5
9D
330
1F
100
AcDbEntity
  8
0
  6
Continuous
 62
     7
370
     0
100
AcDbLine
 10
185.6907965209
 20
13.1152464079
 30
0.0
 11
285.6907965209
 21
13.1152464079
 31
0.0
  0
LINE
  5
9E
330
1F
100
AcDbEntity
  8
0
  6
Continuous
 62
     7
370
     0
100
AcDbLine
 10
185.6907965209
 20
18.1152464079
 30
0.0
 11
235.6907965209
 21
18.1152464079
 31
0.0
  0
LINE
  5
9F
330
1F
100
AcDbEntity
  8
0
  6
Continuous
 62
     7
370
     0
100
AcDbLine
 10
185.6907965209
 20
23.1152464079
 30
0.0
 11
235.6907965209
 21
23.1152464079
 31
0.0
  0
LINE
  5
A0
330
1F
100
AcDbEntity
  8
0
  6
Continuous
 62
     7
370
     0
100
AcDbLine
 10
185.6907965209
 20
28.1152464079
 30
0.0
 11
285.6907965209
 21
28.1152464079
 31
0.0
  0
LINE
  5
A1
330
1F
100
AcDbEntity
  8
0
  6
Continuous
 62
     7
370
     0
100
AcDbLine
 10
235.6907965209
 20
33.1152464079
 30
0.0
 11
285.6907965209
 21
33.1152464079
 31
0.0
  0
LINE
  5
A2
330
1F
100
AcDbEntity
  8
0
  6
Continuous
 62
     7
370
    15
100
AcDbLine
 10
235.6907965209
 20
18.1152464079
 30
0.0
 11
285.6907965209
 21
18.1152464079
 31
0.0
  0
LINE
  5
A3
330
1F
100
AcDbEntity
  8
0
  6
Continuous
 62
     7
370
     0
100
AcDbLine
 10
185.6907965209
 20
43.1152464079
 30
0.0
 11
285.6907965209
 21
43.1152464079
 31
0.0
  0
LINE
  5
A4
330
1F
100
AcDbEntity
  8
0
  6
Continuous
 62
     7
370
     0
100
AcDbLine
 10
251.237217675
 20
8.1152464079
 30
0.0
 11
251.237217675
 21
18.1152464079
 31
0.0
  0
LINE
  5
A5
330
1F
100
AcDbEntity
  8
0
  6
Continuous
 62
     7
370
     0
100
AcDbLine
 10
235.6907965209
 20
8.1152464079
 30
0.0
 11
235.6907965209
 21
43.1152464079
 31
0.0
  0
LINE
  5
A6
330
1F
100
AcDbEntity
  8
0
  6
Continuous
 62
     7
370
     0
100
AcDbLine
 10
251.237217675
 20
28.1152464079
 30
0.0
 11
251.237217675
 21
33.1152464079
 31
0.0
  0
LINE
  5
A7
330
1F
100
AcDbEntity
  8
0
  6
Continuous
 62
     7
370
     0
100
AcDbLine
 10
214.4164086353
 20
8.1152464079
 30
0.0
 11
214.4164086353
 21
28.1152464079
 31
0.0
  0
LINE
  5
A8
330
1F
100
AcDbEntity
  8
0
  6
Continuous
 62
     7
370
     0
100
AcDbLine
 10
199.7785887506
 20
8.1152464079
 30
0.0
 11
199.7785887506
 21
28.1152464079
 31
0.0
  0
LINE
  5
A9
330
1F
100
AcDbEntity
  8
0
  6
Continuous
 62
     7
370
     0
100
AcDbLine
 10
185.6907965209
 20
8.1152464079
 30
0.0
 11
185.6907965209
 21
43.1152464079
 31
0.0
  0
LINE
  5
AA
330
1F
100
AcDbEntity
  8
0
  6
Continuous
 62
     7
370
    15
100
AcDbLine
 10
43.3207965209
 20
201.3720275751
 30
0.0
 11
43.3207965209
 21
202.8720275751
 31
0.0
  0
LINE
  5
AB
330
1F
100
AcDbEntity
  8
0
  6
Continuous
 62
     7
370
    15
100
AcDbLine
 10
77.9507965209
 20
201.3720275751
 30
0.0
 11
77.9507965209
 21
202.8720275751
 31
0.0
  0
LINE
  5
AC
330
1F
100
AcDbEntity
  8
0
  6
Continuous
 62
     7
370
    15
100
AcDbLine
 10
112.5807965209
 20
201.3720275751
 30
0.0
 11
112.5807965209
 21
202.8720275751
 31
0.0
  0
LINE
  5
AD
330
1F
100
AcDbEntity
  8
0
  6
Continuous
 62
     7
370
    15
100
AcDbLine
 10
147.2107965209
 20
201.3720275751
 30
0.0
 11
147.2107965209
 21
202.8720275751
 31
0.0
  0
LINE
  5
AE
330
1F
100
AcDbEntity
  8
0
  6
Continuous
 62
     7
370
    15
100
AcDbLine
 10
181.8407965209
 20
201.3720275751
 30
0.0
 11
181.8407965209
 21
202.8720275751
 31
0.0
  0
LINE
  5
AF
330
1F
100
AcDbEntity
  8
0
  6
Continuous
 62
     7
370
    15
100
AcDbLine
 10
216.4707965209
 20
201.3720275751
 30
0.0
 11
216.4707965209
 21
202.8720275751
 31
0.0
  0
LINE
  5
B0
330
1F
100
AcDbEntity
  8
0
  6
Continuous
 62
     7
370
    15
100
AcDbLine
 10
251.1007965209
 20
201.3720275751
 30
0.0
 11
251.1007965209
 21
202.8720275751
 31
0.0
  0
LINE
  5
B1
330
1F
100
AcDbEntity
  8
0
  6
Continuous
 62
     7
370
    15
100
AcDbLine
 10
43.3157965209
 20
8.1152464079
 30
0.0
 11
43.3157965209
 21
6.6152464079
 31
0.0
  0
LINE
  5
B2
330
1F
100
AcDbEntity
  8
0
  6
Continuous
 62
     7
370
    15
100
AcDbLine
 10
77.9407965209
 20
8.1152464079
 30
0.0
 11
77.9407965209
 21
6.6152464079
 31
0.0
  0
LINE
  5
B3
330
1F
100
AcDbEntity
  8
0
  6
Continuous
 62
     7
370
    15
100
AcDbLine
 10
112.5657965209
 20
8.1152464079
 30
0.0
 11
112.5657965209
 21
6.6152464079
 31
0.0
  0
LINE
  5
B4
330
1F
100
AcDbEntity
  8
0
  6
Continuous
 62
     7
370
    15
100
AcDbLine
 10
147.1907965209
 20
8.1152464079
 30
0.0
 11
147.1907965209
 21
6.6152464079
 31
0.0
  0
LINE
  5
B5
330
1F
100
AcDbEntity
  8
0
  6
Continuous
 62
     7
370
    15
100
AcDbLine
 10
181.8157965209
 20
8.1152464079
 30
0.0
 11
181.8157965209
 21
6.6152464079
 31
0.0
  0
LINE
  5
B6
330
1F
100
AcDbEntity
  8
0
  6
Continuous
 62
     7
370
    15
100
AcDbLine
 10
216.4407965209
 20
8.1152464079
 30
0.0
 11
216.4407965209
 21
6.6152464079
 31
0.0
  0
LINE
  5
B7
330
1F
100
AcDbEntity
  8
0
  6
Continuous
 62
     7
370
     0
100
AcDbLine
 10
285.6907965209
 20
201.3720275751
 30
0.0
 11
8.6907965209
 21
201.3720275751
 31
0.0
  0
LINE
  5
B8
330
1F
100
AcDbEntity
  8
0
  6
Continuous
 62
     7
370
     0
100
AcDbLine
 10
285.6907965209
 20
8.1152464079
 30
0.0
 11
285.6907965209
 21
201.3720275751
 31
0.0
  0
LINE
  5
B9
330
1F
100
AcDbEntity
  8
0
  6
Continuous
 62
     7
370
     0
100
AcDbLine
 10
8.6907965209
 20
201.3720275751
 30
0.0
 11
8.6907965209
 21
8.1152464079
 31
0.0
  0
LINE
  5
BA
330
1F
100
AcDbEntity
  8
0
  6
Continuous
 62
     7
370
     0
100
AcDbLine
 10
8.6907965209
 20
8.1152464079
 30
0.0
 11
285.6907965209
 21
8.1152464079
 31
0.0
  0
LINE
  5
BB
330
1F
100
AcDbEntity
  8
0
  6
Continuous
 62
     7
370
    15
100
AcDbLine
 10
251.0657965209
 20
8.1152464079
 30
0.0
 11
251.0657965209
 21
6.6152464079
 31
0.0
  0
LINE
  5
BC
330
1F
100
AcDbEntity
  8
0
  6
Continuous
 62
     7
370
    15
100
AcDbLine
 10
8.6907965209
 20
40.3252464079
 30
0.0
 11
7.1907965209
 21
40.3252464079
 31
0.0
  0
LINE
  5
BD
330
1F
100
AcDbEntity
  8
0
  6
Continuous
 62
     7
370
    15
100
AcDbLine
 10
8.6907965209
 20
72.5352464079
 30
0.0
 11
7.1907965209
 21
72.5352464079
 31
0.0
  0
LINE
  5
BE
330
1F
100
AcDbEntity
  8
0
  6
Continuous
 62
     7
370
    15
100
AcDbLine
 10
8.6907965209
 20
104.7452464079
 30
0.0
 11
7.1907965209
 21
104.7452464079
 31
0.0
  0
LINE
  5
BF
330
1F
100
AcDbEntity
  8
0
  6
Continuous
 62
     7
370
    15
100
AcDbLine
 10
8.6907965209
 20
136.9552464079
 30
0.0
 11
7.1907965209
 21
136.9552464079
 31
0.0
  0
LINE
  5
C0
330
1F
100
AcDbEntity
  8
0
  6
Continuous
 62
     7
370
    15
100
AcDbLine
 10
8.6907965209
 20
169.1652464079
 30
0.0
 11
7.1907965209
 21
169.1652464079
 31
0.0
  0
LINE
  5
C1
330
1F
100
AcDbEntity
  8
0
  6
Continuous
 62
     7
370
    15
100
AcDbLine
 10
285.6907965209
 20
40.3252464079
 30
0.0
 11
287.1907965209
 21
40.3252464079
 31
0.0
  0
LINE
  5
C2
330
1F
100
AcDbEntity
  8
0
  6
Continuous
 62
     7
370
    15
100
AcDbLine
 10
285.6907965209
 20
72.5352464079
 30
0.0
 11
287.1907965209
 21
72.5352464079
 31
0.0
  0
LINE
  5
C3
330
1F
100
AcDbEntity
  8
0
  6
Continuous
 62
     7
370
    15
100
AcDbLine
 10
285.6907965209
 20
104.7452464079
 30
0.0
 11
287.1907965209
 21
104.7452464079
 31
0.0
  0
LINE
  5
C4
330
1F
100
AcDbEntity
  8
0
  6
Continuous
 62
     7
370
    15
100
AcDbLine
 10
285.6907965209
 20
136.9552464079
 30
0.0
 11
287.1907965209
 21
136.9552464079
 31
0.0
  0
LINE
  5
C5
330
1F
100
AcDbEntity
  8
0
  6
Continuous
 62
     7
370
    15
100
AcDbLine
 10
285.6907965209
 20
169.1652464079
 30
0.0
 11
287.1907965209
 21
169.1652464079
 31
0.0
  0
CIRCLE
  5
C6
330
1F
100
AcDbEntity
  8
0
  6
Continuous
 62
     7
370
     0
100
AcDbCircle
 10
168.3593775185
 20
17.7745192513
 30
0.0
 40
1.5
  0
CIRCLE
  5
C7
330
1F
100
AcDbEntity
  8
0
  6
Continuous
 62
     7
370
     0
100
AcDbCircle
 10
168.3593775185
 20
17.7745192513
 30
0.0
 40
2.5
  0
ARC
  5
C8
330
1F
100
AcDbEntity
  8
工作區域參考線
 62
     1
370
    30
100
AcDbCircle
 10
195.9525692879
 20
35.6478417413
 30
0.0
 40
1.518552937418275
100
AcDbArc
 50
306.0377529468
 51
43.4396461534
  0
ARC
  5
C9
330
1F
100
AcDbEntity
  8
工作區域參考線
 62
     1
370
    30
100
AcDbCircle
 10
192.271589272
 20
35.1222473508
 30
0.0
 40
3.181636704527891
100
AcDbArc
 50
45.5592925416
 51
125.8325555121
  0
ARC
  5
CA
330
1F
100
AcDbEntity
  8
工作區域參考線
 62
     1
370
    30
100
AcDbCircle
 10
192.5892455628
 20
35.6630691563
 30
0.0
 40
2.577567488346266
100
AcDbArc
 50
321.9435288427
 51
42.1815007004
  0
INSERT
  5
CB
330
1F
100
AcDbEntity
  8
0
  6
Continuous
 62
     7
100
AcDbBlockReference
  2
圖塊6
 10
186.9640923647
 20
29.4440528386
 30
0.0
  0
MTEXT
  5
CD
330
1F
100
AcDbEntity
  8
0
  6
Continuous
 62
     7
370
     0
100
AcDbMText
 10
165.5426850804
 20
13.2208440369
 30
0.0
 40
2.6458333333
 41
0.0
 71
     1
 72
     1
  1
UNIT:m/m
  7
SLDTEXTSTYLE0
 73
     1
 44
1.0
  0
INSERT
  5
D4
330
1F
100
AcDbEntity
  8
0
  6
Continuous
 62
     7
370
     0
100
AcDbBlockReference
  2
SW_NOTE_0
 10
12.2315076053
 20
193.8904304251
 30
0.0
  0
MTEXT
  5
D5
330
1F
100
AcDbEntity
  8
0
  6
Continuous
 62
     7
370
     0
100
AcDbMText
 10
198.7251893935
 20
40.4406774139
 30
0.0
 40
2.38125
 41
0.0
 71
     1
 72
     1
  1
Unice E-O Services Inc.
  7
SLDTEXTSTYLE0
 73
     1
 44
1.0
  0
MTEXT
  5
D6
330
1F
100
AcDbEntity
  8
0
  6
Continuous
 62
     7
370
     0
100
AcDbMText
 10
217.5590538149
 20
21.5867148511
 30
0.0
 40
1.8520833333
 41
0.0
 71
     1
 72
     1
  1
2020/4/14
  7
SLDTEXTSTYLE0
 73
     1
 44
1.0
  0
MTEXT
  5
D7
330
1F
100
AcDbEntity
  8
0
  6
Continuous
 62
     7
370
     0
100
AcDbMText
 10
252.6088982507
 20
16.87117774
 30
0.0
 40
2.5
 41
0.0
 71
     1
 72
     1
  1
1:1
  7
SLDTEXTSTYLE0
 73
     1
 44
1.0
  0
MTEXT
  5
D8
330
1F
100
AcDbEntity
  8
0
  6
Continuous
 62
     7
370
     0
100
AcDbMText
 10
252.3075599985
 20
32.1519195438
 30
0.0
 40
2.5
 41
0.0
 71
     1
 72
     1
  1
08IDM-025
  7
SLDTEXTSTYLE0
 73
     1
 44
1.0
  0
MTEXT
  5
D9
330
1F
100
AcDbEntity
  8
0
  6
Continuous
 62
     7
370
     0
100
AcDbMText
 10
252.3075599985
 20
38.1082117879
 30
0.0
 40
2.5
 41
0.0
 71
     1
 72
     1
  1
08IDM-025
  7
SLDTEXTSTYLE0
 73
     1
 44
1.0
  0
MTEXT
  5
DA
330
1F
100
AcDbEntity
  8
0
  6
Continuous
 62
     7
370
     0
100
AcDbMText
 10
236.3921866786
 20
16.5064795728
 30
0.0
 40
2.1166666667
 41
0.0
 71
     1
 72
     1
  1
SCALE:
  7
SLDTEXTSTYLE0
 73
     1
 44
1.0
  0
MTEXT
  5
DB
330
1F
100
AcDbEntity
  8
0
  6
Continuous
 62
     7
370
     0
100
AcDbMText
 10
186.3336086789
 20
21.5867148511
 30
0.0
 40
1.8520833333
 41
0.0
 71
     1
 72
     1
  1
DRAWN
  7
SLDTEXTSTYLE0
 73
     1
 44
1.0
  0
MTEXT
  5
DC
330
1F
100
AcDbEntity
  8
0
  6
Continuous
 62
     7
370
     0
100
AcDbMText
 10
203.2228367937
 20
26.683208308
 30
0.0
 40
1.8520833333
 41
0.0
 71
     1
 72
     1
  1
NAME
  7
SLDTEXTSTYLE0
 73
     1
 44
1.0
  0
MTEXT
  5
DD
330
1F
100
AcDbEntity
  8
0
  6
Continuous
 62
     7
370
     0
100
AcDbMText
 10
220.8710155758
 20
26.683208308
 30
0.0
 40
1.8520833333
 41
0.0
 71
     1
 72
     1
  1
DATE
  7
SLDTEXTSTYLE0
 73
     1
 44
1.0
  0
MTEXT
  5
DE
330
1F
100
AcDbEntity
  8
0
  6
Continuous
 62
     7
370
     0
100
AcDbMText
 10
236.2756316645
 20
31.7872213766
 30
0.0
 40
2.1166666667
 41
0.0
 71
     1
 72
     1
  1
DWG. NO.
  7
SLDTEXTSTYLE0
 73
     1
 44
1.0
  0
MTEXT
  5
DF
330
1F
100
AcDbEntity
  8
0
  6
Continuous
 62
     7
370
     0
100
AcDbMText
 10
236.3629907088
 20
41.8840658243
 30
0.0
 40
2.1166666667
 41
0.0
 71
     1
 72
     1
  1
TITLE:
  7
SLDTEXTSTYLE0
 73
     1
 44
1.0
  0
MTEXT
  5
E0
330
1F
100
AcDbEntity
  8
0
  6
Continuous
 62
     7
370
     0
100
AcDbMText
 10
203.0314209802
 20
16.2403789724
 30
0.0
 40
1.8520833333
 41
0.0
 71
     1
 72
     1
  1
Johnny
  7
SLDTEXTSTYLE0
 73
     1
 44
1.0
  0
MTEXT
  5
E1
330
1F
100
AcDbEntity
  8
0
  6
Continuous
 62
     7
370
     0
100
AcDbMText
 10
217.5590538149
 20
16.2403789724
 30
0.0
 40
1.8520833333
 41
0.0
 71
     1
 72
     1
  1
2020/4/14
  7
SLDTEXTSTYLE0
 73
     1
 44
1.0
  0
MTEXT
  5
E2
330
1F
100
AcDbEntity
  8
0
  6
Continuous
 62
     7
370
     0
100
AcDbMText
 10
186.3336086789
 20
16.2403789724
 30
0.0
 40
1.8520833333
 41
0.0
 71
     1
 72
     1
  1
ENG APPR.
  7
SLDTEXTSTYLE0
 73
     1
 44
1.0
  0
MTEXT
  5
E3
330
1F
100
AcDbEntity
  8
0
  6
Continuous
 62
     7
370
     0
100
AcDbMText
 10
236.3921866786
 20
11.6853389288
 30
0.0
 40
2.1166666667
 41
0.0
 71
     1
 72
     1
  1
REV
  7
SLDTEXTSTYLE0
 73
     1
 44
1.0
  0
MTEXT
  5
E4
330
1F
100
AcDbEntity
  8
0
  6
Continuous
 62
     7
370
     0
100
AcDbMText
 10
236.3629907088
 20
26.9493089085
 30
0.0
 40
2.1166666667
 41
0.0
 71
     1
 72
     1
  1
MATERIAL:
  7
SLDTEXTSTYLE0
 73
     1
 44
1.0
  0
MTEXT
  5
E5
330
1F
100
AcDbEntity
  8
0
  6
Continuous
 62
     7
370
     0
100
AcDbMText
 10
252.6088982507
 20
22.2175136187
 30
0.0
 40
2.5
 41
0.0
 71
     1
 72
     1
  1
N/A
  7
SLDTEXTSTYLE0
 73
     1
 44
1.0
  0
MTEXT
  5
E6
330
1F
100
AcDbEntity
  8
0
  6
Continuous
 62
     7
370
     0
100
AcDbMText
 10
26.6029931533
 20
204.453351657
 30
0.0
 40
2.1166666667
 41
0.0
 71
     1
 72
     1
  1
1
  7
SLDTEXTSTYLE0
 73
     1
 44
1.0
  0
MTEXT
  5
E7
330
1F
100
AcDbEntity
  8
0
  6
Continuous
 62
     7
370
     0
100
AcDbMText
 10
60.7170995724
 20
204.453351657
 30
0.0
 40
2.1166666667
 41
0.0
 71
     1
 72
     1
  1
2
  7
SLDTEXTSTYLE0
 73
     1
 44
1.0
  0
MTEXT
  5
E8
330
1F
100
AcDbEntity
  8
0
  6
Continuous
 62
     7
370
     0
100
AcDbMText
 10
94.9009943906
 20
204.453351657
 30
0.0
 40
2.1166666667
 41
0.0
 71
     1
 72
     1
  1
3
  7
SLDTEXTSTYLE0
 73
     1
 44
1.0
  0
MTEXT
  5
E9
330
1F
100
AcDbEntity
  8
0
  6
Continuous
 62
     7
370
     0
100
AcDbMText
 10
129.2533362851
 20
204.2992584364
 30
0.0
 40
2.1166666667
 41
0.0
 71
     1
 72
     1
  1
4
  7
SLDTEXTSTYLE0
 73
     1
 44
1.0
  0
MTEXT
  5
EA
330
1F
100
AcDbEntity
  8
0
  6
Continuous
 62
     7
370
     0
100
AcDbMText
 10
163.702323464
 20
204.453351657
 30
0.0
 40
2.1166666667
 41
0.0
 71
     1
 72
     1
  1
5
  7
SLDTEXTSTYLE0
 73
     1
 44
1.0
  0
MTEXT
  5
EB
330
1F
100
AcDbEntity
  8
0
  6
Continuous
 62
     7
370
     0
100
AcDbMText
 10
198.6382170415
 20
204.453351657
 30
0.0
 40
2.1166666667
 41
0.0
 71
     1
 72
     1
  1
6
  7
SLDTEXTSTYLE0
 73
     1
 44
1.0
  0
MTEXT
  5
EC
330
1F
100
AcDbEntity
  8
0
  6
Continuous
 62
     7
370
     0
100
AcDbMText
 10
234.3630657407
 20
204.453351657
 30
0.0
 40
2.1166666667
 41
0.0
 71
     1
 72
     1
  1
7
  7
SLDTEXTSTYLE0
 73
     1
 44
1.0
  0
MTEXT
  5
ED
330
1F
100
AcDbEntity
  8
0
  6
Continuous
 62
     7
370
     0
100
AcDbMText
 10
266.2787820494
 20
204.453351657
 30
0.0
 40
2.1166666667
 41
0.0
 71
     1
 72
     1
  1
8
  7
SLDTEXTSTYLE0
 73
     1
 44
1.0
  0
MTEXT
  5
EE
330
1F
100
AcDbEntity
  8
0
  6
Continuous
 62
     7
370
     0
100
AcDbMText
 10
5.3568236555
 20
185.8113022879
 30
0.0
 40
2.1166666667
 41
0.0
 71
     1
 72
     1
  1
A
  7
SLDTEXTSTYLE0
 73
     1
 44
1.0
  0
MTEXT
  5
EF
330
1F
100
AcDbEntity
  8
0
  6
Continuous
 62
     7
370
     0
100
AcDbMText
 10
5.5910431831
 20
154.2993048238
 30
0.0
 40
2.1166666667
 41
0.0
 71
     1
 72
     1
  1
B
  7
SLDTEXTSTYLE0
 73
     1
 44
1.0
  0
MTEXT
  5
F0
330
1F
100
AcDbEntity
  8
0
  6
Continuous
 62
     7
370
     0
100
AcDbMText
 10
5.5910431831
 20
121.274351423
 30
0.0
 40
2.1166666667
 41
0.0
 71
     1
 72
     1
  1
C
  7
SLDTEXTSTYLE0
 73
     1
 44
1.0
  0
MTEXT
  5
F1
330
1F
100
AcDbEntity
  8
0
  6
Continuous
 62
     7
370
     0
100
AcDbMText
 10
5.5910431831
 20
88.7453220221
 30
0.0
 40
2.1166666667
 41
0.0
 71
     1
 72
     1
  1
D
  7
SLDTEXTSTYLE0
 73
     1
 44
1.0
  0
MTEXT
  5
F2
330
1F
100
AcDbEntity
  8
0
  6
Continuous
 62
     7
370
     0
100
AcDbMText
 10
5.5910431831
 20
57.5558849197
 30
0.0
 40
2.1166666667
 41
0.0
 71
     1
 72
     1
  1
E
  7
SLDTEXTSTYLE0
 73
     1
 44
1.0
  0
MTEXT
  5
F3
330
1F
100
AcDbEntity
  8
0
  6
Continuous
 62
     7
370
     0
100
AcDbMText
 10
5.5910431831
 20
25.5694212252
 30
0.0
 40
2.1166666667
 41
0.0
 71
     1
 72
     1
  1
F
  7
SLDTEXTSTYLE0
 73
     1
 44
1.0
  0
MTEXT
  5
F4
330
1F
100
AcDbEntity
  8
0
  6
Continuous
 62
     7
370
     0
100
AcDbMText
 10
266.1858616964
 20
6.6236223963
 30
0.0
 40
2.1166666667
 41
0.0
 71
     1
 72
     1
  1
8
  7
SLDTEXTSTYLE0
 73
     1
 44
1.0
  0
MTEXT
  5
F5
330
1F
100
AcDbEntity
  8
0
  6
Continuous
 62
     7
370
     0
100
AcDbMText
 10
234.2701453876
 20
6.6236223963
 30
0.0
 40
2.1166666667
 41
0.0
 71
     1
 72
     1
  1
7
  7
SLDTEXTSTYLE0
 73
     1
 44
1.0
  0
MTEXT
  5
F6
330
1F
100
AcDbEntity
  8
0
  6
Continuous
 62
     7
370
     0
100
AcDbMText
 10
198.5452966885
 20
6.6236223963
 30
0.0
 40
2.1166666667
 41
0.0
 71
     1
 72
     1
  1
6
  7
SLDTEXTSTYLE0
 73
     1
 44
1.0
  0
MTEXT
  5
F7
330
1F
100
AcDbEntity
  8
0
  6
Continuous
 62
     7
370
     0
100
AcDbMText
 10
163.6094031109
 20
6.6236223963
 30
0.0
 40
2.1166666667
 41
0.0
 71
     1
 72
     1
  1
5
  7
SLDTEXTSTYLE0
 73
     1
 44
1.0
  0
MTEXT
  5
F8
330
1F
100
AcDbEntity
  8
0
  6
Continuous
 62
     7
370
     0
100
AcDbMText
 10
129.1604159321
 20
6.4695291758
 30
0.0
 40
2.1166666667
 41
0.0
 71
     1
 72
     1
  1
4
  7
SLDTEXTSTYLE0
 73
     1
 44
1.0
  0
MTEXT
  5
F9
330
1F
100
AcDbEntity
  8
0
  6
Continuous
 62
     7
370
     0
100
AcDbMText
 10
94.8080740376
 20
6.6236223963
 30
0.0
 40
2.1166666667
 41
0.0
 71
     1
 72
     1
  1
3
  7
SLDTEXTSTYLE0
 73
     1
 44
1.0
  0
MTEXT
  5
FA
330
1F
100
AcDbEntity
  8
0
  6
Continuous
 62
     7
370
     0
100
AcDbMText
 10
60.6241792194
 20
6.6236223963
 30
0.0
 40
2.1166666667
 41
0.0
 71
     1
 72
     1
  1
2
  7
SLDTEXTSTYLE0
 73
     1
 44
1.0
  0
MTEXT
  5
FB
330
1F
100
AcDbEntity
  8
0
  6
Continuous
 62
     7
370
     0
100
AcDbMText
 10
26.5100728003
 20
6.6236223963
 30
0.0
 40
2.1166666667
 41
0.0
 71
     1
 72
     1
  1
1
  7
SLDTEXTSTYLE0
 73
     1
 44
1.0
  0
MTEXT
  5
FC
330
1F
100
AcDbEntity
  8
0
  6
Continuous
 62
     7
370
     0
100
AcDbMText
 10
287.1023846145
 20
186.6424909092
 30
0.0
 40
2.1166666667
 41
0.0
 71
     1
 72
     1
  1
A
  7
SLDTEXTSTYLE0
 73
     1
 44
1.0
  0
MTEXT
  5
FD
330
1F
100
AcDbEntity
  8
0
  6
Continuous
 62
     7
370
     0
100
AcDbMText
 10
287.3366041421
 20
155.1304934451
 30
0.0
 40
2.1166666667
 41
0.0
 71
     1
 72
     1
  1
B
  7
SLDTEXTSTYLE0
 73
     1
 44
1.0
  0
MTEXT
  5
FE
330
1F
100
AcDbEntity
  8
0
  6
Continuous
 62
     7
370
     0
100
AcDbMText
 10
287.3366041421
 20
122.1055400442
 30
0.0
 40
2.1166666667
 41
0.0
 71
     1
 72
     1
  1
C
  7
SLDTEXTSTYLE0
 73
     1
 44
1.0
  0
MTEXT
  5
FF
330
1F
100
AcDbEntity
  8
0
  6
Continuous
 62
     7
370
     0
100
AcDbMText
 10
287.3366041421
 20
89.5765106433
 30
0.0
 40
2.1166666667
 41
0.0
 71
     1
 72
     1
  1
D
  7
SLDTEXTSTYLE0
 73
     1
 44
1.0
  0
MTEXT
  5
100
330
1F
100
AcDbEntity
  8
0
  6
Continuous
 62
     7
370
     0
100
AcDbMText
 10
287.3366041421
 20
58.3870735409
 30
0.0
 40
2.1166666667
 41
0.0
 71
     1
 72
     1
  1
E
  7
SLDTEXTSTYLE0
 73
     1
 44
1.0
  0
MTEXT
  5
101
330
1F
100
AcDbEntity
  8
0
  6
Continuous
 62
     7
370
     0
100
AcDbMText
 10
287.3366041421
 20
26.4006098464
 30
0.0
 40
2.1166666667
 41
0.0
 71
     1
 72
     1
  1
F
  7
SLDTEXTSTYLE0
 73
     1
 44
1.0
  0
MTEXT
  5
102
330
1F
100
AcDbEntity
  8
0
  6
Continuous
 62
     7
370
     0
100
AcDbMText
 10
203.1553128802
 20
21.5867148511
 30
0.0
 40
1.8520833333
 41
0.0
 71
     1
 72
     1
  1
Terry
  7
SLDTEXTSTYLE0
 73
     1
 44
1.0
  0
MTEXT
  5
104
330
1F
100
AcDbEntity
  8
0
  6
Continuous
 62
     7
370
     0
100
AcDbMText
 10
252.8482239645
 20
12.2219603318
 30
0.0
 40
2.38125
 41
0.0
 71
     1
 72
     1
  1
0
  7
SLDTEXTSTYLE1
 73
     1
 44
1.0
  0
INSERT
  5
10A
330
1F
100
AcDbEntity
  8
SLD-0
 62
     7
100
AcDbBlockReference
  2
SW_NOTE_1
 10
198.7251893935
 20
33.5479745212
 30
0.0
  0
LINE
  5
10B
330
1F
100
AcDbEntity
  8
0
  6
Continuous
 62
     7
370
    30
100
AcDbLine
 10
47.8233694852
 20
119.0574154913
 30
0.0
 11
47.6531830787
 21
119.2276018978
 31
0.0
  0
SPLINE
  5
10C
330
1F
100
AcDbEntity
  8
0
  6
Continuous
 62
     7
370
    30
100
AcDbSpline
210
0.0
220
0.0
230
1.0
 70
     8
 71
     3
 72
    12
 73
     8
 74
     0
 42
0.000000001
 43
0.00000001
 40
0.0
 40
0.0
 40
0.0
 40
0.0
 40
0.2014025375603315
 40
0.4027656541785199
 40
0.6052673814369283
 40
0.8103307636546502
 40
1.0
 40
1.0
 40
1.0
 40
1.0
 10
47.68055353393138
 20
119.96010738651
 30
0.0
 10
47.64191390805786
 20
119.9196938059849
 30
0.0
 10
47.56464221932602
 20
119.8388745551698
 30
0.0
 10
47.50713582960389
 20
119.6779676274605
 30
0.0
 10
47.50274194242645
 20
119.5099236089371
 30
0.0
 10
47.55100015107363
 20
119.350087622043
 30
0.0
 10
47.6200193272699
 20
119.2673549779422
 30
0.0
 10
47.65318307869734
 20
119.2276018977824
 30
0.0
  0
ARC
  5
10D
330
1F
100
AcDbEntity
  8
0
  6
Continuous
 62
     7
370
    30
100
AcDbCircle
 10
52.3775878031
 20
114.5031971734
 30
0.0
 40
7.20000000000001
100
AcDbArc
 50
128.0297832003
 51
130.7202167997
  0
SPLINE
  5
10E
330
1F
100
AcDbEntity
  8
0
  6
Continuous
 62
     7
370
    30
100
AcDbSpline
210
0.0
220
0.0
230
1.0
 70
     8
 71
     3
 72
    12
 73
     8
 74
     0
 42
0.000000001
 43
0.00000001
 40
0.0
 40
0.0
 40
0.0
 40
0.0
 40
0.2090160033969073
 40
0.4180799772563601
 40
0.6257338446757529
 40
0.8306101169833641
 40
1.0
 40
1.0
 40
1.0
 40
1.0
 10
48.66564682975758
 20
120.0585094247604
 30
0.0
 10
48.6293511388179
 20
120.102657324187
 30
0.0
 10
48.55675142685347
 20
120.1909632552556
 30
0.0
 10
48.39921150188445
 20
120.2677649495356
 30
0.0
 10
48.22872954559319
 20
120.2896335542562
 30
0.0
 10
48.06762027205262
 20
120.2572136607588
 30
0.0
 10
47.9810551864314
 20
120.2003194732527
 30
0.0
 10
47.94187651767361
 20
120.1745696168233
 30
0.0
  0
LINE
  5
10F
330
1F
100
AcDbEntity
  8
0
  6
Continuous
 62
     7
370
    30
100
AcDbLine
 10
49.0862071104
 20
119.4290964852
 30
0.0
 11
48.6656468298
 21
120.0585094248
 31
0.0
  0
LINE
  5
110
330
1F
100
AcDbEntity
  8
0
  6
Continuous
 62
     7
370
    30
100
AcDbLine
 10
67.5275878031
 20
121.5117161005
 30
0.0
 11
67.5275878031
 21
122.3777415043
 31
0.0
  0
LINE
  5
111
330
1F
100
AcDbEntity
  8
0
  6
Continuous
 62
     7
370
    30
100
AcDbLine
 10
67.5275878031
 20
122.3777415043
 30
0.0
 11
66.7775878031
 21
122.8107542062
 31
0.0
  0
LINE
  5
112
330
1F
100
AcDbEntity
  8
0
  6
Continuous
 62
     7
370
    30
100
AcDbLine
 10
66.0275878031
 20
121.5117161005
 30
0.0
 11
66.7775878031
 21
121.0787033986
 31
0.0
  0
LINE
  5
113
330
1F
100
AcDbEntity
  8
0
  6
Continuous
 62
     7
370
    30
100
AcDbLine
 10
66.7775878031
 20
121.0787033986
 30
0.0
 11
67.5275878031
 21
121.5117161005
 31
0.0
  0
CIRCLE
  5
114
330
1F
100
AcDbEntity
  8
0
  6
Continuous
 62
     7
370
    30
100
AcDbCircle
 10
66.7775878031
 20
121.9447288024
 30
0.0
 40
1.200000000000003
  0
LINE
  5
115
330
1F
100
AcDbEntity
  8
0
  6
Continuous
 62
     7
370
    30
100
AcDbLine
 10
66.0275878031
 20
122.3777415043
 30
0.0
 11
66.0275878031
 21
121.5117161005
 31
0.0
  0
LINE
  5
116
330
1F
100
AcDbEntity
  8
0
  6
Continuous
 62
     7
370
    30
100
AcDbLine
 10
66.7775878031
 20
122.8107542062
 30
0.0
 11
66.0275878031
 21
122.3777415043
 31
0.0
  0
LINE
  5
117
330
1F
100
AcDbEntity
  8
0
  6
Continuous
 62
     7
370
    30
100
AcDbLine
 10
52.3721432369
 20
147.7617161005
 30
0.0
 11
52.3721432369
 21
148.6277415043
 31
0.0
  0
LINE
  5
118
330
1F
100
AcDbEntity
  8
0
  6
Continuous
 62
     7
370
    30
100
AcDbLine
 10
52.3721432369
 20
148.6277415043
 30
0.0
 11
51.6221432369
 21
149.0607542062
 31
0.0
  0
LINE
  5
119
330
1F
100
AcDbEntity
  8
0
  6
Continuous
 62
     7
370
    30
100
AcDbLine
 10
51.6221432369
 20
149.0607542062
 30
0.0
 11
50.8721432369
 21
148.6277415043
 31
0.0
  0
LINE
  5
11A
330
1F
100
AcDbEntity
  8
0
  6
Continuous
 62
     7
370
    30
100
AcDbLine
 10
50.8721432369
 20
147.7617161005
 30
0.0
 11
51.6221432369
 21
147.3287033986
 31
0.0
  0
LINE
  5
11B
330
1F
100
AcDbEntity
  8
0
  6
Continuous
 62
     7
370
    30
100
AcDbLine
 10
51.6221432369
 20
147.3287033986
 30
0.0
 11
52.3721432369
 21
147.7617161005
 31
0.0
  0
CIRCLE
  5
11C
330
1F
100
AcDbEntity
  8
0
  6
Continuous
 62
     7
370
    30
100
AcDbCircle
 10
51.6221432369
 20
148.1947288024
 30
0.0
 40
1.200000000000003
  0
LINE
  5
11D
330
1F
100
AcDbEntity
  8
0
  6
Continuous
 62
     7
370
    30
100
AcDbLine
 10
50.8721432369
 20
148.6277415043
 30
0.0
 11
50.8721432369
 21
147.7617161005
 31
0.0
  0
LINE
  5
11E
330
1F
100
AcDbEntity
  8
0
  6
Continuous
 62
     7
370
    30
100
AcDbLine
 10
82.6830323693
 20
147.7617161005
 30
0.0
 11
82.6830323693
 21
148.6277415043
 31
0.0
  0
LINE
  5
11F
330
1F
100
AcDbEntity
  8
0
  6
Continuous
 62
     7
370
    30
100
AcDbLine
 10
82.6830323693
 20
148.6277415043
 30
0.0
 11
81.9330323693
 21
149.0607542062
 31
0.0
  0
LINE
  5
120
330
1F
100
AcDbEntity
  8
0
  6
Continuous
 62
     7
370
    30
100
AcDbLine
 10
81.1830323693
 20
147.7617161005
 30
0.0
 11
81.9330323693
 21
147.3287033986
 31
0.0
  0
LINE
  5
121
330
1F
100
AcDbEntity
  8
0
  6
Continuous
 62
     7
370
    30
100
AcDbLine
 10
81.9330323693
 20
147.3287033986
 30
0.0
 11
82.6830323693
 21
147.7617161005
 31
0.0
  0
CIRCLE
  5
122
330
1F
100
AcDbEntity
  8
0
  6
Continuous
 62
     7
370
    30
100
AcDbCircle
 10
81.9330323693
 20
148.1947288024
 30
0.0
 40
1.200000000000003
  0
LINE
  5
123
330
1F
100
AcDbEntity
  8
0
  6
Continuous
 62
     7
370
    30
100
AcDbLine
 10
81.1830323693
 20
148.6277415043
 30
0.0
 11
81.1830323693
 21
147.7617161005
 31
0.0
  0
LINE
  5
124
330
1F
100
AcDbEntity
  8
0
  6
Continuous
 62
     7
370
    30
100
AcDbLine
 10
81.9330323693
 20
149.0607542062
 30
0.0
 11
81.1830323693
 21
148.6277415043
 31
0.0
  0
ARC
  5
125
330
1F
100
AcDbEntity
  8
0
  6
Continuous
 62
     7
370
    30
100
AcDbCircle
 10
60.5748553917
 20
128.1022403221
 30
0.0
 40
20.00000000000034
100
AcDbArc
 50
82.537442665
 51
98.7135187926
  0
ARC
  5
126
330
1F
100
AcDbEntity
  8
0
  6
Continuous
 62
     7
370
    30
100
AcDbCircle
 10
66.7775878031
 20
139.4447288024
 30
0.0
 40
9.22199818908476
100
AcDbArc
 50
113.0124568052
 51
135.1695390781
  0
ARC
  5
127
330
1F
100
AcDbEntity
  8
0
  6
Continuous
 62
     7
370
    30
100
AcDbCircle
 10
63.2656292691
 20
126.1769282646
 30
0.0
 40
20.00000000000029
100
AcDbArc
 50
98.7087799838
 51
112.3692120608
  0
ARC
  5
128
330
1F
100
AcDbEntity
  8
0
  6
Continuous
 62
     7
370
    30
100
AcDbCircle
 10
74.727906439
 20
150.6879334021
 30
0.0
 40
20.00000000000002
100
AcDbArc
 50
196.6212825707
 51
197.5056345669
  0
ARC
  5
129
330
1F
100
AcDbEntity
  8
0
  6
Continuous
 62
     7
370
    30
100
AcDbCircle
 10
66.7775878031
 20
139.4447288024
 30
0.0
 40
9.221998189084749
100
AcDbArc
 50
135.1695390781
 51
151.164131732
  0
ARC
  5
12A
330
1F
100
AcDbEntity
  8
0
  6
Continuous
 62
     7
370
    30
100
AcDbCircle
 10
66.9542347682
 20
125.6757051647
 30
0.0
 40
20.00000000000021
100
AcDbArc
 50
114.3782148905
 51
121.829790141
  0
ARC
  5
12B
330
1F
100
AcDbEntity
  8
0
  6
Continuous
 62
     7
370
    30
100
AcDbCircle
 10
74.727906439
 20
150.6879334021
 30
0.0
 40
20.00000000000002
100
AcDbArc
 50
197.5056345669
 51
203.6402589492
  0
ARC
  5
12C
330
1F
100
AcDbEntity
  8
0
  6
Continuous
 62
     7
370
    30
100
AcDbCircle
 10
63.2656292691
 20
126.1769282646
 30
0.0
 40
20.0000000000003
100
AcDbArc
 50
112.3692120608
 51
113.257140035
  0
ARC
  5
12D
330
1F
100
AcDbEntity
  8
0
  6
Continuous
 62
     7
370
    30
100
AcDbCircle
 10
66.9542347682
 20
125.6757051647
 30
0.0
 40
20.00000000000021
100
AcDbArc
 50
121.829790141
 51
128.8487665196
  0
ARC
  5
12E
330
1F
100
AcDbEntity
  8
0
  6
Continuous
 62
     7
370
    30
100
AcDbCircle
 10
74.727906439
 20
150.6879334021
 30
0.0
 40
20.00000000000001
100
AcDbArc
 50
203.6402589492
 51
206.6489665058
  0
ARC
  5
12F
330
1F
100
AcDbEntity
  8
0
  6
Continuous
 62
     7
370
    30
100
AcDbCircle
 10
72.6960743857
 20
129.5117119846
 30
0.0
 40
20.00000000000002
100
AcDbArc
 50
142.3896714
 51
156.0931009102
  0
ARC
  5
130
330
1F
100
AcDbEntity
  8
0
  6
Continuous
 62
     7
370
    30
100
AcDbCircle
 10
77.4174394271
 20
148.1143274824
 30
0.0
 40
20.00000000000007
100
AcDbArc
 50
256.3692120608
 51
257.257140035
  0
ARC
  5
131
330
1F
100
AcDbEntity
  8
0
  6
Continuous
 62
     7
370
    30
100
AcDbCircle
 10
53.7370550637
 20
135.0218652551
 30
0.0
 40
20.00000000000003
100
AcDbArc
 50
341.5056345669
 51
347.6402589492
  0
ARC
  5
132
330
1F
100
AcDbEntity
  8
0
  6
Continuous
 62
     7
370
    30
100
AcDbCircle
 10
74.727906439
 20
150.6879334021
 30
0.0
 40
20.00000000000004
100
AcDbArc
 50
265.829790141
 51
272.8487665196
  0
ARC
  5
133
330
1F
100
AcDbEntity
  8
0
  6
Continuous
 62
     7
370
    30
100
AcDbCircle
 10
53.7370550637
 20
135.0218652551
 30
0.0
 40
20.00000000000003
100
AcDbArc
 50
340.6212825707
 51
341.5056345669
  0
ARC
  5
134
330
1F
100
AcDbEntity
  8
0
  6
Continuous
 62
     7
370
    30
100
AcDbCircle
 10
78.4626511884
 20
144.9751201061
 30
0.0
 40
20.00000000000002
100
AcDbArc
 50
226.537442665
 51
242.7135187926
  0
ARC
  5
135
330
1F
100
AcDbEntity
  8
0
  6
Continuous
 62
     7
370
    30
100
AcDbCircle
 10
77.4174394271
 20
148.1143274824
 30
0.0
 40
20.00000000000006
100
AcDbArc
 50
242.7087799838
 51
256.3692120608
  0
ARC
  5
136
330
1F
100
AcDbEntity
  8
0
  6
Continuous
 62
     7
370
    30
100
AcDbCircle
 10
66.7775878031
 20
139.4447288024
 30
0.0
 40
9.221998189084738
100
AcDbArc
 50
257.0124568052
 51
279.1695390781
  0
ARC
  5
137
330
1F
100
AcDbEntity
  8
0
  6
Continuous
 62
     7
370
    30
100
AcDbCircle
 10
58.5414483737
 20
150.4802724402
 30
0.0
 40
20.00000000000003
100
AcDbArc
 50
337.829790141
 51
344.8487665196
  0
ARC
  5
138
330
1F
100
AcDbEntity
  8
0
  6
Continuous
 62
     7
370
    30
100
AcDbCircle
 10
66.9542347682
 20
125.6757051647
 30
0.0
 40
20.00000000000022
100
AcDbArc
 50
59.6402589492
 51
62.6489665058
  0
ARC
  5
139
330
1F
100
AcDbEntity
  8
0
  6
Continuous
 62
     7
370
    30
100
AcDbCircle
 10
56.1509507806
 20
144.0019090842
 30
0.0
 40
20.00000000000001
100
AcDbArc
 50
358.3896714
 51
12.0931009102
  0
ARC
  5
13A
330
1F
100
AcDbEntity
  8
0
  6
Continuous
 62
     7
370
    30
100
AcDbCircle
 10
58.5414483737
 20
150.4802724402
 30
0.0
 40
20.00000000000003
100
AcDbArc
 50
330.3782148905
 51
337.829790141
  0
ARC
  5
13B
330
1F
100
AcDbEntity
  8
0
  6
Continuous
 62
     7
370
    30
100
AcDbCircle
 10
56.1509507806
 20
144.0019090842
 30
0.0
 40
20.00000000000001
100
AcDbArc
 50
350.8479079906
 51
358.3896714
  0
ARC
  5
13C
330
1F
100
AcDbEntity
  8
0
  6
Continuous
 62
     7
370
    30
100
AcDbCircle
 10
66.7775878031
 20
139.4447288024
 30
0.0
 40
9.221998189084726
100
AcDbArc
 50
7.164131732
 51
8.5814694985
  0
ARC
  5
13D
330
1F
100
AcDbEntity
  8
0
  6
Continuous
 62
     7
370
    30
100
AcDbCircle
 10
61.8202044542
 20
152.2428823483
 30
0.0
 40
20.00000000000004
100
AcDbArc
 50
314.7087799838
 51
328.3692120608
  0
ARC
  5
13E
330
1F
100
AcDbEntity
  8
0
  6
Continuous
 62
     7
370
    30
100
AcDbCircle
 10
66.9542347682
 20
125.6757051647
 30
0.0
 40
20.00000000000022
100
AcDbArc
 50
53.5056345669
 51
59.6402589492
  0
ARC
  5
13F
330
1F
100
AcDbEntity
  8
0
  6
Continuous
 62
     7
370
    30
100
AcDbCircle
 10
66.7775878031
 20
139.4447288024
 30
0.0
 40
9.221998189084724
100
AcDbArc
 50
351.1695390781
 51
7.164131732
  0
ARC
  5
140
330
1F
100
AcDbEntity
  8
0
  6
Continuous
 62
     7
370
    30
100
AcDbCircle
 10
66.9542347682
 20
125.6757051647
 30
0.0
 40
20.00000000000021
100
AcDbArc
 50
62.6489665058
 51
67.0918341998
  0
ARC
  5
141
330
1F
100
AcDbEntity
  8
0
  6
Continuous
 62
     7
370
    30
100
AcDbCircle
 10
66.7775878031
 20
139.4447288024
 30
0.0
 40
9.221998189084728
100
AcDbArc
 50
8.5814694985
 51
30.3059173582
  0
ARC
  5
142
330
1F
100
AcDbEntity
  8
0
  6
Continuous
 62
     7
370
    30
100
AcDbCircle
 10
67.827912373
 20
150.9595073425
 30
0.0
 40
20.00000000000002
100
AcDbArc
 50
278.8479079906
 51
286.3896714
  0
ARC
  5
143
330
1F
100
AcDbEntity
  8
0
  6
Continuous
 62
     7
370
    30
100
AcDbCircle
 10
53.7370550637
 20
135.0218652551
 30
0.0
 40
20.0
100
AcDbArc
 50
350.6489665058
 51
355.0918341998
  0
ARC
  5
144
330
1F
100
AcDbEntity
  8
0
  6
Continuous
 62
     7
370
    30
100
AcDbCircle
 10
66.7775878031
 20
139.4447288024
 30
0.0
 40
9.221998189084726
100
AcDbArc
 50
296.5814694985
 51
318.3059173582
  0
ARC
  5
145
330
1F
100
AcDbEntity
  8
0
  6
Continuous
 62
     7
370
    30
100
AcDbCircle
 10
65.1287562825
 20
152.2668693767
 30
0.0
 40
20.00000000000002
100
AcDbArc
 50
298.537442665
 51
314.7135187926
  0
ARC
  5
146
330
1F
100
AcDbEntity
  8
0
  6
Continuous
 62
     7
370
    30
100
AcDbCircle
 10
66.9542347682
 20
125.6757051647
 30
0.0
 40
20.00000000000022
100
AcDbArc
 50
52.6212825706
 51
53.5056345669
  0
ARC
  5
147
330
1F
100
AcDbEntity
  8
0
  6
Continuous
 62
     7
370
    30
100
AcDbCircle
 10
66.7775878031
 20
139.4447288024
 30
0.0
 40
9.221998189084724
100
AcDbArc
 50
329.0124568052
 51
351.1695390781
  0
ARC
  5
148
330
1F
100
AcDbEntity
  8
0
  6
Continuous
 62
     7
370
    30
100
AcDbCircle
 10
53.7370550637
 20
135.0218652551
 30
0.0
 40
20.00000000000002
100
AcDbArc
 50
347.6402589492
 51
350.6489665058
  0
ARC
  5
149
330
1F
100
AcDbEntity
  8
0
  6
Continuous
 62
     7
370
    30
100
AcDbCircle
 10
67.827912373
 20
150.9595073425
 30
0.0
 40
20.00000000000001
100
AcDbArc
 50
286.3896714
 51
300.0931009102
  0
ARC
  5
14A
330
1F
100
AcDbEntity
  8
0
  6
Continuous
 62
     7
370
    30
100
AcDbCircle
 10
74.727906439
 20
150.6879334021
 30
0.0
 40
20.00000000000004
100
AcDbArc
 50
258.3782148905
 51
265.829790141
  0
ARC
  5
14B
330
1F
100
AcDbEntity
  8
0
  6
Continuous
 62
     7
370
    30
100
AcDbCircle
 10
66.7775878031
 20
139.4447288024
 30
0.0
 40
9.221998189084738
100
AcDbArc
 50
279.1695390781
 51
295.164131732
  0
ARC
  5
14C
330
1F
100
AcDbEntity
  8
0
  6
Continuous
 62
     7
370
    30
100
AcDbCircle
 10
75.6481856566
 20
130.0405580248
 30
0.0
 40
20.00000000000003
100
AcDbArc
 50
154.537442665
 51
170.7135187926
  0
ARC
  5
14D
330
1F
100
AcDbEntity
  8
0
  6
Continuous
 62
     7
370
    30
100
AcDbCircle
 10
74.727906439
 20
150.6879334021
 30
0.0
 40
20.00000000000002
100
AcDbArc
 50
206.6489665058
 51
211.0918341998
  0
ARC
  5
14E
330
1F
100
AcDbEntity
  8
0
  6
Continuous
 62
     7
370
    30
100
AcDbCircle
 10
66.7775878031
 20
139.4447288024
 30
0.0
 40
9.221998189084731
100
AcDbArc
 50
174.3059173582
 51
185.0124568052
  0
ARC
  5
14F
330
1F
100
AcDbEntity
  8
0
  6
Continuous
 62
     7
370
    30
100
AcDbCircle
 10
66.7775878031
 20
139.4447288024
 30
0.0
 40
9.22199818908472
100
AcDbArc
 50
318.3059173582
 51
329.0124568052
  0
ARC
  5
150
330
1F
100
AcDbEntity
  8
0
  6
Continuous
 62
     7
370
    30
100
AcDbCircle
 10
54.0734904963
 20
141.8388561821
 30
0.0
 40
20.00000000000005
100
AcDbArc
 50
10.537442665
 51
26.7135187926
  0
ARC
  5
151
330
1F
100
AcDbEntity
  8
0
  6
Continuous
 62
     7
370
    30
100
AcDbCircle
 10
66.7775878031
 20
139.4447288024
 30
0.0
 40
9.221998189084735
100
AcDbArc
 50
30.3059173582
 51
41.0124568052
  0
ARC
  5
152
330
1F
100
AcDbEntity
  8
0
  6
Continuous
 62
     7
370
    30
100
AcDbCircle
 10
66.7775878031
 20
139.4447288024
 30
0.0
 40
9.221998189084726
100
AcDbArc
 50
295.164131732
 51
296.5814694985
  0
ARC
  5
153
330
1F
100
AcDbEntity
  8
0
  6
Continuous
 62
     7
370
    30
100
AcDbCircle
 10
72.6960743857
 20
129.5117119846
 30
0.0
 40
20.00000000000001
100
AcDbArc
 50
134.8479079906
 51
142.3896714
  0
ARC
  5
154
330
1F
100
AcDbEntity
  8
0
  6
Continuous
 62
     7
370
    30
100
AcDbCircle
 10
66.7775878031
 20
139.4447288024
 30
0.0
 40
9.221998189084731
100
AcDbArc
 50
152.5814694985
 51
174.3059173582
  0
ARC
  5
155
330
1F
100
AcDbEntity
  8
0
  6
Continuous
 62
     7
370
    30
100
AcDbCircle
 10
66.7775878031
 20
139.4447288024
 30
0.0
 40
9.221998189084749
100
AcDbArc
 50
151.164131732
 51
152.5814694985
  0
ARC
  5
156
330
1F
100
AcDbEntity
  8
0
  6
Continuous
 62
     7
370
    30
100
AcDbCircle
 10
78.3107610909
 20
132.0046819095
 30
0.0
 40
20.00000000000001
100
AcDbArc
 50
170.7087799838
 51
184.3692120608
  0
ARC
  5
157
330
1F
100
AcDbEntity
  8
0
  6
Continuous
 62
     7
370
    30
100
AcDbCircle
 10
58.5414483737
 20
150.4802724402
 30
0.0
 40
20.00000000000005
100
AcDbArc
 50
268.6212825707
 51
269.5056345669
  0
ARC
  5
158
330
1F
100
AcDbEntity
  8
0
  6
Continuous
 62
     7
370
    30
100
AcDbCircle
 10
66.7775878031
 20
139.4447288024
 30
0.0
 40
9.221998189084749
100
AcDbArc
 50
185.0124568052
 51
207.1695390781
  0
ARC
  5
159
330
1F
100
AcDbEntity
  8
0
  6
Continuous
 62
     7
370
    30
100
AcDbCircle
 10
79.9272943709
 20
135.3578677496
 30
0.0
 40
20.00000000000004
100
AcDbArc
 50
134.6489665058
 51
139.0918341998
  0
ARC
  5
15A
330
1F
100
AcDbEntity
  8
0
  6
Continuous
 62
     7
370
    30
100
AcDbCircle
 10
59.1596403671
 20
130.7464425693
 30
0.0
 40
20.00000000000041
100
AcDbArc
 50
70.3896714
 51
84.0931009102
  0
ARC
  5
15B
330
1F
100
AcDbEntity
  8
0
  6
Continuous
 62
     7
370
    30
100
AcDbCircle
 10
66.7775878031
 20
139.4447288024
 30
0.0
 40
9.221998189084761
100
AcDbArc
 50
102.3059173582
 51
113.0124568052
  0
ARC
  5
15C
330
1F
100
AcDbEntity
  8
0
  6
Continuous
 62
     7
370
    30
100
AcDbCircle
 10
79.9272943709
 20
135.3578677496
 30
0.0
 40
20.00000000000002
100
AcDbArc
 50
186.3782148904
 51
193.829790141
  0
ARC
  5
15D
330
1F
100
AcDbEntity
  8
0
  6
Continuous
 62
     7
370
    30
100
AcDbCircle
 10
58.5414483737
 20
150.4802724402
 30
0.0
 40
20.00000000000005
100
AcDbArc
 50
269.5056345669
 51
275.6402589492
  0
ARC
  5
15E
330
1F
100
AcDbEntity
  8
0
  6
Continuous
 62
     7
370
    30
100
AcDbCircle
 10
66.7775878031
 20
139.4447288024
 30
0.0
 40
9.221998189084749
100
AcDbArc
 50
207.1695390781
 51
223.164131732
  0
ARC
  5
15F
330
1F
100
AcDbEntity
  8
0
  6
Continuous
 62
     7
370
    30
100
AcDbCircle
 10
53.7370550637
 20
135.0218652551
 30
0.0
 40
20.00000000000002
100
AcDbArc
 50
49.829790141
 51
56.8487665196
  0
ARC
  5
160
330
1F
100
AcDbEntity
  8
0
  6
Continuous
 62
     7
370
    30
100
AcDbCircle
 10
79.9272943709
 20
135.3578677496
 30
0.0
 40
20.00000000000005
100
AcDbArc
 50
131.6402589492
 51
134.6489665058
  0
ARC
  5
161
330
1F
100
AcDbEntity
  8
0
  6
Continuous
 62
     7
370
    30
100
AcDbCircle
 10
79.9272943709
 20
135.3578677496
 30
0.0
 40
20.00000000000003
100
AcDbArc
 50
193.829790141
 51
200.8487665196
  0
ARC
  5
162
330
1F
100
AcDbEntity
  8
0
  6
Continuous
 62
     7
370
    30
100
AcDbCircle
 10
58.5414483737
 20
150.4802724402
 30
0.0
 40
20.00000000000007
100
AcDbArc
 50
275.6402589492
 51
278.6489665058
  0
ARC
  5
163
330
1F
100
AcDbEntity
  8
0
  6
Continuous
 62
     7
370
    30
100
AcDbCircle
 10
78.0533611091
 20
142.0040730313
 30
0.0
 40
20.00000000000004
100
AcDbArc
 50
214.3896714
 51
228.0931009102
  0
ARC
  5
164
330
1F
100
AcDbEntity
  8
0
  6
Continuous
 62
     7
370
    30
100
AcDbCircle
 10
53.7370550637
 20
135.0218652551
 30
0.0
 40
20.00000000000002
100
AcDbArc
 50
42.3782148905
 51
49.829790141
  0
ARC
  5
165
330
1F
100
AcDbEntity
  8
0
  6
Continuous
 62
     7
370
    30
100
AcDbCircle
 10
79.9272943709
 20
135.3578677496
 30
0.0
 40
20.00000000000005
100
AcDbArc
 50
125.5056345669
 51
131.6402589492
  0
ARC
  5
166
330
1F
100
AcDbEntity
  8
0
  6
Continuous
 62
     7
370
    30
100
AcDbCircle
 10
53.0739047742
 20
138.684824007
 30
0.0
 40
20.00000000000005
100
AcDbArc
 50
26.7087799838
 51
40.3692120608
  0
ARC
  5
167
330
1F
100
AcDbEntity
  8
0
  6
Continuous
 62
     7
370
    30
100
AcDbCircle
 10
66.7775878031
 20
139.4447288024
 30
0.0
 40
9.221998189084736
100
AcDbArc
 50
63.1695390782
 51
79.164131732
  0
ARC
  5
168
330
1F
100
AcDbEntity
  8
0
  6
Continuous
 62
     7
370
    30
100
AcDbCircle
 10
78.3107610909
 20
132.0046819095
 30
0.0
 40
20.00000000000002
100
AcDbArc
 50
184.3692120608
 51
185.257140035
  0
ARC
  5
169
330
1F
100
AcDbEntity
  8
0
  6
Continuous
 62
     7
370
    30
100
AcDbCircle
 10
59.1596403671
 20
130.7464425693
 30
0.0
 40
20.00000000000037
100
AcDbArc
 50
62.8479079906
 51
70.3896714
  0
ARC
  5
16A
330
1F
100
AcDbEntity
  8
0
  6
Continuous
 62
     7
370
    30
100
AcDbCircle
 10
66.7775878031
 20
139.4447288024
 30
0.0
 40
9.221998189084736
100
AcDbArc
 50
79.164131732
 51
80.5814694985
  0
ARC
  5
16B
330
1F
100
AcDbEntity
  8
0
  6
Continuous
 62
     7
370
    30
100
AcDbCircle
 10
61.8202044542
 20
152.2428823483
 30
0.0
 40
20.00000000000004
100
AcDbArc
 50
328.3692120608
 51
329.257140035
  0
ARC
  5
16C
330
1F
100
AcDbEntity
  8
0
  6
Continuous
 62
     7
370
    30
100
AcDbCircle
 10
66.7775878031
 20
139.4447288024
 30
0.0
 40
9.221998189084761
100
AcDbArc
 50
80.5814694985
 51
102.3059173582
  0
ARC
  5
16D
330
1F
100
AcDbEntity
  8
0
  6
Continuous
 62
     7
370
    30
100
AcDbCircle
 10
53.0739047742
 20
138.684824007
 30
0.0
 40
20.00000000000005
100
AcDbArc
 50
40.3692120608
 51
41.257140035
  0
ARC
  5
16E
330
1F
100
AcDbEntity
  8
0
  6
Continuous
 62
     7
370
    30
100
AcDbCircle
 10
58.5414483737
 20
150.4802724402
 30
0.0
 40
20.00000000000007
100
AcDbArc
 50
278.6489665058
 51
283.0918341998
  0
ARC
  5
16F
330
1F
100
AcDbEntity
  8
0
  6
Continuous
 62
     7
370
    30
100
AcDbCircle
 10
66.7775878031
 20
139.4447288024
 30
0.0
 40
9.221998189084742
100
AcDbArc
 50
246.3059173582
 51
257.0124568052
  0
ARC
  5
170
330
1F
100
AcDbEntity
  8
0
  6
Continuous
 62
     7
370
    30
100
AcDbCircle
 10
79.9272943709
 20
135.3578677496
 30
0.0
 40
20.00000000000004
100
AcDbArc
 50
124.6212825706
 51
125.5056345669
  0
ARC
  5
171
330
1F
100
AcDbEntity
  8
0
  6
Continuous
 62
     7
370
    30
100
AcDbCircle
 10
66.7775878031
 20
139.4447288024
 30
0.0
 40
9.221998189084735
100
AcDbArc
 50
41.0124568052
 51
63.1695390782
  0
ARC
  5
172
330
1F
100
AcDbEntity
  8
0
  6
Continuous
 62
     7
370
    30
100
AcDbCircle
 10
78.0533611091
 20
142.0040730313
 30
0.0
 40
20.00000000000004
100
AcDbArc
 50
206.8479079906
 51
214.3896714
  0
ARC
  5
173
330
1F
100
AcDbEntity
  8
0
  6
Continuous
 62
     7
370
    30
100
AcDbCircle
 10
66.7775878031
 20
139.4447288024
 30
0.0
 40
9.221998189084742
100
AcDbArc
 50
224.5814694985
 51
246.3059173582
  0
ARC
  5
174
330
1F
100
AcDbEntity
  8
0
  6
Continuous
 62
     7
370
    30
100
AcDbCircle
 10
66.7775878031
 20
139.4447288024
 30
0.0
 40
9.221998189084736
100
AcDbArc
 50
223.164131732
 51
224.5814694985
  0
CIRCLE
  5
175
330
1F
100
AcDbEntity
  8
0
  6
Continuous
 62
     7
370
    30
100
AcDbCircle
 10
66.7775878031
 20
139.4447288024
 30
0.0
 40
6.000000000000015
  0
CIRCLE
  5
176
330
1F
100
AcDbEntity
  8
0
  6
Continuous
 62
     7
370
    30
100
AcDbCircle
 10
66.7775878031
 20
139.4447288024
 30
0.0
 40
12.49999999999999
  0
ARC
  5
177
330
1F
100
AcDbEntity
  8
0
  6
Continuous
 62
     7
370
    30
100
AcDbCircle
 10
89.7775878031
 20
162.4447288024
 30
0.0
 40
2.0
100
AcDbArc
 50
0.0
 51
90.0
  0
LINE
  5
178
330
1F
100
AcDbEntity
  8
0
  6
Continuous
 62
     7
370
    30
100
AcDbLine
 10
91.7775878031
 20
106.4447288024
 30
0.0
 11
91.7775878031
 21
162.4447288024
 31
0.0
  0
ARC
  5
179
330
1F
100
AcDbEntity
  8
0
  6
Continuous
 62
     7
370
    30
100
AcDbCircle
 10
89.7775878031
 20
106.4447288024
 30
0.0
 40
2.000000000000014
100
AcDbArc
 50
270.0
 51
0.0
  0
LINE
  5
17A
330
1F
100
AcDbEntity
  8
0
  6
Continuous
 62
     7
370
    30
100
AcDbLine
 10
43.7775878031
 20
104.4447288024
 30
0.0
 11
89.7775878031
 21
104.4447288024
 31
0.0
  0
ARC
  5
17B
330
1F
100
AcDbEntity
  8
0
  6
Continuous
 62
     7
370
    30
100
AcDbCircle
 10
43.7775878031
 20
106.4447288024
 30
0.0
 40
2.000000000000014
100
AcDbArc
 50
180.0
 51
270.0
  0
LINE
  5
17C
330
1F
100
AcDbEntity
  8
0
  6
Continuous
 62
     7
370
    30
100
AcDbLine
 10
41.7775878031
 20
162.4447288024
 30
0.0
 11
41.7775878031
 21
106.4447288024
 31
0.0
  0
ARC
  5
17D
330
1F
100
AcDbEntity
  8
0
  6
Continuous
 62
     7
370
    30
100
AcDbCircle
 10
43.7775878031
 20
162.4447288024
 30
0.0
 40
2.0
100
AcDbArc
 50
90.0
 51
180.0
  0
LINE
  5
17E
330
1F
100
AcDbEntity
  8
0
  6
Continuous
 62
     7
370
    30
100
AcDbLine
 10
89.7775878031
 20
164.4447288024
 30
0.0
 11
43.7775878031
 21
164.4447288024
 31
0.0
  0
CIRCLE
  5
17F
330
1F
100
AcDbEntity
  8
0
  6
Continuous
 62
     7
370
    30
100
AcDbCircle
 10
85.5275878031
 20
158.1947288024
 30
0.0
 40
1.65000000000002
  0
CIRCLE
  5
180
330
1F
100
AcDbEntity
  8
0
  6
Continuous
 62
     7
370
    30
100
AcDbCircle
 10
48.0275878031
 20
158.1947288024
 30
0.0
 40
1.649999999999999
  0
CIRCLE
  5
181
330
1F
100
AcDbEntity
  8
0
  6
Continuous
 62
     7
370
    30
100
AcDbCircle
 10
48.0275878031
 20
120.6947288024
 30
0.0
 40
1.649999999999999
  0
CIRCLE
  5
182
330
1F
100
AcDbEntity
  8
0
  6
Continuous
 62
     7
370
    30
100
AcDbCircle
 10
85.5275878031
 20
120.6947288024
 30
0.0
 40
1.65000000000002
  0
DIMENSION
  5
183
330
1F
100
AcDbEntity
  8
DIM
100
AcDbDimension
  2
_D
 10
66.7775878031
 20
175.170667767
 30
0.0
 11
57.4025878031
 21
175.170667767
 31
0.0
 70
   160
  1
<>
 71
     2
 42
-1.0
  3
SLDDIMSTYLE0
100
AcDbAlignedDimension
 13
48.0275878031
 23
160.8447288024
 33
0.0
 14
66.7775878031
 24
152.9447288024
 34
0.0
100
AcDbRotatedDimension
  0
DIMENSION
  5
18E
330
1F
100
AcDbEntity
  8
DIM
100
AcDbDimension
  2
_D_1
 10
85.5275878031
 20
175.170667767
 30
0.0
 11
76.1525878031
 21
175.170667767
 31
0.0
 70
   160
  1
<>
 71
     2
 42
-1.0
  3
SLDDIMSTYLE0
100
AcDbAlignedDimension
 13
66.7775878031
 23
152.9447288024
 33
0.0
 14
85.5275878031
 24
160.8447288024
 34
0.0
100
AcDbRotatedDimension
  0
DIMENSION
  5
198
330
1F
100
AcDbEntity
  8
DIM
100
AcDbDimension
  2
_D_2
 10
91.7775878031
 20
179.5921394005
 30
0.0
 11
66.7775878031
 21
179.5921394005
 31
0.0
 70
   160
  1
<>
 71
     2
 42
-1.0
  3
SLDDIMSTYLE0
100
AcDbAlignedDimension
 13
41.7775878031
 23
162.4447288024
 33
0.0
 14
91.7775878031
 24
162.4447288024
 34
0.0
 50
0.0
100
AcDbRotatedDimension
  0
DIMENSION
  5
1A2
330
1F
100
AcDbEntity
  8
DIM
100
AcDbDimension
  2
_D_3
 10
106.9249984012
 20
139.4447288024
 30
0.0
 11
106.9249984012
 21
148.8197288024
 31
0.0
 70
   160
  1
<>
 71
     2
 42
-1.0
  3
SLDDIMSTYLE0
100
AcDbAlignedDimension
 13
88.1775878031
 23
158.1947288024
 33
0.0
 14
80.2775878031
 24
139.4447288024
 34
0.0
 50
90.0
100
AcDbRotatedDimension
  0
DIMENSION
  5
1AC
330
1F
100
AcDbEntity
  8
DIM
100
AcDbDimension
  2
_D_4
 10
106.9249984012
 20
120.6947288024
 30
0.0
 11
106.9249984012
 21
130.0697288024
 31
0.0
 70
   160
  1
<>
 71
     2
 42
-1.0
  3
SLDDIMSTYLE0
100
AcDbAlignedDimension
 13
80.2775878031
 23
139.4447288024
 33
0.0
 14
88.1775878031
 24
120.6947288024
 34
0.0
 50
90.0
100
AcDbRotatedDimension
  0
DIMENSION
  5
1B6
330
1F
100
AcDbEntity
  8
DIM
100
AcDbDimension
  2
_D_5
 10
111.9249984012
 20
139.4447288024
 30
0.0
 11
111.9249984012
 21
151.9447288024
 31
0.0
 70
   160
  1
<>
 71
     2
 42
-1.0
  3
SLDDIMSTYLE0
100
AcDbAlignedDimension
 13
89.7775878031
 23
164.4447288024
 33
0.0
 14
80.2775878031
 24
139.4447288024
 34
0.0
 50
90.0
100
AcDbRotatedDimension
  0
DIMENSION
  5
1C0
330
1F
100
AcDbEntity
  8
DIM
100
AcDbDimension
  2
_D_6
 10
116.9249984012
 20
104.4447288024
 30
0.0
 11
116.9249984012
 21
134.4447288024
 31
0.0
 70
   160
  1
<>
 71
     2
 42
-1.0
  3
SLDDIMSTYLE0
100
AcDbAlignedDimension
 13
89.7775878031
 23
164.4447288024
 33
0.0
 14
89.7775878031
 24
104.4447288024
 34
0.0
 50
90.0
100
AcDbRotatedDimension
  0
DIMENSION
  5
1CA
330
1F
100
AcDbEntity
  8
DIM
100
AcDbDimension
  2
_D_7
 10
63.7184230977
 20
144.6062703652
 30
0.0
 11
119.3604164911
 21
87.2553298761
 31
0.0
 70
   163
  1
Aperture diameter in 0 to 25mm
 71
     1
 42
-1.0
  3
SLDDIMSTYLE1
100
AcDbDiametricDimension
 15
69.8367525085
 25
134.2831872395
 35
0.0
 40
0.0
  0
INSERT
  5
1DE
330
1F
100
AcDbEntity
  8
DIM
100
AcDbBlockReference
  2
SW_CENTERMARKSYMBOL_0
 10
48.0275878031
 20
158.1947288024
 30
0.0
  0
INSERT
  5
1EA
330
1F
100
AcDbEntity
  8
DIM
100
AcDbBlockReference
  2
SW_CENTERMARKSYMBOL_1
 10
85.5275878031
 20
158.1947288024
 30
0.0
  0
INSERT
  5
1F6
330
1F
100
AcDbEntity
  8
DIM
100
AcDbBlockReference
  2
SW_CENTERMARKSYMBOL_2
 10
48.0275878031
 20
120.6947288024
 30
0.0
  0
INSERT
  5
202
330
1F
100
AcDbEntity
  8
DIM
100
AcDbBlockReference
  2
SW_CENTERMARKSYMBOL_3
 10
85.5275878031
 20
120.6947288024
 30
0.0
  0
INSERT
  5
20E
330
1F
100
AcDbEntity
  8
DIM
100
AcDbBlockReference
  2
SW_CENTERMARKSYMBOL_4
 10
66.7775878031
 20
139.4447288024
 30
0.0
  0
LINE
  5
20F
330
1F
100
AcDbEntity
  8
0
  6
Continuous
 62
     7
370
    30
100
AcDbLine
 10
148.1063951549
 20
123.2447288024
 30
0.0
 11
148.0063951549
 21
123.1447288024
 31
0.0
  0
LINE
  5
210
330
1F
100
AcDbEntity
  8
0
  6
Continuous
 62
     7
370
    30
100
AcDbLine
 10
148.0063951549
 20
120.7447288024
 30
0.0
 11
148.1063951549
 21
120.6447288024
 31
0.0
  0
LINE
  5
211
330
1F
100
AcDbEntity
  8
0
  6
Continuous
 62
     7
370
    30
100
AcDbLine
 10
148.1063951549
 20
149.4947288024
 30
0.0
 11
148.0063951549
 21
149.3947288024
 31
0.0
  0
LINE
  5
212
330
1F
100
AcDbEntity
  8
0
  6
Continuous
 62
     7
370
    30
100
AcDbLine
 10
148.0063951549
 20
146.9947288024
 30
0.0
 11
148.1063951549
 21
146.8947288024
 31
0.0
  0
LINE
  5
213
330
1F
100
AcDbEntity
  8
0
  6
Continuous
 62
     7
370
    30
100
AcDbLine
 10
199.0063951549
 20
122.0031971734
 30
0.0
 11
184.0063951549
 21
122.0031971734
 31
0.0
  0
LINE
  5
214
330
1F
100
AcDbEntity
  8
0
  6
Continuous
 62
     7
370
    30
100
AcDbLine
 10
184.0063951549
 20
107.0031971734
 30
0.0
 11
199.0063951549
 21
107.0031971734
 31
0.0
  0
LINE
  5
215
330
1F
100
AcDbEntity
  8
0
  6
Continuous
 62
     7
370
    30
100
AcDbLine
 10
199.0063951549
 20
107.1031971734
 30
0.0
 11
200.5063951549
 21
107.1031971734
 31
0.0
  0
LINE
  5
216
330
1F
100
AcDbEntity
  8
0
  6
Continuous
 62
     7
370
    30
100
AcDbLine
 10
200.5063951549
 20
121.9031971734
 30
0.0
 11
199.0063951549
 21
121.9031971734
 31
0.0
  0
LINE
  5
217
330
1F
100
AcDbEntity
  8
0
  6
Continuous
 62
     7
370
    30
100
AcDbLine
 10
200.5263951549
 20
116.4450862394
 30
0.0
 11
200.5063951549
 21
116.4450862394
 31
0.0
  0
LINE
  5
218
330
1F
100
AcDbEntity
  8
0
  6
Continuous
 62
     7
370
    30
100
AcDbLine
 10
200.5063951549
 20
109.5377195158
 30
0.0
 11
200.5263951549
 21
109.5377195158
 31
0.0
  0
LINE
  5
219
330
1F
100
AcDbEntity
  8
0
  6
Continuous
 62
     7
370
    30
100
AcDbLine
 10
200.5263951549
 20
120.6512189208
 30
0.0
 11
200.5063951549
 21
120.6512189208
 31
0.0
  0
LINE
  5
21A
330
1F
100
AcDbEntity
  8
0
  6
Continuous
 62
     7
370
    30
100
AcDbLine
 10
200.5263951549
 20
111.5031971734
 30
0.0
 11
200.7063951549
 21
111.5031971734
 31
0.0
  0
LINE
  5
21B
330
1F
100
AcDbEntity
  8
0
  6
Continuous
 62
     7
370
    30
100
AcDbLine
 10
200.7063951549
 20
117.5031971734
 30
0.0
 11
200.5263951549
 21
117.5031971734
 31
0.0
  0
LINE
  5
21C
330
1F
100
AcDbEntity
  8
0
  6
Continuous
 62
     7
370
    30
100
AcDbLine
 10
200.5063951549
 20
109.0966531446
 30
0.0
 11
200.5263951549
 21
109.0966531446
 31
0.0
  0
LINE
  5
21D
330
1F
100
AcDbEntity
  8
0
  6
Continuous
 62
     7
370
    30
100
AcDbLine
 10
200.7063951549
 20
113.7531971734
 30
0.0
 11
201.7063951549
 21
113.7531971734
 31
0.0
  0
LINE
  5
21E
330
1F
100
AcDbEntity
  8
0
  6
Continuous
 62
     7
370
    30
100
AcDbLine
 10
201.7063951549
 20
115.2531971734
 30
0.0
 11
200.7063951549
 21
115.2531971734
 31
0.0
  0
LINE
  5
21F
330
1F
100
AcDbEntity
  8
0
  6
Continuous
 62
     7
370
    30
100
AcDbLine
 10
200.5063951549
 20
108.6555867733
 30
0.0
 11
200.5263951549
 21
108.6555867733
 31
0.0
  0
LINE
  5
220
330
1F
100
AcDbEntity
  8
0
  6
Continuous
 62
     7
370
    30
100
AcDbLine
 10
200.5063951549
 20
108.214520402
 30
0.0
 11
200.5263951549
 21
108.214520402
 31
0.0
  0
LINE
  5
221
330
1F
100
AcDbEntity
  8
0
  6
Continuous
 62
     7
370
    30
100
AcDbLine
 10
184.0063951549
 20
122.0031971734
 30
0.0
 11
166.1063951549
 21
122.0031971734
 31
0.0
  0
LINE
  5
222
330
1F
100
AcDbEntity
  8
0
  6
Continuous
 62
     7
370
    30
100
AcDbLine
 10
166.1063951549
 20
107.0031971734
 30
0.0
 11
184.0063951549
 21
107.0031971734
 31
0.0
  0
LINE
  5
223
330
1F
100
AcDbEntity
  8
0
  6
Continuous
 62
     7
370
    30
100
AcDbLine
 10
148.0063951549
 20
121.9447288024
 30
0.0
 11
148.0063951549
 21
123.1447288024
 31
0.0
  0
LINE
  5
224
330
1F
100
AcDbEntity
  8
0
  6
Continuous
 62
     7
370
    30
100
AcDbLine
 10
148.0063951549
 20
120.7447288024
 30
0.0
 11
148.0063951549
 21
121.9447288024
 31
0.0
  0
LINE
  5
225
330
1F
100
AcDbEntity
  8
0
  6
Continuous
 62
     7
370
    30
100
AcDbLine
 10
148.0063951549
 20
148.1947288024
 30
0.0
 11
148.0063951549
 21
149.3947288024
 31
0.0
  0
LINE
  5
226
330
1F
100
AcDbEntity
  8
0
  6
Continuous
 62
     7
370
    30
100
AcDbLine
 10
148.0063951549
 20
146.9947288024
 30
0.0
 11
148.0063951549
 21
148.1947288024
 31
0.0
  0
LINE
  5
227
330
1F
100
AcDbEntity
  8
0
  6
Continuous
 62
     7
370
    30
100
AcDbLine
 10
163.1063951549
 20
106.4447288024
 30
0.0
 11
166.1063951549
 21
106.4447288024
 31
0.0
  0
LINE
  5
228
330
1F
100
AcDbEntity
  8
0
  6
Continuous
 62
     7
370
    30
100
AcDbLine
 10
166.1063951549
 20
104.4447288024
 30
0.0
 11
163.1063951549
 21
104.4447288024
 31
0.0
  0
LINE
  5
229
330
1F
100
AcDbEntity
  8
0
  6
Continuous
 62
     7
370
    30
100
AcDbLine
 10
163.1063951549
 20
104.4447288024
 30
0.0
 11
163.1063951549
 21
106.4447288024
 31
0.0
  0
LINE
  5
22A
330
1F
100
AcDbEntity
  8
0
  6
Continuous
 62
     7
370
    30
100
AcDbLine
 10
166.1063951549
 20
106.4447288024
 30
0.0
 11
166.1063951549
 21
104.4447288024
 31
0.0
  0
LINE
  5
22B
330
1F
100
AcDbEntity
  8
0
  6
Continuous
 62
     7
370
    30
100
AcDbLine
 10
166.1063951549
 20
162.4447288024
 30
0.0
 11
163.1063951549
 21
162.4447288024
 31
0.0
  0
LINE
  5
22C
330
1F
100
AcDbEntity
  8
0
  6
Continuous
 62
     7
370
    30
100
AcDbLine
 10
163.1063951549
 20
106.4447288024
 30
0.0
 11
163.1063951549
 21
162.4447288024
 31
0.0
  0
LINE
  5
22D
330
1F
100
AcDbEntity
  8
0
  6
Continuous
 62
     7
370
    30
100
AcDbLine
 10
166.1063951549
 20
106.4447288024
 30
0.0
 11
166.1063951549
 21
162.4447288024
 31
0.0
  0
LINE
  5
22E
330
1F
100
AcDbEntity
  8
0
  6
Continuous
 62
     7
370
    30
100
AcDbLine
 10
163.1063951549
 20
164.4447288024
 30
0.0
 11
166.1063951549
 21
164.4447288024
 31
0.0
  0
LINE
  5
22F
330
1F
100
AcDbEntity
  8
0
  6
Continuous
 62
     7
370
    30
100
AcDbLine
 10
163.1063951549
 20
162.4447288024
 30
0.0
 11
163.1063951549
 21
164.4447288024
 31
0.0
  0
LINE
  5
230
330
1F
100
AcDbEntity
  8
0
  6
Continuous
 62
     7
370
    30
100
AcDbLine
 10
166.1063951549
 20
164.4447288024
 30
0.0
 11
166.1063951549
 21
162.4447288024
 31
0.0
  0
LINE
  5
231
330
1F
100
AcDbEntity
  8
0
  6
Continuous
 62
     7
370
    30
100
AcDbLine
 10
184.0063951549
 20
107.0031971734
 30
0.0
 11
184.0063951549
 21
122.0031971734
 31
0.0
  0
LINE
  5
232
330
1F
100
AcDbEntity
  8
0
  6
Continuous
 62
     7
370
    30
100
AcDbLine
 10
199.0063951549
 20
107.0031971734
 30
0.0
 11
199.0063951549
 21
122.0031971734
 31
0.0
  0
LINE
  5
233
330
1F
100
AcDbEntity
  8
0
  6
Continuous
 62
     7
370
    30
100
AcDbLine
 10
200.5063951549
 20
121.9031971734
 30
0.0
 11
200.5063951549
 21
107.1031971734
 31
0.0
  0
LINE
  5
234
330
1F
100
AcDbEntity
  8
0
  6
Continuous
 62
     7
370
    30
100
AcDbLine
 10
200.5263951549
 20
114.645438355
 30
0.0
 11
200.5063951549
 21
114.645438355
 31
0.0
  0
LINE
  5
235
330
1F
100
AcDbEntity
  8
0
  6
Continuous
 62
     7
370
    30
100
AcDbLine
 10
200.5263951549
 20
116.4450862394
 30
0.0
 11
200.5263951549
 21
114.645438355
 31
0.0
  0
LINE
  5
236
330
1F
100
AcDbEntity
  8
0
  6
Continuous
 62
     7
370
    30
100
AcDbLine
 10
200.5063951549
 20
111.2119675203
 30
0.0
 11
200.5263951549
 21
111.2119675203
 31
0.0
  0
LINE
  5
237
330
1F
100
AcDbEntity
  8
0
  6
Continuous
 62
     7
370
    30
100
AcDbLine
 10
200.5263951549
 20
114.645438355
 30
0.0
 11
200.5263951549
 21
111.2119675203
 31
0.0
  0
LINE
  5
238
330
1F
100
AcDbEntity
  8
0
  6
Continuous
 62
     7
370
    30
100
AcDbLine
 10
200.5263951549
 20
111.2119675203
 30
0.0
 11
200.5263951549
 21
109.5377195158
 31
0.0
  0
LINE
  5
239
330
1F
100
AcDbEntity
  8
0
  6
Continuous
 62
     7
370
    30
100
AcDbLine
 10
200.5263951549
 20
119.9075022807
 30
0.0
 11
200.5063951549
 21
119.9075022807
 31
0.0
  0
LINE
  5
23A
330
1F
100
AcDbEntity
  8
0
  6
Continuous
 62
     7
370
    30
100
AcDbLine
 10
200.5263951549
 20
119.9075022807
 30
0.0
 11
200.5263951549
 21
116.4450862394
 31
0.0
  0
LINE
  5
23B
330
1F
100
AcDbEntity
  8
0
  6
Continuous
 62
     7
370
    30
100
AcDbLine
 10
200.5263951549
 20
120.6512189208
 30
0.0
 11
200.5263951549
 21
119.9075022807
 31
0.0
  0
LINE
  5
23C
330
1F
100
AcDbEntity
  8
0
  6
Continuous
 62
     7
370
    30
100
AcDbLine
 10
200.7063951549
 20
117.5031971734
 30
0.0
 11
200.7063951549
 21
111.5031971734
 31
0.0
  0
LINE
  5
23D
330
1F
100
AcDbEntity
  8
0
  6
Continuous
 62
     7
370
    30
100
AcDbLine
 10
200.5263951549
 20
109.5377195158
 30
0.0
 11
200.5263951549
 21
109.0966531446
 31
0.0
  0
LINE
  5
23E
330
1F
100
AcDbEntity
  8
0
  6
Continuous
 62
     7
370
    30
100
AcDbLine
 10
201.7063951549
 20
115.2531971734
 30
0.0
 11
201.7063951549
 21
113.7531971734
 31
0.0
  0
LINE
  5
23F
330
1F
100
AcDbEntity
  8
0
  6
Continuous
 62
     7
370
    30
100
AcDbLine
 10
200.5263951549
 20
109.0966531446
 30
0.0
 11
200.5263951549
 21
108.6555867733
 31
0.0
  0
LINE
  5
240
330
1F
100
AcDbEntity
  8
0
  6
Continuous
 62
     7
370
    30
100
AcDbLine
 10
200.5263951549
 20
108.6555867733
 30
0.0
 11
200.5263951549
 21
108.214520402
 31
0.0
  0
LINE
  5
241
330
1F
100
AcDbEntity
  8
0
  6
Continuous
 62
     7
370
    30
100
AcDbLine
 10
148.1063951549
 20
106.4447288024
 30
0.0
 11
163.1063951549
 21
106.4447288024
 31
0.0
  0
LINE
  5
242
330
1F
100
AcDbEntity
  8
0
  6
Continuous
 62
     7
370
    30
100
AcDbLine
 10
163.1063951549
 20
104.4447288024
 30
0.0
 11
148.1063951549
 21
104.4447288024
 31
0.0
  0
LINE
  5
243
330
1F
100
AcDbEntity
  8
0
  6
Continuous
 62
     7
370
    30
100
AcDbLine
 10
148.1063951549
 20
104.4447288024
 30
0.0
 11
148.1063951549
 21
106.4447288024
 31
0.0
  0
LINE
  5
244
330
1F
100
AcDbEntity
  8
0
  6
Continuous
 62
     7
370
    30
100
AcDbLine
 10
148.1063951549
 20
106.4447288024
 30
0.0
 11
148.1063951549
 21
162.4447288024
 31
0.0
  0
LINE
  5
245
330
1F
100
AcDbEntity
  8
0
  6
Continuous
 62
     7
370
    30
100
AcDbLine
 10
163.1063951549
 20
162.4447288024
 30
0.0
 11
148.1063951549
 21
162.4447288024
 31
0.0
  0
LINE
  5
246
330
1F
100
AcDbEntity
  8
0
  6
Continuous
 62
     7
370
    30
100
AcDbLine
 10
148.1063951549
 20
164.4447288024
 30
0.0
 11
163.1063951549
 21
164.4447288024
 31
0.0
  0
LINE
  5
247
330
1F
100
AcDbEntity
  8
0
  6
Continuous
 62
     7
370
    30
100
AcDbLine
 10
148.1063951549
 20
162.4447288024
 30
0.0
 11
148.1063951549
 21
164.4447288024
 31
0.0
  0
DIMENSION
  5
248
330
1F
100
AcDbEntity
  8
DIM
100
AcDbDimension
  2
_D_8
 10
166.1063951549
 20
97.4447288024
 30
0.0
 11
157.1063951549
 21
97.4447288024
 31
0.0
 70
   160
  1
<>
 71
     2
 42
-1.0
  3
SLDDIMSTYLE0
100
AcDbAlignedDimension
 13
148.1063951549
 23
104.4447288024
 33
0.0
 14
166.1063951549
 24
104.4447288024
 34
0.0
100
AcDbRotatedDimension
  0
DIMENSION
  5
252
330
1F
100
AcDbEntity
  8
DIM
100
AcDbDimension
  2
_D_9
 10
200.5063951549
 20
92.4447288024
 30
0.0
 11
174.3063951549
 21
92.4447288024
 31
0.0
 70
   160
  1
<>
 71
     2
 42
-1.0
  3
SLDDIMSTYLE0
100
AcDbAlignedDimension
 13
148.1063951549
 23
104.4447288024
 33
0.0
 14
200.5063951549
 24
107.1031971734
 34
0.0
100
AcDbRotatedDimension
  0
LINE
  5
25C
330
1F
100
AcDbEntity
  8
0
  6
Continuous
 62
     7
370
    30
100
AcDbLine
 10
240.181417652
 20
130.6795070703
 30
0.0
 11
240.181417652
 21
130.5978662591
 31
0.0
  0
LINE
  5
25D
330
1F
100
AcDbEntity
  8
0
  6
Continuous
 62
     7
370
    30
100
AcDbLine
 10
241.0298078798
 20
129.1282520443
 30
0.0
 11
241.1005070654
 21
129.0874250042
 31
0.0
  0
LINE
  5
25E
330
1F
100
AcDbEntity
  8
0
  6
Continuous
 62
     7
370
    30
100
AcDbLine
 10
229.4649000274
 20
158.3002173234
 30
0.0
 11
229.4649000274
 21
158.2185765122
 31
0.0
  0
LINE
  5
25F
330
1F
100
AcDbEntity
  8
0
  6
Continuous
 62
     7
370
    30
100
AcDbLine
 10
230.3132902551
 20
156.7489622973
 30
0.0
 11
230.3839894407
 21
156.7081352573
 31
0.0
  0
LINE
  5
260
330
1F
100
AcDbEntity
  8
0
  6
Continuous
 62
     7
370
    30
100
AcDbLine
 10
250.8979352767
 20
145.9271894412
 30
0.0
 11
250.8979352767
 21
145.84554863
 31
0.0
  0
LINE
  5
261
330
1F
100
AcDbEntity
  8
0
  6
Continuous
 62
     7
370
    30
100
AcDbLine
 10
251.7463255045
 20
144.3759344152
 30
0.0
 11
251.8170246901
 21
144.3351073751
 31
0.0
  0
LINE
  5
262
330
1F
100
AcDbEntity
  8
0
  6
Continuous
 62
     7
370
    30
100
AcDbLine
 10
236.565203829
 20
181.6872086961
 30
0.0
 11
234.4438834855
 21
180.4625965284
 31
0.0
  0
LINE
  5
263
330
1F
100
AcDbEntity
  8
0
  6
Continuous
 62
     7
370
    30
100
AcDbLine
 10
268.9706328853
 20
112.4947290413
 30
0.0
 11
271.0919532289
 21
113.7193412091
 31
0.0
  0
LINE
  5
264
330
1F
100
AcDbEntity
  8
0
  6
Continuous
 62
     7
370
    30
100
AcDbLine
 10
271.5062480586
 20
144.8370262019
 30
0.0
 11
271.6704134634
 21
144.9317968728
 31
0.0
  0
LINE
  5
265
330
1F
100
AcDbEntity
  8
0
  6
Continuous
 62
     7
370
    30
100
AcDbLine
 10
247.3292524051
 20
148.0845156863
 30
0.0
 11
247.0561918125
 21
147.9268811616
 31
0.0
  0
LINE
  5
266
330
1F
100
AcDbEntity
  8
0
  6
Continuous
 62
     7
370
    30
100
AcDbLine
 10
234.4438834855
 20
180.4625965284
 30
0.0
 11
223.8372817677
 21
174.3395356897
 31
0.0
  0
LINE
  5
267
330
1F
100
AcDbEntity
  8
0
  6
Continuous
 62
     7
370
    30
100
AcDbLine
 10
258.3640311675
 20
106.3716682026
 30
0.0
 11
268.9706328853
 21
112.4947290413
 31
0.0
  0
LWPOLYLINE
  5
268
330
1F
100
AcDbEntity
  8
0
  6
Continuous
 62
     7
370
    30
100
AcDbPolyline
 90
       19
 70
   128
 43
0.0
 10
241.8784739269
 20
129.6181765249
 10
241.8273014187
 20
129.9828458717
 10
241.679956054
 20
130.3626132336
 10
241.4542098582
 20
130.711673062
 10
241.1772911542
 20
130.9879235901
 10
240.8826004247
 20
131.1580449272
 10
240.6056817208
 20
131.2015179291
 10
240.379935525
 20
131.1130991105
 10
240.2325901602
 20
130.9034530856
 10
240.181417652
 20
130.5978662591
 10
240.2325901602
 20
130.2331969123
 10
240.379935525
 20
129.8534295504
 10
240.6056817208
 20
129.504369722
 10
240.8826004247
 20
129.2281191939
 10
241.1772911542
 20
129.0579978569
 10
241.4542098582
 20
129.0145248549
 10
241.679956054
 20
129.1029436736
 10
241.8273014187
 20
129.3125896985
 10
241.8784739269
 20
129.6181765249
  0
LINE
  5
269
330
1F
100
AcDbEntity
  8
0
  6
Continuous
 62
     7
370
    30
100
AcDbLine
 10
241.5602758754
 20
129.4482958069
 30
0.0
 11
241.5602758754
 21
130.1554408932
 31
0.0
  0
LINE
  5
26A
330
1F
100
AcDbEntity
  8
0
  6
Continuous
 62
     7
370
    30
100
AcDbLine
 10
241.5602758754
 20
130.1554408932
 30
0.0
 11
241.0299457895
 21
130.8151664783
 31
0.0
  0
LINE
  5
26B
330
1F
100
AcDbEntity
  8
0
  6
Continuous
 62
     7
370
    30
100
AcDbLine
 10
241.0299457895
 20
130.8151664783
 30
0.0
 11
240.4996157036
 21
130.7677469771
 31
0.0
  0
LINE
  5
26C
330
1F
100
AcDbEntity
  8
0
  6
Continuous
 62
     7
370
    30
100
AcDbLine
 10
240.4996157036
 20
130.7677469771
 30
0.0
 11
240.4996157036
 21
130.0606018908
 31
0.0
  0
LINE
  5
26D
330
1F
100
AcDbEntity
  8
0
  6
Continuous
 62
     7
370
    30
100
AcDbLine
 10
240.4996157036
 20
130.0606018908
 30
0.0
 11
241.0299457895
 21
129.4008763057
 31
0.0
  0
LINE
  5
26E
330
1F
100
AcDbEntity
  8
0
  6
Continuous
 62
     7
370
    30
100
AcDbLine
 10
241.0299457895
 20
129.4008763057
 30
0.0
 11
241.5602758754
 21
129.4482958069
 31
0.0
  0
LINE
  5
26F
330
1F
100
AcDbEntity
  8
0
  6
Continuous
 62
     7
370
    30
100
AcDbLine
 10
241.5602758754
 20
129.7070293476
 30
0.0
 11
241.0299457895
 21
129.4008763057
 31
0.0
  0
LINE
  5
270
330
1F
100
AcDbEntity
  8
0
  6
Continuous
 62
     7
370
    30
100
AcDbLine
 10
241.2761528458
 20
130.5088872409
 30
0.0
 11
240.4996157036
 21
130.0606018908
 31
0.0
  0
LWPOLYLINE
  5
271
330
1F
100
AcDbEntity
  8
0
  6
Continuous
 62
     7
370
    30
100
AcDbPolyline
 90
       19
 70
   128
 43
0.0
 10
231.1619563022
 20
157.238886778
 10
231.1107837941
 20
157.6035561248
 10
230.9634384293
 20
157.9833234867
 10
230.7376922335
 20
158.3323833151
 10
230.4607735296
 20
158.6086338432
 10
230.1660828
 20
158.7787551802
 10
229.8891640961
 20
158.8222281822
 10
229.6634179003
 20
158.7338093635
 10
229.5160725355
 20
158.5241633386
 10
229.4649000274
 20
158.2185765122
 10
229.5160725355
 20
157.8539071654
 10
229.6634179003
 20
157.4741398035
 10
229.8891640961
 20
157.125079975
 10
230.1660828
 20
156.848829447
 10
230.4607735296
 20
156.6787081099
 10
230.7376922335
 20
156.635235108
 10
230.9634384293
 20
156.7236539266
 10
231.1107837941
 20
156.9332999515
 10
231.1619563022
 20
157.238886778
  0
LINE
  5
272
330
1F
100
AcDbEntity
  8
0
  6
Continuous
 62
     7
370
    30
100
AcDbLine
 10
230.8437582507
 20
157.06900606
 30
0.0
 11
230.8437582507
 21
157.7761511463
 31
0.0
  0
LINE
  5
273
330
1F
100
AcDbEntity
  8
0
  6
Continuous
 62
     7
370
    30
100
AcDbLine
 10
230.8437582507
 20
157.7761511463
 30
0.0
 11
230.3134281648
 21
158.4358767314
 31
0.0
  0
LINE
  5
274
330
1F
100
AcDbEntity
  8
0
  6
Continuous
 62
     7
370
    30
100
AcDbLine
 10
230.3134281648
 20
158.4358767314
 30
0.0
 11
229.7830980789
 21
158.3884572302
 31
0.0
  0
LINE
  5
275
330
1F
100
AcDbEntity
  8
0
  6
Continuous
 62
     7
370
    30
100
AcDbLine
 10
229.7830980789
 20
158.3884572302
 30
0.0
 11
229.7830980789
 21
157.6813121439
 31
0.0
  0
LINE
  5
276
330
1F
100
AcDbEntity
  8
0
  6
Continuous
 62
     7
370
    30
100
AcDbLine
 10
229.7830980789
 20
157.6813121439
 30
0.0
 11
230.3134281648
 21
157.0215865588
 31
0.0
  0
LINE
  5
277
330
1F
100
AcDbEntity
  8
0
  6
Continuous
 62
     7
370
    30
100
AcDbLine
 10
230.3134281648
 20
157.0215865588
 30
0.0
 11
230.8437582507
 21
157.06900606
 31
0.0
  0
LINE
  5
278
330
1F
100
AcDbEntity
  8
0
  6
Continuous
 62
     7
370
    30
100
AcDbLine
 10
230.8437582507
 20
157.3277396007
 30
0.0
 11
230.3134281648
 21
157.0215865588
 31
0.0
  0
LINE
  5
279
330
1F
100
AcDbEntity
  8
0
  6
Continuous
 62
     7
370
    30
100
AcDbLine
 10
230.5596352211
 20
158.129597494
 30
0.0
 11
229.7830980789
 21
157.6813121439
 31
0.0
  0
LWPOLYLINE
  5
27A
330
1F
100
AcDbEntity
  8
0
  6
Continuous
 62
     7
370
    30
100
AcDbPolyline
 90
       19
 70
   128
 43
0.0
 10
252.5949915516
 20
144.8658588958
 10
252.5438190434
 20
145.2305282426
 10
252.3964736786
 20
145.6102956045
 10
252.1707274829
 20
145.959355433
 10
251.8938087789
 20
146.2356059611
 10
251.5991180494
 20
146.4057272981
 10
251.3221993454
 20
146.4492003001
 10
251.0964531496
 20
146.3607814814
 10
250.9491077849
 20
146.1511354565
 10
250.8979352767
 20
145.84554863
 10
250.9491077849
 20
145.4808792833
 10
251.0964531496
 20
145.1011119213
 10
251.3221993454
 20
144.7520520929
 10
251.5991180494
 20
144.4758015648
 10
251.8938087789
 20
144.3056802278
 10
252.1707274829
 20
144.2622072258
 10
252.3964736786
 20
144.3506260445
 10
252.5438190434
 20
144.5602720694
 10
252.5949915516
 20
144.8658588958
  0
LINE
  5
27B
330
1F
100
AcDbEntity
  8
0
  6
Continuous
 62
     7
370
    30
100
AcDbLine
 10
252.2767935
 20
144.6959781778
 30
0.0
 11
252.2767935
 21
145.4031232642
 31
0.0
  0
LINE
  5
27C
330
1F
100
AcDbEntity
  8
0
  6
Continuous
 62
     7
370
    30
100
AcDbLine
 10
252.2767935
 20
145.4031232642
 30
0.0
 11
251.7464634141
 21
146.0628488493
 31
0.0
  0
LINE
  5
27D
330
1F
100
AcDbEntity
  8
0
  6
Continuous
 62
     7
370
    30
100
AcDbLine
 10
251.7464634141
 20
146.0628488493
 30
0.0
 11
251.2161333283
 21
146.015429348
 31
0.0
  0
LINE
  5
27E
330
1F
100
AcDbEntity
  8
0
  6
Continuous
 62
     7
370
    30
100
AcDbLine
 10
251.2161333283
 20
146.015429348
 30
0.0
 11
251.2161333283
 21
145.3082842617
 31
0.0
  0
LINE
  5
27F
330
1F
100
AcDbEntity
  8
0
  6
Continuous
 62
     7
370
    30
100
AcDbLine
 10
251.2161333283
 20
145.3082842617
 30
0.0
 11
251.7464634141
 21
144.6485586766
 31
0.0
  0
LINE
  5
280
330
1F
100
AcDbEntity
  8
0
  6
Continuous
 62
     7
370
    30
100
AcDbLine
 10
251.7464634141
 20
144.6485586766
 30
0.0
 11
252.2767935
 21
144.6959781778
 31
0.0
  0
LINE
  5
281
330
1F
100
AcDbEntity
  8
0
  6
Continuous
 62
     7
370
    30
100
AcDbLine
 10
252.2767935
 20
144.9547117185
 30
0.0
 11
251.7464634141
 21
144.6485586766
 31
0.0
  0
LINE
  5
282
330
1F
100
AcDbEntity
  8
0
  6
Continuous
 62
     7
370
    30
100
AcDbLine
 10
251.9926704704
 20
145.7565696119
 30
0.0
 11
251.2161333283
 21
145.3082842617
 31
0.0
  0
LINE
  5
283
330
1F
100
AcDbEntity
  8
0
  6
Continuous
 62
     7
370
    30
100
AcDbLine
 10
267.9707141527
 20
161.5861938555
 30
0.0
 11
270.0920344962
 21
162.8108060232
 31
0.0
  0
ARC
  5
284
330
1F
100
AcDbEntity
  8
0
  6
Continuous
 62
     7
370
    30
100
AcDbCircle
 10
268.4358158559
 20
160.2215945831
 30
0.0
 40
3.073609615143996
100
AcDbArc
 50
2.6054784857
 51
57.39452166
  0
LINE
  5
285
330
1F
100
AcDbEntity
  8
0
  6
Continuous
 62
     7
370
    30
100
AcDbLine
 10
271.5062480586
 20
160.3613162876
 30
0.0
 11
269.384927715
 21
159.1367041199
 31
0.0
  0
ARC
  5
286
330
1F
100
AcDbEntity
  8
0
  6
Continuous
 62
     7
370
    30
100
AcDbCircle
 10
266.3144955123
 20
158.9969824153
 30
0.0
 40
3.073609615143998
100
AcDbArc
 50
2.6054784857
 51
57.39452166
  0
LINE
  5
287
330
1F
100
AcDbEntity
  8
0
  6
Continuous
 62
     7
370
    30
100
AcDbLine
 10
269.384927715
 20
113.4104186543
 30
0.0
 11
269.384927715
 21
159.1367041199
 31
0.0
  0
ARC
  5
288
330
1F
100
AcDbEntity
  8
0
  6
Continuous
 62
     7
370
    30
100
AcDbCircle
 10
268.4049239103
 20
113.3022451796
 30
0.0
 40
0.985955860073621
100
AcDbArc
 50
305.0133328773
 51
6.298847516
  0
ARC
  5
289
330
1F
100
AcDbEntity
  8
0
  6
Continuous
 62
     7
370
    30
100
AcDbCircle
 10
234.8579621084
 20
179.5458177691
 30
0.0
 40
1.005954471803576
100
AcDbArc
 50
54.3824225248
 51
114.3071190461
  0
LINE
  5
28A
330
1F
100
AcDbEntity
  8
0
  6
Continuous
 62
     7
370
    30
100
AcDbLine
 10
267.9707141527
 20
161.5861938555
 30
0.0
 11
235.4438022181
 21
180.3635804274
 31
0.0
  0
LINE
  5
28B
330
1F
100
AcDbEntity
  8
0
  6
Continuous
 62
     7
370
    30
100
AcDbLine
 10
269.384927715
 20
113.4104186543
 30
0.0
 11
271.5062480586
 21
114.635030822
 31
0.0
  0
LINE
  5
28C
330
1F
100
AcDbEntity
  8
0
  6
Continuous
 62
     7
370
    30
100
AcDbLine
 10
271.5062480586
 20
114.635030822
 30
0.0
 11
271.5062480586
 21
160.3613162876
 31
0.0
  0
LINE
  5
28D
330
1F
100
AcDbEntity
  8
0
  6
Continuous
 62
     7
370
    30
100
AcDbLine
 10
237.5651225617
 20
181.5881925951
 30
0.0
 11
235.4438022181
 21
180.3635804274
 31
0.0
  0
LINE
  5
28E
330
1F
100
AcDbEntity
  8
0
  6
Continuous
 62
     7
370
    30
100
AcDbLine
 10
270.0920344962
 20
162.8108060232
 30
0.0
 11
237.5651225617
 21
181.5881925951
 31
0.0
  0
ARC
  5
28F
330
1F
100
AcDbEntity
  8
0
  6
Continuous
 62
     7
370
    30
100
AcDbCircle
 10
236.9792824519
 20
180.7704299369
 30
0.0
 40
1.005954471803642
100
AcDbArc
 50
54.3824225248
 51
114.3071190461
  0
ARC
  5
290
330
1F
100
AcDbEntity
  8
0
  6
Continuous
 62
     7
370
    30
100
AcDbCircle
 10
270.5548769467
 20
114.5139027648
 30
0.0
 40
0.9590510929086968
100
AcDbArc
 50
304.0563508345
 51
7.2558295589
  0
ARC
  5
291
330
1F
100
AcDbEntity
  8
0
  6
Continuous
 62
     7
370
    30
100
AcDbCircle
 10
265.296851169
 20
148.0749260072
 30
0.0
 40
6.920329059930102
100
AcDbArc
 50
333.8013824637
 51
26.1986175363
  0
LWPOLYLINE
  5
292
330
1F
100
AcDbEntity
  8
0
  6
Continuous
 62
     7
370
    30
100
AcDbPolyline
 90
       14
 70
   128
 43
0.0
 10
271.5062480586
 20
153.7539909571
 10
271.7948792431
 20
153.2571754219
 10
272.2455827928
 20
152.357263654
 10
272.6166536281
 20
151.438412592
 10
272.9011794015
 20
150.5177386925
 10
273.093859936
 20
149.6123923683
 10
273.191105958
 20
148.7392385085
 10
273.191105958
 20
147.9145423174
 10
273.093859936
 20
147.1536663247
 10
272.9011794015
 20
146.4707842105
 10
272.6166536281
 20
145.8786167764
 10
272.2455827928
 20
145.3881949814
 10
271.7948792431
 20
145.0086544556
 10
271.6704134634
 20
144.9317968728
  0
LWPOLYLINE
  5
293
330
1F
100
AcDbEntity
  8
0
  6
Continuous
 62
     7
370
    30
100
AcDbPolyline
 90
       29
 70
   128
 43
0.0
 10
235.9611220562
 20
155.7091737667
 10
235.9344399409
 20
155.6812437695
 10
235.4405471771
 20
155.0629683196
 10
235.0311346637
 20
154.3412567163
 10
234.71068801
 20
153.524016183
 10
234.4827180965
 20
152.6202005779
 10
234.3497226092
 20
151.639712294
 10
234.3131586747
 20
150.5932937661
 10
234.373426895
 20
149.4924097745
 10
234.5298669588
 20
148.3491218347
 10
234.7807648762
 20
147.1759560486
 10
235.1233717569
 20
145.9857658659
 10
235.5539339284
 20
144.7915912595
 10
236.0677340614
 20
143.6065158561
 10
236.6591428541
 20
142.44352359
 10
237.3216807079
 20
141.3153564477
 10
238.0480887196
 20
140.2343748646
 10
238.830408211
 20
139.212422301
 10
239.6600679259
 20
138.2606954832
 10
240.527977939
 20
137.3896217293
 10
241.4246292465
 20
136.6087447056
 10
242.3401979491
 20
135.9266198642
 10
243.2646528844
 20
135.3507207076
 10
244.1878655307
 20
134.8873569076
 10
245.0997209771
 20
134.5416051748
 10
245.9902287445
 20
134.3172536375
 10
246.8496322434
 20
134.2167603383
 10
247.6685156693
 20
134.2412263026
 10
248.2908005444
 20
134.3512300066
  0
ARC
  5
294
330
1F
100
AcDbEntity
  8
0
  6
Continuous
 62
     7
370
    30
100
AcDbCircle
 10
256.6905208624
 20
153.4378471396
 30
0.0
 40
21.62576956809137
100
AcDbArc
 50
210.451404474
 51
211.6666492217
  0
ARC
  5
295
330
1F
100
AcDbEntity
  8
0
  6
Continuous
 62
     7
370
    30
100
AcDbCircle
 10
256.0163525537
 20
152.9930253946
 30
0.0
 40
20.81846730994528
100
AcDbArc
 50
211.5987454723
 51
220.9562053046
  0
ARC
  5
296
330
1F
100
AcDbEntity
  8
0
  6
Continuous
 62
     7
370
    30
100
AcDbCircle
 10
253.3586549707
 20
150.6304418041
 30
0.0
 40
17.26276590678851
100
AcDbArc
 50
220.8162218502
 51
232.0363021884
  0
ARC
  5
297
330
1F
100
AcDbEntity
  8
0
  6
Continuous
 62
     7
370
    30
100
AcDbCircle
 10
249.8506733919
 20
145.9647645802
 30
0.0
 40
11.42684302549698
100
AcDbArc
 50
231.5125548565
 51
250.2598176851
  0
ARC
  5
298
330
1F
100
AcDbEntity
  8
0
  6
Continuous
 62
     7
370
    30
100
AcDbCircle
 10
248.2215827367
 20
141.4864147917
 30
0.0
 40
6.66146651243065
100
AcDbArc
 50
250.4384480981
 51
270.9480637322
  0
ARC
  5
299
330
1F
100
AcDbEntity
  8
0
  6
Continuous
 62
     7
370
    30
100
AcDbCircle
 10
248.1722760578
 20
139.9960780966
 30
0.0
 40
5.172678432747682
100
AcDbArc
 50
271.7673089277
 51
274.9212683902
  0
LINE
  5
29A
330
1F
100
AcDbEntity
  8
0
  6
Continuous
 62
     7
370
    30
100
AcDbLine
 10
248.616023402
 20
134.8424686369
 30
0.0
 11
248.7091368124
 21
134.8513830515
 31
0.0
  0
ARC
  5
29B
330
1F
100
AcDbEntity
  8
0
  6
Continuous
 62
     7
370
    30
100
AcDbCircle
 10
240.8071498299
 20
152.7699286939
 30
0.0
 40
5.194435162959859
100
AcDbArc
 50
144.0247320854
 51
150.5834170835
  0
ARC
  5
29C
330
1F
100
AcDbEntity
  8
0
  6
Continuous
 62
     7
370
    30
100
AcDbCircle
 10
241.232997829
 20
152.5221703269
 30
0.0
 40
5.687071177961113
100
AcDbArc
 50
150.5163439699
 51
153.4771173224
  0
ARC
  5
29D
330
1F
100
AcDbEntity
  8
0
  6
Continuous
 62
     7
370
    30
100
AcDbCircle
 10
242.7969385887
 20
151.8502857303
 30
0.0
 40
7.387089934159712
100
AcDbArc
 50
154.2311432715
 51
172.9347499593
  0
ARC
  5
29E
330
1F
100
AcDbEntity
  8
0
  6
Continuous
 62
     7
370
    30
100
AcDbCircle
 10
247.1430484682
 20
151.2827335458
 30
0.0
 40
11.77004220209027
100
AcDbArc
 50
172.7951724982
 51
187.2887224282
  0
ARC
  5
29F
330
1F
100
AcDbEntity
  8
0
  6
Continuous
 62
     7
370
    30
100
AcDbCircle
 10
252.8485830949
 20
151.9971433335
 30
0.0
 40
17.52011620912064
100
AcDbArc
 50
187.2389465982
 51
201.3211956351
  0
ARC
  5
2A0
330
1F
100
AcDbEntity
  8
0
  6
Continuous
 62
     7
370
    30
100
AcDbCircle
 10
256.3317294574
 20
153.2456455522
 30
0.0
 40
21.21906705411138
100
AcDbArc
 50
201.0419749053
 51
210.4950099554
  0
LWPOLYLINE
  5
2A1
330
1F
100
AcDbEntity
  8
0
  6
Continuous
 62
     7
370
    30
100
AcDbPolyline
 90
       17
 70
   128
 43
0.0
 10
244.6498042465
 20
143.2625050873
 10
244.0600268403
 20
143.8719465833
 10
243.51155205
 20
144.5560461205
 10
243.0166318961
 20
145.2995220458
 10
242.586322077
 20
146.0857663356
 10
242.230235003
 20
146.8972155917
 10
241.956325071
 20
147.7157433785
 10
241.770710976
 20
148.5230651379
 10
241.6775390305
 20
149.3011466359
 10
241.6788905415
 20
150.0326068174
 10
241.7747353187
 20
150.7011060709
 10
241.9629323481
 20
151.2917112275
 10
242.2392776189
 20
151.791229144
 10
242.5975980346
 20
152.1885014157
 10
243.0298893092
 20
152.4746536364
 10
243.5264947698
 20
152.6432936384
 10
243.7199214407
 20
152.6745472975
  0
LWPOLYLINE
  5
2A2
330
1F
100
AcDbEntity
  8
0
  6
Continuous
 62
     7
370
    30
100
AcDbPolyline
 90
       10
 70
   128
 43
0.0
 10
249.5429095284
 20
142.5877431517
 10
249.2203671247
 20
142.2396857559
 10
248.7880758501
 20
141.9535335352
 10
248.2914703895
 20
141.7848935332
 10
247.7416440881
 20
141.7375328889
 10
247.1508791571
 20
141.8125095608
 10
246.5323723086
 20
142.008148694
 10
245.8999399637
 20
142.3200800335
 10
245.267709616
 20
142.7413355486
 10
244.6498042465
 20
143.2625050873
  0
ARC
  5
2A3
330
1F
100
AcDbEntity
  8
0
  6
Continuous
 62
     7
370
    30
100
AcDbCircle
 10
246.2997271154
 20
149.9826416839
 30
0.0
 40
8.608838501667645
100
AcDbArc
 50
175.0370606392
 51
184.3709037973
  0
ARC
  5
2A4
330
1F
100
AcDbEntity
  8
0
  6
Continuous
 62
     7
370
    30
100
AcDbCircle
 10
243.1102063904
 20
150.362415083
 30
0.0
 40
5.399392486073718
100
AcDbArc
 50
150.2275892536
 51
176.1239560869
  0
ARC
  5
2A5
330
1F
100
AcDbEntity
  8
0
  6
Continuous
 62
     7
370
    30
100
AcDbCircle
 10
241.7443351161
 20
151.0298142625
 30
0.0
 40
3.883668898125533
100
AcDbArc
 50
146.6673133087
 51
148.7679749902
  0
ARC
  5
2A6
330
1F
100
AcDbEntity
  8
0
  6
Continuous
 62
     7
370
    30
100
AcDbCircle
 10
241.2693030132
 20
151.3805212416
 30
0.0
 40
3.294224361767283
100
AcDbArc
 50
120.7031696199
 51
147.2236073097
  0
ARC
  5
2A7
330
1F
100
AcDbEntity
  8
0
  6
Continuous
 62
     7
370
    30
100
AcDbCircle
 10
241.2295015432
 20
151.3516349881
 30
0.0
 40
3.299102685573712
100
AcDbArc
 50
92.3271225782
 51
119.8526497993
  0
LINE
  5
2A8
330
1F
100
AcDbEntity
  8
0
  6
Continuous
 62
     7
370
    30
100
AcDbLine
 10
249.8021907154
 20
139.1303085764
 30
0.0
 11
249.9394888049
 21
139.3281920417
 31
0.0
  0
ARC
  5
2A9
330
1F
100
AcDbEntity
  8
0
  6
Continuous
 62
     7
370
    30
100
AcDbCircle
 10
247.1448346722
 20
141.0869935185
 30
0.0
 40
3.300023803398199
100
AcDbArc
 50
305.9273921463
 51
323.6347538283
  0
ARC
  5
2AA
330
1F
100
AcDbEntity
  8
0
  6
Continuous
 62
     7
370
    30
100
AcDbCircle
 10
247.1863545988
 20
141.1092940966
 30
0.0
 40
3.294050873488661
100
AcDbArc
 50
269.0171164543
 51
305.11496883
  0
ARC
  5
2AB
330
1F
100
AcDbEntity
  8
0
  6
Continuous
 62
     7
370
    30
100
AcDbCircle
 10
247.1282180293
 20
141.9311512168
 30
0.0
 40
4.115423644397523
100
AcDbArc
 50
268.0016767087
 51
270.0227122332
  0
ARC
  5
2AC
330
1F
100
AcDbEntity
  8
0
  6
Continuous
 62
     7
370
    30
100
AcDbCircle
 10
247.2423868052
 20
143.1077354749
 30
0.0
 40
5.29577760168749
100
AcDbArc
 50
247.9127553026
 51
267.2110799444
  0
ARC
  5
2AD
330
1F
100
AcDbEntity
  8
0
  6
Continuous
 62
     7
370
    30
100
AcDbCircle
 10
248.6997404132
 20
146.6060074865
 30
0.0
 40
9.085378243539838
100
AcDbArc
 50
229.0603028808
 51
247.6921031852
  0
ARC
  5
2AE
330
1F
100
AcDbEntity
  8
0
  6
Continuous
 62
     7
370
    30
100
AcDbCircle
 10
251.0483277762
 20
149.5457302275
 30
0.0
 40
12.84589070728916
100
AcDbArc
 50
222.5931572577
 51
229.7390490115
  0
ARC
  5
2AF
330
1F
100
AcDbEntity
  8
0
  6
Continuous
 62
     7
370
    30
100
AcDbCircle
 10
252.9022419772
 20
151.2186125035
 30
0.0
 40
15.34290563983443
100
AcDbArc
 50
209.6431036067
 51
222.5066398423
  0
ARC
  5
2B0
330
1F
100
AcDbEntity
  8
0
  6
Continuous
 62
     7
370
    30
100
AcDbCircle
 10
253.4274344875
 20
151.5544524268
 30
0.0
 40
15.96549993598511
100
AcDbArc
 50
208.9398383952
 51
209.7584029311
  0
ARC
  5
2B1
330
1F
100
AcDbEntity
  8
0
  6
Continuous
 62
     7
370
    30
100
AcDbCircle
 10
252.9688243924
 20
151.3199947366
 30
0.0
 40
15.4507143724469
100
AcDbArc
 50
199.5684715117
 51
209.0019031298
  0
ARC
  5
2B2
330
1F
100
AcDbEntity
  8
0
  6
Continuous
 62
     7
370
    30
100
AcDbCircle
 10
249.9821306088
 20
150.337933025
 30
0.0
 40
12.30782987692005
100
AcDbArc
 50
184.7135872334
 51
199.9176298718
  0
LWPOLYLINE
  5
2B3
330
1F
100
AcDbEntity
  8
0
  6
Continuous
 62
     7
370
    30
100
AcDbPolyline
 90
       27
 70
   128
 43
0.0
 10
239.6725546937
 20
154.2609862832
 10
239.2171765531
 20
153.920650669
 10
238.7703379273
 20
153.429867137
 10
238.4049121554
 20
152.8353480543
 10
238.1262279678
 20
152.145762848
 10
237.9383492076
 20
151.3711672232
 10
237.8440155702
 20
150.5228565283
 10
237.8446026524
 20
149.6132010435
 10
237.9401018932
 20
148.6554655942
 10
238.1291206987
 20
147.6636161197
 10
238.408902749
 20
146.6521160189
 10
238.7753681919
 20
145.635715241
 10
239.223173136
 20
144.629235198
 10
239.7457875768
 20
143.6473526354
 10
240.3355906189
 20
142.7043856119
 10
240.983981606
 20
141.8140847101
 10
241.6815055372
 20
140.9894325219
 10
242.4179909431
 20
140.2424543333
 10
243.182698208
 20
139.5840427682
 10
243.9644761779
 20
139.0237989499
 10
244.7519247698
 20
138.5698924947
 10
245.5335612099
 20
138.228942381
 10
246.2979874788
 20
138.0059204292
 10
247.0340565203
 20
137.9040788014
 10
247.7310347901
 20
137.924902578
 10
248.3787587758
 20
138.0680881014
 10
248.8927192721
 20
138.2894622312
  0
ARC
  5
2B4
330
1F
100
AcDbEntity
  8
0
  6
Continuous
 62
     7
370
    30
100
AcDbCircle
 10
233.643822716
 20
139.6017325293
 30
0.0
 40
15.48289804858282
100
AcDbArc
 50
351.2150437098
 51
355.6032015597
  0
LWPOLYLINE
  5
2B5
330
1F
100
AcDbEntity
  8
0
  6
Continuous
 62
     7
370
    30
100
AcDbPolyline
 90
       15
 70
   128
 43
0.0
 10
244.7912256028
 20
143.3441458985
 10
244.2014481966
 20
143.9535873944
 10
243.6529734063
 20
144.6376869317
 10
243.1580532524
 20
145.381162857
 10
242.7277434333
 20
146.1674071468
 10
242.3716563593
 20
146.9788564029
 10
242.0977464272
 20
147.7973841897
 10
241.9121323323
 20
148.6047059491
 10
241.8189603867
 20
149.3827874471
 10
241.8203118978
 20
150.1142476286
 10
241.916156675
 20
150.782746882
 10
242.1043537043
 20
151.3733520387
 10
242.3806989752
 20
151.8728699552
 10
242.7390193909
 20
152.2701422269
 10
242.9807703058
 20
152.449763785
  0
ARC
  5
2B6
330
1F
100
AcDbEntity
  8
0
  6
Continuous
 62
     7
370
    30
100
AcDbCircle
 10
247.7885888384
 20
145.6489663022
 30
0.0
 40
3.781055865713411
100
AcDbArc
 50
217.5584593207
 51
288.3447649019
  0
ARC
  5
2B7
330
1F
100
AcDbEntity
  8
0
  6
Continuous
 62
     7
370
    30
100
AcDbCircle
 10
235.2322996562
 20
139.3621699811
 30
0.0
 40
13.8764700179532
100
AcDbArc
 50
347.9941209981
 51
351.1908884006
  0
ARC
  5
2B8
330
1F
100
AcDbEntity
  8
0
  6
Continuous
 62
     7
370
    30
100
AcDbCircle
 10
235.004128265
 20
143.0637361616
 30
0.0
 40
12.0545016405338
100
AcDbArc
 50
67.6536528242
 51
83.6064872254
  0
ARC
  5
2B9
330
1F
100
AcDbEntity
  8
0
  6
Continuous
 62
     7
370
    30
100
AcDbCircle
 10
262.9401238335
 20
161.3179759968
 30
0.0
 40
27.32387579983238
100
AcDbArc
 50
192.6779030529
 51
193.2759984612
  0
ARC
  5
2BA
330
1F
100
AcDbEntity
  8
0
  6
Continuous
 62
     7
370
    30
100
AcDbCircle
 10
252.0232859561
 20
150.030156881
 30
0.0
 40
13.15819124341538
100
AcDbArc
 50
248.167601506
 51
256.4709629415
  0
ARC
  5
2BB
330
1F
100
AcDbEntity
  8
0
  6
Continuous
 62
     7
370
    30
100
AcDbCircle
 10
264.981704641
 20
154.3612222731
 30
0.0
 40
25.47189168330278
100
AcDbArc
 50
229.3922551231
 51
230.021535097
  0
ARC
  5
2BC
330
1F
100
AcDbEntity
  8
0
  6
Continuous
 62
     7
370
    30
100
AcDbCircle
 10
236.9724837139
 20
138.9739323427
 30
0.0
 40
12.09360523059602
100
AcDbArc
 50
340.9335803836
 51
348.0782916618
  0
ARC
  5
2BD
330
1F
100
AcDbEntity
  8
0
  6
Continuous
 62
     7
370
    30
100
AcDbCircle
 10
238.0195233403
 20
144.7416731916
 30
0.0
 40
8.43588408792006
100
AcDbArc
 50
86.737918891
 51
97.7748863361
  0
ARC
  5
2BE
330
1F
100
AcDbEntity
  8
0
  6
Continuous
 62
     7
370
    30
100
AcDbCircle
 10
264.4459415657
 20
161.6891380878
 30
0.0
 40
28.87468934124583
100
AcDbArc
 50
193.3066434056
 51
197.3052433023
  0
ARC
  5
2BF
330
1F
100
AcDbEntity
  8
0
  6
Continuous
 62
     7
370
    30
100
AcDbCircle
 10
261.4190746737
 20
155.4861643449
 30
0.0
 40
22.81461618002244
100
AcDbArc
 50
230.7518378826
 51
236.434909689
  0
ARC
  5
2C0
330
1F
100
AcDbEntity
  8
0
  6
Continuous
 62
     7
370
    30
100
AcDbCircle
 10
267.1854052384
 20
156.8061524465
 30
0.0
 40
28.76249554627729
100
AcDbArc
 50
220.3059079585
 51
229.2295770419
  0
ARC
  5
2C1
330
1F
100
AcDbEntity
  8
0
  6
Continuous
 62
     7
370
    30
100
AcDbCircle
 10
241.7833585643
 20
147.173041544
 30
0.0
 40
6.76395325602595
100
AcDbArc
 50
119.7838103463
 51
132.7288437337
  0
ARC
  5
2C2
330
1F
100
AcDbEntity
  8
0
  6
Continuous
 62
     7
370
    30
100
AcDbCircle
 10
266.2104539509
 20
162.225716257
 30
0.0
 40
30.71894289678535
100
AcDbArc
 50
197.2817672279
 51
199.1637047957
  0
ARC
  5
2C3
330
1F
100
AcDbEntity
  8
0
  6
Continuous
 62
     7
370
    30
100
AcDbCircle
 10
267.4129178866
 20
162.6463050161
 30
0.0
 40
31.99283778008426
100
AcDbArc
 50
199.1682729703
 51
201.8729094027
  0
ARC
  5
2C4
330
1F
100
AcDbEntity
  8
0
  6
Continuous
 62
     7
370
    30
100
AcDbCircle
 10
271.552332509
 20
156.9324134704
 30
0.0
 40
33.54489012605588
100
AcDbArc
 50
210.8260048526
 51
220.359349199
  0
ARC
  5
2C5
330
1F
100
AcDbEntity
  8
0
  6
Continuous
 62
     7
370
    30
100
AcDbCircle
 10
238.1252684834
 20
138.5975582548
 30
0.0
 40
10.88113372217331
100
AcDbArc
 50
339.7188358407
 51
340.8238087128
  0
ARC
  5
2C6
330
1F
100
AcDbEntity
  8
0
  6
Continuous
 62
     7
370
    30
100
AcDbCircle
 10
237.8657971258
 20
145.9168675141
 30
0.0
 40
7.250699839485885
100
AcDbArc
 50
97.8275836464
 51
109.3284323777
  0
ARC
  5
2C7
330
1F
100
AcDbEntity
  8
0
  6
Continuous
 62
     7
370
    30
100
AcDbCircle
 10
235.3599507025
 20
145.3808355756
 30
0.0
 40
9.712660593681928
100
AcDbArc
 50
84.1703631956
 51
85.3670906137
  0
ARC
  5
2C8
330
1F
100
AcDbEntity
  8
0
  6
Continuous
 62
     7
370
    30
100
AcDbCircle
 10
247.8340734821
 20
144.0359169881
 30
0.0
 40
11.41786209879496
100
AcDbArc
 50
152.3956301302
 51
171.9902442103
  0
ARC
  5
2C9
330
1F
100
AcDbEntity
  8
0
  6
Continuous
 62
     7
370
    30
100
AcDbCircle
 10
242.6368898433
 20
146.3391681403
 30
0.0
 40
7.955875615110041
100
AcDbArc
 50
133.1693999717
 51
154.298642732
  0
ARC
  5
2CA
330
1F
100
AcDbEntity
  8
0
  6
Continuous
 62
     7
370
    30
100
AcDbCircle
 10
271.9714137442
 20
155.1451076981
 30
0.0
 40
34.3950824203136
100
AcDbArc
 50
203.855642877
 51
211.7999101381
  0
ARC
  5
2CB
330
1F
100
AcDbEntity
  8
0
  6
Continuous
 62
     7
370
    30
100
AcDbCircle
 10
245.6942031281
 20
154.0969882657
 30
0.0
 40
13.86606865062386
100
AcDbArc
 50
248.0664437499
 51
252.7894958795
  0
ARC
  5
2CC
330
1F
100
AcDbEntity
  8
0
  6
Continuous
 62
     7
370
    30
100
AcDbCircle
 10
255.8536349421
 20
143.5801196329
 30
0.0
 40
17.63069144804869
100
AcDbArc
 50
171.6349042998
 51
184.0085700276
  0
ARC
  5
2CD
330
1F
100
AcDbEntity
  8
0
  6
Continuous
 62
     7
370
    30
100
AcDbCircle
 10
248.0486999178
 20
159.0049976672
 30
0.0
 40
19.31754407632872
100
AcDbArc
 50
238.8212685187
 51
239.5749099952
  0
ARC
  5
2CE
330
1F
100
AcDbEntity
  8
0
  6
Continuous
 62
     7
370
    30
100
AcDbCircle
 10
263.2840820577
 20
146.0445875325
 30
0.0
 40
23.93129982173055
100
AcDbArc
 50
185.3123792297
 51
190.8171682931
  0
ARC
  5
2CF
330
1F
100
AcDbEntity
  8
0
  6
Continuous
 62
     7
370
    30
100
AcDbCircle
 10
247.1956381464
 20
157.5074458135
 30
0.0
 40
17.59423164587896
100
AcDbArc
 50
239.5006973324
 51
245.0647372341
  0
ARC
  5
2D0
330
1F
100
AcDbEntity
  8
0
  6
Continuous
 62
     7
370
    30
100
AcDbCircle
 10
270.2384002422
 20
154.3754615088
 30
0.0
 40
32.49885418963057
100
AcDbArc
 50
199.3075606138
 51
203.8503463542
  0
ARC
  5
2D1
330
1F
100
AcDbEntity
  8
0
  6
Continuous
 62
     7
370
    30
100
AcDbCircle
 10
266.7252387879
 20
146.6918984591
 30
0.0
 40
27.43279716220064
100
AcDbArc
 50
190.796256523
 51
195.5301439784
  0
ARC
  5
2D2
330
1F
100
AcDbEntity
  8
0
  6
Continuous
 62
     7
370
    30
100
AcDbCircle
 10
246.2870047904
 20
155.5904874275
 30
0.0
 40
15.4728967557807
100
AcDbArc
 50
245.1230840633
 51
248.0959754859
  0
ARC
  5
2D3
330
1F
100
AcDbEntity
  8
0
  6
Continuous
 62
     7
370
    30
100
AcDbCircle
 10
259.4944835815
 20
143.701009823
 30
0.0
 40
21.27150562316988
100
AcDbArc
 50
183.6478437346
 51
184.3574535297
  0
ARC
  5
2D4
330
1F
100
AcDbEntity
  8
0
  6
Continuous
 62
     7
370
    30
100
AcDbCircle
 10
265.2870556562
 20
158.4008170568
 30
0.0
 40
21.26590018180107
100
AcDbArc
 50
200.7120542146
 51
219.2825692527
  0
ARC
  5
2D5
330
1F
100
AcDbEntity
  8
0
  6
Continuous
 62
     7
370
    30
100
AcDbCircle
 10
267.1402412437
 20
159.4706383247
 30
0.0
 40
23.16564192883018
100
AcDbArc
 50
203.4319628214
 51
216.5626606459
  0
LWPOLYLINE
  5
2D6
330
1F
100
AcDbEntity
  8
0
  6
Continuous
 62
     7
370
    30
100
AcDbPolyline
 90
       20
 70
   128
 43
0.0
 10
250.9332906158
 20
145.9067792384
 10
250.9811818605
 20
145.547719251
 10
251.1196658354
 20
145.1722749304
 10
251.3337356528
 20
144.8211314944
 10
251.6001935265
 20
144.5323407827
 10
251.8901646112
 20
144.33719775
 10
252.1722260407
 20
144.256849172
 10
252.4158120823
 20
144.3000020637
 10
252.594526409
 20
144.4619801397
 10
252.6890025502
 20
144.7252305622
 10
252.6890025502
 20
145.0612260632
 10
252.594526409
 20
145.4335563165
 10
252.4158120823
 20
145.801873562
 10
252.1722260407
 20
146.1262649111
 10
251.8901646112
 20
146.3715775276
 10
251.6001935265
 20
146.5112279832
 10
251.3337356528
 20
146.530082984
 10
251.1196658354
 20
146.4260992982
 10
250.9811818605
 20
146.2105451715
 10
250.9332906158
 20
145.9067792384
  0
LWPOLYLINE
  5
2D7
330
1F
100
AcDbEntity
  8
0
  6
Continuous
 62
     7
370
    30
100
AcDbPolyline
 90
       61
 70
   128
 43
0.0
 10
232.2618217028
 20
149.5408567045
 10
232.3102417644
 20
148.4460074446
 10
232.4549714491
 20
147.3072489691
 10
232.694425068
 20
146.1370577541
 10
233.0259791173
 20
144.9482546595
 10
233.4460010214
 20
143.7538644607
 10
233.9498889324
 20
142.5669731466
 10
234.5321221488
 20
141.400584547
 10
235.1863216019
 20
140.2674778594
 10
235.9053197454
 20
139.1800676378
 10
236.6812390852
 20
138.150267776
 10
237.5055784866
 20
137.189360977
 10
238.3693063148
 20
136.3078751367
 10
239.2629593868
 20
135.5154679983
 10
240.1767466525
 20
134.8208213404
 10
241.1006564676
 20
134.231545857
 10
242.0245662826
 20
133.7540977738
 10
242.9383535484
 20
133.3937081117
 10
243.8320066204
 20
133.1543253754
 10
244.6957344485
 20
133.0385722922
 10
245.52007385
 20
133.0477170772
 10
246.2959931898
 20
133.181659538
 10
247.0149913333
 20
133.4389321732
 10
247.6691907863
 20
133.8167162498
 10
248.2514240028
 20
134.3108726865
 10
248.7553119138
 20
134.915987402
 10
249.1753338178
 20
135.6254306327
 10
249.5068878671
 20
136.4314295703
 10
249.7463414861
 20
137.3251535216
 10
249.8910711708
 20
138.2968106601
 10
249.9394912324
 20
139.3357553067
 10
249.8910711708
 20
140.4306045666
 10
249.7463414861
 20
141.5693630421
 10
249.5068878671
 20
142.7395542571
 10
249.1753338178
 20
143.9283573517
 10
248.7553119138
 20
145.1227475505
 10
248.2514240028
 20
146.3096388646
 10
247.6691907863
 20
147.4760274642
 10
247.0149913333
 20
148.6091341518
 10
246.2959931898
 20
149.6965443734
 10
245.52007385
 20
150.7263442352
 10
244.6957344485
 20
151.6872510342
 10
243.8320066204
 20
152.5687368745
 10
242.9383535484
 20
153.3611440129
 10
242.0245662826
 20
154.0557906708
 10
241.1006564676
 20
154.6450661542
 10
240.1767466525
 20
155.1225142374
 10
239.2629593868
 20
155.4829038995
 10
238.3693063148
 20
155.7222866358
 10
237.5055784866
 20
155.838039719
 10
236.6812390852
 20
155.828894934
 10
235.9053197454
 20
155.6949524732
 10
235.1863216019
 20
155.437679838
 10
234.5321221488
 20
155.0598957614
 10
233.9498889324
 20
154.5657393247
 10
233.4460010214
 20
153.9606246092
 10
233.0259791173
 20
153.2511813785
 10
232.694425068
 20
152.4451824409
 10
232.4549714491
 20
151.5514584896
 10
232.3102417644
 20
150.5798013511
 10
232.2618217028
 20
149.5408567045
  0
ARC
  5
2D8
330
1F
100
AcDbEntity
  8
0
  6
Continuous
 62
     7
370
    30
100
AcDbCircle
 10
255.7078937945
 20
152.8739215767
 30
0.0
 40
3.07360961514429
100
AcDbArc
 50
2.6054784857
 51
57.39452166
  0
LINE
  5
2D9
330
1F
100
AcDbEntity
  8
0
  6
Continuous
 62
     7
370
    30
100
AcDbLine
 10
258.7783259972
 20
107.2873578156
 30
0.0
 11
258.7783259972
 21
153.0136432812
 31
0.0
  0
ARC
  5
2DA
330
1F
100
AcDbEntity
  8
0
  6
Continuous
 62
     7
370
    30
100
AcDbCircle
 10
257.9161772624
 20
107.1475034218
 30
0.0
 40
0.8734183948569542
100
AcDbArc
 50
230.7967147643
 51
9.2140369905
  0
LINE
  5
2DB
330
1F
100
AcDbEntity
  8
0
  6
Continuous
 62
     7
370
    30
100
AcDbLine
 10
224.8372005003
 20
125.2480708756
 30
0.0
 11
257.3641124349
 21
106.4706843036
 31
0.0
  0
ARC
  5
2DC
330
1F
100
AcDbEntity
  8
0
  6
Continuous
 62
     7
370
    30
100
AcDbCircle
 10
226.4934191407
 20
127.8372823157
 30
0.0
 40
3.073609615144199
100
AcDbArc
 50
182.6054784857
 51
237.39452166
  0
LINE
  5
2DD
330
1F
100
AcDbEntity
  8
0
  6
Continuous
 62
     7
370
    30
100
AcDbLine
 10
223.4229869379
 20
173.4238460768
 30
0.0
 11
223.4229869379
 21
127.6975606112
 31
0.0
  0
ARC
  5
2DE
330
1F
100
AcDbEntity
  8
0
  6
Continuous
 62
     7
370
    30
100
AcDbCircle
 10
224.2851356728
 20
173.5637004706
 30
0.0
 40
0.8734183948569962
100
AcDbArc
 50
50.7967147643
 51
189.2140369905
  0
LINE
  5
2DF
330
1F
100
AcDbEntity
  8
0
  6
Continuous
 62
     7
370
    30
100
AcDbLine
 10
257.3641124349
 20
155.4631330168
 30
0.0
 11
224.8372005003
 21
174.2405195887
 31
0.0
  0
LWPOLYLINE
  5
2E0
330
1F
100
AcDbEntity
  8
0
  6
Continuous
 62
     7
370
    30
100
AcDbPolyline
 90
       22
 70
   128
 43
0.0
 10
253.1921824259
 20
152.7681568724
 10
253.2440167969
 20
152.3411121384
 10
253.3949141985
 20
151.8921655122
 10
253.6314667345
 20
151.4612078717
 10
253.9326556738
 20
151.0865316945
 10
254.2717190575
 20
150.8014286032
 10
254.6185296161
 20
150.6312312585
 10
254.9422717093
 20
150.5910624416
 10
255.2141794316
 20
150.6844913279
 10
255.4100925884
 20
150.903216351
 10
255.5126034362
 20
151.2278028327
 10
255.5126034362
 20
151.6294098397
 10
255.4100925884
 20
152.072352827
 10
255.2141794316
 20
152.5172743663
 10
254.9422717093
 20
152.9246412264
 10
254.6185296161
 20
153.2582570741
 10
254.2717190575
 20
153.4884786771
 10
253.9326556738
 20
153.5948498359
 10
253.6314667345
 20
153.5679190061
 10
253.3949141985
 20
153.4100791102
 10
253.2440167969
 20
153.1353549155
 10
253.1921824259
 20
152.7681568724
  0
LWPOLYLINE
  5
2E1
330
1F
100
AcDbEntity
  8
0
  6
Continuous
 62
     7
370
    30
100
AcDbPolyline
 90
       22
 70
   128
 43
0.0
 10
226.6756781314
 20
168.075808969
 10
226.7275125024
 20
167.6487642351
 10
226.878409904
 20
167.1998176089
 10
227.11496244
 20
166.7688599684
 10
227.4161513793
 20
166.3941837912
 10
227.755214763
 20
166.1090806999
 10
228.1020253216
 20
165.9388833552
 10
228.4257674148
 20
165.8987145382
 10
228.6976751371
 20
165.9921434246
 10
228.893588294
 20
166.2108684477
 10
228.9960991417
 20
166.5354549294
 10
228.9960991417
 20
166.9370619364
 10
228.893588294
 20
167.3800049237
 10
228.6976751371
 20
167.824926463
 10
228.4257674148
 20
168.2322933231
 10
228.1020253216
 20
168.5659091707
 10
227.755214763
 20
168.7961307738
 10
227.4161513793
 20
168.9025019326
 10
227.11496244
 20
168.8755711028
 10
226.878409904
 20
168.7177312068
 10
226.7275125024
 20
168.4430070122
 10
226.6756781314
 20
168.075808969
  0
LWPOLYLINE
  5
2E2
330
1F
100
AcDbEntity
  8
0
  6
Continuous
 62
     7
370
    30
100
AcDbPolyline
 90
       22
 70
   128
 43
0.0
 10
226.6756781314
 20
137.4555285233
 10
226.7275125024
 20
137.0284837894
 10
226.878409904
 20
136.5795371632
 10
227.11496244
 20
136.1485795227
 10
227.4161513793
 20
135.7739033455
 10
227.755214763
 20
135.4888002542
 10
228.1020253216
 20
135.3186029095
 10
228.4257674148
 20
135.2784340925
 10
228.6976751371
 20
135.3718629789
 10
228.893588294
 20
135.590588002
 10
228.9960991417
 20
135.9151744837
 10
228.9960991417
 20
136.3167814907
 10
228.893588294
 20
136.759724478
 10
228.6976751371
 20
137.2046460173
 10
228.4257674148
 20
137.6120128774
 10
228.1020253216
 20
137.945628725
 10
227.755214763
 20
138.1758503281
 10
227.4161513793
 20
138.2822214869
 10
227.11496244
 20
138.2552906571
 10
226.878409904
 20
138.0974507611
 10
226.7275125024
 20
137.8227265664
 10
226.6756781314
 20
137.4555285233
  0
LWPOLYLINE
  5
2E3
330
1F
100
AcDbEntity
  8
0
  6
Continuous
 62
     7
370
    30
100
AcDbPolyline
 90
       22
 70
   128
 43
0.0
 10
253.1921824259
 20
122.1478764267
 10
253.2440167969
 20
121.7208316927
 10
253.3949141985
 20
121.2718850665
 10
253.6314667345
 20
120.840927426
 10
253.9326556738
 20
120.4662512488
 10
254.2717190575
 20
120.1811481575
 10
254.6185296161
 20
120.0109508128
 10
254.9422717093
 20
119.9707819958
 10
255.2141794316
 20
120.0642108822
 10
255.4100925884
 20
120.2829359053
 10
255.5126034362
 20
120.607522387
 10
255.5126034362
 20
121.009129394
 10
255.4100925884
 20
121.4520723813
 10
255.2141794316
 20
121.8969939206
 10
254.9422717093
 20
122.3043607807
 10
254.6185296161
 20
122.6379766283
 10
254.2717190575
 20
122.8681982314
 10
253.9326556738
 20
122.9745693902
 10
253.6314667345
 20
122.9476385604
 10
253.3949141985
 20
122.7897986644
 10
253.2440167969
 20
122.5150744698
 10
253.1921824259
 20
122.1478764267
  0
LWPOLYLINE
  5
2E4
330
1F
100
AcDbEntity
  8
0
  6
Continuous
 62
     7
370
    30
100
AcDbPolyline
 90
       20
 70
   128
 43
0.0
 10
229.5002553664
 20
158.2798071206
 10
229.5481466112
 20
157.9207471332
 10
229.686630586
 20
157.5453028126
 10
229.9007004034
 20
157.1941593765
 10
230.1671582771
 20
156.9053686648
 10
230.4571293619
 20
156.7102256322
 10
230.7391907913
 20
156.6298770541
 10
230.982776833
 20
156.6730299458
 10
231.1614911596
 20
156.8350080219
 10
231.2559673008
 20
157.0982584444
 10
231.2559673008
 20
157.4342539453
 10
231.1614911596
 20
157.8065841987
 10
230.982776833
 20
158.1749014442
 10
230.7391907913
 20
158.4992927933
 10
230.4571293619
 20
158.7446054098
 10
230.1671582771
 20
158.8842558653
 10
229.9007004034
 20
158.9031108661
 10
229.686630586
 20
158.7991271803
 10
229.5481466112
 20
158.5835730537
 10
229.5002553664
 20
158.2798071206
  0
LWPOLYLINE
  5
2E5
330
1F
100
AcDbEntity
  8
0
  6
Continuous
 62
     7
370
    30
100
AcDbPolyline
 90
       20
 70
   128
 43
0.0
 10
240.2167729911
 20
130.6590968675
 10
240.2646642359
 20
130.3000368801
 10
240.4031482107
 20
129.9245925595
 10
240.6172180281
 20
129.5734491234
 10
240.8836759018
 20
129.2846584118
 10
241.1736469865
 20
129.0895153791
 10
241.455708416
 20
129.0091668011
 10
241.6992944577
 20
129.0523196928
 10
241.8780087843
 20
129.2142977688
 10
241.9724849255
 20
129.4775481913
 10
241.9724849255
 20
129.8135436923
 10
241.8780087843
 20
130.1858739456
 10
241.6992944577
 20
130.5541911911
 10
241.455708416
 20
130.8785825402
 10
241.1736469865
 20
131.1238951567
 10
240.8836759018
 20
131.2635456122
 10
240.6172180281
 20
131.2824006131
 10
240.4031482107
 20
131.1784169272
 10
240.2646642359
 20
130.9628628006
 10
240.2167729911
 20
130.6590968675
  0
LINE
  5
2E6
330
1F
100
AcDbEntity
  8
0
  6
Continuous
 62
     7
370
    30
100
AcDbLine
 10
257.3641124349
 20
155.4631330168
 30
0.0
 11
267.9707141527
 21
161.5861938555
 31
0.0
  0
LINE
  5
2E7
330
1F
100
AcDbEntity
  8
0
  6
Continuous
 62
     7
370
    30
100
AcDbLine
 10
269.384927715
 20
159.1367041199
 30
0.0
 11
258.7783259972
 21
153.0136432812
 31
0.0
  0
LINE
  5
2E8
330
1F
100
AcDbEntity
  8
0
  6
Continuous
 62
     7
370
    30
100
AcDbLine
 10
258.7783259972
 20
107.2873578156
 30
0.0
 11
269.384927715
 21
113.4104186543
 31
0.0
  0
LINE
  5
2E9
330
1F
100
AcDbEntity
  8
0
  6
Continuous
 62
     7
370
    30
100
AcDbLine
 10
235.4438022181
 20
180.3635804274
 30
0.0
 11
224.8372005003
 21
174.2405195887
 31
0.0
  0
LWPOLYLINE
  5
2EA
330
1F
100
AcDbEntity
  8
0
  6
Continuous
 62
     7
370
    30
100
AcDbPolyline
 90
       28
 70
   128
 43
0.0
 10
248.2908005444
 20
134.3512300066
 10
247.5706835154
 20
134.2315088393
 10
246.746344114
 20
134.2223640544
 10
245.8826162858
 20
134.3381171376
 10
244.9889632138
 20
134.5774998739
 10
244.0751759481
 20
134.9378895359
 10
243.151266133
 20
135.4153376192
 10
242.227356318
 20
136.0046131025
 10
241.3135690522
 20
136.6992597604
 10
240.4199159802
 20
137.4916668988
 10
239.5561881521
 20
138.3731527392
 10
238.7318487506
 20
139.3340595382
 10
237.9559294108
 20
140.3638593999
 10
237.2369312673
 20
141.4512696216
 10
236.5827318143
 20
142.5843763092
 10
236.0004985978
 20
143.7507649088
 10
235.4966106868
 20
144.9376562228
 10
235.0765887828
 20
146.1320464216
 10
234.7450347335
 20
147.3208495162
 10
234.5055811145
 20
148.4910407312
 10
234.3608514299
 20
149.6297992067
 10
234.3124313682
 20
150.7246484666
 10
234.3608514299
 20
151.7635931133
 10
234.5055811145
 20
152.7352502517
 10
234.7450347335
 20
153.6289742031
 10
235.0765887828
 20
154.4349731406
 10
235.4966106868
 20
155.1444163714
 10
235.9611220562
 20
155.7091737667
  0
ARC
  5
2EB
330
1F
100
AcDbEntity
  8
0
  6
Continuous
 62
     7
370
    30
100
AcDbCircle
 10
268.4335566033
 20
113.2892905971
 30
0.0
 40
0.9590510927985328
100
AcDbArc
 50
304.0563508304
 51
7.255829563
  0
LINE
  5
2EC
330
1F
100
AcDbEntity
  8
0
  6
Continuous
 62
     8
370
    30
100
AcDbLine
 10
249.9378208462
 20
139.1382959972
 30
0.0
 11
249.8021907154
 21
139.1303085764
 31
0.0
  0
LWPOLYLINE
  5
2ED
330
1F
100
AcDbEntity
  8
0
  6
Continuous
 62
     8
370
    30
100
AcDbPolyline
 90
        3
 70
   128
 43
0.0
 10
249.6932823328
 20
137.0856106187
 10
249.3488561431
 20
137.1487365081
 10
248.945083389
 20
137.2370858754
  0
ARC
  5
2EE
330
1F
100
AcDbEntity
  8
0
  6
Continuous
 62
     8
370
    30
100
AcDbCircle
 10
260.019721134
 20
153.4224755465
 30
0.0
 40
20.32136574781055
100
AcDbArc
 50
236.5055165654
 51
238.4530937937
  0
LINE
  5
2EF
330
1F
100
AcDbEntity
  8
0
  6
Continuous
 62
     7
370
    30
100
AcDbLine
 10
68.0775878031
 20
81.0841420316
 30
0.0
 11
67.9775878031
 21
81.1841420316
 31
0.0
  0
LINE
  5
2F0
330
1F
100
AcDbEntity
  8
0
  6
Continuous
 62
     7
370
    30
100
AcDbLine
 10
65.5775878031
 20
81.1841420316
 30
0.0
 11
65.4775878031
 21
81.0841420316
 31
0.0
  0
LINE
  5
2F1
330
1F
100
AcDbEntity
  8
0
  6
Continuous
 62
     7
370
    30
100
AcDbLine
 10
52.9221432369
 20
81.0841420316
 30
0.0
 11
52.8221432369
 21
81.1841420316
 31
0.0
  0
LINE
  5
2F2
330
1F
100
AcDbEntity
  8
0
  6
Continuous
 62
     7
370
    30
100
AcDbLine
 10
50.4221432369
 20
81.1841420316
 30
0.0
 11
50.3221432369
 21
81.0841420316
 31
0.0
  0
LINE
  5
2F3
330
1F
100
AcDbEntity
  8
0
  6
Continuous
 62
     7
370
    30
100
AcDbLine
 10
83.2330323693
 20
81.0841420316
 30
0.0
 11
83.1330323693
 21
81.1841420316
 31
0.0
  0
LINE
  5
2F4
330
1F
100
AcDbEntity
  8
0
  6
Continuous
 62
     7
370
    30
100
AcDbLine
 10
80.7330323693
 20
81.1841420316
 30
0.0
 11
80.6330323693
 21
81.0841420316
 31
0.0
  0
LINE
  5
2F5
330
1F
100
AcDbEntity
  8
0
  6
Continuous
 62
     7
370
    30
100
AcDbLine
 10
59.8775878031
 20
30.1841420316
 30
0.0
 11
59.8775878031
 21
45.1841420316
 31
0.0
  0
LINE
  5
2F6
330
1F
100
AcDbEntity
  8
0
  6
Continuous
 62
     7
370
    30
100
AcDbLine
 10
44.8775878031
 20
45.1841420316
 30
0.0
 11
44.8775878031
 21
30.1841420316
 31
0.0
  0
LINE
  5
2F7
330
1F
100
AcDbEntity
  8
0
  6
Continuous
 62
     7
370
    30
100
AcDbLine
 10
44.9775878031
 20
30.1841420316
 30
0.0
 11
44.9775878031
 21
28.6841420316
 31
0.0
  0
LINE
  5
2F8
330
1F
100
AcDbEntity
  8
0
  6
Continuous
 62
     7
370
    30
100
AcDbLine
 10
59.7775878031
 20
28.6841420316
 30
0.0
 11
59.7775878031
 21
30.1841420316
 31
0.0
  0
LINE
  5
2F9
330
1F
100
AcDbEntity
  8
0
  6
Continuous
 62
     7
370
    30
100
AcDbLine
 10
48.5589815169
 20
28.6841420316
 30
0.0
 11
48.5589815169
 21
28.6641420316
 31
0.0
  0
LINE
  5
2FA
330
1F
100
AcDbEntity
  8
0
  6
Continuous
 62
     7
370
    30
100
AcDbLine
 10
50.3589815169
 20
28.6641420316
 30
0.0
 11
50.3589815169
 21
28.6841420316
 31
0.0
  0
LINE
  5
2FB
330
1F
100
AcDbEntity
  8
0
  6
Continuous
 62
     7
370
    30
100
AcDbLine
 10
51.0603932096
 20
28.6841420316
 30
0.0
 11
51.0603932096
 21
28.6641420316
 31
0.0
  0
LINE
  5
2FC
330
1F
100
AcDbEntity
  8
0
  6
Continuous
 62
     7
370
    30
100
AcDbLine
 10
52.8603932096
 20
28.6641420316
 30
0.0
 11
52.8603932096
 21
28.6841420316
 31
0.0
  0
LINE
  5
2FD
330
1F
100
AcDbEntity
  8
0
  6
Continuous
 62
     7
370
    30
100
AcDbLine
 10
53.5618049022
 20
28.6841420316
 30
0.0
 11
53.5618049022
 21
28.6641420316
 31
0.0
  0
LINE
  5
2FE
330
1F
100
AcDbEntity
  8
0
  6
Continuous
 62
     7
370
    30
100
AcDbLine
 10
55.3618049022
 20
28.6641420316
 30
0.0
 11
55.3618049022
 21
28.6841420316
 31
0.0
  0
LINE
  5
2FF
330
1F
100
AcDbEntity
  8
0
  6
Continuous
 62
     7
370
    30
100
AcDbLine
 10
56.0632165949
 20
28.6841420316
 30
0.0
 11
56.0632165949
 21
28.6641420316
 31
0.0
  0
LINE
  5
300
330
1F
100
AcDbEntity
  8
0
  6
Continuous
 62
     7
370
    30
100
AcDbLine
 10
57.8632165949
 20
28.6641420316
 30
0.0
 11
57.8632165949
 21
28.6841420316
 31
0.0
  0
LINE
  5
301
330
1F
100
AcDbEntity
  8
0
  6
Continuous
 62
     7
370
    30
100
AcDbLine
 10
49.3775878031
 20
28.6641420316
 30
0.0
 11
49.3775878031
 21
28.4841420316
 31
0.0
  0
LINE
  5
302
330
1F
100
AcDbEntity
  8
0
  6
Continuous
 62
     7
370
    30
100
AcDbLine
 10
55.3775878031
 20
28.4841420316
 30
0.0
 11
55.3775878031
 21
28.6641420316
 31
0.0
  0
LINE
  5
303
330
1F
100
AcDbEntity
  8
0
  6
Continuous
 62
     7
370
    30
100
AcDbLine
 10
45.568741285
 20
28.6841420316
 30
0.0
 11
45.568741285
 21
28.6641420316
 31
0.0
  0
LINE
  5
304
330
1F
100
AcDbEntity
  8
0
  6
Continuous
 62
     7
370
    30
100
AcDbLine
 10
51.6275878031
 20
28.4841420316
 30
0.0
 11
51.6275878031
 21
27.4841420316
 31
0.0
  0
LINE
  5
305
330
1F
100
AcDbEntity
  8
0
  6
Continuous
 62
     7
370
    30
100
AcDbLine
 10
53.1275878031
 20
27.4841420316
 30
0.0
 11
53.1275878031
 21
28.4841420316
 31
0.0
  0
LINE
  5
306
330
1F
100
AcDbEntity
  8
0
  6
Continuous
 62
     7
370
    30
100
AcDbLine
 10
59.1864343212
 20
28.6641420316
 30
0.0
 11
59.1864343212
 21
28.6841420316
 31
0.0
  0
LINE
  5
307
330
1F
100
AcDbEntity
  8
0
  6
Continuous
 62
     7
370
    30
100
AcDbLine
 10
59.8775878031
 20
45.1841420316
 30
0.0
 11
59.8775878031
 21
63.0841420316
 31
0.0
  0
LINE
  5
308
330
1F
100
AcDbEntity
  8
0
  6
Continuous
 62
     7
370
    30
100
AcDbLine
 10
44.8775878031
 20
63.0841420316
 30
0.0
 11
44.8775878031
 21
45.1841420316
 31
0.0
  0
LINE
  5
309
330
1F
100
AcDbEntity
  8
0
  6
Continuous
 62
     7
370
    30
100
AcDbLine
 10
65.5775878031
 20
81.1841420316
 30
0.0
 11
67.9775878031
 21
81.1841420316
 31
0.0
  0
LINE
  5
30A
330
1F
100
AcDbEntity
  8
0
  6
Continuous
 62
     7
370
    30
100
AcDbLine
 10
50.4221432369
 20
81.1841420316
 30
0.0
 11
52.8221432369
 21
81.1841420316
 31
0.0
  0
LINE
  5
30B
330
1F
100
AcDbEntity
  8
0
  6
Continuous
 62
     7
370
    30
100
AcDbLine
 10
80.7330323693
 20
81.1841420316
 30
0.0
 11
83.1330323693
 21
81.1841420316
 31
0.0
  0
LINE
  5
30C
330
1F
100
AcDbEntity
  8
0
  6
Continuous
 62
     7
370
    30
100
AcDbLine
 10
43.7775878031
 20
66.0841420316
 30
0.0
 11
43.7775878031
 21
63.0841420316
 31
0.0
  0
LINE
  5
30D
330
1F
100
AcDbEntity
  8
0
  6
Continuous
 62
     7
370
    30
100
AcDbLine
 10
43.7775878031
 20
63.0841420316
 30
0.0
 11
41.7775878031
 21
63.0841420316
 31
0.0
  0
LINE
  5
30E
330
1F
100
AcDbEntity
  8
0
  6
Continuous
 62
     7
370
    30
100
AcDbLine
 10
41.7775878031
 20
63.0841420316
 30
0.0
 11
41.7775878031
 21
66.0841420316
 31
0.0
  0
LINE
  5
30F
330
1F
100
AcDbEntity
  8
0
  6
Continuous
 62
     7
370
    30
100
AcDbLine
 10
41.7775878031
 20
66.0841420316
 30
0.0
 11
43.7775878031
 21
66.0841420316
 31
0.0
  0
LINE
  5
310
330
1F
100
AcDbEntity
  8
0
  6
Continuous
 62
     7
370
    30
100
AcDbLine
 10
89.7775878031
 20
63.0841420316
 30
0.0
 11
89.7775878031
 21
66.0841420316
 31
0.0
  0
LINE
  5
311
330
1F
100
AcDbEntity
  8
0
  6
Continuous
 62
     7
370
    30
100
AcDbLine
 10
43.7775878031
 20
66.0841420316
 30
0.0
 11
89.7775878031
 21
66.0841420316
 31
0.0
  0
LINE
  5
312
330
1F
100
AcDbEntity
  8
0
  6
Continuous
 62
     7
370
    30
100
AcDbLine
 10
43.7775878031
 20
63.0841420316
 30
0.0
 11
89.7775878031
 21
63.0841420316
 31
0.0
  0
LINE
  5
313
330
1F
100
AcDbEntity
  8
0
  6
Continuous
 62
     7
370
    30
100
AcDbLine
 10
91.7775878031
 20
66.0841420316
 30
0.0
 11
91.7775878031
 21
63.0841420316
 31
0.0
  0
LINE
  5
314
330
1F
100
AcDbEntity
  8
0
  6
Continuous
 62
     7
370
    30
100
AcDbLine
 10
89.7775878031
 20
66.0841420316
 30
0.0
 11
91.7775878031
 21
66.0841420316
 31
0.0
  0
LINE
  5
315
330
1F
100
AcDbEntity
  8
0
  6
Continuous
 62
     7
370
    30
100
AcDbLine
 10
91.7775878031
 20
63.0841420316
 30
0.0
 11
89.7775878031
 21
63.0841420316
 31
0.0
  0
LINE
  5
316
330
1F
100
AcDbEntity
  8
0
  6
Continuous
 62
     7
370
    30
100
AcDbLine
 10
52.3775878031
 20
45.1841420316
 30
0.0
 11
59.8775878031
 21
45.1841420316
 31
0.0
  0
LINE
  5
317
330
1F
100
AcDbEntity
  8
0
  6
Continuous
 62
     7
370
    30
100
AcDbLine
 10
44.8775878031
 20
45.1841420316
 30
0.0
 11
52.3775878031
 21
45.1841420316
 31
0.0
  0
LINE
  5
318
330
1F
100
AcDbEntity
  8
0
  6
Continuous
 62
     7
370
    30
100
AcDbLine
 10
52.3775878031
 20
30.1841420316
 30
0.0
 11
59.8775878031
 21
30.1841420316
 31
0.0
  0
LINE
  5
319
330
1F
100
AcDbEntity
  8
0
  6
Continuous
 62
     7
370
    30
100
AcDbLine
 10
44.8775878031
 20
30.1841420316
 30
0.0
 11
52.3775878031
 21
30.1841420316
 31
0.0
  0
LINE
  5
31A
330
1F
100
AcDbEntity
  8
0
  6
Continuous
 62
     7
370
    30
100
AcDbLine
 10
59.7775878031
 20
28.6841420316
 30
0.0
 11
44.9775878031
 21
28.6841420316
 31
0.0
  0
LINE
  5
31B
330
1F
100
AcDbEntity
  8
0
  6
Continuous
 62
     7
370
    30
100
AcDbLine
 10
50.3589815169
 20
28.6641420316
 30
0.0
 11
48.5589815169
 21
28.6641420316
 31
0.0
  0
LINE
  5
31C
330
1F
100
AcDbEntity
  8
0
  6
Continuous
 62
     7
370
    30
100
AcDbLine
 10
52.8603932096
 20
28.6641420316
 30
0.0
 11
51.0603932096
 21
28.6641420316
 31
0.0
  0
LINE
  5
31D
330
1F
100
AcDbEntity
  8
0
  6
Continuous
 62
     7
370
    30
100
AcDbLine
 10
55.3618049022
 20
28.6641420316
 30
0.0
 11
53.5618049022
 21
28.6641420316
 31
0.0
  0
LINE
  5
31E
330
1F
100
AcDbEntity
  8
0
  6
Continuous
 62
     7
370
    30
100
AcDbLine
 10
57.8632165949
 20
28.6641420316
 30
0.0
 11
56.0632165949
 21
28.6641420316
 31
0.0
  0
LINE
  5
31F
330
1F
100
AcDbEntity
  8
0
  6
Continuous
 62
     7
370
    30
100
AcDbLine
 10
46.7527840221
 20
28.6841420316
 30
0.0
 11
46.7527840221
 21
28.6641420316
 31
0.0
  0
LINE
  5
320
330
1F
100
AcDbEntity
  8
0
  6
Continuous
 62
     7
370
    30
100
AcDbLine
 10
48.5589815169
 20
28.6641420316
 30
0.0
 11
46.7527840221
 21
28.6641420316
 31
0.0
  0
LINE
  5
321
330
1F
100
AcDbEntity
  8
0
  6
Continuous
 62
     7
370
    30
100
AcDbLine
 10
51.0603932096
 20
28.6641420316
 30
0.0
 11
50.3589815169
 21
28.6641420316
 31
0.0
  0
LINE
  5
322
330
1F
100
AcDbEntity
  8
0
  6
Continuous
 62
     7
370
    30
100
AcDbLine
 10
56.0632165949
 20
28.6641420316
 30
0.0
 11
55.3618049022
 21
28.6641420316
 31
0.0
  0
LINE
  5
323
330
1F
100
AcDbEntity
  8
0
  6
Continuous
 62
     7
370
    30
100
AcDbLine
 10
58.3116074051
 20
28.6641420316
 30
0.0
 11
58.3116074051
 21
28.6841420316
 31
0.0
  0
LINE
  5
324
330
1F
100
AcDbEntity
  8
0
  6
Continuous
 62
     7
370
    30
100
AcDbLine
 10
58.3116074051
 20
28.6641420316
 30
0.0
 11
57.8632165949
 21
28.6641420316
 31
0.0
  0
LINE
  5
325
330
1F
100
AcDbEntity
  8
0
  6
Continuous
 62
     7
370
    30
100
AcDbLine
 10
55.3775878031
 20
28.4841420316
 30
0.0
 11
49.3775878031
 21
28.4841420316
 31
0.0
  0
LINE
  5
326
330
1F
100
AcDbEntity
  8
0
  6
Continuous
 62
     7
370
    30
100
AcDbLine
 10
46.7527840221
 20
28.6641420316
 30
0.0
 11
45.568741285
 21
28.6641420316
 31
0.0
  0
LINE
  5
327
330
1F
100
AcDbEntity
  8
0
  6
Continuous
 62
     7
370
    30
100
AcDbLine
 10
53.1275878031
 20
27.4841420316
 30
0.0
 11
51.6275878031
 21
27.4841420316
 31
0.0
  0
LINE
  5
328
330
1F
100
AcDbEntity
  8
0
  6
Continuous
 62
     7
370
    30
100
AcDbLine
 10
59.1864343212
 20
28.6641420316
 30
0.0
 11
58.3116074051
 21
28.6641420316
 31
0.0
  0
LINE
  5
329
330
1F
100
AcDbEntity
  8
0
  6
Continuous
 62
     7
370
    30
100
AcDbLine
 10
44.8775878031
 20
45.1841420316
 30
0.0
 11
59.8775878031
 21
45.1841420316
 31
0.0
  0
LINE
  5
32A
330
1F
100
AcDbEntity
  8
0
  6
Continuous
 62
     7
370
    30
100
AcDbLine
 10
43.7775878031
 20
81.0841420316
 30
0.0
 11
43.7775878031
 21
66.0841420316
 31
0.0
  0
LINE
  5
32B
330
1F
100
AcDbEntity
  8
0
  6
Continuous
 62
     7
370
    30
100
AcDbLine
 10
41.7775878031
 20
66.0841420316
 30
0.0
 11
41.7775878031
 21
81.0841420316
 31
0.0
  0
LINE
  5
32C
330
1F
100
AcDbEntity
  8
0
  6
Continuous
 62
     7
370
    30
100
AcDbLine
 10
41.7775878031
 20
81.0841420316
 30
0.0
 11
43.7775878031
 21
81.0841420316
 31
0.0
  0
LINE
  5
32D
330
1F
100
AcDbEntity
  8
0
  6
Continuous
 62
     7
370
    30
100
AcDbLine
 10
43.7775878031
 20
81.0841420316
 30
0.0
 11
89.7775878031
 21
81.0841420316
 31
0.0
  0
LINE
  5
32E
330
1F
100
AcDbEntity
  8
0
  6
Continuous
 62
     7
370
    30
100
AcDbLine
 10
89.7775878031
 20
66.0841420316
 30
0.0
 11
89.7775878031
 21
81.0841420316
 31
0.0
  0
CIRCLE
  5
32F
330
1F
100
AcDbEntity
  8
0
  6
Continuous
 62
     7
370
    30
100
AcDbCircle
 10
66.7775878031
 20
73.5841420316
 30
0.0
 40
2.5
  0
LINE
  5
330
330
1F
100
AcDbEntity
  8
0
  6
Continuous
 62
     7
370
    30
100
AcDbLine
 10
91.7775878031
 20
81.0841420316
 30
0.0
 11
91.7775878031
 21
66.0841420316
 31
0.0
  0
LINE
  5
331
330
1F
100
AcDbEntity
  8
0
  6
Continuous
 62
     7
370
    30
100
AcDbLine
 10
89.7775878031
 20
81.0841420316
 30
0.0
 11
91.7775878031
 21
81.0841420316
 31
0.0
  0
INSERT
  5
33A
330
1F
100
AcDbEntity
  8
DIM
100
AcDbBlockReference
  2
SW_RADIAL_DIMENSION_0
 10
88.7685878541
 20
56.0181420586
 30
0.0
  0
DIMENSION
  5
33B
330
1F
100
AcDbEntity
  8
DIM
100
AcDbDimension
  2
_D_10
 10
26.630177205
 20
81.0841420316
 30
0.0
 11
26.630177205
 21
77.3341420316
 31
0.0
 70
   160
  1
<>
 71
     2
 42
-1.0
  3
SLDDIMSTYLE2
100
AcDbAlignedDimension
 13
63.2775878031
 23
73.5841420316
 33
0.0
 14
41.7775878031
 24
81.0841420316
 34
0.0
 50
90.0
100
AcDbRotatedDimension
  0
INSERT
  5
353
330
1F
100
AcDbEntity
  8
DIM
100
AcDbBlockReference
  2
SW_CENTERMARKSYMBOL_5
 10
66.7775878031
 20
73.5841420316
 30
0.0
  0
ENDSEC
  0
SECTION
  2
OBJECTS
  0
DICTIONARY
  5
C
330
0
100
AcDbDictionary
281
     1
  3
ACAD_GROUP
350
D
  3
ACAD_LAYOUT
350
1A
  3
ACAD_MLINESTYLE
350
17
  3
ACAD_PLOTSETTINGS
350
19
  3
ACAD_PLOTSTYLENAME
350
E
  3
ACAD_SCALELIST
350
47
  0
DICTIONARY
  5
D
102
{ACAD_REACTORS
330
C
102
}
330
C
100
AcDbDictionary
281
     1
  0
DICTIONARY
  5
1A
102
{ACAD_REACTORS
330
C
102
}
330
C
100
AcDbDictionary
281
     1
  3
Layout1
350
1E
  3
Layout2
350
26
  3
Model
350
22
  0
DICTIONARY
  5
17
102
{ACAD_REACTORS
330
C
102
}
330
C
100
AcDbDictionary
281
     1
  3
Standard
350
18
  0
DICTIONARY
  5
19
102
{ACAD_REACTORS
330
C
102
}
330
C
100
AcDbDictionary
281
     1
  0
ACDBDICTIONARYWDFLT
  5
E
102
{ACAD_REACTORS
330
C
102
}
330
C
100
AcDbDictionary
281
     1
  3
Normal
350
F
100
AcDbDictionaryWithDefault
340
F
  0
DICTIONARY
  5
47
102
{ACAD_REACTORS
330
C
102
}
330
C
100
AcDbDictionary
281
     1
  3
A0
350
48
  3
A1
350
49
  3
A2
350
4A
  3
A3
350
4B
  3
A4
350
4C
  3
A5
350
4D
  3
A6
350
4E
  3
A7
350
4F
  3
A8
350
50
  3
A9
350
51
  3
B0
350
52
  3
B1
350
53
  3
B2
350
54
  3
B3
350
55
  3
B4
350
56
  3
B5
350
57
  3
B6
350
58
  3
B7
350
59
  3
B8
350
5A
  3
B9
350
5B
  3
C0
350
5C
  3
C1
350
5D
  3
C2
350
5E
  3
C3
350
5F
  3
C4
350
60
  3
C5
350
61
  3
C6
350
62
  3
C7
350
63
  3
C8
350
64
  3
C9
350
65
  3
D0
350
66
  3
D1
350
67
  3
D2
350
68
  0
LAYOUT
  5
1E
102
{ACAD_REACTORS
330
1A
102
}
330
1A
100
AcDbPlotSettings
  1

  2
none_device
  4

  6

 40
0.0
 41
0.0
 42
0.0
 43
0.0
 44
0.0
 45
0.0
 46
0.0
 47
0.0
 48
0.0
 49
0.0
140
0.0
141
0.0
142
1.0
143
1.0
 70
   688
 72
     1
 73
     0
 74
     5
  7

 75
    16
147
1.0
148
0.0
149
0.0
100
AcDbLayout
  1
Layout1
 70
     1
 71
     1
 10
0.0
 20
0.0
 11
420.0
 21
297.0
 12
0.0
 22
0.0
 32
0.0
 14
1.0000000000E+20
 24
1.0000000000E+20
 34
1.0000000000E+20
 15
-1.0000000000E+20
 25
-1.0000000000E+20
 35
-1.0000000000E+20
146
0.0
 13
0.0
 23
0.0
 33
0.0
 16
1.0
 26
0.0
 36
0.0
 17
0.0
 27
1.0
 37
0.0
 76
     0
330
1B
  0
LAYOUT
  5
26
102
{ACAD_REACTORS
330
1A
102
}
330
1A
100
AcDbPlotSettings
  1

  2
none_device
  4

  6

 40
0.0
 41
0.0
 42
0.0
 43
0.0
 44
0.0
 45
0.0
 46
0.0
 47
0.0
 48
0.0
 49
0.0
140
0.0
141
0.0
142
1.0
143
1.0
 70
   688
 72
     1
 73
     0
 74
     5
  7

 75
    16
147
1.0
148
0.0
149
0.0
100
AcDbLayout
  1
Layout2
 70
     1
 71
     2
 10
0.0
 20
0.0
 11
0.0
 21
0.0
 12
0.0
 22
0.0
 32
0.0
 14
0.0
 24
0.0
 34
0.0
 15
0.0
 25
0.0
 35
0.0
146
0.0
 13
0.0
 23
0.0
 33
0.0
 16
1.0
 26
0.0
 36
0.0
 17
0.0
 27
1.0
 37
0.0
 76
     0
330
23
  0
LAYOUT
  5
22
102
{ACAD_REACTORS
330
1A
102
}
330
1A
100
AcDbPlotSettings
  1

  2
none_device
  4
Letter_(8.50_x_11.00_Inches)
  6

 40
6.35
 41
6.35
 42
6.35000508
 43
6.35000508
 44
215.9
 45
279.4
 46
0.0
 47
0.0
 48
0.0
 49
0.0
140
0.0
141
0.0
142
1.0
143
1.0
 70
  1712
 72
     1
 73
     0
 74
     0
  7

 75
     0
147
1.0
148
0.0
149
0.0
100
AcDbLayout
  1
Model
 70
     1
 71
     0
 10
0.0
 20
0.0
 11
297.0
 21
210.0
 12
0.0
 22
0.0
 32
0.0
 14
0.0
 24
0.0
 34
0.0
 15
297.0
 25
210.0
 35
0.0
146
0.0
 13
0.0
 23
0.0
 33
0.0
 16
1.0
 26
0.0
 36
0.0
 17
0.0
 27
1.0
 37
0.0
 76
     0
330
1F
331
29
  0
MLINESTYLE
  5
18
102
{ACAD_REACTORS
330
17
102
}
330
17
100
AcDbMlineStyle
  2
Standard
 70
     0
  3

 62
   256
 51
90.0
 52
90.0
 71
     2
 49
0.5
 62
   256
  6
BYLAYER
 49
-0.5
 62
   256
  6
BYLAYER
  0
ACDBPLACEHOLDER
  5
F
102
{ACAD_REACTORS
330
E
102
}
330
E
  0
SCALE
  5
48
102
{ACAD_REACTORS
330
47
102
}
330
47
100
AcDbScale
 70
     0
300
1:1
140
1.0
141
1.0
290
     1
  0
SCALE
  5
49
102
{ACAD_REACTORS
330
47
102
}
330
47
100
AcDbScale
 70
     0
300
1:2
140
1.0
141
2.0
290
     0
  0
SCALE
  5
4A
102
{ACAD_REACTORS
330
47
102
}
330
47
100
AcDbScale
 70
     0
300
1:4
140
1.0
141
4.0
290
     0
  0
SCALE
  5
4B
102
{ACAD_REACTORS
330
47
102
}
330
47
100
AcDbScale
 70
     0
300
1:5
140
1.0
141
5.0
290
     0
  0
SCALE
  5
4C
102
{ACAD_REACTORS
330
47
102
}
330
47
100
AcDbScale
 70
     0
300
1:8
140
1.0
141
8.0
290
     0
  0
SCALE
  5
4D
102
{ACAD_REACTORS
330
47
102
}
330
47
100
AcDbScale
 70
     0
300
1:10
140
1.0
141
10.0
290
     0
  0
SCALE
  5
4E
102
{ACAD_REACTORS
330
47
102
}
330
47
100
AcDbScale
 70
     0
300
1:16
140
1.0
141
16.0
290
     0
  0
SCALE
  5
4F
102
{ACAD_REACTORS
330
47
102
}
330
47
100
AcDbScale
 70
     0
300
1:20
140
1.0
141
20.0
290
     0
  0
SCALE
  5
50
102
{ACAD_REACTORS
330
47
102
}
330
47
100
AcDbScale
 70
     0
300
1:30
140
1.0
141
30.0
290
     0
  0
SCALE
  5
51
102
{ACAD_REACTORS
330
47
102
}
330
47
100
AcDbScale
 70
     0
300
1:40
140
1.0
141
40.0
290
     0
  0
SCALE
  5
52
102
{ACAD_REACTORS
330
47
102
}
330
47
100
AcDbScale
 70
     0
300
1:50
140
1.0
141
50.0
290
     0
  0
SCALE
  5
53
102
{ACAD_REACTORS
330
47
102
}
330
47
100
AcDbScale
 70
     0
300
1:100
140
1.0
141
100.0
290
     0
  0
SCALE
  5
54
102
{ACAD_REACTORS
330
47
102
}
330
47
100
AcDbScale
 70
     0
300
2:1
140
2.0
141
1.0
290
     0
  0
SCALE
  5
55
102
{ACAD_REACTORS
330
47
102
}
330
47
100
AcDbScale
 70
     0
300
4:1
140
4.0
141
1.0
290
     0
  0
SCALE
  5
56
102
{ACAD_REACTORS
330
47
102
}
330
47
100
AcDbScale
 70
     0
300
8:1
140
8.0
141
1.0
290
     0
  0
SCALE
  5
57
102
{ACAD_REACTORS
330
47
102
}
330
47
100
AcDbScale
 70
     0
300
10:1
140
10.0
141
1.0
290
     0
  0
SCALE
  5
58
102
{ACAD_REACTORS
330
47
102
}
330
47
100
AcDbScale
 70
     0
300
100:1
140
100.0
141
1.0
290
     0
  0
SCALE
  5
59
102
{ACAD_REACTORS
330
47
102
}
330
47
100
AcDbScale
 70
     0
300
1/128" = 1'-0"
140
0.0078125
141
12.0
290
     0
  0
SCALE
  5
5A
102
{ACAD_REACTORS
330
47
102
}
330
47
100
AcDbScale
 70
     0
300
1/64" = 1'-0"
140
0.015625
141
12.0
290
     0
  0
SCALE
  5
5B
102
{ACAD_REACTORS
330
47
102
}
330
47
100
AcDbScale
 70
     0
300
1/32" = 1'-0"
140
0.03125
141
12.0
290
     0
  0
SCALE
  5
5C
102
{ACAD_REACTORS
330
47
102
}
330
47
100
AcDbScale
 70
     0
300
1/16" = 1'-0"
140
0.0625
141
12.0
290
     0
  0
SCALE
  5
5D
102
{ACAD_REACTORS
330
47
102
}
330
47
100
AcDbScale
 70
     0
300
3/32" = 1'-0"
140
0.09375
141
12.0
290
     0
  0
SCALE
  5
5E
102
{ACAD_REACTORS
330
47
102
}
330
47
100
AcDbScale
 70
     0
300
1/8" = 1'-0"
140
0.125
141
12.0
290
     0
  0
SCALE
  5
5F
102
{ACAD_REACTORS
330
47
102
}
330
47
100
AcDbScale
 70
     0
300
3/16" = 1'-0"
140
0.1875
141
12.0
290
     0
  0
SCALE
  5
60
102
{ACAD_REACTORS
330
47
102
}
330
47
100
AcDbScale
 70
     0
300
1/4" = 1'-0"
140
0.25
141
12.0
290
     0
  0
SCALE
  5
61
102
{ACAD_REACTORS
330
47
102
}
330
47
100
AcDbScale
 70
     0
300
3/8" = 1'-0"
140
0.375
141
12.0
290
     0
  0
SCALE
  5
62
102
{ACAD_REACTORS
330
47
102
}
330
47
100
AcDbScale
 70
     0
300
1/2" = 1'-0"
140
0.5
141
12.0
290
     0
  0
SCALE
  5
63
102
{ACAD_REACTORS
330
47
102
}
330
47
100
AcDbScale
 70
     0
300
3/4" = 1'-0"
140
0.75
141
12.0
290
     0
  0
SCALE
  5
64
102
{ACAD_REACTORS
330
47
102
}
330
47
100
AcDbScale
 70
     0
300
1" = 1'-0"
140
1.0
141
12.0
290
     0
  0
SCALE
  5
65
102
{ACAD_REACTORS
330
47
102
}
330
47
100
AcDbScale
 70
     0
300
1-1/2" = 1'-0"
140
1.5
141
12.0
290
     0
  0
SCALE
  5
66
102
{ACAD_REACTORS
330
47
102
}
330
47
100
AcDbScale
 70
     0
300
3" = 1'-0"
140
3.0
141
12.0
290
     0
  0
SCALE
  5
67
102
{ACAD_REACTORS
330
47
102
}
330
47
100
AcDbScale
 70
     0
300
6" = 1'-0"
140
6.0
141
12.0
290
     0
  0
SCALE
  5
68
102
{ACAD_REACTORS
330
47
102
}
330
47
100
AcDbScale
 70
     0
300
1'-0" = 1'-0"
140
12.0
141
12.0
290
     0
  0
ENDSEC
  0
EOF
