  0
SECTION
  2
HEADER
  9
$ACADVER
  1
AC1015
  9
$ACADMAINTVER
 70
     6
  9
$DWGCODEPAGE
  3
ANSI_950
  9
$INSBASE
 10
0.0
 20
0.0
 30
0.0
  9
$EXTMIN
 10
0.0
 20
0.0
 30
0.0
  9
$EXTMAX
 10
742.5
 20
525.0
 30
0.0
  9
$LIMMIN
 10
0.0
 20
0.0
  9
$LIMMAX
 10
742.5
 20
525.0
  9
$ORTHOMODE
 70
     0
  9
$REGENMODE
 70
     1
  9
$FILLMODE
 70
     1
  9
$QTEXTMODE
 70
     0
  9
$MIRRTEXT
 70
     1
  9
$LTSCALE
 40
2.5
  9
$ATTMODE
 70
     1
  9
$TEXTSIZE
 40
6.25
  9
$TRACEWID
 40
1.0
  9
$TEXTSTYLE
  7
STANDARD
  9
$CLAYER
  8
0
  9
$CELTYPE
  6
ByLayer
  9
$CECOLOR
 62
   256
  9
$CELTSCALE
 40
1.0
  9
$DISPSILH
 70
     0
  9
$DIMSCALE
 40
1.0
  9
$DIMASZ
 40
5.0
  9
$DIMEXO
 40
2.5
  9
$DIMDLI
 40
3.75
  9
$DIMRND
 40
0.0
  9
$DIMDLE
 40
0.0
  9
$DIMEXE
 40
2.5
  9
$DIMTP
 40
0.0
  9
$DIMTM
 40
0.0
  9
$DIMTXT
 40
6.25
  9
$DIMCEN
 40
2.5
  9
$DIMTSZ
 40
0.0
  9
$DIMTOL
 70
     0
  9
$DIMLIM
 70
     0
  9
$DIMTIH
 70
     1
  9
$DIMTOH
 70
     1
  9
$DIMSE1
 70
     0
  9
$DIMSE2
 70
     0
  9
$DIMTAD
 70
     1
  9
$DIMZIN
 70
     0
  9
$DIMBLK
  1

  9
$DIMASO
 70
     1
  9
$DIMSHO
 70
     1
  9
$DIMPOST
  1

  9
$DIMAPOST
  1

  9
$DIMALT
 70
     0
  9
$DIMALTD
 70
     3
  9
$DIMALTF
 40
0.0393700787
  9
$DIMLFAC
 40
1.0
  9
$DIMTOFL
 70
     1
  9
$DIMTVP
 40
0.0
  9
$DIMTIX
 70
     0
  9
$DIMSOXD
 70
     0
  9
$DIMSAH
 70
     0
  9
$DIMBLK1
  1

  9
$DIMBLK2
  1

  9
$DIMSTYLE
  2
ISO-25
  9
$DIMCLRD
 70
     0
  9
$DIMCLRE
 70
     0
  9
$DIMCLRT
 70
     0
  9
$DIMTFAC
 40
1.0
  9
$DIMGAP
 40
2.5
  9
$DIMJUST
 70
     0
  9
$DIMSD1
 70
     0
  9
$DIMSD2
 70
     0
  9
$DIMTOLJ
 70
     0
  9
$DIMTZIN
 70
     0
  9
$DIMALTZ
 70
     0
  9
$DIMALTTZ
 70
     0
  9
$DIMUPT
 70
     0
  9
$DIMDEC
 70
     2
  9
$DIMTDEC
 70
     2
  9
$DIMALTU
 70
     2
  9
$DIMALTTD
 70
     3
  9
$DIMTXSTY
  7
STANDARD
  9
$DIMAUNIT
 70
     0
  9
$DIMADEC
 70
     1
  9
$DIMALTRND
 40
0.0
  9
$DIMAZIN
 70
     0
  9
$DIMDSEP
 70
    44
  9
$DIMATFIT
 70
     3
  9
$DIMFRAC
 70
     0
  9
$DIMLDRBLK
  1

  9
$DIMLUNIT
 70
     2
  9
$DIMLWD
 70
    -2
  9
$DIMLWE
 70
    -2
  9
$DIMTMOVE
 70
     0
  9
$LUNITS
 70
     2
  9
$LUPREC
 70
     2
  9
$SKETCHINC
 40
1.0
  9
$FILLETRAD
 40
10.0
  9
$AUNITS
 70
     0
  9
$AUPREC
 70
     1
  9
$MENU
  1
.
  9
$ELEVATION
 40
0.0
  9
$PELEVATION
 40
0.0
  9
$THICKNESS
 40
0.0
  9
$LIMCHECK
 70
     0
  9
$CHAMFERA
 40
0.0
  9
$CHAMFERB
 40
0.0
  9
$CHAMFERC
 40
0.0
  9
$CHAMFERD
 40
0.0
  9
$SKPOLY
 70
     0
  9
$TDCREATE
 40
2457505.435309317
  9
$TDUCREATE
 40
2457505.101975984
  9
$TDUPDATE
 40
2457505.435314931
  9
$TDUUPDATE
 40
2457505.101981597
  9
$TDINDWG
 40
0.0000000116
  9
$TDUSRTIMER
 40
0.0000000116
  9
$USRTIMER
 70
     1
  9
$ANGBASE
 50
0.0
  9
$ANGDIR
 70
     0
  9
$PDMODE
 70
     0
  9
$PDSIZE
 40
-1.0
  9
$PLINEWID
 40
0.0
  9
$SPLFRAME
 70
     0
  9
$SPLINETYPE
 70
     6
  9
$SPLINESEGS
 70
     8
  9
$HANDSEED
  5
3C3
  9
$SURFTAB1
 70
     6
  9
$SURFTAB2
 70
     6
  9
$SURFTYPE
 70
     6
  9
$SURFU
 70
     6
  9
$SURFV
 70
     6
  9
$UCSBASE
  2

  9
$UCSNAME
  2

  9
$UCSORG
 10
0.0
 20
0.0
 30
0.0
  9
$UCSXDIR
 10
1.0
 20
0.0
 30
0.0
  9
$UCSYDIR
 10
0.0
 20
1.0
 30
0.0
  9
$UCSORTHOREF
  2

  9
$UCSORTHOVIEW
 70
     0
  9
$UCSORGTOP
 10
0.0
 20
0.0
 30
0.0
  9
$UCSORGBOTTOM
 10
0.0
 20
0.0
 30
0.0
  9
$UCSORGLEFT
 10
0.0
 20
0.0
 30
0.0
  9
$UCSORGRIGHT
 10
0.0
 20
0.0
 30
0.0
  9
$UCSORGFRONT
 10
0.0
 20
0.0
 30
0.0
  9
$UCSORGBACK
 10
0.0
 20
0.0
 30
0.0
  9
$PUCSBASE
  2

  9
$PUCSNAME
  2

  9
$PUCSORG
 10
0.0
 20
0.0
 30
0.0
  9
$PUCSXDIR
 10
1.0
 20
0.0
 30
0.0
  9
$PUCSYDIR
 10
0.0
 20
1.0
 30
0.0
  9
$PUCSORTHOREF
  2

  9
$PUCSORTHOVIEW
 70
     0
  9
$PUCSORGTOP
 10
0.0
 20
0.0
 30
0.0
  9
$PUCSORGBOTTOM
 10
0.0
 20
0.0
 30
0.0
  9
$PUCSORGLEFT
 10
0.0
 20
0.0
 30
0.0
  9
$PUCSORGRIGHT
 10
0.0
 20
0.0
 30
0.0
  9
$PUCSORGFRONT
 10
0.0
 20
0.0
 30
0.0
  9
$PUCSORGBACK
 10
0.0
 20
0.0
 30
0.0
  9
$USERI1
 70
     0
  9
$USERI2
 70
     0
  9
$USERI3
 70
     0
  9
$USERI4
 70
     0
  9
$USERI5
 70
     0
  9
$USERR1
 40
0.0
  9
$USERR2
 40
0.0
  9
$USERR3
 40
0.0
  9
$USERR4
 40
0.0
  9
$USERR5
 40
0.0
  9
$WORLDVIEW
 70
     1
  9
$SHADEDGE
 70
     3
  9
$SHADEDIF
 70
    70
  9
$TILEMODE
 70
     1
  9
$MAXACTVP
 70
    64
  9
$PINSBASE
 10
0.0
 20
0.0
 30
0.0
  9
$PLIMCHECK
 70
     0
  9
$PEXTMIN
 10
1.0000000000E+20
 20
1.0000000000E+20
 30
1.0000000000E+20
  9
$PEXTMAX
 10
-1.0000000000E+20
 20
-1.0000000000E+20
 30
-1.0000000000E+20
  9
$PLIMMIN
 10
0.0
 20
0.0
  9
$PLIMMAX
 10
420.0
 20
297.0
  9
$UNITMODE
 70
     0
  9
$VISRETAIN
 70
     1
  9
$PLINEGEN
 70
     0
  9
$PSLTSCALE
 70
     1
  9
$TREEDEPTH
 70
  3020
  9
$CMLSTYLE
  2
Standard
  9
$CMLJUST
 70
     0
  9
$CMLSCALE
 40
20.0
  9
$PROXYGRAPHICS
 70
     1
  9
$MEASUREMENT
 70
     1
  9
$CELWEIGHT
370
    -1
  9
$ENDCAPS
280
     0
  9
$JOINSTYLE
280
     0
  9
$LWDISPLAY
290
     1
  9
$INSUNITS
 70
     4
  9
$HYPERLINKBASE
  1

  9
$STYLESHEET
  1

  9
$XEDIT
290
     1
  9
$CEPSNTYPE
380
     0
  9
$PSTYLEMODE
290
     1
  9
$FINGERPRINTGUID
  2
{B077643D-67F1-48C9-B71D-E8A254923B0F}
  9
$VERSIONGUID
  2
{FAEB1C32-E019-11D5-929B-00C0DF256EC4}
  9
$EXTNAMES
290
     1
  9
$PSVPSCALE
 40
0.0
  9
$OLESTARTUP
290
     0
  0
ENDSEC
  0
SECTION
  2
CLASSES
  0
CLASS
  1
ACDBDICTIONARYWDFLT
  2
AcDbDictionaryWithDefault
  3
ObjectDBX Classes
 90
        0
280
     0
281
     0
  0
CLASS
  1
VISUALSTYLE
  2
AcDbVisualStyle
  3
ObjectDBX Classes
 90
     4095
280
     0
281
     0
  0
CLASS
  1
MATERIAL
  2
AcDbMaterial
  3
ObjectDBX Classes
 90
     1153
280
     0
281
     0
  0
CLASS
  1
SCALE
  2
AcDbScale
  3
ObjectDBX Classes
 90
     1153
280
     0
281
     0
  0
CLASS
  1
TABLESTYLE
  2
AcDbTableStyle
  3
ObjectDBX Classes
 90
     4095
280
     0
281
     0
  0
CLASS
  1
MLEADERSTYLE
  2
AcDbMLeaderStyle
  3
ACDB_MLEADERSTYLE_CLASS
 90
     4095
280
     0
281
     0
  0
CLASS
  1
SUN
  2
AcDbSun
  3
SCENEOE
 90
     1153
280
     0
281
     0
  0
CLASS
  1
ACDBPLACEHOLDER
  2
AcDbPlaceHolder
  3
ObjectDBX Classes
 90
        0
280
     0
281
     0
  0
CLASS
  1
LAYOUT
  2
AcDbLayout
  3
ObjectDBX Classes
 90
        0
280
     0
281
     0
  0
ENDSEC
  0
SECTION
  2
TABLES
  0
TABLE
  2
VPORT
  5
8
330
0
100
AcDbSymbolTable
 70
     1
  0
VPORT
  5
29
330
8
100
AcDbSymbolTableRecord
100
AcDbViewportTableRecord
  2
*Active
 70
     0
 10
0.0
 20
0.0
 11
1.0
 21
1.0
 12
371.25
 22
262.5
 13
0.0
 23
0.0
 14
10.0
 24
10.0
 15
10.0
 25
10.0
 16
0.0
 26
0.0
 36
1.0
 17
0.0
 27
0.0
 37
0.0
 40
525.0
 41
1.4142857143
 42
50.0
 43
0.0
 44
0.0
 50
0.0
 51
0.0
 71
     0
 72
  2000
 73
     1
 74
     3
 75
     0
 76
     0
 77
     0
 78
     0
281
     0
 65
     1
110
0.0
120
0.0
130
0.0
111
1.0
121
0.0
131
0.0
112
0.0
122
1.0
132
0.0
 79
     0
146
0.0
  0
ENDTAB
  0
TABLE
  2
LTYPE
  5
5
330
0
100
AcDbSymbolTable
 70
     6
  0
LTYPE
  5
14
330
5
100
AcDbSymbolTableRecord
100
AcDbLinetypeTableRecord
  2
ByBlock
 70
     0
  3

 72
    65
 73
     0
 40
0.0
  0
LTYPE
  5
15
330
5
100
AcDbSymbolTableRecord
100
AcDbLinetypeTableRecord
  2
ByLayer
 70
     0
  3

 72
    65
 73
     0
 40
0.0
  0
LTYPE
  5
16
330
5
100
AcDbSymbolTableRecord
100
AcDbLinetypeTableRecord
  2
Continuous
 70
     0
  3
Solid line
 72
    65
 73
     0
 40
0.0
  0
LTYPE
  5
6E
330
5
100
AcDbSymbolTableRecord
100
AcDbLinetypeTableRecord
  2
HIDDEN
 70
     0
  3
Hidden __ __ __ __ __ __ __ __ __ __ __ __ __ __
 72
    65
 73
     2
 40
1.905
 49
1.27
 74
     0
 49
-0.635
 74
     0
  0
LTYPE
  5
6F
330
5
100
AcDbSymbolTableRecord
100
AcDbLinetypeTableRecord
  2
PHANTOM
 70
     0
  3
Phantom ______  __  __  ______  __  __  ______
 72
    65
 73
     6
 40
12.7
 49
6.35
 74
     0
 49
-1.27
 74
     0
 49
1.27
 74
     0
 49
-1.27
 74
     0
 49
1.27
 74
     0
 49
-1.27
 74
     0
  0
LTYPE
  5
70
330
5
100
AcDbSymbolTableRecord
100
AcDbLinetypeTableRecord
  2
CENTER
 70
     0
  3
Center ____ _ ____ _ ____ _ ____ _ ____ _ ____
 72
    65
 73
     4
 40
10.16
 49
6.35
 74
     0
 49
-1.27
 74
     0
 49
1.27
 74
     0
 49
-1.27
 74
     0
  0
LTYPE
  5
71
330
5
100
AcDbSymbolTableRecord
100
AcDbLinetypeTableRecord
  2
CENTERX2
 70
     0
  3
Center (2x) ________  __  ________  __  _____
 72
    65
 73
     4
 40
20.32
 49
12.7
 74
     0
 49
-2.54
 74
     0
 49
2.54
 74
     0
 49
-2.54
 74
     0
  0
LTYPE
  5
72
330
5
100
AcDbSymbolTableRecord
100
AcDbLinetypeTableRecord
  2
DOT2
 70
     0
  3
Dot (.5x) ........................................
 72
    65
 73
     2
 40
0.635
 49
0.0
 74
     0
 49
-0.635
 74
     0
  0
ENDTAB
  0
TABLE
  2
LAYER
  5
2
330
0
100
AcDbSymbolTable
 70
     3
  0
LAYER
  5
10
330
2
100
AcDbSymbolTableRecord
100
AcDbLayerTableRecord
  2
0
 70
     0
 62
     7
  6
Continuous
370
    -3
390
F
  0
LAYER
  5
73
330
2
100
AcDbSymbolTableRecord
100
AcDbLayerTableRecord
  2
SLD-0
 70
     0
 62
     7
  6
Continuous
370
    15
390
F
  0
LAYER
  5
74
330
2
100
AcDbSymbolTableRecord
100
AcDbLayerTableRecord
  2
工作區域參考線
 70
     0
 62
   179
  6
Continuous
370
    -3
390
F
  0
ENDTAB
  0
TABLE
  2
STYLE
  5
3
330
0
100
AcDbSymbolTable
 70
     4
  0
STYLE
  5
11
330
3
100
AcDbSymbolTableRecord
100
AcDbTextStyleTableRecord
  2
STANDARD
 70
     0
 40
0.0
 41
1.0
 50
0.0
 71
     0
 42
6.25
  3
ARIAL.TTF
  4

1001
ACAD
1000
ARIAL
1071
       34
  0
STYLE
  5
C9
330
3
100
AcDbSymbolTableRecord
100
AcDbTextStyleTableRecord
  2
SLDTEXTSTYLE0
 70
     0
 40
0.0
 41
0.948
 50
0.0
 71
     0
 42
6.25
  3
ARIAL.TTF
  4

1001
ACAD
1000
Arial
1071
      290
  0
STYLE
  5
D2
330
3
100
AcDbSymbolTableRecord
100
AcDbTextStyleTableRecord
  2
SLDTEXTSTYLE1
 70
     0
 40
0.0
 41
1.0
 50
0.0
 71
     0
 42
6.25
  3
ARIALBD.TTF
  4

1001
ACAD
1000
Arial CE
1071
 33554722
  0
STYLE
  5
E1
330
3
100
AcDbSymbolTableRecord
100
AcDbTextStyleTableRecord
  2
SLDTEXTSTYLE2
 70
     0
 40
0.0
 41
1.0
 50
0.0
 71
     0
 42
6.25
  3
ARIAL.TTF
  4

1001
ACAD
1000
Arial CE
1071
      290
  0
ENDTAB
  0
TABLE
  2
VIEW
  5
6
330
0
100
AcDbSymbolTable
 70
     0
  0
ENDTAB
  0
TABLE
  2
UCS
  5
7
330
0
100
AcDbSymbolTable
 70
     0
  0
ENDTAB
  0
TABLE
  2
APPID
  5
9
330
0
100
AcDbSymbolTable
 70
     1
  0
APPID
  5
12
330
9
100
AcDbSymbolTableRecord
100
AcDbRegAppTableRecord
  2
ACAD
 70
     0
  0
ENDTAB
  0
TABLE
  2
DIMSTYLE
  5
A
330
0
100
AcDbSymbolTable
 70
     5
100
AcDbDimStyleTable
  0
DIMSTYLE
105
27
330
A
100
AcDbSymbolTableRecord
100
AcDbDimStyleTableRecord
  2
ISO-25
 70
     0
 41
2.5
 42
0.625
 43
3.75
 44
1.25
 73
     0
 74
     0
 77
     1
 78
     8
140
2.5
141
2.5
143
0.0393700787
147
0.625
171
     3
172
     1
178
     0
271
     2
272
     2
274
     3
278
    44
283
     0
284
     8
340
11
  0
DIMSTYLE
105
12C
102
{ACAD_REACTORS
330
12B
330
136
330
156
330
16B
330
18A
330
1AA
330
1B4
330
2A7
330
2B1
330
2D7
330
2E1
330
2EB
330
2F5
330
2FF
330
309
102
}
330
A
100
AcDbSymbolTableRecord
100
AcDbDimStyleTableRecord
  2
SLDDIMSTYLE0
 70
     0
 41
5.0
 44
0.0
 45
0.000000001
 73
     0
 74
     0
 77
     1
 78
    12
 79
     3
140
6.25
147
1.5625
173
     1
178
     0
271
     2
272
     2
276
     2
284
    12
340
C9
  0
DIMSTYLE
105
141
102
{ACAD_REACTORS
330
140
330
160
102
}
330
A
100
AcDbSymbolTableRecord
100
AcDbDimStyleTableRecord
  2
SLDDIMSTYLE1
 70
     0
 41
5.0
 44
0.0
 45
0.000000001
 78
    12
 79
     3
140
6.25
141
0.0
147
1.5625
173
     1
178
     0
271
     2
272
     2
276
     2
284
    12
340
C9
  0
DIMSTYLE
105
14B
102
{ACAD_REACTORS
330
14A
330
17F
330
194
330
19F
102
}
330
A
100
AcDbSymbolTableRecord
100
AcDbDimStyleTableRecord
  2
SLDDIMSTYLE2
 70
     0
 41
5.0
 44
0.0
 45
0.000000001
 73
     0
 74
     0
 77
     1
 78
    12
 79
     3
140
5.0
147
1.25
173
     1
178
     0
271
     2
272
     2
276
     2
284
    12
340
C9
  0
DIMSTYLE
105
176
102
{ACAD_REACTORS
330
175
330
313
102
}
330
A
100
AcDbSymbolTableRecord
100
AcDbDimStyleTableRecord
  2
SLDDIMSTYLE3
 70
     0
  3
<>
 41
5.0
 44
0.0
 45
0.000000001
 78
    12
 79
     3
140
6.25
141
0.0
147
1.5625
173
     1
178
     0
271
     2
272
     2
276
     2
284
    12
340
C9
  0
ENDTAB
  0
TABLE
  2
BLOCK_RECORD
  5
1
330
0
100
AcDbSymbolTable
 70
    55
  0
BLOCK_RECORD
  5
1F
330
1
100
AcDbSymbolTableRecord
100
AcDbBlockTableRecord
  2
*Model_Space
340
22
  0
BLOCK_RECORD
  5
1B
330
1
100
AcDbSymbolTableRecord
100
AcDbBlockTableRecord
  2
*Paper_Space
340
1E
  0
BLOCK_RECORD
  5
23
330
1
100
AcDbSymbolTableRecord
100
AcDbBlockTableRecord
  2
*Paper_Space0
340
26
  0
BLOCK_RECORD
  5
75
330
1
100
AcDbSymbolTableRecord
100
AcDbBlockTableRecord
  2
圖塊6
340
0
102
{BLKREFS
331
C8
102
}
  0
BLOCK_RECORD
  5
CB
330
1
100
AcDbSymbolTableRecord
100
AcDbBlockTableRecord
  2
SW_NOTE_0
340
0
102
{BLKREFS
331
D1
102
}
  0
BLOCK_RECORD
  5
DE
330
1
100
AcDbSymbolTableRecord
100
AcDbBlockTableRecord
  2
SW_NOTE_1
340
0
102
{BLKREFS
331
E4
102
}
  0
BLOCK_RECORD
  5
12D
330
1
100
AcDbSymbolTableRecord
100
AcDbBlockTableRecord
  2
_D
340
0
  0
BLOCK_RECORD
  5
137
330
1
100
AcDbSymbolTableRecord
100
AcDbBlockTableRecord
  2
_D_1
340
0
  0
BLOCK_RECORD
  5
142
330
1
100
AcDbSymbolTableRecord
100
AcDbBlockTableRecord
  2
_D_2
340
0
  0
BLOCK_RECORD
  5
14C
330
1
100
AcDbSymbolTableRecord
100
AcDbBlockTableRecord
  2
_D_3
340
0
  0
BLOCK_RECORD
  5
157
330
1
100
AcDbSymbolTableRecord
100
AcDbBlockTableRecord
  2
_D_4
340
0
  0
BLOCK_RECORD
  5
161
330
1
100
AcDbSymbolTableRecord
100
AcDbBlockTableRecord
  2
_D_5
340
0
  0
BLOCK_RECORD
  5
16C
330
1
100
AcDbSymbolTableRecord
100
AcDbBlockTableRecord
  2
_D_6
340
0
  0
BLOCK_RECORD
  5
177
330
1
100
AcDbSymbolTableRecord
100
AcDbBlockTableRecord
  2
_D_7
340
0
  0
BLOCK_RECORD
  5
180
330
1
100
AcDbSymbolTableRecord
100
AcDbBlockTableRecord
  2
_D_8
340
0
  0
BLOCK_RECORD
  5
18B
330
1
100
AcDbSymbolTableRecord
100
AcDbBlockTableRecord
  2
_D_9
340
0
  0
BLOCK_RECORD
  5
195
330
1
100
AcDbSymbolTableRecord
100
AcDbBlockTableRecord
  2
_D_10
340
0
  0
BLOCK_RECORD
  5
1A0
330
1
100
AcDbSymbolTableRecord
100
AcDbBlockTableRecord
  2
_D_11
340
0
  0
BLOCK_RECORD
  5
1AB
330
1
100
AcDbSymbolTableRecord
100
AcDbBlockTableRecord
  2
_D_12
340
0
  0
BLOCK_RECORD
  5
1B5
330
1
100
AcDbSymbolTableRecord
100
AcDbBlockTableRecord
  2
_D_13
340
0
  0
BLOCK_RECORD
  5
1BE
330
1
100
AcDbSymbolTableRecord
100
AcDbBlockTableRecord
  2
SW_CENTERMARKSYMBOL_0
340
0
102
{BLKREFS
331
1C9
102
}
  0
BLOCK_RECORD
  5
1CA
330
1
100
AcDbSymbolTableRecord
100
AcDbBlockTableRecord
  2
SW_CENTERMARKSYMBOL_1
340
0
102
{BLKREFS
331
1D5
102
}
  0
BLOCK_RECORD
  5
1D6
330
1
100
AcDbSymbolTableRecord
100
AcDbBlockTableRecord
  2
SW_CENTERMARKSYMBOL_2
340
0
102
{BLKREFS
331
1E1
102
}
  0
BLOCK_RECORD
  5
1E2
330
1
100
AcDbSymbolTableRecord
100
AcDbBlockTableRecord
  2
SW_CENTERMARKSYMBOL_3
340
0
102
{BLKREFS
331
1ED
102
}
  0
BLOCK_RECORD
  5
1EE
330
1
100
AcDbSymbolTableRecord
100
AcDbBlockTableRecord
  2
SW_CENTERMARKSYMBOL_4
340
0
102
{BLKREFS
331
1F9
102
}
  0
BLOCK_RECORD
  5
1FA
330
1
100
AcDbSymbolTableRecord
100
AcDbBlockTableRecord
  2
SW_CENTERMARKSYMBOL_5
340
0
102
{BLKREFS
331
205
102
}
  0
BLOCK_RECORD
  5
206
330
1
100
AcDbSymbolTableRecord
100
AcDbBlockTableRecord
  2
SW_CENTERMARKSYMBOL_6
340
0
102
{BLKREFS
331
211
102
}
  0
BLOCK_RECORD
  5
212
330
1
100
AcDbSymbolTableRecord
100
AcDbBlockTableRecord
  2
SW_CENTERMARKSYMBOL_7
340
0
102
{BLKREFS
331
21D
102
}
  0
BLOCK_RECORD
  5
21E
330
1
100
AcDbSymbolTableRecord
100
AcDbBlockTableRecord
  2
SW_CENTERMARKSYMBOL_8
340
0
102
{BLKREFS
331
229
102
}
  0
BLOCK_RECORD
  5
22A
330
1
100
AcDbSymbolTableRecord
100
AcDbBlockTableRecord
  2
SW_CENTERMARKSYMBOL_9
340
0
102
{BLKREFS
331
235
102
}
  0
BLOCK_RECORD
  5
236
330
1
100
AcDbSymbolTableRecord
100
AcDbBlockTableRecord
  2
SW_CENTERMARKSYMBOL_10
340
0
102
{BLKREFS
331
241
102
}
  0
BLOCK_RECORD
  5
242
330
1
100
AcDbSymbolTableRecord
100
AcDbBlockTableRecord
  2
SW_CENTERMARKSYMBOL_11
340
0
102
{BLKREFS
331
24D
102
}
  0
BLOCK_RECORD
  5
24E
330
1
100
AcDbSymbolTableRecord
100
AcDbBlockTableRecord
  2
SW_CENTERMARKSYMBOL_12
340
0
102
{BLKREFS
331
259
102
}
  0
BLOCK_RECORD
  5
25A
330
1
100
AcDbSymbolTableRecord
100
AcDbBlockTableRecord
  2
SW_CENTERMARKSYMBOL_13
340
0
102
{BLKREFS
331
265
102
}
  0
BLOCK_RECORD
  5
266
330
1
100
AcDbSymbolTableRecord
100
AcDbBlockTableRecord
  2
SW_CENTERMARKSYMBOL_14
340
0
102
{BLKREFS
331
271
102
}
  0
BLOCK_RECORD
  5
272
330
1
100
AcDbSymbolTableRecord
100
AcDbBlockTableRecord
  2
SW_CENTERMARKSYMBOL_15
340
0
102
{BLKREFS
331
27D
102
}
  0
BLOCK_RECORD
  5
27E
330
1
100
AcDbSymbolTableRecord
100
AcDbBlockTableRecord
  2
SW_CENTERMARKSYMBOL_16
340
0
102
{BLKREFS
331
289
102
}
  0
BLOCK_RECORD
  5
28A
330
1
100
AcDbSymbolTableRecord
100
AcDbBlockTableRecord
  2
SW_CENTERMARKSYMBOL_17
340
0
102
{BLKREFS
331
295
102
}
  0
BLOCK_RECORD
  5
2A8
330
1
100
AcDbSymbolTableRecord
100
AcDbBlockTableRecord
  2
_D_14
340
0
  0
BLOCK_RECORD
  5
2B2
330
1
100
AcDbSymbolTableRecord
100
AcDbBlockTableRecord
  2
_D_15
340
0
  0
BLOCK_RECORD
  5
2BB
330
1
100
AcDbSymbolTableRecord
100
AcDbBlockTableRecord
  2
SW_CENTERMARKSYMBOL_18
340
0
102
{BLKREFS
331
2C6
102
}
  0
BLOCK_RECORD
  5
2D8
330
1
100
AcDbSymbolTableRecord
100
AcDbBlockTableRecord
  2
_D_16
340
0
  0
BLOCK_RECORD
  5
2E2
330
1
100
AcDbSymbolTableRecord
100
AcDbBlockTableRecord
  2
_D_17
340
0
  0
BLOCK_RECORD
  5
2EC
330
1
100
AcDbSymbolTableRecord
100
AcDbBlockTableRecord
  2
_D_18
340
0
  0
BLOCK_RECORD
  5
2F6
330
1
100
AcDbSymbolTableRecord
100
AcDbBlockTableRecord
  2
_D_19
340
0
  0
BLOCK_RECORD
  5
300
330
1
100
AcDbSymbolTableRecord
100
AcDbBlockTableRecord
  2
_D_20
340
0
  0
BLOCK_RECORD
  5
30A
330
1
100
AcDbSymbolTableRecord
100
AcDbBlockTableRecord
  2
_D_21
340
0
  0
BLOCK_RECORD
  5
314
330
1
100
AcDbSymbolTableRecord
100
AcDbBlockTableRecord
  2
_D_22
340
0
  0
BLOCK_RECORD
  5
31C
330
1
100
AcDbSymbolTableRecord
100
AcDbBlockTableRecord
  2
SW_CENTERMARKSYMBOL_19
340
0
102
{BLKREFS
331
327
102
}
  0
BLOCK_RECORD
  5
328
330
1
100
AcDbSymbolTableRecord
100
AcDbBlockTableRecord
  2
SW_CENTERMARKSYMBOL_20
340
0
102
{BLKREFS
331
333
102
}
  0
BLOCK_RECORD
  5
334
330
1
100
AcDbSymbolTableRecord
100
AcDbBlockTableRecord
  2
SW_CENTERMARKSYMBOL_21
340
0
102
{BLKREFS
331
33F
102
}
  0
BLOCK_RECORD
  5
340
330
1
100
AcDbSymbolTableRecord
100
AcDbBlockTableRecord
  2
SW_CENTERMARKSYMBOL_22
340
0
102
{BLKREFS
331
34B
102
}
  0
BLOCK_RECORD
  5
34C
330
1
100
AcDbSymbolTableRecord
100
AcDbBlockTableRecord
  2
SW_CENTERMARKSYMBOL_23
340
0
102
{BLKREFS
331
357
102
}
  0
BLOCK_RECORD
  5
358
330
1
100
AcDbSymbolTableRecord
100
AcDbBlockTableRecord
  2
SW_CENTERMARKSYMBOL_24
340
0
102
{BLKREFS
331
363
102
}
  0
BLOCK_RECORD
  5
364
330
1
100
AcDbSymbolTableRecord
100
AcDbBlockTableRecord
  2
SW_CENTERMARKSYMBOL_25
340
0
102
{BLKREFS
331
36F
102
}
  0
BLOCK_RECORD
  5
370
330
1
100
AcDbSymbolTableRecord
100
AcDbBlockTableRecord
  2
SW_CENTERMARKSYMBOL_26
340
0
102
{BLKREFS
331
37B
102
}
  0
BLOCK_RECORD
  5
37C
330
1
100
AcDbSymbolTableRecord
100
AcDbBlockTableRecord
  2
SW_CENTERMARKSYMBOL_27
340
0
102
{BLKREFS
331
387
102
}
  0
ENDTAB
  0
ENDSEC
  0
SECTION
  2
BLOCKS
  0
BLOCK
  5
20
330
1F
100
AcDbEntity
  8
0
100
AcDbBlockBegin
  2
*Model_Space
 70
     0
 10
0.0
 20
0.0
 30
0.0
  3
*Model_Space
  1

  0
ENDBLK
  5
21
330
1F
100
AcDbEntity
  8
0
100
AcDbBlockEnd
  0
BLOCK
  5
1C
330
1B
100
AcDbEntity
 67
     1
  8
0
100
AcDbBlockBegin
  2
*Paper_Space
 70
     0
 10
0.0
 20
0.0
 30
0.0
  3
*Paper_Space
  1

  0
ENDBLK
  5
1D
330
1B
100
AcDbEntity
 67
     1
  8
0
100
AcDbBlockEnd
  0
BLOCK
  5
24
330
23
100
AcDbEntity
  8
0
100
AcDbBlockBegin
  2
*Paper_Space0
 70
     0
 10
0.0
 20
0.0
 30
0.0
  3
*Paper_Space0
  1

  0
ENDBLK
  5
25
330
23
100
AcDbEntity
  8
0
100
AcDbBlockEnd
  0
BLOCK
  5
76
330
75
100
AcDbEntity
  8
0
100
AcDbBlockBegin
  2
圖塊6
 70
     0
 10
0.0
 20
0.0
 30
0.0
  3
圖塊6
  1

  0
ARC
  5
78
330
75
100
AcDbEntity
  8
0
 62
     7
370
    30
100
AcDbCircle
 10
3.8253860849
 20
15.2551707228
 30
0.0
 40
3.825386084859177
100
AcDbArc
 50
130.2115225915
 51
228.588904108
  0
ARC
  5
79
330
75
100
AcDbEntity
  8
0
 62
     7
370
    30
100
AcDbCircle
 10
12.1272839953
 20
14.9873636037
 30
0.0
 40
6.443338567044052
100
AcDbArc
 50
140.4331765613
 51
251.0865666567
  0
ARC
  5
7A
330
75
100
AcDbEntity
  8
0
 62
     7
370
    30
100
AcDbCircle
 10
12.9412604956
 20
15.7793899282
 30
0.0
 40
7.474091644424656
100
AcDbArc
 50
247.1485306747
 51
309.6030773927
  0
LINE
  5
7B
330
75
100
AcDbEntity
  8
0
 62
     7
370
    30
100
AcDbLine
 10
4.6222443172
 20
21.3304564959
 30
0.0
 11
1.35567368
 21
18.1764888047
 31
0.0
  0
LINE
  5
7C
330
75
100
AcDbEntity
  8
0
 62
     7
370
    30
100
AcDbLine
 10
1.2950572249
 20
12.3861962442
 30
0.0
 11
11.3180630004
 21
3.6746866436
 31
0.0
  0
LINE
  5
7D
330
75
100
AcDbEntity
  8
0
 62
     7
370
    30
100
AcDbLine
 10
11.3180630004
 20
3.6746866436
 30
0.0
 11
9.7404331993
 21
2.1349356674
 31
0.0
  0
LINE
  5
7E
330
75
100
AcDbEntity
  8
0
 62
     7
370
    30
100
AcDbLine
 10
9.7404331993
 20
2.1349356674
 30
0.0
 11
12.2201316112
 21
0.0
 31
0.0
  0
LINE
  5
7F
330
75
100
AcDbEntity
  8
0
 62
     7
370
    30
100
AcDbLine
 10
20.2442926971
 20
7.7914449138
 30
0.0
 11
17.7057351179
 21
10.0207592331
 31
0.0
  0
LINE
  5
80
330
75
100
AcDbEntity
  8
0
 62
     7
370
    30
100
AcDbLine
 10
7.1602289357
 20
19.0916267439
 30
0.0
 11
4.6222443172
 21
21.3304564959
 31
0.0
  0
LINE
  5
81
330
75
100
AcDbEntity
  8
0
 62
     7
370
    30
100
AcDbLine
 10
12.2201316112
 20
0.0
 30
0.0
 11
20.2442926971
 21
7.7914449138
 31
0.0
  0
ENDBLK
  5
77
330
75
100
AcDbEntity
  8
0
100
AcDbBlockEnd
  0
BLOCK
  5
CC
330
CB
100
AcDbEntity
  8
0
100
AcDbBlockBegin
  2
SW_NOTE_0
 70
     0
 10
0.0
 20
0.0
 30
0.0
  3
SW_NOTE_0
  1

  0
MTEXT
  5
CE
330
CB
100
AcDbEntity
  8
0
  6
Continuous
 62
     0
370
     0
100
AcDbMText
 10
0.0
 20
8.526645987
 30
0.0
 40
6.6145833333
 41
0.0
 71
     1
 72
     1
  1
PROPRIETARY AND CONFIDENTIAL
  7
SLDTEXTSTYLE0
 73
     1
 44
1.0
  0
MTEXT
  5
CF
330
CB
100
AcDbEntity
  8
0
  6
Continuous
 62
     0
370
     0
100
AcDbMText
 10
0.0
 20
-0.2049587001
 30
0.0
 40
4.6302083333
 41
0.0
 71
     1
 72
     1
  1
THE INFORMATION CONTAINED IN THIS DRAWING IS THE SOLE PROPERTY OF UNICE E-O SERVICES INC. ANY REPRODUCTION IN PART OR AS A WHOLE WITHOUT THE WRITTEN PERMISSION OF UNICE E-O SERVICES INC IS 
  7
SLDTEXTSTYLE0
 73
     1
 44
1.0
  0
MTEXT
  5
D0
330
CB
100
AcDbEntity
  8
0
  6
Continuous
 62
     0
370
     0
100
AcDbMText
 10
0.0
 20
-6.3785697366
 30
0.0
 40
4.6302083333
 41
0.0
 71
     1
 72
     1
  1
PROHIBITED.
  7
SLDTEXTSTYLE0
 73
     1
 44
1.0
  0
ENDBLK
  5
CD
330
CB
100
AcDbEntity
  8
0
100
AcDbBlockEnd
  0
BLOCK
  5
DF
330
DE
100
AcDbEntity
  8
0
100
AcDbBlockBegin
  2
SW_NOTE_1
 70
     0
 10
0.0
 20
0.0
 30
0.0
  3
SW_NOTE_1
  1

  0
MTEXT
  5
E2
330
DE
100
AcDbEntity
  8
0
  6
Continuous
 62
     0
370
     0
100
AcDbMText
 10
0.0
 20
5.9686521909
 30
0.0
 40
4.6302083333
 41
0.0
 71
     1
 72
     1
  1
No.5, Andong Rd., Chung Li District,
  7
SLDTEXTSTYLE2
 73
     1
 44
1.0
  0
MTEXT
  5
E3
330
DE
100
AcDbEntity
  8
0
  6
Continuous
 62
     0
370
     0
100
AcDbMText
 10
0.0
 20
-0.2049588456
 30
0.0
 40
4.6302083333
 41
0.0
 71
     1
 72
     1
  1
Taoyuan City 32063, Taiwan, R.O.C.
  7
SLDTEXTSTYLE2
 73
     1
 44
1.0
  0
ENDBLK
  5
E0
330
DE
100
AcDbEntity
  8
0
100
AcDbBlockEnd
  0
BLOCK
  5
12E
330
12D
100
AcDbEntity
  8
0
100
AcDbBlockBegin
  2
_D
 70
     0
 10
0.0
 20
0.0
 30
0.0
  3
_D
  1

  0
SOLID
  5
130
330
12D
100
AcDbEntity
  8
SLD-0
 62
     7
100
AcDbTrace
 10
115.4729925047
 20
418.6804162178
 30
0.0
 11
120.4729925047
 21
418.0554162178
 31
0.0
 12
120.4729925047
 22
419.3054162178
 32
0.0
 13
120.4729925047
 23
419.3054162178
 33
0.0
  0
SOLID
  5
131
330
12D
100
AcDbEntity
  8
SLD-0
 62
     7
100
AcDbTrace
 10
300.4729925047
 20
418.6804162178
 30
0.0
 11
295.4729925047
 21
419.3054162178
 31
0.0
 12
295.4729925047
 22
418.0554162178
 32
0.0
 13
295.4729925047
 23
418.0554162178
 33
0.0
  0
LINE
  5
132
330
12D
100
AcDbEntity
  8
SLD-0
 62
     7
100
AcDbLine
 10
115.4729925047
 20
367.2082327628
 30
0.0
 11
115.4729925047
 21
421.1804162178
 31
0.0
  0
LINE
  5
133
330
12D
100
AcDbEntity
  8
SLD-0
 62
     7
100
AcDbLine
 10
300.4729925047
 20
377.2082327628
 30
0.0
 11
300.4729925047
 21
421.1804162178
 31
0.0
  0
LINE
  5
134
330
12D
100
AcDbEntity
  8
SLD-0
 62
     7
100
AcDbLine
 10
115.4729925047
 20
418.6804162178
 30
0.0
 11
300.4729925047
 21
418.6804162178
 31
0.0
  0
MTEXT
  5
135
330
12D
100
AcDbEntity
  8
SLD-0
 62
     7
100
AcDbMText
 10
200.8115340161
 20
426.7370891548
 30
0.0
 40
6.25
 41
0.0
 71
     1
 72
     1
  1
185
  7
SLDTEXTSTYLE0
 73
     1
 44
1.0
  0
ENDBLK
  5
12F
330
12D
100
AcDbEntity
  8
0
100
AcDbBlockEnd
  0
BLOCK
  5
138
330
137
100
AcDbEntity
  8
0
100
AcDbBlockBegin
  2
_D_1
 70
     0
 10
0.0
 20
0.0
 30
0.0
  3
_D_1
  1

  0
SOLID
  5
13A
330
137
100
AcDbEntity
  8
SLD-0
 62
     7
100
AcDbTrace
 10
270.4729925047
 20
388.0005110499
 30
0.0
 11
275.4729925047
 21
387.3755110499
 31
0.0
 12
275.4729925047
 22
388.6255110499
 32
0.0
 13
275.4729925047
 23
388.6255110499
 33
0.0
  0
SOLID
  5
13B
330
137
100
AcDbEntity
  8
SLD-0
 62
     7
100
AcDbTrace
 10
300.4729925047
 20
388.0005110499
 30
0.0
 11
295.4729925047
 21
388.6255110499
 31
0.0
 12
295.4729925047
 22
387.3755110499
 32
0.0
 13
295.4729925047
 23
387.3755110499
 33
0.0
  0
LINE
  5
13C
330
137
100
AcDbEntity
  8
SLD-0
 62
     7
100
AcDbLine
 10
270.4729925047
 20
352.2582327628
 30
0.0
 11
270.4729925047
 21
390.5005110499
 31
0.0
  0
LINE
  5
13D
330
137
100
AcDbEntity
  8
SLD-0
 62
     7
100
AcDbLine
 10
300.4729925047
 20
377.2082327628
 30
0.0
 11
300.4729925047
 21
390.5005110499
 31
0.0
  0
LINE
  5
13E
330
137
100
AcDbEntity
  8
SLD-0
 62
     7
100
AcDbLine
 10
270.4729925047
 20
388.0005110499
 30
0.0
 11
300.4729925047
 21
388.0005110499
 31
0.0
  0
MTEXT
  5
13F
330
137
100
AcDbEntity
  8
SLD-0
 62
     7
100
AcDbMText
 10
280.6986869426
 20
396.0571839869
 30
0.0
 40
6.25
 41
0.0
 71
     1
 72
     1
  1
30
  7
SLDTEXTSTYLE0
 73
     1
 44
1.0
  0
ENDBLK
  5
139
330
137
100
AcDbEntity
  8
0
100
AcDbBlockEnd
  0
BLOCK
  5
143
330
142
100
AcDbEntity
  8
0
100
AcDbBlockBegin
  2
_D_2
 70
     0
 10
0.0
 20
0.0
 30
0.0
  3
_D_2
  1

  0
SOLID
  5
145
330
142
100
AcDbEntity
  8
SLD-0
 62
     7
100
AcDbTrace
 10
287.2977602841
 20
338.6429789354
 30
0.0
 11
292.0068445494
 21
340.4360629775
 31
0.0
 12
291.4205751155
 22
341.5400503646
 32
0.0
 13
291.4205751155
 23
341.5400503646
 33
0.0
  0
LINE
  5
146
330
142
100
AcDbEntity
  8
SLD-0
 62
     7
100
AcDbLine
 10
287.2977602841
 20
338.6429789354
 30
0.0
 11
310.6429921145
 21
351.0403994218
 31
0.0
  0
LINE
  5
147
330
142
100
AcDbEntity
  8
SLD-0
 62
     7
100
AcDbLine
 10
310.6429921145
 20
351.0403994218
 30
0.0
 11
339.5904751177
 21
351.0403994218
 31
0.0
  0
MTEXT
  5
148
330
142
100
AcDbEntity
  8
SLD-0
 62
     7
100
AcDbMText
 10
313.7679921145
 20
359.0970722133
 30
0.0
 40
6.25
 41
0.0
 71
     1
 72
     1
  1
%%c
  7
SLDTEXTSTYLE0
 73
     1
 44
1.0
  0
MTEXT
  5
149
330
142
100
AcDbEntity
  8
SLD-0
 62
     7
100
AcDbMText
 10
322.8804055051
 20
359.1144333757
 30
0.0
 40
6.25
 41
0.0
 71
     1
 72
     1
  1
38.1
  7
SLDTEXTSTYLE0
 73
     1
 44
1.0
  0
ENDBLK
  5
144
330
142
100
AcDbEntity
  8
0
100
AcDbBlockEnd
  0
BLOCK
  5
14D
330
14C
100
AcDbEntity
  8
0
100
AcDbBlockBegin
  2
_D_3
 70
     0
 10
0.0
 20
0.0
 30
0.0
  3
_D_3
  1

  0
SOLID
  5
14F
330
14C
100
AcDbEntity
  8
SLD-0
 62
     7
100
AcDbTrace
 10
164.8729925047
 20
385.9273735645
 30
0.0
 11
169.8729925047
 21
385.3023735645
 31
0.0
 12
169.8729925047
 22
386.5523735645
 32
0.0
 13
169.8729925047
 23
386.5523735645
 33
0.0
  0
SOLID
  5
150
330
14C
100
AcDbEntity
  8
SLD-0
 62
     7
100
AcDbTrace
 10
190.2729925047
 20
385.9273735645
 30
0.0
 11
185.2729925047
 21
386.5523735645
 31
0.0
 12
185.2729925047
 22
385.3023735645
 32
0.0
 13
185.2729925047
 23
385.3023735645
 33
0.0
  0
LINE
  5
151
330
14C
100
AcDbEntity
  8
SLD-0
 62
     7
100
AcDbLine
 10
164.8729925047
 20
349.1582327628
 30
0.0
 11
164.8729925047
 21
388.4273735645
 31
0.0
  0
LINE
  5
152
330
14C
100
AcDbEntity
  8
SLD-0
 62
     7
100
AcDbLine
 10
190.2729925047
 20
349.1582327628
 30
0.0
 11
190.2729925047
 21
388.4273735645
 31
0.0
  0
LINE
  5
153
330
14C
100
AcDbEntity
  8
SLD-0
 62
     7
100
AcDbLine
 10
164.8729925047
 20
385.9273735645
 30
0.0
 11
190.2729925047
 21
385.9273735645
 31
0.0
  0
MTEXT
  5
154
330
14C
100
AcDbEntity
  8
SLD-0
 62
     7
100
AcDbMText
 10
163.2535481966
 20
392.3727124089
 30
0.0
 40
5.0
 41
0.0
 71
     1
 72
     1
  1
25.4
  7
SLDTEXTSTYLE0
 73
     1
 44
1.0
  0
MTEXT
  5
155
330
14C
100
AcDbEntity
  8
SLD-0
 62
     7
100
AcDbMText
 10
176.621603421
 20
392.3727124089
 30
0.0
 40
5.0
 41
0.0
 71
     1
 72
     1
  1
 TYP
  7
SLDTEXTSTYLE0
 73
     1
 44
1.0
  0
ENDBLK
  5
14E
330
14C
100
AcDbEntity
  8
0
100
AcDbBlockEnd
  0
BLOCK
  5
158
330
157
100
AcDbEntity
  8
0
100
AcDbBlockBegin
  2
_D_4
 70
     0
 10
0.0
 20
0.0
 30
0.0
  3
_D_4
  1

  0
SOLID
  5
15A
330
157
100
AcDbEntity
  8
SLD-0
 62
     7
100
AcDbTrace
 10
190.2729925047
 20
385.9273735645
 30
0.0
 11
195.2729925047
 21
385.3023735645
 31
0.0
 12
195.2729925047
 22
386.5523735645
 32
0.0
 13
195.2729925047
 23
386.5523735645
 33
0.0
  0
SOLID
  5
15B
330
157
100
AcDbEntity
  8
SLD-0
 62
     7
100
AcDbTrace
 10
270.4729925047
 20
385.9273735645
 30
0.0
 11
265.4729925047
 21
386.5523735645
 31
0.0
 12
265.4729925047
 22
385.3023735645
 32
0.0
 13
265.4729925047
 23
385.3023735645
 33
0.0
  0
LINE
  5
15C
330
157
100
AcDbEntity
  8
SLD-0
 62
     7
100
AcDbLine
 10
190.2729925047
 20
349.1582327628
 30
0.0
 11
190.2729925047
 21
388.4273735645
 31
0.0
  0
LINE
  5
15D
330
157
100
AcDbEntity
  8
SLD-0
 62
     7
100
AcDbLine
 10
270.4729925047
 20
352.2582327628
 30
0.0
 11
270.4729925047
 21
388.4273735645
 31
0.0
  0
LINE
  5
15E
330
157
100
AcDbEntity
  8
SLD-0
 62
     7
100
AcDbLine
 10
190.2729925047
 20
385.9273735645
 30
0.0
 11
270.4729925047
 21
385.9273735645
 31
0.0
  0
MTEXT
  5
15F
330
157
100
AcDbEntity
  8
SLD-0
 62
     7
100
AcDbMText
 10
222.0179579894
 20
393.9840465016
 30
0.0
 40
6.25
 41
0.0
 71
     1
 72
     1
  1
80.2
  7
SLDTEXTSTYLE0
 73
     1
 44
1.0
  0
ENDBLK
  5
159
330
157
100
AcDbEntity
  8
0
100
AcDbBlockEnd
  0
BLOCK
  5
162
330
161
100
AcDbEntity
  8
0
100
AcDbBlockBegin
  2
_D_5
 70
     0
 10
0.0
 20
0.0
 30
0.0
  3
_D_5
  1

  0
SOLID
  5
164
330
161
100
AcDbEntity
  8
SLD-0
 62
     7
100
AcDbTrace
 10
138.9642590449
 20
313.7982965848
 30
0.0
 11
137.564296765
 21
308.9577665916
 31
0.0
 12
138.7988876027
 22
308.7620998764
 32
0.0
 13
138.7988876027
 23
308.7620998764
 33
0.0
  0
LINE
  5
165
330
161
100
AcDbEntity
  8
SLD-0
 62
     7
100
AcDbLine
 10
138.9642590449
 20
313.7982965848
 30
0.0
 11
130.4550880498
 21
260.1083037195
 31
0.0
  0
LINE
  5
166
330
161
100
AcDbEntity
  8
SLD-0
 62
     7
100
AcDbLine
 10
130.4550880498
 20
260.1083037195
 30
0.0
 11
64.7714976153
 21
260.1083037195
 31
0.0
  0
MTEXT
  5
167
330
161
100
AcDbEntity
  8
SLD-0
 62
     7
100
AcDbMText
 10
64.7714976153
 20
268.1823376734
 30
0.0
 40
6.25
 41
0.0
 71
     1
 72
     1
  1
6-
  7
SLDTEXTSTYLE0
 73
     1
 44
1.0
  0
MTEXT
  5
168
330
161
100
AcDbEntity
  8
SLD-0
 62
     7
100
AcDbMText
 10
72.4017058896
 20
268.164976511
 30
0.0
 40
6.25
 41
0.0
 71
     1
 72
     1
  1
%%c
  7
SLDTEXTSTYLE0
 73
     1
 44
1.0
  0
MTEXT
  5
169
330
161
100
AcDbEntity
  8
SLD-0
 62
     7
100
AcDbMText
 10
81.5141186981
 20
268.1823376734
 30
0.0
 40
6.25
 41
0.0
 71
     1
 72
     1
  1
6.5
  7
SLDTEXTSTYLE0
 73
     1
 44
1.0
  0
MTEXT
  5
16A
330
161
100
AcDbEntity
  8
SLD-0
 62
     7
100
AcDbMText
 10
93.4498836218
 20
268.1823376734
 30
0.0
 40
6.25
 41
0.0
 71
     1
 72
     1
  1
 HOLES.
  7
SLDTEXTSTYLE0
 73
     1
 44
1.0
  0
ENDBLK
  5
163
330
161
100
AcDbEntity
  8
0
100
AcDbBlockEnd
  0
BLOCK
  5
16D
330
16C
100
AcDbEntity
  8
0
100
AcDbBlockBegin
  2
_D_6
 70
     0
 10
0.0
 20
0.0
 30
0.0
  3
_D_6
  1

  0
SOLID
  5
16F
330
16C
100
AcDbEntity
  8
SLD-0
100
AcDbTrace
 10
76.0404479783
 20
374.7082327628
 30
0.0
 11
75.4154479783
 21
369.7082327628
 31
0.0
 12
76.6654479783
 22
369.7082327628
 32
0.0
 13
76.6654479783
 23
369.7082327628
 33
0.0
  0
SOLID
  5
170
330
16C
100
AcDbEntity
  8
SLD-0
100
AcDbTrace
 10
76.0404479783
 20
284.7082327628
 30
0.0
 11
76.6654479783
 21
289.7082327628
 31
0.0
 12
75.4154479783
 22
289.7082327628
 32
0.0
 13
75.4154479783
 23
289.7082327628
 33
0.0
  0
LINE
  5
171
330
16C
100
AcDbEntity
  8
SLD-0
100
AcDbLine
 10
122.9729925047
 20
374.7082327628
 30
0.0
 11
73.5404479783
 21
374.7082327628
 31
0.0
  0
LINE
  5
172
330
16C
100
AcDbEntity
  8
SLD-0
100
AcDbLine
 10
122.9729925047
 20
284.7082327628
 30
0.0
 11
73.5404479783
 21
284.7082327628
 31
0.0
  0
LINE
  5
173
330
16C
100
AcDbEntity
  8
SLD-0
100
AcDbLine
 10
76.0404479783
 20
374.7082327628
 30
0.0
 11
76.0404479783
 21
284.7082327628
 31
0.0
  0
MTEXT
  5
174
330
16C
100
AcDbEntity
  8
SLD-0
100
AcDbMText
 10
67.9837750413
 20
324.9339272008
 30
0.0
 40
6.25
 41
0.0
 71
     1
 72
     1
  1
90
  7
SLDTEXTSTYLE0
 11
-7.044195017643634E-15
 21
1.0
 31
0.0
 73
     1
 44
1.0
  0
ENDBLK
  5
16E
330
16C
100
AcDbEntity
  8
0
100
AcDbBlockEnd
  0
BLOCK
  5
178
330
177
100
AcDbEntity
  8
0
100
AcDbBlockBegin
  2
_D_7
 70
     0
 10
0.0
 20
0.0
 30
0.0
  3
_D_7
  1

  0
SOLID
  5
17A
330
177
100
AcDbEntity
  8
SLD-0
100
AcDbTrace
 10
203.6336798811
 20
301.8425139061
 30
0.0
 11
204.3240714652
 21
296.8511228714
 31
0.0
 12
205.531478748
 22
297.1746466778
 32
0.0
 13
205.531478748
 23
297.1746466778
 33
0.0
  0
LINE
  5
17B
330
177
100
AcDbEntity
  8
SLD-0
100
AcDbLine
 10
203.6336798811
 20
301.8425139061
 30
0.0
 11
216.3112710203
 21
254.5290996568
 31
0.0
  0
LINE
  5
17C
330
177
100
AcDbEntity
  8
SLD-0
100
AcDbLine
 10
216.3112710203
 20
254.5290996568
 30
0.0
 11
262.8650906469
 21
254.5290996568
 31
0.0
  0
MTEXT
  5
17D
330
177
100
AcDbEntity
  8
SLD-0
100
AcDbMText
 10
219.4362710203
 20
272.1777862602
 30
0.0
 40
6.25
 41
0.0
 71
     1
 72
     1
  1
12 HOLES,
  7
SLDTEXTSTYLE0
 73
     1
 44
1.0
  0
MTEXT
  5
17E
330
177
100
AcDbEntity
  8
SLD-0
100
AcDbMText
 10
219.4362710203
 20
262.5857725938
 30
0.0
 40
6.25
 41
0.0
 71
     1
 72
     1
  1
 1/4"-20
  7
SLDTEXTSTYLE0
 73
     1
 44
1.0
  0
ENDBLK
  5
179
330
177
100
AcDbEntity
  8
0
100
AcDbBlockEnd
  0
BLOCK
  5
181
330
180
100
AcDbEntity
  8
0
100
AcDbBlockBegin
  2
_D_8
 70
     0
 10
0.0
 20
0.0
 30
0.0
  3
_D_8
  1

  0
SOLID
  5
183
330
180
100
AcDbEntity
  8
SLD-0
100
AcDbTrace
 10
152.1729925047
 20
385.9273735645
 30
0.0
 11
147.1729925047
 21
386.5523735645
 31
0.0
 12
147.1729925047
 22
385.3023735645
 32
0.0
 13
147.1729925047
 23
385.3023735645
 33
0.0
  0
SOLID
  5
184
330
180
100
AcDbEntity
  8
SLD-0
100
AcDbTrace
 10
126.7729925047
 20
385.9273735645
 30
0.0
 11
131.7729925047
 21
385.3023735645
 31
0.0
 12
131.7729925047
 22
386.5523735645
 32
0.0
 13
131.7729925047
 23
386.5523735645
 33
0.0
  0
LINE
  5
185
330
180
100
AcDbEntity
  8
SLD-0
100
AcDbLine
 10
152.1729925047
 20
357.6082327628
 30
0.0
 11
152.1729925047
 21
388.4273735645
 31
0.0
  0
LINE
  5
186
330
180
100
AcDbEntity
  8
SLD-0
100
AcDbLine
 10
126.7729925047
 20
357.6082327628
 30
0.0
 11
126.7729925047
 21
388.4273735645
 31
0.0
  0
LINE
  5
187
330
180
100
AcDbEntity
  8
SLD-0
100
AcDbLine
 10
152.1729925047
 20
385.9273735645
 30
0.0
 11
126.7729925047
 21
385.9273735645
 31
0.0
  0
MTEXT
  5
188
330
180
100
AcDbEntity
  8
SLD-0
100
AcDbMText
 10
125.1535481966
 20
392.3727124089
 30
0.0
 40
5.0
 41
0.0
 71
     1
 72
     1
  1
25.4
  7
SLDTEXTSTYLE0
 73
     1
 44
1.0
  0
MTEXT
  5
189
330
180
100
AcDbEntity
  8
SLD-0
100
AcDbMText
 10
138.521603421
 20
392.3727124089
 30
0.0
 40
5.0
 41
0.0
 71
     1
 72
     1
  1
 TYP
  7
SLDTEXTSTYLE0
 73
     1
 44
1.0
  0
ENDBLK
  5
182
330
180
100
AcDbEntity
  8
0
100
AcDbBlockEnd
  0
BLOCK
  5
18C
330
18B
100
AcDbEntity
  8
0
100
AcDbBlockBegin
  2
_D_9
 70
     0
 10
0.0
 20
0.0
 30
0.0
  3
_D_9
  1

  0
SOLID
  5
18E
330
18B
100
AcDbEntity
  8
SLD-0
100
AcDbTrace
 10
152.1729925047
 20
400.9367375677
 30
0.0
 11
157.1729925047
 21
400.3117375677
 31
0.0
 12
157.1729925047
 22
401.5617375677
 32
0.0
 13
157.1729925047
 23
401.5617375677
 33
0.0
  0
SOLID
  5
18F
330
18B
100
AcDbEntity
  8
SLD-0
100
AcDbTrace
 10
270.4729925047
 20
400.9367375677
 30
0.0
 11
265.4729925047
 21
401.5617375677
 31
0.0
 12
265.4729925047
 22
400.3117375677
 32
0.0
 13
265.4729925047
 23
400.3117375677
 33
0.0
  0
LINE
  5
190
330
18B
100
AcDbEntity
  8
SLD-0
100
AcDbLine
 10
152.1729925047
 20
357.6082327628
 30
0.0
 11
152.1729925047
 21
403.4367375677
 31
0.0
  0
LINE
  5
191
330
18B
100
AcDbEntity
  8
SLD-0
100
AcDbLine
 10
270.4729925047
 20
352.2582327628
 30
0.0
 11
270.4729925047
 21
403.4367375677
 31
0.0
  0
LINE
  5
192
330
18B
100
AcDbEntity
  8
SLD-0
100
AcDbLine
 10
152.1729925047
 20
400.9367375677
 30
0.0
 11
270.4729925047
 21
400.9367375677
 31
0.0
  0
MTEXT
  5
193
330
18B
100
AcDbEntity
  8
SLD-0
100
AcDbMText
 10
200.5808047718
 20
408.9934105048
 30
0.0
 40
6.25
 41
0.0
 71
     1
 72
     1
  1
118.3
  7
SLDTEXTSTYLE0
 73
     1
 44
1.0
  0
ENDBLK
  5
18D
330
18B
100
AcDbEntity
  8
0
100
AcDbBlockEnd
  0
BLOCK
  5
196
330
195
100
AcDbEntity
  8
0
100
AcDbBlockBegin
  2
_D_10
 70
     0
 10
0.0
 20
0.0
 30
0.0
  3
_D_10
  1

  0
SOLID
  5
198
330
195
100
AcDbEntity
  8
SLD-0
100
AcDbTrace
 10
104.9715631443
 20
329.7082327628
 30
0.0
 11
105.5965631443
 21
334.7082327628
 31
0.0
 12
104.3465631443
 22
334.7082327628
 32
0.0
 13
104.3465631443
 23
334.7082327628
 33
0.0
  0
SOLID
  5
199
330
195
100
AcDbEntity
  8
SLD-0
100
AcDbTrace
 10
104.9715631443
 20
342.4082327628
 30
0.0
 11
104.3465631443
 21
337.4082327628
 31
0.0
 12
105.5965631443
 22
337.4082327628
 32
0.0
 13
105.5965631443
 23
337.4082327628
 33
0.0
  0
LINE
  5
19A
330
195
100
AcDbEntity
  8
SLD-0
100
AcDbLine
 10
124.2729925047
 20
329.7082327628
 30
0.0
 11
102.4715631443
 21
329.7082327628
 31
0.0
  0
LINE
  5
19B
330
195
100
AcDbEntity
  8
SLD-0
100
AcDbLine
 10
132.7229925047
 20
342.4082327628
 30
0.0
 11
102.4715631443
 21
342.4082327628
 31
0.0
  0
LINE
  5
19C
330
195
100
AcDbEntity
  8
SLD-0
100
AcDbLine
 10
104.9715631443
 20
329.7082327628
 30
0.0
 11
104.9715631443
 21
342.4082327628
 31
0.0
  0
LINE
  5
19D
330
195
100
AcDbEntity
  8
SLD-0
100
AcDbLine
 10
104.9715631443
 20
342.4082327628
 30
0.0
 11
104.9715631443
 21
349.4154863587
 31
0.0
  0
MTEXT
  5
19E
330
195
100
AcDbEntity
  8
SLD-0
100
AcDbMText
 10
98.5262242999
 20
336.0474311343
 30
0.0
 40
5.0
 41
0.0
 71
     1
 72
     1
  1
12.7
  7
SLDTEXTSTYLE0
 11
6.123233995736766E-17
 21
1.0
 31
0.0
 73
     1
 44
1.0
  0
ENDBLK
  5
197
330
195
100
AcDbEntity
  8
0
100
AcDbBlockEnd
  0
BLOCK
  5
1A1
330
1A0
100
AcDbEntity
  8
0
100
AcDbBlockBegin
  2
_D_11
 70
     0
 10
0.0
 20
0.0
 30
0.0
  3
_D_11
  1

  0
SOLID
  5
1A3
330
1A0
100
AcDbEntity
  8
SLD-0
100
AcDbTrace
 10
104.9715631443
 20
329.7082327628
 30
0.0
 11
104.3465631443
 21
324.7082327628
 31
0.0
 12
105.5965631443
 22
324.7082327628
 32
0.0
 13
105.5965631443
 23
324.7082327628
 33
0.0
  0
SOLID
  5
1A4
330
1A0
100
AcDbEntity
  8
SLD-0
100
AcDbTrace
 10
104.9715631443
 20
317.0082327628
 30
0.0
 11
105.5965631443
 21
322.0082327628
 31
0.0
 12
104.3465631443
 22
322.0082327628
 32
0.0
 13
104.3465631443
 23
322.0082327628
 33
0.0
  0
LINE
  5
1A5
330
1A0
100
AcDbEntity
  8
SLD-0
100
AcDbLine
 10
124.2729925047
 20
329.7082327628
 30
0.0
 11
102.4715631443
 21
329.7082327628
 31
0.0
  0
LINE
  5
1A6
330
1A0
100
AcDbEntity
  8
SLD-0
100
AcDbLine
 10
136.9729925047
 20
317.0082327628
 30
0.0
 11
102.4715631443
 21
317.0082327628
 31
0.0
  0
LINE
  5
1A7
330
1A0
100
AcDbEntity
  8
SLD-0
100
AcDbLine
 10
104.9715631443
 20
329.7082327628
 30
0.0
 11
104.9715631443
 21
317.0082327628
 31
0.0
  0
LINE
  5
1A8
330
1A0
100
AcDbEntity
  8
SLD-0
100
AcDbLine
 10
104.9715631443
 20
317.0082327628
 30
0.0
 11
104.9715631443
 21
309.1497712972
 31
0.0
  0
MTEXT
  5
1A9
330
1A0
100
AcDbEntity
  8
SLD-0
100
AcDbMText
 10
98.5262242999
 20
309.1497712972
 30
0.0
 40
5.0
 41
0.0
 71
     1
 72
     1
  1
12.7
  7
SLDTEXTSTYLE0
 11
-7.044195017643634E-15
 21
1.0
 31
0.0
 73
     1
 44
1.0
  0
ENDBLK
  5
1A2
330
1A0
100
AcDbEntity
  8
0
100
AcDbBlockEnd
  0
BLOCK
  5
1AC
330
1AB
100
AcDbEntity
  8
0
100
AcDbBlockBegin
  2
_D_12
 70
     0
 10
0.0
 20
0.0
 30
0.0
  3
_D_12
  1

  0
SOLID
  5
1AE
330
1AB
100
AcDbEntity
  8
SLD-0
100
AcDbTrace
 10
90.4150272117
 20
329.7082327628
 30
0.0
 11
91.0400272117
 21
334.7082327628
 31
0.0
 12
89.7900272117
 22
334.7082327628
 32
0.0
 13
89.7900272117
 23
334.7082327628
 33
0.0
  0
SOLID
  5
1AF
330
1AB
100
AcDbEntity
  8
SLD-0
100
AcDbTrace
 10
90.4150272117
 20
355.1082327628
 30
0.0
 11
89.7900272117
 21
350.1082327628
 31
0.0
 12
91.0400272117
 22
350.1082327628
 32
0.0
 13
91.0400272117
 23
350.1082327628
 33
0.0
  0
LINE
  5
1B0
330
1AB
100
AcDbEntity
  8
SLD-0
100
AcDbLine
 10
124.2729925047
 20
329.7082327628
 30
0.0
 11
87.9150272117
 21
329.7082327628
 31
0.0
  0
LINE
  5
1B1
330
1AB
100
AcDbEntity
  8
SLD-0
100
AcDbLine
 10
124.2729925047
 20
355.1082327628
 30
0.0
 11
87.9150272117
 21
355.1082327628
 31
0.0
  0
LINE
  5
1B2
330
1AB
100
AcDbEntity
  8
SLD-0
100
AcDbLine
 10
90.4150272117
 20
329.7082327628
 30
0.0
 11
90.4150272117
 21
355.1082327628
 31
0.0
  0
MTEXT
  5
1B3
330
1AB
100
AcDbEntity
  8
SLD-0
100
AcDbMText
 10
82.3583542747
 20
334.0531982476
 30
0.0
 40
6.25
 41
0.0
 71
     1
 72
     1
  1
25.4
  7
SLDTEXTSTYLE0
 11
6.123233995736766E-17
 21
1.0
 31
0.0
 73
     1
 44
1.0
  0
ENDBLK
  5
1AD
330
1AB
100
AcDbEntity
  8
0
100
AcDbBlockEnd
  0
BLOCK
  5
1B6
330
1B5
100
AcDbEntity
  8
0
100
AcDbBlockBegin
  2
_D_13
 70
     0
 10
0.0
 20
0.0
 30
0.0
  3
_D_13
  1

  0
SOLID
  5
1B8
330
1B5
100
AcDbEntity
  8
SLD-0
100
AcDbTrace
 10
90.4150272117
 20
329.7082327628
 30
0.0
 11
89.7900272117
 21
324.7082327628
 31
0.0
 12
91.0400272117
 22
324.7082327628
 32
0.0
 13
91.0400272117
 23
324.7082327628
 33
0.0
  0
SOLID
  5
1B9
330
1B5
100
AcDbEntity
  8
SLD-0
100
AcDbTrace
 10
90.4150272117
 20
304.3082327628
 30
0.0
 11
91.0400272117
 21
309.3082327628
 31
0.0
 12
89.7900272117
 22
309.3082327628
 32
0.0
 13
89.7900272117
 23
309.3082327628
 33
0.0
  0
LINE
  5
1BA
330
1B5
100
AcDbEntity
  8
SLD-0
100
AcDbLine
 10
124.2729925047
 20
329.7082327628
 30
0.0
 11
87.9150272117
 21
329.7082327628
 31
0.0
  0
LINE
  5
1BB
330
1B5
100
AcDbEntity
  8
SLD-0
100
AcDbLine
 10
124.2729925047
 20
304.3082327628
 30
0.0
 11
87.9150272117
 21
304.3082327628
 31
0.0
  0
LINE
  5
1BC
330
1B5
100
AcDbEntity
  8
SLD-0
100
AcDbLine
 10
90.4150272117
 20
329.7082327628
 30
0.0
 11
90.4150272117
 21
304.3082327628
 31
0.0
  0
MTEXT
  5
1BD
330
1B5
100
AcDbEntity
  8
SLD-0
100
AcDbMText
 10
82.3583542747
 20
308.6531982476
 30
0.0
 40
6.25
 41
0.0
 71
     1
 72
     1
  1
25.4
  7
SLDTEXTSTYLE0
 11
-7.044195017643634E-15
 21
1.0
 31
0.0
 73
     1
 44
1.0
  0
ENDBLK
  5
1B7
330
1B5
100
AcDbEntity
  8
0
100
AcDbBlockEnd
  0
BLOCK
  5
1BF
330
1BE
100
AcDbEntity
  8
0
100
AcDbBlockBegin
  2
SW_CENTERMARKSYMBOL_0
 70
     0
 10
0.0
 20
0.0
 30
0.0
  3
SW_CENTERMARKSYMBOL_0
  1

  0
LINE
  5
1C1
330
1BE
100
AcDbEntity
  8
SLD-0
 62
     0
100
AcDbLine
 10
0.0
 20
0.0
 30
0.0
 11
0.0
 21
1.0
 31
0.0
  0
LINE
  5
1C2
330
1BE
100
AcDbEntity
  8
SLD-0
 62
     0
100
AcDbLine
 10
0.0
 20
0.0
 30
0.0
 11
-1.0
 21
0.0
 31
0.0
  0
LINE
  5
1C3
330
1BE
100
AcDbEntity
  8
SLD-0
 62
     0
100
AcDbLine
 10
0.0
 20
0.0
 30
0.0
 11
0.0
 21
-1.0
 31
0.0
  0
LINE
  5
1C4
330
1BE
100
AcDbEntity
  8
SLD-0
 62
     0
100
AcDbLine
 10
0.0
 20
0.0
 30
0.0
 11
1.0
 21
0.0
 31
0.0
  0
LINE
  5
1C5
330
1BE
100
AcDbEntity
  8
SLD-0
 62
     0
100
AcDbLine
 10
0.0
 20
2.0
 30
0.0
 11
0.0
 21
20.05
 31
0.0
  0
LINE
  5
1C6
330
1BE
100
AcDbEntity
  8
SLD-0
 62
     0
100
AcDbLine
 10
-2.0
 20
0.0
 30
0.0
 11
-20.05
 21
0.0
 31
0.0
  0
LINE
  5
1C7
330
1BE
100
AcDbEntity
  8
SLD-0
 62
     0
100
AcDbLine
 10
0.0
 20
-2.0
 30
0.0
 11
0.0
 21
-20.05
 31
0.0
  0
LINE
  5
1C8
330
1BE
100
AcDbEntity
  8
SLD-0
 62
     0
100
AcDbLine
 10
2.0
 20
0.0
 30
0.0
 11
20.05
 21
0.0
 31
0.0
  0
ENDBLK
  5
1C0
330
1BE
100
AcDbEntity
  8
0
100
AcDbBlockEnd
  0
BLOCK
  5
1CB
330
1CA
100
AcDbEntity
  8
0
100
AcDbBlockBegin
  2
SW_CENTERMARKSYMBOL_1
 70
     0
 10
0.0
 20
0.0
 30
0.0
  3
SW_CENTERMARKSYMBOL_1
  1

  0
LINE
  5
1CD
330
1CA
100
AcDbEntity
  8
SLD-0
 62
     0
100
AcDbLine
 10
0.0
 20
0.0
 30
0.0
 11
0.0
 21
1.0
 31
0.0
  0
LINE
  5
1CE
330
1CA
100
AcDbEntity
  8
SLD-0
 62
     0
100
AcDbLine
 10
0.0
 20
0.0
 30
0.0
 11
-1.0
 21
0.0
 31
0.0
  0
LINE
  5
1CF
330
1CA
100
AcDbEntity
  8
SLD-0
 62
     0
100
AcDbLine
 10
0.0
 20
0.0
 30
0.0
 11
0.0
 21
-1.0
 31
0.0
  0
LINE
  5
1D0
330
1CA
100
AcDbEntity
  8
SLD-0
 62
     0
100
AcDbLine
 10
0.0
 20
0.0
 30
0.0
 11
1.0
 21
0.0
 31
0.0
  0
LINE
  5
1D1
330
1CA
100
AcDbEntity
  8
SLD-0
 62
     0
100
AcDbLine
 10
0.0
 20
2.0
 30
0.0
 11
0.0
 21
4.25
 31
0.0
  0
LINE
  5
1D2
330
1CA
100
AcDbEntity
  8
SLD-0
 62
     0
100
AcDbLine
 10
-2.0
 20
0.0
 30
0.0
 11
-4.25
 21
0.0
 31
0.0
  0
LINE
  5
1D3
330
1CA
100
AcDbEntity
  8
SLD-0
 62
     0
100
AcDbLine
 10
0.0
 20
-2.0
 30
0.0
 11
0.0
 21
-4.25
 31
0.0
  0
LINE
  5
1D4
330
1CA
100
AcDbEntity
  8
SLD-0
 62
     0
100
AcDbLine
 10
2.0
 20
0.0
 30
0.0
 11
4.25
 21
0.0
 31
0.0
  0
ENDBLK
  5
1CC
330
1CA
100
AcDbEntity
  8
0
100
AcDbBlockEnd
  0
BLOCK
  5
1D7
330
1D6
100
AcDbEntity
  8
0
100
AcDbBlockBegin
  2
SW_CENTERMARKSYMBOL_2
 70
     0
 10
0.0
 20
0.0
 30
0.0
  3
SW_CENTERMARKSYMBOL_2
  1

  0
LINE
  5
1D9
330
1D6
100
AcDbEntity
  8
SLD-0
 62
     0
100
AcDbLine
 10
0.0
 20
0.0
 30
0.0
 11
0.0
 21
1.0
 31
0.0
  0
LINE
  5
1DA
330
1D6
100
AcDbEntity
  8
SLD-0
 62
     0
100
AcDbLine
 10
0.0
 20
0.0
 30
0.0
 11
-1.0
 21
0.0
 31
0.0
  0
LINE
  5
1DB
330
1D6
100
AcDbEntity
  8
SLD-0
 62
     0
100
AcDbLine
 10
0.0
 20
0.0
 30
0.0
 11
0.0
 21
-1.0
 31
0.0
  0
LINE
  5
1DC
330
1D6
100
AcDbEntity
  8
SLD-0
 62
     0
100
AcDbLine
 10
0.0
 20
0.0
 30
0.0
 11
1.0
 21
0.0
 31
0.0
  0
LINE
  5
1DD
330
1D6
100
AcDbEntity
  8
SLD-0
 62
     0
100
AcDbLine
 10
0.0
 20
2.0
 30
0.0
 11
0.0
 21
4.25
 31
0.0
  0
LINE
  5
1DE
330
1D6
100
AcDbEntity
  8
SLD-0
 62
     0
100
AcDbLine
 10
-2.0
 20
0.0
 30
0.0
 11
-4.25
 21
0.0
 31
0.0
  0
LINE
  5
1DF
330
1D6
100
AcDbEntity
  8
SLD-0
 62
     0
100
AcDbLine
 10
0.0
 20
-2.0
 30
0.0
 11
0.0
 21
-4.25
 31
0.0
  0
LINE
  5
1E0
330
1D6
100
AcDbEntity
  8
SLD-0
 62
     0
100
AcDbLine
 10
2.0
 20
0.0
 30
0.0
 11
4.25
 21
0.0
 31
0.0
  0
ENDBLK
  5
1D8
330
1D6
100
AcDbEntity
  8
0
100
AcDbBlockEnd
  0
BLOCK
  5
1E3
330
1E2
100
AcDbEntity
  8
0
100
AcDbBlockBegin
  2
SW_CENTERMARKSYMBOL_3
 70
     0
 10
0.0
 20
0.0
 30
0.0
  3
SW_CENTERMARKSYMBOL_3
  1

  0
LINE
  5
1E5
330
1E2
100
AcDbEntity
  8
SLD-0
 62
     0
100
AcDbLine
 10
0.0
 20
0.0
 30
0.0
 11
0.0
 21
1.0
 31
0.0
  0
LINE
  5
1E6
330
1E2
100
AcDbEntity
  8
SLD-0
 62
     0
100
AcDbLine
 10
0.0
 20
0.0
 30
0.0
 11
-1.0
 21
0.0
 31
0.0
  0
LINE
  5
1E7
330
1E2
100
AcDbEntity
  8
SLD-0
 62
     0
100
AcDbLine
 10
0.0
 20
0.0
 30
0.0
 11
0.0
 21
-1.0
 31
0.0
  0
LINE
  5
1E8
330
1E2
100
AcDbEntity
  8
SLD-0
 62
     0
100
AcDbLine
 10
0.0
 20
0.0
 30
0.0
 11
1.0
 21
0.0
 31
0.0
  0
LINE
  5
1E9
330
1E2
100
AcDbEntity
  8
SLD-0
 62
     0
100
AcDbLine
 10
0.0
 20
2.0
 30
0.0
 11
0.0
 21
4.25
 31
0.0
  0
LINE
  5
1EA
330
1E2
100
AcDbEntity
  8
SLD-0
 62
     0
100
AcDbLine
 10
-2.0
 20
0.0
 30
0.0
 11
-4.25
 21
0.0
 31
0.0
  0
LINE
  5
1EB
330
1E2
100
AcDbEntity
  8
SLD-0
 62
     0
100
AcDbLine
 10
0.0
 20
-2.0
 30
0.0
 11
0.0
 21
-4.25
 31
0.0
  0
LINE
  5
1EC
330
1E2
100
AcDbEntity
  8
SLD-0
 62
     0
100
AcDbLine
 10
2.0
 20
0.0
 30
0.0
 11
4.25
 21
0.0
 31
0.0
  0
ENDBLK
  5
1E4
330
1E2
100
AcDbEntity
  8
0
100
AcDbBlockEnd
  0
BLOCK
  5
1EF
330
1EE
100
AcDbEntity
  8
0
100
AcDbBlockBegin
  2
SW_CENTERMARKSYMBOL_4
 70
     0
 10
0.0
 20
0.0
 30
0.0
  3
SW_CENTERMARKSYMBOL_4
  1

  0
LINE
  5
1F1
330
1EE
100
AcDbEntity
  8
SLD-0
 62
     0
100
AcDbLine
 10
0.0
 20
0.0
 30
0.0
 11
0.0
 21
1.0
 31
0.0
  0
LINE
  5
1F2
330
1EE
100
AcDbEntity
  8
SLD-0
 62
     0
100
AcDbLine
 10
0.0
 20
0.0
 30
0.0
 11
-1.0
 21
0.0
 31
0.0
  0
LINE
  5
1F3
330
1EE
100
AcDbEntity
  8
SLD-0
 62
     0
100
AcDbLine
 10
0.0
 20
0.0
 30
0.0
 11
0.0
 21
-1.0
 31
0.0
  0
LINE
  5
1F4
330
1EE
100
AcDbEntity
  8
SLD-0
 62
     0
100
AcDbLine
 10
0.0
 20
0.0
 30
0.0
 11
1.0
 21
0.0
 31
0.0
  0
LINE
  5
1F5
330
1EE
100
AcDbEntity
  8
SLD-0
 62
     0
100
AcDbLine
 10
0.0
 20
2.0
 30
0.0
 11
0.0
 21
4.25
 31
0.0
  0
LINE
  5
1F6
330
1EE
100
AcDbEntity
  8
SLD-0
 62
     0
100
AcDbLine
 10
-2.0
 20
0.0
 30
0.0
 11
-4.25
 21
0.0
 31
0.0
  0
LINE
  5
1F7
330
1EE
100
AcDbEntity
  8
SLD-0
 62
     0
100
AcDbLine
 10
0.0
 20
-2.0
 30
0.0
 11
0.0
 21
-4.25
 31
0.0
  0
LINE
  5
1F8
330
1EE
100
AcDbEntity
  8
SLD-0
 62
     0
100
AcDbLine
 10
2.0
 20
0.0
 30
0.0
 11
4.25
 21
0.0
 31
0.0
  0
ENDBLK
  5
1F0
330
1EE
100
AcDbEntity
  8
0
100
AcDbBlockEnd
  0
BLOCK
  5
1FB
330
1FA
100
AcDbEntity
  8
0
100
AcDbBlockBegin
  2
SW_CENTERMARKSYMBOL_5
 70
     0
 10
0.0
 20
0.0
 30
0.0
  3
SW_CENTERMARKSYMBOL_5
  1

  0
LINE
  5
1FD
330
1FA
100
AcDbEntity
  8
SLD-0
 62
     0
100
AcDbLine
 10
0.0
 20
0.0
 30
0.0
 11
0.0
 21
1.0
 31
0.0
  0
LINE
  5
1FE
330
1FA
100
AcDbEntity
  8
SLD-0
 62
     0
100
AcDbLine
 10
0.0
 20
0.0
 30
0.0
 11
-1.0
 21
0.0
 31
0.0
  0
LINE
  5
1FF
330
1FA
100
AcDbEntity
  8
SLD-0
 62
     0
100
AcDbLine
 10
0.0
 20
0.0
 30
0.0
 11
0.0
 21
-1.0
 31
0.0
  0
LINE
  5
200
330
1FA
100
AcDbEntity
  8
SLD-0
 62
     0
100
AcDbLine
 10
0.0
 20
0.0
 30
0.0
 11
1.0
 21
0.0
 31
0.0
  0
LINE
  5
201
330
1FA
100
AcDbEntity
  8
SLD-0
 62
     0
100
AcDbLine
 10
0.0
 20
2.0
 30
0.0
 11
0.0
 21
4.25
 31
0.0
  0
LINE
  5
202
330
1FA
100
AcDbEntity
  8
SLD-0
 62
     0
100
AcDbLine
 10
-2.0
 20
0.0
 30
0.0
 11
-4.25
 21
0.0
 31
0.0
  0
LINE
  5
203
330
1FA
100
AcDbEntity
  8
SLD-0
 62
     0
100
AcDbLine
 10
0.0
 20
-2.0
 30
0.0
 11
0.0
 21
-4.25
 31
0.0
  0
LINE
  5
204
330
1FA
100
AcDbEntity
  8
SLD-0
 62
     0
100
AcDbLine
 10
2.0
 20
0.0
 30
0.0
 11
4.25
 21
0.0
 31
0.0
  0
ENDBLK
  5
1FC
330
1FA
100
AcDbEntity
  8
0
100
AcDbBlockEnd
  0
BLOCK
  5
207
330
206
100
AcDbEntity
  8
0
100
AcDbBlockBegin
  2
SW_CENTERMARKSYMBOL_6
 70
     0
 10
0.0
 20
0.0
 30
0.0
  3
SW_CENTERMARKSYMBOL_6
  1

  0
LINE
  5
209
330
206
100
AcDbEntity
  8
SLD-0
 62
     0
100
AcDbLine
 10
0.0
 20
0.0
 30
0.0
 11
0.0
 21
1.0
 31
0.0
  0
LINE
  5
20A
330
206
100
AcDbEntity
  8
SLD-0
 62
     0
100
AcDbLine
 10
0.0
 20
0.0
 30
0.0
 11
-1.0
 21
0.0
 31
0.0
  0
LINE
  5
20B
330
206
100
AcDbEntity
  8
SLD-0
 62
     0
100
AcDbLine
 10
0.0
 20
0.0
 30
0.0
 11
0.0
 21
-1.0
 31
0.0
  0
LINE
  5
20C
330
206
100
AcDbEntity
  8
SLD-0
 62
     0
100
AcDbLine
 10
0.0
 20
0.0
 30
0.0
 11
1.0
 21
0.0
 31
0.0
  0
LINE
  5
20D
330
206
100
AcDbEntity
  8
SLD-0
 62
     0
100
AcDbLine
 10
0.0
 20
2.0
 30
0.0
 11
0.0
 21
3.5527
 31
0.0
  0
LINE
  5
20E
330
206
100
AcDbEntity
  8
SLD-0
 62
     0
100
AcDbLine
 10
-2.0
 20
0.0
 30
0.0
 11
-3.5527
 21
0.0
 31
0.0
  0
LINE
  5
20F
330
206
100
AcDbEntity
  8
SLD-0
 62
     0
100
AcDbLine
 10
0.0
 20
-2.0
 30
0.0
 11
0.0
 21
-3.5527
 31
0.0
  0
LINE
  5
210
330
206
100
AcDbEntity
  8
SLD-0
 62
     0
100
AcDbLine
 10
2.0
 20
0.0
 30
0.0
 11
3.5527
 21
0.0
 31
0.0
  0
ENDBLK
  5
208
330
206
100
AcDbEntity
  8
0
100
AcDbBlockEnd
  0
BLOCK
  5
213
330
212
100
AcDbEntity
  8
0
100
AcDbBlockBegin
  2
SW_CENTERMARKSYMBOL_7
 70
     0
 10
0.0
 20
0.0
 30
0.0
  3
SW_CENTERMARKSYMBOL_7
  1

  0
LINE
  5
215
330
212
100
AcDbEntity
  8
SLD-0
 62
     0
100
AcDbLine
 10
0.0
 20
0.0
 30
0.0
 11
0.0
 21
1.0
 31
0.0
  0
LINE
  5
216
330
212
100
AcDbEntity
  8
SLD-0
 62
     0
100
AcDbLine
 10
0.0
 20
0.0
 30
0.0
 11
-1.0
 21
0.0
 31
0.0
  0
LINE
  5
217
330
212
100
AcDbEntity
  8
SLD-0
 62
     0
100
AcDbLine
 10
0.0
 20
0.0
 30
0.0
 11
0.0
 21
-1.0
 31
0.0
  0
LINE
  5
218
330
212
100
AcDbEntity
  8
SLD-0
 62
     0
100
AcDbLine
 10
0.0
 20
0.0
 30
0.0
 11
1.0
 21
0.0
 31
0.0
  0
LINE
  5
219
330
212
100
AcDbEntity
  8
SLD-0
 62
     0
100
AcDbLine
 10
0.0
 20
2.0
 30
0.0
 11
0.0
 21
3.5527
 31
0.0
  0
LINE
  5
21A
330
212
100
AcDbEntity
  8
SLD-0
 62
     0
100
AcDbLine
 10
-2.0
 20
0.0
 30
0.0
 11
-3.5527
 21
0.0
 31
0.0
  0
LINE
  5
21B
330
212
100
AcDbEntity
  8
SLD-0
 62
     0
100
AcDbLine
 10
0.0
 20
-2.0
 30
0.0
 11
0.0
 21
-3.5527
 31
0.0
  0
LINE
  5
21C
330
212
100
AcDbEntity
  8
SLD-0
 62
     0
100
AcDbLine
 10
2.0
 20
0.0
 30
0.0
 11
3.5527
 21
0.0
 31
0.0
  0
ENDBLK
  5
214
330
212
100
AcDbEntity
  8
0
100
AcDbBlockEnd
  0
BLOCK
  5
21F
330
21E
100
AcDbEntity
  8
0
100
AcDbBlockBegin
  2
SW_CENTERMARKSYMBOL_8
 70
     0
 10
0.0
 20
0.0
 30
0.0
  3
SW_CENTERMARKSYMBOL_8
  1

  0
LINE
  5
221
330
21E
100
AcDbEntity
  8
SLD-0
 62
     0
100
AcDbLine
 10
0.0
 20
0.0
 30
0.0
 11
0.0
 21
1.0
 31
0.0
  0
LINE
  5
222
330
21E
100
AcDbEntity
  8
SLD-0
 62
     0
100
AcDbLine
 10
0.0
 20
0.0
 30
0.0
 11
-1.0
 21
0.0
 31
0.0
  0
LINE
  5
223
330
21E
100
AcDbEntity
  8
SLD-0
 62
     0
100
AcDbLine
 10
0.0
 20
0.0
 30
0.0
 11
0.0
 21
-1.0
 31
0.0
  0
LINE
  5
224
330
21E
100
AcDbEntity
  8
SLD-0
 62
     0
100
AcDbLine
 10
0.0
 20
0.0
 30
0.0
 11
1.0
 21
0.0
 31
0.0
  0
LINE
  5
225
330
21E
100
AcDbEntity
  8
SLD-0
 62
     0
100
AcDbLine
 10
0.0
 20
2.0
 30
0.0
 11
0.0
 21
3.5527
 31
0.0
  0
LINE
  5
226
330
21E
100
AcDbEntity
  8
SLD-0
 62
     0
100
AcDbLine
 10
-2.0
 20
0.0
 30
0.0
 11
-3.5527
 21
0.0
 31
0.0
  0
LINE
  5
227
330
21E
100
AcDbEntity
  8
SLD-0
 62
     0
100
AcDbLine
 10
0.0
 20
-2.0
 30
0.0
 11
0.0
 21
-3.5527
 31
0.0
  0
LINE
  5
228
330
21E
100
AcDbEntity
  8
SLD-0
 62
     0
100
AcDbLine
 10
2.0
 20
0.0
 30
0.0
 11
3.5527
 21
0.0
 31
0.0
  0
ENDBLK
  5
220
330
21E
100
AcDbEntity
  8
0
100
AcDbBlockEnd
  0
BLOCK
  5
22B
330
22A
100
AcDbEntity
  8
0
100
AcDbBlockBegin
  2
SW_CENTERMARKSYMBOL_9
 70
     0
 10
0.0
 20
0.0
 30
0.0
  3
SW_CENTERMARKSYMBOL_9
  1

  0
LINE
  5
22D
330
22A
100
AcDbEntity
  8
SLD-0
 62
     0
100
AcDbLine
 10
0.0
 20
0.0
 30
0.0
 11
0.0
 21
1.0
 31
0.0
  0
LINE
  5
22E
330
22A
100
AcDbEntity
  8
SLD-0
 62
     0
100
AcDbLine
 10
0.0
 20
0.0
 30
0.0
 11
-1.0
 21
0.0
 31
0.0
  0
LINE
  5
22F
330
22A
100
AcDbEntity
  8
SLD-0
 62
     0
100
AcDbLine
 10
0.0
 20
0.0
 30
0.0
 11
0.0
 21
-1.0
 31
0.0
  0
LINE
  5
230
330
22A
100
AcDbEntity
  8
SLD-0
 62
     0
100
AcDbLine
 10
0.0
 20
0.0
 30
0.0
 11
1.0
 21
0.0
 31
0.0
  0
LINE
  5
231
330
22A
100
AcDbEntity
  8
SLD-0
 62
     0
100
AcDbLine
 10
0.0
 20
2.0
 30
0.0
 11
0.0
 21
3.5527
 31
0.0
  0
LINE
  5
232
330
22A
100
AcDbEntity
  8
SLD-0
 62
     0
100
AcDbLine
 10
-2.0
 20
0.0
 30
0.0
 11
-3.5527
 21
0.0
 31
0.0
  0
LINE
  5
233
330
22A
100
AcDbEntity
  8
SLD-0
 62
     0
100
AcDbLine
 10
0.0
 20
-2.0
 30
0.0
 11
0.0
 21
-3.5527
 31
0.0
  0
LINE
  5
234
330
22A
100
AcDbEntity
  8
SLD-0
 62
     0
100
AcDbLine
 10
2.0
 20
0.0
 30
0.0
 11
3.5527
 21
0.0
 31
0.0
  0
ENDBLK
  5
22C
330
22A
100
AcDbEntity
  8
0
100
AcDbBlockEnd
  0
BLOCK
  5
237
330
236
100
AcDbEntity
  8
0
100
AcDbBlockBegin
  2
SW_CENTERMARKSYMBOL_10
 70
     0
 10
0.0
 20
0.0
 30
0.0
  3
SW_CENTERMARKSYMBOL_10
  1

  0
LINE
  5
239
330
236
100
AcDbEntity
  8
SLD-0
 62
     0
100
AcDbLine
 10
0.0
 20
0.0
 30
0.0
 11
0.0
 21
1.0
 31
0.0
  0
LINE
  5
23A
330
236
100
AcDbEntity
  8
SLD-0
 62
     0
100
AcDbLine
 10
0.0
 20
0.0
 30
0.0
 11
-1.0
 21
0.0
 31
0.0
  0
LINE
  5
23B
330
236
100
AcDbEntity
  8
SLD-0
 62
     0
100
AcDbLine
 10
0.0
 20
0.0
 30
0.0
 11
0.0
 21
-1.0
 31
0.0
  0
LINE
  5
23C
330
236
100
AcDbEntity
  8
SLD-0
 62
     0
100
AcDbLine
 10
0.0
 20
0.0
 30
0.0
 11
1.0
 21
0.0
 31
0.0
  0
LINE
  5
23D
330
236
100
AcDbEntity
  8
SLD-0
 62
     0
100
AcDbLine
 10
0.0
 20
2.0
 30
0.0
 11
0.0
 21
3.5527
 31
0.0
  0
LINE
  5
23E
330
236
100
AcDbEntity
  8
SLD-0
 62
     0
100
AcDbLine
 10
-2.0
 20
0.0
 30
0.0
 11
-3.5527
 21
0.0
 31
0.0
  0
LINE
  5
23F
330
236
100
AcDbEntity
  8
SLD-0
 62
     0
100
AcDbLine
 10
0.0
 20
-2.0
 30
0.0
 11
0.0
 21
-3.5527
 31
0.0
  0
LINE
  5
240
330
236
100
AcDbEntity
  8
SLD-0
 62
     0
100
AcDbLine
 10
2.0
 20
0.0
 30
0.0
 11
3.5527
 21
0.0
 31
0.0
  0
ENDBLK
  5
238
330
236
100
AcDbEntity
  8
0
100
AcDbBlockEnd
  0
BLOCK
  5
243
330
242
100
AcDbEntity
  8
0
100
AcDbBlockBegin
  2
SW_CENTERMARKSYMBOL_11
 70
     0
 10
0.0
 20
0.0
 30
0.0
  3
SW_CENTERMARKSYMBOL_11
  1

  0
LINE
  5
245
330
242
100
AcDbEntity
  8
SLD-0
 62
     0
100
AcDbLine
 10
0.0
 20
0.0
 30
0.0
 11
0.0
 21
1.0
 31
0.0
  0
LINE
  5
246
330
242
100
AcDbEntity
  8
SLD-0
 62
     0
100
AcDbLine
 10
0.0
 20
0.0
 30
0.0
 11
-1.0
 21
0.0
 31
0.0
  0
LINE
  5
247
330
242
100
AcDbEntity
  8
SLD-0
 62
     0
100
AcDbLine
 10
0.0
 20
0.0
 30
0.0
 11
0.0
 21
-1.0
 31
0.0
  0
LINE
  5
248
330
242
100
AcDbEntity
  8
SLD-0
 62
     0
100
AcDbLine
 10
0.0
 20
0.0
 30
0.0
 11
1.0
 21
0.0
 31
0.0
  0
LINE
  5
249
330
242
100
AcDbEntity
  8
SLD-0
 62
     0
100
AcDbLine
 10
0.0
 20
2.0
 30
0.0
 11
0.0
 21
3.5527
 31
0.0
  0
LINE
  5
24A
330
242
100
AcDbEntity
  8
SLD-0
 62
     0
100
AcDbLine
 10
-2.0
 20
0.0
 30
0.0
 11
-3.5527
 21
0.0
 31
0.0
  0
LINE
  5
24B
330
242
100
AcDbEntity
  8
SLD-0
 62
     0
100
AcDbLine
 10
0.0
 20
-2.0
 30
0.0
 11
0.0
 21
-3.5527
 31
0.0
  0
LINE
  5
24C
330
242
100
AcDbEntity
  8
SLD-0
 62
     0
100
AcDbLine
 10
2.0
 20
0.0
 30
0.0
 11
3.5527
 21
0.0
 31
0.0
  0
ENDBLK
  5
244
330
242
100
AcDbEntity
  8
0
100
AcDbBlockEnd
  0
BLOCK
  5
24F
330
24E
100
AcDbEntity
  8
0
100
AcDbBlockBegin
  2
SW_CENTERMARKSYMBOL_12
 70
     0
 10
0.0
 20
0.0
 30
0.0
  3
SW_CENTERMARKSYMBOL_12
  1

  0
LINE
  5
251
330
24E
100
AcDbEntity
  8
SLD-0
 62
     0
100
AcDbLine
 10
0.0
 20
0.0
 30
0.0
 11
0.0
 21
1.0
 31
0.0
  0
LINE
  5
252
330
24E
100
AcDbEntity
  8
SLD-0
 62
     0
100
AcDbLine
 10
0.0
 20
0.0
 30
0.0
 11
-1.0
 21
0.0
 31
0.0
  0
LINE
  5
253
330
24E
100
AcDbEntity
  8
SLD-0
 62
     0
100
AcDbLine
 10
0.0
 20
0.0
 30
0.0
 11
0.0
 21
-1.0
 31
0.0
  0
LINE
  5
254
330
24E
100
AcDbEntity
  8
SLD-0
 62
     0
100
AcDbLine
 10
0.0
 20
0.0
 30
0.0
 11
1.0
 21
0.0
 31
0.0
  0
LINE
  5
255
330
24E
100
AcDbEntity
  8
SLD-0
 62
     0
100
AcDbLine
 10
0.0
 20
2.0
 30
0.0
 11
0.0
 21
3.5527
 31
0.0
  0
LINE
  5
256
330
24E
100
AcDbEntity
  8
SLD-0
 62
     0
100
AcDbLine
 10
-2.0
 20
0.0
 30
0.0
 11
-3.5527
 21
0.0
 31
0.0
  0
LINE
  5
257
330
24E
100
AcDbEntity
  8
SLD-0
 62
     0
100
AcDbLine
 10
0.0
 20
-2.0
 30
0.0
 11
0.0
 21
-3.5527
 31
0.0
  0
LINE
  5
258
330
24E
100
AcDbEntity
  8
SLD-0
 62
     0
100
AcDbLine
 10
2.0
 20
0.0
 30
0.0
 11
3.5527
 21
0.0
 31
0.0
  0
ENDBLK
  5
250
330
24E
100
AcDbEntity
  8
0
100
AcDbBlockEnd
  0
BLOCK
  5
25B
330
25A
100
AcDbEntity
  8
0
100
AcDbBlockBegin
  2
SW_CENTERMARKSYMBOL_13
 70
     0
 10
0.0
 20
0.0
 30
0.0
  3
SW_CENTERMARKSYMBOL_13
  1

  0
LINE
  5
25D
330
25A
100
AcDbEntity
  8
SLD-0
 62
     0
100
AcDbLine
 10
0.0
 20
0.0
 30
0.0
 11
0.0
 21
1.0
 31
0.0
  0
LINE
  5
25E
330
25A
100
AcDbEntity
  8
SLD-0
 62
     0
100
AcDbLine
 10
0.0
 20
0.0
 30
0.0
 11
-1.0
 21
0.0
 31
0.0
  0
LINE
  5
25F
330
25A
100
AcDbEntity
  8
SLD-0
 62
     0
100
AcDbLine
 10
0.0
 20
0.0
 30
0.0
 11
0.0
 21
-1.0
 31
0.0
  0
LINE
  5
260
330
25A
100
AcDbEntity
  8
SLD-0
 62
     0
100
AcDbLine
 10
0.0
 20
0.0
 30
0.0
 11
1.0
 21
0.0
 31
0.0
  0
LINE
  5
261
330
25A
100
AcDbEntity
  8
SLD-0
 62
     0
100
AcDbLine
 10
0.0
 20
2.0
 30
0.0
 11
0.0
 21
3.5527
 31
0.0
  0
LINE
  5
262
330
25A
100
AcDbEntity
  8
SLD-0
 62
     0
100
AcDbLine
 10
-2.0
 20
0.0
 30
0.0
 11
-3.5527
 21
0.0
 31
0.0
  0
LINE
  5
263
330
25A
100
AcDbEntity
  8
SLD-0
 62
     0
100
AcDbLine
 10
0.0
 20
-2.0
 30
0.0
 11
0.0
 21
-3.5527
 31
0.0
  0
LINE
  5
264
330
25A
100
AcDbEntity
  8
SLD-0
 62
     0
100
AcDbLine
 10
2.0
 20
0.0
 30
0.0
 11
3.5527
 21
0.0
 31
0.0
  0
ENDBLK
  5
25C
330
25A
100
AcDbEntity
  8
0
100
AcDbBlockEnd
  0
BLOCK
  5
267
330
266
100
AcDbEntity
  8
0
100
AcDbBlockBegin
  2
SW_CENTERMARKSYMBOL_14
 70
     0
 10
0.0
 20
0.0
 30
0.0
  3
SW_CENTERMARKSYMBOL_14
  1

  0
LINE
  5
269
330
266
100
AcDbEntity
  8
SLD-0
 62
     0
100
AcDbLine
 10
0.0
 20
0.0
 30
0.0
 11
0.0
 21
1.0
 31
0.0
  0
LINE
  5
26A
330
266
100
AcDbEntity
  8
SLD-0
 62
     0
100
AcDbLine
 10
0.0
 20
0.0
 30
0.0
 11
-1.0
 21
0.0
 31
0.0
  0
LINE
  5
26B
330
266
100
AcDbEntity
  8
SLD-0
 62
     0
100
AcDbLine
 10
0.0
 20
0.0
 30
0.0
 11
0.0
 21
-1.0
 31
0.0
  0
LINE
  5
26C
330
266
100
AcDbEntity
  8
SLD-0
 62
     0
100
AcDbLine
 10
0.0
 20
0.0
 30
0.0
 11
1.0
 21
0.0
 31
0.0
  0
LINE
  5
26D
330
266
100
AcDbEntity
  8
SLD-0
 62
     0
100
AcDbLine
 10
0.0
 20
2.0
 30
0.0
 11
0.0
 21
3.5527
 31
0.0
  0
LINE
  5
26E
330
266
100
AcDbEntity
  8
SLD-0
 62
     0
100
AcDbLine
 10
-2.0
 20
0.0
 30
0.0
 11
-3.5527
 21
0.0
 31
0.0
  0
LINE
  5
26F
330
266
100
AcDbEntity
  8
SLD-0
 62
     0
100
AcDbLine
 10
0.0
 20
-2.0
 30
0.0
 11
0.0
 21
-3.5527
 31
0.0
  0
LINE
  5
270
330
266
100
AcDbEntity
  8
SLD-0
 62
     0
100
AcDbLine
 10
2.0
 20
0.0
 30
0.0
 11
3.5527
 21
0.0
 31
0.0
  0
ENDBLK
  5
268
330
266
100
AcDbEntity
  8
0
100
AcDbBlockEnd
  0
BLOCK
  5
273
330
272
100
AcDbEntity
  8
0
100
AcDbBlockBegin
  2
SW_CENTERMARKSYMBOL_15
 70
     0
 10
0.0
 20
0.0
 30
0.0
  3
SW_CENTERMARKSYMBOL_15
  1

  0
LINE
  5
275
330
272
100
AcDbEntity
  8
SLD-0
 62
     0
100
AcDbLine
 10
0.0
 20
0.0
 30
0.0
 11
0.0
 21
1.0
 31
0.0
  0
LINE
  5
276
330
272
100
AcDbEntity
  8
SLD-0
 62
     0
100
AcDbLine
 10
0.0
 20
0.0
 30
0.0
 11
-1.0
 21
0.0
 31
0.0
  0
LINE
  5
277
330
272
100
AcDbEntity
  8
SLD-0
 62
     0
100
AcDbLine
 10
0.0
 20
0.0
 30
0.0
 11
0.0
 21
-1.0
 31
0.0
  0
LINE
  5
278
330
272
100
AcDbEntity
  8
SLD-0
 62
     0
100
AcDbLine
 10
0.0
 20
0.0
 30
0.0
 11
1.0
 21
0.0
 31
0.0
  0
LINE
  5
279
330
272
100
AcDbEntity
  8
SLD-0
 62
     0
100
AcDbLine
 10
0.0
 20
2.0
 30
0.0
 11
0.0
 21
4.25
 31
0.0
  0
LINE
  5
27A
330
272
100
AcDbEntity
  8
SLD-0
 62
     0
100
AcDbLine
 10
-2.0
 20
0.0
 30
0.0
 11
-4.25
 21
0.0
 31
0.0
  0
LINE
  5
27B
330
272
100
AcDbEntity
  8
SLD-0
 62
     0
100
AcDbLine
 10
0.0
 20
-2.0
 30
0.0
 11
0.0
 21
-4.25
 31
0.0
  0
LINE
  5
27C
330
272
100
AcDbEntity
  8
SLD-0
 62
     0
100
AcDbLine
 10
2.0
 20
0.0
 30
0.0
 11
4.25
 21
0.0
 31
0.0
  0
ENDBLK
  5
274
330
272
100
AcDbEntity
  8
0
100
AcDbBlockEnd
  0
BLOCK
  5
27F
330
27E
100
AcDbEntity
  8
0
100
AcDbBlockBegin
  2
SW_CENTERMARKSYMBOL_16
 70
     0
 10
0.0
 20
0.0
 30
0.0
  3
SW_CENTERMARKSYMBOL_16
  1

  0
LINE
  5
281
330
27E
100
AcDbEntity
  8
SLD-0
 62
     0
100
AcDbLine
 10
0.0
 20
0.0
 30
0.0
 11
0.0
 21
1.0
 31
0.0
  0
LINE
  5
282
330
27E
100
AcDbEntity
  8
SLD-0
 62
     0
100
AcDbLine
 10
0.0
 20
0.0
 30
0.0
 11
-1.0
 21
0.0
 31
0.0
  0
LINE
  5
283
330
27E
100
AcDbEntity
  8
SLD-0
 62
     0
100
AcDbLine
 10
0.0
 20
0.0
 30
0.0
 11
0.0
 21
-1.0
 31
0.0
  0
LINE
  5
284
330
27E
100
AcDbEntity
  8
SLD-0
 62
     0
100
AcDbLine
 10
0.0
 20
0.0
 30
0.0
 11
1.0
 21
0.0
 31
0.0
  0
LINE
  5
285
330
27E
100
AcDbEntity
  8
SLD-0
 62
     0
100
AcDbLine
 10
0.0
 20
2.0
 30
0.0
 11
0.0
 21
3.5527
 31
0.0
  0
LINE
  5
286
330
27E
100
AcDbEntity
  8
SLD-0
 62
     0
100
AcDbLine
 10
-2.0
 20
0.0
 30
0.0
 11
-3.5527
 21
0.0
 31
0.0
  0
LINE
  5
287
330
27E
100
AcDbEntity
  8
SLD-0
 62
     0
100
AcDbLine
 10
0.0
 20
-2.0
 30
0.0
 11
0.0
 21
-3.5527
 31
0.0
  0
LINE
  5
288
330
27E
100
AcDbEntity
  8
SLD-0
 62
     0
100
AcDbLine
 10
2.0
 20
0.0
 30
0.0
 11
3.5527
 21
0.0
 31
0.0
  0
ENDBLK
  5
280
330
27E
100
AcDbEntity
  8
0
100
AcDbBlockEnd
  0
BLOCK
  5
28B
330
28A
100
AcDbEntity
  8
0
100
AcDbBlockBegin
  2
SW_CENTERMARKSYMBOL_17
 70
     0
 10
0.0
 20
0.0
 30
0.0
  3
SW_CENTERMARKSYMBOL_17
  1

  0
LINE
  5
28D
330
28A
100
AcDbEntity
  8
SLD-0
 62
     0
100
AcDbLine
 10
0.0
 20
0.0
 30
0.0
 11
0.0
 21
1.0
 31
0.0
  0
LINE
  5
28E
330
28A
100
AcDbEntity
  8
SLD-0
 62
     0
100
AcDbLine
 10
0.0
 20
0.0
 30
0.0
 11
-1.0
 21
0.0
 31
0.0
  0
LINE
  5
28F
330
28A
100
AcDbEntity
  8
SLD-0
 62
     0
100
AcDbLine
 10
0.0
 20
0.0
 30
0.0
 11
0.0
 21
-1.0
 31
0.0
  0
LINE
  5
290
330
28A
100
AcDbEntity
  8
SLD-0
 62
     0
100
AcDbLine
 10
0.0
 20
0.0
 30
0.0
 11
1.0
 21
0.0
 31
0.0
  0
LINE
  5
291
330
28A
100
AcDbEntity
  8
SLD-0
 62
     0
100
AcDbLine
 10
0.0
 20
2.0
 30
0.0
 11
0.0
 21
3.5527
 31
0.0
  0
LINE
  5
292
330
28A
100
AcDbEntity
  8
SLD-0
 62
     0
100
AcDbLine
 10
-2.0
 20
0.0
 30
0.0
 11
-3.5527
 21
0.0
 31
0.0
  0
LINE
  5
293
330
28A
100
AcDbEntity
  8
SLD-0
 62
     0
100
AcDbLine
 10
0.0
 20
-2.0
 30
0.0
 11
0.0
 21
-3.5527
 31
0.0
  0
LINE
  5
294
330
28A
100
AcDbEntity
  8
SLD-0
 62
     0
100
AcDbLine
 10
2.0
 20
0.0
 30
0.0
 11
3.5527
 21
0.0
 31
0.0
  0
ENDBLK
  5
28C
330
28A
100
AcDbEntity
  8
0
100
AcDbBlockEnd
  0
BLOCK
  5
2A9
330
2A8
100
AcDbEntity
  8
0
100
AcDbBlockBegin
  2
_D_14
 70
     0
 10
0.0
 20
0.0
 30
0.0
  3
_D_14
  1

  0
SOLID
  5
2AB
330
2A8
100
AcDbEntity
  8
SLD-0
 62
     7
100
AcDbTrace
 10
99.3729925047
 20
148.6879727501
 30
0.0
 11
98.7479925047
 21
143.6879727501
 31
0.0
 12
99.9979925047
 22
143.6879727501
 32
0.0
 13
99.9979925047
 23
143.6879727501
 33
0.0
  0
SOLID
  5
2AC
330
2A8
100
AcDbEntity
  8
SLD-0
 62
     7
100
AcDbTrace
 10
99.3729925047
 20
129.6879727501
 30
0.0
 11
99.9979925047
 21
134.6879727501
 31
0.0
 12
98.7479925047
 22
134.6879727501
 32
0.0
 13
98.7479925047
 23
134.6879727501
 33
0.0
  0
LINE
  5
2AD
330
2A8
100
AcDbEntity
  8
SLD-0
 62
     7
100
AcDbLine
 10
112.9729925047
 20
148.6879727501
 30
0.0
 11
96.8729925047
 21
148.6879727501
 31
0.0
  0
LINE
  5
2AE
330
2A8
100
AcDbEntity
  8
SLD-0
 62
     7
100
AcDbLine
 10
112.9729925047
 20
129.6879727501
 30
0.0
 11
96.8729925047
 21
129.6879727501
 31
0.0
  0
LINE
  5
2AF
330
2A8
100
AcDbEntity
  8
SLD-0
 62
     7
100
AcDbLine
 10
99.3729925047
 20
148.6879727501
 30
0.0
 11
99.3729925047
 21
129.6879727501
 31
0.0
  0
MTEXT
  5
2B0
330
2A8
100
AcDbEntity
  8
SLD-0
 62
     7
100
AcDbMText
 10
91.3163195676
 20
134.4136671881
 30
0.0
 40
6.25
 41
0.0
 71
     1
 72
     1
  1
19
  7
SLDTEXTSTYLE0
 11
-7.044195017643634E-15
 21
1.0
 31
0.0
 73
     1
 44
1.0
  0
ENDBLK
  5
2AA
330
2A8
100
AcDbEntity
  8
0
100
AcDbBlockEnd
  0
BLOCK
  5
2B3
330
2B2
100
AcDbEntity
  8
0
100
AcDbBlockBegin
  2
_D_15
 70
     0
 10
0.0
 20
0.0
 30
0.0
  3
_D_15
  1

  0
SOLID
  5
2B5
330
2B2
100
AcDbEntity
  8
SLD-0
 62
     7
100
AcDbTrace
 10
83.2729925047
 20
129.6879727501
 30
0.0
 11
83.8979925047
 21
134.6879727501
 31
0.0
 12
82.6479925047
 22
134.6879727501
 32
0.0
 13
82.6479925047
 23
134.6879727501
 33
0.0
  0
SOLID
  5
2B6
330
2B2
100
AcDbEntity
  8
SLD-0
 62
     7
100
AcDbTrace
 10
83.2729925047
 20
219.6879727501
 30
0.0
 11
82.6479925047
 21
214.6879727501
 31
0.0
 12
83.8979925047
 22
214.6879727501
 32
0.0
 13
83.8979925047
 23
214.6879727501
 33
0.0
  0
LINE
  5
2B7
330
2B2
100
AcDbEntity
  8
SLD-0
 62
     7
100
AcDbLine
 10
112.9729925047
 20
129.6879727501
 30
0.0
 11
80.7729925047
 21
129.6879727501
 31
0.0
  0
LINE
  5
2B8
330
2B2
100
AcDbEntity
  8
SLD-0
 62
     7
100
AcDbLine
 10
257.9729925047
 20
219.6879727501
 30
0.0
 11
80.7729925047
 21
219.6879727501
 31
0.0
  0
LINE
  5
2B9
330
2B2
100
AcDbEntity
  8
SLD-0
 62
     7
100
AcDbLine
 10
83.2729925047
 20
129.6879727501
 30
0.0
 11
83.2729925047
 21
219.6879727501
 31
0.0
  0
MTEXT
  5
2BA
330
2B2
100
AcDbEntity
  8
SLD-0
 62
     7
100
AcDbMText
 10
75.2163195676
 20
169.9136671881
 30
0.0
 40
6.25
 41
0.0
 71
     1
 72
     1
  1
90
  7
SLDTEXTSTYLE0
 11
6.123233995736766E-17
 21
1.0
 31
0.0
 73
     1
 44
1.0
  0
ENDBLK
  5
2B4
330
2B2
100
AcDbEntity
  8
0
100
AcDbBlockEnd
  0
BLOCK
  5
2BC
330
2BB
100
AcDbEntity
  8
0
100
AcDbBlockBegin
  2
SW_CENTERMARKSYMBOL_18
 70
     0
 10
0.0
 20
0.0
 30
0.0
  3
SW_CENTERMARKSYMBOL_18
  1

  0
LINE
  5
2BE
330
2BB
100
AcDbEntity
  8
SLD-0
 62
     0
100
AcDbLine
 10
0.0
 20
0.0
 30
0.0
 11
0.0
 21
1.0
 31
0.0
  0
LINE
  5
2BF
330
2BB
100
AcDbEntity
  8
SLD-0
 62
     0
100
AcDbLine
 10
0.0
 20
0.0
 30
0.0
 11
-1.0
 21
0.0
 31
0.0
  0
LINE
  5
2C0
330
2BB
100
AcDbEntity
  8
SLD-0
 62
     0
100
AcDbLine
 10
0.0
 20
0.0
 30
0.0
 11
0.0
 21
-1.0
 31
0.0
  0
LINE
  5
2C1
330
2BB
100
AcDbEntity
  8
SLD-0
 62
     0
100
AcDbLine
 10
0.0
 20
0.0
 30
0.0
 11
1.0
 21
0.0
 31
0.0
  0
LINE
  5
2C2
330
2BB
100
AcDbEntity
  8
SLD-0
 62
     0
100
AcDbLine
 10
0.0
 20
2.0
 30
0.0
 11
0.0
 21
6.1
 31
0.0
  0
LINE
  5
2C3
330
2BB
100
AcDbEntity
  8
SLD-0
 62
     0
100
AcDbLine
 10
-2.0
 20
0.0
 30
0.0
 11
-6.1
 21
0.0
 31
0.0
  0
LINE
  5
2C4
330
2BB
100
AcDbEntity
  8
SLD-0
 62
     0
100
AcDbLine
 10
0.0
 20
-2.0
 30
0.0
 11
0.0
 21
-6.1
 31
0.0
  0
LINE
  5
2C5
330
2BB
100
AcDbEntity
  8
SLD-0
 62
     0
100
AcDbLine
 10
2.0
 20
0.0
 30
0.0
 11
6.1
 21
0.0
 31
0.0
  0
ENDBLK
  5
2BD
330
2BB
100
AcDbEntity
  8
0
100
AcDbBlockEnd
  0
BLOCK
  5
2D9
330
2D8
100
AcDbEntity
  8
0
100
AcDbBlockBegin
  2
_D_16
 70
     0
 10
0.0
 20
0.0
 30
0.0
  3
_D_16
  1

  0
SOLID
  5
2DB
330
2D8
100
AcDbEntity
  8
SLD-0
100
AcDbTrace
 10
338.6146995128
 20
246.0375792495
 30
0.0
 11
343.6146995128
 21
245.4125792495
 31
0.0
 12
343.6146995128
 22
246.6625792495
 32
0.0
 13
343.6146995128
 23
246.6625792495
 33
0.0
  0
SOLID
  5
2DC
330
2D8
100
AcDbEntity
  8
SLD-0
100
AcDbTrace
 10
428.6146995128
 20
246.0375792495
 30
0.0
 11
423.6146995128
 21
246.6625792495
 31
0.0
 12
423.6146995128
 22
245.4125792495
 32
0.0
 13
423.6146995128
 23
245.4125792495
 33
0.0
  0
LINE
  5
2DD
330
2D8
100
AcDbEntity
  8
SLD-0
100
AcDbLine
 10
338.6146995128
 20
222.1879727501
 30
0.0
 11
338.6146995128
 21
248.5375792495
 31
0.0
  0
LINE
  5
2DE
330
2D8
100
AcDbEntity
  8
SLD-0
100
AcDbLine
 10
428.6146995128
 20
222.1879727501
 30
0.0
 11
428.6146995128
 21
248.5375792495
 31
0.0
  0
LINE
  5
2DF
330
2D8
100
AcDbEntity
  8
SLD-0
100
AcDbLine
 10
338.6146995128
 20
246.0375792495
 30
0.0
 11
428.6146995128
 21
246.0375792495
 31
0.0
  0
MTEXT
  5
2E0
330
2D8
100
AcDbEntity
  8
SLD-0
100
AcDbMText
 10
378.8403939507
 20
254.0942521865
 30
0.0
 40
6.25
 41
0.0
 71
     1
 72
     1
  1
90
  7
SLDTEXTSTYLE0
 73
     1
 44
1.0
  0
ENDBLK
  5
2DA
330
2D8
100
AcDbEntity
  8
0
100
AcDbBlockEnd
  0
BLOCK
  5
2E3
330
2E2
100
AcDbEntity
  8
0
100
AcDbBlockBegin
  2
_D_17
 70
     0
 10
0.0
 20
0.0
 30
0.0
  3
_D_17
  1

  0
SOLID
  5
2E5
330
2E2
100
AcDbEntity
  8
SLD-0
100
AcDbTrace
 10
446.1146995128
 20
154.6879727501
 30
0.0
 11
446.7396995128
 21
159.6879727501
 31
0.0
 12
445.4896995128
 22
159.6879727501
 32
0.0
 13
445.4896995128
 23
159.6879727501
 33
0.0
  0
SOLID
  5
2E6
330
2E2
100
AcDbEntity
  8
SLD-0
100
AcDbTrace
 10
446.1146995128
 20
180.0879727501
 30
0.0
 11
445.4896995128
 21
175.0879727501
 31
0.0
 12
446.7396995128
 22
175.0879727501
 32
0.0
 13
446.7396995128
 23
175.0879727501
 33
0.0
  0
LINE
  5
2E7
330
2E2
100
AcDbEntity
  8
SLD-0
100
AcDbLine
 10
411.5146995128
 20
154.6879727501
 30
0.0
 11
448.6146995128
 21
154.6879727501
 31
0.0
  0
LINE
  5
2E8
330
2E2
100
AcDbEntity
  8
SLD-0
100
AcDbLine
 10
411.5146995128
 20
180.0879727501
 30
0.0
 11
448.6146995128
 21
180.0879727501
 31
0.0
  0
LINE
  5
2E9
330
2E2
100
AcDbEntity
  8
SLD-0
100
AcDbLine
 10
446.1146995128
 20
154.6879727501
 30
0.0
 11
446.1146995128
 21
180.0879727501
 31
0.0
  0
MTEXT
  5
2EA
330
2E2
100
AcDbEntity
  8
SLD-0
100
AcDbMText
 10
438.0580265757
 20
159.0329382349
 30
0.0
 40
6.25
 41
0.0
 71
     1
 72
     1
  1
25.4
  7
SLDTEXTSTYLE0
 11
6.123233995736766E-17
 21
1.0
 31
0.0
 73
     1
 44
1.0
  0
ENDBLK
  5
2E4
330
2E2
100
AcDbEntity
  8
0
100
AcDbBlockEnd
  0
BLOCK
  5
2ED
330
2EC
100
AcDbEntity
  8
0
100
AcDbBlockBegin
  2
_D_18
 70
     0
 10
0.0
 20
0.0
 30
0.0
  3
_D_18
  1

  0
SOLID
  5
2EF
330
2EC
100
AcDbEntity
  8
SLD-0
100
AcDbTrace
 10
446.1146995128
 20
180.0879727501
 30
0.0
 11
446.7396995128
 21
185.0879727501
 31
0.0
 12
445.4896995128
 22
185.0879727501
 32
0.0
 13
445.4896995128
 23
185.0879727501
 33
0.0
  0
SOLID
  5
2F0
330
2EC
100
AcDbEntity
  8
SLD-0
100
AcDbTrace
 10
446.1146995128
 20
205.4879727501
 30
0.0
 11
445.4896995128
 21
200.4879727501
 31
0.0
 12
446.7396995128
 22
200.4879727501
 32
0.0
 13
446.7396995128
 23
200.4879727501
 33
0.0
  0
LINE
  5
2F1
330
2EC
100
AcDbEntity
  8
SLD-0
100
AcDbLine
 10
411.5146995128
 20
180.0879727501
 30
0.0
 11
448.6146995128
 21
180.0879727501
 31
0.0
  0
LINE
  5
2F2
330
2EC
100
AcDbEntity
  8
SLD-0
100
AcDbLine
 10
411.5146995128
 20
205.4879727501
 30
0.0
 11
448.6146995128
 21
205.4879727501
 31
0.0
  0
LINE
  5
2F3
330
2EC
100
AcDbEntity
  8
SLD-0
100
AcDbLine
 10
446.1146995128
 20
180.0879727501
 30
0.0
 11
446.1146995128
 21
205.4879727501
 31
0.0
  0
MTEXT
  5
2F4
330
2EC
100
AcDbEntity
  8
SLD-0
100
AcDbMText
 10
438.0580265757
 20
184.4329382349
 30
0.0
 40
6.25
 41
0.0
 71
     1
 72
     1
  1
25.4
  7
SLDTEXTSTYLE0
 11
6.123233995736766E-17
 21
1.0
 31
0.0
 73
     1
 44
1.0
  0
ENDBLK
  5
2EE
330
2EC
100
AcDbEntity
  8
0
100
AcDbBlockEnd
  0
BLOCK
  5
2F7
330
2F6
100
AcDbEntity
  8
0
100
AcDbBlockBegin
  2
_D_19
 70
     0
 10
0.0
 20
0.0
 30
0.0
  3
_D_19
  1

  0
SOLID
  5
2F9
330
2F6
100
AcDbEntity
  8
SLD-0
100
AcDbTrace
 10
461.5159376767
 20
180.0879727501
 30
0.0
 11
460.8909376767
 21
175.0879727501
 31
0.0
 12
462.1409376767
 22
175.0879727501
 32
0.0
 13
462.1409376767
 23
175.0879727501
 33
0.0
  0
SOLID
  5
2FA
330
2F6
100
AcDbEntity
  8
SLD-0
100
AcDbTrace
 10
461.5159376767
 20
129.6879727501
 30
0.0
 11
462.1409376767
 21
134.6879727501
 31
0.0
 12
460.8909376767
 22
134.6879727501
 32
0.0
 13
460.8909376767
 23
134.6879727501
 33
0.0
  0
LINE
  5
2FB
330
2F6
100
AcDbEntity
  8
SLD-0
100
AcDbLine
 10
411.5146995128
 20
180.0879727501
 30
0.0
 11
464.0159376767
 21
180.0879727501
 31
0.0
  0
LINE
  5
2FC
330
2F6
100
AcDbEntity
  8
SLD-0
100
AcDbLine
 10
431.1146995128
 20
129.6879727501
 30
0.0
 11
464.0159376767
 21
129.6879727501
 31
0.0
  0
LINE
  5
2FD
330
2F6
100
AcDbEntity
  8
SLD-0
100
AcDbLine
 10
461.5159376767
 20
180.0879727501
 30
0.0
 11
461.5159376767
 21
129.6879727501
 31
0.0
  0
MTEXT
  5
2FE
330
2F6
100
AcDbEntity
  8
SLD-0
100
AcDbMText
 10
453.4592647397
 20
146.5329382349
 30
0.0
 40
6.25
 41
0.0
 71
     1
 72
     1
  1
50.4
  7
SLDTEXTSTYLE0
 11
-7.044195017643634E-15
 21
1.0
 31
0.0
 73
     1
 44
1.0
  0
ENDBLK
  5
2F8
330
2F6
100
AcDbEntity
  8
0
100
AcDbBlockEnd
  0
BLOCK
  5
301
330
300
100
AcDbEntity
  8
0
100
AcDbBlockBegin
  2
_D_20
 70
     0
 10
0.0
 20
0.0
 30
0.0
  3
_D_20
  1

  0
SOLID
  5
303
330
300
100
AcDbEntity
  8
SLD-0
100
AcDbTrace
 10
358.2146995128
 20
230.506433578
 30
0.0
 11
363.2146995128
 21
229.881433578
 31
0.0
 12
363.2146995128
 22
231.131433578
 32
0.0
 13
363.2146995128
 23
231.131433578
 33
0.0
  0
SOLID
  5
304
330
300
100
AcDbEntity
  8
SLD-0
100
AcDbTrace
 10
383.6146995128
 20
230.506433578
 30
0.0
 11
378.6146995128
 21
231.131433578
 31
0.0
 12
378.6146995128
 22
229.881433578
 32
0.0
 13
378.6146995128
 23
229.881433578
 33
0.0
  0
LINE
  5
305
330
300
100
AcDbEntity
  8
SLD-0
100
AcDbLine
 10
358.2146995128
 20
207.9879727501
 30
0.0
 11
358.2146995128
 21
233.006433578
 31
0.0
  0
LINE
  5
306
330
300
100
AcDbEntity
  8
SLD-0
100
AcDbLine
 10
383.6146995128
 20
207.9879727501
 30
0.0
 11
383.6146995128
 21
233.006433578
 31
0.0
  0
LINE
  5
307
330
300
100
AcDbEntity
  8
SLD-0
100
AcDbLine
 10
358.2146995128
 20
230.506433578
 30
0.0
 11
383.6146995128
 21
230.506433578
 31
0.0
  0
MTEXT
  5
308
330
300
100
AcDbEntity
  8
SLD-0
100
AcDbMText
 10
362.5596649975
 20
238.563106515
 30
0.0
 40
6.25
 41
0.0
 71
     1
 72
     1
  1
25.4
  7
SLDTEXTSTYLE0
 73
     1
 44
1.0
  0
ENDBLK
  5
302
330
300
100
AcDbEntity
  8
0
100
AcDbBlockEnd
  0
BLOCK
  5
30B
330
30A
100
AcDbEntity
  8
0
100
AcDbBlockBegin
  2
_D_21
 70
     0
 10
0.0
 20
0.0
 30
0.0
  3
_D_21
  1

  0
SOLID
  5
30D
330
30A
100
AcDbEntity
  8
SLD-0
100
AcDbTrace
 10
383.6146995128
 20
230.506433578
 30
0.0
 11
388.6146995128
 21
229.881433578
 31
0.0
 12
388.6146995128
 22
231.131433578
 32
0.0
 13
388.6146995128
 23
231.131433578
 33
0.0
  0
SOLID
  5
30E
330
30A
100
AcDbEntity
  8
SLD-0
100
AcDbTrace
 10
409.0146995128
 20
230.506433578
 30
0.0
 11
404.0146995128
 21
231.131433578
 31
0.0
 12
404.0146995128
 22
229.881433578
 32
0.0
 13
404.0146995128
 23
229.881433578
 33
0.0
  0
LINE
  5
30F
330
30A
100
AcDbEntity
  8
SLD-0
100
AcDbLine
 10
383.6146995128
 20
207.9879727501
 30
0.0
 11
383.6146995128
 21
233.006433578
 31
0.0
  0
LINE
  5
310
330
30A
100
AcDbEntity
  8
SLD-0
100
AcDbLine
 10
409.0146995128
 20
207.9879727501
 30
0.0
 11
409.0146995128
 21
233.006433578
 31
0.0
  0
LINE
  5
311
330
30A
100
AcDbEntity
  8
SLD-0
100
AcDbLine
 10
383.6146995128
 20
230.506433578
 30
0.0
 11
409.0146995128
 21
230.506433578
 31
0.0
  0
MTEXT
  5
312
330
30A
100
AcDbEntity
  8
SLD-0
100
AcDbMText
 10
387.9596649975
 20
238.563106515
 30
0.0
 40
6.25
 41
0.0
 71
     1
 72
     1
  1
25.4
  7
SLDTEXTSTYLE0
 73
     1
 44
1.0
  0
ENDBLK
  5
30C
330
30A
100
AcDbEntity
  8
0
100
AcDbBlockEnd
  0
BLOCK
  5
315
330
314
100
AcDbEntity
  8
0
100
AcDbBlockBegin
  2
_D_22
 70
     0
 10
0.0
 20
0.0
 30
0.0
  3
_D_22
  1

  0
SOLID
  5
317
330
314
100
AcDbEntity
  8
SLD-0
100
AcDbTrace
 10
411.225402561
 20
206.7643227501
 30
0.0
 11
415.8680295799
 21
208.7230568728
 31
0.0
 12
415.2430295799
 22
209.8055886275
 32
0.0
 13
415.2430295799
 23
209.8055886275
 33
0.0
  0
LINE
  5
318
330
314
100
AcDbEntity
  8
SLD-0
100
AcDbLine
 10
411.225402561
 20
206.7643227501
 30
0.0
 11
442.5536569276
 21
224.8516988419
 31
0.0
  0
LINE
  5
319
330
314
100
AcDbEntity
  8
SLD-0
100
AcDbLine
 10
442.5536569276
 20
224.8516988419
 30
0.0
 11
484.333170119
 21
224.8516988419
 31
0.0
  0
MTEXT
  5
31A
330
314
100
AcDbEntity
  8
SLD-0
100
AcDbMText
 10
445.6786569276
 20
242.5003854453
 30
0.0
 40
6.25
 41
0.0
 71
     1
 72
     1
  1
9 HOLES,
  7
SLDTEXTSTYLE0
 73
     1
 44
1.0
  0
MTEXT
  5
31B
330
314
100
AcDbEntity
  8
SLD-0
100
AcDbMText
 10
445.6786569276
 20
232.9083717789
 30
0.0
 40
6.25
 41
0.0
 71
     1
 72
     1
  1
 1/4"-20
  7
SLDTEXTSTYLE0
 73
     1
 44
1.0
  0
ENDBLK
  5
316
330
314
100
AcDbEntity
  8
0
100
AcDbBlockEnd
  0
BLOCK
  5
31D
330
31C
100
AcDbEntity
  8
0
100
AcDbBlockBegin
  2
SW_CENTERMARKSYMBOL_19
 70
     0
 10
0.0
 20
0.0
 30
0.0
  3
SW_CENTERMARKSYMBOL_19
  1

  0
LINE
  5
31F
330
31C
100
AcDbEntity
  8
SLD-0
 62
     0
100
AcDbLine
 10
0.0
 20
0.0
 30
0.0
 11
0.0
 21
1.0
 31
0.0
  0
LINE
  5
320
330
31C
100
AcDbEntity
  8
SLD-0
 62
     0
100
AcDbLine
 10
0.0
 20
0.0
 30
0.0
 11
-1.0
 21
0.0
 31
0.0
  0
LINE
  5
321
330
31C
100
AcDbEntity
  8
SLD-0
 62
     0
100
AcDbLine
 10
0.0
 20
0.0
 30
0.0
 11
0.0
 21
-1.0
 31
0.0
  0
LINE
  5
322
330
31C
100
AcDbEntity
  8
SLD-0
 62
     0
100
AcDbLine
 10
0.0
 20
0.0
 30
0.0
 11
1.0
 21
0.0
 31
0.0
  0
LINE
  5
323
330
31C
100
AcDbEntity
  8
SLD-0
 62
     0
100
AcDbLine
 10
0.0
 20
2.0
 30
0.0
 11
0.0
 21
3.5527
 31
0.0
  0
LINE
  5
324
330
31C
100
AcDbEntity
  8
SLD-0
 62
     0
100
AcDbLine
 10
-2.0
 20
0.0
 30
0.0
 11
-3.5527
 21
0.0
 31
0.0
  0
LINE
  5
325
330
31C
100
AcDbEntity
  8
SLD-0
 62
     0
100
AcDbLine
 10
0.0
 20
-2.0
 30
0.0
 11
0.0
 21
-3.5527
 31
0.0
  0
LINE
  5
326
330
31C
100
AcDbEntity
  8
SLD-0
 62
     0
100
AcDbLine
 10
2.0
 20
0.0
 30
0.0
 11
3.5527
 21
0.0
 31
0.0
  0
ENDBLK
  5
31E
330
31C
100
AcDbEntity
  8
0
100
AcDbBlockEnd
  0
BLOCK
  5
329
330
328
100
AcDbEntity
  8
0
100
AcDbBlockBegin
  2
SW_CENTERMARKSYMBOL_20
 70
     0
 10
0.0
 20
0.0
 30
0.0
  3
SW_CENTERMARKSYMBOL_20
  1

  0
LINE
  5
32B
330
328
100
AcDbEntity
  8
SLD-0
 62
     0
100
AcDbLine
 10
0.0
 20
0.0
 30
0.0
 11
0.0
 21
1.0
 31
0.0
  0
LINE
  5
32C
330
328
100
AcDbEntity
  8
SLD-0
 62
     0
100
AcDbLine
 10
0.0
 20
0.0
 30
0.0
 11
-1.0
 21
0.0
 31
0.0
  0
LINE
  5
32D
330
328
100
AcDbEntity
  8
SLD-0
 62
     0
100
AcDbLine
 10
0.0
 20
0.0
 30
0.0
 11
0.0
 21
-1.0
 31
0.0
  0
LINE
  5
32E
330
328
100
AcDbEntity
  8
SLD-0
 62
     0
100
AcDbLine
 10
0.0
 20
0.0
 30
0.0
 11
1.0
 21
0.0
 31
0.0
  0
LINE
  5
32F
330
328
100
AcDbEntity
  8
SLD-0
 62
     0
100
AcDbLine
 10
0.0
 20
2.0
 30
0.0
 11
0.0
 21
3.5527
 31
0.0
  0
LINE
  5
330
330
328
100
AcDbEntity
  8
SLD-0
 62
     0
100
AcDbLine
 10
-2.0
 20
0.0
 30
0.0
 11
-3.5527
 21
0.0
 31
0.0
  0
LINE
  5
331
330
328
100
AcDbEntity
  8
SLD-0
 62
     0
100
AcDbLine
 10
0.0
 20
-2.0
 30
0.0
 11
0.0
 21
-3.5527
 31
0.0
  0
LINE
  5
332
330
328
100
AcDbEntity
  8
SLD-0
 62
     0
100
AcDbLine
 10
2.0
 20
0.0
 30
0.0
 11
3.5527
 21
0.0
 31
0.0
  0
ENDBLK
  5
32A
330
328
100
AcDbEntity
  8
0
100
AcDbBlockEnd
  0
BLOCK
  5
335
330
334
100
AcDbEntity
  8
0
100
AcDbBlockBegin
  2
SW_CENTERMARKSYMBOL_21
 70
     0
 10
0.0
 20
0.0
 30
0.0
  3
SW_CENTERMARKSYMBOL_21
  1

  0
LINE
  5
337
330
334
100
AcDbEntity
  8
SLD-0
 62
     0
100
AcDbLine
 10
0.0
 20
0.0
 30
0.0
 11
0.0
 21
1.0
 31
0.0
  0
LINE
  5
338
330
334
100
AcDbEntity
  8
SLD-0
 62
     0
100
AcDbLine
 10
0.0
 20
0.0
 30
0.0
 11
-1.0
 21
0.0
 31
0.0
  0
LINE
  5
339
330
334
100
AcDbEntity
  8
SLD-0
 62
     0
100
AcDbLine
 10
0.0
 20
0.0
 30
0.0
 11
0.0
 21
-1.0
 31
0.0
  0
LINE
  5
33A
330
334
100
AcDbEntity
  8
SLD-0
 62
     0
100
AcDbLine
 10
0.0
 20
0.0
 30
0.0
 11
1.0
 21
0.0
 31
0.0
  0
LINE
  5
33B
330
334
100
AcDbEntity
  8
SLD-0
 62
     0
100
AcDbLine
 10
0.0
 20
2.0
 30
0.0
 11
0.0
 21
3.5527
 31
0.0
  0
LINE
  5
33C
330
334
100
AcDbEntity
  8
SLD-0
 62
     0
100
AcDbLine
 10
-2.0
 20
0.0
 30
0.0
 11
-3.5527
 21
0.0
 31
0.0
  0
LINE
  5
33D
330
334
100
AcDbEntity
  8
SLD-0
 62
     0
100
AcDbLine
 10
0.0
 20
-2.0
 30
0.0
 11
0.0
 21
-3.5527
 31
0.0
  0
LINE
  5
33E
330
334
100
AcDbEntity
  8
SLD-0
 62
     0
100
AcDbLine
 10
2.0
 20
0.0
 30
0.0
 11
3.5527
 21
0.0
 31
0.0
  0
ENDBLK
  5
336
330
334
100
AcDbEntity
  8
0
100
AcDbBlockEnd
  0
BLOCK
  5
341
330
340
100
AcDbEntity
  8
0
100
AcDbBlockBegin
  2
SW_CENTERMARKSYMBOL_22
 70
     0
 10
0.0
 20
0.0
 30
0.0
  3
SW_CENTERMARKSYMBOL_22
  1

  0
LINE
  5
343
330
340
100
AcDbEntity
  8
SLD-0
 62
     0
100
AcDbLine
 10
0.0
 20
0.0
 30
0.0
 11
0.0
 21
1.0
 31
0.0
  0
LINE
  5
344
330
340
100
AcDbEntity
  8
SLD-0
 62
     0
100
AcDbLine
 10
0.0
 20
0.0
 30
0.0
 11
-1.0
 21
0.0
 31
0.0
  0
LINE
  5
345
330
340
100
AcDbEntity
  8
SLD-0
 62
     0
100
AcDbLine
 10
0.0
 20
0.0
 30
0.0
 11
0.0
 21
-1.0
 31
0.0
  0
LINE
  5
346
330
340
100
AcDbEntity
  8
SLD-0
 62
     0
100
AcDbLine
 10
0.0
 20
0.0
 30
0.0
 11
1.0
 21
0.0
 31
0.0
  0
LINE
  5
347
330
340
100
AcDbEntity
  8
SLD-0
 62
     0
100
AcDbLine
 10
0.0
 20
2.0
 30
0.0
 11
0.0
 21
3.5527
 31
0.0
  0
LINE
  5
348
330
340
100
AcDbEntity
  8
SLD-0
 62
     0
100
AcDbLine
 10
-2.0
 20
0.0
 30
0.0
 11
-3.5527
 21
0.0
 31
0.0
  0
LINE
  5
349
330
340
100
AcDbEntity
  8
SLD-0
 62
     0
100
AcDbLine
 10
0.0
 20
-2.0
 30
0.0
 11
0.0
 21
-3.5527
 31
0.0
  0
LINE
  5
34A
330
340
100
AcDbEntity
  8
SLD-0
 62
     0
100
AcDbLine
 10
2.0
 20
0.0
 30
0.0
 11
3.5527
 21
0.0
 31
0.0
  0
ENDBLK
  5
342
330
340
100
AcDbEntity
  8
0
100
AcDbBlockEnd
  0
BLOCK
  5
34D
330
34C
100
AcDbEntity
  8
0
100
AcDbBlockBegin
  2
SW_CENTERMARKSYMBOL_23
 70
     0
 10
0.0
 20
0.0
 30
0.0
  3
SW_CENTERMARKSYMBOL_23
  1

  0
LINE
  5
34F
330
34C
100
AcDbEntity
  8
SLD-0
 62
     0
100
AcDbLine
 10
0.0
 20
0.0
 30
0.0
 11
0.0
 21
1.0
 31
0.0
  0
LINE
  5
350
330
34C
100
AcDbEntity
  8
SLD-0
 62
     0
100
AcDbLine
 10
0.0
 20
0.0
 30
0.0
 11
-1.0
 21
0.0
 31
0.0
  0
LINE
  5
351
330
34C
100
AcDbEntity
  8
SLD-0
 62
     0
100
AcDbLine
 10
0.0
 20
0.0
 30
0.0
 11
0.0
 21
-1.0
 31
0.0
  0
LINE
  5
352
330
34C
100
AcDbEntity
  8
SLD-0
 62
     0
100
AcDbLine
 10
0.0
 20
0.0
 30
0.0
 11
1.0
 21
0.0
 31
0.0
  0
LINE
  5
353
330
34C
100
AcDbEntity
  8
SLD-0
 62
     0
100
AcDbLine
 10
0.0
 20
2.0
 30
0.0
 11
0.0
 21
3.5527
 31
0.0
  0
LINE
  5
354
330
34C
100
AcDbEntity
  8
SLD-0
 62
     0
100
AcDbLine
 10
-2.0
 20
0.0
 30
0.0
 11
-3.5527
 21
0.0
 31
0.0
  0
LINE
  5
355
330
34C
100
AcDbEntity
  8
SLD-0
 62
     0
100
AcDbLine
 10
0.0
 20
-2.0
 30
0.0
 11
0.0
 21
-3.5527
 31
0.0
  0
LINE
  5
356
330
34C
100
AcDbEntity
  8
SLD-0
 62
     0
100
AcDbLine
 10
2.0
 20
0.0
 30
0.0
 11
3.5527
 21
0.0
 31
0.0
  0
ENDBLK
  5
34E
330
34C
100
AcDbEntity
  8
0
100
AcDbBlockEnd
  0
BLOCK
  5
359
330
358
100
AcDbEntity
  8
0
100
AcDbBlockBegin
  2
SW_CENTERMARKSYMBOL_24
 70
     0
 10
0.0
 20
0.0
 30
0.0
  3
SW_CENTERMARKSYMBOL_24
  1

  0
LINE
  5
35B
330
358
100
AcDbEntity
  8
SLD-0
 62
     0
100
AcDbLine
 10
0.0
 20
0.0
 30
0.0
 11
0.0
 21
1.0
 31
0.0
  0
LINE
  5
35C
330
358
100
AcDbEntity
  8
SLD-0
 62
     0
100
AcDbLine
 10
0.0
 20
0.0
 30
0.0
 11
-1.0
 21
0.0
 31
0.0
  0
LINE
  5
35D
330
358
100
AcDbEntity
  8
SLD-0
 62
     0
100
AcDbLine
 10
0.0
 20
0.0
 30
0.0
 11
0.0
 21
-1.0
 31
0.0
  0
LINE
  5
35E
330
358
100
AcDbEntity
  8
SLD-0
 62
     0
100
AcDbLine
 10
0.0
 20
0.0
 30
0.0
 11
1.0
 21
0.0
 31
0.0
  0
LINE
  5
35F
330
358
100
AcDbEntity
  8
SLD-0
 62
     0
100
AcDbLine
 10
0.0
 20
2.0
 30
0.0
 11
0.0
 21
3.5527
 31
0.0
  0
LINE
  5
360
330
358
100
AcDbEntity
  8
SLD-0
 62
     0
100
AcDbLine
 10
-2.0
 20
0.0
 30
0.0
 11
-3.5527
 21
0.0
 31
0.0
  0
LINE
  5
361
330
358
100
AcDbEntity
  8
SLD-0
 62
     0
100
AcDbLine
 10
0.0
 20
-2.0
 30
0.0
 11
0.0
 21
-3.5527
 31
0.0
  0
LINE
  5
362
330
358
100
AcDbEntity
  8
SLD-0
 62
     0
100
AcDbLine
 10
2.0
 20
0.0
 30
0.0
 11
3.5527
 21
0.0
 31
0.0
  0
ENDBLK
  5
35A
330
358
100
AcDbEntity
  8
0
100
AcDbBlockEnd
  0
BLOCK
  5
365
330
364
100
AcDbEntity
  8
0
100
AcDbBlockBegin
  2
SW_CENTERMARKSYMBOL_25
 70
     0
 10
0.0
 20
0.0
 30
0.0
  3
SW_CENTERMARKSYMBOL_25
  1

  0
LINE
  5
367
330
364
100
AcDbEntity
  8
SLD-0
 62
     0
100
AcDbLine
 10
0.0
 20
0.0
 30
0.0
 11
0.0
 21
1.0
 31
0.0
  0
LINE
  5
368
330
364
100
AcDbEntity
  8
SLD-0
 62
     0
100
AcDbLine
 10
0.0
 20
0.0
 30
0.0
 11
-1.0
 21
0.0
 31
0.0
  0
LINE
  5
369
330
364
100
AcDbEntity
  8
SLD-0
 62
     0
100
AcDbLine
 10
0.0
 20
0.0
 30
0.0
 11
0.0
 21
-1.0
 31
0.0
  0
LINE
  5
36A
330
364
100
AcDbEntity
  8
SLD-0
 62
     0
100
AcDbLine
 10
0.0
 20
0.0
 30
0.0
 11
1.0
 21
0.0
 31
0.0
  0
LINE
  5
36B
330
364
100
AcDbEntity
  8
SLD-0
 62
     0
100
AcDbLine
 10
0.0
 20
2.0
 30
0.0
 11
0.0
 21
3.5527
 31
0.0
  0
LINE
  5
36C
330
364
100
AcDbEntity
  8
SLD-0
 62
     0
100
AcDbLine
 10
-2.0
 20
0.0
 30
0.0
 11
-3.5527
 21
0.0
 31
0.0
  0
LINE
  5
36D
330
364
100
AcDbEntity
  8
SLD-0
 62
     0
100
AcDbLine
 10
0.0
 20
-2.0
 30
0.0
 11
0.0
 21
-3.5527
 31
0.0
  0
LINE
  5
36E
330
364
100
AcDbEntity
  8
SLD-0
 62
     0
100
AcDbLine
 10
2.0
 20
0.0
 30
0.0
 11
3.5527
 21
0.0
 31
0.0
  0
ENDBLK
  5
366
330
364
100
AcDbEntity
  8
0
100
AcDbBlockEnd
  0
BLOCK
  5
371
330
370
100
AcDbEntity
  8
0
100
AcDbBlockBegin
  2
SW_CENTERMARKSYMBOL_26
 70
     0
 10
0.0
 20
0.0
 30
0.0
  3
SW_CENTERMARKSYMBOL_26
  1

  0
LINE
  5
373
330
370
100
AcDbEntity
  8
SLD-0
 62
     0
100
AcDbLine
 10
0.0
 20
0.0
 30
0.0
 11
0.0
 21
1.0
 31
0.0
  0
LINE
  5
374
330
370
100
AcDbEntity
  8
SLD-0
 62
     0
100
AcDbLine
 10
0.0
 20
0.0
 30
0.0
 11
-1.0
 21
0.0
 31
0.0
  0
LINE
  5
375
330
370
100
AcDbEntity
  8
SLD-0
 62
     0
100
AcDbLine
 10
0.0
 20
0.0
 30
0.0
 11
0.0
 21
-1.0
 31
0.0
  0
LINE
  5
376
330
370
100
AcDbEntity
  8
SLD-0
 62
     0
100
AcDbLine
 10
0.0
 20
0.0
 30
0.0
 11
1.0
 21
0.0
 31
0.0
  0
LINE
  5
377
330
370
100
AcDbEntity
  8
SLD-0
 62
     0
100
AcDbLine
 10
0.0
 20
2.0
 30
0.0
 11
0.0
 21
3.5527
 31
0.0
  0
LINE
  5
378
330
370
100
AcDbEntity
  8
SLD-0
 62
     0
100
AcDbLine
 10
-2.0
 20
0.0
 30
0.0
 11
-3.5527
 21
0.0
 31
0.0
  0
LINE
  5
379
330
370
100
AcDbEntity
  8
SLD-0
 62
     0
100
AcDbLine
 10
0.0
 20
-2.0
 30
0.0
 11
0.0
 21
-3.5527
 31
0.0
  0
LINE
  5
37A
330
370
100
AcDbEntity
  8
SLD-0
 62
     0
100
AcDbLine
 10
2.0
 20
0.0
 30
0.0
 11
3.5527
 21
0.0
 31
0.0
  0
ENDBLK
  5
372
330
370
100
AcDbEntity
  8
0
100
AcDbBlockEnd
  0
BLOCK
  5
37D
330
37C
100
AcDbEntity
  8
0
100
AcDbBlockBegin
  2
SW_CENTERMARKSYMBOL_27
 70
     0
 10
0.0
 20
0.0
 30
0.0
  3
SW_CENTERMARKSYMBOL_27
  1

  0
LINE
  5
37F
330
37C
100
AcDbEntity
  8
SLD-0
 62
     0
100
AcDbLine
 10
0.0
 20
0.0
 30
0.0
 11
0.0
 21
1.0
 31
0.0
  0
LINE
  5
380
330
37C
100
AcDbEntity
  8
SLD-0
 62
     0
100
AcDbLine
 10
0.0
 20
0.0
 30
0.0
 11
-1.0
 21
0.0
 31
0.0
  0
LINE
  5
381
330
37C
100
AcDbEntity
  8
SLD-0
 62
     0
100
AcDbLine
 10
0.0
 20
0.0
 30
0.0
 11
0.0
 21
-1.0
 31
0.0
  0
LINE
  5
382
330
37C
100
AcDbEntity
  8
SLD-0
 62
     0
100
AcDbLine
 10
0.0
 20
0.0
 30
0.0
 11
1.0
 21
0.0
 31
0.0
  0
LINE
  5
383
330
37C
100
AcDbEntity
  8
SLD-0
 62
     0
100
AcDbLine
 10
0.0
 20
2.0
 30
0.0
 11
0.0
 21
3.5527
 31
0.0
  0
LINE
  5
384
330
37C
100
AcDbEntity
  8
SLD-0
 62
     0
100
AcDbLine
 10
-2.0
 20
0.0
 30
0.0
 11
-3.5527
 21
0.0
 31
0.0
  0
LINE
  5
385
330
37C
100
AcDbEntity
  8
SLD-0
 62
     0
100
AcDbLine
 10
0.0
 20
-2.0
 30
0.0
 11
0.0
 21
-3.5527
 31
0.0
  0
LINE
  5
386
330
37C
100
AcDbEntity
  8
SLD-0
 62
     0
100
AcDbLine
 10
2.0
 20
0.0
 30
0.0
 11
3.5527
 21
0.0
 31
0.0
  0
ENDBLK
  5
37E
330
37C
100
AcDbEntity
  8
0
100
AcDbBlockEnd
  0
ENDSEC
  0
SECTION
  2
ENTITIES
  0
HATCH
  5
82
330
1F
100
AcDbEntity
  8
0
  6
Continuous
 62
     7
100
AcDbHatch
 10
0.0
 20
0.0
 30
0.0
210
0.0
220
0.0
230
1.0
  2
SOLID
 70
     1
 71
     0
 91
        1
 92
        0
 93
       10
 72
     2
 10
480.3514914073417
 20
89.3895220247214
 40
7.474091644424647
 50
50.39692260731395
 51
112.8514693252979
 73
     0
 72
     2
 10
479.53751490703
 20
88.59749570015511
 40
6.443338567044046
 50
108.9134333432862
 51
219.5668234386827
 73
     0
 72
     1
 10
474.5704598474009
 20
92.70175884037526
 11
472.0324752288947
 21
94.94058859241966
 72
     1
 10
472.0324752288947
 20
94.94058859241966
 11
468.7659045916906
 21
91.7866209011509
 72
     2
 10
471.2356169965973
 20
88.86530281931115
 40
3.825386084859154
 50
130.2115225915094
 51
228.5889041080181
 73
     1
 72
     1
 10
468.7052881366275
 20
85.99632834074944
 11
478.7282939121165
 21
77.28481874006276
 72
     1
 10
478.7282939121165
 20
77.28481874006276
 11
477.1506641110787
 21
75.74506776388517
 72
     1
 10
477.1506641110787
 20
75.74506776388517
 11
479.6303625228926
 21
73.6101320965006
 72
     1
 10
479.6303625228926
 20
73.6101320965006
 11
487.6545236088058
 21
81.40157701028932
 72
     1
 10
487.6545236088058
 20
81.40157701028932
 11
485.1159660296603
 21
83.63089132962207
 97
        0
 75
     0
 76
     1
 98
        1
 10
0.0
 20
0.0
  0
HATCH
  5
83
330
1F
100
AcDbEntity
  8
0
  6
Continuous
 62
     1
100
AcDbHatch
 10
0.0
 20
0.0
 30
0.0
210
0.0
220
0.0
230
1.0
  2
SOLID
 70
     1
 71
     0
 91
        1
 92
        0
 93
       10
 72
     2
 10
481.4731139069222
 20
89.15767289079024
 40
6.443918720865625
 50
317.818499299578
 51
398.0564711573081
 73
     0
 72
     1
 10
486.5470785145408
 20
85.18539751743617
 11
489.0107007469978
 21
83.03865516771245
 72
     1
 10
489.0107007469978
 20
83.03865516771245
 11
492.1149040339822
 21
86.04973752373047
 72
     2
 10
489.881423219827
 20
89.11960435328278
 40
3.796382343545663
 50
306.0377529468132
 51
403.4396461533873
 73
     1
 72
     1
 10
492.6379728815077
 20
91.72995928337816
 11
482.3210832356494
 21
100.702899954963
 72
     1
 10
482.3210832356494
 20
100.702899954963
 11
483.8817114904676
 21
102.2255460320564
 72
     1
 10
483.8817114904676
 20
102.2255460320564
 11
481.5554452150075
 21
104.3010265816676
 72
     1
 10
481.5554452150075
 20
104.3010265816676
 11
473.4664815939828
 21
96.48372596513244
 72
     1
 10
473.4664815939828
 20
96.48372596513244
 11
476.0225012873543
 21
94.25424964733045
 72
     2
 10
480.678973180111
 20
87.80561837709479
 40
7.95409176131969
 50
234.1674444878512
 51
314.4407074583989
 73
     0
 97
        0
 75
     0
 76
     1
 98
        1
 10
0.0
 20
0.0
  0
LINE
  5
84
330
1F
100
AcDbEntity
  8
0
  6
Continuous
 62
     7
370
     0
100
AcDbLine
 10
419.6484437962
 20
44.4362981281
 30
0.0
 11
422.1484437962
 21
44.4362981281
 31
0.0
  0
LINE
  5
85
330
1F
100
AcDbEntity
  8
0
  6
Continuous
 62
     7
370
     0
100
AcDbLine
 10
412.1484437962
 20
44.4362981281
 30
0.0
 11
418.3984437962
 21
44.4362981281
 31
0.0
  0
LINE
  5
86
330
1F
100
AcDbEntity
  8
0
  6
Continuous
 62
     7
370
     0
100
AcDbLine
 10
453.3984437962
 20
38.1862981281
 30
0.0
 11
453.3984437962
 21
50.6862981281
 31
0.0
  0
LINE
  5
87
330
1F
100
AcDbEntity
  8
0
  6
Continuous
 62
     7
370
     0
100
AcDbLine
 10
435.8984437962
 20
40.6862981281
 30
0.0
 11
453.3984437962
 21
38.1862981281
 31
0.0
  0
LINE
  5
88
330
1F
100
AcDbEntity
  8
0
  6
Continuous
 62
     7
370
     0
100
AcDbLine
 10
420.8984437962
 20
41.9362981281
 30
0.0
 11
420.8984437962
 21
35.6862981281
 31
0.0
  0
LINE
  5
89
330
1F
100
AcDbEntity
  8
0
  6
Continuous
 62
     7
370
     0
100
AcDbLine
 10
453.3984437962
 20
50.6862981281
 30
0.0
 11
435.8984437962
 21
48.1862981281
 31
0.0
  0
LINE
  5
8A
330
1F
100
AcDbEntity
  8
0
  6
Continuous
 62
     7
370
     0
100
AcDbLine
 10
433.3984437962
 20
44.4362981281
 30
0.0
 11
455.8984437962
 21
44.4362981281
 31
0.0
  0
LINE
  5
8B
330
1F
100
AcDbEntity
  8
0
  6
Continuous
 62
     7
370
     0
100
AcDbLine
 10
420.8984437962
 20
45.6862981281
 30
0.0
 11
420.8984437962
 21
43.1862981281
 31
0.0
  0
LINE
  5
8C
330
1F
100
AcDbEntity
  8
0
  6
Continuous
 62
     7
370
     0
100
AcDbLine
 10
423.3984437962
 20
44.4362981281
 30
0.0
 11
429.6484437962
 21
44.4362981281
 31
0.0
  0
LINE
  5
8D
330
1F
100
AcDbEntity
  8
0
  6
Continuous
 62
     7
370
     0
100
AcDbLine
 10
420.8984437962
 20
53.1862981281
 30
0.0
 11
420.8984437962
 21
46.9362981281
 31
0.0
  0
LINE
  5
8E
330
1F
100
AcDbEntity
  8
0
  6
Continuous
 62
     7
370
     0
100
AcDbLine
 10
435.8984437962
 20
48.1862981281
 30
0.0
 11
435.8984437962
 21
40.6862981281
 31
0.0
  0
LINE
  5
8F
330
1F
100
AcDbEntity
  8
工作區域參考線
 62
     1
370
    30
100
AcDbLine
 10
476.0225012874
 20
94.2542496473
 30
0.0
 11
473.466481594
 21
96.4837259651
 31
0.0
  0
LINE
  5
90
330
1F
100
AcDbEntity
  8
工作區域參考線
 62
     1
370
    30
100
AcDbLine
 10
473.466481594
 20
96.4837259651
 30
0.0
 11
481.555445215
 21
104.3010265817
 31
0.0
  0
LINE
  5
91
330
1F
100
AcDbEntity
  8
工作區域參考線
 62
     1
370
    30
100
AcDbLine
 10
481.555445215
 20
104.3010265817
 30
0.0
 11
483.8817114905
 21
102.2255460321
 31
0.0
  0
LINE
  5
92
330
1F
100
AcDbEntity
  8
工作區域參考線
 62
     1
370
    30
100
AcDbLine
 10
483.8817114905
 20
102.2255460321
 30
0.0
 11
482.3210832356
 21
100.702899955
 31
0.0
  0
LINE
  5
93
330
1F
100
AcDbEntity
  8
工作區域參考線
 62
     1
370
    30
100
AcDbLine
 10
482.3210832356
 20
100.702899955
 30
0.0
 11
492.6379728815
 21
91.7299592834
 31
0.0
  0
LINE
  5
94
330
1F
100
AcDbEntity
  8
工作區域參考線
 62
     1
370
    30
100
AcDbLine
 10
486.5470785145
 20
85.1853975174
 30
0.0
 11
489.010700747
 21
83.0386551677
 31
0.0
  0
LINE
  5
95
330
1F
100
AcDbEntity
  8
工作區域參考線
 62
     1
370
    30
100
AcDbLine
 10
489.010700747
 20
83.0386551677
 30
0.0
 11
492.114904034
 21
86.0497375237
 31
0.0
  0
LINE
  5
96
330
1F
100
AcDbEntity
  8
0
  6
Continuous
 62
     7
370
     0
100
AcDbLine
 10
464.2269913023
 20
32.7881160198
 30
0.0
 11
714.2269913023
 21
32.7881160198
 31
0.0
  0
LINE
  5
97
330
1F
100
AcDbEntity
  8
0
  6
Continuous
 62
     7
370
     0
100
AcDbLine
 10
464.2269913023
 20
45.2881160198
 30
0.0
 11
589.2269913023
 21
45.2881160198
 31
0.0
  0
LINE
  5
98
330
1F
100
AcDbEntity
  8
0
  6
Continuous
 62
     7
370
     0
100
AcDbLine
 10
464.2269913023
 20
57.7881160198
 30
0.0
 11
589.2269913023
 21
57.7881160198
 31
0.0
  0
LINE
  5
99
330
1F
100
AcDbEntity
  8
0
  6
Continuous
 62
     7
370
     0
100
AcDbLine
 10
464.2269913023
 20
70.2881160198
 30
0.0
 11
714.2269913023
 21
70.2881160198
 31
0.0
  0
LINE
  5
9A
330
1F
100
AcDbEntity
  8
0
  6
Continuous
 62
     7
370
     0
100
AcDbLine
 10
589.2269913023
 20
82.7881160198
 30
0.0
 11
714.2269913023
 21
82.7881160198
 31
0.0
  0
LINE
  5
9B
330
1F
100
AcDbEntity
  8
0
  6
Continuous
 62
     7
370
    15
100
AcDbLine
 10
589.2269913023
 20
45.2881160198
 30
0.0
 11
714.2269913023
 21
45.2881160198
 31
0.0
  0
LINE
  5
9C
330
1F
100
AcDbEntity
  8
0
  6
Continuous
 62
     7
370
     0
100
AcDbLine
 10
464.2269913023
 20
107.7881160198
 30
0.0
 11
714.2269913023
 21
107.7881160198
 31
0.0
  0
LINE
  5
9D
330
1F
100
AcDbEntity
  8
0
  6
Continuous
 62
     7
370
     0
100
AcDbLine
 10
628.0930441876
 20
20.2881160198
 30
0.0
 11
628.0930441876
 21
45.2881160198
 31
0.0
  0
LINE
  5
9E
330
1F
100
AcDbEntity
  8
0
  6
Continuous
 62
     7
370
     0
100
AcDbLine
 10
589.2269913023
 20
20.2881160198
 30
0.0
 11
589.2269913023
 21
107.7881160198
 31
0.0
  0
LINE
  5
9F
330
1F
100
AcDbEntity
  8
0
  6
Continuous
 62
     7
370
     0
100
AcDbLine
 10
628.0930441876
 20
70.2881160198
 30
0.0
 11
628.0930441876
 21
82.7881160198
 31
0.0
  0
LINE
  5
A0
330
1F
100
AcDbEntity
  8
0
  6
Continuous
 62
     7
370
     0
100
AcDbLine
 10
536.0410215883
 20
20.2881160198
 30
0.0
 11
536.0410215883
 21
70.2881160198
 31
0.0
  0
LINE
  5
A1
330
1F
100
AcDbEntity
  8
0
  6
Continuous
 62
     7
370
     0
100
AcDbLine
 10
499.4464718764
 20
20.2881160198
 30
0.0
 11
499.4464718764
 21
70.2881160198
 31
0.0
  0
LINE
  5
A2
330
1F
100
AcDbEntity
  8
0
  6
Continuous
 62
     7
370
     0
100
AcDbLine
 10
464.2269913023
 20
20.2881160198
 30
0.0
 11
464.2269913023
 21
107.7881160198
 31
0.0
  0
LINE
  5
A3
330
1F
100
AcDbEntity
  8
0
  6
Continuous
 62
     7
370
    15
100
AcDbLine
 10
21.7269913023
 20
261.8590924787
 30
0.0
 11
36.7269913023
 21
261.8590924787
 31
0.0
  0
LINE
  5
A4
330
1F
100
AcDbEntity
  8
0
  6
Continuous
 62
     7
370
    15
100
AcDbLine
 10
714.2269913023
 20
261.8590924787
 30
0.0
 11
699.2269913023
 21
261.8590924787
 31
0.0
  0
LINE
  5
A5
330
1F
100
AcDbEntity
  8
0
  6
Continuous
 62
     7
370
    15
100
AcDbLine
 10
367.9769913023
 20
20.2881160198
 30
0.0
 11
367.9769913023
 21
35.2881160198
 31
0.0
  0
LINE
  5
A6
330
1F
100
AcDbEntity
  8
0
  6
Continuous
 62
     7
370
    15
100
AcDbLine
 10
367.9769913023
 20
503.4300689377
 30
0.0
 11
367.9769913023
 21
488.4300689377
 31
0.0
  0
LINE
  5
A7
330
1F
100
AcDbEntity
  8
0
  6
Continuous
 62
     7
370
    15
100
AcDbLine
 10
108.3019913023
 20
503.4300689377
 30
0.0
 11
108.3019913023
 21
507.1800689377
 31
0.0
  0
LINE
  5
A8
330
1F
100
AcDbEntity
  8
0
  6
Continuous
 62
     7
370
    15
100
AcDbLine
 10
194.8769913023
 20
503.4300689377
 30
0.0
 11
194.8769913023
 21
507.1800689377
 31
0.0
  0
LINE
  5
A9
330
1F
100
AcDbEntity
  8
0
  6
Continuous
 62
     7
370
    15
100
AcDbLine
 10
281.4519913023
 20
503.4300689377
 30
0.0
 11
281.4519913023
 21
507.1800689377
 31
0.0
  0
LINE
  5
AA
330
1F
100
AcDbEntity
  8
0
  6
Continuous
 62
     7
370
    15
100
AcDbLine
 10
368.0269913023
 20
503.4300689377
 30
0.0
 11
368.0269913023
 21
507.1800689377
 31
0.0
  0
LINE
  5
AB
330
1F
100
AcDbEntity
  8
0
  6
Continuous
 62
     7
370
    15
100
AcDbLine
 10
454.6019913023
 20
503.4300689377
 30
0.0
 11
454.6019913023
 21
507.1800689377
 31
0.0
  0
LINE
  5
AC
330
1F
100
AcDbEntity
  8
0
  6
Continuous
 62
     7
370
    15
100
AcDbLine
 10
541.1769913023
 20
503.4300689377
 30
0.0
 11
541.1769913023
 21
507.1800689377
 31
0.0
  0
LINE
  5
AD
330
1F
100
AcDbEntity
  8
0
  6
Continuous
 62
     7
370
    15
100
AcDbLine
 10
627.7519913023
 20
503.4300689377
 30
0.0
 11
627.7519913023
 21
507.1800689377
 31
0.0
  0
LINE
  5
AE
330
1F
100
AcDbEntity
  8
0
  6
Continuous
 62
     7
370
    15
100
AcDbLine
 10
108.2894913023
 20
20.2881160198
 30
0.0
 11
108.2894913023
 21
16.5381160198
 31
0.0
  0
LINE
  5
AF
330
1F
100
AcDbEntity
  8
0
  6
Continuous
 62
     7
370
    15
100
AcDbLine
 10
194.8519913023
 20
20.2881160198
 30
0.0
 11
194.8519913023
 21
16.5381160198
 31
0.0
  0
LINE
  5
B0
330
1F
100
AcDbEntity
  8
0
  6
Continuous
 62
     7
370
    15
100
AcDbLine
 10
281.4144913023
 20
20.2881160198
 30
0.0
 11
281.4144913023
 21
16.5381160198
 31
0.0
  0
LINE
  5
B1
330
1F
100
AcDbEntity
  8
0
  6
Continuous
 62
     7
370
    15
100
AcDbLine
 10
367.9769913023
 20
20.2881160198
 30
0.0
 11
367.9769913023
 21
16.5381160198
 31
0.0
  0
LINE
  5
B2
330
1F
100
AcDbEntity
  8
0
  6
Continuous
 62
     7
370
    15
100
AcDbLine
 10
454.5394913023
 20
20.2881160198
 30
0.0
 11
454.5394913023
 21
16.5381160198
 31
0.0
  0
LINE
  5
B3
330
1F
100
AcDbEntity
  8
0
  6
Continuous
 62
     7
370
    15
100
AcDbLine
 10
541.1019913023
 20
20.2881160198
 30
0.0
 11
541.1019913023
 21
16.5381160198
 31
0.0
  0
LINE
  5
B4
330
1F
100
AcDbEntity
  8
0
  6
Continuous
 62
     7
370
     0
100
AcDbLine
 10
714.2269913023
 20
503.4300689377
 30
0.0
 11
21.7269913023
 21
503.4300689377
 31
0.0
  0
LINE
  5
B5
330
1F
100
AcDbEntity
  8
0
  6
Continuous
 62
     7
370
     0
100
AcDbLine
 10
714.2269913023
 20
20.2881160198
 30
0.0
 11
714.2269913023
 21
503.4300689377
 31
0.0
  0
LINE
  5
B6
330
1F
100
AcDbEntity
  8
0
  6
Continuous
 62
     7
370
     0
100
AcDbLine
 10
21.7269913023
 20
503.4300689377
 30
0.0
 11
21.7269913023
 21
20.2881160198
 31
0.0
  0
LINE
  5
B7
330
1F
100
AcDbEntity
  8
0
  6
Continuous
 62
     7
370
     0
100
AcDbLine
 10
21.7269913023
 20
20.2881160198
 30
0.0
 11
714.2269913023
 21
20.2881160198
 31
0.0
  0
LINE
  5
B8
330
1F
100
AcDbEntity
  8
0
  6
Continuous
 62
     7
370
    15
100
AcDbLine
 10
627.6644913023
 20
20.2881160198
 30
0.0
 11
627.6644913023
 21
16.5381160198
 31
0.0
  0
LINE
  5
B9
330
1F
100
AcDbEntity
  8
0
  6
Continuous
 62
     7
370
    15
100
AcDbLine
 10
21.7269913023
 20
100.8131160198
 30
0.0
 11
17.9769913023
 21
100.8131160198
 31
0.0
  0
LINE
  5
BA
330
1F
100
AcDbEntity
  8
0
  6
Continuous
 62
     7
370
    15
100
AcDbLine
 10
21.7269913023
 20
181.3381160198
 30
0.0
 11
17.9769913023
 21
181.3381160198
 31
0.0
  0
LINE
  5
BB
330
1F
100
AcDbEntity
  8
0
  6
Continuous
 62
     7
370
    15
100
AcDbLine
 10
21.7269913023
 20
261.8631160198
 30
0.0
 11
17.9769913023
 21
261.8631160198
 31
0.0
  0
LINE
  5
BC
330
1F
100
AcDbEntity
  8
0
  6
Continuous
 62
     7
370
    15
100
AcDbLine
 10
21.7269913023
 20
342.3881160198
 30
0.0
 11
17.9769913023
 21
342.3881160198
 31
0.0
  0
LINE
  5
BD
330
1F
100
AcDbEntity
  8
0
  6
Continuous
 62
     7
370
    15
100
AcDbLine
 10
21.7269913023
 20
422.9131160198
 30
0.0
 11
17.9769913023
 21
422.9131160198
 31
0.0
  0
LINE
  5
BE
330
1F
100
AcDbEntity
  8
0
  6
Continuous
 62
     7
370
    15
100
AcDbLine
 10
714.2269913023
 20
100.8131160198
 30
0.0
 11
717.9769913023
 21
100.8131160198
 31
0.0
  0
LINE
  5
BF
330
1F
100
AcDbEntity
  8
0
  6
Continuous
 62
     7
370
    15
100
AcDbLine
 10
714.2269913023
 20
181.3381160198
 30
0.0
 11
717.9769913023
 21
181.3381160198
 31
0.0
  0
LINE
  5
C0
330
1F
100
AcDbEntity
  8
0
  6
Continuous
 62
     7
370
    15
100
AcDbLine
 10
714.2269913023
 20
261.8631160198
 30
0.0
 11
717.9769913023
 21
261.8631160198
 31
0.0
  0
LINE
  5
C1
330
1F
100
AcDbEntity
  8
0
  6
Continuous
 62
     7
370
    15
100
AcDbLine
 10
714.2269913023
 20
342.3881160198
 30
0.0
 11
717.9769913023
 21
342.3881160198
 31
0.0
  0
LINE
  5
C2
330
1F
100
AcDbEntity
  8
0
  6
Continuous
 62
     7
370
    15
100
AcDbLine
 10
714.2269913023
 20
422.9131160198
 30
0.0
 11
717.9769913023
 21
422.9131160198
 31
0.0
  0
CIRCLE
  5
C3
330
1F
100
AcDbEntity
  8
0
  6
Continuous
 62
     7
370
     0
100
AcDbCircle
 10
420.8984437962
 20
44.4362981281
 30
0.0
 40
3.750000000000057
  0
CIRCLE
  5
C4
330
1F
100
AcDbEntity
  8
0
  6
Continuous
 62
     7
370
     0
100
AcDbCircle
 10
420.8984437962
 20
44.4362981281
 30
0.0
 40
6.250000000000057
  0
ARC
  5
C5
330
1F
100
AcDbEntity
  8
工作區域參考線
 62
     1
370
    30
100
AcDbCircle
 10
489.8814232198
 20
89.1196043533
 30
0.0
 40
3.7963823435457
100
AcDbArc
 50
306.0377529468
 51
43.4396461534
  0
ARC
  5
C6
330
1F
100
AcDbEntity
  8
工作區域參考線
 62
     1
370
    30
100
AcDbCircle
 10
480.6789731801
 20
87.8056183771
 30
0.0
 40
7.954091761319693
100
AcDbArc
 50
45.5592925416
 51
125.8325555121
  0
ARC
  5
C7
330
1F
100
AcDbEntity
  8
工作區域參考線
 62
     1
370
    30
100
AcDbCircle
 10
481.4731139069
 20
89.1576728908
 30
0.0
 40
6.443918720865634
100
AcDbArc
 50
321.9435288427
 51
42.1815007004
  0
INSERT
  5
C8
330
1F
100
AcDbEntity
  8
0
  6
Continuous
 62
     7
100
AcDbBlockReference
  2
圖塊6
 10
467.4102309117
 20
73.6101320965
 30
0.0
  0
MTEXT
  5
CA
330
1F
100
AcDbEntity
  8
0
  6
Continuous
 62
     7
370
     0
100
AcDbMText
 10
413.8567127011
 20
33.0521100923
 30
0.0
 40
6.6145833333
 41
0.0
 71
     1
 72
     1
  1
UNIT:m/m
  7
SLDTEXTSTYLE0
 73
     1
 44
1.0
  0
INSERT
  5
D1
330
1F
100
AcDbEntity
  8
0
  6
Continuous
 62
     7
370
     0
100
AcDbBlockReference
  2
SW_NOTE_0
 10
30.5787690133
 20
484.7260760628
 30
0.0
  0
MTEXT
  5
D3
330
1F
100
AcDbEntity
  8
0
  6
Continuous
 62
     7
370
     0
100
AcDbMText
 10
496.8129734837
 20
101.1016935347
 30
0.0
 40
5.953125
 41
0.0
 71
     1
 72
     1
  1
Unice E-O Services Inc.
  7
SLDTEXTSTYLE1
 73
     1
 44
1.0
  0
MTEXT
  5
D4
330
1F
100
AcDbEntity
  8
0
  6
Continuous
 62
     7
370
     0
100
AcDbMText
 10
547.8509569918
 20
53.9667871277
 30
0.0
 40
4.6302083333
 41
0.0
 71
     1
 72
     1
  1
2010/12/30
  7
SLDTEXTSTYLE0
 73
     1
 44
1.0
  0
MTEXT
  5
D5
330
1F
100
AcDbEntity
  8
0
  6
Continuous
 62
     7
370
     0
100
AcDbMText
 10
631.5222456267
 20
42.1779443499
 30
0.0
 40
6.25
 41
0.0
 71
     1
 72
     1
  1
1:2.5
  7
SLDTEXTSTYLE0
 73
     1
 44
1.0
  0
MTEXT
  5
D6
330
1F
100
AcDbEntity
  8
0
  6
Continuous
 62
     7
370
     0
100
AcDbMText
 10
630.7688999962
 20
80.3797988594
 30
0.0
 40
6.25
 41
0.0
 71
     1
 72
     1
  1
07UMP-1
  7
SLDTEXTSTYLE0
 73
     1
 44
1.0
  0
MTEXT
  5
D7
330
1F
100
AcDbEntity
  8
0
  6
Continuous
 62
     7
370
     0
100
AcDbMText
 10
630.7688999962
 20
95.2705294697
 30
0.0
 40
6.25
 41
0.0
 71
     1
 72
     1
  1
07UMP-1
  7
SLDTEXTSTYLE0
 73
     1
 44
1.0
  0
MTEXT
  5
D8
330
1F
100
AcDbEntity
  8
0
  6
Continuous
 62
     7
370
     0
100
AcDbMText
 10
590.9804666966
 20
41.2661989321
 30
0.0
 40
5.2916666667
 41
0.0
 71
     1
 72
     1
  1
SCALE:
  7
SLDTEXTSTYLE0
 73
     1
 44
1.0
  0
MTEXT
  5
D9
330
1F
100
AcDbEntity
  8
0
  6
Continuous
 62
     7
370
     0
100
AcDbMText
 10
465.8340216973
 20
53.9667871277
 30
0.0
 40
4.6302083333
 41
0.0
 71
     1
 72
     1
  1
DRAWN
  7
SLDTEXTSTYLE0
 73
     1
 44
1.0
  0
MTEXT
  5
DA
330
1F
100
AcDbEntity
  8
0
  6
Continuous
 62
     7
370
     0
100
AcDbMText
 10
508.0570919842
 20
66.70802077
 30
0.0
 40
4.6302083333
 41
0.0
 71
     1
 72
     1
  1
NAME
  7
SLDTEXTSTYLE0
 73
     1
 44
1.0
  0
MTEXT
  5
DB
330
1F
100
AcDbEntity
  8
0
  6
Continuous
 62
     7
370
     0
100
AcDbMText
 10
552.1775389394
 20
66.70802077
 30
0.0
 40
4.6302083333
 41
0.0
 71
     1
 72
     1
  1
DATE
  7
SLDTEXTSTYLE0
 73
     1
 44
1.0
  0
MTEXT
  5
DC
330
1F
100
AcDbEntity
  8
0
  6
Continuous
 62
     7
370
     0
100
AcDbMText
 10
590.6890791613
 20
79.4680534415
 30
0.0
 40
5.2916666667
 41
0.0
 71
     1
 72
     1
  1
DWG. NO.
  7
SLDTEXTSTYLE0
 73
     1
 44
1.0
  0
MTEXT
  5
DD
330
1F
100
AcDbEntity
  8
0
  6
Continuous
 62
     7
370
     0
100
AcDbMText
 10
590.9074767721
 20
104.7101645608
 30
0.0
 40
5.2916666667
 41
0.0
 71
     1
 72
     1
  1
TITLE:
  7
SLDTEXTSTYLE0
 73
     1
 44
1.0
  0
INSERT
  5
E4
330
1F
100
AcDbEntity
  8
0
  6
Continuous
 62
     7
370
     0
100
AcDbBlockReference
  2
SW_NOTE_1
 10
496.8129734837
 20
81.3393648844
 30
0.0
  0
MTEXT
  5
E5
330
1F
100
AcDbEntity
  8
0
  6
Continuous
 62
     7
370
     0
100
AcDbMText
 10
507.5785524505
 20
40.600947431
 30
0.0
 40
4.6302083333
 41
0.0
 71
     1
 72
     1
  1
Johnny
  7
SLDTEXTSTYLE0
 73
     1
 44
1.0
  0
MTEXT
  5
E6
330
1F
100
AcDbEntity
  8
0
  6
Continuous
 62
     7
370
     0
100
AcDbMText
 10
465.8340216973
 20
40.600947431
 30
0.0
 40
4.6302083333
 41
0.0
 71
     1
 72
     1
  1
ENG APPR.
  7
SLDTEXTSTYLE0
 73
     1
 44
1.0
  0
MTEXT
  5
E7
330
1F
100
AcDbEntity
  8
0
  6
Continuous
 62
     7
370
     0
100
AcDbMText
 10
590.9804666966
 20
29.2133473219
 30
0.0
 40
5.2916666667
 41
0.0
 71
     1
 72
     1
  1
REV
  7
SLDTEXTSTYLE0
 73
     1
 44
1.0
  0
MTEXT
  5
E8
330
1F
100
AcDbEntity
  8
0
  6
Continuous
 62
     7
370
     0
100
AcDbMText
 10
590.9074767721
 20
67.3732722711
 30
0.0
 40
5.2916666667
 41
0.0
 71
     1
 72
     1
  1
MATERIAL:
  7
SLDTEXTSTYLE0
 73
     1
 44
1.0
  0
MTEXT
  5
E9
330
1F
100
AcDbEntity
  8
0
  6
Continuous
 62
     7
370
     0
100
AcDbMText
 10
631.5222456267
 20
55.5437840467
 30
0.0
 40
6.25
 41
0.0
 71
     1
 72
     1
  1
N/A
  7
SLDTEXTSTYLE0
 73
     1
 44
1.0
  0
MTEXT
  5
EA
330
1F
100
AcDbEntity
  8
0
  6
Continuous
 62
     7
370
     0
100
AcDbMText
 10
66.5074828833
 20
511.1333791424
 30
0.0
 40
5.2916666667
 41
0.0
 71
     1
 72
     1
  1
1
  7
SLDTEXTSTYLE0
 73
     1
 44
1.0
  0
MTEXT
  5
EB
330
1F
100
AcDbEntity
  8
0
  6
Continuous
 62
     7
370
     0
100
AcDbMText
 10
151.792748931
 20
511.1333791424
 30
0.0
 40
5.2916666667
 41
0.0
 71
     1
 72
     1
  1
2
  7
SLDTEXTSTYLE0
 73
     1
 44
1.0
  0
MTEXT
  5
EC
330
1F
100
AcDbEntity
  8
0
  6
Continuous
 62
     7
370
     0
100
AcDbMText
 10
237.2524859765
 20
511.1333791424
 30
0.0
 40
5.2916666667
 41
0.0
 71
     1
 72
     1
  1
3
  7
SLDTEXTSTYLE0
 73
     1
 44
1.0
  0
MTEXT
  5
ED
330
1F
100
AcDbEntity
  8
0
  6
Continuous
 62
     7
370
     0
100
AcDbMText
 10
323.1333407128
 20
510.7481460911
 30
0.0
 40
5.2916666667
 41
0.0
 71
     1
 72
     1
  1
4
  7
SLDTEXTSTYLE0
 73
     1
 44
1.0
  0
MTEXT
  5
EE
330
1F
100
AcDbEntity
  8
0
  6
Continuous
 62
     7
370
     0
100
AcDbMText
 10
409.2558086599
 20
511.1333791424
 30
0.0
 40
5.2916666667
 41
0.0
 71
     1
 72
     1
  1
5
  7
SLDTEXTSTYLE0
 73
     1
 44
1.0
  0
MTEXT
  5
EF
330
1F
100
AcDbEntity
  8
0
  6
Continuous
 62
     7
370
     0
100
AcDbMText
 10
496.5955426038
 20
511.1333791424
 30
0.0
 40
5.2916666667
 41
0.0
 71
     1
 72
     1
  1
6
  7
SLDTEXTSTYLE0
 73
     1
 44
1.0
  0
MTEXT
  5
F0
330
1F
100
AcDbEntity
  8
0
  6
Continuous
 62
     7
370
     0
100
AcDbMText
 10
585.9076643516
 20
511.1333791424
 30
0.0
 40
5.2916666667
 41
0.0
 71
     1
 72
     1
  1
7
  7
SLDTEXTSTYLE0
 73
     1
 44
1.0
  0
MTEXT
  5
F1
330
1F
100
AcDbEntity
  8
0
  6
Continuous
 62
     7
370
     0
100
AcDbMText
 10
665.6969551234
 20
511.1333791424
 30
0.0
 40
5.2916666667
 41
0.0
 71
     1
 72
     1
  1
8
  7
SLDTEXTSTYLE0
 73
     1
 44
1.0
  0
MTEXT
  5
F2
330
1F
100
AcDbEntity
  8
0
  6
Continuous
 62
     7
370
     0
100
AcDbMText
 10
13.3920591386
 20
464.5282557198
 30
0.0
 40
5.2916666667
 41
0.0
 71
     1
 72
     1
  1
A
  7
SLDTEXTSTYLE0
 73
     1
 44
1.0
  0
MTEXT
  5
F3
330
1F
100
AcDbEntity
  8
0
  6
Continuous
 62
     7
370
     0
100
AcDbMText
 10
13.9776079578
 20
385.7482620595
 30
0.0
 40
5.2916666667
 41
0.0
 71
     1
 72
     1
  1
B
  7
SLDTEXTSTYLE0
 73
     1
 44
1.0
  0
MTEXT
  5
F4
330
1F
100
AcDbEntity
  8
0
  6
Continuous
 62
     7
370
     0
100
AcDbMText
 10
13.9776079578
 20
303.1858785575
 30
0.0
 40
5.2916666667
 41
0.0
 71
     1
 72
     1
  1
C
  7
SLDTEXTSTYLE0
 73
     1
 44
1.0
  0
MTEXT
  5
F5
330
1F
100
AcDbEntity
  8
0
  6
Continuous
 62
     7
370
     0
100
AcDbMText
 10
13.9776079578
 20
221.8633050552
 30
0.0
 40
5.2916666667
 41
0.0
 71
     1
 72
     1
  1
D
  7
SLDTEXTSTYLE0
 73
     1
 44
1.0
  0
MTEXT
  5
F6
330
1F
100
AcDbEntity
  8
0
  6
Continuous
 62
     7
370
     0
100
AcDbMText
 10
13.9776079578
 20
143.8897122993
 30
0.0
 40
5.2916666667
 41
0.0
 71
     1
 72
     1
  1
E
  7
SLDTEXTSTYLE0
 73
     1
 44
1.0
  0
MTEXT
  5
F7
330
1F
100
AcDbEntity
  8
0
  6
Continuous
 62
     7
370
     0
100
AcDbMText
 10
13.9776079578
 20
63.923553063
 30
0.0
 40
5.2916666667
 41
0.0
 71
     1
 72
     1
  1
F
  7
SLDTEXTSTYLE0
 73
     1
 44
1.0
  0
MTEXT
  5
F8
330
1F
100
AcDbEntity
  8
0
  6
Continuous
 62
     7
370
     0
100
AcDbMText
 10
665.4646542409
 20
16.5590559908
 30
0.0
 40
5.2916666667
 41
0.0
 71
     1
 72
     1
  1
8
  7
SLDTEXTSTYLE0
 73
     1
 44
1.0
  0
MTEXT
  5
F9
330
1F
100
AcDbEntity
  8
0
  6
Continuous
 62
     7
370
     0
100
AcDbMText
 10
585.6753634691
 20
16.5590559908
 30
0.0
 40
5.2916666667
 41
0.0
 71
     1
 72
     1
  1
7
  7
SLDTEXTSTYLE0
 73
     1
 44
1.0
  0
MTEXT
  5
FA
330
1F
100
AcDbEntity
  8
0
  6
Continuous
 62
     7
370
     0
100
AcDbMText
 10
496.3632417212
 20
16.5590559908
 30
0.0
 40
5.2916666667
 41
0.0
 71
     1
 72
     1
  1
6
  7
SLDTEXTSTYLE0
 73
     1
 44
1.0
  0
MTEXT
  5
FB
330
1F
100
AcDbEntity
  8
0
  6
Continuous
 62
     7
370
     0
100
AcDbMText
 10
409.0235077774
 20
16.5590559908
 30
0.0
 40
5.2916666667
 41
0.0
 71
     1
 72
     1
  1
5
  7
SLDTEXTSTYLE0
 73
     1
 44
1.0
  0
MTEXT
  5
FC
330
1F
100
AcDbEntity
  8
0
  6
Continuous
 62
     7
370
     0
100
AcDbMText
 10
322.9010398302
 20
16.1738229395
 30
0.0
 40
5.2916666667
 41
0.0
 71
     1
 72
     1
  1
4
  7
SLDTEXTSTYLE0
 73
     1
 44
1.0
  0
MTEXT
  5
FD
330
1F
100
AcDbEntity
  8
0
  6
Continuous
 62
     7
370
     0
100
AcDbMText
 10
237.020185094
 20
16.5590559908
 30
0.0
 40
5.2916666667
 41
0.0
 71
     1
 72
     1
  1
3
  7
SLDTEXTSTYLE0
 73
     1
 44
1.0
  0
MTEXT
  5
FE
330
1F
100
AcDbEntity
  8
0
  6
Continuous
 62
     7
370
     0
100
AcDbMText
 10
151.5604480484
 20
16.5590559908
 30
0.0
 40
5.2916666667
 41
0.0
 71
     1
 72
     1
  1
2
  7
SLDTEXTSTYLE0
 73
     1
 44
1.0
  0
MTEXT
  5
FF
330
1F
100
AcDbEntity
  8
0
  6
Continuous
 62
     7
370
     0
100
AcDbMText
 10
66.2751820007
 20
16.5590559908
 30
0.0
 40
5.2916666667
 41
0.0
 71
     1
 72
     1
  1
1
  7
SLDTEXTSTYLE0
 73
     1
 44
1.0
  0
MTEXT
  5
100
330
1F
100
AcDbEntity
  8
0
  6
Continuous
 62
     7
370
     0
100
AcDbMText
 10
717.7559615361
 20
466.6062272729
 30
0.0
 40
5.2916666667
 41
0.0
 71
     1
 72
     1
  1
A
  7
SLDTEXTSTYLE0
 73
     1
 44
1.0
  0
MTEXT
  5
101
330
1F
100
AcDbEntity
  8
0
  6
Continuous
 62
     7
370
     0
100
AcDbMText
 10
718.3415103553
 20
387.8262336126
 30
0.0
 40
5.2916666667
 41
0.0
 71
     1
 72
     1
  1
B
  7
SLDTEXTSTYLE0
 73
     1
 44
1.0
  0
MTEXT
  5
102
330
1F
100
AcDbEntity
  8
0
  6
Continuous
 62
     7
370
     0
100
AcDbMText
 10
718.3415103553
 20
305.2638501106
 30
0.0
 40
5.2916666667
 41
0.0
 71
     1
 72
     1
  1
C
  7
SLDTEXTSTYLE0
 73
     1
 44
1.0
  0
MTEXT
  5
103
330
1F
100
AcDbEntity
  8
0
  6
Continuous
 62
     7
370
     0
100
AcDbMText
 10
718.3415103553
 20
223.9412766083
 30
0.0
 40
5.2916666667
 41
0.0
 71
     1
 72
     1
  1
D
  7
SLDTEXTSTYLE0
 73
     1
 44
1.0
  0
MTEXT
  5
104
330
1F
100
AcDbEntity
  8
0
  6
Continuous
 62
     7
370
     0
100
AcDbMText
 10
718.3415103553
 20
145.9676838524
 30
0.0
 40
5.2916666667
 41
0.0
 71
     1
 72
     1
  1
E
  7
SLDTEXTSTYLE0
 73
     1
 44
1.0
  0
MTEXT
  5
105
330
1F
100
AcDbEntity
  8
0
  6
Continuous
 62
     7
370
     0
100
AcDbMText
 10
718.3415103553
 20
66.0015246161
 30
0.0
 40
5.2916666667
 41
0.0
 71
     1
 72
     1
  1
F
  7
SLDTEXTSTYLE0
 73
     1
 44
1.0
  0
MTEXT
  5
106
330
1F
100
AcDbEntity
  8
0
  6
Continuous
 62
     7
370
     0
100
AcDbMText
 10
507.8882822005
 20
53.9667871277
 30
0.0
 40
4.6302083333
 41
0.0
 71
     1
 72
     1
  1
Eric
  7
SLDTEXTSTYLE0
 73
     1
 44
1.0
  0
MTEXT
  5
107
330
1F
100
AcDbEntity
  8
0
  6
Continuous
 62
     7
370
     0
100
AcDbMText
 10
632.1205599113
 20
30.1250927398
 30
0.0
 40
6.25
 41
0.0
 71
     1
 72
     1
  1
0
  7
SLDTEXTSTYLE0
 73
     1
 44
1.0
  0
MTEXT
  5
108
330
1F
100
AcDbEntity
  8
SLD-0
 62
     7
100
AcDbMText
 10
547.8509569918
 20
40.600947431
 30
0.0
 40
4.6302083333
 41
0.0
 71
     1
 72
     1
  1
2010/12/30
  7
SLDTEXTSTYLE0
 73
     1
 44
1.0
  0
ARC
  5
109
330
1F
100
AcDbEntity
  8
0
  6
Continuous
 62
     7
370
    30
100
AcDbCircle
 10
270.4729925047
 20
337.7082327628
 30
0.0
 40
14.00000000000002
100
AcDbArc
 50
27.3475046666
 51
152.6524953335
  0
ARC
  5
10A
330
1F
100
AcDbEntity
  8
0
  6
Continuous
 62
     7
370
    30
100
AcDbCircle
 10
270.4729925047
 20
329.7082327628
 30
0.0
 40
19.05000000000003
100
AcDbArc
 50
130.7509523923
 51
49.2490476078
  0
LINE
  5
10B
330
1F
100
AcDbEntity
  8
0
  6
Continuous
 62
     7
370
    30
100
AcDbLine
 10
300.4729925047
 20
284.7082327628
 30
0.0
 11
300.4729925047
 21
374.7082327628
 31
0.0
  0
LINE
  5
10C
330
1F
100
AcDbEntity
  8
0
  6
Continuous
 62
     7
370
    30
100
AcDbLine
 10
260.4729925047
 20
284.7082327628
 30
0.0
 11
300.4729925047
 21
284.7082327628
 31
0.0
  0
LINE
  5
10D
330
1F
100
AcDbEntity
  8
0
  6
Continuous
 62
     7
370
    30
100
AcDbLine
 10
260.4729925047
 20
298.0854561611
 30
0.0
 11
260.4729925047
 21
284.7082327628
 31
0.0
  0
ARC
  5
10E
330
1F
100
AcDbEntity
  8
0
  6
Continuous
 62
     7
370
    30
100
AcDbCircle
 10
255.4729925047
 20
298.0854561611
 30
0.0
 40
5.000000000000053
100
AcDbArc
 50
0.0
 51
64.6230664748
  0
ARC
  5
10F
330
1F
100
AcDbEntity
  8
0
  6
Continuous
 62
     7
370
    30
100
AcDbCircle
 10
270.4729925047
 20
329.7082327628
 30
0.0
 40
30.00000000000006
100
AcDbArc
 50
90.0
 51
244.6230664748
  0
LINE
  5
110
330
1F
100
AcDbEntity
  8
0
  6
Continuous
 62
     7
370
    30
100
AcDbLine
 10
282.4729925047
 20
359.7082327628
 30
0.0
 11
270.4729925047
 21
359.7082327628
 31
0.0
  0
LINE
  5
111
330
1F
100
AcDbEntity
  8
0
  6
Continuous
 62
     7
370
    30
100
AcDbLine
 10
282.4729925047
 20
374.7082327628
 30
0.0
 11
282.4729925047
 21
359.7082327628
 31
0.0
  0
LINE
  5
112
330
1F
100
AcDbEntity
  8
0
  6
Continuous
 62
     7
370
    30
100
AcDbLine
 10
300.4729925047
 20
374.7082327628
 30
0.0
 11
282.4729925047
 21
374.7082327628
 31
0.0
  0
ARC
  5
113
330
1F
100
AcDbEntity
  8
0
  6
Continuous
 62
     7
370
    30
100
AcDbCircle
 10
270.4729925047
 20
329.7082327628
 30
0.0
 40
19.25000000000002
100
AcDbArc
 50
50.7645753367
 51
129.2354246632
  0
LINE
  5
114
330
1F
100
AcDbEntity
  8
0
  6
Continuous
 62
     7
370
    30
100
AcDbLine
 10
125.4729925047
 20
284.7082327628
 30
0.0
 11
260.4729925047
 21
284.7082327628
 31
0.0
  0
ARC
  5
115
330
1F
100
AcDbEntity
  8
0
  6
Continuous
 62
     7
370
    30
100
AcDbCircle
 10
125.4729925047
 20
294.7082327628
 30
0.0
 40
10.00000000000001
100
AcDbArc
 50
180.0
 51
270.0
  0
LINE
  5
116
330
1F
100
AcDbEntity
  8
0
  6
Continuous
 62
     7
370
    30
100
AcDbLine
 10
115.4729925047
 20
364.7082327628
 30
0.0
 11
115.4729925047
 21
294.7082327628
 31
0.0
  0
CIRCLE
  5
117
330
1F
100
AcDbEntity
  8
0
  6
Continuous
 62
     7
370
    30
100
AcDbCircle
 10
202.9729925047
 20
329.7082327628
 30
0.0
 40
2.552700000000016
  0
CIRCLE
  5
118
330
1F
100
AcDbEntity
  8
0
  6
Continuous
 62
     7
370
    30
100
AcDbCircle
 10
152.1729925047
 20
304.3082327628
 30
0.0
 40
2.552700000000016
  0
CIRCLE
  5
119
330
1F
100
AcDbEntity
  8
0
  6
Continuous
 62
     7
370
    30
100
AcDbCircle
 10
126.7729925047
 20
304.3082327628
 30
0.0
 40
2.552700000000016
  0
CIRCLE
  5
11A
330
1F
100
AcDbEntity
  8
0
  6
Continuous
 62
     7
370
    30
100
AcDbCircle
 10
164.8729925047
 20
342.4082327628
 30
0.0
 40
3.25
  0
CIRCLE
  5
11B
330
1F
100
AcDbEntity
  8
0
  6
Continuous
 62
     7
370
    30
100
AcDbCircle
 10
139.4729925047
 20
342.4082327628
 30
0.0
 40
3.25
  0
CIRCLE
  5
11C
330
1F
100
AcDbEntity
  8
0
  6
Continuous
 62
     7
370
    30
100
AcDbCircle
 10
190.2729925047
 20
342.4082327628
 30
0.0
 40
3.25
  0
CIRCLE
  5
11D
330
1F
100
AcDbEntity
  8
0
  6
Continuous
 62
     7
370
    30
100
AcDbCircle
 10
190.2729925047
 20
317.0082327628
 30
0.0
 40
3.25
  0
CIRCLE
  5
11E
330
1F
100
AcDbEntity
  8
0
  6
Continuous
 62
     7
370
    30
100
AcDbCircle
 10
139.4729925047
 20
317.0082327628
 30
0.0
 40
3.25
  0
CIRCLE
  5
11F
330
1F
100
AcDbEntity
  8
0
  6
Continuous
 62
     7
370
    30
100
AcDbCircle
 10
164.8729925047
 20
317.0082327628
 30
0.0
 40
3.25
  0
LINE
  5
120
330
1F
100
AcDbEntity
  8
0
  6
Continuous
 62
     7
370
    30
100
AcDbLine
 10
125.4729925047
 20
374.7082327628
 30
0.0
 11
282.4729925047
 21
374.7082327628
 31
0.0
  0
CIRCLE
  5
121
330
1F
100
AcDbEntity
  8
0
  6
Continuous
 62
     7
370
    30
100
AcDbCircle
 10
126.7729925047
 20
355.1082327628
 30
0.0
 40
2.552700000000016
  0
ARC
  5
122
330
1F
100
AcDbEntity
  8
0
  6
Continuous
 62
     7
370
    30
100
AcDbCircle
 10
125.4729925047
 20
364.7082327628
 30
0.0
 40
10.00000000000001
100
AcDbArc
 50
90.0
 51
180.0
  0
CIRCLE
  5
123
330
1F
100
AcDbEntity
  8
0
  6
Continuous
 62
     7
370
    30
100
AcDbCircle
 10
177.5729925047
 20
329.7082327628
 30
0.0
 40
2.552700000000016
  0
CIRCLE
  5
124
330
1F
100
AcDbEntity
  8
0
  6
Continuous
 62
     7
370
    30
100
AcDbCircle
 10
152.1729925047
 20
329.7082327628
 30
0.0
 40
2.552700000000016
  0
CIRCLE
  5
125
330
1F
100
AcDbEntity
  8
0
  6
Continuous
 62
     7
370
    30
100
AcDbCircle
 10
152.1729925047
 20
355.1082327628
 30
0.0
 40
2.552700000000016
  0
CIRCLE
  5
126
330
1F
100
AcDbEntity
  8
0
  6
Continuous
 62
     7
370
    30
100
AcDbCircle
 10
177.5729925047
 20
355.1082327628
 30
0.0
 40
2.552700000000016
  0
CIRCLE
  5
127
330
1F
100
AcDbEntity
  8
0
  6
Continuous
 62
     7
370
    30
100
AcDbCircle
 10
202.9729925047
 20
355.1082327628
 30
0.0
 40
2.552700000000016
  0
CIRCLE
  5
128
330
1F
100
AcDbEntity
  8
0
  6
Continuous
 62
     7
370
    30
100
AcDbCircle
 10
126.7729925047
 20
329.7082327628
 30
0.0
 40
2.552700000000016
  0
CIRCLE
  5
129
330
1F
100
AcDbEntity
  8
0
  6
Continuous
 62
     7
370
    30
100
AcDbCircle
 10
177.5729925047
 20
304.3082327628
 30
0.0
 40
2.552700000000016
  0
CIRCLE
  5
12A
330
1F
100
AcDbEntity
  8
0
  6
Continuous
 62
     7
370
    30
100
AcDbCircle
 10
202.9729925047
 20
304.3082327628
 30
0.0
 40
2.552700000000016
  0
DIMENSION
  5
12B
330
1F
100
AcDbEntity
  8
SLD-0
 62
     7
100
AcDbDimension
  2
_D
 10
300.4729925047
 20
418.6804162178
 30
0.0
 11
207.9729925047
 21
418.6804162178
 31
0.0
 70
   160
  1
<>
 71
     2
 42
-1.0
  3
SLDDIMSTYLE0
100
AcDbAlignedDimension
 13
115.4729925047
 23
364.7082327628
 33
0.0
 14
300.4729925047
 24
374.7082327628
 34
0.0
100
AcDbRotatedDimension
  0
DIMENSION
  5
136
330
1F
100
AcDbEntity
  8
SLD-0
 62
     7
100
AcDbDimension
  2
_D_1
 10
300.4729925047
 20
388.0005110499
 30
0.0
 11
285.4729925047
 21
388.0005110499
 31
0.0
 70
   160
  1
<>
 71
     2
 42
-1.0
  3
SLDDIMSTYLE0
100
AcDbAlignedDimension
 13
270.4729925047
 23
349.7582327628
 33
0.0
 14
300.4729925047
 24
374.7082327628
 34
0.0
100
AcDbRotatedDimension
  0
DIMENSION
  5
140
330
1F
100
AcDbEntity
  8
SLD-0
 62
     7
100
AcDbDimension
  2
_D_2
 10
253.6482247253
 20
320.7734865902
 30
0.0
 11
326.6792336161
 21
356.326857603
 31
0.0
 70
   163
  1
<>
 71
     1
 42
-1.0
  3
SLDDIMSTYLE1
100
AcDbDiametricDimension
 15
287.2977602841
 25
338.6429789354
 35
0.0
 40
0.0
  0
DIMENSION
  5
14A
330
1F
100
AcDbEntity
  8
SLD-0
 62
     7
100
AcDbDimension
  2
_D_3
 10
190.2729925047
 20
385.9273735645
 30
0.0
 11
177.5729925047
 21
385.9273735645
 31
0.0
 70
   160
  1
<> TYP
 71
     2
 42
-1.0
  3
SLDDIMSTYLE2
100
AcDbAlignedDimension
 13
164.8729925047
 23
346.6582327628
 33
0.0
 14
190.2729925047
 24
346.6582327628
 34
0.0
100
AcDbRotatedDimension
  0
DIMENSION
  5
156
330
1F
100
AcDbEntity
  8
SLD-0
 62
     7
100
AcDbDimension
  2
_D_4
 10
270.4729925047
 20
385.9273735645
 30
0.0
 11
230.3729925047
 21
385.9273735645
 31
0.0
 70
   160
  1
<>
 71
     2
 42
-1.0
  3
SLDDIMSTYLE0
100
AcDbAlignedDimension
 13
190.2729925047
 23
346.6582327628
 33
0.0
 14
270.4729925047
 24
349.7582327628
 34
0.0
100
AcDbRotatedDimension
  0
DIMENSION
  5
160
330
1F
100
AcDbEntity
  8
SLD-0
 62
     7
100
AcDbDimension
  2
_D_5
 10
139.9817259644
 20
320.2181689408
 30
0.0
 11
96.0507928325
 21
265.3947619007
 31
0.0
 70
   163
  1
6-<> HOLES.
 71
     1
 42
-1.0
  3
SLDDIMSTYLE1
100
AcDbDiametricDimension
 15
138.9642590449
 25
313.7982965848
 35
0.0
 40
0.0
  0
DIMENSION
  5
16B
330
1F
100
AcDbEntity
  8
SLD-0
100
AcDbDimension
  2
_D_6
 10
76.0404479783
 20
284.7082327628
 30
0.0
 11
76.0404479783
 21
329.7082327628
 31
0.0
 70
   160
  1
<>
 71
     2
 42
-1.0
  3
SLDDIMSTYLE0
100
AcDbAlignedDimension
 13
125.4729925047
 23
374.7082327628
 33
0.0
 14
125.4729925047
 24
284.7082327628
 34
0.0
 50
90.0
100
AcDbRotatedDimension
  0
DIMENSION
  5
175
330
1F
100
AcDbEntity
  8
SLD-0
100
AcDbDimension
  2
_D_7
 10
202.3123051282
 20
306.7739516196
 30
0.0
 11
241.1506808336
 21
264.1211133232
 31
0.0
 70
   163
  1
12 HOLES,\P 1/4"-20
 71
     1
 42
-1.0
  3
SLDDIMSTYLE3
100
AcDbDiametricDimension
 15
203.6336798811
 25
301.8425139061
 35
0.0
 40
0.0
  0
DIMENSION
  5
17F
330
1F
100
AcDbEntity
  8
SLD-0
100
AcDbDimension
  2
_D_8
 10
126.7729925047
 20
385.9273735645
 30
0.0
 11
139.4729925047
 21
385.9273735645
 31
0.0
 70
   160
  1
<> TYP
 71
     2
 42
-1.0
  3
SLDDIMSTYLE2
100
AcDbAlignedDimension
 13
152.1729925047
 23
355.1082327628
 33
0.0
 14
126.7729925047
 24
355.1082327628
 34
0.0
100
AcDbRotatedDimension
  0
DIMENSION
  5
18A
330
1F
100
AcDbEntity
  8
SLD-0
100
AcDbDimension
  2
_D_9
 10
270.4729925047
 20
400.9367375677
 30
0.0
 11
211.3229925047
 21
400.9367375677
 31
0.0
 70
   160
  1
<>
 71
     2
 42
-1.0
  3
SLDDIMSTYLE0
100
AcDbAlignedDimension
 13
152.1729925047
 23
355.1082327628
 33
0.0
 14
270.4729925047
 24
349.7582327628
 34
0.0
100
AcDbRotatedDimension
  0
DIMENSION
  5
194
330
1F
100
AcDbEntity
  8
SLD-0
100
AcDbDimension
  2
_D_10
 10
104.9715631443
 20
342.4082327628
 30
0.0
 11
104.9715631443
 21
342.7314587465
 31
0.0
 70
   160
  1
<>
 71
     2
 42
-1.0
  3
SLDDIMSTYLE2
100
AcDbAlignedDimension
 13
126.7729925047
 23
329.7082327628
 33
0.0
 14
135.2229925047
 24
342.4082327628
 34
0.0
 50
90.0
100
AcDbRotatedDimension
  0
DIMENSION
  5
19F
330
1F
100
AcDbEntity
  8
SLD-0
100
AcDbDimension
  2
_D_11
 10
104.9715631443
 20
317.0082327628
 30
0.0
 11
104.9715631443
 21
315.8337989094
 31
0.0
 70
   160
  1
<>
 71
     2
 42
-1.0
  3
SLDDIMSTYLE2
100
AcDbAlignedDimension
 13
126.7729925047
 23
329.7082327628
 33
0.0
 14
139.4729925047
 24
317.0082327628
 34
0.0
 50
90.0
100
AcDbRotatedDimension
  0
DIMENSION
  5
1AA
330
1F
100
AcDbEntity
  8
SLD-0
100
AcDbDimension
  2
_D_12
 10
90.4150272117
 20
355.1082327628
 30
0.0
 11
90.4150272117
 21
342.4082327628
 31
0.0
 70
   160
  1
<>
 71
     2
 42
-1.0
  3
SLDDIMSTYLE0
100
AcDbAlignedDimension
 13
126.7729925047
 23
329.7082327628
 33
0.0
 14
126.7729925047
 24
355.1082327628
 34
0.0
 50
90.0
100
AcDbRotatedDimension
  0
DIMENSION
  5
1B4
330
1F
100
AcDbEntity
  8
SLD-0
100
AcDbDimension
  2
_D_13
 10
90.4150272117
 20
304.3082327628
 30
0.0
 11
90.4150272117
 21
317.0082327628
 31
0.0
 70
   160
  1
<>
 71
     2
 42
-1.0
  3
SLDDIMSTYLE0
100
AcDbAlignedDimension
 13
126.7729925047
 23
329.7082327628
 33
0.0
 14
126.7729925047
 24
304.3082327628
 34
0.0
 50
90.0
100
AcDbRotatedDimension
  0
INSERT
  5
1C9
330
1F
100
AcDbEntity
  8
SLD-0
 62
     7
100
AcDbBlockReference
  2
SW_CENTERMARKSYMBOL_0
 10
270.4729925047
 20
329.7082327628
 30
0.0
  0
INSERT
  5
1D5
330
1F
100
AcDbEntity
  8
SLD-0
 62
     7
100
AcDbBlockReference
  2
SW_CENTERMARKSYMBOL_1
 10
164.8729925047
 20
342.4082327628
 30
0.0
  0
INSERT
  5
1E1
330
1F
100
AcDbEntity
  8
SLD-0
 62
     7
100
AcDbBlockReference
  2
SW_CENTERMARKSYMBOL_2
 10
139.4729925047
 20
342.4082327628
 30
0.0
  0
INSERT
  5
1ED
330
1F
100
AcDbEntity
  8
SLD-0
 62
     7
100
AcDbBlockReference
  2
SW_CENTERMARKSYMBOL_3
 10
190.2729925047
 20
342.4082327628
 30
0.0
  0
INSERT
  5
1F9
330
1F
100
AcDbEntity
  8
SLD-0
 62
     7
100
AcDbBlockReference
  2
SW_CENTERMARKSYMBOL_4
 10
190.2729925047
 20
317.0082327628
 30
0.0
  0
INSERT
  5
205
330
1F
100
AcDbEntity
  8
SLD-0
 62
     7
100
AcDbBlockReference
  2
SW_CENTERMARKSYMBOL_5
 10
164.8729925047
 20
317.0082327628
 30
0.0
  0
INSERT
  5
211
330
1F
100
AcDbEntity
  8
SLD-0
100
AcDbBlockReference
  2
SW_CENTERMARKSYMBOL_6
 10
126.7729925047
 20
355.1082327628
 30
0.0
  0
INSERT
  5
21D
330
1F
100
AcDbEntity
  8
SLD-0
100
AcDbBlockReference
  2
SW_CENTERMARKSYMBOL_7
 10
152.1729925047
 20
355.1082327628
 30
0.0
  0
INSERT
  5
229
330
1F
100
AcDbEntity
  8
SLD-0
100
AcDbBlockReference
  2
SW_CENTERMARKSYMBOL_8
 10
177.5729925047
 20
355.1082327628
 30
0.0
  0
INSERT
  5
235
330
1F
100
AcDbEntity
  8
SLD-0
100
AcDbBlockReference
  2
SW_CENTERMARKSYMBOL_9
 10
202.9729925047
 20
355.1082327628
 30
0.0
  0
INSERT
  5
241
330
1F
100
AcDbEntity
  8
SLD-0
100
AcDbBlockReference
  2
SW_CENTERMARKSYMBOL_10
 10
202.9729925047
 20
329.7082327628
 30
0.0
  0
INSERT
  5
24D
330
1F
100
AcDbEntity
  8
SLD-0
100
AcDbBlockReference
  2
SW_CENTERMARKSYMBOL_11
 10
202.9729925047
 20
304.3082327628
 30
0.0
  0
INSERT
  5
259
330
1F
100
AcDbEntity
  8
SLD-0
100
AcDbBlockReference
  2
SW_CENTERMARKSYMBOL_12
 10
177.5729925047
 20
304.3082327628
 30
0.0
  0
INSERT
  5
265
330
1F
100
AcDbEntity
  8
SLD-0
100
AcDbBlockReference
  2
SW_CENTERMARKSYMBOL_13
 10
152.1729925047
 20
304.3082327628
 30
0.0
  0
INSERT
  5
271
330
1F
100
AcDbEntity
  8
SLD-0
100
AcDbBlockReference
  2
SW_CENTERMARKSYMBOL_14
 10
126.7729925047
 20
304.3082327628
 30
0.0
  0
INSERT
  5
27D
330
1F
100
AcDbEntity
  8
SLD-0
100
AcDbBlockReference
  2
SW_CENTERMARKSYMBOL_15
 10
139.4729925047
 20
317.0082327628
 30
0.0
  0
INSERT
  5
289
330
1F
100
AcDbEntity
  8
SLD-0
100
AcDbBlockReference
  2
SW_CENTERMARKSYMBOL_16
 10
126.7729925047
 20
329.7082327628
 30
0.0
  0
INSERT
  5
295
330
1F
100
AcDbEntity
  8
SLD-0
100
AcDbBlockReference
  2
SW_CENTERMARKSYMBOL_17
 10
152.1729925047
 20
329.7082327628
 30
0.0
  0
LINE
  5
296
330
1F
100
AcDbEntity
  8
SLD-0
  6
CENTERX2
 62
     7
370
     0
100
AcDbLine
 10
112.2977929416
 20
329.7082327628
 30
0.0
 11
305.4729925047
 21
329.7082327628
 31
0.0
  0
LINE
  5
297
330
1F
100
AcDbEntity
  8
0
  6
Continuous
 62
     7
370
    30
100
AcDbLine
 10
240.4729925047
 20
219.6879727501
 30
0.0
 11
240.4729925047
 21
148.6879727501
 31
0.0
  0
LINE
  5
298
330
1F
100
AcDbEntity
  8
0
  6
Continuous
 62
     7
370
    30
100
AcDbLine
 10
300.4729925047
 20
219.6879727501
 30
0.0
 11
300.4729925047
 21
148.6879727501
 31
0.0
  0
LINE
  5
299
330
1F
100
AcDbEntity
  8
0
  6
Continuous
 62
     7
370
    30
100
AcDbLine
 10
260.4729925047
 20
219.6879727501
 30
0.0
 11
260.4729925047
 21
148.6879727501
 31
0.0
  0
CIRCLE
  5
29A
330
1F
100
AcDbEntity
  8
0
  6
Continuous
 62
     7
370
    30
100
AcDbCircle
 10
270.4729925047
 20
179.6879727501
 30
0.0
 40
5.099999999999966
  0
LINE
  5
29B
330
1F
100
AcDbEntity
  8
0
  6
Continuous
 62
     7
370
    30
100
AcDbLine
 10
260.4729925047
 20
148.6879727501
 30
0.0
 11
300.4729925047
 21
148.6879727501
 31
0.0
  0
LINE
  5
29C
330
1F
100
AcDbEntity
  8
0
  6
Continuous
 62
     7
370
    30
100
AcDbLine
 10
260.4729925047
 20
219.6879727501
 30
0.0
 11
300.4729925047
 21
219.6879727501
 31
0.0
  0
LINE
  5
29D
330
1F
100
AcDbEntity
  8
0
  6
Continuous
 62
     7
370
    30
100
AcDbLine
 10
257.6158496475
 20
148.6879727501
 30
0.0
 11
257.6158496475
 21
219.6879727501
 31
0.0
  0
LINE
  5
29E
330
1F
100
AcDbEntity
  8
0
  6
Continuous
 62
     7
370
    30
100
AcDbLine
 10
257.6158496475
 20
219.6879727501
 30
0.0
 11
260.4729925047
 21
219.6879727501
 31
0.0
  0
LINE
  5
29F
330
1F
100
AcDbEntity
  8
0
  6
Continuous
 62
     7
370
    30
100
AcDbLine
 10
240.4729925047
 20
219.6879727501
 30
0.0
 11
257.6158496475
 21
219.6879727501
 31
0.0
  0
LINE
  5
2A0
330
1F
100
AcDbEntity
  8
0
  6
Continuous
 62
     7
370
    30
100
AcDbLine
 10
115.4729925047
 20
148.6879727501
 30
0.0
 11
115.4729925047
 21
129.6879727501
 31
0.0
  0
LINE
  5
2A1
330
1F
100
AcDbEntity
  8
0
  6
Continuous
 62
     7
370
    30
100
AcDbLine
 10
125.4729925047
 20
148.6879727501
 30
0.0
 11
125.4729925047
 21
129.6879727501
 31
0.0
  0
LINE
  5
2A2
330
1F
100
AcDbEntity
  8
0
  6
Continuous
 62
     7
370
    30
100
AcDbLine
 10
115.4729925047
 20
148.6879727501
 30
0.0
 11
125.4729925047
 21
148.6879727501
 31
0.0
  0
LINE
  5
2A3
330
1F
100
AcDbEntity
  8
0
  6
Continuous
 62
     7
370
    30
100
AcDbLine
 10
115.4729925047
 20
129.6879727501
 30
0.0
 11
125.4729925047
 21
129.6879727501
 31
0.0
  0
LINE
  5
2A4
330
1F
100
AcDbEntity
  8
0
  6
Continuous
 62
     7
370
    30
100
AcDbLine
 10
300.4729925047
 20
148.6879727501
 30
0.0
 11
300.4729925047
 21
129.6879727501
 31
0.0
  0
LINE
  5
2A5
330
1F
100
AcDbEntity
  8
0
  6
Continuous
 62
     7
370
    30
100
AcDbLine
 10
125.4729925047
 20
148.6879727501
 30
0.0
 11
300.4729925047
 21
148.6879727501
 31
0.0
  0
LINE
  5
2A6
330
1F
100
AcDbEntity
  8
0
  6
Continuous
 62
     7
370
    30
100
AcDbLine
 10
125.4729925047
 20
129.6879727501
 30
0.0
 11
300.4729925047
 21
129.6879727501
 31
0.0
  0
DIMENSION
  5
2A7
330
1F
100
AcDbEntity
  8
SLD-0
 62
     7
100
AcDbDimension
  2
_D_14
 10
99.3729925047
 20
129.6879727501
 30
0.0
 11
99.3729925047
 21
139.1879727501
 31
0.0
 70
   160
  1
<>
 71
     2
 42
-1.0
  3
SLDDIMSTYLE0
100
AcDbAlignedDimension
 13
115.4729925047
 23
148.6879727501
 33
0.0
 14
115.4729925047
 24
129.6879727501
 34
0.0
 50
90.0
100
AcDbRotatedDimension
  0
DIMENSION
  5
2B1
330
1F
100
AcDbEntity
  8
SLD-0
 62
     7
100
AcDbDimension
  2
_D_15
 10
83.2729925047
 20
219.6879727501
 30
0.0
 11
83.2729925047
 21
174.6879727501
 31
0.0
 70
   160
  1
<>
 71
     2
 42
-1.0
  3
SLDDIMSTYLE0
100
AcDbAlignedDimension
 13
115.4729925047
 23
129.6879727501
 33
0.0
 14
260.4729925047
 24
219.6879727501
 34
0.0
 50
90.0
100
AcDbRotatedDimension
  0
INSERT
  5
2C6
330
1F
100
AcDbEntity
  8
SLD-0
 62
     7
100
AcDbBlockReference
  2
SW_CENTERMARKSYMBOL_18
 10
270.4729925047
 20
179.6879727501
 30
0.0
  0
LINE
  5
2C7
330
1F
100
AcDbEntity
  8
0
  6
Continuous
 62
     7
370
    30
100
AcDbLine
 10
338.6146995128
 20
219.6879727501
 30
0.0
 11
338.6146995128
 21
148.6879727501
 31
0.0
  0
CIRCLE
  5
2C8
330
1F
100
AcDbEntity
  8
0
  6
Continuous
 62
     7
370
    30
100
AcDbCircle
 10
383.6146995128
 20
180.0879727501
 30
0.0
 40
2.552700000000016
  0
CIRCLE
  5
2C9
330
1F
100
AcDbEntity
  8
0
  6
Continuous
 62
     7
370
    30
100
AcDbCircle
 10
409.0146995128
 20
154.6879727501
 30
0.0
 40
2.552700000000016
  0
CIRCLE
  5
2CA
330
1F
100
AcDbEntity
  8
0
  6
Continuous
 62
     7
370
    30
100
AcDbCircle
 10
409.0146995128
 20
180.0879727501
 30
0.0
 40
2.552700000000016
  0
CIRCLE
  5
2CB
330
1F
100
AcDbEntity
  8
0
  6
Continuous
 62
     7
370
    30
100
AcDbCircle
 10
409.0146995128
 20
205.4879727501
 30
0.0
 40
2.552700000000016
  0
CIRCLE
  5
2CC
330
1F
100
AcDbEntity
  8
0
  6
Continuous
 62
     7
370
    30
100
AcDbCircle
 10
383.6146995128
 20
154.6879727501
 30
0.0
 40
2.552700000000016
  0
CIRCLE
  5
2CD
330
1F
100
AcDbEntity
  8
0
  6
Continuous
 62
     7
370
    30
100
AcDbCircle
 10
383.6146995128
 20
205.4879727501
 30
0.0
 40
2.552700000000016
  0
CIRCLE
  5
2CE
330
1F
100
AcDbEntity
  8
0
  6
Continuous
 62
     7
370
    30
100
AcDbCircle
 10
358.2146995128
 20
154.6879727501
 30
0.0
 40
2.552700000000016
  0
CIRCLE
  5
2CF
330
1F
100
AcDbEntity
  8
0
  6
Continuous
 62
     7
370
    30
100
AcDbCircle
 10
358.2146995128
 20
180.0879727501
 30
0.0
 40
2.552700000000016
  0
CIRCLE
  5
2D0
330
1F
100
AcDbEntity
  8
0
  6
Continuous
 62
     7
370
    30
100
AcDbCircle
 10
358.2146995128
 20
205.4879727501
 30
0.0
 40
2.552700000000016
  0
LINE
  5
2D1
330
1F
100
AcDbEntity
  8
0
  6
Continuous
 62
     7
370
    30
100
AcDbLine
 10
428.6146995128
 20
219.6879727501
 30
0.0
 11
428.6146995128
 21
148.6879727501
 31
0.0
  0
LINE
  5
2D2
330
1F
100
AcDbEntity
  8
0
  6
Continuous
 62
     7
370
    30
100
AcDbLine
 10
338.6146995128
 20
148.6879727501
 30
0.0
 11
428.6146995128
 21
148.6879727501
 31
0.0
  0
LINE
  5
2D3
330
1F
100
AcDbEntity
  8
0
  6
Continuous
 62
     7
370
    30
100
AcDbLine
 10
338.6146995128
 20
219.6879727501
 30
0.0
 11
428.6146995128
 21
219.6879727501
 31
0.0
  0
LINE
  5
2D4
330
1F
100
AcDbEntity
  8
0
  6
Continuous
 62
     7
370
    30
100
AcDbLine
 10
338.6146995128
 20
148.6879727501
 30
0.0
 11
338.6146995128
 21
129.6879727501
 31
0.0
  0
LINE
  5
2D5
330
1F
100
AcDbEntity
  8
0
  6
Continuous
 62
     7
370
    30
100
AcDbLine
 10
428.6146995128
 20
148.6879727501
 30
0.0
 11
428.6146995128
 21
129.6879727501
 31
0.0
  0
LINE
  5
2D6
330
1F
100
AcDbEntity
  8
0
  6
Continuous
 62
     7
370
    30
100
AcDbLine
 10
428.6146995128
 20
129.6879727501
 30
0.0
 11
338.6146995128
 21
129.6879727501
 31
0.0
  0
DIMENSION
  5
2D7
330
1F
100
AcDbEntity
  8
SLD-0
100
AcDbDimension
  2
_D_16
 10
428.6146995128
 20
246.0375792495
 30
0.0
 11
383.6146995128
 21
246.0375792495
 31
0.0
 70
   160
  1
<>
 71
     2
 42
-1.0
  3
SLDDIMSTYLE0
100
AcDbAlignedDimension
 13
338.6146995128
 23
219.6879727501
 33
0.0
 14
428.6146995128
 24
219.6879727501
 34
0.0
100
AcDbRotatedDimension
  0
DIMENSION
  5
2E1
330
1F
100
AcDbEntity
  8
SLD-0
100
AcDbDimension
  2
_D_17
 10
446.1146995128
 20
180.0879727501
 30
0.0
 11
446.1146995128
 21
167.3879727501
 31
0.0
 70
   160
  1
<>
 71
     2
 42
-1.0
  3
SLDDIMSTYLE0
100
AcDbAlignedDimension
 13
409.0146995128
 23
154.6879727501
 33
0.0
 14
409.0146995128
 24
180.0879727501
 34
0.0
 50
90.0
100
AcDbRotatedDimension
  0
DIMENSION
  5
2EB
330
1F
100
AcDbEntity
  8
SLD-0
100
AcDbDimension
  2
_D_18
 10
446.1146995128
 20
205.4879727501
 30
0.0
 11
446.1146995128
 21
192.7879727501
 31
0.0
 70
   160
  1
<>
 71
     2
 42
-1.0
  3
SLDDIMSTYLE0
100
AcDbAlignedDimension
 13
409.0146995128
 23
180.0879727501
 33
0.0
 14
409.0146995128
 24
205.4879727501
 34
0.0
 50
90.0
100
AcDbRotatedDimension
  0
DIMENSION
  5
2F5
330
1F
100
AcDbEntity
  8
SLD-0
100
AcDbDimension
  2
_D_19
 10
461.5159376767
 20
129.6879727501
 30
0.0
 11
461.5159376767
 21
154.8879727501
 31
0.0
 70
   160
  1
<>
 71
     2
 42
-1.0
  3
SLDDIMSTYLE0
100
AcDbAlignedDimension
 13
409.0146995128
 23
180.0879727501
 33
0.0
 14
428.6146995128
 24
129.6879727501
 34
0.0
 50
90.0
100
AcDbRotatedDimension
  0
DIMENSION
  5
2FF
330
1F
100
AcDbEntity
  8
SLD-0
100
AcDbDimension
  2
_D_20
 10
383.6146995128
 20
230.506433578
 30
0.0
 11
370.9146995128
 21
230.506433578
 31
0.0
 70
   160
  1
<>
 71
     2
 42
-1.0
  3
SLDDIMSTYLE0
100
AcDbAlignedDimension
 13
358.2146995128
 23
205.4879727501
 33
0.0
 14
383.6146995128
 24
205.4879727501
 34
0.0
100
AcDbRotatedDimension
  0
DIMENSION
  5
309
330
1F
100
AcDbEntity
  8
SLD-0
100
AcDbDimension
  2
_D_21
 10
409.0146995128
 20
230.506433578
 30
0.0
 11
396.3146995128
 21
230.506433578
 31
0.0
 70
   160
  1
<>
 71
     2
 42
-1.0
  3
SLDDIMSTYLE0
100
AcDbAlignedDimension
 13
383.6146995128
 23
205.4879727501
 33
0.0
 14
409.0146995128
 24
205.4879727501
 34
0.0
100
AcDbRotatedDimension
  0
DIMENSION
  5
313
330
1F
100
AcDbEntity
  8
SLD-0
100
AcDbDimension
  2
_D_22
 10
406.8039964645
 20
204.2116227501
 30
0.0
 11
465.0059135233
 21
234.4437125083
 31
0.0
 70
   163
  1
9 HOLES,\P 1/4"-20
 71
     1
 42
-1.0
  3
SLDDIMSTYLE3
100
AcDbDiametricDimension
 15
411.225402561
 25
206.7643227501
 35
0.0
 40
0.0
  0
INSERT
  5
327
330
1F
100
AcDbEntity
  8
SLD-0
100
AcDbBlockReference
  2
SW_CENTERMARKSYMBOL_19
 10
358.2146995128
 20
205.4879727501
 30
0.0
  0
INSERT
  5
333
330
1F
100
AcDbEntity
  8
SLD-0
100
AcDbBlockReference
  2
SW_CENTERMARKSYMBOL_20
 10
383.6146995128
 20
205.4879727501
 30
0.0
  0
INSERT
  5
33F
330
1F
100
AcDbEntity
  8
SLD-0
100
AcDbBlockReference
  2
SW_CENTERMARKSYMBOL_21
 10
409.0146995128
 20
205.4879727501
 30
0.0
  0
INSERT
  5
34B
330
1F
100
AcDbEntity
  8
SLD-0
100
AcDbBlockReference
  2
SW_CENTERMARKSYMBOL_22
 10
409.0146995128
 20
180.0879727501
 30
0.0
  0
INSERT
  5
357
330
1F
100
AcDbEntity
  8
SLD-0
100
AcDbBlockReference
  2
SW_CENTERMARKSYMBOL_23
 10
383.6146995128
 20
180.0879727501
 30
0.0
  0
INSERT
  5
363
330
1F
100
AcDbEntity
  8
SLD-0
100
AcDbBlockReference
  2
SW_CENTERMARKSYMBOL_24
 10
358.2146995128
 20
180.0879727501
 30
0.0
  0
INSERT
  5
36F
330
1F
100
AcDbEntity
  8
SLD-0
100
AcDbBlockReference
  2
SW_CENTERMARKSYMBOL_25
 10
358.2146995128
 20
154.6879727501
 30
0.0
  0
INSERT
  5
37B
330
1F
100
AcDbEntity
  8
SLD-0
100
AcDbBlockReference
  2
SW_CENTERMARKSYMBOL_26
 10
383.6146995128
 20
154.6879727501
 30
0.0
  0
INSERT
  5
387
330
1F
100
AcDbEntity
  8
SLD-0
100
AcDbBlockReference
  2
SW_CENTERMARKSYMBOL_27
 10
409.0146995128
 20
154.6879727501
 30
0.0
  0
LINE
  5
388
330
1F
100
AcDbEntity
  8
SLD-0
  6
CENTERX2
 62
     7
370
     0
100
AcDbLine
 10
383.6146995128
 20
224.6879727501
 30
0.0
 11
383.6146995128
 21
126.4654342701
 31
0.0
  0
LINE
  5
389
330
1F
100
AcDbEntity
  8
0
  6
Continuous
 62
     7
370
    30
100
AcDbLine
 10
567.110624027
 20
353.6478752274
 30
0.0
 11
567.110624027
 21
411.6222728712
 31
0.0
  0
LINE
  5
38A
330
1F
100
AcDbEntity
  8
0
  6
Continuous
 62
     7
370
    30
100
AcDbLine
 10
674.3898446406
 20
383.0360459518
 30
0.0
 11
674.3898446406
 21
398.5503213776
 31
0.0
  0
LWPOLYLINE
  5
38B
330
1F
100
AcDbEntity
  8
0
  6
Continuous
 62
     7
370
    30
100
AcDbPolyline
 90
       16
 70
   128
 43
0.0
 10
538.5220749795
 20
400.6551690348
 10
540.5053070802
 20
400.3808182371
 10
542.5365418026
 20
400.2757120906
 10
544.5726769305
 20
400.3420809175
 10
546.5705062626
 20
400.5785163903
 10
548.4876364354
 20
400.9800014164
 10
550.2833864984
 20
401.5380165991
 10
551.9196511522
 20
402.2407210167
 10
553.3617093318
 20
403.0732034839
 10
554.5789609777
 20
404.0177989623
 10
555.5455763603
 20
405.0544634077
 10
556.2410441793
 20
406.1611990989
 10
556.6506068079
 20
407.3145214232
 10
556.765573445
 20
408.4899572126
 10
556.5835045315
 20
409.6625640583
 10
556.1082635175
 20
410.8074595802
  0
LWPOLYLINE
  5
38C
330
1F
100
AcDbEntity
  8
0
  6
Continuous
 62
     7
370
    30
100
AcDbPolyline
 90
       41
 70
   128
 43
0.0
 10
556.1082635175
 20
410.8074595802
 10
556.1392656761
 20
412.1428881347
 10
555.8896259339
 20
413.4706384502
 10
555.3630260763
 20
414.7711283422
 10
554.5672326052
 20
416.0251776737
 10
553.5139821962
 20
417.2142912313
 10
552.2188086011
 20
418.3209314999
 10
550.7008135501
 20
419.328777313
 10
548.9823850321
 20
420.2229645637
 10
547.0888671076
 20
420.9903054263
 10
545.0481861245
 20
421.6194828555
 10
542.8904388497
 20
422.1012174949
 10
540.6474485898
 20
422.4284045322
 10
538.3522958484
 20
422.5962184842
 10
536.038830442
 20
422.6021843647
 10
533.7411722694
 20
422.4462141864
 10
531.4932080983
 20
422.1306082591
 10
529.3280917895
 20
421.6600212631
 10
527.277755331
 20
421.0413936009
 10
525.3724378924
 20
420.2838490368
 10
523.6402398454
 20
419.3985601364
 10
522.1067083292
 20
418.398583489
 10
520.7944604704
 20
417.298667144
 10
519.7228498172
 20
416.1150331009
 10
518.9076809056
 20
414.8651380606
 10
518.3609761676
 20
413.5674159674
 10
518.0907986201
 20
412.2410061378
 10
518.1011329479
 20
410.9054709863
 10
518.3918267363
 20
409.5805075113
 10
518.9585927188
 20
408.285656796
 10
519.7930720075
 20
407.0400158085
 10
520.8829573733
 20
405.8619557526
 10
522.2121747575
 20
404.7688511222
 10
523.7611203387
 20
403.7768234546
 10
525.5069496575
 20
402.9005035647
 10
527.4239145355
 20
402.1528157632
 10
529.4837428198
 20
401.5447872444
 10
531.6560553518
 20
401.0853854522
 10
533.9088140106
 20
400.7813858252
 10
536.2087942245
 20
400.6372718696
 10
538.5220749795
 20
400.6551690348
  0
LINE
  5
38D
330
1F
100
AcDbEntity
  8
0
  6
Continuous
 62
     7
370
    30
100
AcDbLine
 10
484.077615438
 20
417.7453337099
 30
0.0
 11
547.7172257448
 21
381.0069686779
 31
0.0
  0
LINE
  5
38E
330
1F
100
AcDbEntity
  8
0
  6
Continuous
 62
     7
370
    30
100
AcDbLine
 10
512.3618866855
 20
434.0734959464
 30
0.0
 11
484.077615438
 21
417.7453337099
 31
0.0
  0
LINE
  5
38F
330
1F
100
AcDbEntity
  8
0
  6
Continuous
 62
     7
370
    30
100
AcDbLine
 10
521.8210120639
 20
428.6128590983
 30
0.0
 11
512.3618866855
 21
434.0734959464
 31
0.0
  0
ARC
  5
390
330
1F
100
AcDbEntity
  8
0
  6
Continuous
 62
     7
370
    30
100
AcDbCircle
 10
525.3692015746
 20
435.512617351
 30
0.0
 40
7.758628277585914
100
AcDbArc
 50
242.7855800911
 51
282.4033785162
  0
LWPOLYLINE
  5
391
330
1F
100
AcDbEntity
  8
0
  6
Continuous
 62
     7
370
    30
100
AcDbPolyline
 90
       28
 70
   128
 43
0.0
 10
558.3238274626
 20
399.3761511939
 10
560.3347091131
 20
400.6592482954
 10
562.1137697523
 20
402.0517774555
 10
563.6432509355
 20
403.5398385566
 10
564.9078855003
 20
405.1085778885
 10
565.8950499629
 20
406.742336417
 10
566.5948905244
 20
408.4248060918
 10
567.0004214307
 20
410.1391926313
 10
567.1075947039
 20
411.8683831624
 10
566.9153405487
 20
413.5951170397
 10
566.4255780311
 20
415.3021581399
 10
565.6431959225
 20
416.9724669116
 10
564.5760039003
 20
418.5893704625
 10
563.2346545921
 20
420.136728987
 10
561.6325372425
 20
421.5990968728
 10
559.7856440623
 20
422.9618768773
 10
557.7124105956
 20
424.2114658365
 10
555.4335316976
 20
425.3353904506
 10
552.9717549601
 20
426.3224317915
 10
550.3516536473
 20
427.1627372893
 10
547.5993814065
 20
427.8479190798
 10
544.7424112053
 20
428.3711377318
 10
541.809261098
 20
428.7271705174
 10
538.8292095609
 20
428.9124635449
 10
535.8320032366
 20
428.9251672337
 10
532.8475600056
 20
428.7651547767
 10
529.9056703482
 20
428.4340234057
 10
527.035699978
 20
427.9350784484
  0
LINE
  5
392
330
1F
100
AcDbEntity
  8
0
  6
Continuous
 62
     7
370
    30
100
AcDbLine
 10
549.8385460884
 20
394.477702523
 30
0.0
 11
558.3238274626
 21
399.3761511939
 31
0.0
  0
LINE
  5
393
330
1F
100
AcDbEntity
  8
0
  6
Continuous
 62
     7
370
    30
100
AcDbLine
 10
560.4451478062
 20
388.3546416843
 30
0.0
 11
549.8385460884
 21
394.477702523
 31
0.0
  0
LINE
  5
394
330
1F
100
AcDbEntity
  8
0
  6
Continuous
 62
     7
370
    30
100
AcDbLine
 10
547.7172257448
 20
381.0069686779
 30
0.0
 11
560.4451478062
 21
388.3546416843
 31
0.0
  0
LINE
  5
395
330
1F
100
AcDbEntity
  8
0
  6
Continuous
 62
     7
370
    30
100
AcDbLine
 10
484.077615438
 20
417.7453337099
 30
0.0
 11
484.077615438
 21
359.770936066
 31
0.0
  0
LINE
  5
396
330
1F
100
AcDbEntity
  8
0
  6
Continuous
 62
     7
370
    30
100
AcDbLine
 10
547.7172257448
 20
381.0069686779
 30
0.0
 11
547.7172257448
 21
323.032571034
 31
0.0
  0
LINE
  5
397
330
1F
100
AcDbEntity
  8
0
  6
Continuous
 62
     7
370
    30
100
AcDbLine
 10
484.077615438
 20
359.770936066
 30
0.0
 11
547.7172257448
 21
323.032571034
 31
0.0
  0
LWPOLYLINE
  5
398
330
1F
100
AcDbEntity
  8
0
  6
Continuous
 62
     7
370
    30
100
AcDbPolyline
 90
       19
 70
   128
 43
0.0
 10
517.7024520718
 20
365.9991125497
 10
517.5935953538
 20
366.7748554176
 10
517.2801549266
 20
367.5827155383
 10
516.7999363316
 20
368.3252530583
 10
516.2108610186
 20
368.9129069942
 10
515.5839801642
 20
369.2747976084
 10
514.9949048513
 20
369.3672755518
 10
514.5146862563
 20
369.1791866198
 10
514.2012458291
 20
368.7332171133
 10
514.0923891111
 20
368.0831575368
 10
514.2012458291
 20
367.3074146688
 10
514.5146862563
 20
366.4995545482
 10
514.9949048513
 20
365.7570170281
 10
515.5839801642
 20
365.1693630923
 10
516.2108610186
 20
364.8074724781
 10
516.7999363316
 20
364.7149945346
 10
517.2801549266
 20
364.9030834667
 10
517.5935953538
 20
365.3490529731
 10
517.7024520718
 20
365.9991125497
  0
LWPOLYLINE
  5
399
330
1F
100
AcDbEntity
  8
0
  6
Continuous
 62
     7
370
    30
100
AcDbPolyline
 90
       19
 70
   128
 43
0.0
 10
535.6629643139
 20
334.8905929077
 10
535.5541075959
 20
335.6663357756
 10
535.2406671687
 20
336.4741958962
 10
534.7604485737
 20
337.2167334163
 10
534.1713732608
 20
337.8043873521
 10
533.5444924064
 20
338.1662779663
 10
532.9554170934
 20
338.2587559098
 10
532.4751984984
 20
338.0706669778
 10
532.1617580712
 20
337.6246974713
 10
532.0529013532
 20
336.9746378947
 10
532.1617580712
 20
336.1988950268
 10
532.4751984984
 20
335.3910349062
 10
532.9554170934
 20
334.6484973861
 10
533.5444924064
 20
334.0608434502
 10
534.1713732608
 20
333.6989528361
 10
534.7604485737
 20
333.6064748926
 10
535.2406671687
 20
333.7945638246
 10
535.5541075959
 20
334.2405333311
 10
535.6629643139
 20
334.8905929077
  0
LWPOLYLINE
  5
39A
330
1F
100
AcDbEntity
  8
0
  6
Continuous
 62
     7
370
    30
100
AcDbPolyline
 90
       19
 70
   128
 43
0.0
 10
535.6629643139
 20
355.6307295296
 10
535.5541075959
 20
356.4064723975
 10
535.2406671687
 20
357.2143325181
 10
534.7604485737
 20
357.9568700382
 10
534.1713732608
 20
358.544523974
 10
533.5444924064
 20
358.9064145882
 10
532.9554170934
 20
358.9988925317
 10
532.4751984984
 20
358.8108035997
 10
532.1617580712
 20
358.3648340932
 10
532.0529013532
 20
357.7147745166
 10
532.1617580712
 20
356.9390316487
 10
532.4751984984
 20
356.1311715281
 10
532.9554170934
 20
355.388634008
 10
533.5444924064
 20
354.8009800721
 10
534.1713732608
 20
354.4390894579
 10
534.7604485737
 20
354.3466115145
 10
535.2406671687
 20
354.5347004465
 10
535.5541075959
 20
354.980669953
 10
535.6629643139
 20
355.6307295296
  0
LWPOLYLINE
  5
39B
330
1F
100
AcDbEntity
  8
0
  6
Continuous
 62
     7
370
    30
100
AcDbPolyline
 90
       19
 70
   128
 43
0.0
 10
535.6629643139
 20
376.3708661515
 10
535.5541075959
 20
377.1466090194
 10
535.2406671687
 20
377.95446914
 10
534.7604485737
 20
378.6970066601
 10
534.1713732608
 20
379.2846605959
 10
533.5444924064
 20
379.6465512101
 10
532.9554170934
 20
379.7390291536
 10
532.4751984984
 20
379.5509402216
 10
532.1617580712
 20
379.1049707151
 10
532.0529013532
 20
378.4549111385
 10
532.1617580712
 20
377.6791682706
 10
532.4751984984
 20
376.87130815
 10
532.9554170934
 20
376.1287706299
 10
533.5444924064
 20
375.541116694
 10
534.1713732608
 20
375.1792260798
 10
534.7604485737
 20
375.0867481364
 10
535.2406671687
 20
375.2748370684
 10
535.5541075959
 20
375.7208065749
 10
535.6629643139
 20
376.3708661515
  0
LWPOLYLINE
  5
39C
330
1F
100
AcDbEntity
  8
0
  6
Continuous
 62
     7
370
    30
100
AcDbPolyline
 90
       19
 70
   128
 43
0.0
 10
517.7024520718
 20
345.2589759278
 10
517.5935953538
 20
346.0347187957
 10
517.2801549266
 20
346.8425789164
 10
516.7999363316
 20
347.5851164364
 10
516.2108610186
 20
348.1727703723
 10
515.5839801642
 20
348.5346609865
 10
514.9949048513
 20
348.6271389299
 10
514.5146862563
 20
348.4390499979
 10
514.2012458291
 20
347.9930804914
 10
514.0923891111
 20
347.3430209149
 10
514.2012458291
 20
346.5672780469
 10
514.5146862563
 20
345.7594179263
 10
514.9949048513
 20
345.0168804063
 10
515.5839801642
 20
344.4292264704
 10
516.2108610186
 20
344.0673358562
 10
516.7999363316
 20
343.9748579127
 10
517.2801549266
 20
344.1629468448
 10
517.5935953538
 20
344.6089163512
 10
517.7024520718
 20
345.2589759278
  0
LWPOLYLINE
  5
39D
330
1F
100
AcDbEntity
  8
0
  6
Continuous
 62
     7
370
    30
100
AcDbPolyline
 90
       19
 70
   128
 43
0.0
 10
517.7024520718
 20
386.7392491716
 10
517.5935953538
 20
387.5149920395
 10
517.2801549266
 20
388.3228521602
 10
516.7999363316
 20
389.0653896802
 10
516.2108610186
 20
389.6530436161
 10
515.5839801642
 20
390.0149342303
 10
514.9949048513
 20
390.1074121737
 10
514.5146862563
 20
389.9193232417
 10
514.2012458291
 20
389.4733537352
 10
514.0923891111
 20
388.8232941587
 10
514.2012458291
 20
388.0475512907
 10
514.5146862563
 20
387.2396911701
 10
514.9949048513
 20
386.49715365
 10
515.5839801642
 20
385.9094997142
 10
516.2108610186
 20
385.5476091
 10
516.7999363316
 20
385.4551311565
 10
517.2801549266
 20
385.6432200886
 10
517.5935953538
 20
386.089189595
 10
517.7024520718
 20
386.7392491716
  0
LWPOLYLINE
  5
39E
330
1F
100
AcDbEntity
  8
0
  6
Continuous
 62
     7
370
    30
100
AcDbPolyline
 90
       19
 70
   128
 43
0.0
 10
499.7419398296
 20
355.627358948
 10
499.6330831117
 20
356.4031018159
 10
499.3196426845
 20
357.2109619365
 10
498.8394240895
 20
357.9534994566
 10
498.2503487765
 20
358.5411533924
 10
497.6234679221
 20
358.9030440066
 10
497.0343926091
 20
358.9955219501
 10
496.5541740141
 20
358.8074330181
 10
496.2407335869
 20
358.3614635116
 10
496.131876869
 20
357.711403935
 10
496.2407335869
 20
356.9356610671
 10
496.5541740141
 20
356.1278009465
 10
497.0343926091
 20
355.3852634264
 10
497.6234679221
 20
354.7976094905
 10
498.2503487765
 20
354.4357188763
 10
498.8394240895
 20
354.3432409329
 10
499.3196426845
 20
354.5313298649
 10
499.6330831117
 20
354.9772993714
 10
499.7419398296
 20
355.627358948
  0
LWPOLYLINE
  5
39F
330
1F
100
AcDbEntity
  8
0
  6
Continuous
 62
     7
370
    30
100
AcDbPolyline
 90
       19
 70
   128
 43
0.0
 10
499.7419398296
 20
376.3674955699
 10
499.6330831117
 20
377.1432384378
 10
499.3196426845
 20
377.9510985584
 10
498.8394240895
 20
378.6936360785
 10
498.2503487765
 20
379.2812900143
 10
497.6234679221
 20
379.6431806285
 10
497.0343926091
 20
379.735658572
 10
496.5541740141
 20
379.54756964
 10
496.2407335869
 20
379.1016001335
 10
496.131876869
 20
378.4515405569
 10
496.2407335869
 20
377.675797689
 10
496.5541740141
 20
376.8679375684
 10
497.0343926091
 20
376.1254000483
 10
497.6234679221
 20
375.5377461124
 10
498.2503487765
 20
375.1758554982
 10
498.8394240895
 20
375.0833775548
 10
499.3196426845
 20
375.2714664868
 10
499.6330831117
 20
375.7174359933
 10
499.7419398296
 20
376.3674955699
  0
LWPOLYLINE
  5
3A0
330
1F
100
AcDbEntity
  8
0
  6
Continuous
 62
     7
370
    30
100
AcDbPolyline
 90
       19
 70
   128
 43
0.0
 10
499.7419398296
 20
397.1076321918
 10
499.6330831117
 20
397.8833750597
 10
499.3196426845
 20
398.6912351803
 10
498.8394240895
 20
399.4337727004
 10
498.2503487765
 20
400.0214266362
 10
497.6234679221
 20
400.3833172504
 10
497.0343926091
 20
400.4757951939
 10
496.5541740141
 20
400.2877062618
 10
496.2407335869
 20
399.8417367554
 10
496.131876869
 20
399.1916771788
 10
496.2407335869
 20
398.4159343109
 10
496.5541740141
 20
397.6080741903
 10
497.0343926091
 20
396.8655366702
 10
497.6234679221
 20
396.2778827343
 10
498.2503487765
 20
395.9159921201
 10
498.8394240895
 20
395.8235141767
 10
499.3196426845
 20
396.0116031087
 10
499.6330831117
 20
396.4575726152
 10
499.7419398296
 20
397.1076321918
  0
LINE
  5
3A1
330
1F
100
AcDbEntity
  8
0
  6
Continuous
 62
     7
370
    30
100
AcDbLine
 10
560.4451478062
 20
388.3546416843
 30
0.0
 11
560.4451478062
 21
330.3802440404
 31
0.0
  0
LINE
  5
3A2
330
1F
100
AcDbEntity
  8
0
  6
Continuous
 62
     7
370
    30
100
AcDbLine
 10
547.7172257448
 20
323.032571034
 30
0.0
 11
560.4451478062
 21
330.3802440404
 31
0.0
  0
LINE
  5
3A3
330
1F
100
AcDbEntity
  8
0
  6
Continuous
 62
     7
370
    30
100
AcDbLine
 10
556.1082635175
 20
410.8074595802
 30
0.0
 11
556.1082635175
 21
405.9058212677
 31
0.0
  0
LWPOLYLINE
  5
3A4
330
1F
100
AcDbEntity
  8
0
  6
Continuous
 62
     7
370
    30
100
AcDbPolyline
 90
        8
 70
   128
 43
0.0
 10
560.4451478062
 20
342.7632841947
 10
562.1137697523
 20
344.0773798116
 10
563.6432509355
 20
345.5654409127
 10
564.9078855003
 20
347.1341802446
 10
565.8950499629
 20
348.7679387732
 10
566.5948905244
 20
350.4504084479
 10
567.0004214307
 20
352.1647949874
 10
567.110624027
 20
353.6478752274
  0
LINE
  5
3A5
330
1F
100
AcDbEntity
  8
0
  6
Continuous
 62
     7
370
    30
100
AcDbLine
 10
607.8213021457
 20
431.2066458505
 30
0.0
 11
567.110624027
 21
407.7048716219
 31
0.0
  0
ARC
  5
3A6
330
1F
100
AcDbEntity
  8
0
  6
Continuous
 62
     7
370
    30
100
AcDbCircle
 10
614.8923699576
 20
417.6345082326
 30
0.0
 40
15.3036897354968
100
AcDbArc
 50
62.4805390039
 51
117.5194609961
  0
LINE
  5
3A7
330
1F
100
AcDbEntity
  8
0
  6
Continuous
 62
     7
370
    30
100
AcDbLine
 10
671.4609124525
 20
402.6323619367
 30
0.0
 11
621.9634377694
 21
431.2066458505
 31
0.0
  0
LWPOLYLINE
  5
3A8
330
1F
100
AcDbEntity
  8
0
  6
Continuous
 62
     7
370
    30
100
AcDbPolyline
 90
       10
 70
   128
 43
0.0
 10
671.4609124525
 20
394.4682808185
 10
672.5813650835
 20
395.2391350911
 10
673.452922511
 20
396.1105980836
 10
674.0491029035
 20
397.0561908337
 10
674.3517916215
 20
398.0471819844
 10
674.3517916215
 20
399.0534607709
 10
674.0491029035
 20
400.0444519215
 10
673.452922511
 20
400.9900446717
 10
672.5813650835
 20
401.8615076641
 10
671.4609124525
 20
402.6323619367
  0
LINE
  5
3A9
330
1F
100
AcDbEntity
  8
0
  6
Continuous
 62
     7
370
    30
100
AcDbLine
 10
671.4609124525
 20
394.4682808185
 30
0.0
 11
547.7172257448
 21
323.032571034
 31
0.0
  0
LWPOLYLINE
  5
3AA
330
1F
100
AcDbEntity
  8
0
  6
Continuous
 62
     7
370
    30
100
AcDbPolyline
 90
       19
 70
   128
 43
0.0
 10
600.9958125189
 20
371.8752884748
 10
600.4873121113
 20
371.4560541465
 10
600.2578577934
 20
370.9617023741
 10
600.3351251425
 20
370.4518592773
 10
600.7097945758
 20
369.9880194579
 10
601.3366754302
 20
369.6261288437
 10
602.1401566228
 20
369.4098367838
 10
603.0233264638
 20
369.3652312926
 10
603.879661636
 20
369.4976924508
 10
604.6058754796
 20
369.7912434877
 10
605.1143758872
 20
370.210477816
 10
605.3438302051
 20
370.7048295883
 10
605.266562856
 20
371.2146726852
 10
604.8918934227
 20
371.6785125046
 10
604.2650125683
 20
372.0404031188
 10
603.4615313757
 20
372.2566951787
 10
602.5783615348
 20
372.3013006699
 10
601.7220263625
 20
372.1688395117
 10
600.9958125189
 20
371.8752884748
  0
LWPOLYLINE
  5
3AB
330
1F
100
AcDbEntity
  8
0
  6
Continuous
 62
     7
370
    30
100
AcDbPolyline
 90
       19
 70
   128
 43
0.0
 10
618.9563247611
 20
382.2436714949
 10
618.4478243534
 20
381.8244371667
 10
618.2183700356
 20
381.3300853943
 10
618.2956373846
 20
380.8202422974
 10
618.6703068179
 20
380.356402478
 10
619.2971876723
 20
379.9945118639
 10
620.100668865
 20
379.7782198039
 10
620.9838387059
 20
379.7336143128
 10
621.8401738782
 20
379.8660754709
 10
622.5663877217
 20
380.1596265079
 10
623.0748881294
 20
380.5788608361
 10
623.3043424472
 20
381.0732126085
 10
623.2270750982
 20
381.5830557053
 10
622.8524056649
 20
382.0468955247
 10
622.2255248105
 20
382.4087861389
 10
621.4220436178
 20
382.6250781988
 10
620.5388737769
 20
382.66968369
 10
619.6825386047
 20
382.5372225318
 10
618.9563247611
 20
382.2436714949
  0
LWPOLYLINE
  5
3AC
330
1F
100
AcDbEntity
  8
0
  6
Continuous
 62
     7
370
    30
100
AcDbPolyline
 90
       19
 70
   128
 43
0.0
 10
636.9168370032
 20
392.6120545151
 10
636.4083365956
 20
392.1928201868
 10
636.1788822777
 20
391.6984684144
 10
636.2561496268
 20
391.1886253176
 10
636.6308190601
 20
390.7247854982
 10
637.2576999145
 20
390.362894884
 10
638.0611811071
 20
390.1466028241
 10
638.9443509481
 20
390.1019973329
 10
639.8006861203
 20
390.2344584911
 10
640.5268999639
 20
390.528009528
 10
641.0354003715
 20
390.9472438563
 10
641.2648546894
 20
391.4415956286
 10
641.1875873403
 20
391.9514387255
 10
640.812917907
 20
392.4152785449
 10
640.1860370526
 20
392.7771691591
 10
639.38255586
 20
392.993461219
 10
638.499386019
 20
393.0380667101
 10
637.6430508468
 20
392.905605552
 10
636.9168370032
 20
392.6120545151
  0
LWPOLYLINE
  5
3AD
330
1F
100
AcDbEntity
  8
0
  6
Continuous
 62
     7
370
    30
100
AcDbPolyline
 90
       19
 70
   128
 43
0.0
 10
654.8773492453
 20
402.9804375352
 10
654.3688488377
 20
402.561203207
 10
654.1393945199
 20
402.0668514346
 10
654.2166618689
 20
401.5570083377
 10
654.5913313022
 20
401.0931685183
 10
655.2182121566
 20
400.7312779042
 10
656.0216933493
 20
400.5149858442
 10
656.9048631902
 20
400.4703803531
 10
657.7611983624
 20
400.6028415112
 10
658.487412206
 20
400.8963925482
 10
658.9959126137
 20
401.3156268764
 10
659.2253669315
 20
401.8099786488
 10
659.1480995825
 20
402.3198217456
 10
658.7734301491
 20
402.783661565
 10
658.1465492948
 20
403.1455521792
 10
657.3430681021
 20
403.3618442391
 10
656.4598982612
 20
403.4064497303
 10
655.6035630889
 20
403.2739885721
 10
654.8773492453
 20
402.9804375352
  0
LWPOLYLINE
  5
3AE
330
1F
100
AcDbEntity
  8
0
  6
Continuous
 62
     7
370
    30
100
AcDbPolyline
 90
       19
 70
   128
 43
0.0
 10
583.0353002768
 20
382.2436714949
 10
582.5267998692
 20
381.8244371667
 10
582.2973455513
 20
381.3300853943
 10
582.3746129004
 20
380.8202422974
 10
582.7492823337
 20
380.356402478
 10
583.3761631881
 20
379.9945118639
 10
584.1796443807
 20
379.7782198039
 10
585.0628142216
 20
379.7336143128
 10
585.9191493939
 20
379.8660754709
 10
586.6453632375
 20
380.1596265079
 10
587.1538636451
 20
380.5788608361
 10
587.3833179629
 20
381.0732126085
 10
587.3060506139
 20
381.5830557053
 10
586.9313811806
 20
382.0468955247
 10
586.3045003262
 20
382.4087861389
 10
585.5010191336
 20
382.6250781988
 10
584.6178492926
 20
382.66968369
 10
583.7615141204
 20
382.5372225318
 10
583.0353002768
 20
382.2436714949
  0
LWPOLYLINE
  5
3AF
330
1F
100
AcDbEntity
  8
0
  6
Continuous
 62
     7
370
    30
100
AcDbPolyline
 90
       19
 70
   128
 43
0.0
 10
600.9958125189
 20
392.6120545151
 10
600.4873121113
 20
392.1928201868
 10
600.2578577934
 20
391.6984684144
 10
600.3351251425
 20
391.1886253176
 10
600.7097945758
 20
390.7247854982
 10
601.3366754302
 20
390.362894884
 10
602.1401566228
 20
390.1466028241
 10
603.0233264638
 20
390.1019973329
 10
603.879661636
 20
390.2344584911
 10
604.6058754796
 20
390.528009528
 10
605.1143758872
 20
390.9472438563
 10
605.3438302051
 20
391.4415956286
 10
605.266562856
 20
391.9514387255
 10
604.8918934227
 20
392.4152785449
 10
604.2650125683
 20
392.7771691591
 10
603.4615313757
 20
392.993461219
 10
602.5783615348
 20
393.0380667101
 10
601.7220263625
 20
392.905605552
 10
600.9958125189
 20
392.6120545151
  0
LWPOLYLINE
  5
3B0
330
1F
100
AcDbEntity
  8
0
  6
Continuous
 62
     7
370
    30
100
AcDbPolyline
 90
       19
 70
   128
 43
0.0
 10
618.9563247611
 20
402.9804375352
 10
618.4478243534
 20
402.561203207
 10
618.2183700356
 20
402.0668514346
 10
618.2956373846
 20
401.5570083377
 10
618.670306818
 20
401.0931685183
 10
619.2971876723
 20
400.7312779042
 10
620.100668865
 20
400.5149858442
 10
620.9838387059
 20
400.4703803531
 10
621.8401738782
 20
400.6028415112
 10
622.5663877217
 20
400.8963925482
 10
623.0748881294
 20
401.3156268764
 10
623.3043424472
 20
401.8099786488
 10
623.2270750982
 20
402.3198217456
 10
622.8524056649
 20
402.783661565
 10
622.2255248105
 20
403.1455521792
 10
621.4220436178
 20
403.3618442391
 10
620.5388737769
 20
403.4064497303
 10
619.6825386047
 20
403.2739885721
 10
618.9563247611
 20
402.9804375352
  0
LWPOLYLINE
  5
3B1
330
1F
100
AcDbEntity
  8
0
  6
Continuous
 62
     7
370
    30
100
AcDbPolyline
 90
       19
 70
   128
 43
0.0
 10
636.9168370032
 20
413.3488205553
 10
636.4083365956
 20
412.9295862271
 10
636.1788822777
 20
412.4352344547
 10
636.2561496268
 20
411.9253913579
 10
636.6308190601
 20
411.4615515385
 10
637.2576999145
 20
411.0996609243
 10
638.0611811071
 20
410.8833688644
 10
638.9443509481
 20
410.8387633732
 10
639.8006861203
 20
410.9712245314
 10
640.5268999639
 20
411.2647755683
 10
641.0354003715
 20
411.6840098966
 10
641.2648546894
 20
412.1783616689
 10
641.1875873403
 20
412.6882047658
 10
640.812917907
 20
413.1520445852
 10
640.1860370526
 20
413.5139351993
 10
639.38255586
 20
413.7302272593
 10
638.499386019
 20
413.7748327504
 10
637.6430508468
 20
413.6423715923
 10
636.9168370032
 20
413.3488205553
  0
LWPOLYLINE
  5
3B2
330
1F
100
AcDbEntity
  8
0
  6
Continuous
 62
     7
370
    30
100
AcDbPolyline
 90
       10
 70
   128
 43
0.0
 10
567.110624027
 20
390.1024255708
 10
567.9586371517
 20
390.2344584911
 10
568.6848509953
 20
390.528009528
 10
569.193351403
 20
390.9472438563
 10
569.4228057208
 20
391.4415956286
 10
569.3455383718
 20
391.9514387255
 10
568.9708689384
 20
392.4152785449
 10
568.3439880841
 20
392.7771691591
 10
567.5405068914
 20
392.993461219
 10
567.110624027
 20
393.0376384723
  0
LWPOLYLINE
  5
3B3
330
1F
100
AcDbEntity
  8
0
  6
Continuous
 62
     7
370
    30
100
AcDbPolyline
 90
       19
 70
   128
 43
0.0
 10
583.0353002768
 20
402.9804375352
 10
582.5267998692
 20
402.561203207
 10
582.2973455513
 20
402.0668514346
 10
582.3746129004
 20
401.5570083377
 10
582.7492823337
 20
401.0931685183
 10
583.3761631881
 20
400.7312779042
 10
584.1796443807
 20
400.5149858442
 10
585.0628142216
 20
400.4703803531
 10
585.9191493939
 20
400.6028415112
 10
586.6453632375
 20
400.8963925482
 10
587.1538636451
 20
401.3156268764
 10
587.3833179629
 20
401.8099786488
 10
587.3060506139
 20
402.3198217456
 10
586.9313811806
 20
402.783661565
 10
586.3045003262
 20
403.1455521792
 10
585.5010191336
 20
403.3618442391
 10
584.6178492926
 20
403.4064497303
 10
583.7615141204
 20
403.2739885721
 10
583.0353002768
 20
402.9804375352
  0
LWPOLYLINE
  5
3B4
330
1F
100
AcDbEntity
  8
0
  6
Continuous
 62
     7
370
    30
100
AcDbPolyline
 90
       19
 70
   128
 43
0.0
 10
600.9958125189
 20
413.3488205553
 10
600.4873121113
 20
412.9295862271
 10
600.2578577934
 20
412.4352344547
 10
600.3351251425
 20
411.9253913579
 10
600.7097945758
 20
411.4615515385
 10
601.3366754302
 20
411.0996609243
 10
602.1401566228
 20
410.8833688644
 10
603.0233264638
 20
410.8387633732
 10
603.879661636
 20
410.9712245314
 10
604.6058754796
 20
411.2647755683
 10
605.1143758872
 20
411.6840098966
 10
605.3438302051
 20
412.1783616689
 10
605.266562856
 20
412.6882047658
 10
604.8918934227
 20
413.1520445852
 10
604.2650125683
 20
413.5139351993
 10
603.4615313757
 20
413.7302272593
 10
602.5783615348
 20
413.7748327504
 10
601.7220263625
 20
413.6423715923
 10
600.9958125189
 20
413.3488205553
  0
LWPOLYLINE
  5
3B5
330
1F
100
AcDbEntity
  8
0
  6
Continuous
 62
     7
370
    30
100
AcDbPolyline
 90
       19
 70
   128
 43
0.0
 10
618.9563247611
 20
423.7172035755
 10
618.4478243534
 20
423.2979692472
 10
618.2183700356
 20
422.8036174749
 10
618.2956373846
 20
422.293774378
 10
618.670306818
 20
421.8299345586
 10
619.2971876723
 20
421.4680439444
 10
620.100668865
 20
421.2517518845
 10
620.9838387059
 20
421.2071463934
 10
621.8401738782
 20
421.3396075515
 10
622.5663877217
 20
421.6331585884
 10
623.0748881294
 20
422.0523929167
 10
623.3043424472
 20
422.5467446891
 10
623.2270750982
 20
423.0565877859
 10
622.8524056649
 20
423.5204276053
 10
622.2255248105
 20
423.8823182195
 10
621.4220436178
 20
424.0986102794
 10
620.5388737769
 20
424.1432157706
 10
619.6825386047
 20
424.0107546124
 10
618.9563247611
 20
423.7172035755
  0
LWPOLYLINE
  5
3B6
330
1F
100
AcDbEntity
  8
0
  6
Continuous
 62
     7
370
    30
100
AcDbPolyline
 90
       22
 70
   128
 43
0.0
 10
623.0594532803
 20
390.2433688398
 10
622.2799792833
 20
389.9112679251
 10
621.3655689647
 20
389.7265554798
 10
620.3974716941
 20
389.7056440151
 10
619.4617071624
 20
389.8503916066
 10
618.6414221548
 20
390.1479367954
 10
618.0095025939
 20
390.5718413859
 10
617.622097306
 20
391.0844395948
 10
617.5136289508
 20
391.6401848218
 10
617.6937354179
 20
392.1896966646
 10
618.1464134572
 20
392.6841485846
 10
618.8314406383
 20
393.0796063587
 10
619.6879492901
 20
393.3409318283
 10
620.63983486
 20
393.4449050786
 10
621.602518138
 20
393.38228763
 10
622.4904604901
 20
393.1586433177
 10
623.2247643416
 20
392.7938439202
 10
623.740183573
 20
392.3203034649
 10
623.9909209236
 20
391.7800980993
 10
623.9546972794
 20
391.2212274409
 10
623.6347312703
 20
390.6933496002
 10
623.0594532803
 20
390.2433688398
  0
LWPOLYLINE
  5
3B7
330
1F
100
AcDbEntity
  8
0
  6
Continuous
 62
     7
370
    30
100
AcDbPolyline
 90
       22
 70
   128
 43
0.0
 10
641.0199655224
 20
400.61175186
 10
640.2404915254
 20
400.2796509453
 10
639.3260812068
 20
400.0949384999
 10
638.3579839362
 20
400.0740270353
 10
637.4222194045
 20
400.2187746267
 10
636.6019343969
 20
400.5163198156
 10
635.9700148361
 20
400.940224406
 10
635.5826095481
 20
401.4528226149
 10
635.474141193
 20
402.0085678419
 10
635.65424766
 20
402.5580796848
 10
636.1069256993
 20
403.0525316047
 10
636.7919528804
 20
403.4479893788
 10
637.6484615322
 20
403.7093148484
 10
638.6003471021
 20
403.8132880987
 10
639.5630303801
 20
403.7506706502
 10
640.4509727322
 20
403.5270263378
 10
641.1852765838
 20
403.1622269403
 10
641.7006958151
 20
402.688686485
 10
641.9514331657
 20
402.1484811195
 10
641.9152095216
 20
401.589610461
 10
641.5952435124
 20
401.0617326203
 10
641.0199655224
 20
400.61175186
  0
LWPOLYLINE
  5
3B8
330
1F
100
AcDbEntity
  8
0
  6
Continuous
 62
     7
370
    30
100
AcDbPolyline
 90
       22
 70
   128
 43
0.0
 10
605.0989410381
 20
379.8749858197
 10
604.3194670412
 20
379.542884905
 10
603.4050567225
 20
379.3581724596
 10
602.4369594519
 20
379.337260995
 10
601.5011949202
 20
379.4820085864
 10
600.6809099126
 20
379.7795537753
 10
600.0489903518
 20
380.2034583657
 10
599.6615850638
 20
380.7160565746
 10
599.5531167087
 20
381.2718018016
 10
599.7332231758
 20
381.8213136445
 10
600.185901215
 20
382.3157655644
 10
600.8709283962
 20
382.7112233385
 10
601.7274370479
 20
382.9725488081
 10
602.6793226179
 20
383.0765220584
 10
603.6420058959
 20
383.0139046099
 10
604.5299482479
 20
382.7902602975
 10
605.2642520995
 20
382.4254609
 10
605.7796713308
 20
381.9519204447
 10
606.0304086814
 20
381.4117150792
 10
605.9941850373
 20
380.8528444207
 10
605.6742190282
 20
380.32496658
 10
605.0989410381
 20
379.8749858197
  0
LWPOLYLINE
  5
3B9
330
1F
100
AcDbEntity
  8
0
  6
Continuous
 62
     7
370
    30
100
AcDbPolyline
 90
       22
 70
   128
 43
0.0
 10
587.138428796
 20
390.2433688398
 10
586.358954799
 20
389.9112679251
 10
585.4445444804
 20
389.7265554798
 10
584.4764472098
 20
389.7056440151
 10
583.5406826781
 20
389.8503916066
 10
582.7203976705
 20
390.1479367954
 10
582.0884781096
 20
390.5718413859
 10
581.7010728217
 20
391.0844395948
 10
581.5926044666
 20
391.6401848218
 10
581.7727109336
 20
392.1896966646
 10
582.2253889729
 20
392.6841485846
 10
582.910416154
 20
393.0796063587
 10
583.7669248058
 20
393.3409318283
 10
584.7188103757
 20
393.4449050786
 10
585.6814936537
 20
393.38228763
 10
586.5694360058
 20
393.1586433177
 10
587.3037398574
 20
392.7938439202
 10
587.8191590887
 20
392.3203034649
 10
588.0698964393
 20
391.7800980993
 10
588.0336727951
 20
391.2212274409
 10
587.713706786
 20
390.6933496002
 10
587.138428796
 20
390.2433688398
  0
LWPOLYLINE
  5
3BA
330
1F
100
AcDbEntity
  8
0
  6
Continuous
 62
     7
370
    30
100
AcDbPolyline
 90
       22
 70
   128
 43
0.0
 10
623.0594532803
 20
410.9801348801
 10
622.2799792833
 20
410.6480339654
 10
621.3655689647
 20
410.4633215201
 10
620.3974716941
 20
410.4424100554
 10
619.4617071624
 20
410.5871576469
 10
618.6414221548
 20
410.8847028357
 10
618.0095025939
 20
411.3086074261
 10
617.622097306
 20
411.8212056351
 10
617.5136289508
 20
412.3769508621
 10
617.6937354179
 20
412.9264627049
 10
618.1464134572
 20
413.4209146249
 10
618.8314406383
 20
413.816372399
 10
619.6879492901
 20
414.0776978686
 10
620.63983486
 20
414.1816711189
 10
621.602518138
 20
414.1190536703
 10
622.4904604901
 20
413.895409358
 10
623.2247643416
 20
413.5306099605
 10
623.740183573
 20
413.0570695052
 10
623.9909209236
 20
412.5168641396
 10
623.9546972794
 20
411.9579934812
 10
623.6347312703
 20
411.4301156405
 10
623.0594532803
 20
410.9801348801
  0
LWPOLYLINE
  5
3BB
330
1F
100
AcDbEntity
  8
0
  6
Continuous
 62
     7
370
    30
100
AcDbPolyline
 90
       22
 70
   128
 43
0.0
 10
605.0989410381
 20
400.61175186
 10
604.3194670412
 20
400.2796509453
 10
603.4050567225
 20
400.0949384999
 10
602.4369594519
 20
400.0740270353
 10
601.5011949202
 20
400.2187746267
 10
600.6809099126
 20
400.5163198156
 10
600.0489903518
 20
400.940224406
 10
599.6615850638
 20
401.4528226149
 10
599.5531167087
 20
402.0085678419
 10
599.7332231758
 20
402.5580796848
 10
600.185901215
 20
403.0525316047
 10
600.8709283962
 20
403.4479893788
 10
601.7274370479
 20
403.7093148484
 10
602.6793226179
 20
403.8132880987
 10
603.6420058959
 20
403.7506706502
 10
604.5299482479
 20
403.5270263378
 10
605.2642520995
 20
403.1622269403
 10
605.7796713308
 20
402.688686485
 10
606.0304086814
 20
402.1484811195
 10
605.9941850373
 20
401.589610461
 10
605.6742190282
 20
401.0617326203
 10
605.0989410381
 20
400.61175186
  0
LINE
  5
3BC
330
1F
100
AcDbEntity
  8
0
  6
Continuous
 62
     7
370
    30
100
AcDbLine
 10
484.077615438
 20
359.770936066
 30
0.0
 11
484.077615438
 21
344.2566606402
 31
0.0
  0
LINE
  5
3BD
330
1F
100
AcDbEntity
  8
0
  6
Continuous
 62
     7
370
    30
100
AcDbLine
 10
547.7172257448
 20
323.032571034
 30
0.0
 11
547.7172257448
 21
307.5182956082
 31
0.0
  0
LINE
  5
3BE
330
1F
100
AcDbEntity
  8
0
  6
Continuous
 62
     7
370
    30
100
AcDbLine
 10
547.7172257448
 20
307.5182956082
 30
0.0
 11
484.077615438
 21
344.2566606402
 31
0.0
  0
LINE
  5
3BF
330
1F
100
AcDbEntity
  8
0
  6
Continuous
 62
     7
370
    30
100
AcDbLine
 10
671.4609124525
 20
394.4682808185
 30
0.0
 11
671.4609124525
 21
378.9540053927
 31
0.0
  0
LINE
  5
3C0
330
1F
100
AcDbEntity
  8
0
  6
Continuous
 62
     7
370
    30
100
AcDbLine
 10
671.4609124525
 20
378.9540053927
 30
0.0
 11
547.7172257448
 21
307.5182956082
 31
0.0
  0
ARC
  5
3C1
330
1F
100
AcDbEntity
  8
0
  6
Continuous
 62
     7
370
    30
100
AcDbCircle
 10
669.5120821664
 20
383.4441227575
 30
0.0
 40
4.894802696144743
100
AcDbArc
 50
293.462125065
 51
355.2177339774
  0
LINE
  5
3C2
330
1F
100
AcDbEntity
  8
0
  6
Continuous
 62
     8
370
    30
100
AcDbLine
 10
558.3238274626
 20
399.3761511939
 30
0.0
 11
558.3238274626
 21
389.579253852
 31
0.0
  0
ENDSEC
  0
SECTION
  2
OBJECTS
  0
DICTIONARY
  5
C
330
0
100
AcDbDictionary
281
     1
  3
ACAD_GROUP
350
D
  3
ACAD_LAYOUT
350
1A
  3
ACAD_MLINESTYLE
350
17
  3
ACAD_PLOTSETTINGS
350
19
  3
ACAD_PLOTSTYLENAME
350
E
  3
ACAD_SCALELIST
350
47
  0
DICTIONARY
  5
D
102
{ACAD_REACTORS
330
C
102
}
330
C
100
AcDbDictionary
281
     1
  0
DICTIONARY
  5
1A
102
{ACAD_REACTORS
330
C
102
}
330
C
100
AcDbDictionary
281
     1
  3
Layout1
350
1E
  3
Layout2
350
26
  3
Model
350
22
  0
DICTIONARY
  5
17
102
{ACAD_REACTORS
330
C
102
}
330
C
100
AcDbDictionary
281
     1
  3
Standard
350
18
  0
DICTIONARY
  5
19
102
{ACAD_REACTORS
330
C
102
}
330
C
100
AcDbDictionary
281
     1
  0
ACDBDICTIONARYWDFLT
  5
E
102
{ACAD_REACTORS
330
C
102
}
330
C
100
AcDbDictionary
281
     1
  3
Normal
350
F
100
AcDbDictionaryWithDefault
340
F
  0
DICTIONARY
  5
47
102
{ACAD_REACTORS
330
C
102
}
330
C
100
AcDbDictionary
281
     1
  3
A0
350
48
  3
A1
350
49
  3
A2
350
4A
  3
A3
350
4B
  3
A4
350
4C
  3
A5
350
4D
  3
A6
350
4E
  3
A7
350
4F
  3
A8
350
50
  3
A9
350
51
  3
B0
350
52
  3
B1
350
53
  3
B2
350
54
  3
B3
350
55
  3
B4
350
56
  3
B5
350
57
  3
B6
350
58
  3
B7
350
59
  3
B8
350
5A
  3
B9
350
5B
  3
C0
350
5C
  3
C1
350
5D
  3
C2
350
5E
  3
C3
350
5F
  3
C4
350
60
  3
C5
350
61
  3
C6
350
62
  3
C7
350
63
  3
C8
350
64
  3
C9
350
65
  3
D0
350
66
  3
D1
350
67
  3
D2
350
68
  0
LAYOUT
  5
1E
102
{ACAD_REACTORS
330
1A
102
}
330
1A
100
AcDbPlotSettings
  1

  2
none_device
  4

  6

 40
0.0
 41
0.0
 42
0.0
 43
0.0
 44
0.0
 45
0.0
 46
0.0
 47
0.0
 48
0.0
 49
0.0
140
0.0
141
0.0
142
1.0
143
1.0
 70
   688
 72
     1
 73
     0
 74
     5
  7

 75
    16
147
1.0
148
0.0
149
0.0
100
AcDbLayout
  1
Layout1
 70
     1
 71
     1
 10
0.0
 20
0.0
 11
420.0
 21
297.0
 12
0.0
 22
0.0
 32
0.0
 14
1.0000000000E+20
 24
1.0000000000E+20
 34
1.0000000000E+20
 15
-1.0000000000E+20
 25
-1.0000000000E+20
 35
-1.0000000000E+20
146
0.0
 13
0.0
 23
0.0
 33
0.0
 16
1.0
 26
0.0
 36
0.0
 17
0.0
 27
1.0
 37
0.0
 76
     0
330
1B
  0
LAYOUT
  5
26
102
{ACAD_REACTORS
330
1A
102
}
330
1A
100
AcDbPlotSettings
  1

  2
none_device
  4

  6

 40
0.0
 41
0.0
 42
0.0
 43
0.0
 44
0.0
 45
0.0
 46
0.0
 47
0.0
 48
0.0
 49
0.0
140
0.0
141
0.0
142
1.0
143
1.0
 70
   688
 72
     1
 73
     0
 74
     5
  7

 75
    16
147
1.0
148
0.0
149
0.0
100
AcDbLayout
  1
Layout2
 70
     1
 71
     2
 10
0.0
 20
0.0
 11
0.0
 21
0.0
 12
0.0
 22
0.0
 32
0.0
 14
0.0
 24
0.0
 34
0.0
 15
0.0
 25
0.0
 35
0.0
146
0.0
 13
0.0
 23
0.0
 33
0.0
 16
1.0
 26
0.0
 36
0.0
 17
0.0
 27
1.0
 37
0.0
 76
     0
330
23
  0
LAYOUT
  5
22
102
{ACAD_REACTORS
330
1A
102
}
330
1A
100
AcDbPlotSettings
  1

  2
none_device
  4
Letter_(8.50_x_11.00_Inches)
  6

 40
6.35
 41
6.35
 42
6.35000508
 43
6.35000508
 44
215.9
 45
279.4
 46
0.0
 47
0.0
 48
0.0
 49
0.0
140
0.0
141
0.0
142
1.0
143
1.0
 70
  1712
 72
     1
 73
     0
 74
     0
  7

 75
     0
147
1.0
148
0.0
149
0.0
100
AcDbLayout
  1
Model
 70
     1
 71
     0
 10
0.0
 20
0.0
 11
742.5
 21
525.0
 12
0.0
 22
0.0
 32
0.0
 14
0.0
 24
0.0
 34
0.0
 15
742.5
 25
525.0
 35
0.0
146
0.0
 13
0.0
 23
0.0
 33
0.0
 16
1.0
 26
0.0
 36
0.0
 17
0.0
 27
1.0
 37
0.0
 76
     0
330
1F
331
29
  0
MLINESTYLE
  5
18
102
{ACAD_REACTORS
330
17
102
}
330
17
100
AcDbMlineStyle
  2
Standard
 70
     0
  3

 62
   256
 51
90.0
 52
90.0
 71
     2
 49
0.5
 62
   256
  6
BYLAYER
 49
-0.5
 62
   256
  6
BYLAYER
  0
ACDBPLACEHOLDER
  5
F
102
{ACAD_REACTORS
330
E
102
}
330
E
  0
SCALE
  5
48
102
{ACAD_REACTORS
330
47
102
}
330
47
100
AcDbScale
 70
     0
300
1:1
140
1.0
141
1.0
290
     1
  0
SCALE
  5
49
102
{ACAD_REACTORS
330
47
102
}
330
47
100
AcDbScale
 70
     0
300
1:2
140
1.0
141
2.0
290
     0
  0
SCALE
  5
4A
102
{ACAD_REACTORS
330
47
102
}
330
47
100
AcDbScale
 70
     0
300
1:4
140
1.0
141
4.0
290
     0
  0
SCALE
  5
4B
102
{ACAD_REACTORS
330
47
102
}
330
47
100
AcDbScale
 70
     0
300
1:5
140
1.0
141
5.0
290
     0
  0
SCALE
  5
4C
102
{ACAD_REACTORS
330
47
102
}
330
47
100
AcDbScale
 70
     0
300
1:8
140
1.0
141
8.0
290
     0
  0
SCALE
  5
4D
102
{ACAD_REACTORS
330
47
102
}
330
47
100
AcDbScale
 70
     0
300
1:10
140
1.0
141
10.0
290
     0
  0
SCALE
  5
4E
102
{ACAD_REACTORS
330
47
102
}
330
47
100
AcDbScale
 70
     0
300
1:16
140
1.0
141
16.0
290
     0
  0
SCALE
  5
4F
102
{ACAD_REACTORS
330
47
102
}
330
47
100
AcDbScale
 70
     0
300
1:20
140
1.0
141
20.0
290
     0
  0
SCALE
  5
50
102
{ACAD_REACTORS
330
47
102
}
330
47
100
AcDbScale
 70
     0
300
1:30
140
1.0
141
30.0
290
     0
  0
SCALE
  5
51
102
{ACAD_REACTORS
330
47
102
}
330
47
100
AcDbScale
 70
     0
300
1:40
140
1.0
141
40.0
290
     0
  0
SCALE
  5
52
102
{ACAD_REACTORS
330
47
102
}
330
47
100
AcDbScale
 70
     0
300
1:50
140
1.0
141
50.0
290
     0
  0
SCALE
  5
53
102
{ACAD_REACTORS
330
47
102
}
330
47
100
AcDbScale
 70
     0
300
1:100
140
1.0
141
100.0
290
     0
  0
SCALE
  5
54
102
{ACAD_REACTORS
330
47
102
}
330
47
100
AcDbScale
 70
     0
300
2:1
140
2.0
141
1.0
290
     0
  0
SCALE
  5
55
102
{ACAD_REACTORS
330
47
102
}
330
47
100
AcDbScale
 70
     0
300
4:1
140
4.0
141
1.0
290
     0
  0
SCALE
  5
56
102
{ACAD_REACTORS
330
47
102
}
330
47
100
AcDbScale
 70
     0
300
8:1
140
8.0
141
1.0
290
     0
  0
SCALE
  5
57
102
{ACAD_REACTORS
330
47
102
}
330
47
100
AcDbScale
 70
     0
300
10:1
140
10.0
141
1.0
290
     0
  0
SCALE
  5
58
102
{ACAD_REACTORS
330
47
102
}
330
47
100
AcDbScale
 70
     0
300
100:1
140
100.0
141
1.0
290
     0
  0
SCALE
  5
59
102
{ACAD_REACTORS
330
47
102
}
330
47
100
AcDbScale
 70
     0
300
1/128" = 1'-0"
140
0.0078125
141
12.0
290
     0
  0
SCALE
  5
5A
102
{ACAD_REACTORS
330
47
102
}
330
47
100
AcDbScale
 70
     0
300
1/64" = 1'-0"
140
0.015625
141
12.0
290
     0
  0
SCALE
  5
5B
102
{ACAD_REACTORS
330
47
102
}
330
47
100
AcDbScale
 70
     0
300
1/32" = 1'-0"
140
0.03125
141
12.0
290
     0
  0
SCALE
  5
5C
102
{ACAD_REACTORS
330
47
102
}
330
47
100
AcDbScale
 70
     0
300
1/16" = 1'-0"
140
0.0625
141
12.0
290
     0
  0
SCALE
  5
5D
102
{ACAD_REACTORS
330
47
102
}
330
47
100
AcDbScale
 70
     0
300
3/32" = 1'-0"
140
0.09375
141
12.0
290
     0
  0
SCALE
  5
5E
102
{ACAD_REACTORS
330
47
102
}
330
47
100
AcDbScale
 70
     0
300
1/8" = 1'-0"
140
0.125
141
12.0
290
     0
  0
SCALE
  5
5F
102
{ACAD_REACTORS
330
47
102
}
330
47
100
AcDbScale
 70
     0
300
3/16" = 1'-0"
140
0.1875
141
12.0
290
     0
  0
SCALE
  5
60
102
{ACAD_REACTORS
330
47
102
}
330
47
100
AcDbScale
 70
     0
300
1/4" = 1'-0"
140
0.25
141
12.0
290
     0
  0
SCALE
  5
61
102
{ACAD_REACTORS
330
47
102
}
330
47
100
AcDbScale
 70
     0
300
3/8" = 1'-0"
140
0.375
141
12.0
290
     0
  0
SCALE
  5
62
102
{ACAD_REACTORS
330
47
102
}
330
47
100
AcDbScale
 70
     0
300
1/2" = 1'-0"
140
0.5
141
12.0
290
     0
  0
SCALE
  5
63
102
{ACAD_REACTORS
330
47
102
}
330
47
100
AcDbScale
 70
     0
300
3/4" = 1'-0"
140
0.75
141
12.0
290
     0
  0
SCALE
  5
64
102
{ACAD_REACTORS
330
47
102
}
330
47
100
AcDbScale
 70
     0
300
1" = 1'-0"
140
1.0
141
12.0
290
     0
  0
SCALE
  5
65
102
{ACAD_REACTORS
330
47
102
}
330
47
100
AcDbScale
 70
     0
300
1-1/2" = 1'-0"
140
1.5
141
12.0
290
     0
  0
SCALE
  5
66
102
{ACAD_REACTORS
330
47
102
}
330
47
100
AcDbScale
 70
     0
300
3" = 1'-0"
140
3.0
141
12.0
290
     0
  0
SCALE
  5
67
102
{ACAD_REACTORS
330
47
102
}
330
47
100
AcDbScale
 70
     0
300
6" = 1'-0"
140
6.0
141
12.0
290
     0
  0
SCALE
  5
68
102
{ACAD_REACTORS
330
47
102
}
330
47
100
AcDbScale
 70
     0
300
1'-0" = 1'-0"
140
12.0
141
12.0
290
     0
  0
ENDSEC
  0
EOF
