  0
SECTION
  2
HEADER
  9
$ACADVER
  1
AC1015
  9
$ACADMAINTVER
 70
     6
  9
$DWGCODEPAGE
  3
ANSI_950
  9
$INSBASE
 10
0.0
 20
0.0
 30
0.0
  9
$EXTMIN
 10
0.0
 20
0.0
 30
0.0
  9
$EXTMAX
 10
99.0
 20
70.0
 30
0.0
  9
$LIMMIN
 10
0.0
 20
0.0
  9
$LIMMAX
 10
99.0
 20
70.0
  9
$ORTHOMODE
 70
     0
  9
$REGENMODE
 70
     1
  9
$FILLMODE
 70
     1
  9
$QTEXTMODE
 70
     0
  9
$MIRRTEXT
 70
     1
  9
$LTSCALE
 40
0.3333333333
  9
$ATTMODE
 70
     1
  9
$TEXTSIZE
 40
1.0583333333
  9
$TRACEWID
 40
1.0
  9
$TEXTSTYLE
  7
Standard
  9
$CLAYER
  8
0
  9
$CELTYPE
  6
ByLayer
  9
$CECOLOR
 62
   256
  9
$CELTSCALE
 40
1.0
  9
$DISPSILH
 70
     0
  9
$DIMSCALE
 40
1.0
  9
$DIMASZ
 40
0.6666666667
  9
$DIMEXO
 40
0.3333333333
  9
$DIMDLI
 40
3.75
  9
$DIMRND
 40
0.0
  9
$DIMDLE
 40
0.0
  9
$DIMEXE
 40
0.3333333333
  9
$DIMTP
 40
0.0
  9
$DIMTM
 40
0.0
  9
$DIMTXT
 40
1.0583333333
  9
$DIMCEN
 40
2.5
  9
$DIMTSZ
 40
0.0
  9
$DIMTOL
 70
     0
  9
$DIMLIM
 70
     0
  9
$DIMTIH
 70
     1
  9
$DIMTOH
 70
     1
  9
$DIMSE1
 70
     0
  9
$DIMSE2
 70
     0
  9
$DIMTAD
 70
     1
  9
$DIMZIN
 70
     0
  9
$DIMBLK
  1

  9
$DIMASO
 70
     1
  9
$DIMSHO
 70
     1
  9
$DIMPOST
  1

  9
$DIMAPOST
  1

  9
$DIMALT
 70
     0
  9
$DIMALTD
 70
     3
  9
$DIMALTF
 40
0.0393700787
  9
$DIMLFAC
 40
1.0
  9
$DIMTOFL
 70
     1
  9
$DIMTVP
 40
0.0
  9
$DIMTIX
 70
     0
  9
$DIMSOXD
 70
     0
  9
$DIMSAH
 70
     0
  9
$DIMBLK1
  1

  9
$DIMBLK2
  1

  9
$DIMSTYLE
  2
ISO-25
  9
$DIMCLRD
 70
     0
  9
$DIMCLRE
 70
     0
  9
$DIMCLRT
 70
     0
  9
$DIMTFAC
 40
1.0
  9
$DIMGAP
 40
0.3333333333
  9
$DIMJUST
 70
     0
  9
$DIMSD1
 70
     0
  9
$DIMSD2
 70
     0
  9
$DIMTOLJ
 70
     0
  9
$DIMTZIN
 70
     0
  9
$DIMALTZ
 70
     0
  9
$DIMALTTZ
 70
     0
  9
$DIMUPT
 70
     0
  9
$DIMDEC
 70
     2
  9
$DIMTDEC
 70
     2
  9
$DIMALTU
 70
     2
  9
$DIMALTTD
 70
     3
  9
$DIMTXSTY
  7
Standard
  9
$DIMAUNIT
 70
     0
  9
$DIMADEC
 70
     2
  9
$DIMALTRND
 40
0.0
  9
$DIMAZIN
 70
     0
  9
$DIMDSEP
 70
    44
  9
$DIMATFIT
 70
     3
  9
$DIMFRAC
 70
     0
  9
$DIMLDRBLK
  1

  9
$DIMLUNIT
 70
     2
  9
$DIMLWD
 70
    -2
  9
$DIMLWE
 70
    -2
  9
$DIMTMOVE
 70
     0
  9
$LUNITS
 70
     2
  9
$LUPREC
 70
     2
  9
$SKETCHINC
 40
1.0
  9
$FILLETRAD
 40
10.0
  9
$AUNITS
 70
     0
  9
$AUPREC
 70
     2
  9
$MENU
  1
.
  9
$ELEVATION
 40
0.0
  9
$PELEVATION
 40
0.0
  9
$THICKNESS
 40
0.0
  9
$LIMCHECK
 70
     0
  9
$CHAMFERA
 40
0.0
  9
$CHAMFERB
 40
0.0
  9
$CHAMFERC
 40
0.0
  9
$CHAMFERD
 40
0.0
  9
$SKPOLY
 70
     0
  9
$TDCREATE
 40
2458373.623940093
  9
$TDUCREATE
 40
2458373.290606759
  9
$TDUPDATE
 40
2458373.623944607
  9
$TDUUPDATE
 40
2458373.290611273
  9
$TDINDWG
 40
0.0000000116
  9
$TDUSRTIMER
 40
0.0000000116
  9
$USRTIMER
 70
     1
  9
$ANGBASE
 50
0.0
  9
$ANGDIR
 70
     0
  9
$PDMODE
 70
     0
  9
$PDSIZE
 40
-1.0
  9
$PLINEWID
 40
0.0
  9
$SPLFRAME
 70
     0
  9
$SPLINETYPE
 70
     6
  9
$SPLINESEGS
 70
     8
  9
$HANDSEED
  5
19A
  9
$SURFTAB1
 70
     6
  9
$SURFTAB2
 70
     6
  9
$SURFTYPE
 70
     6
  9
$SURFU
 70
     6
  9
$SURFV
 70
     6
  9
$UCSBASE
  2

  9
$UCSNAME
  2

  9
$UCSORG
 10
0.0
 20
0.0
 30
0.0
  9
$UCSXDIR
 10
1.0
 20
0.0
 30
0.0
  9
$UCSYDIR
 10
0.0
 20
1.0
 30
0.0
  9
$UCSORTHOREF
  2

  9
$UCSORTHOVIEW
 70
     0
  9
$UCSORGTOP
 10
0.0
 20
0.0
 30
0.0
  9
$UCSORGBOTTOM
 10
0.0
 20
0.0
 30
0.0
  9
$UCSORGLEFT
 10
0.0
 20
0.0
 30
0.0
  9
$UCSORGRIGHT
 10
0.0
 20
0.0
 30
0.0
  9
$UCSORGFRONT
 10
0.0
 20
0.0
 30
0.0
  9
$UCSORGBACK
 10
0.0
 20
0.0
 30
0.0
  9
$PUCSBASE
  2

  9
$PUCSNAME
  2

  9
$PUCSORG
 10
0.0
 20
0.0
 30
0.0
  9
$PUCSXDIR
 10
1.0
 20
0.0
 30
0.0
  9
$PUCSYDIR
 10
0.0
 20
1.0
 30
0.0
  9
$PUCSORTHOREF
  2

  9
$PUCSORTHOVIEW
 70
     0
  9
$PUCSORGTOP
 10
0.0
 20
0.0
 30
0.0
  9
$PUCSORGBOTTOM
 10
0.0
 20
0.0
 30
0.0
  9
$PUCSORGLEFT
 10
0.0
 20
0.0
 30
0.0
  9
$PUCSORGRIGHT
 10
0.0
 20
0.0
 30
0.0
  9
$PUCSORGFRONT
 10
0.0
 20
0.0
 30
0.0
  9
$PUCSORGBACK
 10
0.0
 20
0.0
 30
0.0
  9
$USERI1
 70
     0
  9
$USERI2
 70
     0
  9
$USERI3
 70
     0
  9
$USERI4
 70
     0
  9
$USERI5
 70
     0
  9
$USERR1
 40
0.0
  9
$USERR2
 40
0.0
  9
$USERR3
 40
0.0
  9
$USERR4
 40
0.0
  9
$USERR5
 40
0.0
  9
$WORLDVIEW
 70
     1
  9
$SHADEDGE
 70
     3
  9
$SHADEDIF
 70
    70
  9
$TILEMODE
 70
     1
  9
$MAXACTVP
 70
    64
  9
$PINSBASE
 10
0.0
 20
0.0
 30
0.0
  9
$PLIMCHECK
 70
     0
  9
$PEXTMIN
 10
1.0000000000E+20
 20
1.0000000000E+20
 30
1.0000000000E+20
  9
$PEXTMAX
 10
-1.0000000000E+20
 20
-1.0000000000E+20
 30
-1.0000000000E+20
  9
$PLIMMIN
 10
0.0
 20
0.0
  9
$PLIMMAX
 10
420.0
 20
297.0
  9
$UNITMODE
 70
     0
  9
$VISRETAIN
 70
     1
  9
$PLINEGEN
 70
     0
  9
$PSLTSCALE
 70
     1
  9
$TREEDEPTH
 70
  3020
  9
$CMLSTYLE
  2
Standard
  9
$CMLJUST
 70
     0
  9
$CMLSCALE
 40
20.0
  9
$PROXYGRAPHICS
 70
     1
  9
$MEASUREMENT
 70
     1
  9
$CELWEIGHT
370
    -1
  9
$ENDCAPS
280
     0
  9
$JOINSTYLE
280
     0
  9
$LWDISPLAY
290
     1
  9
$INSUNITS
 70
     4
  9
$HYPERLINKBASE
  1

  9
$STYLESHEET
  1

  9
$XEDIT
290
     1
  9
$CEPSNTYPE
380
     0
  9
$PSTYLEMODE
290
     1
  9
$FINGERPRINTGUID
  2
{FA42F754-4AB6-42B7-B3C6-FCC823198D89}
  9
$VERSIONGUID
  2
{FAEB1C32-E019-11D5-929B-00C0DF256EC4}
  9
$EXTNAMES
290
     1
  9
$PSVPSCALE
 40
0.0
  9
$OLESTARTUP
290
     0
  0
ENDSEC
  0
SECTION
  2
CLASSES
  0
CLASS
  1
ACDBDICTIONARYWDFLT
  2
AcDbDictionaryWithDefault
  3
ObjectDBX Classes
 90
        0
280
     0
281
     0
  0
CLASS
  1
VISUALSTYLE
  2
AcDbVisualStyle
  3
ObjectDBX Classes
 90
     4095
280
     0
281
     0
  0
CLASS
  1
MATERIAL
  2
AcDbMaterial
  3
ObjectDBX Classes
 90
     1153
280
     0
281
     0
  0
CLASS
  1
SCALE
  2
AcDbScale
  3
ObjectDBX Classes
 90
     1153
280
     0
281
     0
  0
CLASS
  1
TABLESTYLE
  2
AcDbTableStyle
  3
ObjectDBX Classes
 90
     4095
280
     0
281
     0
  0
CLASS
  1
MLEADERSTYLE
  2
AcDbMLeaderStyle
  3
ACDB_MLEADERSTYLE_CLASS
 90
     4095
280
     0
281
     0
  0
CLASS
  1
SUN
  2
AcDbSun
  3
SCENEOE
 90
     1153
280
     0
281
     0
  0
CLASS
  1
ACDBPLACEHOLDER
  2
AcDbPlaceHolder
  3
ObjectDBX Classes
 90
        0
280
     0
281
     0
  0
CLASS
  1
LAYOUT
  2
AcDbLayout
  3
ObjectDBX Classes
 90
        0
280
     0
281
     0
  0
ENDSEC
  0
SECTION
  2
TABLES
  0
TABLE
  2
VPORT
  5
8
330
0
100
AcDbSymbolTable
 70
     1
  0
VPORT
  5
29
330
8
100
AcDbSymbolTableRecord
100
AcDbViewportTableRecord
  2
*Active
 70
     0
 10
0.0
 20
0.0
 11
1.0
 21
1.0
 12
49.5
 22
35.0
 13
0.0
 23
0.0
 14
10.0
 24
10.0
 15
10.0
 25
10.0
 16
0.0
 26
0.0
 36
1.0
 17
0.0
 27
0.0
 37
0.0
 40
70.0
 41
1.4142857143
 42
50.0
 43
0.0
 44
0.0
 50
0.0
 51
0.0
 71
     0
 72
  2000
 73
     1
 74
     3
 75
     0
 76
     0
 77
     0
 78
     0
281
     0
 65
     1
110
0.0
120
0.0
130
0.0
111
1.0
121
0.0
131
0.0
112
0.0
122
1.0
132
0.0
 79
     0
146
0.0
  0
ENDTAB
  0
TABLE
  2
LTYPE
  5
5
330
0
100
AcDbSymbolTable
 70
     6
  0
LTYPE
  5
14
330
5
100
AcDbSymbolTableRecord
100
AcDbLinetypeTableRecord
  2
ByBlock
 70
     0
  3

 72
    65
 73
     0
 40
0.0
  0
LTYPE
  5
15
330
5
100
AcDbSymbolTableRecord
100
AcDbLinetypeTableRecord
  2
ByLayer
 70
     0
  3

 72
    65
 73
     0
 40
0.0
  0
LTYPE
  5
16
330
5
100
AcDbSymbolTableRecord
100
AcDbLinetypeTableRecord
  2
Continuous
 70
     0
  3
Solid line
 72
    65
 73
     0
 40
0.0
  0
LTYPE
  5
6E
330
5
100
AcDbSymbolTableRecord
100
AcDbLinetypeTableRecord
  2
HIDDEN
 70
     0
  3
Hidden __ __ __ __ __ __ __ __ __ __ __ __ __ __
 72
    65
 73
     2
 40
1.905
 49
1.27
 74
     0
 49
-0.635
 74
     0
  0
LTYPE
  5
6F
330
5
100
AcDbSymbolTableRecord
100
AcDbLinetypeTableRecord
  2
PHANTOM
 70
     0
  3
Phantom ______  __  __  ______  __  __  ______
 72
    65
 73
     6
 40
12.7
 49
6.35
 74
     0
 49
-1.27
 74
     0
 49
1.27
 74
     0
 49
-1.27
 74
     0
 49
1.27
 74
     0
 49
-1.27
 74
     0
  0
LTYPE
  5
70
330
5
100
AcDbSymbolTableRecord
100
AcDbLinetypeTableRecord
  2
CENTER
 70
     0
  3
Center ____ _ ____ _ ____ _ ____ _ ____ _ ____
 72
    65
 73
     4
 40
10.16
 49
6.35
 74
     0
 49
-1.27
 74
     0
 49
1.27
 74
     0
 49
-1.27
 74
     0
  0
LTYPE
  5
71
330
5
100
AcDbSymbolTableRecord
100
AcDbLinetypeTableRecord
  2
CENTERX2
 70
     0
  3
Center (2x) ________  __  ________  __  _____
 72
    65
 73
     4
 40
20.32
 49
12.7
 74
     0
 49
-2.54
 74
     0
 49
2.54
 74
     0
 49
-2.54
 74
     0
  0
LTYPE
  5
72
330
5
100
AcDbSymbolTableRecord
100
AcDbLinetypeTableRecord
  2
DOT2
 70
     0
  3
Dot (.5x) ........................................
 72
    65
 73
     2
 40
0.635
 49
0.0
 74
     0
 49
-0.635
 74
     0
  0
ENDTAB
  0
TABLE
  2
LAYER
  5
2
330
0
100
AcDbSymbolTable
 70
    10
  0
LAYER
  5
10
330
2
100
AcDbSymbolTableRecord
100
AcDbLayerTableRecord
  2
0
 70
     0
 62
     7
  6
Continuous
370
    -3
390
F
  0
LAYER
  5
73
330
2
100
AcDbSymbolTableRecord
100
AcDbLayerTableRecord
  2
SLD-0
 70
     0
 62
     7
  6
Continuous
370
    15
390
F
  0
LAYER
  5
74
330
2
100
AcDbSymbolTableRecord
100
AcDbLayerTableRecord
  2
輪廓線
 70
     0
 62
   219
  6
Continuous
370
    15
390
F
  0
LAYER
  5
75
330
2
100
AcDbSymbolTableRecord
100
AcDbLayerTableRecord
  2
DIM
 70
     0
 62
     7
  6
Continuous
370
    -3
390
F
  0
LAYER
  5
76
330
2
100
AcDbSymbolTableRecord
100
AcDbLayerTableRecord
  2
中心線
 70
     0
 62
     7
  6
CENTERX2
370
    -3
390
F
  0
LAYER
  5
77
330
2
100
AcDbSymbolTableRecord
100
AcDbLayerTableRecord
  2
虛線
 70
     0
 62
     7
  6
HIDDEN
370
    -3
390
F
  0
LAYER
  5
78
330
2
100
AcDbSymbolTableRecord
100
AcDbLayerTableRecord
  2
SECTION
 70
     0
 62
     7
  6
PHANTOM
370
    15
390
F
  0
LAYER
  5
79
330
2
100
AcDbSymbolTableRecord
100
AcDbLayerTableRecord
  2
假想線
 70
     0
 62
     7
  6
PHANTOM
370
    -3
390
F
  0
LAYER
  5
7A
330
2
100
AcDbSymbolTableRecord
100
AcDbLayerTableRecord
  2
圖層_1
 70
     0
 62
   179
  6
Continuous
370
    -3
390
F
  0
LAYER
  5
7B
330
2
100
AcDbSymbolTableRecord
100
AcDbLayerTableRecord
  2
工作區域參考線
 70
     0
 62
   179
  6
Continuous
370
    -3
390
F
  0
ENDTAB
  0
TABLE
  2
STYLE
  5
3
330
0
100
AcDbSymbolTable
 70
     3
  0
STYLE
  5
11
330
3
100
AcDbSymbolTableRecord
100
AcDbTextStyleTableRecord
  2
Standard
 70
     0
 40
0.0
 41
1.0
 50
0.0
 71
     0
 42
1.0583333333
  3
txt
  4

  0
STYLE
  5
CC
330
3
100
AcDbSymbolTableRecord
100
AcDbTextStyleTableRecord
  2
SLDTEXTSTYLE0
 70
     0
 40
0.0
 41
0.605
 50
0.0
 71
     0
 42
1.0583333333
  3
TXT
  4

  0
STYLE
  5
103
330
3
100
AcDbSymbolTableRecord
100
AcDbTextStyleTableRecord
  2
SLDTEXTSTYLE1
 70
     0
 40
0.0
 41
0.7
 50
0.0
 71
     0
 42
1.0583333333
  3
TXT
  4

  0
ENDTAB
  0
TABLE
  2
VIEW
  5
6
330
0
100
AcDbSymbolTable
 70
     0
  0
ENDTAB
  0
TABLE
  2
UCS
  5
7
330
0
100
AcDbSymbolTable
 70
     0
  0
ENDTAB
  0
TABLE
  2
APPID
  5
9
330
0
100
AcDbSymbolTable
 70
     1
  0
APPID
  5
12
330
9
100
AcDbSymbolTableRecord
100
AcDbRegAppTableRecord
  2
ACAD
 70
     0
  0
ENDTAB
  0
TABLE
  2
DIMSTYLE
  5
A
330
0
100
AcDbSymbolTable
 70
     4
100
AcDbDimStyleTable
  0
DIMSTYLE
105
27
330
A
100
AcDbSymbolTableRecord
100
AcDbDimStyleTableRecord
  2
ISO-25
 70
     0
 41
2.5
 42
0.625
 43
3.75
 44
1.25
 73
     0
 74
     0
 77
     1
 78
     8
140
2.5
141
2.5
143
0.0393700787
147
0.625
171
     3
172
     1
178
     0
271
     2
272
     2
274
     3
278
    44
283
     0
284
     8
340
11
  0
DIMSTYLE
105
12A
102
{ACAD_REACTORS
330
129
330
134
330
13E
102
}
330
A
100
AcDbSymbolTableRecord
100
AcDbDimStyleTableRecord
  2
SLDDIMSTYLE0
 70
     0
 41
0.6666666667
 44
0.0
 45
0.000000001
 73
     0
 74
     0
 77
     1
 78
    12
 79
     3
140
0.8474934896
147
0.2118733724
173
     1
178
     0
271
     2
272
     2
276
     2
284
    12
340
103
  0
DIMSTYLE
105
14F
330
A
100
AcDbSymbolTableRecord
100
AcDbDimStyleTableRecord
  2
SLDDIMSTYLE1
 70
     0
 41
0.6666666667
 44
0.0
 45
0.000000001
146
0.6666666667
147
0.0
173
     1
178
     0
271
     0
272
     0
276
     2
340
11
  0
DIMSTYLE
105
15C
102
{ACAD_REACTORS
330
15B
102
}
330
A
100
AcDbSymbolTableRecord
100
AcDbDimStyleTableRecord
  2
SLDDIMSTYLE2
 70
     0
 41
0.6666666667
 44
0.0
 45
0.000000001
 73
     0
 74
     0
 77
     1
 78
    12
 79
     3
140
0.8474934896
147
0.2118733724
172
     1
173
     1
178
     0
271
     2
272
     2
276
     2
284
    12
289
     0
340
103
  0
ENDTAB
  0
TABLE
  2
BLOCK_RECORD
  5
1
330
0
100
AcDbSymbolTable
 70
    10
  0
BLOCK_RECORD
  5
1F
330
1
100
AcDbSymbolTableRecord
100
AcDbBlockTableRecord
  2
*Model_Space
340
22
  0
BLOCK_RECORD
  5
1B
330
1
100
AcDbSymbolTableRecord
100
AcDbBlockTableRecord
  2
*Paper_Space
340
1E
  0
BLOCK_RECORD
  5
23
330
1
100
AcDbSymbolTableRecord
100
AcDbBlockTableRecord
  2
*Paper_Space0
340
26
  0
BLOCK_RECORD
  5
7C
330
1
100
AcDbSymbolTableRecord
100
AcDbBlockTableRecord
  2
圖塊6
340
0
102
{BLKREFS
331
CB
102
}
  0
BLOCK_RECORD
  5
CE
330
1
100
AcDbSymbolTableRecord
100
AcDbBlockTableRecord
  2
SW_NOTE_0
340
0
102
{BLKREFS
331
D4
102
}
  0
BLOCK_RECORD
  5
105
330
1
100
AcDbSymbolTableRecord
100
AcDbBlockTableRecord
  2
SW_NOTE_1
340
0
102
{BLKREFS
331
10A
102
}
  0
BLOCK_RECORD
  5
12B
330
1
100
AcDbSymbolTableRecord
100
AcDbBlockTableRecord
  2
_D
340
0
  0
BLOCK_RECORD
  5
135
330
1
100
AcDbSymbolTableRecord
100
AcDbBlockTableRecord
  2
_D_1
340
0
  0
BLOCK_RECORD
  5
13F
330
1
100
AcDbSymbolTableRecord
100
AcDbBlockTableRecord
  2
_D_2
340
0
  0
BLOCK_RECORD
  5
149
330
1
100
AcDbSymbolTableRecord
100
AcDbBlockTableRecord
  2
SW_NOTE_2
340
0
102
{BLKREFS
331
14E
102
}
  0
BLOCK_RECORD
  5
15D
330
1
100
AcDbSymbolTableRecord
100
AcDbBlockTableRecord
  2
_D_3
340
0
  0
BLOCK_RECORD
  5
168
330
1
100
AcDbSymbolTableRecord
100
AcDbBlockTableRecord
  2
SW_CENTERMARKSYMBOL_0
340
0
102
{BLKREFS
331
173
102
}
  0
ENDTAB
  0
ENDSEC
  0
SECTION
  2
BLOCKS
  0
BLOCK
  5
20
330
1F
100
AcDbEntity
  8
0
100
AcDbBlockBegin
  2
*Model_Space
 70
     0
 10
0.0
 20
0.0
 30
0.0
  3
*Model_Space
  1

  0
ENDBLK
  5
21
330
1F
100
AcDbEntity
  8
0
100
AcDbBlockEnd
  0
BLOCK
  5
1C
330
1B
100
AcDbEntity
 67
     1
  8
0
100
AcDbBlockBegin
  2
*Paper_Space
 70
     0
 10
0.0
 20
0.0
 30
0.0
  3
*Paper_Space
  1

  0
ENDBLK
  5
1D
330
1B
100
AcDbEntity
 67
     1
  8
0
100
AcDbBlockEnd
  0
BLOCK
  5
24
330
23
100
AcDbEntity
  8
0
100
AcDbBlockBegin
  2
*Paper_Space0
 70
     0
 10
0.0
 20
0.0
 30
0.0
  3
*Paper_Space0
  1

  0
ENDBLK
  5
25
330
23
100
AcDbEntity
  8
0
100
AcDbBlockEnd
  0
BLOCK
  5
7D
330
7C
100
AcDbEntity
  8
0
100
AcDbBlockBegin
  2
圖塊6
 70
     0
 10
0.0
 20
0.0
 30
0.0
  3
圖塊6
  1

  0
ARC
  5
7F
330
7C
100
AcDbEntity
  8
圖層_1
 62
     7
370
    30
100
AcDbCircle
 10
0.510051478
 20
2.034022763
 30
0.0
 40
0.5100514779812234
100
AcDbArc
 50
130.2115225915
 51
228.588904108
  0
ARC
  5
80
330
7C
100
AcDbEntity
  8
圖層_1
 62
     7
370
    30
100
AcDbCircle
 10
1.6169711994
 20
1.9983151472
 30
0.0
 40
0.8591118089392068
100
AcDbArc
 50
140.4331765613
 51
251.0865666567
  0
ARC
  5
81
330
7C
100
AcDbEntity
  8
圖層_1
 62
     7
370
    30
100
AcDbCircle
 10
1.7255013994
 20
2.1039186571
 30
0.0
 40
0.9965455525899539
100
AcDbArc
 50
247.1485306747
 51
309.6030773927
  0
LINE
  5
82
330
7C
100
AcDbEntity
  8
圖層_1
 62
     7
370
    30
100
AcDbLine
 10
0.6162992423
 20
2.8440608661
 30
0.0
 11
0.1807564907
 21
2.4235318406
 31
0.0
  0
LINE
  5
83
330
7C
100
AcDbEntity
  8
圖層_1
 62
     7
370
    30
100
AcDbLine
 10
0.1726742967
 20
1.6514928326
 30
0.0
 11
1.5090750667
 21
0.4899582191
 31
0.0
  0
LINE
  5
84
330
7C
100
AcDbEntity
  8
圖層_1
 62
     7
370
    30
100
AcDbLine
 10
1.5090750667
 20
0.4899582191
 30
0.0
 11
1.2987244266
 21
0.284658089
 31
0.0
  0
LINE
  5
85
330
7C
100
AcDbEntity
  8
圖層_1
 62
     7
370
    30
100
AcDbLine
 10
1.2987244266
 20
0.284658089
 30
0.0
 11
1.6293508815
 21
0.0
 31
0.0
  0
LINE
  5
86
330
7C
100
AcDbEntity
  8
圖層_1
 62
     7
370
    30
100
AcDbLine
 10
2.6992390263
 20
1.0388593218
 30
0.0
 11
2.3607646824
 21
1.3361012311
 31
0.0
  0
LINE
  5
87
330
7C
100
AcDbEntity
  8
圖層_1
 62
     7
370
    30
100
AcDbLine
 10
0.9546971914
 20
2.5455502325
 30
0.0
 11
0.6162992423
 21
2.8440608661
 31
0.0
  0
LINE
  5
88
330
7C
100
AcDbEntity
  8
圖層_1
 62
     7
370
    30
100
AcDbLine
 10
1.6293508815
 20
0.0
 30
0.0
 11
2.6992390263
 21
1.0388593218
 31
0.0
  0
ENDBLK
  5
7E
330
7C
100
AcDbEntity
  8
0
100
AcDbBlockEnd
  0
BLOCK
  5
CF
330
CE
100
AcDbEntity
  8
0
100
AcDbBlockBegin
  2
SW_NOTE_0
 70
     0
 10
0.0
 20
0.0
 30
0.0
  3
SW_NOTE_0
  1

  0
MTEXT
  5
D1
330
CE
100
AcDbEntity
  8
0
  6
Continuous
 62
     0
370
     0
100
AcDbMText
 10
0.0
 20
1.1368861316
 30
0.0
 40
0.8819444444
 41
0.0
 71
     1
 72
     1
  1
PROPRIETARY AND CONFIDENTIAL
  7
SLDTEXTSTYLE0
 73
     1
 44
1.0
  0
MTEXT
  5
D2
330
CE
100
AcDbEntity
  8
0
  6
Continuous
 62
     0
370
     0
100
AcDbMText
 10
0.0
 20
-0.0273278267
 30
0.0
 40
0.6173611111
 41
0.0
 71
     1
 72
     1
  1
THE INFORMATION CONTAINED IN THIS DRAWING IS THE SOLE PROPERTY OF UNICE E-O SERVICES INC. ANY REPRODUCTION IN PART OR AS A WHOLE WITHOUT THE WRITTEN PERMISSION OF UNICE E-O SERVICES INC IS
  7
SLDTEXTSTYLE0
 73
     1
 44
1.0
  0
MTEXT
  5
D3
330
CE
100
AcDbEntity
  8
0
  6
Continuous
 62
     0
370
     0
100
AcDbMText
 10
0.0
 20
-0.8504759649
 30
0.0
 40
0.6173611111
 41
0.0
 71
     1
 72
     1
  1
PROHIBITED.
  7
SLDTEXTSTYLE0
 73
     1
 44
1.0
  0
ENDBLK
  5
D0
330
CE
100
AcDbEntity
  8
0
100
AcDbBlockEnd
  0
BLOCK
  5
106
330
105
100
AcDbEntity
  8
0
100
AcDbBlockBegin
  2
SW_NOTE_1
 70
     0
 10
0.0
 20
0.0
 30
0.0
  3
SW_NOTE_1
  1

  0
MTEXT
  5
108
330
105
100
AcDbEntity
  8
SLD-0
 62
     0
100
AcDbMText
 10
0.0
 20
0.682131679
 30
0.0
 40
0.5291666667
 41
0.0
 71
     1
 72
     1
  1
No.5, Andong Rd., Chung Li District,
  7
SLDTEXTSTYLE0
 73
     1
 44
1.0
  0
MTEXT
  5
109
330
105
100
AcDbEntity
  8
SLD-0
 62
     0
100
AcDbMText
 10
0.0
 20
-0.0234238681
 30
0.0
 40
0.5291666667
 41
0.0
 71
     1
 72
     1
  1
Taoyuan City 32063, Taiwan, R.O.C.
  7
SLDTEXTSTYLE0
 73
     1
 44
1.0
  0
ENDBLK
  5
107
330
105
100
AcDbEntity
  8
0
100
AcDbBlockEnd
  0
BLOCK
  5
12C
330
12B
100
AcDbEntity
  8
0
100
AcDbBlockBegin
  2
_D
 70
     0
 10
0.0
 20
0.0
 30
0.0
  3
_D
  1

  0
SOLID
  5
12E
330
12B
100
AcDbEntity
  8
DIM
100
AcDbTrace
 10
13.9325319179
 20
22.8712405617
 30
0.0
 11
14.5991985846
 21
22.7879072284
 31
0.0
 12
14.5991985846
 22
22.9545738951
 32
0.0
 13
14.5991985846
 23
22.9545738951
 33
0.0
  0
SOLID
  5
12F
330
12B
100
AcDbEntity
  8
DIM
100
AcDbTrace
 10
39.9329469943
 20
22.8712405617
 30
0.0
 11
39.2662803277
 21
22.9545738951
 31
0.0
 12
39.2662803277
 22
22.7879072284
 32
0.0
 13
39.2662803277
 23
22.7879072284
 33
0.0
  0
LINE
  5
130
330
12B
100
AcDbEntity
  8
DIM
100
AcDbLine
 10
13.9325319179
 20
31.2879072284
 30
0.0
 11
13.9325319179
 21
22.5379072284
 31
0.0
  0
LINE
  5
131
330
12B
100
AcDbEntity
  8
DIM
100
AcDbLine
 10
39.9329469943
 20
28.2879072284
 30
0.0
 11
39.9329469943
 21
22.5379072284
 31
0.0
  0
LINE
  5
132
330
12B
100
AcDbEntity
  8
DIM
100
AcDbLine
 10
13.9325319179
 20
22.8712405617
 30
0.0
 11
39.9329469943
 21
22.8712405617
 31
0.0
  0
MTEXT
  5
133
330
12B
100
AcDbEntity
  8
DIM
100
AcDbMText
 10
26.4359107604
 20
23.8944380414
 30
0.0
 40
0.79375
 41
0.0
 71
     1
 72
     1
  1
26
  7
SLDTEXTSTYLE1
 73
     1
 44
1.0
  0
ENDBLK
  5
12D
330
12B
100
AcDbEntity
  8
0
100
AcDbBlockEnd
  0
BLOCK
  5
136
330
135
100
AcDbEntity
  8
0
100
AcDbBlockBegin
  2
_D_1
 70
     0
 10
0.0
 20
0.0
 30
0.0
  3
_D_1
  1

  0
SOLID
  5
138
330
135
100
AcDbEntity
  8
DIM
100
AcDbTrace
 10
21.9329469943
 20
24.5379072284
 30
0.0
 11
22.599613661
 21
24.4545738951
 31
0.0
 12
22.599613661
 22
24.6212405617
 32
0.0
 13
22.599613661
 23
24.6212405617
 33
0.0
  0
SOLID
  5
139
330
135
100
AcDbEntity
  8
DIM
100
AcDbTrace
 10
33.9329469943
 20
24.5379072284
 30
0.0
 11
33.2662803277
 21
24.6212405617
 31
0.0
 12
33.2662803277
 22
24.4545738951
 32
0.0
 13
33.2662803277
 23
24.4545738951
 33
0.0
  0
LINE
  5
13A
330
135
100
AcDbEntity
  8
DIM
100
AcDbLine
 10
21.9329469943
 20
27.0379072284
 30
0.0
 11
21.9329469943
 21
24.2045738951
 31
0.0
  0
LINE
  5
13B
330
135
100
AcDbEntity
  8
DIM
100
AcDbLine
 10
33.9329469943
 20
27.0379072284
 30
0.0
 11
33.9329469943
 21
24.2045738951
 31
0.0
  0
LINE
  5
13C
330
135
100
AcDbEntity
  8
DIM
100
AcDbLine
 10
21.9329469943
 20
24.5379072284
 30
0.0
 11
33.9329469943
 21
24.5379072284
 31
0.0
  0
MTEXT
  5
13D
330
135
100
AcDbEntity
  8
DIM
100
AcDbMText
 10
27.4361182986
 20
25.561104708
 30
0.0
 40
0.79375
 41
0.0
 71
     1
 72
     1
  1
12
  7
SLDTEXTSTYLE1
 73
     1
 44
1.0
  0
ENDBLK
  5
137
330
135
100
AcDbEntity
  8
0
100
AcDbBlockEnd
  0
BLOCK
  5
140
330
13F
100
AcDbEntity
  8
0
100
AcDbBlockBegin
  2
_D_2
 70
     0
 10
0.0
 20
0.0
 30
0.0
  3
_D_2
  1

  0
SOLID
  5
142
330
13F
100
AcDbEntity
  8
DIM
100
AcDbTrace
 10
11.5991985846
 20
36.3712405617
 30
0.0
 11
11.5158652513
 21
35.7045738951
 31
0.0
 12
11.6825319179
 22
35.7045738951
 32
0.0
 13
11.6825319179
 23
35.7045738951
 33
0.0
  0
SOLID
  5
143
330
13F
100
AcDbEntity
  8
DIM
100
AcDbTrace
 10
11.5991985846
 20
26.8712405617
 30
0.0
 11
11.6825319179
 21
27.5379072284
 31
0.0
 12
11.5158652513
 22
27.5379072284
 32
0.0
 13
11.5158652513
 23
27.5379072284
 33
0.0
  0
LINE
  5
144
330
13F
100
AcDbEntity
  8
DIM
100
AcDbLine
 10
22.599613661
 20
36.3712405617
 30
0.0
 11
11.2658652513
 21
36.3712405617
 31
0.0
  0
LINE
  5
145
330
13F
100
AcDbEntity
  8
DIM
100
AcDbLine
 10
22.599613661
 20
26.8712405617
 30
0.0
 11
11.2658652513
 21
26.8712405617
 31
0.0
  0
LINE
  5
146
330
13F
100
AcDbEntity
  8
DIM
100
AcDbLine
 10
11.5991985846
 20
36.3712405617
 30
0.0
 11
11.5991985846
 21
26.8712405617
 31
0.0
  0
MTEXT
  5
147
330
13F
100
AcDbEntity
  8
DIM
100
AcDbMText
 10
10.5760010273
 20
30.4974963434
 30
0.0
 40
0.79375
 41
0.0
 71
     1
 72
     1
  1
%%c
  7
SLDTEXTSTYLE1
 11
-7.044195017643634E-15
 21
1.0
 31
0.0
 73
     1
 44
1.0
  0
MTEXT
  5
148
330
13F
100
AcDbEntity
  8
DIM
100
AcDbMText
 10
10.5760010273
 20
31.5029130018
 30
0.0
 40
0.79375
 41
0.0
 71
     1
 72
     1
  1
9.5
  7
SLDTEXTSTYLE1
 11
-7.044195017643634E-15
 21
1.0
 31
0.0
 73
     1
 44
1.0
  0
ENDBLK
  5
141
330
13F
100
AcDbEntity
  8
0
100
AcDbBlockEnd
  0
BLOCK
  5
14A
330
149
100
AcDbEntity
  8
0
100
AcDbBlockBegin
  2
SW_NOTE_2
 70
     0
 10
0.0
 20
0.0
 30
0.0
  3
SW_NOTE_2
  1

  0
LINE
  5
14C
330
149
100
AcDbEntity
  8
DIM
 62
     0
100
AcDbLine
 10
5.8940102648
 20
0.0
 30
0.0
 11
0.0
 21
0.0
 31
0.0
  0
MTEXT
  5
14D
330
149
100
AcDbEntity
  8
DIM
 62
     0
100
AcDbMText
 10
0.1637268025
 20
1.0349633544
 30
0.0
 40
0.79375
 41
0.0
 71
     1
 72
     1
  1
M6x0.25 THD
  7
SLDTEXTSTYLE1
 73
     1
 44
1.0
  0
ENDBLK
  5
14B
330
149
100
AcDbEntity
  8
0
100
AcDbBlockEnd
  0
BLOCK
  5
15E
330
15D
100
AcDbEntity
  8
0
100
AcDbBlockBegin
  2
_D_3
 70
     0
 10
0.0
 20
0.0
 30
0.0
  3
_D_3
  1

  0
SOLID
  5
160
330
15D
100
AcDbEntity
  8
DIM
100
AcDbTrace
 10
61.1809492633
 20
24.0379072284
 30
0.0
 11
60.5619323274
 21
23.7767426787
 31
0.0
 12
60.6452656608
 22
23.6324051114
 32
0.0
 13
60.6452656608
 23
23.6324051114
 33
0.0
  0
SOLID
  5
161
330
15D
100
AcDbEntity
  8
DIM
100
AcDbTrace
 10
62.9130000709
 20
25.0379072284
 30
0.0
 11
63.5320170067
 21
25.2990717781
 31
0.0
 12
63.4486836734
 22
25.4434093454
 32
0.0
 13
63.4486836734
 23
25.4434093454
 33
0.0
  0
LINE
  5
162
330
15D
100
AcDbEntity
  8
DIM
100
AcDbLine
 10
57.5467266578
 20
30.3325654271
 30
0.0
 11
61.34761593
 21
23.7492320938
 31
0.0
  0
LINE
  5
163
330
15D
100
AcDbEntity
  8
DIM
100
AcDbLine
 10
59.2787774654
 20
31.3325654271
 30
0.0
 11
63.0796667375
 21
24.7492320938
 31
0.0
  0
LINE
  5
164
330
15D
100
AcDbEntity
  8
DIM
100
AcDbLine
 10
61.1809492633
 20
24.0379072284
 30
0.0
 11
60.3149238595
 21
23.5379072284
 31
0.0
  0
LINE
  5
165
330
15D
100
AcDbEntity
  8
DIM
100
AcDbLine
 10
61.1809492633
 20
24.0379072284
 30
0.0
 11
62.9130000709
 21
25.0379072284
 31
0.0
  0
LINE
  5
166
330
15D
100
AcDbEntity
  8
DIM
100
AcDbLine
 10
62.9130000709
 20
25.0379072284
 30
0.0
 11
63.7790254746
 21
25.5379072284
 31
0.0
  0
MTEXT
  5
167
330
15D
100
AcDbEntity
  8
DIM
100
AcDbMText
 10
61.3202427913
 20
25.2998150649
 30
0.0
 40
0.79375
 41
0.0
 71
     1
 72
     1
  1
2
  7
SLDTEXTSTYLE1
 11
0.8660254037844384
 21
0.5000000000000004
 31
0.0
 73
     1
 44
1.0
  0
ENDBLK
  5
15F
330
15D
100
AcDbEntity
  8
0
100
AcDbBlockEnd
  0
BLOCK
  5
169
330
168
100
AcDbEntity
  8
0
100
AcDbBlockBegin
  2
SW_CENTERMARKSYMBOL_0
 70
     0
 10
0.0
 20
0.0
 30
0.0
  3
SW_CENTERMARKSYMBOL_0
  1

  0
LINE
  5
16B
330
168
100
AcDbEntity
  8
DIM
 62
     0
100
AcDbLine
 10
0.0
 20
0.0
 30
0.0
 11
0.0
 21
1.0
 31
0.0
  0
LINE
  5
16C
330
168
100
AcDbEntity
  8
DIM
 62
     0
100
AcDbLine
 10
0.0
 20
0.0
 30
0.0
 11
-1.0
 21
0.0
 31
0.0
  0
LINE
  5
16D
330
168
100
AcDbEntity
  8
DIM
 62
     0
100
AcDbLine
 10
0.0
 20
0.0
 30
0.0
 11
0.0
 21
-1.0
 31
0.0
  0
LINE
  5
16E
330
168
100
AcDbEntity
  8
DIM
 62
     0
100
AcDbLine
 10
0.0
 20
0.0
 30
0.0
 11
1.0
 21
0.0
 31
0.0
  0
LINE
  5
16F
330
168
100
AcDbEntity
  8
DIM
 62
     0
100
AcDbLine
 10
0.0
 20
2.0
 30
0.0
 11
0.0
 21
5.75
 31
0.0
  0
LINE
  5
170
330
168
100
AcDbEntity
  8
DIM
 62
     0
100
AcDbLine
 10
-2.0
 20
0.0
 30
0.0
 11
-5.75
 21
0.0
 31
0.0
  0
LINE
  5
171
330
168
100
AcDbEntity
  8
DIM
 62
     0
100
AcDbLine
 10
0.0
 20
-2.0
 30
0.0
 11
0.0
 21
-5.75
 31
0.0
  0
LINE
  5
172
330
168
100
AcDbEntity
  8
DIM
 62
     0
100
AcDbLine
 10
2.0
 20
0.0
 30
0.0
 11
5.75
 21
0.0
 31
0.0
  0
ENDBLK
  5
16A
330
168
100
AcDbEntity
  8
0
100
AcDbBlockEnd
  0
ENDSEC
  0
SECTION
  2
ENTITIES
  0
HATCH
  5
89
330
1F
100
AcDbEntity
  8
0
  6
Continuous
 62
     7
100
AcDbHatch
 10
0.0
 20
0.0
 30
0.0
210
0.0
220
0.0
230
1.0
  2
SOLID
 70
     1
 71
     0
 91
        1
 92
        0
 93
       10
 72
     2
 10
64.04686552097888
 20
11.91860293662952
 40
0.9965455525899529
 50
50.39692260731403
 51
112.8514693252978
 73
     0
 72
     2
 10
63.93833532093733
 20
11.81299942668735
 40
0.8591118089392061
 50
108.9134333432863
 51
219.5668234386826
 73
     0
 72
     1
 10
63.27606131298678
 20
12.36023451205003
 11
62.93766336385263
 21
12.65874514565595
 72
     1
 10
62.93766336385263
 20
12.65874514565595
 11
62.50212061222541
 21
12.23821612015345
 72
     2
 10
62.8314155995463
 20
11.84870704257482
 40
0.5100514779812205
 50
130.2115225915086
 51
228.5889041080189
 73
     1
 72
     1
 10
62.494038418217
 20
11.46617711209992
 11
63.8304391882822
 21
10.30464249867503
 72
     1
 10
63.8304391882822
 20
10.30464249867503
 11
63.62008854814383
 21
10.09934236851802
 72
     1
 10
63.62008854814383
 20
10.09934236851802
 11
63.95071500305234
 21
9.814684279533413
 72
     1
 10
63.95071500305234
 20
9.814684279533413
 11
65.02060314784076
 21
10.85354360137191
 72
     1
 10
65.02060314784076
 20
10.85354360137191
 11
64.6821288039547
 21
11.15078551061628
 97
        0
 75
     0
 76
     1
 98
        1
 10
0.0
 20
0.0
  0
HATCH
  5
8A
330
1F
100
AcDbEntity
  8
0
  6
Continuous
 62
     1
100
AcDbHatch
 10
0.0
 20
0.0
 30
0.0
210
0.0
220
0.0
230
1.0
  2
SOLID
 70
     1
 71
     0
 91
        1
 92
        0
 93
       10
 72
     2
 10
64.19641518758961
 20
11.88768971877203
 40
0.8591891627820832
 50
317.8184992995789
 51
398.0564711573074
 73
     0
 72
     1
 10
64.87294380193877
 20
11.35805300232482
 11
65.20142676626637
 21
11.07182068902832
 72
     1
 10
65.20142676626637
 20
11.07182068902832
 11
65.61532053786429
 21
11.4732983364974
 72
     2
 10
65.31752309597692
 20
11.88261391377104
 40
0.5061843124727551
 50
306.0377529468134
 51
403.4396461533869
 73
     1
 72
     1
 10
65.6850630508677
 20
12.23066123778375
 11
64.30947776475325
 21
13.4270533273284
 72
     1
 10
64.30947776475325
 20
13.4270533273284
 11
64.51756153206235
 21
13.63007280427419
 72
     1
 10
64.51756153206235
 20
13.63007280427419
 11
64.20739269533433
 21
13.90680354422235
 72
     1
 10
64.20739269533433
 20
13.90680354422235
 11
63.12886421253104
 21
12.86449679535099
 72
     1
 10
63.12886421253104
 20
12.86449679535099
 11
63.46966683831389
 21
12.56723328631073
 72
     2
 10
64.09052975734812
 20
11.70741578361264
 40
1.060545568175959
 50
234.1674444878511
 51
314.4407074583995
 73
     0
 97
        0
 75
     0
 76
     1
 98
        1
 10
0.0
 20
0.0
  0
LINE
  5
8B
330
1F
100
AcDbEntity
  8
0
  6
Continuous
 62
     7
370
     0
100
AcDbLine
 10
55.9531258395
 20
5.9248397504
 30
0.0
 11
56.2864591728
 21
5.9248397504
 31
0.0
  0
LINE
  5
8C
330
1F
100
AcDbEntity
  8
0
  6
Continuous
 62
     7
370
     0
100
AcDbLine
 10
54.9531258395
 20
5.9248397504
 30
0.0
 11
55.7864591728
 21
5.9248397504
 31
0.0
  0
LINE
  5
8D
330
1F
100
AcDbEntity
  8
0
  6
Continuous
 62
     7
370
     0
100
AcDbLine
 10
60.4531258395
 20
5.0915064171
 30
0.0
 11
60.4531258395
 21
6.7581730838
 31
0.0
  0
LINE
  5
8E
330
1F
100
AcDbEntity
  8
0
  6
Continuous
 62
     7
370
     0
100
AcDbLine
 10
58.1197925062
 20
5.4248397504
 30
0.0
 11
60.4531258395
 21
5.0915064171
 31
0.0
  0
LINE
  5
8F
330
1F
100
AcDbEntity
  8
0
  6
Continuous
 62
     7
370
     0
100
AcDbLine
 10
56.1197925062
 20
5.5915064171
 30
0.0
 11
56.1197925062
 21
4.7581730838
 31
0.0
  0
LINE
  5
90
330
1F
100
AcDbEntity
  8
0
  6
Continuous
 62
     7
370
     0
100
AcDbLine
 10
60.4531258395
 20
6.7581730838
 30
0.0
 11
58.1197925062
 21
6.4248397504
 31
0.0
  0
LINE
  5
91
330
1F
100
AcDbEntity
  8
0
  6
Continuous
 62
     7
370
     0
100
AcDbLine
 10
57.7864591728
 20
5.9248397504
 30
0.0
 11
60.7864591728
 21
5.9248397504
 31
0.0
  0
LINE
  5
92
330
1F
100
AcDbEntity
  8
0
  6
Continuous
 62
     7
370
     0
100
AcDbLine
 10
56.1197925062
 20
6.0915064171
 30
0.0
 11
56.1197925062
 21
5.7581730838
 31
0.0
  0
LINE
  5
93
330
1F
100
AcDbEntity
  8
0
  6
Continuous
 62
     7
370
     0
100
AcDbLine
 10
56.4531258395
 20
5.9248397504
 30
0.0
 11
57.2864591728
 21
5.9248397504
 31
0.0
  0
LINE
  5
94
330
1F
100
AcDbEntity
  8
0
  6
Continuous
 62
     7
370
     0
100
AcDbLine
 10
56.1197925062
 20
7.0915064171
 30
0.0
 11
56.1197925062
 21
6.2581730838
 31
0.0
  0
LINE
  5
95
330
1F
100
AcDbEntity
  8
0
  6
Continuous
 62
     7
370
     0
100
AcDbLine
 10
58.1197925062
 20
6.4248397504
 30
0.0
 11
58.1197925062
 21
5.4248397504
 31
0.0
  0
LINE
  5
96
330
1F
100
AcDbEntity
  8
工作區域參考線
 62
     1
370
    30
100
AcDbLine
 10
63.4696668383
 20
12.5672332863
 30
0.0
 11
63.1288642125
 21
12.8644967954
 31
0.0
  0
LINE
  5
97
330
1F
100
AcDbEntity
  8
工作區域參考線
 62
     1
370
    30
100
AcDbLine
 10
63.1288642125
 20
12.8644967954
 30
0.0
 11
64.2073926953
 21
13.9068035442
 31
0.0
  0
LINE
  5
98
330
1F
100
AcDbEntity
  8
工作區域參考線
 62
     1
370
    30
100
AcDbLine
 10
64.2073926953
 20
13.9068035442
 30
0.0
 11
64.5175615321
 21
13.6300728043
 31
0.0
  0
LINE
  5
99
330
1F
100
AcDbEntity
  8
工作區域參考線
 62
     1
370
    30
100
AcDbLine
 10
64.5175615321
 20
13.6300728043
 30
0.0
 11
64.3094777648
 21
13.4270533273
 31
0.0
  0
LINE
  5
9A
330
1F
100
AcDbEntity
  8
工作區域參考線
 62
     1
370
    30
100
AcDbLine
 10
64.3094777648
 20
13.4270533273
 30
0.0
 11
65.6850630509
 21
12.2306612378
 31
0.0
  0
LINE
  5
9B
330
1F
100
AcDbEntity
  8
工作區域參考線
 62
     1
370
    30
100
AcDbLine
 10
64.8729438019
 20
11.3580530023
 30
0.0
 11
65.2014267663
 21
11.071820689
 31
0.0
  0
LINE
  5
9C
330
1F
100
AcDbEntity
  8
工作區域參考線
 62
     1
370
    30
100
AcDbLine
 10
65.2014267663
 20
11.071820689
 30
0.0
 11
65.6153205379
 21
11.4732983365
 31
0.0
  0
LINE
  5
9D
330
1F
100
AcDbEntity
  8
0
  6
Continuous
 62
     7
370
     0
100
AcDbLine
 10
61.8969321736
 20
4.3717488026
 30
0.0
 11
95.230265507
 21
4.3717488026
 31
0.0
  0
LINE
  5
9E
330
1F
100
AcDbEntity
  8
0
  6
Continuous
 62
     7
370
     0
100
AcDbLine
 10
61.8969321736
 20
6.0384154693
 30
0.0
 11
78.5635988403
 21
6.0384154693
 31
0.0
  0
LINE
  5
9F
330
1F
100
AcDbEntity
  8
0
  6
Continuous
 62
     7
370
     0
100
AcDbLine
 10
61.8969321736
 20
7.705082136
 30
0.0
 11
78.5635988403
 21
7.705082136
 31
0.0
  0
LINE
  5
A0
330
1F
100
AcDbEntity
  8
0
  6
Continuous
 62
     7
370
     0
100
AcDbLine
 10
61.8969321736
 20
9.3717488026
 30
0.0
 11
95.230265507
 21
9.3717488026
 31
0.0
  0
LINE
  5
A1
330
1F
100
AcDbEntity
  8
0
  6
Continuous
 62
     7
370
     0
100
AcDbLine
 10
78.5635988403
 20
11.0384154693
 30
0.0
 11
95.230265507
 21
11.0384154693
 31
0.0
  0
LINE
  5
A2
330
1F
100
AcDbEntity
  8
0
  6
Continuous
 62
     7
370
    15
100
AcDbLine
 10
78.5635988403
 20
6.0384154693
 30
0.0
 11
95.230265507
 21
6.0384154693
 31
0.0
  0
LINE
  5
A3
330
1F
100
AcDbEntity
  8
0
  6
Continuous
 62
     7
370
     0
100
AcDbLine
 10
61.8969321736
 20
14.3717488026
 30
0.0
 11
95.230265507
 21
14.3717488026
 31
0.0
  0
LINE
  5
A4
330
1F
100
AcDbEntity
  8
0
  6
Continuous
 62
     7
370
     0
100
AcDbLine
 10
83.745739225
 20
2.705082136
 30
0.0
 11
83.745739225
 21
6.0384154693
 31
0.0
  0
LINE
  5
A5
330
1F
100
AcDbEntity
  8
0
  6
Continuous
 62
     7
370
     0
100
AcDbLine
 10
78.5635988403
 20
2.705082136
 30
0.0
 11
78.5635988403
 21
14.3717488026
 31
0.0
  0
LINE
  5
A6
330
1F
100
AcDbEntity
  8
0
  6
Continuous
 62
     7
370
     0
100
AcDbLine
 10
83.745739225
 20
9.3717488026
 30
0.0
 11
83.745739225
 21
11.0384154693
 31
0.0
  0
LINE
  5
A7
330
1F
100
AcDbEntity
  8
0
  6
Continuous
 62
     7
370
     0
100
AcDbLine
 10
71.4721362118
 20
2.705082136
 30
0.0
 11
71.4721362118
 21
9.3717488026
 31
0.0
  0
LINE
  5
A8
330
1F
100
AcDbEntity
  8
0
  6
Continuous
 62
     7
370
     0
100
AcDbLine
 10
66.5928629169
 20
2.705082136
 30
0.0
 11
66.5928629169
 21
9.3717488026
 31
0.0
  0
LINE
  5
A9
330
1F
100
AcDbEntity
  8
0
  6
Continuous
 62
     7
370
     0
100
AcDbLine
 10
61.8969321736
 20
2.705082136
 30
0.0
 11
61.8969321736
 21
14.3717488026
 31
0.0
  0
LINE
  5
AA
330
1F
100
AcDbEntity
  8
0
  6
Continuous
 62
     7
370
    15
100
AcDbLine
 10
14.440265507
 20
67.1240091917
 30
0.0
 11
14.440265507
 21
67.6240091917
 31
0.0
  0
LINE
  5
AB
330
1F
100
AcDbEntity
  8
0
  6
Continuous
 62
     7
370
    15
100
AcDbLine
 10
25.9835988403
 20
67.1240091917
 30
0.0
 11
25.9835988403
 21
67.6240091917
 31
0.0
  0
LINE
  5
AC
330
1F
100
AcDbEntity
  8
0
  6
Continuous
 62
     7
370
    15
100
AcDbLine
 10
37.5269321736
 20
67.1240091917
 30
0.0
 11
37.5269321736
 21
67.6240091917
 31
0.0
  0
LINE
  5
AD
330
1F
100
AcDbEntity
  8
0
  6
Continuous
 62
     7
370
    15
100
AcDbLine
 10
49.070265507
 20
67.1240091917
 30
0.0
 11
49.070265507
 21
67.6240091917
 31
0.0
  0
LINE
  5
AE
330
1F
100
AcDbEntity
  8
0
  6
Continuous
 62
     7
370
    15
100
AcDbLine
 10
60.6135988403
 20
67.1240091917
 30
0.0
 11
60.6135988403
 21
67.6240091917
 31
0.0
  0
LINE
  5
AF
330
1F
100
AcDbEntity
  8
0
  6
Continuous
 62
     7
370
    15
100
AcDbLine
 10
72.1569321736
 20
67.1240091917
 30
0.0
 11
72.1569321736
 21
67.6240091917
 31
0.0
  0
LINE
  5
B0
330
1F
100
AcDbEntity
  8
0
  6
Continuous
 62
     7
370
    15
100
AcDbLine
 10
83.700265507
 20
67.1240091917
 30
0.0
 11
83.700265507
 21
67.6240091917
 31
0.0
  0
LINE
  5
B1
330
1F
100
AcDbEntity
  8
0
  6
Continuous
 62
     7
370
    15
100
AcDbLine
 10
14.4385988403
 20
2.705082136
 30
0.0
 11
14.4385988403
 21
2.205082136
 31
0.0
  0
LINE
  5
B2
330
1F
100
AcDbEntity
  8
0
  6
Continuous
 62
     7
370
    15
100
AcDbLine
 10
25.980265507
 20
2.705082136
 30
0.0
 11
25.980265507
 21
2.205082136
 31
0.0
  0
LINE
  5
B3
330
1F
100
AcDbEntity
  8
0
  6
Continuous
 62
     7
370
    15
100
AcDbLine
 10
37.5219321736
 20
2.705082136
 30
0.0
 11
37.5219321736
 21
2.205082136
 31
0.0
  0
LINE
  5
B4
330
1F
100
AcDbEntity
  8
0
  6
Continuous
 62
     7
370
    15
100
AcDbLine
 10
49.0635988403
 20
2.705082136
 30
0.0
 11
49.0635988403
 21
2.205082136
 31
0.0
  0
LINE
  5
B5
330
1F
100
AcDbEntity
  8
0
  6
Continuous
 62
     7
370
    15
100
AcDbLine
 10
60.605265507
 20
2.705082136
 30
0.0
 11
60.605265507
 21
2.205082136
 31
0.0
  0
LINE
  5
B6
330
1F
100
AcDbEntity
  8
0
  6
Continuous
 62
     7
370
    15
100
AcDbLine
 10
72.1469321736
 20
2.705082136
 30
0.0
 11
72.1469321736
 21
2.205082136
 31
0.0
  0
LINE
  5
B7
330
1F
100
AcDbEntity
  8
0
  6
Continuous
 62
     7
370
     0
100
AcDbLine
 10
95.230265507
 20
67.1240091917
 30
0.0
 11
2.8969321736
 21
67.1240091917
 31
0.0
  0
LINE
  5
B8
330
1F
100
AcDbEntity
  8
0
  6
Continuous
 62
     7
370
     0
100
AcDbLine
 10
95.230265507
 20
2.705082136
 30
0.0
 11
95.230265507
 21
67.1240091917
 31
0.0
  0
LINE
  5
B9
330
1F
100
AcDbEntity
  8
0
  6
Continuous
 62
     7
370
     0
100
AcDbLine
 10
2.8969321736
 20
67.1240091917
 30
0.0
 11
2.8969321736
 21
2.705082136
 31
0.0
  0
LINE
  5
BA
330
1F
100
AcDbEntity
  8
0
  6
Continuous
 62
     7
370
     0
100
AcDbLine
 10
2.8969321736
 20
2.705082136
 30
0.0
 11
95.230265507
 21
2.705082136
 31
0.0
  0
LINE
  5
BB
330
1F
100
AcDbEntity
  8
0
  6
Continuous
 62
     7
370
    15
100
AcDbLine
 10
83.6885988403
 20
2.705082136
 30
0.0
 11
83.6885988403
 21
2.205082136
 31
0.0
  0
LINE
  5
BC
330
1F
100
AcDbEntity
  8
0
  6
Continuous
 62
     7
370
    15
100
AcDbLine
 10
2.8969321736
 20
13.4417488026
 30
0.0
 11
2.3969321736
 21
13.4417488026
 31
0.0
  0
LINE
  5
BD
330
1F
100
AcDbEntity
  8
0
  6
Continuous
 62
     7
370
    15
100
AcDbLine
 10
2.8969321736
 20
24.1784154693
 30
0.0
 11
2.3969321736
 21
24.1784154693
 31
0.0
  0
LINE
  5
BE
330
1F
100
AcDbEntity
  8
0
  6
Continuous
 62
     7
370
    15
100
AcDbLine
 10
2.8969321736
 20
34.915082136
 30
0.0
 11
2.3969321736
 21
34.915082136
 31
0.0
  0
LINE
  5
BF
330
1F
100
AcDbEntity
  8
0
  6
Continuous
 62
     7
370
    15
100
AcDbLine
 10
2.8969321736
 20
45.6517488026
 30
0.0
 11
2.3969321736
 21
45.6517488026
 31
0.0
  0
LINE
  5
C0
330
1F
100
AcDbEntity
  8
0
  6
Continuous
 62
     7
370
    15
100
AcDbLine
 10
2.8969321736
 20
56.3884154693
 30
0.0
 11
2.3969321736
 21
56.3884154693
 31
0.0
  0
LINE
  5
C1
330
1F
100
AcDbEntity
  8
0
  6
Continuous
 62
     7
370
    15
100
AcDbLine
 10
95.230265507
 20
13.4417488026
 30
0.0
 11
95.730265507
 21
13.4417488026
 31
0.0
  0
LINE
  5
C2
330
1F
100
AcDbEntity
  8
0
  6
Continuous
 62
     7
370
    15
100
AcDbLine
 10
95.230265507
 20
24.1784154693
 30
0.0
 11
95.730265507
 21
24.1784154693
 31
0.0
  0
LINE
  5
C3
330
1F
100
AcDbEntity
  8
0
  6
Continuous
 62
     7
370
    15
100
AcDbLine
 10
95.230265507
 20
34.915082136
 30
0.0
 11
95.730265507
 21
34.915082136
 31
0.0
  0
LINE
  5
C4
330
1F
100
AcDbEntity
  8
0
  6
Continuous
 62
     7
370
    15
100
AcDbLine
 10
95.230265507
 20
45.6517488026
 30
0.0
 11
95.730265507
 21
45.6517488026
 31
0.0
  0
LINE
  5
C5
330
1F
100
AcDbEntity
  8
0
  6
Continuous
 62
     7
370
    15
100
AcDbLine
 10
95.230265507
 20
56.3884154693
 30
0.0
 11
95.730265507
 21
56.3884154693
 31
0.0
  0
CIRCLE
  5
C6
330
1F
100
AcDbEntity
  8
0
  6
Continuous
 62
     7
370
     0
100
AcDbCircle
 10
56.1197925062
 20
5.9248397504
 30
0.0
 40
0.5
  0
CIRCLE
  5
C7
330
1F
100
AcDbEntity
  8
0
  6
Continuous
 62
     7
370
     0
100
AcDbCircle
 10
56.1197925062
 20
5.9248397504
 30
0.0
 40
0.8333333333333215
  0
ARC
  5
C8
330
1F
100
AcDbEntity
  8
工作區域參考線
 62
     1
370
    30
100
AcDbCircle
 10
65.317523096
 20
11.8826139138
 30
0.0
 40
0.5061843124727613
100
AcDbArc
 50
306.0377529468
 51
43.4396461534
  0
ARC
  5
C9
330
1F
100
AcDbEntity
  8
工作區域參考線
 62
     1
370
    30
100
AcDbCircle
 10
64.0905297573
 20
11.7074157836
 30
0.0
 40
1.060545568175971
100
AcDbArc
 50
45.5592925416
 51
125.8325555121
  0
ARC
  5
CA
330
1F
100
AcDbEntity
  8
工作區域參考線
 62
     1
370
    30
100
AcDbCircle
 10
64.1964151876
 20
11.8876897188
 30
0.0
 40
0.8591891627820911
100
AcDbArc
 50
321.9435288427
 51
42.1815007004
  0
INSERT
  5
CB
330
1F
100
AcDbEntity
  8
0
  6
Continuous
 62
     7
100
AcDbBlockReference
  2
圖塊6
 10
62.3213641216
 20
9.8146842795
 30
0.0
  0
MTEXT
  5
CD
330
1F
100
AcDbEntity
  8
0
  6
Continuous
 62
     7
370
     0
100
AcDbMText
 10
55.1808950268
 20
4.4069480123
 30
0.0
 40
0.8819444444
 41
0.0
 71
     1
 72
     1
  1
UNIT:m/m
  7
SLDTEXTSTYLE0
 73
     1
 44
1.0
  0
INSERT
  5
D4
330
1F
100
AcDbEntity
  8
0
  6
Continuous
 62
     7
370
     0
100
AcDbBlockReference
  2
SW_NOTE_0
 10
4.0771692018
 20
64.630143475
 30
0.0
  0
MTEXT
  5
D5
330
1F
100
AcDbEntity
  8
0
  6
Continuous
 62
     7
370
     0
100
AcDbMText
 10
66.2417297978
 20
13.4802258046
 30
0.0
 40
0.79375
 41
0.0
 71
     1
 72
     1
  1
Unice E-O Services Inc.
  7
SLDTEXTSTYLE0
 73
     1
 44
1.0
  0
MTEXT
  5
D6
330
1F
100
AcDbEntity
  8
0
  6
Continuous
 62
     7
370
     0
100
AcDbMText
 10
72.519684605
 20
7.195571617
 30
0.0
 40
0.6173611111
 41
0.0
 71
     1
 72
     1
  1
2018/9/11
  7
SLDTEXTSTYLE0
 73
     1
 44
1.0
  0
MTEXT
  5
D7
330
1F
100
AcDbEntity
  8
0
  6
Continuous
 62
     7
370
     0
100
AcDbMText
 10
84.2029660836
 20
5.6237259133
 30
0.0
 40
0.8333333333
 41
0.0
 71
     1
 72
     1
  1
3:1
  7
SLDTEXTSTYLE0
 73
     1
 44
1.0
  0
MTEXT
  5
D8
330
1F
100
AcDbEntity
  8
0
  6
Continuous
 62
     7
370
     0
100
AcDbMText
 10
84.1025199995
 20
10.7173065146
 30
0.0
 40
0.8333333333
 41
0.0
 71
     1
 72
     1
  1
07SRW-6D
  7
SLDTEXTSTYLE0
 73
     1
 44
1.0
  0
MTEXT
  5
D9
330
1F
100
AcDbEntity
  8
0
  6
Continuous
 62
     7
370
     0
100
AcDbMText
 10
84.1025199995
 20
12.7027372626
 30
0.0
 40
0.8333333333
 41
0.0
 71
     1
 72
     1
  1
07SRW-6D
  7
SLDTEXTSTYLE0
 73
     1
 44
1.0
  0
MTEXT
  5
DA
330
1F
100
AcDbEntity
  8
0
  6
Continuous
 62
     7
370
     0
100
AcDbMText
 10
78.7973955595
 20
5.5021598576
 30
0.0
 40
0.7055555556
 41
0.0
 71
     1
 72
     1
  1
SCALE:
  7
SLDTEXTSTYLE0
 73
     1
 44
1.0
  0
MTEXT
  5
DB
330
1F
100
AcDbEntity
  8
0
  6
Continuous
 62
     7
370
     0
100
AcDbMText
 10
62.111202893
 20
7.195571617
 30
0.0
 40
0.6173611111
 41
0.0
 71
     1
 72
     1
  1
DRAWN
  7
SLDTEXTSTYLE0
 73
     1
 44
1.0
  0
MTEXT
  5
DC
330
1F
100
AcDbEntity
  8
0
  6
Continuous
 62
     7
370
     0
100
AcDbMText
 10
67.7409455979
 20
8.8944027693
 30
0.0
 40
0.6173611111
 41
0.0
 71
     1
 72
     1
  1
NAME
  7
SLDTEXTSTYLE0
 73
     1
 44
1.0
  0
MTEXT
  5
DD
330
1F
100
AcDbEntity
  8
0
  6
Continuous
 62
     7
370
     0
100
AcDbMText
 10
73.6236718586
 20
8.8944027693
 30
0.0
 40
0.6173611111
 41
0.0
 71
     1
 72
     1
  1
DATE
  7
SLDTEXTSTYLE0
 73
     1
 44
1.0
  0
MTEXT
  5
DE
330
1F
100
AcDbEntity
  8
0
  6
Continuous
 62
     7
370
     0
100
AcDbMText
 10
78.7585438882
 20
10.5957404589
 30
0.0
 40
0.7055555556
 41
0.0
 71
     1
 72
     1
  1
DWG. NO.
  7
SLDTEXTSTYLE0
 73
     1
 44
1.0
  0
MTEXT
  5
DF
330
1F
100
AcDbEntity
  8
0
  6
Continuous
 62
     7
370
     0
100
AcDbMText
 10
78.7876635696
 20
13.9613552748
 30
0.0
 40
0.7055555556
 41
0.0
 71
     1
 72
     1
  1
TITLE:
  7
SLDTEXTSTYLE0
 73
     1
 44
1.0
  0
MTEXT
  5
E0
330
1F
100
AcDbEntity
  8
0
  6
Continuous
 62
     7
370
     0
100
AcDbMText
 10
67.6771403267
 20
5.4134596575
 30
0.0
 40
0.6173611111
 41
0.0
 71
     1
 72
     1
  1
Johnny
  7
SLDTEXTSTYLE0
 73
     1
 44
1.0
  0
MTEXT
  5
E1
330
1F
100
AcDbEntity
  8
0
  6
Continuous
 62
     7
370
     0
100
AcDbMText
 10
72.519684605
 20
5.4134596575
 30
0.0
 40
0.6173611111
 41
0.0
 71
     1
 72
     1
  1
2018/9/11
  7
SLDTEXTSTYLE0
 73
     1
 44
1.0
  0
MTEXT
  5
E2
330
1F
100
AcDbEntity
  8
0
  6
Continuous
 62
     7
370
     0
100
AcDbMText
 10
62.111202893
 20
5.4134596575
 30
0.0
 40
0.6173611111
 41
0.0
 71
     1
 72
     1
  1
ENG APPR.
  7
SLDTEXTSTYLE0
 73
     1
 44
1.0
  0
MTEXT
  5
E3
330
1F
100
AcDbEntity
  8
0
  6
Continuous
 62
     7
370
     0
100
AcDbMText
 10
78.7973955595
 20
3.8951129763
 30
0.0
 40
0.7055555556
 41
0.0
 71
     1
 72
     1
  1
REV
  7
SLDTEXTSTYLE0
 73
     1
 44
1.0
  0
MTEXT
  5
E4
330
1F
100
AcDbEntity
  8
0
  6
Continuous
 62
     7
370
     0
100
AcDbMText
 10
78.7876635696
 20
8.9831029695
 30
0.0
 40
0.7055555556
 41
0.0
 71
     1
 72
     1
  1
MATERIAL:
  7
SLDTEXTSTYLE0
 73
     1
 44
1.0
  0
MTEXT
  5
E5
330
1F
100
AcDbEntity
  8
0
  6
Continuous
 62
     7
370
     0
100
AcDbMText
 10
84.2029660836
 20
7.4058378729
 30
0.0
 40
0.8333333333
 41
0.0
 71
     1
 72
     1
  1
N/A
  7
SLDTEXTSTYLE0
 73
     1
 44
1.0
  0
MTEXT
  5
E6
330
1F
100
AcDbEntity
  8
0
  6
Continuous
 62
     7
370
     0
100
AcDbMText
 10
8.8676643844
 20
68.151117219
 30
0.0
 40
0.7055555556
 41
0.0
 71
     1
 72
     1
  1
1
  7
SLDTEXTSTYLE0
 73
     1
 44
1.0
  0
MTEXT
  5
E7
330
1F
100
AcDbEntity
  8
0
  6
Continuous
 62
     7
370
     0
100
AcDbMText
 10
20.2390331908
 20
68.151117219
 30
0.0
 40
0.7055555556
 41
0.0
 71
     1
 72
     1
  1
2
  7
SLDTEXTSTYLE0
 73
     1
 44
1.0
  0
MTEXT
  5
E8
330
1F
100
AcDbEntity
  8
0
  6
Continuous
 62
     7
370
     0
100
AcDbMText
 10
31.6336647969
 20
68.151117219
 30
0.0
 40
0.7055555556
 41
0.0
 71
     1
 72
     1
  1
3
  7
SLDTEXTSTYLE0
 73
     1
 44
1.0
  0
MTEXT
  5
E9
330
1F
100
AcDbEntity
  8
0
  6
Continuous
 62
     7
370
     0
100
AcDbMText
 10
43.0844454284
 20
68.0997528121
 30
0.0
 40
0.7055555556
 41
0.0
 71
     1
 72
     1
  1
4
  7
SLDTEXTSTYLE0
 73
     1
 44
1.0
  0
MTEXT
  5
EA
330
1F
100
AcDbEntity
  8
0
  6
Continuous
 62
     7
370
     0
100
AcDbMText
 10
54.5674411547
 20
68.151117219
 30
0.0
 40
0.7055555556
 41
0.0
 71
     1
 72
     1
  1
5
  7
SLDTEXTSTYLE0
 73
     1
 44
1.0
  0
MTEXT
  5
EB
330
1F
100
AcDbEntity
  8
0
  6
Continuous
 62
     7
370
     0
100
AcDbMText
 10
66.2127390138
 20
68.151117219
 30
0.0
 40
0.7055555556
 41
0.0
 71
     1
 72
     1
  1
6
  7
SLDTEXTSTYLE0
 73
     1
 44
1.0
  0
MTEXT
  5
EC
330
1F
100
AcDbEntity
  8
0
  6
Continuous
 62
     7
370
     0
100
AcDbMText
 10
78.1210219136
 20
68.151117219
 30
0.0
 40
0.7055555556
 41
0.0
 71
     1
 72
     1
  1
7
  7
SLDTEXTSTYLE0
 73
     1
 44
1.0
  0
MTEXT
  5
ED
330
1F
100
AcDbEntity
  8
0
  6
Continuous
 62
     7
370
     0
100
AcDbMText
 10
88.7595940165
 20
68.151117219
 30
0.0
 40
0.7055555556
 41
0.0
 71
     1
 72
     1
  1
8
  7
SLDTEXTSTYLE0
 73
     1
 44
1.0
  0
MTEXT
  5
EE
330
1F
100
AcDbEntity
  8
0
  6
Continuous
 62
     7
370
     0
100
AcDbMText
 10
1.7856078852
 20
61.9371007626
 30
0.0
 40
0.7055555556
 41
0.0
 71
     1
 72
     1
  1
A
  7
SLDTEXTSTYLE0
 73
     1
 44
1.0
  0
MTEXT
  5
EF
330
1F
100
AcDbEntity
  8
0
  6
Continuous
 62
     7
370
     0
100
AcDbMText
 10
1.863681061
 20
51.4331016079
 30
0.0
 40
0.7055555556
 41
0.0
 71
     1
 72
     1
  1
B
  7
SLDTEXTSTYLE0
 73
     1
 44
1.0
  0
MTEXT
  5
F0
330
1F
100
AcDbEntity
  8
0
  6
Continuous
 62
     7
370
     0
100
AcDbMText
 10
1.863681061
 20
40.4247838077
 30
0.0
 40
0.7055555556
 41
0.0
 71
     1
 72
     1
  1
C
  7
SLDTEXTSTYLE0
 73
     1
 44
1.0
  0
MTEXT
  5
F1
330
1F
100
AcDbEntity
  8
0
  6
Continuous
 62
     7
370
     0
100
AcDbMText
 10
1.863681061
 20
29.5817740074
 30
0.0
 40
0.7055555556
 41
0.0
 71
     1
 72
     1
  1
D
  7
SLDTEXTSTYLE0
 73
     1
 44
1.0
  0
MTEXT
  5
F2
330
1F
100
AcDbEntity
  8
0
  6
Continuous
 62
     7
370
     0
100
AcDbMText
 10
1.863681061
 20
19.1852949732
 30
0.0
 40
0.7055555556
 41
0.0
 71
     1
 72
     1
  1
E
  7
SLDTEXTSTYLE0
 73
     1
 44
1.0
  0
MTEXT
  5
F3
330
1F
100
AcDbEntity
  8
0
  6
Continuous
 62
     7
370
     0
100
AcDbMText
 10
1.863681061
 20
8.5231404084
 30
0.0
 40
0.7055555556
 41
0.0
 71
     1
 72
     1
  1
F
  7
SLDTEXTSTYLE0
 73
     1
 44
1.0
  0
MTEXT
  5
F4
330
1F
100
AcDbEntity
  8
0
  6
Continuous
 62
     7
370
     0
100
AcDbMText
 10
88.7286205655
 20
2.2078741321
 30
0.0
 40
0.7055555556
 41
0.0
 71
     1
 72
     1
  1
8
  7
SLDTEXTSTYLE0
 73
     1
 44
1.0
  0
MTEXT
  5
F5
330
1F
100
AcDbEntity
  8
0
  6
Continuous
 62
     7
370
     0
100
AcDbMText
 10
78.0900484625
 20
2.2078741321
 30
0.0
 40
0.7055555556
 41
0.0
 71
     1
 72
     1
  1
7
  7
SLDTEXTSTYLE0
 73
     1
 44
1.0
  0
MTEXT
  5
F6
330
1F
100
AcDbEntity
  8
0
  6
Continuous
 62
     7
370
     0
100
AcDbMText
 10
66.1817655628
 20
2.2078741321
 30
0.0
 40
0.7055555556
 41
0.0
 71
     1
 72
     1
  1
6
  7
SLDTEXTSTYLE0
 73
     1
 44
1.0
  0
MTEXT
  5
F7
330
1F
100
AcDbEntity
  8
0
  6
Continuous
 62
     7
370
     0
100
AcDbMText
 10
54.5364677036
 20
2.2078741321
 30
0.0
 40
0.7055555556
 41
0.0
 71
     1
 72
     1
  1
5
  7
SLDTEXTSTYLE0
 73
     1
 44
1.0
  0
MTEXT
  5
F8
330
1F
100
AcDbEntity
  8
0
  6
Continuous
 62
     7
370
     0
100
AcDbMText
 10
43.0534719774
 20
2.1565097253
 30
0.0
 40
0.7055555556
 41
0.0
 71
     1
 72
     1
  1
4
  7
SLDTEXTSTYLE0
 73
     1
 44
1.0
  0
MTEXT
  5
F9
330
1F
100
AcDbEntity
  8
0
  6
Continuous
 62
     7
370
     0
100
AcDbMText
 10
31.6026913459
 20
2.2078741321
 30
0.0
 40
0.7055555556
 41
0.0
 71
     1
 72
     1
  1
3
  7
SLDTEXTSTYLE0
 73
     1
 44
1.0
  0
MTEXT
  5
FA
330
1F
100
AcDbEntity
  8
0
  6
Continuous
 62
     7
370
     0
100
AcDbMText
 10
20.2080597398
 20
2.2078741321
 30
0.0
 40
0.7055555556
 41
0.0
 71
     1
 72
     1
  1
2
  7
SLDTEXTSTYLE0
 73
     1
 44
1.0
  0
MTEXT
  5
FB
330
1F
100
AcDbEntity
  8
0
  6
Continuous
 62
     7
370
     0
100
AcDbMText
 10
8.8366909334
 20
2.2078741321
 30
0.0
 40
0.7055555556
 41
0.0
 71
     1
 72
     1
  1
1
  7
SLDTEXTSTYLE0
 73
     1
 44
1.0
  0
MTEXT
  5
FC
330
1F
100
AcDbEntity
  8
0
  6
Continuous
 62
     7
370
     0
100
AcDbMText
 10
95.7007948715
 20
62.2141636364
 30
0.0
 40
0.7055555556
 41
0.0
 71
     1
 72
     1
  1
A
  7
SLDTEXTSTYLE0
 73
     1
 44
1.0
  0
MTEXT
  5
FD
330
1F
100
AcDbEntity
  8
0
  6
Continuous
 62
     7
370
     0
100
AcDbMText
 10
95.7788680474
 20
51.7101644817
 30
0.0
 40
0.7055555556
 41
0.0
 71
     1
 72
     1
  1
B
  7
SLDTEXTSTYLE0
 73
     1
 44
1.0
  0
MTEXT
  5
FE
330
1F
100
AcDbEntity
  8
0
  6
Continuous
 62
     7
370
     0
100
AcDbMText
 10
95.7788680474
 20
40.7018466814
 30
0.0
 40
0.7055555556
 41
0.0
 71
     1
 72
     1
  1
C
  7
SLDTEXTSTYLE0
 73
     1
 44
1.0
  0
MTEXT
  5
FF
330
1F
100
AcDbEntity
  8
0
  6
Continuous
 62
     7
370
     0
100
AcDbMText
 10
95.7788680474
 20
29.8588368811
 30
0.0
 40
0.7055555556
 41
0.0
 71
     1
 72
     1
  1
D
  7
SLDTEXTSTYLE0
 73
     1
 44
1.0
  0
MTEXT
  5
100
330
1F
100
AcDbEntity
  8
0
  6
Continuous
 62
     7
370
     0
100
AcDbMText
 10
95.7788680474
 20
19.462357847
 30
0.0
 40
0.7055555556
 41
0.0
 71
     1
 72
     1
  1
E
  7
SLDTEXTSTYLE0
 73
     1
 44
1.0
  0
MTEXT
  5
101
330
1F
100
AcDbEntity
  8
0
  6
Continuous
 62
     7
370
     0
100
AcDbMText
 10
95.7788680474
 20
8.8002032821
 30
0.0
 40
0.7055555556
 41
0.0
 71
     1
 72
     1
  1
F
  7
SLDTEXTSTYLE0
 73
     1
 44
1.0
  0
MTEXT
  5
102
330
1F
100
AcDbEntity
  8
0
  6
Continuous
 62
     7
370
     0
100
AcDbMText
 10
67.7184376267
 20
7.195571617
 30
0.0
 40
0.6173611111
 41
0.0
 71
     1
 72
     1
  1
Sky
  7
SLDTEXTSTYLE0
 73
     1
 44
1.0
  0
MTEXT
  5
104
330
1F
100
AcDbEntity
  8
0
  6
Continuous
 62
     7
370
     0
100
AcDbMText
 10
84.2827413215
 20
4.0739867773
 30
0.0
 40
0.79375
 41
0.0
 71
     1
 72
     1
  1
0
  7
SLDTEXTSTYLE1
 73
     1
 44
1.0
  0
INSERT
  5
10A
330
1F
100
AcDbEntity
  8
SLD-0
 62
     7
100
AcDbBlockReference
  2
SW_NOTE_1
 10
66.2417297978
 20
11.1826581737
 30
0.0
  0
LINE
  5
10B
330
1F
100
AcDbEntity
  8
0
  6
Continuous
 62
     7
370
    30
100
AcDbLine
 10
33.4329471336
 20
36.3712406069
 30
0.0
 11
22.9329468095
 21
36.3712406069
 31
0.0
  0
LINE
  5
10C
330
1F
100
AcDbEntity
  8
0
  6
Continuous
 62
     7
370
    30
100
AcDbLine
 10
22.9329468095
 20
26.8712404467
 30
0.0
 11
33.4329471336
 21
26.8712404467
 31
0.0
  0
LINE
  5
10D
330
1F
100
AcDbEntity
  8
0
  6
Continuous
 62
     7
370
    30
100
AcDbLine
 10
33.4329471336
 20
26.8712404467
 30
0.0
 11
33.9329472156
 21
27.3712405287
 31
0.0
  0
LINE
  5
10E
330
1F
100
AcDbEntity
  8
0
  6
Continuous
 62
     7
370
    30
100
AcDbLine
 10
33.9329472156
 20
35.871240525
 30
0.0
 11
33.4329471336
 21
36.3712406069
 31
0.0
  0
LINE
  5
10F
330
1F
100
AcDbEntity
  8
0
  6
Continuous
 62
     7
370
    30
100
AcDbLine
 10
22.40794677
 20
26.8962406371
 30
0.0
 11
22.9329468095
 21
26.8962406371
 31
0.0
  0
LINE
  5
110
330
1F
100
AcDbEntity
  8
0
  6
Continuous
 62
     7
370
    30
100
AcDbLine
 10
22.9329468095
 20
36.3462406494
 30
0.0
 11
22.40794677
 21
36.3462406494
 31
0.0
  0
LINE
  5
111
330
1F
100
AcDbEntity
  8
0
  6
Continuous
 62
     7
370
    30
100
AcDbLine
 10
22.40794677
 20
36.3462406494
 30
0.0
 11
21.9329471112
 21
35.871240525
 31
0.0
  0
LINE
  5
112
330
1F
100
AcDbEntity
  8
0
  6
Continuous
 62
     7
370
    30
100
AcDbLine
 10
21.9329471112
 20
27.3712405287
 30
0.0
 11
22.40794677
 21
26.8962406371
 31
0.0
  0
ARC
  5
113
330
1F
100
AcDbEntity
  8
0
  6
Continuous
 62
     7
370
    30
100
AcDbCircle
 10
15.9325319179
 20
31.6212405617
 30
0.0
 40
2.000000000000002
100
AcDbArc
 50
92.8540780892
 51
267.1459219108
  0
LINE
  5
114
330
1F
100
AcDbEntity
  8
0
  6
Continuous
 62
     7
370
    30
100
AcDbLine
 10
17.3329465435
 20
34.6212407857
 30
0.0
 11
15.832947229
 21
33.7212404519
 31
0.0
  0
LINE
  5
115
330
1F
100
AcDbEntity
  8
0
  6
Continuous
 62
     7
370
    30
100
AcDbLine
 10
15.832947229
 20
29.5212405435
 30
0.0
 11
17.3329465435
 21
28.6212406172
 31
0.0
  0
LINE
  5
116
330
1F
100
AcDbEntity
  8
0
  6
Continuous
 62
     7
370
    30
100
AcDbLine
 10
17.3329465435
 20
28.6212406172
 30
0.0
 11
21.9329471112
 21
28.6212406172
 31
0.0
  0
LINE
  5
117
330
1F
100
AcDbEntity
  8
0
  6
Continuous
 62
     7
370
    30
100
AcDbLine
 10
33.9329472156
 20
28.6212406172
 30
0.0
 11
39.9329472677
 21
28.6212406172
 31
0.0
  0
LINE
  5
118
330
1F
100
AcDbEntity
  8
0
  6
Continuous
 62
     7
370
    30
100
AcDbLine
 10
39.9329472677
 20
34.6212407857
 30
0.0
 11
33.9329472156
 21
34.6212407857
 31
0.0
  0
LINE
  5
119
330
1F
100
AcDbEntity
  8
0
  6
Continuous
 62
     7
370
    30
100
AcDbLine
 10
21.9329471112
 20
34.6212407857
 30
0.0
 11
17.3329465435
 21
34.6212407857
 31
0.0
  0
LINE
  5
11A
330
1F
100
AcDbEntity
  8
0
  6
Continuous
 62
     7
370
    30
100
AcDbLine
 10
22.9329468095
 20
31.6212405268
 30
0.0
 11
22.9329468095
 21
36.3712406069
 31
0.0
  0
LINE
  5
11B
330
1F
100
AcDbEntity
  8
0
  6
Continuous
 62
     7
370
    30
100
AcDbLine
 10
22.9329468095
 20
26.8712404467
 30
0.0
 11
22.9329468095
 21
31.6212405268
 31
0.0
  0
LINE
  5
11C
330
1F
100
AcDbEntity
  8
0
  6
Continuous
 62
     7
370
    30
100
AcDbLine
 10
33.4329471336
 20
31.6212405268
 30
0.0
 11
33.4329471336
 21
36.3712406069
 31
0.0
  0
LINE
  5
11D
330
1F
100
AcDbEntity
  8
0
  6
Continuous
 62
     7
370
    30
100
AcDbLine
 10
33.4329471336
 20
26.8712404467
 30
0.0
 11
33.4329471336
 21
31.6212405268
 31
0.0
  0
LINE
  5
11E
330
1F
100
AcDbEntity
  8
0
  6
Continuous
 62
     7
370
    30
100
AcDbLine
 10
33.9329472156
 20
31.6212405268
 30
0.0
 11
33.9329472156
 21
27.3712405287
 31
0.0
  0
LINE
  5
11F
330
1F
100
AcDbEntity
  8
0
  6
Continuous
 62
     7
370
    30
100
AcDbLine
 10
33.9329472156
 20
35.871240525
 30
0.0
 11
33.9329472156
 21
31.6212405268
 31
0.0
  0
LINE
  5
120
330
1F
100
AcDbEntity
  8
0
  6
Continuous
 62
     7
370
    30
100
AcDbLine
 10
22.40794677
 20
26.8962406371
 30
0.0
 11
22.40794677
 21
36.3462406494
 31
0.0
  0
LINE
  5
121
330
1F
100
AcDbEntity
  8
0
  6
Continuous
 62
     7
370
    30
100
AcDbLine
 10
21.9329471112
 20
31.6212405268
 30
0.0
 11
21.9329471112
 21
35.871240525
 31
0.0
  0
LINE
  5
122
330
1F
100
AcDbEntity
  8
0
  6
Continuous
 62
     7
370
    30
100
AcDbLine
 10
21.9329471112
 20
27.3712405287
 30
0.0
 11
21.9329471112
 21
31.6212405268
 31
0.0
  0
LINE
  5
123
330
1F
100
AcDbEntity
  8
0
  6
Continuous
 62
     7
370
    30
100
AcDbLine
 10
17.3329465435
 20
31.6212405268
 30
0.0
 11
17.3329465435
 21
34.6212407857
 31
0.0
  0
LINE
  5
124
330
1F
100
AcDbEntity
  8
0
  6
Continuous
 62
     7
370
    30
100
AcDbLine
 10
17.3329465435
 20
28.6212406172
 30
0.0
 11
17.3329465435
 21
31.6212405268
 31
0.0
  0
LINE
  5
125
330
1F
100
AcDbEntity
  8
0
  6
Continuous
 62
     7
370
    30
100
AcDbLine
 10
15.832947229
 20
31.6212405268
 30
0.0
 11
15.832947229
 21
33.7212404519
 31
0.0
  0
LINE
  5
126
330
1F
100
AcDbEntity
  8
0
  6
Continuous
 62
     7
370
    30
100
AcDbLine
 10
15.832947229
 20
29.5212405435
 30
0.0
 11
15.832947229
 21
31.6212405268
 31
0.0
  0
LINE
  5
127
330
1F
100
AcDbEntity
  8
0
  6
Continuous
 62
     7
370
    30
100
AcDbLine
 10
39.9329472677
 20
31.6212405268
 30
0.0
 11
39.9329472677
 21
34.6212407857
 31
0.0
  0
LINE
  5
128
330
1F
100
AcDbEntity
  8
0
  6
Continuous
 62
     7
370
    30
100
AcDbLine
 10
39.9329472677
 20
28.6212406172
 30
0.0
 11
39.9329472677
 21
31.6212405268
 31
0.0
  0
DIMENSION
  5
129
330
1F
100
AcDbEntity
  8
DIM
100
AcDbDimension
  2
_D
 10
39.9329469943
 20
22.8712405617
 30
0.0
 11
26.9327394561
 21
22.8712405617
 31
0.0
 70
   160
  1
<>
 71
     2
 42
-1.0
  3
SLDDIMSTYLE0
100
AcDbAlignedDimension
 13
13.9325319179
 23
31.6212405617
 33
0.0
 14
39.9329469943
 24
28.6212405617
 34
0.0
100
AcDbRotatedDimension
  0
DIMENSION
  5
134
330
1F
100
AcDbEntity
  8
DIM
100
AcDbDimension
  2
_D_1
 10
33.9329469943
 20
24.5379072284
 30
0.0
 11
27.9329469943
 21
24.5379072284
 31
0.0
 70
   160
  1
<>
 71
     2
 42
-1.0
  3
SLDDIMSTYLE0
100
AcDbAlignedDimension
 13
21.9329469943
 23
27.3712405617
 33
0.0
 14
33.9329469943
 24
27.3712405617
 34
0.0
100
AcDbRotatedDimension
  0
DIMENSION
  5
13E
330
1F
100
AcDbEntity
  8
DIM
100
AcDbDimension
  2
_D_2
 10
11.5991985846
 20
26.8712405617
 30
0.0
 11
11.5991985846
 21
31.6212405617
 31
0.0
 70
   160
  1
%%c<>
 71
     2
 42
-1.0
  3
SLDDIMSTYLE0
100
AcDbAlignedDimension
 13
22.9329469943
 23
36.3712405617
 33
0.0
 14
22.9329469943
 24
26.8712405617
 34
0.0
 50
90.0
100
AcDbRotatedDimension
  0
INSERT
  5
14E
330
1F
100
AcDbEntity
  8
DIM
100
AcDbBlockReference
  2
SW_NOTE_2
 10
39.0626204239
 20
37.7605491687
 30
0.0
  0
LEADER
  5
150
330
1F
100
AcDbEntity
  8
DIM
100
AcDbLeader
  3
SLDDIMSTYLE1
 76
     2
 10
35.5056877516
 20
34.6212405617
 30
0.0
 10
39.0626204239
 20
37.7605491687
 30
0.0
  0
CIRCLE
  5
151
330
1F
100
AcDbEntity
  8
0
  6
Continuous
 62
     7
370
    30
100
AcDbCircle
 10
57.9574102603
 20
31.6212405617
 30
0.0
 40
4.75
  0
CIRCLE
  5
152
330
1F
100
AcDbEntity
  8
0
  6
Continuous
 62
     7
370
    30
100
AcDbCircle
 10
57.9574102603
 20
31.6212405617
 30
0.0
 40
4.25
  0
CIRCLE
  5
153
330
1F
100
AcDbEntity
  8
0
  6
Continuous
 62
     7
370
    30
100
AcDbCircle
 10
57.9574102603
 20
31.6212405617
 30
0.0
 40
3.175000000000004
  0
LINE
  5
154
330
1F
100
AcDbEntity
  8
0
  6
Continuous
 62
     7
370
    30
100
AcDbLine
 10
57.3800599968
 20
32.6212404579
 30
0.0
 11
56.8027097333
 21
31.6212405268
 31
0.0
  0
LINE
  5
155
330
1F
100
AcDbEntity
  8
0
  6
Continuous
 62
     7
370
    30
100
AcDbLine
 10
56.8027097333
 20
31.6212405268
 30
0.0
 11
57.3800599968
 21
30.6212405666
 31
0.0
  0
LINE
  5
156
330
1F
100
AcDbEntity
  8
0
  6
Continuous
 62
     7
370
    30
100
AcDbLine
 10
57.3800599968
 20
30.6212405666
 30
0.0
 11
58.5347605238
 21
30.6212405666
 31
0.0
  0
LINE
  5
157
330
1F
100
AcDbEntity
  8
0
  6
Continuous
 62
     7
370
    30
100
AcDbLine
 10
58.5347605238
 20
30.6212405666
 30
0.0
 11
59.1121107873
 21
31.6212405268
 31
0.0
  0
LINE
  5
158
330
1F
100
AcDbEntity
  8
0
  6
Continuous
 62
     7
370
    30
100
AcDbLine
 10
59.1121107873
 20
31.6212405268
 30
0.0
 11
58.5347605238
 21
32.6212404579
 31
0.0
  0
LINE
  5
159
330
1F
100
AcDbEntity
  8
0
  6
Continuous
 62
     7
370
    30
100
AcDbLine
 10
58.5347605238
 20
32.6212404579
 30
0.0
 11
57.3800599968
 21
32.6212404579
 31
0.0
  0
CIRCLE
  5
15A
330
1F
100
AcDbEntity
  8
0
  6
Continuous
 62
     7
370
    30
100
AcDbCircle
 10
57.9574102603
 20
31.6212405617
 30
0.0
 40
3.000000000000007
  0
DIMENSION
  5
15B
330
1F
100
AcDbEntity
  8
DIM
100
AcDbDimension
  2
_D_3
 10
62.9130000709
 20
25.0379072284
 30
0.0
 11
62.0469746671
 21
24.5379072284
 31
0.0
 70
   160
  1
<>
 71
     2
 42
-1.0
  3
SLDDIMSTYLE2
100
AcDbAlignedDimension
 13
57.3800599911
 23
30.6212405617
 33
0.0
 14
59.1121107987
 24
31.6212405617
 34
0.0
 50
30.0
100
AcDbRotatedDimension
  0
INSERT
  5
173
330
1F
100
AcDbEntity
  8
DIM
100
AcDbBlockReference
  2
SW_CENTERMARKSYMBOL_0
 10
57.9574102603
 20
31.6212405617
 30
0.0
  0
LINE
  5
174
330
1F
100
AcDbEntity
  8
0
  6
Continuous
 62
     7
370
    30
100
AcDbLine
 10
81.1690994647
 20
44.2143728833
 30
0.0
 11
81.5225953929
 21
44.4185080835
 31
0.0
  0
LINE
  5
175
330
1F
100
AcDbEntity
  8
0
  6
Continuous
 62
     7
370
    30
100
AcDbLine
 10
84.5273107828
 20
49.6233917611
 30
0.0
 11
84.5273107828
 21
50.031595817
 31
0.0
  0
LINE
  5
176
330
1F
100
AcDbEntity
  8
0
  6
Continuous
 62
     7
370
    30
100
AcDbLine
 10
83.5433605622
 20
52.2063586478
 30
0.0
 11
76.1187393598
 21
56.4925012348
 31
0.0
  0
LINE
  5
177
330
1F
100
AcDbEntity
  8
0
  6
Continuous
 62
     7
370
    30
100
AcDbLine
 10
71.3691253797
 20
48.2650370422
 30
0.0
 11
78.7937465822
 21
43.9788944551
 31
0.0
  0
LINE
  5
178
330
1F
100
AcDbEntity
  8
0
  6
Continuous
 62
     7
370
    30
100
AcDbLine
 10
71.0103933038
 20
48.5009953931
 30
0.0
 11
71.13825556
 21
48.4271820838
 31
0.0
  0
LINE
  5
179
330
1F
100
AcDbEntity
  8
0
  6
Continuous
 62
     7
370
    30
100
AcDbLine
 10
75.8628715717
 20
56.6113438333
 30
0.0
 11
75.7350093155
 21
56.6851571426
 31
0.0
  0
LINE
  5
17A
330
1F
100
AcDbEntity
  8
0
  6
Continuous
 62
     7
370
    30
100
AcDbLine
 10
73.3721582902
 20
56.4509180747
 30
0.0
 11
73.0363371584
 21
56.2569896344
 31
0.0
  0
LINE
  5
17B
330
1F
100
AcDbEntity
  8
0
  6
Continuous
 62
     7
370
    30
100
AcDbLine
 10
70.0316217685
 20
51.0521059568
 30
0.0
 11
70.0316217685
 21
50.6643121037
 31
0.0
  0
ARC
  5
17C
330
1F
100
AcDbEntity
  8
0
  6
Continuous
 62
     7
370
    30
100
AcDbCircle
 10
68.7938913981
 20
55.2363669658
 30
0.0
 40
2.000000000000004
100
AcDbArc
 50
76.880814445
 51
223.1245620877
  0
LINE
  5
17D
330
1F
100
AcDbEntity
  8
0
  6
Continuous
 62
     7
370
    30
100
AcDbLine
 10
68.2842562962
 20
52.0665652645
 30
0.0
 11
70.0316258536
 21
51.0578302905
 31
0.0
  0
LINE
  5
17E
330
1F
100
AcDbEntity
  8
0
  6
Continuous
 62
     7
370
    30
100
AcDbLine
 10
79.5024210551
 20
45.590456597
 30
0.0
 11
84.264869551
 21
42.8411536009
 31
0.0
  0
LINE
  5
17F
330
1F
100
AcDbEntity
  8
0
  6
Continuous
 62
     7
370
    30
100
AcDbLine
 10
87.2646257489
 20
48.0374467752
 30
0.0
 11
82.5021772531
 21
50.7867497712
 31
0.0
  0
LINE
  5
180
330
1F
100
AcDbEntity
  8
0
  6
Continuous
 62
     7
370
    30
100
AcDbLine
 10
73.0313820515
 20
56.2541234648
 30
0.0
 11
71.2840124941
 21
57.2628584388
 31
0.0
  0
LINE
  5
181
330
1F
100
AcDbEntity
  8
0
  6
Continuous
 62
     7
370
    30
100
AcDbLine
 10
70.505808016
 20
57.384835042
 30
0.0
 11
69.228645758
 21
57.1811041688
 31
0.0
  0
LINE
  5
182
330
1F
100
AcDbEntity
  8
0
  6
Continuous
 62
     7
370
    30
100
AcDbLine
 10
67.3272033392
 20
53.8873524069
 30
0.0
 11
67.7894617035
 21
52.6794753822
 31
0.0
  0
LWPOLYLINE
  5
183
330
1F
100
AcDbEntity
  8
0
  6
Continuous
 62
     7
370
    30
100
AcDbPolyline
 90
       38
 70
   128
 43
0.0
 10
77.8097963616
 20
46.1536572859
 10
77.8222298932
 20
46.494255402
 10
77.8594384346
 20
46.846687299
 10
77.9211465067
 20
47.2083436942
 10
78.0068972445
 20
47.5765470103
 10
78.1160557796
 20
47.9485711988
 10
78.2478139405
 20
48.3216619228
 10
78.4011962356
 20
48.6930569489
 10
78.5750670763
 20
49.0600065985
 10
78.7681391836
 20
49.4197941047
 10
78.9789831192
 20
49.7697557266
 10
79.2060378684
 20
50.1073004709
 10
79.4476223972
 20
50.4299292744
 10
79.7019480983
 20
50.7352535062
 10
79.9671320333
 20
51.0210126527
 10
80.241210873
 20
51.285091053
 10
80.5221554336
 20
51.5255335631
 10
80.8078856998
 20
51.7405600308
 10
81.0962862248
 20
51.9285784752
 10
81.3852217919
 20
52.0881968738
 10
81.6725532234
 20
52.2182334675
 10
81.9561532178
 20
52.3177255111
 10
82.2339220999
 20
52.3859364002
 10
82.5038033662
 20
52.4223611253
 10
82.7637989102
 20
52.4267300105
 10
83.0119838159
 20
52.39901071
 10
83.2465206089
 20
52.3394084479
 10
83.4656728611
 20
52.2483644984
 10
83.6678180457
 20
52.1265529191
 10
83.8514595506
 20
51.9748755604
 10
84.0152377583
 20
51.7944553882
 10
84.1579401122
 20
51.5866281706
 10
84.2785100941
 20
51.3529325873
 10
84.376055046
 20
51.0950988389
 10
84.4498527792
 20
50.8150358361
 10
84.499356921
 20
50.5148170675
 10
84.5242009603
 20
50.1966652477
 10
84.5273107828
 20
50.031595817
  0
LWPOLYLINE
  5
184
330
1F
100
AcDbEntity
  8
0
  6
Continuous
 62
     7
370
    30
100
AcDbPolyline
 90
       20
 70
   128
 43
0.0
 10
81.1690994647
 20
44.2143728833
 10
81.0962862248
 20
44.1732365244
 10
80.8078856998
 20
44.0282748104
 10
80.5221554336
 20
43.9134041347
 10
80.241210873
 20
43.8294749596
 10
79.9671320333
 20
43.7771086673
 10
79.7019480983
 20
43.7566929596
 10
79.4476223972
 20
43.7683789872
 10
79.2060378684
 20
43.8120802308
 10
78.9789831192
 20
43.8874731417
 10
78.7681391836
 20
43.9939995373
 10
78.5750670763
 20
44.1308707333
 10
78.4011962356
 20
44.2970733832
 10
78.2478139405
 20
44.4913769809
 10
78.1160557796
 20
44.7123429704
 10
78.0068972445
 20
44.9583353969
 10
77.9211465067
 20
45.2275330185
 10
77.8594384346
 20
45.5179427903
 10
77.8222298932
 20
45.8274146198
 10
77.8097963616
 20
46.1536572859
  0
LWPOLYLINE
  5
185
330
1F
100
AcDbEntity
  8
0
  6
Continuous
 62
     7
370
    30
100
AcDbPolyline
 90
       19
 70
   128
 43
0.0
 10
78.5169031428
 20
46.1536572859
 10
78.5293541754
 20
45.8452740023
 10
78.5666041002
 20
45.5538217359
 10
78.6283442525
 20
45.2817155522
 10
78.7140630339
 20
45.0312102086
 10
78.8230501518
 20
44.8043814713
 10
78.9544025043
 20
44.6031089146
 10
79.1070316647
 20
44.4290603464
 10
79.2796728996
 20
44.2836779878
 10
79.4708956494
 20
44.168166523
 10
79.6791153821
 20
44.0834831162
 10
79.9026067235
 20
44.0303294808
 10
80.1395177539
 20
44.0091460647
 10
80.387885354
 20
44.0201084002
 10
80.6456514715
 20
44.0631256501
 10
80.9106801752
 20
44.1378413597
 10
81.1807753538
 20
44.2436364113
 10
81.4536989137
 20
44.3796341537
 10
81.5225953929
 20
44.4185080835
  0
LWPOLYLINE
  5
186
330
1F
100
AcDbEntity
  8
0
  6
Continuous
 62
     7
370
    30
100
AcDbPolyline
 90
       37
 70
   128
 43
0.0
 10
84.5273107828
 20
49.6233917611
 10
84.5241964109
 20
49.7795431153
 10
84.4993201523
 20
50.0797720254
 10
84.4497737675
 20
50.3618435686
 10
84.3759678136
 20
50.6234204112
 10
84.2785138699
 20
50.8623350452
 10
84.1582194704
 20
51.0766077487
 10
84.0160814125
 20
51.2644629905
 10
83.8532774969
 20
51.4243441429
 10
83.671156768
 20
51.5549263804
 10
83.4712283357
 20
51.6551276575
 10
83.2551488698
 20
51.7241176747
 10
83.0247088728
 20
51.7613247592
 10
82.7818178432
 20
51.7664406011
 10
82.5284884526
 20
51.7394228092
 10
82.2668198679
 20
51.6804952613
 10
81.9989803576
 20
51.5901462496
 10
81.7271893241
 20
51.4691244345
 10
81.4536989137
 20
51.3184326409
 10
81.1807753538
 20
51.1393195484
 10
80.9106801752
 20
50.9332693446
 10
80.6456514715
 20
50.7019894262
 10
80.387885354
 20
50.4473962516
 10
80.1395177539
 20
50.17159946
 10
79.9026067235
 20
49.8768843905
 10
79.6791153821
 20
49.5656931448
 10
79.4708956494
 20
49.2406043518
 10
79.2796728996
 20
48.9043117995
 10
79.1070316647
 20
48.5596021139
 10
78.9544025043
 20
48.2093316681
 10
78.8230501518
 20
47.8564029132
 10
78.7140630339
 20
47.5037403281
 10
78.6283442525
 20
47.154266186
 10
78.5666041002
 20
46.8108763398
 10
78.5293541754
 20
46.4764162258
 10
78.5169031428
 20
46.1536572859
 10
78.5169031428
 20
46.1536572859
  0
LWPOLYLINE
  5
187
330
1F
100
AcDbEntity
  8
0
  6
Continuous
 62
     7
370
    30
100
AcDbPolyline
 90
       29
 70
   128
 43
0.0
 10
70.3851751591
 20
50.4397998729
 10
70.3976086907
 20
50.7803979891
 10
70.4348172321
 20
51.132829886
 10
70.4965253042
 20
51.4944862813
 10
70.5822760421
 20
51.8626895974
 10
70.6914345772
 20
52.2347137859
 10
70.823192738
 20
52.6078045098
 10
70.9765750332
 20
52.979199536
 10
71.1504458738
 20
53.3461491856
 10
71.3435179811
 20
53.7059366917
 10
71.5543619167
 20
54.0558983137
 10
71.7814166659
 20
54.393443058
 10
72.0230011947
 20
54.7160718615
 10
72.2773268959
 20
55.0213960933
 10
72.5425108308
 20
55.3071552398
 10
72.8165896705
 20
55.5712336401
 10
73.0975342311
 20
55.8116761502
 10
73.3832644974
 20
56.0267026178
 10
73.6716650223
 20
56.2147210623
 10
73.9606005895
 20
56.3743394608
 10
74.2479320209
 20
56.5043760546
 10
74.5315320153
 20
56.6038680982
 10
74.8093008975
 20
56.6720789873
 10
75.0791821638
 20
56.7085037124
 10
75.3391777078
 20
56.7128725975
 10
75.5873626134
 20
56.6851532971
 10
75.8218994065
 20
56.6255510349
 10
76.0410516586
 20
56.5345070855
 10
76.1187393598
 20
56.4925012348
  0
ARC
  5
188
330
1F
100
AcDbEntity
  8
0
  6
Continuous
 62
     7
370
    30
100
AcDbCircle
 10
72.7320948518
 20
50.1916700326
 30
0.0
 40
2.360000097773037
100
AcDbArc
 50
173.9647812985
 51
234.7230383082
  0
LWPOLYLINE
  5
189
330
1F
100
AcDbEntity
  8
0
  6
Continuous
 62
     7
370
    30
100
AcDbPolyline
 90
       27
 70
   128
 43
0.0
 10
79.2770429325
 20
46.592476646
 10
79.2897616688
 20
46.8753866929
 10
79.3277737693
 20
47.1697759963
 10
79.3906485416
 20
47.4723090078
 10
79.4776735896
 20
47.7795579073
 10
79.5878628845
 20
48.0880414421
 10
79.7199679378
 20
48.3942643705
 10
79.8724919463
 20
48.6947570644
 10
80.0437067521
 20
48.9861148214
 10
80.2316724231
 20
49.2650364418
 10
80.434259233
 20
49.5283616321
 10
80.6491717924
 20
49.7731068127
 10
80.873975056
 20
49.9964989229
 10
81.1061219131
 20
50.1960068409
 10
81.3429820471
 20
50.3693700623
 10
81.581871738
 20
50.5146243123
 10
81.82008427
 20
50.6301238024
 10
82.0549206001
 20
50.7145598773
 10
82.2837199388
 20
50.7669758423
 10
82.5038898981
 20
50.7867778037
 10
82.7129358645
 20
50.7737413973
 10
82.9084892636
 20
50.7280143309
 10
83.0883343973
 20
50.6501147104
 10
83.2504335483
 20
50.5409251696
 10
83.3929500685
 20
50.4016828696
 10
83.5142691887
 20
50.2339654814
 10
83.5417928705
 20
50.18659245
  0
ARC
  5
18A
330
1F
100
AcDbEntity
  8
0
  6
Continuous
 62
     7
370
    30
100
AcDbCircle
 10
80.6393443831
 20
46.3676027065
 30
0.0
 40
1.38073658994101
100
AcDbArc
 50
170.6267580716
 51
265.9587174532
  0
LWPOLYLINE
  5
18B
330
1F
100
AcDbEntity
  8
0
  6
Continuous
 62
     7
370
    30
100
AcDbPolyline
 90
       38
 70
   128
 43
0.0
 10
71.0103933038
 20
48.5009953931
 10
70.8865908597
 20
48.5803810916
 10
70.703915889
 20
48.7312601485
 10
70.5409996719
 20
48.9107307407
 10
70.399048383
 20
49.117464131
 10
70.2791129799
 20
49.3499297374
 10
70.1820814225
 20
49.6064064661
 10
70.1086720985
 20
49.8849954531
 10
70.0594285047
 20
50.183634123
 10
70.0347152236
 20
50.5001114595
 10
70.0347152236
 20
50.8320843751
 10
70.0594285047
 20
51.1770950587
 10
70.1086720985
 20
51.5325891717
 10
70.1820814225
 20
51.8959347601
 10
70.2791129799
 20
52.2644417404
 10
70.399048383
 20
52.6353818157
 10
70.5409996719
 20
53.0060086755
 10
70.703915889
 20
53.3735783283
 10
70.8865908597
 20
53.7353694168
 10
71.0876721223
 20
54.0887033666
 10
71.3056709415
 20
54.4309642166
 10
71.5389733304
 20
54.7596179872
 10
71.7858519997
 20
55.072231441
 10
72.0444791461
 20
55.3664900972
 10
72.3129399847
 20
55.6402153678
 10
72.5892469254
 20
55.8913806866
 10
72.8713542882
 20
56.1181265134
 10
73.1571734489
 20
56.3187741015
 10
73.4445883026
 20
56.4918379264
 10
73.7314709301
 20
56.636036684
 10
74.0156973528
 20
56.7503027772
 10
74.2951632578
 20
56.8337902198
 10
74.5677995773
 20
56.8858809
 10
74.8315878073
 20
56.9061891566
 10
75.0845749521
 20
56.8945646345
 10
75.3248879834
 20
56.8510933974
 10
75.5507477076
 20
56.7760972912
 10
75.7350093155
 20
56.6851571426
  0
ARC
  5
18C
330
1F
100
AcDbEntity
  8
0
  6
Continuous
 62
     7
370
    30
100
AcDbCircle
 10
76.5187873757
 20
50.7768794407
 30
0.0
 40
6.49300140539596
100
AcDbArc
 50
122.4347682565
 51
177.5706082762
  0
LWPOLYLINE
  5
18D
330
1F
100
AcDbEntity
  8
0
  6
Continuous
 62
     7
370
    30
100
AcDbPolyline
 90
       59
 70
   128
 43
0.0
 10
83.6434273064
 20
44.2146880203
 10
83.6558625771
 20
44.4867175225
 10
83.6930225972
 20
44.7699151856
 10
83.7544716993
 20
45.0609607758
 10
83.8394894489
 20
45.3564420496
 10
83.9470790906
 20
45.6528947594
 10
84.0759792343
 20
45.9468432681
 10
84.2246786436
 20
46.2348412983
 10
84.3914339539
 20
46.5135123363
 10
84.5742901116
 20
46.779589219
 10
84.7711032956
 20
47.0299524383
 10
84.9795660511
 20
47.2616667143
 10
85.1972343429
 20
47.472015409
 10
85.4215562094
 20
47.6585323762
 10
85.6499016818
 20
47.8190308751
 10
85.8795936181
 20
47.9516292075
 10
86.1079390904
 20
48.0547727792
 10
86.3322609569
 20
48.1272523262
 10
86.5499292488
 20
48.1682180919
 10
86.7583920043
 20
48.1771897902
 10
86.9552051882
 20
48.1540622363
 10
87.138061346
 20
48.0991065794
 10
87.3048166563
 20
48.0129671245
 10
87.4535160656
 20
47.896653778
 10
87.5824162093
 20
47.7515302073
 10
87.690005851
 20
47.5792978538
 10
87.7750236006
 20
47.3819759842
 10
87.8364727027
 20
47.1618780171
 10
87.8736327227
 20
46.9215844
 10
87.8860679935
 20
46.6639123558
 10
87.8736327227
 20
46.3918828535
 10
87.8364727027
 20
46.1086851905
 10
87.7750236006
 20
45.8176396003
 10
87.690005851
 20
45.5221583264
 10
87.5824162093
 20
45.2257056166
 10
87.4535160656
 20
44.9317571079
 10
87.3048166563
 20
44.6437590778
 10
87.138061346
 20
44.3650880397
 10
86.9552051882
 20
44.099011157
 10
86.7583920043
 20
43.8486479377
 10
86.5499292488
 20
43.6169336617
 10
86.3322609569
 20
43.406584967
 10
86.1079390904
 20
43.2200679998
 10
85.8795936181
 20
43.0595695009
 10
85.6499016818
 20
42.9269711685
 10
85.4215562094
 20
42.8238275968
 10
85.1972343429
 20
42.7513480499
 10
84.9795660511
 20
42.7103822842
 10
84.7711032956
 20
42.7014105858
 10
84.5742901116
 20
42.7245381398
 10
84.3914339539
 20
42.7794937966
 10
84.2246786436
 20
42.8656332515
 10
84.0759792343
 20
42.9819465981
 10
83.9470790906
 20
43.1270701687
 10
83.8394894489
 20
43.2993025223
 10
83.7544716993
 20
43.4966243918
 10
83.6930225972
 20
43.7167223589
 10
83.6558625771
 20
43.957015976
 10
83.6434273064
 20
44.2146880203
  0
LWPOLYLINE
  5
18E
330
1F
100
AcDbEntity
  8
0
  6
Continuous
 62
     7
370
    30
100
AcDbPolyline
 90
       23
 70
   128
 43
0.0
 10
67.6628140515
 20
53.4400996839
 10
67.6752493223
 20
53.7121291861
 10
67.7124093423
 20
53.9953268492
 10
67.7738584444
 20
54.2863724394
 10
67.858876194
 20
54.5818537132
 10
67.9664658358
 20
54.878306423
 10
68.0953659795
 20
55.1722549317
 10
68.2440653888
 20
55.4602529619
 10
68.4108206991
 20
55.7389239999
 10
68.5936768568
 20
56.0050008826
 10
68.7904900408
 20
56.2553641019
 10
68.9989527963
 20
56.4870783779
 10
69.2166210881
 20
56.6974270726
 10
69.4409429546
 20
56.8839440398
 10
69.6692884269
 20
57.0444425387
 10
69.8989803633
 20
57.1770408711
 10
70.1273258356
 20
57.2801844428
 10
70.3516477021
 20
57.3526639897
 10
70.569315994
 20
57.3936297555
 10
70.7777787495
 20
57.4026014538
 10
70.9745919334
 20
57.3794738999
 10
71.1574480912
 20
57.324518243
 10
71.2840124941
 20
57.2628584388
  0
ARC
  5
18F
330
1F
100
AcDbEntity
  8
0
  6
Continuous
 62
     7
370
    30
100
AcDbCircle
 10
69.1380760532
 20
53.280217631
 30
0.0
 40
1.483900348543103
100
AcDbArc
 50
173.814689737
 51
234.8731298696
  0
LINE
  5
190
330
1F
100
AcDbEntity
  8
0
  6
Continuous
 62
     7
370
    30
100
AcDbLine
 10
85.3564993595
 20
46.0201642783
 30
0.0
 11
84.948251069
 21
44.9679467449
 31
0.0
  0
LINE
  5
191
330
1F
100
AcDbEntity
  8
0
  6
Continuous
 62
     7
370
    30
100
AcDbLine
 10
84.948251069
 20
44.9679467449
 30
0.0
 11
85.3564993595
 21
44.3870826546
 31
0.0
  0
LINE
  5
192
330
1F
100
AcDbEntity
  8
0
  6
Continuous
 62
     7
370
    30
100
AcDbLine
 10
85.3564993595
 20
44.3870826546
 30
0.0
 11
86.1729959404
 21
44.8584360977
 31
0.0
  0
LINE
  5
193
330
1F
100
AcDbEntity
  8
0
  6
Continuous
 62
     7
370
    30
100
AcDbLine
 10
86.1729959404
 20
44.8584360977
 30
0.0
 11
86.5812442309
 21
45.9106536312
 31
0.0
  0
LINE
  5
194
330
1F
100
AcDbEntity
  8
0
  6
Continuous
 62
     7
370
    30
100
AcDbLine
 10
86.5812442309
 20
45.9106536312
 30
0.0
 11
86.1729959404
 21
46.4915177215
 31
0.0
  0
LINE
  5
195
330
1F
100
AcDbEntity
  8
0
  6
Continuous
 62
     7
370
    30
100
AcDbLine
 10
86.1729959404
 20
46.4915177215
 30
0.0
 11
85.3564993595
 21
46.0201642783
 31
0.0
  0
LINE
  5
196
330
1F
100
AcDbEntity
  8
0
  6
Continuous
 62
     7
370
    30
100
AcDbLine
 10
85.8740225156
 20
46.3189240371
 30
0.0
 11
86.5812442309
 21
45.9106536312
 31
0.0
  0
LINE
  5
197
330
1F
100
AcDbEntity
  8
0
  6
Continuous
 62
     7
370
    30
100
AcDbLine
 10
85.1376581733
 20
45.4561238685
 30
0.0
 11
86.1729959404
 21
44.8584360977
 31
0.0
  0
ARC
  5
198
330
1F
100
AcDbEntity
  8
0
  6
Continuous
 62
     7
370
    30
100
AcDbCircle
 10
70.1560952244
 20
54.4148916476
 30
0.0
 40
2.917549352608797
100
AcDbArc
 50
108.5351556358
 51
179.9038159518
  0
ARC
  5
199
330
1F
100
AcDbEntity
  8
0
  6
Continuous
 62
     7
370
    30
100
AcDbCircle
 10
68.7144488435
 20
54.3919346554
 30
0.0
 40
1.476161689880282
100
AcDbArc
 50
178.9187803229
 51
199.987824401
  0
ENDSEC
  0
SECTION
  2
OBJECTS
  0
DICTIONARY
  5
C
330
0
100
AcDbDictionary
281
     1
  3
ACAD_GROUP
350
D
  3
ACAD_LAYOUT
350
1A
  3
ACAD_MLINESTYLE
350
17
  3
ACAD_PLOTSETTINGS
350
19
  3
ACAD_PLOTSTYLENAME
350
E
  3
ACAD_SCALELIST
350
47
  0
DICTIONARY
  5
D
102
{ACAD_REACTORS
330
C
102
}
330
C
100
AcDbDictionary
281
     1
  0
DICTIONARY
  5
1A
102
{ACAD_REACTORS
330
C
102
}
330
C
100
AcDbDictionary
281
     1
  3
Layout1
350
1E
  3
Layout2
350
26
  3
Model
350
22
  0
DICTIONARY
  5
17
102
{ACAD_REACTORS
330
C
102
}
330
C
100
AcDbDictionary
281
     1
  3
Standard
350
18
  0
DICTIONARY
  5
19
102
{ACAD_REACTORS
330
C
102
}
330
C
100
AcDbDictionary
281
     1
  0
ACDBDICTIONARYWDFLT
  5
E
102
{ACAD_REACTORS
330
C
102
}
330
C
100
AcDbDictionary
281
     1
  3
Normal
350
F
100
AcDbDictionaryWithDefault
340
F
  0
DICTIONARY
  5
47
102
{ACAD_REACTORS
330
C
102
}
330
C
100
AcDbDictionary
281
     1
  3
A0
350
48
  3
A1
350
49
  3
A2
350
4A
  3
A3
350
4B
  3
A4
350
4C
  3
A5
350
4D
  3
A6
350
4E
  3
A7
350
4F
  3
A8
350
50
  3
A9
350
51
  3
B0
350
52
  3
B1
350
53
  3
B2
350
54
  3
B3
350
55
  3
B4
350
56
  3
B5
350
57
  3
B6
350
58
  3
B7
350
59
  3
B8
350
5A
  3
B9
350
5B
  3
C0
350
5C
  3
C1
350
5D
  3
C2
350
5E
  3
C3
350
5F
  3
C4
350
60
  3
C5
350
61
  3
C6
350
62
  3
C7
350
63
  3
C8
350
64
  3
C9
350
65
  3
D0
350
66
  3
D1
350
67
  3
D2
350
68
  0
LAYOUT
  5
1E
102
{ACAD_REACTORS
330
1A
102
}
330
1A
100
AcDbPlotSettings
  1

  2
none_device
  4

  6

 40
0.0
 41
0.0
 42
0.0
 43
0.0
 44
0.0
 45
0.0
 46
0.0
 47
0.0
 48
0.0
 49
0.0
140
0.0
141
0.0
142
1.0
143
1.0
 70
   688
 72
     1
 73
     0
 74
     5
  7

 75
    16
147
1.0
148
0.0
149
0.0
100
AcDbLayout
  1
Layout1
 70
     1
 71
     1
 10
0.0
 20
0.0
 11
420.0
 21
297.0
 12
0.0
 22
0.0
 32
0.0
 14
1.0000000000E+20
 24
1.0000000000E+20
 34
1.0000000000E+20
 15
-1.0000000000E+20
 25
-1.0000000000E+20
 35
-1.0000000000E+20
146
0.0
 13
0.0
 23
0.0
 33
0.0
 16
1.0
 26
0.0
 36
0.0
 17
0.0
 27
1.0
 37
0.0
 76
     0
330
1B
  0
LAYOUT
  5
26
102
{ACAD_REACTORS
330
1A
102
}
330
1A
100
AcDbPlotSettings
  1

  2
none_device
  4

  6

 40
0.0
 41
0.0
 42
0.0
 43
0.0
 44
0.0
 45
0.0
 46
0.0
 47
0.0
 48
0.0
 49
0.0
140
0.0
141
0.0
142
1.0
143
1.0
 70
   688
 72
     1
 73
     0
 74
     5
  7

 75
    16
147
1.0
148
0.0
149
0.0
100
AcDbLayout
  1
Layout2
 70
     1
 71
     2
 10
0.0
 20
0.0
 11
0.0
 21
0.0
 12
0.0
 22
0.0
 32
0.0
 14
0.0
 24
0.0
 34
0.0
 15
0.0
 25
0.0
 35
0.0
146
0.0
 13
0.0
 23
0.0
 33
0.0
 16
1.0
 26
0.0
 36
0.0
 17
0.0
 27
1.0
 37
0.0
 76
     0
330
23
  0
LAYOUT
  5
22
102
{ACAD_REACTORS
330
1A
102
}
330
1A
100
AcDbPlotSettings
  1

  2
none_device
  4
Letter_(8.50_x_11.00_Inches)
  6

 40
6.35
 41
6.35
 42
6.35000508
 43
6.35000508
 44
215.9
 45
279.4
 46
0.0
 47
0.0
 48
0.0
 49
0.0
140
0.0
141
0.0
142
1.0
143
1.0
 70
  1712
 72
     1
 73
     0
 74
     0
  7

 75
     0
147
1.0
148
0.0
149
0.0
100
AcDbLayout
  1
Model
 70
     1
 71
     0
 10
0.0
 20
0.0
 11
99.0
 21
70.0
 12
0.0
 22
0.0
 32
0.0
 14
0.0
 24
0.0
 34
0.0
 15
99.0
 25
70.0
 35
0.0
146
0.0
 13
0.0
 23
0.0
 33
0.0
 16
1.0
 26
0.0
 36
0.0
 17
0.0
 27
1.0
 37
0.0
 76
     0
330
1F
331
29
  0
MLINESTYLE
  5
18
102
{ACAD_REACTORS
330
17
102
}
330
17
100
AcDbMlineStyle
  2
Standard
 70
     0
  3

 62
   256
 51
90.0
 52
90.0
 71
     2
 49
0.5
 62
   256
  6
BYLAYER
 49
-0.5
 62
   256
  6
BYLAYER
  0
ACDBPLACEHOLDER
  5
F
102
{ACAD_REACTORS
330
E
102
}
330
E
  0
SCALE
  5
48
102
{ACAD_REACTORS
330
47
102
}
330
47
100
AcDbScale
 70
     0
300
1:1
140
1.0
141
1.0
290
     1
  0
SCALE
  5
49
102
{ACAD_REACTORS
330
47
102
}
330
47
100
AcDbScale
 70
     0
300
1:2
140
1.0
141
2.0
290
     0
  0
SCALE
  5
4A
102
{ACAD_REACTORS
330
47
102
}
330
47
100
AcDbScale
 70
     0
300
1:4
140
1.0
141
4.0
290
     0
  0
SCALE
  5
4B
102
{ACAD_REACTORS
330
47
102
}
330
47
100
AcDbScale
 70
     0
300
1:5
140
1.0
141
5.0
290
     0
  0
SCALE
  5
4C
102
{ACAD_REACTORS
330
47
102
}
330
47
100
AcDbScale
 70
     0
300
1:8
140
1.0
141
8.0
290
     0
  0
SCALE
  5
4D
102
{ACAD_REACTORS
330
47
102
}
330
47
100
AcDbScale
 70
     0
300
1:10
140
1.0
141
10.0
290
     0
  0
SCALE
  5
4E
102
{ACAD_REACTORS
330
47
102
}
330
47
100
AcDbScale
 70
     0
300
1:16
140
1.0
141
16.0
290
     0
  0
SCALE
  5
4F
102
{ACAD_REACTORS
330
47
102
}
330
47
100
AcDbScale
 70
     0
300
1:20
140
1.0
141
20.0
290
     0
  0
SCALE
  5
50
102
{ACAD_REACTORS
330
47
102
}
330
47
100
AcDbScale
 70
     0
300
1:30
140
1.0
141
30.0
290
     0
  0
SCALE
  5
51
102
{ACAD_REACTORS
330
47
102
}
330
47
100
AcDbScale
 70
     0
300
1:40
140
1.0
141
40.0
290
     0
  0
SCALE
  5
52
102
{ACAD_REACTORS
330
47
102
}
330
47
100
AcDbScale
 70
     0
300
1:50
140
1.0
141
50.0
290
     0
  0
SCALE
  5
53
102
{ACAD_REACTORS
330
47
102
}
330
47
100
AcDbScale
 70
     0
300
1:100
140
1.0
141
100.0
290
     0
  0
SCALE
  5
54
102
{ACAD_REACTORS
330
47
102
}
330
47
100
AcDbScale
 70
     0
300
2:1
140
2.0
141
1.0
290
     0
  0
SCALE
  5
55
102
{ACAD_REACTORS
330
47
102
}
330
47
100
AcDbScale
 70
     0
300
4:1
140
4.0
141
1.0
290
     0
  0
SCALE
  5
56
102
{ACAD_REACTORS
330
47
102
}
330
47
100
AcDbScale
 70
     0
300
8:1
140
8.0
141
1.0
290
     0
  0
SCALE
  5
57
102
{ACAD_REACTORS
330
47
102
}
330
47
100
AcDbScale
 70
     0
300
10:1
140
10.0
141
1.0
290
     0
  0
SCALE
  5
58
102
{ACAD_REACTORS
330
47
102
}
330
47
100
AcDbScale
 70
     0
300
100:1
140
100.0
141
1.0
290
     0
  0
SCALE
  5
59
102
{ACAD_REACTORS
330
47
102
}
330
47
100
AcDbScale
 70
     0
300
1/128" = 1'-0"
140
0.0078125
141
12.0
290
     0
  0
SCALE
  5
5A
102
{ACAD_REACTORS
330
47
102
}
330
47
100
AcDbScale
 70
     0
300
1/64" = 1'-0"
140
0.015625
141
12.0
290
     0
  0
SCALE
  5
5B
102
{ACAD_REACTORS
330
47
102
}
330
47
100
AcDbScale
 70
     0
300
1/32" = 1'-0"
140
0.03125
141
12.0
290
     0
  0
SCALE
  5
5C
102
{ACAD_REACTORS
330
47
102
}
330
47
100
AcDbScale
 70
     0
300
1/16" = 1'-0"
140
0.0625
141
12.0
290
     0
  0
SCALE
  5
5D
102
{ACAD_REACTORS
330
47
102
}
330
47
100
AcDbScale
 70
     0
300
3/32" = 1'-0"
140
0.09375
141
12.0
290
     0
  0
SCALE
  5
5E
102
{ACAD_REACTORS
330
47
102
}
330
47
100
AcDbScale
 70
     0
300
1/8" = 1'-0"
140
0.125
141
12.0
290
     0
  0
SCALE
  5
5F
102
{ACAD_REACTORS
330
47
102
}
330
47
100
AcDbScale
 70
     0
300
3/16" = 1'-0"
140
0.1875
141
12.0
290
     0
  0
SCALE
  5
60
102
{ACAD_REACTORS
330
47
102
}
330
47
100
AcDbScale
 70
     0
300
1/4" = 1'-0"
140
0.25
141
12.0
290
     0
  0
SCALE
  5
61
102
{ACAD_REACTORS
330
47
102
}
330
47
100
AcDbScale
 70
     0
300
3/8" = 1'-0"
140
0.375
141
12.0
290
     0
  0
SCALE
  5
62
102
{ACAD_REACTORS
330
47
102
}
330
47
100
AcDbScale
 70
     0
300
1/2" = 1'-0"
140
0.5
141
12.0
290
     0
  0
SCALE
  5
63
102
{ACAD_REACTORS
330
47
102
}
330
47
100
AcDbScale
 70
     0
300
3/4" = 1'-0"
140
0.75
141
12.0
290
     0
  0
SCALE
  5
64
102
{ACAD_REACTORS
330
47
102
}
330
47
100
AcDbScale
 70
     0
300
1" = 1'-0"
140
1.0
141
12.0
290
     0
  0
SCALE
  5
65
102
{ACAD_REACTORS
330
47
102
}
330
47
100
AcDbScale
 70
     0
300
1-1/2" = 1'-0"
140
1.5
141
12.0
290
     0
  0
SCALE
  5
66
102
{ACAD_REACTORS
330
47
102
}
330
47
100
AcDbScale
 70
     0
300
3" = 1'-0"
140
3.0
141
12.0
290
     0
  0
SCALE
  5
67
102
{ACAD_REACTORS
330
47
102
}
330
47
100
AcDbScale
 70
     0
300
6" = 1'-0"
140
6.0
141
12.0
290
     0
  0
SCALE
  5
68
102
{ACAD_REACTORS
330
47
102
}
330
47
100
AcDbScale
 70
     0
300
1'-0" = 1'-0"
140
12.0
141
12.0
290
     0
  0
ENDSEC
  0
EOF
