  0
SECTION
  2
HEADER
  9
$ACADVER
  1
AC1015
  9
$ACADMAINTVER
 70
     6
  9
$DWGCODEPAGE
  3
ANSI_950
  9
$INSBASE
 10
0.0
 20
0.0
 30
0.0
  9
$EXTMIN
 10
0.0
 20
0.0
 30
0.0
  9
$EXTMAX
 10
59.4
 20
42.0
 30
0.0
  9
$LIMMIN
 10
0.0
 20
0.0
  9
$LIMMAX
 10
59.4
 20
42.0
  9
$ORTHOMODE
 70
     0
  9
$REGENMODE
 70
     1
  9
$FILLMODE
 70
     1
  9
$QTEXTMODE
 70
     0
  9
$MIRRTEXT
 70
     1
  9
$LTSCALE
 40
0.2
  9
$ATTMODE
 70
     1
  9
$TEXTSIZE
 40
0.635
  9
$TRACEWID
 40
1.0
  9
$TEXTSTYLE
  7
Standard
  9
$CLAYER
  8
0
  9
$CELTYPE
  6
ByLayer
  9
$CECOLOR
 62
   256
  9
$CELTSCALE
 40
1.0
  9
$DISPSILH
 70
     0
  9
$DIMSCALE
 40
1.0
  9
$DIMASZ
 40
0.4
  9
$DIMEXO
 40
0.2
  9
$DIMDLI
 40
3.75
  9
$DIMRND
 40
0.0
  9
$DIMDLE
 40
0.0
  9
$DIMEXE
 40
0.2
  9
$DIMTP
 40
0.0
  9
$DIMTM
 40
0.0
  9
$DIMTXT
 40
0.635
  9
$DIMCEN
 40
2.5
  9
$DIMTSZ
 40
0.0
  9
$DIMTOL
 70
     0
  9
$DIMLIM
 70
     0
  9
$DIMTIH
 70
     1
  9
$DIMTOH
 70
     1
  9
$DIMSE1
 70
     0
  9
$DIMSE2
 70
     0
  9
$DIMTAD
 70
     1
  9
$DIMZIN
 70
     0
  9
$DIMBLK
  1

  9
$DIMASO
 70
     1
  9
$DIMSHO
 70
     1
  9
$DIMPOST
  1

  9
$DIMAPOST
  1

  9
$DIMALT
 70
     0
  9
$DIMALTD
 70
     3
  9
$DIMALTF
 40
0.0393700787
  9
$DIMLFAC
 40
1.0
  9
$DIMTOFL
 70
     1
  9
$DIMTVP
 40
0.0
  9
$DIMTIX
 70
     0
  9
$DIMSOXD
 70
     0
  9
$DIMSAH
 70
     0
  9
$DIMBLK1
  1

  9
$DIMBLK2
  1

  9
$DIMSTYLE
  2
ISO-25
  9
$DIMCLRD
 70
     0
  9
$DIMCLRE
 70
     0
  9
$DIMCLRT
 70
     0
  9
$DIMTFAC
 40
1.0
  9
$DIMGAP
 40
0.2
  9
$DIMJUST
 70
     0
  9
$DIMSD1
 70
     0
  9
$DIMSD2
 70
     0
  9
$DIMTOLJ
 70
     0
  9
$DIMTZIN
 70
     0
  9
$DIMALTZ
 70
     0
  9
$DIMALTTZ
 70
     0
  9
$DIMUPT
 70
     0
  9
$DIMDEC
 70
     2
  9
$DIMTDEC
 70
     2
  9
$DIMALTU
 70
     2
  9
$DIMALTTD
 70
     3
  9
$DIMTXSTY
  7
Standard
  9
$DIMAUNIT
 70
     0
  9
$DIMADEC
 70
     2
  9
$DIMALTRND
 40
0.0
  9
$DIMAZIN
 70
     0
  9
$DIMDSEP
 70
    44
  9
$DIMATFIT
 70
     3
  9
$DIMFRAC
 70
     0
  9
$DIMLDRBLK
  1

  9
$DIMLUNIT
 70
     2
  9
$DIMLWD
 70
    -2
  9
$DIMLWE
 70
    -2
  9
$DIMTMOVE
 70
     0
  9
$LUNITS
 70
     2
  9
$LUPREC
 70
     2
  9
$SKETCHINC
 40
1.0
  9
$FILLETRAD
 40
10.0
  9
$AUNITS
 70
     0
  9
$AUPREC
 70
     2
  9
$MENU
  1
.
  9
$ELEVATION
 40
0.0
  9
$PELEVATION
 40
0.0
  9
$THICKNESS
 40
0.0
  9
$LIMCHECK
 70
     0
  9
$CHAMFERA
 40
0.0
  9
$CHAMFERB
 40
0.0
  9
$CHAMFERC
 40
0.0
  9
$CHAMFERD
 40
0.0
  9
$SKPOLY
 70
     0
  9
$TDCREATE
 40
2458373.619907998
  9
$TDUCREATE
 40
2458373.286574665
  9
$TDUPDATE
 40
2458373.619912338
  9
$TDUUPDATE
 40
2458373.286579004
  9
$TDINDWG
 40
0.0000000116
  9
$TDUSRTIMER
 40
0.0000000116
  9
$USRTIMER
 70
     1
  9
$ANGBASE
 50
0.0
  9
$ANGDIR
 70
     0
  9
$PDMODE
 70
     0
  9
$PDSIZE
 40
-1.0
  9
$PLINEWID
 40
0.0
  9
$SPLFRAME
 70
     0
  9
$SPLINETYPE
 70
     6
  9
$SPLINESEGS
 70
     8
  9
$HANDSEED
  5
195
  9
$SURFTAB1
 70
     6
  9
$SURFTAB2
 70
     6
  9
$SURFTYPE
 70
     6
  9
$SURFU
 70
     6
  9
$SURFV
 70
     6
  9
$UCSBASE
  2

  9
$UCSNAME
  2

  9
$UCSORG
 10
0.0
 20
0.0
 30
0.0
  9
$UCSXDIR
 10
1.0
 20
0.0
 30
0.0
  9
$UCSYDIR
 10
0.0
 20
1.0
 30
0.0
  9
$UCSORTHOREF
  2

  9
$UCSORTHOVIEW
 70
     0
  9
$UCSORGTOP
 10
0.0
 20
0.0
 30
0.0
  9
$UCSORGBOTTOM
 10
0.0
 20
0.0
 30
0.0
  9
$UCSORGLEFT
 10
0.0
 20
0.0
 30
0.0
  9
$UCSORGRIGHT
 10
0.0
 20
0.0
 30
0.0
  9
$UCSORGFRONT
 10
0.0
 20
0.0
 30
0.0
  9
$UCSORGBACK
 10
0.0
 20
0.0
 30
0.0
  9
$PUCSBASE
  2

  9
$PUCSNAME
  2

  9
$PUCSORG
 10
0.0
 20
0.0
 30
0.0
  9
$PUCSXDIR
 10
1.0
 20
0.0
 30
0.0
  9
$PUCSYDIR
 10
0.0
 20
1.0
 30
0.0
  9
$PUCSORTHOREF
  2

  9
$PUCSORTHOVIEW
 70
     0
  9
$PUCSORGTOP
 10
0.0
 20
0.0
 30
0.0
  9
$PUCSORGBOTTOM
 10
0.0
 20
0.0
 30
0.0
  9
$PUCSORGLEFT
 10
0.0
 20
0.0
 30
0.0
  9
$PUCSORGRIGHT
 10
0.0
 20
0.0
 30
0.0
  9
$PUCSORGFRONT
 10
0.0
 20
0.0
 30
0.0
  9
$PUCSORGBACK
 10
0.0
 20
0.0
 30
0.0
  9
$USERI1
 70
     0
  9
$USERI2
 70
     0
  9
$USERI3
 70
     0
  9
$USERI4
 70
     0
  9
$USERI5
 70
     0
  9
$USERR1
 40
0.0
  9
$USERR2
 40
0.0
  9
$USERR3
 40
0.0
  9
$USERR4
 40
0.0
  9
$USERR5
 40
0.0
  9
$WORLDVIEW
 70
     1
  9
$SHADEDGE
 70
     3
  9
$SHADEDIF
 70
    70
  9
$TILEMODE
 70
     1
  9
$MAXACTVP
 70
    64
  9
$PINSBASE
 10
0.0
 20
0.0
 30
0.0
  9
$PLIMCHECK
 70
     0
  9
$PEXTMIN
 10
1.0000000000E+20
 20
1.0000000000E+20
 30
1.0000000000E+20
  9
$PEXTMAX
 10
-1.0000000000E+20
 20
-1.0000000000E+20
 30
-1.0000000000E+20
  9
$PLIMMIN
 10
0.0
 20
0.0
  9
$PLIMMAX
 10
420.0
 20
297.0
  9
$UNITMODE
 70
     0
  9
$VISRETAIN
 70
     1
  9
$PLINEGEN
 70
     0
  9
$PSLTSCALE
 70
     1
  9
$TREEDEPTH
 70
  3020
  9
$CMLSTYLE
  2
Standard
  9
$CMLJUST
 70
     0
  9
$CMLSCALE
 40
20.0
  9
$PROXYGRAPHICS
 70
     1
  9
$MEASUREMENT
 70
     1
  9
$CELWEIGHT
370
    -1
  9
$ENDCAPS
280
     0
  9
$JOINSTYLE
280
     0
  9
$LWDISPLAY
290
     1
  9
$INSUNITS
 70
     4
  9
$HYPERLINKBASE
  1

  9
$STYLESHEET
  1

  9
$XEDIT
290
     1
  9
$CEPSNTYPE
380
     0
  9
$PSTYLEMODE
290
     1
  9
$FINGERPRINTGUID
  2
{A122A92D-6256-4A82-B9CA-8C50A805B12F}
  9
$VERSIONGUID
  2
{FAEB1C32-E019-11D5-929B-00C0DF256EC4}
  9
$EXTNAMES
290
     1
  9
$PSVPSCALE
 40
0.0
  9
$OLESTARTUP
290
     0
  0
ENDSEC
  0
SECTION
  2
CLASSES
  0
CLASS
  1
ACDBDICTIONARYWDFLT
  2
AcDbDictionaryWithDefault
  3
ObjectDBX Classes
 90
        0
280
     0
281
     0
  0
CLASS
  1
VISUALSTYLE
  2
AcDbVisualStyle
  3
ObjectDBX Classes
 90
     4095
280
     0
281
     0
  0
CLASS
  1
MATERIAL
  2
AcDbMaterial
  3
ObjectDBX Classes
 90
     1153
280
     0
281
     0
  0
CLASS
  1
SCALE
  2
AcDbScale
  3
ObjectDBX Classes
 90
     1153
280
     0
281
     0
  0
CLASS
  1
TABLESTYLE
  2
AcDbTableStyle
  3
ObjectDBX Classes
 90
     4095
280
     0
281
     0
  0
CLASS
  1
MLEADERSTYLE
  2
AcDbMLeaderStyle
  3
ACDB_MLEADERSTYLE_CLASS
 90
     4095
280
     0
281
     0
  0
CLASS
  1
SUN
  2
AcDbSun
  3
SCENEOE
 90
     1153
280
     0
281
     0
  0
CLASS
  1
ACDBPLACEHOLDER
  2
AcDbPlaceHolder
  3
ObjectDBX Classes
 90
        0
280
     0
281
     0
  0
CLASS
  1
LAYOUT
  2
AcDbLayout
  3
ObjectDBX Classes
 90
        0
280
     0
281
     0
  0
ENDSEC
  0
SECTION
  2
TABLES
  0
TABLE
  2
VPORT
  5
8
330
0
100
AcDbSymbolTable
 70
     1
  0
VPORT
  5
29
330
8
100
AcDbSymbolTableRecord
100
AcDbViewportTableRecord
  2
*Active
 70
     0
 10
0.0
 20
0.0
 11
1.0
 21
1.0
 12
29.7
 22
21.0
 13
0.0
 23
0.0
 14
10.0
 24
10.0
 15
10.0
 25
10.0
 16
0.0
 26
0.0
 36
1.0
 17
0.0
 27
0.0
 37
0.0
 40
42.0
 41
1.4142857143
 42
50.0
 43
0.0
 44
0.0
 50
0.0
 51
0.0
 71
     0
 72
  2000
 73
     1
 74
     3
 75
     0
 76
     0
 77
     0
 78
     0
281
     0
 65
     1
110
0.0
120
0.0
130
0.0
111
1.0
121
0.0
131
0.0
112
0.0
122
1.0
132
0.0
 79
     0
146
0.0
  0
ENDTAB
  0
TABLE
  2
LTYPE
  5
5
330
0
100
AcDbSymbolTable
 70
     6
  0
LTYPE
  5
14
330
5
100
AcDbSymbolTableRecord
100
AcDbLinetypeTableRecord
  2
ByBlock
 70
     0
  3

 72
    65
 73
     0
 40
0.0
  0
LTYPE
  5
15
330
5
100
AcDbSymbolTableRecord
100
AcDbLinetypeTableRecord
  2
ByLayer
 70
     0
  3

 72
    65
 73
     0
 40
0.0
  0
LTYPE
  5
16
330
5
100
AcDbSymbolTableRecord
100
AcDbLinetypeTableRecord
  2
Continuous
 70
     0
  3
Solid line
 72
    65
 73
     0
 40
0.0
  0
LTYPE
  5
6E
330
5
100
AcDbSymbolTableRecord
100
AcDbLinetypeTableRecord
  2
HIDDEN
 70
     0
  3
Hidden __ __ __ __ __ __ __ __ __ __ __ __ __ __
 72
    65
 73
     2
 40
1.905
 49
1.27
 74
     0
 49
-0.635
 74
     0
  0
LTYPE
  5
6F
330
5
100
AcDbSymbolTableRecord
100
AcDbLinetypeTableRecord
  2
PHANTOM
 70
     0
  3
Phantom ______  __  __  ______  __  __  ______
 72
    65
 73
     6
 40
12.7
 49
6.35
 74
     0
 49
-1.27
 74
     0
 49
1.27
 74
     0
 49
-1.27
 74
     0
 49
1.27
 74
     0
 49
-1.27
 74
     0
  0
LTYPE
  5
70
330
5
100
AcDbSymbolTableRecord
100
AcDbLinetypeTableRecord
  2
CENTER
 70
     0
  3
Center ____ _ ____ _ ____ _ ____ _ ____ _ ____
 72
    65
 73
     4
 40
10.16
 49
6.35
 74
     0
 49
-1.27
 74
     0
 49
1.27
 74
     0
 49
-1.27
 74
     0
  0
LTYPE
  5
71
330
5
100
AcDbSymbolTableRecord
100
AcDbLinetypeTableRecord
  2
CENTERX2
 70
     0
  3
Center (2x) ________  __  ________  __  _____
 72
    65
 73
     4
 40
20.32
 49
12.7
 74
     0
 49
-2.54
 74
     0
 49
2.54
 74
     0
 49
-2.54
 74
     0
  0
LTYPE
  5
72
330
5
100
AcDbSymbolTableRecord
100
AcDbLinetypeTableRecord
  2
DOT2
 70
     0
  3
Dot (.5x) ........................................
 72
    65
 73
     2
 40
0.635
 49
0.0
 74
     0
 49
-0.635
 74
     0
  0
ENDTAB
  0
TABLE
  2
LAYER
  5
2
330
0
100
AcDbSymbolTable
 70
    10
  0
LAYER
  5
10
330
2
100
AcDbSymbolTableRecord
100
AcDbLayerTableRecord
  2
0
 70
     0
 62
     7
  6
Continuous
370
    -3
390
F
  0
LAYER
  5
73
330
2
100
AcDbSymbolTableRecord
100
AcDbLayerTableRecord
  2
SLD-0
 70
     0
 62
     7
  6
Continuous
370
    15
390
F
  0
LAYER
  5
74
330
2
100
AcDbSymbolTableRecord
100
AcDbLayerTableRecord
  2
輪廓線
 70
     0
 62
   219
  6
Continuous
370
    15
390
F
  0
LAYER
  5
75
330
2
100
AcDbSymbolTableRecord
100
AcDbLayerTableRecord
  2
DIM
 70
     0
 62
     7
  6
Continuous
370
    -3
390
F
  0
LAYER
  5
76
330
2
100
AcDbSymbolTableRecord
100
AcDbLayerTableRecord
  2
中心線
 70
     0
 62
     7
  6
CENTERX2
370
    -3
390
F
  0
LAYER
  5
77
330
2
100
AcDbSymbolTableRecord
100
AcDbLayerTableRecord
  2
虛線
 70
     0
 62
     7
  6
HIDDEN
370
    -3
390
F
  0
LAYER
  5
78
330
2
100
AcDbSymbolTableRecord
100
AcDbLayerTableRecord
  2
SECTION
 70
     0
 62
     7
  6
PHANTOM
370
    15
390
F
  0
LAYER
  5
79
330
2
100
AcDbSymbolTableRecord
100
AcDbLayerTableRecord
  2
假想線
 70
     0
 62
     7
  6
PHANTOM
370
    -3
390
F
  0
LAYER
  5
7A
330
2
100
AcDbSymbolTableRecord
100
AcDbLayerTableRecord
  2
圖層_1
 70
     0
 62
   179
  6
Continuous
370
    -3
390
F
  0
LAYER
  5
7B
330
2
100
AcDbSymbolTableRecord
100
AcDbLayerTableRecord
  2
工作區域參考線
 70
     0
 62
   179
  6
Continuous
370
    -3
390
F
  0
ENDTAB
  0
TABLE
  2
STYLE
  5
3
330
0
100
AcDbSymbolTable
 70
     3
  0
STYLE
  5
11
330
3
100
AcDbSymbolTableRecord
100
AcDbTextStyleTableRecord
  2
Standard
 70
     0
 40
0.0
 41
1.0
 50
0.0
 71
     0
 42
0.635
  3
txt
  4

  0
STYLE
  5
CC
330
3
100
AcDbSymbolTableRecord
100
AcDbTextStyleTableRecord
  2
SLDTEXTSTYLE0
 70
     0
 40
0.0
 41
0.605
 50
0.0
 71
     0
 42
0.635
  3
TXT
  4

  0
STYLE
  5
103
330
3
100
AcDbSymbolTableRecord
100
AcDbTextStyleTableRecord
  2
SLDTEXTSTYLE1
 70
     0
 40
0.0
 41
0.7
 50
0.0
 71
     0
 42
0.635
  3
TXT
  4

  0
ENDTAB
  0
TABLE
  2
VIEW
  5
6
330
0
100
AcDbSymbolTable
 70
     0
  0
ENDTAB
  0
TABLE
  2
UCS
  5
7
330
0
100
AcDbSymbolTable
 70
     0
  0
ENDTAB
  0
TABLE
  2
APPID
  5
9
330
0
100
AcDbSymbolTable
 70
     1
  0
APPID
  5
12
330
9
100
AcDbSymbolTableRecord
100
AcDbRegAppTableRecord
  2
ACAD
 70
     0
  0
ENDTAB
  0
TABLE
  2
DIMSTYLE
  5
A
330
0
100
AcDbSymbolTable
 70
     3
100
AcDbDimStyleTable
  0
DIMSTYLE
105
27
330
A
100
AcDbSymbolTableRecord
100
AcDbDimStyleTableRecord
  2
ISO-25
 70
     0
 41
2.5
 42
0.625
 43
3.75
 44
1.25
 73
     0
 74
     0
 77
     1
 78
     8
140
2.5
141
2.5
143
0.0393700787
147
0.625
171
     3
172
     1
178
     0
271
     2
272
     2
274
     3
278
    44
283
     0
284
     8
340
11
  0
DIMSTYLE
105
12A
102
{ACAD_REACTORS
330
129
330
134
330
13E
330
15B
102
}
330
A
100
AcDbSymbolTableRecord
100
AcDbDimStyleTableRecord
  2
SLDDIMSTYLE0
 70
     0
 41
0.4
 44
0.0
 45
0.000000001
 73
     0
 74
     0
 77
     1
 78
    12
 79
     3
140
0.5084960937
147
0.1271240234
173
     1
178
     0
271
     2
272
     2
276
     2
284
    12
340
103
  0
DIMSTYLE
105
14F
330
A
100
AcDbSymbolTableRecord
100
AcDbDimStyleTableRecord
  2
SLDDIMSTYLE1
 70
     0
 41
0.4
 44
0.0
 45
0.000000001
146
0.4
147
0.0
173
     1
178
     0
271
     0
272
     0
276
     2
340
11
  0
ENDTAB
  0
TABLE
  2
BLOCK_RECORD
  5
1
330
0
100
AcDbSymbolTable
 70
    10
  0
BLOCK_RECORD
  5
1F
330
1
100
AcDbSymbolTableRecord
100
AcDbBlockTableRecord
  2
*Model_Space
340
22
  0
BLOCK_RECORD
  5
1B
330
1
100
AcDbSymbolTableRecord
100
AcDbBlockTableRecord
  2
*Paper_Space
340
1E
  0
BLOCK_RECORD
  5
23
330
1
100
AcDbSymbolTableRecord
100
AcDbBlockTableRecord
  2
*Paper_Space0
340
26
  0
BLOCK_RECORD
  5
7C
330
1
100
AcDbSymbolTableRecord
100
AcDbBlockTableRecord
  2
圖塊6
340
0
102
{BLKREFS
331
CB
102
}
  0
BLOCK_RECORD
  5
CE
330
1
100
AcDbSymbolTableRecord
100
AcDbBlockTableRecord
  2
SW_NOTE_0
340
0
102
{BLKREFS
331
D4
102
}
  0
BLOCK_RECORD
  5
105
330
1
100
AcDbSymbolTableRecord
100
AcDbBlockTableRecord
  2
SW_NOTE_1
340
0
102
{BLKREFS
331
10A
102
}
  0
BLOCK_RECORD
  5
12B
330
1
100
AcDbSymbolTableRecord
100
AcDbBlockTableRecord
  2
_D
340
0
  0
BLOCK_RECORD
  5
135
330
1
100
AcDbSymbolTableRecord
100
AcDbBlockTableRecord
  2
_D_1
340
0
  0
BLOCK_RECORD
  5
13F
330
1
100
AcDbSymbolTableRecord
100
AcDbBlockTableRecord
  2
_D_2
340
0
  0
BLOCK_RECORD
  5
149
330
1
100
AcDbSymbolTableRecord
100
AcDbBlockTableRecord
  2
SW_NOTE_2
340
0
102
{BLKREFS
331
14E
102
}
  0
BLOCK_RECORD
  5
15C
330
1
100
AcDbSymbolTableRecord
100
AcDbBlockTableRecord
  2
_D_3
340
0
  0
BLOCK_RECORD
  5
165
330
1
100
AcDbSymbolTableRecord
100
AcDbBlockTableRecord
  2
SW_CENTERMARKSYMBOL_0
340
0
102
{BLKREFS
331
170
102
}
  0
ENDTAB
  0
ENDSEC
  0
SECTION
  2
BLOCKS
  0
BLOCK
  5
20
330
1F
100
AcDbEntity
  8
0
100
AcDbBlockBegin
  2
*Model_Space
 70
     0
 10
0.0
 20
0.0
 30
0.0
  3
*Model_Space
  1

  0
ENDBLK
  5
21
330
1F
100
AcDbEntity
  8
0
100
AcDbBlockEnd
  0
BLOCK
  5
1C
330
1B
100
AcDbEntity
 67
     1
  8
0
100
AcDbBlockBegin
  2
*Paper_Space
 70
     0
 10
0.0
 20
0.0
 30
0.0
  3
*Paper_Space
  1

  0
ENDBLK
  5
1D
330
1B
100
AcDbEntity
 67
     1
  8
0
100
AcDbBlockEnd
  0
BLOCK
  5
24
330
23
100
AcDbEntity
  8
0
100
AcDbBlockBegin
  2
*Paper_Space0
 70
     0
 10
0.0
 20
0.0
 30
0.0
  3
*Paper_Space0
  1

  0
ENDBLK
  5
25
330
23
100
AcDbEntity
  8
0
100
AcDbBlockEnd
  0
BLOCK
  5
7D
330
7C
100
AcDbEntity
  8
0
100
AcDbBlockBegin
  2
圖塊6
 70
     0
 10
0.0
 20
0.0
 30
0.0
  3
圖塊6
  1

  0
ARC
  5
7F
330
7C
100
AcDbEntity
  8
圖層_1
 62
     7
370
    30
100
AcDbCircle
 10
0.3060308868
 20
1.2204136578
 30
0.0
 40
0.3060308867887341
100
AcDbArc
 50
130.2115225915
 51
228.588904108
  0
ARC
  5
80
330
7C
100
AcDbEntity
  8
圖層_1
 62
     7
370
    30
100
AcDbCircle
 10
0.9701827196
 20
1.1989890883
 30
0.0
 40
0.5154670853635243
100
AcDbArc
 50
140.4331765613
 51
251.0865666567
  0
ARC
  5
81
330
7C
100
AcDbEntity
  8
圖層_1
 62
     7
370
    30
100
AcDbCircle
 10
1.0353008396
 20
1.2623511943
 30
0.0
 40
0.5979273315539725
100
AcDbArc
 50
247.1485306747
 51
309.6030773927
  0
LINE
  5
82
330
7C
100
AcDbEntity
  8
圖層_1
 62
     7
370
    30
100
AcDbLine
 10
0.3697795454
 20
1.7064365197
 30
0.0
 11
0.1084538944
 21
1.4541191044
 31
0.0
  0
LINE
  5
83
330
7C
100
AcDbEntity
  8
圖層_1
 62
     7
370
    30
100
AcDbLine
 10
0.103604578
 20
0.9908956995
 30
0.0
 11
0.90544504
 21
0.2939749315
 31
0.0
  0
LINE
  5
84
330
7C
100
AcDbEntity
  8
圖層_1
 62
     7
370
    30
100
AcDbLine
 10
0.90544504
 20
0.2939749315
 30
0.0
 11
0.7792346559
 21
0.1707948534
 31
0.0
  0
LINE
  5
85
330
7C
100
AcDbEntity
  8
圖層_1
 62
     7
370
    30
100
AcDbLine
 10
0.7792346559
 20
0.1707948534
 30
0.0
 11
0.9776105289
 21
0.0
 31
0.0
  0
LINE
  5
86
330
7C
100
AcDbEntity
  8
圖層_1
 62
     7
370
    30
100
AcDbLine
 10
1.6195434158
 20
0.6233155931
 30
0.0
 11
1.4164588094
 21
0.8016607386
 31
0.0
  0
LINE
  5
87
330
7C
100
AcDbEntity
  8
圖層_1
 62
     7
370
    30
100
AcDbLine
 10
0.5728183149
 20
1.5273301395
 30
0.0
 11
0.3697795454
 21
1.7064365197
 31
0.0
  0
LINE
  5
88
330
7C
100
AcDbEntity
  8
圖層_1
 62
     7
370
    30
100
AcDbLine
 10
0.9776105289
 20
0.0
 30
0.0
 11
1.6195434158
 21
0.6233155931
 31
0.0
  0
ENDBLK
  5
7E
330
7C
100
AcDbEntity
  8
0
100
AcDbBlockEnd
  0
BLOCK
  5
CF
330
CE
100
AcDbEntity
  8
0
100
AcDbBlockBegin
  2
SW_NOTE_0
 70
     0
 10
0.0
 20
0.0
 30
0.0
  3
SW_NOTE_0
  1

  0
MTEXT
  5
D1
330
CE
100
AcDbEntity
  8
0
  6
Continuous
 62
     0
370
     0
100
AcDbMText
 10
0.0
 20
0.682131679
 30
0.0
 40
0.5291666667
 41
0.0
 71
     1
 72
     1
  1
PROPRIETARY AND CONFIDENTIAL
  7
SLDTEXTSTYLE0
 73
     1
 44
1.0
  0
MTEXT
  5
D2
330
CE
100
AcDbEntity
  8
0
  6
Continuous
 62
     0
370
     0
100
AcDbMText
 10
0.0
 20
-0.016396696
 30
0.0
 40
0.3704166667
 41
0.0
 71
     1
 72
     1
  1
THE INFORMATION CONTAINED IN THIS DRAWING IS THE SOLE PROPERTY OF UNICE E-O SERVICES INC. ANY REPRODUCTION IN PART OR AS A WHOLE WITHOUT THE WRITTEN PERMISSION OF UNICE E-O SERVICES INC IS
  7
SLDTEXTSTYLE0
 73
     1
 44
1.0
  0
MTEXT
  5
D3
330
CE
100
AcDbEntity
  8
0
  6
Continuous
 62
     0
370
     0
100
AcDbMText
 10
0.0
 20
-0.5102855789
 30
0.0
 40
0.3704166667
 41
0.0
 71
     1
 72
     1
  1
PROHIBITED.
  7
SLDTEXTSTYLE0
 73
     1
 44
1.0
  0
ENDBLK
  5
D0
330
CE
100
AcDbEntity
  8
0
100
AcDbBlockEnd
  0
BLOCK
  5
106
330
105
100
AcDbEntity
  8
0
100
AcDbBlockBegin
  2
SW_NOTE_1
 70
     0
 10
0.0
 20
0.0
 30
0.0
  3
SW_NOTE_1
  1

  0
MTEXT
  5
108
330
105
100
AcDbEntity
  8
SLD-0
 62
     0
100
AcDbMText
 10
0.0
 20
0.4092790074
 30
0.0
 40
0.3175
 41
0.0
 71
     1
 72
     1
  1
No.5, Andong Rd., Chung Li District,
  7
SLDTEXTSTYLE0
 73
     1
 44
1.0
  0
MTEXT
  5
109
330
105
100
AcDbEntity
  8
SLD-0
 62
     0
100
AcDbMText
 10
0.0
 20
-0.0140543208
 30
0.0
 40
0.3175
 41
0.0
 71
     1
 72
     1
  1
Taoyuan City 32063, Taiwan, R.O.C.
  7
SLDTEXTSTYLE0
 73
     1
 44
1.0
  0
ENDBLK
  5
107
330
105
100
AcDbEntity
  8
0
100
AcDbBlockEnd
  0
BLOCK
  5
12C
330
12B
100
AcDbEntity
  8
0
100
AcDbBlockBegin
  2
_D
 70
     0
 10
0.0
 20
0.0
 30
0.0
  3
_D
  1

  0
SOLID
  5
12E
330
12B
100
AcDbEntity
  8
DIM
100
AcDbTrace
 10
7.6880199286
 20
11.6829220032
 30
0.0
 11
8.0880199286
 21
11.6329220032
 31
0.0
 12
8.0880199286
 22
11.7329220032
 32
0.0
 13
8.0880199286
 23
11.7329220032
 33
0.0
  0
SOLID
  5
12F
330
12B
100
AcDbEntity
  8
DIM
100
AcDbTrace
 10
26.6884350051
 20
11.6829220032
 30
0.0
 11
26.2884350051
 21
11.7329220032
 31
0.0
 12
26.2884350051
 22
11.6329220032
 32
0.0
 13
26.2884350051
 23
11.6329220032
 33
0.0
  0
LINE
  5
130
330
12B
100
AcDbEntity
  8
DIM
100
AcDbLine
 10
7.6880199286
 20
18.6329220032
 30
0.0
 11
7.6880199286
 21
11.4829220032
 31
0.0
  0
LINE
  5
131
330
12B
100
AcDbEntity
  8
DIM
100
AcDbLine
 10
26.6884350051
 20
15.6329220032
 30
0.0
 11
26.6884350051
 21
11.4829220032
 31
0.0
  0
LINE
  5
132
330
12B
100
AcDbEntity
  8
DIM
100
AcDbLine
 10
7.6880199286
 20
11.6829220032
 30
0.0
 11
26.6884350051
 21
11.6829220032
 31
0.0
  0
MTEXT
  5
133
330
12B
100
AcDbEntity
  8
DIM
100
AcDbMText
 10
16.8901302494
 20
12.296840491
 30
0.0
 40
0.47625
 41
0.0
 71
     1
 72
     1
  1
19
  7
SLDTEXTSTYLE1
 73
     1
 44
1.0
  0
ENDBLK
  5
12D
330
12B
100
AcDbEntity
  8
0
100
AcDbBlockEnd
  0
BLOCK
  5
136
330
135
100
AcDbEntity
  8
0
100
AcDbBlockBegin
  2
_D_1
 70
     0
 10
0.0
 20
0.0
 30
0.0
  3
_D_1
  1

  0
SOLID
  5
138
330
135
100
AcDbEntity
  8
DIM
100
AcDbTrace
 10
12.6884350051
 20
12.6829220032
 30
0.0
 11
13.0884350051
 21
12.6329220032
 31
0.0
 12
13.0884350051
 22
12.7329220032
 32
0.0
 13
13.0884350051
 23
12.7329220032
 33
0.0
  0
SOLID
  5
139
330
135
100
AcDbEntity
  8
DIM
100
AcDbTrace
 10
24.6884350051
 20
12.6829220032
 30
0.0
 11
24.2884350051
 21
12.7329220032
 31
0.0
 12
24.2884350051
 22
12.6329220032
 32
0.0
 13
24.2884350051
 23
12.6329220032
 33
0.0
  0
LINE
  5
13A
330
135
100
AcDbEntity
  8
DIM
100
AcDbLine
 10
12.6884350051
 20
14.3829220032
 30
0.0
 11
12.6884350051
 21
12.4829220032
 31
0.0
  0
LINE
  5
13B
330
135
100
AcDbEntity
  8
DIM
100
AcDbLine
 10
24.6884350051
 20
14.3829220032
 30
0.0
 11
24.6884350051
 21
12.4829220032
 31
0.0
  0
LINE
  5
13C
330
135
100
AcDbEntity
  8
DIM
100
AcDbLine
 10
12.6884350051
 20
12.6829220032
 30
0.0
 11
24.6884350051
 21
12.6829220032
 31
0.0
  0
MTEXT
  5
13D
330
135
100
AcDbEntity
  8
DIM
100
AcDbMText
 10
18.3903377876
 20
13.296840491
 30
0.0
 40
0.47625
 41
0.0
 71
     1
 72
     1
  1
12
  7
SLDTEXTSTYLE1
 73
     1
 44
1.0
  0
ENDBLK
  5
137
330
135
100
AcDbEntity
  8
0
100
AcDbBlockEnd
  0
BLOCK
  5
140
330
13F
100
AcDbEntity
  8
0
100
AcDbBlockBegin
  2
_D_2
 70
     0
 10
0.0
 20
0.0
 30
0.0
  3
_D_2
  1

  0
SOLID
  5
142
330
13F
100
AcDbEntity
  8
DIM
100
AcDbTrace
 10
6.2880199286
 20
23.5829220032
 30
0.0
 11
6.2380199286
 21
23.1829220032
 31
0.0
 12
6.3380199286
 22
23.1829220032
 32
0.0
 13
6.3380199286
 23
23.1829220032
 33
0.0
  0
SOLID
  5
143
330
13F
100
AcDbEntity
  8
DIM
100
AcDbTrace
 10
6.2880199286
 20
14.0829220032
 30
0.0
 11
6.3380199286
 21
14.4829220032
 31
0.0
 12
6.2380199286
 22
14.4829220032
 32
0.0
 13
6.2380199286
 23
14.4829220032
 33
0.0
  0
LINE
  5
144
330
13F
100
AcDbEntity
  8
DIM
100
AcDbLine
 10
13.4884350051
 20
23.5829220032
 30
0.0
 11
6.0880199286
 21
23.5829220032
 31
0.0
  0
LINE
  5
145
330
13F
100
AcDbEntity
  8
DIM
100
AcDbLine
 10
13.4884350051
 20
14.0829220032
 30
0.0
 11
6.0880199286
 21
14.0829220032
 31
0.0
  0
LINE
  5
146
330
13F
100
AcDbEntity
  8
DIM
100
AcDbLine
 10
6.2880199286
 20
23.5829220032
 30
0.0
 11
6.2880199286
 21
14.0829220032
 31
0.0
  0
MTEXT
  5
147
330
13F
100
AcDbEntity
  8
DIM
100
AcDbMText
 10
5.6741013943
 20
18.1586754722
 30
0.0
 40
0.47625
 41
0.0
 71
     1
 72
     1
  1
%%c
  7
SLDTEXTSTYLE1
 11
-7.044195017643634E-15
 21
1.0
 31
0.0
 73
     1
 44
1.0
  0
MTEXT
  5
148
330
13F
100
AcDbEntity
  8
DIM
100
AcDbMText
 10
5.6741013943
 20
18.7619254673
 30
0.0
 40
0.47625
 41
0.0
 71
     1
 72
     1
  1
9.5
  7
SLDTEXTSTYLE1
 11
-7.044195017643634E-15
 21
1.0
 31
0.0
 73
     1
 44
1.0
  0
ENDBLK
  5
141
330
13F
100
AcDbEntity
  8
0
100
AcDbBlockEnd
  0
BLOCK
  5
14A
330
149
100
AcDbEntity
  8
0
100
AcDbBlockBegin
  2
SW_NOTE_2
 70
     0
 10
0.0
 20
0.0
 30
0.0
  3
SW_NOTE_2
  1

  0
LINE
  5
14C
330
149
100
AcDbEntity
  8
DIM
 62
     0
100
AcDbLine
 10
3.5364061589
 20
0.0
 30
0.0
 11
0.0
 21
0.0
 31
0.0
  0
MTEXT
  5
14D
330
149
100
AcDbEntity
  8
DIM
 62
     0
100
AcDbMText
 10
0.0816041841
 20
0.6184853665
 30
0.0
 40
0.47625
 41
0.0
 71
     1
 72
     1
  1
M6x0.25 THD
  7
SLDTEXTSTYLE1
 73
     1
 44
1.0
  0
ENDBLK
  5
14B
330
149
100
AcDbEntity
  8
0
100
AcDbBlockEnd
  0
BLOCK
  5
15D
330
15C
100
AcDbEntity
  8
0
100
AcDbBlockBegin
  2
_D_3
 70
     0
 10
0.0
 20
0.0
 30
0.0
  3
_D_3
  1

  0
SOLID
  5
15F
330
15C
100
AcDbEntity
  8
DIM
100
AcDbTrace
 10
39.2951054267
 20
12.1829220032
 30
0.0
 11
39.6665155883
 21
12.339620733
 31
0.0
 12
39.6165155883
 22
12.4262232734
 32
0.0
 13
39.6165155883
 23
12.4262232734
 33
0.0
  0
SOLID
  5
160
330
15C
100
AcDbEntity
  8
DIM
100
AcDbTrace
 10
41.0271562343
 20
13.1829220032
 30
0.0
 11
40.6557460728
 21
13.0262232734
 31
0.0
 12
40.7057460728
 22
12.939620733
 32
0.0
 13
40.7057460728
 23
12.939620733
 33
0.0
  0
LINE
  5
161
330
15C
100
AcDbEntity
  8
DIM
100
AcDbLine
 10
36.1330764058
 20
17.6597169225
 30
0.0
 11
39.3951054267
 21
12.0097169225
 31
0.0
  0
LINE
  5
162
330
15C
100
AcDbEntity
  8
DIM
100
AcDbLine
 10
37.8651272134
 20
18.6597169225
 30
0.0
 11
41.1271562343
 21
13.0097169225
 31
0.0
  0
LINE
  5
163
330
15C
100
AcDbEntity
  8
DIM
100
AcDbLine
 10
39.2951054267
 20
12.1829220032
 30
0.0
 11
41.0271562343
 21
13.1829220032
 31
0.0
  0
MTEXT
  5
164
330
15C
100
AcDbEntity
  8
DIM
100
AcDbMText
 10
39.7250917051
 20
13.1400667051
 30
0.0
 40
0.47625
 41
0.0
 71
     1
 72
     1
  1
2
  7
SLDTEXTSTYLE1
 11
0.8660254037844384
 21
0.5000000000000006
 31
0.0
 73
     1
 44
1.0
  0
ENDBLK
  5
15E
330
15C
100
AcDbEntity
  8
0
100
AcDbBlockEnd
  0
BLOCK
  5
166
330
165
100
AcDbEntity
  8
0
100
AcDbBlockBegin
  2
SW_CENTERMARKSYMBOL_0
 70
     0
 10
0.0
 20
0.0
 30
0.0
  3
SW_CENTERMARKSYMBOL_0
  1

  0
LINE
  5
168
330
165
100
AcDbEntity
  8
DIM
 62
     0
100
AcDbLine
 10
0.0
 20
0.0
 30
0.0
 11
0.0
 21
1.0
 31
0.0
  0
LINE
  5
169
330
165
100
AcDbEntity
  8
DIM
 62
     0
100
AcDbLine
 10
0.0
 20
0.0
 30
0.0
 11
-1.0
 21
0.0
 31
0.0
  0
LINE
  5
16A
330
165
100
AcDbEntity
  8
DIM
 62
     0
100
AcDbLine
 10
0.0
 20
0.0
 30
0.0
 11
0.0
 21
-1.0
 31
0.0
  0
LINE
  5
16B
330
165
100
AcDbEntity
  8
DIM
 62
     0
100
AcDbLine
 10
0.0
 20
0.0
 30
0.0
 11
1.0
 21
0.0
 31
0.0
  0
LINE
  5
16C
330
165
100
AcDbEntity
  8
DIM
 62
     0
100
AcDbLine
 10
0.0
 20
2.0
 30
0.0
 11
0.0
 21
5.75
 31
0.0
  0
LINE
  5
16D
330
165
100
AcDbEntity
  8
DIM
 62
     0
100
AcDbLine
 10
-2.0
 20
0.0
 30
0.0
 11
-5.75
 21
0.0
 31
0.0
  0
LINE
  5
16E
330
165
100
AcDbEntity
  8
DIM
 62
     0
100
AcDbLine
 10
0.0
 20
-2.0
 30
0.0
 11
0.0
 21
-5.75
 31
0.0
  0
LINE
  5
16F
330
165
100
AcDbEntity
  8
DIM
 62
     0
100
AcDbLine
 10
2.0
 20
0.0
 30
0.0
 11
5.75
 21
0.0
 31
0.0
  0
ENDBLK
  5
167
330
165
100
AcDbEntity
  8
0
100
AcDbBlockEnd
  0
ENDSEC
  0
SECTION
  2
ENTITIES
  0
HATCH
  5
89
330
1F
100
AcDbEntity
  8
0
  6
Continuous
 62
     7
100
AcDbHatch
 10
0.0
 20
0.0
 30
0.0
210
0.0
220
0.0
230
1.0
  2
SOLID
 70
     1
 71
     0
 91
        1
 92
        0
 93
       10
 72
     2
 10
38.42811931258733
 20
7.151161761977712
 40
0.5979273315539718
 50
50.39692260731387
 51
112.8514693252981
 73
     0
 72
     2
 10
38.3630011925624
 20
7.087799656012408
 40
0.5154670853635237
 50
108.9134333432861
 51
219.5668234386825
 73
     0
 72
     1
 10
37.96563678779206
 20
7.416140707230021
 11
37.76259801831158
 21
7.595247087393572
 72
     1
 10
37.76259801831158
 20
7.595247087393572
 11
37.50127236733525
 21
7.342929672092072
 72
     2
 10
37.69884935972778
 20
7.109224225544892
 40
0.3060308867887323
 50
130.211522591509
 51
228.5889041080183
 73
     1
 72
     1
 10
37.4964230509302
 20
6.879706267259955
 11
38.29826351296932
 21
6.18278549920502
 72
     1
 10
38.29826351296932
 20
6.18278549920502
 11
38.1720531288863
 21
6.059605421110814
 72
     1
 10
38.1720531288863
 20
6.059605421110814
 11
38.37042900183141
 21
5.888810567720048
 72
     1
 10
38.37042900183141
 20
5.888810567720048
 11
39.01236188870446
 21
6.512126160823145
 72
     1
 10
39.01236188870446
 20
6.512126160823145
 11
38.80927728237283
 21
6.690471306369767
 97
        0
 75
     0
 76
     1
 98
        1
 10
0.0
 20
0.0
  0
HATCH
  5
8A
330
1F
100
AcDbEntity
  8
0
  6
Continuous
 62
     1
100
AcDbHatch
 10
0.0
 20
0.0
 30
0.0
210
0.0
220
0.0
230
1.0
  2
SOLID
 70
     1
 71
     0
 91
        1
 92
        0
 93
       10
 72
     2
 10
38.51784911255377
 20
7.132613831263219
 40
0.51551349766925
 50
317.8184992995784
 51
398.0564711573081
 73
     0
 72
     1
 10
38.92376628116326
 20
6.814831801394893
 11
39.12085605975982
 21
6.643092413416996
 72
     1
 10
39.12085605975982
 20
6.643092413416996
 11
39.36919232271858
 21
6.883979001898438
 72
     2
 10
39.19051385758615
 20
7.129568348262623
 40
0.303710587483653
 50
306.0377529468133
 51
403.4396461533867
 73
     1
 72
     1
 10
39.41103783052062
 20
7.338396742670253
 11
38.58568665885196
 21
8.056231996397042
 72
     1
 10
38.58568665885196
 20
8.056231996397042
 11
38.71053691923741
 21
8.178043682564512
 72
     1
 10
38.71053691923741
 20
8.178043682564512
 11
38.5244356172006
 21
8.344082126533412
 72
     1
 10
38.5244356172006
 20
8.344082126533412
 11
37.87731852751863
 21
7.718698077210595
 72
     1
 10
37.87731852751863
 20
7.718698077210595
 11
38.08180010298834
 21
7.540339971786436
 72
     2
 10
38.45431785440888
 20
7.024449470167584
 40
0.6363273409055752
 50
234.1674444878511
 51
314.4407074583991
 73
     0
 97
        0
 75
     0
 76
     1
 98
        1
 10
0.0
 20
0.0
  0
LINE
  5
8B
330
1F
100
AcDbEntity
  8
0
  6
Continuous
 62
     7
370
     0
100
AcDbLine
 10
33.5718755037
 20
3.5549038503
 30
0.0
 11
33.7718755037
 21
3.5549038503
 31
0.0
  0
LINE
  5
8C
330
1F
100
AcDbEntity
  8
0
  6
Continuous
 62
     7
370
     0
100
AcDbLine
 10
32.9718755037
 20
3.5549038503
 30
0.0
 11
33.4718755037
 21
3.5549038503
 31
0.0
  0
LINE
  5
8D
330
1F
100
AcDbEntity
  8
0
  6
Continuous
 62
     7
370
     0
100
AcDbLine
 10
36.2718755037
 20
3.0549038503
 30
0.0
 11
36.2718755037
 21
4.0549038503
 31
0.0
  0
LINE
  5
8E
330
1F
100
AcDbEntity
  8
0
  6
Continuous
 62
     7
370
     0
100
AcDbLine
 10
34.8718755037
 20
3.2549038503
 30
0.0
 11
36.2718755037
 21
3.0549038503
 31
0.0
  0
LINE
  5
8F
330
1F
100
AcDbEntity
  8
0
  6
Continuous
 62
     7
370
     0
100
AcDbLine
 10
33.6718755037
 20
3.3549038503
 30
0.0
 11
33.6718755037
 21
2.8549038503
 31
0.0
  0
LINE
  5
90
330
1F
100
AcDbEntity
  8
0
  6
Continuous
 62
     7
370
     0
100
AcDbLine
 10
36.2718755037
 20
4.0549038503
 30
0.0
 11
34.8718755037
 21
3.8549038503
 31
0.0
  0
LINE
  5
91
330
1F
100
AcDbEntity
  8
0
  6
Continuous
 62
     7
370
     0
100
AcDbLine
 10
34.6718755037
 20
3.5549038503
 30
0.0
 11
36.4718755037
 21
3.5549038503
 31
0.0
  0
LINE
  5
92
330
1F
100
AcDbEntity
  8
0
  6
Continuous
 62
     7
370
     0
100
AcDbLine
 10
33.6718755037
 20
3.6549038503
 30
0.0
 11
33.6718755037
 21
3.4549038503
 31
0.0
  0
LINE
  5
93
330
1F
100
AcDbEntity
  8
0
  6
Continuous
 62
     7
370
     0
100
AcDbLine
 10
33.8718755037
 20
3.5549038503
 30
0.0
 11
34.3718755037
 21
3.5549038503
 31
0.0
  0
LINE
  5
94
330
1F
100
AcDbEntity
  8
0
  6
Continuous
 62
     7
370
     0
100
AcDbLine
 10
33.6718755037
 20
4.2549038503
 30
0.0
 11
33.6718755037
 21
3.7549038503
 31
0.0
  0
LINE
  5
95
330
1F
100
AcDbEntity
  8
0
  6
Continuous
 62
     7
370
     0
100
AcDbLine
 10
34.8718755037
 20
3.8549038503
 30
0.0
 11
34.8718755037
 21
3.2549038503
 31
0.0
  0
LINE
  5
96
330
1F
100
AcDbEntity
  8
工作區域參考線
 62
     1
370
    30
100
AcDbLine
 10
38.081800103
 20
7.5403399718
 30
0.0
 11
37.8773185275
 21
7.7186980772
 31
0.0
  0
LINE
  5
97
330
1F
100
AcDbEntity
  8
工作區域參考線
 62
     1
370
    30
100
AcDbLine
 10
37.8773185275
 20
7.7186980772
 30
0.0
 11
38.5244356172
 21
8.3440821265
 31
0.0
  0
LINE
  5
98
330
1F
100
AcDbEntity
  8
工作區域參考線
 62
     1
370
    30
100
AcDbLine
 10
38.5244356172
 20
8.3440821265
 30
0.0
 11
38.7105369192
 21
8.1780436826
 31
0.0
  0
LINE
  5
99
330
1F
100
AcDbEntity
  8
工作區域參考線
 62
     1
370
    30
100
AcDbLine
 10
38.7105369192
 20
8.1780436826
 30
0.0
 11
38.5856866589
 21
8.0562319964
 31
0.0
  0
LINE
  5
9A
330
1F
100
AcDbEntity
  8
工作區域參考線
 62
     1
370
    30
100
AcDbLine
 10
38.5856866589
 20
8.0562319964
 30
0.0
 11
39.4110378305
 21
7.3383967427
 31
0.0
  0
LINE
  5
9B
330
1F
100
AcDbEntity
  8
工作區域參考線
 62
     1
370
    30
100
AcDbLine
 10
38.9237662812
 20
6.8148318014
 30
0.0
 11
39.1208560598
 21
6.6430924134
 31
0.0
  0
LINE
  5
9C
330
1F
100
AcDbEntity
  8
工作區域參考線
 62
     1
370
    30
100
AcDbLine
 10
39.1208560598
 20
6.6430924134
 30
0.0
 11
39.3691923227
 21
6.8839790019
 31
0.0
  0
LINE
  5
9D
330
1F
100
AcDbEntity
  8
0
  6
Continuous
 62
     7
370
     0
100
AcDbLine
 10
37.1381593042
 20
2.6230492816
 30
0.0
 11
57.1381593042
 21
2.6230492816
 31
0.0
  0
LINE
  5
9E
330
1F
100
AcDbEntity
  8
0
  6
Continuous
 62
     7
370
     0
100
AcDbLine
 10
37.1381593042
 20
3.6230492816
 30
0.0
 11
47.1381593042
 21
3.6230492816
 31
0.0
  0
LINE
  5
9F
330
1F
100
AcDbEntity
  8
0
  6
Continuous
 62
     7
370
     0
100
AcDbLine
 10
37.1381593042
 20
4.6230492816
 30
0.0
 11
47.1381593042
 21
4.6230492816
 31
0.0
  0
LINE
  5
A0
330
1F
100
AcDbEntity
  8
0
  6
Continuous
 62
     7
370
     0
100
AcDbLine
 10
37.1381593042
 20
5.6230492816
 30
0.0
 11
57.1381593042
 21
5.6230492816
 31
0.0
  0
LINE
  5
A1
330
1F
100
AcDbEntity
  8
0
  6
Continuous
 62
     7
370
     0
100
AcDbLine
 10
47.1381593042
 20
6.6230492816
 30
0.0
 11
57.1381593042
 21
6.6230492816
 31
0.0
  0
LINE
  5
A2
330
1F
100
AcDbEntity
  8
0
  6
Continuous
 62
     7
370
    15
100
AcDbLine
 10
47.1381593042
 20
3.6230492816
 30
0.0
 11
57.1381593042
 21
3.6230492816
 31
0.0
  0
LINE
  5
A3
330
1F
100
AcDbEntity
  8
0
  6
Continuous
 62
     7
370
     0
100
AcDbLine
 10
37.1381593042
 20
8.6230492816
 30
0.0
 11
57.1381593042
 21
8.6230492816
 31
0.0
  0
LINE
  5
A4
330
1F
100
AcDbEntity
  8
0
  6
Continuous
 62
     7
370
     0
100
AcDbLine
 10
50.247443535
 20
1.6230492816
 30
0.0
 11
50.247443535
 21
3.6230492816
 31
0.0
  0
LINE
  5
A5
330
1F
100
AcDbEntity
  8
0
  6
Continuous
 62
     7
370
     0
100
AcDbLine
 10
47.1381593042
 20
1.6230492816
 30
0.0
 11
47.1381593042
 21
8.6230492816
 31
0.0
  0
LINE
  5
A6
330
1F
100
AcDbEntity
  8
0
  6
Continuous
 62
     7
370
     0
100
AcDbLine
 10
50.247443535
 20
5.6230492816
 30
0.0
 11
50.247443535
 21
6.6230492816
 31
0.0
  0
LINE
  5
A7
330
1F
100
AcDbEntity
  8
0
  6
Continuous
 62
     7
370
     0
100
AcDbLine
 10
42.8832817271
 20
1.6230492816
 30
0.0
 11
42.8832817271
 21
5.6230492816
 31
0.0
  0
LINE
  5
A8
330
1F
100
AcDbEntity
  8
0
  6
Continuous
 62
     7
370
     0
100
AcDbLine
 10
39.9557177501
 20
1.6230492816
 30
0.0
 11
39.9557177501
 21
5.6230492816
 31
0.0
  0
LINE
  5
A9
330
1F
100
AcDbEntity
  8
0
  6
Continuous
 62
     7
370
     0
100
AcDbLine
 10
37.1381593042
 20
1.6230492816
 30
0.0
 11
37.1381593042
 21
8.6230492816
 31
0.0
  0
LINE
  5
AA
330
1F
100
AcDbEntity
  8
0
  6
Continuous
 62
     7
370
    15
100
AcDbLine
 10
8.6641593042
 20
40.274405515
 30
0.0
 11
8.6641593042
 21
40.574405515
 31
0.0
  0
LINE
  5
AB
330
1F
100
AcDbEntity
  8
0
  6
Continuous
 62
     7
370
    15
100
AcDbLine
 10
15.5901593042
 20
40.274405515
 30
0.0
 11
15.5901593042
 21
40.574405515
 31
0.0
  0
LINE
  5
AC
330
1F
100
AcDbEntity
  8
0
  6
Continuous
 62
     7
370
    15
100
AcDbLine
 10
22.5161593042
 20
40.274405515
 30
0.0
 11
22.5161593042
 21
40.574405515
 31
0.0
  0
LINE
  5
AD
330
1F
100
AcDbEntity
  8
0
  6
Continuous
 62
     7
370
    15
100
AcDbLine
 10
29.4421593042
 20
40.274405515
 30
0.0
 11
29.4421593042
 21
40.574405515
 31
0.0
  0
LINE
  5
AE
330
1F
100
AcDbEntity
  8
0
  6
Continuous
 62
     7
370
    15
100
AcDbLine
 10
36.3681593042
 20
40.274405515
 30
0.0
 11
36.3681593042
 21
40.574405515
 31
0.0
  0
LINE
  5
AF
330
1F
100
AcDbEntity
  8
0
  6
Continuous
 62
     7
370
    15
100
AcDbLine
 10
43.2941593042
 20
40.274405515
 30
0.0
 11
43.2941593042
 21
40.574405515
 31
0.0
  0
LINE
  5
B0
330
1F
100
AcDbEntity
  8
0
  6
Continuous
 62
     7
370
    15
100
AcDbLine
 10
50.2201593042
 20
40.274405515
 30
0.0
 11
50.2201593042
 21
40.574405515
 31
0.0
  0
LINE
  5
B1
330
1F
100
AcDbEntity
  8
0
  6
Continuous
 62
     7
370
    15
100
AcDbLine
 10
8.6631593042
 20
1.6230492816
 30
0.0
 11
8.6631593042
 21
1.3230492816
 31
0.0
  0
LINE
  5
B2
330
1F
100
AcDbEntity
  8
0
  6
Continuous
 62
     7
370
    15
100
AcDbLine
 10
15.5881593042
 20
1.6230492816
 30
0.0
 11
15.5881593042
 21
1.3230492816
 31
0.0
  0
LINE
  5
B3
330
1F
100
AcDbEntity
  8
0
  6
Continuous
 62
     7
370
    15
100
AcDbLine
 10
22.5131593042
 20
1.6230492816
 30
0.0
 11
22.5131593042
 21
1.3230492816
 31
0.0
  0
LINE
  5
B4
330
1F
100
AcDbEntity
  8
0
  6
Continuous
 62
     7
370
    15
100
AcDbLine
 10
29.4381593042
 20
1.6230492816
 30
0.0
 11
29.4381593042
 21
1.3230492816
 31
0.0
  0
LINE
  5
B5
330
1F
100
AcDbEntity
  8
0
  6
Continuous
 62
     7
370
    15
100
AcDbLine
 10
36.3631593042
 20
1.6230492816
 30
0.0
 11
36.3631593042
 21
1.3230492816
 31
0.0
  0
LINE
  5
B6
330
1F
100
AcDbEntity
  8
0
  6
Continuous
 62
     7
370
    15
100
AcDbLine
 10
43.2881593042
 20
1.6230492816
 30
0.0
 11
43.2881593042
 21
1.3230492816
 31
0.0
  0
LINE
  5
B7
330
1F
100
AcDbEntity
  8
0
  6
Continuous
 62
     7
370
     0
100
AcDbLine
 10
57.1381593042
 20
40.274405515
 30
0.0
 11
1.7381593042
 21
40.274405515
 31
0.0
  0
LINE
  5
B8
330
1F
100
AcDbEntity
  8
0
  6
Continuous
 62
     7
370
     0
100
AcDbLine
 10
57.1381593042
 20
1.6230492816
 30
0.0
 11
57.1381593042
 21
40.274405515
 31
0.0
  0
LINE
  5
B9
330
1F
100
AcDbEntity
  8
0
  6
Continuous
 62
     7
370
     0
100
AcDbLine
 10
1.7381593042
 20
40.274405515
 30
0.0
 11
1.7381593042
 21
1.6230492816
 31
0.0
  0
LINE
  5
BA
330
1F
100
AcDbEntity
  8
0
  6
Continuous
 62
     7
370
     0
100
AcDbLine
 10
1.7381593042
 20
1.6230492816
 30
0.0
 11
57.1381593042
 21
1.6230492816
 31
0.0
  0
LINE
  5
BB
330
1F
100
AcDbEntity
  8
0
  6
Continuous
 62
     7
370
    15
100
AcDbLine
 10
50.2131593042
 20
1.6230492816
 30
0.0
 11
50.2131593042
 21
1.3230492816
 31
0.0
  0
LINE
  5
BC
330
1F
100
AcDbEntity
  8
0
  6
Continuous
 62
     7
370
    15
100
AcDbLine
 10
1.7381593042
 20
8.0650492816
 30
0.0
 11
1.4381593042
 21
8.0650492816
 31
0.0
  0
LINE
  5
BD
330
1F
100
AcDbEntity
  8
0
  6
Continuous
 62
     7
370
    15
100
AcDbLine
 10
1.7381593042
 20
14.5070492816
 30
0.0
 11
1.4381593042
 21
14.5070492816
 31
0.0
  0
LINE
  5
BE
330
1F
100
AcDbEntity
  8
0
  6
Continuous
 62
     7
370
    15
100
AcDbLine
 10
1.7381593042
 20
20.9490492816
 30
0.0
 11
1.4381593042
 21
20.9490492816
 31
0.0
  0
LINE
  5
BF
330
1F
100
AcDbEntity
  8
0
  6
Continuous
 62
     7
370
    15
100
AcDbLine
 10
1.7381593042
 20
27.3910492816
 30
0.0
 11
1.4381593042
 21
27.3910492816
 31
0.0
  0
LINE
  5
C0
330
1F
100
AcDbEntity
  8
0
  6
Continuous
 62
     7
370
    15
100
AcDbLine
 10
1.7381593042
 20
33.8330492816
 30
0.0
 11
1.4381593042
 21
33.8330492816
 31
0.0
  0
LINE
  5
C1
330
1F
100
AcDbEntity
  8
0
  6
Continuous
 62
     7
370
    15
100
AcDbLine
 10
57.1381593042
 20
8.0650492816
 30
0.0
 11
57.4381593042
 21
8.0650492816
 31
0.0
  0
LINE
  5
C2
330
1F
100
AcDbEntity
  8
0
  6
Continuous
 62
     7
370
    15
100
AcDbLine
 10
57.1381593042
 20
14.5070492816
 30
0.0
 11
57.4381593042
 21
14.5070492816
 31
0.0
  0
LINE
  5
C3
330
1F
100
AcDbEntity
  8
0
  6
Continuous
 62
     7
370
    15
100
AcDbLine
 10
57.1381593042
 20
20.9490492816
 30
0.0
 11
57.4381593042
 21
20.9490492816
 31
0.0
  0
LINE
  5
C4
330
1F
100
AcDbEntity
  8
0
  6
Continuous
 62
     7
370
    15
100
AcDbLine
 10
57.1381593042
 20
27.3910492816
 30
0.0
 11
57.4381593042
 21
27.3910492816
 31
0.0
  0
LINE
  5
C5
330
1F
100
AcDbEntity
  8
0
  6
Continuous
 62
     7
370
    15
100
AcDbLine
 10
57.1381593042
 20
33.8330492816
 30
0.0
 11
57.4381593042
 21
33.8330492816
 31
0.0
  0
CIRCLE
  5
C6
330
1F
100
AcDbEntity
  8
0
  6
Continuous
 62
     7
370
     0
100
AcDbCircle
 10
33.6718755037
 20
3.5549038503
 30
0.0
 40
0.3000000000000043
  0
CIRCLE
  5
C7
330
1F
100
AcDbEntity
  8
0
  6
Continuous
 62
     7
370
     0
100
AcDbCircle
 10
33.6718755037
 20
3.5549038503
 30
0.0
 40
0.5
  0
ARC
  5
C8
330
1F
100
AcDbEntity
  8
工作區域參考線
 62
     1
370
    30
100
AcDbCircle
 10
39.1905138576
 20
7.1295683483
 30
0.0
 40
0.3037105874836643
100
AcDbArc
 50
306.0377529468
 51
43.4396461534
  0
ARC
  5
C9
330
1F
100
AcDbEntity
  8
工作區域參考線
 62
     1
370
    30
100
AcDbCircle
 10
38.4543178544
 20
7.0244494702
 30
0.0
 40
0.6363273409055802
100
AcDbArc
 50
45.5592925416
 51
125.8325555122
  0
ARC
  5
CA
330
1F
100
AcDbEntity
  8
工作區域參考線
 62
     1
370
    30
100
AcDbCircle
 10
38.5178491126
 20
7.1326138313
 30
0.0
 40
0.5155134976692564
100
AcDbArc
 50
321.9435288427
 51
42.1815007004
  0
INSERT
  5
CB
330
1F
100
AcDbEntity
  8
0
  6
Continuous
 62
     7
100
AcDbBlockReference
  2
圖塊6
 10
37.3928184729
 20
5.8888105677
 30
0.0
  0
MTEXT
  5
CD
330
1F
100
AcDbEntity
  8
0
  6
Continuous
 62
     7
370
     0
100
AcDbMText
 10
33.1085370161
 20
2.6441688074
 30
0.0
 40
0.5291666667
 41
0.0
 71
     1
 72
     1
  1
UNIT:m/m
  7
SLDTEXTSTYLE0
 73
     1
 44
1.0
  0
INSERT
  5
D4
330
1F
100
AcDbEntity
  8
0
  6
Continuous
 62
     7
370
     0
100
AcDbBlockReference
  2
SW_NOTE_0
 10
2.4463015211
 20
38.778086085
 30
0.0
  0
MTEXT
  5
D5
330
1F
100
AcDbEntity
  8
0
  6
Continuous
 62
     7
370
     0
100
AcDbMText
 10
39.7450378787
 20
8.0881354828
 30
0.0
 40
0.47625
 41
0.0
 71
     1
 72
     1
  1
Unice E-O Services Inc.
  7
SLDTEXTSTYLE0
 73
     1
 44
1.0
  0
MTEXT
  5
D6
330
1F
100
AcDbEntity
  8
0
  6
Continuous
 62
     7
370
     0
100
AcDbMText
 10
43.511810763
 20
4.3173429702
 30
0.0
 40
0.3704166667
 41
0.0
 71
     1
 72
     1
  1
2018/9/11
  7
SLDTEXTSTYLE0
 73
     1
 44
1.0
  0
MTEXT
  5
D7
330
1F
100
AcDbEntity
  8
0
  6
Continuous
 62
     7
370
     0
100
AcDbMText
 10
50.5217796501
 20
3.374235548
 30
0.0
 40
0.5
 41
0.0
 71
     1
 72
     1
  1
5:1
  7
SLDTEXTSTYLE0
 73
     1
 44
1.0
  0
MTEXT
  5
D8
330
1F
100
AcDbEntity
  8
0
  6
Continuous
 62
     7
370
     0
100
AcDbMText
 10
50.4615119997
 20
6.4303839088
 30
0.0
 40
0.5
 41
0.0
 71
     1
 72
     1
  1
07SRW-6C
  7
SLDTEXTSTYLE0
 73
     1
 44
1.0
  0
MTEXT
  5
D9
330
1F
100
AcDbEntity
  8
0
  6
Continuous
 62
     7
370
     0
100
AcDbMText
 10
50.4615119997
 20
7.6216423576
 30
0.0
 40
0.5
 41
0.0
 71
     1
 72
     1
  1
07SRW-6C
  7
SLDTEXTSTYLE0
 73
     1
 44
1.0
  0
MTEXT
  5
DA
330
1F
100
AcDbEntity
  8
0
  6
Continuous
 62
     7
370
     0
100
AcDbMText
 10
47.2784373357
 20
3.3012959146
 30
0.0
 40
0.4233333333
 41
0.0
 71
     1
 72
     1
  1
SCALE:
  7
SLDTEXTSTYLE0
 73
     1
 44
1.0
  0
MTEXT
  5
DB
330
1F
100
AcDbEntity
  8
0
  6
Continuous
 62
     7
370
     0
100
AcDbMText
 10
37.2667217358
 20
4.3173429702
 30
0.0
 40
0.3704166667
 41
0.0
 71
     1
 72
     1
  1
DRAWN
  7
SLDTEXTSTYLE0
 73
     1
 44
1.0
  0
MTEXT
  5
DC
330
1F
100
AcDbEntity
  8
0
  6
Continuous
 62
     7
370
     0
100
AcDbMText
 10
40.6445673587
 20
5.3366416616
 30
0.0
 40
0.3704166667
 41
0.0
 71
     1
 72
     1
  1
NAME
  7
SLDTEXTSTYLE0
 73
     1
 44
1.0
  0
MTEXT
  5
DD
330
1F
100
AcDbEntity
  8
0
  6
Continuous
 62
     7
370
     0
100
AcDbMText
 10
44.1742031152
 20
5.3366416616
 30
0.0
 40
0.3704166667
 41
0.0
 71
     1
 72
     1
  1
DATE
  7
SLDTEXTSTYLE0
 73
     1
 44
1.0
  0
MTEXT
  5
DE
330
1F
100
AcDbEntity
  8
0
  6
Continuous
 62
     7
370
     0
100
AcDbMText
 10
47.2551263329
 20
6.3574442753
 30
0.0
 40
0.4233333333
 41
0.0
 71
     1
 72
     1
  1
DWG. NO.
  7
SLDTEXTSTYLE0
 73
     1
 44
1.0
  0
MTEXT
  5
DF
330
1F
100
AcDbEntity
  8
0
  6
Continuous
 62
     7
370
     0
100
AcDbMText
 10
47.2725981418
 20
8.3768131649
 30
0.0
 40
0.4233333333
 41
0.0
 71
     1
 72
     1
  1
TITLE:
  7
SLDTEXTSTYLE0
 73
     1
 44
1.0
  0
MTEXT
  5
E0
330
1F
100
AcDbEntity
  8
0
  6
Continuous
 62
     7
370
     0
100
AcDbMText
 10
40.606284196
 20
3.2480757945
 30
0.0
 40
0.3704166667
 41
0.0
 71
     1
 72
     1
  1
Johnny
  7
SLDTEXTSTYLE0
 73
     1
 44
1.0
  0
MTEXT
  5
E1
330
1F
100
AcDbEntity
  8
0
  6
Continuous
 62
     7
370
     0
100
AcDbMText
 10
43.511810763
 20
3.2480757945
 30
0.0
 40
0.3704166667
 41
0.0
 71
     1
 72
     1
  1
2018/9/11
  7
SLDTEXTSTYLE0
 73
     1
 44
1.0
  0
MTEXT
  5
E2
330
1F
100
AcDbEntity
  8
0
  6
Continuous
 62
     7
370
     0
100
AcDbMText
 10
37.2667217358
 20
3.2480757945
 30
0.0
 40
0.3704166667
 41
0.0
 71
     1
 72
     1
  1
ENG APPR.
  7
SLDTEXTSTYLE0
 73
     1
 44
1.0
  0
MTEXT
  5
E3
330
1F
100
AcDbEntity
  8
0
  6
Continuous
 62
     7
370
     0
100
AcDbMText
 10
47.2784373357
 20
2.3370677858
 30
0.0
 40
0.4233333333
 41
0.0
 71
     1
 72
     1
  1
REV
  7
SLDTEXTSTYLE0
 73
     1
 44
1.0
  0
MTEXT
  5
E4
330
1F
100
AcDbEntity
  8
0
  6
Continuous
 62
     7
370
     0
100
AcDbMText
 10
47.2725981418
 20
5.3898617817
 30
0.0
 40
0.4233333333
 41
0.0
 71
     1
 72
     1
  1
MATERIAL:
  7
SLDTEXTSTYLE0
 73
     1
 44
1.0
  0
MTEXT
  5
E5
330
1F
100
AcDbEntity
  8
0
  6
Continuous
 62
     7
370
     0
100
AcDbMText
 10
50.5217796501
 20
4.4435027237
 30
0.0
 40
0.5
 41
0.0
 71
     1
 72
     1
  1
N/A
  7
SLDTEXTSTYLE0
 73
     1
 44
1.0
  0
MTEXT
  5
E6
330
1F
100
AcDbEntity
  8
0
  6
Continuous
 62
     7
370
     0
100
AcDbMText
 10
5.3205986307
 20
40.8906703314
 30
0.0
 40
0.4233333333
 41
0.0
 71
     1
 72
     1
  1
1
  7
SLDTEXTSTYLE0
 73
     1
 44
1.0
  0
MTEXT
  5
E7
330
1F
100
AcDbEntity
  8
0
  6
Continuous
 62
     7
370
     0
100
AcDbMText
 10
12.1434199145
 20
40.8906703314
 30
0.0
 40
0.4233333333
 41
0.0
 71
     1
 72
     1
  1
2
  7
SLDTEXTSTYLE0
 73
     1
 44
1.0
  0
MTEXT
  5
E8
330
1F
100
AcDbEntity
  8
0
  6
Continuous
 62
     7
370
     0
100
AcDbMText
 10
18.9801988781
 20
40.8906703314
 30
0.0
 40
0.4233333333
 41
0.0
 71
     1
 72
     1
  1
3
  7
SLDTEXTSTYLE0
 73
     1
 44
1.0
  0
MTEXT
  5
E9
330
1F
100
AcDbEntity
  8
0
  6
Continuous
 62
     7
370
     0
100
AcDbMText
 10
25.850667257
 20
40.8598516873
 30
0.0
 40
0.4233333333
 41
0.0
 71
     1
 72
     1
  1
4
  7
SLDTEXTSTYLE0
 73
     1
 44
1.0
  0
MTEXT
  5
EA
330
1F
100
AcDbEntity
  8
0
  6
Continuous
 62
     7
370
     0
100
AcDbMText
 10
32.7404646928
 20
40.8906703314
 30
0.0
 40
0.4233333333
 41
0.0
 71
     1
 72
     1
  1
5
  7
SLDTEXTSTYLE0
 73
     1
 44
1.0
  0
MTEXT
  5
EB
330
1F
100
AcDbEntity
  8
0
  6
Continuous
 62
     7
370
     0
100
AcDbMText
 10
39.7276434083
 20
40.8906703314
 30
0.0
 40
0.4233333333
 41
0.0
 71
     1
 72
     1
  1
6
  7
SLDTEXTSTYLE0
 73
     1
 44
1.0
  0
MTEXT
  5
EC
330
1F
100
AcDbEntity
  8
0
  6
Continuous
 62
     7
370
     0
100
AcDbMText
 10
46.8726131481
 20
40.8906703314
 30
0.0
 40
0.4233333333
 41
0.0
 71
     1
 72
     1
  1
7
  7
SLDTEXTSTYLE0
 73
     1
 44
1.0
  0
MTEXT
  5
ED
330
1F
100
AcDbEntity
  8
0
  6
Continuous
 62
     7
370
     0
100
AcDbMText
 10
53.2557564099
 20
40.8906703314
 30
0.0
 40
0.4233333333
 41
0.0
 71
     1
 72
     1
  1
8
  7
SLDTEXTSTYLE0
 73
     1
 44
1.0
  0
MTEXT
  5
EE
330
1F
100
AcDbEntity
  8
0
  6
Continuous
 62
     7
370
     0
100
AcDbMText
 10
1.0713647311
 20
37.1622604576
 30
0.0
 40
0.4233333333
 41
0.0
 71
     1
 72
     1
  1
A
  7
SLDTEXTSTYLE0
 73
     1
 44
1.0
  0
MTEXT
  5
EF
330
1F
100
AcDbEntity
  8
0
  6
Continuous
 62
     7
370
     0
100
AcDbMText
 10
1.1182086366
 20
30.8598609648
 30
0.0
 40
0.4233333333
 41
0.0
 71
     1
 72
     1
  1
B
  7
SLDTEXTSTYLE0
 73
     1
 44
1.0
  0
MTEXT
  5
F0
330
1F
100
AcDbEntity
  8
0
  6
Continuous
 62
     7
370
     0
100
AcDbMText
 10
1.1182086366
 20
24.2548702846
 30
0.0
 40
0.4233333333
 41
0.0
 71
     1
 72
     1
  1
C
  7
SLDTEXTSTYLE0
 73
     1
 44
1.0
  0
MTEXT
  5
F1
330
1F
100
AcDbEntity
  8
0
  6
Continuous
 62
     7
370
     0
100
AcDbMText
 10
1.1182086366
 20
17.7490644044
 30
0.0
 40
0.4233333333
 41
0.0
 71
     1
 72
     1
  1
D
  7
SLDTEXTSTYLE0
 73
     1
 44
1.0
  0
MTEXT
  5
F2
330
1F
100
AcDbEntity
  8
0
  6
Continuous
 62
     7
370
     0
100
AcDbMText
 10
1.1182086366
 20
11.5111769839
 30
0.0
 40
0.4233333333
 41
0.0
 71
     1
 72
     1
  1
E
  7
SLDTEXTSTYLE0
 73
     1
 44
1.0
  0
MTEXT
  5
F3
330
1F
100
AcDbEntity
  8
0
  6
Continuous
 62
     7
370
     0
100
AcDbMText
 10
1.1182086366
 20
5.113884245
 30
0.0
 40
0.4233333333
 41
0.0
 71
     1
 72
     1
  1
F
  7
SLDTEXTSTYLE0
 73
     1
 44
1.0
  0
MTEXT
  5
F4
330
1F
100
AcDbEntity
  8
0
  6
Continuous
 62
     7
370
     0
100
AcDbMText
 10
53.2371723393
 20
1.3247244793
 30
0.0
 40
0.4233333333
 41
0.0
 71
     1
 72
     1
  1
8
  7
SLDTEXTSTYLE0
 73
     1
 44
1.0
  0
MTEXT
  5
F5
330
1F
100
AcDbEntity
  8
0
  6
Continuous
 62
     7
370
     0
100
AcDbMText
 10
46.8540290775
 20
1.3247244793
 30
0.0
 40
0.4233333333
 41
0.0
 71
     1
 72
     1
  1
7
  7
SLDTEXTSTYLE0
 73
     1
 44
1.0
  0
MTEXT
  5
F6
330
1F
100
AcDbEntity
  8
0
  6
Continuous
 62
     7
370
     0
100
AcDbMText
 10
39.7090593377
 20
1.3247244793
 30
0.0
 40
0.4233333333
 41
0.0
 71
     1
 72
     1
  1
6
  7
SLDTEXTSTYLE0
 73
     1
 44
1.0
  0
MTEXT
  5
F7
330
1F
100
AcDbEntity
  8
0
  6
Continuous
 62
     7
370
     0
100
AcDbMText
 10
32.7218806222
 20
1.3247244793
 30
0.0
 40
0.4233333333
 41
0.0
 71
     1
 72
     1
  1
5
  7
SLDTEXTSTYLE0
 73
     1
 44
1.0
  0
MTEXT
  5
F8
330
1F
100
AcDbEntity
  8
0
  6
Continuous
 62
     7
370
     0
100
AcDbMText
 10
25.8320831864
 20
1.2939058352
 30
0.0
 40
0.4233333333
 41
0.0
 71
     1
 72
     1
  1
4
  7
SLDTEXTSTYLE0
 73
     1
 44
1.0
  0
MTEXT
  5
F9
330
1F
100
AcDbEntity
  8
0
  6
Continuous
 62
     7
370
     0
100
AcDbMText
 10
18.9616148075
 20
1.3247244793
 30
0.0
 40
0.4233333333
 41
0.0
 71
     1
 72
     1
  1
3
  7
SLDTEXTSTYLE0
 73
     1
 44
1.0
  0
MTEXT
  5
FA
330
1F
100
AcDbEntity
  8
0
  6
Continuous
 62
     7
370
     0
100
AcDbMText
 10
12.1248358439
 20
1.3247244793
 30
0.0
 40
0.4233333333
 41
0.0
 71
     1
 72
     1
  1
2
  7
SLDTEXTSTYLE0
 73
     1
 44
1.0
  0
MTEXT
  5
FB
330
1F
100
AcDbEntity
  8
0
  6
Continuous
 62
     7
370
     0
100
AcDbMText
 10
5.3020145601
 20
1.3247244793
 30
0.0
 40
0.4233333333
 41
0.0
 71
     1
 72
     1
  1
1
  7
SLDTEXTSTYLE0
 73
     1
 44
1.0
  0
MTEXT
  5
FC
330
1F
100
AcDbEntity
  8
0
  6
Continuous
 62
     7
370
     0
100
AcDbMText
 10
57.4204769229
 20
37.3284981818
 30
0.0
 40
0.4233333333
 41
0.0
 71
     1
 72
     1
  1
A
  7
SLDTEXTSTYLE0
 73
     1
 44
1.0
  0
MTEXT
  5
FD
330
1F
100
AcDbEntity
  8
0
  6
Continuous
 62
     7
370
     0
100
AcDbMText
 10
57.4673208284
 20
31.026098689
 30
0.0
 40
0.4233333333
 41
0.0
 71
     1
 72
     1
  1
B
  7
SLDTEXTSTYLE0
 73
     1
 44
1.0
  0
MTEXT
  5
FE
330
1F
100
AcDbEntity
  8
0
  6
Continuous
 62
     7
370
     0
100
AcDbMText
 10
57.4673208284
 20
24.4211080088
 30
0.0
 40
0.4233333333
 41
0.0
 71
     1
 72
     1
  1
C
  7
SLDTEXTSTYLE0
 73
     1
 44
1.0
  0
MTEXT
  5
FF
330
1F
100
AcDbEntity
  8
0
  6
Continuous
 62
     7
370
     0
100
AcDbMText
 10
57.4673208284
 20
17.9153021287
 30
0.0
 40
0.4233333333
 41
0.0
 71
     1
 72
     1
  1
D
  7
SLDTEXTSTYLE0
 73
     1
 44
1.0
  0
MTEXT
  5
100
330
1F
100
AcDbEntity
  8
0
  6
Continuous
 62
     7
370
     0
100
AcDbMText
 10
57.4673208284
 20
11.6774147082
 30
0.0
 40
0.4233333333
 41
0.0
 71
     1
 72
     1
  1
E
  7
SLDTEXTSTYLE0
 73
     1
 44
1.0
  0
MTEXT
  5
101
330
1F
100
AcDbEntity
  8
0
  6
Continuous
 62
     7
370
     0
100
AcDbMText
 10
57.4673208284
 20
5.2801219693
 30
0.0
 40
0.4233333333
 41
0.0
 71
     1
 72
     1
  1
F
  7
SLDTEXTSTYLE0
 73
     1
 44
1.0
  0
MTEXT
  5
102
330
1F
100
AcDbEntity
  8
0
  6
Continuous
 62
     7
370
     0
100
AcDbMText
 10
40.631062576
 20
4.3173429702
 30
0.0
 40
0.3704166667
 41
0.0
 71
     1
 72
     1
  1
Sky
  7
SLDTEXTSTYLE0
 73
     1
 44
1.0
  0
MTEXT
  5
104
330
1F
100
AcDbEntity
  8
0
  6
Continuous
 62
     7
370
     0
100
AcDbMText
 10
50.5696447929
 20
2.4443920664
 30
0.0
 40
0.47625
 41
0.0
 71
     1
 72
     1
  1
0
  7
SLDTEXTSTYLE1
 73
     1
 44
1.0
  0
INSERT
  5
10A
330
1F
100
AcDbEntity
  8
SLD-0
 62
     7
100
AcDbBlockReference
  2
SW_NOTE_1
 10
39.7450378787
 20
6.7095949042
 30
0.0
  0
LINE
  5
10B
330
1F
100
AcDbEntity
  8
0
  6
Continuous
 62
     7
370
    30
100
AcDbLine
 10
24.1884352263
 20
23.5829220484
 30
0.0
 11
13.6884349022
 21
23.5829220484
 31
0.0
  0
LINE
  5
10C
330
1F
100
AcDbEntity
  8
0
  6
Continuous
 62
     7
370
    30
100
AcDbLine
 10
13.6884349022
 20
14.0829218882
 30
0.0
 11
24.1884352263
 21
14.0829218882
 31
0.0
  0
LINE
  5
10D
330
1F
100
AcDbEntity
  8
0
  6
Continuous
 62
     7
370
    30
100
AcDbLine
 10
24.1884352263
 20
14.0829218882
 30
0.0
 11
24.6884348426
 21
14.5829219702
 31
0.0
  0
LINE
  5
10E
330
1F
100
AcDbEntity
  8
0
  6
Continuous
 62
     7
370
    30
100
AcDbLine
 10
24.6884348426
 20
23.0829219664
 30
0.0
 11
24.1884352263
 21
23.5829220484
 31
0.0
  0
LINE
  5
10F
330
1F
100
AcDbEntity
  8
0
  6
Continuous
 62
     7
370
    30
100
AcDbLine
 10
13.1634348627
 20
14.1079220786
 30
0.0
 11
13.6884349022
 21
14.1079220786
 31
0.0
  0
LINE
  5
110
330
1F
100
AcDbEntity
  8
0
  6
Continuous
 62
     7
370
    30
100
AcDbLine
 10
13.6884349022
 20
23.5579220909
 30
0.0
 11
13.1634348627
 21
23.5579220909
 31
0.0
  0
LINE
  5
111
330
1F
100
AcDbEntity
  8
0
  6
Continuous
 62
     7
370
    30
100
AcDbLine
 10
13.1634348627
 20
23.5579220909
 30
0.0
 11
12.6884352039
 21
23.0829219664
 31
0.0
  0
LINE
  5
112
330
1F
100
AcDbEntity
  8
0
  6
Continuous
 62
     7
370
    30
100
AcDbLine
 10
12.6884352039
 20
14.5829219702
 30
0.0
 11
13.1634348627
 21
14.1079220786
 31
0.0
  0
ARC
  5
113
330
1F
100
AcDbEntity
  8
0
  6
Continuous
 62
     7
370
    30
100
AcDbCircle
 10
9.6880199286
 20
18.8329220032
 30
0.0
 40
2.000000000000003
100
AcDbArc
 50
92.8540780892
 51
267.1459219108
  0
LINE
  5
114
330
1F
100
AcDbEntity
  8
0
  6
Continuous
 62
     7
370
    30
100
AcDbLine
 10
11.0884351279
 20
21.8329222272
 30
0.0
 11
9.588434882
 21
20.9329218934
 31
0.0
  0
LINE
  5
115
330
1F
100
AcDbEntity
  8
0
  6
Continuous
 62
     7
370
    30
100
AcDbLine
 10
9.588434882
 20
16.732921985
 30
0.0
 11
11.0884351279
 21
15.8329220586
 31
0.0
  0
LINE
  5
116
330
1F
100
AcDbEntity
  8
0
  6
Continuous
 62
     7
370
    30
100
AcDbLine
 10
11.0884351279
 20
15.8329220586
 30
0.0
 11
12.6884352039
 21
15.8329220586
 31
0.0
  0
LINE
  5
117
330
1F
100
AcDbEntity
  8
0
  6
Continuous
 62
     7
370
    30
100
AcDbLine
 10
24.6884348426
 20
15.8329220586
 30
0.0
 11
26.6884351704
 21
15.8329220586
 31
0.0
  0
LINE
  5
118
330
1F
100
AcDbEntity
  8
0
  6
Continuous
 62
     7
370
    30
100
AcDbLine
 10
26.6884351704
 20
21.8329222272
 30
0.0
 11
24.6884348426
 21
21.8329222272
 31
0.0
  0
LINE
  5
119
330
1F
100
AcDbEntity
  8
0
  6
Continuous
 62
     7
370
    30
100
AcDbLine
 10
12.6884352039
 20
21.8329222272
 30
0.0
 11
11.0884351279
 21
21.8329222272
 31
0.0
  0
LINE
  5
11A
330
1F
100
AcDbEntity
  8
0
  6
Continuous
 62
     7
370
    30
100
AcDbLine
 10
13.6884349022
 20
18.8329219683
 30
0.0
 11
13.6884349022
 21
23.5829220484
 31
0.0
  0
LINE
  5
11B
330
1F
100
AcDbEntity
  8
0
  6
Continuous
 62
     7
370
    30
100
AcDbLine
 10
13.6884349022
 20
14.0829218882
 30
0.0
 11
13.6884349022
 21
18.8329219683
 31
0.0
  0
LINE
  5
11C
330
1F
100
AcDbEntity
  8
0
  6
Continuous
 62
     7
370
    30
100
AcDbLine
 10
24.1884352263
 20
18.8329219683
 30
0.0
 11
24.1884352263
 21
23.5829220484
 31
0.0
  0
LINE
  5
11D
330
1F
100
AcDbEntity
  8
0
  6
Continuous
 62
     7
370
    30
100
AcDbLine
 10
24.1884352263
 20
14.0829218882
 30
0.0
 11
24.1884352263
 21
18.8329219683
 31
0.0
  0
LINE
  5
11E
330
1F
100
AcDbEntity
  8
0
  6
Continuous
 62
     7
370
    30
100
AcDbLine
 10
24.6884348426
 20
18.8329219683
 30
0.0
 11
24.6884348426
 21
14.5829219702
 31
0.0
  0
LINE
  5
11F
330
1F
100
AcDbEntity
  8
0
  6
Continuous
 62
     7
370
    30
100
AcDbLine
 10
24.6884348426
 20
23.0829219664
 30
0.0
 11
24.6884348426
 21
18.8329219683
 31
0.0
  0
LINE
  5
120
330
1F
100
AcDbEntity
  8
0
  6
Continuous
 62
     7
370
    30
100
AcDbLine
 10
13.1634348627
 20
14.1079220786
 30
0.0
 11
13.1634348627
 21
23.5579220909
 31
0.0
  0
LINE
  5
121
330
1F
100
AcDbEntity
  8
0
  6
Continuous
 62
     7
370
    30
100
AcDbLine
 10
12.6884352039
 20
18.8329219683
 30
0.0
 11
12.6884352039
 21
23.0829219664
 31
0.0
  0
LINE
  5
122
330
1F
100
AcDbEntity
  8
0
  6
Continuous
 62
     7
370
    30
100
AcDbLine
 10
12.6884352039
 20
14.5829219702
 30
0.0
 11
12.6884352039
 21
18.8329219683
 31
0.0
  0
LINE
  5
123
330
1F
100
AcDbEntity
  8
0
  6
Continuous
 62
     7
370
    30
100
AcDbLine
 10
11.0884351279
 20
18.8329219683
 30
0.0
 11
11.0884351279
 21
21.8329222272
 31
0.0
  0
LINE
  5
124
330
1F
100
AcDbEntity
  8
0
  6
Continuous
 62
     7
370
    30
100
AcDbLine
 10
11.0884351279
 20
15.8329220586
 30
0.0
 11
11.0884351279
 21
18.8329219683
 31
0.0
  0
LINE
  5
125
330
1F
100
AcDbEntity
  8
0
  6
Continuous
 62
     7
370
    30
100
AcDbLine
 10
9.588434882
 20
18.8329219683
 30
0.0
 11
9.588434882
 21
20.9329218934
 31
0.0
  0
LINE
  5
126
330
1F
100
AcDbEntity
  8
0
  6
Continuous
 62
     7
370
    30
100
AcDbLine
 10
9.588434882
 20
16.732921985
 30
0.0
 11
9.588434882
 21
18.8329219683
 31
0.0
  0
LINE
  5
127
330
1F
100
AcDbEntity
  8
0
  6
Continuous
 62
     7
370
    30
100
AcDbLine
 10
26.6884351704
 20
18.8329219683
 30
0.0
 11
26.6884351704
 21
21.8329222272
 31
0.0
  0
LINE
  5
128
330
1F
100
AcDbEntity
  8
0
  6
Continuous
 62
     7
370
    30
100
AcDbLine
 10
26.6884351704
 20
15.8329220586
 30
0.0
 11
26.6884351704
 21
18.8329219683
 31
0.0
  0
DIMENSION
  5
129
330
1F
100
AcDbEntity
  8
DIM
100
AcDbDimension
  2
_D
 10
26.6884350051
 20
11.6829220032
 30
0.0
 11
17.1882274668
 21
11.6829220032
 31
0.0
 70
   160
  1
<>
 71
     2
 42
-1.0
  3
SLDDIMSTYLE0
100
AcDbAlignedDimension
 13
7.6880199286
 23
18.8329220032
 33
0.0
 14
26.6884350051
 24
15.8329220032
 34
0.0
 50
0.0
100
AcDbRotatedDimension
  0
DIMENSION
  5
134
330
1F
100
AcDbEntity
  8
DIM
100
AcDbDimension
  2
_D_1
 10
24.6884350051
 20
12.6829220032
 30
0.0
 11
18.6884350051
 21
12.6829220032
 31
0.0
 70
   160
  1
<>
 71
     2
 42
-1.0
  3
SLDDIMSTYLE0
100
AcDbAlignedDimension
 13
12.6884350051
 23
14.5829220032
 33
0.0
 14
24.6884350051
 24
14.5829220032
 34
0.0
100
AcDbRotatedDimension
  0
DIMENSION
  5
13E
330
1F
100
AcDbEntity
  8
DIM
100
AcDbDimension
  2
_D_2
 10
6.2880199286
 20
14.0829220032
 30
0.0
 11
6.2880199286
 21
18.8329220032
 31
0.0
 70
   160
  1
%%c<>
 71
     2
 42
-1.0
  3
SLDDIMSTYLE0
100
AcDbAlignedDimension
 13
13.6884350051
 23
23.5829220032
 33
0.0
 14
13.6884350051
 24
14.0829220032
 34
0.0
 50
90.0
100
AcDbRotatedDimension
  0
INSERT
  5
14E
330
1F
100
AcDbEntity
  8
DIM
100
AcDbBlockReference
  2
SW_NOTE_2
 10
28.223699422
 20
24.922225455
 30
0.0
  0
LEADER
  5
150
330
1F
100
AcDbEntity
  8
DIM
100
AcDbLeader
  3
SLDDIMSTYLE1
 76
     2
 10
25.4543388432
 20
21.8329220032
 30
0.0
 10
28.223699422
 20
24.922225455
 30
0.0
  0
CIRCLE
  5
151
330
1F
100
AcDbEntity
  8
0
  6
Continuous
 62
     7
370
    30
100
AcDbCircle
 10
36.610426675
 20
18.8329220032
 30
0.0
 40
4.75
  0
CIRCLE
  5
152
330
1F
100
AcDbEntity
  8
0
  6
Continuous
 62
     7
370
    30
100
AcDbCircle
 10
36.610426675
 20
18.8329220032
 30
0.0
 40
4.249999999999993
  0
CIRCLE
  5
153
330
1F
100
AcDbEntity
  8
0
  6
Continuous
 62
     7
370
    30
100
AcDbCircle
 10
36.610426675
 20
18.8329220032
 30
0.0
 40
3.175000000000004
  0
LINE
  5
154
330
1F
100
AcDbEntity
  8
0
  6
Continuous
 62
     7
370
    30
100
AcDbLine
 10
36.0330764115
 20
19.8329218994
 30
0.0
 11
35.455726148
 21
18.8329219683
 31
0.0
  0
LINE
  5
155
330
1F
100
AcDbEntity
  8
0
  6
Continuous
 62
     7
370
    30
100
AcDbLine
 10
35.455726148
 20
18.8329219683
 30
0.0
 11
36.0330764115
 21
17.8329220081
 31
0.0
  0
LINE
  5
156
330
1F
100
AcDbEntity
  8
0
  6
Continuous
 62
     7
370
    30
100
AcDbLine
 10
36.0330764115
 20
17.8329220081
 30
0.0
 11
37.1877769385
 21
17.8329220081
 31
0.0
  0
LINE
  5
157
330
1F
100
AcDbEntity
  8
0
  6
Continuous
 62
     7
370
    30
100
AcDbLine
 10
37.1877769385
 20
17.8329220081
 30
0.0
 11
37.765127202
 21
18.8329219683
 31
0.0
  0
LINE
  5
158
330
1F
100
AcDbEntity
  8
0
  6
Continuous
 62
     7
370
    30
100
AcDbLine
 10
37.765127202
 20
18.8329219683
 30
0.0
 11
37.1877769385
 21
19.8329218994
 31
0.0
  0
LINE
  5
159
330
1F
100
AcDbEntity
  8
0
  6
Continuous
 62
     7
370
    30
100
AcDbLine
 10
37.1877769385
 20
19.8329218994
 30
0.0
 11
36.0330764115
 21
19.8329218994
 31
0.0
  0
CIRCLE
  5
15A
330
1F
100
AcDbEntity
  8
0
  6
Continuous
 62
     7
370
    30
100
AcDbCircle
 10
36.610426675
 20
18.8329220032
 30
0.0
 40
3.0
  0
DIMENSION
  5
15B
330
1F
100
AcDbEntity
  8
DIM
100
AcDbDimension
  2
_D_3
 10
41.0271562343
 20
13.1829220032
 30
0.0
 11
40.1611308305
 21
12.6829220032
 31
0.0
 70
   160
  1
<>
 71
     2
 42
-1.0
  3
SLDDIMSTYLE0
100
AcDbAlignedDimension
 13
36.0330764058
 23
17.8329220032
 33
0.0
 14
37.7651272134
 24
18.8329220032
 34
0.0
 50
30.0
100
AcDbRotatedDimension
  0
INSERT
  5
170
330
1F
100
AcDbEntity
  8
DIM
100
AcDbBlockReference
  2
SW_CENTERMARKSYMBOL_0
 10
36.610426675
 20
18.8329220032
 30
0.0
  0
LINE
  5
171
330
1F
100
AcDbEntity
  8
0
  6
Continuous
 62
     7
370
    30
100
AcDbLine
 10
50.766269111
 20
23.8393544493
 30
0.0
 11
51.1197650393
 21
24.0434896496
 31
0.0
  0
LINE
  5
172
330
1F
100
AcDbEntity
  8
0
  6
Continuous
 62
     7
370
    30
100
AcDbLine
 10
54.1244804292
 20
29.2483733272
 30
0.0
 11
54.1244804292
 21
29.6565773831
 31
0.0
  0
LINE
  5
173
330
1F
100
AcDbEntity
  8
0
  6
Continuous
 62
     7
370
    30
100
AcDbLine
 10
53.1405302085
 20
31.8313402138
 30
0.0
 11
45.7159090061
 21
36.1174828009
 31
0.0
  0
LINE
  5
174
330
1F
100
AcDbEntity
  8
0
  6
Continuous
 62
     7
370
    30
100
AcDbLine
 10
40.9662950261
 20
27.8900186083
 30
0.0
 11
48.3909162285
 21
23.6038760212
 31
0.0
  0
LINE
  5
175
330
1F
100
AcDbEntity
  8
0
  6
Continuous
 62
     7
370
    30
100
AcDbLine
 10
40.6075629501
 20
28.1259769592
 30
0.0
 11
40.7354252063
 21
28.0521636498
 31
0.0
  0
LINE
  5
176
330
1F
100
AcDbEntity
  8
0
  6
Continuous
 62
     7
370
    30
100
AcDbLine
 10
45.460041218
 20
36.2363253993
 30
0.0
 11
45.3321789618
 21
36.3101387087
 31
0.0
  0
LINE
  5
177
330
1F
100
AcDbEntity
  8
0
  6
Continuous
 62
     7
370
    30
100
AcDbLine
 10
42.9693279366
 20
36.0758996407
 30
0.0
 11
42.6335068048
 21
35.8819712005
 31
0.0
  0
LINE
  5
178
330
1F
100
AcDbEntity
  8
0
  6
Continuous
 62
     7
370
    30
100
AcDbLine
 10
39.6287914148
 20
30.6770875229
 30
0.0
 11
39.6287914148
 21
30.2892936697
 31
0.0
  0
ARC
  5
179
330
1F
100
AcDbEntity
  8
0
  6
Continuous
 62
     7
370
    30
100
AcDbCircle
 10
40.512381388
 20
33.6367363641
 30
0.0
 40
2.000000000000008
100
AcDbArc
 50
76.880814445
 51
223.1245620877
  0
LINE
  5
17A
330
1F
100
AcDbEntity
  8
0
  6
Continuous
 62
     7
370
    30
100
AcDbLine
 10
49.0995907015
 20
25.215438163
 30
0.0
 11
51.0336120725
 21
24.0989513906
 31
0.0
  0
LINE
  5
17B
330
1F
100
AcDbEntity
  8
0
  6
Continuous
 62
     7
370
    30
100
AcDbLine
 10
54.0333682705
 20
29.2952445649
 30
0.0
 11
52.0993468994
 21
30.4117313373
 31
0.0
  0
LINE
  5
17C
330
1F
100
AcDbEntity
  8
0
  6
Continuous
 62
     7
370
    30
100
AcDbLine
 10
42.2242980059
 20
35.7852044403
 30
0.0
 11
40.9471357479
 21
35.5814735671
 31
0.0
  0
LINE
  5
17D
330
1F
100
AcDbEntity
  8
0
  6
Continuous
 62
     7
370
    30
100
AcDbLine
 10
39.0456933291
 20
32.2877218052
 30
0.0
 11
39.5079516934
 21
31.0798447805
 31
0.0
  0
LWPOLYLINE
  5
17E
330
1F
100
AcDbEntity
  8
0
  6
Continuous
 62
     7
370
    30
100
AcDbPolyline
 90
       42
 70
   128
 43
0.0
 10
47.4069660079
 20
25.7786388519
 10
47.4173199355
 20
26.0889250523
 10
47.4483178827
 20
26.4092526253
 10
47.499768737
 20
26.737646645
 10
47.5713552867
 20
27.0720824531
 10
47.662636177
 20
27.4104981415
 10
47.7730486307
 20
27.7508072651
 10
47.9019119184
 20
28.0909117049
 10
48.0484315552
 20
28.4287146039
 10
48.2117041986
 20
28.762133295
 10
48.3907232185
 20
29.089112141
 10
48.5843849033
 20
29.4076352086
 10
48.7914952641
 20
29.7157386973
 10
49.0107773967
 20
30.0115230464
 10
49.240879354
 20
30.2931646473
 10
49.4803824807
 20
30.5589270856
 10
49.7278101605
 20
30.8071718477
 10
49.9816369194
 20
31.036368422
 10
50.2402978311
 20
31.2451037354
 10
50.502198165
 20
31.4320908654
 10
50.7657232185
 20
31.596176974
 10
51.0292482721
 20
31.7363504158
 10
51.291148606
 20
31.851746975
 10
51.5498095177
 20
31.9416551934
 10
51.8036362766
 20
32.005520757
 10
52.0510639564
 20
32.0429499132
 10
52.2905670831
 20
32.053711899
 10
52.5206690403
 20
32.037740363
 10
52.739951173
 20
31.9951337752
 10
52.9470615338
 20
31.9261548193
 10
53.1407232185
 20
31.8312287734
 10
53.3197422385
 20
31.7109408883
 10
53.4830148819
 20
31.5660327788
 10
53.6295345186
 20
31.3973978514
 10
53.7583978064
 20
31.2060757968
 10
53.8688102601
 20
30.9932461788
 10
53.9600911504
 20
30.7602211629
 10
54.0316777001
 20
30.5084374259
 10
54.0831285544
 20
30.2394472981
 10
54.1141265016
 20
29.9549091931
 10
54.1244804292
 20
29.6565773831
 10
54.1244804292
 20
29.6565773831
  0
LWPOLYLINE
  5
17F
330
1F
100
AcDbEntity
  8
0
  6
Continuous
 62
     7
370
    30
100
AcDbPolyline
 90
       22
 70
   128
 43
0.0
 10
50.766269111
 20
23.8393544493
 10
50.7657232185
 20
23.8390392611
 10
50.502198165
 20
23.6988658192
 10
50.2402978311
 20
23.58346926
 10
49.9816369194
 20
23.4935610416
 10
49.7278101605
 20
23.429695478
 10
49.4803824807
 20
23.3922663218
 10
49.240879354
 20
23.381504336
 10
49.0107773967
 20
23.397475872
 10
48.7914952641
 20
23.4400824598
 10
48.5843849033
 20
23.5090614158
 10
48.3907232185
 20
23.6039874616
 10
48.2117041986
 20
23.7242753467
 10
48.0484315552
 20
23.8691834563
 10
47.9019119184
 20
24.0378183836
 10
47.7730486307
 20
24.2291404383
 10
47.662636177
 20
24.4419700562
 10
47.5713552867
 20
24.6749950721
 10
47.499768737
 20
24.9267788091
 10
47.4483178827
 20
25.1957689369
 10
47.4173199355
 20
25.4803070419
 10
47.4069660079
 20
25.7786388519
  0
ARC
  5
180
330
1F
100
AcDbEntity
  8
0
  6
Continuous
 62
     7
370
    30
100
AcDbCircle
 10
49.9524833751
 20
25.4902425474
 30
0.0
 40
1.860893847362262
100
AcDbArc
 50
171.0845202559
 51
309.2788017133
  0
LWPOLYLINE
  5
181
330
1F
100
AcDbEntity
  8
0
  6
Continuous
 62
     7
370
    30
100
AcDbPolyline
 90
       40
 70
   128
 43
0.0
 10
54.1244608786
 20
29.2358443586
 10
54.1244804292
 20
29.2483733272
 10
54.1142161345
 20
29.5290228506
 10
54.0834933661
 20
29.7959043509
 10
54.0325219915
 20
30.0471947567
 10
53.9616501969
 20
30.2811774998
 10
53.8713621087
 20
30.4962542408
 10
53.7622744859
 20
30.6909557875
 10
53.6351325076
 20
30.8639521308
 10
53.4908046825
 20
31.0140615303
 10
53.330276916
 20
31.1402585867
 10
53.1546457754
 20
31.241681246
 10
52.9651109996
 20
31.3176366887
 10
52.7629673033
 20
31.3676060621
 10
52.5495955328
 20
31.3912480246
 10
52.3264532338
 20
31.3884010778
 10
52.0950646943
 20
31.3590846691
 10
51.8570105328
 20
31.3034990593
 10
51.6139169006
 20
31.2220239546
 10
51.3674443736
 20
31.1152159124
 10
51.1192766091
 20
30.9838045401
 10
50.8711088447
 20
30.8286875105
 10
50.6246363177
 20
30.6509244302
 10
50.3815426854
 20
30.4517296014
 10
50.1434885239
 20
30.2324637267
 10
49.9120999845
 20
29.9946246143
 10
49.6889576854
 20
29.7398369466
 10
49.475585915
 20
29.4698411817
 10
49.2734422186
 20
29.1864816644
 10
49.0839074428
 20
28.8916940275
 10
48.9082763023
 20
28.5874919696
 10
48.7477485357
 20
28.2759534991
 10
48.6034207106
 20
27.9592067396
 10
48.4762787324
 20
27.6394153928
 10
48.3671911096
 20
27.3187639578
 10
48.2769030213
 20
26.999442809
 10
48.2060312268
 20
26.6836332337
 10
48.1550598522
 20
26.3734925314
 10
48.1243370837
 20
26.0711392777
 10
48.1140727891
 20
25.7786388519
  0
LWPOLYLINE
  5
182
330
1F
100
AcDbEntity
  8
0
  6
Continuous
 62
     7
370
    30
100
AcDbPolyline
 90
       31
 70
   128
 43
0.0
 10
39.9823448054
 20
30.064781439
 10
39.992698733
 20
30.3750676393
 10
40.0236966802
 20
30.6953952124
 10
40.0751475345
 20
31.0237892321
 10
40.1467340842
 20
31.3582250402
 10
40.2380149745
 20
31.6966407286
 10
40.3484274282
 20
32.0369498522
 10
40.477290716
 20
32.3770542919
 10
40.6238103527
 20
32.714857191
 10
40.7870829961
 20
33.0482758821
 10
40.9661020161
 20
33.3752547281
 10
41.1597637008
 20
33.6937777957
 10
41.3668740616
 20
34.0018812843
 10
41.5861561943
 20
34.2976656335
 10
41.8162581515
 20
34.5793072343
 10
42.0557612782
 20
34.8450696727
 10
42.303188958
 20
35.0933144348
 10
42.5570157169
 20
35.3225110091
 10
42.8156766286
 20
35.5312463225
 10
43.0775769626
 20
35.7182334524
 10
43.3411020161
 20
35.882319561
 10
43.6046270696
 20
36.0224930029
 10
43.8665274035
 20
36.1378895621
 10
44.1251883152
 20
36.2277977805
 10
44.3790150741
 20
36.291663344
 10
44.6264427539
 20
36.3290925003
 10
44.8659458806
 20
36.3398544861
 10
45.0960478379
 20
36.3238829501
 10
45.3153299705
 20
36.2812763623
 10
45.5224403313
 20
36.2122974063
 10
45.7159090061
 20
36.1174828009
  0
ARC
  5
183
330
1F
100
AcDbEntity
  8
0
  6
Continuous
 62
     7
370
    30
100
AcDbCircle
 10
42.3668942548
 20
29.8336768149
 30
0.0
 40
2.395722317755106
100
AcDbArc
 50
174.4643240308
 51
234.2234955758
  0
LWPOLYLINE
  5
184
330
1F
100
AcDbEntity
  8
0
  6
Continuous
 62
     7
370
    30
100
AcDbPolyline
 90
       30
 70
   128
 43
0.0
 10
48.8742125789
 20
26.217458212
 10
48.8843784026
 20
26.4697612328
 10
48.9147838106
 20
26.7315165686
 10
48.9651534468
 20
27.0003537226
 10
49.0350311559
 20
27.2738380639
 10
49.1237841145
 20
27.5494928759
 10
49.2306085622
 20
27.824821786
 10
49.3545370802
 20
28.097331373
 10
49.4944473527
 20
28.3645537478
 10
49.6490723305
 20
28.6240689033
 10
49.8170117059
 20
28.8735266299
 10
49.996744594
 20
29.1106677999
 10
50.1866433058
 20
29.3333448261
 10
50.3849880892
 20
29.5395411109
 10
50.5899827032
 20
29.7273893088
 10
50.7997706847
 20
29.8951882375
 10
51.0124521614
 20
30.0414182838
 10
51.2261010568
 20
30.1647551658
 10
51.4387825335
 20
30.2640819256
 10
51.6485705151
 20
30.3384990447
 10
51.853565129
 20
30.3873325902
 10
52.0519099125
 20
30.4101403179
 10
52.2418086243
 20
30.4067156774
 10
52.4215415123
 20
30.3770896828
 10
52.5894808877
 20
30.3215306319
 10
52.7441058656
 20
30.2405416758
 10
52.884016138
 20
30.1348562631
 10
53.007944656
 20
30.0054314974
 10
53.1147691037
 20
29.8534394693
 10
53.1389625168
 20
29.8115740161
  0
LWPOLYLINE
  5
185
330
1F
100
AcDbEntity
  8
0
  6
Continuous
 62
     7
370
    30
100
AcDbPolyline
 90
       13
 70
   128
 43
0.0
 10
50.1392063189
 20
24.6152808418
 10
49.996744594
 20
24.6202965017
 10
49.8170117059
 20
24.6499224963
 10
49.6490723305
 20
24.7054815472
 10
49.4944473527
 20
24.7864705033
 10
49.3545370802
 20
24.892155916
 10
49.2306085622
 20
25.0215806817
 10
49.1237841145
 20
25.1735727098
 10
49.0350311559
 20
25.346755537
 10
48.9651534468
 20
25.5395607926
 10
48.9147838106
 20
25.7502424026
 10
48.8843784026
 20
25.9768924016
 10
48.8742125789
 20
26.217458212
  0
LWPOLYLINE
  5
186
330
1F
100
AcDbEntity
  8
0
  6
Continuous
 62
     7
370
    30
100
AcDbPolyline
 90
       42
 70
   128
 43
0.0
 10
40.6075629501
 20
28.1259769592
 10
40.607370956
 20
28.1260878131
 10
40.4292941414
 20
28.245742604
 10
40.2668808276
 20
28.3898880393
 10
40.1211323469
 20
28.5576354144
 10
39.992947287
 20
28.7479505109
 10
39.8831159514
 20
28.959659973
 10
39.7923154869
 20
29.1914585414
 10
39.7211057085
 20
29.4419171009
 10
39.6699256482
 20
29.7094914912
 10
39.639090848
 20
29.9925320271
 10
39.6287914148
 20
30.2892936697
 10
39.639090848
 20
30.5979467848
 10
39.6699256482
 20
30.9165884233
 10
39.7211057085
 20
31.2432540534
 10
39.7923154869
 20
31.575929673
 10
39.8831159514
 20
31.9125642262
 10
39.992947287
 20
32.2510822492
 10
40.1211323469
 20
32.5893966656
 10
40.2668808276
 20
32.9254216546
 10
40.4292941414
 20
33.2570855105
 10
40.607370956
 20
33.5823434152
 10
40.8000133687
 20
33.8991900456
 10
41.006033675
 20
34.205671937
 10
41.2241616911
 20
34.4998995264
 10
41.4530525854
 20
34.780058803
 10
41.6912951694
 20
35.0444224917
 10
41.9374205982
 20
35.2913607024
 10
42.1899114268
 20
35.5193509789
 10
42.4472109653
 20
35.7269876854
 10
42.7077328764
 20
35.9129906726
 10
42.969870956
 20
36.0762131701
 10
43.2320090355
 20
36.215648857
 10
43.4925309466
 20
36.3304380659
 10
43.7498304851
 20
36.4198730831
 10
44.0023213137
 20
36.4834025121
 10
44.2484467425
 20
36.5206346728
 10
44.4866893265
 20
36.5313400166
 10
44.7155802208
 20
36.5154525413
 10
44.933708237
 20
36.4730701987
 10
45.1397285432
 20
36.4044542899
 10
45.3321789618
 20
36.3101387087
  0
ARC
  5
187
330
1F
100
AcDbEntity
  8
0
  6
Continuous
 62
     7
370
    30
100
AcDbCircle
 10
46.1403931178
 20
30.387754349
 30
0.0
 40
6.518026574346262
100
AcDbArc
 50
122.549554372
 51
177.4558221607
  0
LWPOLYLINE
  5
188
330
1F
100
AcDbEntity
  8
0
  6
Continuous
 62
     7
370
    30
100
AcDbPolyline
 90
       65
 70
   128
 43
0.0
 10
50.4121698279
 20
25.47248581
 10
50.4223845652
 20
25.7184876383
 10
50.4529304035
 20
25.9739140192
 10
50.5035131697
 20
26.2363050569
 10
50.5736457242
 20
26.5031337824
 10
50.662652652
 20
26.771830489
 10
50.7696767679
 20
27.0398074808
 10
50.893687371
 20
27.3044839927
 10
51.0334901715
 20
27.5633110452
 10
51.187738792
 20
27.8137959924
 10
51.3549477339
 20
28.0535265272
 10
51.5335066838
 20
28.2801939136
 10
51.7216960213
 20
28.4916152207
 10
51.9177033802
 20
28.6857543459
 10
52.1196411026
 20
28.860741623
 10
52.3255644177
 20
29.0148918291
 10
52.5334901715
 20
29.1467204134
 10
52.7414159253
 20
29.2549577945
 10
52.9473392404
 20
29.3385615873
 10
53.1492769628
 20
29.3967266416
 10
53.3452843217
 20
29.4288927961
 10
53.5334736592
 20
29.4347502731
 10
53.7120326091
 20
29.414242662
 10
53.879241551
 20
29.3675674622
 10
54.0334901715
 20
29.2951741815
 10
54.173292972
 20
29.1977600066
 10
54.2973035751
 20
29.0762630894
 10
54.404327691
 20
28.9318535117
 10
54.4933346188
 20
28.7659220164
 10
54.5634671733
 20
28.5800666148
 10
54.6140499395
 20
28.3760771958
 10
54.6445957778
 20
28.1559182892
 10
54.6548105151
 20
27.9217101455
 10
54.6445957778
 20
27.6757083171
 10
54.6140499395
 20
27.4202819363
 10
54.5634671733
 20
27.1578908985
 10
54.4933346188
 20
26.8910621731
 10
54.404327691
 20
26.6223654664
 10
54.2973035751
 20
26.3543884747
 10
54.173292972
 20
26.0897119628
 10
54.0334901715
 20
25.8308849103
 10
53.879241551
 20
25.5803999631
 10
53.7120326091
 20
25.3406694283
 10
53.5334736592
 20
25.1140020418
 10
53.3452843217
 20
24.9025807347
 10
53.1492769628
 20
24.7084416096
 10
52.9473392404
 20
24.5334543324
 10
52.7414159253
 20
24.3793041263
 10
52.5334901715
 20
24.2474755421
 10
52.3255644177
 20
24.139238161
 10
52.1196411026
 20
24.0556343681
 10
51.9177033802
 20
23.9974693139
 10
51.7216960213
 20
23.9653031594
 10
51.5335066838
 20
23.9594456824
 10
51.3549477339
 20
23.9799532935
 10
51.187738792
 20
24.0266284933
 10
51.0334901715
 20
24.099021774
 10
50.893687371
 20
24.1964359488
 10
50.7696767679
 20
24.317932866
 10
50.662652652
 20
24.4623424438
 10
50.5736457242
 20
24.628273939
 10
50.5035131697
 20
24.8141293407
 10
50.4529304035
 20
25.0181187596
 10
50.4223845652
 20
25.2382776663
 10
50.4121698279
 20
25.47248581
  0
ARC
  5
189
330
1F
100
AcDbEntity
  8
0
  6
Continuous
 62
     7
370
    30
100
AcDbCircle
 10
43.3669804653
 20
31.9114059599
 30
0.0
 40
3.986307639491304
100
AcDbArc
 50
102.5310160234
 51
181.0196398798
  0
ARC
  5
18A
330
1F
100
AcDbEntity
  8
0
  6
Continuous
 62
     7
370
    30
100
AcDbCircle
 10
41.2910269989
 20
31.7778720793
 30
0.0
 40
1.910748586005735
100
AcDbArc
 50
178.1226279814
 51
209.7227570655
  0
LINE
  5
18B
330
1F
100
AcDbEntity
  8
0
  6
Continuous
 62
     7
370
    30
100
AcDbLine
 10
52.125241881
 20
27.277962068
 30
0.0
 11
51.7169935906
 21
26.2257445346
 31
0.0
  0
LINE
  5
18C
330
1F
100
AcDbEntity
  8
0
  6
Continuous
 62
     7
370
    30
100
AcDbLine
 10
51.7169935906
 20
26.2257445346
 30
0.0
 11
52.125241881
 21
25.6448804443
 31
0.0
  0
LINE
  5
18D
330
1F
100
AcDbEntity
  8
0
  6
Continuous
 62
     7
370
    30
100
AcDbLine
 10
52.125241881
 20
25.6448804443
 30
0.0
 11
52.941738462
 21
26.1162338874
 31
0.0
  0
LINE
  5
18E
330
1F
100
AcDbEntity
  8
0
  6
Continuous
 62
     7
370
    30
100
AcDbLine
 10
52.941738462
 20
26.1162338874
 30
0.0
 11
53.3499867524
 21
27.1684514209
 31
0.0
  0
LINE
  5
18F
330
1F
100
AcDbEntity
  8
0
  6
Continuous
 62
     7
370
    30
100
AcDbLine
 10
53.3499867524
 20
27.1684514209
 30
0.0
 11
52.941738462
 21
27.7493155112
 31
0.0
  0
LINE
  5
190
330
1F
100
AcDbEntity
  8
0
  6
Continuous
 62
     7
370
    30
100
AcDbLine
 10
52.941738462
 20
27.7493155112
 30
0.0
 11
52.125241881
 21
27.277962068
 31
0.0
  0
LINE
  5
191
330
1F
100
AcDbEntity
  8
0
  6
Continuous
 62
     7
370
    30
100
AcDbLine
 10
52.6427650372
 20
27.5767218268
 30
0.0
 11
53.3499867524
 21
27.1684514209
 31
0.0
  0
LINE
  5
192
330
1F
100
AcDbEntity
  8
0
  6
Continuous
 62
     7
370
    30
100
AcDbLine
 10
51.9064006949
 20
26.7139216582
 30
0.0
 11
52.941738462
 21
26.1162338874
 31
0.0
  0
ARC
  5
193
330
1F
100
AcDbEntity
  8
0
  6
Continuous
 62
     7
370
    30
100
AcDbCircle
 10
41.877810634
 20
32.812936467
 30
0.0
 40
2.920779590796633
100
AcDbArc
 50
108.5806497066
 51
179.858321881
  0
ARC
  5
194
330
1F
100
AcDbEntity
  8
0
  6
Continuous
 62
     7
370
    30
100
AcDbCircle
 10
40.4482051229
 20
32.7948459653
 30
0.0
 40
1.49137998022232
100
AcDbArc
 50
179.0274851508
 51
199.8791195731
  0
ENDSEC
  0
SECTION
  2
OBJECTS
  0
DICTIONARY
  5
C
330
0
100
AcDbDictionary
281
     1
  3
ACAD_GROUP
350
D
  3
ACAD_LAYOUT
350
1A
  3
ACAD_MLINESTYLE
350
17
  3
ACAD_PLOTSETTINGS
350
19
  3
ACAD_PLOTSTYLENAME
350
E
  3
ACAD_SCALELIST
350
47
  0
DICTIONARY
  5
D
102
{ACAD_REACTORS
330
C
102
}
330
C
100
AcDbDictionary
281
     1
  0
DICTIONARY
  5
1A
102
{ACAD_REACTORS
330
C
102
}
330
C
100
AcDbDictionary
281
     1
  3
Layout1
350
1E
  3
Layout2
350
26
  3
Model
350
22
  0
DICTIONARY
  5
17
102
{ACAD_REACTORS
330
C
102
}
330
C
100
AcDbDictionary
281
     1
  3
Standard
350
18
  0
DICTIONARY
  5
19
102
{ACAD_REACTORS
330
C
102
}
330
C
100
AcDbDictionary
281
     1
  0
ACDBDICTIONARYWDFLT
  5
E
102
{ACAD_REACTORS
330
C
102
}
330
C
100
AcDbDictionary
281
     1
  3
Normal
350
F
100
AcDbDictionaryWithDefault
340
F
  0
DICTIONARY
  5
47
102
{ACAD_REACTORS
330
C
102
}
330
C
100
AcDbDictionary
281
     1
  3
A0
350
48
  3
A1
350
49
  3
A2
350
4A
  3
A3
350
4B
  3
A4
350
4C
  3
A5
350
4D
  3
A6
350
4E
  3
A7
350
4F
  3
A8
350
50
  3
A9
350
51
  3
B0
350
52
  3
B1
350
53
  3
B2
350
54
  3
B3
350
55
  3
B4
350
56
  3
B5
350
57
  3
B6
350
58
  3
B7
350
59
  3
B8
350
5A
  3
B9
350
5B
  3
C0
350
5C
  3
C1
350
5D
  3
C2
350
5E
  3
C3
350
5F
  3
C4
350
60
  3
C5
350
61
  3
C6
350
62
  3
C7
350
63
  3
C8
350
64
  3
C9
350
65
  3
D0
350
66
  3
D1
350
67
  3
D2
350
68
  0
LAYOUT
  5
1E
102
{ACAD_REACTORS
330
1A
102
}
330
1A
100
AcDbPlotSettings
  1

  2
none_device
  4

  6

 40
0.0
 41
0.0
 42
0.0
 43
0.0
 44
0.0
 45
0.0
 46
0.0
 47
0.0
 48
0.0
 49
0.0
140
0.0
141
0.0
142
1.0
143
1.0
 70
   688
 72
     1
 73
     0
 74
     5
  7

 75
    16
147
1.0
148
0.0
149
0.0
100
AcDbLayout
  1
Layout1
 70
     1
 71
     1
 10
0.0
 20
0.0
 11
420.0
 21
297.0
 12
0.0
 22
0.0
 32
0.0
 14
1.0000000000E+20
 24
1.0000000000E+20
 34
1.0000000000E+20
 15
-1.0000000000E+20
 25
-1.0000000000E+20
 35
-1.0000000000E+20
146
0.0
 13
0.0
 23
0.0
 33
0.0
 16
1.0
 26
0.0
 36
0.0
 17
0.0
 27
1.0
 37
0.0
 76
     0
330
1B
  0
LAYOUT
  5
26
102
{ACAD_REACTORS
330
1A
102
}
330
1A
100
AcDbPlotSettings
  1

  2
none_device
  4

  6

 40
0.0
 41
0.0
 42
0.0
 43
0.0
 44
0.0
 45
0.0
 46
0.0
 47
0.0
 48
0.0
 49
0.0
140
0.0
141
0.0
142
1.0
143
1.0
 70
   688
 72
     1
 73
     0
 74
     5
  7

 75
    16
147
1.0
148
0.0
149
0.0
100
AcDbLayout
  1
Layout2
 70
     1
 71
     2
 10
0.0
 20
0.0
 11
0.0
 21
0.0
 12
0.0
 22
0.0
 32
0.0
 14
0.0
 24
0.0
 34
0.0
 15
0.0
 25
0.0
 35
0.0
146
0.0
 13
0.0
 23
0.0
 33
0.0
 16
1.0
 26
0.0
 36
0.0
 17
0.0
 27
1.0
 37
0.0
 76
     0
330
23
  0
LAYOUT
  5
22
102
{ACAD_REACTORS
330
1A
102
}
330
1A
100
AcDbPlotSettings
  1

  2
none_device
  4
Letter_(8.50_x_11.00_Inches)
  6

 40
6.35
 41
6.35
 42
6.35000508
 43
6.35000508
 44
215.9
 45
279.4
 46
0.0
 47
0.0
 48
0.0
 49
0.0
140
0.0
141
0.0
142
1.0
143
1.0
 70
  1712
 72
     1
 73
     0
 74
     0
  7

 75
     0
147
1.0
148
0.0
149
0.0
100
AcDbLayout
  1
Model
 70
     1
 71
     0
 10
0.0
 20
0.0
 11
59.4
 21
42.0
 12
0.0
 22
0.0
 32
0.0
 14
0.0
 24
0.0
 34
0.0
 15
59.4
 25
42.0
 35
0.0
146
0.0
 13
0.0
 23
0.0
 33
0.0
 16
1.0
 26
0.0
 36
0.0
 17
0.0
 27
1.0
 37
0.0
 76
     0
330
1F
331
29
  0
MLINESTYLE
  5
18
102
{ACAD_REACTORS
330
17
102
}
330
17
100
AcDbMlineStyle
  2
Standard
 70
     0
  3

 62
   256
 51
90.0
 52
90.0
 71
     2
 49
0.5
 62
   256
  6
BYLAYER
 49
-0.5
 62
   256
  6
BYLAYER
  0
ACDBPLACEHOLDER
  5
F
102
{ACAD_REACTORS
330
E
102
}
330
E
  0
SCALE
  5
48
102
{ACAD_REACTORS
330
47
102
}
330
47
100
AcDbScale
 70
     0
300
1:1
140
1.0
141
1.0
290
     1
  0
SCALE
  5
49
102
{ACAD_REACTORS
330
47
102
}
330
47
100
AcDbScale
 70
     0
300
1:2
140
1.0
141
2.0
290
     0
  0
SCALE
  5
4A
102
{ACAD_REACTORS
330
47
102
}
330
47
100
AcDbScale
 70
     0
300
1:4
140
1.0
141
4.0
290
     0
  0
SCALE
  5
4B
102
{ACAD_REACTORS
330
47
102
}
330
47
100
AcDbScale
 70
     0
300
1:5
140
1.0
141
5.0
290
     0
  0
SCALE
  5
4C
102
{ACAD_REACTORS
330
47
102
}
330
47
100
AcDbScale
 70
     0
300
1:8
140
1.0
141
8.0
290
     0
  0
SCALE
  5
4D
102
{ACAD_REACTORS
330
47
102
}
330
47
100
AcDbScale
 70
     0
300
1:10
140
1.0
141
10.0
290
     0
  0
SCALE
  5
4E
102
{ACAD_REACTORS
330
47
102
}
330
47
100
AcDbScale
 70
     0
300
1:16
140
1.0
141
16.0
290
     0
  0
SCALE
  5
4F
102
{ACAD_REACTORS
330
47
102
}
330
47
100
AcDbScale
 70
     0
300
1:20
140
1.0
141
20.0
290
     0
  0
SCALE
  5
50
102
{ACAD_REACTORS
330
47
102
}
330
47
100
AcDbScale
 70
     0
300
1:30
140
1.0
141
30.0
290
     0
  0
SCALE
  5
51
102
{ACAD_REACTORS
330
47
102
}
330
47
100
AcDbScale
 70
     0
300
1:40
140
1.0
141
40.0
290
     0
  0
SCALE
  5
52
102
{ACAD_REACTORS
330
47
102
}
330
47
100
AcDbScale
 70
     0
300
1:50
140
1.0
141
50.0
290
     0
  0
SCALE
  5
53
102
{ACAD_REACTORS
330
47
102
}
330
47
100
AcDbScale
 70
     0
300
1:100
140
1.0
141
100.0
290
     0
  0
SCALE
  5
54
102
{ACAD_REACTORS
330
47
102
}
330
47
100
AcDbScale
 70
     0
300
2:1
140
2.0
141
1.0
290
     0
  0
SCALE
  5
55
102
{ACAD_REACTORS
330
47
102
}
330
47
100
AcDbScale
 70
     0
300
4:1
140
4.0
141
1.0
290
     0
  0
SCALE
  5
56
102
{ACAD_REACTORS
330
47
102
}
330
47
100
AcDbScale
 70
     0
300
8:1
140
8.0
141
1.0
290
     0
  0
SCALE
  5
57
102
{ACAD_REACTORS
330
47
102
}
330
47
100
AcDbScale
 70
     0
300
10:1
140
10.0
141
1.0
290
     0
  0
SCALE
  5
58
102
{ACAD_REACTORS
330
47
102
}
330
47
100
AcDbScale
 70
     0
300
100:1
140
100.0
141
1.0
290
     0
  0
SCALE
  5
59
102
{ACAD_REACTORS
330
47
102
}
330
47
100
AcDbScale
 70
     0
300
1/128" = 1'-0"
140
0.0078125
141
12.0
290
     0
  0
SCALE
  5
5A
102
{ACAD_REACTORS
330
47
102
}
330
47
100
AcDbScale
 70
     0
300
1/64" = 1'-0"
140
0.015625
141
12.0
290
     0
  0
SCALE
  5
5B
102
{ACAD_REACTORS
330
47
102
}
330
47
100
AcDbScale
 70
     0
300
1/32" = 1'-0"
140
0.03125
141
12.0
290
     0
  0
SCALE
  5
5C
102
{ACAD_REACTORS
330
47
102
}
330
47
100
AcDbScale
 70
     0
300
1/16" = 1'-0"
140
0.0625
141
12.0
290
     0
  0
SCALE
  5
5D
102
{ACAD_REACTORS
330
47
102
}
330
47
100
AcDbScale
 70
     0
300
3/32" = 1'-0"
140
0.09375
141
12.0
290
     0
  0
SCALE
  5
5E
102
{ACAD_REACTORS
330
47
102
}
330
47
100
AcDbScale
 70
     0
300
1/8" = 1'-0"
140
0.125
141
12.0
290
     0
  0
SCALE
  5
5F
102
{ACAD_REACTORS
330
47
102
}
330
47
100
AcDbScale
 70
     0
300
3/16" = 1'-0"
140
0.1875
141
12.0
290
     0
  0
SCALE
  5
60
102
{ACAD_REACTORS
330
47
102
}
330
47
100
AcDbScale
 70
     0
300
1/4" = 1'-0"
140
0.25
141
12.0
290
     0
  0
SCALE
  5
61
102
{ACAD_REACTORS
330
47
102
}
330
47
100
AcDbScale
 70
     0
300
3/8" = 1'-0"
140
0.375
141
12.0
290
     0
  0
SCALE
  5
62
102
{ACAD_REACTORS
330
47
102
}
330
47
100
AcDbScale
 70
     0
300
1/2" = 1'-0"
140
0.5
141
12.0
290
     0
  0
SCALE
  5
63
102
{ACAD_REACTORS
330
47
102
}
330
47
100
AcDbScale
 70
     0
300
3/4" = 1'-0"
140
0.75
141
12.0
290
     0
  0
SCALE
  5
64
102
{ACAD_REACTORS
330
47
102
}
330
47
100
AcDbScale
 70
     0
300
1" = 1'-0"
140
1.0
141
12.0
290
     0
  0
SCALE
  5
65
102
{ACAD_REACTORS
330
47
102
}
330
47
100
AcDbScale
 70
     0
300
1-1/2" = 1'-0"
140
1.5
141
12.0
290
     0
  0
SCALE
  5
66
102
{ACAD_REACTORS
330
47
102
}
330
47
100
AcDbScale
 70
     0
300
3" = 1'-0"
140
3.0
141
12.0
290
     0
  0
SCALE
  5
67
102
{ACAD_REACTORS
330
47
102
}
330
47
100
AcDbScale
 70
     0
300
6" = 1'-0"
140
6.0
141
12.0
290
     0
  0
SCALE
  5
68
102
{ACAD_REACTORS
330
47
102
}
330
47
100
AcDbScale
 70
     0
300
1'-0" = 1'-0"
140
12.0
141
12.0
290
     0
  0
ENDSEC
  0
EOF
