  0
SECTION
  2
HEADER
  9
$ACADVER
  1
AC1015
  9
$ACADMAINTVER
 70
     6
  9
$DWGCODEPAGE
  3
ANSI_950
  9
$INSBASE
 10
0.0
 20
0.0
 30
0.0
  9
$EXTMIN
 10
0.0
 20
0.0
 30
0.0
  9
$EXTMAX
 10
99.0
 20
70.0
 30
0.0
  9
$LIMMIN
 10
0.0
 20
0.0
  9
$LIMMAX
 10
99.0
 20
70.0
  9
$ORTHOMODE
 70
     0
  9
$REGENMODE
 70
     1
  9
$FILLMODE
 70
     1
  9
$QTEXTMODE
 70
     0
  9
$MIRRTEXT
 70
     1
  9
$LTSCALE
 40
0.3333333333
  9
$ATTMODE
 70
     1
  9
$TEXTSIZE
 40
1.0583333333
  9
$TRACEWID
 40
1.0
  9
$TEXTSTYLE
  7
Standard
  9
$CLAYER
  8
0
  9
$CELTYPE
  6
ByLayer
  9
$CECOLOR
 62
   256
  9
$CELTSCALE
 40
1.0
  9
$DISPSILH
 70
     0
  9
$DIMSCALE
 40
1.0
  9
$DIMASZ
 40
0.6666666667
  9
$DIMEXO
 40
0.3333333333
  9
$DIMDLI
 40
3.75
  9
$DIMRND
 40
0.0
  9
$DIMDLE
 40
0.0
  9
$DIMEXE
 40
0.3333333333
  9
$DIMTP
 40
0.0
  9
$DIMTM
 40
0.0
  9
$DIMTXT
 40
1.0583333333
  9
$DIMCEN
 40
2.5
  9
$DIMTSZ
 40
0.0
  9
$DIMTOL
 70
     0
  9
$DIMLIM
 70
     0
  9
$DIMTIH
 70
     1
  9
$DIMTOH
 70
     1
  9
$DIMSE1
 70
     0
  9
$DIMSE2
 70
     0
  9
$DIMTAD
 70
     1
  9
$DIMZIN
 70
     0
  9
$DIMBLK
  1

  9
$DIMASO
 70
     1
  9
$DIMSHO
 70
     1
  9
$DIMPOST
  1

  9
$DIMAPOST
  1

  9
$DIMALT
 70
     0
  9
$DIMALTD
 70
     3
  9
$DIMALTF
 40
0.0393700787
  9
$DIMLFAC
 40
1.0
  9
$DIMTOFL
 70
     1
  9
$DIMTVP
 40
0.0
  9
$DIMTIX
 70
     0
  9
$DIMSOXD
 70
     0
  9
$DIMSAH
 70
     0
  9
$DIMBLK1
  1

  9
$DIMBLK2
  1

  9
$DIMSTYLE
  2
ISO-25
  9
$DIMCLRD
 70
     0
  9
$DIMCLRE
 70
     0
  9
$DIMCLRT
 70
     0
  9
$DIMTFAC
 40
1.0
  9
$DIMGAP
 40
0.3333333333
  9
$DIMJUST
 70
     0
  9
$DIMSD1
 70
     0
  9
$DIMSD2
 70
     0
  9
$DIMTOLJ
 70
     0
  9
$DIMTZIN
 70
     0
  9
$DIMALTZ
 70
     0
  9
$DIMALTTZ
 70
     0
  9
$DIMUPT
 70
     0
  9
$DIMDEC
 70
     2
  9
$DIMTDEC
 70
     2
  9
$DIMALTU
 70
     2
  9
$DIMALTTD
 70
     3
  9
$DIMTXSTY
  7
Standard
  9
$DIMAUNIT
 70
     0
  9
$DIMADEC
 70
     2
  9
$DIMALTRND
 40
0.0
  9
$DIMAZIN
 70
     0
  9
$DIMDSEP
 70
    44
  9
$DIMATFIT
 70
     3
  9
$DIMFRAC
 70
     0
  9
$DIMLDRBLK
  1

  9
$DIMLUNIT
 70
     2
  9
$DIMLWD
 70
    -2
  9
$DIMLWE
 70
    -2
  9
$DIMTMOVE
 70
     0
  9
$LUNITS
 70
     2
  9
$LUPREC
 70
     2
  9
$SKETCHINC
 40
1.0
  9
$FILLETRAD
 40
10.0
  9
$AUNITS
 70
     0
  9
$AUPREC
 70
     2
  9
$MENU
  1
.
  9
$ELEVATION
 40
0.0
  9
$PELEVATION
 40
0.0
  9
$THICKNESS
 40
0.0
  9
$LIMCHECK
 70
     0
  9
$CHAMFERA
 40
0.0
  9
$CHAMFERB
 40
0.0
  9
$CHAMFERC
 40
0.0
  9
$CHAMFERD
 40
0.0
  9
$SKPOLY
 70
     0
  9
$TDCREATE
 40
2458373.602575533
  9
$TDUCREATE
 40
2458373.269242199
  9
$TDUPDATE
 40
2458373.602579502
  9
$TDUUPDATE
 40
2458373.269246169
  9
$TDINDWG
 40
0.0000000116
  9
$TDUSRTIMER
 40
0.0000000116
  9
$USRTIMER
 70
     1
  9
$ANGBASE
 50
0.0
  9
$ANGDIR
 70
     0
  9
$PDMODE
 70
     0
  9
$PDSIZE
 40
-1.0
  9
$PLINEWID
 40
0.0
  9
$SPLFRAME
 70
     0
  9
$SPLINETYPE
 70
     6
  9
$SPLINESEGS
 70
     8
  9
$HANDSEED
  5
4E8
  9
$SURFTAB1
 70
     6
  9
$SURFTAB2
 70
     6
  9
$SURFTYPE
 70
     6
  9
$SURFU
 70
     6
  9
$SURFV
 70
     6
  9
$UCSBASE
  2

  9
$UCSNAME
  2

  9
$UCSORG
 10
0.0
 20
0.0
 30
0.0
  9
$UCSXDIR
 10
1.0
 20
0.0
 30
0.0
  9
$UCSYDIR
 10
0.0
 20
1.0
 30
0.0
  9
$UCSORTHOREF
  2

  9
$UCSORTHOVIEW
 70
     0
  9
$UCSORGTOP
 10
0.0
 20
0.0
 30
0.0
  9
$UCSORGBOTTOM
 10
0.0
 20
0.0
 30
0.0
  9
$UCSORGLEFT
 10
0.0
 20
0.0
 30
0.0
  9
$UCSORGRIGHT
 10
0.0
 20
0.0
 30
0.0
  9
$UCSORGFRONT
 10
0.0
 20
0.0
 30
0.0
  9
$UCSORGBACK
 10
0.0
 20
0.0
 30
0.0
  9
$PUCSBASE
  2

  9
$PUCSNAME
  2

  9
$PUCSORG
 10
0.0
 20
0.0
 30
0.0
  9
$PUCSXDIR
 10
1.0
 20
0.0
 30
0.0
  9
$PUCSYDIR
 10
0.0
 20
1.0
 30
0.0
  9
$PUCSORTHOREF
  2

  9
$PUCSORTHOVIEW
 70
     0
  9
$PUCSORGTOP
 10
0.0
 20
0.0
 30
0.0
  9
$PUCSORGBOTTOM
 10
0.0
 20
0.0
 30
0.0
  9
$PUCSORGLEFT
 10
0.0
 20
0.0
 30
0.0
  9
$PUCSORGRIGHT
 10
0.0
 20
0.0
 30
0.0
  9
$PUCSORGFRONT
 10
0.0
 20
0.0
 30
0.0
  9
$PUCSORGBACK
 10
0.0
 20
0.0
 30
0.0
  9
$USERI1
 70
     0
  9
$USERI2
 70
     0
  9
$USERI3
 70
     0
  9
$USERI4
 70
     0
  9
$USERI5
 70
     0
  9
$USERR1
 40
0.0
  9
$USERR2
 40
0.0
  9
$USERR3
 40
0.0
  9
$USERR4
 40
0.0
  9
$USERR5
 40
0.0
  9
$WORLDVIEW
 70
     1
  9
$SHADEDGE
 70
     3
  9
$SHADEDIF
 70
    70
  9
$TILEMODE
 70
     1
  9
$MAXACTVP
 70
    64
  9
$PINSBASE
 10
0.0
 20
0.0
 30
0.0
  9
$PLIMCHECK
 70
     0
  9
$PEXTMIN
 10
1.0000000000E+20
 20
1.0000000000E+20
 30
1.0000000000E+20
  9
$PEXTMAX
 10
-1.0000000000E+20
 20
-1.0000000000E+20
 30
-1.0000000000E+20
  9
$PLIMMIN
 10
0.0
 20
0.0
  9
$PLIMMAX
 10
420.0
 20
297.0
  9
$UNITMODE
 70
     0
  9
$VISRETAIN
 70
     1
  9
$PLINEGEN
 70
     0
  9
$PSLTSCALE
 70
     1
  9
$TREEDEPTH
 70
  3020
  9
$CMLSTYLE
  2
Standard
  9
$CMLJUST
 70
     0
  9
$CMLSCALE
 40
20.0
  9
$PROXYGRAPHICS
 70
     1
  9
$MEASUREMENT
 70
     1
  9
$CELWEIGHT
370
    -1
  9
$ENDCAPS
280
     0
  9
$JOINSTYLE
280
     0
  9
$LWDISPLAY
290
     1
  9
$INSUNITS
 70
     4
  9
$HYPERLINKBASE
  1

  9
$STYLESHEET
  1

  9
$XEDIT
290
     1
  9
$CEPSNTYPE
380
     0
  9
$PSTYLEMODE
290
     1
  9
$FINGERPRINTGUID
  2
{21169FD7-8BCA-4A77-83DC-8AC1BC73B71B}
  9
$VERSIONGUID
  2
{FAEB1C32-E019-11D5-929B-00C0DF256EC4}
  9
$EXTNAMES
290
     1
  9
$PSVPSCALE
 40
0.0
  9
$OLESTARTUP
290
     0
  0
ENDSEC
  0
SECTION
  2
CLASSES
  0
CLASS
  1
ACDBDICTIONARYWDFLT
  2
AcDbDictionaryWithDefault
  3
ObjectDBX Classes
 90
        0
280
     0
281
     0
  0
CLASS
  1
VISUALSTYLE
  2
AcDbVisualStyle
  3
ObjectDBX Classes
 90
     4095
280
     0
281
     0
  0
CLASS
  1
MATERIAL
  2
AcDbMaterial
  3
ObjectDBX Classes
 90
     1153
280
     0
281
     0
  0
CLASS
  1
SCALE
  2
AcDbScale
  3
ObjectDBX Classes
 90
     1153
280
     0
281
     0
  0
CLASS
  1
TABLESTYLE
  2
AcDbTableStyle
  3
ObjectDBX Classes
 90
     4095
280
     0
281
     0
  0
CLASS
  1
MLEADERSTYLE
  2
AcDbMLeaderStyle
  3
ACDB_MLEADERSTYLE_CLASS
 90
     4095
280
     0
281
     0
  0
CLASS
  1
SUN
  2
AcDbSun
  3
SCENEOE
 90
     1153
280
     0
281
     0
  0
CLASS
  1
ACDBPLACEHOLDER
  2
AcDbPlaceHolder
  3
ObjectDBX Classes
 90
        0
280
     0
281
     0
  0
CLASS
  1
LAYOUT
  2
AcDbLayout
  3
ObjectDBX Classes
 90
        0
280
     0
281
     0
  0
ENDSEC
  0
SECTION
  2
TABLES
  0
TABLE
  2
VPORT
  5
8
330
0
100
AcDbSymbolTable
 70
     1
  0
VPORT
  5
29
330
8
100
AcDbSymbolTableRecord
100
AcDbViewportTableRecord
  2
*Active
 70
     0
 10
0.0
 20
0.0
 11
1.0
 21
1.0
 12
49.5
 22
35.0
 13
0.0
 23
0.0
 14
10.0
 24
10.0
 15
10.0
 25
10.0
 16
0.0
 26
0.0
 36
1.0
 17
0.0
 27
0.0
 37
0.0
 40
70.0
 41
1.4142857143
 42
50.0
 43
0.0
 44
0.0
 50
0.0
 51
0.0
 71
     0
 72
  2000
 73
     1
 74
     3
 75
     0
 76
     0
 77
     0
 78
     0
281
     0
 65
     1
110
0.0
120
0.0
130
0.0
111
1.0
121
0.0
131
0.0
112
0.0
122
1.0
132
0.0
 79
     0
146
0.0
  0
ENDTAB
  0
TABLE
  2
LTYPE
  5
5
330
0
100
AcDbSymbolTable
 70
     6
  0
LTYPE
  5
14
330
5
100
AcDbSymbolTableRecord
100
AcDbLinetypeTableRecord
  2
ByBlock
 70
     0
  3

 72
    65
 73
     0
 40
0.0
  0
LTYPE
  5
15
330
5
100
AcDbSymbolTableRecord
100
AcDbLinetypeTableRecord
  2
ByLayer
 70
     0
  3

 72
    65
 73
     0
 40
0.0
  0
LTYPE
  5
16
330
5
100
AcDbSymbolTableRecord
100
AcDbLinetypeTableRecord
  2
Continuous
 70
     0
  3
Solid line
 72
    65
 73
     0
 40
0.0
  0
LTYPE
  5
6E
330
5
100
AcDbSymbolTableRecord
100
AcDbLinetypeTableRecord
  2
HIDDEN
 70
     0
  3
Hidden __ __ __ __ __ __ __ __ __ __ __ __ __ __
 72
    65
 73
     2
 40
1.905
 49
1.27
 74
     0
 49
-0.635
 74
     0
  0
LTYPE
  5
6F
330
5
100
AcDbSymbolTableRecord
100
AcDbLinetypeTableRecord
  2
PHANTOM
 70
     0
  3
Phantom ______  __  __  ______  __  __  ______
 72
    65
 73
     6
 40
12.7
 49
6.35
 74
     0
 49
-1.27
 74
     0
 49
1.27
 74
     0
 49
-1.27
 74
     0
 49
1.27
 74
     0
 49
-1.27
 74
     0
  0
LTYPE
  5
70
330
5
100
AcDbSymbolTableRecord
100
AcDbLinetypeTableRecord
  2
CENTER
 70
     0
  3
Center ____ _ ____ _ ____ _ ____ _ ____ _ ____
 72
    65
 73
     4
 40
10.16
 49
6.35
 74
     0
 49
-1.27
 74
     0
 49
1.27
 74
     0
 49
-1.27
 74
     0
  0
LTYPE
  5
71
330
5
100
AcDbSymbolTableRecord
100
AcDbLinetypeTableRecord
  2
CENTERX2
 70
     0
  3
Center (2x) ________  __  ________  __  _____
 72
    65
 73
     4
 40
20.32
 49
12.7
 74
     0
 49
-2.54
 74
     0
 49
2.54
 74
     0
 49
-2.54
 74
     0
  0
LTYPE
  5
72
330
5
100
AcDbSymbolTableRecord
100
AcDbLinetypeTableRecord
  2
DOT2
 70
     0
  3
Dot (.5x) ........................................
 72
    65
 73
     2
 40
0.635
 49
0.0
 74
     0
 49
-0.635
 74
     0
  0
ENDTAB
  0
TABLE
  2
LAYER
  5
2
330
0
100
AcDbSymbolTable
 70
    10
  0
LAYER
  5
10
330
2
100
AcDbSymbolTableRecord
100
AcDbLayerTableRecord
  2
0
 70
     0
 62
     7
  6
Continuous
370
    -3
390
F
  0
LAYER
  5
73
330
2
100
AcDbSymbolTableRecord
100
AcDbLayerTableRecord
  2
SLD-0
 70
     0
 62
     7
  6
Continuous
370
    15
390
F
  0
LAYER
  5
74
330
2
100
AcDbSymbolTableRecord
100
AcDbLayerTableRecord
  2
輪廓線
 70
     0
 62
   219
  6
Continuous
370
    15
390
F
  0
LAYER
  5
75
330
2
100
AcDbSymbolTableRecord
100
AcDbLayerTableRecord
  2
DIM
 70
     0
 62
     7
  6
Continuous
370
    -3
390
F
  0
LAYER
  5
76
330
2
100
AcDbSymbolTableRecord
100
AcDbLayerTableRecord
  2
中心線
 70
     0
 62
     7
  6
CENTERX2
370
    -3
390
F
  0
LAYER
  5
77
330
2
100
AcDbSymbolTableRecord
100
AcDbLayerTableRecord
  2
虛線
 70
     0
 62
     7
  6
HIDDEN
370
    -3
390
F
  0
LAYER
  5
78
330
2
100
AcDbSymbolTableRecord
100
AcDbLayerTableRecord
  2
SECTION
 70
     0
 62
     7
  6
PHANTOM
370
    15
390
F
  0
LAYER
  5
79
330
2
100
AcDbSymbolTableRecord
100
AcDbLayerTableRecord
  2
假想線
 70
     0
 62
     7
  6
PHANTOM
370
    -3
390
F
  0
LAYER
  5
7A
330
2
100
AcDbSymbolTableRecord
100
AcDbLayerTableRecord
  2
圖層_1
 70
     0
 62
   179
  6
Continuous
370
    -3
390
F
  0
LAYER
  5
7B
330
2
100
AcDbSymbolTableRecord
100
AcDbLayerTableRecord
  2
工作區域參考線
 70
     0
 62
   179
  6
Continuous
370
    -3
390
F
  0
ENDTAB
  0
TABLE
  2
STYLE
  5
3
330
0
100
AcDbSymbolTable
 70
     4
  0
STYLE
  5
11
330
3
100
AcDbSymbolTableRecord
100
AcDbTextStyleTableRecord
  2
Standard
 70
     0
 40
0.0
 41
1.0
 50
0.0
 71
     0
 42
1.0583333333
  3
txt
  4

  0
STYLE
  5
CC
330
3
100
AcDbSymbolTableRecord
100
AcDbTextStyleTableRecord
  2
SLDTEXTSTYLE0
 70
     0
 40
0.0
 41
0.5315789474
 50
0.0
 71
     0
 42
1.0583333333
  3
TXT
  4

  0
STYLE
  5
CE
330
3
100
AcDbSymbolTableRecord
100
AcDbTextStyleTableRecord
  2
SLDTEXTSTYLE1
 70
     0
 40
0.0
 41
0.605
 50
0.0
 71
     0
 42
1.0583333333
  3
TXT
  4

  0
STYLE
  5
105
330
3
100
AcDbSymbolTableRecord
100
AcDbTextStyleTableRecord
  2
SLDTEXTSTYLE2
 70
     0
 40
0.0
 41
0.7
 50
0.0
 71
     0
 42
1.0583333333
  3
TXT
  4

  0
ENDTAB
  0
TABLE
  2
VIEW
  5
6
330
0
100
AcDbSymbolTable
 70
     0
  0
ENDTAB
  0
TABLE
  2
UCS
  5
7
330
0
100
AcDbSymbolTable
 70
     0
  0
ENDTAB
  0
TABLE
  2
APPID
  5
9
330
0
100
AcDbSymbolTable
 70
     1
  0
APPID
  5
12
330
9
100
AcDbSymbolTableRecord
100
AcDbRegAppTableRecord
  2
ACAD
 70
     0
  0
ENDTAB
  0
TABLE
  2
DIMSTYLE
  5
A
330
0
100
AcDbSymbolTable
 70
     4
100
AcDbDimStyleTable
  0
DIMSTYLE
105
27
330
A
100
AcDbSymbolTableRecord
100
AcDbDimStyleTableRecord
  2
ISO-25
 70
     0
 41
2.5
 42
0.625
 43
3.75
 44
1.25
 73
     0
 74
     0
 77
     1
 78
     8
140
2.5
141
2.5
143
0.0393700787
147
0.625
171
     3
172
     1
178
     0
271
     2
272
     2
274
     3
278
    44
283
     0
284
     8
340
11
  0
DIMSTYLE
105
22B
102
{ACAD_REACTORS
330
22A
330
235
330
240
330
24A
102
}
330
A
100
AcDbSymbolTableRecord
100
AcDbDimStyleTableRecord
  2
SLDDIMSTYLE0
 70
     0
 41
0.6666666667
 44
0.0
 45
0.000000001
 73
     0
 74
     0
 77
     1
 78
    12
 79
     3
140
0.8474934896
147
0.2118733724
173
     1
178
     0
271
     2
272
     2
276
     2
284
    12
340
105
  0
DIMSTYLE
105
25A
330
A
100
AcDbSymbolTableRecord
100
AcDbDimStyleTableRecord
  2
SLDDIMSTYLE1
 70
     0
 41
0.6666666667
 44
0.0
 45
0.000000001
146
0.6666666667
147
0.0
173
     1
178
     0
271
     0
272
     0
276
     2
340
11
  0
DIMSTYLE
105
34F
102
{ACAD_REACTORS
330
34E
102
}
330
A
100
AcDbSymbolTableRecord
100
AcDbDimStyleTableRecord
  2
SLDDIMSTYLE2
 70
     0
 41
0.6666666667
 44
0.0
 45
0.000000001
 78
    12
 79
     3
140
0.8474934896
141
0.0
147
0.2118733724
173
     1
178
     0
271
     2
272
     2
276
     2
284
    12
340
105
  0
ENDTAB
  0
TABLE
  2
BLOCK_RECORD
  5
1
330
0
100
AcDbSymbolTable
 70
    11
  0
BLOCK_RECORD
  5
1F
330
1
100
AcDbSymbolTableRecord
100
AcDbBlockTableRecord
  2
*Model_Space
340
22
  0
BLOCK_RECORD
  5
1B
330
1
100
AcDbSymbolTableRecord
100
AcDbBlockTableRecord
  2
*Paper_Space
340
1E
  0
BLOCK_RECORD
  5
23
330
1
100
AcDbSymbolTableRecord
100
AcDbBlockTableRecord
  2
*Paper_Space0
340
26
  0
BLOCK_RECORD
  5
7C
330
1
100
AcDbSymbolTableRecord
100
AcDbBlockTableRecord
  2
圖塊6
340
0
102
{BLKREFS
331
CB
102
}
  0
BLOCK_RECORD
  5
D0
330
1
100
AcDbSymbolTableRecord
100
AcDbBlockTableRecord
  2
SW_NOTE_0
340
0
102
{BLKREFS
331
D6
102
}
  0
BLOCK_RECORD
  5
107
330
1
100
AcDbSymbolTableRecord
100
AcDbBlockTableRecord
  2
SW_NOTE_1
340
0
102
{BLKREFS
331
10C
102
}
  0
BLOCK_RECORD
  5
22C
330
1
100
AcDbSymbolTableRecord
100
AcDbBlockTableRecord
  2
_D
340
0
  0
BLOCK_RECORD
  5
236
330
1
100
AcDbSymbolTableRecord
100
AcDbBlockTableRecord
  2
_D_1
340
0
  0
BLOCK_RECORD
  5
241
330
1
100
AcDbSymbolTableRecord
100
AcDbBlockTableRecord
  2
_D_2
340
0
  0
BLOCK_RECORD
  5
24B
330
1
100
AcDbSymbolTableRecord
100
AcDbBlockTableRecord
  2
_D_3
340
0
  0
BLOCK_RECORD
  5
254
330
1
100
AcDbSymbolTableRecord
100
AcDbBlockTableRecord
  2
SW_NOTE_2
340
0
102
{BLKREFS
331
259
102
}
  0
BLOCK_RECORD
  5
350
330
1
100
AcDbSymbolTableRecord
100
AcDbBlockTableRecord
  2
_D_4
340
0
  0
BLOCK_RECORD
  5
359
330
1
100
AcDbSymbolTableRecord
100
AcDbBlockTableRecord
  2
SW_CENTERMARKSYMBOL_0
340
0
102
{BLKREFS
331
364
102
}
  0
ENDTAB
  0
ENDSEC
  0
SECTION
  2
BLOCKS
  0
BLOCK
  5
20
330
1F
100
AcDbEntity
  8
0
100
AcDbBlockBegin
  2
*Model_Space
 70
     0
 10
0.0
 20
0.0
 30
0.0
  3
*Model_Space
  1

  0
ENDBLK
  5
21
330
1F
100
AcDbEntity
  8
0
100
AcDbBlockEnd
  0
BLOCK
  5
1C
330
1B
100
AcDbEntity
 67
     1
  8
0
100
AcDbBlockBegin
  2
*Paper_Space
 70
     0
 10
0.0
 20
0.0
 30
0.0
  3
*Paper_Space
  1

  0
ENDBLK
  5
1D
330
1B
100
AcDbEntity
 67
     1
  8
0
100
AcDbBlockEnd
  0
BLOCK
  5
24
330
23
100
AcDbEntity
  8
0
100
AcDbBlockBegin
  2
*Paper_Space0
 70
     0
 10
0.0
 20
0.0
 30
0.0
  3
*Paper_Space0
  1

  0
ENDBLK
  5
25
330
23
100
AcDbEntity
  8
0
100
AcDbBlockEnd
  0
BLOCK
  5
7D
330
7C
100
AcDbEntity
  8
0
100
AcDbBlockBegin
  2
圖塊6
 70
     0
 10
0.0
 20
0.0
 30
0.0
  3
圖塊6
  1

  0
ARC
  5
7F
330
7C
100
AcDbEntity
  8
圖層_1
 62
     7
370
    30
100
AcDbCircle
 10
0.510051478
 20
2.034022763
 30
0.0
 40
0.5100514779812234
100
AcDbArc
 50
130.2115225915
 51
228.588904108
  0
ARC
  5
80
330
7C
100
AcDbEntity
  8
圖層_1
 62
     7
370
    30
100
AcDbCircle
 10
1.6169711994
 20
1.9983151472
 30
0.0
 40
0.8591118089392068
100
AcDbArc
 50
140.4331765613
 51
251.0865666567
  0
ARC
  5
81
330
7C
100
AcDbEntity
  8
圖層_1
 62
     7
370
    30
100
AcDbCircle
 10
1.7255013994
 20
2.1039186571
 30
0.0
 40
0.9965455525899539
100
AcDbArc
 50
247.1485306747
 51
309.6030773927
  0
LINE
  5
82
330
7C
100
AcDbEntity
  8
圖層_1
 62
     7
370
    30
100
AcDbLine
 10
0.6162992423
 20
2.8440608661
 30
0.0
 11
0.1807564907
 21
2.4235318406
 31
0.0
  0
LINE
  5
83
330
7C
100
AcDbEntity
  8
圖層_1
 62
     7
370
    30
100
AcDbLine
 10
0.1726742967
 20
1.6514928326
 30
0.0
 11
1.5090750667
 21
0.4899582191
 31
0.0
  0
LINE
  5
84
330
7C
100
AcDbEntity
  8
圖層_1
 62
     7
370
    30
100
AcDbLine
 10
1.5090750667
 20
0.4899582191
 30
0.0
 11
1.2987244266
 21
0.284658089
 31
0.0
  0
LINE
  5
85
330
7C
100
AcDbEntity
  8
圖層_1
 62
     7
370
    30
100
AcDbLine
 10
1.2987244266
 20
0.284658089
 30
0.0
 11
1.6293508815
 21
0.0
 31
0.0
  0
LINE
  5
86
330
7C
100
AcDbEntity
  8
圖層_1
 62
     7
370
    30
100
AcDbLine
 10
2.6992390263
 20
1.0388593218
 30
0.0
 11
2.3607646824
 21
1.3361012311
 31
0.0
  0
LINE
  5
87
330
7C
100
AcDbEntity
  8
圖層_1
 62
     7
370
    30
100
AcDbLine
 10
0.9546971914
 20
2.5455502325
 30
0.0
 11
0.6162992423
 21
2.8440608661
 31
0.0
  0
LINE
  5
88
330
7C
100
AcDbEntity
  8
圖層_1
 62
     7
370
    30
100
AcDbLine
 10
1.6293508815
 20
0.0
 30
0.0
 11
2.6992390263
 21
1.0388593218
 31
0.0
  0
ENDBLK
  5
7E
330
7C
100
AcDbEntity
  8
0
100
AcDbBlockEnd
  0
BLOCK
  5
D1
330
D0
100
AcDbEntity
  8
0
100
AcDbBlockBegin
  2
SW_NOTE_0
 70
     0
 10
0.0
 20
0.0
 30
0.0
  3
SW_NOTE_0
  1

  0
MTEXT
  5
D3
330
D0
100
AcDbEntity
  8
0
  6
Continuous
 62
     0
370
     0
100
AcDbMText
 10
0.0
 20
1.1368861316
 30
0.0
 40
0.8819444444
 41
0.0
 71
     1
 72
     1
  1
PROPRIETARY AND CONFIDENTIAL
  7
SLDTEXTSTYLE1
 73
     1
 44
1.0
  0
MTEXT
  5
D4
330
D0
100
AcDbEntity
  8
0
  6
Continuous
 62
     0
370
     0
100
AcDbMText
 10
0.0
 20
-0.0273278267
 30
0.0
 40
0.6173611111
 41
0.0
 71
     1
 72
     1
  1
THE INFORMATION CONTAINED IN THIS DRAWING IS THE SOLE PROPERTY OF UNICE E-O SERVICES INC. ANY REPRODUCTION IN PART OR AS A WHOLE WITHOUT THE WRITTEN PERMISSION OF UNICE E-O SERVICES INC IS
  7
SLDTEXTSTYLE1
 73
     1
 44
1.0
  0
MTEXT
  5
D5
330
D0
100
AcDbEntity
  8
0
  6
Continuous
 62
     0
370
     0
100
AcDbMText
 10
0.0
 20
-0.8504759649
 30
0.0
 40
0.6173611111
 41
0.0
 71
     1
 72
     1
  1
PROHIBITED.
  7
SLDTEXTSTYLE1
 73
     1
 44
1.0
  0
ENDBLK
  5
D2
330
D0
100
AcDbEntity
  8
0
100
AcDbBlockEnd
  0
BLOCK
  5
108
330
107
100
AcDbEntity
  8
0
100
AcDbBlockBegin
  2
SW_NOTE_1
 70
     0
 10
0.0
 20
0.0
 30
0.0
  3
SW_NOTE_1
  1

  0
MTEXT
  5
10A
330
107
100
AcDbEntity
  8
SLD-0
 62
     0
100
AcDbMText
 10
0.0
 20
0.682131679
 30
0.0
 40
0.5291666667
 41
0.0
 71
     1
 72
     1
  1
No.5, Andong Rd., Chung Li District,
  7
SLDTEXTSTYLE1
 73
     1
 44
1.0
  0
MTEXT
  5
10B
330
107
100
AcDbEntity
  8
SLD-0
 62
     0
100
AcDbMText
 10
0.0
 20
-0.0234238681
 30
0.0
 40
0.5291666667
 41
0.0
 71
     1
 72
     1
  1
Taoyuan City 32063, Taiwan, R.O.C.
  7
SLDTEXTSTYLE1
 73
     1
 44
1.0
  0
ENDBLK
  5
109
330
107
100
AcDbEntity
  8
0
100
AcDbBlockEnd
  0
BLOCK
  5
22D
330
22C
100
AcDbEntity
  8
0
100
AcDbBlockBegin
  2
_D
 70
     0
 10
0.0
 20
0.0
 30
0.0
  3
_D
  1

  0
SOLID
  5
22F
330
22C
100
AcDbEntity
  8
DIM
100
AcDbTrace
 10
19.1049921303
 20
23.3030386551
 30
0.0
 11
19.771658797
 21
23.2197053218
 31
0.0
 12
19.771658797
 22
23.3863719885
 32
0.0
 13
19.771658797
 23
23.3863719885
 33
0.0
  0
SOLID
  5
230
330
22C
100
AcDbEntity
  8
DIM
100
AcDbTrace
 10
31.1049921303
 20
23.3030386551
 30
0.0
 11
30.4383254636
 21
23.3863719885
 31
0.0
 12
30.4383254636
 22
23.2197053218
 32
0.0
 13
30.4383254636
 23
23.2197053218
 33
0.0
  0
LINE
  5
231
330
22C
100
AcDbEntity
  8
DIM
100
AcDbLine
 10
19.1049921303
 20
27.546784744
 30
0.0
 11
19.1049921303
 21
22.9697053218
 31
0.0
  0
LINE
  5
232
330
22C
100
AcDbEntity
  8
DIM
100
AcDbLine
 10
31.1049921303
 20
27.546784744
 30
0.0
 11
31.1049921303
 21
22.9697053218
 31
0.0
  0
LINE
  5
233
330
22C
100
AcDbEntity
  8
DIM
100
AcDbLine
 10
19.1049921303
 20
23.3030386551
 30
0.0
 11
31.1049921303
 21
23.3030386551
 31
0.0
  0
MTEXT
  5
234
330
22C
100
AcDbEntity
  8
DIM
100
AcDbMText
 10
24.6081634345
 20
24.3262361348
 30
0.0
 40
0.79375
 41
0.0
 71
     1
 72
     1
  1
12
  7
SLDTEXTSTYLE2
 73
     1
 44
1.0
  0
ENDBLK
  5
22E
330
22C
100
AcDbEntity
  8
0
100
AcDbBlockEnd
  0
BLOCK
  5
237
330
236
100
AcDbEntity
  8
0
100
AcDbBlockBegin
  2
_D_1
 70
     0
 10
0.0
 20
0.0
 30
0.0
  3
_D_1
  1

  0
SOLID
  5
239
330
236
100
AcDbEntity
  8
DIM
100
AcDbTrace
 10
9.8677713764
 20
27.3801180773
 30
0.0
 11
9.9511047098
 21
28.046784744
 31
0.0
 12
9.7844380431
 22
28.046784744
 32
0.0
 13
9.7844380431
 23
28.046784744
 33
0.0
  0
SOLID
  5
23A
330
236
100
AcDbEntity
  8
DIM
100
AcDbTrace
 10
9.8677713764
 20
36.8801180773
 30
0.0
 11
9.7844380431
 21
36.2134514107
 31
0.0
 12
9.9511047098
 22
36.2134514107
 32
0.0
 13
9.9511047098
 23
36.2134514107
 33
0.0
  0
LINE
  5
23B
330
236
100
AcDbEntity
  8
DIM
100
AcDbLine
 10
19.771658797
 20
27.3801180773
 30
0.0
 11
9.5344380431
 21
27.3801180773
 31
0.0
  0
LINE
  5
23C
330
236
100
AcDbEntity
  8
DIM
100
AcDbLine
 10
19.771658797
 20
36.8801180773
 30
0.0
 11
9.5344380431
 21
36.8801180773
 31
0.0
  0
LINE
  5
23D
330
236
100
AcDbEntity
  8
DIM
100
AcDbLine
 10
9.8677713764
 20
27.3801180773
 30
0.0
 11
9.8677713764
 21
36.8801180773
 31
0.0
  0
MTEXT
  5
23E
330
236
100
AcDbEntity
  8
DIM
100
AcDbMText
 10
8.8445738192
 20
31.006373859
 30
0.0
 40
0.79375
 41
0.0
 71
     1
 72
     1
  1
%%c
  7
SLDTEXTSTYLE2
 11
-1.392757777031960E-14
 21
1.0
 31
0.0
 73
     1
 44
1.0
  0
MTEXT
  5
23F
330
236
100
AcDbEntity
  8
DIM
100
AcDbMText
 10
8.8445738192
 20
32.0117905174
 30
0.0
 40
0.79375
 41
0.0
 71
     1
 72
     1
  1
9.5
  7
SLDTEXTSTYLE2
 11
-1.392757777031960E-14
 21
1.0
 31
0.0
 73
     1
 44
1.0
  0
ENDBLK
  5
238
330
236
100
AcDbEntity
  8
0
100
AcDbBlockEnd
  0
BLOCK
  5
242
330
241
100
AcDbEntity
  8
0
100
AcDbBlockBegin
  2
_D_2
 70
     0
 10
0.0
 20
0.0
 30
0.0
  3
_D_2
  1

  0
SOLID
  5
244
330
241
100
AcDbEntity
  8
DIM
100
AcDbTrace
 10
13.1049921303
 20
21.6363719885
 30
0.0
 11
13.771658797
 21
21.5530386551
 31
0.0
 12
13.771658797
 22
21.7197053218
 32
0.0
 13
13.771658797
 23
21.7197053218
 33
0.0
  0
SOLID
  5
245
330
241
100
AcDbEntity
  8
DIM
100
AcDbTrace
 10
35.1049921303
 20
21.6363719885
 30
0.0
 11
34.4383254636
 21
21.7197053218
 31
0.0
 12
34.4383254636
 22
21.5530386551
 32
0.0
 13
34.4383254636
 23
21.5530386551
 33
0.0
  0
LINE
  5
246
330
241
100
AcDbEntity
  8
DIM
100
AcDbLine
 10
13.1049921303
 20
31.796784744
 30
0.0
 11
13.1049921303
 21
21.3030386551
 31
0.0
  0
LINE
  5
247
330
241
100
AcDbEntity
  8
DIM
100
AcDbLine
 10
35.1049921303
 20
25.4991290665
 30
0.0
 11
35.1049921303
 21
21.3030386551
 31
0.0
  0
LINE
  5
248
330
241
100
AcDbEntity
  8
DIM
100
AcDbLine
 10
13.1049921303
 20
21.6363719885
 30
0.0
 11
35.1049921303
 21
21.6363719885
 31
0.0
  0
MTEXT
  5
249
330
241
100
AcDbEntity
  8
DIM
100
AcDbMText
 10
23.6081634345
 20
22.6595694681
 30
0.0
 40
0.79375
 41
0.0
 71
     1
 72
     1
  1
22
  7
SLDTEXTSTYLE2
 73
     1
 44
1.0
  0
ENDBLK
  5
243
330
241
100
AcDbEntity
  8
0
100
AcDbBlockEnd
  0
BLOCK
  5
24C
330
24B
100
AcDbEntity
  8
0
100
AcDbBlockBegin
  2
_D_3
 70
     0
 10
0.0
 20
0.0
 30
0.0
  3
_D_3
  1

  0
SOLID
  5
24E
330
24B
100
AcDbEntity
  8
DIM
100
AcDbTrace
 10
43.1049921303
 20
19.9697053218
 30
0.0
 11
42.4383254636
 21
20.0530386551
 31
0.0
 12
42.4383254636
 22
19.8863719885
 32
0.0
 13
42.4383254636
 23
19.8863719885
 33
0.0
  0
SOLID
  5
24F
330
24B
100
AcDbEntity
  8
DIM
100
AcDbTrace
 10
13.1049921303
 20
19.9697053218
 30
0.0
 11
13.771658797
 21
19.8863719885
 31
0.0
 12
13.771658797
 22
20.0530386551
 32
0.0
 13
13.771658797
 23
20.0530386551
 33
0.0
  0
LINE
  5
250
330
24B
100
AcDbEntity
  8
DIM
100
AcDbLine
 10
43.1049921303
 20
25.4991290665
 30
0.0
 11
43.1049921303
 21
19.6363719885
 31
0.0
  0
LINE
  5
251
330
24B
100
AcDbEntity
  8
DIM
100
AcDbLine
 10
13.1049921303
 20
31.796784744
 30
0.0
 11
13.1049921303
 21
19.6363719885
 31
0.0
  0
LINE
  5
252
330
24B
100
AcDbEntity
  8
DIM
100
AcDbLine
 10
43.1049921303
 20
19.9697053218
 30
0.0
 11
13.1049921303
 21
19.9697053218
 31
0.0
  0
MTEXT
  5
253
330
24B
100
AcDbEntity
  8
DIM
100
AcDbMText
 10
27.6081634345
 20
20.9929028014
 30
0.0
 40
0.79375
 41
0.0
 71
     1
 72
     1
  1
30
  7
SLDTEXTSTYLE2
 73
     1
 44
1.0
  0
ENDBLK
  5
24D
330
24B
100
AcDbEntity
  8
0
100
AcDbBlockEnd
  0
BLOCK
  5
255
330
254
100
AcDbEntity
  8
0
100
AcDbBlockBegin
  2
SW_NOTE_2
 70
     0
 10
0.0
 20
0.0
 30
0.0
  3
SW_NOTE_2
  1

  0
LINE
  5
257
330
254
100
AcDbEntity
  8
DIM
 62
     0
100
AcDbLine
 10
-5.9710815558
 20
0.0
 30
0.0
 11
0.0
 21
0.0
 31
0.0
  0
MTEXT
  5
258
330
254
100
AcDbEntity
  8
DIM
 62
     0
100
AcDbMText
 10
-6.1184895482
 20
1.0353466305
 30
0.0
 40
0.79375
 41
0.0
 71
     1
 72
     1
  1
M6x0.25 THD
  7
SLDTEXTSTYLE2
 73
     1
 44
1.0
  0
ENDBLK
  5
256
330
254
100
AcDbEntity
  8
0
100
AcDbBlockEnd
  0
BLOCK
  5
351
330
350
100
AcDbEntity
  8
0
100
AcDbBlockBegin
  2
_D_4
 70
     0
 10
0.0
 20
0.0
 30
0.0
  3
_D_4
  1

  0
ARC
  5
353
330
350
100
AcDbEntity
  8
DIM
100
AcDbCircle
 10
58.2974066527
 20
32.1301180773
 30
0.0
 40
6.500000000000001
100
AcDbArc
 50
42.3406759341
 51
44.5779003032
  0
SOLID
  5
354
330
350
100
AcDbEntity
  8
DIM
100
AcDbTrace
 10
62.8713789616
 20
36.7484270013
 30
0.0
 11
63.3997134154
 21
37.1634590408
 31
0.0
 12
63.2812952378
 22
37.2807403821
 32
0.0
 13
63.2812952378
 23
37.2807403821
 33
0.0
  0
LINE
  5
355
330
350
100
AcDbEntity
  8
DIM
100
AcDbLine
 10
62.8713789616
 20
36.7484270013
 30
0.0
 11
66.9356550585
 21
40.8520991052
 31
0.0
  0
LINE
  5
356
330
350
100
AcDbEntity
  8
DIM
100
AcDbLine
 10
66.9356550585
 20
40.8520991052
 30
0.0
 11
69.3513956974
 21
40.8520991052
 31
0.0
  0
MTEXT
  5
357
330
350
100
AcDbEntity
  8
DIM
100
AcDbMText
 10
67.3523217251
 20
41.8752966624
 30
0.0
 40
0.79375
 41
0.0
 71
     1
 72
     1
  1
%%c
  7
SLDTEXTSTYLE2
 73
     1
 44
1.0
  0
MTEXT
  5
358
330
350
100
AcDbEntity
  8
DIM
100
AcDbMText
 10
68.3577383835
 20
41.8752966624
 30
0.0
 40
0.79375
 41
0.0
 71
     1
 72
     1
  1
13
  7
SLDTEXTSTYLE2
 73
     1
 44
1.0
  0
ENDBLK
  5
352
330
350
100
AcDbEntity
  8
0
100
AcDbBlockEnd
  0
BLOCK
  5
35A
330
359
100
AcDbEntity
  8
0
100
AcDbBlockBegin
  2
SW_CENTERMARKSYMBOL_0
 70
     0
 10
0.0
 20
0.0
 30
0.0
  3
SW_CENTERMARKSYMBOL_0
  1

  0
LINE
  5
35C
330
359
100
AcDbEntity
  8
DIM
 62
     0
100
AcDbLine
 10
0.0
 20
0.0
 30
0.0
 11
0.0
 21
1.0
 31
0.0
  0
LINE
  5
35D
330
359
100
AcDbEntity
  8
DIM
 62
     0
100
AcDbLine
 10
0.0
 20
0.0
 30
0.0
 11
-1.0
 21
0.0
 31
0.0
  0
LINE
  5
35E
330
359
100
AcDbEntity
  8
DIM
 62
     0
100
AcDbLine
 10
0.0
 20
0.0
 30
0.0
 11
0.0
 21
-1.0
 31
0.0
  0
LINE
  5
35F
330
359
100
AcDbEntity
  8
DIM
 62
     0
100
AcDbLine
 10
0.0
 20
0.0
 30
0.0
 11
1.0
 21
0.0
 31
0.0
  0
LINE
  5
360
330
359
100
AcDbEntity
  8
DIM
 62
     0
100
AcDbLine
 10
0.0
 20
2.0
 30
0.0
 11
0.0
 21
7.5
 31
0.0
  0
LINE
  5
361
330
359
100
AcDbEntity
  8
DIM
 62
     0
100
AcDbLine
 10
-2.0
 20
0.0
 30
0.0
 11
-7.5
 21
0.0
 31
0.0
  0
LINE
  5
362
330
359
100
AcDbEntity
  8
DIM
 62
     0
100
AcDbLine
 10
0.0
 20
-2.0
 30
0.0
 11
0.0
 21
-7.5
 31
0.0
  0
LINE
  5
363
330
359
100
AcDbEntity
  8
DIM
 62
     0
100
AcDbLine
 10
2.0
 20
0.0
 30
0.0
 11
7.5
 21
0.0
 31
0.0
  0
ENDBLK
  5
35B
330
359
100
AcDbEntity
  8
0
100
AcDbBlockEnd
  0
ENDSEC
  0
SECTION
  2
ENTITIES
  0
HATCH
  5
89
330
1F
100
AcDbEntity
  8
0
  6
Continuous
 62
     7
100
AcDbHatch
 10
0.0
 20
0.0
 30
0.0
210
0.0
220
0.0
230
1.0
  2
SOLID
 70
     1
 71
     0
 91
        1
 92
        0
 93
       10
 72
     2
 10
64.04686552097888
 20
11.91860293662952
 40
0.9965455525899529
 50
50.39692260731403
 51
112.8514693252978
 73
     0
 72
     2
 10
63.93833532093733
 20
11.81299942668735
 40
0.8591118089392061
 50
108.9134333432863
 51
219.5668234386826
 73
     0
 72
     1
 10
63.27606131298678
 20
12.36023451205003
 11
62.93766336385263
 21
12.65874514565595
 72
     1
 10
62.93766336385263
 20
12.65874514565595
 11
62.50212061222541
 21
12.23821612015345
 72
     2
 10
62.8314155995463
 20
11.84870704257482
 40
0.5100514779812205
 50
130.2115225915086
 51
228.5889041080189
 73
     1
 72
     1
 10
62.494038418217
 20
11.46617711209992
 11
63.8304391882822
 21
10.30464249867503
 72
     1
 10
63.8304391882822
 20
10.30464249867503
 11
63.62008854814383
 21
10.09934236851802
 72
     1
 10
63.62008854814383
 20
10.09934236851802
 11
63.95071500305234
 21
9.814684279533413
 72
     1
 10
63.95071500305234
 20
9.814684279533413
 11
65.02060314784076
 21
10.85354360137191
 72
     1
 10
65.02060314784076
 20
10.85354360137191
 11
64.6821288039547
 21
11.15078551061628
 97
        0
 75
     0
 76
     1
 98
        1
 10
0.0
 20
0.0
  0
HATCH
  5
8A
330
1F
100
AcDbEntity
  8
0
  6
Continuous
 62
     1
100
AcDbHatch
 10
0.0
 20
0.0
 30
0.0
210
0.0
220
0.0
230
1.0
  2
SOLID
 70
     1
 71
     0
 91
        1
 92
        0
 93
       10
 72
     2
 10
64.19641518758961
 20
11.88768971877203
 40
0.8591891627820832
 50
317.8184992995789
 51
398.0564711573074
 73
     0
 72
     1
 10
64.87294380193877
 20
11.35805300232482
 11
65.20142676626637
 21
11.07182068902832
 72
     1
 10
65.20142676626637
 20
11.07182068902832
 11
65.61532053786429
 21
11.4732983364974
 72
     2
 10
65.31752309597692
 20
11.88261391377104
 40
0.5061843124727551
 50
306.0377529468134
 51
403.4396461533869
 73
     1
 72
     1
 10
65.6850630508677
 20
12.23066123778375
 11
64.30947776475325
 21
13.4270533273284
 72
     1
 10
64.30947776475325
 20
13.4270533273284
 11
64.51756153206235
 21
13.63007280427419
 72
     1
 10
64.51756153206235
 20
13.63007280427419
 11
64.20739269533433
 21
13.90680354422235
 72
     1
 10
64.20739269533433
 20
13.90680354422235
 11
63.12886421253104
 21
12.86449679535099
 72
     1
 10
63.12886421253104
 20
12.86449679535099
 11
63.46966683831389
 21
12.56723328631073
 72
     2
 10
64.09052975734812
 20
11.70741578361264
 40
1.060545568175959
 50
234.1674444878511
 51
314.4407074583995
 73
     0
 97
        0
 75
     0
 76
     1
 98
        1
 10
0.0
 20
0.0
  0
LINE
  5
8B
330
1F
100
AcDbEntity
  8
0
  6
Continuous
 62
     7
370
     0
100
AcDbLine
 10
55.9531258395
 20
5.9248397504
 30
0.0
 11
56.2864591728
 21
5.9248397504
 31
0.0
  0
LINE
  5
8C
330
1F
100
AcDbEntity
  8
0
  6
Continuous
 62
     7
370
     0
100
AcDbLine
 10
54.9531258395
 20
5.9248397504
 30
0.0
 11
55.7864591728
 21
5.9248397504
 31
0.0
  0
LINE
  5
8D
330
1F
100
AcDbEntity
  8
0
  6
Continuous
 62
     7
370
     0
100
AcDbLine
 10
60.4531258395
 20
5.0915064171
 30
0.0
 11
60.4531258395
 21
6.7581730838
 31
0.0
  0
LINE
  5
8E
330
1F
100
AcDbEntity
  8
0
  6
Continuous
 62
     7
370
     0
100
AcDbLine
 10
58.1197925062
 20
5.4248397504
 30
0.0
 11
60.4531258395
 21
5.0915064171
 31
0.0
  0
LINE
  5
8F
330
1F
100
AcDbEntity
  8
0
  6
Continuous
 62
     7
370
     0
100
AcDbLine
 10
56.1197925062
 20
5.5915064171
 30
0.0
 11
56.1197925062
 21
4.7581730838
 31
0.0
  0
LINE
  5
90
330
1F
100
AcDbEntity
  8
0
  6
Continuous
 62
     7
370
     0
100
AcDbLine
 10
60.4531258395
 20
6.7581730838
 30
0.0
 11
58.1197925062
 21
6.4248397504
 31
0.0
  0
LINE
  5
91
330
1F
100
AcDbEntity
  8
0
  6
Continuous
 62
     7
370
     0
100
AcDbLine
 10
57.7864591728
 20
5.9248397504
 30
0.0
 11
60.7864591728
 21
5.9248397504
 31
0.0
  0
LINE
  5
92
330
1F
100
AcDbEntity
  8
0
  6
Continuous
 62
     7
370
     0
100
AcDbLine
 10
56.1197925062
 20
6.0915064171
 30
0.0
 11
56.1197925062
 21
5.7581730838
 31
0.0
  0
LINE
  5
93
330
1F
100
AcDbEntity
  8
0
  6
Continuous
 62
     7
370
     0
100
AcDbLine
 10
56.4531258395
 20
5.9248397504
 30
0.0
 11
57.2864591728
 21
5.9248397504
 31
0.0
  0
LINE
  5
94
330
1F
100
AcDbEntity
  8
0
  6
Continuous
 62
     7
370
     0
100
AcDbLine
 10
56.1197925062
 20
7.0915064171
 30
0.0
 11
56.1197925062
 21
6.2581730838
 31
0.0
  0
LINE
  5
95
330
1F
100
AcDbEntity
  8
0
  6
Continuous
 62
     7
370
     0
100
AcDbLine
 10
58.1197925062
 20
6.4248397504
 30
0.0
 11
58.1197925062
 21
5.4248397504
 31
0.0
  0
LINE
  5
96
330
1F
100
AcDbEntity
  8
工作區域參考線
 62
     1
370
    30
100
AcDbLine
 10
63.4696668383
 20
12.5672332863
 30
0.0
 11
63.1288642125
 21
12.8644967954
 31
0.0
  0
LINE
  5
97
330
1F
100
AcDbEntity
  8
工作區域參考線
 62
     1
370
    30
100
AcDbLine
 10
63.1288642125
 20
12.8644967954
 30
0.0
 11
64.2073926953
 21
13.9068035442
 31
0.0
  0
LINE
  5
98
330
1F
100
AcDbEntity
  8
工作區域參考線
 62
     1
370
    30
100
AcDbLine
 10
64.2073926953
 20
13.9068035442
 30
0.0
 11
64.5175615321
 21
13.6300728043
 31
0.0
  0
LINE
  5
99
330
1F
100
AcDbEntity
  8
工作區域參考線
 62
     1
370
    30
100
AcDbLine
 10
64.5175615321
 20
13.6300728043
 30
0.0
 11
64.3094777648
 21
13.4270533273
 31
0.0
  0
LINE
  5
9A
330
1F
100
AcDbEntity
  8
工作區域參考線
 62
     1
370
    30
100
AcDbLine
 10
64.3094777648
 20
13.4270533273
 30
0.0
 11
65.6850630509
 21
12.2306612378
 31
0.0
  0
LINE
  5
9B
330
1F
100
AcDbEntity
  8
工作區域參考線
 62
     1
370
    30
100
AcDbLine
 10
64.8729438019
 20
11.3580530023
 30
0.0
 11
65.2014267663
 21
11.071820689
 31
0.0
  0
LINE
  5
9C
330
1F
100
AcDbEntity
  8
工作區域參考線
 62
     1
370
    30
100
AcDbLine
 10
65.2014267663
 20
11.071820689
 30
0.0
 11
65.6153205379
 21
11.4732983365
 31
0.0
  0
LINE
  5
9D
330
1F
100
AcDbEntity
  8
0
  6
Continuous
 62
     7
370
     0
100
AcDbLine
 10
61.8969321736
 20
4.3717488026
 30
0.0
 11
95.230265507
 21
4.3717488026
 31
0.0
  0
LINE
  5
9E
330
1F
100
AcDbEntity
  8
0
  6
Continuous
 62
     7
370
     0
100
AcDbLine
 10
61.8969321736
 20
6.0384154693
 30
0.0
 11
78.5635988403
 21
6.0384154693
 31
0.0
  0
LINE
  5
9F
330
1F
100
AcDbEntity
  8
0
  6
Continuous
 62
     7
370
     0
100
AcDbLine
 10
61.8969321736
 20
7.705082136
 30
0.0
 11
78.5635988403
 21
7.705082136
 31
0.0
  0
LINE
  5
A0
330
1F
100
AcDbEntity
  8
0
  6
Continuous
 62
     7
370
     0
100
AcDbLine
 10
61.8969321736
 20
9.3717488026
 30
0.0
 11
95.230265507
 21
9.3717488026
 31
0.0
  0
LINE
  5
A1
330
1F
100
AcDbEntity
  8
0
  6
Continuous
 62
     7
370
     0
100
AcDbLine
 10
78.5635988403
 20
11.0384154693
 30
0.0
 11
95.230265507
 21
11.0384154693
 31
0.0
  0
LINE
  5
A2
330
1F
100
AcDbEntity
  8
0
  6
Continuous
 62
     7
370
    15
100
AcDbLine
 10
78.5635988403
 20
6.0384154693
 30
0.0
 11
95.230265507
 21
6.0384154693
 31
0.0
  0
LINE
  5
A3
330
1F
100
AcDbEntity
  8
0
  6
Continuous
 62
     7
370
     0
100
AcDbLine
 10
61.8969321736
 20
14.3717488026
 30
0.0
 11
95.230265507
 21
14.3717488026
 31
0.0
  0
LINE
  5
A4
330
1F
100
AcDbEntity
  8
0
  6
Continuous
 62
     7
370
     0
100
AcDbLine
 10
83.745739225
 20
2.705082136
 30
0.0
 11
83.745739225
 21
6.0384154693
 31
0.0
  0
LINE
  5
A5
330
1F
100
AcDbEntity
  8
0
  6
Continuous
 62
     7
370
     0
100
AcDbLine
 10
78.5635988403
 20
2.705082136
 30
0.0
 11
78.5635988403
 21
14.3717488026
 31
0.0
  0
LINE
  5
A6
330
1F
100
AcDbEntity
  8
0
  6
Continuous
 62
     7
370
     0
100
AcDbLine
 10
83.745739225
 20
9.3717488026
 30
0.0
 11
83.745739225
 21
11.0384154693
 31
0.0
  0
LINE
  5
A7
330
1F
100
AcDbEntity
  8
0
  6
Continuous
 62
     7
370
     0
100
AcDbLine
 10
71.4721362118
 20
2.705082136
 30
0.0
 11
71.4721362118
 21
9.3717488026
 31
0.0
  0
LINE
  5
A8
330
1F
100
AcDbEntity
  8
0
  6
Continuous
 62
     7
370
     0
100
AcDbLine
 10
66.5928629169
 20
2.705082136
 30
0.0
 11
66.5928629169
 21
9.3717488026
 31
0.0
  0
LINE
  5
A9
330
1F
100
AcDbEntity
  8
0
  6
Continuous
 62
     7
370
     0
100
AcDbLine
 10
61.8969321736
 20
2.705082136
 30
0.0
 11
61.8969321736
 21
14.3717488026
 31
0.0
  0
LINE
  5
AA
330
1F
100
AcDbEntity
  8
0
  6
Continuous
 62
     7
370
    15
100
AcDbLine
 10
14.440265507
 20
67.1240091917
 30
0.0
 11
14.440265507
 21
67.6240091917
 31
0.0
  0
LINE
  5
AB
330
1F
100
AcDbEntity
  8
0
  6
Continuous
 62
     7
370
    15
100
AcDbLine
 10
25.9835988403
 20
67.1240091917
 30
0.0
 11
25.9835988403
 21
67.6240091917
 31
0.0
  0
LINE
  5
AC
330
1F
100
AcDbEntity
  8
0
  6
Continuous
 62
     7
370
    15
100
AcDbLine
 10
37.5269321736
 20
67.1240091917
 30
0.0
 11
37.5269321736
 21
67.6240091917
 31
0.0
  0
LINE
  5
AD
330
1F
100
AcDbEntity
  8
0
  6
Continuous
 62
     7
370
    15
100
AcDbLine
 10
49.070265507
 20
67.1240091917
 30
0.0
 11
49.070265507
 21
67.6240091917
 31
0.0
  0
LINE
  5
AE
330
1F
100
AcDbEntity
  8
0
  6
Continuous
 62
     7
370
    15
100
AcDbLine
 10
60.6135988403
 20
67.1240091917
 30
0.0
 11
60.6135988403
 21
67.6240091917
 31
0.0
  0
LINE
  5
AF
330
1F
100
AcDbEntity
  8
0
  6
Continuous
 62
     7
370
    15
100
AcDbLine
 10
72.1569321736
 20
67.1240091917
 30
0.0
 11
72.1569321736
 21
67.6240091917
 31
0.0
  0
LINE
  5
B0
330
1F
100
AcDbEntity
  8
0
  6
Continuous
 62
     7
370
    15
100
AcDbLine
 10
83.700265507
 20
67.1240091917
 30
0.0
 11
83.700265507
 21
67.6240091917
 31
0.0
  0
LINE
  5
B1
330
1F
100
AcDbEntity
  8
0
  6
Continuous
 62
     7
370
    15
100
AcDbLine
 10
14.4385988403
 20
2.705082136
 30
0.0
 11
14.4385988403
 21
2.205082136
 31
0.0
  0
LINE
  5
B2
330
1F
100
AcDbEntity
  8
0
  6
Continuous
 62
     7
370
    15
100
AcDbLine
 10
25.980265507
 20
2.705082136
 30
0.0
 11
25.980265507
 21
2.205082136
 31
0.0
  0
LINE
  5
B3
330
1F
100
AcDbEntity
  8
0
  6
Continuous
 62
     7
370
    15
100
AcDbLine
 10
37.5219321736
 20
2.705082136
 30
0.0
 11
37.5219321736
 21
2.205082136
 31
0.0
  0
LINE
  5
B4
330
1F
100
AcDbEntity
  8
0
  6
Continuous
 62
     7
370
    15
100
AcDbLine
 10
49.0635988403
 20
2.705082136
 30
0.0
 11
49.0635988403
 21
2.205082136
 31
0.0
  0
LINE
  5
B5
330
1F
100
AcDbEntity
  8
0
  6
Continuous
 62
     7
370
    15
100
AcDbLine
 10
60.605265507
 20
2.705082136
 30
0.0
 11
60.605265507
 21
2.205082136
 31
0.0
  0
LINE
  5
B6
330
1F
100
AcDbEntity
  8
0
  6
Continuous
 62
     7
370
    15
100
AcDbLine
 10
72.1469321736
 20
2.705082136
 30
0.0
 11
72.1469321736
 21
2.205082136
 31
0.0
  0
LINE
  5
B7
330
1F
100
AcDbEntity
  8
0
  6
Continuous
 62
     7
370
     0
100
AcDbLine
 10
95.230265507
 20
67.1240091917
 30
0.0
 11
2.8969321736
 21
67.1240091917
 31
0.0
  0
LINE
  5
B8
330
1F
100
AcDbEntity
  8
0
  6
Continuous
 62
     7
370
     0
100
AcDbLine
 10
95.230265507
 20
2.705082136
 30
0.0
 11
95.230265507
 21
67.1240091917
 31
0.0
  0
LINE
  5
B9
330
1F
100
AcDbEntity
  8
0
  6
Continuous
 62
     7
370
     0
100
AcDbLine
 10
2.8969321736
 20
67.1240091917
 30
0.0
 11
2.8969321736
 21
2.705082136
 31
0.0
  0
LINE
  5
BA
330
1F
100
AcDbEntity
  8
0
  6
Continuous
 62
     7
370
     0
100
AcDbLine
 10
2.8969321736
 20
2.705082136
 30
0.0
 11
95.230265507
 21
2.705082136
 31
0.0
  0
LINE
  5
BB
330
1F
100
AcDbEntity
  8
0
  6
Continuous
 62
     7
370
    15
100
AcDbLine
 10
83.6885988403
 20
2.705082136
 30
0.0
 11
83.6885988403
 21
2.205082136
 31
0.0
  0
LINE
  5
BC
330
1F
100
AcDbEntity
  8
0
  6
Continuous
 62
     7
370
    15
100
AcDbLine
 10
2.8969321736
 20
13.4417488026
 30
0.0
 11
2.3969321736
 21
13.4417488026
 31
0.0
  0
LINE
  5
BD
330
1F
100
AcDbEntity
  8
0
  6
Continuous
 62
     7
370
    15
100
AcDbLine
 10
2.8969321736
 20
24.1784154693
 30
0.0
 11
2.3969321736
 21
24.1784154693
 31
0.0
  0
LINE
  5
BE
330
1F
100
AcDbEntity
  8
0
  6
Continuous
 62
     7
370
    15
100
AcDbLine
 10
2.8969321736
 20
34.915082136
 30
0.0
 11
2.3969321736
 21
34.915082136
 31
0.0
  0
LINE
  5
BF
330
1F
100
AcDbEntity
  8
0
  6
Continuous
 62
     7
370
    15
100
AcDbLine
 10
2.8969321736
 20
45.6517488026
 30
0.0
 11
2.3969321736
 21
45.6517488026
 31
0.0
  0
LINE
  5
C0
330
1F
100
AcDbEntity
  8
0
  6
Continuous
 62
     7
370
    15
100
AcDbLine
 10
2.8969321736
 20
56.3884154693
 30
0.0
 11
2.3969321736
 21
56.3884154693
 31
0.0
  0
LINE
  5
C1
330
1F
100
AcDbEntity
  8
0
  6
Continuous
 62
     7
370
    15
100
AcDbLine
 10
95.230265507
 20
13.4417488026
 30
0.0
 11
95.730265507
 21
13.4417488026
 31
0.0
  0
LINE
  5
C2
330
1F
100
AcDbEntity
  8
0
  6
Continuous
 62
     7
370
    15
100
AcDbLine
 10
95.230265507
 20
24.1784154693
 30
0.0
 11
95.730265507
 21
24.1784154693
 31
0.0
  0
LINE
  5
C3
330
1F
100
AcDbEntity
  8
0
  6
Continuous
 62
     7
370
    15
100
AcDbLine
 10
95.230265507
 20
34.915082136
 30
0.0
 11
95.730265507
 21
34.915082136
 31
0.0
  0
LINE
  5
C4
330
1F
100
AcDbEntity
  8
0
  6
Continuous
 62
     7
370
    15
100
AcDbLine
 10
95.230265507
 20
45.6517488026
 30
0.0
 11
95.730265507
 21
45.6517488026
 31
0.0
  0
LINE
  5
C5
330
1F
100
AcDbEntity
  8
0
  6
Continuous
 62
     7
370
    15
100
AcDbLine
 10
95.230265507
 20
56.3884154693
 30
0.0
 11
95.730265507
 21
56.3884154693
 31
0.0
  0
CIRCLE
  5
C6
330
1F
100
AcDbEntity
  8
0
  6
Continuous
 62
     7
370
     0
100
AcDbCircle
 10
56.1197925062
 20
5.9248397504
 30
0.0
 40
0.5
  0
CIRCLE
  5
C7
330
1F
100
AcDbEntity
  8
0
  6
Continuous
 62
     7
370
     0
100
AcDbCircle
 10
56.1197925062
 20
5.9248397504
 30
0.0
 40
0.8333333333333215
  0
ARC
  5
C8
330
1F
100
AcDbEntity
  8
工作區域參考線
 62
     1
370
    30
100
AcDbCircle
 10
65.317523096
 20
11.8826139138
 30
0.0
 40
0.5061843124727613
100
AcDbArc
 50
306.0377529468
 51
43.4396461534
  0
ARC
  5
C9
330
1F
100
AcDbEntity
  8
工作區域參考線
 62
     1
370
    30
100
AcDbCircle
 10
64.0905297573
 20
11.7074157836
 30
0.0
 40
1.060545568175971
100
AcDbArc
 50
45.5592925416
 51
125.8325555121
  0
ARC
  5
CA
330
1F
100
AcDbEntity
  8
工作區域參考線
 62
     1
370
    30
100
AcDbCircle
 10
64.1964151876
 20
11.8876897188
 30
0.0
 40
0.8591891627820911
100
AcDbArc
 50
321.9435288427
 51
42.1815007004
  0
INSERT
  5
CB
330
1F
100
AcDbEntity
  8
0
  6
Continuous
 62
     7
100
AcDbBlockReference
  2
圖塊6
 10
62.3213641216
 20
9.8146842795
 30
0.0
  0
MTEXT
  5
CD
330
1F
100
AcDbEntity
  8
DIM
 62
     7
100
AcDbMText
 10
70.7250836835
 20
-1.0637623211
 30
0.0
 40
0.8333333333
 41
0.0
 71
     1
 72
     1
  1
(               g )
  7
SLDTEXTSTYLE0
 73
     1
 44
1.0
  0
MTEXT
  5
CF
330
1F
100
AcDbEntity
  8
0
  6
Continuous
 62
     7
370
     0
100
AcDbMText
 10
55.1808950268
 20
4.4069480123
 30
0.0
 40
0.8819444444
 41
0.0
 71
     1
 72
     1
  1
UNIT:m/m
  7
SLDTEXTSTYLE1
 73
     1
 44
1.0
  0
INSERT
  5
D6
330
1F
100
AcDbEntity
  8
0
  6
Continuous
 62
     7
370
     0
100
AcDbBlockReference
  2
SW_NOTE_0
 10
4.0771692018
 20
64.630143475
 30
0.0
  0
MTEXT
  5
D7
330
1F
100
AcDbEntity
  8
0
  6
Continuous
 62
     7
370
     0
100
AcDbMText
 10
66.2417297978
 20
13.4802258046
 30
0.0
 40
0.79375
 41
0.0
 71
     1
 72
     1
  1
Unice E-O Services Inc.
  7
SLDTEXTSTYLE1
 73
     1
 44
1.0
  0
MTEXT
  5
D8
330
1F
100
AcDbEntity
  8
0
  6
Continuous
 62
     7
370
     0
100
AcDbMText
 10
72.519684605
 20
7.195571617
 30
0.0
 40
0.6173611111
 41
0.0
 71
     1
 72
     1
  1
2018/9/11
  7
SLDTEXTSTYLE1
 73
     1
 44
1.0
  0
MTEXT
  5
D9
330
1F
100
AcDbEntity
  8
0
  6
Continuous
 62
     7
370
     0
100
AcDbMText
 10
84.2029660836
 20
5.6237259133
 30
0.0
 40
0.8333333333
 41
0.0
 71
     1
 72
     1
  1
3:1
  7
SLDTEXTSTYLE1
 73
     1
 44
1.0
  0
MTEXT
  5
DA
330
1F
100
AcDbEntity
  8
0
  6
Continuous
 62
     7
370
     0
100
AcDbMText
 10
84.1025199995
 20
10.7173065146
 30
0.0
 40
0.8333333333
 41
0.0
 71
     1
 72
     1
  1
07SRW-3
  7
SLDTEXTSTYLE1
 73
     1
 44
1.0
  0
MTEXT
  5
DB
330
1F
100
AcDbEntity
  8
0
  6
Continuous
 62
     7
370
     0
100
AcDbMText
 10
84.1025199995
 20
12.7027372626
 30
0.0
 40
0.8333333333
 41
0.0
 71
     1
 72
     1
  1
07SRW-3
  7
SLDTEXTSTYLE1
 73
     1
 44
1.0
  0
MTEXT
  5
DC
330
1F
100
AcDbEntity
  8
0
  6
Continuous
 62
     7
370
     0
100
AcDbMText
 10
78.7973955595
 20
5.5021598576
 30
0.0
 40
0.7055555556
 41
0.0
 71
     1
 72
     1
  1
SCALE:
  7
SLDTEXTSTYLE1
 73
     1
 44
1.0
  0
MTEXT
  5
DD
330
1F
100
AcDbEntity
  8
0
  6
Continuous
 62
     7
370
     0
100
AcDbMText
 10
62.111202893
 20
7.195571617
 30
0.0
 40
0.6173611111
 41
0.0
 71
     1
 72
     1
  1
DRAWN
  7
SLDTEXTSTYLE1
 73
     1
 44
1.0
  0
MTEXT
  5
DE
330
1F
100
AcDbEntity
  8
0
  6
Continuous
 62
     7
370
     0
100
AcDbMText
 10
67.7409455979
 20
8.8944027693
 30
0.0
 40
0.6173611111
 41
0.0
 71
     1
 72
     1
  1
NAME
  7
SLDTEXTSTYLE1
 73
     1
 44
1.0
  0
MTEXT
  5
DF
330
1F
100
AcDbEntity
  8
0
  6
Continuous
 62
     7
370
     0
100
AcDbMText
 10
73.6236718586
 20
8.8944027693
 30
0.0
 40
0.6173611111
 41
0.0
 71
     1
 72
     1
  1
DATE
  7
SLDTEXTSTYLE1
 73
     1
 44
1.0
  0
MTEXT
  5
E0
330
1F
100
AcDbEntity
  8
0
  6
Continuous
 62
     7
370
     0
100
AcDbMText
 10
78.7585438882
 20
10.5957404589
 30
0.0
 40
0.7055555556
 41
0.0
 71
     1
 72
     1
  1
DWG. NO.
  7
SLDTEXTSTYLE1
 73
     1
 44
1.0
  0
MTEXT
  5
E1
330
1F
100
AcDbEntity
  8
0
  6
Continuous
 62
     7
370
     0
100
AcDbMText
 10
78.7876635696
 20
13.9613552748
 30
0.0
 40
0.7055555556
 41
0.0
 71
     1
 72
     1
  1
TITLE:
  7
SLDTEXTSTYLE1
 73
     1
 44
1.0
  0
MTEXT
  5
E2
330
1F
100
AcDbEntity
  8
0
  6
Continuous
 62
     7
370
     0
100
AcDbMText
 10
67.6771403267
 20
5.4134596575
 30
0.0
 40
0.6173611111
 41
0.0
 71
     1
 72
     1
  1
Johnny
  7
SLDTEXTSTYLE1
 73
     1
 44
1.0
  0
MTEXT
  5
E3
330
1F
100
AcDbEntity
  8
0
  6
Continuous
 62
     7
370
     0
100
AcDbMText
 10
72.519684605
 20
5.4134596575
 30
0.0
 40
0.6173611111
 41
0.0
 71
     1
 72
     1
  1
2018/9/11
  7
SLDTEXTSTYLE1
 73
     1
 44
1.0
  0
MTEXT
  5
E4
330
1F
100
AcDbEntity
  8
0
  6
Continuous
 62
     7
370
     0
100
AcDbMText
 10
62.111202893
 20
5.4134596575
 30
0.0
 40
0.6173611111
 41
0.0
 71
     1
 72
     1
  1
ENG APPR.
  7
SLDTEXTSTYLE1
 73
     1
 44
1.0
  0
MTEXT
  5
E5
330
1F
100
AcDbEntity
  8
0
  6
Continuous
 62
     7
370
     0
100
AcDbMText
 10
78.7973955595
 20
3.8951129763
 30
0.0
 40
0.7055555556
 41
0.0
 71
     1
 72
     1
  1
REV
  7
SLDTEXTSTYLE1
 73
     1
 44
1.0
  0
MTEXT
  5
E6
330
1F
100
AcDbEntity
  8
0
  6
Continuous
 62
     7
370
     0
100
AcDbMText
 10
78.7876635696
 20
8.9831029695
 30
0.0
 40
0.7055555556
 41
0.0
 71
     1
 72
     1
  1
MATERIAL:
  7
SLDTEXTSTYLE1
 73
     1
 44
1.0
  0
MTEXT
  5
E7
330
1F
100
AcDbEntity
  8
0
  6
Continuous
 62
     7
370
     0
100
AcDbMText
 10
84.2029660836
 20
7.4058378729
 30
0.0
 40
0.8333333333
 41
0.0
 71
     1
 72
     1
  1
N/A
  7
SLDTEXTSTYLE1
 73
     1
 44
1.0
  0
MTEXT
  5
E8
330
1F
100
AcDbEntity
  8
0
  6
Continuous
 62
     7
370
     0
100
AcDbMText
 10
8.8676643844
 20
68.151117219
 30
0.0
 40
0.7055555556
 41
0.0
 71
     1
 72
     1
  1
1
  7
SLDTEXTSTYLE1
 73
     1
 44
1.0
  0
MTEXT
  5
E9
330
1F
100
AcDbEntity
  8
0
  6
Continuous
 62
     7
370
     0
100
AcDbMText
 10
20.2390331908
 20
68.151117219
 30
0.0
 40
0.7055555556
 41
0.0
 71
     1
 72
     1
  1
2
  7
SLDTEXTSTYLE1
 73
     1
 44
1.0
  0
MTEXT
  5
EA
330
1F
100
AcDbEntity
  8
0
  6
Continuous
 62
     7
370
     0
100
AcDbMText
 10
31.6336647969
 20
68.151117219
 30
0.0
 40
0.7055555556
 41
0.0
 71
     1
 72
     1
  1
3
  7
SLDTEXTSTYLE1
 73
     1
 44
1.0
  0
MTEXT
  5
EB
330
1F
100
AcDbEntity
  8
0
  6
Continuous
 62
     7
370
     0
100
AcDbMText
 10
43.0844454284
 20
68.0997528121
 30
0.0
 40
0.7055555556
 41
0.0
 71
     1
 72
     1
  1
4
  7
SLDTEXTSTYLE1
 73
     1
 44
1.0
  0
MTEXT
  5
EC
330
1F
100
AcDbEntity
  8
0
  6
Continuous
 62
     7
370
     0
100
AcDbMText
 10
54.5674411547
 20
68.151117219
 30
0.0
 40
0.7055555556
 41
0.0
 71
     1
 72
     1
  1
5
  7
SLDTEXTSTYLE1
 73
     1
 44
1.0
  0
MTEXT
  5
ED
330
1F
100
AcDbEntity
  8
0
  6
Continuous
 62
     7
370
     0
100
AcDbMText
 10
66.2127390138
 20
68.151117219
 30
0.0
 40
0.7055555556
 41
0.0
 71
     1
 72
     1
  1
6
  7
SLDTEXTSTYLE1
 73
     1
 44
1.0
  0
MTEXT
  5
EE
330
1F
100
AcDbEntity
  8
0
  6
Continuous
 62
     7
370
     0
100
AcDbMText
 10
78.1210219136
 20
68.151117219
 30
0.0
 40
0.7055555556
 41
0.0
 71
     1
 72
     1
  1
7
  7
SLDTEXTSTYLE1
 73
     1
 44
1.0
  0
MTEXT
  5
EF
330
1F
100
AcDbEntity
  8
0
  6
Continuous
 62
     7
370
     0
100
AcDbMText
 10
88.7595940165
 20
68.151117219
 30
0.0
 40
0.7055555556
 41
0.0
 71
     1
 72
     1
  1
8
  7
SLDTEXTSTYLE1
 73
     1
 44
1.0
  0
MTEXT
  5
F0
330
1F
100
AcDbEntity
  8
0
  6
Continuous
 62
     7
370
     0
100
AcDbMText
 10
1.7856078852
 20
61.9371007626
 30
0.0
 40
0.7055555556
 41
0.0
 71
     1
 72
     1
  1
A
  7
SLDTEXTSTYLE1
 73
     1
 44
1.0
  0
MTEXT
  5
F1
330
1F
100
AcDbEntity
  8
0
  6
Continuous
 62
     7
370
     0
100
AcDbMText
 10
1.863681061
 20
51.4331016079
 30
0.0
 40
0.7055555556
 41
0.0
 71
     1
 72
     1
  1
B
  7
SLDTEXTSTYLE1
 73
     1
 44
1.0
  0
MTEXT
  5
F2
330
1F
100
AcDbEntity
  8
0
  6
Continuous
 62
     7
370
     0
100
AcDbMText
 10
1.863681061
 20
40.4247838077
 30
0.0
 40
0.7055555556
 41
0.0
 71
     1
 72
     1
  1
C
  7
SLDTEXTSTYLE1
 73
     1
 44
1.0
  0
MTEXT
  5
F3
330
1F
100
AcDbEntity
  8
0
  6
Continuous
 62
     7
370
     0
100
AcDbMText
 10
1.863681061
 20
29.5817740074
 30
0.0
 40
0.7055555556
 41
0.0
 71
     1
 72
     1
  1
D
  7
SLDTEXTSTYLE1
 73
     1
 44
1.0
  0
MTEXT
  5
F4
330
1F
100
AcDbEntity
  8
0
  6
Continuous
 62
     7
370
     0
100
AcDbMText
 10
1.863681061
 20
19.1852949732
 30
0.0
 40
0.7055555556
 41
0.0
 71
     1
 72
     1
  1
E
  7
SLDTEXTSTYLE1
 73
     1
 44
1.0
  0
MTEXT
  5
F5
330
1F
100
AcDbEntity
  8
0
  6
Continuous
 62
     7
370
     0
100
AcDbMText
 10
1.863681061
 20
8.5231404084
 30
0.0
 40
0.7055555556
 41
0.0
 71
     1
 72
     1
  1
F
  7
SLDTEXTSTYLE1
 73
     1
 44
1.0
  0
MTEXT
  5
F6
330
1F
100
AcDbEntity
  8
0
  6
Continuous
 62
     7
370
     0
100
AcDbMText
 10
88.7286205655
 20
2.2078741321
 30
0.0
 40
0.7055555556
 41
0.0
 71
     1
 72
     1
  1
8
  7
SLDTEXTSTYLE1
 73
     1
 44
1.0
  0
MTEXT
  5
F7
330
1F
100
AcDbEntity
  8
0
  6
Continuous
 62
     7
370
     0
100
AcDbMText
 10
78.0900484625
 20
2.2078741321
 30
0.0
 40
0.7055555556
 41
0.0
 71
     1
 72
     1
  1
7
  7
SLDTEXTSTYLE1
 73
     1
 44
1.0
  0
MTEXT
  5
F8
330
1F
100
AcDbEntity
  8
0
  6
Continuous
 62
     7
370
     0
100
AcDbMText
 10
66.1817655628
 20
2.2078741321
 30
0.0
 40
0.7055555556
 41
0.0
 71
     1
 72
     1
  1
6
  7
SLDTEXTSTYLE1
 73
     1
 44
1.0
  0
MTEXT
  5
F9
330
1F
100
AcDbEntity
  8
0
  6
Continuous
 62
     7
370
     0
100
AcDbMText
 10
54.5364677036
 20
2.2078741321
 30
0.0
 40
0.7055555556
 41
0.0
 71
     1
 72
     1
  1
5
  7
SLDTEXTSTYLE1
 73
     1
 44
1.0
  0
MTEXT
  5
FA
330
1F
100
AcDbEntity
  8
0
  6
Continuous
 62
     7
370
     0
100
AcDbMText
 10
43.0534719774
 20
2.1565097253
 30
0.0
 40
0.7055555556
 41
0.0
 71
     1
 72
     1
  1
4
  7
SLDTEXTSTYLE1
 73
     1
 44
1.0
  0
MTEXT
  5
FB
330
1F
100
AcDbEntity
  8
0
  6
Continuous
 62
     7
370
     0
100
AcDbMText
 10
31.6026913459
 20
2.2078741321
 30
0.0
 40
0.7055555556
 41
0.0
 71
     1
 72
     1
  1
3
  7
SLDTEXTSTYLE1
 73
     1
 44
1.0
  0
MTEXT
  5
FC
330
1F
100
AcDbEntity
  8
0
  6
Continuous
 62
     7
370
     0
100
AcDbMText
 10
20.2080597398
 20
2.2078741321
 30
0.0
 40
0.7055555556
 41
0.0
 71
     1
 72
     1
  1
2
  7
SLDTEXTSTYLE1
 73
     1
 44
1.0
  0
MTEXT
  5
FD
330
1F
100
AcDbEntity
  8
0
  6
Continuous
 62
     7
370
     0
100
AcDbMText
 10
8.8366909334
 20
2.2078741321
 30
0.0
 40
0.7055555556
 41
0.0
 71
     1
 72
     1
  1
1
  7
SLDTEXTSTYLE1
 73
     1
 44
1.0
  0
MTEXT
  5
FE
330
1F
100
AcDbEntity
  8
0
  6
Continuous
 62
     7
370
     0
100
AcDbMText
 10
95.7007948715
 20
62.2141636364
 30
0.0
 40
0.7055555556
 41
0.0
 71
     1
 72
     1
  1
A
  7
SLDTEXTSTYLE1
 73
     1
 44
1.0
  0
MTEXT
  5
FF
330
1F
100
AcDbEntity
  8
0
  6
Continuous
 62
     7
370
     0
100
AcDbMText
 10
95.7788680474
 20
51.7101644817
 30
0.0
 40
0.7055555556
 41
0.0
 71
     1
 72
     1
  1
B
  7
SLDTEXTSTYLE1
 73
     1
 44
1.0
  0
MTEXT
  5
100
330
1F
100
AcDbEntity
  8
0
  6
Continuous
 62
     7
370
     0
100
AcDbMText
 10
95.7788680474
 20
40.7018466814
 30
0.0
 40
0.7055555556
 41
0.0
 71
     1
 72
     1
  1
C
  7
SLDTEXTSTYLE1
 73
     1
 44
1.0
  0
MTEXT
  5
101
330
1F
100
AcDbEntity
  8
0
  6
Continuous
 62
     7
370
     0
100
AcDbMText
 10
95.7788680474
 20
29.8588368811
 30
0.0
 40
0.7055555556
 41
0.0
 71
     1
 72
     1
  1
D
  7
SLDTEXTSTYLE1
 73
     1
 44
1.0
  0
MTEXT
  5
102
330
1F
100
AcDbEntity
  8
0
  6
Continuous
 62
     7
370
     0
100
AcDbMText
 10
95.7788680474
 20
19.462357847
 30
0.0
 40
0.7055555556
 41
0.0
 71
     1
 72
     1
  1
E
  7
SLDTEXTSTYLE1
 73
     1
 44
1.0
  0
MTEXT
  5
103
330
1F
100
AcDbEntity
  8
0
  6
Continuous
 62
     7
370
     0
100
AcDbMText
 10
95.7788680474
 20
8.8002032821
 30
0.0
 40
0.7055555556
 41
0.0
 71
     1
 72
     1
  1
F
  7
SLDTEXTSTYLE1
 73
     1
 44
1.0
  0
MTEXT
  5
104
330
1F
100
AcDbEntity
  8
0
  6
Continuous
 62
     7
370
     0
100
AcDbMText
 10
67.7184376267
 20
7.195571617
 30
0.0
 40
0.6173611111
 41
0.0
 71
     1
 72
     1
  1
Sky
  7
SLDTEXTSTYLE1
 73
     1
 44
1.0
  0
MTEXT
  5
106
330
1F
100
AcDbEntity
  8
0
  6
Continuous
 62
     7
370
     0
100
AcDbMText
 10
84.2827413215
 20
4.0739867773
 30
0.0
 40
0.79375
 41
0.0
 71
     1
 72
     1
  1
0
  7
SLDTEXTSTYLE2
 73
     1
 44
1.0
  0
INSERT
  5
10C
330
1F
100
AcDbEntity
  8
SLD-0
 62
     7
100
AcDbBlockReference
  2
SW_NOTE_1
 10
66.2417297978
 20
11.1826581737
 30
0.0
  0
LINE
  5
10D
330
1F
100
AcDbEntity
  8
0
  6
Continuous
 62
     7
370
    30
100
AcDbLine
 10
30.6049921303
 20
36.8801180773
 30
0.0
 11
20.1049921303
 21
36.8801180773
 31
0.0
  0
LINE
  5
10E
330
1F
100
AcDbEntity
  8
0
  6
Continuous
 62
     7
370
    30
100
AcDbLine
 10
20.1049921303
 20
27.3801180773
 30
0.0
 11
30.6049921303
 21
27.3801180773
 31
0.0
  0
LINE
  5
10F
330
1F
100
AcDbEntity
  8
0
  6
Continuous
 62
     7
370
    30
100
AcDbLine
 10
30.6049921303
 20
27.3801180773
 30
0.0
 11
31.1049921303
 21
27.8801180773
 31
0.0
  0
LINE
  5
110
330
1F
100
AcDbEntity
  8
0
  6
Continuous
 62
     7
370
    30
100
AcDbLine
 10
31.1049921303
 20
36.3801180773
 30
0.0
 11
30.6049921303
 21
36.8801180773
 31
0.0
  0
LINE
  5
111
330
1F
100
AcDbEntity
  8
0
  6
Continuous
 62
     7
370
    30
100
AcDbLine
 10
19.5799921303
 20
36.8551180773
 30
0.0
 11
19.1049921303
 21
36.3801180773
 31
0.0
  0
LINE
  5
112
330
1F
100
AcDbEntity
  8
0
  6
Continuous
 62
     7
370
    30
100
AcDbLine
 10
19.1049921303
 20
27.8801180773
 30
0.0
 11
19.5799921303
 21
27.4051180773
 31
0.0
  0
LINE
  5
113
330
1F
100
AcDbEntity
  8
0
  6
Continuous
 62
     7
370
    30
100
AcDbLine
 10
19.5799921303
 20
27.4051180773
 30
0.0
 11
20.1049921303
 21
27.4051180773
 31
0.0
  0
LINE
  5
114
330
1F
100
AcDbEntity
  8
0
  6
Continuous
 62
     7
370
    30
100
AcDbLine
 10
20.1049921303
 20
36.8551180773
 30
0.0
 11
19.5799921303
 21
36.8551180773
 31
0.0
  0
ARC
  5
115
330
1F
100
AcDbEntity
  8
0
  6
Continuous
 62
     7
370
    30
100
AcDbCircle
 10
15.1049921303
 20
32.1301180773
 30
0.0
 40
2.000000000000004
100
AcDbArc
 50
92.8659839826
 51
267.1340160174
  0
LINE
  5
116
330
1F
100
AcDbEntity
  8
0
  6
Continuous
 62
     7
370
    30
100
AcDbLine
 10
16.5049921303
 20
29.1301180773
 30
0.0
 11
19.1049921303
 21
29.1301180773
 31
0.0
  0
LINE
  5
117
330
1F
100
AcDbEntity
  8
0
  6
Continuous
 62
     7
370
    30
100
AcDbLine
 10
31.1049921303
 20
29.1301180773
 30
0.0
 11
35.1049921303
 21
29.1301180773
 31
0.0
  0
LINE
  5
118
330
1F
100
AcDbEntity
  8
0
  6
Continuous
 62
     7
370
    30
100
AcDbLine
 10
35.1049921303
 20
35.1301180773
 30
0.0
 11
31.1049921303
 21
35.1301180773
 31
0.0
  0
LINE
  5
119
330
1F
100
AcDbEntity
  8
0
  6
Continuous
 62
     7
370
    30
100
AcDbLine
 10
19.1049921303
 20
35.1301180773
 30
0.0
 11
16.5049921303
 21
35.1301180773
 31
0.0
  0
LINE
  5
11A
330
1F
100
AcDbEntity
  8
0
  6
Continuous
 62
     7
370
    30
100
AcDbLine
 10
16.5049921303
 20
35.1301180773
 30
0.0
 11
15.0049921303
 21
34.2301180773
 31
0.0
  0
LINE
  5
11B
330
1F
100
AcDbEntity
  8
0
  6
Continuous
 62
     7
370
    30
100
AcDbLine
 10
15.0049921303
 20
30.0301180773
 30
0.0
 11
16.5049921303
 21
29.1301180773
 31
0.0
  0
LINE
  5
11C
330
1F
100
AcDbEntity
  8
0
  6
Continuous
 62
     7
370
    30
100
AcDbLine
 10
43.1049921303
 20
32.9455526669
 30
0.0
 11
43.1049921303
 21
32.3019696629
 31
0.0
  0
LINE
  5
11D
330
1F
100
AcDbEntity
  8
0
  6
Continuous
 62
     7
370
    30
100
AcDbLine
 10
43.1049921303
 20
32.3019696629
 30
0.0
 11
42.9049921303
 21
32.4151825146
 31
0.0
  0
LINE
  5
11E
330
1F
100
AcDbEntity
  8
0
  6
Continuous
 62
     7
370
    30
100
AcDbLine
 10
42.9049921303
 20
32.4151825146
 30
0.0
 11
42.9049921303
 21
32.8644089518
 31
0.0
  0
LINE
  5
11F
330
1F
100
AcDbEntity
  8
0
  6
Continuous
 62
     7
370
    30
100
AcDbLine
 10
42.9049921303
 20
32.8644089518
 30
0.0
 11
43.1049921303
 21
32.9455526669
 31
0.0
  0
LINE
  5
120
330
1F
100
AcDbEntity
  8
0
  6
Continuous
 62
     7
370
    30
100
AcDbLine
 10
35.3049921303
 20
32.4151825146
 30
0.0
 11
42.9049921303
 21
32.4151825146
 31
0.0
  0
LINE
  5
121
330
1F
100
AcDbEntity
  8
0
  6
Continuous
 62
     7
370
    30
100
AcDbLine
 10
35.3049921303
 20
32.8644089518
 30
0.0
 11
35.3049921303
 21
32.4151825146
 31
0.0
  0
LINE
  5
122
330
1F
100
AcDbEntity
  8
0
  6
Continuous
 62
     7
370
    30
100
AcDbLine
 10
42.9049921303
 20
32.8644089518
 30
0.0
 11
35.3049921303
 21
32.8644089518
 31
0.0
  0
LINE
  5
123
330
1F
100
AcDbEntity
  8
0
  6
Continuous
 62
     7
370
    30
100
AcDbLine
 10
35.3049921303
 20
32.4151825146
 30
0.0
 11
35.1049921303
 21
32.3019696629
 31
0.0
  0
LINE
  5
124
330
1F
100
AcDbEntity
  8
0
  6
Continuous
 62
     7
370
    30
100
AcDbLine
 10
35.1049921303
 20
32.3019696629
 30
0.0
 11
35.1049921303
 21
32.9455526669
 31
0.0
  0
LINE
  5
125
330
1F
100
AcDbEntity
  8
0
  6
Continuous
 62
     7
370
    30
100
AcDbLine
 10
35.1049921303
 20
32.9455526669
 30
0.0
 11
35.3049921303
 21
32.8644089518
 31
0.0
  0
LINE
  5
126
330
1F
100
AcDbEntity
  8
0
  6
Continuous
 62
     7
370
    30
100
AcDbLine
 10
43.1049921303
 20
32.1301180773
 30
0.0
 11
35.1049921303
 21
32.1301180773
 31
0.0
  0
LINE
  5
127
330
1F
100
AcDbEntity
  8
0
  6
Continuous
 62
     7
370
    30
100
AcDbLine
 10
35.1049921303
 20
32.3019696629
 30
0.0
 11
35.1049921303
 21
32.1301180773
 31
0.0
  0
LINE
  5
128
330
1F
100
AcDbEntity
  8
0
  6
Continuous
 62
     7
370
    30
100
AcDbLine
 10
43.1049921303
 20
32.3019696629
 30
0.0
 11
43.1049921303
 21
32.1301180773
 31
0.0
  0
LINE
  5
129
330
1F
100
AcDbEntity
  8
0
  6
Continuous
 62
     7
370
    30
100
AcDbLine
 10
35.1049921303
 20
31.9582664918
 30
0.0
 11
35.3049921303
 21
31.84505364
 31
0.0
  0
LINE
  5
12A
330
1F
100
AcDbEntity
  8
0
  6
Continuous
 62
     7
370
    30
100
AcDbLine
 10
35.1049921303
 20
32.1301180773
 30
0.0
 11
35.1049921303
 21
31.9582664918
 31
0.0
  0
LINE
  5
12B
330
1F
100
AcDbEntity
  8
0
  6
Continuous
 62
     7
370
    30
100
AcDbLine
 10
43.1049921303
 20
32.1301180773
 30
0.0
 11
43.1049921303
 21
31.9582664918
 31
0.0
  0
LINE
  5
12C
330
1F
100
AcDbEntity
  8
0
  6
Continuous
 62
     7
370
    30
100
AcDbLine
 10
42.9049921303
 20
31.84505364
 30
0.0
 11
43.1049921303
 21
31.9582664918
 31
0.0
  0
LINE
  5
12D
330
1F
100
AcDbEntity
  8
0
  6
Continuous
 62
     7
370
    30
100
AcDbLine
 10
42.9049921303
 20
31.84505364
 30
0.0
 11
35.3049921303
 21
31.84505364
 31
0.0
  0
LINE
  5
12E
330
1F
100
AcDbEntity
  8
0
  6
Continuous
 62
     7
370
    30
100
AcDbLine
 10
42.9049921303
 20
31.3958272029
 30
0.0
 11
42.9049921303
 21
31.84505364
 31
0.0
  0
LINE
  5
12F
330
1F
100
AcDbEntity
  8
0
  6
Continuous
 62
     7
370
    30
100
AcDbLine
 10
43.1049921303
 20
31.9582664918
 30
0.0
 11
43.1049921303
 21
31.3146834878
 31
0.0
  0
LINE
  5
130
330
1F
100
AcDbEntity
  8
0
  6
Continuous
 62
     7
370
    30
100
AcDbLine
 10
43.1049921303
 20
31.3146834878
 30
0.0
 11
42.9049921303
 21
31.3958272029
 31
0.0
  0
LINE
  5
131
330
1F
100
AcDbEntity
  8
0
  6
Continuous
 62
     7
370
    30
100
AcDbLine
 10
35.3049921303
 20
31.3958272029
 30
0.0
 11
42.9049921303
 21
31.3958272029
 31
0.0
  0
LINE
  5
132
330
1F
100
AcDbEntity
  8
0
  6
Continuous
 62
     7
370
    30
100
AcDbLine
 10
35.3049921303
 20
31.84505364
 30
0.0
 11
35.3049921303
 21
31.3958272029
 31
0.0
  0
LINE
  5
133
330
1F
100
AcDbEntity
  8
0
  6
Continuous
 62
     7
370
    30
100
AcDbLine
 10
35.1049921303
 20
31.3146834878
 30
0.0
 11
35.1049921303
 21
31.9582664918
 31
0.0
  0
LINE
  5
134
330
1F
100
AcDbEntity
  8
0
  6
Continuous
 62
     7
370
    30
100
AcDbLine
 10
35.3049921303
 20
31.3958272029
 30
0.0
 11
35.1049921303
 21
31.3146834878
 31
0.0
  0
LINE
  5
135
330
1F
100
AcDbEntity
  8
0
  6
Continuous
 62
     7
370
    30
100
AcDbLine
 10
35.1049921303
 20
33.0687248676
 30
0.0
 11
35.1049921303
 21
32.9455526669
 31
0.0
  0
LINE
  5
136
330
1F
100
AcDbEntity
  8
0
  6
Continuous
 62
     7
370
    30
100
AcDbLine
 10
43.1049921303
 20
33.0687248676
 30
0.0
 11
35.1049921303
 21
33.0687248676
 31
0.0
  0
LINE
  5
137
330
1F
100
AcDbEntity
  8
0
  6
Continuous
 62
     7
370
    30
100
AcDbLine
 10
43.1049921303
 20
33.0687248676
 30
0.0
 11
43.1049921303
 21
32.9455526669
 31
0.0
  0
LINE
  5
138
330
1F
100
AcDbEntity
  8
0
  6
Continuous
 62
     7
370
    30
100
AcDbLine
 10
43.1049921303
 20
31.1915112871
 30
0.0
 11
35.1049921303
 21
31.1915112871
 31
0.0
  0
LINE
  5
139
330
1F
100
AcDbEntity
  8
0
  6
Continuous
 62
     7
370
    30
100
AcDbLine
 10
35.1049921303
 20
31.3146834878
 30
0.0
 11
35.1049921303
 21
31.1915112871
 31
0.0
  0
LINE
  5
13A
330
1F
100
AcDbEntity
  8
0
  6
Continuous
 62
     7
370
    30
100
AcDbLine
 10
43.1049921303
 20
31.3146834878
 30
0.0
 11
43.1049921303
 21
31.1915112871
 31
0.0
  0
LINE
  5
13B
330
1F
100
AcDbEntity
  8
0
  6
Continuous
 62
     7
370
    30
100
AcDbLine
 10
42.9049921303
 20
33.8656835853
 30
0.0
 11
35.3049921303
 21
33.8656835853
 31
0.0
  0
LINE
  5
13C
330
1F
100
AcDbEntity
  8
0
  6
Continuous
 62
     7
370
    30
100
AcDbLine
 10
42.9049921303
 20
33.4275185939
 30
0.0
 11
42.9049921303
 21
33.8656835853
 31
0.0
  0
LINE
  5
13D
330
1F
100
AcDbEntity
  8
0
  6
Continuous
 62
     7
370
    30
100
AcDbLine
 10
35.3049921303
 20
33.4275185939
 30
0.0
 11
42.9049921303
 21
33.4275185939
 31
0.0
  0
LINE
  5
13E
330
1F
100
AcDbEntity
  8
0
  6
Continuous
 62
     7
370
    30
100
AcDbLine
 10
35.3049921303
 20
33.8656835853
 30
0.0
 11
35.3049921303
 21
33.4275185939
 31
0.0
  0
LINE
  5
13F
330
1F
100
AcDbEntity
  8
0
  6
Continuous
 62
     7
370
    30
100
AcDbLine
 10
35.1049921303
 20
33.2850242816
 30
0.0
 11
35.1049921303
 21
33.9127601361
 31
0.0
  0
LINE
  5
140
330
1F
100
AcDbEntity
  8
0
  6
Continuous
 62
     7
370
    30
100
AcDbLine
 10
35.1049921303
 20
33.9127601361
 30
0.0
 11
35.3049921303
 21
33.8656835853
 31
0.0
  0
LINE
  5
141
330
1F
100
AcDbEntity
  8
0
  6
Continuous
 62
     7
370
    30
100
AcDbLine
 10
35.3049921303
 20
33.4275185939
 30
0.0
 11
35.1049921303
 21
33.2850242816
 31
0.0
  0
LINE
  5
142
330
1F
100
AcDbEntity
  8
0
  6
Continuous
 62
     7
370
    30
100
AcDbLine
 10
42.9049921303
 20
33.8656835853
 30
0.0
 11
43.1049921303
 21
33.9127601361
 31
0.0
  0
LINE
  5
143
330
1F
100
AcDbEntity
  8
0
  6
Continuous
 62
     7
370
    30
100
AcDbLine
 10
43.1049921303
 20
33.9127601361
 30
0.0
 11
43.1049921303
 21
33.2850242816
 31
0.0
  0
LINE
  5
144
330
1F
100
AcDbEntity
  8
0
  6
Continuous
 62
     7
370
    30
100
AcDbLine
 10
43.1049921303
 20
33.2850242816
 30
0.0
 11
42.9049921303
 21
33.4275185939
 31
0.0
  0
LINE
  5
145
330
1F
100
AcDbEntity
  8
0
  6
Continuous
 62
     7
370
    30
100
AcDbLine
 10
35.1049921303
 20
33.2850242816
 30
0.0
 11
35.1049921303
 21
33.0687248676
 31
0.0
  0
LINE
  5
146
330
1F
100
AcDbEntity
  8
0
  6
Continuous
 62
     7
370
    30
100
AcDbLine
 10
43.1049921303
 20
33.2850242816
 30
0.0
 11
43.1049921303
 21
33.0687248676
 31
0.0
  0
LINE
  5
147
330
1F
100
AcDbEntity
  8
0
  6
Continuous
 62
     7
370
    30
100
AcDbLine
 10
35.1049921303
 20
30.9752118731
 30
0.0
 11
35.3049921303
 21
30.8327175608
 31
0.0
  0
LINE
  5
148
330
1F
100
AcDbEntity
  8
0
  6
Continuous
 62
     7
370
    30
100
AcDbLine
 10
35.1049921303
 20
31.1915112871
 30
0.0
 11
35.1049921303
 21
30.9752118731
 31
0.0
  0
LINE
  5
149
330
1F
100
AcDbEntity
  8
0
  6
Continuous
 62
     7
370
    30
100
AcDbLine
 10
43.1049921303
 20
31.1915112871
 30
0.0
 11
43.1049921303
 21
30.9752118731
 31
0.0
  0
LINE
  5
14A
330
1F
100
AcDbEntity
  8
0
  6
Continuous
 62
     7
370
    30
100
AcDbLine
 10
42.9049921303
 20
30.8327175608
 30
0.0
 11
43.1049921303
 21
30.9752118731
 31
0.0
  0
LINE
  5
14B
330
1F
100
AcDbEntity
  8
0
  6
Continuous
 62
     7
370
    30
100
AcDbLine
 10
42.9049921303
 20
30.8327175608
 30
0.0
 11
35.3049921303
 21
30.8327175608
 31
0.0
  0
LINE
  5
14C
330
1F
100
AcDbEntity
  8
0
  6
Continuous
 62
     7
370
    30
100
AcDbLine
 10
35.1049921303
 20
30.3474760185
 30
0.0
 11
35.1049921303
 21
30.9752118731
 31
0.0
  0
LINE
  5
14D
330
1F
100
AcDbEntity
  8
0
  6
Continuous
 62
     7
370
    30
100
AcDbLine
 10
35.3049921303
 20
30.8327175608
 30
0.0
 11
35.3049921303
 21
30.3945525694
 31
0.0
  0
LINE
  5
14E
330
1F
100
AcDbEntity
  8
0
  6
Continuous
 62
     7
370
    30
100
AcDbLine
 10
35.3049921303
 20
30.3945525694
 30
0.0
 11
35.1049921303
 21
30.3474760185
 31
0.0
  0
LINE
  5
14F
330
1F
100
AcDbEntity
  8
0
  6
Continuous
 62
     7
370
    30
100
AcDbLine
 10
42.9049921303
 20
30.3945525694
 30
0.0
 11
42.9049921303
 21
30.8327175608
 31
0.0
  0
LINE
  5
150
330
1F
100
AcDbEntity
  8
0
  6
Continuous
 62
     7
370
    30
100
AcDbLine
 10
35.3049921303
 20
30.3945525694
 30
0.0
 11
42.9049921303
 21
30.3945525694
 31
0.0
  0
LINE
  5
151
330
1F
100
AcDbEntity
  8
0
  6
Continuous
 62
     7
370
    30
100
AcDbLine
 10
43.1049921303
 20
30.9752118731
 30
0.0
 11
43.1049921303
 21
30.3474760185
 31
0.0
  0
LINE
  5
152
330
1F
100
AcDbEntity
  8
0
  6
Continuous
 62
     7
370
    30
100
AcDbLine
 10
43.1049921303
 20
30.3474760185
 30
0.0
 11
42.9049921303
 21
30.3945525694
 31
0.0
  0
LINE
  5
153
330
1F
100
AcDbEntity
  8
0
  6
Continuous
 62
     7
370
    30
100
AcDbLine
 10
43.1049921303
 20
33.9842200436
 30
0.0
 11
35.1049921303
 21
33.9842200436
 31
0.0
  0
LINE
  5
154
330
1F
100
AcDbEntity
  8
0
  6
Continuous
 62
     7
370
    30
100
AcDbLine
 10
43.1049921303
 20
33.9842200436
 30
0.0
 11
43.1049921303
 21
33.9127601361
 31
0.0
  0
LINE
  5
155
330
1F
100
AcDbEntity
  8
0
  6
Continuous
 62
     7
370
    30
100
AcDbLine
 10
35.1049921303
 20
33.9842200436
 30
0.0
 11
35.1049921303
 21
33.9127601361
 31
0.0
  0
LINE
  5
156
330
1F
100
AcDbEntity
  8
0
  6
Continuous
 62
     7
370
    30
100
AcDbLine
 10
43.1049921303
 20
30.2760161111
 30
0.0
 11
35.1049921303
 21
30.2760161111
 31
0.0
  0
LINE
  5
157
330
1F
100
AcDbEntity
  8
0
  6
Continuous
 62
     7
370
    30
100
AcDbLine
 10
43.1049921303
 20
30.3474760185
 30
0.0
 11
43.1049921303
 21
30.2760161111
 31
0.0
  0
LINE
  5
158
330
1F
100
AcDbEntity
  8
0
  6
Continuous
 62
     7
370
    30
100
AcDbLine
 10
35.1049921303
 20
30.3474760185
 30
0.0
 11
35.1049921303
 21
30.2760161111
 31
0.0
  0
LINE
  5
159
330
1F
100
AcDbEntity
  8
0
  6
Continuous
 62
     7
370
    30
100
AcDbLine
 10
42.9049921303
 20
34.8242228359
 30
0.0
 11
35.3049921303
 21
34.8242228359
 31
0.0
  0
LINE
  5
15A
330
1F
100
AcDbEntity
  8
0
  6
Continuous
 62
     7
370
    30
100
AcDbLine
 10
42.9049921303
 20
34.4079083666
 30
0.0
 11
42.9049921303
 21
34.8242228359
 31
0.0
  0
LINE
  5
15B
330
1F
100
AcDbEntity
  8
0
  6
Continuous
 62
     7
370
    30
100
AcDbLine
 10
35.3049921303
 20
34.4079083666
 30
0.0
 11
42.9049921303
 21
34.4079083666
 31
0.0
  0
LINE
  5
15C
330
1F
100
AcDbEntity
  8
0
  6
Continuous
 62
     7
370
    30
100
AcDbLine
 10
35.3049921303
 20
34.8242228359
 30
0.0
 11
35.3049921303
 21
34.4079083666
 31
0.0
  0
LINE
  5
15D
330
1F
100
AcDbEntity
  8
0
  6
Continuous
 62
     7
370
    30
100
AcDbLine
 10
42.9049921303
 20
34.8242228359
 30
0.0
 11
43.1049921303
 21
34.8360730416
 31
0.0
  0
LINE
  5
15E
330
1F
100
AcDbEntity
  8
0
  6
Continuous
 62
     7
370
    30
100
AcDbLine
 10
43.1049921303
 20
34.2396412767
 30
0.0
 11
42.9049921303
 21
34.4079083666
 31
0.0
  0
LINE
  5
15F
330
1F
100
AcDbEntity
  8
0
  6
Continuous
 62
     7
370
    30
100
AcDbLine
 10
43.1049921303
 20
34.8360730416
 30
0.0
 11
43.1049921303
 21
34.2396412767
 31
0.0
  0
LINE
  5
160
330
1F
100
AcDbEntity
  8
0
  6
Continuous
 62
     7
370
    30
100
AcDbLine
 10
35.1049921303
 20
34.8360730416
 30
0.0
 11
35.3049921303
 21
34.8242228359
 31
0.0
  0
LINE
  5
161
330
1F
100
AcDbEntity
  8
0
  6
Continuous
 62
     7
370
    30
100
AcDbLine
 10
35.3049921303
 20
34.4079083666
 30
0.0
 11
35.1049921303
 21
34.2396412767
 31
0.0
  0
LINE
  5
162
330
1F
100
AcDbEntity
  8
0
  6
Continuous
 62
     7
370
    30
100
AcDbLine
 10
35.1049921303
 20
34.2396412767
 30
0.0
 11
35.1049921303
 21
34.8360730416
 31
0.0
  0
LINE
  5
163
330
1F
100
AcDbEntity
  8
0
  6
Continuous
 62
     7
370
    30
100
AcDbLine
 10
43.1049921303
 20
34.2396412767
 30
0.0
 11
43.1049921303
 21
33.9842200436
 31
0.0
  0
LINE
  5
164
330
1F
100
AcDbEntity
  8
0
  6
Continuous
 62
     7
370
    30
100
AcDbLine
 10
35.1049921303
 20
34.2396412767
 30
0.0
 11
35.1049921303
 21
33.9842200436
 31
0.0
  0
LINE
  5
165
330
1F
100
AcDbEntity
  8
0
  6
Continuous
 62
     7
370
    30
100
AcDbLine
 10
35.1049921303
 20
30.020594878
 30
0.0
 11
35.3049921303
 21
29.852327788
 31
0.0
  0
LINE
  5
166
330
1F
100
AcDbEntity
  8
0
  6
Continuous
 62
     7
370
    30
100
AcDbLine
 10
42.9049921303
 20
29.852327788
 30
0.0
 11
43.1049921303
 21
30.020594878
 31
0.0
  0
LINE
  5
167
330
1F
100
AcDbEntity
  8
0
  6
Continuous
 62
     7
370
    30
100
AcDbLine
 10
42.9049921303
 20
29.852327788
 30
0.0
 11
35.3049921303
 21
29.852327788
 31
0.0
  0
LINE
  5
168
330
1F
100
AcDbEntity
  8
0
  6
Continuous
 62
     7
370
    30
100
AcDbLine
 10
43.1049921303
 20
30.2760161111
 30
0.0
 11
43.1049921303
 21
30.020594878
 31
0.0
  0
LINE
  5
169
330
1F
100
AcDbEntity
  8
0
  6
Continuous
 62
     7
370
    30
100
AcDbLine
 10
35.1049921303
 20
30.2760161111
 30
0.0
 11
35.1049921303
 21
30.020594878
 31
0.0
  0
LINE
  5
16A
330
1F
100
AcDbEntity
  8
0
  6
Continuous
 62
     7
370
    30
100
AcDbLine
 10
42.9049921303
 20
29.4360133187
 30
0.0
 11
42.9049921303
 21
29.852327788
 31
0.0
  0
LINE
  5
16B
330
1F
100
AcDbEntity
  8
0
  6
Continuous
 62
     7
370
    30
100
AcDbLine
 10
43.1049921303
 20
29.424163113
 30
0.0
 11
42.9049921303
 21
29.4360133187
 31
0.0
  0
LINE
  5
16C
330
1F
100
AcDbEntity
  8
0
  6
Continuous
 62
     7
370
    30
100
AcDbLine
 10
43.1049921303
 20
30.020594878
 30
0.0
 11
43.1049921303
 21
29.424163113
 31
0.0
  0
LINE
  5
16D
330
1F
100
AcDbEntity
  8
0
  6
Continuous
 62
     7
370
    30
100
AcDbLine
 10
35.3049921303
 20
29.852327788
 30
0.0
 11
35.3049921303
 21
29.4360133187
 31
0.0
  0
LINE
  5
16E
330
1F
100
AcDbEntity
  8
0
  6
Continuous
 62
     7
370
    30
100
AcDbLine
 10
35.3049921303
 20
29.4360133187
 30
0.0
 11
35.1049921303
 21
29.424163113
 31
0.0
  0
LINE
  5
16F
330
1F
100
AcDbEntity
  8
0
  6
Continuous
 62
     7
370
    30
100
AcDbLine
 10
35.1049921303
 20
29.424163113
 30
0.0
 11
35.1049921303
 21
30.020594878
 31
0.0
  0
LINE
  5
170
330
1F
100
AcDbEntity
  8
0
  6
Continuous
 62
     7
370
    30
100
AcDbLine
 10
35.3049921303
 20
29.4360133187
 30
0.0
 11
42.9049921303
 21
29.4360133187
 31
0.0
  0
LINE
  5
171
330
1F
100
AcDbEntity
  8
0
  6
Continuous
 62
     7
370
    30
100
AcDbLine
 10
43.1049921303
 20
34.8540610758
 30
0.0
 11
35.1049921303
 21
34.8540610758
 31
0.0
  0
LINE
  5
172
330
1F
100
AcDbEntity
  8
0
  6
Continuous
 62
     7
370
    30
100
AcDbLine
 10
43.1049921303
 20
34.8540610758
 30
0.0
 11
43.1049921303
 21
34.8360730416
 31
0.0
  0
LINE
  5
173
330
1F
100
AcDbEntity
  8
0
  6
Continuous
 62
     7
370
    30
100
AcDbLine
 10
35.1049921303
 20
34.8540610758
 30
0.0
 11
35.1049921303
 21
34.8360730416
 31
0.0
  0
LINE
  5
174
330
1F
100
AcDbEntity
  8
0
  6
Continuous
 62
     7
370
    30
100
AcDbLine
 10
43.1049921303
 20
29.4061750789
 30
0.0
 11
35.1049921303
 21
29.4061750789
 31
0.0
  0
LINE
  5
175
330
1F
100
AcDbEntity
  8
0
  6
Continuous
 62
     7
370
    30
100
AcDbLine
 10
43.1049921303
 20
29.424163113
 30
0.0
 11
43.1049921303
 21
29.4061750789
 31
0.0
  0
LINE
  5
176
330
1F
100
AcDbEntity
  8
0
  6
Continuous
 62
     7
370
    30
100
AcDbLine
 10
35.1049921303
 20
29.424163113
 30
0.0
 11
35.1049921303
 21
29.4061750789
 31
0.0
  0
LINE
  5
177
330
1F
100
AcDbEntity
  8
0
  6
Continuous
 62
     7
370
    30
100
AcDbLine
 10
35.1049921303
 20
35.6927563554
 30
0.0
 11
35.3049921303
 21
35.7164242862
 31
0.0
  0
LINE
  5
178
330
1F
100
AcDbEntity
  8
0
  6
Continuous
 62
     7
370
    30
100
AcDbLine
 10
35.3049921303
 20
35.7164242862
 30
0.0
 11
35.3049921303
 21
35.3322113829
 31
0.0
  0
LINE
  5
179
330
1F
100
AcDbEntity
  8
0
  6
Continuous
 62
     7
370
    30
100
AcDbLine
 10
35.3049921303
 20
35.3322113829
 30
0.0
 11
35.1049921303
 21
35.1423148095
 31
0.0
  0
LINE
  5
17A
330
1F
100
AcDbEntity
  8
0
  6
Continuous
 62
     7
370
    30
100
AcDbLine
 10
35.1049921303
 20
35.1423148095
 30
0.0
 11
35.1049921303
 21
35.6927563554
 31
0.0
  0
LINE
  5
17B
330
1F
100
AcDbEntity
  8
0
  6
Continuous
 62
     7
370
    30
100
AcDbLine
 10
42.9049921303
 20
35.3322113829
 30
0.0
 11
42.9049921303
 21
35.7164242862
 31
0.0
  0
LINE
  5
17C
330
1F
100
AcDbEntity
  8
0
  6
Continuous
 62
     7
370
    30
100
AcDbLine
 10
42.9049921303
 20
35.7164242862
 30
0.0
 11
43.1049921303
 21
35.6927563554
 31
0.0
  0
LINE
  5
17D
330
1F
100
AcDbEntity
  8
0
  6
Continuous
 62
     7
370
    30
100
AcDbLine
 10
43.1049921303
 20
35.1423148095
 30
0.0
 11
42.9049921303
 21
35.3322113829
 31
0.0
  0
LINE
  5
17E
330
1F
100
AcDbEntity
  8
0
  6
Continuous
 62
     7
370
    30
100
AcDbLine
 10
43.1049921303
 20
35.6927563554
 30
0.0
 11
43.1049921303
 21
35.1423148095
 31
0.0
  0
LINE
  5
17F
330
1F
100
AcDbEntity
  8
0
  6
Continuous
 62
     7
370
    30
100
AcDbLine
 10
42.9049921303
 20
35.7164242862
 30
0.0
 11
35.3049921303
 21
35.7164242862
 31
0.0
  0
LINE
  5
180
330
1F
100
AcDbEntity
  8
0
  6
Continuous
 62
     7
370
    30
100
AcDbLine
 10
35.3049921303
 20
35.3322113829
 30
0.0
 11
42.9049921303
 21
35.3322113829
 31
0.0
  0
LINE
  5
181
330
1F
100
AcDbEntity
  8
0
  6
Continuous
 62
     7
370
    30
100
AcDbLine
 10
43.1049921303
 20
35.1423148095
 30
0.0
 11
43.1049921303
 21
34.8540610758
 31
0.0
  0
LINE
  5
182
330
1F
100
AcDbEntity
  8
0
  6
Continuous
 62
     7
370
    30
100
AcDbLine
 10
35.1049921303
 20
35.1423148095
 30
0.0
 11
35.1049921303
 21
34.8540610758
 31
0.0
  0
LINE
  5
183
330
1F
100
AcDbEntity
  8
0
  6
Continuous
 62
     7
370
    30
100
AcDbLine
 10
35.1049921303
 20
29.1179213452
 30
0.0
 11
35.3049921303
 21
28.9280247718
 31
0.0
  0
LINE
  5
184
330
1F
100
AcDbEntity
  8
0
  6
Continuous
 62
     7
370
    30
100
AcDbLine
 10
42.9049921303
 20
28.9280247718
 30
0.0
 11
43.1049921303
 21
29.1179213452
 31
0.0
  0
LINE
  5
185
330
1F
100
AcDbEntity
  8
0
  6
Continuous
 62
     7
370
    30
100
AcDbLine
 10
42.9049921303
 20
28.9280247718
 30
0.0
 11
35.3049921303
 21
28.9280247718
 31
0.0
  0
LINE
  5
186
330
1F
100
AcDbEntity
  8
0
  6
Continuous
 62
     7
370
    30
100
AcDbLine
 10
43.1049921303
 20
29.4061750789
 30
0.0
 11
43.1049921303
 21
29.1179213452
 31
0.0
  0
LINE
  5
187
330
1F
100
AcDbEntity
  8
0
  6
Continuous
 62
     7
370
    30
100
AcDbLine
 10
35.1049921303
 20
29.4061750789
 30
0.0
 11
35.1049921303
 21
29.1179213452
 31
0.0
  0
LINE
  5
188
330
1F
100
AcDbEntity
  8
0
  6
Continuous
 62
     7
370
    30
100
AcDbLine
 10
35.3049921303
 20
28.9280247718
 30
0.0
 11
35.3049921303
 21
28.5438118684
 31
0.0
  0
LINE
  5
189
330
1F
100
AcDbEntity
  8
0
  6
Continuous
 62
     7
370
    30
100
AcDbLine
 10
35.3049921303
 20
28.5438118684
 30
0.0
 11
35.1049921303
 21
28.5674797993
 31
0.0
  0
LINE
  5
18A
330
1F
100
AcDbEntity
  8
0
  6
Continuous
 62
     7
370
    30
100
AcDbLine
 10
35.1049921303
 20
28.5674797993
 30
0.0
 11
35.1049921303
 21
29.1179213452
 31
0.0
  0
LINE
  5
18B
330
1F
100
AcDbEntity
  8
0
  6
Continuous
 62
     7
370
    30
100
AcDbLine
 10
42.9049921303
 20
28.5438118684
 30
0.0
 11
42.9049921303
 21
28.9280247718
 31
0.0
  0
LINE
  5
18C
330
1F
100
AcDbEntity
  8
0
  6
Continuous
 62
     7
370
    30
100
AcDbLine
 10
43.1049921303
 20
28.5674797993
 30
0.0
 11
42.9049921303
 21
28.5438118684
 31
0.0
  0
LINE
  5
18D
330
1F
100
AcDbEntity
  8
0
  6
Continuous
 62
     7
370
    30
100
AcDbLine
 10
43.1049921303
 20
29.1179213452
 30
0.0
 11
43.1049921303
 21
28.5674797993
 31
0.0
  0
LINE
  5
18E
330
1F
100
AcDbEntity
  8
0
  6
Continuous
 62
     7
370
    30
100
AcDbLine
 10
35.3049921303
 20
28.5438118684
 30
0.0
 11
42.9049921303
 21
28.5438118684
 31
0.0
  0
LINE
  5
18F
330
1F
100
AcDbEntity
  8
0
  6
Continuous
 62
     7
370
    30
100
AcDbLine
 10
42.9049921303
 20
36.5203189754
 30
0.0
 11
35.3049921303
 21
36.5203189754
 31
0.0
  0
LINE
  5
190
330
1F
100
AcDbEntity
  8
0
  6
Continuous
 62
     7
370
    30
100
AcDbLine
 10
42.9049921303
 20
36.1776682348
 30
0.0
 11
42.9049921303
 21
36.5203189754
 31
0.0
  0
LINE
  5
191
330
1F
100
AcDbEntity
  8
0
  6
Continuous
 62
     7
370
    30
100
AcDbLine
 10
35.3049921303
 20
36.1776682348
 30
0.0
 11
42.9049921303
 21
36.1776682348
 31
0.0
  0
LINE
  5
192
330
1F
100
AcDbEntity
  8
0
  6
Continuous
 62
     7
370
    30
100
AcDbLine
 10
35.3049921303
 20
36.5203189754
 30
0.0
 11
35.3049921303
 21
36.1776682348
 31
0.0
  0
LINE
  5
193
330
1F
100
AcDbEntity
  8
0
  6
Continuous
 62
     7
370
    30
100
AcDbLine
 10
42.9049921303
 20
36.5203189754
 30
0.0
 11
43.1049921303
 21
36.461715691
 31
0.0
  0
LINE
  5
194
330
1F
100
AcDbEntity
  8
0
  6
Continuous
 62
     7
370
    30
100
AcDbLine
 10
43.1049921303
 20
35.9708180618
 30
0.0
 11
42.9049921303
 21
36.1776682348
 31
0.0
  0
LINE
  5
195
330
1F
100
AcDbEntity
  8
0
  6
Continuous
 62
     7
370
    30
100
AcDbLine
 10
43.1049921303
 20
36.461715691
 30
0.0
 11
43.1049921303
 21
35.9708180618
 31
0.0
  0
LINE
  5
196
330
1F
100
AcDbEntity
  8
0
  6
Continuous
 62
     7
370
    30
100
AcDbLine
 10
35.1049921303
 20
36.461715691
 30
0.0
 11
35.3049921303
 21
36.5203189754
 31
0.0
  0
LINE
  5
197
330
1F
100
AcDbEntity
  8
0
  6
Continuous
 62
     7
370
    30
100
AcDbLine
 10
35.3049921303
 20
36.1776682348
 30
0.0
 11
35.1049921303
 21
35.9708180618
 31
0.0
  0
LINE
  5
198
330
1F
100
AcDbEntity
  8
0
  6
Continuous
 62
     7
370
    30
100
AcDbLine
 10
35.1049921303
 20
35.9708180618
 30
0.0
 11
35.1049921303
 21
36.461715691
 31
0.0
  0
LINE
  5
199
330
1F
100
AcDbEntity
  8
0
  6
Continuous
 62
     7
370
    30
100
AcDbLine
 10
43.1049921303
 20
35.9708180618
 30
0.0
 11
43.1049921303
 21
35.6927563554
 31
0.0
  0
LINE
  5
19A
330
1F
100
AcDbEntity
  8
0
  6
Continuous
 62
     7
370
    30
100
AcDbLine
 10
35.1049921303
 20
35.9708180618
 30
0.0
 11
35.1049921303
 21
35.6927563554
 31
0.0
  0
LINE
  5
19B
330
1F
100
AcDbEntity
  8
0
  6
Continuous
 62
     7
370
    30
100
AcDbLine
 10
35.1049921303
 20
28.2894180929
 30
0.0
 11
35.3049921303
 21
28.0825679199
 31
0.0
  0
LINE
  5
19C
330
1F
100
AcDbEntity
  8
0
  6
Continuous
 62
     7
370
    30
100
AcDbLine
 10
42.9049921303
 20
28.0825679199
 30
0.0
 11
43.1049921303
 21
28.2894180929
 31
0.0
  0
LINE
  5
19D
330
1F
100
AcDbEntity
  8
0
  6
Continuous
 62
     7
370
    30
100
AcDbLine
 10
42.9049921303
 20
28.0825679199
 30
0.0
 11
35.3049921303
 21
28.0825679199
 31
0.0
  0
LINE
  5
19E
330
1F
100
AcDbEntity
  8
0
  6
Continuous
 62
     7
370
    30
100
AcDbLine
 10
43.1049921303
 20
28.5674797993
 30
0.0
 11
43.1049921303
 21
28.2894180929
 31
0.0
  0
LINE
  5
19F
330
1F
100
AcDbEntity
  8
0
  6
Continuous
 62
     7
370
    30
100
AcDbLine
 10
35.1049921303
 20
28.5674797993
 30
0.0
 11
35.1049921303
 21
28.2894180929
 31
0.0
  0
LINE
  5
1A0
330
1F
100
AcDbEntity
  8
0
  6
Continuous
 62
     7
370
    30
100
AcDbLine
 10
35.3049921303
 20
28.0825679199
 30
0.0
 11
35.3049921303
 21
27.7399171793
 31
0.0
  0
LINE
  5
1A1
330
1F
100
AcDbEntity
  8
0
  6
Continuous
 62
     7
370
    30
100
AcDbLine
 10
35.3049921303
 20
27.7399171793
 30
0.0
 11
35.1049921303
 21
27.7985204637
 31
0.0
  0
LINE
  5
1A2
330
1F
100
AcDbEntity
  8
0
  6
Continuous
 62
     7
370
    30
100
AcDbLine
 10
35.1049921303
 20
27.7985204637
 30
0.0
 11
35.1049921303
 21
28.2894180929
 31
0.0
  0
LINE
  5
1A3
330
1F
100
AcDbEntity
  8
0
  6
Continuous
 62
     7
370
    30
100
AcDbLine
 10
42.9049921303
 20
27.7399171793
 30
0.0
 11
42.9049921303
 21
28.0825679199
 31
0.0
  0
LINE
  5
1A4
330
1F
100
AcDbEntity
  8
0
  6
Continuous
 62
     7
370
    30
100
AcDbLine
 10
35.3049921303
 20
27.7399171793
 30
0.0
 11
42.9049921303
 21
27.7399171793
 31
0.0
  0
LINE
  5
1A5
330
1F
100
AcDbEntity
  8
0
  6
Continuous
 62
     7
370
    30
100
AcDbLine
 10
43.1049921303
 20
27.7985204637
 30
0.0
 11
42.9049921303
 21
27.7399171793
 31
0.0
  0
LINE
  5
1A6
330
1F
100
AcDbEntity
  8
0
  6
Continuous
 62
     7
370
    30
100
AcDbLine
 10
43.1049921303
 20
28.2894180929
 30
0.0
 11
43.1049921303
 21
27.7985204637
 31
0.0
  0
LINE
  5
1A7
330
1F
100
AcDbEntity
  8
0
  6
Continuous
 62
     7
370
    30
100
AcDbLine
 10
42.9049921303
 20
37.2161123482
 30
0.0
 11
35.3049921303
 21
37.2161123482
 31
0.0
  0
LINE
  5
1A8
330
1F
100
AcDbEntity
  8
0
  6
Continuous
 62
     7
370
    30
100
AcDbLine
 10
42.9049921303
 20
36.9234609688
 30
0.0
 11
42.9049921303
 21
37.2161123482
 31
0.0
  0
LINE
  5
1A9
330
1F
100
AcDbEntity
  8
0
  6
Continuous
 62
     7
370
    30
100
AcDbLine
 10
35.3049921303
 20
36.9234609688
 30
0.0
 11
42.9049921303
 21
36.9234609688
 31
0.0
  0
LINE
  5
1AA
330
1F
100
AcDbEntity
  8
0
  6
Continuous
 62
     7
370
    30
100
AcDbLine
 10
35.3049921303
 20
37.2161123482
 30
0.0
 11
35.3049921303
 21
36.9234609688
 31
0.0
  0
LINE
  5
1AB
330
1F
100
AcDbEntity
  8
0
  6
Continuous
 62
     7
370
    30
100
AcDbLine
 10
35.1049921303
 20
37.1240167176
 30
0.0
 11
35.3049921303
 21
37.2161123482
 31
0.0
  0
LINE
  5
1AC
330
1F
100
AcDbEntity
  8
0
  6
Continuous
 62
     7
370
    30
100
AcDbLine
 10
35.3049921303
 20
36.9234609688
 30
0.0
 11
35.1049921303
 21
36.704750534
 31
0.0
  0
LINE
  5
1AD
330
1F
100
AcDbEntity
  8
0
  6
Continuous
 62
     7
370
    30
100
AcDbLine
 10
35.1049921303
 20
36.704750534
 30
0.0
 11
35.1049921303
 21
37.1240167176
 31
0.0
  0
LINE
  5
1AE
330
1F
100
AcDbEntity
  8
0
  6
Continuous
 62
     7
370
    30
100
AcDbLine
 10
42.9049921303
 20
37.2161123482
 30
0.0
 11
43.1049921303
 21
37.1240167176
 31
0.0
  0
LINE
  5
1AF
330
1F
100
AcDbEntity
  8
0
  6
Continuous
 62
     7
370
    30
100
AcDbLine
 10
43.1049921303
 20
36.704750534
 30
0.0
 11
42.9049921303
 21
36.9234609688
 31
0.0
  0
LINE
  5
1B0
330
1F
100
AcDbEntity
  8
0
  6
Continuous
 62
     7
370
    30
100
AcDbLine
 10
43.1049921303
 20
37.1240167176
 30
0.0
 11
43.1049921303
 21
36.704750534
 31
0.0
  0
LINE
  5
1B1
330
1F
100
AcDbEntity
  8
0
  6
Continuous
 62
     7
370
    30
100
AcDbLine
 10
43.1049921303
 20
36.704750534
 30
0.0
 11
43.1049921303
 21
36.461715691
 31
0.0
  0
LINE
  5
1B2
330
1F
100
AcDbEntity
  8
0
  6
Continuous
 62
     7
370
    30
100
AcDbLine
 10
35.1049921303
 20
36.704750534
 30
0.0
 11
35.1049921303
 21
36.461715691
 31
0.0
  0
LINE
  5
1B3
330
1F
100
AcDbEntity
  8
0
  6
Continuous
 62
     7
370
    30
100
AcDbLine
 10
42.9049921303
 20
27.0441238065
 30
0.0
 11
42.9049921303
 21
27.3367751859
 31
0.0
  0
LINE
  5
1B4
330
1F
100
AcDbEntity
  8
0
  6
Continuous
 62
     7
370
    30
100
AcDbLine
 10
42.9049921303
 20
27.3367751859
 30
0.0
 11
43.1049921303
 21
27.5554856207
 31
0.0
  0
LINE
  5
1B5
330
1F
100
AcDbEntity
  8
0
  6
Continuous
 62
     7
370
    30
100
AcDbLine
 10
43.1049921303
 20
27.1362194371
 30
0.0
 11
42.9049921303
 21
27.0441238065
 31
0.0
  0
LINE
  5
1B6
330
1F
100
AcDbEntity
  8
0
  6
Continuous
 62
     7
370
    30
100
AcDbLine
 10
43.1049921303
 20
27.5554856207
 30
0.0
 11
43.1049921303
 21
27.1362194371
 31
0.0
  0
LINE
  5
1B7
330
1F
100
AcDbEntity
  8
0
  6
Continuous
 62
     7
370
    30
100
AcDbLine
 10
35.1049921303
 20
27.5554856207
 30
0.0
 11
35.3049921303
 21
27.3367751859
 31
0.0
  0
LINE
  5
1B8
330
1F
100
AcDbEntity
  8
0
  6
Continuous
 62
     7
370
    30
100
AcDbLine
 10
42.9049921303
 20
27.3367751859
 30
0.0
 11
35.3049921303
 21
27.3367751859
 31
0.0
  0
LINE
  5
1B9
330
1F
100
AcDbEntity
  8
0
  6
Continuous
 62
     7
370
    30
100
AcDbLine
 10
43.1049921303
 20
27.7985204637
 30
0.0
 11
43.1049921303
 21
27.5554856207
 31
0.0
  0
LINE
  5
1BA
330
1F
100
AcDbEntity
  8
0
  6
Continuous
 62
     7
370
    30
100
AcDbLine
 10
35.1049921303
 20
27.7985204637
 30
0.0
 11
35.1049921303
 21
27.5554856207
 31
0.0
  0
LINE
  5
1BB
330
1F
100
AcDbEntity
  8
0
  6
Continuous
 62
     7
370
    30
100
AcDbLine
 10
35.3049921303
 20
27.3367751859
 30
0.0
 11
35.3049921303
 21
27.0441238065
 31
0.0
  0
LINE
  5
1BC
330
1F
100
AcDbEntity
  8
0
  6
Continuous
 62
     7
370
    30
100
AcDbLine
 10
35.3049921303
 20
27.0441238065
 30
0.0
 11
35.1049921303
 21
27.1362194371
 31
0.0
  0
LINE
  5
1BD
330
1F
100
AcDbEntity
  8
0
  6
Continuous
 62
     7
370
    30
100
AcDbLine
 10
35.1049921303
 20
27.1362194371
 30
0.0
 11
35.1049921303
 21
27.5554856207
 31
0.0
  0
LINE
  5
1BE
330
1F
100
AcDbEntity
  8
0
  6
Continuous
 62
     7
370
    30
100
AcDbLine
 10
35.3049921303
 20
27.0441238065
 30
0.0
 11
42.9049921303
 21
27.0441238065
 31
0.0
  0
LINE
  5
1BF
330
1F
100
AcDbEntity
  8
0
  6
Continuous
 62
     7
370
    30
100
AcDbLine
 10
42.9049921303
 20
37.7866716626
 30
0.0
 11
35.3049921303
 21
37.7866716626
 31
0.0
  0
LINE
  5
1C0
330
1F
100
AcDbEntity
  8
0
  6
Continuous
 62
     7
370
    30
100
AcDbLine
 10
42.9049921303
 20
37.5512256926
 30
0.0
 11
42.9049921303
 21
37.7866716626
 31
0.0
  0
LINE
  5
1C1
330
1F
100
AcDbEntity
  8
0
  6
Continuous
 62
     7
370
    30
100
AcDbLine
 10
35.3049921303
 20
37.5512256926
 30
0.0
 11
42.9049921303
 21
37.5512256926
 31
0.0
  0
LINE
  5
1C2
330
1F
100
AcDbEntity
  8
0
  6
Continuous
 62
     7
370
    30
100
AcDbLine
 10
35.3049921303
 20
37.7866716626
 30
0.0
 11
35.3049921303
 21
37.5512256926
 31
0.0
  0
LINE
  5
1C3
330
1F
100
AcDbEntity
  8
0
  6
Continuous
 62
     7
370
    30
100
AcDbLine
 10
42.9049921303
 20
37.7866716626
 30
0.0
 11
43.1049921303
 21
37.6633513859
 31
0.0
  0
LINE
  5
1C4
330
1F
100
AcDbEntity
  8
0
  6
Continuous
 62
     7
370
    30
100
AcDbLine
 10
43.1049921303
 20
37.3260403727
 30
0.0
 11
42.9049921303
 21
37.5512256926
 31
0.0
  0
LINE
  5
1C5
330
1F
100
AcDbEntity
  8
0
  6
Continuous
 62
     7
370
    30
100
AcDbLine
 10
43.1049921303
 20
37.6633513859
 30
0.0
 11
43.1049921303
 21
37.3260403727
 31
0.0
  0
LINE
  5
1C6
330
1F
100
AcDbEntity
  8
0
  6
Continuous
 62
     7
370
    30
100
AcDbLine
 10
35.1049921303
 20
37.6633513859
 30
0.0
 11
35.3049921303
 21
37.7866716626
 31
0.0
  0
LINE
  5
1C7
330
1F
100
AcDbEntity
  8
0
  6
Continuous
 62
     7
370
    30
100
AcDbLine
 10
35.3049921303
 20
37.5512256926
 30
0.0
 11
35.1049921303
 21
37.3260403727
 31
0.0
  0
LINE
  5
1C8
330
1F
100
AcDbEntity
  8
0
  6
Continuous
 62
     7
370
    30
100
AcDbLine
 10
35.1049921303
 20
37.3260403727
 30
0.0
 11
35.1049921303
 21
37.6633513859
 31
0.0
  0
LINE
  5
1C9
330
1F
100
AcDbEntity
  8
0
  6
Continuous
 62
     7
370
    30
100
AcDbLine
 10
43.1049921303
 20
37.3260403727
 30
0.0
 11
43.1049921303
 21
37.1240167176
 31
0.0
  0
LINE
  5
1CA
330
1F
100
AcDbEntity
  8
0
  6
Continuous
 62
     7
370
    30
100
AcDbLine
 10
35.1049921303
 20
37.3260403727
 30
0.0
 11
35.1049921303
 21
37.1240167176
 31
0.0
  0
LINE
  5
1CB
330
1F
100
AcDbEntity
  8
0
  6
Continuous
 62
     7
370
    30
100
AcDbLine
 10
35.1049921303
 20
26.9341957819
 30
0.0
 11
35.3049921303
 21
26.7090104621
 31
0.0
  0
LINE
  5
1CC
330
1F
100
AcDbEntity
  8
0
  6
Continuous
 62
     7
370
    30
100
AcDbLine
 10
42.9049921303
 20
26.7090104621
 30
0.0
 11
43.1049921303
 21
26.9341957819
 31
0.0
  0
LINE
  5
1CD
330
1F
100
AcDbEntity
  8
0
  6
Continuous
 62
     7
370
    30
100
AcDbLine
 10
42.9049921303
 20
26.7090104621
 30
0.0
 11
35.3049921303
 21
26.7090104621
 31
0.0
  0
LINE
  5
1CE
330
1F
100
AcDbEntity
  8
0
  6
Continuous
 62
     7
370
    30
100
AcDbLine
 10
43.1049921303
 20
27.1362194371
 30
0.0
 11
43.1049921303
 21
26.9341957819
 31
0.0
  0
LINE
  5
1CF
330
1F
100
AcDbEntity
  8
0
  6
Continuous
 62
     7
370
    30
100
AcDbLine
 10
35.1049921303
 20
27.1362194371
 30
0.0
 11
35.1049921303
 21
26.9341957819
 31
0.0
  0
LINE
  5
1D0
330
1F
100
AcDbEntity
  8
0
  6
Continuous
 62
     7
370
    30
100
AcDbLine
 10
35.3049921303
 20
26.7090104621
 30
0.0
 11
35.3049921303
 21
26.4735644921
 31
0.0
  0
SPLINE
  5
1D1
330
1F
100
AcDbEntity
  8
0
  6
Continuous
 62
     7
370
    30
100
AcDbSpline
210
0.0
220
0.0
230
1.0
 70
     8
 71
     3
 72
     9
 73
     5
 74
     0
 42
0.000000001
 43
0.00000001
 40
0.0
 40
0.0
 40
0.0
 40
0.0
 40
0.499998828044654
 40
1.0
 40
1.0
 40
1.0
 40
1.0
 10
35.30499213030183
 20
26.47356449208631
 30
0.0
 10
35.27159705924624
 20
26.49408808528005
 30
0.0
 10
35.20480676058458
 20
26.53513536787869
 30
0.0
 10
35.13826372571972
 20
26.57630160297634
 30
0.0
 10
35.10499213030183
 20
26.59688476877015
 30
0.0
  0
LINE
  5
1D2
330
1F
100
AcDbEntity
  8
0
  6
Continuous
 62
     7
370
    30
100
AcDbLine
 10
35.1049921303
 20
26.5968847688
 30
0.0
 11
35.1049921303
 21
26.9341957819
 31
0.0
  0
LINE
  5
1D3
330
1F
100
AcDbEntity
  8
0
  6
Continuous
 62
     7
370
    30
100
AcDbLine
 10
42.9049921303
 20
26.4735644921
 30
0.0
 11
42.9049921303
 21
26.7090104621
 31
0.0
  0
SPLINE
  5
1D4
330
1F
100
AcDbEntity
  8
0
  6
Continuous
 62
     7
370
    30
100
AcDbSpline
210
0.0
220
0.0
230
1.0
 70
     8
 71
     3
 72
     9
 73
     5
 74
     0
 42
0.000000001
 43
0.00000001
 40
0.0
 40
0.0
 40
0.0
 40
0.0
 40
0.4999987861639921
 40
1.0
 40
1.0
 40
1.0
 40
1.0
 10
43.10499213030183
 20
26.59688476877026
 30
0.0
 10
43.07172069374552
 20
26.57630170114088
 30
0.0
 10
43.00517765908821
 20
26.53513546594401
 30
0.0
 10
42.93838736061227
 20
26.49408818325539
 30
0.0
 10
42.90499213030184
 20
26.47356449208641
 30
0.0
  0
LINE
  5
1D5
330
1F
100
AcDbEntity
  8
0
  6
Continuous
 62
     7
370
    30
100
AcDbLine
 10
43.1049921303
 20
26.9341957819
 30
0.0
 11
43.1049921303
 21
26.5968847688
 31
0.0
  0
LINE
  5
1D6
330
1F
100
AcDbEntity
  8
0
  6
Continuous
 62
     7
370
    30
100
AcDbLine
 10
35.3049921303
 20
26.4735644921
 30
0.0
 11
42.9049921303
 21
26.4735644921
 31
0.0
  0
LINE
  5
1D7
330
1F
100
AcDbEntity
  8
0
  6
Continuous
 62
     7
370
    30
100
AcDbLine
 10
35.3049921303
 20
38.0455047553
 30
0.0
 11
35.1049921303
 21
37.8193893603
 31
0.0
  0
LINE
  5
1D8
330
1F
100
AcDbEntity
  8
0
  6
Continuous
 62
     7
370
    30
100
AcDbLine
 10
35.3049921303
 20
38.0455047553
 30
0.0
 11
42.9049921303
 21
38.0455047553
 31
0.0
  0
LINE
  5
1D9
330
1F
100
AcDbEntity
  8
0
  6
Continuous
 62
     7
370
    30
100
AcDbLine
 10
43.1049921303
 20
37.8193893603
 30
0.0
 11
42.9049921303
 21
38.0455047553
 31
0.0
  0
LINE
  5
1DA
330
1F
100
AcDbEntity
  8
0
  6
Continuous
 62
     7
370
    30
100
AcDbLine
 10
43.1049921303
 20
37.8193893603
 30
0.0
 11
43.1049921303
 21
37.6633513859
 31
0.0
  0
LINE
  5
1DB
330
1F
100
AcDbEntity
  8
0
  6
Continuous
 62
     7
370
    30
100
AcDbLine
 10
35.1049921303
 20
37.8193893603
 30
0.0
 11
35.1049921303
 21
37.6633513859
 31
0.0
  0
SPLINE
  5
1DC
330
1F
100
AcDbEntity
  8
0
  6
Continuous
 62
     7
370
    30
100
AcDbSpline
210
0.0
220
0.0
230
1.0
 70
     8
 71
     3
 72
     9
 73
     5
 74
     0
 42
0.000000001
 43
0.00000001
 40
0.0
 40
0.0
 40
0.0
 40
0.0
 40
0.4999987861639758
 40
1.0
 40
1.0
 40
1.0
 40
1.0
 10
35.10499213030183
 20
26.44084679436984
 30
0.0
 10
35.13826356685816
 20
26.40310646007672
 30
0.0
 10
35.20480660151545
 20
26.32762560824774
 30
0.0
 10
35.27159689999139
 20
26.25236286323877
 30
0.0
 10
35.30499213030183
 20
26.21473139937765
 30
0.0
  0
SPLINE
  5
1DD
330
1F
100
AcDbEntity
  8
0
  6
Continuous
 62
     7
370
    30
100
AcDbSpline
210
0.0
220
0.0
230
1.0
 70
     8
 71
     3
 72
     9
 73
     5
 74
     0
 42
0.000000001
 43
0.00000001
 40
0.0
 40
0.0
 40
0.0
 40
0.0
 40
0.4999988280446552
 40
1.0
 40
1.0
 40
1.0
 40
1.0
 10
42.90499213030184
 20
26.21473139937776
 30
0.0
 10
42.93838720135741
 20
26.25236268359518
 30
0.0
 10
43.00517750001909
 20
26.3276254284392
 30
0.0
 10
43.07172053488393
 20
26.40310628008625
 30
0.0
 10
43.10499213030183
 20
26.44084679436996
 30
0.0
  0
LINE
  5
1DE
330
1F
100
AcDbEntity
  8
0
  6
Continuous
 62
     7
370
    30
100
AcDbLine
 10
42.9049921303
 20
26.2147313994
 30
0.0
 11
35.3049921303
 21
26.2147313994
 31
0.0
  0
LINE
  5
1DF
330
1F
100
AcDbEntity
  8
0
  6
Continuous
 62
     7
370
    30
100
AcDbLine
 10
43.1049921303
 20
26.5968847688
 30
0.0
 11
43.1049921303
 21
26.4408467944
 31
0.0
  0
LINE
  5
1E0
330
1F
100
AcDbEntity
  8
0
  6
Continuous
 62
     7
370
    30
100
AcDbLine
 10
35.1049921303
 20
26.5968847688
 30
0.0
 11
35.1049921303
 21
26.4408467944
 31
0.0
  0
LINE
  5
1E1
330
1F
100
AcDbEntity
  8
0
  6
Continuous
 62
     7
370
    30
100
AcDbLine
 10
35.1049921303
 20
38.0664394864
 30
0.0
 11
35.3049921303
 21
38.2179478547
 31
0.0
  0
LINE
  5
1E2
330
1F
100
AcDbEntity
  8
0
  6
Continuous
 62
     7
370
    30
100
AcDbLine
 10
35.3049921303
 20
38.2179478547
 30
0.0
 11
35.3049921303
 21
38.0455047553
 31
0.0
  0
LINE
  5
1E3
330
1F
100
AcDbEntity
  8
0
  6
Continuous
 62
     7
370
    30
100
AcDbLine
 10
35.1049921303
 20
37.8193893603
 30
0.0
 11
35.1049921303
 21
38.0664394864
 31
0.0
  0
LINE
  5
1E4
330
1F
100
AcDbEntity
  8
0
  6
Continuous
 62
     7
370
    30
100
AcDbLine
 10
42.9049921303
 20
38.0455047553
 30
0.0
 11
42.9049921303
 21
38.2179478547
 31
0.0
  0
LINE
  5
1E5
330
1F
100
AcDbEntity
  8
0
  6
Continuous
 62
     7
370
    30
100
AcDbLine
 10
42.9049921303
 20
38.2179478547
 30
0.0
 11
43.1049921303
 21
38.0664394864
 31
0.0
  0
LINE
  5
1E6
330
1F
100
AcDbEntity
  8
0
  6
Continuous
 62
     7
370
    30
100
AcDbLine
 10
43.1049921303
 20
38.0664394864
 30
0.0
 11
43.1049921303
 21
37.8193893603
 31
0.0
  0
LINE
  5
1E7
330
1F
100
AcDbEntity
  8
0
  6
Continuous
 62
     7
370
    30
100
AcDbLine
 10
42.9049921303
 20
26.0422883
 30
0.0
 11
42.9049921303
 21
26.2147313994
 31
0.0
  0
LINE
  5
1E8
330
1F
100
AcDbEntity
  8
0
  6
Continuous
 62
     7
370
    30
100
AcDbLine
 10
43.1049921303
 20
26.1937966683
 30
0.0
 11
42.9049921303
 21
26.0422883
 31
0.0
  0
LINE
  5
1E9
330
1F
100
AcDbEntity
  8
0
  6
Continuous
 62
     7
370
    30
100
AcDbLine
 10
43.1049921303
 20
26.4408467944
 30
0.0
 11
43.1049921303
 21
26.1937966683
 31
0.0
  0
LINE
  5
1EA
330
1F
100
AcDbEntity
  8
0
  6
Continuous
 62
     7
370
    30
100
AcDbLine
 10
35.3049921303
 20
26.2147313994
 30
0.0
 11
35.3049921303
 21
26.0422883
 31
0.0
  0
LINE
  5
1EB
330
1F
100
AcDbEntity
  8
0
  6
Continuous
 62
     7
370
    30
100
AcDbLine
 10
35.3049921303
 20
26.0422883
 30
0.0
 11
35.1049921303
 21
26.1937966683
 31
0.0
  0
LINE
  5
1EC
330
1F
100
AcDbEntity
  8
0
  6
Continuous
 62
     7
370
    30
100
AcDbLine
 10
35.1049921303
 20
26.1937966683
 30
0.0
 11
35.1049921303
 21
26.4408467944
 31
0.0
  0
LINE
  5
1ED
330
1F
100
AcDbEntity
  8
0
  6
Continuous
 62
     7
370
    30
100
AcDbLine
 10
42.9049921303
 20
38.2179478547
 30
0.0
 11
35.3049921303
 21
38.2179478547
 31
0.0
  0
LINE
  5
1EE
330
1F
100
AcDbEntity
  8
0
  6
Continuous
 62
     7
370
    30
100
AcDbLine
 10
35.3049921303
 20
26.0422883
 30
0.0
 11
42.9049921303
 21
26.0422883
 31
0.0
  0
LINE
  5
1EF
330
1F
100
AcDbEntity
  8
0
  6
Continuous
 62
     7
370
    30
100
AcDbLine
 10
35.3049921303
 20
38.3941273659
 30
0.0
 11
35.1049921303
 21
38.1726496073
 31
0.0
  0
LINE
  5
1F0
330
1F
100
AcDbEntity
  8
0
  6
Continuous
 62
     7
370
    30
100
AcDbLine
 10
35.3049921303
 20
38.3941273659
 30
0.0
 11
42.9049921303
 21
38.3941273659
 31
0.0
  0
LINE
  5
1F1
330
1F
100
AcDbEntity
  8
0
  6
Continuous
 62
     7
370
    30
100
AcDbLine
 10
43.1049921303
 20
38.1726496073
 30
0.0
 11
42.9049921303
 21
38.3941273659
 31
0.0
  0
LINE
  5
1F2
330
1F
100
AcDbEntity
  8
0
  6
Continuous
 62
     7
370
    30
100
AcDbLine
 10
43.1049921303
 20
38.1726496073
 30
0.0
 11
43.1049921303
 21
38.0664394864
 31
0.0
  0
LINE
  5
1F3
330
1F
100
AcDbEntity
  8
0
  6
Continuous
 62
     7
370
    30
100
AcDbLine
 10
35.1049921303
 20
38.1726496073
 30
0.0
 11
35.1049921303
 21
38.0664394864
 31
0.0
  0
LINE
  5
1F4
330
1F
100
AcDbEntity
  8
0
  6
Continuous
 62
     7
370
    30
100
AcDbLine
 10
35.1049921303
 20
26.0875865474
 30
0.0
 11
35.3049921303
 21
25.8661087887
 31
0.0
  0
LINE
  5
1F5
330
1F
100
AcDbEntity
  8
0
  6
Continuous
 62
     7
370
    30
100
AcDbLine
 10
42.9049921303
 20
25.8661087887
 30
0.0
 11
43.1049921303
 21
26.0875865474
 31
0.0
  0
LINE
  5
1F6
330
1F
100
AcDbEntity
  8
0
  6
Continuous
 62
     7
370
    30
100
AcDbLine
 10
42.9049921303
 20
25.8661087887
 30
0.0
 11
35.3049921303
 21
25.8661087887
 31
0.0
  0
LINE
  5
1F7
330
1F
100
AcDbEntity
  8
0
  6
Continuous
 62
     7
370
    30
100
AcDbLine
 10
43.1049921303
 20
26.1937966683
 30
0.0
 11
43.1049921303
 21
26.0875865474
 31
0.0
  0
LINE
  5
1F8
330
1F
100
AcDbEntity
  8
0
  6
Continuous
 62
     7
370
    30
100
AcDbLine
 10
35.1049921303
 20
26.1937966683
 30
0.0
 11
35.1049921303
 21
26.0875865474
 31
0.0
  0
LINE
  5
1F9
330
1F
100
AcDbEntity
  8
0
  6
Continuous
 62
     7
370
    30
100
AcDbLine
 10
42.9049921303
 20
38.3941273659
 30
0.0
 11
42.9049921303
 21
38.4993214733
 31
0.0
  0
LINE
  5
1FA
330
1F
100
AcDbEntity
  8
0
  6
Continuous
 62
     7
370
    30
100
AcDbLine
 10
42.9049921303
 20
38.4993214733
 30
0.0
 11
43.1049921303
 21
38.3233556522
 31
0.0
  0
LINE
  5
1FB
330
1F
100
AcDbEntity
  8
0
  6
Continuous
 62
     7
370
    30
100
AcDbLine
 10
43.1049921303
 20
38.3233556522
 30
0.0
 11
43.1049921303
 21
38.1726496073
 31
0.0
  0
LINE
  5
1FC
330
1F
100
AcDbEntity
  8
0
  6
Continuous
 62
     7
370
    30
100
AcDbLine
 10
35.1049921303
 20
38.3233556522
 30
0.0
 11
35.3049921303
 21
38.4993214733
 31
0.0
  0
LINE
  5
1FD
330
1F
100
AcDbEntity
  8
0
  6
Continuous
 62
     7
370
    30
100
AcDbLine
 10
35.3049921303
 20
38.4993214733
 30
0.0
 11
35.3049921303
 21
38.3941273659
 31
0.0
  0
LINE
  5
1FE
330
1F
100
AcDbEntity
  8
0
  6
Continuous
 62
     7
370
    30
100
AcDbLine
 10
35.1049921303
 20
38.1726496073
 30
0.0
 11
35.1049921303
 21
38.3233556522
 31
0.0
  0
LINE
  5
1FF
330
1F
100
AcDbEntity
  8
0
  6
Continuous
 62
     7
370
    30
100
AcDbLine
 10
42.9049921303
 20
25.7609146813
 30
0.0
 11
42.9049921303
 21
25.8661087887
 31
0.0
  0
LINE
  5
200
330
1F
100
AcDbEntity
  8
0
  6
Continuous
 62
     7
370
    30
100
AcDbLine
 10
43.1049921303
 20
25.9368805024
 30
0.0
 11
42.9049921303
 21
25.7609146813
 31
0.0
  0
LINE
  5
201
330
1F
100
AcDbEntity
  8
0
  6
Continuous
 62
     7
370
    30
100
AcDbLine
 10
43.1049921303
 20
26.0875865474
 30
0.0
 11
43.1049921303
 21
25.9368805024
 31
0.0
  0
LINE
  5
202
330
1F
100
AcDbEntity
  8
0
  6
Continuous
 62
     7
370
    30
100
AcDbLine
 10
35.3049921303
 20
25.8661087887
 30
0.0
 11
35.3049921303
 21
25.7609146813
 31
0.0
  0
LINE
  5
203
330
1F
100
AcDbEntity
  8
0
  6
Continuous
 62
     7
370
    30
100
AcDbLine
 10
35.3049921303
 20
25.7609146813
 30
0.0
 11
35.1049921303
 21
25.9368805024
 31
0.0
  0
LINE
  5
204
330
1F
100
AcDbEntity
  8
0
  6
Continuous
 62
     7
370
    30
100
AcDbLine
 10
35.1049921303
 20
25.9368805024
 30
0.0
 11
35.1049921303
 21
26.0875865474
 31
0.0
  0
LINE
  5
205
330
1F
100
AcDbEntity
  8
0
  6
Continuous
 62
     7
370
    30
100
AcDbLine
 10
42.9049921303
 20
38.4993214733
 30
0.0
 11
35.3049921303
 21
38.4993214733
 31
0.0
  0
LINE
  5
206
330
1F
100
AcDbEntity
  8
0
  6
Continuous
 62
     7
370
    30
100
AcDbLine
 10
35.3049921303
 20
25.7609146813
 30
0.0
 11
42.9049921303
 21
25.7609146813
 31
0.0
  0
LINE
  5
207
330
1F
100
AcDbEntity
  8
0
  6
Continuous
 62
     7
370
    30
100
AcDbLine
 10
35.3049921303
 20
38.5885092788
 30
0.0
 11
35.1049921303
 21
38.3771226739
 31
0.0
  0
LINE
  5
208
330
1F
100
AcDbEntity
  8
0
  6
Continuous
 62
     7
370
    30
100
AcDbLine
 10
35.3049921303
 20
38.5885092788
 30
0.0
 11
42.9049921303
 21
38.5885092788
 31
0.0
  0
LINE
  5
209
330
1F
100
AcDbEntity
  8
0
  6
Continuous
 62
     7
370
    30
100
AcDbLine
 10
43.1049921303
 20
38.3771226739
 30
0.0
 11
42.9049921303
 21
38.5885092788
 31
0.0
  0
LINE
  5
20A
330
1F
100
AcDbEntity
  8
0
  6
Continuous
 62
     7
370
    30
100
AcDbLine
 10
43.1049921303
 20
38.3771226739
 30
0.0
 11
43.1049921303
 21
38.3233556522
 31
0.0
  0
LINE
  5
20B
330
1F
100
AcDbEntity
  8
0
  6
Continuous
 62
     7
370
    30
100
AcDbLine
 10
35.1049921303
 20
38.3771226739
 30
0.0
 11
35.1049921303
 21
38.3233556522
 31
0.0
  0
LINE
  5
20C
330
1F
100
AcDbEntity
  8
0
  6
Continuous
 62
     7
370
    30
100
AcDbLine
 10
35.1049921303
 20
25.8831134807
 30
0.0
 11
35.3049921303
 21
25.6717268758
 31
0.0
  0
SPLINE
  5
20D
330
1F
100
AcDbEntity
  8
0
  6
Continuous
 62
     7
370
    30
100
AcDbSpline
210
0.0
220
0.0
230
1.0
 70
     8
 71
     3
 72
     9
 73
     5
 74
     0
 42
0.000000001
 43
0.00000001
 40
0.0
 40
0.0
 40
0.0
 40
0.0
 40
0.4999988280446573
 40
1.0
 40
1.0
 40
1.0
 40
1.0
 10
42.90499213030184
 20
25.67172687582353
 30
0.0
 10
42.93838720135741
 20
25.70690691921968
 30
0.0
 10
43.00517750001907
 20
25.77726717093014
 30
0.0
 10
43.07172053488394
 20
25.84783132232021
 30
0.0
 10
43.10499213030184
 20
25.88311348071328
 30
0.0
  0
LINE
  5
20E
330
1F
100
AcDbEntity
  8
0
  6
Continuous
 62
     7
370
    30
100
AcDbLine
 10
42.9049921303
 20
25.6717268758
 30
0.0
 11
35.3049921303
 21
25.6717268758
 31
0.0
  0
LINE
  5
20F
330
1F
100
AcDbEntity
  8
0
  6
Continuous
 62
     7
370
    30
100
AcDbLine
 10
43.1049921303
 20
25.9368805024
 30
0.0
 11
43.1049921303
 21
25.8831134807
 31
0.0
  0
LINE
  5
210
330
1F
100
AcDbEntity
  8
0
  6
Continuous
 62
     7
370
    30
100
AcDbLine
 10
35.1049921303
 20
25.9368805024
 30
0.0
 11
35.1049921303
 21
25.8831134807
 31
0.0
  0
LINE
  5
211
330
1F
100
AcDbEntity
  8
0
  6
Continuous
 62
     7
370
    30
100
AcDbLine
 10
42.9049921303
 20
38.5885092788
 30
0.0
 11
42.9049921303
 21
38.6238641662
 31
0.0
  0
LINE
  5
212
330
1F
100
AcDbEntity
  8
0
  6
Continuous
 62
     7
370
    30
100
AcDbLine
 10
42.9049921303
 20
38.6238641662
 30
0.0
 11
43.1049921303
 21
38.4277737548
 31
0.0
  0
LINE
  5
213
330
1F
100
AcDbEntity
  8
0
  6
Continuous
 62
     7
370
    30
100
AcDbLine
 10
43.1049921303
 20
38.4277737548
 30
0.0
 11
43.1049921303
 21
38.3771226739
 31
0.0
  0
LINE
  5
214
330
1F
100
AcDbEntity
  8
0
  6
Continuous
 62
     7
370
    30
100
AcDbLine
 10
35.1049921303
 20
38.4277737548
 30
0.0
 11
35.3049921303
 21
38.6238641662
 31
0.0
  0
LINE
  5
215
330
1F
100
AcDbEntity
  8
0
  6
Continuous
 62
     7
370
    30
100
AcDbLine
 10
35.3049921303
 20
38.6238641662
 30
0.0
 11
35.3049921303
 21
38.5885092788
 31
0.0
  0
LINE
  5
216
330
1F
100
AcDbEntity
  8
0
  6
Continuous
 62
     7
370
    30
100
AcDbLine
 10
35.1049921303
 20
38.3771226739
 30
0.0
 11
35.1049921303
 21
38.4277737548
 31
0.0
  0
LINE
  5
217
330
1F
100
AcDbEntity
  8
0
  6
Continuous
 62
     7
370
    30
100
AcDbLine
 10
42.9049921303
 20
25.6363719885
 30
0.0
 11
42.9049921303
 21
25.6717268758
 31
0.0
  0
LINE
  5
218
330
1F
100
AcDbEntity
  8
0
  6
Continuous
 62
     7
370
    30
100
AcDbLine
 10
43.1049921303
 20
25.8324623998
 30
0.0
 11
42.9049921303
 21
25.6363719885
 31
0.0
  0
LINE
  5
219
330
1F
100
AcDbEntity
  8
0
  6
Continuous
 62
     7
370
    30
100
AcDbLine
 10
43.1049921303
 20
25.8831134807
 30
0.0
 11
43.1049921303
 21
25.8324623998
 31
0.0
  0
LINE
  5
21A
330
1F
100
AcDbEntity
  8
0
  6
Continuous
 62
     7
370
    30
100
AcDbLine
 10
35.3049921303
 20
25.6717268758
 30
0.0
 11
35.3049921303
 21
25.6363719885
 31
0.0
  0
LINE
  5
21B
330
1F
100
AcDbEntity
  8
0
  6
Continuous
 62
     7
370
    30
100
AcDbLine
 10
35.3049921303
 20
25.6363719885
 30
0.0
 11
35.1049921303
 21
25.8324623998
 31
0.0
  0
LINE
  5
21C
330
1F
100
AcDbEntity
  8
0
  6
Continuous
 62
     7
370
    30
100
AcDbLine
 10
35.1049921303
 20
25.8324623998
 30
0.0
 11
35.1049921303
 21
25.8831134807
 31
0.0
  0
LINE
  5
21D
330
1F
100
AcDbEntity
  8
0
  6
Continuous
 62
     7
370
    30
100
AcDbLine
 10
42.9049921303
 20
38.6238641662
 30
0.0
 11
35.3049921303
 21
38.6238641662
 31
0.0
  0
LINE
  5
21E
330
1F
100
AcDbEntity
  8
0
  6
Continuous
 62
     7
370
    30
100
AcDbLine
 10
35.3049921303
 20
25.6363719885
 30
0.0
 11
42.9049921303
 21
25.6363719885
 31
0.0
  0
LINE
  5
21F
330
1F
100
AcDbEntity
  8
0
  6
Continuous
 62
     7
370
    30
100
AcDbLine
 10
20.1049921303
 20
32.1301180773
 30
0.0
 11
20.1049921303
 21
36.8801180773
 31
0.0
  0
LINE
  5
220
330
1F
100
AcDbEntity
  8
0
  6
Continuous
 62
     7
370
    30
100
AcDbLine
 10
20.1049921303
 20
27.3801180773
 30
0.0
 11
20.1049921303
 21
32.1301180773
 31
0.0
  0
LINE
  5
221
330
1F
100
AcDbEntity
  8
0
  6
Continuous
 62
     7
370
    30
100
AcDbLine
 10
30.6049921303
 20
32.1301180773
 30
0.0
 11
30.6049921303
 21
36.8801180773
 31
0.0
  0
LINE
  5
222
330
1F
100
AcDbEntity
  8
0
  6
Continuous
 62
     7
370
    30
100
AcDbLine
 10
30.6049921303
 20
27.3801180773
 30
0.0
 11
30.6049921303
 21
32.1301180773
 31
0.0
  0
LINE
  5
223
330
1F
100
AcDbEntity
  8
0
  6
Continuous
 62
     7
370
    30
100
AcDbLine
 10
31.1049921303
 20
32.1301180773
 30
0.0
 11
31.1049921303
 21
27.8801180773
 31
0.0
  0
LINE
  5
224
330
1F
100
AcDbEntity
  8
0
  6
Continuous
 62
     7
370
    30
100
AcDbLine
 10
31.1049921303
 20
36.3801180773
 30
0.0
 11
31.1049921303
 21
32.1301180773
 31
0.0
  0
LINE
  5
225
330
1F
100
AcDbEntity
  8
0
  6
Continuous
 62
     7
370
    30
100
AcDbLine
 10
19.5799921303
 20
27.4051180773
 30
0.0
 11
19.5799921303
 21
36.8551180773
 31
0.0
  0
LINE
  5
226
330
1F
100
AcDbEntity
  8
0
  6
Continuous
 62
     7
370
    30
100
AcDbLine
 10
19.1049921303
 20
32.1301180773
 30
0.0
 11
19.1049921303
 21
36.3801180773
 31
0.0
  0
LINE
  5
227
330
1F
100
AcDbEntity
  8
0
  6
Continuous
 62
     7
370
    30
100
AcDbLine
 10
19.1049921303
 20
27.8801180773
 30
0.0
 11
19.1049921303
 21
32.1301180773
 31
0.0
  0
LINE
  5
228
330
1F
100
AcDbEntity
  8
0
  6
Continuous
 62
     7
370
    30
100
AcDbLine
 10
16.5049921303
 20
29.1301180773
 30
0.0
 11
16.5049921303
 21
35.1301180773
 31
0.0
  0
LINE
  5
229
330
1F
100
AcDbEntity
  8
0
  6
Continuous
 62
     7
370
    30
100
AcDbLine
 10
15.0049921303
 20
30.0301180773
 30
0.0
 11
15.0049921303
 21
34.2301180773
 31
0.0
  0
DIMENSION
  5
22A
330
1F
100
AcDbEntity
  8
DIM
100
AcDbDimension
  2
_D
 10
31.1049921303
 20
23.3030386551
 30
0.0
 11
25.1049921303
 21
23.3030386551
 31
0.0
 70
   160
  1
<>
 71
     2
 42
-1.0
  3
SLDDIMSTYLE0
100
AcDbAlignedDimension
 13
19.1049921303
 23
27.8801180773
 33
0.0
 14
31.1049921303
 24
27.8801180773
 34
0.0
 50
0.0
100
AcDbRotatedDimension
  0
DIMENSION
  5
235
330
1F
100
AcDbEntity
  8
DIM
100
AcDbDimension
  2
_D_1
 10
9.8677713764
 20
36.8801180773
 30
0.0
 11
9.8677713764
 21
32.1301180773
 31
0.0
 70
   160
  1
%%c<>
 71
     2
 42
-1.0
  3
SLDDIMSTYLE0
100
AcDbAlignedDimension
 13
20.1049921303
 23
27.3801180773
 33
0.0
 14
20.1049921303
 24
36.8801180773
 34
0.0
 50
90.0
100
AcDbRotatedDimension
  0
DIMENSION
  5
240
330
1F
100
AcDbEntity
  8
DIM
100
AcDbDimension
  2
_D_2
 10
35.1049921303
 20
21.6363719885
 30
0.0
 11
24.1049921303
 21
21.6363719885
 31
0.0
 70
   160
  1
<>
 71
     2
 42
-1.0
  3
SLDDIMSTYLE0
100
AcDbAlignedDimension
 13
13.1049921303
 23
32.1301180773
 33
0.0
 14
35.1049921303
 24
25.8324623998
 34
0.0
 50
0.0
100
AcDbRotatedDimension
  0
DIMENSION
  5
24A
330
1F
100
AcDbEntity
  8
DIM
100
AcDbDimension
  2
_D_3
 10
13.1049921303
 20
19.9697053218
 30
0.0
 11
28.1049921303
 21
19.9697053218
 31
0.0
 70
   160
  1
<>
 71
     2
 42
-1.0
  3
SLDDIMSTYLE0
100
AcDbAlignedDimension
 13
43.1049921303
 23
25.8324623998
 33
0.0
 14
13.1049921303
 24
32.1301180773
 34
0.0
 50
0.0
100
AcDbRotatedDimension
  0
INSERT
  5
259
330
1F
100
AcDbEntity
  8
DIM
100
AcDbBlockReference
  2
SW_NOTE_2
 10
28.2572087234
 20
39.8414740242
 30
0.0
  0
LEADER
  5
25B
330
1F
100
AcDbEntity
  8
DIM
100
AcDbLeader
  3
SLDDIMSTYLE1
 76
     2
 10
33.4444177072
 20
35.1301180773
 30
0.0
 10
28.2572087234
 20
39.8414740242
 30
0.0
  0
CIRCLE
  5
25C
330
1F
100
AcDbEntity
  8
0
  6
Continuous
 62
     7
370
    30
100
AcDbCircle
 10
58.2974066527
 20
32.1301180773
 30
0.0
 40
3.949999999999999
  0
LINE
  5
25D
330
1F
100
AcDbEntity
  8
0
  6
Continuous
 62
     7
370
    30
100
AcDbLine
 10
52.5910675095
 20
33.9842200862
 30
0.0
 11
52.2548749612
 21
33.9127601707
 31
0.0
  0
LINE
  5
25E
330
1F
100
AcDbEntity
  8
0
  6
Continuous
 62
     7
370
    30
100
AcDbLine
 10
52.3610853159
 20
34.2396413559
 30
0.0
 11
52.5910675095
 21
33.9842200862
 31
0.0
  0
ARC
  5
25F
330
1F
100
AcDbEntity
  8
0
  6
Continuous
 62
     7
370
    30
100
AcDbCircle
 10
58.2974066527
 20
32.1301180773
 30
0.0
 40
6.299999999999999
100
AcDbArc
 50
154.5631098511
 51
160.4368901489
  0
LINE
  5
260
330
1F
100
AcDbEntity
  8
0
  6
Continuous
 62
     7
370
    30
100
AcDbLine
 10
52.9513673426
 20
34.8540609354
 30
0.0
 11
52.6081353926
 21
34.8360729055
 31
0.0
  0
LINE
  5
261
330
1F
100
AcDbEntity
  8
0
  6
Continuous
 62
     7
370
    30
100
AcDbLine
 10
52.7641733677
 20
35.1423145855
 30
0.0
 11
52.9513673426
 21
34.8540609354
 31
0.0
  0
ARC
  5
262
330
1F
100
AcDbEntity
  8
0
  6
Continuous
 62
     7
370
    30
100
AcDbCircle
 10
58.2974066527
 20
32.1301180773
 30
0.0
 40
6.300000000000003
100
AcDbArc
 50
145.5631098511
 51
151.4368901489
  0
LINE
  5
263
330
1F
100
AcDbEntity
  8
0
  6
Continuous
 62
     7
370
    30
100
AcDbLine
 10
53.4433044994
 20
35.6568297954
 30
0.0
 11
53.1014844344
 21
35.6927564951
 31
0.0
  0
LINE
  5
264
330
1F
100
AcDbEntity
  8
0
  6
Continuous
 62
     7
370
    30
100
AcDbLine
 10
53.3035078586
 20
35.9708182165
 30
0.0
 11
53.4433044994
 21
35.6568297954
 31
0.0
  0
ARC
  5
265
330
1F
100
AcDbEntity
  8
0
  6
Continuous
 62
     7
370
    30
100
AcDbCircle
 10
58.2974066527
 20
32.1301180773
 30
0.0
 40
6.300000000000001
100
AcDbArc
 50
136.5631098511
 51
142.4368901489
  0
LINE
  5
266
330
1F
100
AcDbEntity
  8
0
  6
Continuous
 62
     7
370
    30
100
AcDbLine
 10
54.0547661984
 20
36.3727588789
 30
0.0
 11
53.7227743806
 21
36.4617155516
 31
0.0
  0
LINE
  5
267
330
1F
100
AcDbEntity
  8
0
  6
Continuous
 62
     7
370
    30
100
AcDbLine
 10
53.96580906
 20
36.7047504639
 30
0.0
 11
54.0547661984
 21
36.3727588789
 31
0.0
  0
ARC
  5
268
330
1F
100
AcDbEntity
  8
0
  6
Continuous
 62
     7
370
    30
100
AcDbCircle
 10
58.2974066527
 20
32.1301180773
 30
0.0
 40
6.300000000000005
100
AcDbArc
 50
127.5631098511
 51
133.4368901489
  0
LINE
  5
269
330
1F
100
AcDbEntity
  8
0
  6
Continuous
 62
     7
370
    30
100
AcDbLine
 10
54.7706950491
 20
36.9842201123
 30
0.0
 11
54.456706628
 21
37.124016753
 31
0.0
  0
LINE
  5
26A
330
1F
100
AcDbEntity
  8
0
  6
Continuous
 62
     7
370
    30
100
AcDbLine
 10
54.7347683494
 20
37.3260404101
 30
0.0
 11
54.7706950491
 21
36.9842201123
 31
0.0
  0
ARC
  5
26B
330
1F
100
AcDbEntity
  8
0
  6
Continuous
 62
     7
370
    30
100
AcDbCircle
 10
58.2974066527
 20
32.1301180773
 30
0.0
 40
6.300000000000001
100
AcDbArc
 50
118.5631098511
 51
124.4368901489
  0
LINE
  5
26C
330
1F
100
AcDbEntity
  8
0
  6
Continuous
 62
     7
370
    30
100
AcDbLine
 10
55.5734636762
 20
37.4761572691
 30
0.0
 11
55.2852100262
 21
37.6633514767
 31
0.0
  0
LINE
  5
26D
330
1F
100
AcDbEntity
  8
0
  6
Continuous
 62
     7
370
    30
100
AcDbLine
 10
55.5914517061
 20
37.8193894518
 30
0.0
 11
55.5734636762
 21
37.4761572691
 31
0.0
  0
ARC
  5
26E
330
1F
100
AcDbEntity
  8
0
  6
Continuous
 62
     7
370
    30
100
AcDbCircle
 10
58.2974066527
 20
32.1301180773
 30
0.0
 40
6.300000000000002
100
AcDbArc
 50
109.5631098511
 51
115.4368901489
  0
LINE
  5
26F
330
1F
100
AcDbEntity
  8
0
  6
Continuous
 62
     7
370
    30
100
AcDbLine
 10
56.4433046419
 20
37.8364571022
 30
0.0
 11
56.1878834886
 21
38.0664395286
 31
0.0
  0
LINE
  5
270
330
1F
100
AcDbEntity
  8
0
  6
Continuous
 62
     7
370
    30
100
AcDbLine
 10
56.5147645573
 20
38.1726496505
 30
0.0
 11
56.4433046419
 21
37.8364571022
 31
0.0
  0
ARC
  5
271
330
1F
100
AcDbEntity
  8
0
  6
Continuous
 62
     7
370
    30
100
AcDbCircle
 10
58.2974066527
 20
32.1301180773
 30
0.0
 40
6.300000000000009
100
AcDbArc
 50
100.5631098511
 51
106.4368901489
  0
LINE
  5
272
330
1F
100
AcDbEntity
  8
0
  6
Continuous
 62
     7
370
    30
100
AcDbLine
 10
57.358799855
 20
38.0562480656
 30
0.0
 11
57.1425004199
 21
38.323355571
 31
0.0
  0
LINE
  5
273
330
1F
100
AcDbEntity
  8
0
  6
Continuous
 62
     7
370
    30
100
AcDbLine
 10
57.4819720385
 20
38.3771226859
 30
0.0
 11
57.358799855
 21
38.0562480656
 31
0.0
  0
ARC
  5
274
330
1F
100
AcDbEntity
  8
0
  6
Continuous
 62
     7
370
    30
100
AcDbCircle
 10
58.2974066527
 20
32.1301180773
 30
0.0
 40
6.300000000000003
100
AcDbArc
 50
91.5631098511
 51
97.4368901489
  0
LINE
  5
275
330
1F
100
AcDbEntity
  8
0
  6
Continuous
 62
     7
370
    30
100
AcDbLine
 10
58.2974066527
 20
38.1301180111
 30
0.0
 11
58.1255550677
 21
38.4277738282
 31
0.0
  0
LINE
  5
276
330
1F
100
AcDbEntity
  8
0
  6
Continuous
 62
     7
370
    30
100
AcDbLine
 10
58.4692582377
 20
38.4277738282
 30
0.0
 11
58.2974066527
 21
38.1301180111
 31
0.0
  0
ARC
  5
277
330
1F
100
AcDbEntity
  8
0
  6
Continuous
 62
     7
370
    30
100
AcDbCircle
 10
58.2974066527
 20
32.1301180773
 30
0.0
 40
6.300000000000007
100
AcDbArc
 50
82.5631098511
 51
88.4368901489
  0
LINE
  5
278
330
1F
100
AcDbEntity
  8
0
  6
Continuous
 62
     7
370
    30
100
AcDbLine
 10
59.2360134504
 20
38.0562480656
 30
0.0
 11
59.1128412669
 21
38.3771226859
 31
0.0
  0
LINE
  5
279
330
1F
100
AcDbEntity
  8
0
  6
Continuous
 62
     7
370
    30
100
AcDbLine
 10
59.4523128855
 20
38.323355571
 30
0.0
 11
59.2360134504
 21
38.0562480656
 31
0.0
  0
ARC
  5
27A
330
1F
100
AcDbEntity
  8
0
  6
Continuous
 62
     7
370
    30
100
AcDbCircle
 10
58.2974066527
 20
32.1301180773
 30
0.0
 40
6.300000000000003
100
AcDbArc
 50
73.5631098511
 51
79.4368901489
  0
LINE
  5
27B
330
1F
100
AcDbEntity
  8
0
  6
Continuous
 62
     7
370
    30
100
AcDbLine
 10
60.1515086635
 20
37.8364571022
 30
0.0
 11
60.080048748
 21
38.1726496505
 31
0.0
  0
LINE
  5
27C
330
1F
100
AcDbEntity
  8
0
  6
Continuous
 62
     7
370
    30
100
AcDbLine
 10
60.4069298168
 20
38.0664395286
 30
0.0
 11
60.1515086635
 21
37.8364571022
 31
0.0
  0
ARC
  5
27D
330
1F
100
AcDbEntity
  8
0
  6
Continuous
 62
     7
370
    30
100
AcDbCircle
 10
58.2974066527
 20
32.1301180773
 30
0.0
 40
6.299999999999999
100
AcDbArc
 50
64.5631098511
 51
70.4368901489
  0
LINE
  5
27E
330
1F
100
AcDbEntity
  8
0
  6
Continuous
 62
     7
370
    30
100
AcDbLine
 10
61.0213496291
 20
37.4761572691
 30
0.0
 11
61.0033615993
 21
37.8193894518
 31
0.0
  0
LINE
  5
27F
330
1F
100
AcDbEntity
  8
0
  6
Continuous
 62
     7
370
    30
100
AcDbLine
 10
61.3096032792
 20
37.6633514767
 30
0.0
 11
61.0213496291
 21
37.4761572691
 31
0.0
  0
ARC
  5
280
330
1F
100
AcDbEntity
  8
0
  6
Continuous
 62
     7
370
    30
100
AcDbCircle
 10
58.2974066527
 20
32.1301180773
 30
0.0
 40
6.300000000000003
100
AcDbArc
 50
55.5631098511
 51
61.4368901489
  0
LINE
  5
281
330
1F
100
AcDbEntity
  8
0
  6
Continuous
 62
     7
370
    30
100
AcDbLine
 10
61.8241182563
 20
36.9842201123
 30
0.0
 11
61.860044956
 21
37.3260404101
 31
0.0
  0
LINE
  5
282
330
1F
100
AcDbEntity
  8
0
  6
Continuous
 62
     7
370
    30
100
AcDbLine
 10
62.1381066774
 20
37.124016753
 30
0.0
 11
61.8241182563
 21
36.9842201123
 31
0.0
  0
ARC
  5
283
330
1F
100
AcDbEntity
  8
0
  6
Continuous
 62
     7
370
    30
100
AcDbCircle
 10
58.2974066527
 20
32.1301180773
 30
0.0
 40
6.300000000000005
100
AcDbArc
 50
46.5631098511
 51
52.4368901489
  0
LINE
  5
284
330
1F
100
AcDbEntity
  8
0
  6
Continuous
 62
     7
370
    30
100
AcDbLine
 10
62.540047107
 20
36.3727588789
 30
0.0
 11
62.6290042454
 21
36.7047504639
 31
0.0
  0
LINE
  5
285
330
1F
100
AcDbEntity
  8
0
  6
Continuous
 62
     7
370
    30
100
AcDbLine
 10
62.8720389248
 20
36.4617155516
 30
0.0
 11
62.540047107
 21
36.3727588789
 31
0.0
  0
ARC
  5
286
330
1F
100
AcDbEntity
  8
0
  6
Continuous
 62
     7
370
    30
100
AcDbCircle
 10
58.2974066527
 20
32.1301180773
 30
0.0
 40
6.299999999999997
100
AcDbArc
 50
37.5631098511
 51
43.4368901489
  0
LINE
  5
287
330
1F
100
AcDbEntity
  8
0
  6
Continuous
 62
     7
370
    30
100
AcDbLine
 10
63.151508806
 20
35.6568297954
 30
0.0
 11
63.2913054467
 21
35.9708182165
 31
0.0
  0
LINE
  5
288
330
1F
100
AcDbEntity
  8
0
  6
Continuous
 62
     7
370
    30
100
AcDbLine
 10
63.493328871
 20
35.6927564951
 30
0.0
 11
63.151508806
 21
35.6568297954
 31
0.0
  0
ARC
  5
289
330
1F
100
AcDbEntity
  8
0
  6
Continuous
 62
     7
370
    30
100
AcDbCircle
 10
58.2974066527
 20
32.1301180773
 30
0.0
 40
6.300000000000003
100
AcDbArc
 50
28.5631098511
 51
34.4368901489
  0
LINE
  5
28A
330
1F
100
AcDbEntity
  8
0
  6
Continuous
 62
     7
370
    30
100
AcDbLine
 10
63.6434459628
 20
34.8540609354
 30
0.0
 11
63.8306399376
 21
35.1423145855
 31
0.0
  0
LINE
  5
28B
330
1F
100
AcDbEntity
  8
0
  6
Continuous
 62
     7
370
    30
100
AcDbLine
 10
63.9866779127
 20
34.8360729055
 30
0.0
 11
63.6434459628
 21
34.8540609354
 31
0.0
  0
ARC
  5
28C
330
1F
100
AcDbEntity
  8
0
  6
Continuous
 62
     7
370
    30
100
AcDbCircle
 10
58.2974066527
 20
32.1301180773
 30
0.0
 40
6.299999999999999
100
AcDbArc
 50
19.5631098511
 51
25.4368901489
  0
LINE
  5
28D
330
1F
100
AcDbEntity
  8
0
  6
Continuous
 62
     7
370
    30
100
AcDbLine
 10
64.0037457959
 20
33.9842200862
 30
0.0
 11
64.2337279895
 21
34.2396413559
 31
0.0
  0
LINE
  5
28E
330
1F
100
AcDbEntity
  8
0
  6
Continuous
 62
     7
370
    30
100
AcDbLine
 10
64.3399383442
 20
33.9127601707
 30
0.0
 11
64.0037457959
 21
33.9842200862
 31
0.0
  0
ARC
  5
28F
330
1F
100
AcDbEntity
  8
0
  6
Continuous
 62
     7
370
    30
100
AcDbCircle
 10
58.2974066527
 20
32.1301180773
 30
0.0
 40
6.300000000000004
100
AcDbArc
 50
10.5631098511
 51
16.4368901489
  0
LINE
  5
290
330
1F
100
AcDbEntity
  8
0
  6
Continuous
 62
     7
370
    30
100
AcDbLine
 10
64.2235365265
 20
33.0687248731
 30
0.0
 11
64.4906440319
 21
33.2850240754
 31
0.0
  0
LINE
  5
291
330
1F
100
AcDbEntity
  8
0
  6
Continuous
 62
     7
370
    30
100
AcDbLine
 10
64.5444111468
 20
32.945552806
 30
0.0
 11
64.2235365265
 21
33.0687248731
 31
0.0
  0
ARC
  5
292
330
1F
100
AcDbEntity
  8
0
  6
Continuous
 62
     7
370
    30
100
AcDbCircle
 10
58.2974066527
 20
32.1301180773
 30
0.0
 40
6.299999999999994
100
AcDbArc
 50
1.5631098511
 51
7.4368901489
  0
LINE
  5
293
330
1F
100
AcDbEntity
  8
0
  6
Continuous
 62
     7
370
    30
100
AcDbLine
 10
64.2974067048
 20
32.130117959
 30
0.0
 11
64.595062522
 21
32.3019693257
 31
0.0
  0
LINE
  5
294
330
1F
100
AcDbEntity
  8
0
  6
Continuous
 62
     7
370
    30
100
AcDbLine
 10
64.595062522
 20
31.9582665922
 30
0.0
 11
64.2974067048
 21
32.130117959
 31
0.0
  0
ARC
  5
295
330
1F
100
AcDbEntity
  8
0
  6
Continuous
 62
     7
370
    30
100
AcDbCircle
 10
58.2974066527
 20
32.1301180773
 30
0.0
 40
6.29999999999999
100
AcDbArc
 50
352.5631098511
 51
358.4368901489
  0
LINE
  5
296
330
1F
100
AcDbEntity
  8
0
  6
Continuous
 62
     7
370
    30
100
AcDbLine
 10
64.2235365265
 20
31.1915115105
 30
0.0
 11
64.5444111468
 21
31.3146835776
 31
0.0
  0
LINE
  5
297
330
1F
100
AcDbEntity
  8
0
  6
Continuous
 62
     7
370
    30
100
AcDbLine
 10
64.4906440319
 20
30.9752118425
 30
0.0
 11
64.2235365265
 21
31.1915115105
 31
0.0
  0
ARC
  5
298
330
1F
100
AcDbEntity
  8
0
  6
Continuous
 62
     7
370
    30
100
AcDbCircle
 10
58.2974066527
 20
32.1301180773
 30
0.0
 40
6.299999999999993
100
AcDbArc
 50
343.5631098511
 51
349.4368901489
  0
LINE
  5
299
330
1F
100
AcDbEntity
  8
0
  6
Continuous
 62
     7
370
    30
100
AcDbLine
 10
64.0037457959
 20
30.2760158317
 30
0.0
 11
64.3399383442
 21
30.3474762129
 31
0.0
  0
LINE
  5
29A
330
1F
100
AcDbEntity
  8
0
  6
Continuous
 62
     7
370
    30
100
AcDbLine
 10
64.2337279895
 20
30.0205950277
 30
0.0
 11
64.0037457959
 21
30.2760158317
 31
0.0
  0
ARC
  5
29B
330
1F
100
AcDbEntity
  8
0
  6
Continuous
 62
     7
370
    30
100
AcDbCircle
 10
58.2974066527
 20
32.1301180773
 30
0.0
 40
6.299999999999999
100
AcDbArc
 50
334.5631098511
 51
340.4368901489
  0
LINE
  5
29C
330
1F
100
AcDbEntity
  8
0
  6
Continuous
 62
     7
370
    30
100
AcDbLine
 10
63.6434459628
 20
29.4061754482
 30
0.0
 11
63.9866779127
 21
29.4241630124
 31
0.0
  0
LINE
  5
29D
330
1F
100
AcDbEntity
  8
0
  6
Continuous
 62
     7
370
    30
100
AcDbLine
 10
63.8306399376
 20
29.1179217981
 30
0.0
 11
63.6434459628
 21
29.4061754482
 31
0.0
  0
ARC
  5
29E
330
1F
100
AcDbEntity
  8
0
  6
Continuous
 62
     7
370
    30
100
AcDbCircle
 10
58.2974066527
 20
32.1301180773
 30
0.0
 40
6.3
100
AcDbArc
 50
325.5631098511
 51
331.4368901489
  0
LINE
  5
29F
330
1F
100
AcDbEntity
  8
0
  6
Continuous
 62
     7
370
    30
100
AcDbLine
 10
63.151508806
 20
28.6034061225
 30
0.0
 11
63.493328871
 21
28.5674794229
 31
0.0
  0
LINE
  5
2A0
330
1F
100
AcDbEntity
  8
0
  6
Continuous
 62
     7
370
    30
100
AcDbLine
 10
63.2913054467
 20
28.2894181671
 30
0.0
 11
63.151508806
 21
28.6034061225
 31
0.0
  0
ARC
  5
2A1
330
1F
100
AcDbEntity
  8
0
  6
Continuous
 62
     7
370
    30
100
AcDbCircle
 10
58.2974066527
 20
32.1301180773
 30
0.0
 40
6.299999999999996
100
AcDbArc
 50
316.5631098511
 51
322.4368901489
  0
LINE
  5
2A2
330
1F
100
AcDbEntity
  8
0
  6
Continuous
 62
     7
370
    30
100
AcDbLine
 10
62.540047107
 20
27.887477039
 30
0.0
 11
62.8720389248
 21
27.7985208319
 31
0.0
  0
LINE
  5
2A3
330
1F
100
AcDbEntity
  8
0
  6
Continuous
 62
     7
370
    30
100
AcDbLine
 10
62.6290042454
 20
27.5554856868
 30
0.0
 11
62.540047107
 21
27.887477039
 31
0.0
  0
ARC
  5
2A4
330
1F
100
AcDbEntity
  8
0
  6
Continuous
 62
     7
370
    30
100
AcDbCircle
 10
58.2974066527
 20
32.1301180773
 30
0.0
 40
6.299999999999996
100
AcDbArc
 50
307.5631098511
 51
313.4368901489
  0
LINE
  5
2A5
330
1F
100
AcDbEntity
  8
0
  6
Continuous
 62
     7
370
    30
100
AcDbLine
 10
61.8241182563
 20
27.2760162713
 30
0.0
 11
62.1381066774
 21
27.1362191649
 31
0.0
  0
LINE
  5
2A6
330
1F
100
AcDbEntity
  8
0
  6
Continuous
 62
     7
370
    30
100
AcDbLine
 10
61.860044956
 20
26.9341957407
 30
0.0
 11
61.8241182563
 21
27.2760162713
 31
0.0
  0
ARC
  5
2A7
330
1F
100
AcDbEntity
  8
0
  6
Continuous
 62
     7
370
    30
100
AcDbCircle
 10
58.2974066527
 20
32.1301180773
 30
0.0
 40
6.299999999999999
100
AcDbArc
 50
298.5631098511
 51
304.4368901489
  0
LINE
  5
2A8
330
1F
100
AcDbEntity
  8
0
  6
Continuous
 62
     7
370
    30
100
AcDbLine
 10
61.0213496291
 20
26.7840786489
 30
0.0
 11
61.3096032792
 21
26.596884674
 31
0.0
  0
LINE
  5
2A9
330
1F
100
AcDbEntity
  8
0
  6
Continuous
 62
     7
370
    30
100
AcDbLine
 10
61.0033615993
 20
26.4408471646
 30
0.0
 11
61.0213496291
 21
26.7840786489
 31
0.0
  0
ARC
  5
2AA
330
1F
100
AcDbEntity
  8
0
  6
Continuous
 62
     7
370
    30
100
AcDbCircle
 10
58.2974066527
 20
32.1301180773
 30
0.0
 40
6.299999999999996
100
AcDbArc
 50
289.5631098511
 51
295.4368901489
  0
LINE
  5
2AB
330
1F
100
AcDbEntity
  8
0
  6
Continuous
 62
     7
370
    30
100
AcDbLine
 10
60.1515086635
 20
26.4237788157
 30
0.0
 11
60.4069298168
 21
26.1937970878
 31
0.0
  0
LINE
  5
2AC
330
1F
100
AcDbEntity
  8
0
  6
Continuous
 62
     7
370
    30
100
AcDbLine
 10
60.080048748
 20
26.0875862675
 30
0.0
 11
60.1515086635
 21
26.4237788157
 31
0.0
  0
ARC
  5
2AD
330
1F
100
AcDbEntity
  8
0
  6
Continuous
 62
     7
370
    30
100
AcDbCircle
 10
58.2974066527
 20
32.1301180773
 30
0.0
 40
6.299999999999997
100
AcDbArc
 50
280.5631098511
 51
286.4368901489
  0
LINE
  5
2AE
330
1F
100
AcDbEntity
  8
0
  6
Continuous
 62
     7
370
    30
100
AcDbLine
 10
59.2360134504
 20
26.2039876195
 30
0.0
 11
59.4523128855
 21
25.9368805798
 31
0.0
  0
LINE
  5
2AF
330
1F
100
AcDbEntity
  8
0
  6
Continuous
 62
     7
370
    30
100
AcDbLine
 10
59.1128412669
 20
25.8831134649
 30
0.0
 11
59.2360134504
 21
26.2039876195
 31
0.0
  0
ARC
  5
2B0
330
1F
100
AcDbEntity
  8
0
  6
Continuous
 62
     7
370
    30
100
AcDbCircle
 10
58.2974066527
 20
32.1301180773
 30
0.0
 40
6.299999999999996
100
AcDbArc
 50
271.5631098511
 51
277.4368901489
  0
LINE
  5
2B1
330
1F
100
AcDbEntity
  8
0
  6
Continuous
 62
     7
370
    30
100
AcDbLine
 10
58.2974066527
 20
26.1301179068
 30
0.0
 11
58.4692582377
 21
25.8324625553
 31
0.0
  0
LINE
  5
2B2
330
1F
100
AcDbEntity
  8
0
  6
Continuous
 62
     7
370
    30
100
AcDbLine
 10
58.1255550677
 20
25.8324625553
 30
0.0
 11
58.2974066527
 21
26.1301179068
 31
0.0
  0
ARC
  5
2B3
330
1F
100
AcDbEntity
  8
0
  6
Continuous
 62
     7
370
    30
100
AcDbCircle
 10
58.2974066527
 20
32.1301180773
 30
0.0
 40
6.3
100
AcDbArc
 50
262.5631098511
 51
268.4368901489
  0
LINE
  5
2B4
330
1F
100
AcDbEntity
  8
0
  6
Continuous
 62
     7
370
    30
100
AcDbLine
 10
57.358799855
 20
26.2039876195
 30
0.0
 11
57.4819720385
 21
25.8831134649
 31
0.0
  0
LINE
  5
2B5
330
1F
100
AcDbEntity
  8
0
  6
Continuous
 62
     7
370
    30
100
AcDbLine
 10
57.1425004199
 20
25.9368805798
 30
0.0
 11
57.358799855
 21
26.2039876195
 31
0.0
  0
ARC
  5
2B6
330
1F
100
AcDbEntity
  8
0
  6
Continuous
 62
     7
370
    30
100
AcDbCircle
 10
58.2974066527
 20
32.1301180773
 30
0.0
 40
6.299999999999997
100
AcDbArc
 50
253.5631098511
 51
259.4368901489
  0
LINE
  5
2B7
330
1F
100
AcDbEntity
  8
0
  6
Continuous
 62
     7
370
    30
100
AcDbLine
 10
56.4433046419
 20
26.4237788157
 30
0.0
 11
56.5147645573
 21
26.0875862675
 31
0.0
  0
LINE
  5
2B8
330
1F
100
AcDbEntity
  8
0
  6
Continuous
 62
     7
370
    30
100
AcDbLine
 10
56.1878834886
 20
26.1937970878
 30
0.0
 11
56.4433046419
 21
26.4237788157
 31
0.0
  0
ARC
  5
2B9
330
1F
100
AcDbEntity
  8
0
  6
Continuous
 62
     7
370
    30
100
AcDbCircle
 10
58.2974066527
 20
32.1301180773
 30
0.0
 40
6.300000000000001
100
AcDbArc
 50
244.5631098511
 51
250.4368901489
  0
LINE
  5
2BA
330
1F
100
AcDbEntity
  8
0
  6
Continuous
 62
     7
370
    30
100
AcDbLine
 10
55.5734636762
 20
26.7840786489
 30
0.0
 11
55.5914517061
 21
26.4408471646
 31
0.0
  0
LINE
  5
2BB
330
1F
100
AcDbEntity
  8
0
  6
Continuous
 62
     7
370
    30
100
AcDbLine
 10
55.2852100262
 20
26.596884674
 30
0.0
 11
55.5734636762
 21
26.7840786489
 31
0.0
  0
ARC
  5
2BC
330
1F
100
AcDbEntity
  8
0
  6
Continuous
 62
     7
370
    30
100
AcDbCircle
 10
58.2974066527
 20
32.1301180773
 30
0.0
 40
6.299999999999999
100
AcDbArc
 50
235.5631098511
 51
241.4368901489
  0
LINE
  5
2BD
330
1F
100
AcDbEntity
  8
0
  6
Continuous
 62
     7
370
    30
100
AcDbLine
 10
54.7706950491
 20
27.2760162713
 30
0.0
 11
54.7347683494
 21
26.9341957407
 31
0.0
  0
LINE
  5
2BE
330
1F
100
AcDbEntity
  8
0
  6
Continuous
 62
     7
370
    30
100
AcDbLine
 10
54.456706628
 20
27.1362191649
 30
0.0
 11
54.7706950491
 21
27.2760162713
 31
0.0
  0
ARC
  5
2BF
330
1F
100
AcDbEntity
  8
0
  6
Continuous
 62
     7
370
    30
100
AcDbCircle
 10
58.2974066527
 20
32.1301180773
 30
0.0
 40
6.299999999999997
100
AcDbArc
 50
226.5631098511
 51
232.4368901489
  0
LINE
  5
2C0
330
1F
100
AcDbEntity
  8
0
  6
Continuous
 62
     7
370
    30
100
AcDbLine
 10
54.0547661984
 20
27.887477039
 30
0.0
 11
53.96580906
 21
27.5554856868
 31
0.0
  0
LINE
  5
2C1
330
1F
100
AcDbEntity
  8
0
  6
Continuous
 62
     7
370
    30
100
AcDbLine
 10
53.7227743806
 20
27.7985208319
 30
0.0
 11
54.0547661984
 21
27.887477039
 31
0.0
  0
ARC
  5
2C2
330
1F
100
AcDbEntity
  8
0
  6
Continuous
 62
     7
370
    30
100
AcDbCircle
 10
58.2974066527
 20
32.1301180773
 30
0.0
 40
6.299999999999993
100
AcDbArc
 50
217.5631098511
 51
223.4368901489
  0
LINE
  5
2C3
330
1F
100
AcDbEntity
  8
0
  6
Continuous
 62
     7
370
    30
100
AcDbLine
 10
53.4433044994
 20
28.6034061225
 30
0.0
 11
53.3035078586
 21
28.2894181671
 31
0.0
  0
LINE
  5
2C4
330
1F
100
AcDbEntity
  8
0
  6
Continuous
 62
     7
370
    30
100
AcDbLine
 10
53.1014844344
 20
28.5674794229
 30
0.0
 11
53.4433044994
 21
28.6034061225
 31
0.0
  0
ARC
  5
2C5
330
1F
100
AcDbEntity
  8
0
  6
Continuous
 62
     7
370
    30
100
AcDbCircle
 10
58.2974066527
 20
32.1301180773
 30
0.0
 40
6.300000000000001
100
AcDbArc
 50
208.5631098511
 51
214.4368901489
  0
LINE
  5
2C6
330
1F
100
AcDbEntity
  8
0
  6
Continuous
 62
     7
370
    30
100
AcDbLine
 10
52.9513673426
 20
29.4061754482
 30
0.0
 11
52.7641733677
 21
29.1179217981
 31
0.0
  0
LINE
  5
2C7
330
1F
100
AcDbEntity
  8
0
  6
Continuous
 62
     7
370
    30
100
AcDbLine
 10
52.6081353926
 20
29.4241630124
 30
0.0
 11
52.9513673426
 21
29.4061754482
 31
0.0
  0
ARC
  5
2C8
330
1F
100
AcDbEntity
  8
0
  6
Continuous
 62
     7
370
    30
100
AcDbCircle
 10
58.2974066527
 20
32.1301180773
 30
0.0
 40
6.299999999999999
100
AcDbArc
 50
199.5631098511
 51
205.4368901489
  0
LINE
  5
2C9
330
1F
100
AcDbEntity
  8
0
  6
Continuous
 62
     7
370
    30
100
AcDbLine
 10
52.5910675095
 20
30.2760158317
 30
0.0
 11
52.3610853159
 21
30.0205950277
 31
0.0
  0
LINE
  5
2CA
330
1F
100
AcDbEntity
  8
0
  6
Continuous
 62
     7
370
    30
100
AcDbLine
 10
52.2548749612
 20
30.3474762129
 30
0.0
 11
52.5910675095
 21
30.2760158317
 31
0.0
  0
ARC
  5
2CB
330
1F
100
AcDbEntity
  8
0
  6
Continuous
 62
     7
370
    30
100
AcDbCircle
 10
58.2974066527
 20
32.1301180773
 30
0.0
 40
6.300000000000001
100
AcDbArc
 50
190.5631098511
 51
196.4368901489
  0
LINE
  5
2CC
330
1F
100
AcDbEntity
  8
0
  6
Continuous
 62
     7
370
    30
100
AcDbLine
 10
52.3712767788
 20
31.1915115105
 30
0.0
 11
52.1041692735
 21
30.9752118425
 31
0.0
  0
LINE
  5
2CD
330
1F
100
AcDbEntity
  8
0
  6
Continuous
 62
     7
370
    30
100
AcDbLine
 10
52.0504021586
 20
31.3146835776
 30
0.0
 11
52.3712767788
 21
31.1915115105
 31
0.0
  0
ARC
  5
2CE
330
1F
100
AcDbEntity
  8
0
  6
Continuous
 62
     7
370
    30
100
AcDbCircle
 10
58.2974066527
 20
32.1301180773
 30
0.0
 40
6.300000000000006
100
AcDbArc
 50
181.5631098511
 51
187.4368901489
  0
LINE
  5
2CF
330
1F
100
AcDbEntity
  8
0
  6
Continuous
 62
     7
370
    30
100
AcDbLine
 10
52.2974066005
 20
32.130117959
 30
0.0
 11
51.9997507834
 21
31.9582665922
 31
0.0
  0
LINE
  5
2D0
330
1F
100
AcDbEntity
  8
0
  6
Continuous
 62
     7
370
    30
100
AcDbLine
 10
51.9997507834
 20
32.3019693257
 30
0.0
 11
52.2974066005
 21
32.130117959
 31
0.0
  0
ARC
  5
2D1
330
1F
100
AcDbEntity
  8
0
  6
Continuous
 62
     7
370
    30
100
AcDbCircle
 10
58.2974066527
 20
32.1301180773
 30
0.0
 40
6.300000000000005
100
AcDbArc
 50
172.5631098511
 51
178.4368901489
  0
LINE
  5
2D2
330
1F
100
AcDbEntity
  8
0
  6
Continuous
 62
     7
370
    30
100
AcDbLine
 10
52.3712767788
 20
33.0687248731
 30
0.0
 11
52.0504021586
 21
32.945552806
 31
0.0
  0
LINE
  5
2D3
330
1F
100
AcDbEntity
  8
0
  6
Continuous
 62
     7
370
    30
100
AcDbLine
 10
52.1041692735
 20
33.2850240754
 30
0.0
 11
52.3712767788
 21
33.0687248731
 31
0.0
  0
ARC
  5
2D4
330
1F
100
AcDbEntity
  8
0
  6
Continuous
 62
     7
370
    30
100
AcDbCircle
 10
58.2974066527
 20
32.1301180773
 30
0.0
 40
6.300000000000009
100
AcDbArc
 50
163.5631098511
 51
169.4368901489
  0
ARC
  5
2D5
330
1F
100
AcDbEntity
  8
0
  6
Continuous
 62
     7
370
    30
100
AcDbCircle
 10
58.2974066527
 20
32.1301180773
 30
0.0
 40
6.500000000000002
100
AcDbArc
 50
272.5135737496
 51
276.4864262504
  0
LINE
  5
2D6
330
1F
100
AcDbEntity
  8
0
  6
Continuous
 62
     7
370
    30
100
AcDbLine
 10
58.5824710759
 20
25.6363716559
 30
0.0
 11
58.4692582377
 21
25.8324625553
 31
0.0
  0
LINE
  5
2D7
330
1F
100
AcDbEntity
  8
0
  6
Continuous
 62
     7
370
    30
100
AcDbLine
 10
59.1128412669
 20
25.8831134649
 30
0.0
 11
59.0316975175
 21
25.6717265235
 31
0.0
  0
ARC
  5
2D8
330
1F
100
AcDbEntity
  8
0
  6
Continuous
 62
     7
370
    30
100
AcDbCircle
 10
58.2974066527
 20
32.1301180773
 30
0.0
 40
6.499999999999999
100
AcDbArc
 50
299.5135737496
 51
303.4864262504
  0
LINE
  5
2D9
330
1F
100
AcDbEntity
  8
0
  6
Continuous
 62
     7
370
    30
100
AcDbLine
 10
61.4994999522
 20
26.4735645266
 30
0.0
 11
61.3096032792
 21
26.596884674
 31
0.0
  0
LINE
  5
2DA
330
1F
100
AcDbEntity
  8
0
  6
Continuous
 62
     7
370
    30
100
AcDbLine
 10
61.860044956
 20
26.9341957407
 30
0.0
 11
61.8837128894
 21
26.7090103241
 31
0.0
  0
ARC
  5
2DB
330
1F
100
AcDbEntity
  8
0
  6
Continuous
 62
     7
370
    30
100
AcDbCircle
 10
58.2974066527
 20
32.1301180773
 30
0.0
 40
6.500000000000004
100
AcDbArc
 50
281.5135737496
 51
285.4864262504
  0
LINE
  5
2DC
330
1F
100
AcDbEntity
  8
0
  6
Continuous
 62
     7
370
    30
100
AcDbLine
 10
59.5948072185
 20
25.7609146299
 30
0.0
 11
59.4523128855
 21
25.9368805798
 31
0.0
  0
LINE
  5
2DD
330
1F
100
AcDbEntity
  8
0
  6
Continuous
 62
     7
370
    30
100
AcDbLine
 10
60.080048748
 20
26.0875862675
 30
0.0
 11
60.0329721381
 21
25.866108446
 31
0.0
  0
ARC
  5
2DE
330
1F
100
AcDbEntity
  8
0
  6
Continuous
 62
     7
370
    30
100
AcDbCircle
 10
58.2974066527
 20
32.1301180773
 30
0.0
 40
6.499999999999999
100
AcDbArc
 50
263.5135737496
 51
267.4864262504
  0
LINE
  5
2DF
330
1F
100
AcDbEntity
  8
0
  6
Continuous
 62
     7
370
    30
100
AcDbLine
 10
57.5631157879
 20
25.6717265235
 30
0.0
 11
57.4819720385
 21
25.8831134649
 31
0.0
  0
LINE
  5
2E0
330
1F
100
AcDbEntity
  8
0
  6
Continuous
 62
     7
370
    30
100
AcDbLine
 10
58.1255550677
 20
25.8324625553
 30
0.0
 11
58.0123422295
 21
25.6363716559
 31
0.0
  0
ARC
  5
2E1
330
1F
100
AcDbEntity
  8
0
  6
Continuous
 62
     7
370
    30
100
AcDbCircle
 10
58.2974066527
 20
32.1301180773
 30
0.0
 40
6.5
100
AcDbArc
 50
290.5135737496
 51
294.4864262504
  0
LINE
  5
2E2
330
1F
100
AcDbEntity
  8
0
  6
Continuous
 62
     7
370
    30
100
AcDbLine
 10
60.5751969886
 20
26.0422886001
 30
0.0
 11
60.4069298168
 21
26.1937970878
 31
0.0
  0
LINE
  5
2E3
330
1F
100
AcDbEntity
  8
0
  6
Continuous
 62
     7
370
    30
100
AcDbLine
 10
61.0033615993
 20
26.4408471646
 30
0.0
 11
60.9915114508
 21
26.2147313567
 31
0.0
  0
ARC
  5
2E4
330
1F
100
AcDbEntity
  8
0
  6
Continuous
 62
     7
370
    30
100
AcDbCircle
 10
58.2974066527
 20
32.1301180773
 30
0.0
 40
6.499999999999992
100
AcDbArc
 50
308.5135737496
 51
312.4864262504
  0
LINE
  5
2E5
330
1F
100
AcDbEntity
  8
0
  6
Continuous
 62
     7
370
    30
100
AcDbLine
 10
62.3449569137
 20
27.0441234695
 30
0.0
 11
62.1381066774
 21
27.1362191649
 31
0.0
  0
LINE
  5
2E6
330
1F
100
AcDbEntity
  8
0
  6
Continuous
 62
     7
370
    30
100
AcDbLine
 10
62.6290042454
 20
27.5554856868
 30
0.0
 11
62.6876077184
 21
27.3367748247
 31
0.0
  0
ARC
  5
2E7
330
1F
100
AcDbEntity
  8
0
  6
Continuous
 62
     7
370
    30
100
AcDbCircle
 10
58.2974066527
 20
32.1301180773
 30
0.0
 40
6.500000000000001
100
AcDbArc
 50
254.5135737496
 51
258.4864262504
  0
LINE
  5
2E8
330
1F
100
AcDbEntity
  8
0
  6
Continuous
 62
     7
370
    30
100
AcDbLine
 10
56.5618411673
 20
25.866108446
 30
0.0
 11
56.5147645573
 21
26.0875862675
 31
0.0
  0
LINE
  5
2E9
330
1F
100
AcDbEntity
  8
0
  6
Continuous
 62
     7
370
    30
100
AcDbLine
 10
57.1425004199
 20
25.9368805798
 30
0.0
 11
57.0000060869
 21
25.7609146299
 31
0.0
  0
ARC
  5
2EA
330
1F
100
AcDbEntity
  8
0
  6
Continuous
 62
     7
370
    30
100
AcDbCircle
 10
58.2974066527
 20
32.1301180773
 30
0.0
 40
6.500000000000003
100
AcDbArc
 50
317.5135737496
 51
321.4864262504
  0
LINE
  5
2EB
330
1F
100
AcDbEntity
  8
0
  6
Continuous
 62
     7
370
    30
100
AcDbLine
 10
63.0907493213
 20
27.7399173589
 30
0.0
 11
62.8720389248
 21
27.7985208319
 31
0.0
  0
LINE
  5
2EC
330
1F
100
AcDbEntity
  8
0
  6
Continuous
 62
     7
370
    30
100
AcDbLine
 10
63.2913054467
 20
28.2894181671
 30
0.0
 11
63.3834011422
 21
28.0825676979
 31
0.0
  0
ARC
  5
2ED
330
1F
100
AcDbEntity
  8
0
  6
Continuous
 62
     7
370
    30
100
AcDbCircle
 10
58.2974066527
 20
32.1301180773
 30
0.0
 40
6.500000000000004
100
AcDbArc
 50
245.5135737496
 51
249.4864262504
  0
LINE
  5
2EE
330
1F
100
AcDbEntity
  8
0
  6
Continuous
 62
     7
370
    30
100
AcDbLine
 10
55.6033018546
 20
26.2147313567
 30
0.0
 11
55.5914517061
 21
26.4408471646
 31
0.0
  0
LINE
  5
2EF
330
1F
100
AcDbEntity
  8
0
  6
Continuous
 62
     7
370
    30
100
AcDbLine
 10
56.1878834886
 20
26.1937970878
 30
0.0
 11
56.0196163168
 21
26.0422886001
 31
0.0
  0
ARC
  5
2F0
330
1F
100
AcDbEntity
  8
0
  6
Continuous
 62
     7
370
    30
100
AcDbCircle
 10
58.2974066527
 20
32.1301180773
 30
0.0
 40
6.499999999999999
100
AcDbArc
 50
326.5135737496
 51
330.4864262504
  0
LINE
  5
2F1
330
1F
100
AcDbEntity
  8
0
  6
Continuous
 62
     7
370
    30
100
AcDbLine
 10
63.7185142876
 20
28.5438117223
 30
0.0
 11
63.493328871
 21
28.5674794229
 31
0.0
  0
LINE
  5
2F2
330
1F
100
AcDbEntity
  8
0
  6
Continuous
 62
     7
370
    30
100
AcDbLine
 10
63.8306399376
 20
29.1179217981
 30
0.0
 11
63.953960085
 21
28.9280251251
 31
0.0
  0
ARC
  5
2F3
330
1F
100
AcDbEntity
  8
0
  6
Continuous
 62
     7
370
    30
100
AcDbCircle
 10
58.2974066527
 20
32.1301180773
 30
0.0
 40
6.500000000000004
100
AcDbArc
 50
236.5135737496
 51
240.4864262504
  0
LINE
  5
2F4
330
1F
100
AcDbEntity
  8
0
  6
Continuous
 62
     7
370
    30
100
AcDbLine
 10
54.711100416
 20
26.7090103241
 30
0.0
 11
54.7347683494
 21
26.9341957407
 31
0.0
  0
LINE
  5
2F5
330
1F
100
AcDbEntity
  8
0
  6
Continuous
 62
     7
370
    30
100
AcDbLine
 10
55.2852100262
 20
26.596884674
 30
0.0
 11
55.0953133532
 21
26.4735645266
 31
0.0
  0
ARC
  5
2F6
330
1F
100
AcDbEntity
  8
0
  6
Continuous
 62
     7
370
    30
100
AcDbCircle
 10
58.2974066527
 20
32.1301180773
 30
0.0
 40
6.500000000000004
100
AcDbArc
 50
335.5135737496
 51
339.4864262504
  0
LINE
  5
2F7
330
1F
100
AcDbEntity
  8
0
  6
Continuous
 62
     7
370
    30
100
AcDbLine
 10
64.2337279895
 20
30.0205950277
 30
0.0
 11
64.3852364772
 21
29.8523273902
 31
0.0
  0
LINE
  5
2F8
330
1F
100
AcDbEntity
  8
0
  6
Continuous
 62
     7
370
    30
100
AcDbLine
 10
64.212793255
 20
29.4360131608
 30
0.0
 11
63.9866779127
 21
29.4241630124
 31
0.0
  0
ARC
  5
2F9
330
1F
100
AcDbEntity
  8
0
  6
Continuous
 62
     7
370
    30
100
AcDbCircle
 10
58.2974066527
 20
32.1301180773
 30
0.0
 40
6.500000000000004
100
AcDbArc
 50
227.5135737496
 51
231.4864262504
  0
LINE
  5
2FA
330
1F
100
AcDbEntity
  8
0
  6
Continuous
 62
     7
370
    30
100
AcDbLine
 10
54.456706628
 20
27.1362191649
 30
0.0
 11
54.2498563917
 21
27.0441234695
 31
0.0
  0
LINE
  5
2FB
330
1F
100
AcDbEntity
  8
0
  6
Continuous
 62
     7
370
    30
100
AcDbLine
 10
53.907205587
 20
27.3367748247
 30
0.0
 11
53.96580906
 21
27.5554856868
 31
0.0
  0
ARC
  5
2FC
330
1F
100
AcDbEntity
  8
0
  6
Continuous
 62
     7
370
    30
100
AcDbCircle
 10
58.2974066527
 20
32.1301180773
 30
0.0
 40
6.500000000000003
100
AcDbArc
 50
344.5135737496
 51
348.4864262504
  0
LINE
  5
2FD
330
1F
100
AcDbEntity
  8
0
  6
Continuous
 62
     7
370
    30
100
AcDbLine
 10
64.4906440319
 20
30.9752118425
 30
0.0
 11
64.6666099818
 21
30.832717626
 31
0.0
  0
LINE
  5
2FE
330
1F
100
AcDbEntity
  8
0
  6
Continuous
 62
     7
370
    30
100
AcDbLine
 10
64.5614161657
 20
30.3945527064
 30
0.0
 11
64.3399383442
 21
30.3474762129
 31
0.0
  0
ARC
  5
2FF
330
1F
100
AcDbEntity
  8
0
  6
Continuous
 62
     7
370
    30
100
AcDbCircle
 10
58.2974066527
 20
32.1301180773
 30
0.0
 40
6.500000000000001
100
AcDbArc
 50
218.5135737496
 51
222.4864262504
  0
LINE
  5
300
330
1F
100
AcDbEntity
  8
0
  6
Continuous
 62
     7
370
    30
100
AcDbLine
 10
53.2114121632
 20
28.0825676979
 30
0.0
 11
53.3035078586
 21
28.2894181671
 31
0.0
  0
LINE
  5
301
330
1F
100
AcDbEntity
  8
0
  6
Continuous
 62
     7
370
    30
100
AcDbLine
 10
53.7227743806
 20
27.7985208319
 30
0.0
 11
53.5040639841
 21
27.7399173589
 31
0.0
  0
ARC
  5
302
330
1F
100
AcDbEntity
  8
0
  6
Continuous
 62
     7
370
    30
100
AcDbCircle
 10
58.2974066527
 20
32.1301180773
 30
0.0
 40
6.500000000000005
100
AcDbArc
 50
353.5135737496
 51
357.4864262504
  0
LINE
  5
303
330
1F
100
AcDbEntity
  8
0
  6
Continuous
 62
     7
370
    30
100
AcDbLine
 10
64.7557976225
 20
31.3958269196
 30
0.0
 11
64.5444111468
 21
31.3146835776
 31
0.0
  0
LINE
  5
304
330
1F
100
AcDbEntity
  8
0
  6
Continuous
 62
     7
370
    30
100
AcDbLine
 10
64.595062522
 20
31.9582665922
 30
0.0
 11
64.7911529557
 21
31.8450540887
 31
0.0
  0
ARC
  5
305
330
1F
100
AcDbEntity
  8
0
  6
Continuous
 62
     7
370
    30
100
AcDbCircle
 10
58.2974066527
 20
32.1301180773
 30
0.0
 40
6.499999999999999
100
AcDbArc
 50
209.5135737496
 51
213.4864262504
  0
LINE
  5
306
330
1F
100
AcDbEntity
  8
0
  6
Continuous
 62
     7
370
    30
100
AcDbLine
 10
52.6408532203
 20
28.9280251251
 30
0.0
 11
52.7641733677
 21
29.1179217981
 31
0.0
  0
LINE
  5
307
330
1F
100
AcDbEntity
  8
0
  6
Continuous
 62
     7
370
    30
100
AcDbLine
 10
53.1014844344
 20
28.5674794229
 30
0.0
 11
52.8762990178
 21
28.5438117223
 31
0.0
  0
ARC
  5
308
330
1F
100
AcDbEntity
  8
0
  6
Continuous
 62
     7
370
    30
100
AcDbCircle
 10
58.2974066527
 20
32.1301180773
 30
0.0
 40
6.499999999999997
100
AcDbArc
 50
2.5135737496
 51
6.4864262504
  0
LINE
  5
309
330
1F
100
AcDbEntity
  8
0
  6
Continuous
 62
     7
370
    30
100
AcDbLine
 10
64.7911529557
 20
32.4151827605
 30
0.0
 11
64.595062522
 21
32.3019693257
 31
0.0
  0
LINE
  5
30A
330
1F
100
AcDbEntity
  8
0
  6
Continuous
 62
     7
370
    30
100
AcDbLine
 10
64.5444111468
 20
32.945552806
 30
0.0
 11
64.7557976225
 21
32.8644089984
 31
0.0
  0
ARC
  5
30B
330
1F
100
AcDbEntity
  8
0
  6
Continuous
 62
     7
370
    30
100
AcDbCircle
 10
58.2974066527
 20
32.1301180773
 30
0.0
 40
6.500000000000008
100
AcDbArc
 50
200.5135737496
 51
204.4864262504
  0
LINE
  5
30C
330
1F
100
AcDbEntity
  8
0
  6
Continuous
 62
     7
370
    30
100
AcDbLine
 10
52.2095768282
 20
29.8523273902
 30
0.0
 11
52.3610853159
 21
30.0205950277
 31
0.0
  0
LINE
  5
30D
330
1F
100
AcDbEntity
  8
0
  6
Continuous
 62
     7
370
    30
100
AcDbLine
 10
52.6081353926
 20
29.4241630124
 30
0.0
 11
52.3820200504
 21
29.4360131608
 31
0.0
  0
ARC
  5
30E
330
1F
100
AcDbEntity
  8
0
  6
Continuous
 62
     7
370
    30
100
AcDbCircle
 10
58.2974066527
 20
32.1301180773
 30
0.0
 40
6.500000000000003
100
AcDbArc
 50
11.5135737496
 51
15.4864262504
  0
LINE
  5
30F
330
1F
100
AcDbEntity
  8
0
  6
Continuous
 62
     7
370
    30
100
AcDbLine
 10
64.3399383442
 20
33.9127601707
 30
0.0
 11
64.5614161657
 21
33.8656836772
 31
0.0
  0
LINE
  5
310
330
1F
100
AcDbEntity
  8
0
  6
Continuous
 62
     7
370
    30
100
AcDbLine
 10
64.6666099818
 20
33.4275187576
 30
0.0
 11
64.4906440319
 21
33.2850240754
 31
0.0
  0
ARC
  5
311
330
1F
100
AcDbEntity
  8
0
  6
Continuous
 62
     7
370
    30
100
AcDbCircle
 10
58.2974066527
 20
32.1301180773
 30
0.0
 40
6.500000000000004
100
AcDbArc
 50
191.5135737496
 51
195.4864262504
  0
LINE
  5
312
330
1F
100
AcDbEntity
  8
0
  6
Continuous
 62
     7
370
    30
100
AcDbLine
 10
51.9282033236
 20
30.832717626
 30
0.0
 11
52.1041692735
 21
30.9752118425
 31
0.0
  0
LINE
  5
313
330
1F
100
AcDbEntity
  8
0
  6
Continuous
 62
     7
370
    30
100
AcDbLine
 10
52.2548749612
 20
30.3474762129
 30
0.0
 11
52.0333971397
 21
30.3945527064
 31
0.0
  0
ARC
  5
314
330
1F
100
AcDbEntity
  8
0
  6
Continuous
 62
     7
370
    30
100
AcDbCircle
 10
58.2974066527
 20
32.1301180773
 30
0.0
 40
6.500000000000002
100
AcDbArc
 50
20.5135737496
 51
24.4864262504
  0
LINE
  5
315
330
1F
100
AcDbEntity
  8
0
  6
Continuous
 62
     7
370
    30
100
AcDbLine
 10
64.3852364772
 20
34.4079085277
 30
0.0
 11
64.2337279895
 21
34.2396413559
 31
0.0
  0
LINE
  5
316
330
1F
100
AcDbEntity
  8
0
  6
Continuous
 62
     7
370
    30
100
AcDbLine
 10
63.9866779127
 20
34.8360729055
 30
0.0
 11
64.212793255
 21
34.8242227571
 31
0.0
  0
ARC
  5
317
330
1F
100
AcDbEntity
  8
0
  6
Continuous
 62
     7
370
    30
100
AcDbCircle
 10
58.2974066527
 20
32.1301180773
 30
0.0
 40
6.500000000000002
100
AcDbArc
 50
182.5135737496
 51
186.4864262504
  0
LINE
  5
318
330
1F
100
AcDbEntity
  8
0
  6
Continuous
 62
     7
370
    30
100
AcDbLine
 10
51.8036603497
 20
31.8450540887
 30
0.0
 11
51.9997507834
 21
31.9582665922
 31
0.0
  0
LINE
  5
319
330
1F
100
AcDbEntity
  8
0
  6
Continuous
 62
     7
370
    30
100
AcDbLine
 10
52.0504021586
 20
31.3146835776
 30
0.0
 11
51.8390156829
 21
31.3958269196
 31
0.0
  0
ARC
  5
31A
330
1F
100
AcDbEntity
  8
0
  6
Continuous
 62
     7
370
    30
100
AcDbCircle
 10
58.2974066527
 20
32.1301180773
 30
0.0
 40
6.500000000000004
100
AcDbArc
 50
29.5135737496
 51
33.4864262504
  0
LINE
  5
31B
330
1F
100
AcDbEntity
  8
0
  6
Continuous
 62
     7
370
    30
100
AcDbLine
 10
63.493328871
 20
35.6927564951
 30
0.0
 11
63.7185142876
 21
35.7164241956
 31
0.0
  0
LINE
  5
31C
330
1F
100
AcDbEntity
  8
0
  6
Continuous
 62
     7
370
    30
100
AcDbLine
 10
63.953960085
 20
35.3322112584
 30
0.0
 11
63.8306399376
 21
35.1423145855
 31
0.0
  0
LINE
  5
31D
330
1F
100
AcDbEntity
  8
0
  6
Continuous
 62
     7
370
    30
100
AcDbLine
 10
51.9997507834
 20
32.3019693257
 30
0.0
 11
51.8036603497
 21
32.4151827605
 31
0.0
  0
ARC
  5
31E
330
1F
100
AcDbEntity
  8
0
  6
Continuous
 62
     7
370
    30
100
AcDbCircle
 10
58.2974066527
 20
32.1301180773
 30
0.0
 40
6.500000000000004
100
AcDbArc
 50
173.5135737496
 51
177.4864262504
  0
LINE
  5
31F
330
1F
100
AcDbEntity
  8
0
  6
Continuous
 62
     7
370
    30
100
AcDbLine
 10
51.8390156829
 20
32.8644089984
 30
0.0
 11
52.0504021586
 21
32.945552806
 31
0.0
  0
ARC
  5
320
330
1F
100
AcDbEntity
  8
0
  6
Continuous
 62
     7
370
    30
100
AcDbCircle
 10
58.2974066527
 20
32.1301180773
 30
0.0
 40
6.500000000000004
100
AcDbArc
 50
164.5135737496
 51
168.4864262504
  0
LINE
  5
321
330
1F
100
AcDbEntity
  8
0
  6
Continuous
 62
     7
370
    30
100
AcDbLine
 10
52.0333971397
 20
33.8656836772
 30
0.0
 11
52.2548749612
 21
33.9127601707
 31
0.0
  0
LINE
  5
322
330
1F
100
AcDbEntity
  8
0
  6
Continuous
 62
     7
370
    30
100
AcDbLine
 10
52.1041692735
 20
33.2850240754
 30
0.0
 11
51.9282033236
 21
33.4275187576
 31
0.0
  0
ARC
  5
323
330
1F
100
AcDbEntity
  8
0
  6
Continuous
 62
     7
370
    30
100
AcDbCircle
 10
58.2974066527
 20
32.1301180773
 30
0.0
 40
6.500000000000006
100
AcDbArc
 50
38.5135737496
 51
42.4864262504
  0
LINE
  5
324
330
1F
100
AcDbEntity
  8
0
  6
Continuous
 62
     7
370
    30
100
AcDbLine
 10
62.8720389248
 20
36.4617155516
 30
0.0
 11
63.0907493213
 21
36.5203190247
 31
0.0
  0
LINE
  5
325
330
1F
100
AcDbEntity
  8
0
  6
Continuous
 62
     7
370
    30
100
AcDbLine
 10
63.3834011422
 20
36.17766822
 30
0.0
 11
63.2913054467
 21
35.9708182165
 31
0.0
  0
ARC
  5
326
330
1F
100
AcDbEntity
  8
0
  6
Continuous
 62
     7
370
    30
100
AcDbCircle
 10
58.2974066527
 20
32.1301180773
 30
0.0
 40
6.500000000000009
100
AcDbArc
 50
155.5135737496
 51
159.4864262504
  0
LINE
  5
327
330
1F
100
AcDbEntity
  8
0
  6
Continuous
 62
     7
370
    30
100
AcDbLine
 10
52.3820200504
 20
34.8242227571
 30
0.0
 11
52.6081353926
 21
34.8360729055
 31
0.0
  0
LINE
  5
328
330
1F
100
AcDbEntity
  8
0
  6
Continuous
 62
     7
370
    30
100
AcDbLine
 10
52.3610853159
 20
34.2396413559
 30
0.0
 11
52.2095768282
 21
34.4079085277
 31
0.0
  0
ARC
  5
329
330
1F
100
AcDbEntity
  8
0
  6
Continuous
 62
     7
370
    30
100
AcDbCircle
 10
58.2974066527
 20
32.1301180773
 30
0.0
 40
6.500000000000004
100
AcDbArc
 50
47.5135737496
 51
51.4864262504
  0
LINE
  5
32A
330
1F
100
AcDbEntity
  8
0
  6
Continuous
 62
     7
370
    30
100
AcDbLine
 10
62.1381066774
 20
37.124016753
 30
0.0
 11
62.3449569137
 21
37.2161124485
 31
0.0
  0
LINE
  5
32B
330
1F
100
AcDbEntity
  8
0
  6
Continuous
 62
     7
370
    30
100
AcDbLine
 10
62.6876077184
 20
36.9234608604
 30
0.0
 11
62.6290042454
 21
36.7047504639
 31
0.0
  0
ARC
  5
32C
330
1F
100
AcDbEntity
  8
0
  6
Continuous
 62
     7
370
    30
100
AcDbCircle
 10
58.2974066527
 20
32.1301180773
 30
0.0
 40
6.499999999999999
100
AcDbArc
 50
56.5135737496
 51
60.4864262504
  0
LINE
  5
32D
330
1F
100
AcDbEntity
  8
0
  6
Continuous
 62
     7
370
    30
100
AcDbLine
 10
61.3096032792
 20
37.6633514767
 30
0.0
 11
61.4994999522
 21
37.7866716241
 31
0.0
  0
LINE
  5
32E
330
1F
100
AcDbEntity
  8
0
  6
Continuous
 62
     7
370
    30
100
AcDbLine
 10
61.8837128894
 20
37.5512255939
 30
0.0
 11
61.860044956
 21
37.3260404101
 31
0.0
  0
ARC
  5
32F
330
1F
100
AcDbEntity
  8
0
  6
Continuous
 62
     7
370
    30
100
AcDbCircle
 10
58.2974066527
 20
32.1301180773
 30
0.0
 40
6.500000000000009
100
AcDbArc
 50
146.5135737496
 51
150.4864262504
  0
LINE
  5
330
330
1F
100
AcDbEntity
  8
0
  6
Continuous
 62
     7
370
    30
100
AcDbLine
 10
52.8762990178
 20
35.7164241956
 30
0.0
 11
53.1014844344
 21
35.6927564951
 31
0.0
  0
LINE
  5
331
330
1F
100
AcDbEntity
  8
0
  6
Continuous
 62
     7
370
    30
100
AcDbLine
 10
52.7641733677
 20
35.1423145855
 30
0.0
 11
52.6408532203
 21
35.3322112584
 31
0.0
  0
ARC
  5
332
330
1F
100
AcDbEntity
  8
0
  6
Continuous
 62
     7
370
    30
100
AcDbCircle
 10
58.2974066527
 20
32.1301180773
 30
0.0
 40
6.500000000000005
100
AcDbArc
 50
65.5135737496
 51
69.4864262504
  0
LINE
  5
333
330
1F
100
AcDbEntity
  8
0
  6
Continuous
 62
     7
370
    30
100
AcDbLine
 10
60.4069298168
 20
38.0664395286
 30
0.0
 11
60.5751969886
 21
38.2179477835
 31
0.0
  0
LINE
  5
334
330
1F
100
AcDbEntity
  8
0
  6
Continuous
 62
     7
370
    30
100
AcDbLine
 10
60.9915114508
 20
38.0455047941
 30
0.0
 11
61.0033615993
 21
37.8193894518
 31
0.0
  0
ARC
  5
335
330
1F
100
AcDbEntity
  8
0
  6
Continuous
 62
     7
370
    30
100
AcDbCircle
 10
58.2974066527
 20
32.1301180773
 30
0.0
 40
6.500000000000006
100
AcDbArc
 50
137.5135737496
 51
141.4864262504
  0
LINE
  5
336
330
1F
100
AcDbEntity
  8
0
  6
Continuous
 62
     7
370
    30
100
AcDbLine
 10
53.5040639841
 20
36.5203190247
 30
0.0
 11
53.7227743806
 21
36.4617155516
 31
0.0
  0
LINE
  5
337
330
1F
100
AcDbEntity
  8
0
  6
Continuous
 62
     7
370
    30
100
AcDbLine
 10
53.3035078586
 20
35.9708182165
 30
0.0
 11
53.2114121632
 21
36.17766822
 31
0.0
  0
ARC
  5
338
330
1F
100
AcDbEntity
  8
0
  6
Continuous
 62
     7
370
    30
100
AcDbCircle
 10
58.2974066527
 20
32.1301180773
 30
0.0
 40
6.500000000000005
100
AcDbArc
 50
74.5135737496
 51
78.4864262504
  0
LINE
  5
339
330
1F
100
AcDbEntity
  8
0
  6
Continuous
 62
     7
370
    30
100
AcDbLine
 10
59.4523128855
 20
38.323355571
 30
0.0
 11
59.5948072185
 21
38.4993215209
 31
0.0
  0
LINE
  5
33A
330
1F
100
AcDbEntity
  8
0
  6
Continuous
 62
     7
370
    30
100
AcDbLine
 10
60.0329721381
 20
38.3941274719
 30
0.0
 11
60.080048748
 21
38.1726496505
 31
0.0
  0
ARC
  5
33B
330
1F
100
AcDbEntity
  8
0
  6
Continuous
 62
     7
370
    30
100
AcDbCircle
 10
58.2974066527
 20
32.1301180773
 30
0.0
 40
6.500000000000005
100
AcDbArc
 50
128.5135737496
 51
132.4864262504
  0
LINE
  5
33C
330
1F
100
AcDbEntity
  8
0
  6
Continuous
 62
     7
370
    30
100
AcDbLine
 10
54.2498563917
 20
37.2161124485
 30
0.0
 11
54.456706628
 21
37.124016753
 31
0.0
  0
LINE
  5
33D
330
1F
100
AcDbEntity
  8
0
  6
Continuous
 62
     7
370
    30
100
AcDbLine
 10
53.96580906
 20
36.7047504639
 30
0.0
 11
53.907205587
 21
36.9234608604
 31
0.0
  0
ARC
  5
33E
330
1F
100
AcDbEntity
  8
0
  6
Continuous
 62
     7
370
    30
100
AcDbCircle
 10
58.2974066527
 20
32.1301180773
 30
0.0
 40
6.500000000000004
100
AcDbArc
 50
119.5135737496
 51
123.4864262504
  0
LINE
  5
33F
330
1F
100
AcDbEntity
  8
0
  6
Continuous
 62
     7
370
    30
100
AcDbLine
 10
55.0953133532
 20
37.7866716241
 30
0.0
 11
55.2852100262
 21
37.6633514767
 31
0.0
  0
LINE
  5
340
330
1F
100
AcDbEntity
  8
0
  6
Continuous
 62
     7
370
    30
100
AcDbLine
 10
54.7347683494
 20
37.3260404101
 30
0.0
 11
54.711100416
 21
37.5512255939
 31
0.0
  0
ARC
  5
341
330
1F
100
AcDbEntity
  8
0
  6
Continuous
 62
     7
370
    30
100
AcDbCircle
 10
58.2974066527
 20
32.1301180773
 30
0.0
 40
6.500000000000004
100
AcDbArc
 50
83.5135737496
 51
87.4864262504
  0
LINE
  5
342
330
1F
100
AcDbEntity
  8
0
  6
Continuous
 62
     7
370
    30
100
AcDbLine
 10
58.4692582377
 20
38.4277738282
 30
0.0
 11
58.5824710759
 21
38.6238641456
 31
0.0
  0
LINE
  5
343
330
1F
100
AcDbEntity
  8
0
  6
Continuous
 62
     7
370
    30
100
AcDbLine
 10
59.0316975175
 20
38.588509278
 30
0.0
 11
59.1128412669
 21
38.3771226859
 31
0.0
  0
ARC
  5
344
330
1F
100
AcDbEntity
  8
0
  6
Continuous
 62
     7
370
    30
100
AcDbCircle
 10
58.2974066527
 20
32.1301180773
 30
0.0
 40
6.500000000000006
100
AcDbArc
 50
110.5135737496
 51
114.4864262504
  0
LINE
  5
345
330
1F
100
AcDbEntity
  8
0
  6
Continuous
 62
     7
370
    30
100
AcDbLine
 10
56.0196163168
 20
38.2179477835
 30
0.0
 11
56.1878834886
 21
38.0664395286
 31
0.0
  0
LINE
  5
346
330
1F
100
AcDbEntity
  8
0
  6
Continuous
 62
     7
370
    30
100
AcDbLine
 10
55.5914517061
 20
37.8193894518
 30
0.0
 11
55.6033018546
 21
38.0455047941
 31
0.0
  0
ARC
  5
347
330
1F
100
AcDbEntity
  8
0
  6
Continuous
 62
     7
370
    30
100
AcDbCircle
 10
58.2974066527
 20
32.1301180773
 30
0.0
 40
6.500000000000005
100
AcDbArc
 50
92.5135737496
 51
96.4864262504
  0
LINE
  5
348
330
1F
100
AcDbEntity
  8
0
  6
Continuous
 62
     7
370
    30
100
AcDbLine
 10
57.4819720385
 20
38.3771226859
 30
0.0
 11
57.5631157879
 21
38.588509278
 31
0.0
  0
LINE
  5
349
330
1F
100
AcDbEntity
  8
0
  6
Continuous
 62
     7
370
    30
100
AcDbLine
 10
58.0123422295
 20
38.6238641456
 30
0.0
 11
58.1255550677
 21
38.4277738282
 31
0.0
  0
ARC
  5
34A
330
1F
100
AcDbEntity
  8
0
  6
Continuous
 62
     7
370
    30
100
AcDbCircle
 10
58.2974066527
 20
32.1301180773
 30
0.0
 40
6.500000000000002
100
AcDbArc
 50
101.5135737496
 51
105.4864262504
  0
LINE
  5
34B
330
1F
100
AcDbEntity
  8
0
  6
Continuous
 62
     7
370
    30
100
AcDbLine
 10
56.5147645573
 20
38.1726496505
 30
0.0
 11
56.5618411673
 21
38.3941274719
 31
0.0
  0
LINE
  5
34C
330
1F
100
AcDbEntity
  8
0
  6
Continuous
 62
     7
370
    30
100
AcDbLine
 10
57.0000060869
 20
38.4993215209
 30
0.0
 11
57.1425004199
 21
38.323355571
 31
0.0
  0
CIRCLE
  5
34D
330
1F
100
AcDbEntity
  8
0
  6
Continuous
 62
     7
370
    30
100
AcDbCircle
 10
58.2974066527
 20
32.1301180773
 30
0.0
 40
3.699999999999953
  0
DIMENSION
  5
34E
330
1F
100
AcDbEntity
  8
DIM
100
AcDbDimension
  2
_D_4
 10
53.7234343438
 20
27.5118091533
 30
0.0
 11
68.3518587113
 21
41.4863641598
 31
0.0
 70
   163
  1
<>
 71
     1
 42
-1.0
  3
SLDDIMSTYLE2
100
AcDbDiametricDimension
 15
62.8713789616
 25
36.7484270013
 35
0.0
 40
0.0
  0
INSERT
  5
364
330
1F
100
AcDbEntity
  8
DIM
100
AcDbBlockReference
  2
SW_CENTERMARKSYMBOL_0
 10
58.2974066527
 20
32.1301180773
 30
0.0
  0
LINE
  5
365
330
1F
100
AcDbEntity
  8
0
  6
Continuous
 62
     7
370
    30
100
AcDbLine
 10
78.8025996746
 20
54.6115473358
 30
0.0
 11
71.3779784722
 21
58.8976899229
 31
0.0
  0
LINE
  5
366
330
1F
100
AcDbEntity
  8
0
  6
Continuous
 62
     7
370
    30
100
AcDbLine
 10
66.6283644921
 20
50.6702257302
 30
0.0
 11
74.0529856946
 21
46.3840831432
 31
0.0
  0
LINE
  5
367
330
1F
100
AcDbEntity
  8
0
  6
Continuous
 62
     7
370
    30
100
AcDbLine
 10
66.2696324162
 20
50.9061840811
 30
0.0
 11
66.3974946724
 21
50.8323707718
 31
0.0
  0
LINE
  5
368
330
1F
100
AcDbEntity
  8
0
  6
Continuous
 62
     7
370
    30
100
AcDbLine
 10
71.1221106841
 20
59.0165325213
 30
0.0
 11
70.9942484279
 21
59.0903458306
 31
0.0
  0
LINE
  5
369
330
1F
100
AcDbEntity
  8
0
  6
Continuous
 62
     7
370
    30
100
AcDbLine
 10
68.6313974026
 20
58.8561067627
 30
0.0
 11
68.2955762708
 21
58.6621783224
 31
0.0
  0
LINE
  5
36A
330
1F
100
AcDbEntity
  8
0
  6
Continuous
 62
     7
370
    30
100
AcDbLine
 10
65.2908608809
 20
53.4572946448
 30
0.0
 11
65.2908608809
 21
53.0695007917
 31
0.0
  0
ARC
  5
36B
330
1F
100
AcDbEntity
  8
0
  6
Continuous
 62
     7
370
    30
100
AcDbCircle
 10
65.4676375762
 20
56.8249781061
 30
0.0
 40
2.000000000000008
100
AcDbArc
 50
116.2249410824
 51
223.1083526289
  0
ARC
  5
36C
330
1F
100
AcDbEntity
  8
0
  6
Continuous
 62
     7
370
    30
100
AcDbCircle
 10
65.4676375762
 20
56.8249781061
 30
0.0
 40
1.999999999999999
100
AcDbArc
 50
76.8970239038
 51
116.2249410824
  0
LINE
  5
36D
330
1F
100
AcDbEntity
  8
0
  6
Continuous
 62
     7
370
    30
100
AcDbLine
 10
85.0903047069
 20
42.2722414515
 30
0.0
 11
85.267052671
 21
42.3743090517
 31
0.0
  0
LINE
  5
36E
330
1F
100
AcDbEntity
  8
0
  6
Continuous
 62
     7
370
    30
100
AcDbLine
 10
87.8829225398
 20
46.9056195475
 30
0.0
 11
87.8829225398
 21
47.1097215754
 31
0.0
  0
LINE
  5
36F
330
1F
100
AcDbEntity
  8
0
  6
Continuous
 62
     7
370
    30
100
AcDbLine
 10
64.9577089709
 20
53.6553458407
 30
0.0
 11
65.290864966
 21
53.4630189785
 31
0.0
  0
LINE
  5
370
330
1F
100
AcDbEntity
  8
0
  6
Continuous
 62
     7
370
    30
100
AcDbLine
 10
74.7616601675
 20
47.995645285
 30
0.0
 11
75.3467465435
 21
47.6578821097
 31
0.0
  0
LINE
  5
371
330
1F
100
AcDbEntity
  8
0
  6
Continuous
 62
     7
370
    30
100
AcDbLine
 10
78.3470381672
 20
52.8538661892
 30
0.0
 11
77.7614163655
 21
53.1919384593
 31
0.0
  0
LINE
  5
372
330
1F
100
AcDbEntity
  8
0
  6
Continuous
 62
     7
370
    30
100
AcDbLine
 10
68.2906211639
 20
58.6593121528
 30
0.0
 11
67.9574651688
 21
58.851639015
 31
0.0
  0
LINE
  5
373
330
1F
100
AcDbEntity
  8
0
  6
Continuous
 62
     7
370
    30
100
AcDbLine
 10
67.1792606908
 20
58.9736156182
 30
0.0
 11
65.9020984328
 21
58.769884745
 31
0.0
  0
LINE
  5
374
330
1F
100
AcDbEntity
  8
0
  6
Continuous
 62
     7
370
    30
100
AcDbLine
 10
64.000656014
 20
55.4761329831
 30
0.0
 11
64.4629143783
 21
54.2682559584
 31
0.0
  0
LWPOLYLINE
  5
375
330
1F
100
AcDbEntity
  8
0
  6
Continuous
 62
     7
370
    30
100
AcDbPolyline
 90
       60
 70
   128
 43
0.0
 10
85.2666274494
 20
42.1699283336
 10
84.9697421137
 20
42.0168122514
 10
84.6762206074
 20
41.9019753836
 10
84.3893886466
 20
41.8267188777
 10
84.1124961519
 20
41.7918954202
 10
83.848680426
 20
41.7978995746
 10
83.6009306064
 20
41.8446633115
 10
83.3720537977
 20
41.9316567791
 10
83.1646432654
 20
42.0578943066
 10
82.9810490539
 20
42.2219455724
 10
82.8233513589
 20
42.4219518101
 10
82.6933369582
 20
42.6556468691
 10
82.5924789671
 20
42.920382891
 10
82.5219201468
 20
43.213160311
 10
82.482459957
 20
43.5306618437
 10
82.4745454973
 20
43.8692900701
 10
82.4982664419
 20
44.225208197
 10
82.5533540228
 20
44.5943835298
 10
82.6391840758
 20
44.9726331645
 10
82.7547841121
 20
45.3556713815
 10
82.8988443372
 20
45.7391582049
 10
83.0697324909
 20
46.1187485756
 10
83.2655123425
 20
46.4901415831
 10
83.4839656277
 20
46.8491291962
 10
83.7226171838
 20
47.1916439418
 10
83.9787629931
 20
47.5138049911
 10
84.2495008212
 20
47.8119621305
 10
84.5317631006
 20
48.0827371205
 10
84.8223516866
 20
48.3230619724
 10
85.1179740945
 20
48.5302137094
 10
85.4152808044
 20
48.7018452197
 10
85.7109032123
 20
48.8360118497
 10
86.0014917983
 20
48.9311934378
 10
86.2837540776
 20
48.9863115387
 10
86.5544919058
 20
49.0007416421
 10
86.8106377151
 20
48.9743202493
 10
87.0492892712
 20
48.9073467252
 10
87.2677425564
 20
48.8005799065
 10
87.4635224079
 20
48.6552295041
 10
87.6344105617
 20
48.4729423961
 10
87.7784707868
 20
48.2557839681
 10
87.8940708231
 20
48.0062147121
 10
87.9799008761
 20
47.7270623473
 10
88.034988457
 20
47.4214897816
 10
88.0587094016
 20
47.0929592743
 10
88.0507949419
 20
46.7451932073
 10
88.0113347521
 20
46.3821319091
 10
87.9407759318
 20
46.0078890093
 10
87.8399179407
 20
45.6267048295
 10
87.70990354
 20
45.2428983387
 10
87.552205845
 20
44.8608182179
 10
87.3686116335
 20
44.4847935874
 10
87.1612011012
 20
44.1190849567
 10
86.9323242925
 20
43.7678359506
 10
86.6845744729
 20
43.4350263607
 10
86.420758747
 20
43.1244270526
 10
86.1438662523
 20
42.8395572407
 10
85.8570342915
 20
42.5836446137
 10
85.5635127852
 20
42.3595887639
 10
85.2666274494
 20
42.1699283336
  0
LINE
  5
376
330
1F
100
AcDbEntity
  8
0
  6
Continuous
 62
     7
370
    30
100
AcDbLine
 10
81.2316363777
 20
44.5798637013
 30
0.0
 11
80.9939124291
 21
44.3842786561
 31
0.0
  0
LINE
  5
377
330
1F
100
AcDbEntity
  8
0
  6
Continuous
 62
     7
370
    30
100
AcDbLine
 10
81.0690143258
 20
44.6945458501
 30
0.0
 11
81.2316363777
 21
44.5798637013
 31
0.0
  0
ARC
  5
378
330
1F
100
AcDbEntity
  8
0
  6
Continuous
 62
     7
370
    30
100
AcDbCircle
 10
90.1133707356
 20
42.3267634221
 30
0.0
 40
9.349159132950023
100
AcDbArc
 50
161.5703711029
 51
165.3294024547
  0
LINE
  5
379
330
1F
100
AcDbEntity
  8
0
  6
Continuous
 62
     7
370
    30
100
AcDbLine
 10
81.4864069174
 20
45.437200306
 30
0.0
 11
81.2437051453
 21
45.2824035912
 31
0.0
  0
LINE
  5
37A
330
1F
100
AcDbEntity
  8
0
  6
Continuous
 62
     7
370
    30
100
AcDbLine
 10
81.3540406551
 20
45.5961578269
 30
0.0
 11
81.4864069174
 21
45.437200306
 31
0.0
  0
ARC
  5
37B
330
1F
100
AcDbEntity
  8
0
  6
Continuous
 62
     7
370
    30
100
AcDbCircle
 10
91.0275512707
 20
42.008555969
 30
0.0
 40
10.31734921006127
100
AcDbArc
 50
156.1317984441
 51
159.651761569
  0
LINE
  5
37C
330
1F
100
AcDbEntity
  8
0
  6
Continuous
 62
     7
370
    30
100
AcDbLine
 10
81.8342590325
 20
46.2935043129
 30
0.0
 11
81.5925555599
 21
46.1833075374
 31
0.0
  0
LINE
  5
37D
330
1F
100
AcDbEntity
  8
0
  6
Continuous
 62
     7
370
    30
100
AcDbLine
 10
81.7354078564
 20
46.4928231443
 30
0.0
 11
81.8342590325
 21
46.2935043129
 31
0.0
  0
ARC
  5
37E
330
1F
100
AcDbEntity
  8
0
  6
Continuous
 62
     7
370
    30
100
AcDbCircle
 10
91.5024330231
 20
41.7932842219
 30
0.0
 40
10.83883972990284
100
AcDbArc
 50
150.8987187371
 51
154.304824457
  0
LINE
  5
37F
330
1F
100
AcDbEntity
  8
0
  6
Continuous
 62
     7
370
    30
100
AcDbLine
 10
82.2666274494
 20
47.1276906755
 30
0.0
 11
82.0318738179
 21
47.0648072497
 31
0.0
  0
LINE
  5
380
330
1F
100
AcDbEntity
  8
0
  6
Continuous
 62
     7
370
    30
100
AcDbLine
 10
82.2037254035
 20
47.3624629263
 30
0.0
 11
82.2666274494
 21
47.1276906755
 31
0.0
  0
ARC
  5
381
330
1F
100
AcDbEntity
  8
0
  6
Continuous
 62
     7
370
    30
100
AcDbCircle
 10
91.5040411132
 20
41.7966227406
 30
0.0
 40
10.83856306316707
100
AcDbArc
 50
145.6951242538
 51
149.1012879508
  0
LINE
  5
382
330
1F
100
AcDbEntity
  8
0
  6
Continuous
 62
     7
370
    30
100
AcDbLine
 10
82.7728658228
 20
47.9192189571
 30
0.0
 11
82.5508424459
 21
47.9051972796
 31
0.0
  0
LINE
  5
383
330
1F
100
AcDbEntity
  8
0
  6
Continuous
 62
     7
370
    30
100
AcDbLine
 10
82.7474617641
 20
48.1836637553
 30
0.0
 11
82.7728658228
 21
47.9192189571
 31
0.0
  0
ARC
  5
384
330
1F
100
AcDbEntity
  8
0
  6
Continuous
 62
     7
370
    30
100
AcDbCircle
 10
91.0797506387
 20
42.1005428425
 30
0.0
 40
10.31655940362925
100
AcDbArc
 50
140.3479457436
 51
143.8680885639
  0
LINE
  5
385
330
1F
100
AcDbEntity
  8
0
  6
Continuous
 62
     7
370
    30
100
AcDbLine
 10
83.3405088837
 20
48.6485991045
 30
0.0
 11
83.1366827139
 21
48.6837844354
 31
0.0
  0
LINE
  5
386
330
1F
100
AcDbEntity
  8
0
  6
Continuous
 62
     7
370
    30
100
AcDbLine
 10
83.3532283446
 20
48.9362049415
 30
0.0
 11
83.3405088837
 21
48.6485991045
 31
0.0
  0
ARC
  5
387
330
1F
100
AcDbEntity
  8
0
  6
Continuous
 62
     7
370
    30
100
AcDbCircle
 10
90.346784357
 20
42.7334075996
 30
0.0
 40
9.347968793456394
100
AcDbArc
 50
134.6698561153
 51
138.429206655
  0
LINE
  5
388
330
1F
100
AcDbEntity
  8
0
  6
Continuous
 62
     7
370
    30
100
AcDbLine
 10
83.9555793761
 20
49.2978713577
 30
0.0
 11
83.7749692901
 21
49.3813973175
 31
0.0
  0
LINE
  5
389
330
1F
100
AcDbEntity
  8
0
  6
Continuous
 62
     7
370
    30
100
AcDbLine
 10
84.0061091612
 20
49.6015564232
 30
0.0
 11
83.9555793761
 21
49.2978713577
 31
0.0
  0
ARC
  5
38A
330
1F
100
AcDbEntity
  8
0
  6
Continuous
 62
     7
370
    30
100
AcDbCircle
 10
89.4660506467
 20
43.6614593558
 30
0.0
 40
8.068191507052093
100
AcDbArc
 50
128.4410236453
 51
132.5881978377
  0
LINE
  5
38B
330
1F
100
AcDbEntity
  8
0
  6
Continuous
 62
     7
370
    30
100
AcDbLine
 10
84.6029322232
 20
49.851048479
 30
0.0
 11
84.4499854408
 21
49.9808583814
 31
0.0
  0
LINE
  5
38C
330
1F
100
AcDbEntity
  8
0
  6
Continuous
 62
     7
370
    30
100
AcDbLine
 10
84.6900281215
 20
50.163335039
 30
0.0
 11
84.6029322232
 21
49.851048479
 31
0.0
  0
ARC
  5
38D
330
1F
100
AcDbEntity
  8
0
  6
Continuous
 62
     7
370
    30
100
AcDbCircle
 10
88.6070397235
 20
44.7936127401
 30
0.0
 40
6.646570352962224
100
AcDbArc
 50
121.3899266185
 51
126.1093524873
  0
LINE
  5
38E
330
1F
100
AcDbEntity
  8
0
  6
Continuous
 62
     7
370
    30
100
AcDbLine
 10
85.2666274494
 20
50.2945094119
 30
0.0
 11
85.145110028
 21
50.4674069062
 31
0.0
  0
LINE
  5
38F
330
1F
100
AcDbEntity
  8
0
  6
Continuous
 62
     7
370
    30
100
AcDbLine
 10
85.3881448709
 20
50.6077079347
 30
0.0
 11
85.2666274494
 21
50.2945094119
 31
0.0
  0
ARC
  5
390
330
1F
100
AcDbEntity
  8
0
  6
Continuous
 62
     7
370
    30
100
AcDbCircle
 10
87.9114309669
 20
45.9985715373
 30
0.0
 40
5.254627584546366
100
AcDbArc
 50
113.1784838713
 51
118.6986383033
  0
LINE
  5
391
330
1F
100
AcDbEntity
  8
0
  6
Continuous
 62
     7
370
    30
100
AcDbLine
 10
85.9303226757
 20
50.6173346764
 30
0.0
 11
85.8432267773
 21
50.8290624525
 31
0.0
  0
LINE
  5
392
330
1F
100
AcDbEntity
  8
0
  6
Continuous
 62
     7
370
    30
100
AcDbLine
 10
86.0832694581
 20
50.923733175
 30
0.0
 11
85.9303226757
 21
50.6173346764
 31
0.0
  0
ARC
  5
393
330
1F
100
AcDbEntity
  8
0
  6
Continuous
 62
     7
370
    30
100
AcDbCircle
 10
87.4633308419
 20
47.1306055949
 30
0.0
 40
4.036382818989297
100
AcDbArc
 50
103.4111172147
 51
109.9930084767
  0
LINE
  5
394
330
1F
100
AcDbEntity
  8
0
  6
Continuous
 62
     7
370
    30
100
AcDbLine
 10
86.5776755228
 20
50.8115752431
 30
0.0
 11
86.5271457377
 21
51.0569198605
 31
0.0
  0
LINE
  5
395
330
1F
100
AcDbEntity
  8
0
  6
Continuous
 62
     7
370
    30
100
AcDbLine
 10
86.7582856088
 20
51.1036291695
 30
0.0
 11
86.5776755228
 21
50.8115752431
 31
0.0
  0
ARC
  5
396
330
1F
100
AcDbEntity
  8
0
  6
Continuous
 62
     7
370
    30
100
AcDbCircle
 10
87.2726015299
 20
48.0584387635
 30
0.0
 40
3.088317580149055
100
AcDbArc
 50
91.7177475817
 51
99.5864729168
  0
LINE
  5
397
330
1F
100
AcDbEntity
  8
0
  6
Continuous
 62
     7
370
    30
100
AcDbLine
 10
87.1927460152
 20
50.8724482646
 30
0.0
 11
87.1800265543
 21
51.1453685246
 31
0.0
  0
LINE
  5
398
330
1F
100
AcDbEntity
  8
0
  6
Continuous
 62
     7
370
    30
100
AcDbLine
 10
87.396572185
 20
51.142966282
 30
0.0
 11
87.1927460152
 21
50.8724482646
 31
0.0
  0
ARC
  5
399
330
1F
100
AcDbEntity
  8
0
  6
Continuous
 62
     7
370
    30
100
AcDbCircle
 10
87.2748734678
 20
48.6910215752
 30
0.0
 40
2.454963018625561
100
AcDbArc
 50
77.9879705163
 51
87.1585389037
  0
LINE
  5
39A
330
1F
100
AcDbEntity
  8
0
  6
Continuous
 62
     7
370
    30
100
AcDbLine
 10
87.7603890761
 20
50.798454845
 30
0.0
 11
87.7857931348
 21
51.092230545
 31
0.0
  0
LINE
  5
39B
330
1F
100
AcDbEntity
  8
0
  6
Continuous
 62
     7
370
    30
100
AcDbLine
 10
87.982412453
 20
51.040775902
 30
0.0
 11
87.7603890761
 21
50.798454845
 31
0.0
  0
ARC
  5
39C
330
1F
100
AcDbEntity
  8
0
  6
Continuous
 62
     7
370
    30
100
AcDbCircle
 10
87.3481858162
 20
48.994640578
 30
0.0
 40
2.142174874007685
100
AcDbArc
 50
62.7350259446
 51
72.7784878595
  0
LINE
  5
39D
330
1F
100
AcDbEntity
  8
0
  6
Continuous
 62
     7
370
    30
100
AcDbLine
 10
88.2666274494
 20
50.591416948
 30
0.0
 11
88.3295294954
 21
50.8988143553
 31
0.0
  0
LINE
  5
39E
330
1F
100
AcDbEntity
  8
0
  6
Continuous
 62
     7
370
    30
100
AcDbLine
 10
88.501381081
 20
50.7995742959
 30
0.0
 11
88.2666274494
 21
50.591416948
 31
0.0
  0
ARC
  5
39F
330
1F
100
AcDbEntity
  8
0
  6
Continuous
 62
     7
370
    30
100
AcDbCircle
 10
87.3425632174
 20
48.9977021375
 30
0.0
 40
2.142335668410547
100
AcDbArc
 50
47.2112079622
 51
57.2541669633
  0
LINE
  5
3A0
330
1F
100
AcDbEntity
  8
0
  6
Continuous
 62
     7
370
    30
100
AcDbLine
 10
88.6989958664
 20
50.2564325337
 30
0.0
 11
88.7978470425
 21
50.5698825039
 31
0.0
  0
LINE
  5
3A1
330
1F
100
AcDbEntity
  8
0
  6
Continuous
 62
     7
370
    30
100
AcDbLine
 10
88.940699339
 20
50.4253006478
 30
0.0
 11
88.6989958664
 21
50.2564325337
 31
0.0
  0
ARC
  5
3A2
330
1F
100
AcDbEntity
  8
0
  6
Continuous
 62
     7
370
    30
100
AcDbCircle
 10
87.1160078482
 20
48.7822110672
 30
0.0
 40
2.455451568734014
100
AcDbArc
 50
32.8329028496
 51
42.002253979
  0
LINE
  5
3A3
330
1F
100
AcDbEntity
  8
0
  6
Continuous
 62
     7
370
    30
100
AcDbLine
 10
89.0468479815
 20
49.8017500302
 30
0.0
 11
89.1792142438
 21
50.1135343847
 31
0.0
  0
LINE
  5
3A4
330
1F
100
AcDbEntity
  8
0
  6
Continuous
 62
     7
370
    30
100
AcDbLine
 10
89.2895497536
 20
49.927170817
 30
0.0
 11
89.0468479815
 21
49.8017500302
 31
0.0
  0
ARC
  5
3A5
330
1F
100
AcDbEntity
  8
0
  6
Continuous
 62
     7
370
    30
100
AcDbCircle
 10
86.5689797305
 20
48.4638589854
 30
0.0
 40
3.089139486564764
100
AcDbArc
 50
20.4071268706
 51
28.2744556369
  0
LINE
  5
3A6
330
1F
100
AcDbEntity
  8
0
  6
Continuous
 62
     7
370
    30
100
AcDbLine
 10
89.3016185212
 20
49.2385652295
 30
0.0
 11
89.4642405731
 21
49.5410068028
 31
0.0
  0
LINE
  5
3A7
330
1F
100
AcDbEntity
  8
0
  6
Continuous
 62
     7
370
    30
100
AcDbLine
 10
89.5393424698
 20
49.3174504131
 30
0.0
 11
89.3016185212
 21
49.2385652295
 31
0.0
  0
ARC
  5
3A8
330
1F
100
AcDbEntity
  8
0
  6
Continuous
 62
     7
370
    30
100
AcDbCircle
 10
85.6697622018
 20
48.1651130017
 30
0.0
 40
4.03751569160466
100
AcDbArc
 50
10.0025511688
 51
16.5832105983
  0
LINE
  5
3A9
330
1F
100
AcDbEntity
  8
0
  6
Continuous
 62
     7
370
    30
100
AcDbLine
 10
89.4570341894
 20
48.5807456108
 30
0.0
 11
89.6459077362
 21
48.8663972876
 31
0.0
  0
LINE
  5
3AA
330
1F
100
AcDbEntity
  8
0
  6
Continuous
 62
     7
370
    30
100
AcDbLine
 10
89.6839267618
 20
48.611152776
 30
0.0
 11
89.4570341894
 21
48.5807456108
 31
0.0
  0
ARC
  5
3AB
330
1F
100
AcDbEntity
  8
0
  6
Continuous
 62
     7
370
    30
100
AcDbCircle
 10
84.4650929112
 20
47.9872127138
 30
0.0
 40
5.255999235302773
100
AcDbArc
 50
1.2984695645
 51
6.817663183
  0
LINE
  5
3AC
330
1F
100
AcDbEntity
  8
0
  6
Continuous
 62
     7
370
    30
100
AcDbLine
 10
89.5092681366
 20
47.844488876
 30
0.0
 11
89.7197424846
 21
48.1063169641
 31
0.0
  0
LINE
  5
3AD
330
1F
100
AcDbEntity
  8
0
  6
Continuous
 62
     7
370
    30
100
AcDbLine
 10
89.7197424846
 20
47.8256692977
 30
0.0
 11
89.5092681366
 21
47.844488876
 31
0.0
  0
ARC
  5
3AE
330
1F
100
AcDbEntity
  8
0
  6
Continuous
 62
     7
370
    30
100
AcDbCircle
 10
83.0736513913
 20
47.9872119782
 30
0.0
 40
6.648054065466032
100
AcDbArc
 50
353.8888954736
 51
358.6076188909
  0
LINE
  5
3AF
330
1F
100
AcDbEntity
  8
0
  6
Continuous
 62
     7
370
    30
100
AcDbLine
 10
89.4570341894
 20
47.0479241097
 30
0.0
 11
89.6839267618
 21
47.2794815324
 31
0.0
  0
LINE
  5
3B0
330
1F
100
AcDbEntity
  8
0
  6
Continuous
 62
     7
370
    30
100
AcDbLine
 10
89.6459077362
 20
46.9803411882
 30
0.0
 11
89.4570341894
 21
47.0479241097
 31
0.0
  0
ARC
  5
3B1
330
1F
100
AcDbEntity
  8
0
  6
Continuous
 62
     7
370
    30
100
AcDbCircle
 10
81.6637323225
 20
48.1650919502
 30
0.0
 40
8.069619489368083
100
AcDbArc
 50
347.4108504974
 51
351.5575352798
  0
LINE
  5
3B2
330
1F
100
AcDbEntity
  8
0
  6
Continuous
 62
     7
370
    30
100
AcDbLine
 10
89.3016185212
 20
46.2106653799
 30
0.0
 11
89.5393424698
 21
46.4062504251
 31
0.0
  0
LINE
  5
3B3
330
1F
100
AcDbEntity
  8
0
  6
Continuous
 62
     7
370
    30
100
AcDbLine
 10
89.4642405731
 20
46.0959832311
 30
0.0
 11
89.3016185212
 21
46.2106653799
 31
0.0
  0
ARC
  5
3B4
330
1F
100
AcDbEntity
  8
0
  6
Continuous
 62
     7
370
    30
100
AcDbCircle
 10
80.4198841633
 20
48.4637656591
 30
0.0
 40
9.349159132962123
100
AcDbArc
 50
341.5703711029
 51
345.3294024547
  0
LINE
  5
3B5
330
1F
100
AcDbEntity
  8
0
  6
Continuous
 62
     7
370
    30
100
AcDbLine
 10
89.0468479815
 20
45.3533287752
 30
0.0
 11
89.2895497536
 21
45.50812549
 31
0.0
  0
LINE
  5
3B6
330
1F
100
AcDbEntity
  8
0
  6
Continuous
 62
     7
370
    30
100
AcDbLine
 10
89.1792142438
 20
45.1943712542
 30
0.0
 11
89.0468479815
 21
45.3533287752
 31
0.0
  0
ARC
  5
3B7
330
1F
100
AcDbEntity
  8
0
  6
Continuous
 62
     7
370
    30
100
AcDbCircle
 10
79.5057036282
 20
48.7819731122
 30
0.0
 40
10.31734921006812
100
AcDbArc
 50
336.1317984441
 51
339.651761569
  0
LINE
  5
3B8
330
1F
100
AcDbEntity
  8
0
  6
Continuous
 62
     7
370
    30
100
AcDbLine
 10
88.6989958664
 20
44.4970247683
 30
0.0
 11
88.940699339
 21
44.6072215437
 31
0.0
  0
LINE
  5
3B9
330
1F
100
AcDbEntity
  8
0
  6
Continuous
 62
     7
370
    30
100
AcDbLine
 10
88.7978470425
 20
44.2977059368
 30
0.0
 11
88.6989958664
 21
44.4970247683
 31
0.0
  0
ARC
  5
3BA
330
1F
100
AcDbEntity
  8
0
  6
Continuous
 62
     7
370
    30
100
AcDbCircle
 10
79.0308218758
 20
48.9972448592
 30
0.0
 40
10.83883972990834
100
AcDbArc
 50
330.8987187371
 51
334.304824457
  0
LINE
  5
3BB
330
1F
100
AcDbEntity
  8
0
  6
Continuous
 62
     7
370
    30
100
AcDbLine
 10
88.2666274494
 20
43.6628384056
 30
0.0
 11
88.501381081
 21
43.7257218315
 31
0.0
  0
LINE
  5
3BC
330
1F
100
AcDbEntity
  8
0
  6
Continuous
 62
     7
370
    30
100
AcDbLine
 10
88.3295294954
 20
43.4280661548
 30
0.0
 11
88.2666274494
 21
43.6628384056
 31
0.0
  0
ARC
  5
3BD
330
1F
100
AcDbEntity
  8
0
  6
Continuous
 62
     7
370
    30
100
AcDbCircle
 10
79.0292137857
 20
48.9939063406
 30
0.0
 40
10.83856306314587
100
AcDbArc
 50
325.6951242538
 51
329.1012879508
  0
LINE
  5
3BE
330
1F
100
AcDbEntity
  8
0
  6
Continuous
 62
     7
370
    30
100
AcDbLine
 10
87.7603890761
 20
42.871310124
 30
0.0
 11
87.982412453
 21
42.8853318016
 31
0.0
  0
LINE
  5
3BF
330
1F
100
AcDbEntity
  8
0
  6
Continuous
 62
     7
370
    30
100
AcDbLine
 10
87.7857931348
 20
42.6068653258
 30
0.0
 11
87.7603890761
 21
42.871310124
 31
0.0
  0
ARC
  5
3C0
330
1F
100
AcDbEntity
  8
0
  6
Continuous
 62
     7
370
    30
100
AcDbCircle
 10
79.4535042603
 20
48.6899862386
 30
0.0
 40
10.3165594035797
100
AcDbArc
 50
320.3479457436
 51
323.8680885639
  0
LINE
  5
3C1
330
1F
100
AcDbEntity
  8
0
  6
Continuous
 62
     7
370
    30
100
AcDbLine
 10
87.1927460152
 20
42.1419299767
 30
0.0
 11
87.396572185
 21
42.1067446457
 31
0.0
  0
LINE
  5
3C2
330
1F
100
AcDbEntity
  8
0
  6
Continuous
 62
     7
370
    30
100
AcDbLine
 10
87.1800265543
 20
41.8543241397
 30
0.0
 11
87.1927460152
 21
42.1419299767
 31
0.0
  0
ARC
  5
3C3
330
1F
100
AcDbEntity
  8
0
  6
Continuous
 62
     7
370
    30
100
AcDbCircle
 10
80.1864705419
 20
48.0571214816
 30
0.0
 40
9.347968793441058
100
AcDbArc
 50
314.6698561153
 51
318.429206655
  0
LINE
  5
3C4
330
1F
100
AcDbEntity
  8
0
  6
Continuous
 62
     7
370
    30
100
AcDbLine
 10
86.5776755228
 20
41.4926577235
 30
0.0
 11
86.7582856088
 21
41.4091317636
 31
0.0
  0
LINE
  5
3C5
330
1F
100
AcDbEntity
  8
0
  6
Continuous
 62
     7
370
    30
100
AcDbLine
 10
86.5271457377
 20
41.1889726579
 30
0.0
 11
86.5776755228
 21
41.4926577235
 31
0.0
  0
ARC
  5
3C6
330
1F
100
AcDbEntity
  8
0
  6
Continuous
 62
     7
370
    30
100
AcDbCircle
 10
81.0672042522
 20
47.1290697254
 30
0.0
 40
8.068191507060904
100
AcDbArc
 50
308.4410236453
 51
312.5881978377
  0
LINE
  5
3C7
330
1F
100
AcDbEntity
  8
0
  6
Continuous
 62
     7
370
    30
100
AcDbLine
 10
85.9303226757
 20
40.9394806021
 30
0.0
 11
86.0832694581
 21
40.8096706997
 31
0.0
  0
LINE
  5
3C8
330
1F
100
AcDbEntity
  8
0
  6
Continuous
 62
     7
370
    30
100
AcDbLine
 10
85.8432267773
 20
40.6271940422
 30
0.0
 11
85.9303226757
 21
40.9394806021
 31
0.0
  0
ARC
  5
3C9
330
1F
100
AcDbEntity
  8
0
  6
Continuous
 62
     7
370
    30
100
AcDbCircle
 10
81.9262151754
 20
45.9969163411
 30
0.0
 40
6.646570352967774
100
AcDbArc
 50
301.3899266185
 51
306.1093524873
  0
LINE
  5
3CA
330
1F
100
AcDbEntity
  8
0
  6
Continuous
 62
     7
370
    30
100
AcDbLine
 10
85.2666274494
 20
40.4960196693
 30
0.0
 11
85.3881448709
 21
40.3231221749
 31
0.0
  0
LINE
  5
3CB
330
1F
100
AcDbEntity
  8
0
  6
Continuous
 62
     7
370
    30
100
AcDbLine
 10
85.145110028
 20
40.1828211465
 30
0.0
 11
85.2666274494
 21
40.4960196693
 31
0.0
  0
ARC
  5
3CC
330
1F
100
AcDbEntity
  8
0
  6
Continuous
 62
     7
370
    30
100
AcDbCircle
 10
82.621823932
 20
44.7919575439
 30
0.0
 40
5.25462758454165
100
AcDbArc
 50
293.1784838713
 51
298.6986383033
  0
LINE
  5
3CD
330
1F
100
AcDbEntity
  8
0
  6
Continuous
 62
     7
370
    30
100
AcDbLine
 10
84.6029322232
 20
40.1731944048
 30
0.0
 11
84.6900281215
 21
39.9614666286
 31
0.0
  0
LINE
  5
3CE
330
1F
100
AcDbEntity
  8
0
  6
Continuous
 62
     7
370
    30
100
AcDbLine
 10
84.4499854408
 20
39.8667959062
 30
0.0
 11
84.6029322232
 21
40.1731944048
 31
0.0
  0
ARC
  5
3CF
330
1F
100
AcDbEntity
  8
0
  6
Continuous
 62
     7
370
    30
100
AcDbCircle
 10
83.069924057
 20
43.6599234862
 30
0.0
 40
4.036382818987423
100
AcDbArc
 50
283.4111172147
 51
289.9930084767
  0
LINE
  5
3D0
330
1F
100
AcDbEntity
  8
0
  6
Continuous
 62
     7
370
    30
100
AcDbLine
 10
83.9555793761
 20
39.9789538381
 30
0.0
 11
84.0061091612
 21
39.7336092206
 31
0.0
  0
LINE
  5
3D1
330
1F
100
AcDbEntity
  8
0
  6
Continuous
 62
     7
370
    30
100
AcDbLine
 10
83.7749692901
 20
39.6868999116
 30
0.0
 11
83.9555793761
 21
39.9789538381
 31
0.0
  0
ARC
  5
3D2
330
1F
100
AcDbEntity
  8
0
  6
Continuous
 62
     7
370
    30
100
AcDbCircle
 10
83.260653369
 20
42.7320903177
 30
0.0
 40
3.088317580149971
100
AcDbArc
 50
271.7177475817
 51
279.5864729168
  0
LINE
  5
3D3
330
1F
100
AcDbEntity
  8
0
  6
Continuous
 62
     7
370
    30
100
AcDbLine
 10
83.3405088837
 20
39.9180808166
 30
0.0
 11
83.3532283446
 21
39.6451605566
 31
0.0
  0
LINE
  5
3D4
330
1F
100
AcDbEntity
  8
0
  6
Continuous
 62
     7
370
    30
100
AcDbLine
 10
83.1366827139
 20
39.6475627992
 30
0.0
 11
83.3405088837
 21
39.9180808166
 31
0.0
  0
ARC
  5
3D5
330
1F
100
AcDbEntity
  8
0
  6
Continuous
 62
     7
370
    30
100
AcDbCircle
 10
83.2583814311
 20
42.099507506
 30
0.0
 40
2.454963018623324
100
AcDbArc
 50
257.9879705163
 51
267.1585389037
  0
LINE
  5
3D6
330
1F
100
AcDbEntity
  8
0
  6
Continuous
 62
     7
370
    30
100
AcDbLine
 10
82.7728658228
 20
39.9920742361
 30
0.0
 11
82.7474617641
 21
39.6982985362
 31
0.0
  0
LINE
  5
3D7
330
1F
100
AcDbEntity
  8
0
  6
Continuous
 62
     7
370
    30
100
AcDbLine
 10
82.5508424459
 20
39.7497531792
 30
0.0
 11
82.7728658228
 21
39.9920742361
 31
0.0
  0
ARC
  5
3D8
330
1F
100
AcDbEntity
  8
0
  6
Continuous
 62
     7
370
    30
100
AcDbCircle
 10
83.1850690827
 20
41.7958885032
 30
0.0
 40
2.142174874009101
100
AcDbArc
 50
242.7350259446
 51
252.7784878595
  0
LINE
  5
3D9
330
1F
100
AcDbEntity
  8
0
  6
Continuous
 62
     7
370
    30
100
AcDbLine
 10
82.2666274494
 20
40.1991121331
 30
0.0
 11
82.2037254035
 21
39.8917147259
 31
0.0
  0
LINE
  5
3DA
330
1F
100
AcDbEntity
  8
0
  6
Continuous
 62
     7
370
    30
100
AcDbLine
 10
82.0318738179
 20
39.9909547853
 30
0.0
 11
82.2666274494
 21
40.1991121331
 31
0.0
  0
ARC
  5
3DB
330
1F
100
AcDbEntity
  8
0
  6
Continuous
 62
     7
370
    30
100
AcDbCircle
 10
83.1906916815
 20
41.7928269436
 30
0.0
 40
2.142335668412764
100
AcDbArc
 50
227.2112079622
 51
237.2541669633
  0
LINE
  5
3DC
330
1F
100
AcDbEntity
  8
0
  6
Continuous
 62
     7
370
    30
100
AcDbLine
 10
81.8342590325
 20
40.5340965474
 30
0.0
 11
81.7354078564
 21
40.2206465773
 31
0.0
  0
LINE
  5
3DD
330
1F
100
AcDbEntity
  8
0
  6
Continuous
 62
     7
370
    30
100
AcDbLine
 10
81.5925555599
 20
40.3652284334
 30
0.0
 11
81.8342590325
 21
40.5340965474
 31
0.0
  0
ARC
  5
3DE
330
1F
100
AcDbEntity
  8
0
  6
Continuous
 62
     7
370
    30
100
AcDbCircle
 10
83.4172470507
 20
42.0083180139
 30
0.0
 40
2.455451568732094
100
AcDbArc
 50
212.8329028496
 51
222.002253979
  0
LINE
  5
3DF
330
1F
100
AcDbEntity
  8
0
  6
Continuous
 62
     7
370
    30
100
AcDbLine
 10
81.4864069174
 20
40.988779051
 30
0.0
 11
81.3540406551
 21
40.6769946965
 31
0.0
  0
LINE
  5
3E0
330
1F
100
AcDbEntity
  8
0
  6
Continuous
 62
     7
370
    30
100
AcDbLine
 10
81.2437051453
 20
40.8633582642
 30
0.0
 11
81.4864069174
 21
40.988779051
 31
0.0
  0
ARC
  5
3E1
330
1F
100
AcDbEntity
  8
0
  6
Continuous
 62
     7
370
    30
100
AcDbCircle
 10
83.9642751684
 20
42.3266700958
 30
0.0
 40
3.089139486565804
100
AcDbArc
 50
200.4071268706
 51
208.2744556369
  0
LINE
  5
3E2
330
1F
100
AcDbEntity
  8
0
  6
Continuous
 62
     7
370
    30
100
AcDbLine
 10
81.2316363777
 20
41.5519638516
 30
0.0
 11
81.0690143258
 21
41.2495222783
 31
0.0
  0
LINE
  5
3E3
330
1F
100
AcDbEntity
  8
0
  6
Continuous
 62
     7
370
    30
100
AcDbLine
 10
80.9939124291
 20
41.4730786681
 30
0.0
 11
81.2316363777
 21
41.5519638516
 31
0.0
  0
ARC
  5
3E4
330
1F
100
AcDbEntity
  8
0
  6
Continuous
 62
     7
370
    30
100
AcDbCircle
 10
84.8634926971
 20
42.6254160795
 30
0.0
 40
4.037515691608433
100
AcDbArc
 50
190.0025511688
 51
196.5832105983
  0
LINE
  5
3E5
330
1F
100
AcDbEntity
  8
0
  6
Continuous
 62
     7
370
    30
100
AcDbLine
 10
81.0762207094
 20
42.2097834704
 30
0.0
 11
80.8873471627
 21
41.9241317936
 31
0.0
  0
LINE
  5
3E6
330
1F
100
AcDbEntity
  8
0
  6
Continuous
 62
     7
370
    30
100
AcDbLine
 10
80.8493281371
 20
42.1793763051
 30
0.0
 11
81.0762207094
 21
42.2097834704
 31
0.0
  0
ARC
  5
3E7
330
1F
100
AcDbEntity
  8
0
  6
Continuous
 62
     7
370
    30
100
AcDbCircle
 10
86.0681619877
 20
42.8033163674
 30
0.0
 40
5.255999235298979
100
AcDbArc
 50
181.2984695645
 51
186.817663183
  0
LINE
  5
3E8
330
1F
100
AcDbEntity
  8
0
  6
Continuous
 62
     7
370
    30
100
AcDbLine
 10
81.0239867623
 20
42.9460402051
 30
0.0
 11
80.8135124143
 21
42.6842121171
 31
0.0
  0
LINE
  5
3E9
330
1F
100
AcDbEntity
  8
0
  6
Continuous
 62
     7
370
    30
100
AcDbLine
 10
80.8135124143
 20
42.9648597835
 30
0.0
 11
81.0239867623
 21
42.9460402051
 31
0.0
  0
ARC
  5
3EA
330
1F
100
AcDbEntity
  8
0
  6
Continuous
 62
     7
370
    30
100
AcDbCircle
 10
87.4596035076
 20
42.8033171029
 30
0.0
 40
6.648054065479482
100
AcDbArc
 50
173.8888954736
 51
178.6076188909
  0
LINE
  5
3EB
330
1F
100
AcDbEntity
  8
0
  6
Continuous
 62
     7
370
    30
100
AcDbLine
 10
81.0762207094
 20
43.7426049715
 30
0.0
 11
80.8493281371
 21
43.5110475488
 31
0.0
  0
LINE
  5
3EC
330
1F
100
AcDbEntity
  8
0
  6
Continuous
 62
     7
370
    30
100
AcDbLine
 10
80.8873471627
 20
43.810187893
 30
0.0
 11
81.0762207094
 21
43.7426049715
 31
0.0
  0
ARC
  5
3ED
330
1F
100
AcDbEntity
  8
0
  6
Continuous
 62
     7
370
    30
100
AcDbCircle
 10
88.8695225764
 20
42.625437131
 30
0.0
 40
8.069619489386966
100
AcDbArc
 50
167.4108504974
 51
171.5575352798
  0
ARC
  5
3EE
330
1F
100
AcDbEntity
  8
0
  6
Continuous
 62
     7
370
    30
100
AcDbCircle
 10
91.5616115834
 20
41.7589369636
 30
0.0
 40
11.1860259850822
100
AcDbArc
 50
151.4500138669
 51
153.7535293273
  0
LINE
  5
3EF
330
1F
100
AcDbEntity
  8
0
  6
Continuous
 62
     7
370
    30
100
AcDbLine
 10
81.7358008301
 20
47.1050215477
 30
0.0
 11
82.0318738179
 21
47.0648072497
 31
0.0
  0
LINE
  5
3F0
330
1F
100
AcDbEntity
  8
0
  6
Continuous
 62
     7
370
    30
100
AcDbLine
 10
81.7354078564
 20
46.4928231443
 30
0.0
 11
81.5288650552
 21
46.7057717538
 31
0.0
  0
ARC
  5
3F1
330
1F
100
AcDbEntity
  8
0
  6
Continuous
 62
     7
370
    30
100
AcDbCircle
 10
91.5633718331
 20
41.7625567369
 30
0.0
 40
11.18574044061667
100
AcDbArc
 50
146.246428769
 51
148.5499834356
  0
LINE
  5
3F2
330
1F
100
AcDbEntity
  8
0
  6
Continuous
 62
     7
370
    30
100
AcDbLine
 10
82.2631559297
 20
47.9776008521
 30
0.0
 11
82.5508424459
 21
47.9051972796
 31
0.0
  0
LINE
  5
3F3
330
1F
100
AcDbEntity
  8
0
  6
Continuous
 62
     7
370
    30
100
AcDbLine
 10
82.2037254035
 20
47.3624629263
 30
0.0
 11
82.0208652674
 21
47.5987676351
 31
0.0
  0
LINE
  5
3F4
330
1F
100
AcDbEntity
  8
0
  6
Continuous
 62
     7
370
    30
100
AcDbLine
 10
81.7358008301
 20
47.1050215477
 30
0.0
 11
76.3617892931
 21
50.2073723727
 31
0.0
  0
LINE
  5
3F5
330
1F
100
AcDbEntity
  8
0
  6
Continuous
 62
     7
370
    30
100
AcDbLine
 10
76.1548535182
 20
49.8081225787
 30
0.0
 11
81.5288650552
 21
46.7057717538
 31
0.0
  0
ARC
  5
3F6
330
1F
100
AcDbEntity
  8
0
  6
Continuous
 62
     7
370
    30
100
AcDbCircle
 10
86.1876000463
 20
44.8612877886
 30
0.0
 40
11.18602598503138
100
AcDbArc
 50
151.4500138669
 51
153.7535293273
  0
LINE
  5
3F7
330
1F
100
AcDbEntity
  8
0
  6
Continuous
 62
     7
370
    30
100
AcDbLine
 10
82.2631559297
 20
47.9776008521
 30
0.0
 11
76.8891443927
 21
51.0799516771
 31
0.0
  0
LINE
  5
3F8
330
1F
100
AcDbEntity
  8
0
  6
Continuous
 62
     7
370
    30
100
AcDbLine
 10
76.6468537304
 20
50.7011184601
 30
0.0
 11
82.0208652674
 21
47.5987676351
 31
0.0
  0
ARC
  5
3F9
330
1F
100
AcDbEntity
  8
0
  6
Continuous
 62
     7
370
    30
100
AcDbCircle
 10
86.1893602962
 20
44.8649075618
 30
0.0
 40
11.18574044067191
100
AcDbArc
 50
146.246428769
 51
148.5499834356
  0
ARC
  5
3FA
330
1F
100
AcDbEntity
  8
0
  6
Continuous
 62
     7
370
    30
100
AcDbCircle
 10
91.071448968
 20
41.9809237588
 30
0.0
 40
10.64779931013174
100
AcDbArc
 50
156.7015248558
 51
159.0820351572
  0
LINE
  5
3FB
330
1F
100
AcDbEntity
  8
0
  6
Continuous
 62
     7
370
    30
100
AcDbLine
 10
81.2919041369
 20
46.1923526192
 30
0.0
 11
81.5925555599
 21
46.1833075374
 31
0.0
  0
LINE
  5
3FC
330
1F
100
AcDbEntity
  8
0
  6
Continuous
 62
     7
370
    30
100
AcDbLine
 10
81.3540406551
 20
45.5961578269
 30
0.0
 11
81.1254186949
 21
45.7825171032
 31
0.0
  0
ARC
  5
3FD
330
1F
100
AcDbEntity
  8
0
  6
Continuous
 62
     7
370
    30
100
AcDbCircle
 10
91.1256121085
 20
42.0763624021
 30
0.0
 40
10.64698415234855
100
AcDbArc
 50
140.9177012443
 51
143.2983330632
  0
LINE
  5
3FE
330
1F
100
AcDbEntity
  8
0
  6
Continuous
 62
     7
370
    30
100
AcDbLine
 10
82.8609842029
 20
48.788604734
 30
0.0
 11
83.1366827139
 21
48.6837844354
 31
0.0
  0
LINE
  5
3FF
330
1F
100
AcDbEntity
  8
0
  6
Continuous
 62
     7
370
    30
100
AcDbLine
 10
82.7474617641
 20
48.1836637553
 30
0.0
 11
82.5893046535
 21
48.439516225
 31
0.0
  0
LINE
  5
400
330
1F
100
AcDbEntity
  8
0
  6
Continuous
 62
     7
370
    30
100
AcDbLine
 10
76.3750195684
 20
50.330439697
 30
0.0
 11
76.3617892931
 21
50.2073723727
 31
0.0
  0
LINE
  5
401
330
1F
100
AcDbEntity
  8
0
  6
Continuous
 62
     7
370
    30
100
AcDbLine
 10
76.6097732
 20
50.3933231228
 30
0.0
 11
76.3750195684
 21
50.330439697
 31
0.0
  0
LINE
  5
402
330
1F
100
AcDbEntity
  8
0
  6
Continuous
 62
     7
370
    30
100
AcDbLine
 10
82.2666274494
 20
47.1276906755
 30
0.0
 11
76.6097732
 21
50.3933231228
 31
0.0
  0
LINE
  5
403
330
1F
100
AcDbEntity
  8
0
  6
Continuous
 62
     7
370
    30
100
AcDbLine
 10
76.546871154
 20
50.6280953736
 30
0.0
 11
76.6097732
 21
50.3933231228
 31
0.0
  0
LINE
  5
404
330
1F
100
AcDbEntity
  8
0
  6
Continuous
 62
     7
370
    30
100
AcDbLine
 10
76.6468537304
 20
50.7011184601
 30
0.0
 11
76.546871154
 21
50.6280953736
 31
0.0
  0
LINE
  5
405
330
1F
100
AcDbEntity
  8
0
  6
Continuous
 62
     7
370
    30
100
AcDbLine
 10
81.8342590325
 20
46.2935043129
 30
0.0
 11
76.177404783
 21
49.5591367602
 31
0.0
  0
LINE
  5
406
330
1F
100
AcDbEntity
  8
0
  6
Continuous
 62
     7
370
    30
100
AcDbLine
 10
76.0785536069
 20
49.7584555916
 30
0.0
 11
76.177404783
 21
49.5591367602
 31
0.0
  0
LINE
  5
407
330
1F
100
AcDbEntity
  8
0
  6
Continuous
 62
     7
370
    30
100
AcDbLine
 10
76.1548535182
 20
49.8081225787
 30
0.0
 11
76.0785536069
 21
49.7584555916
 31
0.0
  0
LINE
  5
408
330
1F
100
AcDbEntity
  8
0
  6
Continuous
 62
     7
370
    30
100
AcDbLine
 10
76.8939881964
 20
51.1708297269
 30
0.0
 11
76.8891443927
 21
51.0799516771
 31
0.0
  0
LINE
  5
409
330
1F
100
AcDbEntity
  8
0
  6
Continuous
 62
     7
370
    30
100
AcDbLine
 10
77.1160115733
 20
51.1848514044
 30
0.0
 11
76.8939881964
 21
51.1708297269
 31
0.0
  0
LINE
  5
40A
330
1F
100
AcDbEntity
  8
0
  6
Continuous
 62
     7
370
    30
100
AcDbLine
 10
82.7728658228
 20
47.9192189571
 30
0.0
 11
77.1160115733
 21
51.1848514044
 31
0.0
  0
LINE
  5
40B
330
1F
100
AcDbEntity
  8
0
  6
Continuous
 62
     7
370
    30
100
AcDbLine
 10
81.2919041369
 20
46.1923526192
 30
0.0
 11
75.9178925999
 21
49.2947034441
 31
0.0
  0
LINE
  5
40C
330
1F
100
AcDbEntity
  8
0
  6
Continuous
 62
     7
370
    30
100
AcDbLine
 10
75.7514071579
 20
48.8848679281
 30
0.0
 11
81.1254186949
 21
45.7825171032
 31
0.0
  0
ARC
  5
40D
330
1F
100
AcDbEntity
  8
0
  6
Continuous
 62
     7
370
    30
100
AcDbCircle
 10
85.6974374309
 20
45.0832745837
 30
0.0
 40
10.64779931010147
100
AcDbArc
 50
156.7015248558
 51
159.0820351572
  0
LINE
  5
40E
330
1F
100
AcDbEntity
  8
0
  6
Continuous
 62
     7
370
    30
100
AcDbLine
 10
82.8609842029
 20
48.788604734
 30
0.0
 11
77.4869726659
 21
51.8909555589
 31
0.0
  0
LINE
  5
40F
330
1F
100
AcDbEntity
  8
0
  6
Continuous
 62
     7
370
    30
100
AcDbLine
 10
77.2152931165
 20
51.54186705
 30
0.0
 11
82.5893046535
 21
48.439516225
 31
0.0
  0
ARC
  5
410
330
1F
100
AcDbEntity
  8
0
  6
Continuous
 62
     7
370
    30
100
AcDbCircle
 10
85.7516005714
 20
45.178713227
 30
0.0
 40
10.64698415230978
100
AcDbArc
 50
140.9177012443
 51
143.2983330632
  0
LINE
  5
411
330
1F
100
AcDbEntity
  8
0
  6
Continuous
 62
     7
370
    30
100
AcDbLine
 10
75.9357013104
 20
49.4489399847
 30
0.0
 11
75.9178925999
 21
49.2947034441
 31
0.0
  0
LINE
  5
412
330
1F
100
AcDbEntity
  8
0
  6
Continuous
 62
     7
370
    30
100
AcDbLine
 10
76.177404783
 20
49.5591367602
 30
0.0
 11
75.9357013104
 21
49.4489399847
 31
0.0
  0
LINE
  5
413
330
1F
100
AcDbEntity
  8
0
  6
Continuous
 62
     7
370
    30
100
AcDbLine
 10
77.0906075146
 20
51.4492962026
 30
0.0
 11
77.1160115733
 21
51.1848514044
 31
0.0
  0
LINE
  5
414
330
1F
100
AcDbEntity
  8
0
  6
Continuous
 62
     7
370
    30
100
AcDbLine
 10
77.2152931165
 20
51.54186705
 30
0.0
 11
77.0906075146
 21
51.4492962026
 31
0.0
  0
LINE
  5
415
330
1F
100
AcDbEntity
  8
0
  6
Continuous
 62
     7
370
    30
100
AcDbLine
 10
81.4864069174
 20
45.437200306
 30
0.0
 11
75.8295526679
 21
48.7028327532
 31
0.0
  0
LINE
  5
416
330
1F
100
AcDbEntity
  8
0
  6
Continuous
 62
     7
370
    30
100
AcDbLine
 10
75.6971864056
 20
48.8617902742
 30
0.0
 11
75.8295526679
 21
48.7028327532
 31
0.0
  0
LINE
  5
417
330
1F
100
AcDbEntity
  8
0
  6
Continuous
 62
     7
370
    30
100
AcDbLine
 10
75.7514071579
 20
48.8848679281
 30
0.0
 11
75.6971864056
 21
48.8617902742
 31
0.0
  0
LINE
  5
418
330
1F
100
AcDbEntity
  8
0
  6
Continuous
 62
     7
370
    30
100
AcDbLine
 10
77.4798284644
 20
51.9494168827
 30
0.0
 11
77.4869726659
 21
51.8909555589
 31
0.0
  0
LINE
  5
419
330
1F
100
AcDbEntity
  8
0
  6
Continuous
 62
     7
370
    30
100
AcDbLine
 10
77.6836546342
 20
51.9142315518
 30
0.0
 11
77.4798284644
 21
51.9494168827
 31
0.0
  0
LINE
  5
41A
330
1F
100
AcDbEntity
  8
0
  6
Continuous
 62
     7
370
    30
100
AcDbLine
 10
83.3405088837
 20
48.6485991045
 30
0.0
 11
77.6836546342
 21
51.9142315518
 31
0.0
  0
ARC
  5
41B
330
1F
100
AcDbEntity
  8
0
  6
Continuous
 62
     7
370
    30
100
AcDbCircle
 10
90.1279452191
 20
42.3091597549
 30
0.0
 40
9.64852188576677
100
AcDbArc
 50
162.1787971064
 51
164.7209764512
  0
LINE
  5
41C
330
1F
100
AcDbEntity
  8
0
  6
Continuous
 62
     7
370
    30
100
AcDbLine
 10
80.9423960599
 20
45.2620670044
 30
0.0
 11
81.2437051453
 21
45.2824035912
 31
0.0
  0
LINE
  5
41D
330
1F
100
AcDbEntity
  8
0
  6
Continuous
 62
     7
370
    30
100
AcDbLine
 10
81.0690143258
 20
44.6945458501
 30
0.0
 11
80.8204603749
 21
44.8517372771
 31
0.0
  0
ARC
  5
41E
330
1F
100
AcDbEntity
  8
0
  6
Continuous
 62
     7
370
    30
100
AcDbCircle
 10
90.3692896051
 20
42.7296159967
 30
0.0
 40
9.647293312447896
100
AcDbArc
 50
135.2783337871
 51
137.8207289832
  0
LINE
  5
41F
330
1F
100
AcDbEntity
  8
0
  6
Continuous
 62
     7
370
    30
100
AcDbLine
 10
83.5145651335
 20
49.5180635862
 30
0.0
 11
83.7749692901
 21
49.3813973175
 31
0.0
  0
LINE
  5
420
330
1F
100
AcDbEntity
  8
0
  6
Continuous
 62
     7
370
    30
100
AcDbLine
 10
83.3532283446
 20
48.9362049415
 30
0.0
 11
83.2201863492
 21
49.2073155029
 31
0.0
  0
LINE
  5
421
330
1F
100
AcDbEntity
  8
0
  6
Continuous
 62
     7
370
    30
100
AcDbLine
 10
75.5868508958
 20
48.5480360385
 30
0.0
 11
75.5683845229
 21
48.3644178294
 31
0.0
  0
LINE
  5
422
330
1F
100
AcDbEntity
  8
0
  6
Continuous
 62
     7
370
    30
100
AcDbLine
 10
75.8295526679
 20
48.7028327532
 30
0.0
 11
75.5868508958
 21
48.5480360385
 31
0.0
  0
LINE
  5
423
330
1F
100
AcDbEntity
  8
0
  6
Continuous
 62
     7
370
    30
100
AcDbLine
 10
80.9423960599
 20
45.2620670044
 30
0.0
 11
75.5683845229
 21
48.3644178294
 31
0.0
  0
LINE
  5
424
330
1F
100
AcDbEntity
  8
0
  6
Continuous
 62
     7
370
    30
100
AcDbLine
 10
77.6963740951
 20
52.2018373888
 30
0.0
 11
77.6836546342
 21
51.9142315518
 31
0.0
  0
LINE
  5
425
330
1F
100
AcDbEntity
  8
0
  6
Continuous
 62
     7
370
    30
100
AcDbLine
 10
77.8461748122
 20
52.3096663278
 30
0.0
 11
77.6963740951
 21
52.2018373888
 31
0.0
  0
LINE
  5
426
330
1F
100
AcDbEntity
  8
0
  6
Continuous
 62
     7
370
    30
100
AcDbLine
 10
77.8461748122
 20
52.3096663278
 30
0.0
 11
83.2201863492
 21
49.2073155029
 31
0.0
  0
LINE
  5
427
330
1F
100
AcDbEntity
  8
0
  6
Continuous
 62
     7
370
    30
100
AcDbLine
 10
75.4464488379
 20
47.954088102
 30
0.0
 11
80.8204603749
 21
44.8517372771
 31
0.0
  0
ARC
  5
428
330
1F
100
AcDbEntity
  8
0
  6
Continuous
 62
     7
370
    30
100
AcDbCircle
 10
84.753933682
 20
45.4115105798
 30
0.0
 40
9.64852188574845
100
AcDbArc
 50
162.1787971064
 51
164.7209764512
  0
LINE
  5
429
330
1F
100
AcDbEntity
  8
0
  6
Continuous
 62
     7
370
    30
100
AcDbLine
 10
83.5145651335
 20
49.5180635862
 30
0.0
 11
78.1405535965
 21
52.6204144111
 31
0.0
  0
ARC
  5
42A
330
1F
100
AcDbEntity
  8
0
  6
Continuous
 62
     7
370
    30
100
AcDbCircle
 10
84.995278068
 20
45.8319668216
 30
0.0
 40
9.647293312430143
100
AcDbArc
 50
135.2783337871
 51
137.8207289832
  0
LINE
  5
42B
330
1F
100
AcDbEntity
  8
0
  6
Continuous
 62
     7
370
    30
100
AcDbLine
 10
81.2316363777
 20
44.5798637013
 30
0.0
 11
75.5747821282
 21
47.8454961486
 31
0.0
  0
LINE
  5
42C
330
1F
100
AcDbEntity
  8
0
  6
Continuous
 62
     7
370
    30
100
AcDbLine
 10
75.4121600763
 20
47.9601782974
 30
0.0
 11
75.5747821282
 21
47.8454961486
 31
0.0
  0
LINE
  5
42D
330
1F
100
AcDbEntity
  8
0
  6
Continuous
 62
     7
370
    30
100
AcDbLine
 10
75.4464488379
 20
47.954088102
 30
0.0
 11
75.4121600763
 21
47.9601782974
 31
0.0
  0
LINE
  5
42E
330
1F
100
AcDbEntity
  8
0
  6
Continuous
 62
     7
370
    30
100
AcDbLine
 10
78.1181150406
 20
52.6470297648
 30
0.0
 11
78.1405535965
 21
52.6204144111
 31
0.0
  0
LINE
  5
42F
330
1F
100
AcDbEntity
  8
0
  6
Continuous
 62
     7
370
    30
100
AcDbLine
 10
78.2987251266
 20
52.563503805
 30
0.0
 11
78.1181150406
 21
52.6470297648
 31
0.0
  0
LINE
  5
430
330
1F
100
AcDbEntity
  8
0
  6
Continuous
 62
     7
370
    30
100
AcDbLine
 10
83.9555793761
 20
49.2978713577
 30
0.0
 11
78.2987251266
 21
52.563503805
 31
0.0
  0
ARC
  5
431
330
1F
100
AcDbEntity
  8
0
  6
Continuous
 62
     7
370
    30
100
AcDbCircle
 10
88.8442299553
 20
42.6172753359
 30
0.0
 40
8.327860615060809
100
AcDbArc
 50
168.082025248
 51
170.8863605292
  0
LINE
  5
432
330
1F
100
AcDbEntity
  8
0
  6
Continuous
 62
     7
370
    30
100
AcDbLine
 10
80.6958826478
 20
44.3370714228
 30
0.0
 11
80.9939124291
 21
44.3842786561
 31
0.0
  0
LINE
  5
433
330
1F
100
AcDbEntity
  8
0
  6
Continuous
 62
     7
370
    30
100
AcDbLine
 10
80.8873471627
 20
43.810187893
 30
0.0
 11
80.6214991811
 21
43.9363511637
 31
0.0
  0
ARC
  5
434
330
1F
100
AcDbEntity
  8
0
  6
Continuous
 62
     7
370
    30
100
AcDbCircle
 10
89.4604405681
 20
43.6874786301
 30
0.0
 40
8.326386712402016
100
AcDbArc
 50
129.1122776127
 51
131.9169438704
  0
LINE
  5
435
330
1F
100
AcDbEntity
  8
0
  6
Continuous
 62
     7
370
    30
100
AcDbLine
 10
84.20780539
 20
50.1480157108
 30
0.0
 11
84.4499854408
 21
49.9808583814
 31
0.0
  0
LINE
  5
436
330
1F
100
AcDbEntity
  8
0
  6
Continuous
 62
     7
370
    30
100
AcDbLine
 10
84.0061091612
 20
49.6015564232
 30
0.0
 11
83.8979759533
 21
49.8832597023
 31
0.0
  0
LINE
  5
437
330
1F
100
AcDbEntity
  8
0
  6
Continuous
 62
     7
370
    30
100
AcDbLine
 10
75.3370581796
 20
47.6499111034
 30
0.0
 11
75.3218711108
 21
47.4394222478
 31
0.0
  0
LINE
  5
438
330
1F
100
AcDbEntity
  8
0
  6
Continuous
 62
     7
370
    30
100
AcDbLine
 10
75.5747821282
 20
47.8454961486
 30
0.0
 11
75.3370581796
 21
47.6499111034
 31
0.0
  0
LINE
  5
439
330
1F
100
AcDbEntity
  8
0
  6
Continuous
 62
     7
370
    30
100
AcDbLine
 10
80.6958826478
 20
44.3370714228
 30
0.0
 11
75.3218711108
 21
47.4394222478
 31
0.0
  0
LINE
  5
43A
330
1F
100
AcDbEntity
  8
0
  6
Continuous
 62
     7
370
    30
100
AcDbLine
 10
78.3492549117
 20
52.8671888705
 30
0.0
 11
78.2987251266
 21
52.563503805
 31
0.0
  0
LINE
  5
43B
330
1F
100
AcDbEntity
  8
0
  6
Continuous
 62
     7
370
    30
100
AcDbLine
 10
78.5239644163
 20
52.9856105272
 30
0.0
 11
78.3492549117
 21
52.8671888705
 31
0.0
  0
LINE
  5
43C
330
1F
100
AcDbEntity
  8
0
  6
Continuous
 62
     7
370
    30
100
AcDbLine
 10
78.5239644163
 20
52.9856105272
 30
0.0
 11
83.8979759533
 21
49.8832597023
 31
0.0
  0
LINE
  5
43D
330
1F
100
AcDbEntity
  8
0
  6
Continuous
 62
     7
370
    30
100
AcDbLine
 10
75.2474876441
 20
47.0387019887
 30
0.0
 11
80.6214991811
 21
43.9363511637
 31
0.0
  0
ARC
  5
43E
330
1F
100
AcDbEntity
  8
0
  6
Continuous
 62
     7
370
    30
100
AcDbCircle
 10
83.4702184183
 20
45.7196261608
 30
0.0
 40
8.327860615065516
100
AcDbArc
 50
168.082025248
 51
170.8863605292
  0
LINE
  5
43F
330
1F
100
AcDbEntity
  8
0
  6
Continuous
 62
     7
370
    30
100
AcDbLine
 10
84.20780539
 20
50.1480157108
 30
0.0
 11
78.833793853
 21
53.2503665357
 31
0.0
  0
ARC
  5
440
330
1F
100
AcDbEntity
  8
0
  6
Continuous
 62
     7
370
    30
100
AcDbCircle
 10
84.0864290311
 20
46.7898294551
 30
0.0
 40
8.32638671239026
100
AcDbArc
 50
129.1122776126
 51
131.9169438704
  0
LINE
  5
441
330
1F
100
AcDbEntity
  8
0
  6
Continuous
 62
     7
370
    30
100
AcDbLine
 10
75.1924738876
 20
46.776679996
 30
0.0
 11
75.1844223421
 21
46.5424931604
 31
0.0
  0
LINE
  5
442
330
1F
100
AcDbEntity
  8
0
  6
Continuous
 62
     7
370
    30
100
AcDbLine
 10
75.3763342176
 20
46.9643204451
 30
0.0
 11
75.1924738876
 21
46.776679996
 31
0.0
  0
LINE
  5
443
330
1F
100
AcDbEntity
  8
0
  6
Continuous
 62
     7
370
    30
100
AcDbLine
 10
80.5584338791
 20
43.4401423354
 30
0.0
 11
80.8493281371
 21
43.5110475488
 31
0.0
  0
LINE
  5
444
330
1F
100
AcDbEntity
  8
0
  6
Continuous
 62
     7
370
    30
100
AcDbLine
 10
80.5584338791
 20
43.4401423354
 30
0.0
 11
75.1844223421
 21
46.5424931604
 31
0.0
  0
LINE
  5
445
330
1F
100
AcDbEntity
  8
0
  6
Continuous
 62
     7
370
    30
100
AcDbLine
 10
79.0331738721
 20
53.4289674863
 30
0.0
 11
78.96262087
 21
53.1759962818
 31
0.0
  0
LINE
  5
446
330
1F
100
AcDbEntity
  8
0
  6
Continuous
 62
     7
370
    30
100
AcDbLine
 10
79.2319724995
 20
53.5530556587
 30
0.0
 11
79.0331738721
 21
53.4289674863
 31
0.0
  0
LINE
  5
447
330
1F
100
AcDbEntity
  8
0
  6
Continuous
 62
     7
370
    30
100
AcDbLine
 10
79.2319724995
 20
53.5530556587
 30
0.0
 11
84.6059840365
 21
50.4507048337
 31
0.0
  0
LINE
  5
448
330
1F
100
AcDbEntity
  8
0
  6
Continuous
 62
     7
370
    30
100
AcDbLine
 10
84.6900281215
 20
50.163335039
 30
0.0
 11
84.6059840365
 21
50.4507048337
 31
0.0
  0
LINE
  5
449
330
1F
100
AcDbEntity
  8
0
  6
Continuous
 62
     7
370
    30
100
AcDbLine
 10
80.8135124143
 20
42.9648597835
 30
0.0
 11
80.5334341985
 21
43.0588986073
 31
0.0
  0
ARC
  5
44A
330
1F
100
AcDbEntity
  8
0
  6
Continuous
 62
     7
370
    30
100
AcDbCircle
 10
87.3891190893
 20
42.8007853765
 30
0.0
 40
6.860542089580684
100
AcDbArc
 50
174.652654458
 51
177.8438599065
  0
ARC
  5
44B
330
1F
100
AcDbEntity
  8
0
  6
Continuous
 62
     7
370
    30
100
AcDbCircle
 10
88.5739578019
 20
44.8559563772
 30
0.0
 40
6.859010576974783
100
AcDbArc
 50
122.1537992849
 51
125.345479821
  0
LINE
  5
44C
330
1F
100
AcDbEntity
  8
0
  6
Continuous
 62
     7
370
    30
100
AcDbLine
 10
84.9236350965
 20
50.6629495958
 30
0.0
 11
85.145110028
 21
50.4674069062
 31
0.0
  0
LINE
  5
44D
330
1F
100
AcDbEntity
  8
0
  6
Continuous
 62
     7
370
    30
100
AcDbLine
 10
75.1594226615
 20
46.1612494322
 30
0.0
 11
80.5334341985
 21
43.0588986073
 31
0.0
  0
ARC
  5
44E
330
1F
100
AcDbEntity
  8
0
  6
Continuous
 62
     7
370
    30
100
AcDbCircle
 10
82.0151075523
 20
45.9031362014
 30
0.0
 40
6.860542089596469
100
AcDbArc
 50
174.652654458
 51
177.8438599064
  0
LINE
  5
44F
330
1F
100
AcDbEntity
  8
0
  6
Continuous
 62
     7
370
    30
100
AcDbLine
 10
84.9236350965
 20
50.6629495958
 30
0.0
 11
79.5496235595
 21
53.7653004208
 31
0.0
  0
ARC
  5
450
330
1F
100
AcDbEntity
  8
0
  6
Continuous
 62
     7
370
    30
100
AcDbCircle
 10
83.1999462649
 20
47.9583072021
 30
0.0
 40
6.859010576983409
100
AcDbArc
 50
122.1537992849
 51
125.345479821
  0
LINE
  5
451
330
1F
100
AcDbEntity
  8
0
  6
Continuous
 62
     7
370
    30
100
AcDbLine
 10
75.1566581648
 20
45.9498445644
 30
0.0
 11
75.1594226615
 21
45.6957159381
 31
0.0
  0
LINE
  5
452
330
1F
100
AcDbEntity
  8
0
  6
Continuous
 62
     7
370
    30
100
AcDbLine
 10
75.2736094231
 20
46.0953308179
 30
0.0
 11
75.1566581648
 21
45.9498445644
 31
0.0
  0
LINE
  5
453
330
1F
100
AcDbEntity
  8
0
  6
Continuous
 62
     7
370
    30
100
AcDbLine
 10
80.5334341985
 20
42.5933651131
 30
0.0
 11
80.8135124143
 21
42.6842121171
 31
0.0
  0
LINE
  5
454
330
1F
100
AcDbEntity
  8
0
  6
Continuous
 62
     7
370
    30
100
AcDbLine
 10
80.5334341985
 20
42.5933651131
 30
0.0
 11
75.1594226615
 21
45.6957159381
 31
0.0
  0
LINE
  5
455
330
1F
100
AcDbEntity
  8
0
  6
Continuous
 62
     7
370
    30
100
AcDbLine
 10
79.7312906214
 20
53.873340382
 30
0.0
 11
79.6637991898
 21
53.6993882324
 31
0.0
  0
LINE
  5
456
330
1F
100
AcDbEntity
  8
0
  6
Continuous
 62
     7
370
    30
100
AcDbLine
 10
79.9527655529
 20
53.9980293398
 30
0.0
 11
79.7312906214
 21
53.873340382
 31
0.0
  0
LINE
  5
457
330
1F
100
AcDbEntity
  8
0
  6
Continuous
 62
     7
370
    30
100
AcDbLine
 10
79.9527655529
 20
53.9980293398
 30
0.0
 11
85.3267770899
 21
50.8956785148
 31
0.0
  0
LINE
  5
458
330
1F
100
AcDbEntity
  8
0
  6
Continuous
 62
     7
370
    30
100
AcDbLine
 10
85.3881448709
 20
50.6077079347
 30
0.0
 11
85.3267770899
 21
50.8956785148
 31
0.0
  0
ARC
  5
459
330
1F
100
AcDbEntity
  8
0
  6
Continuous
 62
     7
370
    30
100
AcDbCircle
 10
85.9530487755
 20
42.8007845773
 30
0.0
 40
5.42358230297202
100
AcDbArc
 50
182.1917541069
 51
185.9243786407
  0
LINE
  5
45A
330
1F
100
AcDbEntity
  8
0
  6
Continuous
 62
     7
370
    30
100
AcDbLine
 10
80.8493281371
 20
42.1793763051
 30
0.0
 11
80.5584338791
 21
42.2409854019
 31
0.0
  0
ARC
  5
45B
330
1F
100
AcDbEntity
  8
0
  6
Continuous
 62
     7
370
    30
100
AcDbCircle
 10
87.8560381829
 20
46.0995627819
 30
0.0
 40
5.422166338265156
100
AcDbArc
 50
114.0719238586
 51
117.8051983161
  0
LINE
  5
45C
330
1F
100
AcDbEntity
  8
0
  6
Continuous
 62
     7
370
    30
100
AcDbLine
 10
85.6444281499
 20
51.0501858601
 30
0.0
 11
85.8432267773
 21
50.8290624525
 31
0.0
  0
LINE
  5
45D
330
1F
100
AcDbEntity
  8
0
  6
Continuous
 62
     7
370
    30
100
AcDbLine
 10
75.1844223421
 20
45.3433362268
 30
0.0
 11
80.5584338791
 21
42.2409854019
 31
0.0
  0
ARC
  5
45E
330
1F
100
AcDbEntity
  8
0
  6
Continuous
 62
     7
370
    30
100
AcDbCircle
 10
80.5790372384
 20
45.9031354022
 30
0.0
 40
5.42358230297603
100
AcDbArc
 50
182.1917541069
 51
185.9243786407
  0
LINE
  5
45F
330
1F
100
AcDbEntity
  8
0
  6
Continuous
 62
     7
370
    30
100
AcDbLine
 10
85.6444281499
 20
51.0501858601
 30
0.0
 11
80.2704166129
 21
54.152536685
 31
0.0
  0
ARC
  5
460
330
1F
100
AcDbEntity
  8
0
  6
Continuous
 62
     7
370
    30
100
AcDbCircle
 10
82.4820266459
 20
49.2019136069
 30
0.0
 40
5.4221663382659
100
AcDbArc
 50
114.0719238586
 51
117.8051983161
  0
LINE
  5
461
330
1F
100
AcDbEntity
  8
0
  6
Continuous
 62
     7
370
    30
100
AcDbLine
 10
75.2304929132
 20
45.1897642409
 30
0.0
 11
75.2474876441
 21
44.9199410464
 31
0.0
  0
LINE
  5
462
330
1F
100
AcDbEntity
  8
0
  6
Continuous
 62
     7
370
    30
100
AcDbLine
 10
75.2912561688
 20
45.2816623714
 30
0.0
 11
75.2304929132
 21
45.1897642409
 31
0.0
  0
LINE
  5
463
330
1F
100
AcDbEntity
  8
0
  6
Continuous
 62
     7
370
    30
100
AcDbLine
 10
80.6214991811
 20
41.8175902214
 30
0.0
 11
80.8873471627
 21
41.9241317936
 31
0.0
  0
LINE
  5
464
330
1F
100
AcDbEntity
  8
0
  6
Continuous
 62
     7
370
    30
100
AcDbLine
 10
80.6214991811
 20
41.8175902214
 30
0.0
 11
75.2474876441
 21
44.9199410464
 31
0.0
  0
LINE
  5
465
330
1F
100
AcDbEntity
  8
0
  6
Continuous
 62
     7
370
    30
100
AcDbLine
 10
80.4264152086
 20
54.1893656223
 30
0.0
 11
80.3772461989
 21
54.0908652777
 31
0.0
  0
LINE
  5
466
330
1F
100
AcDbEntity
  8
0
  6
Continuous
 62
     7
370
    30
100
AcDbLine
 10
80.6685952594
 20
54.3095748417
 30
0.0
 11
80.4264152086
 21
54.1893656223
 31
0.0
  0
LINE
  5
467
330
1F
100
AcDbEntity
  8
0
  6
Continuous
 62
     7
370
    30
100
AcDbLine
 10
80.6685952594
 20
54.3095748417
 30
0.0
 11
86.0426067964
 21
51.2072240168
 31
0.0
  0
LINE
  5
468
330
1F
100
AcDbEntity
  8
0
  6
Continuous
 62
     7
370
    30
100
AcDbLine
 10
86.0832694581
 20
50.923733175
 30
0.0
 11
86.0426067964
 21
51.2072240168
 31
0.0
  0
ARC
  5
469
330
1F
100
AcDbEntity
  8
0
  6
Continuous
 62
     7
370
    30
100
AcDbCircle
 10
84.7096840405
 20
42.6172534939
 30
0.0
 40
4.165659226747901
100
AcDbArc
 50
191.0675166346
 51
195.5182451325
  0
LINE
  5
46A
330
1F
100
AcDbEntity
  8
0
  6
Continuous
 62
     7
370
    30
100
AcDbLine
 10
80.9939124291
 20
41.4730786681
 30
0.0
 11
80.6958826478
 21
41.502751285
 31
0.0
  0
ARC
  5
46B
330
1F
100
AcDbEntity
  8
0
  6
Continuous
 62
     7
370
    30
100
AcDbCircle
 10
87.3934720476
 20
47.267917387
 30
0.0
 40
4.164489602602548
100
AcDbArc
 50
104.4762818542
 51
108.9278438372
  0
LINE
  5
46C
330
1F
100
AcDbEntity
  8
0
  6
Continuous
 62
     7
370
    30
100
AcDbLine
 10
86.3524362331
 20
51.3001894616
 30
0.0
 11
86.5271457377
 21
51.0569198605
 31
0.0
  0
LINE
  5
46D
330
1F
100
AcDbEntity
  8
0
  6
Continuous
 62
     7
370
    30
100
AcDbLine
 10
75.3218711108
 20
44.6051021099
 30
0.0
 11
80.6958826478
 21
41.502751285
 31
0.0
  0
ARC
  5
46E
330
1F
100
AcDbEntity
  8
0
  6
Continuous
 62
     7
370
    30
100
AcDbCircle
 10
79.3356725035
 20
45.7196043188
 30
0.0
 40
4.165659226744644
100
AcDbArc
 50
191.0675166346
 51
195.5182451325
  0
LINE
  5
46F
330
1F
100
AcDbEntity
  8
0
  6
Continuous
 62
     7
370
    30
100
AcDbLine
 10
86.3524362331
 20
51.3001894616
 30
0.0
 11
80.978424696
 21
54.4025402865
 31
0.0
  0
ARC
  5
470
330
1F
100
AcDbEntity
  8
0
  6
Continuous
 62
     7
370
    30
100
AcDbCircle
 10
82.0194605106
 20
50.370268212
 30
0.0
 40
4.164489602601692
100
AcDbArc
 50
104.4762818542
 51
108.9278438372
  0
LINE
  5
471
330
1F
100
AcDbEntity
  8
0
  6
Continuous
 62
     7
370
    30
100
AcDbLine
 10
75.4121600763
 20
44.5151547256
 30
0.0
 11
75.4464488379
 21
44.2342706378
 31
0.0
  0
LINE
  5
472
330
1F
100
AcDbEntity
  8
0
  6
Continuous
 62
     7
370
    30
100
AcDbLine
 10
80.8204603749
 20
41.1319198128
 30
0.0
 11
81.0690143258
 21
41.2495222783
 31
0.0
  0
LINE
  5
473
330
1F
100
AcDbEntity
  8
0
  6
Continuous
 62
     7
370
    30
100
AcDbLine
 10
80.8204603749
 20
41.1319198128
 30
0.0
 11
75.4464488379
 21
44.2342706378
 31
0.0
  0
LINE
  5
474
330
1F
100
AcDbEntity
  8
0
  6
Continuous
 62
     7
370
    30
100
AcDbLine
 10
75.4276806307
 20
44.5440195742
 30
0.0
 11
75.4121600763
 21
44.5151547256
 31
0.0
  0
LINE
  5
475
330
1F
100
AcDbEntity
  8
0
  6
Continuous
 62
     7
370
    30
100
AcDbLine
 10
81.3618355159
 20
54.4800208803
 30
0.0
 11
81.1014313593
 21
54.3692616168
 31
0.0
  0
LINE
  5
476
330
1F
100
AcDbEntity
  8
0
  6
Continuous
 62
     7
370
    30
100
AcDbLine
 10
81.3618355159
 20
54.4800208803
 30
0.0
 11
86.7358470529
 21
51.3776700554
 31
0.0
  0
LINE
  5
477
330
1F
100
AcDbEntity
  8
0
  6
Continuous
 62
     7
370
    30
100
AcDbLine
 10
86.7582856088
 20
51.1036291695
 30
0.0
 11
86.7358470529
 21
51.3776700554
 31
0.0
  0
LINE
  5
478
330
1F
100
AcDbEntity
  8
0
  6
Continuous
 62
     7
370
    30
100
AcDbLine
 10
81.1014313593
 20
54.3692616168
 30
0.0
 11
81.0842363218
 21
54.3414565351
 31
0.0
  0
ARC
  5
479
330
1F
100
AcDbEntity
  8
0
  6
Continuous
 62
     7
370
    30
100
AcDbCircle
 10
83.7814940616
 20
42.3090632584
 30
0.0
 40
3.186438008972937
100
AcDbArc
 50
201.6800357736
 51
207.001546734
  0
LINE
  5
47A
330
1F
100
AcDbEntity
  8
0
  6
Continuous
 62
     7
370
    30
100
AcDbLine
 10
81.2437051453
 20
40.8633582642
 30
0.0
 11
80.9423960599
 21
40.8623740306
 31
0.0
  0
ARC
  5
47B
330
1F
100
AcDbEntity
  8
0
  6
Continuous
 62
     7
370
    30
100
AcDbCircle
 10
87.1964404437
 20
48.2255544419
 30
0.0
 40
3.185589288063681
100
AcDbArc
 50
92.9908820733
 51
98.3133384252
  0
LINE
  5
47C
330
1F
100
AcDbEntity
  8
0
  6
Continuous
 62
     7
370
    30
100
AcDbLine
 10
87.0302258372
 20
51.4068044819
 30
0.0
 11
87.1800265543
 21
51.1453685246
 31
0.0
  0
LINE
  5
47D
330
1F
100
AcDbEntity
  8
0
  6
Continuous
 62
     7
370
    30
100
AcDbLine
 10
75.5683845229
 20
43.9647248556
 30
0.0
 11
80.9423960599
 21
40.8623740306
 31
0.0
  0
ARC
  5
47E
330
1F
100
AcDbEntity
  8
0
  6
Continuous
 62
     7
370
    30
100
AcDbCircle
 10
78.4074825246
 20
45.4114140833
 30
0.0
 40
3.18643800897618
100
AcDbArc
 50
201.6800357736
 51
207.001546734
  0
LINE
  5
47F
330
1F
100
AcDbEntity
  8
0
  6
Continuous
 62
     7
370
    30
100
AcDbLine
 10
87.0302258372
 20
51.4068044819
 30
0.0
 11
81.6562143002
 21
54.5091553068
 31
0.0
  0
ARC
  5
480
330
1F
100
AcDbEntity
  8
0
  6
Continuous
 62
     7
370
    30
100
AcDbCircle
 10
81.8224289067
 20
51.3279052669
 30
0.0
 40
3.185589288065561
100
AcDbArc
 50
92.9908820733
 51
98.3133384252
  0
LINE
  5
481
330
1F
100
AcDbEntity
  8
0
  6
Continuous
 62
     7
370
    30
100
AcDbLine
 10
75.7082659874
 20
43.883973005
 30
0.0
 11
75.7514071579
 21
43.6555881933
 31
0.0
  0
LINE
  5
482
330
1F
100
AcDbEntity
  8
0
  6
Continuous
 62
     7
370
    30
100
AcDbLine
 10
81.1254186949
 20
40.5532373684
 30
0.0
 11
81.3540406551
 21
40.6769946965
 31
0.0
  0
LINE
  5
483
330
1F
100
AcDbEntity
  8
0
  6
Continuous
 62
     7
370
    30
100
AcDbLine
 10
81.1254186949
 20
40.5532373684
 30
0.0
 11
75.7514071579
 21
43.6555881933
 31
0.0
  0
LINE
  5
484
330
1F
100
AcDbEntity
  8
0
  6
Continuous
 62
     7
370
    30
100
AcDbLine
 10
82.0154164465
 20
54.5051705084
 30
0.0
 11
81.7961568703
 21
54.4283681808
 31
0.0
  0
LINE
  5
485
330
1F
100
AcDbEntity
  8
0
  6
Continuous
 62
     7
370
    30
100
AcDbLine
 10
82.0154164465
 20
54.5051705084
 30
0.0
 11
87.3894279835
 21
51.4028196835
 31
0.0
  0
LINE
  5
486
330
1F
100
AcDbEntity
  8
0
  6
Continuous
 62
     7
370
    30
100
AcDbLine
 10
87.396572185
 20
51.142966282
 30
0.0
 11
87.3894279835
 21
51.4028196835
 31
0.0
  0
ARC
  5
487
330
1F
100
AcDbEntity
  8
0
  6
Continuous
 62
     7
370
    30
100
AcDbCircle
 10
83.2167137237
 20
41.9806779528
 30
0.0
 40
2.53201530786043
100
AcDbArc
 50
214.3159985411
 51
220.5191582875
  0
LINE
  5
488
330
1F
100
AcDbEntity
  8
0
  6
Continuous
 62
     7
370
    30
100
AcDbLine
 10
81.5925555599
 20
40.3652284334
 30
0.0
 11
81.2919041369
 21
40.3356218522
 31
0.0
  0
ARC
  5
489
330
1F
100
AcDbEntity
  8
0
  6
Continuous
 62
     7
370
    30
100
AcDbCircle
 10
87.1985279556
 20
48.8785170694
 30
0.0
 40
2.531510716515707
100
AcDbArc
 50
79.4712625798
 51
85.6752468402
  0
LINE
  5
48A
330
1F
100
AcDbEntity
  8
0
  6
Continuous
 62
     7
370
    30
100
AcDbLine
 10
87.6611075329
 20
51.3674057054
 30
0.0
 11
87.7857931348
 21
51.092230545
 31
0.0
  0
LINE
  5
48B
330
1F
100
AcDbEntity
  8
0
  6
Continuous
 62
     7
370
    30
100
AcDbLine
 10
75.9178925999
 20
43.4379726771
 30
0.0
 11
81.2919041369
 21
40.3356218522
 31
0.0
  0
ARC
  5
48C
330
1F
100
AcDbEntity
  8
0
  6
Continuous
 62
     7
370
    30
100
AcDbCircle
 10
77.8427021867
 20
45.0830287777
 30
0.0
 40
2.532015307866926
100
AcDbArc
 50
214.3159985411
 51
220.5191582875
  0
LINE
  5
48D
330
1F
100
AcDbEntity
  8
0
  6
Continuous
 62
     7
370
    30
100
AcDbLine
 10
87.6611075329
 20
51.3674057054
 30
0.0
 11
82.2870959959
 21
54.4697565304
 31
0.0
  0
ARC
  5
48E
330
1F
100
AcDbEntity
  8
0
  6
Continuous
 62
     7
370
    30
100
AcDbCircle
 10
81.8245164186
 20
51.9808678944
 30
0.0
 40
2.531510716514789
100
AcDbArc
 50
79.4712625798
 51
85.6752468402
  0
ARC
  5
48F
330
1F
100
AcDbEntity
  8
0
  6
Continuous
 62
     7
370
    30
100
AcDbCircle
 10
85.8455787735
 20
45.0589166692
 30
0.0
 40
10.83883972987964
100
AcDbArc
 50
150.8987187371
 51
154.304824457
  0
ARC
  5
490
330
1F
100
AcDbEntity
  8
0
  6
Continuous
 62
     7
370
    30
100
AcDbCircle
 10
85.8471868637
 20
45.0622551879
 30
0.0
 40
10.8385630631549
100
AcDbArc
 50
145.6951242538
 51
149.1012879508
  0
LINE
  5
491
330
1F
100
AcDbEntity
  8
0
  6
Continuous
 62
     7
370
    30
100
AcDbLine
 10
76.1226457026
 20
43.319771227
 30
0.0
 11
76.1548535182
 21
43.1981427953
 31
0.0
  0
LINE
  5
492
330
1F
100
AcDbEntity
  8
0
  6
Continuous
 62
     7
370
    30
100
AcDbLine
 10
81.5288650552
 20
40.0957919704
 30
0.0
 11
81.7354078564
 21
40.2206465773
 31
0.0
  0
LINE
  5
493
330
1F
100
AcDbEntity
  8
0
  6
Continuous
 62
     7
370
    30
100
AcDbLine
 10
81.5288650552
 20
40.0957919704
 30
0.0
 11
76.1548535182
 21
43.1981427953
 31
0.0
  0
LINE
  5
494
330
1F
100
AcDbEntity
  8
0
  6
Continuous
 62
     7
370
    30
100
AcDbLine
 10
82.6132447197
 20
54.3844044586
 30
0.0
 11
82.4919231044
 21
54.3515123575
 31
0.0
  0
LINE
  5
495
330
1F
100
AcDbEntity
  8
0
  6
Continuous
 62
     7
370
    30
100
AcDbLine
 10
82.6132447197
 20
54.3844044586
 30
0.0
 11
87.9872562567
 21
51.2820536337
 31
0.0
  0
LINE
  5
496
330
1F
100
AcDbEntity
  8
0
  6
Continuous
 62
     7
370
    30
100
AcDbLine
 10
87.982412453
 20
51.040775902
 30
0.0
 11
87.9872562567
 21
51.2820536337
 31
0.0
  0
ARC
  5
497
330
1F
100
AcDbEntity
  8
0
  6
Continuous
 62
     7
370
    30
100
AcDbCircle
 10
85.3706970213
 20
45.2741884163
 30
0.0
 40
10.31734921007831
100
AcDbArc
 50
156.1317984441
 51
159.651761569
  0
ARC
  5
498
330
1F
100
AcDbEntity
  8
0
  6
Continuous
 62
     7
370
    30
100
AcDbCircle
 10
85.4228963892
 20
45.3661752898
 30
0.0
 40
10.31655940362821
100
AcDbArc
 50
140.3479457436
 51
143.8680885639
  0
ARC
  5
499
330
1F
100
AcDbEntity
  8
0
  6
Continuous
 62
     7
370
    30
100
AcDbCircle
 10
82.9826234582
 20
41.7584647799
 30
0.0
 40
2.208595564101782
100
AcDbArc
 50
228.8351661545
 51
235.6302087711
  0
LINE
  5
49A
330
1F
100
AcDbEntity
  8
0
  6
Continuous
 62
     7
370
    30
100
AcDbLine
 10
82.0318738179
 20
39.9909547853
 30
0.0
 11
81.7358008301
 21
39.9354651365
 31
0.0
  0
ARC
  5
49B
330
1F
100
AcDbEntity
  8
0
  6
Continuous
 62
     7
370
    30
100
AcDbCircle
 10
87.2738933462
 20
49.1920119926
 30
0.0
 40
2.208429465370497
100
AcDbArc
 50
64.3590651852
 51
71.1544486189
  0
LINE
  5
49C
330
1F
100
AcDbEntity
  8
0
  6
Continuous
 62
     7
370
    30
100
AcDbLine
 10
88.229546919
 20
51.1829632608
 30
0.0
 11
88.3295294954
 21
50.8988143553
 31
0.0
  0
ARC
  5
49D
330
1F
100
AcDbEntity
  8
0
  6
Continuous
 62
     7
370
    30
100
AcDbCircle
 10
84.4565164861
 20
45.5923958694
 30
0.0
 40
9.349159132950229
100
AcDbArc
 50
161.5703711029
 51
165.3294024547
  0
ARC
  5
49E
330
1F
100
AcDbEntity
  8
0
  6
Continuous
 62
     7
370
    30
100
AcDbCircle
 10
84.6899301075
 20
45.9990400469
 30
0.0
 40
9.347968793433342
100
AcDbArc
 50
134.6698561153
 51
138.429206655
  0
LINE
  5
49F
330
1F
100
AcDbEntity
  8
0
  6
Continuous
 62
     7
370
    30
100
AcDbLine
 10
76.3617892931
 20
43.0378159614
 30
0.0
 11
81.7358008301
 21
39.9354651365
 31
0.0
  0
ARC
  5
4A0
330
1F
100
AcDbEntity
  8
0
  6
Continuous
 62
     7
370
    30
100
AcDbCircle
 10
77.6086119212
 20
44.8608156048
 30
0.0
 40
2.208595564099516
100
AcDbArc
 50
228.8351661545
 51
235.6302087711
  0
LINE
  5
4A1
330
1F
100
AcDbEntity
  8
0
  6
Continuous
 62
     7
370
    30
100
AcDbLine
 10
88.229546919
 20
51.1829632608
 30
0.0
 11
82.855535382
 21
54.2853140858
 31
0.0
  0
ARC
  5
4A2
330
1F
100
AcDbEntity
  8
0
  6
Continuous
 62
     7
370
    30
100
AcDbCircle
 10
81.8998818092
 20
52.2943628175
 30
0.0
 40
2.208429465364151
100
AcDbArc
 50
64.3590651852
 51
71.1544486189
  0
ARC
  5
4A3
330
1F
100
AcDbEntity
  8
0
  6
Continuous
 62
     7
370
    30
100
AcDbCircle
 10
83.212668327
 20
45.8910695783
 30
0.0
 40
8.069619489388181
100
AcDbArc
 50
167.4108504974
 51
171.5575352798
  0
LINE
  5
4A4
330
1F
100
AcDbEntity
  8
0
  6
Continuous
 62
     7
370
    30
100
AcDbLine
 10
75.2474876441
 20
47.0387019887
 30
0.0
 11
75.2304929132
 21
47.0758203403
 31
0.0
  0
ARC
  5
4A5
330
1F
100
AcDbEntity
  8
0
  6
Continuous
 62
     7
370
    30
100
AcDbCircle
 10
83.8091963972
 20
46.9270918031
 30
0.0
 40
8.068191507059112
100
AcDbArc
 50
128.4410236453
 51
132.5881978377
  0
LINE
  5
4A6
330
1F
100
AcDbEntity
  8
0
  6
Continuous
 62
     7
370
    30
100
AcDbLine
 10
78.7931311913
 20
53.2464908287
 30
0.0
 11
78.833793853
 21
53.2503665357
 31
0.0
  0
LINE
  5
4A7
330
1F
100
AcDbEntity
  8
0
  6
Continuous
 62
     7
370
    30
100
AcDbLine
 10
82.0208652674
 20
39.7708474427
 30
0.0
 11
82.2037254035
 21
39.8917147259
 31
0.0
  0
LINE
  5
4A8
330
1F
100
AcDbEntity
  8
0
  6
Continuous
 62
     7
370
    30
100
AcDbLine
 10
82.0208652674
 20
39.7708474427
 30
0.0
 11
76.6468537304
 21
42.8731982676
 31
0.0
  0
LINE
  5
4A9
330
1F
100
AcDbEntity
  8
0
  6
Continuous
 62
     7
370
    30
100
AcDbLine
 10
88.2295705411
 20
51.1828961271
 30
0.0
 11
88.5146113563
 21
51.018345567
 31
0.0
  0
LINE
  5
4AA
330
1F
100
AcDbEntity
  8
0
  6
Continuous
 62
     7
370
    30
100
AcDbLine
 10
88.501381081
 20
50.7995742959
 30
0.0
 11
88.5146113563
 21
51.018345567
 31
0.0
  0
ARC
  5
4AB
330
1F
100
AcDbEntity
  8
0
  6
Continuous
 62
     7
370
    30
100
AcDbCircle
 10
82.9765188402
 20
41.7617987109
 30
0.0
 40
2.208429465368191
100
AcDbArc
 50
244.3590651852
 51
251.1544486189
  0
LINE
  5
4AC
330
1F
100
AcDbEntity
  8
0
  6
Continuous
 62
     7
370
    30
100
AcDbLine
 10
82.5508424459
 20
39.7497531792
 30
0.0
 11
82.2631559297
 21
39.6717570698
 31
0.0
  0
ARC
  5
4AD
330
1F
100
AcDbEntity
  8
0
  6
Continuous
 62
     7
370
    30
100
AcDbCircle
 10
87.2677887282
 20
49.1953459236
 30
0.0
 40
2.208595564102978
100
AcDbArc
 50
48.8351661545
 51
55.6302087711
  0
LINE
  5
4AE
330
1F
100
AcDbEntity
  8
0
  6
Continuous
 62
     7
370
    30
100
AcDbLine
 10
88.7215471312
 20
50.8580187332
 30
0.0
 11
88.7978470425
 21
50.5698825039
 31
0.0
  0
ARC
  5
4AF
330
1F
100
AcDbEntity
  8
0
  6
Continuous
 62
     7
370
    30
100
AcDbCircle
 10
81.8027492581
 20
46.0689495502
 30
0.0
 40
6.648054065473774
100
AcDbArc
 50
173.8888954736
 51
178.6076188909
  0
LINE
  5
4B0
330
1F
100
AcDbEntity
  8
0
  6
Continuous
 62
     7
370
    30
100
AcDbLine
 10
75.1594226615
 20
46.1612494322
 30
0.0
 11
75.1566581648
 21
46.2304922308
 31
0.0
  0
ARC
  5
4B1
330
1F
100
AcDbEntity
  8
0
  6
Continuous
 62
     7
370
    30
100
AcDbCircle
 10
82.950185474
 20
48.0592451874
 30
0.0
 40
6.646570352966489
100
AcDbArc
 50
121.3899266185
 51
126.1093524873
  0
LINE
  5
4B2
330
1F
100
AcDbEntity
  8
0
  6
Continuous
 62
     7
370
    30
100
AcDbLine
 10
79.4882557785
 20
53.7330393535
 30
0.0
 11
79.5496235595
 21
53.7653004208
 31
0.0
  0
LINE
  5
4B3
330
1F
100
AcDbEntity
  8
0
  6
Continuous
 62
     7
370
    30
100
AcDbLine
 10
82.5893046535
 20
39.5864049981
 30
0.0
 11
82.7474617641
 21
39.6982985362
 31
0.0
  0
LINE
  5
4B4
330
1F
100
AcDbEntity
  8
0
  6
Continuous
 62
     7
370
    30
100
AcDbLine
 10
82.5893046535
 20
39.5864049981
 30
0.0
 11
82.384477545
 21
39.7046491709
 31
0.0
  0
LINE
  5
4B5
330
1F
100
AcDbEntity
  8
0
  6
Continuous
 62
     7
370
    30
100
AcDbLine
 10
88.7537549468
 20
50.7363903015
 30
0.0
 11
88.9585080495
 21
50.6181888513
 31
0.0
  0
LINE
  5
4B6
330
1F
100
AcDbEntity
  8
0
  6
Continuous
 62
     7
370
    30
100
AcDbLine
 10
88.940699339
 20
50.4253006478
 30
0.0
 11
88.9585080495
 21
50.6181888513
 31
0.0
  0
ARC
  5
4B7
330
1F
100
AcDbEntity
  8
0
  6
Continuous
 62
     7
370
    30
100
AcDbCircle
 10
83.0518842308
 20
42.0752936341
 30
0.0
 40
2.531510716515015
100
AcDbArc
 50
259.4712625798
 51
265.6752468402
  0
SPLINE
  5
4B8
330
1F
100
AcDbEntity
  8
0
  6
Continuous
 62
     7
370
    30
100
AcDbSpline
210
0.0
220
0.0
230
1.0
 70
     8
 71
     3
 72
     9
 73
     5
 74
     0
 42
0.000000001
 43
0.00000001
 40
0.0
 40
0.0
 40
0.0
 40
0.0
 40
0.4999987861639916
 40
1.0
 40
1.0
 40
1.0
 40
1.0
 10
83.1366827138877
 20
39.64756279919863
 30
0.0
 10
83.0907444037377
 20
39.63139933317844
 30
0.0
 10
82.99886756039088
 20
39.59907232265869
 30
0.0
 10
82.9069453964358
 20
39.56701814687367
 30
0.0
 10
82.86098420287985
 20
39.55099102007265
 30
0.0
  0
ARC
  5
4B9
330
1F
100
AcDbEntity
  8
0
  6
Continuous
 62
     7
370
    30
100
AcDbCircle
 10
87.0336984627
 20
48.9731327507
 30
0.0
 40
2.53201530786357
100
AcDbArc
 50
34.3159985411
 51
40.5191582875
  0
LINE
  5
4BA
330
1F
100
AcDbEntity
  8
0
  6
Continuous
 62
     7
370
    30
100
AcDbLine
 10
89.1249934915
 20
50.4005733352
 30
0.0
 11
89.1792142438
 21
50.1135343847
 31
0.0
  0
SPLINE
  5
4BB
330
1F
100
AcDbEntity
  8
0
  6
Continuous
 62
     7
370
    30
100
AcDbSpline
210
0.0
220
0.0
230
1.0
 70
     8
 71
     3
 72
     9
 73
     5
 74
     0
 42
0.000000001
 43
0.00000001
 40
0.0
 40
0.0
 40
0.0
 40
0.0
 40
0.4999988280446574
 40
1.0
 40
1.0
 40
1.0
 40
1.0
 10
83.22018634917377
 20
39.54700622161966
 30
0.0
 10
83.24240569415407
 20
39.5632966489099
 30
0.0
 10
83.28684448827524
 20
39.59587757985718
 30
0.0
 10
83.33110035790966
 20
39.62873287202155
 30
0.0
 10
83.3532283445928
 20
39.64516055660866
 30
0.0
  0
LINE
  5
4BC
330
1F
100
AcDbEntity
  8
0
  6
Continuous
 62
     7
370
    30
100
AcDbLine
 10
83.2201863492
 20
39.5470062216
 30
0.0
 11
83.0803074356
 21
39.6277565996
 31
0.0
  0
LINE
  5
4BD
330
1F
100
AcDbEntity
  8
0
  6
Continuous
 62
     7
370
    30
100
AcDbLine
 10
89.168134662
 20
50.1721885235
 30
0.0
 11
89.3080161265
 21
50.0914366729
 31
0.0
  0
LINE
  5
4BE
330
1F
100
AcDbEntity
  8
0
  6
Continuous
 62
     7
370
    30
100
AcDbLine
 10
89.2895497536
 20
49.927170817
 30
0.0
 11
89.3080161265
 21
50.0914366729
 31
0.0
  0
ARC
  5
4BF
330
1F
100
AcDbEntity
  8
0
  6
Continuous
 62
     7
370
    30
100
AcDbCircle
 10
83.0539717427
 20
42.7282562616
 30
0.0
 40
3.185589288067055
100
AcDbArc
 50
272.9908820733
 51
278.3133384252
  0
LINE
  5
4C0
330
1F
100
AcDbEntity
  8
0
  6
Continuous
 62
     7
370
    30
100
AcDbLine
 10
83.7749692901
 20
39.6868999116
 30
0.0
 11
83.5145651335
 21
39.5761406481
 31
0.0
  0
ARC
  5
4C1
330
1F
100
AcDbEntity
  8
0
  6
Continuous
 62
     7
370
    30
100
AcDbCircle
 10
86.4689181248
 20
48.6447474451
 30
0.0
 40
3.186438008973547
100
AcDbArc
 50
21.6800357736
 51
27.001546734
  0
LINE
  5
4C2
330
1F
100
AcDbEntity
  8
0
  6
Continuous
 62
     7
370
    30
100
AcDbLine
 10
89.4299518115
 20
49.8218908907
 30
0.0
 11
89.4642405731
 21
49.5410068028
 31
0.0
  0
LINE
  5
4C3
330
1F
100
AcDbEntity
  8
0
  6
Continuous
 62
     7
370
    30
100
AcDbLine
 10
83.8979759533
 20
39.6536212419
 30
0.0
 11
84.0061091612
 21
39.7336092206
 31
0.0
  0
LINE
  5
4C4
330
1F
100
AcDbEntity
  8
0
  6
Continuous
 62
     7
370
    30
100
AcDbLine
 10
83.8979759533
 20
39.6536212419
 30
0.0
 11
83.7921643276
 21
39.7147049933
 31
0.0
  0
LINE
  5
4C5
330
1F
100
AcDbEntity
  8
0
  6
Continuous
 62
     7
370
    30
100
AcDbLine
 10
89.4487200186
 20
49.5121419543
 30
0.0
 11
89.5545295386
 21
49.4510594186
 31
0.0
  0
LINE
  5
4C6
330
1F
100
AcDbEntity
  8
0
  6
Continuous
 62
     7
370
    30
100
AcDbLine
 10
89.5393424698
 20
49.3174504131
 30
0.0
 11
89.5545295386
 21
49.4510594186
 31
0.0
  0
ARC
  5
4C7
330
1F
100
AcDbEntity
  8
0
  6
Continuous
 62
     7
370
    30
100
AcDbCircle
 10
82.8569401388
 20
43.6858933165
 30
0.0
 40
4.164489602605763
100
AcDbArc
 50
284.4762818542
 51
288.9278438372
  0
LINE
  5
4C8
330
1F
100
AcDbEntity
  8
0
  6
Continuous
 62
     7
370
    30
100
AcDbLine
 10
84.4499854408
 20
39.8667959062
 30
0.0
 11
84.20780539
 21
39.7465866867
 31
0.0
  0
ARC
  5
4C9
330
1F
100
AcDbEntity
  8
0
  6
Continuous
 62
     7
370
    30
100
AcDbCircle
 10
85.5407281459
 20
48.3365572096
 30
0.0
 40
4.165659226751402
100
AcDbArc
 50
11.0675166346
 51
15.5182451325
  0
LINE
  5
4CA
330
1F
100
AcDbEntity
  8
0
  6
Continuous
 62
     7
370
    30
100
AcDbLine
 10
89.6289130053
 20
49.1362204821
 30
0.0
 11
89.6459077362
 21
48.8663972876
 31
0.0
  0
SPLINE
  5
4CB
330
1F
100
AcDbEntity
  8
0
  6
Continuous
 62
     7
370
    30
100
AcDbSpline
210
0.0
220
0.0
230
1.0
 70
     8
 71
     3
 72
     9
 73
     5
 74
     0
 42
0.000000001
 43
0.00000001
 40
0.0
 40
0.0
 40
0.0
 40
0.0
 40
0.4999988280446593
 40
0.9999999999999999
 40
0.9999999999999999
 40
0.9999999999999999
 40
0.9999999999999999
 10
84.60598403651115
 20
39.90362484343547
 30
0.0
 10
84.62004889784046
 20
39.91320624934527
 30
0.0
 10
84.6481786864328
 20
39.9323691060809
 30
0.0
 10
84.67607828804404
 20
39.95176743928025
 30
0.0
 10
84.69002812154675
 20
39.96146662861391
 30
0.0
  0
LINE
  5
4CC
330
1F
100
AcDbEntity
  8
0
  6
Continuous
 62
     7
370
    30
100
AcDbLine
 10
84.6059840365
 20
39.9036248434
 30
0.0
 11
84.4991544505
 21
39.9652962507
 31
0.0
  0
LINE
  5
4CD
330
1F
100
AcDbEntity
  8
0
  6
Continuous
 62
     7
370
    30
100
AcDbLine
 10
89.5851444806
 20
48.7744991571
 30
0.0
 11
89.6919783073
 21
48.7128253017
 31
0.0
  0
LINE
  5
4CE
330
1F
100
AcDbEntity
  8
0
  6
Continuous
 62
     7
370
    30
100
AcDbLine
 10
89.6839267618
 20
48.611152776
 30
0.0
 11
89.6919783073
 21
48.7128253017
 31
0.0
  0
ARC
  5
4CF
330
1F
100
AcDbEntity
  8
0
  6
Continuous
 62
     7
370
    30
100
AcDbCircle
 10
82.3943740035
 20
44.8542479216
 30
0.0
 40
5.422166338259488
100
AcDbArc
 50
294.0719238585
 51
297.8051983161
  0
LINE
  5
4D0
330
1F
100
AcDbEntity
  8
0
  6
Continuous
 62
     7
370
    30
100
AcDbLine
 10
85.145110028
 20
40.1828211465
 30
0.0
 11
84.9236350965
 21
40.0581321887
 31
0.0
  0
ARC
  5
4D1
330
1F
100
AcDbEntity
  8
0
  6
Continuous
 62
     7
370
    30
100
AcDbCircle
 10
84.297363411
 20
48.1530261262
 30
0.0
 40
5.423582302980026
100
AcDbArc
 50
2.1917541069
 51
5.9243786407
  0
LINE
  5
4D2
330
1F
100
AcDbEntity
  8
0
  6
Continuous
 62
     7
370
    30
100
AcDbLine
 10
89.7169779879
 20
48.3604455904
 30
0.0
 11
89.7197424846
 21
48.1063169641
 31
0.0
  0
LINE
  5
4D3
330
1F
100
AcDbEntity
  8
0
  6
Continuous
 62
     7
370
    30
100
AcDbLine
 10
85.3267770899
 20
40.2908611077
 30
0.0
 11
85.3881448709
 21
40.3231221749
 31
0.0
  0
LINE
  5
4D4
330
1F
100
AcDbEntity
  8
0
  6
Continuous
 62
     7
370
    30
100
AcDbLine
 10
85.3267770899
 20
40.2908611077
 30
0.0
 11
85.2126014596
 21
40.3567732961
 31
0.0
  0
LINE
  5
4D5
330
1F
100
AcDbEntity
  8
0
  6
Continuous
 62
     7
370
    30
100
AcDbLine
 10
89.6027912263
 20
47.9608307106
 30
0.0
 11
89.7169779879
 21
47.8949120962
 31
0.0
  0
LINE
  5
4D6
330
1F
100
AcDbEntity
  8
0
  6
Continuous
 62
     7
370
    30
100
AcDbLine
 10
89.7197424846
 20
47.8256692977
 30
0.0
 11
89.7169779879
 21
47.8949120962
 31
0.0
  0
LINE
  5
4D7
330
1F
100
AcDbEntity
  8
0
  6
Continuous
 62
     7
370
    30
100
AcDbLine
 10
86.0426067964
 20
40.8057949927
 30
0.0
 11
86.0832694581
 21
40.8096706997
 31
0.0
  0
LINE
  5
4D8
330
1F
100
AcDbEntity
  8
0
  6
Continuous
 62
     7
370
    30
100
AcDbLine
 10
86.0426067964
 20
40.8057949927
 30
0.0
 11
85.9137797794
 21
40.8801652466
 31
0.0
  0
LINE
  5
4D9
330
1F
100
AcDbEntity
  8
0
  6
Continuous
 62
     7
370
    30
100
AcDbLine
 10
89.5000664318
 20
47.0918410834
 30
0.0
 11
89.6289130053
 21
47.0174595398
 31
0.0
  0
LINE
  5
4DA
330
1F
100
AcDbEntity
  8
0
  6
Continuous
 62
     7
370
    30
100
AcDbLine
 10
89.6459077362
 20
46.9803411882
 30
0.0
 11
89.6289130053
 21
47.0174595398
 31
0.0
  0
LWPOLYLINE
  5
4DB
330
1F
100
AcDbEntity
  8
0
  6
Continuous
 62
     7
370
    30
100
AcDbPolyline
 90
       30
 70
   128
 43
0.0
 10
73.069035474
 20
48.5588459739
 10
73.0847153795
 20
48.9422336786
 10
73.1316086971
 20
49.3401454292
 10
73.2092775965
 20
49.7488660308
 10
73.3169969041
 20
50.1645793695
 10
73.4537608737
 20
50.5834040417
 10
73.6182925771
 20
51.0014295943
 10
73.809055826
 20
51.4147530353
 10
74.0242695153
 20
51.8195152752
 10
74.2619242529
 20
52.211937158
 10
74.5198011204
 20
52.5883547463
 10
74.7954923911
 20
52.9452535305
 10
75.0864240099
 20
53.2793012428
 10
75.3898796265
 20
53.5873789697
 10
75.7030259578
 20
53.8666102725
 10
76.0229392407
 20
54.1143880437
 10
76.3466325311
 20
54.3283988491
 10
76.671083592
 20
54.5066445274
 10
76.9932631112
 20
54.6474608468
 10
77.3101629854
 20
54.7495330432
 10
77.6188244059
 20
54.811908096
 10
77.9163654841
 20
54.8340036262
 10
78.2000081591
 20
54.8156133338
 10
78.4671041358
 20
54.7569089239
 10
78.7151596109
 20
54.6584385039
 10
78.9418585573
 20
54.5211214654
 10
79.145084348
 20
54.3462399007
 10
79.3229395186
 20
54.1354266319
 10
79.4737634833
 20
53.8906499656
 10
79.5352329575
 20
53.7637716261
  0
LWPOLYLINE
  5
4DC
330
1F
100
AcDbEntity
  8
0
  6
Continuous
 62
     7
370
    30
100
AcDbPolyline
 90
       14
 70
   128
 43
0.0
 10
75.152270978
 20
46.173466215
 10
75.0864240099
 20
46.1676179296
 10
74.7954923911
 20
46.1657631447
 10
74.5198011204
 20
46.2043555631
 10
74.2619242529
 20
46.2830348576
 10
74.0242695153
 20
46.401066421
 10
73.809055826
 20
46.5573482242
 10
73.6182925771
 20
46.7504211063
 10
73.4537608737
 20
46.9784823977
 10
73.3169969041
 20
47.2394027517
 10
73.2092775965
 20
47.5307460251
 10
73.1316086971
 20
47.8497920243
 10
73.0847153795
 20
48.1935619028
 10
73.069035474
 20
48.5588459739
  0
ARC
  5
4DD
330
1F
100
AcDbEntity
  8
0
  6
Continuous
 62
     7
370
    30
100
AcDbCircle
 10
75.657379107
 20
48.2730058635
 30
0.0
 40
1.902828594842574
100
AcDbArc
 50
171.3604092201
 51
254.9957113029
  0
LWPOLYLINE
  5
4DE
330
1F
100
AcDbEntity
  8
0
  6
Continuous
 62
     7
370
    30
100
AcDbPolyline
 90
       26
 70
   128
 43
0.0
 10
79.3144363432
 20
53.6232922608
 10
79.1377859133
 20
53.8077570975
 10
78.9335293673
 20
53.958216699
 10
78.7064591429
 20
54.0698316519
 10
78.4589822412
 20
54.14141881
 10
78.1937219787
 20
54.1722193316
 10
77.9134901803
 20
54.1619067234
 10
77.6212573727
 20
54.1105903017
 10
77.3201212964
 20
54.0188140333
 10
77.0132740688
 20
53.8875507695
 10
76.7039683467
 20
53.7181919335
 10
76.3954828478
 20
53.5125327712
 10
76.0910875951
 20
53.2727533208
 10
75.794009254
 20
53.0013953041
 10
75.5073969289
 20
52.7013351837
 10
75.2342887816
 20
52.3757536714
 10
74.9775798265
 20
52.0281020123
 10
74.7399912423
 20
51.6620654005
 10
74.5240415272
 20
51.281523915
 10
74.3320198019
 20
50.8905113903
 10
74.1659615443
 20
50.4931726565
 10
74.0276270135
 20
50.0937196029
 10
73.9184825897
 20
49.6963865314
 10
73.8396852311
 20
49.3053852712
 10
73.7920702092
 20
48.9248605331
 10
73.7761422552
 20
48.5588459739
  0
LWPOLYLINE
  5
4DF
330
1F
100
AcDbEntity
  8
0
  6
Continuous
 62
     7
370
    30
100
AcDbPolyline
 90
       26
 70
   128
 43
0.0
 10
65.6444142715
 20
52.844988561
 10
65.6600941771
 20
53.2283762656
 10
65.7069874947
 20
53.6262880162
 10
65.7846563941
 20
54.0350086179
 10
65.8923757017
 20
54.4507219566
 10
66.0291396713
 20
54.8695466287
 10
66.1936713746
 20
55.2875721813
 10
66.3844346235
 20
55.7008956224
 10
66.5996483128
 20
56.1056578623
 10
66.8373030504
 20
56.4980797451
 10
67.095179918
 20
56.8744973334
 10
67.3708711887
 20
57.2313961176
 10
67.6618028074
 20
57.5654438298
 10
67.9652584241
 20
57.8735215567
 10
68.2784047553
 20
58.1527528595
 10
68.5983180382
 20
58.4005306308
 10
68.9220113286
 20
58.6145414362
 10
69.2464623895
 20
58.7927871145
 10
69.5686419087
 20
58.9336034339
 10
69.885541783
 20
59.0356756303
 10
70.1942032034
 20
59.0980506831
 10
70.4917442816
 20
59.1201462133
 10
70.7753869567
 20
59.1017559209
 10
71.0424829333
 20
59.043051511
 10
71.2905384084
 20
58.9445810909
 10
71.3779784722
 20
58.8976899229
  0
ARC
  5
4E0
330
1F
100
AcDbEntity
  8
0
  6
Continuous
 62
     7
370
    30
100
AcDbCircle
 10
68.0013389507
 20
52.6013853792
 30
0.0
 40
2.369480207454795
100
AcDbArc
 50
174.0990689352
 51
234.5887506715
  0
LWPOLYLINE
  5
4E1
330
1F
100
AcDbEntity
  8
0
  6
Continuous
 62
     7
370
    30
100
AcDbPolyline
 90
       22
 70
   128
 43
0.0
 10
74.5362820449
 20
48.997665334
 10
74.5520399338
 20
49.3133873851
 10
74.5990923942
 20
49.6428710618
 10
74.6767789127
 20
49.9814911357
 10
74.7840089409
 20
50.3244941232
 10
74.9192772043
 20
50.6670650141
 10
75.0806848329
 20
51.0043948641
 10
75.2659660175
 20
51.3317483015
 10
75.4725198163
 20
51.6445300016
 10
75.6974466668
 20
51.9383491951
 10
75.937589089
 20
52.2090813044
 10
76.1895760098
 20
52.4529258443
 10
76.4498700852
 20
52.6664597718
 10
76.7148173568
 20
52.8466855388
 10
76.9806985458
 20
52.9910731704
 10
77.2437812631
 20
53.097595781
 10
77.5003724041
 20
53.1647580264
 10
77.7468699915
 20
53.1916170961
 10
77.9798137396
 20
53.1777959474
 10
78.1959336287
 20
53.1234885992
 10
78.3921958095
 20
53.0294574075
 10
78.4706515277
 20
52.976478976
  0
ARC
  5
4E2
330
1F
100
AcDbEntity
  8
0
  6
Continuous
 62
     7
370
    30
100
AcDbCircle
 10
76.0288627816
 20
48.8071940931
 30
0.0
 40
1.504684867002399
100
AcDbArc
 50
172.7276761104
 51
241.1540747696
  0
LWPOLYLINE
  5
4E3
330
1F
100
AcDbEntity
  8
0
  6
Continuous
 62
     7
370
    30
100
AcDbPolyline
 90
       34
 70
   128
 43
0.0
 10
66.2696324162
 20
50.9061840811
 10
66.131106475
 20
50.9961340259
 10
65.9289502937
 20
51.1700951613
 10
65.752031203
 20
51.3797988866
 10
65.6020010486
 20
51.6232872547
 10
65.4802606219
 20
51.8982868802
 10
65.3879465802
 20
52.2022301657
 10
65.325920835
 20
52.5322792748
 10
65.294762504
 20
52.8853526277
 10
65.294762504
 20
53.2581536738
 10
65.325920835
 20
53.64720167
 10
65.3879465802
 20
54.0488641801
 10
65.4802606219
 20
54.4593909895
 10
65.6020010486
 20
54.8749491199
 10
65.752031203
 20
55.291658617
 10
65.9289502937
 20
55.7056287766
 10
66.131106475
 20
56.1129944707
 10
66.3566122691
 20
56.5099522358
 10
66.603362189
 20
56.892795784
 10
66.8690523974
 20
57.2579506083
 10
67.1512022162
 20
57.6020073565
 10
67.4471772888
 20
57.9217536634
 10
67.7542141754
 20
58.214204144
 10
68.0694461556
 20
58.4766282669
 10
68.3899299931
 20
58.7065758487
 10
68.7126734169
 20
58.9018999309
 10
69.0346630584
 20
59.0607768251
 10
69.3528925871
 20
59.1817231405
 10
69.6643907798
 20
59.2636096341
 10
69.9662492616
 20
59.3056717536
 10
70.2556496613
 20
59.3075167765
 10
70.5298899254
 20
59.2691274761
 10
70.7864095462
 20
59.1908622831
 10
70.9942484279
 20
59.0903458306
  0
ARC
  5
4E4
330
1F
100
AcDbEntity
  8
0
  6
Continuous
 62
     7
370
    30
100
AcDbCircle
 10
71.8034497423
 20
53.1673915965
 30
0.0
 40
6.519038077404138
100
AcDbArc
 50
122.5541729265
 51
177.4512036062
  0
LWPOLYLINE
  5
4E5
330
1F
100
AcDbEntity
  8
0
  6
Continuous
 62
     7
370
    30
100
AcDbPolyline
 90
       58
 70
   128
 43
0.0
 10
85.2666274494
 20
42.3740635366
 10
85.5544414179
 20
42.5585516478
 10
85.8387617147
 20
42.7774736107
 10
86.1161370766
 20
43.0281720094
 10
86.3832005423
 20
43.3076037049
 10
86.6367103233
 20
43.6123767749
 10
86.8735891541
 20
43.9387916872
 10
87.0909616467
 20
44.282886207
 10
87.2861891934
 20
44.6404834928
 10
87.4569019964
 20
45.0072427982
 10
87.6010278333
 20
45.3787121618
 10
87.7168172119
 20
45.7503824489
 10
87.8028646058
 20
46.1177420857
 10
87.8581255164
 20
46.4763318237
 10
87.881929151
 20
46.8217988694
 10
87.8739865657
 20
47.1499497208
 10
87.8343941727
 20
47.4568010711
 10
87.7636325701
 20
47.7386281605
 10
87.6625607079
 20
47.9920099899
 10
87.5324054615
 20
48.2138708473
 10
87.3747467394
 20
48.4015176422
 10
87.1914983048
 20
48.5526725969
 10
86.9848845456
 20
48.6655008949
 10
86.7574134728
 20
48.7386329536
 10
86.5118462771
 20
48.7711810488
 10
86.2511638117
 20
48.7627500907
 10
85.9785304086
 20
48.7134424197
 10
85.6972554679
 20
48.6238565642
 10
85.4107532864
 20
48.4950799752
 10
85.1225016125
 20
48.3286758258
 10
84.835999431
 20
48.1266640372
 10
84.5547244903
 20
47.8914967587
 10
84.2820910872
 20
47.6260286026
 10
84.0214086218
 20
47.3334819926
 10
83.7758414261
 20
47.0174080484
 10
83.5483703533
 20
46.6816434794
 10
83.3417565941
 20
46.3302640126
 10
83.1585081595
 20
45.9675349188
 10
83.0008494374
 20
45.5978592379
 10
82.870694191
 20
45.2257243318
 10
82.7696223288
 20
44.8556474141
 10
82.6988607262
 20
44.4921207174
 10
82.6592683332
 20
44.1395569632
 10
82.6513257479
 20
43.8022357981
 10
82.6751293825
 20
43.4842518439
 10
82.730390293
 20
43.189464995
 10
82.816437687
 20
42.9214535647
 10
82.9322270656
 20
42.6834708484
 10
83.0763529025
 20
42.4784056341
 10
83.2470657055
 20
42.3087471356
 10
83.4422932522
 20
42.1765547774
 10
83.6596657448
 20
42.0834331954
 10
83.8965445756
 20
42.0305127597
 10
84.1500543566
 20
42.0184358526
 10
84.4171178223
 20
42.0473490713
 10
84.6944931842
 20
42.1169014487
 10
84.978813481
 20
42.226248713
 10
85.2666274494
 20
42.3740635366
  0
LWPOLYLINE
  5
4E6
330
1F
100
AcDbEntity
  8
0
  6
Continuous
 62
     7
370
    30
100
AcDbPolyline
 90
       27
 70
   128
 43
0.0
 10
64.9577089709
 20
53.6553458407
 10
64.8466459712
 20
53.7297467414
 10
64.6892493717
 20
53.8795671734
 10
64.5586589691
 20
54.0653738924
 10
64.4568543809
 20
54.2843502579
 10
64.3853788608
 20
54.5331768115
 10
64.3453159049
 20
54.8080815963
 10
64.3372728267
 20
55.1048973358
 10
64.3613715512
 20
55.4191246062
 10
64.4172467661
 20
55.7460000422
 10
64.5040514602
 20
56.0805685455
 10
64.6204697628
 20
56.4177583986
 10
64.7647368911
 20
56.752458147
 10
64.9346659026
 20
57.0795940837
 10
65.1276808466
 20
57.3942071614
 10
65.3408558133
 20
57.6915281665
 10
65.5709592875
 20
57.9670500157
 10
65.8145031351
 20
58.2165960785
 10
66.0677954796
 20
58.4363834911
 10
66.3269966673
 20
58.6230805003
 10
66.5881774724
 20
58.7738569697
 10
66.8473786601
 20
58.8864272818
 10
67.1006710047
 20
58.9590849853
 10
67.3442148523
 20
58.9907286637
 10
67.5743183265
 20
58.9808786308
 10
67.7874932932
 20
58.9296842033
 10
67.9574651688
 20
58.851639015
  0
ARC
  5
4E7
330
1F
100
AcDbEntity
  8
0
  6
Continuous
 62
     7
370
    30
100
AcDbCircle
 10
66.7759724039
 20
56.0696924868
 30
0.0
 40
2.838079271013603
100
AcDbArc
 50
107.9333432911
 51
192.0720332416
  0
ENDSEC
  0
SECTION
  2
OBJECTS
  0
DICTIONARY
  5
C
330
0
100
AcDbDictionary
281
     1
  3
ACAD_GROUP
350
D
  3
ACAD_LAYOUT
350
1A
  3
ACAD_MLINESTYLE
350
17
  3
ACAD_PLOTSETTINGS
350
19
  3
ACAD_PLOTSTYLENAME
350
E
  3
ACAD_SCALELIST
350
47
  0
DICTIONARY
  5
D
102
{ACAD_REACTORS
330
C
102
}
330
C
100
AcDbDictionary
281
     1
  0
DICTIONARY
  5
1A
102
{ACAD_REACTORS
330
C
102
}
330
C
100
AcDbDictionary
281
     1
  3
Layout1
350
1E
  3
Layout2
350
26
  3
Model
350
22
  0
DICTIONARY
  5
17
102
{ACAD_REACTORS
330
C
102
}
330
C
100
AcDbDictionary
281
     1
  3
Standard
350
18
  0
DICTIONARY
  5
19
102
{ACAD_REACTORS
330
C
102
}
330
C
100
AcDbDictionary
281
     1
  0
ACDBDICTIONARYWDFLT
  5
E
102
{ACAD_REACTORS
330
C
102
}
330
C
100
AcDbDictionary
281
     1
  3
Normal
350
F
100
AcDbDictionaryWithDefault
340
F
  0
DICTIONARY
  5
47
102
{ACAD_REACTORS
330
C
102
}
330
C
100
AcDbDictionary
281
     1
  3
A0
350
48
  3
A1
350
49
  3
A2
350
4A
  3
A3
350
4B
  3
A4
350
4C
  3
A5
350
4D
  3
A6
350
4E
  3
A7
350
4F
  3
A8
350
50
  3
A9
350
51
  3
B0
350
52
  3
B1
350
53
  3
B2
350
54
  3
B3
350
55
  3
B4
350
56
  3
B5
350
57
  3
B6
350
58
  3
B7
350
59
  3
B8
350
5A
  3
B9
350
5B
  3
C0
350
5C
  3
C1
350
5D
  3
C2
350
5E
  3
C3
350
5F
  3
C4
350
60
  3
C5
350
61
  3
C6
350
62
  3
C7
350
63
  3
C8
350
64
  3
C9
350
65
  3
D0
350
66
  3
D1
350
67
  3
D2
350
68
  0
LAYOUT
  5
1E
102
{ACAD_REACTORS
330
1A
102
}
330
1A
100
AcDbPlotSettings
  1

  2
none_device
  4

  6

 40
0.0
 41
0.0
 42
0.0
 43
0.0
 44
0.0
 45
0.0
 46
0.0
 47
0.0
 48
0.0
 49
0.0
140
0.0
141
0.0
142
1.0
143
1.0
 70
   688
 72
     1
 73
     0
 74
     5
  7

 75
    16
147
1.0
148
0.0
149
0.0
100
AcDbLayout
  1
Layout1
 70
     1
 71
     1
 10
0.0
 20
0.0
 11
420.0
 21
297.0
 12
0.0
 22
0.0
 32
0.0
 14
1.0000000000E+20
 24
1.0000000000E+20
 34
1.0000000000E+20
 15
-1.0000000000E+20
 25
-1.0000000000E+20
 35
-1.0000000000E+20
146
0.0
 13
0.0
 23
0.0
 33
0.0
 16
1.0
 26
0.0
 36
0.0
 17
0.0
 27
1.0
 37
0.0
 76
     0
330
1B
  0
LAYOUT
  5
26
102
{ACAD_REACTORS
330
1A
102
}
330
1A
100
AcDbPlotSettings
  1

  2
none_device
  4

  6

 40
0.0
 41
0.0
 42
0.0
 43
0.0
 44
0.0
 45
0.0
 46
0.0
 47
0.0
 48
0.0
 49
0.0
140
0.0
141
0.0
142
1.0
143
1.0
 70
   688
 72
     1
 73
     0
 74
     5
  7

 75
    16
147
1.0
148
0.0
149
0.0
100
AcDbLayout
  1
Layout2
 70
     1
 71
     2
 10
0.0
 20
0.0
 11
0.0
 21
0.0
 12
0.0
 22
0.0
 32
0.0
 14
0.0
 24
0.0
 34
0.0
 15
0.0
 25
0.0
 35
0.0
146
0.0
 13
0.0
 23
0.0
 33
0.0
 16
1.0
 26
0.0
 36
0.0
 17
0.0
 27
1.0
 37
0.0
 76
     0
330
23
  0
LAYOUT
  5
22
102
{ACAD_REACTORS
330
1A
102
}
330
1A
100
AcDbPlotSettings
  1

  2
none_device
  4
Letter_(8.50_x_11.00_Inches)
  6

 40
6.35
 41
6.35
 42
6.35000508
 43
6.35000508
 44
215.9
 45
279.4
 46
0.0
 47
0.0
 48
0.0
 49
0.0
140
0.0
141
0.0
142
1.0
143
1.0
 70
  1712
 72
     1
 73
     0
 74
     0
  7

 75
     0
147
1.0
148
0.0
149
0.0
100
AcDbLayout
  1
Model
 70
     1
 71
     0
 10
0.0
 20
0.0
 11
99.0
 21
70.0
 12
0.0
 22
0.0
 32
0.0
 14
0.0
 24
0.0
 34
0.0
 15
99.0
 25
70.0
 35
0.0
146
0.0
 13
0.0
 23
0.0
 33
0.0
 16
1.0
 26
0.0
 36
0.0
 17
0.0
 27
1.0
 37
0.0
 76
     0
330
1F
331
29
  0
MLINESTYLE
  5
18
102
{ACAD_REACTORS
330
17
102
}
330
17
100
AcDbMlineStyle
  2
Standard
 70
     0
  3

 62
   256
 51
90.0
 52
90.0
 71
     2
 49
0.5
 62
   256
  6
BYLAYER
 49
-0.5
 62
   256
  6
BYLAYER
  0
ACDBPLACEHOLDER
  5
F
102
{ACAD_REACTORS
330
E
102
}
330
E
  0
SCALE
  5
48
102
{ACAD_REACTORS
330
47
102
}
330
47
100
AcDbScale
 70
     0
300
1:1
140
1.0
141
1.0
290
     1
  0
SCALE
  5
49
102
{ACAD_REACTORS
330
47
102
}
330
47
100
AcDbScale
 70
     0
300
1:2
140
1.0
141
2.0
290
     0
  0
SCALE
  5
4A
102
{ACAD_REACTORS
330
47
102
}
330
47
100
AcDbScale
 70
     0
300
1:4
140
1.0
141
4.0
290
     0
  0
SCALE
  5
4B
102
{ACAD_REACTORS
330
47
102
}
330
47
100
AcDbScale
 70
     0
300
1:5
140
1.0
141
5.0
290
     0
  0
SCALE
  5
4C
102
{ACAD_REACTORS
330
47
102
}
330
47
100
AcDbScale
 70
     0
300
1:8
140
1.0
141
8.0
290
     0
  0
SCALE
  5
4D
102
{ACAD_REACTORS
330
47
102
}
330
47
100
AcDbScale
 70
     0
300
1:10
140
1.0
141
10.0
290
     0
  0
SCALE
  5
4E
102
{ACAD_REACTORS
330
47
102
}
330
47
100
AcDbScale
 70
     0
300
1:16
140
1.0
141
16.0
290
     0
  0
SCALE
  5
4F
102
{ACAD_REACTORS
330
47
102
}
330
47
100
AcDbScale
 70
     0
300
1:20
140
1.0
141
20.0
290
     0
  0
SCALE
  5
50
102
{ACAD_REACTORS
330
47
102
}
330
47
100
AcDbScale
 70
     0
300
1:30
140
1.0
141
30.0
290
     0
  0
SCALE
  5
51
102
{ACAD_REACTORS
330
47
102
}
330
47
100
AcDbScale
 70
     0
300
1:40
140
1.0
141
40.0
290
     0
  0
SCALE
  5
52
102
{ACAD_REACTORS
330
47
102
}
330
47
100
AcDbScale
 70
     0
300
1:50
140
1.0
141
50.0
290
     0
  0
SCALE
  5
53
102
{ACAD_REACTORS
330
47
102
}
330
47
100
AcDbScale
 70
     0
300
1:100
140
1.0
141
100.0
290
     0
  0
SCALE
  5
54
102
{ACAD_REACTORS
330
47
102
}
330
47
100
AcDbScale
 70
     0
300
2:1
140
2.0
141
1.0
290
     0
  0
SCALE
  5
55
102
{ACAD_REACTORS
330
47
102
}
330
47
100
AcDbScale
 70
     0
300
4:1
140
4.0
141
1.0
290
     0
  0
SCALE
  5
56
102
{ACAD_REACTORS
330
47
102
}
330
47
100
AcDbScale
 70
     0
300
8:1
140
8.0
141
1.0
290
     0
  0
SCALE
  5
57
102
{ACAD_REACTORS
330
47
102
}
330
47
100
AcDbScale
 70
     0
300
10:1
140
10.0
141
1.0
290
     0
  0
SCALE
  5
58
102
{ACAD_REACTORS
330
47
102
}
330
47
100
AcDbScale
 70
     0
300
100:1
140
100.0
141
1.0
290
     0
  0
SCALE
  5
59
102
{ACAD_REACTORS
330
47
102
}
330
47
100
AcDbScale
 70
     0
300
1/128" = 1'-0"
140
0.0078125
141
12.0
290
     0
  0
SCALE
  5
5A
102
{ACAD_REACTORS
330
47
102
}
330
47
100
AcDbScale
 70
     0
300
1/64" = 1'-0"
140
0.015625
141
12.0
290
     0
  0
SCALE
  5
5B
102
{ACAD_REACTORS
330
47
102
}
330
47
100
AcDbScale
 70
     0
300
1/32" = 1'-0"
140
0.03125
141
12.0
290
     0
  0
SCALE
  5
5C
102
{ACAD_REACTORS
330
47
102
}
330
47
100
AcDbScale
 70
     0
300
1/16" = 1'-0"
140
0.0625
141
12.0
290
     0
  0
SCALE
  5
5D
102
{ACAD_REACTORS
330
47
102
}
330
47
100
AcDbScale
 70
     0
300
3/32" = 1'-0"
140
0.09375
141
12.0
290
     0
  0
SCALE
  5
5E
102
{ACAD_REACTORS
330
47
102
}
330
47
100
AcDbScale
 70
     0
300
1/8" = 1'-0"
140
0.125
141
12.0
290
     0
  0
SCALE
  5
5F
102
{ACAD_REACTORS
330
47
102
}
330
47
100
AcDbScale
 70
     0
300
3/16" = 1'-0"
140
0.1875
141
12.0
290
     0
  0
SCALE
  5
60
102
{ACAD_REACTORS
330
47
102
}
330
47
100
AcDbScale
 70
     0
300
1/4" = 1'-0"
140
0.25
141
12.0
290
     0
  0
SCALE
  5
61
102
{ACAD_REACTORS
330
47
102
}
330
47
100
AcDbScale
 70
     0
300
3/8" = 1'-0"
140
0.375
141
12.0
290
     0
  0
SCALE
  5
62
102
{ACAD_REACTORS
330
47
102
}
330
47
100
AcDbScale
 70
     0
300
1/2" = 1'-0"
140
0.5
141
12.0
290
     0
  0
SCALE
  5
63
102
{ACAD_REACTORS
330
47
102
}
330
47
100
AcDbScale
 70
     0
300
3/4" = 1'-0"
140
0.75
141
12.0
290
     0
  0
SCALE
  5
64
102
{ACAD_REACTORS
330
47
102
}
330
47
100
AcDbScale
 70
     0
300
1" = 1'-0"
140
1.0
141
12.0
290
     0
  0
SCALE
  5
65
102
{ACAD_REACTORS
330
47
102
}
330
47
100
AcDbScale
 70
     0
300
1-1/2" = 1'-0"
140
1.5
141
12.0
290
     0
  0
SCALE
  5
66
102
{ACAD_REACTORS
330
47
102
}
330
47
100
AcDbScale
 70
     0
300
3" = 1'-0"
140
3.0
141
12.0
290
     0
  0
SCALE
  5
67
102
{ACAD_REACTORS
330
47
102
}
330
47
100
AcDbScale
 70
     0
300
6" = 1'-0"
140
6.0
141
12.0
290
     0
  0
SCALE
  5
68
102
{ACAD_REACTORS
330
47
102
}
330
47
100
AcDbScale
 70
     0
300
1'-0" = 1'-0"
140
12.0
141
12.0
290
     0
  0
ENDSEC
  0
EOF
