  0
SECTION
  2
HEADER
  9
$ACADVER
  1
AC1015
  9
$ACADMAINTVER
 70
     6
  9
$DWGCODEPAGE
  3
ANSI_950
  9
$INSBASE
 10
0.0
 20
0.0
 30
0.0
  9
$EXTMIN
 10
0.0
 20
0.0
 30
0.0
  9
$EXTMAX
 10
74.25
 20
52.5
 30
0.0
  9
$LIMMIN
 10
0.0
 20
0.0
  9
$LIMMAX
 10
74.25
 20
52.5
  9
$ORTHOMODE
 70
     0
  9
$REGENMODE
 70
     1
  9
$FILLMODE
 70
     1
  9
$QTEXTMODE
 70
     0
  9
$MIRRTEXT
 70
     1
  9
$LTSCALE
 40
0.25
  9
$ATTMODE
 70
     1
  9
$TEXTSIZE
 40
0.79375
  9
$TRACEWID
 40
1.0
  9
$TEXTSTYLE
  7
Standard
  9
$CLAYER
  8
0
  9
$CELTYPE
  6
ByLayer
  9
$CECOLOR
 62
   256
  9
$CELTSCALE
 40
1.0
  9
$DISPSILH
 70
     0
  9
$DIMSCALE
 40
1.0
  9
$DIMASZ
 40
0.5
  9
$DIMEXO
 40
0.25
  9
$DIMDLI
 40
3.75
  9
$DIMRND
 40
0.0
  9
$DIMDLE
 40
0.0
  9
$DIMEXE
 40
0.25
  9
$DIMTP
 40
0.0
  9
$DIMTM
 40
0.0
  9
$DIMTXT
 40
0.79375
  9
$DIMCEN
 40
2.5
  9
$DIMTSZ
 40
0.0
  9
$DIMTOL
 70
     0
  9
$DIMLIM
 70
     0
  9
$DIMTIH
 70
     1
  9
$DIMTOH
 70
     1
  9
$DIMSE1
 70
     0
  9
$DIMSE2
 70
     0
  9
$DIMTAD
 70
     1
  9
$DIMZIN
 70
     0
  9
$DIMBLK
  1

  9
$DIMASO
 70
     1
  9
$DIMSHO
 70
     1
  9
$DIMPOST
  1

  9
$DIMAPOST
  1

  9
$DIMALT
 70
     0
  9
$DIMALTD
 70
     3
  9
$DIMALTF
 40
0.0393700787
  9
$DIMLFAC
 40
1.0
  9
$DIMTOFL
 70
     1
  9
$DIMTVP
 40
0.0
  9
$DIMTIX
 70
     0
  9
$DIMSOXD
 70
     0
  9
$DIMSAH
 70
     0
  9
$DIMBLK1
  1

  9
$DIMBLK2
  1

  9
$DIMSTYLE
  2
ISO-25
  9
$DIMCLRD
 70
     0
  9
$DIMCLRE
 70
     0
  9
$DIMCLRT
 70
     0
  9
$DIMTFAC
 40
1.0
  9
$DIMGAP
 40
0.25
  9
$DIMJUST
 70
     0
  9
$DIMSD1
 70
     0
  9
$DIMSD2
 70
     0
  9
$DIMTOLJ
 70
     0
  9
$DIMTZIN
 70
     0
  9
$DIMALTZ
 70
     0
  9
$DIMALTTZ
 70
     0
  9
$DIMUPT
 70
     0
  9
$DIMDEC
 70
     2
  9
$DIMTDEC
 70
     2
  9
$DIMALTU
 70
     2
  9
$DIMALTTD
 70
     3
  9
$DIMTXSTY
  7
Standard
  9
$DIMAUNIT
 70
     0
  9
$DIMADEC
 70
     2
  9
$DIMALTRND
 40
0.0
  9
$DIMAZIN
 70
     0
  9
$DIMDSEP
 70
    44
  9
$DIMATFIT
 70
     3
  9
$DIMFRAC
 70
     0
  9
$DIMLDRBLK
  1

  9
$DIMLUNIT
 70
     2
  9
$DIMLWD
 70
    -2
  9
$DIMLWE
 70
    -2
  9
$DIMTMOVE
 70
     0
  9
$LUNITS
 70
     2
  9
$LUPREC
 70
     2
  9
$SKETCHINC
 40
1.0
  9
$FILLETRAD
 40
10.0
  9
$AUNITS
 70
     0
  9
$AUPREC
 70
     2
  9
$MENU
  1
.
  9
$ELEVATION
 40
0.0
  9
$PELEVATION
 40
0.0
  9
$THICKNESS
 40
0.0
  9
$LIMCHECK
 70
     0
  9
$CHAMFERA
 40
0.0
  9
$CHAMFERB
 40
0.0
  9
$CHAMFERC
 40
0.0
  9
$CHAMFERD
 40
0.0
  9
$SKPOLY
 70
     0
  9
$TDCREATE
 40
2458373.45292169
  9
$TDUCREATE
 40
2458373.119588356
  9
$TDUPDATE
 40
2458373.45292603
  9
$TDUUPDATE
 40
2458373.119592697
  9
$TDINDWG
 40
0.0000000116
  9
$TDUSRTIMER
 40
0.0000000116
  9
$USRTIMER
 70
     1
  9
$ANGBASE
 50
0.0
  9
$ANGDIR
 70
     0
  9
$PDMODE
 70
     0
  9
$PDSIZE
 40
-1.0
  9
$PLINEWID
 40
0.0
  9
$SPLFRAME
 70
     0
  9
$SPLINETYPE
 70
     6
  9
$SPLINESEGS
 70
     8
  9
$HANDSEED
  5
1A5
  9
$SURFTAB1
 70
     6
  9
$SURFTAB2
 70
     6
  9
$SURFTYPE
 70
     6
  9
$SURFU
 70
     6
  9
$SURFV
 70
     6
  9
$UCSBASE
  2

  9
$UCSNAME
  2

  9
$UCSORG
 10
0.0
 20
0.0
 30
0.0
  9
$UCSXDIR
 10
1.0
 20
0.0
 30
0.0
  9
$UCSYDIR
 10
0.0
 20
1.0
 30
0.0
  9
$UCSORTHOREF
  2

  9
$UCSORTHOVIEW
 70
     0
  9
$UCSORGTOP
 10
0.0
 20
0.0
 30
0.0
  9
$UCSORGBOTTOM
 10
0.0
 20
0.0
 30
0.0
  9
$UCSORGLEFT
 10
0.0
 20
0.0
 30
0.0
  9
$UCSORGRIGHT
 10
0.0
 20
0.0
 30
0.0
  9
$UCSORGFRONT
 10
0.0
 20
0.0
 30
0.0
  9
$UCSORGBACK
 10
0.0
 20
0.0
 30
0.0
  9
$PUCSBASE
  2

  9
$PUCSNAME
  2

  9
$PUCSORG
 10
0.0
 20
0.0
 30
0.0
  9
$PUCSXDIR
 10
1.0
 20
0.0
 30
0.0
  9
$PUCSYDIR
 10
0.0
 20
1.0
 30
0.0
  9
$PUCSORTHOREF
  2

  9
$PUCSORTHOVIEW
 70
     0
  9
$PUCSORGTOP
 10
0.0
 20
0.0
 30
0.0
  9
$PUCSORGBOTTOM
 10
0.0
 20
0.0
 30
0.0
  9
$PUCSORGLEFT
 10
0.0
 20
0.0
 30
0.0
  9
$PUCSORGRIGHT
 10
0.0
 20
0.0
 30
0.0
  9
$PUCSORGFRONT
 10
0.0
 20
0.0
 30
0.0
  9
$PUCSORGBACK
 10
0.0
 20
0.0
 30
0.0
  9
$USERI1
 70
     0
  9
$USERI2
 70
     0
  9
$USERI3
 70
     0
  9
$USERI4
 70
     0
  9
$USERI5
 70
     0
  9
$USERR1
 40
0.0
  9
$USERR2
 40
0.0
  9
$USERR3
 40
0.0
  9
$USERR4
 40
0.0
  9
$USERR5
 40
0.0
  9
$WORLDVIEW
 70
     1
  9
$SHADEDGE
 70
     3
  9
$SHADEDIF
 70
    70
  9
$TILEMODE
 70
     1
  9
$MAXACTVP
 70
    64
  9
$PINSBASE
 10
0.0
 20
0.0
 30
0.0
  9
$PLIMCHECK
 70
     0
  9
$PEXTMIN
 10
1.0000000000E+20
 20
1.0000000000E+20
 30
1.0000000000E+20
  9
$PEXTMAX
 10
-1.0000000000E+20
 20
-1.0000000000E+20
 30
-1.0000000000E+20
  9
$PLIMMIN
 10
0.0
 20
0.0
  9
$PLIMMAX
 10
420.0
 20
297.0
  9
$UNITMODE
 70
     0
  9
$VISRETAIN
 70
     1
  9
$PLINEGEN
 70
     0
  9
$PSLTSCALE
 70
     1
  9
$TREEDEPTH
 70
  3020
  9
$CMLSTYLE
  2
Standard
  9
$CMLJUST
 70
     0
  9
$CMLSCALE
 40
20.0
  9
$PROXYGRAPHICS
 70
     1
  9
$MEASUREMENT
 70
     1
  9
$CELWEIGHT
370
    -1
  9
$ENDCAPS
280
     0
  9
$JOINSTYLE
280
     0
  9
$LWDISPLAY
290
     1
  9
$INSUNITS
 70
     4
  9
$HYPERLINKBASE
  1

  9
$STYLESHEET
  1

  9
$XEDIT
290
     1
  9
$CEPSNTYPE
380
     0
  9
$PSTYLEMODE
290
     1
  9
$FINGERPRINTGUID
  2
{26B97611-1C75-4EA7-A536-BC48EF0D8E86}
  9
$VERSIONGUID
  2
{FAEB1C32-E019-11D5-929B-00C0DF256EC4}
  9
$EXTNAMES
290
     1
  9
$PSVPSCALE
 40
0.0
  9
$OLESTARTUP
290
     0
  0
ENDSEC
  0
SECTION
  2
CLASSES
  0
CLASS
  1
ACDBDICTIONARYWDFLT
  2
AcDbDictionaryWithDefault
  3
ObjectDBX Classes
 90
        0
280
     0
281
     0
  0
CLASS
  1
VISUALSTYLE
  2
AcDbVisualStyle
  3
ObjectDBX Classes
 90
     4095
280
     0
281
     0
  0
CLASS
  1
MATERIAL
  2
AcDbMaterial
  3
ObjectDBX Classes
 90
     1153
280
     0
281
     0
  0
CLASS
  1
SCALE
  2
AcDbScale
  3
ObjectDBX Classes
 90
     1153
280
     0
281
     0
  0
CLASS
  1
TABLESTYLE
  2
AcDbTableStyle
  3
ObjectDBX Classes
 90
     4095
280
     0
281
     0
  0
CLASS
  1
MLEADERSTYLE
  2
AcDbMLeaderStyle
  3
ACDB_MLEADERSTYLE_CLASS
 90
     4095
280
     0
281
     0
  0
CLASS
  1
SUN
  2
AcDbSun
  3
SCENEOE
 90
     1153
280
     0
281
     0
  0
CLASS
  1
ACDBPLACEHOLDER
  2
AcDbPlaceHolder
  3
ObjectDBX Classes
 90
        0
280
     0
281
     0
  0
CLASS
  1
LAYOUT
  2
AcDbLayout
  3
ObjectDBX Classes
 90
        0
280
     0
281
     0
  0
ENDSEC
  0
SECTION
  2
TABLES
  0
TABLE
  2
VPORT
  5
8
330
0
100
AcDbSymbolTable
 70
     1
  0
VPORT
  5
29
330
8
100
AcDbSymbolTableRecord
100
AcDbViewportTableRecord
  2
*Active
 70
     0
 10
0.0
 20
0.0
 11
1.0
 21
1.0
 12
37.125
 22
26.25
 13
0.0
 23
0.0
 14
10.0
 24
10.0
 15
10.0
 25
10.0
 16
0.0
 26
0.0
 36
1.0
 17
0.0
 27
0.0
 37
0.0
 40
52.5
 41
1.4142857143
 42
50.0
 43
0.0
 44
0.0
 50
0.0
 51
0.0
 71
     0
 72
  2000
 73
     1
 74
     3
 75
     0
 76
     0
 77
     0
 78
     0
281
     0
 65
     1
110
0.0
120
0.0
130
0.0
111
1.0
121
0.0
131
0.0
112
0.0
122
1.0
132
0.0
 79
     0
146
0.0
  0
ENDTAB
  0
TABLE
  2
LTYPE
  5
5
330
0
100
AcDbSymbolTable
 70
     6
  0
LTYPE
  5
14
330
5
100
AcDbSymbolTableRecord
100
AcDbLinetypeTableRecord
  2
ByBlock
 70
     0
  3

 72
    65
 73
     0
 40
0.0
  0
LTYPE
  5
15
330
5
100
AcDbSymbolTableRecord
100
AcDbLinetypeTableRecord
  2
ByLayer
 70
     0
  3

 72
    65
 73
     0
 40
0.0
  0
LTYPE
  5
16
330
5
100
AcDbSymbolTableRecord
100
AcDbLinetypeTableRecord
  2
Continuous
 70
     0
  3
Solid line
 72
    65
 73
     0
 40
0.0
  0
LTYPE
  5
6E
330
5
100
AcDbSymbolTableRecord
100
AcDbLinetypeTableRecord
  2
HIDDEN
 70
     0
  3
Hidden __ __ __ __ __ __ __ __ __ __ __ __ __ __
 72
    65
 73
     2
 40
1.905
 49
1.27
 74
     0
 49
-0.635
 74
     0
  0
LTYPE
  5
6F
330
5
100
AcDbSymbolTableRecord
100
AcDbLinetypeTableRecord
  2
PHANTOM
 70
     0
  3
Phantom ______  __  __  ______  __  __  ______
 72
    65
 73
     6
 40
12.7
 49
6.35
 74
     0
 49
-1.27
 74
     0
 49
1.27
 74
     0
 49
-1.27
 74
     0
 49
1.27
 74
     0
 49
-1.27
 74
     0
  0
LTYPE
  5
70
330
5
100
AcDbSymbolTableRecord
100
AcDbLinetypeTableRecord
  2
CENTER
 70
     0
  3
Center ____ _ ____ _ ____ _ ____ _ ____ _ ____
 72
    65
 73
     4
 40
10.16
 49
6.35
 74
     0
 49
-1.27
 74
     0
 49
1.27
 74
     0
 49
-1.27
 74
     0
  0
LTYPE
  5
71
330
5
100
AcDbSymbolTableRecord
100
AcDbLinetypeTableRecord
  2
CENTERX2
 70
     0
  3
Center (2x) ________  __  ________  __  _____
 72
    65
 73
     4
 40
20.32
 49
12.7
 74
     0
 49
-2.54
 74
     0
 49
2.54
 74
     0
 49
-2.54
 74
     0
  0
LTYPE
  5
72
330
5
100
AcDbSymbolTableRecord
100
AcDbLinetypeTableRecord
  2
DOT2
 70
     0
  3
Dot (.5x) ........................................
 72
    65
 73
     2
 40
0.635
 49
0.0
 74
     0
 49
-0.635
 74
     0
  0
ENDTAB
  0
TABLE
  2
LAYER
  5
2
330
0
100
AcDbSymbolTable
 70
    10
  0
LAYER
  5
10
330
2
100
AcDbSymbolTableRecord
100
AcDbLayerTableRecord
  2
0
 70
     0
 62
     7
  6
Continuous
370
    -3
390
F
  0
LAYER
  5
73
330
2
100
AcDbSymbolTableRecord
100
AcDbLayerTableRecord
  2
SLD-0
 70
     0
 62
     7
  6
Continuous
370
    15
390
F
  0
LAYER
  5
74
330
2
100
AcDbSymbolTableRecord
100
AcDbLayerTableRecord
  2
輪廓線
 70
     0
 62
   219
  6
Continuous
370
    15
390
F
  0
LAYER
  5
75
330
2
100
AcDbSymbolTableRecord
100
AcDbLayerTableRecord
  2
DIM
 70
     0
 62
     7
  6
Continuous
370
    -3
390
F
  0
LAYER
  5
76
330
2
100
AcDbSymbolTableRecord
100
AcDbLayerTableRecord
  2
中心線
 70
     0
 62
     7
  6
CENTERX2
370
    -3
390
F
  0
LAYER
  5
77
330
2
100
AcDbSymbolTableRecord
100
AcDbLayerTableRecord
  2
虛線
 70
     0
 62
     7
  6
HIDDEN
370
    -3
390
F
  0
LAYER
  5
78
330
2
100
AcDbSymbolTableRecord
100
AcDbLayerTableRecord
  2
SECTION
 70
     0
 62
     7
  6
PHANTOM
370
    15
390
F
  0
LAYER
  5
79
330
2
100
AcDbSymbolTableRecord
100
AcDbLayerTableRecord
  2
假想線
 70
     0
 62
     7
  6
PHANTOM
370
    -3
390
F
  0
LAYER
  5
7A
330
2
100
AcDbSymbolTableRecord
100
AcDbLayerTableRecord
  2
圖層_1
 70
     0
 62
   179
  6
Continuous
370
    -3
390
F
  0
LAYER
  5
7B
330
2
100
AcDbSymbolTableRecord
100
AcDbLayerTableRecord
  2
工作區域參考線
 70
     0
 62
   179
  6
Continuous
370
    -3
390
F
  0
ENDTAB
  0
TABLE
  2
STYLE
  5
3
330
0
100
AcDbSymbolTable
 70
     3
  0
STYLE
  5
11
330
3
100
AcDbSymbolTableRecord
100
AcDbTextStyleTableRecord
  2
Standard
 70
     0
 40
0.0
 41
1.0
 50
0.0
 71
     0
 42
0.79375
  3
txt
  4

  0
STYLE
  5
CC
330
3
100
AcDbSymbolTableRecord
100
AcDbTextStyleTableRecord
  2
SLDTEXTSTYLE0
 70
     0
 40
0.0
 41
0.605
 50
0.0
 71
     0
 42
0.79375
  3
TXT
  4

  0
STYLE
  5
103
330
3
100
AcDbSymbolTableRecord
100
AcDbTextStyleTableRecord
  2
SLDTEXTSTYLE1
 70
     0
 40
0.0
 41
0.7
 50
0.0
 71
     0
 42
0.79375
  3
TXT
  4

  0
ENDTAB
  0
TABLE
  2
VIEW
  5
6
330
0
100
AcDbSymbolTable
 70
     0
  0
ENDTAB
  0
TABLE
  2
UCS
  5
7
330
0
100
AcDbSymbolTable
 70
     0
  0
ENDTAB
  0
TABLE
  2
APPID
  5
9
330
0
100
AcDbSymbolTable
 70
     1
  0
APPID
  5
12
330
9
100
AcDbSymbolTableRecord
100
AcDbRegAppTableRecord
  2
ACAD
 70
     0
  0
ENDTAB
  0
TABLE
  2
DIMSTYLE
  5
A
330
0
100
AcDbSymbolTable
 70
     4
100
AcDbDimStyleTable
  0
DIMSTYLE
105
27
330
A
100
AcDbSymbolTableRecord
100
AcDbDimStyleTableRecord
  2
ISO-25
 70
     0
 41
2.5
 42
0.625
 43
3.75
 44
1.25
 73
     0
 74
     0
 77
     1
 78
     8
140
2.5
141
2.5
143
0.0393700787
147
0.625
171
     3
172
     1
178
     0
271
     2
272
     2
274
     3
278
    44
283
     0
284
     8
340
11
  0
DIMSTYLE
105
133
102
{ACAD_REACTORS
330
132
330
13D
330
147
330
151
102
}
330
A
100
AcDbSymbolTableRecord
100
AcDbDimStyleTableRecord
  2
SLDDIMSTYLE0
 70
     0
 41
0.5
 44
0.0
 45
0.000000001
 73
     0
 74
     0
 77
     1
 78
    12
 79
     3
140
0.6356201172
147
0.1589050293
173
     1
178
     0
271
     2
272
     2
276
     2
284
    12
340
103
  0
DIMSTYLE
105
162
330
A
100
AcDbSymbolTableRecord
100
AcDbDimStyleTableRecord
  2
SLDDIMSTYLE1
 70
     0
 41
0.5
 44
0.0
 45
0.000000001
146
0.5
147
0.0
173
     1
178
     0
271
     0
272
     0
276
     2
340
11
  0
DIMSTYLE
105
167
102
{ACAD_REACTORS
330
166
102
}
330
A
100
AcDbSymbolTableRecord
100
AcDbDimStyleTableRecord
  2
SLDDIMSTYLE2
 70
     0
 41
0.5
 44
0.0
 45
0.000000001
 78
    12
 79
     3
140
0.6356201172
141
0.0
147
0.1589050293
173
     1
178
     0
271
     2
272
     2
276
     2
284
    12
340
103
  0
ENDTAB
  0
TABLE
  2
BLOCK_RECORD
  5
1
330
0
100
AcDbSymbolTable
 70
    11
  0
BLOCK_RECORD
  5
1F
330
1
100
AcDbSymbolTableRecord
100
AcDbBlockTableRecord
  2
*Model_Space
340
22
  0
BLOCK_RECORD
  5
1B
330
1
100
AcDbSymbolTableRecord
100
AcDbBlockTableRecord
  2
*Paper_Space
340
1E
  0
BLOCK_RECORD
  5
23
330
1
100
AcDbSymbolTableRecord
100
AcDbBlockTableRecord
  2
*Paper_Space0
340
26
  0
BLOCK_RECORD
  5
7C
330
1
100
AcDbSymbolTableRecord
100
AcDbBlockTableRecord
  2
圖塊6
340
0
102
{BLKREFS
331
CB
102
}
  0
BLOCK_RECORD
  5
CE
330
1
100
AcDbSymbolTableRecord
100
AcDbBlockTableRecord
  2
SW_NOTE_0
340
0
102
{BLKREFS
331
D4
102
}
  0
BLOCK_RECORD
  5
105
330
1
100
AcDbSymbolTableRecord
100
AcDbBlockTableRecord
  2
SW_NOTE_1
340
0
102
{BLKREFS
331
10A
102
}
  0
BLOCK_RECORD
  5
134
330
1
100
AcDbSymbolTableRecord
100
AcDbBlockTableRecord
  2
_D
340
0
  0
BLOCK_RECORD
  5
13E
330
1
100
AcDbSymbolTableRecord
100
AcDbBlockTableRecord
  2
_D_1
340
0
  0
BLOCK_RECORD
  5
148
330
1
100
AcDbSymbolTableRecord
100
AcDbBlockTableRecord
  2
_D_2
340
0
  0
BLOCK_RECORD
  5
152
330
1
100
AcDbSymbolTableRecord
100
AcDbBlockTableRecord
  2
_D_3
340
0
  0
BLOCK_RECORD
  5
15C
330
1
100
AcDbSymbolTableRecord
100
AcDbBlockTableRecord
  2
SW_NOTE_2
340
0
102
{BLKREFS
331
161
102
}
  0
BLOCK_RECORD
  5
168
330
1
100
AcDbSymbolTableRecord
100
AcDbBlockTableRecord
  2
_D_4
340
0
  0
BLOCK_RECORD
  5
170
330
1
100
AcDbSymbolTableRecord
100
AcDbBlockTableRecord
  2
SW_CENTERMARKSYMBOL_0
340
0
102
{BLKREFS
331
17B
102
}
  0
ENDTAB
  0
ENDSEC
  0
SECTION
  2
BLOCKS
  0
BLOCK
  5
20
330
1F
100
AcDbEntity
  8
0
100
AcDbBlockBegin
  2
*Model_Space
 70
     0
 10
0.0
 20
0.0
 30
0.0
  3
*Model_Space
  1

  0
ENDBLK
  5
21
330
1F
100
AcDbEntity
  8
0
100
AcDbBlockEnd
  0
BLOCK
  5
1C
330
1B
100
AcDbEntity
 67
     1
  8
0
100
AcDbBlockBegin
  2
*Paper_Space
 70
     0
 10
0.0
 20
0.0
 30
0.0
  3
*Paper_Space
  1

  0
ENDBLK
  5
1D
330
1B
100
AcDbEntity
 67
     1
  8
0
100
AcDbBlockEnd
  0
BLOCK
  5
24
330
23
100
AcDbEntity
  8
0
100
AcDbBlockBegin
  2
*Paper_Space0
 70
     0
 10
0.0
 20
0.0
 30
0.0
  3
*Paper_Space0
  1

  0
ENDBLK
  5
25
330
23
100
AcDbEntity
  8
0
100
AcDbBlockEnd
  0
BLOCK
  5
7D
330
7C
100
AcDbEntity
  8
0
100
AcDbBlockBegin
  2
圖塊6
 70
     0
 10
0.0
 20
0.0
 30
0.0
  3
圖塊6
  1

  0
ARC
  5
7F
330
7C
100
AcDbEntity
  8
圖層_1
 62
     7
370
    30
100
AcDbCircle
 10
0.3825386085
 20
1.5255170723
 30
0.0
 40
0.3825386084859175
100
AcDbArc
 50
130.2115225915
 51
228.588904108
  0
ARC
  5
80
330
7C
100
AcDbEntity
  8
圖層_1
 62
     7
370
    30
100
AcDbCircle
 10
1.2127283995
 20
1.4987363604
 30
0.0
 40
0.6443338567044055
100
AcDbArc
 50
140.4331765613
 51
251.0865666567
  0
ARC
  5
81
330
7C
100
AcDbEntity
  8
圖層_1
 62
     7
370
    30
100
AcDbCircle
 10
1.2941260496
 20
1.5779389928
 30
0.0
 40
0.7474091644424657
100
AcDbArc
 50
247.1485306747
 51
309.6030773927
  0
LINE
  5
82
330
7C
100
AcDbEntity
  8
圖層_1
 62
     7
370
    30
100
AcDbLine
 10
0.4622244317
 20
2.1330456496
 30
0.0
 11
0.135567368
 21
1.8176488805
 31
0.0
  0
LINE
  5
83
330
7C
100
AcDbEntity
  8
圖層_1
 62
     7
370
    30
100
AcDbLine
 10
0.1295057225
 20
1.2386196244
 30
0.0
 11
1.1318063
 21
0.3674686644
 31
0.0
  0
LINE
  5
84
330
7C
100
AcDbEntity
  8
圖層_1
 62
     7
370
    30
100
AcDbLine
 10
1.1318063
 20
0.3674686644
 30
0.0
 11
0.9740433199
 21
0.2134935667
 31
0.0
  0
LINE
  5
85
330
7C
100
AcDbEntity
  8
圖層_1
 62
     7
370
    30
100
AcDbLine
 10
0.9740433199
 20
0.2134935667
 30
0.0
 11
1.2220131611
 21
0.0
 31
0.0
  0
LINE
  5
86
330
7C
100
AcDbEntity
  8
圖層_1
 62
     7
370
    30
100
AcDbLine
 10
2.0244292697
 20
0.7791444914
 30
0.0
 11
1.7705735118
 21
1.0020759233
 31
0.0
  0
LINE
  5
87
330
7C
100
AcDbEntity
  8
圖層_1
 62
     7
370
    30
100
AcDbLine
 10
0.7160228936
 20
1.9091626744
 30
0.0
 11
0.4622244317
 21
2.1330456496
 31
0.0
  0
LINE
  5
88
330
7C
100
AcDbEntity
  8
圖層_1
 62
     7
370
    30
100
AcDbLine
 10
1.2220131611
 20
0.0
 30
0.0
 11
2.0244292697
 21
0.7791444914
 31
0.0
  0
ENDBLK
  5
7E
330
7C
100
AcDbEntity
  8
0
100
AcDbBlockEnd
  0
BLOCK
  5
CF
330
CE
100
AcDbEntity
  8
0
100
AcDbBlockBegin
  2
SW_NOTE_0
 70
     0
 10
0.0
 20
0.0
 30
0.0
  3
SW_NOTE_0
  1

  0
MTEXT
  5
D1
330
CE
100
AcDbEntity
  8
0
  6
Continuous
 62
     0
370
     0
100
AcDbMText
 10
0.0
 20
0.8526645987
 30
0.0
 40
0.6614583333
 41
0.0
 71
     1
 72
     1
  1
PROPRIETARY AND CONFIDENTIAL
  7
SLDTEXTSTYLE0
 73
     1
 44
1.0
  0
MTEXT
  5
D2
330
CE
100
AcDbEntity
  8
0
  6
Continuous
 62
     0
370
     0
100
AcDbMText
 10
0.0
 20
-0.02049587
 30
0.0
 40
0.4630208333
 41
0.0
 71
     1
 72
     1
  1
THE INFORMATION CONTAINED IN THIS DRAWING IS THE SOLE PROPERTY OF UNICE E-O SERVICES INC. ANY REPRODUCTION IN PART OR AS A WHOLE WITHOUT THE WRITTEN PERMISSION OF UNICE E-O SERVICES INC IS
  7
SLDTEXTSTYLE0
 73
     1
 44
1.0
  0
MTEXT
  5
D3
330
CE
100
AcDbEntity
  8
0
  6
Continuous
 62
     0
370
     0
100
AcDbMText
 10
0.0
 20
-0.6378569737
 30
0.0
 40
0.4630208333
 41
0.0
 71
     1
 72
     1
  1
PROHIBITED.
  7
SLDTEXTSTYLE0
 73
     1
 44
1.0
  0
ENDBLK
  5
D0
330
CE
100
AcDbEntity
  8
0
100
AcDbBlockEnd
  0
BLOCK
  5
106
330
105
100
AcDbEntity
  8
0
100
AcDbBlockBegin
  2
SW_NOTE_1
 70
     0
 10
0.0
 20
0.0
 30
0.0
  3
SW_NOTE_1
  1

  0
MTEXT
  5
108
330
105
100
AcDbEntity
  8
SLD-0
 62
     0
100
AcDbMText
 10
0.0
 20
0.5115987592
 30
0.0
 40
0.396875
 41
0.0
 71
     1
 72
     1
  1
No.5, Andong Rd., Chung Li District,
  7
SLDTEXTSTYLE0
 73
     1
 44
1.0
  0
MTEXT
  5
109
330
105
100
AcDbEntity
  8
SLD-0
 62
     0
100
AcDbMText
 10
0.0
 20
-0.017567901
 30
0.0
 40
0.396875
 41
0.0
 71
     1
 72
     1
  1
Taoyuan City 32063, Taiwan, R.O.C.
  7
SLDTEXTSTYLE0
 73
     1
 44
1.0
  0
ENDBLK
  5
107
330
105
100
AcDbEntity
  8
0
100
AcDbBlockEnd
  0
BLOCK
  5
135
330
134
100
AcDbEntity
  8
0
100
AcDbBlockBegin
  2
_D
 70
     0
 10
0.0
 20
0.0
 30
0.0
  3
_D
  1

  0
SOLID
  5
137
330
134
100
AcDbEntity
  8
DIM
100
AcDbTrace
 10
9.0783402887
 20
13.0460834777
 30
0.0
 11
9.5783402887
 21
12.9835834777
 31
0.0
 12
9.5783402887
 22
13.1085834777
 32
0.0
 13
9.5783402887
 23
13.1085834777
 33
0.0
  0
SOLID
  5
138
330
134
100
AcDbEntity
  8
DIM
100
AcDbTrace
 10
39.0783402887
 20
13.0460834777
 30
0.0
 11
38.5783402887
 21
13.1085834777
 31
0.0
 12
38.5783402887
 22
12.9835834777
 32
0.0
 13
38.5783402887
 23
12.9835834777
 33
0.0
  0
LINE
  5
139
330
134
100
AcDbEntity
  8
DIM
100
AcDbLine
 10
9.0783402887
 20
21.5460834777
 30
0.0
 11
9.0783402887
 21
12.7960834777
 31
0.0
  0
LINE
  5
13A
330
134
100
AcDbEntity
  8
DIM
100
AcDbLine
 10
39.0783402887
 20
17.5460834777
 30
0.0
 11
39.0783402887
 21
12.7960834777
 31
0.0
  0
LINE
  5
13B
330
134
100
AcDbEntity
  8
DIM
100
AcDbLine
 10
9.0783402887
 20
13.0460834777
 30
0.0
 11
39.0783402887
 21
13.0460834777
 31
0.0
  0
MTEXT
  5
13C
330
134
100
AcDbEntity
  8
DIM
100
AcDbMText
 10
23.7057187669
 20
13.8134815874
 30
0.0
 40
0.5953125
 41
0.0
 71
     1
 72
     1
  1
30
  7
SLDTEXTSTYLE1
 73
     1
 44
1.0
  0
ENDBLK
  5
136
330
134
100
AcDbEntity
  8
0
100
AcDbBlockEnd
  0
BLOCK
  5
13F
330
13E
100
AcDbEntity
  8
0
100
AcDbBlockBegin
  2
_D_1
 70
     0
 10
0.0
 20
0.0
 30
0.0
  3
_D_1
  1

  0
SOLID
  5
141
330
13E
100
AcDbEntity
  8
DIM
100
AcDbTrace
 10
9.0783402887
 20
14.2960834777
 30
0.0
 11
9.5783402887
 21
14.2335834777
 31
0.0
 12
9.5783402887
 22
14.3585834777
 32
0.0
 13
9.5783402887
 23
14.3585834777
 33
0.0
  0
SOLID
  5
142
330
13E
100
AcDbEntity
  8
DIM
100
AcDbTrace
 10
31.0783402887
 20
14.2960834777
 30
0.0
 11
30.5783402887
 21
14.3585834777
 31
0.0
 12
30.5783402887
 22
14.2335834777
 32
0.0
 13
30.5783402887
 23
14.2335834777
 33
0.0
  0
LINE
  5
143
330
13E
100
AcDbEntity
  8
DIM
100
AcDbLine
 10
9.0783402887
 20
21.5460834777
 30
0.0
 11
9.0783402887
 21
14.0460834777
 31
0.0
  0
LINE
  5
144
330
13E
100
AcDbEntity
  8
DIM
100
AcDbLine
 10
31.0783402887
 20
17.5460834777
 30
0.0
 11
31.0783402887
 21
14.0460834777
 31
0.0
  0
LINE
  5
145
330
13E
100
AcDbEntity
  8
DIM
100
AcDbLine
 10
9.0783402887
 20
14.2960834777
 30
0.0
 11
31.0783402887
 21
14.2960834777
 31
0.0
  0
MTEXT
  5
146
330
13E
100
AcDbEntity
  8
DIM
100
AcDbMText
 10
19.7057187669
 20
15.0634815875
 30
0.0
 40
0.5953125
 41
0.0
 71
     1
 72
     1
  1
22
  7
SLDTEXTSTYLE1
 73
     1
 44
1.0
  0
ENDBLK
  5
140
330
13E
100
AcDbEntity
  8
0
100
AcDbBlockEnd
  0
BLOCK
  5
149
330
148
100
AcDbEntity
  8
0
100
AcDbBlockBegin
  2
_D_2
 70
     0
 10
0.0
 20
0.0
 30
0.0
  3
_D_2
  1

  0
SOLID
  5
14B
330
148
100
AcDbEntity
  8
DIM
100
AcDbTrace
 10
17.0783402887
 20
15.5460834777
 30
0.0
 11
17.5783402887
 21
15.4835834777
 31
0.0
 12
17.5783402887
 22
15.6085834777
 32
0.0
 13
17.5783402887
 23
15.6085834777
 33
0.0
  0
SOLID
  5
14C
330
148
100
AcDbEntity
  8
DIM
100
AcDbTrace
 10
25.0783402887
 20
15.5460834777
 30
0.0
 11
24.5783402887
 21
15.6085834777
 31
0.0
 12
24.5783402887
 22
15.4835834777
 32
0.0
 13
24.5783402887
 23
15.4835834777
 33
0.0
  0
LINE
  5
14D
330
148
100
AcDbEntity
  8
DIM
100
AcDbLine
 10
17.0783402887
 20
18.8460834777
 30
0.0
 11
17.0783402887
 21
15.2960834777
 31
0.0
  0
LINE
  5
14E
330
148
100
AcDbEntity
  8
DIM
100
AcDbLine
 10
25.0783402887
 20
18.8460834777
 30
0.0
 11
25.0783402887
 21
15.2960834777
 31
0.0
  0
LINE
  5
14F
330
148
100
AcDbEntity
  8
DIM
100
AcDbLine
 10
17.0783402887
 20
15.5460834777
 30
0.0
 11
25.0783402887
 21
15.5460834777
 31
0.0
  0
MTEXT
  5
150
330
148
100
AcDbEntity
  8
DIM
100
AcDbMText
 10
20.8920295278
 20
16.3134815875
 30
0.0
 40
0.5953125
 41
0.0
 71
     1
 72
     1
  1
8
  7
SLDTEXTSTYLE1
 73
     1
 44
1.0
  0
ENDBLK
  5
14A
330
148
100
AcDbEntity
  8
0
100
AcDbBlockEnd
  0
BLOCK
  5
153
330
152
100
AcDbEntity
  8
0
100
AcDbBlockBegin
  2
_D_3
 70
     0
 10
0.0
 20
0.0
 30
0.0
  3
_D_3
  1

  0
SOLID
  5
155
330
152
100
AcDbEntity
  8
DIM
100
AcDbTrace
 10
7.3283402887
 20
24.7960834777
 30
0.0
 11
7.2658402887
 21
24.2960834777
 31
0.0
 12
7.3908402887
 22
24.2960834777
 32
0.0
 13
7.3908402887
 23
24.2960834777
 33
0.0
  0
SOLID
  5
156
330
152
100
AcDbEntity
  8
DIM
100
AcDbTrace
 10
7.3283402887
 20
18.7960834777
 30
0.0
 11
7.3908402887
 21
19.2960834777
 31
0.0
 12
7.2658402887
 22
19.2960834777
 32
0.0
 13
7.2658402887
 23
19.2960834777
 33
0.0
  0
LINE
  5
157
330
152
100
AcDbEntity
  8
DIM
100
AcDbLine
 10
17.8283402887
 20
24.7960834777
 30
0.0
 11
7.0783402887
 21
24.7960834777
 31
0.0
  0
LINE
  5
158
330
152
100
AcDbEntity
  8
DIM
100
AcDbLine
 10
17.8283402887
 20
18.7960834777
 30
0.0
 11
7.0783402887
 21
18.7960834777
 31
0.0
  0
LINE
  5
159
330
152
100
AcDbEntity
  8
DIM
100
AcDbLine
 10
7.3283402887
 20
24.7960834777
 30
0.0
 11
7.3283402887
 21
18.7960834777
 31
0.0
  0
MTEXT
  5
15A
330
152
100
AcDbEntity
  8
DIM
100
AcDbMText
 10
6.5609421207
 20
21.2327414699
 30
0.0
 40
0.5953125
 41
0.0
 71
     1
 72
     1
  1
%%c
  7
SLDTEXTSTYLE1
 11
-1.770233605404514E-14
 21
1.0
 31
0.0
 73
     1
 44
1.0
  0
MTEXT
  5
15B
330
152
100
AcDbEntity
  8
DIM
100
AcDbMText
 10
6.5609421207
 20
21.9868039637
 30
0.0
 40
0.5953125
 41
0.0
 71
     1
 72
     1
  1
6
  7
SLDTEXTSTYLE1
 11
-1.770233605404514E-14
 21
1.0
 31
0.0
 73
     1
 44
1.0
  0
ENDBLK
  5
154
330
152
100
AcDbEntity
  8
0
100
AcDbBlockEnd
  0
BLOCK
  5
15D
330
15C
100
AcDbEntity
  8
0
100
AcDbBlockBegin
  2
SW_NOTE_2
 70
     0
 10
0.0
 20
0.0
 30
0.0
  3
SW_NOTE_2
  1

  0
LINE
  5
15F
330
15C
100
AcDbEntity
  8
DIM
 62
     0
100
AcDbLine
 10
3.4481643227
 20
0.0
 30
0.0
 11
0.0
 21
0.0
 31
0.0
  0
MTEXT
  5
160
330
15C
100
AcDbEntity
  8
DIM
 62
     0
100
AcDbMText
 10
0.1236127168
 20
0.7752882831
 30
0.0
 40
0.5953125
 41
0.0
 71
     1
 72
     1
  1
#8-80 THD
  7
SLDTEXTSTYLE1
 73
     1
 44
1.0
  0
ENDBLK
  5
15E
330
15C
100
AcDbEntity
  8
0
100
AcDbBlockEnd
  0
BLOCK
  5
169
330
168
100
AcDbEntity
  8
0
100
AcDbBlockBegin
  2
_D_4
 70
     0
 10
0.0
 20
0.0
 30
0.0
  3
_D_4
  1

  0
SOLID
  5
16B
330
168
100
AcDbEntity
  8
DIM
100
AcDbTrace
 10
49.1340392582
 20
24.9558066186
 30
0.0
 11
48.8219150483
 21
25.3513881243
 31
0.0
 12
48.7341449611
 22
25.2623858109
 32
0.0
 13
48.7341449611
 23
25.2623858109
 33
0.0
  0
LINE
  5
16C
330
168
100
AcDbEntity
  8
DIM
100
AcDbLine
 10
49.1340392582
 20
24.9558066186
 30
0.0
 11
45.354635819
 21
28.6828846803
 31
0.0
  0
LINE
  5
16D
330
168
100
AcDbEntity
  8
DIM
100
AcDbLine
 10
45.354635819
 20
28.6828846803
 30
0.0
 11
43.9154518034
 21
28.6828846803
 31
0.0
  0
MTEXT
  5
16E
330
168
100
AcDbEntity
  8
DIM
100
AcDbMText
 10
43.9154518034
 20
29.4502828483
 30
0.0
 40
0.5953125
 41
0.0
 71
     1
 72
     1
  1
%%c
  7
SLDTEXTSTYLE1
 73
     1
 44
1.0
  0
MTEXT
  5
16F
330
168
100
AcDbEntity
  8
DIM
100
AcDbMText
 10
44.6695142972
 20
29.4502828483
 30
0.0
 40
0.5953125
 41
0.0
 71
     1
 72
     1
  1
9
  7
SLDTEXTSTYLE1
 73
     1
 44
1.0
  0
ENDBLK
  5
16A
330
168
100
AcDbEntity
  8
0
100
AcDbBlockEnd
  0
BLOCK
  5
171
330
170
100
AcDbEntity
  8
0
100
AcDbBlockBegin
  2
SW_CENTERMARKSYMBOL_0
 70
     0
 10
0.0
 20
0.0
 30
0.0
  3
SW_CENTERMARKSYMBOL_0
  1

  0
LINE
  5
173
330
170
100
AcDbEntity
  8
DIM
 62
     0
100
AcDbLine
 10
0.0
 20
0.0
 30
0.0
 11
0.0
 21
1.0
 31
0.0
  0
LINE
  5
174
330
170
100
AcDbEntity
  8
DIM
 62
     0
100
AcDbLine
 10
0.0
 20
0.0
 30
0.0
 11
-1.0
 21
0.0
 31
0.0
  0
LINE
  5
175
330
170
100
AcDbEntity
  8
DIM
 62
     0
100
AcDbLine
 10
0.0
 20
0.0
 30
0.0
 11
0.0
 21
-1.0
 31
0.0
  0
LINE
  5
176
330
170
100
AcDbEntity
  8
DIM
 62
     0
100
AcDbLine
 10
0.0
 20
0.0
 30
0.0
 11
1.0
 21
0.0
 31
0.0
  0
LINE
  5
177
330
170
100
AcDbEntity
  8
DIM
 62
     0
100
AcDbLine
 10
0.0
 20
2.0
 30
0.0
 11
0.0
 21
5.5
 31
0.0
  0
LINE
  5
178
330
170
100
AcDbEntity
  8
DIM
 62
     0
100
AcDbLine
 10
-2.0
 20
0.0
 30
0.0
 11
-5.5
 21
0.0
 31
0.0
  0
LINE
  5
179
330
170
100
AcDbEntity
  8
DIM
 62
     0
100
AcDbLine
 10
0.0
 20
-2.0
 30
0.0
 11
0.0
 21
-5.5
 31
0.0
  0
LINE
  5
17A
330
170
100
AcDbEntity
  8
DIM
 62
     0
100
AcDbLine
 10
2.0
 20
0.0
 30
0.0
 11
5.5
 21
0.0
 31
0.0
  0
ENDBLK
  5
172
330
170
100
AcDbEntity
  8
0
100
AcDbBlockEnd
  0
ENDSEC
  0
SECTION
  2
ENTITIES
  0
HATCH
  5
89
330
1F
100
AcDbEntity
  8
0
  6
Continuous
 62
     7
100
AcDbHatch
 10
0.0
 20
0.0
 30
0.0
210
0.0
220
0.0
230
1.0
  2
SOLID
 70
     1
 71
     0
 91
        1
 92
        0
 93
       10
 72
     2
 10
48.03514914073417
 20
8.938952202472139
 40
0.7474091644424647
 50
50.39692260731407
 51
112.8514693252983
 73
     0
 72
     2
 10
47.953751490703
 20
8.859749570015511
 40
0.6443338567044047
 50
108.9134333432861
 51
219.5668234386827
 73
     0
 72
     1
 10
47.45704598474008
 20
9.270175884037526
 11
47.20324752288947
 21
9.494058859241965
 72
     1
 10
47.20324752288947
 20
9.494058859241965
 11
46.87659045916906
 21
9.17866209011509
 72
     2
 10
47.12356169965972
 20
8.886530281931115
 40
0.3825386084859154
 50
130.2115225915088
 51
228.5889041080191
 73
     1
 72
     1
 10
46.87052881366275
 20
8.599632834074944
 11
47.87282939121165
 21
7.728481874006276
 72
     1
 10
47.87282939121165
 20
7.728481874006276
 11
47.71506641110787
 21
7.574506776388517
 72
     1
 10
47.71506641110787
 20
7.574506776388517
 11
47.96303625228926
 21
7.361013209650061
 72
     1
 10
47.96303625228926
 20
7.361013209650061
 11
48.76545236088057
 21
8.140157701028931
 72
     1
 10
48.76545236088057
 20
8.140157701028931
 11
48.51159660296603
 21
8.363089132962207
 97
        0
 75
     0
 76
     1
 98
        1
 10
0.0
 20
0.0
  0
HATCH
  5
8A
330
1F
100
AcDbEntity
  8
0
  6
Continuous
 62
     1
100
AcDbHatch
 10
0.0
 20
0.0
 30
0.0
210
0.0
220
0.0
230
1.0
  2
SOLID
 70
     1
 71
     0
 91
        1
 92
        0
 93
       10
 72
     2
 10
48.14731139069221
 20
8.915767289079024
 40
0.6443918720865625
 50
317.8184992995785
 51
398.0564711573078
 73
     0
 72
     1
 10
48.65470785145408
 20
8.518539751743617
 11
48.90107007469978
 21
8.303865516771245
 72
     1
 10
48.90107007469978
 20
8.303865516771245
 11
49.21149040339822
 21
8.604973752373049
 72
     2
 10
48.98814232198269
 20
8.911960435328279
 40
0.3796382343545663
 50
306.0377529468138
 51
403.4396461533871
 73
     1
 72
     1
 10
49.26379728815077
 20
9.172995928337816
 11
48.23210832356494
 21
10.0702899954963
 72
     1
 10
48.23210832356494
 20
10.0702899954963
 11
48.38817114904676
 21
10.22255460320564
 72
     1
 10
48.38817114904676
 20
10.22255460320564
 11
48.15554452150075
 21
10.43010265816676
 72
     1
 10
48.15554452150075
 20
10.43010265816676
 11
47.34664815939828
 21
9.648372596513244
 72
     1
 10
47.34664815939828
 20
9.648372596513244
 11
47.60225012873542
 21
9.425424964733045
 72
     2
 10
48.06789731801109
 20
8.78056183770948
 40
0.795409176131969
 50
234.1674444878512
 51
314.4407074583994
 73
     0
 97
        0
 75
     0
 76
     1
 98
        1
 10
0.0
 20
0.0
  0
LINE
  5
8B
330
1F
100
AcDbEntity
  8
0
  6
Continuous
 62
     7
370
     0
100
AcDbLine
 10
41.9648443796
 20
4.4436298128
 30
0.0
 11
42.2148443796
 21
4.4436298128
 31
0.0
  0
LINE
  5
8C
330
1F
100
AcDbEntity
  8
0
  6
Continuous
 62
     7
370
     0
100
AcDbLine
 10
41.2148443796
 20
4.4436298128
 30
0.0
 11
41.8398443796
 21
4.4436298128
 31
0.0
  0
LINE
  5
8D
330
1F
100
AcDbEntity
  8
0
  6
Continuous
 62
     7
370
     0
100
AcDbLine
 10
45.3398443796
 20
3.8186298128
 30
0.0
 11
45.3398443796
 21
5.0686298128
 31
0.0
  0
LINE
  5
8E
330
1F
100
AcDbEntity
  8
0
  6
Continuous
 62
     7
370
     0
100
AcDbLine
 10
43.5898443796
 20
4.0686298128
 30
0.0
 11
45.3398443796
 21
3.8186298128
 31
0.0
  0
LINE
  5
8F
330
1F
100
AcDbEntity
  8
0
  6
Continuous
 62
     7
370
     0
100
AcDbLine
 10
42.0898443796
 20
4.1936298128
 30
0.0
 11
42.0898443796
 21
3.5686298128
 31
0.0
  0
LINE
  5
90
330
1F
100
AcDbEntity
  8
0
  6
Continuous
 62
     7
370
     0
100
AcDbLine
 10
45.3398443796
 20
5.0686298128
 30
0.0
 11
43.5898443796
 21
4.8186298128
 31
0.0
  0
LINE
  5
91
330
1F
100
AcDbEntity
  8
0
  6
Continuous
 62
     7
370
     0
100
AcDbLine
 10
43.3398443796
 20
4.4436298128
 30
0.0
 11
45.5898443796
 21
4.4436298128
 31
0.0
  0
LINE
  5
92
330
1F
100
AcDbEntity
  8
0
  6
Continuous
 62
     7
370
     0
100
AcDbLine
 10
42.0898443796
 20
4.5686298128
 30
0.0
 11
42.0898443796
 21
4.3186298128
 31
0.0
  0
LINE
  5
93
330
1F
100
AcDbEntity
  8
0
  6
Continuous
 62
     7
370
     0
100
AcDbLine
 10
42.3398443796
 20
4.4436298128
 30
0.0
 11
42.9648443796
 21
4.4436298128
 31
0.0
  0
LINE
  5
94
330
1F
100
AcDbEntity
  8
0
  6
Continuous
 62
     7
370
     0
100
AcDbLine
 10
42.0898443796
 20
5.3186298128
 30
0.0
 11
42.0898443796
 21
4.6936298128
 31
0.0
  0
LINE
  5
95
330
1F
100
AcDbEntity
  8
0
  6
Continuous
 62
     7
370
     0
100
AcDbLine
 10
43.5898443796
 20
4.8186298128
 30
0.0
 11
43.5898443796
 21
4.0686298128
 31
0.0
  0
LINE
  5
96
330
1F
100
AcDbEntity
  8
工作區域參考線
 62
     1
370
    30
100
AcDbLine
 10
47.6022501287
 20
9.4254249647
 30
0.0
 11
47.3466481594
 21
9.6483725965
 31
0.0
  0
LINE
  5
97
330
1F
100
AcDbEntity
  8
工作區域參考線
 62
     1
370
    30
100
AcDbLine
 10
47.3466481594
 20
9.6483725965
 30
0.0
 11
48.1555445215
 21
10.4301026582
 31
0.0
  0
LINE
  5
98
330
1F
100
AcDbEntity
  8
工作區域參考線
 62
     1
370
    30
100
AcDbLine
 10
48.1555445215
 20
10.4301026582
 30
0.0
 11
48.388171149
 21
10.2225546032
 31
0.0
  0
LINE
  5
99
330
1F
100
AcDbEntity
  8
工作區域參考線
 62
     1
370
    30
100
AcDbLine
 10
48.388171149
 20
10.2225546032
 30
0.0
 11
48.2321083236
 21
10.0702899955
 31
0.0
  0
LINE
  5
9A
330
1F
100
AcDbEntity
  8
工作區域參考線
 62
     1
370
    30
100
AcDbLine
 10
48.2321083236
 20
10.0702899955
 30
0.0
 11
49.2637972882
 21
9.1729959283
 31
0.0
  0
LINE
  5
9B
330
1F
100
AcDbEntity
  8
工作區域參考線
 62
     1
370
    30
100
AcDbLine
 10
48.6547078515
 20
8.5185397517
 30
0.0
 11
48.9010700747
 21
8.3038655168
 31
0.0
  0
LINE
  5
9C
330
1F
100
AcDbEntity
  8
工作區域參考線
 62
     1
370
    30
100
AcDbLine
 10
48.9010700747
 20
8.3038655168
 30
0.0
 11
49.2114904034
 21
8.6049737524
 31
0.0
  0
LINE
  5
9D
330
1F
100
AcDbEntity
  8
0
  6
Continuous
 62
     7
370
     0
100
AcDbLine
 10
46.4226991302
 20
3.278811602
 30
0.0
 11
71.4226991302
 21
3.278811602
 31
0.0
  0
LINE
  5
9E
330
1F
100
AcDbEntity
  8
0
  6
Continuous
 62
     7
370
     0
100
AcDbLine
 10
46.4226991302
 20
4.528811602
 30
0.0
 11
58.9226991302
 21
4.528811602
 31
0.0
  0
LINE
  5
9F
330
1F
100
AcDbEntity
  8
0
  6
Continuous
 62
     7
370
     0
100
AcDbLine
 10
46.4226991302
 20
5.778811602
 30
0.0
 11
58.9226991302
 21
5.778811602
 31
0.0
  0
LINE
  5
A0
330
1F
100
AcDbEntity
  8
0
  6
Continuous
 62
     7
370
     0
100
AcDbLine
 10
46.4226991302
 20
7.028811602
 30
0.0
 11
71.4226991302
 21
7.028811602
 31
0.0
  0
LINE
  5
A1
330
1F
100
AcDbEntity
  8
0
  6
Continuous
 62
     7
370
     0
100
AcDbLine
 10
58.9226991302
 20
8.278811602
 30
0.0
 11
71.4226991302
 21
8.278811602
 31
0.0
  0
LINE
  5
A2
330
1F
100
AcDbEntity
  8
0
  6
Continuous
 62
     7
370
    15
100
AcDbLine
 10
58.9226991302
 20
4.528811602
 30
0.0
 11
71.4226991302
 21
4.528811602
 31
0.0
  0
LINE
  5
A3
330
1F
100
AcDbEntity
  8
0
  6
Continuous
 62
     7
370
     0
100
AcDbLine
 10
46.4226991302
 20
10.778811602
 30
0.0
 11
71.4226991302
 21
10.778811602
 31
0.0
  0
LINE
  5
A4
330
1F
100
AcDbEntity
  8
0
  6
Continuous
 62
     7
370
     0
100
AcDbLine
 10
62.8093044188
 20
2.028811602
 30
0.0
 11
62.8093044188
 21
4.528811602
 31
0.0
  0
LINE
  5
A5
330
1F
100
AcDbEntity
  8
0
  6
Continuous
 62
     7
370
     0
100
AcDbLine
 10
58.9226991302
 20
2.028811602
 30
0.0
 11
58.9226991302
 21
10.778811602
 31
0.0
  0
LINE
  5
A6
330
1F
100
AcDbEntity
  8
0
  6
Continuous
 62
     7
370
     0
100
AcDbLine
 10
62.8093044188
 20
7.028811602
 30
0.0
 11
62.8093044188
 21
8.278811602
 31
0.0
  0
LINE
  5
A7
330
1F
100
AcDbEntity
  8
0
  6
Continuous
 62
     7
370
     0
100
AcDbLine
 10
53.6041021588
 20
2.028811602
 30
0.0
 11
53.6041021588
 21
7.028811602
 31
0.0
  0
LINE
  5
A8
330
1F
100
AcDbEntity
  8
0
  6
Continuous
 62
     7
370
     0
100
AcDbLine
 10
49.9446471876
 20
2.028811602
 30
0.0
 11
49.9446471876
 21
7.028811602
 31
0.0
  0
LINE
  5
A9
330
1F
100
AcDbEntity
  8
0
  6
Continuous
 62
     7
370
     0
100
AcDbLine
 10
46.4226991302
 20
2.028811602
 30
0.0
 11
46.4226991302
 21
10.778811602
 31
0.0
  0
LINE
  5
AA
330
1F
100
AcDbEntity
  8
0
  6
Continuous
 62
     7
370
    15
100
AcDbLine
 10
10.8301991302
 20
50.3430068938
 30
0.0
 11
10.8301991302
 21
50.7180068938
 31
0.0
  0
LINE
  5
AB
330
1F
100
AcDbEntity
  8
0
  6
Continuous
 62
     7
370
    15
100
AcDbLine
 10
19.4876991302
 20
50.3430068938
 30
0.0
 11
19.4876991302
 21
50.7180068938
 31
0.0
  0
LINE
  5
AC
330
1F
100
AcDbEntity
  8
0
  6
Continuous
 62
     7
370
    15
100
AcDbLine
 10
28.1451991302
 20
50.3430068938
 30
0.0
 11
28.1451991302
 21
50.7180068938
 31
0.0
  0
LINE
  5
AD
330
1F
100
AcDbEntity
  8
0
  6
Continuous
 62
     7
370
    15
100
AcDbLine
 10
36.8026991302
 20
50.3430068938
 30
0.0
 11
36.8026991302
 21
50.7180068938
 31
0.0
  0
LINE
  5
AE
330
1F
100
AcDbEntity
  8
0
  6
Continuous
 62
     7
370
    15
100
AcDbLine
 10
45.4601991302
 20
50.3430068938
 30
0.0
 11
45.4601991302
 21
50.7180068938
 31
0.0
  0
LINE
  5
AF
330
1F
100
AcDbEntity
  8
0
  6
Continuous
 62
     7
370
    15
100
AcDbLine
 10
54.1176991302
 20
50.3430068938
 30
0.0
 11
54.1176991302
 21
50.7180068938
 31
0.0
  0
LINE
  5
B0
330
1F
100
AcDbEntity
  8
0
  6
Continuous
 62
     7
370
    15
100
AcDbLine
 10
62.7751991302
 20
50.3430068938
 30
0.0
 11
62.7751991302
 21
50.7180068938
 31
0.0
  0
LINE
  5
B1
330
1F
100
AcDbEntity
  8
0
  6
Continuous
 62
     7
370
    15
100
AcDbLine
 10
10.8289491302
 20
2.028811602
 30
0.0
 11
10.8289491302
 21
1.653811602
 31
0.0
  0
LINE
  5
B2
330
1F
100
AcDbEntity
  8
0
  6
Continuous
 62
     7
370
    15
100
AcDbLine
 10
19.4851991302
 20
2.028811602
 30
0.0
 11
19.4851991302
 21
1.653811602
 31
0.0
  0
LINE
  5
B3
330
1F
100
AcDbEntity
  8
0
  6
Continuous
 62
     7
370
    15
100
AcDbLine
 10
28.1414491302
 20
2.028811602
 30
0.0
 11
28.1414491302
 21
1.653811602
 31
0.0
  0
LINE
  5
B4
330
1F
100
AcDbEntity
  8
0
  6
Continuous
 62
     7
370
    15
100
AcDbLine
 10
36.7976991302
 20
2.028811602
 30
0.0
 11
36.7976991302
 21
1.653811602
 31
0.0
  0
LINE
  5
B5
330
1F
100
AcDbEntity
  8
0
  6
Continuous
 62
     7
370
    15
100
AcDbLine
 10
45.4539491302
 20
2.028811602
 30
0.0
 11
45.4539491302
 21
1.653811602
 31
0.0
  0
LINE
  5
B6
330
1F
100
AcDbEntity
  8
0
  6
Continuous
 62
     7
370
    15
100
AcDbLine
 10
54.1101991302
 20
2.028811602
 30
0.0
 11
54.1101991302
 21
1.653811602
 31
0.0
  0
LINE
  5
B7
330
1F
100
AcDbEntity
  8
0
  6
Continuous
 62
     7
370
     0
100
AcDbLine
 10
71.4226991302
 20
50.3430068938
 30
0.0
 11
2.1726991302
 21
50.3430068938
 31
0.0
  0
LINE
  5
B8
330
1F
100
AcDbEntity
  8
0
  6
Continuous
 62
     7
370
     0
100
AcDbLine
 10
71.4226991302
 20
2.028811602
 30
0.0
 11
71.4226991302
 21
50.3430068938
 31
0.0
  0
LINE
  5
B9
330
1F
100
AcDbEntity
  8
0
  6
Continuous
 62
     7
370
     0
100
AcDbLine
 10
2.1726991302
 20
50.3430068938
 30
0.0
 11
2.1726991302
 21
2.028811602
 31
0.0
  0
LINE
  5
BA
330
1F
100
AcDbEntity
  8
0
  6
Continuous
 62
     7
370
     0
100
AcDbLine
 10
2.1726991302
 20
2.028811602
 30
0.0
 11
71.4226991302
 21
2.028811602
 31
0.0
  0
LINE
  5
BB
330
1F
100
AcDbEntity
  8
0
  6
Continuous
 62
     7
370
    15
100
AcDbLine
 10
62.7664491302
 20
2.028811602
 30
0.0
 11
62.7664491302
 21
1.653811602
 31
0.0
  0
LINE
  5
BC
330
1F
100
AcDbEntity
  8
0
  6
Continuous
 62
     7
370
    15
100
AcDbLine
 10
2.1726991302
 20
10.081311602
 30
0.0
 11
1.7976991302
 21
10.081311602
 31
0.0
  0
LINE
  5
BD
330
1F
100
AcDbEntity
  8
0
  6
Continuous
 62
     7
370
    15
100
AcDbLine
 10
2.1726991302
 20
18.133811602
 30
0.0
 11
1.7976991302
 21
18.133811602
 31
0.0
  0
LINE
  5
BE
330
1F
100
AcDbEntity
  8
0
  6
Continuous
 62
     7
370
    15
100
AcDbLine
 10
2.1726991302
 20
26.186311602
 30
0.0
 11
1.7976991302
 21
26.186311602
 31
0.0
  0
LINE
  5
BF
330
1F
100
AcDbEntity
  8
0
  6
Continuous
 62
     7
370
    15
100
AcDbLine
 10
2.1726991302
 20
34.238811602
 30
0.0
 11
1.7976991302
 21
34.238811602
 31
0.0
  0
LINE
  5
C0
330
1F
100
AcDbEntity
  8
0
  6
Continuous
 62
     7
370
    15
100
AcDbLine
 10
2.1726991302
 20
42.291311602
 30
0.0
 11
1.7976991302
 21
42.291311602
 31
0.0
  0
LINE
  5
C1
330
1F
100
AcDbEntity
  8
0
  6
Continuous
 62
     7
370
    15
100
AcDbLine
 10
71.4226991302
 20
10.081311602
 30
0.0
 11
71.7976991302
 21
10.081311602
 31
0.0
  0
LINE
  5
C2
330
1F
100
AcDbEntity
  8
0
  6
Continuous
 62
     7
370
    15
100
AcDbLine
 10
71.4226991302
 20
18.133811602
 30
0.0
 11
71.7976991302
 21
18.133811602
 31
0.0
  0
LINE
  5
C3
330
1F
100
AcDbEntity
  8
0
  6
Continuous
 62
     7
370
    15
100
AcDbLine
 10
71.4226991302
 20
26.186311602
 30
0.0
 11
71.7976991302
 21
26.186311602
 31
0.0
  0
LINE
  5
C4
330
1F
100
AcDbEntity
  8
0
  6
Continuous
 62
     7
370
    15
100
AcDbLine
 10
71.4226991302
 20
34.238811602
 30
0.0
 11
71.7976991302
 21
34.238811602
 31
0.0
  0
LINE
  5
C5
330
1F
100
AcDbEntity
  8
0
  6
Continuous
 62
     7
370
    15
100
AcDbLine
 10
71.4226991302
 20
42.291311602
 30
0.0
 11
71.7976991302
 21
42.291311602
 31
0.0
  0
CIRCLE
  5
C6
330
1F
100
AcDbEntity
  8
0
  6
Continuous
 62
     7
370
     0
100
AcDbCircle
 10
42.0898443796
 20
4.4436298128
 30
0.0
 40
0.375
  0
CIRCLE
  5
C7
330
1F
100
AcDbEntity
  8
0
  6
Continuous
 62
     7
370
     0
100
AcDbCircle
 10
42.0898443796
 20
4.4436298128
 30
0.0
 40
0.625
  0
ARC
  5
C8
330
1F
100
AcDbEntity
  8
工作區域參考線
 62
     1
370
    30
100
AcDbCircle
 10
48.988142322
 20
8.9119604353
 30
0.0
 40
0.3796382343545687
100
AcDbArc
 50
306.0377529468
 51
43.4396461534
  0
ARC
  5
C9
330
1F
100
AcDbEntity
  8
工作區域參考線
 62
     1
370
    30
100
AcDbCircle
 10
48.067897318
 20
8.7805618377
 30
0.0
 40
0.7954091761319727
100
AcDbArc
 50
45.5592925416
 51
125.8325555121
  0
ARC
  5
CA
330
1F
100
AcDbEntity
  8
工作區域參考線
 62
     1
370
    30
100
AcDbCircle
 10
48.1473113907
 20
8.9157672891
 30
0.0
 40
0.6443918720865666
100
AcDbArc
 50
321.9435288427
 51
42.1815007004
  0
INSERT
  5
CB
330
1F
100
AcDbEntity
  8
0
  6
Continuous
 62
     7
100
AcDbBlockReference
  2
圖塊6
 10
46.7410230912
 20
7.3610132097
 30
0.0
  0
MTEXT
  5
CD
330
1F
100
AcDbEntity
  8
0
  6
Continuous
 62
     7
370
     0
100
AcDbMText
 10
41.3856712701
 20
3.3052110092
 30
0.0
 40
0.6614583333
 41
0.0
 71
     1
 72
     1
  1
UNIT:m/m
  7
SLDTEXTSTYLE0
 73
     1
 44
1.0
  0
INSERT
  5
D4
330
1F
100
AcDbEntity
  8
0
  6
Continuous
 62
     7
370
     0
100
AcDbBlockReference
  2
SW_NOTE_0
 10
3.0578769013
 20
48.4726076063
 30
0.0
  0
MTEXT
  5
D5
330
1F
100
AcDbEntity
  8
0
  6
Continuous
 62
     7
370
     0
100
AcDbMText
 10
49.6812973484
 20
10.1101693535
 30
0.0
 40
0.5953125
 41
0.0
 71
     1
 72
     1
  1
Unice E-O Services Inc.
  7
SLDTEXTSTYLE0
 73
     1
 44
1.0
  0
MTEXT
  5
D6
330
1F
100
AcDbEntity
  8
0
  6
Continuous
 62
     7
370
     0
100
AcDbMText
 10
54.3897634537
 20
5.3966787128
 30
0.0
 40
0.4630208333
 41
0.0
 71
     1
 72
     1
  1
2018/9/11
  7
SLDTEXTSTYLE0
 73
     1
 44
1.0
  0
MTEXT
  5
D7
330
1F
100
AcDbEntity
  8
0
  6
Continuous
 62
     7
370
     0
100
AcDbMText
 10
63.1522245627
 20
4.217794435
 30
0.0
 40
0.625
 41
0.0
 71
     1
 72
     1
  1
4:1
  7
SLDTEXTSTYLE0
 73
     1
 44
1.0
  0
MTEXT
  5
D8
330
1F
100
AcDbEntity
  8
0
  6
Continuous
 62
     7
370
     0
100
AcDbMText
 10
63.0768899996
 20
8.0379798859
 30
0.0
 40
0.625
 41
0.0
 71
     1
 72
     1
  1
07SRW-2
  7
SLDTEXTSTYLE0
 73
     1
 44
1.0
  0
MTEXT
  5
D9
330
1F
100
AcDbEntity
  8
0
  6
Continuous
 62
     7
370
     0
100
AcDbMText
 10
63.0768899996
 20
9.527052947
 30
0.0
 40
0.625
 41
0.0
 71
     1
 72
     1
  1
07SRW-2
  7
SLDTEXTSTYLE0
 73
     1
 44
1.0
  0
MTEXT
  5
DA
330
1F
100
AcDbEntity
  8
0
  6
Continuous
 62
     7
370
     0
100
AcDbMText
 10
59.0980466697
 20
4.1266198932
 30
0.0
 40
0.5291666667
 41
0.0
 71
     1
 72
     1
  1
SCALE:
  7
SLDTEXTSTYLE0
 73
     1
 44
1.0
  0
MTEXT
  5
DB
330
1F
100
AcDbEntity
  8
0
  6
Continuous
 62
     7
370
     0
100
AcDbMText
 10
46.5834021697
 20
5.3966787128
 30
0.0
 40
0.4630208333
 41
0.0
 71
     1
 72
     1
  1
DRAWN
  7
SLDTEXTSTYLE0
 73
     1
 44
1.0
  0
MTEXT
  5
DC
330
1F
100
AcDbEntity
  8
0
  6
Continuous
 62
     7
370
     0
100
AcDbMText
 10
50.8057091984
 20
6.670802077
 30
0.0
 40
0.4630208333
 41
0.0
 71
     1
 72
     1
  1
NAME
  7
SLDTEXTSTYLE0
 73
     1
 44
1.0
  0
MTEXT
  5
DD
330
1F
100
AcDbEntity
  8
0
  6
Continuous
 62
     7
370
     0
100
AcDbMText
 10
55.2177538939
 20
6.670802077
 30
0.0
 40
0.4630208333
 41
0.0
 71
     1
 72
     1
  1
DATE
  7
SLDTEXTSTYLE0
 73
     1
 44
1.0
  0
MTEXT
  5
DE
330
1F
100
AcDbEntity
  8
0
  6
Continuous
 62
     7
370
     0
100
AcDbMText
 10
59.0689079161
 20
7.9468053442
 30
0.0
 40
0.5291666667
 41
0.0
 71
     1
 72
     1
  1
DWG. NO.
  7
SLDTEXTSTYLE0
 73
     1
 44
1.0
  0
MTEXT
  5
DF
330
1F
100
AcDbEntity
  8
0
  6
Continuous
 62
     7
370
     0
100
AcDbMText
 10
59.0907476772
 20
10.4710164561
 30
0.0
 40
0.5291666667
 41
0.0
 71
     1
 72
     1
  1
TITLE:
  7
SLDTEXTSTYLE0
 73
     1
 44
1.0
  0
MTEXT
  5
E0
330
1F
100
AcDbEntity
  8
0
  6
Continuous
 62
     7
370
     0
100
AcDbMText
 10
50.7578552451
 20
4.0600947431
 30
0.0
 40
0.4630208333
 41
0.0
 71
     1
 72
     1
  1
Johnny
  7
SLDTEXTSTYLE0
 73
     1
 44
1.0
  0
MTEXT
  5
E1
330
1F
100
AcDbEntity
  8
0
  6
Continuous
 62
     7
370
     0
100
AcDbMText
 10
54.3897634537
 20
4.0600947431
 30
0.0
 40
0.4630208333
 41
0.0
 71
     1
 72
     1
  1
2018/9/11
  7
SLDTEXTSTYLE0
 73
     1
 44
1.0
  0
MTEXT
  5
E2
330
1F
100
AcDbEntity
  8
0
  6
Continuous
 62
     7
370
     0
100
AcDbMText
 10
46.5834021697
 20
4.0600947431
 30
0.0
 40
0.4630208333
 41
0.0
 71
     1
 72
     1
  1
ENG APPR.
  7
SLDTEXTSTYLE0
 73
     1
 44
1.0
  0
MTEXT
  5
E3
330
1F
100
AcDbEntity
  8
0
  6
Continuous
 62
     7
370
     0
100
AcDbMText
 10
59.0980466697
 20
2.9213347322
 30
0.0
 40
0.5291666667
 41
0.0
 71
     1
 72
     1
  1
REV
  7
SLDTEXTSTYLE0
 73
     1
 44
1.0
  0
MTEXT
  5
E4
330
1F
100
AcDbEntity
  8
0
  6
Continuous
 62
     7
370
     0
100
AcDbMText
 10
59.0907476772
 20
6.7373272271
 30
0.0
 40
0.5291666667
 41
0.0
 71
     1
 72
     1
  1
MATERIAL:
  7
SLDTEXTSTYLE0
 73
     1
 44
1.0
  0
MTEXT
  5
E5
330
1F
100
AcDbEntity
  8
0
  6
Continuous
 62
     7
370
     0
100
AcDbMText
 10
63.1522245627
 20
5.5543784047
 30
0.0
 40
0.625
 41
0.0
 71
     1
 72
     1
  1
N/A
  7
SLDTEXTSTYLE0
 73
     1
 44
1.0
  0
MTEXT
  5
E6
330
1F
100
AcDbEntity
  8
0
  6
Continuous
 62
     7
370
     0
100
AcDbMText
 10
6.6507482883
 20
51.1133379142
 30
0.0
 40
0.5291666667
 41
0.0
 71
     1
 72
     1
  1
1
  7
SLDTEXTSTYLE0
 73
     1
 44
1.0
  0
MTEXT
  5
E7
330
1F
100
AcDbEntity
  8
0
  6
Continuous
 62
     7
370
     0
100
AcDbMText
 10
15.1792748931
 20
51.1133379142
 30
0.0
 40
0.5291666667
 41
0.0
 71
     1
 72
     1
  1
2
  7
SLDTEXTSTYLE0
 73
     1
 44
1.0
  0
MTEXT
  5
E8
330
1F
100
AcDbEntity
  8
0
  6
Continuous
 62
     7
370
     0
100
AcDbMText
 10
23.7252485977
 20
51.1133379142
 30
0.0
 40
0.5291666667
 41
0.0
 71
     1
 72
     1
  1
3
  7
SLDTEXTSTYLE0
 73
     1
 44
1.0
  0
MTEXT
  5
E9
330
1F
100
AcDbEntity
  8
0
  6
Continuous
 62
     7
370
     0
100
AcDbMText
 10
32.3133340713
 20
51.0748146091
 30
0.0
 40
0.5291666667
 41
0.0
 71
     1
 72
     1
  1
4
  7
SLDTEXTSTYLE0
 73
     1
 44
1.0
  0
MTEXT
  5
EA
330
1F
100
AcDbEntity
  8
0
  6
Continuous
 62
     7
370
     0
100
AcDbMText
 10
40.925580866
 20
51.1133379142
 30
0.0
 40
0.5291666667
 41
0.0
 71
     1
 72
     1
  1
5
  7
SLDTEXTSTYLE0
 73
     1
 44
1.0
  0
MTEXT
  5
EB
330
1F
100
AcDbEntity
  8
0
  6
Continuous
 62
     7
370
     0
100
AcDbMText
 10
49.6595542604
 20
51.1133379142
 30
0.0
 40
0.5291666667
 41
0.0
 71
     1
 72
     1
  1
6
  7
SLDTEXTSTYLE0
 73
     1
 44
1.0
  0
MTEXT
  5
EC
330
1F
100
AcDbEntity
  8
0
  6
Continuous
 62
     7
370
     0
100
AcDbMText
 10
58.5907664352
 20
51.1133379142
 30
0.0
 40
0.5291666667
 41
0.0
 71
     1
 72
     1
  1
7
  7
SLDTEXTSTYLE0
 73
     1
 44
1.0
  0
MTEXT
  5
ED
330
1F
100
AcDbEntity
  8
0
  6
Continuous
 62
     7
370
     0
100
AcDbMText
 10
66.5696955123
 20
51.1133379142
 30
0.0
 40
0.5291666667
 41
0.0
 71
     1
 72
     1
  1
8
  7
SLDTEXTSTYLE0
 73
     1
 44
1.0
  0
MTEXT
  5
EE
330
1F
100
AcDbEntity
  8
0
  6
Continuous
 62
     7
370
     0
100
AcDbMText
 10
1.3392059139
 20
46.452825572
 30
0.0
 40
0.5291666667
 41
0.0
 71
     1
 72
     1
  1
A
  7
SLDTEXTSTYLE0
 73
     1
 44
1.0
  0
MTEXT
  5
EF
330
1F
100
AcDbEntity
  8
0
  6
Continuous
 62
     7
370
     0
100
AcDbMText
 10
1.3977607958
 20
38.574826206
 30
0.0
 40
0.5291666667
 41
0.0
 71
     1
 72
     1
  1
B
  7
SLDTEXTSTYLE0
 73
     1
 44
1.0
  0
MTEXT
  5
F0
330
1F
100
AcDbEntity
  8
0
  6
Continuous
 62
     7
370
     0
100
AcDbMText
 10
1.3977607958
 20
30.3185878557
 30
0.0
 40
0.5291666667
 41
0.0
 71
     1
 72
     1
  1
C
  7
SLDTEXTSTYLE0
 73
     1
 44
1.0
  0
MTEXT
  5
F1
330
1F
100
AcDbEntity
  8
0
  6
Continuous
 62
     7
370
     0
100
AcDbMText
 10
1.3977607958
 20
22.1863305055
 30
0.0
 40
0.5291666667
 41
0.0
 71
     1
 72
     1
  1
D
  7
SLDTEXTSTYLE0
 73
     1
 44
1.0
  0
MTEXT
  5
F2
330
1F
100
AcDbEntity
  8
0
  6
Continuous
 62
     7
370
     0
100
AcDbMText
 10
1.3977607958
 20
14.3889712299
 30
0.0
 40
0.5291666667
 41
0.0
 71
     1
 72
     1
  1
E
  7
SLDTEXTSTYLE0
 73
     1
 44
1.0
  0
MTEXT
  5
F3
330
1F
100
AcDbEntity
  8
0
  6
Continuous
 62
     7
370
     0
100
AcDbMText
 10
1.3977607958
 20
6.3923553063
 30
0.0
 40
0.5291666667
 41
0.0
 71
     1
 72
     1
  1
F
  7
SLDTEXTSTYLE0
 73
     1
 44
1.0
  0
MTEXT
  5
F4
330
1F
100
AcDbEntity
  8
0
  6
Continuous
 62
     7
370
     0
100
AcDbMText
 10
66.5464654241
 20
1.6559055991
 30
0.0
 40
0.5291666667
 41
0.0
 71
     1
 72
     1
  1
8
  7
SLDTEXTSTYLE0
 73
     1
 44
1.0
  0
MTEXT
  5
F5
330
1F
100
AcDbEntity
  8
0
  6
Continuous
 62
     7
370
     0
100
AcDbMText
 10
58.5675363469
 20
1.6559055991
 30
0.0
 40
0.5291666667
 41
0.0
 71
     1
 72
     1
  1
7
  7
SLDTEXTSTYLE0
 73
     1
 44
1.0
  0
MTEXT
  5
F6
330
1F
100
AcDbEntity
  8
0
  6
Continuous
 62
     7
370
     0
100
AcDbMText
 10
49.6363241721
 20
1.6559055991
 30
0.0
 40
0.5291666667
 41
0.0
 71
     1
 72
     1
  1
6
  7
SLDTEXTSTYLE0
 73
     1
 44
1.0
  0
MTEXT
  5
F7
330
1F
100
AcDbEntity
  8
0
  6
Continuous
 62
     7
370
     0
100
AcDbMText
 10
40.9023507777
 20
1.6559055991
 30
0.0
 40
0.5291666667
 41
0.0
 71
     1
 72
     1
  1
5
  7
SLDTEXTSTYLE0
 73
     1
 44
1.0
  0
MTEXT
  5
F8
330
1F
100
AcDbEntity
  8
0
  6
Continuous
 62
     7
370
     0
100
AcDbMText
 10
32.290103983
 20
1.6173822939
 30
0.0
 40
0.5291666667
 41
0.0
 71
     1
 72
     1
  1
4
  7
SLDTEXTSTYLE0
 73
     1
 44
1.0
  0
MTEXT
  5
F9
330
1F
100
AcDbEntity
  8
0
  6
Continuous
 62
     7
370
     0
100
AcDbMText
 10
23.7020185094
 20
1.6559055991
 30
0.0
 40
0.5291666667
 41
0.0
 71
     1
 72
     1
  1
3
  7
SLDTEXTSTYLE0
 73
     1
 44
1.0
  0
MTEXT
  5
FA
330
1F
100
AcDbEntity
  8
0
  6
Continuous
 62
     7
370
     0
100
AcDbMText
 10
15.1560448048
 20
1.6559055991
 30
0.0
 40
0.5291666667
 41
0.0
 71
     1
 72
     1
  1
2
  7
SLDTEXTSTYLE0
 73
     1
 44
1.0
  0
MTEXT
  5
FB
330
1F
100
AcDbEntity
  8
0
  6
Continuous
 62
     7
370
     0
100
AcDbMText
 10
6.6275182001
 20
1.6559055991
 30
0.0
 40
0.5291666667
 41
0.0
 71
     1
 72
     1
  1
1
  7
SLDTEXTSTYLE0
 73
     1
 44
1.0
  0
MTEXT
  5
FC
330
1F
100
AcDbEntity
  8
0
  6
Continuous
 62
     7
370
     0
100
AcDbMText
 10
71.7755961536
 20
46.6606227273
 30
0.0
 40
0.5291666667
 41
0.0
 71
     1
 72
     1
  1
A
  7
SLDTEXTSTYLE0
 73
     1
 44
1.0
  0
MTEXT
  5
FD
330
1F
100
AcDbEntity
  8
0
  6
Continuous
 62
     7
370
     0
100
AcDbMText
 10
71.8341510355
 20
38.7826233613
 30
0.0
 40
0.5291666667
 41
0.0
 71
     1
 72
     1
  1
B
  7
SLDTEXTSTYLE0
 73
     1
 44
1.0
  0
MTEXT
  5
FE
330
1F
100
AcDbEntity
  8
0
  6
Continuous
 62
     7
370
     0
100
AcDbMText
 10
71.8341510355
 20
30.5263850111
 30
0.0
 40
0.5291666667
 41
0.0
 71
     1
 72
     1
  1
C
  7
SLDTEXTSTYLE0
 73
     1
 44
1.0
  0
MTEXT
  5
FF
330
1F
100
AcDbEntity
  8
0
  6
Continuous
 62
     7
370
     0
100
AcDbMText
 10
71.8341510355
 20
22.3941276608
 30
0.0
 40
0.5291666667
 41
0.0
 71
     1
 72
     1
  1
D
  7
SLDTEXTSTYLE0
 73
     1
 44
1.0
  0
MTEXT
  5
100
330
1F
100
AcDbEntity
  8
0
  6
Continuous
 62
     7
370
     0
100
AcDbMText
 10
71.8341510355
 20
14.5967683852
 30
0.0
 40
0.5291666667
 41
0.0
 71
     1
 72
     1
  1
E
  7
SLDTEXTSTYLE0
 73
     1
 44
1.0
  0
MTEXT
  5
101
330
1F
100
AcDbEntity
  8
0
  6
Continuous
 62
     7
370
     0
100
AcDbMText
 10
71.8341510355
 20
6.6001524616
 30
0.0
 40
0.5291666667
 41
0.0
 71
     1
 72
     1
  1
F
  7
SLDTEXTSTYLE0
 73
     1
 44
1.0
  0
MTEXT
  5
102
330
1F
100
AcDbEntity
  8
0
  6
Continuous
 62
     7
370
     0
100
AcDbMText
 10
50.7888282201
 20
5.3966787128
 30
0.0
 40
0.4630208333
 41
0.0
 71
     1
 72
     1
  1
Sky
  7
SLDTEXTSTYLE0
 73
     1
 44
1.0
  0
MTEXT
  5
104
330
1F
100
AcDbEntity
  8
0
  6
Continuous
 62
     7
370
     0
100
AcDbMText
 10
63.2120559911
 20
3.0554900829
 30
0.0
 40
0.5953125
 41
0.0
 71
     1
 72
     1
  1
0
  7
SLDTEXTSTYLE1
 73
     1
 44
1.0
  0
INSERT
  5
10A
330
1F
100
AcDbEntity
  8
SLD-0
 62
     7
100
AcDbBlockReference
  2
SW_NOTE_1
 10
49.6812973484
 20
8.3869936303
 30
0.0
  0
ARC
  5
10B
330
1F
100
AcDbEntity
  8
0
  6
Continuous
 62
     7
370
    30
100
AcDbCircle
 10
10.5783402887
 20
21.7960834777
 30
0.0
 40
1.5
100
AcDbArc
 50
93.8225537293
 51
266.1774462707
  0
LINE
  5
10C
330
1F
100
AcDbEntity
  8
0
  6
Continuous
 62
     7
370
    30
100
AcDbLine
 10
18.0783404168
 20
18.7960834516
 30
0.0
 11
24.7783402112
 21
18.7960834516
 31
0.0
  0
LINE
  5
10D
330
1F
100
AcDbEntity
  8
0
  6
Continuous
 62
     7
370
    30
100
AcDbLine
 10
24.7783402112
 20
24.7960835038
 30
0.0
 11
18.0783404168
 21
24.7960835038
 31
0.0
  0
LINE
  5
10E
330
1F
100
AcDbEntity
  8
0
  6
Continuous
 62
     7
370
    30
100
AcDbLine
 10
24.7783402112
 20
18.7960834516
 30
0.0
 11
25.0783406329
 21
19.0960834077
 31
0.0
  0
LINE
  5
10F
330
1F
100
AcDbEntity
  8
0
  6
Continuous
 62
     7
370
    30
100
AcDbLine
 10
25.0783406329
 20
24.4960835478
 30
0.0
 11
24.7783402112
 21
24.7960835038
 31
0.0
  0
LINE
  5
110
330
1F
100
AcDbEntity
  8
0
  6
Continuous
 62
     7
370
    30
100
AcDbLine
 10
17.3533402514
 20
18.8210834092
 30
0.0
 11
18.0783404168
 21
18.8210834092
 31
0.0
  0
LINE
  5
111
330
1F
100
AcDbEntity
  8
0
  6
Continuous
 62
     7
370
    30
100
AcDbLine
 10
18.0783404168
 20
24.7710835463
 30
0.0
 11
17.3533402514
 21
24.7710835463
 31
0.0
  0
LINE
  5
112
330
1F
100
AcDbEntity
  8
0
  6
Continuous
 62
     7
370
    30
100
AcDbLine
 10
17.3533402514
 20
24.7710835463
 30
0.0
 11
17.0783402529
 21
24.4960835478
 31
0.0
  0
LINE
  5
113
330
1F
100
AcDbEntity
  8
0
  6
Continuous
 62
     7
370
    30
100
AcDbLine
 10
17.0783402529
 20
19.0960834077
 30
0.0
 11
17.3533402514
 21
18.8210834092
 31
0.0
  0
LINE
  5
114
330
1F
100
AcDbEntity
  8
0
  6
Continuous
 62
     7
370
    30
100
AcDbLine
 10
38.5783409831
 20
26.296083284
 30
0.0
 11
31.5783398357
 21
26.296083284
 31
0.0
  0
LINE
  5
115
330
1F
100
AcDbEntity
  8
0
  6
Continuous
 62
     7
370
    30
100
AcDbLine
 10
31.5783398357
 20
17.2960836714
 30
0.0
 11
38.5783409831
 21
17.2960836714
 31
0.0
  0
LINE
  5
116
330
1F
100
AcDbEntity
  8
0
  6
Continuous
 62
     7
370
    30
100
AcDbLine
 10
38.5783409831
 20
17.2960836714
 30
0.0
 11
39.0783401337
 21
17.7960832877
 31
0.0
  0
LINE
  5
117
330
1F
100
AcDbEntity
  8
0
  6
Continuous
 62
     7
370
    30
100
AcDbLine
 10
39.0783401337
 20
25.7960836677
 30
0.0
 11
38.5783409831
 21
26.296083284
 31
0.0
  0
LINE
  5
118
330
1F
100
AcDbEntity
  8
0
  6
Continuous
 62
     7
370
    30
100
AcDbLine
 10
31.5783398357
 20
26.296083284
 30
0.0
 11
31.0783406851
 21
25.7960836677
 31
0.0
  0
LINE
  5
119
330
1F
100
AcDbEntity
  8
0
  6
Continuous
 62
     7
370
    30
100
AcDbLine
 10
31.0783406851
 20
17.7960832877
 30
0.0
 11
31.5783398357
 21
17.2960836714
 31
0.0
  0
LINE
  5
11A
330
1F
100
AcDbEntity
  8
0
  6
Continuous
 62
     7
370
    30
100
AcDbLine
 10
31.0783406851
 20
23.7960835727
 30
0.0
 11
25.0783406329
 21
23.7960835727
 31
0.0
  0
LINE
  5
11B
330
1F
100
AcDbEntity
  8
0
  6
Continuous
 62
     7
370
    30
100
AcDbLine
 10
17.0783402529
 20
23.7960835727
 30
0.0
 11
11.4783403362
 21
23.7960835727
 31
0.0
  0
LINE
  5
11C
330
1F
100
AcDbEntity
  8
0
  6
Continuous
 62
     7
370
    30
100
AcDbLine
 10
11.4783403362
 20
19.7960833827
 30
0.0
 11
17.0783402529
 21
19.7960833827
 31
0.0
  0
LINE
  5
11D
330
1F
100
AcDbEntity
  8
0
  6
Continuous
 62
     7
370
    30
100
AcDbLine
 10
25.0783406329
 20
19.7960833827
 30
0.0
 11
31.0783406851
 21
19.7960833827
 31
0.0
  0
LINE
  5
11E
330
1F
100
AcDbEntity
  8
0
  6
Continuous
 62
     7
370
    30
100
AcDbLine
 10
11.4783403362
 20
23.7960835727
 30
0.0
 11
10.4783402887
 21
23.3960834373
 31
0.0
  0
LINE
  5
11F
330
1F
100
AcDbEntity
  8
0
  6
Continuous
 62
     7
370
    30
100
AcDbLine
 10
10.4783402887
 20
20.1960835181
 30
0.0
 11
11.4783403362
 21
19.7960833827
 31
0.0
  0
LINE
  5
120
330
1F
100
AcDbEntity
  8
0
  6
Continuous
 62
     7
370
    30
100
AcDbLine
 10
18.0783404168
 20
18.9208427252
 30
0.0
 11
18.0783404168
 21
18.7960834516
 31
0.0
  0
LINE
  5
121
330
1F
100
AcDbEntity
  8
0
  6
Continuous
 62
     7
370
    30
100
AcDbLine
 10
18.0783404168
 20
24.7960835038
 30
0.0
 11
18.0783404168
 21
18.9208427252
 31
0.0
  0
LINE
  5
122
330
1F
100
AcDbEntity
  8
0
  6
Continuous
 62
     7
370
    30
100
AcDbLine
 10
24.7783402112
 20
18.7960834516
 30
0.0
 11
24.7783402112
 21
24.7960835038
 31
0.0
  0
LINE
  5
123
330
1F
100
AcDbEntity
  8
0
  6
Continuous
 62
     7
370
    30
100
AcDbLine
 10
25.0783406329
 20
24.4960835478
 30
0.0
 11
25.0783406329
 21
19.0960834077
 31
0.0
  0
LINE
  5
124
330
1F
100
AcDbEntity
  8
0
  6
Continuous
 62
     7
370
    30
100
AcDbLine
 10
17.3533402514
 20
18.8210834092
 30
0.0
 11
17.3533402514
 21
24.7710835463
 31
0.0
  0
LINE
  5
125
330
1F
100
AcDbEntity
  8
0
  6
Continuous
 62
     7
370
    30
100
AcDbLine
 10
17.0783402529
 20
19.2083669169
 30
0.0
 11
17.0783402529
 21
24.4960835478
 31
0.0
  0
LINE
  5
126
330
1F
100
AcDbEntity
  8
0
  6
Continuous
 62
     7
370
    30
100
AcDbLine
 10
17.0783402529
 20
19.0960834077
 30
0.0
 11
17.0783402529
 21
19.2083669169
 31
0.0
  0
LINE
  5
127
330
1F
100
AcDbEntity
  8
0
  6
Continuous
 62
     7
370
    30
100
AcDbLine
 10
38.5783409831
 20
17.2960836714
 30
0.0
 11
38.5783409831
 21
26.296083284
 31
0.0
  0
LINE
  5
128
330
1F
100
AcDbEntity
  8
0
  6
Continuous
 62
     7
370
    30
100
AcDbLine
 10
31.5783398357
 20
26.296083284
 30
0.0
 11
31.5783398357
 21
17.2960836714
 31
0.0
  0
LINE
  5
129
330
1F
100
AcDbEntity
  8
0
  6
Continuous
 62
     7
370
    30
100
AcDbLine
 10
39.0783401337
 20
25.7960836677
 30
0.0
 11
39.0783401337
 21
17.7960832877
 31
0.0
  0
LINE
  5
12A
330
1F
100
AcDbEntity
  8
0
  6
Continuous
 62
     7
370
    30
100
AcDbLine
 10
31.0783406851
 20
17.7960832877
 30
0.0
 11
31.0783406851
 21
25.7960836677
 31
0.0
  0
LINE
  5
12B
330
1F
100
AcDbEntity
  8
0
  6
Continuous
 62
     7
370
    30
100
AcDbLine
 10
11.4783403362
 20
23.7960835727
 30
0.0
 11
11.4783403362
 21
19.7960833827
 31
0.0
  0
LINE
  5
12C
330
1F
100
AcDbEntity
  8
0
  6
Continuous
 62
     7
370
    30
100
AcDbLine
 10
10.4783402887
 20
23.3960834373
 30
0.0
 11
10.4783402887
 21
20.1960835181
 31
0.0
  0
LINE
  5
12D
330
1F
100
AcDbEntity
  8
DIM
100
AcDbLine
 10
31.5783402887
 20
26.2960834777
 30
0.0
 11
31.5783402887
 21
17.2960834777
 31
0.0
  0
LINE
  5
12E
330
1F
100
AcDbEntity
  8
DIM
100
AcDbLine
 10
31.5783402887
 20
26.2960834777
 30
0.0
 11
38.5783402887
 21
26.2960834777
 31
0.0
  0
LINE
  5
12F
330
1F
100
AcDbEntity
  8
DIM
100
AcDbLine
 10
38.5783402887
 20
26.2960834777
 30
0.0
 11
38.5783402887
 21
17.2960834777
 31
0.0
  0
LINE
  5
130
330
1F
100
AcDbEntity
  8
DIM
100
AcDbLine
 10
31.5783402887
 20
17.2960834777
 30
0.0
 11
38.5783402887
 21
17.2960834777
 31
0.0
  0
HATCH
  5
131
330
1F
100
AcDbEntity
  8
輪廓線
 62
     7
100
AcDbHatch
 10
0.0
 20
0.0
 30
0.0
210
0.0
220
0.0
230
1.0
  2
ANSI37
 70
     0
 71
     0
 91
        1
 92
        0
 93
        4
 72
     1
 10
31.57834028868416
 20
17.2960834777211
 11
38.57834028868415
 21
17.29608347772117
 72
     1
 10
38.57834028868415
 20
17.29608347772117
 11
38.57834028868406
 21
26.29608347772118
 72
     1
 10
38.57834028868406
 20
26.29608347772118
 11
31.57834028868407
 21
26.29608347772111
 72
     1
 10
31.57834028868407
 20
26.29608347772111
 11
31.57834028868416
 21
17.2960834777211
 97
        0
 75
     0
 76
     1
 52
0.0
 41
0.2
 77
     0
 78
     2
 53
45.0
 43
0.0
 44
0.0
 45
-0.4490128060534576
 46
0.4490128060534577
 79
     0
 53
135.0
 43
0.0
 44
0.0
 45
-0.4490128060534577
 46
-0.4490128060534576
 79
     0
 98
        1
 10
0.0
 20
0.0
  0
DIMENSION
  5
132
330
1F
100
AcDbEntity
  8
DIM
100
AcDbDimension
  2
_D
 10
39.0783402887
 20
13.0460834777
 30
0.0
 11
24.0783402887
 21
13.0460834777
 31
0.0
 70
   160
  1
<>
 71
     2
 42
-1.0
  3
SLDDIMSTYLE0
100
AcDbAlignedDimension
 13
9.0783402887
 23
21.7960834777
 33
0.0
 14
39.0783402887
 24
17.7960834777
 34
0.0
 50
0.0
100
AcDbRotatedDimension
  0
DIMENSION
  5
13D
330
1F
100
AcDbEntity
  8
DIM
100
AcDbDimension
  2
_D_1
 10
31.0783402887
 20
14.2960834777
 30
0.0
 11
20.0783402887
 21
14.2960834777
 31
0.0
 70
   160
  1
<>
 71
     2
 42
-1.0
  3
SLDDIMSTYLE0
100
AcDbAlignedDimension
 13
9.0783402887
 23
21.7960834777
 33
0.0
 14
31.0783402887
 24
17.7960834777
 34
0.0
 50
0.0
100
AcDbRotatedDimension
  0
DIMENSION
  5
147
330
1F
100
AcDbEntity
  8
DIM
100
AcDbDimension
  2
_D_2
 10
25.0783402887
 20
15.5460834777
 30
0.0
 11
21.0783402887
 21
15.5460834777
 31
0.0
 70
   160
  1
<>
 71
     2
 42
-1.0
  3
SLDDIMSTYLE0
100
AcDbAlignedDimension
 13
17.0783402887
 23
19.0960834777
 33
0.0
 14
25.0783402887
 24
19.0960834777
 34
0.0
 50
0.0
100
AcDbRotatedDimension
  0
DIMENSION
  5
151
330
1F
100
AcDbEntity
  8
DIM
100
AcDbDimension
  2
_D_3
 10
7.3283402887
 20
18.7960834777
 30
0.0
 11
7.3283402887
 21
21.7960834777
 31
0.0
 70
   160
  1
%%c<>
 71
     2
 42
-1.0
  3
SLDDIMSTYLE0
100
AcDbAlignedDimension
 13
18.0783402887
 23
24.7960834777
 33
0.0
 14
18.0783402887
 24
18.7960834777
 34
0.0
 50
90.0
100
AcDbRotatedDimension
  0
INSERT
  5
161
330
1F
100
AcDbEntity
  8
DIM
100
AcDbBlockReference
  2
SW_NOTE_2
 10
31.9559248555
 20
28.6961344199
 30
0.0
  0
LEADER
  5
163
330
1F
100
AcDbEntity
  8
DIM
100
AcDbLeader
  3
SLDDIMSTYLE1
 76
     2
 10
26.136416185
 20
23.7960834777
 30
0.0
 10
31.9559248555
 20
28.6961344199
 30
0.0
  0
CIRCLE
  5
164
330
1F
100
AcDbEntity
  8
0
  6
Continuous
 62
     7
370
    30
100
AcDbCircle
 10
52.3381225394
 20
21.7960834777
 30
0.0
 40
4.000000000000011
  0
CIRCLE
  5
165
330
1F
100
AcDbEntity
  8
0
  6
Continuous
 62
     7
370
    30
100
AcDbCircle
 10
52.3381225394
 20
21.7960834777
 30
0.0
 40
4.500000000000004
  0
DIMENSION
  5
166
330
1F
100
AcDbEntity
  8
DIM
100
AcDbDimension
  2
_D_4
 10
55.5422058206
 20
18.6363603368
 30
0.0
 11
44.4787938112
 21
29.1585834713
 31
0.0
 70
   163
  1
<>
 71
     1
 42
-1.0
  3
SLDDIMSTYLE2
100
AcDbDiametricDimension
 15
49.1340392582
 25
24.9558066186
 35
0.0
 40
0.0
  0
INSERT
  5
17B
330
1F
100
AcDbEntity
  8
DIM
100
AcDbBlockReference
  2
SW_CENTERMARKSYMBOL_0
 10
52.3381225394
 20
21.7960834777
 30
0.0
  0
ARC
  5
17C
330
1F
100
AcDbEntity
  8
0
  6
Continuous
 62
     7
370
    30
100
AcDbCircle
 10
44.5971582246
 20
44.3413641964
 30
0.0
 40
1.499999999999997
100
AcDbArc
 50
180.0
 51
219.6168600087
  0
ARC
  5
17D
330
1F
100
AcDbEntity
  8
0
  6
Continuous
 62
     7
370
    30
100
AcDbCircle
 10
44.5971582246
 20
44.3413641964
 30
0.0
 40
1.500000000000003
100
AcDbArc
 50
80.388516524
 51
180.0
  0
LINE
  5
17E
330
1F
100
AcDbEntity
  8
0
  6
Continuous
 62
     7
370
    30
100
AcDbLine
 10
54.6384192917
 20
36.095443233
 30
0.0
 11
54.7595573957
 21
36.1653975074
 31
0.0
  0
LINE
  5
17F
330
1F
100
AcDbEntity
  8
0
  6
Continuous
 62
     7
370
    30
100
AcDbLine
 10
56.759394861
 20
39.6295929569
 30
0.0
 11
56.759394861
 21
39.7694787702
 31
0.0
  0
LINE
  5
180
330
1F
100
AcDbEntity
  8
0
  6
Continuous
 62
     7
370
    30
100
AcDbLine
 10
48.4005809845
 20
38.6816871899
 30
0.0
 11
53.1381964185
 21
35.9467200153
 31
0.0
  0
LINE
  5
181
330
1F
100
AcDbEntity
  8
0
  6
Continuous
 62
     7
370
    30
100
AcDbLine
 10
56.1379526164
 20
41.1430131896
 30
0.0
 11
51.4003371825
 21
43.8779803642
 31
0.0
  0
LINE
  5
182
330
1F
100
AcDbEntity
  8
0
  6
Continuous
 62
     7
370
    30
100
AcDbLine
 10
47.9004275523
 20
38.999286352
 30
0.0
 11
48.219818955
 21
38.8149056199
 31
0.0
  0
LINE
  5
183
330
1F
100
AcDbEntity
  8
0
  6
Continuous
 62
     7
370
    30
100
AcDbLine
 10
51.1945771846
 20
43.967896351
 30
0.0
 11
50.8751857819
 21
44.1522770831
 31
0.0
  0
LINE
  5
184
330
1F
100
AcDbEntity
  8
0
  6
Continuous
 62
     7
370
    30
100
AcDbLine
 10
49.387464766
 20
44.0047932255
 30
0.0
 11
49.1930420055
 21
43.8925188654
 31
0.0
  0
LINE
  5
185
330
1F
100
AcDbEntity
  8
0
  6
Continuous
 62
     7
370
    30
100
AcDbLine
 10
47.2841639931
 20
40.585886882
 30
0.0
 11
47.2841639931
 21
40.3613746512
 31
0.0
  0
LINE
  5
186
330
1F
100
AcDbEntity
  8
0
  6
Continuous
 62
     7
370
    30
100
AcDbLine
 10
64.3966652591
 20
29.2375155768
 30
0.0
 11
64.7501611874
 21
29.441650777
 31
0.0
  0
LINE
  5
187
330
1F
100
AcDbEntity
  8
0
  6
Continuous
 62
     7
370
    30
100
AcDbLine
 10
67.5781286132
 20
34.3403648265
 30
0.0
 11
67.5781286132
 21
34.7485688824
 31
0.0
  0
LINE
  5
188
330
1F
100
AcDbEntity
  8
0
  6
Continuous
 62
     7
370
    30
100
AcDbLine
 10
66.6459652463
 20
36.8088705116
 30
0.0
 11
61.6962177779
 21
39.6662989029
 31
0.0
  0
LINE
  5
189
330
1F
100
AcDbEntity
  8
0
  6
Continuous
 62
     7
370
    30
100
AcDbLine
 10
57.1965834811
 20
31.8718591415
 30
0.0
 11
62.1463309494
 21
29.0144307501
 31
0.0
  0
LINE
  5
18A
330
1F
100
AcDbEntity
  8
0
  6
Continuous
 62
     7
370
    30
100
AcDbLine
 10
59.4458834682
 20
39.4432140763
 30
0.0
 11
59.09238754
 21
39.239078876
 31
0.0
  0
LINE
  5
18B
330
1F
100
AcDbEntity
  8
0
  6
Continuous
 62
     7
370
    30
100
AcDbLine
 10
56.2644201142
 20
34.3403648265
 30
0.0
 11
56.2644201142
 21
33.9321607706
 31
0.0
  0
LINE
  5
18C
330
1F
100
AcDbEntity
  8
0
  6
Continuous
 62
     7
370
    30
100
AcDbLine
 10
58.3605744162
 20
38.7052516748
 30
0.0
 11
55.6656249911
 21
40.2610128627
 31
0.0
  0
LINE
  5
18D
330
1F
100
AcDbEntity
  8
0
  6
Continuous
 62
     7
370
    30
100
AcDbLine
 10
49.2840014584
 20
43.9450457112
 30
0.0
 11
46.2334730603
 21
45.7060782708
 31
0.0
  0
LINE
  5
18E
330
1F
100
AcDbEntity
  8
0
  6
Continuous
 62
     7
370
    30
100
AcDbLine
 10
44.233635595
 20
42.2418828213
 30
0.0
 11
47.2841639931
 21
40.4808502617
 31
0.0
  0
LINE
  5
18F
330
1F
100
AcDbEntity
  8
0
  6
Continuous
 62
     7
370
    30
100
AcDbLine
 10
53.6657875258
 20
36.7968174131
 30
0.0
 11
56.360736951
 21
35.2410562253
 31
0.0
  0
LINE
  5
190
330
1F
100
AcDbEntity
  8
0
  6
Continuous
 62
     7
370
    30
100
AcDbLine
 10
45.9097472237
 20
45.7986467402
 30
0.0
 11
45.0674018633
 21
45.8419175573
 31
0.0
  0
LINE
  5
191
330
1F
100
AcDbEntity
  8
0
  6
Continuous
 62
     7
370
    30
100
AcDbLine
 10
43.5328713379
 20
43.183744703
 30
0.0
 11
43.9915840669
 21
42.4759306723
 31
0.0
  0
LWPOLYLINE
  5
192
330
1F
100
AcDbEntity
  8
0
  6
Continuous
 62
     7
370
    30
100
AcDbPolyline
 90
       13
 70
   128
 43
0.0
 10
55.2434630868
 20
41.2421013995
 10
55.4672917567
 20
41.2782806041
 10
55.6806925386
 20
41.2800855417
 10
55.880981794
 20
41.2474935141
 10
56.0656407693
 20
41.180914385
 10
56.2323472706
 20
41.0811854256
 10
56.379004867
 20
40.9495607854
 10
56.5037692542
 20
40.7876957205
 10
56.6050714476
 20
40.5976257782
 10
56.6816375133
 20
40.3817411983
 10
56.7325045886
 20
40.1427568545
 10
56.7570329905
 20
39.8836781136
 10
56.759394861
 20
39.7694787702
  0
LWPOLYLINE
  5
193
330
1F
100
AcDbEntity
  8
0
  6
Continuous
 62
     7
370
    30
100
AcDbPolyline
 90
       33
 70
   128
 43
0.0
 10
54.6384192917
 20
36.095443233
 10
54.5002721106
 20
36.020866563
 10
54.2641277305
 20
35.9177303026
 10
54.0326859481
 20
35.8476318054
 10
53.8088572782
 20
35.8114526008
 10
53.5954564963
 20
35.8096476632
 10
53.3951672409
 20
35.8422396907
 10
53.2105082656
 20
35.9088188198
 10
53.0438017643
 20
36.0085477792
 10
52.8971441679
 20
36.1401724195
 10
52.7723797807
 20
36.3020374843
 10
52.6710775873
 20
36.4921074266
 10
52.5945115216
 20
36.7079920066
 10
52.5436444463
 20
36.9469763504
 10
52.5191160444
 20
37.2060550912
 10
52.5212347747
 20
37.4819701636
 10
52.5499739929
 20
37.7712517754
 10
52.6049722868
 20
38.0702620425
 10
52.6855380209
 20
38.3752407374
 10
52.7906580344
 20
38.6823525759
 10
52.919010382
 20
38.9877354485
 10
53.0689809585
 20
39.2875489884
 10
53.2386837969
 20
39.5780228664
 10
53.4259847856
 20
39.855504205
 10
53.628528506
 20
40.1165035152
 10
53.8437678532
 20
40.3577385794
 10
54.0689960675
 20
40.5761757266
 10
54.3013807736
 20
40.7690679829
 10
54.5379995988
 20
40.9339896164
 10
54.7758769243
 20
41.0688666418
 10
55.0120213044
 20
41.1720029023
 10
55.2434630868
 20
41.2421013995
 10
55.2434630868
 20
41.2421013995
  0
LWPOLYLINE
  5
194
330
1F
100
AcDbEntity
  8
0
  6
Continuous
 62
     7
370
    30
100
AcDbPolyline
 90
       30
 70
   128
 43
0.0
 10
55.3950562642
 20
40.849916703
 10
55.1748167136
 20
40.7823585465
 10
54.9500203478
 20
40.6816718207
 10
54.7238228151
 20
40.5492699466
 10
54.499399433
 20
40.3870115562
 10
54.2799006139
 20
40.1971744016
 10
54.06840764
 20
39.9824233803
 10
53.8678894092
 20
39.745773126
 10
53.6811607577
 20
39.4905456895
 10
53.5108429467
 20
39.2203239046
 10
53.3593268647
 20
38.9389010926
 10
53.2287394655
 20
38.6502278132
 10
53.1209139098
 20
38.3583564062
 10
53.0373638323
 20
38.0673841065
 10
52.9792620926
 20
37.7813955274
 10
52.9474243121
 20
37.5044053215
 10
52.9422974232
 20
37.2403018243
 10
52.9639533963
 20
36.9927924698
 10
53.012088229
 20
36.765351747
 10
53.0860262138
 20
36.5611724249
 10
53.1847294233
 20
36.3831207338
 10
53.306812281
 20
36.233696129
 10
53.4505610111
 20
36.1149962044
 10
53.6139576965
 20
36.0286872468
 10
53.7947086059
 20
35.9759808448
 10
53.9902763928
 20
35.9576168808
 10
54.1979157142
 20
35.9738531444
 10
54.4147117691
 20
36.0244617143
 10
54.6376212161
 20
36.1087321569
 10
54.7572793734
 20
36.1667125817
  0
ARC
  5
195
330
1F
100
AcDbEntity
  8
0
  6
Continuous
 62
     7
370
    30
100
AcDbCircle
 10
55.6521150076
 20
39.7666873331
 30
0.0
 40
1.113312653941966
100
AcDbArc
 50
352.994782767
 51
103.3497919704
  0
LWPOLYLINE
  5
196
330
1F
100
AcDbEntity
  8
0
  6
Continuous
 62
     7
370
    30
100
AcDbPolyline
 90
       30
 70
   128
 43
0.0
 10
51.4003371825
 20
43.8779803642
 10
51.3280253353
 20
43.9158815596
 10
51.1433663601
 20
43.9824606887
 10
50.9430771047
 20
44.0150527163
 10
50.7296763227
 20
44.0132477787
 10
50.5058476529
 20
43.9770685741
 10
50.2744058705
 20
43.9069700769
 10
50.0382614903
 20
43.8038338164
 10
49.8003841649
 20
43.668956791
 10
49.5637653397
 20
43.5040351575
 10
49.3313806336
 20
43.3111429012
 10
49.1061524192
 20
43.092705754
 10
48.890913072
 20
42.8514706898
 10
48.6883693517
 20
42.5904713796
 10
48.501068363
 20
42.312990041
 10
48.3313655246
 20
42.022516163
 10
48.181394948
 20
41.7227026231
 10
48.0530426004
 20
41.4173197505
 10
47.947922587
 20
41.110207912
 10
47.8673568529
 20
40.8052292171
 10
47.812358559
 20
40.50621895
 10
47.7836193407
 20
40.2169373382
 10
47.7815006104
 20
39.9410222658
 10
47.8060290124
 20
39.681943525
 10
47.8568960877
 20
39.4429591812
 10
47.9334621534
 20
39.2270746012
 10
48.0347643467
 20
39.0370046589
 10
48.1595287339
 20
38.8751395941
 10
48.3061863304
 20
38.7435149539
 10
48.4005809845
 20
38.6816871899
  0
LWPOLYLINE
  5
197
330
1F
100
AcDbEntity
  8
0
  6
Continuous
 62
     7
370
    30
100
AcDbPolyline
 90
       18
 70
   128
 43
0.0
 10
53.471932624
 20
38.1006630349
 10
53.5406531448
 20
38.3526405433
 10
53.6337681678
 20
38.6059176388
 10
53.7495431363
 20
38.8557762481
 10
53.8858213817
 20
39.0975619783
 10
54.0400642982
 20
39.3267708186
 10
54.209398632
 20
39.539133042
 10
54.3906700048
 20
39.7306927421
 10
54.5805016741
 20
39.8978815241
 10
54.7753574349
 20
40.0375849774
 10
54.9716074932
 20
40.1472006909
 10
55.1655960816
 20
40.2246867313
 10
55.3537095599
 20
40.2685996803
 10
55.5324437297
 20
40.2781215227
 10
55.6984691118
 20
40.2530748846
 10
55.8486929673
 20
40.1939263375
 10
55.9803169102
 20
40.101777707
 10
56.0346255778
 20
40.0479933582
  0
LWPOLYLINE
  5
198
330
1F
100
AcDbEntity
  8
0
  6
Continuous
 62
     7
370
    30
100
AcDbPolyline
 90
       11
 70
   128
 43
0.0
 10
54.0347881125
 20
36.5837979087
 10
54.0019439918
 20
36.5917358867
 10
53.8517201363
 20
36.6508844338
 10
53.7200961935
 20
36.7430330643
 10
53.6095240683
 20
36.8664652237
 10
53.5220635104
 20
37.0188816044
 10
53.4593437444
 20
37.1974429776
 10
53.4225331209
 20
37.3988230827
 10
53.4123173522
 20
37.6192705894
 10
53.4288867386
 20
37.8546789778
 10
53.471932624
 20
38.1006630349
  0
ARC
  5
199
330
1F
100
AcDbEntity
  8
0
  6
Continuous
 62
     7
370
    30
100
AcDbCircle
 10
50.3109024872
 20
43.1112328322
 30
0.0
 40
1.18414051922875
100
AcDbArc
 50
61.540720098
 51
105.8168003142
  0
LWPOLYLINE
  5
19A
330
1F
100
AcDbEntity
  8
0
  6
Continuous
 62
     7
370
    30
100
AcDbPolyline
 90
       25
 70
   128
 43
0.0
 10
47.9004275523
 20
38.999286352
 10
47.8068195203
 20
39.0605988846
 10
47.6613840705
 20
39.1911266528
 10
47.5376593865
 20
39.3516428421
 10
47.4372013781
 20
39.5401288682
 10
47.361273363
 20
39.75421441
 10
47.3108301799
 20
39.9912072176
 10
47.2865061813
 20
40.2481269689
 10
47.2886072555
 20
40.5217427491
 10
47.3171069803
 20
40.8086136808
 10
47.3716469551
 20
41.1051321957
 10
47.4515413081
 20
41.4075694014
 10
47.5557853214
 20
41.7121219746
 10
47.6830680661
 20
42.0149599899
 10
47.8317888879
 20
42.3122750837
 10
48.000077536
 20
42.600328346
 10
48.1858176831
 20
42.8754973401
 10
48.3866735391
 20
43.1343216561
 10
48.6001192251
 20
43.373546428
 10
48.8234705377
 20
43.5901632657
 10
49.0539187045
 20
43.7814480866
 10
49.2885657062
 20
43.9449953731
 10
49.5244607206
 20
44.0787484233
 10
49.7586372309
 20
44.1810252149
 10
49.9881503318
 20
44.250539558
  0
ARC
  5
19B
330
1F
100
AcDbEntity
  8
0
  6
Continuous
 62
     7
370
    30
100
AcDbCircle
 10
51.3957131517
 20
40.416641977
 30
0.0
 40
4.115031023131706
100
AcDbArc
 50
122.3625287923
 51
177.6428477404
  0
LWPOLYLINE
  5
19C
330
1F
100
AcDbEntity
  8
0
  6
Continuous
 62
     7
370
    30
100
AcDbPolyline
 90
       65
 70
   128
 43
0.0
 10
64.7497014884
 20
35.9737118504
 10
64.47246715
 20
35.7979404047
 10
64.1979027299
 20
35.5924067966
 10
63.9286524334
 20
35.3590904271
 10
63.6673092881
 20
35.1002382603
 10
63.4163901715
 20
34.8183431841
 10
63.1783115716
 20
34.5161200022
 10
62.9553663157
 20
34.1964792891
 10
62.7497014884
 20
33.8624993595
 10
62.5632977544
 20
33.5173966228
 10
62.3979502836
 20
33.164494607
 10
62.2552514624
 20
32.8071919513
 10
62.1365755587
 20
32.4489296757
 10
62.0430654861
 20
32.0931580418
 10
61.9756217978
 20
31.7433033249
 10
61.9348940134
 20
31.402734817
 10
61.9212743637
 20
31.0747323792
 10
61.9348940134
 20
30.7624548543
 10
61.9756217978
 20
30.4689096454
 10
62.0430654861
 20
30.1969237535
 10
62.1365755587
 20
29.9491165513
 10
62.2552514624
 20
29.7278745577
 10
62.3979502836
 20
29.5353284539
 10
62.5632977544
 20
29.3733325644
 10
62.7497014884
 20
29.2434469979
 10
62.9553663157
 20
29.1469226236
 10
63.1783115716
 20
29.0846890239
 10
63.4163901715
 20
29.0573455424
 10
63.6673092881
 20
29.0651555118
 10
63.9286524334
 20
29.1080437177
 10
64.1979027299
 20
29.1855971234
 10
64.47246715
 20
29.2970688472
 10
64.7497014884
 20
29.4413853554
 10
65.0269358268
 20
29.617156801
 10
65.301500247
 20
29.8226904092
 10
65.5707505435
 20
30.0560067787
 10
65.8320936887
 20
30.3148589455
 10
66.0830128054
 20
30.5967540217
 10
66.3210914052
 20
30.8989772036
 10
66.5440366611
 20
31.2186179167
 10
66.7497014884
 20
31.5525978463
 10
66.9361052224
 20
31.897700583
 10
67.1014526933
 20
32.2506025988
 10
67.2441515144
 20
32.6079052545
 10
67.3628274182
 20
32.96616753
 10
67.4563374908
 20
33.321939164
 10
67.5237811791
 20
33.6717938809
 10
67.5645089635
 20
34.0123623888
 10
67.5781286132
 20
34.3403648265
 10
67.5645089635
 20
34.6526423515
 10
67.5237811791
 20
34.9461875604
 10
67.4563374908
 20
35.2181734523
 10
67.3628274182
 20
35.4659806545
 10
67.2441515144
 20
35.6872226481
 10
67.1014526933
 20
35.8797687518
 10
66.9361052224
 20
36.0417646414
 10
66.7497014884
 20
36.1716502079
 10
66.5440366611
 20
36.2681745822
 10
66.3210914052
 20
36.3304081819
 10
66.0830128054
 20
36.3577516634
 10
65.8320936887
 20
36.349941694
 10
65.5707505435
 20
36.307053488
 10
65.301500247
 20
36.2295000823
 10
65.0269358268
 20
36.1180283586
 10
64.7497014884
 20
35.9737118504
  0
ARC
  5
19D
330
1F
100
AcDbEntity
  8
0
  6
Continuous
 62
     7
370
    30
100
AcDbCircle
 10
65.6334819737
 20
35.0549084699
 30
0.0
 40
1.968627566381473
100
AcDbArc
 50
351.047781267
 51
128.9414669783
  0
LWPOLYLINE
  5
19E
330
1F
100
AcDbEntity
  8
0
  6
Continuous
 62
     7
370
    30
100
AcDbPolyline
 90
       37
 70
   128
 43
0.0
 10
64.3966652591
 20
29.2375155768
 10
64.3961480978
 20
29.2372169774
 10
64.1025519758
 20
29.08340203
 10
63.8114607124
 20
28.9622483499
 10
63.5253577956
 20
28.8747895775
 10
63.2466841547
 20
28.8217718803
 10
62.9778173348
 20
28.8036475866
 10
62.7210512129
 20
28.8205713263
 10
62.478576427
 20
28.8723987123
 10
62.2524616865
 20
28.9586875713
 10
62.0446361226
 20
29.0787017175
 10
61.8568728297
 20
29.2314172323
 10
61.6907737381
 20
29.4155312008
 10
61.5477559467
 20
29.6294728277
 10
61.4290396328
 20
29.8714168383
 10
61.3356376421
 20
30.1392990516
 10
61.2683468475
 20
30.4308339911
 10
61.2277413504
 20
30.7435343835
 10
61.2141675825
 20
31.0747323792
 10
61.2277413504
 20
31.4216023138
 10
61.2683468475
 20
31.7811848153
 10
61.3356376421
 20
32.1504120525
 10
61.4290396328
 20
32.5261339088
 10
61.5477559467
 20
32.9051448579
 10
61.6907737381
 20
33.284211312
 10
61.8568728297
 20
33.6600992096
 10
62.0446361226
 20
34.0296016079
 10
62.2524616865
 20
34.3895660427
 10
62.478576427
 20
34.7369214242
 10
62.7210512129
 20
35.0687042389
 10
62.9778173348
 20
35.3820838328
 10
63.2466841547
 20
35.6743865617
 10
63.5253577956
 20
35.9431186017
 10
63.8114607124
 20
36.1859872258
 10
64.1025519758
 20
36.4009203646
 10
64.3961480978
 20
36.5860842843
 10
64.3961480978
 20
36.5860842843
  0
LWPOLYLINE
  5
19F
330
1F
100
AcDbEntity
  8
0
  6
Continuous
 62
     7
370
    30
100
AcDbPolyline
 90
       36
 70
   128
 43
0.0
 10
61.6962177779
 20
39.6662989029
 10
61.5900870409
 20
39.7220420817
 10
61.3639723003
 20
39.8083309408
 10
61.1214975144
 20
39.8601583267
 10
60.8647313925
 20
39.8770820665
 10
60.5958645727
 20
39.8589577728
 10
60.3171909317
 20
39.8059400755
 10
60.0310880149
 20
39.7184813032
 10
59.7399967515
 20
39.5973276231
 10
59.4464006295
 20
39.4435126757
 10
59.1528045075
 20
39.258348756
 10
58.8617132441
 20
39.0434156172
 10
58.5756103273
 20
38.800546993
 10
58.2969366864
 20
38.531814953
 10
58.0280698665
 20
38.2395122242
 10
57.7713037446
 20
37.9261326303
 10
57.5288289587
 20
37.5943498156
 10
57.3027142182
 20
37.2469944341
 10
57.0948886543
 20
36.8870299993
 10
56.9071253614
 20
36.517527601
 10
56.7410262698
 20
36.1416397033
 10
56.5980084784
 20
35.7625732493
 10
56.4792921645
 20
35.3835623002
 10
56.3858901738
 20
35.0078404439
 10
56.3185993792
 20
34.6386132067
 10
56.2779938821
 20
34.2790307052
 10
56.2644201142
 20
33.9321607706
 10
56.2779938821
 20
33.6009627749
 10
56.3185993792
 20
33.2882623825
 10
56.3858901738
 20
32.996727443
 10
56.4792921645
 20
32.7288452296
 10
56.5980084784
 20
32.4869012191
 10
56.7410262698
 20
32.2729595922
 10
56.9071253614
 20
32.0888456237
 10
57.0948886543
 20
31.9361301089
 10
57.1965834811
 20
31.8718591415
  0
ARC
  5
1A0
330
1F
100
AcDbEntity
  8
0
  6
Continuous
 62
     7
370
    30
100
AcDbCircle
 10
62.4054125769
 20
34.0608777851
 30
0.0
 40
6.147349138706171
100
AcDbArc
 50
122.6112070127
 51
177.39416952
  0
LWPOLYLINE
  5
1A1
330
1F
100
AcDbEntity
  8
0
  6
Continuous
 62
     7
370
    30
100
AcDbPolyline
 90
       18
 70
   128
 43
0.0
 10
45.2335543277
 20
45.6070621698
 10
45.0367338408
 20
45.4775470831
 10
44.8437442408
 20
45.3187667841
 10
44.6583418507
 20
45.1338117506
 10
44.4841353172
 20
44.926281922
 10
44.3245153723
 20
44.7002166304
 10
44.1825888367
 20
44.4600159794
 10
44.0611181488
 20
44.2103552016
 10
43.9624675976
 20
43.95609366
 10
43.8885573037
 20
43.7021802663
 10
43.840825847
 20
43.4535571559
 10
43.820202266
 20
43.2150634947
 10
43.8270879752
 20
42.9913412908
 10
43.8613489521
 20
42.7867450422
 10
43.9223183457
 20
42.6052569822
 10
44.0088094563
 20
42.4504095695
 10
44.1191388326
 20
42.3252167328
 10
44.233635595
 20
42.2418828213
  0
ARC
  5
1A2
330
1F
100
AcDbEntity
  8
0
  6
Continuous
 62
     7
370
    30
100
AcDbCircle
 10
45.8187529148
 20
44.7957779569
 30
0.0
 40
1.000319679201527
100
AcDbArc
 50
65.5066509653
 51
125.8038074638
  0
ARC
  5
1A3
330
1F
100
AcDbEntity
  8
0
  6
Continuous
 62
     7
370
    30
100
AcDbCircle
 10
45.5238700694
 20
43.843515339
 30
0.0
 40
2.097468293236058
100
AcDbArc
 50
118.394280775
 51
198.3339947285
  0
ARC
  5
1A4
330
1F
100
AcDbEntity
  8
0
  6
Continuous
 62
     7
370
    30
100
AcDbCircle
 10
45.0506291636
 20
44.8698402586
 30
0.0
 40
0.9722219901682837
100
AcDbArc
 50
89.0114885359
 51
122.6263633579
  0
ENDSEC
  0
SECTION
  2
OBJECTS
  0
DICTIONARY
  5
C
330
0
100
AcDbDictionary
281
     1
  3
ACAD_GROUP
350
D
  3
ACAD_LAYOUT
350
1A
  3
ACAD_MLINESTYLE
350
17
  3
ACAD_PLOTSETTINGS
350
19
  3
ACAD_PLOTSTYLENAME
350
E
  3
ACAD_SCALELIST
350
47
  0
DICTIONARY
  5
D
102
{ACAD_REACTORS
330
C
102
}
330
C
100
AcDbDictionary
281
     1
  0
DICTIONARY
  5
1A
102
{ACAD_REACTORS
330
C
102
}
330
C
100
AcDbDictionary
281
     1
  3
Layout1
350
1E
  3
Layout2
350
26
  3
Model
350
22
  0
DICTIONARY
  5
17
102
{ACAD_REACTORS
330
C
102
}
330
C
100
AcDbDictionary
281
     1
  3
Standard
350
18
  0
DICTIONARY
  5
19
102
{ACAD_REACTORS
330
C
102
}
330
C
100
AcDbDictionary
281
     1
  0
ACDBDICTIONARYWDFLT
  5
E
102
{ACAD_REACTORS
330
C
102
}
330
C
100
AcDbDictionary
281
     1
  3
Normal
350
F
100
AcDbDictionaryWithDefault
340
F
  0
DICTIONARY
  5
47
102
{ACAD_REACTORS
330
C
102
}
330
C
100
AcDbDictionary
281
     1
  3
A0
350
48
  3
A1
350
49
  3
A2
350
4A
  3
A3
350
4B
  3
A4
350
4C
  3
A5
350
4D
  3
A6
350
4E
  3
A7
350
4F
  3
A8
350
50
  3
A9
350
51
  3
B0
350
52
  3
B1
350
53
  3
B2
350
54
  3
B3
350
55
  3
B4
350
56
  3
B5
350
57
  3
B6
350
58
  3
B7
350
59
  3
B8
350
5A
  3
B9
350
5B
  3
C0
350
5C
  3
C1
350
5D
  3
C2
350
5E
  3
C3
350
5F
  3
C4
350
60
  3
C5
350
61
  3
C6
350
62
  3
C7
350
63
  3
C8
350
64
  3
C9
350
65
  3
D0
350
66
  3
D1
350
67
  3
D2
350
68
  0
LAYOUT
  5
1E
102
{ACAD_REACTORS
330
1A
102
}
330
1A
100
AcDbPlotSettings
  1

  2
none_device
  4

  6

 40
0.0
 41
0.0
 42
0.0
 43
0.0
 44
0.0
 45
0.0
 46
0.0
 47
0.0
 48
0.0
 49
0.0
140
0.0
141
0.0
142
1.0
143
1.0
 70
   688
 72
     1
 73
     0
 74
     5
  7

 75
    16
147
1.0
148
0.0
149
0.0
100
AcDbLayout
  1
Layout1
 70
     1
 71
     1
 10
0.0
 20
0.0
 11
420.0
 21
297.0
 12
0.0
 22
0.0
 32
0.0
 14
1.0000000000E+20
 24
1.0000000000E+20
 34
1.0000000000E+20
 15
-1.0000000000E+20
 25
-1.0000000000E+20
 35
-1.0000000000E+20
146
0.0
 13
0.0
 23
0.0
 33
0.0
 16
1.0
 26
0.0
 36
0.0
 17
0.0
 27
1.0
 37
0.0
 76
     0
330
1B
  0
LAYOUT
  5
26
102
{ACAD_REACTORS
330
1A
102
}
330
1A
100
AcDbPlotSettings
  1

  2
none_device
  4

  6

 40
0.0
 41
0.0
 42
0.0
 43
0.0
 44
0.0
 45
0.0
 46
0.0
 47
0.0
 48
0.0
 49
0.0
140
0.0
141
0.0
142
1.0
143
1.0
 70
   688
 72
     1
 73
     0
 74
     5
  7

 75
    16
147
1.0
148
0.0
149
0.0
100
AcDbLayout
  1
Layout2
 70
     1
 71
     2
 10
0.0
 20
0.0
 11
0.0
 21
0.0
 12
0.0
 22
0.0
 32
0.0
 14
0.0
 24
0.0
 34
0.0
 15
0.0
 25
0.0
 35
0.0
146
0.0
 13
0.0
 23
0.0
 33
0.0
 16
1.0
 26
0.0
 36
0.0
 17
0.0
 27
1.0
 37
0.0
 76
     0
330
23
  0
LAYOUT
  5
22
102
{ACAD_REACTORS
330
1A
102
}
330
1A
100
AcDbPlotSettings
  1

  2
none_device
  4
Letter_(8.50_x_11.00_Inches)
  6

 40
6.35
 41
6.35
 42
6.35000508
 43
6.35000508
 44
215.9
 45
279.4
 46
0.0
 47
0.0
 48
0.0
 49
0.0
140
0.0
141
0.0
142
1.0
143
1.0
 70
  1712
 72
     1
 73
     0
 74
     0
  7

 75
     0
147
1.0
148
0.0
149
0.0
100
AcDbLayout
  1
Model
 70
     1
 71
     0
 10
0.0
 20
0.0
 11
74.25
 21
52.5
 12
0.0
 22
0.0
 32
0.0
 14
0.0
 24
0.0
 34
0.0
 15
74.25
 25
52.5
 35
0.0
146
0.0
 13
0.0
 23
0.0
 33
0.0
 16
1.0
 26
0.0
 36
0.0
 17
0.0
 27
1.0
 37
0.0
 76
     0
330
1F
331
29
  0
MLINESTYLE
  5
18
102
{ACAD_REACTORS
330
17
102
}
330
17
100
AcDbMlineStyle
  2
Standard
 70
     0
  3

 62
   256
 51
90.0
 52
90.0
 71
     2
 49
0.5
 62
   256
  6
BYLAYER
 49
-0.5
 62
   256
  6
BYLAYER
  0
ACDBPLACEHOLDER
  5
F
102
{ACAD_REACTORS
330
E
102
}
330
E
  0
SCALE
  5
48
102
{ACAD_REACTORS
330
47
102
}
330
47
100
AcDbScale
 70
     0
300
1:1
140
1.0
141
1.0
290
     1
  0
SCALE
  5
49
102
{ACAD_REACTORS
330
47
102
}
330
47
100
AcDbScale
 70
     0
300
1:2
140
1.0
141
2.0
290
     0
  0
SCALE
  5
4A
102
{ACAD_REACTORS
330
47
102
}
330
47
100
AcDbScale
 70
     0
300
1:4
140
1.0
141
4.0
290
     0
  0
SCALE
  5
4B
102
{ACAD_REACTORS
330
47
102
}
330
47
100
AcDbScale
 70
     0
300
1:5
140
1.0
141
5.0
290
     0
  0
SCALE
  5
4C
102
{ACAD_REACTORS
330
47
102
}
330
47
100
AcDbScale
 70
     0
300
1:8
140
1.0
141
8.0
290
     0
  0
SCALE
  5
4D
102
{ACAD_REACTORS
330
47
102
}
330
47
100
AcDbScale
 70
     0
300
1:10
140
1.0
141
10.0
290
     0
  0
SCALE
  5
4E
102
{ACAD_REACTORS
330
47
102
}
330
47
100
AcDbScale
 70
     0
300
1:16
140
1.0
141
16.0
290
     0
  0
SCALE
  5
4F
102
{ACAD_REACTORS
330
47
102
}
330
47
100
AcDbScale
 70
     0
300
1:20
140
1.0
141
20.0
290
     0
  0
SCALE
  5
50
102
{ACAD_REACTORS
330
47
102
}
330
47
100
AcDbScale
 70
     0
300
1:30
140
1.0
141
30.0
290
     0
  0
SCALE
  5
51
102
{ACAD_REACTORS
330
47
102
}
330
47
100
AcDbScale
 70
     0
300
1:40
140
1.0
141
40.0
290
     0
  0
SCALE
  5
52
102
{ACAD_REACTORS
330
47
102
}
330
47
100
AcDbScale
 70
     0
300
1:50
140
1.0
141
50.0
290
     0
  0
SCALE
  5
53
102
{ACAD_REACTORS
330
47
102
}
330
47
100
AcDbScale
 70
     0
300
1:100
140
1.0
141
100.0
290
     0
  0
SCALE
  5
54
102
{ACAD_REACTORS
330
47
102
}
330
47
100
AcDbScale
 70
     0
300
2:1
140
2.0
141
1.0
290
     0
  0
SCALE
  5
55
102
{ACAD_REACTORS
330
47
102
}
330
47
100
AcDbScale
 70
     0
300
4:1
140
4.0
141
1.0
290
     0
  0
SCALE
  5
56
102
{ACAD_REACTORS
330
47
102
}
330
47
100
AcDbScale
 70
     0
300
8:1
140
8.0
141
1.0
290
     0
  0
SCALE
  5
57
102
{ACAD_REACTORS
330
47
102
}
330
47
100
AcDbScale
 70
     0
300
10:1
140
10.0
141
1.0
290
     0
  0
SCALE
  5
58
102
{ACAD_REACTORS
330
47
102
}
330
47
100
AcDbScale
 70
     0
300
100:1
140
100.0
141
1.0
290
     0
  0
SCALE
  5
59
102
{ACAD_REACTORS
330
47
102
}
330
47
100
AcDbScale
 70
     0
300
1/128" = 1'-0"
140
0.0078125
141
12.0
290
     0
  0
SCALE
  5
5A
102
{ACAD_REACTORS
330
47
102
}
330
47
100
AcDbScale
 70
     0
300
1/64" = 1'-0"
140
0.015625
141
12.0
290
     0
  0
SCALE
  5
5B
102
{ACAD_REACTORS
330
47
102
}
330
47
100
AcDbScale
 70
     0
300
1/32" = 1'-0"
140
0.03125
141
12.0
290
     0
  0
SCALE
  5
5C
102
{ACAD_REACTORS
330
47
102
}
330
47
100
AcDbScale
 70
     0
300
1/16" = 1'-0"
140
0.0625
141
12.0
290
     0
  0
SCALE
  5
5D
102
{ACAD_REACTORS
330
47
102
}
330
47
100
AcDbScale
 70
     0
300
3/32" = 1'-0"
140
0.09375
141
12.0
290
     0
  0
SCALE
  5
5E
102
{ACAD_REACTORS
330
47
102
}
330
47
100
AcDbScale
 70
     0
300
1/8" = 1'-0"
140
0.125
141
12.0
290
     0
  0
SCALE
  5
5F
102
{ACAD_REACTORS
330
47
102
}
330
47
100
AcDbScale
 70
     0
300
3/16" = 1'-0"
140
0.1875
141
12.0
290
     0
  0
SCALE
  5
60
102
{ACAD_REACTORS
330
47
102
}
330
47
100
AcDbScale
 70
     0
300
1/4" = 1'-0"
140
0.25
141
12.0
290
     0
  0
SCALE
  5
61
102
{ACAD_REACTORS
330
47
102
}
330
47
100
AcDbScale
 70
     0
300
3/8" = 1'-0"
140
0.375
141
12.0
290
     0
  0
SCALE
  5
62
102
{ACAD_REACTORS
330
47
102
}
330
47
100
AcDbScale
 70
     0
300
1/2" = 1'-0"
140
0.5
141
12.0
290
     0
  0
SCALE
  5
63
102
{ACAD_REACTORS
330
47
102
}
330
47
100
AcDbScale
 70
     0
300
3/4" = 1'-0"
140
0.75
141
12.0
290
     0
  0
SCALE
  5
64
102
{ACAD_REACTORS
330
47
102
}
330
47
100
AcDbScale
 70
     0
300
1" = 1'-0"
140
1.0
141
12.0
290
     0
  0
SCALE
  5
65
102
{ACAD_REACTORS
330
47
102
}
330
47
100
AcDbScale
 70
     0
300
1-1/2" = 1'-0"
140
1.5
141
12.0
290
     0
  0
SCALE
  5
66
102
{ACAD_REACTORS
330
47
102
}
330
47
100
AcDbScale
 70
     0
300
3" = 1'-0"
140
3.0
141
12.0
290
     0
  0
SCALE
  5
67
102
{ACAD_REACTORS
330
47
102
}
330
47
100
AcDbScale
 70
     0
300
6" = 1'-0"
140
6.0
141
12.0
290
     0
  0
SCALE
  5
68
102
{ACAD_REACTORS
330
47
102
}
330
47
100
AcDbScale
 70
     0
300
1'-0" = 1'-0"
140
12.0
141
12.0
290
     0
  0
ENDSEC
  0
EOF
