  0
SECTION
  2
HEADER
  9
$ACADVER
  1
AC1015
  9
$ACADMAINTVER
 70
     6
  9
$DWGCODEPAGE
  3
ANSI_950
  9
$INSBASE
 10
0.0
 20
0.0
 30
0.0
  9
$EXTMIN
 10
0.0
 20
0.0
 30
0.0
  9
$EXTMAX
 10
84.8571428571
 20
60.0
 30
0.0
  9
$LIMMIN
 10
0.0
 20
0.0
  9
$LIMMAX
 10
84.8571428571
 20
60.0
  9
$ORTHOMODE
 70
     0
  9
$REGENMODE
 70
     1
  9
$FILLMODE
 70
     1
  9
$QTEXTMODE
 70
     0
  9
$MIRRTEXT
 70
     1
  9
$LTSCALE
 40
0.2857142857
  9
$ATTMODE
 70
     1
  9
$TEXTSIZE
 40
0.7142857143
  9
$TRACEWID
 40
1.0
  9
$TEXTSTYLE
  7
STANDARD
  9
$CLAYER
  8
0
  9
$CELTYPE
  6
ByLayer
  9
$CECOLOR
 62
   256
  9
$CELTSCALE
 40
1.0
  9
$DISPSILH
 70
     0
  9
$DIMSCALE
 40
1.0
  9
$DIMASZ
 40
0.5714285714
  9
$DIMEXO
 40
0.2857142857
  9
$DIMDLI
 40
3.75
  9
$DIMRND
 40
0.0
  9
$DIMDLE
 40
0.0
  9
$DIMEXE
 40
0.2857142857
  9
$DIMTP
 40
0.0
  9
$DIMTM
 40
0.0
  9
$DIMTXT
 40
0.7142857143
  9
$DIMCEN
 40
2.5
  9
$DIMTSZ
 40
0.0
  9
$DIMTOL
 70
     0
  9
$DIMLIM
 70
     0
  9
$DIMTIH
 70
     1
  9
$DIMTOH
 70
     1
  9
$DIMSE1
 70
     0
  9
$DIMSE2
 70
     0
  9
$DIMTAD
 70
     1
  9
$DIMZIN
 70
     0
  9
$DIMBLK
  1

  9
$DIMASO
 70
     1
  9
$DIMSHO
 70
     1
  9
$DIMPOST
  1

  9
$DIMAPOST
  1

  9
$DIMALT
 70
     0
  9
$DIMALTD
 70
     3
  9
$DIMALTF
 40
0.0393700787
  9
$DIMLFAC
 40
1.0
  9
$DIMTOFL
 70
     1
  9
$DIMTVP
 40
0.0
  9
$DIMTIX
 70
     0
  9
$DIMSOXD
 70
     0
  9
$DIMSAH
 70
     0
  9
$DIMBLK1
  1

  9
$DIMBLK2
  1

  9
$DIMSTYLE
  2
ISO-25
  9
$DIMCLRD
 70
     0
  9
$DIMCLRE
 70
     0
  9
$DIMCLRT
 70
     0
  9
$DIMTFAC
 40
1.0
  9
$DIMGAP
 40
0.2857142857
  9
$DIMJUST
 70
     0
  9
$DIMSD1
 70
     0
  9
$DIMSD2
 70
     0
  9
$DIMTOLJ
 70
     0
  9
$DIMTZIN
 70
     0
  9
$DIMALTZ
 70
     0
  9
$DIMALTTZ
 70
     0
  9
$DIMUPT
 70
     0
  9
$DIMDEC
 70
     2
  9
$DIMTDEC
 70
     2
  9
$DIMALTU
 70
     2
  9
$DIMALTTD
 70
     3
  9
$DIMTXSTY
  7
STANDARD
  9
$DIMAUNIT
 70
     0
  9
$DIMADEC
 70
     1
  9
$DIMALTRND
 40
0.0
  9
$DIMAZIN
 70
     0
  9
$DIMDSEP
 70
    44
  9
$DIMATFIT
 70
     3
  9
$DIMFRAC
 70
     0
  9
$DIMLDRBLK
  1

  9
$DIMLUNIT
 70
     2
  9
$DIMLWD
 70
    -2
  9
$DIMLWE
 70
    -2
  9
$DIMTMOVE
 70
     0
  9
$LUNITS
 70
     2
  9
$LUPREC
 70
     2
  9
$SKETCHINC
 40
1.0
  9
$FILLETRAD
 40
10.0
  9
$AUNITS
 70
     0
  9
$AUPREC
 70
     1
  9
$MENU
  1
.
  9
$ELEVATION
 40
0.0
  9
$PELEVATION
 40
0.0
  9
$THICKNESS
 40
0.0
  9
$LIMCHECK
 70
     0
  9
$CHAMFERA
 40
0.0
  9
$CHAMFERB
 40
0.0
  9
$CHAMFERC
 40
0.0
  9
$CHAMFERD
 40
0.0
  9
$SKPOLY
 70
     0
  9
$TDCREATE
 40
2457505.370942685
  9
$TDUCREATE
 40
2457505.037609352
  9
$TDUPDATE
 40
2457505.370946667
  9
$TDUUPDATE
 40
2457505.037613333
  9
$TDINDWG
 40
0.0000000116
  9
$TDUSRTIMER
 40
0.0000000116
  9
$USRTIMER
 70
     1
  9
$ANGBASE
 50
0.0
  9
$ANGDIR
 70
     0
  9
$PDMODE
 70
     0
  9
$PDSIZE
 40
-1.0
  9
$PLINEWID
 40
0.0
  9
$SPLFRAME
 70
     0
  9
$SPLINETYPE
 70
     6
  9
$SPLINESEGS
 70
     8
  9
$HANDSEED
  5
241
  9
$SURFTAB1
 70
     6
  9
$SURFTAB2
 70
     6
  9
$SURFTYPE
 70
     6
  9
$SURFU
 70
     6
  9
$SURFV
 70
     6
  9
$UCSBASE
  2

  9
$UCSNAME
  2

  9
$UCSORG
 10
0.0
 20
0.0
 30
0.0
  9
$UCSXDIR
 10
1.0
 20
0.0
 30
0.0
  9
$UCSYDIR
 10
0.0
 20
1.0
 30
0.0
  9
$UCSORTHOREF
  2

  9
$UCSORTHOVIEW
 70
     0
  9
$UCSORGTOP
 10
0.0
 20
0.0
 30
0.0
  9
$UCSORGBOTTOM
 10
0.0
 20
0.0
 30
0.0
  9
$UCSORGLEFT
 10
0.0
 20
0.0
 30
0.0
  9
$UCSORGRIGHT
 10
0.0
 20
0.0
 30
0.0
  9
$UCSORGFRONT
 10
0.0
 20
0.0
 30
0.0
  9
$UCSORGBACK
 10
0.0
 20
0.0
 30
0.0
  9
$PUCSBASE
  2

  9
$PUCSNAME
  2

  9
$PUCSORG
 10
0.0
 20
0.0
 30
0.0
  9
$PUCSXDIR
 10
1.0
 20
0.0
 30
0.0
  9
$PUCSYDIR
 10
0.0
 20
1.0
 30
0.0
  9
$PUCSORTHOREF
  2

  9
$PUCSORTHOVIEW
 70
     0
  9
$PUCSORGTOP
 10
0.0
 20
0.0
 30
0.0
  9
$PUCSORGBOTTOM
 10
0.0
 20
0.0
 30
0.0
  9
$PUCSORGLEFT
 10
0.0
 20
0.0
 30
0.0
  9
$PUCSORGRIGHT
 10
0.0
 20
0.0
 30
0.0
  9
$PUCSORGFRONT
 10
0.0
 20
0.0
 30
0.0
  9
$PUCSORGBACK
 10
0.0
 20
0.0
 30
0.0
  9
$USERI1
 70
     0
  9
$USERI2
 70
     0
  9
$USERI3
 70
     0
  9
$USERI4
 70
     0
  9
$USERI5
 70
     0
  9
$USERR1
 40
0.0
  9
$USERR2
 40
0.0
  9
$USERR3
 40
0.0
  9
$USERR4
 40
0.0
  9
$USERR5
 40
0.0
  9
$WORLDVIEW
 70
     1
  9
$SHADEDGE
 70
     3
  9
$SHADEDIF
 70
    70
  9
$TILEMODE
 70
     1
  9
$MAXACTVP
 70
    64
  9
$PINSBASE
 10
0.0
 20
0.0
 30
0.0
  9
$PLIMCHECK
 70
     0
  9
$PEXTMIN
 10
1.0000000000E+20
 20
1.0000000000E+20
 30
1.0000000000E+20
  9
$PEXTMAX
 10
-1.0000000000E+20
 20
-1.0000000000E+20
 30
-1.0000000000E+20
  9
$PLIMMIN
 10
0.0
 20
0.0
  9
$PLIMMAX
 10
420.0
 20
297.0
  9
$UNITMODE
 70
     0
  9
$VISRETAIN
 70
     1
  9
$PLINEGEN
 70
     0
  9
$PSLTSCALE
 70
     1
  9
$TREEDEPTH
 70
  3020
  9
$CMLSTYLE
  2
Standard
  9
$CMLJUST
 70
     0
  9
$CMLSCALE
 40
20.0
  9
$PROXYGRAPHICS
 70
     1
  9
$MEASUREMENT
 70
     1
  9
$CELWEIGHT
370
    -1
  9
$ENDCAPS
280
     0
  9
$JOINSTYLE
280
     0
  9
$LWDISPLAY
290
     1
  9
$INSUNITS
 70
     4
  9
$HYPERLINKBASE
  1

  9
$STYLESHEET
  1

  9
$XEDIT
290
     1
  9
$CEPSNTYPE
380
     0
  9
$PSTYLEMODE
290
     1
  9
$FINGERPRINTGUID
  2
{90B29714-AB9B-4FB3-BD56-3EA50E408A10}
  9
$VERSIONGUID
  2
{FAEB1C32-E019-11D5-929B-00C0DF256EC4}
  9
$EXTNAMES
290
     1
  9
$PSVPSCALE
 40
0.0
  9
$OLESTARTUP
290
     0
  0
ENDSEC
  0
SECTION
  2
CLASSES
  0
CLASS
  1
ACDBDICTIONARYWDFLT
  2
AcDbDictionaryWithDefault
  3
ObjectDBX Classes
 90
        0
280
     0
281
     0
  0
CLASS
  1
VISUALSTYLE
  2
AcDbVisualStyle
  3
ObjectDBX Classes
 90
     4095
280
     0
281
     0
  0
CLASS
  1
MATERIAL
  2
AcDbMaterial
  3
ObjectDBX Classes
 90
     1153
280
     0
281
     0
  0
CLASS
  1
SCALE
  2
AcDbScale
  3
ObjectDBX Classes
 90
     1153
280
     0
281
     0
  0
CLASS
  1
TABLESTYLE
  2
AcDbTableStyle
  3
ObjectDBX Classes
 90
     4095
280
     0
281
     0
  0
CLASS
  1
MLEADERSTYLE
  2
AcDbMLeaderStyle
  3
ACDB_MLEADERSTYLE_CLASS
 90
     4095
280
     0
281
     0
  0
CLASS
  1
SUN
  2
AcDbSun
  3
SCENEOE
 90
     1153
280
     0
281
     0
  0
CLASS
  1
ACDBPLACEHOLDER
  2
AcDbPlaceHolder
  3
ObjectDBX Classes
 90
        0
280
     0
281
     0
  0
CLASS
  1
LAYOUT
  2
AcDbLayout
  3
ObjectDBX Classes
 90
        0
280
     0
281
     0
  0
ENDSEC
  0
SECTION
  2
TABLES
  0
TABLE
  2
VPORT
  5
8
330
0
100
AcDbSymbolTable
 70
     1
  0
VPORT
  5
29
330
8
100
AcDbSymbolTableRecord
100
AcDbViewportTableRecord
  2
*Active
 70
     0
 10
0.0
 20
0.0
 11
1.0
 21
1.0
 12
42.4285714286
 22
30.0
 13
0.0
 23
0.0
 14
10.0
 24
10.0
 15
10.0
 25
10.0
 16
0.0
 26
0.0
 36
1.0
 17
0.0
 27
0.0
 37
0.0
 40
60.0
 41
1.4142857143
 42
50.0
 43
0.0
 44
0.0
 50
0.0
 51
0.0
 71
     0
 72
  2000
 73
     1
 74
     3
 75
     0
 76
     0
 77
     0
 78
     0
281
     0
 65
     1
110
0.0
120
0.0
130
0.0
111
1.0
121
0.0
131
0.0
112
0.0
122
1.0
132
0.0
 79
     0
146
0.0
  0
ENDTAB
  0
TABLE
  2
LTYPE
  5
5
330
0
100
AcDbSymbolTable
 70
     6
  0
LTYPE
  5
14
330
5
100
AcDbSymbolTableRecord
100
AcDbLinetypeTableRecord
  2
ByBlock
 70
     0
  3

 72
    65
 73
     0
 40
0.0
  0
LTYPE
  5
15
330
5
100
AcDbSymbolTableRecord
100
AcDbLinetypeTableRecord
  2
ByLayer
 70
     0
  3

 72
    65
 73
     0
 40
0.0
  0
LTYPE
  5
16
330
5
100
AcDbSymbolTableRecord
100
AcDbLinetypeTableRecord
  2
Continuous
 70
     0
  3
Solid line
 72
    65
 73
     0
 40
0.0
  0
LTYPE
  5
6E
330
5
100
AcDbSymbolTableRecord
100
AcDbLinetypeTableRecord
  2
HIDDEN
 70
     0
  3
Hidden __ __ __ __ __ __ __ __ __ __ __ __ __ __
 72
    65
 73
     2
 40
1.905
 49
1.27
 74
     0
 49
-0.635
 74
     0
  0
LTYPE
  5
6F
330
5
100
AcDbSymbolTableRecord
100
AcDbLinetypeTableRecord
  2
PHANTOM
 70
     0
  3
Phantom ______  __  __  ______  __  __  ______
 72
    65
 73
     6
 40
12.7
 49
6.35
 74
     0
 49
-1.27
 74
     0
 49
1.27
 74
     0
 49
-1.27
 74
     0
 49
1.27
 74
     0
 49
-1.27
 74
     0
  0
LTYPE
  5
70
330
5
100
AcDbSymbolTableRecord
100
AcDbLinetypeTableRecord
  2
CENTER
 70
     0
  3
Center ____ _ ____ _ ____ _ ____ _ ____ _ ____
 72
    65
 73
     4
 40
10.16
 49
6.35
 74
     0
 49
-1.27
 74
     0
 49
1.27
 74
     0
 49
-1.27
 74
     0
  0
LTYPE
  5
71
330
5
100
AcDbSymbolTableRecord
100
AcDbLinetypeTableRecord
  2
CENTERX2
 70
     0
  3
Center (2x) ________  __  ________  __  _____
 72
    65
 73
     4
 40
20.32
 49
12.7
 74
     0
 49
-2.54
 74
     0
 49
2.54
 74
     0
 49
-2.54
 74
     0
  0
LTYPE
  5
72
330
5
100
AcDbSymbolTableRecord
100
AcDbLinetypeTableRecord
  2
DOT2
 70
     0
  3
Dot (.5x) ........................................
 72
    65
 73
     2
 40
0.635
 49
0.0
 74
     0
 49
-0.635
 74
     0
  0
ENDTAB
  0
TABLE
  2
LAYER
  5
2
330
0
100
AcDbSymbolTable
 70
     3
  0
LAYER
  5
10
330
2
100
AcDbSymbolTableRecord
100
AcDbLayerTableRecord
  2
0
 70
     0
 62
     7
  6
Continuous
370
    -3
390
F
  0
LAYER
  5
73
330
2
100
AcDbSymbolTableRecord
100
AcDbLayerTableRecord
  2
SLD-0
 70
     0
 62
     7
  6
Continuous
370
    15
390
F
  0
LAYER
  5
74
330
2
100
AcDbSymbolTableRecord
100
AcDbLayerTableRecord
  2
工作區域參考線
 70
     0
 62
   179
  6
Continuous
370
    -3
390
F
  0
ENDTAB
  0
TABLE
  2
STYLE
  5
3
330
0
100
AcDbSymbolTable
 70
     4
  0
STYLE
  5
11
330
3
100
AcDbSymbolTableRecord
100
AcDbTextStyleTableRecord
  2
STANDARD
 70
     0
 40
0.0
 41
1.0
 50
0.0
 71
     0
 42
0.7142857143
  3
ARIAL.TTF
  4

1001
ACAD
1000
ARIAL
1071
       34
  0
STYLE
  5
C9
330
3
100
AcDbSymbolTableRecord
100
AcDbTextStyleTableRecord
  2
SLDTEXTSTYLE0
 70
     0
 40
0.0
 41
0.948
 50
0.0
 71
     0
 42
0.7142857143
  3
ARIAL.TTF
  4

1001
ACAD
1000
Arial
1071
      290
  0
STYLE
  5
D2
330
3
100
AcDbSymbolTableRecord
100
AcDbTextStyleTableRecord
  2
SLDTEXTSTYLE1
 70
     0
 40
0.0
 41
1.0
 50
0.0
 71
     0
 42
0.7142857143
  3
ARIALBD.TTF
  4

1001
ACAD
1000
Arial CE
1071
 33554722
  0
STYLE
  5
105
330
3
100
AcDbSymbolTableRecord
100
AcDbTextStyleTableRecord
  2
SLDTEXTSTYLE2
 70
     0
 40
0.0
 41
1.0
 50
0.0
 71
     0
 42
0.7142857143
  3
ARIAL.TTF
  4

1001
ACAD
1000
Arial CE
1071
      290
  0
ENDTAB
  0
TABLE
  2
VIEW
  5
6
330
0
100
AcDbSymbolTable
 70
     0
  0
ENDTAB
  0
TABLE
  2
UCS
  5
7
330
0
100
AcDbSymbolTable
 70
     0
  0
ENDTAB
  0
TABLE
  2
APPID
  5
9
330
0
100
AcDbSymbolTable
 70
     1
  0
APPID
  5
12
330
9
100
AcDbSymbolTableRecord
100
AcDbRegAppTableRecord
  2
ACAD
 70
     0
  0
ENDTAB
  0
TABLE
  2
DIMSTYLE
  5
A
330
0
100
AcDbSymbolTable
 70
     3
100
AcDbDimStyleTable
  0
DIMSTYLE
105
27
330
A
100
AcDbSymbolTableRecord
100
AcDbDimStyleTableRecord
  2
ISO-25
 70
     0
 41
2.5
 42
0.625
 43
3.75
 44
1.25
 73
     0
 74
     0
 77
     1
 78
     8
140
2.5
141
2.5
143
0.0393700787
147
0.625
171
     3
172
     1
178
     0
271
     2
272
     2
274
     3
278
    44
283
     0
284
     8
340
11
  0
DIMSTYLE
105
141
102
{ACAD_REACTORS
330
140
330
1BA
330
1C4
102
}
330
A
100
AcDbSymbolTableRecord
100
AcDbDimStyleTableRecord
  2
SLDDIMSTYLE0
 70
     0
 41
0.5714285714
 44
0.0
 45
0.000000001
 73
     0
 74
     0
 77
     1
 78
    12
 79
     3
140
0.7142857143
147
0.1785714286
173
     1
178
     0
271
     2
272
     2
276
     2
284
    12
340
C9
  0
DIMSTYLE
105
14C
102
{ACAD_REACTORS
330
14B
102
}
330
A
100
AcDbSymbolTableRecord
100
AcDbDimStyleTableRecord
  2
SLDDIMSTYLE1
 70
     0
 41
0.5714285714
 44
0.0
 45
0.000000001
 78
    12
 79
     3
140
0.7142857143
141
0.0
147
0.1785714286
173
     1
178
     0
271
     2
272
     2
276
     2
284
    12
340
C9
  0
ENDTAB
  0
TABLE
  2
BLOCK_RECORD
  5
1
330
0
100
AcDbSymbolTable
 70
     9
  0
BLOCK_RECORD
  5
1F
330
1
100
AcDbSymbolTableRecord
100
AcDbBlockTableRecord
  2
*Model_Space
340
22
  0
BLOCK_RECORD
  5
1B
330
1
100
AcDbSymbolTableRecord
100
AcDbBlockTableRecord
  2
*Paper_Space
340
1E
  0
BLOCK_RECORD
  5
23
330
1
100
AcDbSymbolTableRecord
100
AcDbBlockTableRecord
  2
*Paper_Space0
340
26
  0
BLOCK_RECORD
  5
75
330
1
100
AcDbSymbolTableRecord
100
AcDbBlockTableRecord
  2
圖塊6
340
0
102
{BLKREFS
331
C8
102
}
  0
BLOCK_RECORD
  5
CB
330
1
100
AcDbSymbolTableRecord
100
AcDbBlockTableRecord
  2
SW_NOTE_0
340
0
102
{BLKREFS
331
D1
102
}
  0
BLOCK_RECORD
  5
102
330
1
100
AcDbSymbolTableRecord
100
AcDbBlockTableRecord
  2
SW_NOTE_1
340
0
102
{BLKREFS
331
108
102
}
  0
BLOCK_RECORD
  5
142
330
1
100
AcDbSymbolTableRecord
100
AcDbBlockTableRecord
  2
_D
340
0
  0
BLOCK_RECORD
  5
14D
330
1
100
AcDbSymbolTableRecord
100
AcDbBlockTableRecord
  2
_D_1
340
0
  0
BLOCK_RECORD
  5
155
330
1
100
AcDbSymbolTableRecord
100
AcDbBlockTableRecord
  2
SW_CENTERMARKSYMBOL_0
340
0
102
{BLKREFS
331
160
102
}
  0
BLOCK_RECORD
  5
1BB
330
1
100
AcDbSymbolTableRecord
100
AcDbBlockTableRecord
  2
_D_2
340
0
  0
BLOCK_RECORD
  5
1C5
330
1
100
AcDbSymbolTableRecord
100
AcDbBlockTableRecord
  2
_D_3
340
0
  0
ENDTAB
  0
ENDSEC
  0
SECTION
  2
BLOCKS
  0
BLOCK
  5
20
330
1F
100
AcDbEntity
  8
0
100
AcDbBlockBegin
  2
*Model_Space
 70
     0
 10
0.0
 20
0.0
 30
0.0
  3
*Model_Space
  1

  0
ENDBLK
  5
21
330
1F
100
AcDbEntity
  8
0
100
AcDbBlockEnd
  0
BLOCK
  5
1C
330
1B
100
AcDbEntity
 67
     1
  8
0
100
AcDbBlockBegin
  2
*Paper_Space
 70
     0
 10
0.0
 20
0.0
 30
0.0
  3
*Paper_Space
  1

  0
ENDBLK
  5
1D
330
1B
100
AcDbEntity
 67
     1
  8
0
100
AcDbBlockEnd
  0
BLOCK
  5
24
330
23
100
AcDbEntity
  8
0
100
AcDbBlockBegin
  2
*Paper_Space0
 70
     0
 10
0.0
 20
0.0
 30
0.0
  3
*Paper_Space0
  1

  0
ENDBLK
  5
25
330
23
100
AcDbEntity
  8
0
100
AcDbBlockEnd
  0
BLOCK
  5
76
330
75
100
AcDbEntity
  8
0
100
AcDbBlockBegin
  2
圖塊6
 70
     0
 10
0.0
 20
0.0
 30
0.0
  3
圖塊6
  1

  0
ARC
  5
78
330
75
100
AcDbEntity
  8
0
 62
     7
370
    30
100
AcDbCircle
 10
0.4371869811
 20
1.7434480826
 30
0.0
 40
0.4371869811267632
100
AcDbArc
 50
130.2115225915
 51
228.588904108
  0
ARC
  5
79
330
75
100
AcDbEntity
  8
0
 62
     7
370
    30
100
AcDbCircle
 10
1.3859753137
 20
1.7128415547
 30
0.0
 40
0.7363815505193204
100
AcDbArc
 50
140.4331765613
 51
251.0865666567
  0
ARC
  5
7A
330
75
100
AcDbEntity
  8
0
 62
     7
370
    30
100
AcDbCircle
 10
1.4790011995
 20
1.8033588489
 30
0.0
 40
0.8541819022199607
100
AcDbArc
 50
247.1485306747
 51
309.6030773927
  0
LINE
  5
7B
330
75
100
AcDbEntity
  8
0
 62
     7
370
    30
100
AcDbLine
 10
0.5282564934
 20
2.4377664567
 30
0.0
 11
0.1549341349
 21
2.0773130062
 31
0.0
  0
LINE
  5
7C
330
75
100
AcDbEntity
  8
0
 62
     7
370
    30
100
AcDbLine
 10
0.14800654
 20
1.4155652851
 30
0.0
 11
1.2934929143
 21
0.4199641878
 31
0.0
  0
LINE
  5
7D
330
75
100
AcDbEntity
  8
0
 62
     7
370
    30
100
AcDbLine
 10
1.2934929143
 20
0.4199641878
 30
0.0
 11
1.1131923656
 21
0.2439926477
 31
0.0
  0
LINE
  5
7E
330
75
100
AcDbEntity
  8
0
 62
     7
370
    30
100
AcDbLine
 10
1.1131923656
 20
0.2439926477
 30
0.0
 11
1.3965864698
 21
0.0
 31
0.0
  0
LINE
  5
7F
330
75
100
AcDbEntity
  8
0
 62
     7
370
    30
100
AcDbLine
 10
2.3136334511
 20
0.8904508473
 30
0.0
 11
2.0235125849
 21
1.1452296266
 31
0.0
  0
LINE
  5
80
330
75
100
AcDbEntity
  8
0
 62
     7
370
    30
100
AcDbLine
 10
0.8183118784
 20
2.1819001993
 30
0.0
 11
0.5282564934
 21
2.4377664567
 31
0.0
  0
LINE
  5
81
330
75
100
AcDbEntity
  8
0
 62
     7
370
    30
100
AcDbLine
 10
1.3965864698
 20
0.0
 30
0.0
 11
2.3136334511
 21
0.8904508473
 31
0.0
  0
ENDBLK
  5
77
330
75
100
AcDbEntity
  8
0
100
AcDbBlockEnd
  0
BLOCK
  5
CC
330
CB
100
AcDbEntity
  8
0
100
AcDbBlockBegin
  2
SW_NOTE_0
 70
     0
 10
0.0
 20
0.0
 30
0.0
  3
SW_NOTE_0
  1

  0
MTEXT
  5
CE
330
CB
100
AcDbEntity
  8
0
  6
Continuous
 62
     0
370
     0
100
AcDbMText
 10
0.0
 20
0.9744738271
 30
0.0
 40
0.755952381
 41
0.0
 71
     1
 72
     1
  1
PROPRIETARY AND CONFIDENTIAL
  7
SLDTEXTSTYLE0
 73
     1
 44
1.0
  0
MTEXT
  5
CF
330
CB
100
AcDbEntity
  8
0
  6
Continuous
 62
     0
370
     0
100
AcDbMText
 10
0.0
 20
-0.0234238514
 30
0.0
 40
0.5291666667
 41
0.0
 71
     1
 72
     1
  1
THE INFORMATION CONTAINED IN THIS DRAWING IS THE SOLE PROPERTY OF UNICE E-O SERVICES INC. ANY REPRODUCTION IN PART OR AS A WHOLE WITHOUT THE WRITTEN PERMISSION OF UNICE E-O SERVICES INC IS 
  7
SLDTEXTSTYLE0
 73
     1
 44
1.0
  0
MTEXT
  5
D0
330
CB
100
AcDbEntity
  8
0
  6
Continuous
 62
     0
370
     0
100
AcDbMText
 10
0.0
 20
-0.7289793985
 30
0.0
 40
0.5291666667
 41
0.0
 71
     1
 72
     1
  1
PROHIBITED.
  7
SLDTEXTSTYLE0
 73
     1
 44
1.0
  0
ENDBLK
  5
CD
330
CB
100
AcDbEntity
  8
0
100
AcDbBlockEnd
  0
BLOCK
  5
103
330
102
100
AcDbEntity
  8
0
100
AcDbBlockBegin
  2
SW_NOTE_1
 70
     0
 10
0.0
 20
0.0
 30
0.0
  3
SW_NOTE_1
  1

  0
MTEXT
  5
106
330
102
100
AcDbEntity
  8
SLD-0
 62
     0
100
AcDbMText
 10
0.0
 20
0.682131679
 30
0.0
 40
0.5291666667
 41
0.0
 71
     1
 72
     1
  1
No.5, Andong Rd., Chung Li District,
  7
SLDTEXTSTYLE2
 73
     1
 44
1.0
  0
MTEXT
  5
107
330
102
100
AcDbEntity
  8
SLD-0
 62
     0
100
AcDbMText
 10
0.0
 20
-0.0234238681
 30
0.0
 40
0.5291666667
 41
0.0
 71
     1
 72
     1
  1
Taoyuan City 32063, Taiwan, R.O.C.
  7
SLDTEXTSTYLE2
 73
     1
 44
1.0
  0
ENDBLK
  5
104
330
102
100
AcDbEntity
  8
0
100
AcDbBlockEnd
  0
BLOCK
  5
143
330
142
100
AcDbEntity
  8
0
100
AcDbBlockBegin
  2
_D
 70
     0
 10
0.0
 20
0.0
 30
0.0
  3
_D
  1

  0
SOLID
  5
145
330
142
100
AcDbEntity
  8
SLD-0
 62
     7
100
AcDbTrace
 10
53.6944180358
 20
25.2811591668
 30
0.0
 11
53.3468447926
 21
24.8220017933
 31
0.0
 12
53.4705627075
 22
24.7505732218
 32
0.0
 13
53.4705627075
 23
24.7505732218
 33
0.0
  0
SOLID
  5
146
330
142
100
AcDbEntity
  8
SLD-0
 62
     7
100
AcDbTrace
 10
52.1944180358
 20
22.6830829555
 30
0.0
 11
52.5419912789
 21
23.1422403291
 31
0.0
 12
52.4182733641
 22
23.2136689005
 32
0.0
 13
52.4182733641
 23
23.2136689005
 33
0.0
  0
LINE
  5
147
330
142
100
AcDbEntity
  8
SLD-0
 62
     7
100
AcDbLine
 10
44.7630287354
 20
30.4376991836
 30
0.0
 11
53.9418538654
 21
25.138302024
 31
0.0
  0
LINE
  5
148
330
142
100
AcDbEntity
  8
SLD-0
 62
     7
100
AcDbLine
 10
43.2630287354
 20
27.8396229723
 30
0.0
 11
52.4418538654
 21
22.5402258126
 31
0.0
  0
LINE
  5
149
330
142
100
AcDbEntity
  8
SLD-0
 62
     7
100
AcDbLine
 10
53.6944180358
 20
25.2811591668
 30
0.0
 11
52.1944180358
 21
22.6830829555
 31
0.0
  0
MTEXT
  5
14A
330
142
100
AcDbEntity
  8
SLD-0
 62
     7
100
AcDbMText
 10
52.0106054845
 20
24.2062355203
 30
0.0
 40
0.7142857143
 41
0.0
 71
     1
 72
     1
  1
3
  7
SLDTEXTSTYLE0
 11
0.4999999999999933
 21
0.8660254037844425
 31
0.0
 73
     1
 44
1.0
  0
ENDBLK
  5
144
330
142
100
AcDbEntity
  8
0
100
AcDbBlockEnd
  0
BLOCK
  5
14E
330
14D
100
AcDbEntity
  8
0
100
AcDbBlockBegin
  2
_D_1
 70
     0
 10
0.0
 20
0.0
 30
0.0
  3
_D_1
  1

  0
SOLID
  5
150
330
14D
100
AcDbEntity
  8
SLD-0
 62
     7
100
AcDbTrace
 10
46.9309356357
 20
36.1114122962
 30
0.0
 11
47.2901701425
 21
36.5615047558
 31
0.0
 12
47.168324783
 22
36.6360827126
 32
0.0
 13
47.168324783
 23
36.6360827126
 33
0.0
  0
LINE
  5
151
330
14D
100
AcDbEntity
  8
SLD-0
 62
     7
100
AcDbLine
 10
46.9309356357
 20
36.1114122962
 30
0.0
 11
48.3853747171
 21
38.4876727951
 31
0.0
  0
LINE
  5
152
330
14D
100
AcDbEntity
  8
SLD-0
 62
     7
100
AcDbLine
 10
48.3853747171
 20
38.4876727951
 30
0.0
 11
50.8752060902
 21
38.4876727951
 31
0.0
  0
MTEXT
  5
153
330
14D
100
AcDbEntity
  8
SLD-0
 62
     7
100
AcDbMText
 10
48.7425175742
 20
39.4084353998
 30
0.0
 40
0.7142857143
 41
0.0
 71
     1
 72
     1
  1
%%c
  7
SLDTEXTSTYLE0
 73
     1
 44
1.0
  0
MTEXT
  5
154
330
14D
100
AcDbEntity
  8
SLD-0
 62
     7
100
AcDbMText
 10
49.7839362474
 20
39.4104195327
 30
0.0
 40
0.7142857143
 41
0.0
 71
     1
 72
     1
  1
15
  7
SLDTEXTSTYLE0
 73
     1
 44
1.0
  0
ENDBLK
  5
14F
330
14D
100
AcDbEntity
  8
0
100
AcDbBlockEnd
  0
BLOCK
  5
156
330
155
100
AcDbEntity
  8
0
100
AcDbBlockBegin
  2
SW_CENTERMARKSYMBOL_0
 70
     0
 10
0.0
 20
0.0
 30
0.0
  3
SW_CENTERMARKSYMBOL_0
  1

  0
LINE
  5
158
330
155
100
AcDbEntity
  8
SLD-0
 62
     0
100
AcDbLine
 10
0.0
 20
0.0
 30
0.0
 11
0.0
 21
1.0
 31
0.0
  0
LINE
  5
159
330
155
100
AcDbEntity
  8
SLD-0
 62
     0
100
AcDbLine
 10
0.0
 20
0.0
 30
0.0
 11
-1.0
 21
0.0
 31
0.0
  0
LINE
  5
15A
330
155
100
AcDbEntity
  8
SLD-0
 62
     0
100
AcDbLine
 10
0.0
 20
0.0
 30
0.0
 11
0.0
 21
-1.0
 31
0.0
  0
LINE
  5
15B
330
155
100
AcDbEntity
  8
SLD-0
 62
     0
100
AcDbLine
 10
0.0
 20
0.0
 30
0.0
 11
1.0
 21
0.0
 31
0.0
  0
LINE
  5
15C
330
155
100
AcDbEntity
  8
SLD-0
 62
     0
100
AcDbLine
 10
0.0
 20
2.0
 30
0.0
 11
0.0
 21
8.5
 31
0.0
  0
LINE
  5
15D
330
155
100
AcDbEntity
  8
SLD-0
 62
     0
100
AcDbLine
 10
-2.0
 20
0.0
 30
0.0
 11
-8.5
 21
0.0
 31
0.0
  0
LINE
  5
15E
330
155
100
AcDbEntity
  8
SLD-0
 62
     0
100
AcDbLine
 10
0.0
 20
-2.0
 30
0.0
 11
0.0
 21
-8.5
 31
0.0
  0
LINE
  5
15F
330
155
100
AcDbEntity
  8
SLD-0
 62
     0
100
AcDbLine
 10
2.0
 20
0.0
 30
0.0
 11
8.5
 21
0.0
 31
0.0
  0
ENDBLK
  5
157
330
155
100
AcDbEntity
  8
0
100
AcDbBlockEnd
  0
BLOCK
  5
1BC
330
1BB
100
AcDbEntity
  8
0
100
AcDbBlockBegin
  2
_D_2
 70
     0
 10
0.0
 20
0.0
 30
0.0
  3
_D_2
  1

  0
SOLID
  5
1BE
330
1BB
100
AcDbEntity
  8
SLD-0
 62
     7
100
AcDbTrace
 10
17.5159273299
 20
18.9751832809
 30
0.0
 11
18.0873559014
 21
18.9037547094
 31
0.0
 12
18.0873559014
 22
19.0466118523
 32
0.0
 13
18.0873559014
 23
19.0466118523
 33
0.0
  0
SOLID
  5
1BF
330
1BB
100
AcDbEntity
  8
SLD-0
 62
     7
100
AcDbTrace
 10
25.5159273299
 20
18.9751832809
 30
0.0
 11
24.9444987585
 21
19.0466118523
 31
0.0
 12
24.9444987585
 22
18.9037547094
 32
0.0
 13
24.9444987585
 23
18.9037547094
 33
0.0
  0
LINE
  5
1C0
330
1BB
100
AcDbEntity
  8
SLD-0
 62
     7
100
AcDbLine
 10
17.5159273299
 20
22.928816637
 30
0.0
 11
17.5159273299
 21
18.6894689951
 31
0.0
  0
LINE
  5
1C1
330
1BB
100
AcDbEntity
  8
SLD-0
 62
     7
100
AcDbLine
 10
25.5159273299
 20
22.928816637
 30
0.0
 11
25.5159273299
 21
18.6894689952
 31
0.0
  0
LINE
  5
1C2
330
1BB
100
AcDbEntity
  8
SLD-0
 62
     7
100
AcDbLine
 10
17.5159273299
 20
18.9751832809
 30
0.0
 11
25.5159273299
 21
18.9751832809
 31
0.0
  0
MTEXT
  5
1C3
330
1BB
100
AcDbEntity
  8
SLD-0
 62
     7
100
AcDbMText
 10
21.2431098692
 20
19.8959459022
 30
0.0
 40
0.7142857143
 41
0.0
 71
     1
 72
     1
  1
8
  7
SLDTEXTSTYLE0
 73
     1
 44
1.0
  0
ENDBLK
  5
1BD
330
1BB
100
AcDbEntity
  8
0
100
AcDbBlockEnd
  0
BLOCK
  5
1C6
330
1C5
100
AcDbEntity
  8
0
100
AcDbBlockBegin
  2
_D_3
 70
     0
 10
0.0
 20
0.0
 30
0.0
  3
_D_3
  1

  0
SOLID
  5
1C8
330
1C5
100
AcDbEntity
  8
SLD-0
 62
     7
100
AcDbTrace
 10
17.5159273299
 20
15.8626130283
 30
0.0
 11
18.0873559014
 21
15.7911844569
 31
0.0
 12
18.0873559014
 22
15.9340415997
 32
0.0
 13
18.0873559014
 23
15.9340415997
 33
0.0
  0
SOLID
  5
1C9
330
1C5
100
AcDbEntity
  8
SLD-0
 62
     7
100
AcDbTrace
 10
28.0159273299
 20
15.8626130283
 30
0.0
 11
27.4444987585
 21
15.9340415997
 31
0.0
 12
27.4444987585
 22
15.7911844569
 32
0.0
 13
27.4444987585
 23
15.7911844569
 33
0.0
  0
LINE
  5
1CA
330
1C5
100
AcDbEntity
  8
SLD-0
 62
     7
100
AcDbLine
 10
17.5159273299
 20
22.928816637
 30
0.0
 11
17.5159273299
 21
15.5768987426
 31
0.0
  0
LINE
  5
1CB
330
1C5
100
AcDbEntity
  8
SLD-0
 62
     7
100
AcDbLine
 10
28.0159273299
 20
27.6967658294
 30
0.0
 11
28.0159273299
 21
15.5768987426
 31
0.0
  0
LINE
  5
1CC
330
1C5
100
AcDbEntity
  8
SLD-0
 62
     7
100
AcDbLine
 10
17.5159273299
 20
15.8626130283
 30
0.0
 11
28.0159273299
 21
15.8626130283
 31
0.0
  0
MTEXT
  5
1CD
330
1C5
100
AcDbEntity
  8
SLD-0
 62
     7
100
AcDbMText
 10
21.8110662425
 20
16.7833756497
 30
0.0
 40
0.7142857143
 41
0.0
 71
     1
 72
     1
  1
10.5
  7
SLDTEXTSTYLE0
 73
     1
 44
1.0
  0
ENDBLK
  5
1C7
330
1C5
100
AcDbEntity
  8
0
100
AcDbBlockEnd
  0
ENDSEC
  0
SECTION
  2
ENTITIES
  0
HATCH
  5
82
330
1F
100
AcDbEntity
  8
0
  6
Continuous
 62
     7
100
AcDbHatch
 10
0.0
 20
0.0
 30
0.0
210
0.0
220
0.0
230
1.0
  2
SOLID
 70
     1
 71
     0
 91
        1
 92
        0
 93
       10
 72
     2
 10
54.89731330369619
 20
10.21594537425387
 40
0.8541819022199597
 50
50.39692260731422
 51
112.8514693252979
 73
     0
 72
     2
 10
54.80428741794629
 20
10.12542808001773
 40
0.7363815505193196
 50
108.9134333432861
 51
219.5668234386824
 73
     0
 72
     1
 10
54.2366239825601
 20
10.59448672461432
 11
53.94656859758797
 21
10.85035298199082
 72
     1
 10
53.94656859758797
 20
10.85035298199082
 11
53.57324623905036
 21
10.4898995315601
 72
     2
 10
53.85549908532541
 20
10.15603460792128
 40
0.4371869811267605
 50
130.2115225915092
 51
228.5889041080189
 73
     1
 72
     1
 10
53.566318644186
 20
9.828151810371365
 11
54.71180501852761
 21
8.83255071315003
 72
     1
 10
54.71180501852761
 20
8.83255071315003
 11
54.53150446983756
 21
8.65657917301545
 72
     1
 10
54.53150446983756
 20
8.65657917301545
 11
54.81489857404487
 21
8.412586525314355
 72
     1
 10
54.81489857404487
 20
8.412586525314355
 11
55.73194555529209
 21
9.303037372604493
 72
     1
 10
55.73194555529209
 20
9.303037372604493
 11
55.44182468910403
 21
9.557816151956809
 97
        0
 75
     0
 76
     1
 98
        1
 10
0.0
 20
0.0
  0
HATCH
  5
83
330
1F
100
AcDbEntity
  8
0
  6
Continuous
 62
     1
100
AcDbHatch
 10
0.0
 20
0.0
 30
0.0
210
0.0
220
0.0
230
1.0
  2
SOLID
 70
     1
 71
     0
 91
        1
 92
        0
 93
       10
 72
     2
 10
55.02549873221967
 20
10.18944833037603
 40
0.7364478538132143
 50
317.8184992995781
 51
398.056471157308
 73
     0
 72
     1
 10
55.6053804016618
 20
9.735474001992706
 11
55.88693722822832
 21
9.490132019167136
 72
     1
 10
55.88693722822832
 20
9.490132019167136
 11
56.2417033181694
 21
9.834255716997768
 72
     2
 10
55.98644836798022
 20
10.18509764037518
 40
0.4338722678337901
 50
306.0377529468136
 51
403.4396461533869
 73
     1
 72
     1
 10
56.30148261502946
 20
10.48342391810036
 11
55.12240951264565
 21
11.50890285199578
 72
     1
 10
55.12240951264565
 20
11.50890285199578
 11
55.30076702748202
 21
11.68291954652073
 72
     1
 10
55.30076702748202
 20
11.68291954652073
 11
55.03490802457229
 21
11.92011732361916
 72
     1
 10
55.03490802457229
 20
11.92011732361916
 11
54.11045503931233
 21
11.02671153887228
 72
     1
 10
54.11045503931233
 20
11.02671153887228
 11
54.40257157569763
 21
10.77191424540919
 72
     2
 10
54.93473979201268
 20
10.03492781452512
 40
0.909039058436536
 50
234.1674444878514
 51
314.4407074583992
 73
     0
 97
        0
 75
     0
 76
     1
 98
        1
 10
0.0
 20
0.0
  0
LINE
  5
84
330
1F
100
AcDbEntity
  8
0
  6
Continuous
 62
     7
370
     0
100
AcDbLine
 10
47.9598221481
 20
5.0784340718
 30
0.0
 11
48.2455364339
 21
5.0784340718
 31
0.0
  0
LINE
  5
85
330
1F
100
AcDbEntity
  8
0
  6
Continuous
 62
     7
370
     0
100
AcDbLine
 10
47.102679291
 20
5.0784340718
 30
0.0
 11
47.8169650053
 21
5.0784340718
 31
0.0
  0
LINE
  5
86
330
1F
100
AcDbEntity
  8
0
  6
Continuous
 62
     7
370
     0
100
AcDbLine
 10
51.8169650053
 20
4.3641483575
 30
0.0
 11
51.8169650053
 21
5.7927197861
 31
0.0
  0
LINE
  5
87
330
1F
100
AcDbEntity
  8
0
  6
Continuous
 62
     7
370
     0
100
AcDbLine
 10
49.8169650053
 20
4.6498626432
 30
0.0
 11
51.8169650053
 21
4.3641483575
 31
0.0
  0
LINE
  5
88
330
1F
100
AcDbEntity
  8
0
  6
Continuous
 62
     7
370
     0
100
AcDbLine
 10
48.102679291
 20
4.7927197861
 30
0.0
 11
48.102679291
 21
4.0784340718
 31
0.0
  0
LINE
  5
89
330
1F
100
AcDbEntity
  8
0
  6
Continuous
 62
     7
370
     0
100
AcDbLine
 10
51.8169650053
 20
5.7927197861
 30
0.0
 11
49.8169650053
 21
5.5070055004
 31
0.0
  0
LINE
  5
8A
330
1F
100
AcDbEntity
  8
0
  6
Continuous
 62
     7
370
     0
100
AcDbLine
 10
49.5312507196
 20
5.0784340718
 30
0.0
 11
52.102679291
 21
5.0784340718
 31
0.0
  0
LINE
  5
8B
330
1F
100
AcDbEntity
  8
0
  6
Continuous
 62
     7
370
     0
100
AcDbLine
 10
48.102679291
 20
5.2212912146
 30
0.0
 11
48.102679291
 21
4.9355769289
 31
0.0
  0
LINE
  5
8C
330
1F
100
AcDbEntity
  8
0
  6
Continuous
 62
     7
370
     0
100
AcDbLine
 10
48.3883935767
 20
5.0784340718
 30
0.0
 11
49.102679291
 21
5.0784340718
 31
0.0
  0
LINE
  5
8D
330
1F
100
AcDbEntity
  8
0
  6
Continuous
 62
     7
370
     0
100
AcDbLine
 10
48.102679291
 20
6.0784340718
 30
0.0
 11
48.102679291
 21
5.3641483575
 31
0.0
  0
LINE
  5
8E
330
1F
100
AcDbEntity
  8
0
  6
Continuous
 62
     7
370
     0
100
AcDbLine
 10
49.8169650053
 20
5.5070055004
 30
0.0
 11
49.8169650053
 21
4.6498626432
 31
0.0
  0
LINE
  5
8F
330
1F
100
AcDbEntity
  8
工作區域參考線
 62
     1
370
    30
100
AcDbLine
 10
54.4025715757
 20
10.7719142454
 30
0.0
 11
54.1104550393
 21
11.0267115389
 31
0.0
  0
LINE
  5
90
330
1F
100
AcDbEntity
  8
工作區域參考線
 62
     1
370
    30
100
AcDbLine
 10
54.1104550393
 20
11.0267115389
 30
0.0
 11
55.0349080246
 21
11.9201173236
 31
0.0
  0
LINE
  5
91
330
1F
100
AcDbEntity
  8
工作區域參考線
 62
     1
370
    30
100
AcDbLine
 10
55.0349080246
 20
11.9201173236
 30
0.0
 11
55.3007670275
 21
11.6829195465
 31
0.0
  0
LINE
  5
92
330
1F
100
AcDbEntity
  8
工作區域參考線
 62
     1
370
    30
100
AcDbLine
 10
55.3007670275
 20
11.6829195465
 30
0.0
 11
55.1224095126
 21
11.508902852
 31
0.0
  0
LINE
  5
93
330
1F
100
AcDbEntity
  8
工作區域參考線
 62
     1
370
    30
100
AcDbLine
 10
55.1224095126
 20
11.508902852
 30
0.0
 11
56.301482615
 21
10.4834239181
 31
0.0
  0
LINE
  5
94
330
1F
100
AcDbEntity
  8
工作區域參考線
 62
     1
370
    30
100
AcDbLine
 10
55.6053804017
 20
9.735474002
 30
0.0
 11
55.8869372282
 21
9.4901320192
 31
0.0
  0
LINE
  5
95
330
1F
100
AcDbEntity
  8
工作區域參考線
 62
     1
370
    30
100
AcDbLine
 10
55.8869372282
 20
9.4901320192
 30
0.0
 11
56.2417033182
 21
9.834255717
 31
0.0
  0
LINE
  5
96
330
1F
100
AcDbEntity
  8
0
  6
Continuous
 62
     7
370
     0
100
AcDbLine
 10
53.0545132917
 20
3.7472132594
 30
0.0
 11
81.6259418631
 21
3.7472132594
 31
0.0
  0
LINE
  5
97
330
1F
100
AcDbEntity
  8
0
  6
Continuous
 62
     7
370
     0
100
AcDbLine
 10
53.0545132917
 20
5.175784688
 30
0.0
 11
67.3402275774
 21
5.175784688
 31
0.0
  0
LINE
  5
98
330
1F
100
AcDbEntity
  8
0
  6
Continuous
 62
     7
370
     0
100
AcDbLine
 10
53.0545132917
 20
6.6043561165
 30
0.0
 11
67.3402275774
 21
6.6043561165
 31
0.0
  0
LINE
  5
99
330
1F
100
AcDbEntity
  8
0
  6
Continuous
 62
     7
370
     0
100
AcDbLine
 10
53.0545132917
 20
8.0329275451
 30
0.0
 11
81.6259418631
 21
8.0329275451
 31
0.0
  0
LINE
  5
9A
330
1F
100
AcDbEntity
  8
0
  6
Continuous
 62
     7
370
     0
100
AcDbLine
 10
67.3402275774
 20
9.4614989737
 30
0.0
 11
81.6259418631
 21
9.4614989737
 31
0.0
  0
LINE
  5
9B
330
1F
100
AcDbEntity
  8
0
  6
Continuous
 62
     7
370
    15
100
AcDbLine
 10
67.3402275774
 20
5.175784688
 30
0.0
 11
81.6259418631
 21
5.175784688
 31
0.0
  0
LINE
  5
9C
330
1F
100
AcDbEntity
  8
0
  6
Continuous
 62
     7
370
     0
100
AcDbLine
 10
53.0545132917
 20
12.3186418308
 30
0.0
 11
81.6259418631
 21
12.3186418308
 31
0.0
  0
LINE
  5
9D
330
1F
100
AcDbEntity
  8
0
  6
Continuous
 62
     7
370
     0
100
AcDbLine
 10
71.7820621929
 20
2.3186418308
 30
0.0
 11
71.7820621929
 21
5.175784688
 31
0.0
  0
LINE
  5
9E
330
1F
100
AcDbEntity
  8
0
  6
Continuous
 62
     7
370
     0
100
AcDbLine
 10
67.3402275774
 20
2.3186418308
 30
0.0
 11
67.3402275774
 21
12.3186418308
 31
0.0
  0
LINE
  5
9F
330
1F
100
AcDbEntity
  8
0
  6
Continuous
 62
     7
370
     0
100
AcDbLine
 10
71.7820621929
 20
8.0329275451
 30
0.0
 11
71.7820621929
 21
9.4614989737
 31
0.0
  0
LINE
  5
A0
330
1F
100
AcDbEntity
  8
0
  6
Continuous
 62
     7
370
     0
100
AcDbLine
 10
61.2618310387
 20
2.3186418308
 30
0.0
 11
61.2618310387
 21
8.0329275451
 31
0.0
  0
LINE
  5
A1
330
1F
100
AcDbEntity
  8
0
  6
Continuous
 62
     7
370
     0
100
AcDbLine
 10
57.0795967859
 20
2.3186418308
 30
0.0
 11
57.0795967859
 21
8.0329275451
 31
0.0
  0
LINE
  5
A2
330
1F
100
AcDbEntity
  8
0
  6
Continuous
 62
     7
370
     0
100
AcDbLine
 10
53.0545132917
 20
2.3186418308
 30
0.0
 11
53.0545132917
 21
12.3186418308
 31
0.0
  0
LINE
  5
A3
330
1F
100
AcDbEntity
  8
0
  6
Continuous
 62
     7
370
    15
100
AcDbLine
 10
2.4830847203
 20
29.9267534261
 30
0.0
 11
4.1973704346
 21
29.9267534261
 31
0.0
  0
LINE
  5
A4
330
1F
100
AcDbEntity
  8
0
  6
Continuous
 62
     7
370
    15
100
AcDbLine
 10
81.6259418631
 20
29.9267534261
 30
0.0
 11
79.9116561488
 21
29.9267534261
 31
0.0
  0
LINE
  5
A5
330
1F
100
AcDbEntity
  8
0
  6
Continuous
 62
     7
370
    15
100
AcDbLine
 10
42.0545132917
 20
2.3186418308
 30
0.0
 11
42.0545132917
 21
4.0329275451
 31
0.0
  0
LINE
  5
A6
330
1F
100
AcDbEntity
  8
0
  6
Continuous
 62
     7
370
    15
100
AcDbLine
 10
42.0545132917
 20
57.5348650214
 30
0.0
 11
42.0545132917
 21
55.8205793072
 31
0.0
  0
LINE
  5
A7
330
1F
100
AcDbEntity
  8
0
  6
Continuous
 62
     7
370
    15
100
AcDbLine
 10
12.3773704346
 20
57.5348650214
 30
0.0
 11
12.3773704346
 21
57.96343645
 31
0.0
  0
LINE
  5
A8
330
1F
100
AcDbEntity
  8
0
  6
Continuous
 62
     7
370
    15
100
AcDbLine
 10
22.2716561488
 20
57.5348650214
 30
0.0
 11
22.2716561488
 21
57.96343645
 31
0.0
  0
LINE
  5
A9
330
1F
100
AcDbEntity
  8
0
  6
Continuous
 62
     7
370
    15
100
AcDbLine
 10
32.1659418631
 20
57.5348650214
 30
0.0
 11
32.1659418631
 21
57.96343645
 31
0.0
  0
LINE
  5
AA
330
1F
100
AcDbEntity
  8
0
  6
Continuous
 62
     7
370
    15
100
AcDbLine
 10
42.0602275774
 20
57.5348650214
 30
0.0
 11
42.0602275774
 21
57.96343645
 31
0.0
  0
LINE
  5
AB
330
1F
100
AcDbEntity
  8
0
  6
Continuous
 62
     7
370
    15
100
AcDbLine
 10
51.9545132917
 20
57.5348650214
 30
0.0
 11
51.9545132917
 21
57.96343645
 31
0.0
  0
LINE
  5
AC
330
1F
100
AcDbEntity
  8
0
  6
Continuous
 62
     7
370
    15
100
AcDbLine
 10
61.848799006
 20
57.5348650214
 30
0.0
 11
61.848799006
 21
57.96343645
 31
0.0
  0
LINE
  5
AD
330
1F
100
AcDbEntity
  8
0
  6
Continuous
 62
     7
370
    15
100
AcDbLine
 10
71.7430847203
 20
57.5348650214
 30
0.0
 11
71.7430847203
 21
57.96343645
 31
0.0
  0
LINE
  5
AE
330
1F
100
AcDbEntity
  8
0
  6
Continuous
 62
     7
370
    15
100
AcDbLine
 10
12.3759418631
 20
2.3186418308
 30
0.0
 11
12.3759418631
 21
1.8900704023
 31
0.0
  0
LINE
  5
AF
330
1F
100
AcDbEntity
  8
0
  6
Continuous
 62
     7
370
    15
100
AcDbLine
 10
22.268799006
 20
2.3186418308
 30
0.0
 11
22.268799006
 21
1.8900704023
 31
0.0
  0
LINE
  5
B0
330
1F
100
AcDbEntity
  8
0
  6
Continuous
 62
     7
370
    15
100
AcDbLine
 10
32.1616561488
 20
2.3186418308
 30
0.0
 11
32.1616561488
 21
1.8900704023
 31
0.0
  0
LINE
  5
B1
330
1F
100
AcDbEntity
  8
0
  6
Continuous
 62
     7
370
    15
100
AcDbLine
 10
42.0545132917
 20
2.3186418308
 30
0.0
 11
42.0545132917
 21
1.8900704023
 31
0.0
  0
LINE
  5
B2
330
1F
100
AcDbEntity
  8
0
  6
Continuous
 62
     7
370
    15
100
AcDbLine
 10
51.9473704346
 20
2.3186418308
 30
0.0
 11
51.9473704346
 21
1.8900704023
 31
0.0
  0
LINE
  5
B3
330
1F
100
AcDbEntity
  8
0
  6
Continuous
 62
     7
370
    15
100
AcDbLine
 10
61.8402275774
 20
2.3186418308
 30
0.0
 11
61.8402275774
 21
1.8900704023
 31
0.0
  0
LINE
  5
B4
330
1F
100
AcDbEntity
  8
0
  6
Continuous
 62
     7
370
     0
100
AcDbLine
 10
81.6259418631
 20
57.5348650214
 30
0.0
 11
2.4830847203
 21
57.5348650214
 31
0.0
  0
LINE
  5
B5
330
1F
100
AcDbEntity
  8
0
  6
Continuous
 62
     7
370
     0
100
AcDbLine
 10
81.6259418631
 20
2.3186418308
 30
0.0
 11
81.6259418631
 21
57.5348650214
 31
0.0
  0
LINE
  5
B6
330
1F
100
AcDbEntity
  8
0
  6
Continuous
 62
     7
370
     0
100
AcDbLine
 10
2.4830847203
 20
57.5348650214
 30
0.0
 11
2.4830847203
 21
2.3186418308
 31
0.0
  0
LINE
  5
B7
330
1F
100
AcDbEntity
  8
0
  6
Continuous
 62
     7
370
     0
100
AcDbLine
 10
2.4830847203
 20
2.3186418308
 30
0.0
 11
81.6259418631
 21
2.3186418308
 31
0.0
  0
LINE
  5
B8
330
1F
100
AcDbEntity
  8
0
  6
Continuous
 62
     7
370
    15
100
AcDbLine
 10
71.7330847203
 20
2.3186418308
 30
0.0
 11
71.7330847203
 21
1.8900704023
 31
0.0
  0
LINE
  5
B9
330
1F
100
AcDbEntity
  8
0
  6
Continuous
 62
     7
370
    15
100
AcDbLine
 10
2.4830847203
 20
11.5214989737
 30
0.0
 11
2.0545132917
 21
11.5214989737
 31
0.0
  0
LINE
  5
BA
330
1F
100
AcDbEntity
  8
0
  6
Continuous
 62
     7
370
    15
100
AcDbLine
 10
2.4830847203
 20
20.7243561165
 30
0.0
 11
2.0545132917
 21
20.7243561165
 31
0.0
  0
LINE
  5
BB
330
1F
100
AcDbEntity
  8
0
  6
Continuous
 62
     7
370
    15
100
AcDbLine
 10
2.4830847203
 20
29.9272132594
 30
0.0
 11
2.0545132917
 21
29.9272132594
 31
0.0
  0
LINE
  5
BC
330
1F
100
AcDbEntity
  8
0
  6
Continuous
 62
     7
370
    15
100
AcDbLine
 10
2.4830847203
 20
39.1300704023
 30
0.0
 11
2.0545132917
 21
39.1300704023
 31
0.0
  0
LINE
  5
BD
330
1F
100
AcDbEntity
  8
0
  6
Continuous
 62
     7
370
    15
100
AcDbLine
 10
2.4830847203
 20
48.3329275451
 30
0.0
 11
2.0545132917
 21
48.3329275451
 31
0.0
  0
LINE
  5
BE
330
1F
100
AcDbEntity
  8
0
  6
Continuous
 62
     7
370
    15
100
AcDbLine
 10
81.6259418631
 20
11.5214989737
 30
0.0
 11
82.0545132917
 21
11.5214989737
 31
0.0
  0
LINE
  5
BF
330
1F
100
AcDbEntity
  8
0
  6
Continuous
 62
     7
370
    15
100
AcDbLine
 10
81.6259418631
 20
20.7243561165
 30
0.0
 11
82.0545132917
 21
20.7243561165
 31
0.0
  0
LINE
  5
C0
330
1F
100
AcDbEntity
  8
0
  6
Continuous
 62
     7
370
    15
100
AcDbLine
 10
81.6259418631
 20
29.9272132594
 30
0.0
 11
82.0545132917
 21
29.9272132594
 31
0.0
  0
LINE
  5
C1
330
1F
100
AcDbEntity
  8
0
  6
Continuous
 62
     7
370
    15
100
AcDbLine
 10
81.6259418631
 20
39.1300704023
 30
0.0
 11
82.0545132917
 21
39.1300704023
 31
0.0
  0
LINE
  5
C2
330
1F
100
AcDbEntity
  8
0
  6
Continuous
 62
     7
370
    15
100
AcDbLine
 10
81.6259418631
 20
48.3329275451
 30
0.0
 11
82.0545132917
 21
48.3329275451
 31
0.0
  0
CIRCLE
  5
C3
330
1F
100
AcDbEntity
  8
0
  6
Continuous
 62
     7
370
     0
100
AcDbCircle
 10
48.102679291
 20
5.0784340718
 30
0.0
 40
0.4285714285714306
  0
CIRCLE
  5
C4
330
1F
100
AcDbEntity
  8
0
  6
Continuous
 62
     7
370
     0
100
AcDbCircle
 10
48.102679291
 20
5.0784340718
 30
0.0
 40
0.7142857142857153
  0
ARC
  5
C5
330
1F
100
AcDbEntity
  8
工作區域參考線
 62
     1
370
    30
100
AcDbCircle
 10
55.986448368
 20
10.1850976404
 30
0.0
 40
0.4338722678337937
100
AcDbArc
 50
306.0377529468
 51
43.4396461534
  0
ARC
  5
C6
330
1F
100
AcDbEntity
  8
工作區域參考線
 62
     1
370
    30
100
AcDbCircle
 10
54.934739792
 20
10.0349278145
 30
0.0
 40
0.9090390584365415
100
AcDbArc
 50
45.5592925416
 51
125.8325555121
  0
ARC
  5
C7
330
1F
100
AcDbEntity
  8
工作區域參考線
 62
     1
370
    30
100
AcDbCircle
 10
55.0254987322
 20
10.1894483304
 30
0.0
 40
0.7364478538132188
100
AcDbArc
 50
321.9435288427
 51
42.1815007004
  0
INSERT
  5
C8
330
1F
100
AcDbEntity
  8
0
  6
Continuous
 62
     7
100
AcDbBlockReference
  2
圖塊6
 10
53.4183121042
 20
8.4125865253
 30
0.0
  0
MTEXT
  5
CA
330
1F
100
AcDbEntity
  8
0
  6
Continuous
 62
     7
370
     0
100
AcDbMText
 10
47.297910023
 20
3.7773840105
 30
0.0
 40
0.755952381
 41
0.0
 71
     1
 72
     1
  1
UNIT:m/m
  7
SLDTEXTSTYLE0
 73
     1
 44
1.0
  0
INSERT
  5
D1
330
1F
100
AcDbEntity
  8
0
  6
Continuous
 62
     7
370
     0
100
AcDbBlockReference
  2
SW_NOTE_0
 10
3.4947164587
 20
55.3972658357
 30
0.0
  0
MTEXT
  5
D3
330
1F
100
AcDbEntity
  8
0
  6
Continuous
 62
     7
370
     0
100
AcDbMText
 10
56.778625541
 20
11.5544792611
 30
0.0
 40
0.6803571429
 41
0.0
 71
     1
 72
     1
  1
Unice E-O Services Inc.
  7
SLDTEXTSTYLE1
 73
     1
 44
1.0
  0
MTEXT
  5
D4
330
1F
100
AcDbEntity
  8
0
  6
Continuous
 62
     7
370
     0
100
AcDbMText
 10
62.1597296614
 20
6.1676328146
 30
0.0
 40
0.5291666667
 41
0.0
 71
     1
 72
     1
  1
2015/3/6
  7
SLDTEXTSTYLE0
 73
     1
 44
1.0
  0
MTEXT
  5
D5
330
1F
100
AcDbEntity
  8
0
  6
Continuous
 62
     7
370
     0
100
AcDbMText
 10
72.1739709288
 20
4.8203364971
 30
0.0
 40
0.7142857143
 41
0.0
 71
     1
 72
     1
  1
3.5:1
  7
SLDTEXTSTYLE0
 73
     1
 44
1.0
  0
MTEXT
  5
D6
330
1F
100
AcDbEntity
  8
0
  6
Continuous
 62
     7
370
     0
100
AcDbMText
 10
72.0878742853
 20
9.1862627268
 30
0.0
 40
0.7142857143
 41
0.0
 71
     1
 72
     1
  1
07SRN-3
  7
SLDTEXTSTYLE0
 73
     1
 44
1.0
  0
MTEXT
  5
D7
330
1F
100
AcDbEntity
  8
0
  6
Continuous
 62
     7
370
     0
100
AcDbMText
 10
72.0878742853
 20
10.8880605108
 30
0.0
 40
0.7142857143
 41
0.0
 71
     1
 72
     1
  1
07SRN-3
  7
SLDTEXTSTYLE0
 73
     1
 44
1.0
  0
MTEXT
  5
D8
330
1F
100
AcDbEntity
  8
0
  6
Continuous
 62
     7
370
     0
100
AcDbMText
 10
67.5406247653
 20
4.7161370208
 30
0.0
 40
0.6047619048
 41
0.0
 71
     1
 72
     1
  1
SCALE:
  7
SLDTEXTSTYLE0
 73
     1
 44
1.0
  0
MTEXT
  5
D9
330
1F
100
AcDbEntity
  8
0
  6
Continuous
 62
     7
370
     0
100
AcDbMText
 10
53.2381739083
 20
6.1676328146
 30
0.0
 40
0.5291666667
 41
0.0
 71
     1
 72
     1
  1
DRAWN
  7
SLDTEXTSTYLE0
 73
     1
 44
1.0
  0
MTEXT
  5
DA
330
1F
100
AcDbEntity
  8
0
  6
Continuous
 62
     7
370
     0
100
AcDbMText
 10
58.0636676553
 20
7.6237738023
 30
0.0
 40
0.5291666667
 41
0.0
 71
     1
 72
     1
  1
NAME
  7
SLDTEXTSTYLE0
 73
     1
 44
1.0
  0
MTEXT
  5
DB
330
1F
100
AcDbEntity
  8
0
  6
Continuous
 62
     7
370
     0
100
AcDbMText
 10
63.1060044502
 20
7.6237738023
 30
0.0
 40
0.5291666667
 41
0.0
 71
     1
 72
     1
  1
DATE
  7
SLDTEXTSTYLE0
 73
     1
 44
1.0
  0
MTEXT
  5
DC
330
1F
100
AcDbEntity
  8
0
  6
Continuous
 62
     7
370
     0
100
AcDbMText
 10
67.5073233327
 20
9.0820632505
 30
0.0
 40
0.6047619048
 41
0.0
 71
     1
 72
     1
  1
DWG. NO.
  7
SLDTEXTSTYLE0
 73
     1
 44
1.0
  0
MTEXT
  5
DD
330
1F
100
AcDbEntity
  8
0
  6
Continuous
 62
     7
370
     0
100
AcDbMText
 10
67.5322830597
 20
11.9668759498
 30
0.0
 40
0.6047619048
 41
0.0
 71
     1
 72
     1
  1
TITLE:
  7
SLDTEXTSTYLE0
 73
     1
 44
1.0
  0
MTEXT
  5
DE
330
1F
100
AcDbEntity
  8
0
  6
Continuous
 62
     7
370
     0
100
AcDbMText
 10
58.0089774229
 20
4.6401082778
 30
0.0
 40
0.5291666667
 41
0.0
 71
     1
 72
     1
  1
Johnny
  7
SLDTEXTSTYLE0
 73
     1
 44
1.0
  0
MTEXT
  5
DF
330
1F
100
AcDbEntity
  8
0
  6
Continuous
 62
     7
370
     0
100
AcDbMText
 10
62.1597296614
 20
4.6401082778
 30
0.0
 40
0.5291666667
 41
0.0
 71
     1
 72
     1
  1
2015/3/6
  7
SLDTEXTSTYLE0
 73
     1
 44
1.0
  0
MTEXT
  5
E0
330
1F
100
AcDbEntity
  8
0
  6
Continuous
 62
     7
370
     0
100
AcDbMText
 10
53.2381739083
 20
4.6401082778
 30
0.0
 40
0.5291666667
 41
0.0
 71
     1
 72
     1
  1
ENG APPR.
  7
SLDTEXTSTYLE0
 73
     1
 44
1.0
  0
MTEXT
  5
E1
330
1F
100
AcDbEntity
  8
0
  6
Continuous
 62
     7
370
     0
100
AcDbMText
 10
67.5406247653
 20
3.3386682654
 30
0.0
 40
0.6047619048
 41
0.0
 71
     1
 72
     1
  1
REV
  7
SLDTEXTSTYLE0
 73
     1
 44
1.0
  0
MTEXT
  5
E2
330
1F
100
AcDbEntity
  8
0
  6
Continuous
 62
     7
370
     0
100
AcDbMText
 10
67.5322830597
 20
7.6998025453
 30
0.0
 40
0.6047619048
 41
0.0
 71
     1
 72
     1
  1
MATERIAL:
  7
SLDTEXTSTYLE0
 73
     1
 44
1.0
  0
MTEXT
  5
E3
330
1F
100
AcDbEntity
  8
0
  6
Continuous
 62
     7
370
     0
100
AcDbMText
 10
72.1739709288
 20
6.3478610339
 30
0.0
 40
0.7142857143
 41
0.0
 71
     1
 72
     1
  1
N/A
  7
SLDTEXTSTYLE0
 73
     1
 44
1.0
  0
MTEXT
  5
E4
330
1F
100
AcDbEntity
  8
0
  6
Continuous
 62
     7
370
     0
100
AcDbMText
 10
7.6008551867
 20
58.4152433306
 30
0.0
 40
0.6047619048
 41
0.0
 71
     1
 72
     1
  1
1
  7
SLDTEXTSTYLE0
 73
     1
 44
1.0
  0
MTEXT
  5
E5
330
1F
100
AcDbEntity
  8
0
  6
Continuous
 62
     7
370
     0
100
AcDbMText
 10
17.347742735
 20
58.4152433306
 30
0.0
 40
0.6047619048
 41
0.0
 71
     1
 72
     1
  1
2
  7
SLDTEXTSTYLE0
 73
     1
 44
1.0
  0
MTEXT
  5
E6
330
1F
100
AcDbEntity
  8
0
  6
Continuous
 62
     7
370
     0
100
AcDbMText
 10
27.1145698259
 20
58.4152433306
 30
0.0
 40
0.6047619048
 41
0.0
 71
     1
 72
     1
  1
3
  7
SLDTEXTSTYLE0
 73
     1
 44
1.0
  0
MTEXT
  5
E7
330
1F
100
AcDbEntity
  8
0
  6
Continuous
 62
     7
370
     0
100
AcDbMText
 10
36.9295246529
 20
58.3712166961
 30
0.0
 40
0.6047619048
 41
0.0
 71
     1
 72
     1
  1
4
  7
SLDTEXTSTYLE0
 73
     1
 44
1.0
  0
MTEXT
  5
E8
330
1F
100
AcDbEntity
  8
0
  6
Continuous
 62
     7
370
     0
100
AcDbMText
 10
46.7720924183
 20
58.4152433306
 30
0.0
 40
0.6047619048
 41
0.0
 71
     1
 72
     1
  1
5
  7
SLDTEXTSTYLE0
 73
     1
 44
1.0
  0
MTEXT
  5
E9
330
1F
100
AcDbEntity
  8
0
  6
Continuous
 62
     7
370
     0
100
AcDbMText
 10
56.7537762976
 20
58.4152433306
 30
0.0
 40
0.6047619048
 41
0.0
 71
     1
 72
     1
  1
6
  7
SLDTEXTSTYLE0
 73
     1
 44
1.0
  0
MTEXT
  5
EA
330
1F
100
AcDbEntity
  8
0
  6
Continuous
 62
     7
370
     0
100
AcDbMText
 10
66.9608759259
 20
58.4152433306
 30
0.0
 40
0.6047619048
 41
0.0
 71
     1
 72
     1
  1
7
  7
SLDTEXTSTYLE0
 73
     1
 44
1.0
  0
MTEXT
  5
EB
330
1F
100
AcDbEntity
  8
0
  6
Continuous
 62
     7
370
     0
100
AcDbMText
 10
76.0796520141
 20
58.4152433306
 30
0.0
 40
0.6047619048
 41
0.0
 71
     1
 72
     1
  1
8
  7
SLDTEXTSTYLE0
 73
     1
 44
1.0
  0
MTEXT
  5
EC
330
1F
100
AcDbEntity
  8
0
  6
Continuous
 62
     7
370
     0
100
AcDbMText
 10
1.5305210444
 20
53.0889435108
 30
0.0
 40
0.6047619048
 41
0.0
 71
     1
 72
     1
  1
A
  7
SLDTEXTSTYLE0
 73
     1
 44
1.0
  0
MTEXT
  5
ED
330
1F
100
AcDbEntity
  8
0
  6
Continuous
 62
     7
370
     0
100
AcDbMText
 10
1.5974409095
 20
44.0855156639
 30
0.0
 40
0.6047619048
 41
0.0
 71
     1
 72
     1
  1
B
  7
SLDTEXTSTYLE0
 73
     1
 44
1.0
  0
MTEXT
  5
EE
330
1F
100
AcDbEntity
  8
0
  6
Continuous
 62
     7
370
     0
100
AcDbMText
 10
1.5974409095
 20
34.6498146923
 30
0.0
 40
0.6047619048
 41
0.0
 71
     1
 72
     1
  1
C
  7
SLDTEXTSTYLE0
 73
     1
 44
1.0
  0
MTEXT
  5
EF
330
1F
100
AcDbEntity
  8
0
  6
Continuous
 62
     7
370
     0
100
AcDbMText
 10
1.5974409095
 20
25.355806292
 30
0.0
 40
0.6047619048
 41
0.0
 71
     1
 72
     1
  1
D
  7
SLDTEXTSTYLE0
 73
     1
 44
1.0
  0
MTEXT
  5
F0
330
1F
100
AcDbEntity
  8
0
  6
Continuous
 62
     7
370
     0
100
AcDbMText
 10
1.5974409095
 20
16.4445385485
 30
0.0
 40
0.6047619048
 41
0.0
 71
     1
 72
     1
  1
E
  7
SLDTEXTSTYLE0
 73
     1
 44
1.0
  0
MTEXT
  5
F1
330
1F
100
AcDbEntity
  8
0
  6
Continuous
 62
     7
370
     0
100
AcDbMText
 10
1.5974409095
 20
7.3055489215
 30
0.0
 40
0.6047619048
 41
0.0
 71
     1
 72
     1
  1
F
  7
SLDTEXTSTYLE0
 73
     1
 44
1.0
  0
MTEXT
  5
F2
330
1F
100
AcDbEntity
  8
0
  6
Continuous
 62
     7
370
     0
100
AcDbMText
 10
76.0531033418
 20
1.8924635418
 30
0.0
 40
0.6047619048
 41
0.0
 71
     1
 72
     1
  1
8
  7
SLDTEXTSTYLE0
 73
     1
 44
1.0
  0
MTEXT
  5
F3
330
1F
100
AcDbEntity
  8
0
  6
Continuous
 62
     7
370
     0
100
AcDbMText
 10
66.9343272536
 20
1.8924635418
 30
0.0
 40
0.6047619048
 41
0.0
 71
     1
 72
     1
  1
7
  7
SLDTEXTSTYLE0
 73
     1
 44
1.0
  0
MTEXT
  5
F4
330
1F
100
AcDbEntity
  8
0
  6
Continuous
 62
     7
370
     0
100
AcDbMText
 10
56.7272276253
 20
1.8924635418
 30
0.0
 40
0.6047619048
 41
0.0
 71
     1
 72
     1
  1
6
  7
SLDTEXTSTYLE0
 73
     1
 44
1.0
  0
MTEXT
  5
F5
330
1F
100
AcDbEntity
  8
0
  6
Continuous
 62
     7
370
     0
100
AcDbMText
 10
46.745543746
 20
1.8924635418
 30
0.0
 40
0.6047619048
 41
0.0
 71
     1
 72
     1
  1
5
  7
SLDTEXTSTYLE0
 73
     1
 44
1.0
  0
MTEXT
  5
F6
330
1F
100
AcDbEntity
  8
0
  6
Continuous
 62
     7
370
     0
100
AcDbMText
 10
36.9029759806
 20
1.8484369074
 30
0.0
 40
0.6047619048
 41
0.0
 71
     1
 72
     1
  1
4
  7
SLDTEXTSTYLE0
 73
     1
 44
1.0
  0
MTEXT
  5
F7
330
1F
100
AcDbEntity
  8
0
  6
Continuous
 62
     7
370
     0
100
AcDbMText
 10
27.0880211536
 20
1.8924635418
 30
0.0
 40
0.6047619048
 41
0.0
 71
     1
 72
     1
  1
3
  7
SLDTEXTSTYLE0
 73
     1
 44
1.0
  0
MTEXT
  5
F8
330
1F
100
AcDbEntity
  8
0
  6
Continuous
 62
     7
370
     0
100
AcDbMText
 10
17.3211940627
 20
1.8924635418
 30
0.0
 40
0.6047619048
 41
0.0
 71
     1
 72
     1
  1
2
  7
SLDTEXTSTYLE0
 73
     1
 44
1.0
  0
MTEXT
  5
F9
330
1F
100
AcDbEntity
  8
0
  6
Continuous
 62
     7
370
     0
100
AcDbMText
 10
7.5743065144
 20
1.8924635418
 30
0.0
 40
0.6047619048
 41
0.0
 71
     1
 72
     1
  1
1
  7
SLDTEXTSTYLE0
 73
     1
 44
1.0
  0
MTEXT
  5
FA
330
1F
100
AcDbEntity
  8
0
  6
Continuous
 62
     7
370
     0
100
AcDbMText
 10
82.029252747
 20
53.326425974
 30
0.0
 40
0.6047619048
 41
0.0
 71
     1
 72
     1
  1
A
  7
SLDTEXTSTYLE0
 73
     1
 44
1.0
  0
MTEXT
  5
FB
330
1F
100
AcDbEntity
  8
0
  6
Continuous
 62
     7
370
     0
100
AcDbMText
 10
82.096172612
 20
44.3229981272
 30
0.0
 40
0.6047619048
 41
0.0
 71
     1
 72
     1
  1
B
  7
SLDTEXTSTYLE0
 73
     1
 44
1.0
  0
MTEXT
  5
FC
330
1F
100
AcDbEntity
  8
0
  6
Continuous
 62
     7
370
     0
100
AcDbMText
 10
82.096172612
 20
34.8872971555
 30
0.0
 40
0.6047619048
 41
0.0
 71
     1
 72
     1
  1
C
  7
SLDTEXTSTYLE0
 73
     1
 44
1.0
  0
MTEXT
  5
FD
330
1F
100
AcDbEntity
  8
0
  6
Continuous
 62
     7
370
     0
100
AcDbMText
 10
82.096172612
 20
25.5932887552
 30
0.0
 40
0.6047619048
 41
0.0
 71
     1
 72
     1
  1
D
  7
SLDTEXTSTYLE0
 73
     1
 44
1.0
  0
MTEXT
  5
FE
330
1F
100
AcDbEntity
  8
0
  6
Continuous
 62
     7
370
     0
100
AcDbMText
 10
82.096172612
 20
16.6820210117
 30
0.0
 40
0.6047619048
 41
0.0
 71
     1
 72
     1
  1
E
  7
SLDTEXTSTYLE0
 73
     1
 44
1.0
  0
MTEXT
  5
FF
330
1F
100
AcDbEntity
  8
0
  6
Continuous
 62
     7
370
     0
100
AcDbMText
 10
82.096172612
 20
7.5430313847
 30
0.0
 40
0.6047619048
 41
0.0
 71
     1
 72
     1
  1
F
  7
SLDTEXTSTYLE0
 73
     1
 44
1.0
  0
MTEXT
  5
100
330
1F
100
AcDbEntity
  8
0
  6
Continuous
 62
     7
370
     0
100
AcDbMText
 10
58.0443751086
 20
6.1676328146
 30
0.0
 40
0.5291666667
 41
0.0
 71
     1
 72
     1
  1
Sammy
  7
SLDTEXTSTYLE0
 73
     1
 44
1.0
  0
MTEXT
  5
101
330
1F
100
AcDbEntity
  8
0
  6
Continuous
 62
     7
370
     0
100
AcDbMText
 10
72.2423497041
 20
3.4428677417
 30
0.0
 40
0.7142857143
 41
0.0
 71
     1
 72
     1
  1
0
  7
SLDTEXTSTYLE0
 73
     1
 44
1.0
  0
INSERT
  5
108
330
1F
100
AcDbEntity
  8
SLD-0
 62
     7
100
AcDbBlockReference
  2
SW_NOTE_1
 10
56.778625541
 20
9.6031114589
 30
0.0
  0
LINE
  5
109
330
1F
100
AcDbEntity
  8
0
  6
Continuous
 62
     7
370
    30
100
AcDbLine
 10
44.5155929188
 20
30.5805563179
 30
0.0
 11
43.0155929058
 21
31.4465817131
 31
0.0
  0
LINE
  5
10A
330
1F
100
AcDbEntity
  8
0
  6
Continuous
 62
     7
370
    30
100
AcDbLine
 10
44.5155929188
 20
28.8485055275
 30
0.0
 11
44.5155929188
 21
30.5805563179
 31
0.0
  0
LINE
  5
10B
330
1F
100
AcDbEntity
  8
0
  6
Continuous
 62
     7
370
    30
100
AcDbLine
 10
43.0155929058
 20
27.9824801322
 30
0.0
 11
44.5155929188
 21
28.8485055275
 31
0.0
  0
LINE
  5
10C
330
1F
100
AcDbEntity
  8
0
  6
Continuous
 62
     7
370
    30
100
AcDbLine
 10
41.5155928928
 20
28.8485055275
 30
0.0
 11
43.0155929058
 21
27.9824801322
 31
0.0
  0
LINE
  5
10D
330
1F
100
AcDbEntity
  8
0
  6
Continuous
 62
     7
370
    30
100
AcDbLine
 10
41.5155928928
 20
30.5805563179
 30
0.0
 11
41.5155928928
 21
28.8485055275
 31
0.0
  0
LINE
  5
10E
330
1F
100
AcDbEntity
  8
0
  6
Continuous
 62
     7
370
    30
100
AcDbLine
 10
43.0155929058
 20
31.4465817131
 30
0.0
 11
41.5155928928
 21
30.5805563179
 31
0.0
  0
SPLINE
  5
10F
330
1F
100
AcDbEntity
  8
0
  6
Continuous
 62
     7
370
    30
100
AcDbSpline
210
0.0
220
0.0
230
1.0
 70
     8
 71
     3
 72
     8
 73
     4
 74
     0
 42
0.000000001
 43
0.00000001
 40
0.0
 40
0.0
 40
0.0
 40
0.0
 40
1.0
 40
1.0
 40
1.0
 40
1.0
 10
37.15189420392321
 20
34.2321303073583
 30
0.0
 10
37.06019521638372
 20
34.22311839236626
 30
0.0
 10
36.9856472466083
 20
34.17506103388473
 30
0.0
 10
36.93813778680653
 20
34.10936189517369
 30
0.0
  0
SPLINE
  5
110
330
1F
100
AcDbEntity
  8
0
  6
Continuous
 62
     7
370
    30
100
AcDbSpline
210
0.0
220
0.0
230
1.0
 70
     8
 71
     3
 72
    18
 73
    14
 74
     0
 42
0.000000001
 43
0.00000001
 40
0.0
 40
0.0
 40
0.0
 40
0.0
 40
0.1250000000000002
 40
0.1250000000000002
 40
0.2500000000000003
 40
0.2500000000000003
 40
0.5000000000000001
 40
0.5000000000000001
 40
0.7499999999999999
 40
0.7499999999999999
 40
0.8749999999999999
 40
0.8749999999999999
 40
1.0
 40
1.0
 40
1.0
 40
1.0
 10
37.15189420392192
 20
34.23213030735816
 30
0.0
 10
37.2049072965242
 20
34.23734028291854
 30
0.0
 10
37.27312513502742
 20
34.2469768334267
 30
0.0
 10
37.42593715039958
 20
34.2830195295009
 30
0.0
 10
37.50969572907402
 20
34.30933853275397
 30
0.0
 10
37.76337590793231
 20
34.41766507928768
 30
0.0
 10
37.92950496453021
 20
34.52775988033842
 30
0.0
 10
38.20356610774045
 20
34.80217799753451
 30
0.0
 10
38.31324389144747
 20
34.96829739241333
 30
0.0
 10
38.42094179027964
 20
35.22094027865217
 30
0.0
 10
38.44727031722688
 20
35.30477229504552
 30
0.0
 10
38.48322002513484
 20
35.45742736996458
 30
0.0
 10
38.49274572913941
 20
35.52483173825037
 30
0.0
 10
38.49799352112839
 20
35.57822962456348
 30
0.0
  0
SPLINE
  5
111
330
1F
100
AcDbEntity
  8
0
  6
Continuous
 62
     7
370
    30
100
AcDbSpline
210
0.0
220
0.0
230
1.0
 70
     8
 71
     3
 72
     8
 73
     4
 74
     0
 42
0.000000001
 43
0.00000001
 40
0.0
 40
0.0
 40
0.0
 40
0.0
 40
1.0
 40
1.0
 40
1.0
 40
1.0
 10
38.49799352112831
 20
35.57822962456343
 30
0.0
 10
38.50700543612042
 20
35.66992861210367
 30
0.0
 10
38.55506279460126
 20
35.74447658187789
 30
0.0
 10
38.62076193331291
 20
35.79198604168011
 30
0.0
  0
ARC
  5
112
330
1F
100
AcDbEntity
  8
0
  6
Continuous
 62
     7
370
    30
100
AcDbCircle
 10
43.0155929058
 20
29.7145309227
 30
0.0
 40
7.500000000000004
100
AcDbArc
 50
114.1279266565
 51
125.8720733435
  0
SPLINE
  5
113
330
1F
100
AcDbEntity
  8
0
  6
Continuous
 62
     7
370
    30
100
AcDbSpline
210
0.0
220
0.0
230
1.0
 70
     8
 71
     3
 72
     8
 73
     4
 74
     0
 42
0.000000001
 43
0.00000001
 40
0.0
 40
0.0
 40
0.0
 40
0.0
 40
1.0
 40
1.0
 40
1.0
 40
1.0
 10
40.19628056216931
 20
36.55873610486972
 30
0.0
 10
40.11236095196277
 20
36.59678105131962
 30
0.0
 10
40.02377183709432
 20
36.59243614292282
 30
0.0
 10
39.94977786863201
 20
36.55929374969392
 30
0.0
  0
SPLINE
  5
114
330
1F
100
AcDbEntity
  8
0
  6
Continuous
 62
     7
370
    30
100
AcDbSpline
210
0.0
220
0.0
230
1.0
 70
     8
 71
     3
 72
    18
 73
    14
 74
     0
 42
0.000000001
 43
0.00000001
 40
0.0
 40
0.0
 40
0.0
 40
0.0
 40
0.1249999999999998
 40
0.1249999999999998
 40
0.2499999999999995
 40
0.2499999999999995
 40
0.4999999999999994
 40
0.4999999999999994
 40
0.7499999999999993
 40
0.7499999999999993
 40
0.8749999999999997
 40
0.8749999999999997
 40
1.0
 40
1.0
 40
1.0
 40
1.0
 10
40.19628056216812
 20
36.55873610487026
 30
0.0
 10
40.24479623487506
 20
36.5367415297575
 30
0.0
 10
40.30869289126419
 20
36.5109781080508
 30
0.0
 10
40.45905332661708
 20
36.46578599078586
 30
0.0
 10
40.54474988516056
 20
36.44669962686809
 30
0.0
 10
40.81860663775527
 20
36.41367307864137
 30
0.0
 10
41.01752602160116
 20
36.42595344487695
 30
0.0
 10
41.39207899240948
 20
36.52657593402234
 30
0.0
 10
41.57012243676995
 20
36.61560065819519
 30
0.0
 10
41.78971299621224
 20
36.78054686634737
 30
0.0
 10
41.85443017758945
 20
36.83998325872086
 30
0.0
 10
41.96189107535589
 20
36.9542115776634
 30
0.0
 10
42.00384276115569
 20
37.00782262092265
 30
0.0
 10
42.03508642548847
 20
37.05144265098371
 30
0.0
  0
SPLINE
  5
115
330
1F
100
AcDbEntity
  8
0
  6
Continuous
 62
     7
370
    30
100
AcDbSpline
210
0.0
220
0.0
230
1.0
 70
     8
 71
     3
 72
     8
 73
     4
 74
     0
 42
0.000000001
 43
0.00000001
 40
0.0
 40
0.0
 40
0.0
 40
0.0
 40
1.0
 40
1.0
 40
1.0
 40
1.0
 10
42.03508642548837
 20
37.0514426509837
 30
0.0
 10
42.08874046657841
 20
37.12635034619881
 30
0.0
 10
42.16763334475018
 20
37.16688210258357
 30
0.0
 10
42.24828519778085
 20
37.17517693233639
 30
0.0
  0
ARC
  5
116
330
1F
100
AcDbEntity
  8
0
  6
Continuous
 62
     7
370
    30
100
AcDbCircle
 10
43.0155929058
 20
29.7145309227
 30
0.0
 40
7.499999999999999
100
AcDbArc
 50
84.1279266565
 51
95.8720733435
  0
SPLINE
  5
117
330
1F
100
AcDbEntity
  8
0
  6
Continuous
 62
     7
370
    30
100
AcDbSpline
210
0.0
220
0.0
230
1.0
 70
     8
 71
     3
 72
     8
 73
     4
 74
     0
 42
0.000000001
 43
0.00000001
 40
0.0
 40
0.0
 40
0.0
 40
0.0
 40
1.0
 40
1.0
 40
1.0
 40
1.0
 10
43.99609938610092
 20
37.05144265098372
 30
0.0
 10
43.94244534501133
 20
37.12635034619823
 30
0.0
 10
43.86355246683879
 20
37.16688210258363
 30
0.0
 10
43.78290061380845
 20
37.17517693233641
 30
0.0
  0
SPLINE
  5
118
330
1F
100
AcDbEntity
  8
0
  6
Continuous
 62
     7
370
    30
100
AcDbSpline
210
0.0
220
0.0
230
1.0
 70
     8
 71
     3
 72
    18
 73
    14
 74
     0
 42
0.000000001
 43
0.00000001
 40
0.0
 40
0.0
 40
0.0
 40
0.0
 40
0.1249999999999998
 40
0.1249999999999998
 40
0.2499999999999996
 40
0.2499999999999996
 40
0.4999999999999996
 40
0.4999999999999996
 40
0.7499999999999996
 40
0.7499999999999996
 40
0.8749999999999998
 40
0.8749999999999998
 40
1.0
 40
1.0
 40
1.0
 40
1.0
 10
43.99609938610016
 20
37.05144265098478
 30
0.0
 10
44.02711790358968
 20
37.00813695383822
 30
0.0
 10
44.06957232038621
 20
36.95387684795724
 30
0.0
 10
44.17719221849344
 20
36.83955910867855
 30
0.0
 10
44.24186443325009
 20
36.78018155338815
 30
0.0
 10
44.46251806388167
 20
36.61465134732714
 30
0.0
 10
44.64092748671515
 20
36.52582676453198
 30
0.0
 10
45.01561111907078
 20
36.42569191091976
 30
0.0
 10
45.21431362695065
 20
36.41376786143812
 30
0.0
 10
45.48695773393499
 20
36.44682018823467
 30
0.0
 10
45.57272265325574
 20
36.46593502325081
 30
0.0
 10
45.72290068010624
 20
36.51112920040342
 30
0.0
 10
45.78603742737006
 20
36.53658188288943
 30
0.0
 10
45.83490524942009
 20
36.55873610486974
 30
0.0
  0
SPLINE
  5
119
330
1F
100
AcDbEntity
  8
0
  6
Continuous
 62
     7
370
    30
100
AcDbSpline
210
0.0
220
0.0
230
1.0
 70
     8
 71
     3
 72
     8
 73
     4
 74
     0
 42
0.000000001
 43
0.00000001
 40
0.0
 40
0.0
 40
0.0
 40
0.0
 40
1.0
 40
1.0
 40
1.0
 40
1.0
 10
45.83490524942
 20
36.55873610486978
 30
0.0
 10
45.91882485962723
 20
36.59678105131999
 30
0.0
 10
46.0074139744927
 20
36.59243614292391
 30
0.0
 10
46.0814079429573
 20
36.55929374969399
 30
0.0
  0
ARC
  5
11A
330
1F
100
AcDbEntity
  8
0
  6
Continuous
 62
     7
370
    30
100
AcDbCircle
 10
43.0155929058
 20
29.7145309227
 30
0.0
 40
7.500000000000005
100
AcDbArc
 50
54.1279266565
 51
65.8720733435
  0
SPLINE
  5
11B
330
1F
100
AcDbEntity
  8
0
  6
Continuous
 62
     7
370
    30
100
AcDbSpline
210
0.0
220
0.0
230
1.0
 70
     8
 71
     3
 72
     8
 73
     4
 74
     0
 42
0.000000001
 43
0.00000001
 40
0.0
 40
0.0
 40
0.0
 40
0.0
 40
1.0
 40
1.0
 40
1.0
 40
1.0
 10
47.53319229046102
 20
35.57822962456352
 30
0.0
 10
47.52418037546899
 20
35.66992861210302
 30
0.0
 10
47.4761230169884
 20
35.74447658187776
 30
0.0
 10
47.41042387827643
 20
35.7919860416802
 30
0.0
  0
SPLINE
  5
11C
330
1F
100
AcDbEntity
  8
0
  6
Continuous
 62
     7
370
    30
100
AcDbSpline
210
0.0
220
0.0
230
1.0
 70
     8
 71
     3
 72
    18
 73
    14
 74
     0
 42
0.000000001
 43
0.00000001
 40
0.0
 40
0.0
 40
0.0
 40
0.0
 40
0.1249999999999996
 40
0.1249999999999996
 40
0.2499999999999992
 40
0.2499999999999992
 40
0.4999999999999993
 40
0.4999999999999993
 40
0.7499999999999994
 40
0.7499999999999994
 40
0.8749999999999997
 40
0.8749999999999997
 40
1.0
 40
1.0
 40
1.0
 40
1.0
 10
47.53319229046089
 20
35.57822962456482
 30
0.0
 10
47.53840226602127
 20
35.52521653196254
 30
0.0
 10
47.54803881652942
 20
35.45699869345932
 30
0.0
 10
47.58408151260362
 20
35.30418667808716
 30
0.0
 10
47.61040051585669
 20
35.22042809941272
 30
0.0
 10
47.71872706239041
 20
34.96674792055443
 30
0.0
 10
47.82882186344114
 20
34.80061886395653
 30
0.0
 10
48.10323998063722
 20
34.52655772074629
 30
0.0
 10
48.26935937551605
 20
34.41687993703927
 30
0.0
 10
48.52200226175489
 20
34.3091820382071
 30
0.0
 10
48.60583427814824
 20
34.28285351125985
 30
0.0
 10
48.7584893530673
 20
34.24690380335189
 30
0.0
 10
48.82589372135309
 20
34.23737809934732
 30
0.0
 10
48.8792916076662
 20
34.23213030735834
 30
0.0
  0
SPLINE
  5
11D
330
1F
100
AcDbEntity
  8
0
  6
Continuous
 62
     7
370
    30
100
AcDbSpline
210
0.0
220
0.0
230
1.0
 70
     8
 71
     3
 72
     8
 73
     4
 74
     0
 42
0.000000001
 43
0.00000001
 40
0.0
 40
0.0
 40
0.0
 40
0.0
 40
1.0
 40
1.0
 40
1.0
 40
1.0
 10
48.87929160766615
 20
34.23213030735841
 30
0.0
 10
48.97099059520639
 20
34.22311839236631
 30
0.0
 10
49.04553856498008
 20
34.17506103388621
 30
0.0
 10
49.09304802478283
 20
34.10936189517382
 30
0.0
  0
ARC
  5
11E
330
1F
100
AcDbEntity
  8
0
  6
Continuous
 62
     7
370
    30
100
AcDbCircle
 10
43.0155929058
 20
29.7145309227
 30
0.0
 40
7.500000000000003
100
AcDbArc
 50
24.1279266565
 51
35.8720733435
  0
SPLINE
  5
11F
330
1F
100
AcDbEntity
  8
0
  6
Continuous
 62
     7
370
    30
100
AcDbSpline
210
0.0
220
0.0
230
1.0
 70
     8
 71
     3
 72
     8
 73
     4
 74
     0
 42
0.000000001
 43
0.00000001
 40
0.0
 40
0.0
 40
0.0
 40
0.0
 40
1.0
 40
1.0
 40
1.0
 40
1.0
 10
49.85979808797244
 20
32.53384326631743
 30
0.0
 10
49.89784303442234
 20
32.61776287652396
 30
0.0
 10
49.89349812602596
 20
32.70635199139148
 30
0.0
 10
49.86035573279663
 20
32.78034595985471
 30
0.0
  0
SPLINE
  5
120
330
1F
100
AcDbEntity
  8
0
  6
Continuous
 62
     7
370
    30
100
AcDbSpline
210
0.0
220
0.0
230
1.0
 70
     8
 71
     3
 72
    18
 73
    14
 74
     0
 42
0.000000001
 43
0.00000001
 40
0.0
 40
0.0
 40
0.0
 40
0.0
 40
0.125
 40
0.125
 40
0.2499999999999999
 40
0.2499999999999999
 40
0.5
 40
0.5
 40
0.75
 40
0.75
 40
0.875
 40
0.875
 40
1.0
 40
1.0
 40
1.0
 40
1.0
 10
49.85979808797297
 20
32.53384326631861
 30
0.0
 10
49.83780351286021
 20
32.48532759361168
 30
0.0
 10
49.81204009115352
 20
32.42143093722254
 30
0.0
 10
49.76684797388858
 20
32.27107050186964
 30
0.0
 10
49.74776160997079
 20
32.18537394332618
 30
0.0
 10
49.71473506174408
 20
31.91151719073146
 30
0.0
 10
49.72701542797965
 20
31.71259780688557
 30
0.0
 10
49.82763791712505
 20
31.33804483607726
 30
0.0
 10
49.9166626412979
 20
31.16000139171679
 30
0.0
 10
50.08160884945007
 20
30.9404108322745
 30
0.0
 10
50.14104524182357
 20
30.87569365089729
 30
0.0
 10
50.25527356076611
 20
30.76823275313084
 30
0.0
 10
50.30888460402536
 20
30.72628106733104
 30
0.0
 10
50.35250463408641
 20
30.69503740299826
 30
0.0
  0
SPLINE
  5
121
330
1F
100
AcDbEntity
  8
0
  6
Continuous
 62
     7
370
    30
100
AcDbSpline
210
0.0
220
0.0
230
1.0
 70
     8
 71
     3
 72
     8
 73
     4
 74
     0
 42
0.000000001
 43
0.00000001
 40
0.0
 40
0.0
 40
0.0
 40
0.0
 40
1.0
 40
1.0
 40
1.0
 40
1.0
 10
50.35250463408641
 20
30.69503740299835
 30
0.0
 10
50.42741232930153
 20
30.64138336190832
 30
0.0
 10
50.46794408568621
 20
30.56249048373724
 30
0.0
 10
50.4762389154391
 20
30.48183863070587
 30
0.0
  0
ARC
  5
122
330
1F
100
AcDbEntity
  8
0
  6
Continuous
 62
     7
370
    30
100
AcDbCircle
 10
43.0155929058
 20
29.7145309227
 30
0.0
 40
7.500000000000004
100
AcDbArc
 50
354.1279266565
 51
5.8720733435
  0
SPLINE
  5
123
330
1F
100
AcDbEntity
  8
0
  6
Continuous
 62
     7
370
    30
100
AcDbSpline
210
0.0
220
0.0
230
1.0
 70
     8
 71
     3
 72
     8
 73
     4
 74
     0
 42
0.000000001
 43
0.00000001
 40
0.0
 40
0.0
 40
0.0
 40
0.0
 40
1.0
 40
1.0
 40
1.0
 40
1.0
 10
50.35250463408642
 20
28.73402444238581
 30
0.0
 10
50.42741232930093
 20
28.7876784834754
 30
0.0
 10
50.46794408568613
 20
28.86657136164592
 30
0.0
 10
50.47623891543911
 20
28.94722321467828
 30
0.0
  0
SPLINE
  5
124
330
1F
100
AcDbEntity
  8
0
  6
Continuous
 62
     7
370
    30
100
AcDbSpline
210
0.0
220
0.0
230
1.0
 70
     8
 71
     3
 72
    18
 73
    14
 74
     0
 42
0.000000001
 43
0.00000001
 40
0.0
 40
0.0
 40
0.0
 40
0.0
 40
0.1250000000000001
 40
0.1250000000000001
 40
0.2500000000000001
 40
0.2500000000000001
 40
0.5000000000000002
 40
0.5000000000000002
 40
0.7500000000000003
 40
0.7500000000000003
 40
0.8750000000000001
 40
0.8750000000000001
 40
1.0
 40
1.0
 40
1.0
 40
1.0
 10
50.35250463408748
 20
28.73402444238656
 30
0.0
 10
50.30919893694092
 20
28.70300592489705
 30
0.0
 10
50.25493883105994
 20
28.66055150810052
 30
0.0
 10
50.14062109178126
 20
28.55293160999329
 30
0.0
 10
50.08124353649085
 20
28.48825939523664
 30
0.0
 10
49.91571333042983
 20
28.26760576460506
 30
0.0
 10
49.82688874763468
 20
28.08919634177158
 30
0.0
 10
49.72675389402245
 20
27.71451270941596
 30
0.0
 10
49.7148298445408
 20
27.51581020153608
 30
0.0
 10
49.74788217133736
 20
27.24316609455174
 30
0.0
 10
49.7669970063535
 20
27.157401175231
 30
0.0
 10
49.81219118350611
 20
27.0072231483805
 30
0.0
 10
49.83764386599211
 20
26.94408640111667
 30
0.0
 10
49.85979808797244
 20
26.89521857906664
 30
0.0
  0
SPLINE
  5
125
330
1F
100
AcDbEntity
  8
0
  6
Continuous
 62
     7
370
    30
100
AcDbSpline
210
0.0
220
0.0
230
1.0
 70
     8
 71
     3
 72
     8
 73
     4
 74
     0
 42
0.000000001
 43
0.00000001
 40
0.0
 40
0.0
 40
0.0
 40
0.0
 40
1.0
 40
1.0
 40
1.0
 40
1.0
 10
49.85979808797247
 20
26.89521857906672
 30
0.0
 10
49.89784303442269
 20
26.8112989688595
 30
0.0
 10
49.89349812602737
 20
26.72270985399574
 30
0.0
 10
49.86035573279668
 20
26.64871588552943
 30
0.0
  0
ARC
  5
126
330
1F
100
AcDbEntity
  8
0
  6
Continuous
 62
     7
370
    30
100
AcDbCircle
 10
43.0155929058
 20
29.7145309227
 30
0.0
 40
7.500000000000005
100
AcDbArc
 50
324.1279266565
 51
335.8720733435
  0
SPLINE
  5
127
330
1F
100
AcDbEntity
  8
0
  6
Continuous
 62
     7
370
    30
100
AcDbSpline
210
0.0
220
0.0
230
1.0
 70
     8
 71
     3
 72
     8
 73
     4
 74
     0
 42
0.000000001
 43
0.00000001
 40
0.0
 40
0.0
 40
0.0
 40
0.0
 40
1.0
 40
1.0
 40
1.0
 40
1.0
 10
48.87929160766621
 20
25.19693153802571
 30
0.0
 10
48.97099059520571
 20
25.20594345301774
 30
0.0
 10
49.04553856498148
 20
25.25400081149976
 30
0.0
 10
49.0930480247829
 20
25.31969995021031
 30
0.0
  0
SPLINE
  5
128
330
1F
100
AcDbEntity
  8
0
  6
Continuous
 62
     7
370
    30
100
AcDbSpline
210
0.0
220
0.0
230
1.0
 70
     8
 71
     3
 72
    18
 73
    14
 74
     0
 42
0.000000001
 43
0.00000001
 40
0.0
 40
0.0
 40
0.0
 40
0.0
 40
0.1250000000000005
 40
0.1250000000000005
 40
0.2500000000000011
 40
0.2500000000000011
 40
0.5000000000000007
 40
0.5000000000000007
 40
0.7500000000000003
 40
0.7500000000000003
 40
0.8750000000000002
 40
0.8750000000000002
 40
1.0
 40
1.0
 40
1.0
 40
1.0
 10
48.8792916076675
 20
25.19693153802584
 30
0.0
 10
48.82627851506523
 20
25.19172156246547
 30
0.0
 10
48.758060676562
 20
25.18208501195731
 30
0.0
 10
48.60524866118984
 20
25.14604231588311
 30
0.0
 10
48.5214900825154
 20
25.11972331263005
 30
0.0
 10
48.26780990365712
 20
25.01139676609634
 30
0.0
 10
48.10168084705921
 20
24.90130196504561
 30
0.0
 10
47.82761970384897
 20
24.62688384784952
 30
0.0
 10
47.71794192014195
 20
24.46076445297069
 30
0.0
 10
47.61024402130978
 20
24.20812156673185
 30
0.0
 10
47.58391549436254
 20
24.1242895503385
 30
0.0
 10
47.54796578645458
 20
23.97163447541944
 30
0.0
 10
47.53844008245001
 20
23.90423010713365
 30
0.0
 10
47.53319229046102
 20
23.85083222082054
 30
0.0
  0
SPLINE
  5
129
330
1F
100
AcDbEntity
  8
0
  6
Continuous
 62
     7
370
    30
100
AcDbSpline
210
0.0
220
0.0
230
1.0
 70
     8
 71
     3
 72
     8
 73
     4
 74
     0
 42
0.000000001
 43
0.00000001
 40
0.0
 40
0.0
 40
0.0
 40
0.0
 40
1.0
 40
1.0
 40
1.0
 40
1.0
 10
47.53319229046109
 20
23.85083222082059
 30
0.0
 10
47.524180375469
 20
23.75913323328034
 30
0.0
 10
47.47612301698761
 20
23.68458526350573
 30
0.0
 10
47.4104238782765
 20
23.6370758037039
 30
0.0
  0
ARC
  5
12A
330
1F
100
AcDbEntity
  8
0
  6
Continuous
 62
     7
370
    30
100
AcDbCircle
 10
43.0155929058
 20
29.7145309227
 30
0.0
 40
7.499999999999999
100
AcDbArc
 50
294.1279266565
 51
305.8720733435
  0
SPLINE
  5
12B
330
1F
100
AcDbEntity
  8
0
  6
Continuous
 62
     7
370
    30
100
AcDbSpline
210
0.0
220
0.0
230
1.0
 70
     8
 71
     3
 72
     8
 73
     4
 74
     0
 42
0.000000001
 43
0.00000001
 40
0.0
 40
0.0
 40
0.0
 40
0.0
 40
1.0
 40
1.0
 40
1.0
 40
1.0
 10
45.8349052494201
 20
22.87032574051431
 30
0.0
 10
45.91882485962664
 20
22.8322807940644
 30
0.0
 10
46.00741397449575
 20
22.8366257024615
 30
0.0
 10
46.08140794295739
 20
22.86976809569011
 30
0.0
  0
SPLINE
  5
12C
330
1F
100
AcDbEntity
  8
0
  6
Continuous
 62
     7
370
    30
100
AcDbSpline
210
0.0
220
0.0
230
1.0
 70
     8
 71
     3
 72
    18
 73
    14
 74
     0
 42
0.000000001
 43
0.00000001
 40
0.0
 40
0.0
 40
0.0
 40
0.0
 40
0.1250000000000001
 40
0.1250000000000001
 40
0.2500000000000002
 40
0.2500000000000002
 40
0.5000000000000002
 40
0.5000000000000002
 40
0.7500000000000002
 40
0.7500000000000002
 40
0.8750000000000001
 40
0.8750000000000001
 40
1.0
 40
1.0
 40
1.0
 40
1.0
 10
45.83490524942129
 20
22.87032574051377
 30
0.0
 10
45.78638957671435
 20
22.89232031562653
 30
0.0
 10
45.72249292032522
 20
22.91808373733323
 30
0.0
 10
45.57213248497232
 20
22.96327585459817
 30
0.0
 10
45.48643592642885
 20
22.98236221851595
 30
0.0
 10
45.21257917383414
 20
23.01538876674267
 30
0.0
 10
45.01365978998825
 20
23.00310840050709
 30
0.0
 10
44.63910681917993
 20
22.9024859113617
 30
0.0
 10
44.46106337481946
 20
22.81346118718886
 30
0.0
 10
44.24147281537718
 20
22.64851497903668
 30
0.0
 10
44.17675563399996
 20
22.58907858666319
 30
0.0
 10
44.06929473623351
 20
22.47485026772064
 30
0.0
 10
44.02734305043373
 20
22.42123922446139
 30
0.0
 10
43.99609938610094
 20
22.37761919440034
 30
0.0
  0
SPLINE
  5
12D
330
1F
100
AcDbEntity
  8
0
  6
Continuous
 62
     7
370
    30
100
AcDbSpline
210
0.0
220
0.0
230
1.0
 70
     8
 71
     3
 72
     8
 73
     4
 74
     0
 42
0.000000001
 43
0.00000001
 40
0.0
 40
0.0
 40
0.0
 40
0.0
 40
1.0
 40
1.0
 40
1.0
 40
1.0
 10
43.99609938610103
 20
22.37761919440035
 30
0.0
 10
43.942445345011
 20
22.30271149918523
 30
0.0
 10
43.86355246683958
 20
22.2621797428005
 30
0.0
 10
43.78290061380855
 20
22.25388491304764
 30
0.0
  0
ARC
  5
12E
330
1F
100
AcDbEntity
  8
0
  6
Continuous
 62
     7
370
    30
100
AcDbCircle
 10
43.0155929058
 20
29.7145309227
 30
0.0
 40
7.500000000000001
100
AcDbArc
 50
264.1279266565
 51
275.8720733435
  0
SPLINE
  5
12F
330
1F
100
AcDbEntity
  8
0
  6
Continuous
 62
     7
370
    30
100
AcDbSpline
210
0.0
220
0.0
230
1.0
 70
     8
 71
     3
 72
     8
 73
     4
 74
     0
 42
0.000000001
 43
0.00000001
 40
0.0
 40
0.0
 40
0.0
 40
0.0
 40
1.0
 40
1.0
 40
1.0
 40
1.0
 10
42.03508642548848
 20
22.37761919440034
 30
0.0
 10
42.08874046657807
 20
22.30271149918583
 30
0.0
 10
42.16763334475188
 20
22.26217974280029
 30
0.0
 10
42.24828519778096
 20
22.25388491304764
 30
0.0
  0
SPLINE
  5
130
330
1F
100
AcDbEntity
  8
0
  6
Continuous
 62
     7
370
    30
100
AcDbSpline
210
0.0
220
0.0
230
1.0
 70
     8
 71
     3
 72
    18
 73
    14
 74
     0
 42
0.000000001
 43
0.00000001
 40
0.0
 40
0.0
 40
0.0
 40
0.0
 40
0.1249999999999999
 40
0.1249999999999999
 40
0.2499999999999997
 40
0.2499999999999997
 40
0.4999999999999997
 40
0.4999999999999997
 40
0.7499999999999996
 40
0.7499999999999996
 40
0.8749999999999998
 40
0.8749999999999998
 40
1.0
 40
1.0
 40
1.0
 40
1.0
 10
42.03508642548924
 20
22.37761919439928
 30
0.0
 10
42.00406790799972
 20
22.42092489154584
 30
0.0
 10
41.96161349120319
 20
22.47518499742682
 30
0.0
 10
41.85399359309596
 20
22.58950273670552
 30
0.0
 10
41.78932137833931
 20
22.64888029199592
 30
0.0
 10
41.56866774770774
 20
22.81441049805693
 30
0.0
 10
41.39025832487426
 20
22.90323508085208
 30
0.0
 10
41.01557469251863
 20
23.00336993446432
 30
0.0
 10
40.81687218463876
 20
23.01529398394596
 30
0.0
 10
40.54422807765442
 20
22.98224165714941
 30
0.0
 10
40.45846315833367
 20
22.96312682213326
 30
0.0
 10
40.30828513148317
 20
22.91793264498066
 30
0.0
 10
40.24514838421935
 20
22.89247996249464
 30
0.0
 10
40.19628056216932
 20
22.87032574051434
 30
0.0
  0
SPLINE
  5
131
330
1F
100
AcDbEntity
  8
0
  6
Continuous
 62
     7
370
    30
100
AcDbSpline
210
0.0
220
0.0
230
1.0
 70
     8
 71
     3
 72
     8
 73
     4
 74
     0
 42
0.000000001
 43
0.00000001
 40
0.0
 40
0.0
 40
0.0
 40
0.0
 40
1.0
 40
1.0
 40
1.0
 40
1.0
 10
40.19628056216941
 20
22.87032574051429
 30
0.0
 10
40.11236095196218
 20
22.83228079406407
 30
0.0
 10
40.0237718370959
 20
22.83662570246052
 30
0.0
 10
39.94977786863212
 20
22.86976809569008
 30
0.0
  0
ARC
  5
132
330
1F
100
AcDbEntity
  8
0
  6
Continuous
 62
     7
370
    30
100
AcDbCircle
 10
43.0155929058
 20
29.7145309227
 30
0.0
 40
7.499999999999997
100
AcDbArc
 50
234.1279266565
 51
245.8720733435
  0
SPLINE
  5
133
330
1F
100
AcDbEntity
  8
0
  6
Continuous
 62
     7
370
    30
100
AcDbSpline
210
0.0
220
0.0
230
1.0
 70
     8
 71
     3
 72
     8
 73
     4
 74
     0
 42
0.000000001
 43
0.00000001
 40
0.0
 40
0.0
 40
0.0
 40
0.0
 40
1.0
 40
1.0
 40
1.0
 40
1.0
 10
38.4979935211284
 20
23.85083222082056
 30
0.0
 10
38.50700543612043
 20
23.75913323328106
 30
0.0
 10
38.55506279460202
 20
23.6845852635056
 30
0.0
 10
38.620761933313
 20
23.63707580370387
 30
0.0
  0
SPLINE
  5
134
330
1F
100
AcDbEntity
  8
0
  6
Continuous
 62
     7
370
    30
100
AcDbSpline
210
0.0
220
0.0
230
1.0
 70
     8
 71
     3
 72
    18
 73
    14
 74
     0
 42
0.000000001
 43
0.00000001
 40
0.0
 40
0.0
 40
0.0
 40
0.0
 40
0.1250000000000001
 40
0.1250000000000001
 40
0.2500000000000001
 40
0.2500000000000001
 40
0.4999999999999998
 40
0.4999999999999998
 40
0.7499999999999994
 40
0.7499999999999994
 40
0.8749999999999997
 40
0.8749999999999997
 40
1.0
 40
1.0
 40
1.0
 40
1.0
 10
38.49799352112853
 20
23.85083222081926
 30
0.0
 10
38.49278354556815
 20
23.90384531342154
 30
0.0
 10
38.48314699506
 20
23.97206315192477
 30
0.0
 10
38.44710429898579
 20
24.12487516729693
 30
0.0
 10
38.42078529573273
 20
24.20863374597137
 30
0.0
 10
38.31245874919902
 20
24.46231392482966
 30
0.0
 10
38.20236394814829
 20
24.62844298142756
 30
0.0
 10
37.9279458309522
 20
24.9025041246378
 30
0.0
 10
37.76182643607338
 20
25.01218190834483
 30
0.0
 10
37.50918354983453
 20
25.119879807177
 30
0.0
 10
37.42535153344119
 20
25.14620833412424
 30
0.0
 10
37.27269645852213
 20
25.1821580420322
 30
0.0
 10
37.20529209023633
 20
25.19168374603677
 30
0.0
 10
37.15189420392323
 20
25.19693153802575
 30
0.0
  0
SPLINE
  5
135
330
1F
100
AcDbEntity
  8
0
  6
Continuous
 62
     7
370
    30
100
AcDbSpline
210
0.0
220
0.0
230
1.0
 70
     8
 71
     3
 72
     8
 73
     4
 74
     0
 42
0.000000001
 43
0.00000001
 40
0.0
 40
0.0
 40
0.0
 40
0.0
 40
1.0
 40
1.0
 40
1.0
 40
1.0
 10
37.15189420392328
 20
25.19693153802568
 30
0.0
 10
37.06019521638304
 20
25.20594345301777
 30
0.0
 10
36.98564724660805
 20
25.25400081149967
 30
0.0
 10
36.93813778680659
 20
25.31969995021026
 30
0.0
  0
ARC
  5
136
330
1F
100
AcDbEntity
  8
0
  6
Continuous
 62
     7
370
    30
100
AcDbCircle
 10
43.0155929058
 20
29.7145309227
 30
0.0
 40
7.500000000000001
100
AcDbArc
 50
204.1279266565
 51
215.8720733435
  0
SPLINE
  5
137
330
1F
100
AcDbEntity
  8
0
  6
Continuous
 62
     7
370
    30
100
AcDbSpline
210
0.0
220
0.0
230
1.0
 70
     8
 71
     3
 72
     8
 73
     4
 74
     0
 42
0.000000001
 43
0.00000001
 40
0.0
 40
0.0
 40
0.0
 40
0.0
 40
1.0
 40
1.0
 40
1.0
 40
1.0
 10
36.17138772361701
 20
26.89521857906668
 30
0.0
 10
36.1333427771671
 20
26.81129896886014
 30
0.0
 10
36.13768768556345
 20
26.72270985399269
 30
0.0
 10
36.1708300787928
 20
26.64871588552938
 30
0.0
  0
SPLINE
  5
138
330
1F
100
AcDbEntity
  8
0
  6
Continuous
 62
     7
370
    30
100
AcDbSpline
210
0.0
220
0.0
230
1.0
 70
     8
 71
     3
 72
    18
 73
    14
 74
     0
 42
0.000000001
 43
0.00000001
 40
0.0
 40
0.0
 40
0.0
 40
0.0
 40
0.1249999999999998
 40
0.1249999999999998
 40
0.2499999999999997
 40
0.2499999999999997
 40
0.4999999999999993
 40
0.4999999999999993
 40
0.7499999999999992
 40
0.7499999999999992
 40
0.8749999999999996
 40
0.8749999999999996
 40
1.0
 40
1.0
 40
1.0
 40
1.0
 10
36.17138772361647
 20
26.89521857906549
 30
0.0
 10
36.19338229872923
 20
26.94373425177243
 30
0.0
 10
36.21914572043593
 20
27.00763090816156
 30
0.0
 10
36.26433783770086
 20
27.15799134351446
 30
0.0
 10
36.28342420161864
 20
27.24368790205792
 30
0.0
 10
36.31645074984536
 20
27.51754465465264
 30
0.0
 10
36.30417038360978
 20
27.71646403849854
 30
0.0
 10
36.20354789446439
 20
28.09101700930685
 30
0.0
 10
36.11452317029155
 20
28.26906045366732
 30
0.0
 10
35.94957696213937
 20
28.48865101310961
 30
0.0
 10
35.89014056976588
 20
28.55336819448683
 30
0.0
 10
35.77591225082334
 20
28.66082909225327
 30
0.0
 10
35.72230120756409
 20
28.70278077805306
 30
0.0
 10
35.67868117750304
 20
28.73402444238585
 30
0.0
  0
SPLINE
  5
139
330
1F
100
AcDbEntity
  8
0
  6
Continuous
 62
     7
370
    30
100
AcDbSpline
210
0.0
220
0.0
230
1.0
 70
     8
 71
     3
 72
     8
 73
     4
 74
     0
 42
0.000000001
 43
0.00000001
 40
0.0
 40
0.0
 40
0.0
 40
0.0
 40
1.0
 40
1.0
 40
1.0
 40
1.0
 10
35.67868117750304
 20
28.73402444238575
 30
0.0
 10
35.60377348228793
 20
28.78767848347578
 30
0.0
 10
35.56324172590309
 20
28.86657136164826
 30
0.0
 10
35.55494689615035
 20
28.94722321467823
 30
0.0
  0
ARC
  5
13A
330
1F
100
AcDbEntity
  8
0
  6
Continuous
 62
     7
370
    30
100
AcDbCircle
 10
43.0155929058
 20
29.7145309227
 30
0.0
 40
7.499999999999997
100
AcDbArc
 50
174.1279266565
 51
185.8720733435
  0
SPLINE
  5
13B
330
1F
100
AcDbEntity
  8
0
  6
Continuous
 62
     7
370
    30
100
AcDbSpline
210
0.0
220
0.0
230
1.0
 70
     8
 71
     3
 72
     8
 73
     4
 74
     0
 42
0.000000001
 43
0.00000001
 40
0.0
 40
0.0
 40
0.0
 40
0.0
 40
1.0
 40
1.0
 40
1.0
 40
1.0
 10
35.67868117750303
 20
30.6950374029982
 30
0.0
 10
35.60377348228852
 20
30.6413833619086
 30
0.0
 10
35.56324172590324
 20
30.56249048373725
 30
0.0
 10
35.55494689615034
 20
30.48183863070571
 30
0.0
  0
SPLINE
  5
13C
330
1F
100
AcDbEntity
  8
0
  6
Continuous
 62
     7
370
    30
100
AcDbSpline
210
0.0
220
0.0
230
1.0
 70
     8
 71
     3
 72
    18
 73
    14
 74
     0
 42
0.000000001
 43
0.00000001
 40
0.0
 40
0.0
 40
0.0
 40
0.0
 40
0.1249999999999999
 40
0.1249999999999999
 40
0.2499999999999999
 40
0.2499999999999999
 40
0.4999999999999998
 40
0.4999999999999998
 40
0.7499999999999999
 40
0.7499999999999999
 40
0.8749999999999999
 40
0.8749999999999999
 40
1.0
 40
1.0
 40
1.0
 40
1.0
 10
35.67868117750197
 20
30.69503740299744
 30
0.0
 10
35.72198687464853
 20
30.72605592048696
 30
0.0
 10
35.77624698052951
 20
30.76851033728349
 30
0.0
 10
35.8905647198082
 20
30.87613023539071
 30
0.0
 10
35.94994227509861
 20
30.94080245014737
 30
0.0
 10
36.1154724811596
 20
31.16145608077895
 30
0.0
 10
36.20429706395477
 20
31.33986550361243
 30
0.0
 10
36.30443191756699
 20
31.71454913596806
 30
0.0
 10
36.31635596704863
 20
31.91325164384793
 30
0.0
 10
36.28330364025208
 20
32.18589575083227
 30
0.0
 10
36.26418880523594
 20
32.27166067015301
 30
0.0
 10
36.21899462808333
 20
32.42183869700351
 30
0.0
 10
36.19354194559732
 20
32.48497544426733
 30
0.0
 10
36.17138772361701
 20
32.53384326631736
 30
0.0
  0
SPLINE
  5
13D
330
1F
100
AcDbEntity
  8
0
  6
Continuous
 62
     7
370
    30
100
AcDbSpline
210
0.0
220
0.0
230
1.0
 70
     8
 71
     3
 72
     8
 73
     4
 74
     0
 42
0.000000001
 43
0.00000001
 40
0.0
 40
0.0
 40
0.0
 40
0.0
 40
1.0
 40
1.0
 40
1.0
 40
1.0
 10
36.17138772361697
 20
32.53384326631728
 30
0.0
 10
36.13334277716675
 20
32.6177628765245
 30
0.0
 10
36.13768768556352
 20
32.70635199139151
 30
0.0
 10
36.17083007879275
 20
32.78034595985456
 30
0.0
  0
ARC
  5
13E
330
1F
100
AcDbEntity
  8
0
  6
Continuous
 62
     7
370
    30
100
AcDbCircle
 10
43.0155929058
 20
29.7145309227
 30
0.0
 40
7.500000000000003
100
AcDbArc
 50
144.1279266565
 51
155.8720733435
  0
CIRCLE
  5
13F
330
1F
100
AcDbEntity
  8
0
  6
Continuous
 62
     7
370
    30
100
AcDbCircle
 10
43.0155929058
 20
29.7145309227
 30
0.0
 40
6.5
  0
DIMENSION
  5
140
330
1F
100
AcDbEntity
  8
SLD-0
 62
     7
100
AcDbDimension
  2
_D
 10
52.1944180358
 20
22.6830829555
 30
0.0
 11
52.9444180358
 21
23.9821210612
 31
0.0
 70
   160
  1
<>
 71
     2
 42
-1.0
  3
SLDDIMSTYLE0
100
AcDbAlignedDimension
 13
44.5155929058
 23
30.5805563265
 33
0.0
 14
43.0155929058
 24
27.9824801151
 34
0.0
 50
60.0
100
AcDbRotatedDimension
  0
DIMENSION
  5
14B
330
1F
100
AcDbEntity
  8
SLD-0
 62
     7
100
AcDbDimension
  2
_D_1
 10
39.1002501759
 20
23.3176495491
 30
0.0
 11
49.8088618322
 21
39.0918394444
 31
0.0
 70
   163
  1
<>
 71
     1
 42
-1.0
  3
SLDDIMSTYLE1
100
AcDbDiametricDimension
 15
46.9309356357
 25
36.1114122962
 35
0.0
 40
0.0
  0
INSERT
  5
160
330
1F
100
AcDbEntity
  8
SLD-0
 62
     7
100
AcDbBlockReference
  2
SW_CENTERMARKSYMBOL_0
 10
43.0155929058
 20
29.7145309227
 30
0.0
  0
ARC
  5
161
330
1F
100
AcDbEntity
  8
0
  6
Continuous
 62
     7
370
    30
100
AcDbCircle
 10
24.5159273299
 20
23.2145309227
 30
0.0
 40
1.0
100
AcDbArc
 50
270.0
 51
0.0
  0
ARC
  5
162
330
1F
100
AcDbEntity
  8
0
  6
Continuous
 62
     7
370
    30
100
AcDbCircle
 10
24.5159273299
 20
36.2145309227
 30
0.0
 40
1.000000000000004
100
AcDbArc
 50
0.0
 51
90.0
  0
ARC
  5
163
330
1F
100
AcDbEntity
  8
0
  6
Continuous
 62
     7
370
    30
100
AcDbCircle
 10
18.5159273299
 20
23.2145309227
 30
0.0
 40
1.000000000000004
100
AcDbArc
 50
180.0
 51
270.0
  0
ARC
  5
164
330
1F
100
AcDbEntity
  8
0
  6
Continuous
 62
     7
370
    30
100
AcDbCircle
 10
18.5159273299
 20
36.2145309227
 30
0.0
 40
1.0
100
AcDbArc
 50
90.0
 51
180.0
  0
LINE
  5
165
330
1F
100
AcDbEntity
  8
0
  6
Continuous
 62
     7
370
    30
100
AcDbLine
 10
24.7381888119
 20
36.585503381
 30
0.0
 11
18.2936334538
 21
36.585503381
 31
0.0
  0
LINE
  5
166
330
1F
100
AcDbEntity
  8
0
  6
Continuous
 62
     7
370
    30
100
AcDbLine
 10
18.2936660501
 20
22.8435584644
 30
0.0
 11
24.7382214081
 21
22.8435584644
 31
0.0
  0
LINE
  5
167
330
1F
100
AcDbEntity
  8
0
  6
Continuous
 62
     7
370
    30
100
AcDbLine
 10
24.5159272824
 20
37.2145307551
 30
0.0
 11
18.5159271139
 21
37.2145307551
 31
0.0
  0
LINE
  5
168
330
1F
100
AcDbEntity
  8
0
  6
Continuous
 62
     7
370
    30
100
AcDbLine
 10
18.5159271139
 20
22.2145310903
 30
0.0
 11
24.5159272824
 21
22.2145310903
 31
0.0
  0
SPLINE
  5
169
330
1F
100
AcDbEntity
  8
0
  6
Continuous
 62
     7
370
    30
100
AcDbSpline
210
0.0
220
0.0
230
1.0
 70
     8
 71
     3
 72
     8
 73
     4
 74
     0
 42
0.000000001
 43
0.00000001
 40
0.0
 40
0.0
 40
0.0
 40
0.0
 40
1.0
 40
1.0
 40
1.0
 40
1.0
 10
24.94737214510917
 20
34.2321303073583
 30
0.0
 10
24.80698328377687
 20
34.22311839236626
 30
0.0
 10
24.66096422012682
 20
34.17506103388473
 30
0.0
 10
24.51592732993318
 20
34.10936189517369
 30
0.0
  0
SPLINE
  5
16A
330
1F
100
AcDbEntity
  8
0
  6
Continuous
 62
     7
370
    30
100
AcDbSpline
210
0.0
220
0.0
230
1.0
 70
     8
 71
     3
 72
    18
 73
    14
 74
     0
 42
0.000000001
 43
0.00000001
 40
0.0
 40
0.0
 40
0.0
 40
0.0
 40
0.1250000000000002
 40
0.1250000000000002
 40
0.2500000000000003
 40
0.2500000000000003
 40
0.5000000000000001
 40
0.5000000000000001
 40
0.7499999999999999
 40
0.7499999999999999
 40
0.8749999999999999
 40
0.8749999999999999
 40
1.0
 40
1.0
 40
1.0
 40
1.0
 10
24.94737214510917
 20
34.23213030735816
 30
0.0
 10
25.02853386680152
 20
34.23734028291854
 30
0.0
 10
25.09968961817317
 20
34.2469768334267
 30
0.0
 10
25.21517639935433
 20
34.2830195295009
 30
0.0
 10
25.25942779145739
 20
34.30933853275397
 30
0.0
 10
25.35881703414211
 20
34.41766507928768
 30
0.0
 10
25.38204099244498
 20
34.52775988033842
 30
0.0
 10
25.38186402953476
 20
34.80217799753451
 30
0.0
 10
25.35836253615432
 20
34.96829739241333
 30
0.0
 10
25.25915025636122
 20
35.22094027865217
 30
0.0
 10
25.21481733322082
 20
35.30477229504552
 30
0.0
 10
25.0992815814614
 20
35.45742736996458
 30
0.0
 10
25.02912297637072
 20
35.52483173825037
 30
0.0
 10
24.94737214511117
 20
35.57822962456348
 30
0.0
  0
SPLINE
  5
16B
330
1F
100
AcDbEntity
  8
0
  6
Continuous
 62
     7
370
    30
100
AcDbSpline
210
0.0
220
0.0
230
1.0
 70
     8
 71
     3
 72
     8
 73
     4
 74
     0
 42
0.000000001
 43
0.00000001
 40
0.0
 40
0.0
 40
0.0
 40
0.0
 40
1.0
 40
1.0
 40
1.0
 40
1.0
 10
24.94737214511115
 20
35.57822962456343
 30
0.0
 10
24.80698328377835
 20
35.66992861210367
 30
0.0
 10
24.66096422012729
 20
35.74447658187789
 30
0.0
 10
24.51592732993316
 20
35.79198604168011
 30
0.0
  0
LINE
  5
16C
330
1F
100
AcDbEntity
  8
0
  6
Continuous
 62
     7
370
    30
100
AcDbLine
 10
24.5159272824
 20
35.7919858137
 30
0.0
 11
24.5159272824
 21
36.5592936354
 31
0.0
  0
SPLINE
  5
16D
330
1F
100
AcDbEntity
  8
0
  6
Continuous
 62
     7
370
    30
100
AcDbSpline
210
0.0
220
0.0
230
1.0
 70
     8
 71
     3
 72
     8
 73
     4
 74
     0
 42
0.000000001
 43
0.00000001
 40
0.0
 40
0.0
 40
0.0
 40
0.0
 40
1.0
 40
1.0
 40
1.0
 40
1.0
 10
24.94737214510915
 20
36.55873610486972
 30
0.0
 10
24.80698328377685
 20
36.59678105131962
 30
0.0
 10
24.66096422012778
 20
36.59243614292282
 30
0.0
 10
24.51592732993315
 20
36.55929374969392
 30
0.0
  0
SPLINE
  5
16E
330
1F
100
AcDbEntity
  8
0
  6
Continuous
 62
     7
370
    30
100
AcDbSpline
210
0.0
220
0.0
230
1.0
 70
     8
 71
     3
 72
    18
 73
    14
 74
     0
 42
0.000000001
 43
0.00000001
 40
0.0
 40
0.0
 40
0.0
 40
0.0
 40
0.1249999999999998
 40
0.1249999999999998
 40
0.2499999999999995
 40
0.2499999999999995
 40
0.4999999999999994
 40
0.4999999999999994
 40
0.7499999999999993
 40
0.7499999999999993
 40
0.8749999999999997
 40
0.8749999999999997
 40
1.0
 40
1.0
 40
1.0
 40
1.0
 10
24.94737214510915
 20
36.55873610487026
 30
0.0
 10
25.0285338668015
 20
36.5367415297575
 30
0.0
 10
25.09968961817314
 20
36.5109781080508
 30
0.0
 10
25.21517639935431
 20
36.46578599078586
 30
0.0
 10
25.25942779145737
 20
36.44669962686809
 30
0.0
 10
25.35881703414209
 20
36.41367307864137
 30
0.0
 10
25.38204099244496
 20
36.42595344487695
 30
0.0
 10
25.38186402953474
 20
36.52657593402234
 30
0.0
 10
25.3583625361543
 20
36.61560065819519
 30
0.0
 10
25.2591502563612
 20
36.78054686634737
 30
0.0
 10
25.2148173332208
 20
36.83998325872086
 30
0.0
 10
25.09928158146138
 20
36.9542115776634
 30
0.0
 10
25.0291229763707
 20
37.00782262092265
 30
0.0
 10
24.94737214511116
 20
37.05144265098371
 30
0.0
  0
SPLINE
  5
16F
330
1F
100
AcDbEntity
  8
0
  6
Continuous
 62
     7
370
    30
100
AcDbSpline
210
0.0
220
0.0
230
1.0
 70
     8
 71
     3
 72
     8
 73
     4
 74
     0
 42
0.000000001
 43
0.00000001
 40
0.0
 40
0.0
 40
0.0
 40
0.0
 40
1.0
 40
1.0
 40
1.0
 40
1.0
 10
24.94737214511113
 20
37.0514426509837
 30
0.0
 10
24.80698328377833
 20
37.12635034619881
 30
0.0
 10
24.66096422012811
 20
37.16688210258357
 30
0.0
 10
24.51592732993315
 20
37.17517693233639
 30
0.0
  0
SPLINE
  5
170
330
1F
100
AcDbEntity
  8
0
  6
Continuous
 62
     7
370
    30
100
AcDbSpline
210
0.0
220
0.0
230
1.0
 70
     8
 71
     3
 72
     8
 73
     4
 74
     0
 42
0.000000001
 43
0.00000001
 40
0.0
 40
0.0
 40
0.0
 40
0.0
 40
1.0
 40
1.0
 40
1.0
 40
1.0
 10
24.9473721451093
 20
22.37761919440034
 30
0.0
 10
24.806983283777
 20
22.30271149918583
 30
0.0
 10
24.66096422012825
 20
22.26217974280029
 30
0.0
 10
24.5159273299333
 20
22.25388491304764
 30
0.0
  0
SPLINE
  5
171
330
1F
100
AcDbEntity
  8
0
  6
Continuous
 62
     7
370
    30
100
AcDbSpline
210
0.0
220
0.0
230
1.0
 70
     8
 71
     3
 72
    18
 73
    14
 74
     0
 42
0.000000001
 43
0.00000001
 40
0.0
 40
0.0
 40
0.0
 40
0.0
 40
0.1249999999999999
 40
0.1249999999999999
 40
0.2499999999999997
 40
0.2499999999999997
 40
0.4999999999999997
 40
0.4999999999999997
 40
0.7499999999999996
 40
0.7499999999999996
 40
0.8749999999999998
 40
0.8749999999999998
 40
1.0
 40
1.0
 40
1.0
 40
1.0
 10
24.9473721451093
 20
22.37761919439928
 30
0.0
 10
25.02853386680165
 20
22.42092489154584
 30
0.0
 10
25.09968961817329
 20
22.47518499742682
 30
0.0
 10
25.21517639935445
 20
22.58950273670552
 30
0.0
 10
25.25942779145751
 20
22.64888029199592
 30
0.0
 10
25.35881703414223
 20
22.81441049805693
 30
0.0
 10
25.3820409924451
 20
22.90323508085208
 30
0.0
 10
25.38186402953488
 20
23.00336993446432
 30
0.0
 10
25.35836253615444
 20
23.01529398394596
 30
0.0
 10
25.25915025636134
 20
22.98224165714941
 30
0.0
 10
25.21481733322095
 20
22.96312682213326
 30
0.0
 10
25.09928158146153
 20
22.91793264498066
 30
0.0
 10
25.02912297637086
 20
22.89247996249464
 30
0.0
 10
24.94737214511131
 20
22.87032574051434
 30
0.0
  0
SPLINE
  5
172
330
1F
100
AcDbEntity
  8
0
  6
Continuous
 62
     7
370
    30
100
AcDbSpline
210
0.0
220
0.0
230
1.0
 70
     8
 71
     3
 72
     8
 73
     4
 74
     0
 42
0.000000001
 43
0.00000001
 40
0.0
 40
0.0
 40
0.0
 40
0.0
 40
1.0
 40
1.0
 40
1.0
 40
1.0
 10
24.94737214511128
 20
22.87032574051429
 30
0.0
 10
24.80698328377848
 20
22.83228079406407
 30
0.0
 10
24.66096422012794
 20
22.83662570246052
 30
0.0
 10
24.5159273299333
 20
22.86976809569008
 30
0.0
  0
LINE
  5
173
330
1F
100
AcDbEntity
  8
0
  6
Continuous
 62
     7
370
    30
100
AcDbLine
 10
24.5159272824
 20
22.86976821
 30
0.0
 11
24.5159272824
 21
23.6370760316
 31
0.0
  0
SPLINE
  5
174
330
1F
100
AcDbEntity
  8
0
  6
Continuous
 62
     7
370
    30
100
AcDbSpline
210
0.0
220
0.0
230
1.0
 70
     8
 71
     3
 72
     8
 73
     4
 74
     0
 42
0.000000001
 43
0.00000001
 40
0.0
 40
0.0
 40
0.0
 40
0.0
 40
1.0
 40
1.0
 40
1.0
 40
1.0
 10
24.94737214510928
 20
23.85083222082056
 30
0.0
 10
24.80698328377698
 20
23.75913323328106
 30
0.0
 10
24.66096422012697
 20
23.6845852635056
 30
0.0
 10
24.51592732993329
 20
23.63707580370387
 30
0.0
  0
SPLINE
  5
175
330
1F
100
AcDbEntity
  8
0
  6
Continuous
 62
     7
370
    30
100
AcDbSpline
210
0.0
220
0.0
230
1.0
 70
     8
 71
     3
 72
    18
 73
    14
 74
     0
 42
0.000000001
 43
0.00000001
 40
0.0
 40
0.0
 40
0.0
 40
0.0
 40
0.1250000000000001
 40
0.1250000000000001
 40
0.2500000000000001
 40
0.2500000000000001
 40
0.4999999999999998
 40
0.4999999999999998
 40
0.7499999999999994
 40
0.7499999999999994
 40
0.8749999999999997
 40
0.8749999999999997
 40
1.0
 40
1.0
 40
1.0
 40
1.0
 10
24.94737214510928
 20
23.85083222081926
 30
0.0
 10
25.02853386680163
 20
23.90384531342154
 30
0.0
 10
25.09968961817328
 20
23.97206315192477
 30
0.0
 10
25.21517639935444
 20
24.12487516729693
 30
0.0
 10
25.2594277914575
 20
24.20863374597137
 30
0.0
 10
25.35881703414222
 20
24.46231392482966
 30
0.0
 10
25.38204099244508
 20
24.62844298142756
 30
0.0
 10
25.38186402953487
 20
24.9025041246378
 30
0.0
 10
25.35836253615442
 20
25.01218190834483
 30
0.0
 10
25.25915025636132
 20
25.119879807177
 30
0.0
 10
25.21481733322093
 20
25.14620833412424
 30
0.0
 10
25.0992815814615
 20
25.1821580420322
 30
0.0
 10
25.02912297637083
 20
25.19168374603677
 30
0.0
 10
24.94737214511128
 20
25.19693153802575
 30
0.0
  0
SPLINE
  5
176
330
1F
100
AcDbEntity
  8
0
  6
Continuous
 62
     7
370
    30
100
AcDbSpline
210
0.0
220
0.0
230
1.0
 70
     8
 71
     3
 72
     8
 73
     4
 74
     0
 42
0.000000001
 43
0.00000001
 40
0.0
 40
0.0
 40
0.0
 40
0.0
 40
1.0
 40
1.0
 40
1.0
 40
1.0
 10
24.94737214511125
 20
25.19693153802568
 30
0.0
 10
24.80698328377846
 20
25.20594345301777
 30
0.0
 10
24.66096422012813
 20
25.25400081149967
 30
0.0
 10
24.51592732993327
 20
25.31969995021026
 30
0.0
  0
LINE
  5
177
330
1F
100
AcDbEntity
  8
0
  6
Continuous
 62
     7
370
    30
100
AcDbLine
 10
24.5159272824
 20
25.3196997868
 30
0.0
 11
24.5159272824
 21
26.6487159601
 31
0.0
  0
SPLINE
  5
178
330
1F
100
AcDbEntity
  8
0
  6
Continuous
 62
     7
370
    30
100
AcDbSpline
210
0.0
220
0.0
230
1.0
 70
     8
 71
     3
 72
     8
 73
     4
 74
     0
 42
0.000000001
 43
0.00000001
 40
0.0
 40
0.0
 40
0.0
 40
0.0
 40
1.0
 40
1.0
 40
1.0
 40
1.0
 10
24.94737214510925
 20
26.89521857906668
 30
0.0
 10
24.80698328377695
 20
26.81129896886014
 30
0.0
 10
24.66096422012727
 20
26.72270985399269
 30
0.0
 10
24.51592732993326
 20
26.64871588552938
 30
0.0
  0
SPLINE
  5
179
330
1F
100
AcDbEntity
  8
0
  6
Continuous
 62
     7
370
    30
100
AcDbSpline
210
0.0
220
0.0
230
1.0
 70
     8
 71
     3
 72
    18
 73
    14
 74
     0
 42
0.000000001
 43
0.00000001
 40
0.0
 40
0.0
 40
0.0
 40
0.0
 40
0.1249999999999998
 40
0.1249999999999998
 40
0.2499999999999997
 40
0.2499999999999997
 40
0.4999999999999993
 40
0.4999999999999993
 40
0.7499999999999992
 40
0.7499999999999992
 40
0.8749999999999996
 40
0.8749999999999996
 40
1.0
 40
1.0
 40
1.0
 40
1.0
 10
24.94737214510925
 20
26.89521857906549
 30
0.0
 10
25.0285338668016
 20
26.94373425177243
 30
0.0
 10
25.09968961817324
 20
27.00763090816156
 30
0.0
 10
25.21517639935441
 20
27.15799134351446
 30
0.0
 10
25.25942779145747
 20
27.24368790205792
 30
0.0
 10
25.35881703414219
 20
27.51754465465264
 30
0.0
 10
25.38204099244505
 20
27.71646403849854
 30
0.0
 10
25.38186402953483
 20
28.09101700930685
 30
0.0
 10
25.35836253615439
 20
28.26906045366732
 30
0.0
 10
25.25915025636129
 20
28.48865101310961
 30
0.0
 10
25.21481733322089
 20
28.55336819448683
 30
0.0
 10
25.09928158146147
 20
28.66082909225327
 30
0.0
 10
25.02912297637079
 20
28.70278077805306
 30
0.0
 10
24.94737214511125
 20
28.73402444238585
 30
0.0
  0
SPLINE
  5
17A
330
1F
100
AcDbEntity
  8
0
  6
Continuous
 62
     7
370
    30
100
AcDbSpline
210
0.0
220
0.0
230
1.0
 70
     8
 71
     3
 72
     8
 73
     4
 74
     0
 42
0.000000001
 43
0.00000001
 40
0.0
 40
0.0
 40
0.0
 40
0.0
 40
1.0
 40
1.0
 40
1.0
 40
1.0
 10
24.94737214511122
 20
28.73402444238575
 30
0.0
 10
24.80698328377842
 20
28.78767848347578
 30
0.0
 10
24.6609642201286
 20
28.86657136164826
 30
0.0
 10
24.51592732993323
 20
28.94722321467823
 30
0.0
  0
LINE
  5
17B
330
1F
100
AcDbEntity
  8
0
  6
Continuous
 62
     7
370
    30
100
AcDbLine
 10
24.5159272824
 20
28.9472232174
 30
0.0
 11
24.5159272824
 21
30.4818386279
 31
0.0
  0
SPLINE
  5
17C
330
1F
100
AcDbEntity
  8
0
  6
Continuous
 62
     7
370
    30
100
AcDbSpline
210
0.0
220
0.0
230
1.0
 70
     8
 71
     3
 72
     8
 73
     4
 74
     0
 42
0.000000001
 43
0.00000001
 40
0.0
 40
0.0
 40
0.0
 40
0.0
 40
1.0
 40
1.0
 40
1.0
 40
1.0
 10
24.94737214510921
 20
30.6950374029982
 30
0.0
 10
24.80698328377691
 20
30.6413833619086
 30
0.0
 10
24.66096422012678
 20
30.56249048373725
 30
0.0
 10
24.51592732993322
 20
30.48183863070571
 30
0.0
  0
SPLINE
  5
17D
330
1F
100
AcDbEntity
  8
0
  6
Continuous
 62
     7
370
    30
100
AcDbSpline
210
0.0
220
0.0
230
1.0
 70
     8
 71
     3
 72
    18
 73
    14
 74
     0
 42
0.000000001
 43
0.00000001
 40
0.0
 40
0.0
 40
0.0
 40
0.0
 40
0.1249999999999999
 40
0.1249999999999999
 40
0.2499999999999999
 40
0.2499999999999999
 40
0.4999999999999998
 40
0.4999999999999998
 40
0.7499999999999999
 40
0.7499999999999999
 40
0.8749999999999999
 40
0.8749999999999999
 40
1.0
 40
1.0
 40
1.0
 40
1.0
 10
24.94737214510921
 20
30.69503740299744
 30
0.0
 10
25.02853386680156
 20
30.72605592048696
 30
0.0
 10
25.0996896181732
 20
30.76851033728349
 30
0.0
 10
25.21517639935437
 20
30.87613023539071
 30
0.0
 10
25.25942779145743
 20
30.94080245014737
 30
0.0
 10
25.35881703414215
 20
31.16145608077895
 30
0.0
 10
25.38204099244501
 20
31.33986550361243
 30
0.0
 10
25.38186402953479
 20
31.71454913596806
 30
0.0
 10
25.35836253615435
 20
31.91325164384793
 30
0.0
 10
25.25915025636125
 20
32.18589575083227
 30
0.0
 10
25.21481733322085
 20
32.27166067015301
 30
0.0
 10
25.09928158146143
 20
32.42183869700351
 30
0.0
 10
25.02912297637075
 20
32.48497544426733
 30
0.0
 10
24.9473721451112
 20
32.53384326631736
 30
0.0
  0
SPLINE
  5
17E
330
1F
100
AcDbEntity
  8
0
  6
Continuous
 62
     7
370
    30
100
AcDbSpline
210
0.0
220
0.0
230
1.0
 70
     8
 71
     3
 72
     8
 73
     4
 74
     0
 42
0.000000001
 43
0.00000001
 40
0.0
 40
0.0
 40
0.0
 40
0.0
 40
1.0
 40
1.0
 40
1.0
 40
1.0
 10
24.94737214511118
 20
32.53384326631728
 30
0.0
 10
24.80698328377838
 20
32.6177628765245
 30
0.0
 10
24.66096422012828
 20
32.70635199139151
 30
0.0
 10
24.5159273299332
 20
32.78034595985456
 30
0.0
  0
LINE
  5
17F
330
1F
100
AcDbEntity
  8
0
  6
Continuous
 62
     7
370
    30
100
AcDbLine
 10
24.5159272824
 20
32.7803458853
 30
0.0
 11
24.5159272824
 21
34.1093620586
 31
0.0
  0
LINE
  5
180
330
1F
100
AcDbEntity
  8
0
  6
Continuous
 62
     7
370
    30
100
AcDbLine
 10
25.5159273299
 20
36.2145310568
 30
0.0
 11
25.5159273299
 21
23.2145307886
 31
0.0
  0
LINE
  5
181
330
1F
100
AcDbEntity
  8
0
  6
Continuous
 62
     7
370
    30
100
AcDbLine
 10
18.5159271139
 20
28.9472232174
 30
0.0
 11
24.5159272824
 21
28.9472232174
 31
0.0
  0
LINE
  5
182
330
1F
100
AcDbEntity
  8
0
  6
Continuous
 62
     7
370
    30
100
AcDbLine
 10
18.5159271139
 20
30.4818386279
 30
0.0
 11
18.5159271139
 21
28.9472232174
 31
0.0
  0
LINE
  5
183
330
1F
100
AcDbEntity
  8
0
  6
Continuous
 62
     7
370
    30
100
AcDbLine
 10
24.5159272824
 20
30.4818386279
 30
0.0
 11
18.5159271139
 21
30.4818386279
 31
0.0
  0
SPLINE
  5
184
330
1F
100
AcDbEntity
  8
0
  6
Continuous
 62
     7
370
    30
100
AcDbSpline
210
0.0
220
0.0
230
1.0
 70
     8
 71
     3
 72
     8
 73
     4
 74
     0
 42
0.000000001
 43
0.00000001
 40
0.0
 40
0.0
 40
0.0
 40
0.0
 40
1.0
 40
1.0
 40
1.0
 40
1.0
 10
18.08448251475523
 20
30.69503740299812
 30
0.0
 10
18.22487137608802
 20
30.64138336190809
 30
0.0
 10
18.37089043973887
 20
30.56249048373742
 30
0.0
 10
18.51592732993322
 20
30.48183863070565
 30
0.0
  0
SPLINE
  5
185
330
1F
100
AcDbEntity
  8
0
  6
Continuous
 62
     7
370
    30
100
AcDbSpline
210
0.0
220
0.0
230
1.0
 70
     8
 71
     3
 72
     8
 73
     4
 74
     0
 42
0.000000001
 43
0.00000001
 40
0.0
 40
0.0
 40
0.0
 40
0.0
 40
1.0
 40
1.0
 40
1.0
 40
1.0
 10
18.08448251475723
 20
28.73402444238568
 30
0.0
 10
18.22487137608953
 20
28.78767848347528
 30
0.0
 10
18.37089043973926
 20
28.86657136164735
 30
0.0
 10
18.51592732993323
 20
28.94722321467816
 30
0.0
  0
SPLINE
  5
186
330
1F
100
AcDbEntity
  8
0
  6
Continuous
 62
     7
370
    30
100
AcDbSpline
210
0.0
220
0.0
230
1.0
 70
     8
 71
     3
 72
    18
 73
    14
 74
     0
 42
0.000000001
 43
0.00000001
 40
0.0
 40
0.0
 40
0.0
 40
0.0
 40
0.1250000000000003
 40
0.1250000000000003
 40
0.2500000000000007
 40
0.2500000000000007
 40
0.5000000000000001
 40
0.5000000000000001
 40
0.7499999999999996
 40
0.7499999999999996
 40
0.8749999999999998
 40
0.8749999999999998
 40
1.0
 40
1.0
 40
1.0
 40
1.0
 10
18.08448251475724
 20
28.73402444238644
 30
0.0
 10
18.00332079306488
 20
28.70300592489692
 30
0.0
 10
17.93216504169325
 20
28.66055150810039
 30
0.0
 10
17.81667826051208
 20
28.55293160999316
 30
0.0
 10
17.77242686840902
 20
28.48825939523651
 30
0.0
 10
17.6730376257243
 20
28.26760576460493
 30
0.0
 10
17.64981366742144
 20
28.08919634177145
 30
0.0
 10
17.64999063033165
 20
27.71451270941583
 30
0.0
 10
17.6734921237121
 20
27.51581020153596
 30
0.0
 10
17.77270440350519
 20
27.24316609455161
 30
0.0
 10
17.81703732664559
 20
27.15740117523087
 30
0.0
 10
17.93257307840502
 20
27.00722314838038
 30
0.0
 10
18.00273168349569
 20
26.94408640111655
 30
0.0
 10
18.08448251475524
 20
26.89521857906652
 30
0.0
  0
SPLINE
  5
187
330
1F
100
AcDbEntity
  8
0
  6
Continuous
 62
     7
370
    30
100
AcDbSpline
210
0.0
220
0.0
230
1.0
 70
     8
 71
     3
 72
     8
 73
     4
 74
     0
 42
0.000000001
 43
0.00000001
 40
0.0
 40
0.0
 40
0.0
 40
0.0
 40
1.0
 40
1.0
 40
1.0
 40
1.0
 10
18.08448251475527
 20
26.8952185790666
 30
0.0
 10
18.22487137608806
 20
26.81129896885939
 30
0.0
 10
18.37089043973864
 20
26.72270985399316
 30
0.0
 10
18.51592732993326
 20
26.64871588552932
 30
0.0
  0
LINE
  5
188
330
1F
100
AcDbEntity
  8
0
  6
Continuous
 62
     7
370
    30
100
AcDbLine
 10
18.5159271139
 20
26.6487159601
 30
0.0
 11
18.5159271139
 21
25.3196997868
 31
0.0
  0
SPLINE
  5
189
330
1F
100
AcDbEntity
  8
0
  6
Continuous
 62
     7
370
    30
100
AcDbSpline
210
0.0
220
0.0
230
1.0
 70
     8
 71
     3
 72
     8
 73
     4
 74
     0
 42
0.000000001
 43
0.00000001
 40
0.0
 40
0.0
 40
0.0
 40
0.0
 40
1.0
 40
1.0
 40
1.0
 40
1.0
 10
18.08448251475727
 20
25.1969315380256
 30
0.0
 10
18.22487137608957
 20
25.20594345301764
 30
0.0
 10
18.37089043973883
 20
25.25400081150032
 30
0.0
 10
18.51592732993327
 20
25.3196999502102
 30
0.0
  0
SPLINE
  5
18A
330
1F
100
AcDbEntity
  8
0
  6
Continuous
 62
     7
370
    30
100
AcDbSpline
210
0.0
220
0.0
230
1.0
 70
     8
 71
     3
 72
    18
 73
    14
 74
     0
 42
0.000000001
 43
0.00000001
 40
0.0
 40
0.0
 40
0.0
 40
0.0
 40
0.1250000000000002
 40
0.1250000000000002
 40
0.2500000000000004
 40
0.2500000000000004
 40
0.5000000000000009
 40
0.5000000000000009
 40
0.7500000000000013
 40
0.7500000000000013
 40
0.8750000000000007
 40
0.8750000000000007
 40
1.0
 40
1.0
 40
1.0
 40
1.0
 10
18.08448251475727
 20
25.19693153802573
 30
0.0
 10
18.00332079306492
 20
25.19172156246536
 30
0.0
 10
17.93216504169328
 20
25.1820850119572
 30
0.0
 10
17.81667826051212
 20
25.146042315883
 30
0.0
 10
17.77242686840906
 20
25.11972331262993
 30
0.0
 10
17.67303762572433
 20
25.01139676609622
 30
0.0
 10
17.64981366742147
 20
24.90130196504549
 30
0.0
 10
17.64999063033168
 20
24.62688384784941
 30
0.0
 10
17.67349212371213
 20
24.46076445297058
 30
0.0
 10
17.77270440350523
 20
24.20812156673174
 30
0.0
 10
17.81703732664563
 20
24.12428955033839
 30
0.0
 10
17.93257307840505
 20
23.97163447541934
 30
0.0
 10
18.00273168349572
 20
23.90423010713354
 30
0.0
 10
18.08448251475528
 20
23.85083222082044
 30
0.0
  0
SPLINE
  5
18B
330
1F
100
AcDbEntity
  8
0
  6
Continuous
 62
     7
370
    30
100
AcDbSpline
210
0.0
220
0.0
230
1.0
 70
     8
 71
     3
 72
     8
 73
     4
 74
     0
 42
0.000000001
 43
0.00000001
 40
0.0
 40
0.0
 40
0.0
 40
0.0
 40
1.0
 40
1.0
 40
1.0
 40
1.0
 10
18.0844825147553
 20
23.85083222082049
 30
0.0
 10
18.2248713760881
 20
23.75913323328024
 30
0.0
 10
18.37089043973959
 20
23.68458526350648
 30
0.0
 10
18.51592732993329
 20
23.63707580370381
 30
0.0
  0
LINE
  5
18C
330
1F
100
AcDbEntity
  8
0
  6
Continuous
 62
     7
370
    30
100
AcDbLine
 10
18.5159271139
 20
23.6370760316
 30
0.0
 11
18.5159271139
 21
22.86976821
 31
0.0
  0
SPLINE
  5
18D
330
1F
100
AcDbEntity
  8
0
  6
Continuous
 62
     7
370
    30
100
AcDbSpline
210
0.0
220
0.0
230
1.0
 70
     8
 71
     3
 72
     8
 73
     4
 74
     0
 42
0.000000001
 43
0.00000001
 40
0.0
 40
0.0
 40
0.0
 40
0.0
 40
1.0
 40
1.0
 40
1.0
 40
1.0
 10
18.0844825147573
 20
22.87032574051422
 30
0.0
 10
18.2248713760896
 20
22.83228079406431
 30
0.0
 10
18.37089043973919
 20
22.83662570246073
 30
0.0
 10
18.51592732993329
 20
22.86976809569002
 30
0.0
  0
SPLINE
  5
18E
330
1F
100
AcDbEntity
  8
0
  6
Continuous
 62
     7
370
    30
100
AcDbSpline
210
0.0
220
0.0
230
1.0
 70
     8
 71
     3
 72
    18
 73
    14
 74
     0
 42
0.000000001
 43
0.00000001
 40
0.0
 40
0.0
 40
0.0
 40
0.0
 40
0.125
 40
0.125
 40
0.2499999999999999
 40
0.2499999999999999
 40
0.4999999999999998
 40
0.4999999999999998
 40
0.75
 40
0.75
 40
0.875
 40
0.875
 40
1.0
 40
1.0
 40
1.0
 40
1.0
 10
18.0844825147573
 20
22.87032574051369
 30
0.0
 10
18.00332079306494
 20
22.89232031562644
 30
0.0
 10
17.9321650416933
 20
22.91808373733314
 30
0.0
 10
17.81667826051214
 20
22.96327585459808
 30
0.0
 10
17.77242686840908
 20
22.98236221851586
 30
0.0
 10
17.67303762572435
 20
23.01538876674257
 30
0.0
 10
17.64981366742149
 20
23.003108400507
 30
0.0
 10
17.6499906303317
 20
22.90248591136162
 30
0.0
 10
17.67349212371214
 20
22.81346118718876
 30
0.0
 10
17.77270440350524
 20
22.64851497903659
 30
0.0
 10
17.81703732664564
 20
22.5890785866631
 30
0.0
 10
17.93257307840506
 20
22.47485026772056
 30
0.0
 10
18.00273168349574
 20
22.42123922446131
 30
0.0
 10
18.08448251475529
 20
22.37761919440026
 30
0.0
  0
SPLINE
  5
18F
330
1F
100
AcDbEntity
  8
0
  6
Continuous
 62
     7
370
    30
100
AcDbSpline
210
0.0
220
0.0
230
1.0
 70
     8
 71
     3
 72
     8
 73
     4
 74
     0
 42
0.000000001
 43
0.00000001
 40
0.0
 40
0.0
 40
0.0
 40
0.0
 40
1.0
 40
1.0
 40
1.0
 40
1.0
 10
18.08448251475532
 20
22.37761919440026
 30
0.0
 10
18.22487137608811
 20
22.30271149918515
 30
0.0
 10
18.37089043973747
 20
22.26217974280023
 30
0.0
 10
18.5159273299333
 20
22.25388491304757
 30
0.0
  0
SPLINE
  5
190
330
1F
100
AcDbEntity
  8
0
  6
Continuous
 62
     7
370
    30
100
AcDbSpline
210
0.0
220
0.0
230
1.0
 70
     8
 71
     3
 72
     8
 73
     4
 74
     0
 42
0.000000001
 43
0.00000001
 40
0.0
 40
0.0
 40
0.0
 40
0.0
 40
1.0
 40
1.0
 40
1.0
 40
1.0
 10
18.08448251475715
 20
37.05144265098362
 30
0.0
 10
18.22487137608945
 20
37.12635034619814
 30
0.0
 10
18.37089043973887
 20
37.16688210258355
 30
0.0
 10
18.51592732993315
 20
37.17517693233633
 30
0.0
  0
SPLINE
  5
191
330
1F
100
AcDbEntity
  8
0
  6
Continuous
 62
     7
370
    30
100
AcDbSpline
210
0.0
220
0.0
230
1.0
 70
     8
 71
     3
 72
    18
 73
    14
 74
     0
 42
0.000000001
 43
0.00000001
 40
0.0
 40
0.0
 40
0.0
 40
0.0
 40
0.1250000000000003
 40
0.1250000000000003
 40
0.2500000000000006
 40
0.2500000000000006
 40
0.5000000000000009
 40
0.5000000000000009
 40
0.7500000000000006
 40
0.7500000000000006
 40
0.8750000000000003
 40
0.8750000000000003
 40
1.0
 40
1.0
 40
1.0
 40
1.0
 10
18.08448251475715
 20
37.05144265098468
 30
0.0
 10
18.0033207930648
 20
37.00813695383812
 30
0.0
 10
17.93216504169316
 20
36.95387684795715
 30
0.0
 10
17.81667826051199
 20
36.83955910867845
 30
0.0
 10
17.77242686840894
 20
36.78018155338804
 30
0.0
 10
17.67303762572421
 20
36.61465134732703
 30
0.0
 10
17.64981366742135
 20
36.52582676453186
 30
0.0
 10
17.64999063033156
 20
36.42569191091963
 30
0.0
 10
17.67349212371201
 20
36.41376786143799
 30
0.0
 10
17.7727044035051
 20
36.44682018823454
 30
0.0
 10
17.8170373266455
 20
36.46593502325068
 30
0.0
 10
17.93257307840492
 20
36.51112920040328
 30
0.0
 10
18.00273168349559
 20
36.53658188288929
 30
0.0
 10
18.08448251475514
 20
36.55873610486961
 30
0.0
  0
SPLINE
  5
192
330
1F
100
AcDbEntity
  8
0
  6
Continuous
 62
     7
370
    30
100
AcDbSpline
210
0.0
220
0.0
230
1.0
 70
     8
 71
     3
 72
     8
 73
     4
 74
     0
 42
0.000000001
 43
0.00000001
 40
0.0
 40
0.0
 40
0.0
 40
0.0
 40
1.0
 40
1.0
 40
1.0
 40
1.0
 10
18.08448251475517
 20
36.55873610486965
 30
0.0
 10
18.22487137608797
 20
36.59678105131987
 30
0.0
 10
18.37089043973919
 20
36.59243614292392
 30
0.0
 10
18.51592732993315
 20
36.55929374969386
 30
0.0
  0
LINE
  5
193
330
1F
100
AcDbEntity
  8
0
  6
Continuous
 62
     7
370
    30
100
AcDbLine
 10
18.5159271139
 20
36.5592936354
 30
0.0
 11
18.5159271139
 21
35.7919858137
 31
0.0
  0
SPLINE
  5
194
330
1F
100
AcDbEntity
  8
0
  6
Continuous
 62
     7
370
    30
100
AcDbSpline
210
0.0
220
0.0
230
1.0
 70
     8
 71
     3
 72
     8
 73
     4
 74
     0
 42
0.000000001
 43
0.00000001
 40
0.0
 40
0.0
 40
0.0
 40
0.0
 40
1.0
 40
1.0
 40
1.0
 40
1.0
 10
18.08448251475716
 20
35.57822962456336
 30
0.0
 10
18.22487137608946
 20
35.66992861210286
 30
0.0
 10
18.37089043974047
 20
35.74447658187727
 30
0.0
 10
18.51592732993316
 20
35.79198604168005
 30
0.0
  0
SPLINE
  5
195
330
1F
100
AcDbEntity
  8
0
  6
Continuous
 62
     7
370
    30
100
AcDbSpline
210
0.0
220
0.0
230
1.0
 70
     8
 71
     3
 72
    18
 73
    14
 74
     0
 42
0.000000001
 43
0.00000001
 40
0.0
 40
0.0
 40
0.0
 40
0.0
 40
0.1249999999999992
 40
0.1249999999999992
 40
0.2499999999999984
 40
0.2499999999999984
 40
0.4999999999999986
 40
0.4999999999999986
 40
0.7499999999999987
 40
0.7499999999999987
 40
0.8749999999999993
 40
0.8749999999999993
 40
1.0
 40
1.0
 40
1.0
 40
1.0
 10
18.08448251475716
 20
35.57822962456465
 30
0.0
 10
18.00332079306481
 20
35.52521653196237
 30
0.0
 10
17.93216504169317
 20
35.45699869345915
 30
0.0
 10
17.81667826051201
 20
35.30418667808698
 30
0.0
 10
17.77242686840895
 20
35.22042809941254
 30
0.0
 10
17.67303762572423
 20
34.96674792055425
 30
0.0
 10
17.64981366742136
 20
34.80061886395634
 30
0.0
 10
17.64999063033158
 20
34.5265577207461
 30
0.0
 10
17.67349212371203
 20
34.41687993703908
 30
0.0
 10
17.77270440350512
 20
34.3091820382069
 30
0.0
 10
17.81703732664552
 20
34.28285351125966
 30
0.0
 10
17.93257307840494
 20
34.2469038033517
 30
0.0
 10
18.00273168349561
 20
34.23737809934713
 30
0.0
 10
18.08448251475517
 20
34.23213030735814
 30
0.0
  0
SPLINE
  5
196
330
1F
100
AcDbEntity
  8
0
  6
Continuous
 62
     7
370
    30
100
AcDbSpline
210
0.0
220
0.0
230
1.0
 70
     8
 71
     3
 72
     8
 73
     4
 74
     0
 42
0.000000001
 43
0.00000001
 40
0.0
 40
0.0
 40
0.0
 40
0.0
 40
1.0
 40
1.0
 40
1.0
 40
1.0
 10
18.08448251475519
 20
34.23213030735822
 30
0.0
 10
18.22487137608799
 20
34.22311839236612
 30
0.0
 10
18.37089043973925
 20
34.17506103388558
 30
0.0
 10
18.51592732993318
 20
34.10936189517363
 30
0.0
  0
LINE
  5
197
330
1F
100
AcDbEntity
  8
0
  6
Continuous
 62
     7
370
    30
100
AcDbLine
 10
18.5159271139
 20
34.1093620586
 30
0.0
 11
18.5159271139
 21
32.7803458853
 31
0.0
  0
SPLINE
  5
198
330
1F
100
AcDbEntity
  8
0
  6
Continuous
 62
     7
370
    30
100
AcDbSpline
210
0.0
220
0.0
230
1.0
 70
     8
 71
     3
 72
     8
 73
     4
 74
     0
 42
0.000000001
 43
0.00000001
 40
0.0
 40
0.0
 40
0.0
 40
0.0
 40
1.0
 40
1.0
 40
1.0
 40
1.0
 10
18.08448251475719
 20
32.53384326631721
 30
0.0
 10
18.2248713760895
 20
32.61776287652375
 30
0.0
 10
18.3708904397395
 20
32.70635199139066
 30
0.0
 10
18.51592732993319
 20
32.7803459598545
 30
0.0
  0
SPLINE
  5
199
330
1F
100
AcDbEntity
  8
0
  6
Continuous
 62
     7
370
    30
100
AcDbSpline
210
0.0
220
0.0
230
1.0
 70
     8
 71
     3
 72
    18
 73
    14
 74
     0
 42
0.000000001
 43
0.00000001
 40
0.0
 40
0.0
 40
0.0
 40
0.0
 40
0.1250000000000002
 40
0.1250000000000002
 40
0.2500000000000005
 40
0.2500000000000005
 40
0.5000000000000002
 40
0.5000000000000002
 40
0.7499999999999999
 40
0.7499999999999999
 40
0.875
 40
0.875
 40
1.0
 40
1.0
 40
1.0
 40
1.0
 10
18.0844825147572
 20
32.53384326631839
 30
0.0
 10
18.00332079306484
 20
32.48532759361145
 30
0.0
 10
17.93216504169321
 20
32.42143093722232
 30
0.0
 10
17.81667826051204
 20
32.27107050186943
 30
0.0
 10
17.77242686840899
 20
32.18537394332596
 30
0.0
 10
17.67303762572426
 20
31.91151719073124
 30
0.0
 10
17.6498136674214
 20
31.71259780688535
 30
0.0
 10
17.64999063033162
 20
31.33804483607703
 30
0.0
 10
17.67349212371206
 20
31.16000139171656
 30
0.0
 10
17.77270440350516
 20
30.94041083227427
 30
0.0
 10
17.81703732664556
 20
30.87569365089706
 30
0.0
 10
17.93257307840498
 20
30.76823275313061
 30
0.0
 10
18.00273168349565
 20
30.72628106733082
 30
0.0
 10
18.08448251475521
 20
30.69503740299803
 30
0.0
  0
LINE
  5
19A
330
1F
100
AcDbEntity
  8
0
  6
Continuous
 62
     7
370
    30
100
AcDbLine
 10
17.51592695
 20
23.2145307886
 30
0.0
 11
17.51592695
 21
36.2145310568
 31
0.0
  0
LINE
  5
19B
330
1F
100
AcDbEntity
  8
0
  6
Continuous
 62
     7
370
    30
100
AcDbLine
 10
18.084482618
 20
30.6950374574
 30
0.0
 11
24.9473721276
 21
30.6950374574
 31
0.0
  0
LINE
  5
19C
330
1F
100
AcDbEntity
  8
0
  6
Continuous
 62
     7
370
    30
100
AcDbLine
 10
24.9473721276
 20
28.734024388
 30
0.0
 11
18.084482618
 21
28.734024388
 31
0.0
  0
LINE
  5
19D
330
1F
100
AcDbEntity
  8
0
  6
Continuous
 62
     7
370
    30
100
AcDbLine
 10
24.9473721276
 20
32.5338431934
 30
0.0
 11
18.0844826179
 21
32.5338431934
 31
0.0
  0
LINE
  5
19E
330
1F
100
AcDbEntity
  8
0
  6
Continuous
 62
     7
370
    30
100
AcDbLine
 10
18.084482618
 20
26.895218652
 30
0.0
 11
24.9473721276
 21
26.895218652
 31
0.0
  0
LINE
  5
19F
330
1F
100
AcDbEntity
  8
0
  6
Continuous
 62
     7
370
    30
100
AcDbLine
 10
18.5159271139
 20
32.7803458853
 30
0.0
 11
24.5159272824
 21
32.7803458853
 31
0.0
  0
LINE
  5
1A0
330
1F
100
AcDbEntity
  8
0
  6
Continuous
 62
     7
370
    30
100
AcDbLine
 10
24.5159272824
 20
26.6487159601
 30
0.0
 11
18.5159271139
 21
26.6487159601
 31
0.0
  0
LINE
  5
1A1
330
1F
100
AcDbEntity
  8
0
  6
Continuous
 62
     7
370
    30
100
AcDbLine
 10
24.5159272824
 20
34.1093620586
 30
0.0
 11
18.5159271139
 21
34.1093620586
 31
0.0
  0
LINE
  5
1A2
330
1F
100
AcDbEntity
  8
0
  6
Continuous
 62
     7
370
    30
100
AcDbLine
 10
18.5159271139
 20
25.3196997868
 30
0.0
 11
24.5159272824
 21
25.3196997868
 31
0.0
  0
LINE
  5
1A3
330
1F
100
AcDbEntity
  8
0
  6
Continuous
 62
     7
370
    30
100
AcDbLine
 10
18.0844826179
 20
34.2321303973
 30
0.0
 11
24.9473721276
 21
34.2321303973
 31
0.0
  0
LINE
  5
1A4
330
1F
100
AcDbEntity
  8
0
  6
Continuous
 62
     7
370
    30
100
AcDbLine
 10
24.9473721276
 20
25.1969314481
 30
0.0
 11
18.084482618
 21
25.1969314481
 31
0.0
  0
LINE
  5
1A5
330
1F
100
AcDbEntity
  8
0
  6
Continuous
 62
     7
370
    30
100
AcDbLine
 10
24.9473721276
 20
35.5782295877
 30
0.0
 11
18.0844826179
 21
35.5782295877
 31
0.0
  0
LINE
  5
1A6
330
1F
100
AcDbEntity
  8
0
  6
Continuous
 62
     7
370
    30
100
AcDbLine
 10
18.084482618
 20
23.8508322576
 30
0.0
 11
24.9473721276
 21
23.8508322576
 31
0.0
  0
LINE
  5
1A7
330
1F
100
AcDbEntity
  8
0
  6
Continuous
 62
     7
370
    30
100
AcDbLine
 10
18.5159271139
 20
35.7919858137
 30
0.0
 11
24.5159272824
 21
35.7919858137
 31
0.0
  0
LINE
  5
1A8
330
1F
100
AcDbEntity
  8
0
  6
Continuous
 62
     7
370
    30
100
AcDbLine
 10
24.5159272824
 20
23.6370760316
 30
0.0
 11
18.5159271139
 21
23.6370760316
 31
0.0
  0
LINE
  5
1A9
330
1F
100
AcDbEntity
  8
0
  6
Continuous
 62
     7
370
    30
100
AcDbLine
 10
24.5159272824
 20
36.5592936354
 30
0.0
 11
18.5159271139
 21
36.5592936354
 31
0.0
  0
LINE
  5
1AA
330
1F
100
AcDbEntity
  8
0
  6
Continuous
 62
     7
370
    30
100
AcDbLine
 10
18.5159271139
 20
22.86976821
 30
0.0
 11
24.5159272824
 21
22.86976821
 31
0.0
  0
LINE
  5
1AB
330
1F
100
AcDbEntity
  8
0
  6
Continuous
 62
     7
370
    30
100
AcDbLine
 10
24.9473721276
 20
37.0514426681
 30
0.0
 11
18.0844826179
 21
37.0514426681
 31
0.0
  0
LINE
  5
1AC
330
1F
100
AcDbEntity
  8
0
  6
Continuous
 62
     7
370
    30
100
AcDbLine
 10
18.084482618
 20
22.3776191773
 30
0.0
 11
24.9473721276
 21
22.3776191773
 31
0.0
  0
LINE
  5
1AD
330
1F
100
AcDbEntity
  8
0
  6
Continuous
 62
     7
370
    30
100
AcDbLine
 10
28.0159272741
 20
31.4465817131
 30
0.0
 11
25.5159273299
 21
31.4465817131
 31
0.0
  0
LINE
  5
1AE
330
1F
100
AcDbEntity
  8
0
  6
Continuous
 62
     7
370
    30
100
AcDbLine
 10
28.0159272741
 20
31.4465817131
 30
0.0
 11
28.0159272741
 21
30.5805563179
 31
0.0
  0
LINE
  5
1AF
330
1F
100
AcDbEntity
  8
0
  6
Continuous
 62
     7
370
    30
100
AcDbLine
 10
28.0159272741
 20
30.5805563179
 30
0.0
 11
25.5159273299
 21
30.5805563179
 31
0.0
  0
LINE
  5
1B0
330
1F
100
AcDbEntity
  8
0
  6
Continuous
 62
     7
370
    30
100
AcDbLine
 10
28.0159272741
 20
30.5805563179
 30
0.0
 11
28.0159272741
 21
28.8485055275
 31
0.0
  0
LINE
  5
1B1
330
1F
100
AcDbEntity
  8
0
  6
Continuous
 62
     7
370
    30
100
AcDbLine
 10
28.0159272741
 20
28.8485055275
 30
0.0
 11
25.5159273299
 21
28.8485055275
 31
0.0
  0
LINE
  5
1B2
330
1F
100
AcDbEntity
  8
0
  6
Continuous
 62
     7
370
    30
100
AcDbLine
 10
28.0159272741
 20
27.9824801322
 30
0.0
 11
25.5159273299
 21
27.9824801322
 31
0.0
  0
LINE
  5
1B3
330
1F
100
AcDbEntity
  8
0
  6
Continuous
 62
     7
370
    30
100
AcDbLine
 10
28.0159272741
 20
28.8485055275
 30
0.0
 11
28.0159272741
 21
27.9824801322
 31
0.0
  0
LINE
  5
1B4
330
1F
100
AcDbEntity
  8
0
  6
Continuous
 62
     7
370
    30
100
AcDbLine
 10
18.5159271139
 20
37.1751767883
 30
0.0
 11
24.5159272824
 21
37.1751767883
 31
0.0
  0
LINE
  5
1B5
330
1F
100
AcDbEntity
  8
0
  6
Continuous
 62
     7
370
    30
100
AcDbLine
 10
24.5159272824
 20
22.253885057
 30
0.0
 11
18.5159271139
 21
22.253885057
 31
0.0
  0
LINE
  5
1B6
330
1F
100
AcDbEntity
  8
0
  6
Continuous
 62
     8
370
    30
100
AcDbLine
 10
24.5159272824
 20
37.1751767883
 30
0.0
 11
24.5159272824
 21
37.2145307551
 31
0.0
  0
LINE
  5
1B7
330
1F
100
AcDbEntity
  8
0
  6
Continuous
 62
     8
370
    30
100
AcDbLine
 10
24.5159272824
 20
22.2145310903
 30
0.0
 11
24.5159272824
 21
22.253885057
 31
0.0
  0
LINE
  5
1B8
330
1F
100
AcDbEntity
  8
0
  6
Continuous
 62
     8
370
    30
100
AcDbLine
 10
18.5159271139
 20
22.253885057
 30
0.0
 11
18.5159271139
 21
22.2145310903
 31
0.0
  0
LINE
  5
1B9
330
1F
100
AcDbEntity
  8
0
  6
Continuous
 62
     8
370
    30
100
AcDbLine
 10
18.5159271139
 20
37.2145307551
 30
0.0
 11
18.5159271139
 21
37.1751767883
 31
0.0
  0
DIMENSION
  5
1BA
330
1F
100
AcDbEntity
  8
SLD-0
 62
     7
100
AcDbDimension
  2
_D_2
 10
25.5159273299
 20
18.9751832809
 30
0.0
 11
21.5159273299
 21
18.9751832809
 31
0.0
 70
   160
  1
<>
 71
     2
 42
-1.0
  3
SLDDIMSTYLE0
100
AcDbAlignedDimension
 13
17.5159273299
 23
23.2145309227
 33
0.0
 14
25.5159273299
 24
23.2145309227
 34
0.0
 50
0.0
100
AcDbRotatedDimension
  0
DIMENSION
  5
1C4
330
1F
100
AcDbEntity
  8
SLD-0
 62
     7
100
AcDbDimension
  2
_D_3
 10
28.0159273299
 20
15.8626130283
 30
0.0
 11
22.7659273299
 21
15.8626130283
 31
0.0
 70
   160
  1
<>
 71
     2
 42
-1.0
  3
SLDDIMSTYLE0
100
AcDbAlignedDimension
 13
17.5159273299
 23
23.2145309227
 33
0.0
 14
28.0159273299
 24
27.9824801151
 34
0.0
 50
0.0
100
AcDbRotatedDimension
  0
SPLINE
  5
1CE
330
1F
100
AcDbEntity
  8
0
  6
Continuous
 62
     7
370
    30
100
AcDbSpline
210
0.0
220
0.0
230
1.0
 70
     8
 71
     3
 72
    11
 73
     7
 74
     0
 42
0.000000001
 43
0.00000001
 40
0.0
 40
0.0
 40
0.0
 40
0.0
 40
0.2246140480028032
 40
0.5120802139819396
 40
0.8000291175121048
 40
1.0
 40
1.0
 40
1.0
 40
1.0
 10
67.50542225880983
 20
38.23418855445276
 30
0.0
 10
67.5542760816284
 20
38.19611488355469
 30
0.0
 10
67.66565413774381
 20
38.10931366291011
 30
0.0
 10
67.84258101943767
 20
37.9852339854474
 30
0.0
 10
68.01554233536665
 20
37.87242272123735
 30
0.0
 10
68.12540177593576
 20
37.80769372337383
 30
0.0
 10
68.17042698276232
 20
37.78116494713592
 30
0.0
  0
SPLINE
  5
1CF
330
1F
100
AcDbEntity
  8
0
  6
Continuous
 62
     7
370
    30
100
AcDbSpline
210
0.0
220
0.0
230
1.0
 70
     8
 71
     3
 72
    16
 73
    12
 74
     0
 42
0.000000001
 43
0.00000001
 40
0.0
 40
0.0
 40
0.0
 40
0.0
 40
0.0599571008933066
 40
0.1914036216335533
 40
0.3229106385110294
 40
0.4545054091484397
 40
0.5862149655404867
 40
0.7180658427692668
 40
0.8500836715194232
 40
0.9822925756796426
 40
1.0
 40
1.0
 40
1.0
 40
1.0
 10
65.74573558188145
 20
40.23168458983628
 30
0.0
 10
65.76641077817371
 20
40.19820521416768
 30
0.0
 10
65.83241309298486
 20
40.09132756902601
 30
0.0
 10
65.95036330098098
 20
39.91589612103876
 30
0.0
 10
66.09895093852724
 20
39.70580491497775
 30
0.0
 10
66.25345035120792
 20
39.50150559544862
 30
0.0
 10
66.41313923602057
 20
39.3032051104725
 30
0.0
 10
66.577712164283
 20
39.11116373883281
 30
0.0
 10
66.74727331656372
 20
38.92681086492439
 30
0.0
 10
66.86993763556936
 20
38.79885520660185
 30
0.0
 10
66.93701678292408
 20
38.7349265866459
 30
0.0
 10
66.94493986199957
 20
38.72737563331581
 30
0.0
  0
SPLINE
  5
1D0
330
1F
100
AcDbEntity
  8
0
  6
Continuous
 62
     7
370
    30
100
AcDbSpline
210
0.0
220
0.0
230
1.0
 70
     8
 71
     3
 72
    16
 73
    12
 74
     0
 42
0.000000001
 43
0.00000001
 40
0.0
 40
0.0
 40
0.0
 40
0.0
 40
0.0537204064930155
 40
0.1855914642864635
 40
0.3172879135409564
 40
0.4488265559211226
 40
0.5802277260122368
 40
0.7115141807095519
 40
0.8427103110793448
 40
0.9738415961529864
 40
1.0
 40
1.0
 40
1.0
 40
1.0
 10
64.73752679360524
 20
42.55170898425773
 30
0.0
 10
64.74560828123465
 20
42.51932948553792
 30
0.0
 10
64.77352793450369
 20
42.40746587592334
 30
0.0
 10
64.83048412035326
 20
42.21544051670708
 30
0.0
 10
64.9079320803402
 20
41.97640883402823
 30
0.0
 10
64.99414970571438
 20
41.73802141001116
 30
0.0
 10
65.08827214676715
 20
41.50087190758286
 30
0.0
 10
65.19003820310776
 20
41.26533996200862
 30
0.0
 10
65.29992128803282
 20
41.0322930257062
 30
0.0
 10
65.38416471240375
 20
40.86257976819244
 30
0.0
 10
65.4338098427255
 20
40.77176196085837
 30
0.0
 10
65.44206618411
 20
40.75665830786595
 30
0.0
  0
SPLINE
  5
1D1
330
1F
100
AcDbEntity
  8
0
  6
Continuous
 62
     7
370
    30
100
AcDbSpline
210
0.0
220
0.0
230
1.0
 70
     8
 71
     3
 72
    15
 73
    11
 74
     0
 42
0.000000001
 43
0.00000001
 40
0.0
 40
0.0
 40
0.0
 40
0.0
 40
0.003468356115423
 40
0.1556603726333144
 40
0.308441517806167
 40
0.4615975193773263
 40
0.6149473962927825
 40
0.7683254462456529
 40
0.9216172118093189
 40
0.9999999999999999
 40
0.9999999999999999
 40
0.9999999999999999
 40
0.9999999999999999
 10
64.57630080333658
 20
44.7454451283887
 30
0.0
 10
64.57603358999374
 20
44.74387991040689
 30
0.0
 10
64.56404101277995
 20
44.67363267909801
 30
0.0
 10
64.5495580756221
 20
44.52966074050801
 30
0.0
 10
64.5335488594066
 20
44.31340995705635
 30
0.0
 10
64.52869543383133
 20
44.09160332401694
 30
0.0
 10
64.53323587580378
 20
43.865741391097
 30
0.0
 10
64.54809329089261
 20
43.63609846670624
 30
0.0
 10
64.56704582470648
 20
43.44167934086094
 30
0.0
 10
64.58463038704397
 20
43.32304162013998
 30
0.0
 10
64.59057979755448
 20
43.28290274781239
 30
0.0
  0
SPLINE
  5
1D2
330
1F
100
AcDbEntity
  8
0
  6
Continuous
 62
     7
370
    30
100
AcDbSpline
210
0.0
220
0.0
230
1.0
 70
     8
 71
     3
 72
    14
 73
    10
 74
     0
 42
0.000000001
 43
0.00000001
 40
0.0
 40
0.0
 40
0.0
 40
0.0
 40
0.0883745345024475
 40
0.262032543234187
 40
0.4371015344645346
 40
0.6138880705242522
 40
0.792619714712503
 40
0.9734307043526442
 40
0.9999999999999999
 40
0.9999999999999999
 40
0.9999999999999999
 40
0.9999999999999999
 10
65.39910708801716
 20
46.48771094753694
 30
0.0
 10
65.37808992875705
 20
46.46768960428673
 30
0.0
 10
65.31577356439385
 20
46.40832585747492
 30
0.0
 10
65.22083962199709
 20
46.29938309632958
 30
0.0
 10
65.11396309836935
 20
46.16165431639337
 30
0.0
 10
65.01535989121757
 20
46.01423412846169
 30
0.0
 10
64.9258859204198
 20
45.85713327341542
 30
0.0
 10
64.86586628342448
 20
45.74057236851578
 30
0.0
 10
64.83858791341288
 20
45.67457081627411
 30
0.0
 10
64.83509304370233
 20
45.66611478221928
 30
0.0
  0
SPLINE
  5
1D3
330
1F
100
AcDbEntity
  8
0
  6
Continuous
 62
     7
370
    30
100
AcDbSpline
210
0.0
220
0.0
230
1.0
 70
     8
 71
     3
 72
    13
 73
     9
 74
     0
 42
0.000000001
 43
0.00000001
 40
0.0
 40
0.0
 40
0.0
 40
0.0
 40
0.1489277332712789
 40
0.3343231752247385
 40
0.5174844655703296
 40
0.6983739591731134
 40
0.8770715167638334
 40
1.0
 40
1.0
 40
1.0
 40
1.0
 10
69.69220626110713
 20
37.25546771534682
 30
0.0
 10
69.74287233467886
 20
37.25043106282966
 30
0.0
 10
69.85661100658771
 20
37.2391244403151
 30
0.0
 10
70.03116815874299
 20
37.23651904317206
 30
0.0
 10
70.21483038462023
 20
37.24480911227371
 30
0.0
 10
70.39368964483178
 20
37.26635566928077
 30
0.0
 10
70.5505421364094
 20
37.295062263897
 30
0.0
 10
70.64584118949931
 20
37.32195296175223
 30
0.0
 10
70.68468056828128
 20
37.33291233612005
 30
0.0
  0
SPLINE
  5
1D4
330
1F
100
AcDbEntity
  8
0
  6
Continuous
 62
     7
370
    30
100
AcDbSpline
210
0.0
220
0.0
230
1.0
 70
     8
 71
     3
 72
    11
 73
     7
 74
     0
 42
0.000000001
 43
0.00000001
 40
0.0
 40
0.0
 40
0.0
 40
0.0
 40
0.1774585654774554
 40
0.508742929301544
 40
0.8401912944810287
 40
1.0
 40
1.0
 40
1.0
 40
1.0
 10
68.17042698276232
 20
37.78116494713592
 30
0.0
 10
68.20531061271923
 20
37.76134619818994
 30
0.0
 10
68.30531592968552
 20
37.70452928227078
 30
0.0
 10
68.47158605628498
 20
37.61953009461145
 30
0.0
 10
68.63505836728953
 20
37.5430999258847
 30
0.0
 10
68.73315014983312
 20
37.50493329698523
 30
0.0
 10
68.76505996187524
 20
37.49251747658843
 30
0.0
  0
SPLINE
  5
1D5
330
1F
100
AcDbEntity
  8
0
  6
Continuous
 62
     7
370
    30
100
AcDbSpline
210
0.0
220
0.0
230
1.0
 70
     8
 71
     3
 72
    13
 73
     9
 74
     0
 42
0.000000001
 43
0.00000001
 40
0.0
 40
0.0
 40
0.0
 40
0.0
 40
0.1285755790668096
 40
0.3140203407586811
 40
0.4972450436780009
 40
0.6781986923032008
 40
0.8569478639373952
 40
1.0
 40
1.0
 40
1.0
 40
1.0
 10
70.39447131984578
 20
48.87523922040142
 30
0.0
 10
70.3506598939776
 20
48.8798779555627
 30
0.0
 10
70.24365917906658
 20
48.89120714580712
 30
0.0
 10
70.07560775825861
 20
48.89477511728236
 30
0.0
 10
69.89145375284146
 20
48.88796677499489
 30
0.0
 10
69.71201836786237
 20
48.86788065223827
 30
0.0
 10
69.54814570116739
 20
48.83902248921904
 30
0.0
 10
69.44611622070971
 20
48.81103541709486
 30
0.0
 10
69.40076048482008
 20
48.79859416731203
 30
0.0
  0
LINE
  5
1D6
330
1F
100
AcDbEntity
  8
0
  6
Continuous
 62
     7
370
    30
100
AcDbLine
 10
72.580025392
 20
47.8974753011
 30
0.0
 11
72.5727283563
 21
47.9030271098
 31
0.0
  0
SPLINE
  5
1D7
330
1F
100
AcDbEntity
  8
0
  6
Continuous
 62
     7
370
    30
100
AcDbSpline
210
0.0
220
0.0
230
1.0
 70
     8
 71
     3
 72
    14
 73
    10
 74
     0
 42
0.000000001
 43
0.00000001
 40
0.0
 40
0.0
 40
0.0
 40
0.0
 40
0.1104558541370885
 40
0.2690383244913039
 40
0.4278830476745588
 40
0.5869410718147547
 40
0.7461339176339964
 40
0.9053076903074759
 40
1.0
 40
1.0
 40
1.0
 40
1.0
 10
72.54278252074022
 20
47.92581082044762
 30
0.0
 10
72.49914881410614
 20
47.95947626060545
 30
0.0
 10
72.39286979959945
 20
48.0414754781579
 30
0.0
 10
72.22106361166344
 20
48.16076681958065
 30
0.0
 10
72.02808143060484
 20
48.28479471931217
 30
0.0
 10
71.83307128204903
 20
48.39832830474315
 30
0.0
 10
71.6365366364365
 20
48.50073651323079
 30
0.0
 10
71.46564199403481
 20
48.58137088563039
 30
0.0
 10
71.36010909116973
 20
48.62304061155355
 30
0.0
 10
71.32074520991505
 20
48.63858346215865
 30
0.0
  0
SPLINE
  5
1D8
330
1F
100
AcDbEntity
  8
0
  6
Continuous
 62
     7
370
    30
100
AcDbSpline
210
0.0
220
0.0
230
1.0
 70
     8
 71
     3
 72
    16
 73
    12
 74
     0
 42
0.000000001
 43
0.00000001
 40
0.0
 40
0.0
 40
0.0
 40
0.0
 40
0.0775776351127863
 40
0.2087925161862459
 40
0.340070895860476
 40
0.4714399673687383
 40
0.6029266730934545
 40
0.734557420822597
 40
0.8663576579953401
 40
0.998351243823726
 40
0.9999999999999999
 40
0.9999999999999999
 40
0.9999999999999999
 40
0.9999999999999999
 10
74.34269857901262
 20
45.89487954276905
 30
0.0
 10
74.3157860613742
 20
45.93819954327697
 30
0.0
 10
74.24335368745017
 20
46.05479103119855
 30
0.0
 10
74.11851654712122
 20
46.23952120035443
 30
0.0
 10
73.96921883266127
 20
46.44895955963472
 30
0.0
 10
73.81412063255807
 20
46.65260949067721
 30
0.0
 10
73.65384183794528
 20
46.85018138079188
 30
0.0
 10
73.48874129116183
 20
47.04149982837886
 30
0.0
 10
73.31860583827034
 20
47.22488332025596
 30
0.0
 10
73.20277019179022
 20
47.34535966838421
 30
0.0
 10
73.14278679407506
 20
47.40226270777747
 30
0.0
 10
73.14204677413846
 20
47.40296472508906
 30
0.0
  0
SPLINE
  5
1D9
330
1F
100
AcDbEntity
  8
0
  6
Continuous
 62
     7
370
    30
100
AcDbSpline
210
0.0
220
0.0
230
1.0
 70
     8
 71
     3
 72
    16
 73
    12
 74
     0
 42
0.000000001
 43
0.00000001
 40
0.0
 40
0.0
 40
0.0
 40
0.0
 40
0.0693810754357793
 40
0.201600672808134
 40
0.3336468728731657
 40
0.4655369975800975
 40
0.5972917652594757
 40
0.7289342183914101
 40
0.8604889647596102
 40
0.9919816529521112
 40
1.0
 40
1.0
 40
1.0
 40
1.0
 10
75.34816521738992
 20
43.57871775941705
 30
0.0
 10
75.33761466479955
 20
43.6204356921448
 30
0.0
 10
75.30695791168118
 20
43.74165553852589
 30
0.0
 10
75.24664954565125
 20
43.94302284708034
 30
0.0
 10
75.16817009409877
 20
44.18200813625625
 30
0.0
 10
75.08105001311893
 20
44.42028230782237
 30
0.0
 10
74.9860135727045
 20
44.65725876139526
 30
0.0
 10
74.88341206591761
 20
44.89258268209732
 30
0.0
 10
74.77255788719465
 20
45.12528203367071
 30
0.0
 10
74.69338896780718
 20
45.2842456345581
 30
0.0
 10
74.64931913401304
 20
45.36448982038498
 30
0.0
 10
74.64678623601614
 20
45.36910182637739
 30
0.0
  0
SPLINE
  5
1DA
330
1F
100
AcDbEntity
  8
0
  6
Continuous
 62
     7
370
    30
100
AcDbSpline
210
0.0
220
0.0
230
1.0
 70
     8
 71
     3
 72
    15
 73
    11
 74
     0
 42
0.000000001
 43
0.00000001
 40
0.0
 40
0.0
 40
0.0
 40
0.0
 40
0.021825076810562
 40
0.179235210986963
 40
0.3372275883785109
 40
0.4955842488823285
 40
0.6541223817109105
 40
0.8126711724418924
 40
0.9711214697488016
 40
1.0
 40
1.0
 40
1.0
 40
1.0
 10
75.5086881000633
 20
41.38554292785668
 30
0.0
 10
75.51028198658032
 20
41.3950880381687
 30
0.0
 10
75.52337154354494
 20
41.47347584296399
 30
0.0
 10
75.53833921619601
 20
41.62589627039397
 30
0.0
 10
75.55304428156279
 20
41.84283443051802
 30
0.0
 10
75.55679613641884
 20
42.06514097130381
 30
0.0
 10
75.55120132328813
 20
42.29143481453669
 30
0.0
 10
75.53495536098151
 20
42.52152263200745
 30
0.0
 10
75.51847392578196
 20
42.69049682010851
 30
0.0
 10
75.50458711396986
 20
42.78332109438884
 30
0.0
 10
75.50244632912518
 20
42.7976308439762
 30
0.0
  0
SPLINE
  5
1DB
330
1F
100
AcDbEntity
  8
0
  6
Continuous
 62
     7
370
    30
100
AcDbSpline
210
0.0
220
0.0
230
1.0
 70
     8
 71
     3
 72
    14
 73
    10
 74
     0
 42
0.000000001
 43
0.00000001
 40
0.0
 40
0.0
 40
0.0
 40
0.0
 40
0.1082641438756957
 40
0.2822590924804165
 40
0.4577051126500247
 40
0.6349008995134112
 40
0.8140642578705561
 40
0.9953181954612119
 40
1.0
 40
1.0
 40
1.0
 40
1.0
 10
74.68649050282443
 20
39.64336412451107
 30
0.0
 10
74.71204892059187
 20
39.66804968514817
 30
0.0
 10
74.77868313156901
 20
39.73240824093001
 30
0.0
 10
74.87732135818118
 20
39.84699898256795
 30
0.0
 10
74.9832138248167
 20
39.98588406233469
 30
0.0
 10
75.08094043674747
 20
40.13431418859968
 30
0.0
 10
75.16926971306958
 20
40.2925708575071
 30
0.0
 10
75.22565688995493
 20
40.40290814343462
 30
0.0
 10
75.24985981062558
 20
40.46216877895687
 30
0.0
 10
75.25046923269015
 20
40.46366094344973
 30
0.0
  0
LINE
  5
1DC
330
1F
100
AcDbEntity
  8
0
  6
Continuous
 62
     7
370
    30
100
AcDbLine
 10
72.0738433136
 20
39.3843962167
 30
0.0
 11
75.4608693446
 21
41.3396847249
 31
0.0
  0
LINE
  5
1DD
330
1F
100
AcDbEntity
  8
0
  6
Continuous
 62
     7
370
    30
100
AcDbLine
 10
71.2570770618
 20
48.6208846655
 30
0.0
 11
67.8701298568
 21
46.6656416626
 31
0.0
  0
LINE
  5
1DE
330
1F
100
AcDbEntity
  8
0
  6
Continuous
 62
     7
370
    30
100
AcDbLine
 10
71.5385865516
 20
37.8186407601
 30
0.0
 11
74.6548114963
 21
39.6175991288
 31
0.0
  0
LINE
  5
1DF
330
1F
100
AcDbEntity
  8
0
  6
Continuous
 62
     7
370
    30
100
AcDbLine
 10
69.3627682157
 20
48.7836258043
 30
0.0
 11
66.2466310476
 21
46.984718108
 31
0.0
  0
LINE
  5
1E0
330
1F
100
AcDbEntity
  8
0
  6
Continuous
 62
     7
370
    30
100
AcDbLine
 10
70.7227710496
 20
37.3475273863
 30
0.0
 11
73.8389082177
 21
39.1464350826
 31
0.0
  0
LINE
  5
1E1
330
1F
100
AcDbEntity
  8
0
  6
Continuous
 62
     7
370
    30
100
AcDbLine
 10
66.2161933839
 20
46.9669937095
 30
0.0
 11
65.430727769
 21
46.5135540617
 31
0.0
  0
SPLINE
  5
1E2
330
1F
100
AcDbEntity
  8
0
  6
Continuous
 62
     7
370
    30
100
AcDbSpline
210
0.0
220
0.0
230
1.0
 70
     8
 71
     3
 72
    10
 73
     6
 74
     0
 42
0.000000001
 43
0.00000001
 40
0.0
 40
0.0
 40
0.0
 40
0.0
 40
0.3732676340637712
 40
0.7541497588257728
 40
1.0
 40
1.0
 40
1.0
 40
1.0
 10
65.34801319481319
 20
46.40961957446262
 30
0.0
 10
65.3560478366923
 20
46.42679634562118
 30
0.0
 10
65.37228102350629
 20
46.46150028629129
 30
0.0
 10
65.39997305106381
 20
46.49471766990156
 30
0.0
 10
65.42298533702827
 20
46.50663446374909
 30
0.0
 10
65.43201243752895
 20
46.51130910128288
 30
0.0
  0
SPLINE
  5
1E3
330
1F
100
AcDbEntity
  8
0
  6
Continuous
 62
     7
370
    30
100
AcDbSpline
210
0.0
220
0.0
230
1.0
 70
     8
 71
     3
 72
    18
 73
    14
 74
     0
 42
0.000000001
 43
0.00000001
 40
0.0
 40
0.0
 40
0.0
 40
0.0
 40
0.1250000000000002
 40
0.1250000000000002
 40
0.2500000000000003
 40
0.2500000000000003
 40
0.5000000000000001
 40
0.5000000000000001
 40
0.7499999999999999
 40
0.7499999999999999
 40
0.8749999999999999
 40
0.8749999999999999
 40
1.0
 40
1.0
 40
1.0
 40
1.0
 10
65.34801319481255
 20
46.40961957446293
 30
0.0
 10
65.33379599016205
 20
46.37353632751847
 30
0.0
 10
65.3323121200822
 20
46.33851902187695
 30
0.0
 10
65.35116421022921
 20
46.28131164713822
 30
0.0
 10
65.3711183527508
 20
46.25933761214951
 30
0.0
 10
65.44904704363934
 20
46.21957238098042
 30
0.0
 10
65.52122501797544
 20
46.22857397351816
 30
0.0
 10
65.65973617833082
 20
46.30876894420604
 30
0.0
 10
65.72700187114657
 20
46.38053019729863
 30
0.0
 10
65.83150729286261
 20
46.5254083139686
 30
0.0
 10
65.8671967146665
 20
46.5795524070244
 30
0.0
 10
65.94370842593933
 20
46.69179272467225
 30
0.0
 10
65.98395507973606
 20
46.74878487735064
 30
0.0
 10
66.02789602005959
 20
46.80223516618127
 30
0.0
  0
SPLINE
  5
1E4
330
1F
100
AcDbEntity
  8
0
  6
Continuous
 62
     7
370
    30
100
AcDbSpline
210
0.0
220
0.0
230
1.0
 70
     8
 71
     3
 72
     8
 73
     4
 74
     0
 42
0.000000001
 43
0.00000001
 40
0.0
 40
0.0
 40
0.0
 40
0.0
 40
1.0
 40
1.0
 40
1.0
 40
1.0
 10
66.02789602005956
 20
46.80223516618127
 30
0.0
 10
66.10335480724089
 20
46.89402414338465
 30
0.0
 10
66.20137820306795
 20
46.96606687562633
 30
0.0
 10
66.30781597098195
 20
47.01690930764146
 30
0.0
  0
ARC
  5
1E5
330
1F
100
AcDbEntity
  8
0
  6
Continuous
 62
     7
370
    30
100
AcDbCircle
 10
66.8338319253
 20
44.9176502974
 30
0.0
 40
2.164158306647686
100
AcDbArc
 50
86.1519404671
 51
104.067095595
  0
SPLINE
  5
1E6
330
1F
100
AcDbEntity
  8
0
  6
Continuous
 62
     7
370
    30
100
AcDbSpline
210
0.0
220
0.0
230
1.0
 70
     8
 71
     3
 72
     8
 73
     4
 74
     0
 42
0.000000001
 43
0.00000001
 40
0.0
 40
0.0
 40
0.0
 40
0.0
 40
1.0
 40
1.0
 40
1.0
 40
1.0
 10
66.88566050800435
 20
46.87893223706322
 30
0.0
 10
66.91418178686118
 20
46.96652429372021
 30
0.0
 10
66.9431882913083
 20
47.03239587585659
 30
0.0
 10
66.97907038538847
 20
47.07692956742698
 30
0.0
  0
SPLINE
  5
1E7
330
1F
100
AcDbEntity
  8
0
  6
Continuous
 62
     7
370
    30
100
AcDbSpline
210
0.0
220
0.0
230
1.0
 70
     8
 71
     3
 72
    18
 73
    14
 74
     0
 42
0.000000001
 43
0.00000001
 40
0.0
 40
0.0
 40
0.0
 40
0.0
 40
0.1249999999999998
 40
0.1249999999999998
 40
0.2499999999999995
 40
0.2499999999999995
 40
0.4999999999999994
 40
0.4999999999999994
 40
0.7499999999999993
 40
0.7499999999999993
 40
0.8749999999999997
 40
0.8749999999999997
 40
1.0
 40
1.0
 40
1.0
 40
1.0
 10
66.88566050800375
 20
46.87893223706389
 30
0.0
 10
66.86917176327765
 20
46.82829344665426
 30
0.0
 10
66.86550536664379
 20
46.77388928530721
 30
0.0
 10
66.8831192218935
 20
46.67001705661843
 30
0.0
 10
66.90405219206308
 20
46.62099557404653
 30
0.0
 10
66.99217159160172
 20
46.49290410716899
 30
0.0
 10
67.08091118219095
 20
46.43529525499572
 30
0.0
 10
67.27017838022377
 20
46.38482422936774
 30
0.0
 10
67.37197394607406
 20
46.39168685033597
 30
0.0
 10
67.53299369570611
 20
46.45279142799713
 30
0.0
 10
67.58807231598719
 20
46.48151378742227
 30
0.0
 10
67.70070263245977
 20
46.55049112487977
 30
0.0
 10
67.75732688026652
 20
46.58998382748567
 30
0.0
 10
67.81439771888802
 20
46.6301515168804
 30
0.0
  0
SPLINE
  5
1E8
330
1F
100
AcDbEntity
  8
0
  6
Continuous
 62
     7
370
    30
100
AcDbSpline
210
0.0
220
0.0
230
1.0
 70
     8
 71
     3
 72
     8
 73
     4
 74
     0
 42
0.000000001
 43
0.00000001
 40
0.0
 40
0.0
 40
0.0
 40
0.0
 40
1.0
 40
1.0
 40
1.0
 40
1.0
 10
67.81439771888797
 20
46.63015151688044
 30
0.0
 10
67.91240418470534
 20
46.69913058522278
 30
0.0
 10
68.02600186987117
 20
46.74234273839116
 30
0.0
 10
68.13999189899425
 20
46.76595366719922
 30
0.0
  0
ARC
  5
1E9
330
1F
100
AcDbEntity
  8
0
  6
Continuous
 62
     7
370
    30
100
AcDbCircle
 10
66.0159558558
 20
42.1915622778
 30
0.0
 40
5.043469608981968
100
AcDbArc
 50
54.9123243179
 51
65.0930522148
  0
SPLINE
  5
1EA
330
1F
100
AcDbEntity
  8
0
  6
Continuous
 62
     7
370
    30
100
AcDbSpline
210
0.0
220
0.0
230
1.0
 70
     8
 71
     3
 72
     8
 73
     4
 74
     0
 42
0.000000001
 43
0.00000001
 40
0.0
 40
0.0
 40
0.0
 40
0.0
 40
1.0
 40
1.0
 40
1.0
 40
1.0
 10
68.80485883492028
 20
46.05837048529762
 30
0.0
 10
68.84866653460502
 20
46.15863783533788
 30
0.0
 10
68.88257037813781
 20
46.24785626400984
 30
0.0
 10
68.91508973269892
 20
46.31849921213741
 30
0.0
  0
SPLINE
  5
1EB
330
1F
100
AcDbEntity
  8
0
  6
Continuous
 62
     7
370
    30
100
AcDbSpline
210
0.0
220
0.0
230
1.0
 70
     8
 71
     3
 72
    18
 73
    14
 74
     0
 42
0.000000001
 43
0.00000001
 40
0.0
 40
0.0
 40
0.0
 40
0.0
 40
0.1249999999999998
 40
0.1249999999999998
 40
0.2499999999999996
 40
0.2499999999999996
 40
0.4999999999999996
 40
0.4999999999999996
 40
0.7499999999999996
 40
0.7499999999999996
 40
0.8749999999999998
 40
0.8749999999999998
 40
1.0
 40
1.0
 40
1.0
 40
1.0
 10
68.80485883491991
 20
46.05837048529845
 30
0.0
 10
68.77953269226116
 20
46.00040384405955
 30
0.0
 10
68.76503632918461
 20
45.93563118523949
 30
0.0
 10
68.7610629532072
 20
45.80390393450378
 30
0.0
 10
68.77137702618988
 20
45.73751303785431
 30
0.0
 10
68.83262479121392
 20
45.54765234656724
 30
0.0
 10
68.91100528715049
 20
45.43705487446871
 30
0.0
 10
69.10033847923056
 20
45.26945534868295
 30
0.0
 10
69.21256844787194
 20
45.21141660742354
 30
0.0
 10
69.40038428552755
 20
45.18012589204754
 30
0.0
 10
69.46609361882899
 20
45.17919398777455
 30
0.0
 10
69.60029934362169
 20
45.1954523969935
 30
0.0
 10
69.66762366330063
 20
45.21234490046974
 30
0.0
 10
69.73359604580396
 20
45.23485404627861
 30
0.0
  0
SPLINE
  5
1EC
330
1F
100
AcDbEntity
  8
0
  6
Continuous
 62
     7
370
    30
100
AcDbSpline
210
0.0
220
0.0
230
1.0
 70
     8
 71
     3
 72
     8
 73
     4
 74
     0
 42
0.000000001
 43
0.00000001
 40
0.0
 40
0.0
 40
0.0
 40
0.0
 40
1.0
 40
1.0
 40
1.0
 40
1.0
 10
69.73359604580392
 20
45.23485404627866
 30
0.0
 10
69.8468889324493
 20
45.27350849542605
 30
0.0
 10
69.96538395669991
 20
45.28771945470873
 30
0.0
 10
70.07601124630472
 20
45.28910366336444
 30
0.0
  0
ARC
  5
1ED
330
1F
100
AcDbEntity
  8
0
  6
Continuous
 62
     7
370
    30
100
AcDbCircle
 10
63.6858673038
 20
39.464976842
 30
0.0
 40
8.646062273518186
100
AcDbArc
 50
35.2423681327
 51
42.3467750638
  0
SPLINE
  5
1EE
330
1F
100
AcDbEntity
  8
0
  6
Continuous
 62
     7
370
    30
100
AcDbSpline
210
0.0
220
0.0
230
1.0
 70
     8
 71
     3
 72
     8
 73
     4
 74
     0
 42
0.000000001
 43
0.00000001
 40
0.0
 40
0.0
 40
0.0
 40
0.0
 40
1.0
 40
1.0
 40
1.0
 40
1.0
 10
70.59136053374873
 20
44.16780317789128
 30
0.0
 10
70.65771591206929
 20
44.26484744116735
 30
0.0
 10
70.70719404494243
 20
44.36491475719239
 30
0.0
 10
70.74726566071124
 20
44.45406955333882
 30
0.0
  0
SPLINE
  5
1EF
330
1F
100
AcDbEntity
  8
0
  6
Continuous
 62
     7
370
    30
100
AcDbSpline
210
0.0
220
0.0
230
1.0
 70
     8
 71
     3
 72
    18
 73
    14
 74
     0
 42
0.000000001
 43
0.00000001
 40
0.0
 40
0.0
 40
0.0
 40
0.0
 40
0.1249999999999996
 40
0.1249999999999996
 40
0.2499999999999992
 40
0.2499999999999992
 40
0.4999999999999993
 40
0.4999999999999993
 40
0.7499999999999994
 40
0.7499999999999994
 40
0.8749999999999997
 40
0.8749999999999997
 40
1.0
 40
1.0
 40
1.0
 40
1.0
 10
70.59136053374867
 20
44.16780317789208
 30
0.0
 10
70.55299910893947
 20
44.11169987017168
 30
0.0
 10
70.52192722029393
 20
44.04835530263578
 30
0.0
 10
70.48180189793372
 20
43.91504659241888
 30
0.0
 10
70.47274467382036
 20
43.84561843567256
 30
0.0
 10
70.47725869393261
 20
43.63709654507251
 30
0.0
 10
70.52113509535718
 20
43.50133053575146
 30
0.0
 10
70.65982655480263
 20
43.26152449299394
 30
0.0
 10
70.7555995661903
 20
43.15597192700024
 30
0.0
 10
70.9333132618308
 20
43.04842140871246
 30
0.0
 10
70.998046331727
 20
43.02154854668392
 30
0.0
 10
71.13350315472441
 20
42.98975807386346
 30
0.0
 10
71.20298294852063
 20
42.98500533425847
 30
0.0
 10
71.27124335899511
 20
42.99021158482481
 30
0.0
  0
SPLINE
  5
1F0
330
1F
100
AcDbEntity
  8
0
  6
Continuous
 62
     7
370
    30
100
AcDbSpline
210
0.0
220
0.0
230
1.0
 70
     8
 71
     3
 72
     8
 73
     4
 74
     0
 42
0.000000001
 43
0.00000001
 40
0.0
 40
0.0
 40
0.0
 40
0.0
 40
1.0
 40
1.0
 40
1.0
 40
1.0
 10
71.2712433589951
 20
42.99021158482487
 30
0.0
 10
71.38846542454448
 20
42.99915216166747
 30
0.0
 10
71.4998685995739
 20
42.99196215873243
 30
0.0
 10
71.59711919227044
 20
42.98208006200654
 30
0.0
  0
ARC
  5
1F1
330
1F
100
AcDbEntity
  8
0
  6
Continuous
 62
     7
370
    30
100
AcDbCircle
 10
63.74507464
 20
39.3609613799
 30
0.0
 40
8.646797335475009
100
AcDbArc
 50
17.6536779275
 51
24.7576818128
  0
SPLINE
  5
1F2
330
1F
100
AcDbEntity
  8
0
  6
Continuous
 62
     7
370
    30
100
AcDbSpline
210
0.0
220
0.0
230
1.0
 70
     8
 71
     3
 72
     8
 73
     4
 74
     0
 42
0.000000001
 43
0.00000001
 40
0.0
 40
0.0
 40
0.0
 40
0.0
 40
1.0
 40
1.0
 40
1.0
 40
1.0
 10
71.76647391701177
 20
41.71380629810041
 30
0.0
 10
71.85659659949442
 20
41.79259271796042
 30
0.0
 10
71.9281528537076
 20
41.88810401155349
 30
0.0
 10
71.98466810912278
 20
41.98321301245093
 30
0.0
  0
SPLINE
  5
1F3
330
1F
100
AcDbEntity
  8
0
  6
Continuous
 62
     7
370
    30
100
AcDbSpline
210
0.0
220
0.0
230
1.0
 70
     8
 71
     3
 72
    18
 73
    14
 74
     0
 42
0.000000001
 43
0.00000001
 40
0.0
 40
0.0
 40
0.0
 40
0.0
 40
0.125
 40
0.125
 40
0.2499999999999999
 40
0.2499999999999999
 40
0.5
 40
0.5
 40
0.75
 40
0.75
 40
0.875
 40
0.875
 40
1.0
 40
1.0
 40
1.0
 40
1.0
 10
71.76647391701204
 20
41.71380629810095
 30
0.0
 10
71.7143721191599
 20
41.66825822953538
 30
0.0
 10
71.66542054450942
 20
41.61775568613447
 30
0.0
 10
71.58426544544882
 20
41.50956282979299
 30
0.0
 10
71.55227504774348
 20
41.45224339832067
 30
0.0
 10
71.48539497367943
 20
41.27316858678991
 30
0.0
 10
71.47986762499278
 20
41.14679801217254
 30
0.0
 10
71.5307790364845
 20
40.89905511354011
 30
0.0
 10
71.58761335897964
 20
40.77610755127233
 30
0.0
 10
71.72103354336114
 20
40.62886647280332
 30
0.0
 10
71.77344496241754
 20
40.58671681764333
 30
0.0
 10
71.88949334275067
 20
40.52442216812224
 30
0.0
 10
71.95200645536016
 20
40.50477896688803
 30
0.0
 10
72.01532830264803
 20
40.49767426736216
 30
0.0
  0
SPLINE
  5
1F4
330
1F
100
AcDbEntity
  8
0
  6
Continuous
 62
     7
370
    30
100
AcDbSpline
210
0.0
220
0.0
230
1.0
 70
     8
 71
     3
 72
     8
 73
     4
 74
     0
 42
0.000000001
 43
0.00000001
 40
0.0
 40
0.0
 40
0.0
 40
0.0
 40
1.0
 40
1.0
 40
1.0
 40
1.0
 10
72.01532830264804
 20
40.49767426736224
 30
0.0
 10
72.12406948486314
 20
40.48547352687826
 30
0.0
 10
72.21829187763662
 20
40.4702171639349
 30
0.0
 10
72.29573609116937
 20
40.46304797402894
 30
0.0
  0
ARC
  5
1F5
330
1F
100
AcDbEntity
  8
0
  6
Continuous
 62
     7
370
    30
100
AcDbCircle
 10
67.2709295701
 20
40.0155207891
 30
0.0
 40
5.044696339286399
100
AcDbArc
 50
354.9104625158
 51
5.0895374842
  0
SPLINE
  5
1F6
330
1F
100
AcDbEntity
  8
0
  6
Continuous
 62
     7
370
    30
100
AcDbSpline
210
0.0
220
0.0
230
1.0
 70
     8
 71
     3
 72
     8
 73
     4
 74
     0
 42
0.000000001
 43
0.00000001
 40
0.0
 40
0.0
 40
0.0
 40
0.0
 40
1.0
 40
1.0
 40
1.0
 40
1.0
 10
72.01532830264905
 20
39.35392632809348
 30
0.0
 10
72.1240694848636
 20
39.40431232228443
 30
0.0
 10
72.21829187763733
 20
39.48108346618891
 30
0.0
 10
72.29573609116939
 20
39.56799360421781
 30
0.0
  0
SPLINE
  5
1F7
330
1F
100
AcDbEntity
  8
0
  6
Continuous
 62
     7
370
    30
100
AcDbSpline
210
0.0
220
0.0
230
1.0
 70
     8
 71
     3
 72
    18
 73
    14
 74
     0
 42
0.000000001
 43
0.00000001
 40
0.0
 40
0.0
 40
0.0
 40
0.0
 40
0.1250000000000001
 40
0.1250000000000001
 40
0.2500000000000001
 40
0.2500000000000001
 40
0.5000000000000002
 40
0.5000000000000002
 40
0.7500000000000003
 40
0.7500000000000003
 40
0.8750000000000001
 40
0.8750000000000001
 40
1.0
 40
1.0
 40
1.0
 40
1.0
 10
72.01532830264958
 20
39.35392632809361
 30
0.0
 10
71.9524627627226
 20
39.32479713651171
 30
0.0
 10
71.88911818905713
 20
39.2951095401005
 30
0.0
 10
71.77304937851106
 20
39.23200007822789
 30
0.0
 10
71.72070885606168
 20
39.19869083424189
 30
0.0
 10
71.58690432843575
 20
39.08928105910663
 30
0.0
 10
71.53031126898398
 20
39.00435239197774
 30
0.0
 10
71.47982491016363
 20
38.81506897268941
 30
0.0
 10
71.48567240237053
 20
38.70950621781169
 30
0.0
 10
71.55247611682088
 20
38.56977887543971
 30
0.0
 10
71.58452207399486
 20
38.52710999615485
 30
0.0
 10
71.66570294733296
 20
38.46002944478469
 30
0.0
 10
71.7139939400497
 20
38.43624045054172
 30
0.0
 10
71.76647391701074
 20
38.42511545520924
 30
0.0
  0
SPLINE
  5
1F8
330
1F
100
AcDbEntity
  8
0
  6
Continuous
 62
     7
370
    30
100
AcDbSpline
210
0.0
220
0.0
230
1.0
 70
     8
 71
     3
 72
     8
 73
     4
 74
     0
 42
0.000000001
 43
0.00000001
 40
0.0
 40
0.0
 40
0.0
 40
0.0
 40
1.0
 40
1.0
 40
1.0
 40
1.0
 10
71.76647391701077
 20
38.42511545520929
 30
0.0
 10
71.85659659949386
 20
38.40601075128155
 30
0.0
 10
71.92815285370881
 20
38.39818400519412
 30
0.0
 10
71.9846681091228
 20
38.4069800131133
 30
0.0
  0
ARC
  5
1F9
330
1F
100
AcDbEntity
  8
0
  6
Continuous
 62
     7
370
    30
100
AcDbCircle
 10
70.0415190881
 20
39.3607853804
 30
0.0
 40
2.164618395197717
100
AcDbArc
 50
315.9430235294
 51
333.8556334778
  0
SPLINE
  5
1FA
330
1F
100
AcDbEntity
  8
0
  6
Continuous
 62
     7
370
    30
100
AcDbSpline
210
0.0
220
0.0
230
1.0
 70
     8
 71
     3
 72
     8
 73
     4
 74
     0
 42
0.000000001
 43
0.00000001
 40
0.0
 40
0.0
 40
0.0
 40
0.0
 40
1.0
 40
1.0
 40
1.0
 40
1.0
 10
71.27124335899613
 20
37.72049120006823
 30
0.0
 10
71.38846542454489
 20
37.73994405745985
 30
0.0
 10
71.49986859957443
 20
37.78881233239682
 30
0.0
 10
71.59711919227047
 20
37.85556741861951
 30
0.0
  0
SPLINE
  5
1FB
330
1F
100
AcDbEntity
  8
0
  6
Continuous
 62
     7
370
    30
100
AcDbSpline
210
0.0
220
0.0
230
1.0
 70
     8
 71
     3
 72
    18
 73
    14
 74
     0
 42
0.000000001
 43
0.00000001
 40
0.0
 40
0.0
 40
0.0
 40
0.0
 40
0.1250000000000005
 40
0.1250000000000005
 40
0.2500000000000011
 40
0.2500000000000011
 40
0.5000000000000007
 40
0.5000000000000007
 40
0.7500000000000003
 40
0.7500000000000003
 40
0.8750000000000002
 40
0.8750000000000002
 40
1.0
 40
1.0
 40
1.0
 40
1.0
 10
71.2712433589968
 20
37.72049120006793
 30
0.0
 10
71.20347484395953
 20
37.70924509847015
 30
0.0
 10
71.13308055073179
 20
37.70276802366693
 30
0.0
 10
70.99756919471247
 20
37.69262943771666
 30
0.0
 10
70.93291439585799
 20
37.68879833308224
 30
0.0
 10
70.75458740857036
 20
37.6706048614258
 30
0.0
 10
70.65894969366005
 20
37.64806024892586
 30
0.0
 10
70.52061729283872
 20
37.5679684739204
 30
0.0
 10
70.47709169336198
 20
37.5099120849962
 30
0.0
 10
70.47280580852977
 20
37.42288947548016
 30
0.0
 10
70.48189940184359
 20
37.39459806676196
 30
0.0
 10
70.52209642419729
 20
37.34973226692976
 30
0.0
 10
70.55272066385514
 20
37.33365301018723
 30
0.0
 10
70.59136053374772
 20
37.32787560834841
 30
0.0
  0
SPLINE
  5
1FC
330
1F
100
AcDbEntity
  8
0
  6
Continuous
 62
     7
370
    30
100
AcDbSpline
210
0.0
220
0.0
230
1.0
 70
     8
 71
     3
 72
    10
 73
     6
 74
     0
 42
0.000000001
 43
0.00000001
 40
0.0
 40
0.0
 40
0.0
 40
0.0
 40
0.2460373497324246
 40
0.6195158371829093
 40
1.0
 40
1.0
 40
1.0
 40
1.0
 10
70.72146930854028
 20
37.34976222042328
 30
0.0
 10
70.71289834776854
 20
37.34427658222446
 30
0.0
 10
70.69131688485759
 20
37.33046388368533
 30
0.0
 10
70.64875732211112
 20
37.32297424088777
 30
0.0
 10
70.61061094612228
 20
37.32623172987531
 30
0.0
 10
70.59136053374777
 20
37.32787560834843
 30
0.0
  0
SPLINE
  5
1FD
330
1F
100
AcDbEntity
  8
0
  6
Continuous
 62
     7
370
    30
100
AcDbSpline
210
0.0
220
0.0
230
1.0
 70
     8
 71
     3
 72
    20
 73
    16
 74
     0
 42
0.000000001
 43
0.00000001
 40
0.0
 40
0.0
 40
0.0
 40
0.0
 40
0.0065542160927092
 40
0.0738409682898659
 40
0.1429781017500069
 40
0.2124406610828654
 40
0.2834906480142951
 40
0.3623250567249509
 40
0.4427724222062228
 40
0.5369817081165877
 40
0.6333773479850621
 40
0.7382663321624942
 40
0.846527925585429
 40
0.924777851739159
 40
1.0
 40
1.0
 40
1.0
 40
1.0
 10
69.69214019699183
 20
37.254693679888
 30
0.0
 10
69.68928166832764
 20
37.25492653243248
 30
0.0
 10
69.65707697420964
 20
37.25754989075796
 30
0.0
 10
69.5932105414455
 20
37.26978322666855
 30
0.0
 10
69.50185998440149
 20
37.29334260163281
 30
0.0
 10
69.41061943724937
 20
37.32339537692049
 30
0.0
 10
69.3186578840903
 20
37.35718904547541
 30
0.0
 10
69.22687167201734
 20
37.39234209854278
 30
0.0
 10
69.13213216195301
 20
37.42740568305471
 30
0.0
 10
69.03860592186875
 20
37.45818785756017
 30
0.0
 10
68.94714821392714
 20
37.48186504341017
 30
0.0
 10
68.86512675554883
 20
37.49528873089245
 30
0.0
 10
68.80683805644776
 20
37.49796442227753
 30
0.0
 10
68.77202708939724
 20
37.4952766186154
 30
0.0
 10
68.76649602283395
 20
37.49343377924309
 30
0.0
 10
68.76378504944904
 20
37.49253053780967
 30
0.0
  0
LINE
  5
1FE
330
1F
100
AcDbEntity
  8
0
  6
Continuous
 62
     7
370
    30
100
AcDbLine
 10
68.7629876142
 20
37.4923503403
 30
0.0
 11
68.7649605412
 21
37.4922562228
 31
0.0
  0
SPLINE
  5
1FF
330
1F
100
AcDbEntity
  8
0
  6
Continuous
 62
     7
370
    30
100
AcDbSpline
210
0.0
220
0.0
230
1.0
 70
     8
 71
     3
 72
    15
 73
    11
 74
     0
 42
0.000000001
 43
0.00000001
 40
0.0
 40
0.0
 40
0.0
 40
0.0
 40
0.0596287372138347
 40
0.1884573301832791
 40
0.3199217639572352
 40
0.4738754746146472
 40
0.6314020528658305
 40
0.8028081745146693
 40
0.979725703058543
 40
1.0
 40
1.0
 40
1.0
 40
1.0
 10
67.50535639148002
 20
38.23410441623183
 30
0.0
 10
67.49229126596444
 20
38.24424772440862
 30
0.0
 10
67.45099878203428
 20
38.27630577003467
 30
0.0
 10
67.38326763586595
 20
38.33597447764039
 30
0.0
 10
67.29758774970178
 20
38.41286635158155
 30
0.0
 10
67.20910506951054
 20
38.49307129610369
 30
0.0
 10
67.11658444751203
 20
38.57464460810414
 30
0.0
 10
67.02860948354711
 20
38.65119156835955
 30
0.0
 10
66.9692406054629
 20
38.70162283625034
 30
0.0
 10
66.94715044729494
 20
38.72491545053633
 30
0.0
 10
66.94487924550918
 20
38.72731028296619
 30
0.0
  0
SPLINE
  5
200
330
1F
100
AcDbEntity
  8
0
  6
Continuous
 62
     7
370
    30
100
AcDbSpline
210
0.0
220
0.0
230
1.0
 70
     8
 71
     3
 72
    13
 73
     9
 74
     0
 42
0.000000001
 43
0.00000001
 40
0.0
 40
0.0
 40
0.0
 40
0.0
 40
0.0346359243400112
 40
0.2125909136384226
 40
0.4209881975730095
 40
0.6342218436791885
 40
0.8662433392887822
 40
1.0
 40
1.0
 40
1.0
 40
1.0
 10
65.7452263744754
 20
40.23136639291476
 30
0.0
 10
65.74167241443423
 20
40.23686245416185
 30
0.0
 10
65.71985865815141
 20
40.27059658149346
 30
0.0
 10
65.67711924164156
 20
40.34446068332851
 30
0.0
 10
65.61526387458987
 20
40.45090195371512
 30
0.0
 10
65.54768789072244
 20
40.56851224980101
 30
0.0
 10
65.48723813779648
 20
40.67182320458003
 30
0.0
 10
65.45431463152669
 20
40.73402581498477
 30
0.0
 10
65.44227526235863
 20
40.75677187926303
 30
0.0
  0
SPLINE
  5
201
330
1F
100
AcDbEntity
  8
0
  6
Continuous
 62
     7
370
    30
100
AcDbSpline
210
0.0
220
0.0
230
1.0
 70
     8
 71
     3
 72
    14
 73
    10
 74
     0
 42
0.000000001
 43
0.00000001
 40
0.0
 40
0.0
 40
0.0
 40
0.0
 40
0.1186417951111706
 40
0.2503245933065121
 40
0.4045340234158149
 40
0.5623222557062323
 40
0.7340130855267136
 40
0.9112244767727976
 40
1.0
 40
1.0
 40
1.0
 40
1.0
 10
64.73671253214957
 20
42.55149269508197
 30
0.0
 10
64.73170650864174
 20
42.57252586937032
 30
0.0
 10
64.72114420386957
 20
42.61690416619856
 30
0.0
 10
64.70470453452286
 20
42.70341611746424
 30
0.0
 10
64.68458146363788
 20
42.80728233401224
 30
0.0
 10
64.65928953051768
 20
42.92973843980222
 30
0.0
 10
64.63026853344726
 20
43.06469754015357
 30
0.0
 10
64.6044867957774
 20
43.1852921205335
 30
0.0
 10
64.59370211458044
 20
43.25842212944242
 30
0.0
 10
64.59010263030507
 20
43.28282992716192
 30
0.0
  0
LINE
  5
202
330
1F
100
AcDbEntity
  8
0
  6
Continuous
 62
     7
370
    30
100
AcDbLine
 10
64.577082379
 20
44.7453040005
 30
0.0
 11
64.5763776432
 21
44.7437505239
 31
0.0
  0
SPLINE
  5
203
330
1F
100
AcDbEntity
  8
0
  6
Continuous
 62
     7
370
    30
100
AcDbSpline
210
0.0
220
0.0
230
1.0
 70
     8
 71
     3
 72
    19
 73
    15
 74
     0
 42
0.000000001
 43
0.00000001
 40
0.0
 40
0.0
 40
0.0
 40
0.0
 40
0.0642532844839613
 40
0.1353454538674665
 40
0.2142266666496071
 40
0.2947217938164972
 40
0.3889870118791337
 40
0.4854398819405275
 40
0.5903911388183412
 40
0.6987170072633192
 40
0.7770133904806242
 40
0.8574067231056157
 40
0.9358029444466657
 40
1.0
 40
1.0
 40
1.0
 40
1.0
 10
64.57689995088907
 20
44.74429049088202
 30
0.0
 10
64.57858792360982
 20
44.74572927975527
 30
0.0
 10
64.58214353070198
 20
44.74875999693391
 30
0.0
 10
64.59709684685922
 20
44.76965033765473
 30
0.0
 10
64.6169407078169
 20
44.80478029329257
 30
0.0
 10
64.64102034202122
 20
44.85837914535217
 30
0.0
 10
64.66612252676651
 20
44.93072798433143
 30
0.0
 10
64.69060643689852
 20
45.02520131441717
 30
0.0
 10
64.71263608662841
 20
45.13915914746657
 30
0.0
 10
64.7316799379591
 20
45.25906597902235
 30
0.0
 10
64.75115832222976
 20
45.3758722648661
 30
0.0
 10
64.7731661872169
 20
45.48195194060819
 30
0.0
 10
64.79959589973987
 20
45.5814550505885
 30
0.0
 10
64.82435444735886
 20
45.63971920516929
 30
0.0
 10
64.83550101675912
 20
45.66595036592143
 30
0.0
  0
LWPOLYLINE
  5
204
330
1F
100
AcDbEntity
  8
0
  6
Continuous
 62
     7
370
    30
100
AcDbPolyline
 90
      115
 70
   128
 43
0.0
 10
68.0224645436
 20
38.1081969518
 10
68.2033174278
 20
38.0095495002
 10
68.3836210677
 20
37.9227150303
 10
68.5628278872
 20
37.8479572552
 10
68.7403936409
 20
37.7855032121
 10
68.9157790676
 20
37.7355425717
 10
69.0884515274
 20
37.6982270629
 10
69.2578866198
 20
37.6736700116
 10
69.423569776
 20
37.6619459969
 10
69.5849978216
 20
37.6630906241
 10
69.7416805049
 20
37.677100417
 10
69.893141986
 20
37.7039328284
 10
70.0389222811
 20
37.7435063692
 10
70.1785786603
 20
37.7957008557
 10
70.3116869919
 20
37.8603577751
 10
70.43784303
 20
37.9372807664
 10
70.5566636432
 20
38.026236217
 10
70.6677879769
 20
38.1269539721
 10
70.7708785503
 20
38.2391281552
 10
70.8656222807
 20
38.362418097
 10
70.9517314345
 20
38.4964493701
 10
71.0289445011
 20
38.6408149257
 10
71.0970269868
 20
38.7950763306
 10
71.1557721274
 20
38.9587650978
 10
71.2050015159
 20
39.13138411
 10
71.2445656442
 20
39.3124091289
 10
71.2743443573
 20
39.5012903875
 10
71.2942472184
 20
39.6974542595
 10
71.3042137829
 20
39.9003050019
 10
71.3042137829
 20
40.1092265634
 10
71.2942472184
 20
40.3235844562
 10
71.2743443573
 20
40.5427276825
 10
71.2445656442
 20
40.7659907114
 10
71.2050015159
 20
40.9926955005
 10
71.1557721274
 20
41.2221535548
 10
71.0970269868
 20
41.4536680177
 10
71.0289445011
 20
41.6865357874
 10
70.9517314345
 20
41.9200496521
 10
70.8656222807
 20
42.1535004379
 10
70.7708785503
 20
42.3861791625
 10
70.6677879769
 20
42.6173791881
 10
70.5566636432
 20
42.846398368
 10
70.43784303
 20
43.0725411784
 10
70.3116869919
 20
43.295120831
 10
70.1785786603
 20
43.5134613587
 10
70.0389222811
 20
43.7268996685
 10
69.893141986
 20
43.9347875553
 10
69.7416805049
 20
44.1364936704
 10
69.5849978216
 20
44.331405439
 10
69.423569776
 20
44.5189309204
 10
69.2578866198
 20
44.698500606
 10
69.0884515274
 20
44.8695691484
 10
68.9157790676
 20
45.0316170181
 10
68.7403936409
 20
45.1841520811
 10
68.5628278872
 20
45.3267110934
 10
68.3836210677
 20
45.458861108
 10
68.2033174278
 20
45.5802007896
 10
68.0224645436
 20
45.6903616336
 10
67.8416116594
 20
45.7890090851
 10
67.6613080194
 20
45.8758435551
 10
67.4821011999
 20
45.9506013301
 10
67.3045354462
 20
46.0130553732
 10
67.1291500195
 20
46.0630160136
 10
66.9564775597
 20
46.1003315224
 10
66.7870424673
 20
46.1248885737
 10
66.6213593112
 20
46.1366125884
 10
66.4599312656
 20
46.1354679612
 10
66.3032485822
 20
46.1214581683
 10
66.1517871012
 20
46.0946257569
 10
66.0060068061
 20
46.0550522161
 10
65.8663504268
 20
46.0028577296
 10
65.7332420953
 20
45.9382008102
 10
65.6070860571
 20
45.8612778189
 10
65.488265444
 20
45.7723223684
 10
65.3771411102
 20
45.6716046132
 10
65.2740505368
 20
45.5594304301
 10
65.1793068064
 20
45.4361404883
 10
65.0931976526
 20
45.3021092152
 10
65.0159845861
 20
45.1577436596
 10
64.9479021004
 20
45.0034822547
 10
64.8891569597
 20
44.8397934875
 10
64.8399275713
 20
44.6671744753
 10
64.800363443
 20
44.4861494564
 10
64.7705847298
 20
44.2972681978
 10
64.7506818688
 20
44.1011043258
 10
64.7407153042
 20
43.8982535835
 10
64.7407153042
 20
43.6893320219
 10
64.7506818688
 20
43.4749741291
 10
64.7705847298
 20
43.2558309028
 10
64.800363443
 20
43.0325678739
 10
64.8399275713
 20
42.8058630848
 10
64.8891569597
 20
42.5764050305
 10
64.9479021004
 20
42.3448905676
 10
65.0159845861
 20
42.1120227979
 10
65.0931976526
 20
41.8785089332
 10
65.1793068064
 20
41.6450581474
 10
65.2740505368
 20
41.4123794228
 10
65.3771411102
 20
41.1811793972
 10
65.488265444
 20
40.9521602173
 10
65.6070860571
 20
40.7260174069
 10
65.7332420953
 20
40.5034377543
 10
65.8663504268
 20
40.2850972266
 10
66.0060068061
 20
40.0716589168
 10
66.1517871012
 20
39.86377103
 10
66.3032485822
 20
39.6620649149
 10
66.4599312656
 20
39.4671531463
 10
66.6213593112
 20
39.2796276649
 10
66.7870424673
 20
39.1000579793
 10
66.9564775597
 20
38.9289894369
 10
67.1291500195
 20
38.7669415672
 10
67.3045354462
 20
38.6144065042
 10
67.4821011999
 20
38.4718474919
 10
67.6613080194
 20
38.3396974773
 10
67.8416116594
 20
38.2183577957
 10
68.0224645436
 20
38.1081969518
  0
LINE
  5
205
330
1F
100
AcDbEntity
  8
0
  6
Continuous
 62
     7
370
    30
100
AcDbLine
 10
68.780078952
 20
40.9568141711
 30
0.0
 11
68.780078952
 21
41.9670214373
 31
0.0
  0
LINE
  5
206
330
1F
100
AcDbEntity
  8
0
  6
Continuous
 62
     7
370
    30
100
AcDbLine
 10
68.780078952
 20
41.9670214373
 30
0.0
 11
68.0224645436
 21
42.9094865588
 31
0.0
  0
LINE
  5
207
330
1F
100
AcDbEntity
  8
0
  6
Continuous
 62
     7
370
    30
100
AcDbLine
 10
68.0224645436
 20
42.9094865588
 30
0.0
 11
67.2648501352
 21
42.8417444142
 31
0.0
  0
LINE
  5
208
330
1F
100
AcDbEntity
  8
0
  6
Continuous
 62
     7
370
    30
100
AcDbLine
 10
74.0576432453
 20
46.1688455939
 30
0.0
 11
70.5913605337
 21
44.1678031779
 31
0.0
  0
SPLINE
  5
209
330
1F
100
AcDbEntity
  8
0
  6
Continuous
 62
     7
370
    30
100
AcDbSpline
210
0.0
220
0.0
230
1.0
 70
     8
 71
     3
 72
    18
 73
    14
 74
     0
 42
0.000000001
 43
0.00000001
 40
0.0
 40
0.0
 40
0.0
 40
0.0
 40
0.1250000000000003
 40
0.1250000000000003
 40
0.2500000000000006
 40
0.2500000000000006
 40
0.5000000000000004
 40
0.5000000000000004
 40
0.7500000000000002
 40
0.7500000000000002
 40
0.8750000000000001
 40
0.8750000000000001
 40
1.0
 40
1.0
 40
1.0
 40
1.0
 10
74.73752607053731
 20
44.99125400081186
 30
0.0
 10
74.7517432751878
 20
45.033414615862
 30
0.0
 10
74.75322714526767
 20
45.07967283118311
 30
0.0
 10
74.73437505512064
 20
45.17892353780038
 30
0.0
 10
74.71442091259905
 20
45.23159834462378
 30
0.0
 10
74.63649222171053
 20
45.39772507044346
 30
0.0
 10
74.56431424737441
 20
45.51714761824052
 30
0.0
 10
74.42580308701905
 20
45.75705777928329
 30
0.0
 10
74.35853739420327
 20
45.87907261985403
 30
0.0
 10
74.25403197248724
 20
46.02889911382209
 30
0.0
 10
74.21834255068335
 20
46.07254396752037
 30
0.0
 10
74.1418308394105
 20
46.13837379103377
 30
0.0
 10
74.10158418561379
 20
46.16000794921928
 30
0.0
 10
74.05764324529027
 20
46.16884559387878
 30
0.0
  0
LINE
  5
20A
330
1F
100
AcDbEntity
  8
0
  6
Continuous
 62
     7
370
    30
100
AcDbLine
 10
71.271243359
 20
42.9902115848
 30
0.0
 11
74.7375260705
 21
44.9912540008
 31
0.0
  0
LINE
  5
20B
330
1F
100
AcDbEntity
  8
0
  6
Continuous
 62
     7
370
    30
100
AcDbLine
 10
75.2327566286
 20
43.7148487141
 30
0.0
 11
71.766473917
 21
41.7138062981
 31
0.0
  0
SPLINE
  5
20C
330
1F
100
AcDbEntity
  8
0
  6
Continuous
 62
     7
370
    30
100
AcDbSpline
210
0.0
220
0.0
230
1.0
 70
     8
 71
     3
 72
    18
 73
    14
 74
     0
 42
0.000000001
 43
0.00000001
 40
0.0
 40
0.0
 40
0.0
 40
0.0
 40
0.1250000000000001
 40
0.1250000000000001
 40
0.2500000000000002
 40
0.2500000000000002
 40
0.5000000000000001
 40
0.5000000000000001
 40
0.75
 40
0.75
 40
0.875
 40
0.875
 40
1.0
 40
1.0
 40
1.0
 40
1.0
 10
75.48161101419014
 20
42.49871668334892
 30
0.0
 10
75.50073119395091
 20
42.55309953381553
 30
0.0
 10
75.50926478359304
 20
42.61442883779073
 30
0.0
 10
75.50985523891927
 20
42.7442025351436
 30
0.0
 10
75.50221537280275
 20
42.8121377204148
 30
0.0
 10
75.46880914157593
 20
43.01807621196426
 30
0.0
 10
75.43567582269837
 20
43.15480281475261
 30
0.0
 10
75.38501070434397
 20
43.40247973887323
 30
0.0
 10
75.36711810321182
 20
43.51499598712423
 30
0.0
 10
75.33370228077837
 20
43.6354489097024
 30
0.0
 10
75.32096522283463
 20
43.66697099872776
 30
0.0
 10
75.28543736254619
 20
43.70769662664468
 30
0.0
 10
75.26285746180837
 20
43.7166429234239
 30
0.0
 10
75.23275662855332
 20
43.71484871408792
 30
0.0
  0
LINE
  5
20D
330
1F
100
AcDbEntity
  8
0
  6
Continuous
 62
     7
370
    30
100
AcDbLine
 10
72.0153283026
 20
40.4976742674
 30
0.0
 11
75.4816110142
 21
42.4987166833
 31
0.0
  0
LINE
  5
20E
330
1F
100
AcDbEntity
  8
0
  6
Continuous
 62
     7
370
    30
100
AcDbLine
 10
72.2711415465
 20
48.0594129013
 30
0.0
 11
68.8048588349
 21
46.0583704853
 31
0.0
  0
SPLINE
  5
20F
330
1F
100
AcDbEntity
  8
0
  6
Continuous
 62
     7
370
    30
100
AcDbSpline
210
0.0
220
0.0
230
1.0
 70
     8
 71
     3
 72
    18
 73
    14
 74
     0
 42
0.000000001
 43
0.00000001
 40
0.0
 40
0.0
 40
0.0
 40
0.0
 40
0.1249999999999999
 40
0.1249999999999999
 40
0.2499999999999999
 40
0.2499999999999999
 40
0.4999999999999999
 40
0.4999999999999999
 40
0.7499999999999999
 40
0.7499999999999999
 40
0.8749999999999999
 40
0.8749999999999999
 40
1.0
 40
1.0
 40
1.0
 40
1.0
 10
73.19987875734608
 20
47.23589646226607
 30
0.0
 10
73.21636750207219
 20
47.26087886950474
 30
0.0
 10
73.22003389870605
 20
47.28523033759846
 30
0.0
 10
73.20242004345634
 20
47.33638655468388
 30
0.0
 10
73.18148707328676
 20
47.36314404427096
 30
0.0
 10
73.09336767374813
 20
47.45271047614447
 30
0.0
 10
73.00462808315889
 20
47.52464421434095
 30
0.0
 10
72.81536088512607
 20
47.69249005279855
 30
0.0
 10
72.71356531927577
 20
47.78947360405034
 30
0.0
 10
72.55254556964371
 20
47.92077661313497
 30
0.0
 10
72.49746694936265
 20
47.96138602525871
 30
0.0
 10
72.38483663289006
 20
48.02565452250076
 30
0.0
 10
72.3282123850833
 20
48.04869839816479
 30
0.0
 10
72.27114154646182
 20
48.05941290128509
 30
0.0
  0
LINE
  5
210
330
1F
100
AcDbEntity
  8
0
  6
Continuous
 62
     7
370
    30
100
AcDbLine
 10
69.7335960458
 20
45.2348540463
 30
0.0
 11
73.1998787573
 21
47.2358964623
 31
0.0
  0
LINE
  5
211
330
1F
100
AcDbEntity
  8
0
  6
Continuous
 62
     7
370
    30
100
AcDbLine
 10
71.9846681091
 20
41.9832130125
 30
0.0
 11
75.0151257428
 21
43.7326589664
 31
0.0
  0
LINE
  5
212
330
1F
100
AcDbEntity
  8
0
  6
Continuous
 62
     7
370
    30
100
AcDbLine
 10
74.6275768259
 20
44.7315260159
 30
0.0
 11
71.5971191923
 21
42.982080062
 31
0.0
  0
ARC
  5
213
330
1F
100
AcDbEntity
  8
0
  6
Continuous
 62
     7
370
    30
100
AcDbCircle
 10
66.7755322737
 20
41.1104073338
 30
0.0
 40
8.646797335476089
100
AcDbArc
 50
17.6536779275
 51
24.7576818128
  0
LINE
  5
214
330
1F
100
AcDbEntity
  8
0
  6
Continuous
 62
     7
370
    30
100
AcDbLine
 10
70.7472656607
 20
44.4540695533
 30
0.0
 11
73.7777232944
 21
46.2035155072
 31
0.0
  0
LINE
  5
215
330
1F
100
AcDbEntity
  8
0
  6
Continuous
 62
     7
370
    30
100
AcDbLine
 10
73.10646888
 20
47.0385496173
 30
0.0
 11
70.0760112463
 21
45.2891036634
 31
0.0
  0
ARC
  5
216
330
1F
100
AcDbEntity
  8
0
  6
Continuous
 62
     7
370
    30
100
AcDbCircle
 10
66.7163249375
 20
41.2144227959
 30
0.0
 40
8.646062273515945
100
AcDbArc
 50
35.2423681327
 51
42.3467750638
  0
SPLINE
  5
217
330
1F
100
AcDbEntity
  8
0
  6
Continuous
 62
     7
370
    30
100
AcDbSpline
210
0.0
220
0.0
230
1.0
 70
     8
 71
     3
 72
     8
 73
     4
 74
     0
 42
0.000000001
 43
0.00000001
 40
0.0
 40
0.0
 40
0.0
 40
0.0
 40
1.0
 40
1.0
 40
1.0
 40
1.0
 10
74.73752607053666
 20
44.99125400081232
 30
0.0
 10
74.71293397058379
 20
44.91832700251128
 30
0.0
 10
74.67683561691413
 20
44.82598617954253
 30
0.0
 10
74.62757682592711
 20
44.73152601591231
 30
0.0
  0
SPLINE
  5
218
330
1F
100
AcDbEntity
  8
0
  6
Continuous
 62
     7
370
    30
100
AcDbSpline
210
0.0
220
0.0
230
1.0
 70
     8
 71
     3
 72
     8
 73
     4
 74
     0
 42
0.000000001
 43
0.00000001
 40
0.0
 40
0.0
 40
0.0
 40
0.0
 40
1.0
 40
1.0
 40
1.0
 40
1.0
 10
74.05764324529028
 20
46.16884559387871
 30
0.0
 10
73.98218445810896
 20
46.18402228201136
 30
0.0
 10
73.8841610622819
 20
46.19893877800369
 30
0.0
 10
73.77772329436789
 20
46.2035155072446
 30
0.0
  0
SPLINE
  5
219
330
1F
100
AcDbEntity
  8
0
  6
Continuous
 62
     7
370
    30
100
AcDbSpline
210
0.0
220
0.0
230
1.0
 70
     8
 71
     3
 72
     8
 73
     4
 74
     0
 42
0.000000001
 43
0.00000001
 40
0.0
 40
0.0
 40
0.0
 40
0.0
 40
1.0
 40
1.0
 40
1.0
 40
1.0
 10
75.23275662855332
 20
43.71484871408785
 30
0.0
 10
75.18106514553428
 20
43.71176755880428
 30
0.0
 10
75.10511987104806
 20
43.72212803236365
 30
0.0
 10
75.01512574277943
 20
43.73265896635671
 30
0.0
  0
SPLINE
  5
21A
330
1F
100
AcDbEntity
  8
0
  6
Continuous
 62
     7
370
    30
100
AcDbSpline
210
0.0
220
0.0
230
1.0
 70
     8
 71
     3
 72
     8
 73
     4
 74
     0
 42
0.000000001
 43
0.00000001
 40
0.0
 40
0.0
 40
0.0
 40
0.0
 40
1.0
 40
1.0
 40
1.0
 40
1.0
 10
73.19987875734547
 20
47.2358964622661
 30
0.0
 10
73.17135747848866
 20
47.19268333626962
 30
0.0
 10
73.1423509740413
 20
47.12174347551922
 30
0.0
 10
73.10646887996137
 20
47.03854961727021
 30
0.0
  0
SPLINE
  5
21B
330
1F
100
AcDbEntity
  8
0
  6
Continuous
 62
     7
370
    30
100
AcDbSpline
210
0.0
220
0.0
230
1.0
 70
     8
 71
     3
 72
    10
 73
     6
 74
     0
 42
0.000000001
 43
0.00000001
 40
0.0
 40
0.0
 40
0.0
 40
0.0
 40
0.0275880561051227
 40
0.8568312801531709
 40
1.0
 40
1.0
 40
1.0
 40
1.0
 10
74.62757682592714
 20
39.60501337252528
 30
0.0
 10
74.62820000977705
 20
39.60524213083965
 30
0.0
 10
74.6475548861716
 20
39.6123469184551
 30
0.0
 10
74.66889273353044
 20
39.6220981797528
 30
0.0
 10
74.68442418236911
 20
39.64044917236269
 30
0.0
 10
74.68671088571698
 20
39.64315099861687
 30
0.0
  0
ARC
  5
21C
330
1F
100
AcDbEntity
  8
0
  6
Continuous
 62
     7
370
    30
100
AcDbCircle
 10
73.0719767217
 20
41.1102313343
 30
0.0
 40
2.16461839519796
100
AcDbArc
 50
315.9430235294
 51
333.8556334778
  0
SPLINE
  5
21D
330
1F
100
AcDbEntity
  8
0
  6
Continuous
 62
     7
370
    30
100
AcDbSpline
210
0.0
220
0.0
230
1.0
 70
     8
 71
     3
 72
     8
 73
     4
 74
     0
 42
0.000000001
 43
0.00000001
 40
0.0
 40
0.0
 40
0.0
 40
0.0
 40
1.0
 40
1.0
 40
1.0
 40
1.0
 10
75.23275662855234
 20
40.42615787119673
 30
0.0
 10
75.1810651455334
 20
40.3251855921256
 30
0.0
 10
75.10511987104744
 20
40.23220802600499
 30
0.0
 10
75.01512574277945
 20
40.15642596701907
 30
0.0
  0
SPLINE
  5
21E
330
1F
100
AcDbEntity
  8
0
  6
Continuous
 62
     7
370
    30
100
AcDbSpline
210
0.0
220
0.0
230
1.0
 70
     8
 71
     3
 72
    14
 73
    10
 74
     0
 42
0.000000001
 43
0.00000001
 40
0.0
 40
0.0
 40
0.0
 40
0.0
 40
0.25
 40
0.25
 40
0.5
 40
0.5
 40
0.75
 40
0.75
 40
1.0
 40
1.0
 40
1.0
 40
1.0
 10
75.23275662855261
 20
40.42615787119588
 30
0.0
 10
75.27607772959017
 20
40.51077974791831
 30
0.0
 10
75.30444056737203
 20
40.61089700544958
 30
0.0
 10
75.34472181247986
 20
40.80668620792297
 30
0.0
 10
75.35803213077865
 20
40.90278387946886
 30
0.0
 10
75.38798859323052
 20
41.07426566362886
 30
0.0
 10
75.4046408806209
 20
41.14981319629017
 30
0.0
 10
75.4440839464774
 20
41.27523315396486
 30
0.0
 10
75.46614262822017
 20
41.32301801765094
 30
0.0
 10
75.48409418681513
 20
41.35328355411718
 30
0.0
  0
SPLINE
  5
21F
330
1F
100
AcDbEntity
  8
0
  6
Continuous
 62
     7
370
    30
100
AcDbSpline
210
0.0
220
0.0
230
1.0
 70
     8
 71
     3
 72
    10
 73
     6
 74
     0
 42
0.000000001
 43
0.00000001
 40
0.0
 40
0.0
 40
0.0
 40
0.0
 40
0.3677135667858232
 40
0.9004093868358412
 40
1.0
 40
1.0
 40
1.0
 40
1.0
 10
75.50823320284127
 20
41.38562427509125
 30
0.0
 10
75.50806174849957
 20
41.38474020313648
 30
0.0
 10
75.50764191330009
 20
41.38257540216472
 30
0.0
 10
75.4951833321061
 20
41.36804663106257
 30
0.0
 10
75.48345787558618
 20
41.35674832548717
 30
0.0
 10
75.4816110141906
 20
41.35496874408093
 30
0.0
  0
SPLINE
  5
220
330
1F
100
AcDbEntity
  8
0
  6
Continuous
 62
     7
370
    30
100
AcDbSpline
210
0.0
220
0.0
230
1.0
 70
     8
 71
     3
 72
     8
 73
     4
 74
     0
 42
0.000000001
 43
0.00000001
 40
0.0
 40
0.0
 40
0.0
 40
0.0
 40
1.0
 40
1.0
 40
1.0
 40
1.0
 10
75.4816110141906
 20
41.35496874408093
 30
0.0
 10
75.4485380309036
 20
41.32348716312807
 30
0.0
 10
75.39525889497725
 20
41.31510748700073
 30
0.0
 10
75.32619372482604
 20
41.31743955812358
 30
0.0
  0
ARC
  5
221
330
1F
100
AcDbEntity
  8
0
  6
Continuous
 62
     7
370
    30
100
AcDbCircle
 10
70.3013872037
 20
41.764966743
 30
0.0
 40
5.044696339282414
100
AcDbArc
 50
354.9104625158
 51
5.0895374842
  0
SPLINE
  5
222
330
1F
100
AcDbEntity
  8
0
  6
Continuous
 62
     7
370
    30
100
AcDbSpline
210
0.0
220
0.0
230
1.0
 70
     8
 71
     3
 72
     8
 73
     4
 74
     0
 42
0.000000001
 43
0.00000001
 40
0.0
 40
0.0
 40
0.0
 40
0.0
 40
1.0
 40
1.0
 40
1.0
 40
1.0
 10
75.4816110141896
 20
42.49871668334967
 30
0.0
 10
75.44853803090253
 20
42.40464836772224
 30
0.0
 10
75.39525889497767
 20
42.30424118474524
 30
0.0
 10
75.32619372482603
 20
42.2124939279347
 30
0.0
  0
SPLINE
  5
223
330
1F
100
AcDbEntity
  8
0
  6
Continuous
 62
     7
370
    30
100
AcDbSpline
210
0.0
220
0.0
230
1.0
 70
     8
 71
     3
 72
     8
 73
     4
 74
     0
 42
0.000000001
 43
0.00000001
 40
0.0
 40
0.0
 40
0.0
 40
0.0
 40
1.0
 40
1.0
 40
1.0
 40
1.0
 10
72.27114154646185
 20
48.05941290128506
 30
0.0
 10
72.1731350806445
 20
48.07781267618192
 30
0.0
 10
72.05953739547873
 20
48.08188028482133
 30
0.0
 10
71.94554736635557
 20
48.06794516604318
 30
0.0
  0
ARC
  5
224
330
1F
100
AcDbEntity
  8
0
  6
Continuous
 62
     7
370
    30
100
AcDbCircle
 10
69.0464134894
 20
43.9410082317
 30
0.0
 40
5.043469608980062
100
AcDbArc
 50
54.9123243179
 51
65.0930522148
  0
SPLINE
  5
225
330
1F
100
AcDbEntity
  8
0
  6
Continuous
 62
     7
370
    30
100
AcDbSpline
210
0.0
220
0.0
230
1.0
 70
     8
 71
     3
 72
     8
 73
     4
 74
     0
 42
0.000000001
 43
0.00000001
 40
0.0
 40
0.0
 40
0.0
 40
0.0
 40
1.0
 40
1.0
 40
1.0
 40
1.0
 10
71.28068043042954
 20
48.63119393286788
 30
0.0
 10
71.23687273074482
 20
48.61830542606611
 30
0.0
 10
71.20296888721207
 20
48.57636675920286
 30
0.0
 10
71.17044953265092
 20
48.51539962110499
 30
0.0
  0
SPLINE
  5
226
330
1F
100
AcDbEntity
  8
0
  6
Continuous
 62
     7
370
    30
100
AcDbSpline
210
0.0
220
0.0
230
1.0
 70
     8
 71
     3
 72
    10
 73
     6
 74
     0
 42
0.000000001
 43
0.00000001
 40
0.0
 40
0.0
 40
0.0
 40
0.0
 40
0.2501662564692988
 40
0.6906357681326206
 40
1.0
 40
1.0
 40
1.0
 40
1.0
 10
71.28068043042992
 20
48.63119393286827
 30
0.0
 10
71.28662616187864
 20
48.63284426105227
 30
0.0
 10
71.30304058508725
 20
48.63740033383806
 30
0.0
 10
71.31881535531096
 20
48.63986691125488
 30
0.0
 10
71.3202903257883
 20
48.63923594107432
 30
0.0
 10
71.32089886483138
 20
48.63897561722663
 30
0.0
  0
SPLINE
  5
227
330
1F
100
AcDbEntity
  8
0
  6
Continuous
 62
     7
370
    30
100
AcDbSpline
210
0.0
220
0.0
230
1.0
 70
     8
 71
     3
 72
    18
 73
    14
 74
     0
 42
0.000000001
 43
0.00000001
 40
0.0
 40
0.0
 40
0.0
 40
0.0
 40
0.0654254737080477
 40
0.1573820385844458
 40
0.2650693725319117
 40
0.3752558510864
 40
0.4951507739422257
 40
0.6189008082616952
 40
0.7083455572336671
 40
0.8001858333765024
 40
0.889744636095905
 40
0.9826338211306747
 40
1.0
 40
1.0
 40
1.0
 40
1.0
 10
71.27752838276074
 20
48.63452006809262
 30
0.0
 10
71.26810981787818
 20
48.63447877274979
 30
0.0
 10
71.24545330722958
 20
48.63437943613258
 30
0.0
 10
71.19063456014234
 20
48.64020130609761
 30
0.0
 10
71.11589763452525
 20
48.65448950161989
 30
0.0
 10
71.02170921841997
 20
48.6805538105416
 30
0.0
 10
70.91205184659208
 20
48.71842277173929
 30
0.0
 10
70.7986728627905
 20
48.76191755558324
 30
0.0
 10
70.68780247179573
 20
48.80334304598036
 30
0.0
 10
70.58485473805015
 20
48.83768925431591
 30
0.0
 10
70.478123144887
 20
48.86525028951601
 30
0.0
 10
70.40035664178373
 20
48.87709728962524
 30
0.0
 10
70.35853110535255
 20
48.87958311407666
 30
0.0
 10
70.3519432195459
 20
48.87997465305067
 30
0.0
  0
SPLINE
  5
228
330
1F
100
AcDbEntity
  8
0
  6
Continuous
 62
     7
370
    30
100
AcDbSpline
210
0.0
220
0.0
230
1.0
 70
     8
 71
     3
 72
     8
 73
     4
 74
     0
 42
0.000000001
 43
0.00000001
 40
0.0
 40
0.0
 40
0.0
 40
0.0
 40
1.0
 40
1.0
 40
1.0
 40
1.0
 10
70.3519432195459
 20
48.87997465305067
 30
0.0
 10
70.23865033290052
 20
48.88569913456414
 30
0.0
 10
70.12015530864997
 20
48.86641989666812
 30
0.0
 10
70.00952801904512
 20
48.82637552133275
 30
0.0
  0
ARC
  5
229
330
1F
100
AcDbEntity
  8
0
  6
Continuous
 62
     7
370
    30
100
AcDbCircle
 10
69.8642895589
 20
46.6670962513
 30
0.0
 40
2.164158306647443
100
AcDbArc
 50
86.1519404671
 51
104.067095595
  0
SPLINE
  5
22A
330
1F
100
AcDbEntity
  8
0
  6
Continuous
 62
     7
370
    30
100
AcDbSpline
210
0.0
220
0.0
230
1.0
 70
     8
 71
     3
 72
    10
 73
     6
 74
     0
 42
0.000000001
 43
0.00000001
 40
0.0
 40
0.0
 40
0.0
 40
0.0
 40
0.1420285761777262
 40
0.9723752338115285
 40
1.0
 40
1.0
 40
1.0
 40
1.0
 10
69.40079819797883
 20
48.79843663813716
 30
0.0
 10
69.39734146470802
 20
48.79782250927779
 30
0.0
 10
69.37367551020162
 20
48.79361797727939
 30
0.0
 10
69.35461686372162
 20
48.77998450045768
 30
0.0
 10
69.33878340664094
 20
48.76678040400209
 30
0.0
 10
69.33827360463862
 20
48.76635526154724
 30
0.0
  0
LINE
  5
22B
330
1F
100
AcDbEntity
  8
0
  6
Continuous
 62
     7
370
    30
100
AcDbLine
 10
75.3261937248
 20
42.2124939279
 30
0.0
 11
72.2957360912
 21
40.463047974
 31
0.0
  0
LINE
  5
22C
330
1F
100
AcDbEntity
  8
0
  6
Continuous
 62
     7
370
    30
100
AcDbLine
 10
68.9150897327
 20
46.3184992121
 30
0.0
 11
71.9455473664
 21
48.067945166
 31
0.0
  0
LINE
  5
22D
330
1F
100
AcDbEntity
  8
0
  6
Continuous
 62
     7
370
    30
100
AcDbLine
 10
72.2957360912
 20
39.5679936042
 30
0.0
 11
75.3261937248
 21
41.3174395581
 31
0.0
  0
LINE
  5
22E
330
1F
100
AcDbEntity
  8
0
  6
Continuous
 62
     7
370
    30
100
AcDbLine
 10
71.1704495327
 20
48.5153996211
 30
0.0
 11
68.139991899
 21
46.7659536672
 31
0.0
  0
LINE
  5
22F
330
1F
100
AcDbEntity
  8
0
  6
Continuous
 62
     7
370
    30
100
AcDbLine
 10
71.766473917
 20
38.4251154552
 30
0.0
 11
75.2327566286
 21
40.4261578712
 31
0.0
  0
LINE
  5
230
330
1F
100
AcDbEntity
  8
0
  6
Continuous
 62
     7
370
    30
100
AcDbLine
 10
70.3519432195
 20
48.8799746531
 30
0.0
 11
66.885660508
 21
46.8789322371
 31
0.0
  0
LINE
  5
231
330
1F
100
AcDbEntity
  8
0
  6
Continuous
 62
     7
370
    30
100
AcDbLine
 10
67.5173882713
 20
41.2380856231
 30
0.0
 11
66.7597738629
 21
42.1805507447
 31
0.0
  0
LINE
  5
232
330
1F
100
AcDbEntity
  8
0
  6
Continuous
 62
     7
370
    30
100
AcDbLine
 10
67.5173882713
 20
40.227878357
 30
0.0
 11
67.5173882713
 21
41.2380856231
 31
0.0
  0
LINE
  5
233
330
1F
100
AcDbEntity
  8
0
  6
Continuous
 62
     7
370
    30
100
AcDbLine
 10
66.7597738629
 20
40.1601362124
 30
0.0
 11
67.5173882713
 21
40.227878357
 31
0.0
  0
LINE
  5
234
330
1F
100
AcDbEntity
  8
0
  6
Continuous
 62
     7
370
    30
100
AcDbLine
 10
66.0021594545
 20
41.1026013339
 30
0.0
 11
66.7597738629
 21
40.1601362124
 31
0.0
  0
LINE
  5
235
330
1F
100
AcDbEntity
  8
0
  6
Continuous
 62
     7
370
    30
100
AcDbLine
 10
66.0021594545
 20
42.1128086001
 30
0.0
 11
66.0021594545
 21
41.1026013339
 31
0.0
  0
LINE
  5
236
330
1F
100
AcDbEntity
  8
0
  6
Continuous
 62
     7
370
    30
100
AcDbLine
 10
66.7597738629
 20
42.1805507447
 30
0.0
 11
66.0021594545
 21
42.1128086001
 31
0.0
  0
LINE
  5
237
330
1F
100
AcDbEntity
  8
0
  6
Continuous
 62
     7
370
    30
100
AcDbLine
 10
67.5173882713
 20
41.2380856231
 30
0.0
 11
68.780078952
 21
41.9670214373
 31
0.0
  0
LINE
  5
238
330
1F
100
AcDbEntity
  8
0
  6
Continuous
 62
     7
370
    30
100
AcDbLine
 10
66.7597738629
 20
42.1805507447
 30
0.0
 11
68.0224645436
 21
42.9094865588
 31
0.0
  0
LINE
  5
239
330
1F
100
AcDbEntity
  8
0
  6
Continuous
 62
     7
370
    30
100
AcDbLine
 10
67.5173882713
 20
40.227878357
 30
0.0
 11
68.780078952
 21
40.9568141711
 31
0.0
  0
LINE
  5
23A
330
1F
100
AcDbEntity
  8
0
  6
Continuous
 62
     7
370
    30
100
AcDbLine
 10
66.0021594545
 20
42.1128086001
 30
0.0
 11
67.2648501352
 21
42.8417444142
 31
0.0
  0
LINE
  5
23B
330
1F
100
AcDbEntity
  8
0
  6
Continuous
 62
     7
370
    30
100
AcDbLine
 10
75.0151257428
 20
40.156425967
 30
0.0
 11
71.9846681091
 21
38.4069800131
 31
0.0
  0
LINE
  5
23C
330
1F
100
AcDbEntity
  8
0
  6
Continuous
 62
     7
370
    30
100
AcDbLine
 10
66.9790703854
 20
47.0769295674
 30
0.0
 11
70.009528019
 21
48.8263755213
 31
0.0
  0
LINE
  5
23D
330
1F
100
AcDbEntity
  8
0
  6
Continuous
 62
     7
370
    30
100
AcDbLine
 10
71.5971191923
 20
37.8555674186
 30
0.0
 11
74.6275768259
 21
39.6050133725
 31
0.0
  0
LINE
  5
23E
330
1F
100
AcDbEntity
  8
0
  6
Continuous
 62
     7
370
    30
100
AcDbLine
 10
69.3382736046
 20
48.7663552615
 30
0.0
 11
66.307815971
 21
47.0169093076
 31
0.0
  0
LINE
  5
23F
330
1F
100
AcDbEntity
  8
0
  6
Continuous
 62
     8
370
    30
100
AcDbLine
 10
70.5913605337
 20
37.3278756083
 30
0.0
 11
71.2662249667
 21
37.7174665528
 31
0.0
  0
LINE
  5
240
330
1F
100
AcDbEntity
  8
0
  6
Continuous
 62
     8
370
    30
100
AcDbLine
 10
66.0277017919
 20
46.8019954496
 30
0.0
 11
65.3480131948
 21
46.4096195745
 31
0.0
  0
ENDSEC
  0
SECTION
  2
OBJECTS
  0
DICTIONARY
  5
C
330
0
100
AcDbDictionary
281
     1
  3
ACAD_GROUP
350
D
  3
ACAD_LAYOUT
350
1A
  3
ACAD_MLINESTYLE
350
17
  3
ACAD_PLOTSETTINGS
350
19
  3
ACAD_PLOTSTYLENAME
350
E
  3
ACAD_SCALELIST
350
47
  0
DICTIONARY
  5
D
102
{ACAD_REACTORS
330
C
102
}
330
C
100
AcDbDictionary
281
     1
  0
DICTIONARY
  5
1A
102
{ACAD_REACTORS
330
C
102
}
330
C
100
AcDbDictionary
281
     1
  3
Layout1
350
1E
  3
Layout2
350
26
  3
Model
350
22
  0
DICTIONARY
  5
17
102
{ACAD_REACTORS
330
C
102
}
330
C
100
AcDbDictionary
281
     1
  3
Standard
350
18
  0
DICTIONARY
  5
19
102
{ACAD_REACTORS
330
C
102
}
330
C
100
AcDbDictionary
281
     1
  0
ACDBDICTIONARYWDFLT
  5
E
102
{ACAD_REACTORS
330
C
102
}
330
C
100
AcDbDictionary
281
     1
  3
Normal
350
F
100
AcDbDictionaryWithDefault
340
F
  0
DICTIONARY
  5
47
102
{ACAD_REACTORS
330
C
102
}
330
C
100
AcDbDictionary
281
     1
  3
A0
350
48
  3
A1
350
49
  3
A2
350
4A
  3
A3
350
4B
  3
A4
350
4C
  3
A5
350
4D
  3
A6
350
4E
  3
A7
350
4F
  3
A8
350
50
  3
A9
350
51
  3
B0
350
52
  3
B1
350
53
  3
B2
350
54
  3
B3
350
55
  3
B4
350
56
  3
B5
350
57
  3
B6
350
58
  3
B7
350
59
  3
B8
350
5A
  3
B9
350
5B
  3
C0
350
5C
  3
C1
350
5D
  3
C2
350
5E
  3
C3
350
5F
  3
C4
350
60
  3
C5
350
61
  3
C6
350
62
  3
C7
350
63
  3
C8
350
64
  3
C9
350
65
  3
D0
350
66
  3
D1
350
67
  3
D2
350
68
  0
LAYOUT
  5
1E
102
{ACAD_REACTORS
330
1A
102
}
330
1A
100
AcDbPlotSettings
  1

  2
none_device
  4

  6

 40
0.0
 41
0.0
 42
0.0
 43
0.0
 44
0.0
 45
0.0
 46
0.0
 47
0.0
 48
0.0
 49
0.0
140
0.0
141
0.0
142
1.0
143
1.0
 70
   688
 72
     1
 73
     0
 74
     5
  7

 75
    16
147
1.0
148
0.0
149
0.0
100
AcDbLayout
  1
Layout1
 70
     1
 71
     1
 10
0.0
 20
0.0
 11
420.0
 21
297.0
 12
0.0
 22
0.0
 32
0.0
 14
1.0000000000E+20
 24
1.0000000000E+20
 34
1.0000000000E+20
 15
-1.0000000000E+20
 25
-1.0000000000E+20
 35
-1.0000000000E+20
146
0.0
 13
0.0
 23
0.0
 33
0.0
 16
1.0
 26
0.0
 36
0.0
 17
0.0
 27
1.0
 37
0.0
 76
     0
330
1B
  0
LAYOUT
  5
26
102
{ACAD_REACTORS
330
1A
102
}
330
1A
100
AcDbPlotSettings
  1

  2
none_device
  4

  6

 40
0.0
 41
0.0
 42
0.0
 43
0.0
 44
0.0
 45
0.0
 46
0.0
 47
0.0
 48
0.0
 49
0.0
140
0.0
141
0.0
142
1.0
143
1.0
 70
   688
 72
     1
 73
     0
 74
     5
  7

 75
    16
147
1.0
148
0.0
149
0.0
100
AcDbLayout
  1
Layout2
 70
     1
 71
     2
 10
0.0
 20
0.0
 11
0.0
 21
0.0
 12
0.0
 22
0.0
 32
0.0
 14
0.0
 24
0.0
 34
0.0
 15
0.0
 25
0.0
 35
0.0
146
0.0
 13
0.0
 23
0.0
 33
0.0
 16
1.0
 26
0.0
 36
0.0
 17
0.0
 27
1.0
 37
0.0
 76
     0
330
23
  0
LAYOUT
  5
22
102
{ACAD_REACTORS
330
1A
102
}
330
1A
100
AcDbPlotSettings
  1

  2
none_device
  4
Letter_(8.50_x_11.00_Inches)
  6

 40
6.35
 41
6.35
 42
6.35000508
 43
6.35000508
 44
215.9
 45
279.4
 46
0.0
 47
0.0
 48
0.0
 49
0.0
140
0.0
141
0.0
142
1.0
143
1.0
 70
  1712
 72
     1
 73
     0
 74
     0
  7

 75
     0
147
1.0
148
0.0
149
0.0
100
AcDbLayout
  1
Model
 70
     1
 71
     0
 10
0.0
 20
0.0
 11
84.8571428571
 21
60.0
 12
0.0
 22
0.0
 32
0.0
 14
0.0
 24
0.0
 34
0.0
 15
84.8571428571
 25
60.0
 35
0.0
146
0.0
 13
0.0
 23
0.0
 33
0.0
 16
1.0
 26
0.0
 36
0.0
 17
0.0
 27
1.0
 37
0.0
 76
     0
330
1F
331
29
  0
MLINESTYLE
  5
18
102
{ACAD_REACTORS
330
17
102
}
330
17
100
AcDbMlineStyle
  2
Standard
 70
     0
  3

 62
   256
 51
90.0
 52
90.0
 71
     2
 49
0.5
 62
   256
  6
BYLAYER
 49
-0.5
 62
   256
  6
BYLAYER
  0
ACDBPLACEHOLDER
  5
F
102
{ACAD_REACTORS
330
E
102
}
330
E
  0
SCALE
  5
48
102
{ACAD_REACTORS
330
47
102
}
330
47
100
AcDbScale
 70
     0
300
1:1
140
1.0
141
1.0
290
     1
  0
SCALE
  5
49
102
{ACAD_REACTORS
330
47
102
}
330
47
100
AcDbScale
 70
     0
300
1:2
140
1.0
141
2.0
290
     0
  0
SCALE
  5
4A
102
{ACAD_REACTORS
330
47
102
}
330
47
100
AcDbScale
 70
     0
300
1:4
140
1.0
141
4.0
290
     0
  0
SCALE
  5
4B
102
{ACAD_REACTORS
330
47
102
}
330
47
100
AcDbScale
 70
     0
300
1:5
140
1.0
141
5.0
290
     0
  0
SCALE
  5
4C
102
{ACAD_REACTORS
330
47
102
}
330
47
100
AcDbScale
 70
     0
300
1:8
140
1.0
141
8.0
290
     0
  0
SCALE
  5
4D
102
{ACAD_REACTORS
330
47
102
}
330
47
100
AcDbScale
 70
     0
300
1:10
140
1.0
141
10.0
290
     0
  0
SCALE
  5
4E
102
{ACAD_REACTORS
330
47
102
}
330
47
100
AcDbScale
 70
     0
300
1:16
140
1.0
141
16.0
290
     0
  0
SCALE
  5
4F
102
{ACAD_REACTORS
330
47
102
}
330
47
100
AcDbScale
 70
     0
300
1:20
140
1.0
141
20.0
290
     0
  0
SCALE
  5
50
102
{ACAD_REACTORS
330
47
102
}
330
47
100
AcDbScale
 70
     0
300
1:30
140
1.0
141
30.0
290
     0
  0
SCALE
  5
51
102
{ACAD_REACTORS
330
47
102
}
330
47
100
AcDbScale
 70
     0
300
1:40
140
1.0
141
40.0
290
     0
  0
SCALE
  5
52
102
{ACAD_REACTORS
330
47
102
}
330
47
100
AcDbScale
 70
     0
300
1:50
140
1.0
141
50.0
290
     0
  0
SCALE
  5
53
102
{ACAD_REACTORS
330
47
102
}
330
47
100
AcDbScale
 70
     0
300
1:100
140
1.0
141
100.0
290
     0
  0
SCALE
  5
54
102
{ACAD_REACTORS
330
47
102
}
330
47
100
AcDbScale
 70
     0
300
2:1
140
2.0
141
1.0
290
     0
  0
SCALE
  5
55
102
{ACAD_REACTORS
330
47
102
}
330
47
100
AcDbScale
 70
     0
300
4:1
140
4.0
141
1.0
290
     0
  0
SCALE
  5
56
102
{ACAD_REACTORS
330
47
102
}
330
47
100
AcDbScale
 70
     0
300
8:1
140
8.0
141
1.0
290
     0
  0
SCALE
  5
57
102
{ACAD_REACTORS
330
47
102
}
330
47
100
AcDbScale
 70
     0
300
10:1
140
10.0
141
1.0
290
     0
  0
SCALE
  5
58
102
{ACAD_REACTORS
330
47
102
}
330
47
100
AcDbScale
 70
     0
300
100:1
140
100.0
141
1.0
290
     0
  0
SCALE
  5
59
102
{ACAD_REACTORS
330
47
102
}
330
47
100
AcDbScale
 70
     0
300
1/128" = 1'-0"
140
0.0078125
141
12.0
290
     0
  0
SCALE
  5
5A
102
{ACAD_REACTORS
330
47
102
}
330
47
100
AcDbScale
 70
     0
300
1/64" = 1'-0"
140
0.015625
141
12.0
290
     0
  0
SCALE
  5
5B
102
{ACAD_REACTORS
330
47
102
}
330
47
100
AcDbScale
 70
     0
300
1/32" = 1'-0"
140
0.03125
141
12.0
290
     0
  0
SCALE
  5
5C
102
{ACAD_REACTORS
330
47
102
}
330
47
100
AcDbScale
 70
     0
300
1/16" = 1'-0"
140
0.0625
141
12.0
290
     0
  0
SCALE
  5
5D
102
{ACAD_REACTORS
330
47
102
}
330
47
100
AcDbScale
 70
     0
300
3/32" = 1'-0"
140
0.09375
141
12.0
290
     0
  0
SCALE
  5
5E
102
{ACAD_REACTORS
330
47
102
}
330
47
100
AcDbScale
 70
     0
300
1/8" = 1'-0"
140
0.125
141
12.0
290
     0
  0
SCALE
  5
5F
102
{ACAD_REACTORS
330
47
102
}
330
47
100
AcDbScale
 70
     0
300
3/16" = 1'-0"
140
0.1875
141
12.0
290
     0
  0
SCALE
  5
60
102
{ACAD_REACTORS
330
47
102
}
330
47
100
AcDbScale
 70
     0
300
1/4" = 1'-0"
140
0.25
141
12.0
290
     0
  0
SCALE
  5
61
102
{ACAD_REACTORS
330
47
102
}
330
47
100
AcDbScale
 70
     0
300
3/8" = 1'-0"
140
0.375
141
12.0
290
     0
  0
SCALE
  5
62
102
{ACAD_REACTORS
330
47
102
}
330
47
100
AcDbScale
 70
     0
300
1/2" = 1'-0"
140
0.5
141
12.0
290
     0
  0
SCALE
  5
63
102
{ACAD_REACTORS
330
47
102
}
330
47
100
AcDbScale
 70
     0
300
3/4" = 1'-0"
140
0.75
141
12.0
290
     0
  0
SCALE
  5
64
102
{ACAD_REACTORS
330
47
102
}
330
47
100
AcDbScale
 70
     0
300
1" = 1'-0"
140
1.0
141
12.0
290
     0
  0
SCALE
  5
65
102
{ACAD_REACTORS
330
47
102
}
330
47
100
AcDbScale
 70
     0
300
1-1/2" = 1'-0"
140
1.5
141
12.0
290
     0
  0
SCALE
  5
66
102
{ACAD_REACTORS
330
47
102
}
330
47
100
AcDbScale
 70
     0
300
3" = 1'-0"
140
3.0
141
12.0
290
     0
  0
SCALE
  5
67
102
{ACAD_REACTORS
330
47
102
}
330
47
100
AcDbScale
 70
     0
300
6" = 1'-0"
140
6.0
141
12.0
290
     0
  0
SCALE
  5
68
102
{ACAD_REACTORS
330
47
102
}
330
47
100
AcDbScale
 70
     0
300
1'-0" = 1'-0"
140
12.0
141
12.0
290
     0
  0
ENDSEC
  0
EOF
