  0
SECTION
  2
HEADER
  9
$ACADVER
  1
AC1015
  9
$ACADMAINTVER
 70
     6
  9
$DWGCODEPAGE
  3
ANSI_950
  9
$INSBASE
 10
0.0
 20
0.0
 30
0.0
  9
$EXTMIN
 10
0.0
 20
0.0
 30
0.0
  9
$EXTMAX
 10
84.8571428571
 20
60.0
 30
0.0
  9
$LIMMIN
 10
0.0
 20
0.0
  9
$LIMMAX
 10
84.8571428571
 20
60.0
  9
$ORTHOMODE
 70
     0
  9
$REGENMODE
 70
     1
  9
$FILLMODE
 70
     1
  9
$QTEXTMODE
 70
     0
  9
$MIRRTEXT
 70
     1
  9
$LTSCALE
 40
0.2857142857
  9
$ATTMODE
 70
     1
  9
$TEXTSIZE
 40
0.7142857143
  9
$TRACEWID
 40
1.0
  9
$TEXTSTYLE
  7
STANDARD
  9
$CLAYER
  8
0
  9
$CELTYPE
  6
ByLayer
  9
$CECOLOR
 62
   256
  9
$CELTSCALE
 40
1.0
  9
$DISPSILH
 70
     0
  9
$DIMSCALE
 40
1.0
  9
$DIMASZ
 40
0.5714285714
  9
$DIMEXO
 40
0.2857142857
  9
$DIMDLI
 40
3.75
  9
$DIMRND
 40
0.0
  9
$DIMDLE
 40
0.0
  9
$DIMEXE
 40
0.2857142857
  9
$DIMTP
 40
0.0
  9
$DIMTM
 40
0.0
  9
$DIMTXT
 40
0.7142857143
  9
$DIMCEN
 40
2.5
  9
$DIMTSZ
 40
0.0
  9
$DIMTOL
 70
     0
  9
$DIMLIM
 70
     0
  9
$DIMTIH
 70
     1
  9
$DIMTOH
 70
     1
  9
$DIMSE1
 70
     0
  9
$DIMSE2
 70
     0
  9
$DIMTAD
 70
     1
  9
$DIMZIN
 70
     0
  9
$DIMBLK
  1

  9
$DIMASO
 70
     1
  9
$DIMSHO
 70
     1
  9
$DIMPOST
  1

  9
$DIMAPOST
  1

  9
$DIMALT
 70
     0
  9
$DIMALTD
 70
     3
  9
$DIMALTF
 40
0.0393700787
  9
$DIMLFAC
 40
1.0
  9
$DIMTOFL
 70
     1
  9
$DIMTVP
 40
0.0
  9
$DIMTIX
 70
     0
  9
$DIMSOXD
 70
     0
  9
$DIMSAH
 70
     0
  9
$DIMBLK1
  1

  9
$DIMBLK2
  1

  9
$DIMSTYLE
  2
ISO-25
  9
$DIMCLRD
 70
     0
  9
$DIMCLRE
 70
     0
  9
$DIMCLRT
 70
     0
  9
$DIMTFAC
 40
1.0
  9
$DIMGAP
 40
0.2857142857
  9
$DIMJUST
 70
     0
  9
$DIMSD1
 70
     0
  9
$DIMSD2
 70
     0
  9
$DIMTOLJ
 70
     0
  9
$DIMTZIN
 70
     0
  9
$DIMALTZ
 70
     0
  9
$DIMALTTZ
 70
     0
  9
$DIMUPT
 70
     0
  9
$DIMDEC
 70
     2
  9
$DIMTDEC
 70
     2
  9
$DIMALTU
 70
     2
  9
$DIMALTTD
 70
     3
  9
$DIMTXSTY
  7
STANDARD
  9
$DIMAUNIT
 70
     0
  9
$DIMADEC
 70
     1
  9
$DIMALTRND
 40
0.0
  9
$DIMAZIN
 70
     0
  9
$DIMDSEP
 70
    44
  9
$DIMATFIT
 70
     3
  9
$DIMFRAC
 70
     0
  9
$DIMLDRBLK
  1

  9
$DIMLUNIT
 70
     2
  9
$DIMLWD
 70
    -2
  9
$DIMLWE
 70
    -2
  9
$DIMTMOVE
 70
     0
  9
$LUNITS
 70
     2
  9
$LUPREC
 70
     2
  9
$SKETCHINC
 40
1.0
  9
$FILLETRAD
 40
10.0
  9
$AUNITS
 70
     0
  9
$AUPREC
 70
     1
  9
$MENU
  1
.
  9
$ELEVATION
 40
0.0
  9
$PELEVATION
 40
0.0
  9
$THICKNESS
 40
0.0
  9
$LIMCHECK
 70
     0
  9
$CHAMFERA
 40
0.0
  9
$CHAMFERB
 40
0.0
  9
$CHAMFERC
 40
0.0
  9
$CHAMFERD
 40
0.0
  9
$SKPOLY
 70
     0
  9
$TDCREATE
 40
2457505.366536412
  9
$TDUCREATE
 40
2457505.033203079
  9
$TDUPDATE
 40
2457505.366540752
  9
$TDUUPDATE
 40
2457505.033207419
  9
$TDINDWG
 40
0.0000000116
  9
$TDUSRTIMER
 40
0.0000000116
  9
$USRTIMER
 70
     1
  9
$ANGBASE
 50
0.0
  9
$ANGDIR
 70
     0
  9
$PDMODE
 70
     0
  9
$PDSIZE
 40
-1.0
  9
$PLINEWID
 40
0.0
  9
$SPLFRAME
 70
     0
  9
$SPLINETYPE
 70
     6
  9
$SPLINESEGS
 70
     8
  9
$HANDSEED
  5
241
  9
$SURFTAB1
 70
     6
  9
$SURFTAB2
 70
     6
  9
$SURFTYPE
 70
     6
  9
$SURFU
 70
     6
  9
$SURFV
 70
     6
  9
$UCSBASE
  2

  9
$UCSNAME
  2

  9
$UCSORG
 10
0.0
 20
0.0
 30
0.0
  9
$UCSXDIR
 10
1.0
 20
0.0
 30
0.0
  9
$UCSYDIR
 10
0.0
 20
1.0
 30
0.0
  9
$UCSORTHOREF
  2

  9
$UCSORTHOVIEW
 70
     0
  9
$UCSORGTOP
 10
0.0
 20
0.0
 30
0.0
  9
$UCSORGBOTTOM
 10
0.0
 20
0.0
 30
0.0
  9
$UCSORGLEFT
 10
0.0
 20
0.0
 30
0.0
  9
$UCSORGRIGHT
 10
0.0
 20
0.0
 30
0.0
  9
$UCSORGFRONT
 10
0.0
 20
0.0
 30
0.0
  9
$UCSORGBACK
 10
0.0
 20
0.0
 30
0.0
  9
$PUCSBASE
  2

  9
$PUCSNAME
  2

  9
$PUCSORG
 10
0.0
 20
0.0
 30
0.0
  9
$PUCSXDIR
 10
1.0
 20
0.0
 30
0.0
  9
$PUCSYDIR
 10
0.0
 20
1.0
 30
0.0
  9
$PUCSORTHOREF
  2

  9
$PUCSORTHOVIEW
 70
     0
  9
$PUCSORGTOP
 10
0.0
 20
0.0
 30
0.0
  9
$PUCSORGBOTTOM
 10
0.0
 20
0.0
 30
0.0
  9
$PUCSORGLEFT
 10
0.0
 20
0.0
 30
0.0
  9
$PUCSORGRIGHT
 10
0.0
 20
0.0
 30
0.0
  9
$PUCSORGFRONT
 10
0.0
 20
0.0
 30
0.0
  9
$PUCSORGBACK
 10
0.0
 20
0.0
 30
0.0
  9
$USERI1
 70
     0
  9
$USERI2
 70
     0
  9
$USERI3
 70
     0
  9
$USERI4
 70
     0
  9
$USERI5
 70
     0
  9
$USERR1
 40
0.0
  9
$USERR2
 40
0.0
  9
$USERR3
 40
0.0
  9
$USERR4
 40
0.0
  9
$USERR5
 40
0.0
  9
$WORLDVIEW
 70
     1
  9
$SHADEDGE
 70
     3
  9
$SHADEDIF
 70
    70
  9
$TILEMODE
 70
     1
  9
$MAXACTVP
 70
    64
  9
$PINSBASE
 10
0.0
 20
0.0
 30
0.0
  9
$PLIMCHECK
 70
     0
  9
$PEXTMIN
 10
1.0000000000E+20
 20
1.0000000000E+20
 30
1.0000000000E+20
  9
$PEXTMAX
 10
-1.0000000000E+20
 20
-1.0000000000E+20
 30
-1.0000000000E+20
  9
$PLIMMIN
 10
0.0
 20
0.0
  9
$PLIMMAX
 10
420.0
 20
297.0
  9
$UNITMODE
 70
     0
  9
$VISRETAIN
 70
     1
  9
$PLINEGEN
 70
     0
  9
$PSLTSCALE
 70
     1
  9
$TREEDEPTH
 70
  3020
  9
$CMLSTYLE
  2
Standard
  9
$CMLJUST
 70
     0
  9
$CMLSCALE
 40
20.0
  9
$PROXYGRAPHICS
 70
     1
  9
$MEASUREMENT
 70
     1
  9
$CELWEIGHT
370
    -1
  9
$ENDCAPS
280
     0
  9
$JOINSTYLE
280
     0
  9
$LWDISPLAY
290
     1
  9
$INSUNITS
 70
     4
  9
$HYPERLINKBASE
  1

  9
$STYLESHEET
  1

  9
$XEDIT
290
     1
  9
$CEPSNTYPE
380
     0
  9
$PSTYLEMODE
290
     1
  9
$FINGERPRINTGUID
  2
{BA2BDC90-8FDE-44E9-92ED-E0415C309559}
  9
$VERSIONGUID
  2
{FAEB1C32-E019-11D5-929B-00C0DF256EC4}
  9
$EXTNAMES
290
     1
  9
$PSVPSCALE
 40
0.0
  9
$OLESTARTUP
290
     0
  0
ENDSEC
  0
SECTION
  2
CLASSES
  0
CLASS
  1
ACDBDICTIONARYWDFLT
  2
AcDbDictionaryWithDefault
  3
ObjectDBX Classes
 90
        0
280
     0
281
     0
  0
CLASS
  1
VISUALSTYLE
  2
AcDbVisualStyle
  3
ObjectDBX Classes
 90
     4095
280
     0
281
     0
  0
CLASS
  1
MATERIAL
  2
AcDbMaterial
  3
ObjectDBX Classes
 90
     1153
280
     0
281
     0
  0
CLASS
  1
SCALE
  2
AcDbScale
  3
ObjectDBX Classes
 90
     1153
280
     0
281
     0
  0
CLASS
  1
TABLESTYLE
  2
AcDbTableStyle
  3
ObjectDBX Classes
 90
     4095
280
     0
281
     0
  0
CLASS
  1
MLEADERSTYLE
  2
AcDbMLeaderStyle
  3
ACDB_MLEADERSTYLE_CLASS
 90
     4095
280
     0
281
     0
  0
CLASS
  1
SUN
  2
AcDbSun
  3
SCENEOE
 90
     1153
280
     0
281
     0
  0
CLASS
  1
ACDBPLACEHOLDER
  2
AcDbPlaceHolder
  3
ObjectDBX Classes
 90
        0
280
     0
281
     0
  0
CLASS
  1
LAYOUT
  2
AcDbLayout
  3
ObjectDBX Classes
 90
        0
280
     0
281
     0
  0
ENDSEC
  0
SECTION
  2
TABLES
  0
TABLE
  2
VPORT
  5
8
330
0
100
AcDbSymbolTable
 70
     1
  0
VPORT
  5
29
330
8
100
AcDbSymbolTableRecord
100
AcDbViewportTableRecord
  2
*Active
 70
     0
 10
0.0
 20
0.0
 11
1.0
 21
1.0
 12
42.4285714286
 22
30.0
 13
0.0
 23
0.0
 14
10.0
 24
10.0
 15
10.0
 25
10.0
 16
0.0
 26
0.0
 36
1.0
 17
0.0
 27
0.0
 37
0.0
 40
60.0
 41
1.4142857143
 42
50.0
 43
0.0
 44
0.0
 50
0.0
 51
0.0
 71
     0
 72
  2000
 73
     1
 74
     3
 75
     0
 76
     0
 77
     0
 78
     0
281
     0
 65
     1
110
0.0
120
0.0
130
0.0
111
1.0
121
0.0
131
0.0
112
0.0
122
1.0
132
0.0
 79
     0
146
0.0
  0
ENDTAB
  0
TABLE
  2
LTYPE
  5
5
330
0
100
AcDbSymbolTable
 70
     6
  0
LTYPE
  5
14
330
5
100
AcDbSymbolTableRecord
100
AcDbLinetypeTableRecord
  2
ByBlock
 70
     0
  3

 72
    65
 73
     0
 40
0.0
  0
LTYPE
  5
15
330
5
100
AcDbSymbolTableRecord
100
AcDbLinetypeTableRecord
  2
ByLayer
 70
     0
  3

 72
    65
 73
     0
 40
0.0
  0
LTYPE
  5
16
330
5
100
AcDbSymbolTableRecord
100
AcDbLinetypeTableRecord
  2
Continuous
 70
     0
  3
Solid line
 72
    65
 73
     0
 40
0.0
  0
LTYPE
  5
6E
330
5
100
AcDbSymbolTableRecord
100
AcDbLinetypeTableRecord
  2
HIDDEN
 70
     0
  3
Hidden __ __ __ __ __ __ __ __ __ __ __ __ __ __
 72
    65
 73
     2
 40
1.905
 49
1.27
 74
     0
 49
-0.635
 74
     0
  0
LTYPE
  5
6F
330
5
100
AcDbSymbolTableRecord
100
AcDbLinetypeTableRecord
  2
PHANTOM
 70
     0
  3
Phantom ______  __  __  ______  __  __  ______
 72
    65
 73
     6
 40
12.7
 49
6.35
 74
     0
 49
-1.27
 74
     0
 49
1.27
 74
     0
 49
-1.27
 74
     0
 49
1.27
 74
     0
 49
-1.27
 74
     0
  0
LTYPE
  5
70
330
5
100
AcDbSymbolTableRecord
100
AcDbLinetypeTableRecord
  2
CENTER
 70
     0
  3
Center ____ _ ____ _ ____ _ ____ _ ____ _ ____
 72
    65
 73
     4
 40
10.16
 49
6.35
 74
     0
 49
-1.27
 74
     0
 49
1.27
 74
     0
 49
-1.27
 74
     0
  0
LTYPE
  5
71
330
5
100
AcDbSymbolTableRecord
100
AcDbLinetypeTableRecord
  2
CENTERX2
 70
     0
  3
Center (2x) ________  __  ________  __  _____
 72
    65
 73
     4
 40
20.32
 49
12.7
 74
     0
 49
-2.54
 74
     0
 49
2.54
 74
     0
 49
-2.54
 74
     0
  0
LTYPE
  5
72
330
5
100
AcDbSymbolTableRecord
100
AcDbLinetypeTableRecord
  2
DOT2
 70
     0
  3
Dot (.5x) ........................................
 72
    65
 73
     2
 40
0.635
 49
0.0
 74
     0
 49
-0.635
 74
     0
  0
ENDTAB
  0
TABLE
  2
LAYER
  5
2
330
0
100
AcDbSymbolTable
 70
     3
  0
LAYER
  5
10
330
2
100
AcDbSymbolTableRecord
100
AcDbLayerTableRecord
  2
0
 70
     0
 62
     7
  6
Continuous
370
    -3
390
F
  0
LAYER
  5
73
330
2
100
AcDbSymbolTableRecord
100
AcDbLayerTableRecord
  2
SLD-0
 70
     0
 62
     7
  6
Continuous
370
    15
390
F
  0
LAYER
  5
74
330
2
100
AcDbSymbolTableRecord
100
AcDbLayerTableRecord
  2
工作區域參考線
 70
     0
 62
   179
  6
Continuous
370
    -3
390
F
  0
ENDTAB
  0
TABLE
  2
STYLE
  5
3
330
0
100
AcDbSymbolTable
 70
     4
  0
STYLE
  5
11
330
3
100
AcDbSymbolTableRecord
100
AcDbTextStyleTableRecord
  2
STANDARD
 70
     0
 40
0.0
 41
1.0
 50
0.0
 71
     0
 42
0.7142857143
  3
ARIAL.TTF
  4

1001
ACAD
1000
ARIAL
1071
       34
  0
STYLE
  5
C9
330
3
100
AcDbSymbolTableRecord
100
AcDbTextStyleTableRecord
  2
SLDTEXTSTYLE0
 70
     0
 40
0.0
 41
0.948
 50
0.0
 71
     0
 42
0.7142857143
  3
ARIAL.TTF
  4

1001
ACAD
1000
Arial
1071
      290
  0
STYLE
  5
D2
330
3
100
AcDbSymbolTableRecord
100
AcDbTextStyleTableRecord
  2
SLDTEXTSTYLE1
 70
     0
 40
0.0
 41
1.0
 50
0.0
 71
     0
 42
0.7142857143
  3
ARIALBD.TTF
  4

1001
ACAD
1000
Arial CE
1071
 33554722
  0
STYLE
  5
105
330
3
100
AcDbSymbolTableRecord
100
AcDbTextStyleTableRecord
  2
SLDTEXTSTYLE2
 70
     0
 40
0.0
 41
1.0
 50
0.0
 71
     0
 42
0.7142857143
  3
ARIAL.TTF
  4

1001
ACAD
1000
Arial CE
1071
      290
  0
ENDTAB
  0
TABLE
  2
VIEW
  5
6
330
0
100
AcDbSymbolTable
 70
     0
  0
ENDTAB
  0
TABLE
  2
UCS
  5
7
330
0
100
AcDbSymbolTable
 70
     0
  0
ENDTAB
  0
TABLE
  2
APPID
  5
9
330
0
100
AcDbSymbolTable
 70
     1
  0
APPID
  5
12
330
9
100
AcDbSymbolTableRecord
100
AcDbRegAppTableRecord
  2
ACAD
 70
     0
  0
ENDTAB
  0
TABLE
  2
DIMSTYLE
  5
A
330
0
100
AcDbSymbolTable
 70
     3
100
AcDbDimStyleTable
  0
DIMSTYLE
105
27
330
A
100
AcDbSymbolTableRecord
100
AcDbDimStyleTableRecord
  2
ISO-25
 70
     0
 41
2.5
 42
0.625
 43
3.75
 44
1.25
 73
     0
 74
     0
 77
     1
 78
     8
140
2.5
141
2.5
143
0.0393700787
147
0.625
171
     3
172
     1
178
     0
271
     2
272
     2
274
     3
278
    44
283
     0
284
     8
340
11
  0
DIMSTYLE
105
141
102
{ACAD_REACTORS
330
140
330
1BA
330
1C4
102
}
330
A
100
AcDbSymbolTableRecord
100
AcDbDimStyleTableRecord
  2
SLDDIMSTYLE0
 70
     0
 41
0.5714285714
 44
0.0
 45
0.000000001
 73
     0
 74
     0
 77
     1
 78
    12
 79
     3
140
0.7142857143
147
0.1785714286
173
     1
178
     0
271
     2
272
     2
276
     2
284
    12
340
C9
  0
DIMSTYLE
105
14C
102
{ACAD_REACTORS
330
14B
102
}
330
A
100
AcDbSymbolTableRecord
100
AcDbDimStyleTableRecord
  2
SLDDIMSTYLE1
 70
     0
 41
0.5714285714
 44
0.0
 45
0.000000001
 78
    12
 79
     3
140
0.7142857143
141
0.0
147
0.1785714286
173
     1
178
     0
271
     2
272
     2
276
     2
284
    12
340
C9
  0
ENDTAB
  0
TABLE
  2
BLOCK_RECORD
  5
1
330
0
100
AcDbSymbolTable
 70
     9
  0
BLOCK_RECORD
  5
1F
330
1
100
AcDbSymbolTableRecord
100
AcDbBlockTableRecord
  2
*Model_Space
340
22
  0
BLOCK_RECORD
  5
1B
330
1
100
AcDbSymbolTableRecord
100
AcDbBlockTableRecord
  2
*Paper_Space
340
1E
  0
BLOCK_RECORD
  5
23
330
1
100
AcDbSymbolTableRecord
100
AcDbBlockTableRecord
  2
*Paper_Space0
340
26
  0
BLOCK_RECORD
  5
75
330
1
100
AcDbSymbolTableRecord
100
AcDbBlockTableRecord
  2
圖塊6
340
0
102
{BLKREFS
331
C8
102
}
  0
BLOCK_RECORD
  5
CB
330
1
100
AcDbSymbolTableRecord
100
AcDbBlockTableRecord
  2
SW_NOTE_0
340
0
102
{BLKREFS
331
D1
102
}
  0
BLOCK_RECORD
  5
102
330
1
100
AcDbSymbolTableRecord
100
AcDbBlockTableRecord
  2
SW_NOTE_1
340
0
102
{BLKREFS
331
108
102
}
  0
BLOCK_RECORD
  5
142
330
1
100
AcDbSymbolTableRecord
100
AcDbBlockTableRecord
  2
_D
340
0
  0
BLOCK_RECORD
  5
14D
330
1
100
AcDbSymbolTableRecord
100
AcDbBlockTableRecord
  2
_D_1
340
0
  0
BLOCK_RECORD
  5
155
330
1
100
AcDbSymbolTableRecord
100
AcDbBlockTableRecord
  2
SW_CENTERMARKSYMBOL_0
340
0
102
{BLKREFS
331
160
102
}
  0
BLOCK_RECORD
  5
1BB
330
1
100
AcDbSymbolTableRecord
100
AcDbBlockTableRecord
  2
_D_2
340
0
  0
BLOCK_RECORD
  5
1C5
330
1
100
AcDbSymbolTableRecord
100
AcDbBlockTableRecord
  2
_D_3
340
0
  0
ENDTAB
  0
ENDSEC
  0
SECTION
  2
BLOCKS
  0
BLOCK
  5
20
330
1F
100
AcDbEntity
  8
0
100
AcDbBlockBegin
  2
*Model_Space
 70
     0
 10
0.0
 20
0.0
 30
0.0
  3
*Model_Space
  1

  0
ENDBLK
  5
21
330
1F
100
AcDbEntity
  8
0
100
AcDbBlockEnd
  0
BLOCK
  5
1C
330
1B
100
AcDbEntity
 67
     1
  8
0
100
AcDbBlockBegin
  2
*Paper_Space
 70
     0
 10
0.0
 20
0.0
 30
0.0
  3
*Paper_Space
  1

  0
ENDBLK
  5
1D
330
1B
100
AcDbEntity
 67
     1
  8
0
100
AcDbBlockEnd
  0
BLOCK
  5
24
330
23
100
AcDbEntity
  8
0
100
AcDbBlockBegin
  2
*Paper_Space0
 70
     0
 10
0.0
 20
0.0
 30
0.0
  3
*Paper_Space0
  1

  0
ENDBLK
  5
25
330
23
100
AcDbEntity
  8
0
100
AcDbBlockEnd
  0
BLOCK
  5
76
330
75
100
AcDbEntity
  8
0
100
AcDbBlockBegin
  2
圖塊6
 70
     0
 10
0.0
 20
0.0
 30
0.0
  3
圖塊6
  1

  0
ARC
  5
78
330
75
100
AcDbEntity
  8
0
 62
     7
370
    30
100
AcDbCircle
 10
0.4371869811
 20
1.7434480826
 30
0.0
 40
0.4371869811267632
100
AcDbArc
 50
130.2115225915
 51
228.588904108
  0
ARC
  5
79
330
75
100
AcDbEntity
  8
0
 62
     7
370
    30
100
AcDbCircle
 10
1.3859753137
 20
1.7128415547
 30
0.0
 40
0.7363815505193204
100
AcDbArc
 50
140.4331765613
 51
251.0865666567
  0
ARC
  5
7A
330
75
100
AcDbEntity
  8
0
 62
     7
370
    30
100
AcDbCircle
 10
1.4790011995
 20
1.8033588489
 30
0.0
 40
0.8541819022199607
100
AcDbArc
 50
247.1485306747
 51
309.6030773927
  0
LINE
  5
7B
330
75
100
AcDbEntity
  8
0
 62
     7
370
    30
100
AcDbLine
 10
0.5282564934
 20
2.4377664567
 30
0.0
 11
0.1549341349
 21
2.0773130062
 31
0.0
  0
LINE
  5
7C
330
75
100
AcDbEntity
  8
0
 62
     7
370
    30
100
AcDbLine
 10
0.14800654
 20
1.4155652851
 30
0.0
 11
1.2934929143
 21
0.4199641878
 31
0.0
  0
LINE
  5
7D
330
75
100
AcDbEntity
  8
0
 62
     7
370
    30
100
AcDbLine
 10
1.2934929143
 20
0.4199641878
 30
0.0
 11
1.1131923656
 21
0.2439926477
 31
0.0
  0
LINE
  5
7E
330
75
100
AcDbEntity
  8
0
 62
     7
370
    30
100
AcDbLine
 10
1.1131923656
 20
0.2439926477
 30
0.0
 11
1.3965864698
 21
0.0
 31
0.0
  0
LINE
  5
7F
330
75
100
AcDbEntity
  8
0
 62
     7
370
    30
100
AcDbLine
 10
2.3136334511
 20
0.8904508473
 30
0.0
 11
2.0235125849
 21
1.1452296266
 31
0.0
  0
LINE
  5
80
330
75
100
AcDbEntity
  8
0
 62
     7
370
    30
100
AcDbLine
 10
0.8183118784
 20
2.1819001993
 30
0.0
 11
0.5282564934
 21
2.4377664567
 31
0.0
  0
LINE
  5
81
330
75
100
AcDbEntity
  8
0
 62
     7
370
    30
100
AcDbLine
 10
1.3965864698
 20
0.0
 30
0.0
 11
2.3136334511
 21
0.8904508473
 31
0.0
  0
ENDBLK
  5
77
330
75
100
AcDbEntity
  8
0
100
AcDbBlockEnd
  0
BLOCK
  5
CC
330
CB
100
AcDbEntity
  8
0
100
AcDbBlockBegin
  2
SW_NOTE_0
 70
     0
 10
0.0
 20
0.0
 30
0.0
  3
SW_NOTE_0
  1

  0
MTEXT
  5
CE
330
CB
100
AcDbEntity
  8
0
  6
Continuous
 62
     0
370
     0
100
AcDbMText
 10
0.0
 20
0.9744738271
 30
0.0
 40
0.755952381
 41
0.0
 71
     1
 72
     1
  1
PROPRIETARY AND CONFIDENTIAL
  7
SLDTEXTSTYLE0
 73
     1
 44
1.0
  0
MTEXT
  5
CF
330
CB
100
AcDbEntity
  8
0
  6
Continuous
 62
     0
370
     0
100
AcDbMText
 10
0.0
 20
-0.0234238514
 30
0.0
 40
0.5291666667
 41
0.0
 71
     1
 72
     1
  1
THE INFORMATION CONTAINED IN THIS DRAWING IS THE SOLE PROPERTY OF UNICE E-O SERVICES INC. ANY REPRODUCTION IN PART OR AS A WHOLE WITHOUT THE WRITTEN PERMISSION OF UNICE E-O SERVICES INC IS 
  7
SLDTEXTSTYLE0
 73
     1
 44
1.0
  0
MTEXT
  5
D0
330
CB
100
AcDbEntity
  8
0
  6
Continuous
 62
     0
370
     0
100
AcDbMText
 10
0.0
 20
-0.7289793985
 30
0.0
 40
0.5291666667
 41
0.0
 71
     1
 72
     1
  1
PROHIBITED.
  7
SLDTEXTSTYLE0
 73
     1
 44
1.0
  0
ENDBLK
  5
CD
330
CB
100
AcDbEntity
  8
0
100
AcDbBlockEnd
  0
BLOCK
  5
103
330
102
100
AcDbEntity
  8
0
100
AcDbBlockBegin
  2
SW_NOTE_1
 70
     0
 10
0.0
 20
0.0
 30
0.0
  3
SW_NOTE_1
  1

  0
MTEXT
  5
106
330
102
100
AcDbEntity
  8
SLD-0
 62
     0
100
AcDbMText
 10
0.0
 20
0.682131679
 30
0.0
 40
0.5291666667
 41
0.0
 71
     1
 72
     1
  1
No.5, Andong Rd., Chung Li District,
  7
SLDTEXTSTYLE2
 73
     1
 44
1.0
  0
MTEXT
  5
107
330
102
100
AcDbEntity
  8
SLD-0
 62
     0
100
AcDbMText
 10
0.0
 20
-0.0234238681
 30
0.0
 40
0.5291666667
 41
0.0
 71
     1
 72
     1
  1
Taoyuan City 32063, Taiwan, R.O.C.
  7
SLDTEXTSTYLE2
 73
     1
 44
1.0
  0
ENDBLK
  5
104
330
102
100
AcDbEntity
  8
0
100
AcDbBlockEnd
  0
BLOCK
  5
143
330
142
100
AcDbEntity
  8
0
100
AcDbBlockBegin
  2
_D
 70
     0
 10
0.0
 20
0.0
 30
0.0
  3
_D
  1

  0
SOLID
  5
145
330
142
100
AcDbEntity
  8
SLD-0
 62
     7
100
AcDbTrace
 10
51.2440824529
 20
24.7098149844
 30
0.0
 11
50.8965092098
 21
24.2506576108
 31
0.0
 12
51.0202271246
 22
24.1792290394
 32
0.0
 13
51.0202271246
 23
24.1792290394
 33
0.0
  0
SOLID
  5
146
330
142
100
AcDbEntity
  8
SLD-0
 62
     7
100
AcDbTrace
 10
50.2440824529
 20
22.9777641768
 30
0.0
 11
50.5916556961
 21
23.4369215504
 31
0.0
 12
50.4679377812
 22
23.5083501218
 32
0.0
 13
50.4679377812
 23
23.5083501218
 33
0.0
  0
LINE
  5
147
330
142
100
AcDbEntity
  8
SLD-0
 62
     7
100
AcDbLine
 10
42.0626931526
 20
30.0106925685
 30
0.0
 11
51.4915182826
 21
24.5669578415
 31
0.0
  0
LINE
  5
148
330
142
100
AcDbEntity
  8
SLD-0
 62
     7
100
AcDbLine
 10
41.0626931526
 20
28.2786417609
 30
0.0
 11
50.4915182826
 21
22.834907034
 31
0.0
  0
LINE
  5
149
330
142
100
AcDbEntity
  8
SLD-0
 62
     7
100
AcDbLine
 10
51.2440824529
 20
24.7098149844
 30
0.0
 11
50.2440824529
 21
22.9777641768
 31
0.0
  0
MTEXT
  5
14A
330
142
100
AcDbEntity
  8
SLD-0
 62
     7
100
AcDbMText
 10
49.8102699016
 20
24.0679040397
 30
0.0
 40
0.7142857143
 41
0.0
 71
     1
 72
     1
  1
2
  7
SLDTEXTSTYLE0
 11
0.4999999999999933
 21
0.8660254037844425
 31
0.0
 73
     1
 44
1.0
  0
ENDBLK
  5
144
330
142
100
AcDbEntity
  8
0
100
AcDbBlockEnd
  0
BLOCK
  5
14E
330
14D
100
AcDbEntity
  8
0
100
AcDbBlockBegin
  2
_D_1
 70
     0
 10
0.0
 20
0.0
 30
0.0
  3
_D_1
  1

  0
SOLID
  5
150
330
14D
100
AcDbEntity
  8
SLD-0
 62
     7
100
AcDbTrace
 10
44.7346483659
 20
35.9706012009
 30
0.0
 11
45.0941677002
 21
36.4204661821
 31
0.0
 12
44.9723695715
 22
36.4951212496
 32
0.0
 13
44.9723695715
 23
36.4951212496
 33
0.0
  0
LINE
  5
151
330
14D
100
AcDbEntity
  8
SLD-0
 62
     7
100
AcDbLine
 10
44.7346483659
 20
35.9706012009
 30
0.0
 11
46.0611589657
 21
38.1347745684
 31
0.0
  0
LINE
  5
152
330
14D
100
AcDbEntity
  8
SLD-0
 62
     7
100
AcDbLine
 10
46.0611589657
 20
38.1347745684
 30
0.0
 11
48.5509903387
 21
38.1347745684
 31
0.0
  0
MTEXT
  5
153
330
14D
100
AcDbEntity
  8
SLD-0
 62
     7
100
AcDbMText
 10
46.4183018228
 20
39.0555371732
 30
0.0
 40
0.7142857143
 41
0.0
 71
     1
 72
     1
  1
%%c
  7
SLDTEXTSTYLE0
 73
     1
 44
1.0
  0
MTEXT
  5
154
330
14D
100
AcDbEntity
  8
SLD-0
 62
     7
100
AcDbMText
 10
47.459720496
 20
39.057521306
 30
0.0
 40
0.7142857143
 41
0.0
 71
     1
 72
     1
  1
15
  7
SLDTEXTSTYLE0
 73
     1
 44
1.0
  0
ENDBLK
  5
14F
330
14D
100
AcDbEntity
  8
0
100
AcDbBlockEnd
  0
BLOCK
  5
156
330
155
100
AcDbEntity
  8
0
100
AcDbBlockBegin
  2
SW_CENTERMARKSYMBOL_0
 70
     0
 10
0.0
 20
0.0
 30
0.0
  3
SW_CENTERMARKSYMBOL_0
  1

  0
LINE
  5
158
330
155
100
AcDbEntity
  8
SLD-0
 62
     0
100
AcDbLine
 10
0.0
 20
0.0
 30
0.0
 11
0.0
 21
1.0
 31
0.0
  0
LINE
  5
159
330
155
100
AcDbEntity
  8
SLD-0
 62
     0
100
AcDbLine
 10
0.0
 20
0.0
 30
0.0
 11
-1.0
 21
0.0
 31
0.0
  0
LINE
  5
15A
330
155
100
AcDbEntity
  8
SLD-0
 62
     0
100
AcDbLine
 10
0.0
 20
0.0
 30
0.0
 11
0.0
 21
-1.0
 31
0.0
  0
LINE
  5
15B
330
155
100
AcDbEntity
  8
SLD-0
 62
     0
100
AcDbLine
 10
0.0
 20
0.0
 30
0.0
 11
1.0
 21
0.0
 31
0.0
  0
LINE
  5
15C
330
155
100
AcDbEntity
  8
SLD-0
 62
     0
100
AcDbLine
 10
0.0
 20
2.0
 30
0.0
 11
0.0
 21
8.5
 31
0.0
  0
LINE
  5
15D
330
155
100
AcDbEntity
  8
SLD-0
 62
     0
100
AcDbLine
 10
-2.0
 20
0.0
 30
0.0
 11
-8.5
 21
0.0
 31
0.0
  0
LINE
  5
15E
330
155
100
AcDbEntity
  8
SLD-0
 62
     0
100
AcDbLine
 10
0.0
 20
-2.0
 30
0.0
 11
0.0
 21
-8.5
 31
0.0
  0
LINE
  5
15F
330
155
100
AcDbEntity
  8
SLD-0
 62
     0
100
AcDbLine
 10
2.0
 20
0.0
 30
0.0
 11
8.5
 21
0.0
 31
0.0
  0
ENDBLK
  5
157
330
155
100
AcDbEntity
  8
0
100
AcDbBlockEnd
  0
BLOCK
  5
1BC
330
1BB
100
AcDbEntity
  8
0
100
AcDbBlockBegin
  2
_D_2
 70
     0
 10
0.0
 20
0.0
 30
0.0
  3
_D_2
  1

  0
SOLID
  5
1BE
330
1BB
100
AcDbEntity
  8
SLD-0
 62
     7
100
AcDbTrace
 10
15.7238228073
 20
18.8368518003
 30
0.0
 11
16.2952513788
 21
18.7654232289
 31
0.0
 12
16.2952513788
 22
18.9082803717
 32
0.0
 13
16.2952513788
 23
18.9082803717
 33
0.0
  0
SOLID
  5
1BF
330
1BB
100
AcDbEntity
  8
SLD-0
 62
     7
100
AcDbTrace
 10
23.7238228073
 20
18.8368518003
 30
0.0
 11
23.1523942359
 21
18.9082803717
 31
0.0
 12
23.1523942359
 22
18.7654232289
 32
0.0
 13
23.1523942359
 23
18.7654232289
 33
0.0
  0
LINE
  5
1C0
330
1BB
100
AcDbEntity
  8
SLD-0
 62
     7
100
AcDbLine
 10
15.7238228073
 20
22.7904851564
 30
0.0
 11
15.7238228073
 21
18.5511375146
 31
0.0
  0
LINE
  5
1C1
330
1BB
100
AcDbEntity
  8
SLD-0
 62
     7
100
AcDbLine
 10
23.7238228073
 20
22.7904851564
 30
0.0
 11
23.7238228073
 21
18.5511375146
 31
0.0
  0
LINE
  5
1C2
330
1BB
100
AcDbEntity
  8
SLD-0
 62
     7
100
AcDbLine
 10
15.7238228073
 20
18.8368518003
 30
0.0
 11
23.7238228073
 21
18.8368518003
 31
0.0
  0
MTEXT
  5
1C3
330
1BB
100
AcDbEntity
  8
SLD-0
 62
     7
100
AcDbMText
 10
19.4510053466
 20
19.7576144217
 30
0.0
 40
0.7142857143
 41
0.0
 71
     1
 72
     1
  1
8
  7
SLDTEXTSTYLE0
 73
     1
 44
1.0
  0
ENDBLK
  5
1BD
330
1BB
100
AcDbEntity
  8
0
100
AcDbBlockEnd
  0
BLOCK
  5
1C6
330
1C5
100
AcDbEntity
  8
0
100
AcDbBlockBegin
  2
_D_3
 70
     0
 10
0.0
 20
0.0
 30
0.0
  3
_D_3
  1

  0
SOLID
  5
1C8
330
1C5
100
AcDbEntity
  8
SLD-0
 62
     7
100
AcDbTrace
 10
15.7238228073
 20
15.7242815477
 30
0.0
 11
16.2952513788
 21
15.6528529763
 31
0.0
 12
16.2952513788
 22
15.7957101192
 32
0.0
 13
16.2952513788
 23
15.7957101192
 33
0.0
  0
SOLID
  5
1C9
330
1C5
100
AcDbEntity
  8
SLD-0
 62
     7
100
AcDbTrace
 10
26.2238228073
 20
15.7242815477
 30
0.0
 11
25.6523942359
 21
15.7957101192
 31
0.0
 12
25.6523942359
 22
15.6528529763
 32
0.0
 13
25.6523942359
 23
15.6528529763
 33
0.0
  0
LINE
  5
1CA
330
1C5
100
AcDbEntity
  8
SLD-0
 62
     7
100
AcDbLine
 10
15.7238228073
 20
22.7904851564
 30
0.0
 11
15.7238228073
 21
15.438567262
 31
0.0
  0
LINE
  5
1CB
330
1C5
100
AcDbEntity
  8
SLD-0
 62
     7
100
AcDbLine
 10
26.2238228073
 20
28.135784618
 30
0.0
 11
26.2238228073
 21
15.438567262
 31
0.0
  0
LINE
  5
1CC
330
1C5
100
AcDbEntity
  8
SLD-0
 62
     7
100
AcDbLine
 10
15.7238228073
 20
15.7242815477
 30
0.0
 11
26.2238228073
 21
15.7242815477
 31
0.0
  0
MTEXT
  5
1CD
330
1C5
100
AcDbEntity
  8
SLD-0
 62
     7
100
AcDbMText
 10
20.0189617199
 20
16.6450441691
 30
0.0
 40
0.7142857143
 41
0.0
 71
     1
 72
     1
  1
10.5
  7
SLDTEXTSTYLE0
 73
     1
 44
1.0
  0
ENDBLK
  5
1C7
330
1C5
100
AcDbEntity
  8
0
100
AcDbBlockEnd
  0
ENDSEC
  0
SECTION
  2
ENTITIES
  0
HATCH
  5
82
330
1F
100
AcDbEntity
  8
0
  6
Continuous
 62
     7
100
AcDbHatch
 10
0.0
 20
0.0
 30
0.0
210
0.0
220
0.0
230
1.0
  2
SOLID
 70
     1
 71
     0
 91
        1
 92
        0
 93
       10
 72
     2
 10
54.89731330369619
 20
10.21594537425387
 40
0.8541819022199597
 50
50.39692260731422
 51
112.8514693252979
 73
     0
 72
     2
 10
54.80428741794629
 20
10.12542808001773
 40
0.7363815505193196
 50
108.9134333432861
 51
219.5668234386824
 73
     0
 72
     1
 10
54.2366239825601
 20
10.59448672461432
 11
53.94656859758797
 21
10.85035298199082
 72
     1
 10
53.94656859758797
 20
10.85035298199082
 11
53.57324623905036
 21
10.4898995315601
 72
     2
 10
53.85549908532541
 20
10.15603460792128
 40
0.4371869811267605
 50
130.2115225915092
 51
228.5889041080189
 73
     1
 72
     1
 10
53.566318644186
 20
9.828151810371365
 11
54.71180501852761
 21
8.83255071315003
 72
     1
 10
54.71180501852761
 20
8.83255071315003
 11
54.53150446983756
 21
8.65657917301545
 72
     1
 10
54.53150446983756
 20
8.65657917301545
 11
54.81489857404487
 21
8.412586525314355
 72
     1
 10
54.81489857404487
 20
8.412586525314355
 11
55.73194555529209
 21
9.303037372604493
 72
     1
 10
55.73194555529209
 20
9.303037372604493
 11
55.44182468910403
 21
9.557816151956809
 97
        0
 75
     0
 76
     1
 98
        1
 10
0.0
 20
0.0
  0
HATCH
  5
83
330
1F
100
AcDbEntity
  8
0
  6
Continuous
 62
     1
100
AcDbHatch
 10
0.0
 20
0.0
 30
0.0
210
0.0
220
0.0
230
1.0
  2
SOLID
 70
     1
 71
     0
 91
        1
 92
        0
 93
       10
 72
     2
 10
55.02549873221967
 20
10.18944833037603
 40
0.7364478538132143
 50
317.8184992995781
 51
398.056471157308
 73
     0
 72
     1
 10
55.6053804016618
 20
9.735474001992706
 11
55.88693722822832
 21
9.490132019167136
 72
     1
 10
55.88693722822832
 20
9.490132019167136
 11
56.2417033181694
 21
9.834255716997768
 72
     2
 10
55.98644836798022
 20
10.18509764037518
 40
0.4338722678337901
 50
306.0377529468136
 51
403.4396461533869
 73
     1
 72
     1
 10
56.30148261502946
 20
10.48342391810036
 11
55.12240951264565
 21
11.50890285199578
 72
     1
 10
55.12240951264565
 20
11.50890285199578
 11
55.30076702748202
 21
11.68291954652073
 72
     1
 10
55.30076702748202
 20
11.68291954652073
 11
55.03490802457229
 21
11.92011732361916
 72
     1
 10
55.03490802457229
 20
11.92011732361916
 11
54.11045503931233
 21
11.02671153887228
 72
     1
 10
54.11045503931233
 20
11.02671153887228
 11
54.40257157569763
 21
10.77191424540919
 72
     2
 10
54.93473979201268
 20
10.03492781452512
 40
0.909039058436536
 50
234.1674444878514
 51
314.4407074583992
 73
     0
 97
        0
 75
     0
 76
     1
 98
        1
 10
0.0
 20
0.0
  0
LINE
  5
84
330
1F
100
AcDbEntity
  8
0
  6
Continuous
 62
     7
370
     0
100
AcDbLine
 10
47.9598221481
 20
5.0784340718
 30
0.0
 11
48.2455364339
 21
5.0784340718
 31
0.0
  0
LINE
  5
85
330
1F
100
AcDbEntity
  8
0
  6
Continuous
 62
     7
370
     0
100
AcDbLine
 10
47.102679291
 20
5.0784340718
 30
0.0
 11
47.8169650053
 21
5.0784340718
 31
0.0
  0
LINE
  5
86
330
1F
100
AcDbEntity
  8
0
  6
Continuous
 62
     7
370
     0
100
AcDbLine
 10
51.8169650053
 20
4.3641483575
 30
0.0
 11
51.8169650053
 21
5.7927197861
 31
0.0
  0
LINE
  5
87
330
1F
100
AcDbEntity
  8
0
  6
Continuous
 62
     7
370
     0
100
AcDbLine
 10
49.8169650053
 20
4.6498626432
 30
0.0
 11
51.8169650053
 21
4.3641483575
 31
0.0
  0
LINE
  5
88
330
1F
100
AcDbEntity
  8
0
  6
Continuous
 62
     7
370
     0
100
AcDbLine
 10
48.102679291
 20
4.7927197861
 30
0.0
 11
48.102679291
 21
4.0784340718
 31
0.0
  0
LINE
  5
89
330
1F
100
AcDbEntity
  8
0
  6
Continuous
 62
     7
370
     0
100
AcDbLine
 10
51.8169650053
 20
5.7927197861
 30
0.0
 11
49.8169650053
 21
5.5070055004
 31
0.0
  0
LINE
  5
8A
330
1F
100
AcDbEntity
  8
0
  6
Continuous
 62
     7
370
     0
100
AcDbLine
 10
49.5312507196
 20
5.0784340718
 30
0.0
 11
52.102679291
 21
5.0784340718
 31
0.0
  0
LINE
  5
8B
330
1F
100
AcDbEntity
  8
0
  6
Continuous
 62
     7
370
     0
100
AcDbLine
 10
48.102679291
 20
5.2212912146
 30
0.0
 11
48.102679291
 21
4.9355769289
 31
0.0
  0
LINE
  5
8C
330
1F
100
AcDbEntity
  8
0
  6
Continuous
 62
     7
370
     0
100
AcDbLine
 10
48.3883935767
 20
5.0784340718
 30
0.0
 11
49.102679291
 21
5.0784340718
 31
0.0
  0
LINE
  5
8D
330
1F
100
AcDbEntity
  8
0
  6
Continuous
 62
     7
370
     0
100
AcDbLine
 10
48.102679291
 20
6.0784340718
 30
0.0
 11
48.102679291
 21
5.3641483575
 31
0.0
  0
LINE
  5
8E
330
1F
100
AcDbEntity
  8
0
  6
Continuous
 62
     7
370
     0
100
AcDbLine
 10
49.8169650053
 20
5.5070055004
 30
0.0
 11
49.8169650053
 21
4.6498626432
 31
0.0
  0
LINE
  5
8F
330
1F
100
AcDbEntity
  8
工作區域參考線
 62
     1
370
    30
100
AcDbLine
 10
54.4025715757
 20
10.7719142454
 30
0.0
 11
54.1104550393
 21
11.0267115389
 31
0.0
  0
LINE
  5
90
330
1F
100
AcDbEntity
  8
工作區域參考線
 62
     1
370
    30
100
AcDbLine
 10
54.1104550393
 20
11.0267115389
 30
0.0
 11
55.0349080246
 21
11.9201173236
 31
0.0
  0
LINE
  5
91
330
1F
100
AcDbEntity
  8
工作區域參考線
 62
     1
370
    30
100
AcDbLine
 10
55.0349080246
 20
11.9201173236
 30
0.0
 11
55.3007670275
 21
11.6829195465
 31
0.0
  0
LINE
  5
92
330
1F
100
AcDbEntity
  8
工作區域參考線
 62
     1
370
    30
100
AcDbLine
 10
55.3007670275
 20
11.6829195465
 30
0.0
 11
55.1224095126
 21
11.508902852
 31
0.0
  0
LINE
  5
93
330
1F
100
AcDbEntity
  8
工作區域參考線
 62
     1
370
    30
100
AcDbLine
 10
55.1224095126
 20
11.508902852
 30
0.0
 11
56.301482615
 21
10.4834239181
 31
0.0
  0
LINE
  5
94
330
1F
100
AcDbEntity
  8
工作區域參考線
 62
     1
370
    30
100
AcDbLine
 10
55.6053804017
 20
9.735474002
 30
0.0
 11
55.8869372282
 21
9.4901320192
 31
0.0
  0
LINE
  5
95
330
1F
100
AcDbEntity
  8
工作區域參考線
 62
     1
370
    30
100
AcDbLine
 10
55.8869372282
 20
9.4901320192
 30
0.0
 11
56.2417033182
 21
9.834255717
 31
0.0
  0
LINE
  5
96
330
1F
100
AcDbEntity
  8
0
  6
Continuous
 62
     7
370
     0
100
AcDbLine
 10
53.0545132917
 20
3.7472132594
 30
0.0
 11
81.6259418631
 21
3.7472132594
 31
0.0
  0
LINE
  5
97
330
1F
100
AcDbEntity
  8
0
  6
Continuous
 62
     7
370
     0
100
AcDbLine
 10
53.0545132917
 20
5.175784688
 30
0.0
 11
67.3402275774
 21
5.175784688
 31
0.0
  0
LINE
  5
98
330
1F
100
AcDbEntity
  8
0
  6
Continuous
 62
     7
370
     0
100
AcDbLine
 10
53.0545132917
 20
6.6043561165
 30
0.0
 11
67.3402275774
 21
6.6043561165
 31
0.0
  0
LINE
  5
99
330
1F
100
AcDbEntity
  8
0
  6
Continuous
 62
     7
370
     0
100
AcDbLine
 10
53.0545132917
 20
8.0329275451
 30
0.0
 11
81.6259418631
 21
8.0329275451
 31
0.0
  0
LINE
  5
9A
330
1F
100
AcDbEntity
  8
0
  6
Continuous
 62
     7
370
     0
100
AcDbLine
 10
67.3402275774
 20
9.4614989737
 30
0.0
 11
81.6259418631
 21
9.4614989737
 31
0.0
  0
LINE
  5
9B
330
1F
100
AcDbEntity
  8
0
  6
Continuous
 62
     7
370
    15
100
AcDbLine
 10
67.3402275774
 20
5.175784688
 30
0.0
 11
81.6259418631
 21
5.175784688
 31
0.0
  0
LINE
  5
9C
330
1F
100
AcDbEntity
  8
0
  6
Continuous
 62
     7
370
     0
100
AcDbLine
 10
53.0545132917
 20
12.3186418308
 30
0.0
 11
81.6259418631
 21
12.3186418308
 31
0.0
  0
LINE
  5
9D
330
1F
100
AcDbEntity
  8
0
  6
Continuous
 62
     7
370
     0
100
AcDbLine
 10
71.7820621929
 20
2.3186418308
 30
0.0
 11
71.7820621929
 21
5.175784688
 31
0.0
  0
LINE
  5
9E
330
1F
100
AcDbEntity
  8
0
  6
Continuous
 62
     7
370
     0
100
AcDbLine
 10
67.3402275774
 20
2.3186418308
 30
0.0
 11
67.3402275774
 21
12.3186418308
 31
0.0
  0
LINE
  5
9F
330
1F
100
AcDbEntity
  8
0
  6
Continuous
 62
     7
370
     0
100
AcDbLine
 10
71.7820621929
 20
8.0329275451
 30
0.0
 11
71.7820621929
 21
9.4614989737
 31
0.0
  0
LINE
  5
A0
330
1F
100
AcDbEntity
  8
0
  6
Continuous
 62
     7
370
     0
100
AcDbLine
 10
61.2618310387
 20
2.3186418308
 30
0.0
 11
61.2618310387
 21
8.0329275451
 31
0.0
  0
LINE
  5
A1
330
1F
100
AcDbEntity
  8
0
  6
Continuous
 62
     7
370
     0
100
AcDbLine
 10
57.0795967859
 20
2.3186418308
 30
0.0
 11
57.0795967859
 21
8.0329275451
 31
0.0
  0
LINE
  5
A2
330
1F
100
AcDbEntity
  8
0
  6
Continuous
 62
     7
370
     0
100
AcDbLine
 10
53.0545132917
 20
2.3186418308
 30
0.0
 11
53.0545132917
 21
12.3186418308
 31
0.0
  0
LINE
  5
A3
330
1F
100
AcDbEntity
  8
0
  6
Continuous
 62
     7
370
    15
100
AcDbLine
 10
2.4830847203
 20
29.9267534261
 30
0.0
 11
4.1973704346
 21
29.9267534261
 31
0.0
  0
LINE
  5
A4
330
1F
100
AcDbEntity
  8
0
  6
Continuous
 62
     7
370
    15
100
AcDbLine
 10
81.6259418631
 20
29.9267534261
 30
0.0
 11
79.9116561488
 21
29.9267534261
 31
0.0
  0
LINE
  5
A5
330
1F
100
AcDbEntity
  8
0
  6
Continuous
 62
     7
370
    15
100
AcDbLine
 10
42.0545132917
 20
2.3186418308
 30
0.0
 11
42.0545132917
 21
4.0329275451
 31
0.0
  0
LINE
  5
A6
330
1F
100
AcDbEntity
  8
0
  6
Continuous
 62
     7
370
    15
100
AcDbLine
 10
42.0545132917
 20
57.5348650214
 30
0.0
 11
42.0545132917
 21
55.8205793072
 31
0.0
  0
LINE
  5
A7
330
1F
100
AcDbEntity
  8
0
  6
Continuous
 62
     7
370
    15
100
AcDbLine
 10
12.3773704346
 20
57.5348650214
 30
0.0
 11
12.3773704346
 21
57.96343645
 31
0.0
  0
LINE
  5
A8
330
1F
100
AcDbEntity
  8
0
  6
Continuous
 62
     7
370
    15
100
AcDbLine
 10
22.2716561488
 20
57.5348650214
 30
0.0
 11
22.2716561488
 21
57.96343645
 31
0.0
  0
LINE
  5
A9
330
1F
100
AcDbEntity
  8
0
  6
Continuous
 62
     7
370
    15
100
AcDbLine
 10
32.1659418631
 20
57.5348650214
 30
0.0
 11
32.1659418631
 21
57.96343645
 31
0.0
  0
LINE
  5
AA
330
1F
100
AcDbEntity
  8
0
  6
Continuous
 62
     7
370
    15
100
AcDbLine
 10
42.0602275774
 20
57.5348650214
 30
0.0
 11
42.0602275774
 21
57.96343645
 31
0.0
  0
LINE
  5
AB
330
1F
100
AcDbEntity
  8
0
  6
Continuous
 62
     7
370
    15
100
AcDbLine
 10
51.9545132917
 20
57.5348650214
 30
0.0
 11
51.9545132917
 21
57.96343645
 31
0.0
  0
LINE
  5
AC
330
1F
100
AcDbEntity
  8
0
  6
Continuous
 62
     7
370
    15
100
AcDbLine
 10
61.848799006
 20
57.5348650214
 30
0.0
 11
61.848799006
 21
57.96343645
 31
0.0
  0
LINE
  5
AD
330
1F
100
AcDbEntity
  8
0
  6
Continuous
 62
     7
370
    15
100
AcDbLine
 10
71.7430847203
 20
57.5348650214
 30
0.0
 11
71.7430847203
 21
57.96343645
 31
0.0
  0
LINE
  5
AE
330
1F
100
AcDbEntity
  8
0
  6
Continuous
 62
     7
370
    15
100
AcDbLine
 10
12.3759418631
 20
2.3186418308
 30
0.0
 11
12.3759418631
 21
1.8900704023
 31
0.0
  0
LINE
  5
AF
330
1F
100
AcDbEntity
  8
0
  6
Continuous
 62
     7
370
    15
100
AcDbLine
 10
22.268799006
 20
2.3186418308
 30
0.0
 11
22.268799006
 21
1.8900704023
 31
0.0
  0
LINE
  5
B0
330
1F
100
AcDbEntity
  8
0
  6
Continuous
 62
     7
370
    15
100
AcDbLine
 10
32.1616561488
 20
2.3186418308
 30
0.0
 11
32.1616561488
 21
1.8900704023
 31
0.0
  0
LINE
  5
B1
330
1F
100
AcDbEntity
  8
0
  6
Continuous
 62
     7
370
    15
100
AcDbLine
 10
42.0545132917
 20
2.3186418308
 30
0.0
 11
42.0545132917
 21
1.8900704023
 31
0.0
  0
LINE
  5
B2
330
1F
100
AcDbEntity
  8
0
  6
Continuous
 62
     7
370
    15
100
AcDbLine
 10
51.9473704346
 20
2.3186418308
 30
0.0
 11
51.9473704346
 21
1.8900704023
 31
0.0
  0
LINE
  5
B3
330
1F
100
AcDbEntity
  8
0
  6
Continuous
 62
     7
370
    15
100
AcDbLine
 10
61.8402275774
 20
2.3186418308
 30
0.0
 11
61.8402275774
 21
1.8900704023
 31
0.0
  0
LINE
  5
B4
330
1F
100
AcDbEntity
  8
0
  6
Continuous
 62
     7
370
     0
100
AcDbLine
 10
81.6259418631
 20
57.5348650214
 30
0.0
 11
2.4830847203
 21
57.5348650214
 31
0.0
  0
LINE
  5
B5
330
1F
100
AcDbEntity
  8
0
  6
Continuous
 62
     7
370
     0
100
AcDbLine
 10
81.6259418631
 20
2.3186418308
 30
0.0
 11
81.6259418631
 21
57.5348650214
 31
0.0
  0
LINE
  5
B6
330
1F
100
AcDbEntity
  8
0
  6
Continuous
 62
     7
370
     0
100
AcDbLine
 10
2.4830847203
 20
57.5348650214
 30
0.0
 11
2.4830847203
 21
2.3186418308
 31
0.0
  0
LINE
  5
B7
330
1F
100
AcDbEntity
  8
0
  6
Continuous
 62
     7
370
     0
100
AcDbLine
 10
2.4830847203
 20
2.3186418308
 30
0.0
 11
81.6259418631
 21
2.3186418308
 31
0.0
  0
LINE
  5
B8
330
1F
100
AcDbEntity
  8
0
  6
Continuous
 62
     7
370
    15
100
AcDbLine
 10
71.7330847203
 20
2.3186418308
 30
0.0
 11
71.7330847203
 21
1.8900704023
 31
0.0
  0
LINE
  5
B9
330
1F
100
AcDbEntity
  8
0
  6
Continuous
 62
     7
370
    15
100
AcDbLine
 10
2.4830847203
 20
11.5214989737
 30
0.0
 11
2.0545132917
 21
11.5214989737
 31
0.0
  0
LINE
  5
BA
330
1F
100
AcDbEntity
  8
0
  6
Continuous
 62
     7
370
    15
100
AcDbLine
 10
2.4830847203
 20
20.7243561165
 30
0.0
 11
2.0545132917
 21
20.7243561165
 31
0.0
  0
LINE
  5
BB
330
1F
100
AcDbEntity
  8
0
  6
Continuous
 62
     7
370
    15
100
AcDbLine
 10
2.4830847203
 20
29.9272132594
 30
0.0
 11
2.0545132917
 21
29.9272132594
 31
0.0
  0
LINE
  5
BC
330
1F
100
AcDbEntity
  8
0
  6
Continuous
 62
     7
370
    15
100
AcDbLine
 10
2.4830847203
 20
39.1300704023
 30
0.0
 11
2.0545132917
 21
39.1300704023
 31
0.0
  0
LINE
  5
BD
330
1F
100
AcDbEntity
  8
0
  6
Continuous
 62
     7
370
    15
100
AcDbLine
 10
2.4830847203
 20
48.3329275451
 30
0.0
 11
2.0545132917
 21
48.3329275451
 31
0.0
  0
LINE
  5
BE
330
1F
100
AcDbEntity
  8
0
  6
Continuous
 62
     7
370
    15
100
AcDbLine
 10
81.6259418631
 20
11.5214989737
 30
0.0
 11
82.0545132917
 21
11.5214989737
 31
0.0
  0
LINE
  5
BF
330
1F
100
AcDbEntity
  8
0
  6
Continuous
 62
     7
370
    15
100
AcDbLine
 10
81.6259418631
 20
20.7243561165
 30
0.0
 11
82.0545132917
 21
20.7243561165
 31
0.0
  0
LINE
  5
C0
330
1F
100
AcDbEntity
  8
0
  6
Continuous
 62
     7
370
    15
100
AcDbLine
 10
81.6259418631
 20
29.9272132594
 30
0.0
 11
82.0545132917
 21
29.9272132594
 31
0.0
  0
LINE
  5
C1
330
1F
100
AcDbEntity
  8
0
  6
Continuous
 62
     7
370
    15
100
AcDbLine
 10
81.6259418631
 20
39.1300704023
 30
0.0
 11
82.0545132917
 21
39.1300704023
 31
0.0
  0
LINE
  5
C2
330
1F
100
AcDbEntity
  8
0
  6
Continuous
 62
     7
370
    15
100
AcDbLine
 10
81.6259418631
 20
48.3329275451
 30
0.0
 11
82.0545132917
 21
48.3329275451
 31
0.0
  0
CIRCLE
  5
C3
330
1F
100
AcDbEntity
  8
0
  6
Continuous
 62
     7
370
     0
100
AcDbCircle
 10
48.102679291
 20
5.0784340718
 30
0.0
 40
0.4285714285714306
  0
CIRCLE
  5
C4
330
1F
100
AcDbEntity
  8
0
  6
Continuous
 62
     7
370
     0
100
AcDbCircle
 10
48.102679291
 20
5.0784340718
 30
0.0
 40
0.7142857142857153
  0
ARC
  5
C5
330
1F
100
AcDbEntity
  8
工作區域參考線
 62
     1
370
    30
100
AcDbCircle
 10
55.986448368
 20
10.1850976404
 30
0.0
 40
0.4338722678337937
100
AcDbArc
 50
306.0377529468
 51
43.4396461534
  0
ARC
  5
C6
330
1F
100
AcDbEntity
  8
工作區域參考線
 62
     1
370
    30
100
AcDbCircle
 10
54.934739792
 20
10.0349278145
 30
0.0
 40
0.9090390584365415
100
AcDbArc
 50
45.5592925416
 51
125.8325555121
  0
ARC
  5
C7
330
1F
100
AcDbEntity
  8
工作區域參考線
 62
     1
370
    30
100
AcDbCircle
 10
55.0254987322
 20
10.1894483304
 30
0.0
 40
0.7364478538132188
100
AcDbArc
 50
321.9435288427
 51
42.1815007004
  0
INSERT
  5
C8
330
1F
100
AcDbEntity
  8
0
  6
Continuous
 62
     7
100
AcDbBlockReference
  2
圖塊6
 10
53.4183121042
 20
8.4125865253
 30
0.0
  0
MTEXT
  5
CA
330
1F
100
AcDbEntity
  8
0
  6
Continuous
 62
     7
370
     0
100
AcDbMText
 10
47.297910023
 20
3.7773840105
 30
0.0
 40
0.755952381
 41
0.0
 71
     1
 72
     1
  1
UNIT:m/m
  7
SLDTEXTSTYLE0
 73
     1
 44
1.0
  0
INSERT
  5
D1
330
1F
100
AcDbEntity
  8
0
  6
Continuous
 62
     7
370
     0
100
AcDbBlockReference
  2
SW_NOTE_0
 10
3.4947164587
 20
55.3972658357
 30
0.0
  0
MTEXT
  5
D3
330
1F
100
AcDbEntity
  8
0
  6
Continuous
 62
     7
370
     0
100
AcDbMText
 10
56.778625541
 20
11.5544792611
 30
0.0
 40
0.6803571429
 41
0.0
 71
     1
 72
     1
  1
Unice E-O Services Inc.
  7
SLDTEXTSTYLE1
 73
     1
 44
1.0
  0
MTEXT
  5
D4
330
1F
100
AcDbEntity
  8
0
  6
Continuous
 62
     7
370
     0
100
AcDbMText
 10
62.1597296614
 20
6.1676328146
 30
0.0
 40
0.5291666667
 41
0.0
 71
     1
 72
     1
  1
2015/3/6
  7
SLDTEXTSTYLE0
 73
     1
 44
1.0
  0
MTEXT
  5
D5
330
1F
100
AcDbEntity
  8
0
  6
Continuous
 62
     7
370
     0
100
AcDbMText
 10
72.1739709288
 20
4.8203364971
 30
0.0
 40
0.7142857143
 41
0.0
 71
     1
 72
     1
  1
3.5:1
  7
SLDTEXTSTYLE0
 73
     1
 44
1.0
  0
MTEXT
  5
D6
330
1F
100
AcDbEntity
  8
0
  6
Continuous
 62
     7
370
     0
100
AcDbMText
 10
72.0878742853
 20
9.1862627268
 30
0.0
 40
0.7142857143
 41
0.0
 71
     1
 72
     1
  1
07SRN-2
  7
SLDTEXTSTYLE0
 73
     1
 44
1.0
  0
MTEXT
  5
D7
330
1F
100
AcDbEntity
  8
0
  6
Continuous
 62
     7
370
     0
100
AcDbMText
 10
72.0878742853
 20
10.8880605108
 30
0.0
 40
0.7142857143
 41
0.0
 71
     1
 72
     1
  1
07SRN-2
  7
SLDTEXTSTYLE0
 73
     1
 44
1.0
  0
MTEXT
  5
D8
330
1F
100
AcDbEntity
  8
0
  6
Continuous
 62
     7
370
     0
100
AcDbMText
 10
67.5406247653
 20
4.7161370208
 30
0.0
 40
0.6047619048
 41
0.0
 71
     1
 72
     1
  1
SCALE:
  7
SLDTEXTSTYLE0
 73
     1
 44
1.0
  0
MTEXT
  5
D9
330
1F
100
AcDbEntity
  8
0
  6
Continuous
 62
     7
370
     0
100
AcDbMText
 10
53.2381739083
 20
6.1676328146
 30
0.0
 40
0.5291666667
 41
0.0
 71
     1
 72
     1
  1
DRAWN
  7
SLDTEXTSTYLE0
 73
     1
 44
1.0
  0
MTEXT
  5
DA
330
1F
100
AcDbEntity
  8
0
  6
Continuous
 62
     7
370
     0
100
AcDbMText
 10
58.0636676553
 20
7.6237738023
 30
0.0
 40
0.5291666667
 41
0.0
 71
     1
 72
     1
  1
NAME
  7
SLDTEXTSTYLE0
 73
     1
 44
1.0
  0
MTEXT
  5
DB
330
1F
100
AcDbEntity
  8
0
  6
Continuous
 62
     7
370
     0
100
AcDbMText
 10
63.1060044502
 20
7.6237738023
 30
0.0
 40
0.5291666667
 41
0.0
 71
     1
 72
     1
  1
DATE
  7
SLDTEXTSTYLE0
 73
     1
 44
1.0
  0
MTEXT
  5
DC
330
1F
100
AcDbEntity
  8
0
  6
Continuous
 62
     7
370
     0
100
AcDbMText
 10
67.5073233327
 20
9.0820632505
 30
0.0
 40
0.6047619048
 41
0.0
 71
     1
 72
     1
  1
DWG. NO.
  7
SLDTEXTSTYLE0
 73
     1
 44
1.0
  0
MTEXT
  5
DD
330
1F
100
AcDbEntity
  8
0
  6
Continuous
 62
     7
370
     0
100
AcDbMText
 10
67.5322830597
 20
11.9668759498
 30
0.0
 40
0.6047619048
 41
0.0
 71
     1
 72
     1
  1
TITLE:
  7
SLDTEXTSTYLE0
 73
     1
 44
1.0
  0
MTEXT
  5
DE
330
1F
100
AcDbEntity
  8
0
  6
Continuous
 62
     7
370
     0
100
AcDbMText
 10
58.0089774229
 20
4.6401082778
 30
0.0
 40
0.5291666667
 41
0.0
 71
     1
 72
     1
  1
Johnny
  7
SLDTEXTSTYLE0
 73
     1
 44
1.0
  0
MTEXT
  5
DF
330
1F
100
AcDbEntity
  8
0
  6
Continuous
 62
     7
370
     0
100
AcDbMText
 10
62.1597296614
 20
4.6401082778
 30
0.0
 40
0.5291666667
 41
0.0
 71
     1
 72
     1
  1
2015/3/6
  7
SLDTEXTSTYLE0
 73
     1
 44
1.0
  0
MTEXT
  5
E0
330
1F
100
AcDbEntity
  8
0
  6
Continuous
 62
     7
370
     0
100
AcDbMText
 10
53.2381739083
 20
4.6401082778
 30
0.0
 40
0.5291666667
 41
0.0
 71
     1
 72
     1
  1
ENG APPR.
  7
SLDTEXTSTYLE0
 73
     1
 44
1.0
  0
MTEXT
  5
E1
330
1F
100
AcDbEntity
  8
0
  6
Continuous
 62
     7
370
     0
100
AcDbMText
 10
67.5406247653
 20
3.3386682654
 30
0.0
 40
0.6047619048
 41
0.0
 71
     1
 72
     1
  1
REV
  7
SLDTEXTSTYLE0
 73
     1
 44
1.0
  0
MTEXT
  5
E2
330
1F
100
AcDbEntity
  8
0
  6
Continuous
 62
     7
370
     0
100
AcDbMText
 10
67.5322830597
 20
7.6998025453
 30
0.0
 40
0.6047619048
 41
0.0
 71
     1
 72
     1
  1
MATERIAL:
  7
SLDTEXTSTYLE0
 73
     1
 44
1.0
  0
MTEXT
  5
E3
330
1F
100
AcDbEntity
  8
0
  6
Continuous
 62
     7
370
     0
100
AcDbMText
 10
72.1739709288
 20
6.3478610339
 30
0.0
 40
0.7142857143
 41
0.0
 71
     1
 72
     1
  1
N/A
  7
SLDTEXTSTYLE0
 73
     1
 44
1.0
  0
MTEXT
  5
E4
330
1F
100
AcDbEntity
  8
0
  6
Continuous
 62
     7
370
     0
100
AcDbMText
 10
7.6008551867
 20
58.4152433306
 30
0.0
 40
0.6047619048
 41
0.0
 71
     1
 72
     1
  1
1
  7
SLDTEXTSTYLE0
 73
     1
 44
1.0
  0
MTEXT
  5
E5
330
1F
100
AcDbEntity
  8
0
  6
Continuous
 62
     7
370
     0
100
AcDbMText
 10
17.347742735
 20
58.4152433306
 30
0.0
 40
0.6047619048
 41
0.0
 71
     1
 72
     1
  1
2
  7
SLDTEXTSTYLE0
 73
     1
 44
1.0
  0
MTEXT
  5
E6
330
1F
100
AcDbEntity
  8
0
  6
Continuous
 62
     7
370
     0
100
AcDbMText
 10
27.1145698259
 20
58.4152433306
 30
0.0
 40
0.6047619048
 41
0.0
 71
     1
 72
     1
  1
3
  7
SLDTEXTSTYLE0
 73
     1
 44
1.0
  0
MTEXT
  5
E7
330
1F
100
AcDbEntity
  8
0
  6
Continuous
 62
     7
370
     0
100
AcDbMText
 10
36.9295246529
 20
58.3712166961
 30
0.0
 40
0.6047619048
 41
0.0
 71
     1
 72
     1
  1
4
  7
SLDTEXTSTYLE0
 73
     1
 44
1.0
  0
MTEXT
  5
E8
330
1F
100
AcDbEntity
  8
0
  6
Continuous
 62
     7
370
     0
100
AcDbMText
 10
46.7720924183
 20
58.4152433306
 30
0.0
 40
0.6047619048
 41
0.0
 71
     1
 72
     1
  1
5
  7
SLDTEXTSTYLE0
 73
     1
 44
1.0
  0
MTEXT
  5
E9
330
1F
100
AcDbEntity
  8
0
  6
Continuous
 62
     7
370
     0
100
AcDbMText
 10
56.7537762976
 20
58.4152433306
 30
0.0
 40
0.6047619048
 41
0.0
 71
     1
 72
     1
  1
6
  7
SLDTEXTSTYLE0
 73
     1
 44
1.0
  0
MTEXT
  5
EA
330
1F
100
AcDbEntity
  8
0
  6
Continuous
 62
     7
370
     0
100
AcDbMText
 10
66.9608759259
 20
58.4152433306
 30
0.0
 40
0.6047619048
 41
0.0
 71
     1
 72
     1
  1
7
  7
SLDTEXTSTYLE0
 73
     1
 44
1.0
  0
MTEXT
  5
EB
330
1F
100
AcDbEntity
  8
0
  6
Continuous
 62
     7
370
     0
100
AcDbMText
 10
76.0796520141
 20
58.4152433306
 30
0.0
 40
0.6047619048
 41
0.0
 71
     1
 72
     1
  1
8
  7
SLDTEXTSTYLE0
 73
     1
 44
1.0
  0
MTEXT
  5
EC
330
1F
100
AcDbEntity
  8
0
  6
Continuous
 62
     7
370
     0
100
AcDbMText
 10
1.5305210444
 20
53.0889435108
 30
0.0
 40
0.6047619048
 41
0.0
 71
     1
 72
     1
  1
A
  7
SLDTEXTSTYLE0
 73
     1
 44
1.0
  0
MTEXT
  5
ED
330
1F
100
AcDbEntity
  8
0
  6
Continuous
 62
     7
370
     0
100
AcDbMText
 10
1.5974409095
 20
44.0855156639
 30
0.0
 40
0.6047619048
 41
0.0
 71
     1
 72
     1
  1
B
  7
SLDTEXTSTYLE0
 73
     1
 44
1.0
  0
MTEXT
  5
EE
330
1F
100
AcDbEntity
  8
0
  6
Continuous
 62
     7
370
     0
100
AcDbMText
 10
1.5974409095
 20
34.6498146923
 30
0.0
 40
0.6047619048
 41
0.0
 71
     1
 72
     1
  1
C
  7
SLDTEXTSTYLE0
 73
     1
 44
1.0
  0
MTEXT
  5
EF
330
1F
100
AcDbEntity
  8
0
  6
Continuous
 62
     7
370
     0
100
AcDbMText
 10
1.5974409095
 20
25.355806292
 30
0.0
 40
0.6047619048
 41
0.0
 71
     1
 72
     1
  1
D
  7
SLDTEXTSTYLE0
 73
     1
 44
1.0
  0
MTEXT
  5
F0
330
1F
100
AcDbEntity
  8
0
  6
Continuous
 62
     7
370
     0
100
AcDbMText
 10
1.5974409095
 20
16.4445385485
 30
0.0
 40
0.6047619048
 41
0.0
 71
     1
 72
     1
  1
E
  7
SLDTEXTSTYLE0
 73
     1
 44
1.0
  0
MTEXT
  5
F1
330
1F
100
AcDbEntity
  8
0
  6
Continuous
 62
     7
370
     0
100
AcDbMText
 10
1.5974409095
 20
7.3055489215
 30
0.0
 40
0.6047619048
 41
0.0
 71
     1
 72
     1
  1
F
  7
SLDTEXTSTYLE0
 73
     1
 44
1.0
  0
MTEXT
  5
F2
330
1F
100
AcDbEntity
  8
0
  6
Continuous
 62
     7
370
     0
100
AcDbMText
 10
76.0531033418
 20
1.8924635418
 30
0.0
 40
0.6047619048
 41
0.0
 71
     1
 72
     1
  1
8
  7
SLDTEXTSTYLE0
 73
     1
 44
1.0
  0
MTEXT
  5
F3
330
1F
100
AcDbEntity
  8
0
  6
Continuous
 62
     7
370
     0
100
AcDbMText
 10
66.9343272536
 20
1.8924635418
 30
0.0
 40
0.6047619048
 41
0.0
 71
     1
 72
     1
  1
7
  7
SLDTEXTSTYLE0
 73
     1
 44
1.0
  0
MTEXT
  5
F4
330
1F
100
AcDbEntity
  8
0
  6
Continuous
 62
     7
370
     0
100
AcDbMText
 10
56.7272276253
 20
1.8924635418
 30
0.0
 40
0.6047619048
 41
0.0
 71
     1
 72
     1
  1
6
  7
SLDTEXTSTYLE0
 73
     1
 44
1.0
  0
MTEXT
  5
F5
330
1F
100
AcDbEntity
  8
0
  6
Continuous
 62
     7
370
     0
100
AcDbMText
 10
46.745543746
 20
1.8924635418
 30
0.0
 40
0.6047619048
 41
0.0
 71
     1
 72
     1
  1
5
  7
SLDTEXTSTYLE0
 73
     1
 44
1.0
  0
MTEXT
  5
F6
330
1F
100
AcDbEntity
  8
0
  6
Continuous
 62
     7
370
     0
100
AcDbMText
 10
36.9029759806
 20
1.8484369074
 30
0.0
 40
0.6047619048
 41
0.0
 71
     1
 72
     1
  1
4
  7
SLDTEXTSTYLE0
 73
     1
 44
1.0
  0
MTEXT
  5
F7
330
1F
100
AcDbEntity
  8
0
  6
Continuous
 62
     7
370
     0
100
AcDbMText
 10
27.0880211536
 20
1.8924635418
 30
0.0
 40
0.6047619048
 41
0.0
 71
     1
 72
     1
  1
3
  7
SLDTEXTSTYLE0
 73
     1
 44
1.0
  0
MTEXT
  5
F8
330
1F
100
AcDbEntity
  8
0
  6
Continuous
 62
     7
370
     0
100
AcDbMText
 10
17.3211940627
 20
1.8924635418
 30
0.0
 40
0.6047619048
 41
0.0
 71
     1
 72
     1
  1
2
  7
SLDTEXTSTYLE0
 73
     1
 44
1.0
  0
MTEXT
  5
F9
330
1F
100
AcDbEntity
  8
0
  6
Continuous
 62
     7
370
     0
100
AcDbMText
 10
7.5743065144
 20
1.8924635418
 30
0.0
 40
0.6047619048
 41
0.0
 71
     1
 72
     1
  1
1
  7
SLDTEXTSTYLE0
 73
     1
 44
1.0
  0
MTEXT
  5
FA
330
1F
100
AcDbEntity
  8
0
  6
Continuous
 62
     7
370
     0
100
AcDbMText
 10
82.029252747
 20
53.326425974
 30
0.0
 40
0.6047619048
 41
0.0
 71
     1
 72
     1
  1
A
  7
SLDTEXTSTYLE0
 73
     1
 44
1.0
  0
MTEXT
  5
FB
330
1F
100
AcDbEntity
  8
0
  6
Continuous
 62
     7
370
     0
100
AcDbMText
 10
82.096172612
 20
44.3229981272
 30
0.0
 40
0.6047619048
 41
0.0
 71
     1
 72
     1
  1
B
  7
SLDTEXTSTYLE0
 73
     1
 44
1.0
  0
MTEXT
  5
FC
330
1F
100
AcDbEntity
  8
0
  6
Continuous
 62
     7
370
     0
100
AcDbMText
 10
82.096172612
 20
34.8872971555
 30
0.0
 40
0.6047619048
 41
0.0
 71
     1
 72
     1
  1
C
  7
SLDTEXTSTYLE0
 73
     1
 44
1.0
  0
MTEXT
  5
FD
330
1F
100
AcDbEntity
  8
0
  6
Continuous
 62
     7
370
     0
100
AcDbMText
 10
82.096172612
 20
25.5932887552
 30
0.0
 40
0.6047619048
 41
0.0
 71
     1
 72
     1
  1
D
  7
SLDTEXTSTYLE0
 73
     1
 44
1.0
  0
MTEXT
  5
FE
330
1F
100
AcDbEntity
  8
0
  6
Continuous
 62
     7
370
     0
100
AcDbMText
 10
82.096172612
 20
16.6820210117
 30
0.0
 40
0.6047619048
 41
0.0
 71
     1
 72
     1
  1
E
  7
SLDTEXTSTYLE0
 73
     1
 44
1.0
  0
MTEXT
  5
FF
330
1F
100
AcDbEntity
  8
0
  6
Continuous
 62
     7
370
     0
100
AcDbMText
 10
82.096172612
 20
7.5430313847
 30
0.0
 40
0.6047619048
 41
0.0
 71
     1
 72
     1
  1
F
  7
SLDTEXTSTYLE0
 73
     1
 44
1.0
  0
MTEXT
  5
100
330
1F
100
AcDbEntity
  8
0
  6
Continuous
 62
     7
370
     0
100
AcDbMText
 10
58.0443751086
 20
6.1676328146
 30
0.0
 40
0.5291666667
 41
0.0
 71
     1
 72
     1
  1
Sammy
  7
SLDTEXTSTYLE0
 73
     1
 44
1.0
  0
MTEXT
  5
101
330
1F
100
AcDbEntity
  8
0
  6
Continuous
 62
     7
370
     0
100
AcDbMText
 10
72.2423497041
 20
3.4428677417
 30
0.0
 40
0.7142857143
 41
0.0
 71
     1
 72
     1
  1
0
  7
SLDTEXTSTYLE0
 73
     1
 44
1.0
  0
INSERT
  5
108
330
1F
100
AcDbEntity
  8
SLD-0
 62
     7
100
AcDbBlockReference
  2
SW_NOTE_1
 10
56.778625541
 20
9.6031114589
 30
0.0
  0
LINE
  5
109
330
1F
100
AcDbEntity
  8
0
  6
Continuous
 62
     7
370
    30
100
AcDbLine
 10
41.8152573705
 20
30.1535497056
 30
0.0
 11
40.815257323
 21
30.7308999691
 31
0.0
  0
LINE
  5
10A
330
1F
100
AcDbEntity
  8
0
  6
Continuous
 62
     7
370
    30
100
AcDbLine
 10
41.8152573705
 20
28.9988491786
 30
0.0
 11
41.8152573705
 21
30.1535497056
 31
0.0
  0
LINE
  5
10B
330
1F
100
AcDbEntity
  8
0
  6
Continuous
 62
     7
370
    30
100
AcDbLine
 10
40.815257323
 20
28.4214989152
 30
0.0
 11
41.8152573705
 21
28.9988491786
 31
0.0
  0
LINE
  5
10C
330
1F
100
AcDbEntity
  8
0
  6
Continuous
 62
     7
370
    30
100
AcDbLine
 10
39.8152572755
 20
28.9988491786
 30
0.0
 11
40.815257323
 21
28.4214989152
 31
0.0
  0
LINE
  5
10D
330
1F
100
AcDbEntity
  8
0
  6
Continuous
 62
     7
370
    30
100
AcDbLine
 10
39.8152572755
 20
30.1535497056
 30
0.0
 11
39.8152572755
 21
28.9988491786
 31
0.0
  0
LINE
  5
10E
330
1F
100
AcDbEntity
  8
0
  6
Continuous
 62
     7
370
    30
100
AcDbLine
 10
40.815257323
 20
30.7308999691
 30
0.0
 11
39.8152572755
 21
30.1535497056
 31
0.0
  0
SPLINE
  5
10F
330
1F
100
AcDbEntity
  8
0
  6
Continuous
 62
     7
370
    30
100
AcDbSpline
210
0.0
220
0.0
230
1.0
 70
     8
 71
     3
 72
     8
 73
     4
 74
     0
 42
0.000000001
 43
0.00000001
 40
0.0
 40
0.0
 40
0.0
 40
0.0
 40
1.0
 40
1.0
 40
1.0
 40
1.0
 10
34.95155862110061
 20
34.09379882679618
 30
0.0
 10
34.85985963356111
 20
34.08478691180414
 30
0.0
 10
34.78531166378564
 20
34.03672955332254
 30
0.0
 10
34.73780220398393
 20
33.97103041461158
 30
0.0
  0
SPLINE
  5
110
330
1F
100
AcDbEntity
  8
0
  6
Continuous
 62
     7
370
    30
100
AcDbSpline
210
0.0
220
0.0
230
1.0
 70
     8
 71
     3
 72
    18
 73
    14
 74
     0
 42
0.000000001
 43
0.00000001
 40
0.0
 40
0.0
 40
0.0
 40
0.0
 40
0.1250000000000001
 40
0.1250000000000001
 40
0.2500000000000003
 40
0.2500000000000003
 40
0.5
 40
0.5
 40
0.7499999999999997
 40
0.7499999999999997
 40
0.8749999999999999
 40
0.8749999999999999
 40
1.0
 40
1.0
 40
1.0
 40
1.0
 10
34.95155862109932
 20
34.09379882679605
 30
0.0
 10
35.00457171370159
 20
34.09900880235643
 30
0.0
 10
35.07278955220482
 20
34.10864535286458
 30
0.0
 10
35.22560156757698
 20
34.14468804893879
 30
0.0
 10
35.30936014625141
 20
34.17100705219185
 30
0.0
 10
35.56304032510971
 20
34.27933359872557
 30
0.0
 10
35.72916938170761
 20
34.3894283997763
 30
0.0
 10
36.00323052491785
 20
34.66384651697239
 30
0.0
 10
36.11290830862487
 20
34.82996591185122
 30
0.0
 10
36.22060620745704
 20
35.08260879809006
 30
0.0
 10
36.24693473440428
 20
35.16644081448341
 30
0.0
 10
36.28288444231224
 20
35.31909588940247
 30
0.0
 10
36.2924101463168
 20
35.38650025768825
 30
0.0
 10
36.29765793830579
 20
35.43989814400136
 30
0.0
  0
SPLINE
  5
111
330
1F
100
AcDbEntity
  8
0
  6
Continuous
 62
     7
370
    30
100
AcDbSpline
210
0.0
220
0.0
230
1.0
 70
     8
 71
     3
 72
     8
 73
     4
 74
     0
 42
0.000000001
 43
0.00000001
 40
0.0
 40
0.0
 40
0.0
 40
0.0
 40
1.0
 40
1.0
 40
1.0
 40
1.0
 10
36.29765793830571
 20
35.43989814400131
 30
0.0
 10
36.30666985329781
 20
35.53159713154156
 30
0.0
 10
36.35472721177787
 20
35.60614510131521
 30
0.0
 10
36.4204263504903
 20
35.653654561118
 30
0.0
  0
ARC
  5
112
330
1F
100
AcDbEntity
  8
0
  6
Continuous
 62
     7
370
    30
100
AcDbCircle
 10
40.815257323
 20
29.5761994421
 30
0.0
 40
7.500000000000004
100
AcDbArc
 50
114.1279266565
 51
125.8720733435
  0
SPLINE
  5
113
330
1F
100
AcDbEntity
  8
0
  6
Continuous
 62
     7
370
    30
100
AcDbSpline
210
0.0
220
0.0
230
1.0
 70
     8
 71
     3
 72
     8
 73
     4
 74
     0
 42
0.000000001
 43
0.00000001
 40
0.0
 40
0.0
 40
0.0
 40
0.0
 40
1.0
 40
1.0
 40
1.0
 40
1.0
 10
37.9959449793467
 20
36.42040462430761
 30
0.0
 10
37.91202536914017
 20
36.45844957075751
 30
0.0
 10
37.82343625427207
 20
36.45410466236088
 30
0.0
 10
37.74944228580942
 20
36.42096226913181
 30
0.0
  0
SPLINE
  5
114
330
1F
100
AcDbEntity
  8
0
  6
Continuous
 62
     7
370
    30
100
AcDbSpline
210
0.0
220
0.0
230
1.0
 70
     8
 71
     3
 72
    18
 73
    14
 74
     0
 42
0.000000001
 43
0.00000001
 40
0.0
 40
0.0
 40
0.0
 40
0.0
 40
0.1249999999999999
 40
0.1249999999999999
 40
0.2499999999999999
 40
0.2499999999999999
 40
0.5000000000000002
 40
0.5000000000000002
 40
0.7500000000000006
 40
0.7500000000000006
 40
0.8750000000000002
 40
0.8750000000000002
 40
1.0
 40
1.0
 40
1.0
 40
1.0
 10
37.99594497934552
 20
36.42040462430815
 30
0.0
 10
38.04446065205246
 20
36.39841004919538
 30
0.0
 10
38.10835730844159
 20
36.37264662748869
 30
0.0
 10
38.25871774379448
 20
36.32745451022375
 30
0.0
 10
38.34441430233795
 20
36.30836814630597
 30
0.0
 10
38.61827105493267
 20
36.27534159807927
 30
0.0
 10
38.81719043877855
 20
36.28762196431484
 30
0.0
 10
39.19174340958688
 20
36.38824445346023
 30
0.0
 10
39.36978685394735
 20
36.47726917763308
 30
0.0
 10
39.58937741338963
 20
36.64221538578526
 30
0.0
 10
39.65409459476685
 20
36.70165177815876
 30
0.0
 10
39.76155549253329
 20
36.81588009710129
 30
0.0
 10
39.80350717833308
 20
36.86949114036054
 30
0.0
 10
39.83475084266586
 20
36.91311117042159
 30
0.0
  0
SPLINE
  5
115
330
1F
100
AcDbEntity
  8
0
  6
Continuous
 62
     7
370
    30
100
AcDbSpline
210
0.0
220
0.0
230
1.0
 70
     8
 71
     3
 72
     8
 73
     4
 74
     0
 42
0.000000001
 43
0.00000001
 40
0.0
 40
0.0
 40
0.0
 40
0.0
 40
1.0
 40
1.0
 40
1.0
 40
1.0
 10
39.83475084266577
 20
36.91311117042159
 30
0.0
 10
39.8884048837558
 20
36.9880188656367
 30
0.0
 10
39.96729776192679
 20
37.02855062202138
 30
0.0
 10
40.04794961495825
 20
37.03684545177428
 30
0.0
  0
ARC
  5
116
330
1F
100
AcDbEntity
  8
0
  6
Continuous
 62
     7
370
    30
100
AcDbCircle
 10
40.815257323
 20
29.5761994421
 30
0.0
 40
7.500000000000004
100
AcDbArc
 50
84.1279266565
 51
95.8720733435
  0
SPLINE
  5
117
330
1F
100
AcDbEntity
  8
0
  6
Continuous
 62
     7
370
    30
100
AcDbSpline
210
0.0
220
0.0
230
1.0
 70
     8
 71
     3
 72
     8
 73
     4
 74
     0
 42
0.000000001
 43
0.00000001
 40
0.0
 40
0.0
 40
0.0
 40
0.0
 40
1.0
 40
1.0
 40
1.0
 40
1.0
 10
41.79576380327832
 20
36.91311117042161
 30
0.0
 10
41.74210976218872
 20
36.98801886563611
 30
0.0
 10
41.66321688401602
 20
37.02855062202153
 30
0.0
 10
41.58256503098584
 20
37.0368454517743
 30
0.0
  0
SPLINE
  5
118
330
1F
100
AcDbEntity
  8
0
  6
Continuous
 62
     7
370
    30
100
AcDbSpline
210
0.0
220
0.0
230
1.0
 70
     8
 71
     3
 72
    18
 73
    14
 74
     0
 42
0.000000001
 43
0.00000001
 40
0.0
 40
0.0
 40
0.0
 40
0.0
 40
0.1249999999999999
 40
0.1249999999999999
 40
0.2499999999999998
 40
0.2499999999999998
 40
0.5000000000000001
 40
0.5000000000000001
 40
0.7500000000000003
 40
0.7500000000000003
 40
0.8750000000000002
 40
0.8750000000000002
 40
1.0
 40
1.0
 40
1.0
 40
1.0
 10
41.79576380327756
 20
36.91311117042267
 30
0.0
 10
41.82678232076708
 20
36.8698054732761
 30
0.0
 10
41.8692367375636
 20
36.81554536739513
 30
0.0
 10
41.97685663567083
 20
36.70122762811643
 30
0.0
 10
42.04152885042748
 20
36.64185007282603
 30
0.0
 10
42.26218248105906
 20
36.47631986676503
 30
0.0
 10
42.44059190389255
 20
36.38749528396987
 30
0.0
 10
42.81527553624817
 20
36.28736043035764
 30
0.0
 10
43.01397804412805
 20
36.275436380876
 30
0.0
 10
43.28662215111239
 20
36.30848870767256
 30
0.0
 10
43.37238707043313
 20
36.3276035426887
 30
0.0
 10
43.52256509728362
 20
36.3727977198413
 30
0.0
 10
43.58570184454745
 20
36.39825040232731
 30
0.0
 10
43.63456966659749
 20
36.42040462430762
 30
0.0
  0
SPLINE
  5
119
330
1F
100
AcDbEntity
  8
0
  6
Continuous
 62
     7
370
    30
100
AcDbSpline
210
0.0
220
0.0
230
1.0
 70
     8
 71
     3
 72
     8
 73
     4
 74
     0
 42
0.000000001
 43
0.00000001
 40
0.0
 40
0.0
 40
0.0
 40
0.0
 40
1.0
 40
1.0
 40
1.0
 40
1.0
 10
43.6345696665974
 20
36.42040462430766
 30
0.0
 10
43.71848927680463
 20
36.45844957075789
 30
0.0
 10
43.8070783916701
 20
36.45410466236179
 30
0.0
 10
43.88107236013469
 20
36.42096226913187
 30
0.0
  0
ARC
  5
11A
330
1F
100
AcDbEntity
  8
0
  6
Continuous
 62
     7
370
    30
100
AcDbCircle
 10
40.815257323
 20
29.5761994421
 30
0.0
 40
7.500000000000003
100
AcDbArc
 50
54.1279266565
 51
65.8720733435
  0
SPLINE
  5
11B
330
1F
100
AcDbEntity
  8
0
  6
Continuous
 62
     7
370
    30
100
AcDbSpline
210
0.0
220
0.0
230
1.0
 70
     8
 71
     3
 72
     8
 73
     4
 74
     0
 42
0.000000001
 43
0.00000001
 40
0.0
 40
0.0
 40
0.0
 40
0.0
 40
1.0
 40
1.0
 40
1.0
 40
1.0
 10
45.33285670763841
 20
35.43989814400141
 30
0.0
 10
45.32384479264638
 20
35.53159713154091
 30
0.0
 10
45.27578743416459
 20
35.60614510131651
 30
0.0
 10
45.21008829545382
 20
35.65365456111809
 30
0.0
  0
SPLINE
  5
11C
330
1F
100
AcDbEntity
  8
0
  6
Continuous
 62
     7
370
    30
100
AcDbSpline
210
0.0
220
0.0
230
1.0
 70
     8
 71
     3
 72
    18
 73
    14
 74
     0
 42
0.000000001
 43
0.00000001
 40
0.0
 40
0.0
 40
0.0
 40
0.0
 40
0.1249999999999996
 40
0.1249999999999996
 40
0.2499999999999992
 40
0.2499999999999992
 40
0.4999999999999993
 40
0.4999999999999993
 40
0.7499999999999994
 40
0.7499999999999994
 40
0.8749999999999997
 40
0.8749999999999997
 40
1.0
 40
1.0
 40
1.0
 40
1.0
 10
45.33285670763829
 20
35.4398981440027
 30
0.0
 10
45.33806668319866
 20
35.38688505140043
 30
0.0
 10
45.34770323370682
 20
35.3186672128972
 30
0.0
 10
45.38374592978102
 20
35.16585519752504
 30
0.0
 10
45.41006493303408
 20
35.08209661885061
 30
0.0
 10
45.51839147956779
 20
34.82841643999232
 30
0.0
 10
45.62848628061853
 20
34.66228738339441
 30
0.0
 10
45.90290439781462
 20
34.38822624018417
 30
0.0
 10
46.06902379269344
 20
34.27854845647715
 30
0.0
 10
46.32166667893228
 20
34.17085055764498
 30
0.0
 10
46.40549869532564
 20
34.14452203069774
 30
0.0
 10
46.55815377024469
 20
34.10857232278978
 30
0.0
 10
46.62555813853049
 20
34.09904661878521
 30
0.0
 10
46.67895602484359
 20
34.09379882679623
 30
0.0
  0
SPLINE
  5
11D
330
1F
100
AcDbEntity
  8
0
  6
Continuous
 62
     7
370
    30
100
AcDbSpline
210
0.0
220
0.0
230
1.0
 70
     8
 71
     3
 72
     8
 73
     4
 74
     0
 42
0.000000001
 43
0.00000001
 40
0.0
 40
0.0
 40
0.0
 40
0.0
 40
1.0
 40
1.0
 40
1.0
 40
1.0
 10
46.67895602484354
 20
34.0937988267963
 30
0.0
 10
46.77065501238379
 20
34.0847869118042
 30
0.0
 10
46.84520298215816
 20
34.03672955332316
 30
0.0
 10
46.89271244196023
 20
33.97103041461171
 30
0.0
  0
ARC
  5
11E
330
1F
100
AcDbEntity
  8
0
  6
Continuous
 62
     7
370
    30
100
AcDbCircle
 10
40.815257323
 20
29.5761994421
 30
0.0
 40
7.500000000000006
100
AcDbArc
 50
24.1279266565
 51
35.8720733435
  0
SPLINE
  5
11F
330
1F
100
AcDbEntity
  8
0
  6
Continuous
 62
     7
370
    30
100
AcDbSpline
210
0.0
220
0.0
230
1.0
 70
     8
 71
     3
 72
     8
 73
     4
 74
     0
 42
0.000000001
 43
0.00000001
 40
0.0
 40
0.0
 40
0.0
 40
0.0
 40
1.0
 40
1.0
 40
1.0
 40
1.0
 10
47.65946250514983
 20
32.39551178575531
 30
0.0
 10
47.69750745159973
 20
32.47943139596185
 30
0.0
 10
47.69316254320335
 20
32.56802051082936
 30
0.0
 10
47.66002014997403
 20
32.6420144792926
 30
0.0
  0
SPLINE
  5
120
330
1F
100
AcDbEntity
  8
0
  6
Continuous
 62
     7
370
    30
100
AcDbSpline
210
0.0
220
0.0
230
1.0
 70
     8
 71
     3
 72
    18
 73
    14
 74
     0
 42
0.000000001
 43
0.00000001
 40
0.0
 40
0.0
 40
0.0
 40
0.0
 40
0.1249999999999999
 40
0.1249999999999999
 40
0.2499999999999999
 40
0.2499999999999999
 40
0.4999999999999999
 40
0.4999999999999999
 40
0.7499999999999999
 40
0.7499999999999999
 40
0.8749999999999999
 40
0.8749999999999999
 40
1.0
 40
1.0
 40
1.0
 40
1.0
 10
47.65946250515036
 20
32.3955117857565
 30
0.0
 10
47.63746793003761
 20
32.34699611304956
 30
0.0
 10
47.61170450833091
 20
32.28309945666042
 30
0.0
 10
47.56651239106597
 20
32.13273902130754
 30
0.0
 10
47.54742602714818
 20
32.04704246276406
 30
0.0
 10
47.51439947892148
 20
31.77318571016935
 30
0.0
 10
47.52667984515706
 20
31.57426632632346
 30
0.0
 10
47.62730233430244
 20
31.19971335551514
 30
0.0
 10
47.71632705847529
 20
31.02166991115467
 30
0.0
 10
47.88127326662746
 20
30.80207935171238
 30
0.0
 10
47.94070965900096
 20
30.73736217033517
 30
0.0
 10
48.0549379779435
 20
30.62990127256872
 30
0.0
 10
48.10854902120276
 20
30.58794958676893
 30
0.0
 10
48.15216905126381
 20
30.55670592243614
 30
0.0
  0
SPLINE
  5
121
330
1F
100
AcDbEntity
  8
0
  6
Continuous
 62
     7
370
    30
100
AcDbSpline
210
0.0
220
0.0
230
1.0
 70
     8
 71
     3
 72
     8
 73
     4
 74
     0
 42
0.000000001
 43
0.00000001
 40
0.0
 40
0.0
 40
0.0
 40
0.0
 40
1.0
 40
1.0
 40
1.0
 40
1.0
 10
48.1521690512638
 20
30.55670592243624
 30
0.0
 10
48.22707674647892
 20
30.50305188134621
 30
0.0
 10
48.26760850286375
 20
30.42415900317371
 30
0.0
 10
48.2759033326165
 20
30.34350715014375
 30
0.0
  0
ARC
  5
122
330
1F
100
AcDbEntity
  8
0
  6
Continuous
 62
     7
370
    30
100
AcDbCircle
 10
40.815257323
 20
29.5761994421
 30
0.0
 40
7.500000000000004
100
AcDbArc
 50
354.1279266565
 51
5.8720733435
  0
SPLINE
  5
123
330
1F
100
AcDbEntity
  8
0
  6
Continuous
 62
     7
370
    30
100
AcDbSpline
210
0.0
220
0.0
230
1.0
 70
     8
 71
     3
 72
     8
 73
     4
 74
     0
 42
0.000000001
 43
0.00000001
 40
0.0
 40
0.0
 40
0.0
 40
0.0
 40
1.0
 40
1.0
 40
1.0
 40
1.0
 10
48.15216905126382
 20
28.59569296182369
 30
0.0
 10
48.22707674647832
 20
28.64934700291328
 30
0.0
 10
48.26760850286365
 20
28.72823988108504
 30
0.0
 10
48.27590333261651
 20
28.80889173411617
 30
0.0
  0
SPLINE
  5
124
330
1F
100
AcDbEntity
  8
0
  6
Continuous
 62
     7
370
    30
100
AcDbSpline
210
0.0
220
0.0
230
1.0
 70
     8
 71
     3
 72
    18
 73
    14
 74
     0
 42
0.000000001
 43
0.00000001
 40
0.0
 40
0.0
 40
0.0
 40
0.0
 40
0.1250000000000001
 40
0.1250000000000001
 40
0.2500000000000001
 40
0.2500000000000001
 40
0.5000000000000002
 40
0.5000000000000002
 40
0.7500000000000003
 40
0.7500000000000003
 40
0.8750000000000001
 40
0.8750000000000001
 40
1.0
 40
1.0
 40
1.0
 40
1.0
 10
48.15216905126487
 20
28.59569296182445
 30
0.0
 10
48.10886335411832
 20
28.56467444433493
 30
0.0
 10
48.05460324823733
 20
28.5222200275384
 30
0.0
 10
47.94028550895864
 20
28.41460012943118
 30
0.0
 10
47.88090795366823
 20
28.34992791467452
 30
0.0
 10
47.71537774760723
 20
28.12927428404295
 30
0.0
 10
47.62655316481207
 20
27.95086486120947
 30
0.0
 10
47.52641831119984
 20
27.57618122885384
 30
0.0
 10
47.5144942617182
 20
27.37747872097397
 30
0.0
 10
47.54754658851476
 20
27.10483461398962
 30
0.0
 10
47.5666614235309
 20
27.01906969466889
 30
0.0
 10
47.6118556006835
 20
26.86889166781839
 30
0.0
 10
47.63730828316951
 20
26.80575492055456
 30
0.0
 10
47.65946250514983
 20
26.75688709850452
 30
0.0
  0
SPLINE
  5
125
330
1F
100
AcDbEntity
  8
0
  6
Continuous
 62
     7
370
    30
100
AcDbSpline
210
0.0
220
0.0
230
1.0
 70
     8
 71
     3
 72
     8
 73
     4
 74
     0
 42
0.000000001
 43
0.00000001
 40
0.0
 40
0.0
 40
0.0
 40
0.0
 40
1.0
 40
1.0
 40
1.0
 40
1.0
 10
47.65946250514987
 20
26.75688709850461
 30
0.0
 10
47.69750745160009
 20
26.67296748829739
 30
0.0
 10
47.69316254320415
 20
26.58437837343223
 30
0.0
 10
47.66002014997407
 20
26.51038440496731
 30
0.0
  0
ARC
  5
126
330
1F
100
AcDbEntity
  8
0
  6
Continuous
 62
     7
370
    30
100
AcDbCircle
 10
40.815257323
 20
29.5761994421
 30
0.0
 40
7.499999999999999
100
AcDbArc
 50
324.1279266565
 51
335.8720733435
  0
SPLINE
  5
127
330
1F
100
AcDbEntity
  8
0
  6
Continuous
 62
     7
370
    30
100
AcDbSpline
210
0.0
220
0.0
230
1.0
 70
     8
 71
     3
 72
     8
 73
     4
 74
     0
 42
0.000000001
 43
0.00000001
 40
0.0
 40
0.0
 40
0.0
 40
0.0
 40
1.0
 40
1.0
 40
1.0
 40
1.0
 10
46.67895602484361
 20
25.0586000574636
 30
0.0
 10
46.77065501238311
 20
25.06761197245563
 30
0.0
 10
46.84520298215887
 20
25.11566933093765
 30
0.0
 10
46.89271244196029
 20
25.18136846964819
 30
0.0
  0
SPLINE
  5
128
330
1F
100
AcDbEntity
  8
0
  6
Continuous
 62
     7
370
    30
100
AcDbSpline
210
0.0
220
0.0
230
1.0
 70
     8
 71
     3
 72
    18
 73
    14
 74
     0
 42
0.000000001
 43
0.00000001
 40
0.0
 40
0.0
 40
0.0
 40
0.0
 40
0.1250000000000005
 40
0.1250000000000005
 40
0.2500000000000011
 40
0.2500000000000011
 40
0.5000000000000007
 40
0.5000000000000007
 40
0.7500000000000003
 40
0.7500000000000003
 40
0.8750000000000002
 40
0.8750000000000002
 40
1.0
 40
1.0
 40
1.0
 40
1.0
 10
46.6789560248449
 20
25.05860005746373
 30
0.0
 10
46.62594293224262
 20
25.05339008190336
 30
0.0
 10
46.55772509373939
 20
25.0437535313952
 30
0.0
 10
46.40491307836724
 20
25.007710835321
 30
0.0
 10
46.3211544996928
 20
24.98139183206794
 30
0.0
 10
46.06747432083451
 20
24.87306528553423
 30
0.0
 10
45.90134526423661
 20
24.76297048448349
 30
0.0
 10
45.62728412102637
 20
24.48855236728741
 30
0.0
 10
45.51760633731934
 20
24.32243297240858
 30
0.0
 10
45.40990843848718
 20
24.06979008616974
 30
0.0
 10
45.38357991153993
 20
23.98595806977638
 30
0.0
 10
45.34763020363197
 20
23.83330299485732
 30
0.0
 10
45.33810449962741
 20
23.76589862657153
 30
0.0
 10
45.33285670763842
 20
23.71250074025843
 30
0.0
  0
SPLINE
  5
129
330
1F
100
AcDbEntity
  8
0
  6
Continuous
 62
     7
370
    30
100
AcDbSpline
210
0.0
220
0.0
230
1.0
 70
     8
 71
     3
 72
     8
 73
     4
 74
     0
 42
0.000000001
 43
0.00000001
 40
0.0
 40
0.0
 40
0.0
 40
0.0
 40
1.0
 40
1.0
 40
1.0
 40
1.0
 10
45.33285670763849
 20
23.71250074025848
 30
0.0
 10
45.3238447926464
 20
23.62080175271823
 30
0.0
 10
45.27578743416501
 20
23.54625378294362
 30
0.0
 10
45.2100882954539
 20
23.49874432314179
 30
0.0
  0
ARC
  5
12A
330
1F
100
AcDbEntity
  8
0
  6
Continuous
 62
     7
370
    30
100
AcDbCircle
 10
40.815257323
 20
29.5761994421
 30
0.0
 40
7.499999999999997
100
AcDbArc
 50
294.1279266565
 51
305.8720733435
  0
SPLINE
  5
12B
330
1F
100
AcDbEntity
  8
0
  6
Continuous
 62
     7
370
    30
100
AcDbSpline
210
0.0
220
0.0
230
1.0
 70
     8
 71
     3
 72
     8
 73
     4
 74
     0
 42
0.000000001
 43
0.00000001
 40
0.0
 40
0.0
 40
0.0
 40
0.0
 40
1.0
 40
1.0
 40
1.0
 40
1.0
 10
43.6345696665975
 20
22.7319942599522
 30
0.0
 10
43.71848927680404
 20
22.69394931350229
 30
0.0
 10
43.80707839167314
 20
22.69829422189938
 30
0.0
 10
43.88107236013479
 20
22.73143661512799
 30
0.0
  0
SPLINE
  5
12C
330
1F
100
AcDbEntity
  8
0
  6
Continuous
 62
     7
370
    30
100
AcDbSpline
210
0.0
220
0.0
230
1.0
 70
     8
 71
     3
 72
    18
 73
    14
 74
     0
 42
0.000000001
 43
0.00000001
 40
0.0
 40
0.0
 40
0.0
 40
0.0
 40
0.125
 40
0.125
 40
0.2500000000000001
 40
0.2500000000000001
 40
0.5
 40
0.5
 40
0.7499999999999999
 40
0.7499999999999999
 40
0.875
 40
0.875
 40
1.0
 40
1.0
 40
1.0
 40
1.0
 10
43.63456966659869
 20
22.73199425995166
 30
0.0
 10
43.58605399389175
 20
22.75398883506442
 30
0.0
 10
43.52215733750261
 20
22.77975225677111
 30
0.0
 10
43.37179690214972
 20
22.82494437403605
 30
0.0
 10
43.28610034360625
 20
22.84403073795384
 30
0.0
 10
43.01224359101153
 20
22.87705728618056
 30
0.0
 10
42.81332420716564
 20
22.86477691994498
 30
0.0
 10
42.43877123635733
 20
22.76415443079959
 30
0.0
 10
42.26072779199686
 20
22.67512970662674
 30
0.0
 10
42.04113723255456
 20
22.51018349847457
 30
0.0
 10
41.97642005117736
 20
22.45074710610107
 30
0.0
 10
41.86895915341091
 20
22.33651878715853
 30
0.0
 10
41.82700746761112
 20
22.28290774389928
 30
0.0
 10
41.79576380327833
 20
22.23928771383822
 30
0.0
  0
SPLINE
  5
12D
330
1F
100
AcDbEntity
  8
0
  6
Continuous
 62
     7
370
    30
100
AcDbSpline
210
0.0
220
0.0
230
1.0
 70
     8
 71
     3
 72
     8
 73
     4
 74
     0
 42
0.000000001
 43
0.00000001
 40
0.0
 40
0.0
 40
0.0
 40
0.0
 40
1.0
 40
1.0
 40
1.0
 40
1.0
 10
41.79576380327843
 20
22.23928771383823
 30
0.0
 10
41.74210976218839
 20
22.16438001862311
 30
0.0
 10
41.66321688401586
 20
22.12384826223827
 30
0.0
 10
41.58256503098595
 20
22.11555343248553
 30
0.0
  0
ARC
  5
12E
330
1F
100
AcDbEntity
  8
0
  6
Continuous
 62
     7
370
    30
100
AcDbCircle
 10
40.815257323
 20
29.5761994421
 30
0.0
 40
7.499999999999997
100
AcDbArc
 50
264.1279266565
 51
275.8720733435
  0
SPLINE
  5
12F
330
1F
100
AcDbEntity
  8
0
  6
Continuous
 62
     7
370
    30
100
AcDbSpline
210
0.0
220
0.0
230
1.0
 70
     8
 71
     3
 72
     8
 73
     4
 74
     0
 42
0.000000001
 43
0.00000001
 40
0.0
 40
0.0
 40
0.0
 40
0.0
 40
1.0
 40
1.0
 40
1.0
 40
1.0
 10
39.83475084266588
 20
22.23928771383822
 30
0.0
 10
39.88840488375547
 20
22.16438001862371
 30
0.0
 10
39.96729776192939
 20
22.12384826223817
 30
0.0
 10
40.04794961495835
 20
22.11555343248552
 30
0.0
  0
SPLINE
  5
130
330
1F
100
AcDbEntity
  8
0
  6
Continuous
 62
     7
370
    30
100
AcDbSpline
210
0.0
220
0.0
230
1.0
 70
     8
 71
     3
 72
    18
 73
    14
 74
     0
 42
0.000000001
 43
0.00000001
 40
0.0
 40
0.0
 40
0.0
 40
0.0
 40
0.1249999999999999
 40
0.1249999999999999
 40
0.2499999999999997
 40
0.2499999999999997
 40
0.4999999999999997
 40
0.4999999999999997
 40
0.7499999999999996
 40
0.7499999999999996
 40
0.8749999999999998
 40
0.8749999999999998
 40
1.0
 40
1.0
 40
1.0
 40
1.0
 10
39.83475084266664
 20
22.23928771383716
 30
0.0
 10
39.80373232517712
 20
22.28259341098373
 30
0.0
 10
39.76127790838058
 20
22.33685351686471
 30
0.0
 10
39.65365801027336
 20
22.4511712561434
 30
0.0
 10
39.58898579551671
 20
22.5105488114338
 30
0.0
 10
39.36833216488513
 20
22.67607901749481
 30
0.0
 10
39.18992274205166
 20
22.76490360028997
 30
0.0
 10
38.81523910969602
 20
22.8650384539022
 30
0.0
 10
38.61653660181616
 20
22.87696250338384
 30
0.0
 10
38.34389249483181
 20
22.84391017658729
 30
0.0
 10
38.25812757551107
 20
22.82479534157115
 30
0.0
 10
38.10794954866057
 20
22.77960116441854
 30
0.0
 10
38.04481280139674
 20
22.75414848193253
 30
0.0
 10
37.99594497934671
 20
22.73199425995222
 30
0.0
  0
SPLINE
  5
131
330
1F
100
AcDbEntity
  8
0
  6
Continuous
 62
     7
370
    30
100
AcDbSpline
210
0.0
220
0.0
230
1.0
 70
     8
 71
     3
 72
     8
 73
     4
 74
     0
 42
0.000000001
 43
0.00000001
 40
0.0
 40
0.0
 40
0.0
 40
0.0
 40
1.0
 40
1.0
 40
1.0
 40
1.0
 10
37.9959449793468
 20
22.73199425995218
 30
0.0
 10
37.91202536913958
 20
22.69394931350196
 30
0.0
 10
37.8234362542733
 20
22.6982942218984
 30
0.0
 10
37.74944228580951
 20
22.73143661512797
 30
0.0
  0
ARC
  5
132
330
1F
100
AcDbEntity
  8
0
  6
Continuous
 62
     7
370
    30
100
AcDbCircle
 10
40.815257323
 20
29.5761994421
 30
0.0
 40
7.499999999999997
100
AcDbArc
 50
234.1279266565
 51
245.8720733435
  0
SPLINE
  5
133
330
1F
100
AcDbEntity
  8
0
  6
Continuous
 62
     7
370
    30
100
AcDbSpline
210
0.0
220
0.0
230
1.0
 70
     8
 71
     3
 72
     8
 73
     4
 74
     0
 42
0.000000001
 43
0.00000001
 40
0.0
 40
0.0
 40
0.0
 40
0.0
 40
1.0
 40
1.0
 40
1.0
 40
1.0
 10
36.2976579383058
 20
23.71250074025845
 30
0.0
 10
36.30666985329783
 20
23.62080175271894
 30
0.0
 10
36.35472721177977
 20
23.54625378294323
 30
0.0
 10
36.42042635049039
 20
23.49874432314176
 30
0.0
  0
SPLINE
  5
134
330
1F
100
AcDbEntity
  8
0
  6
Continuous
 62
     7
370
    30
100
AcDbSpline
210
0.0
220
0.0
230
1.0
 70
     8
 71
     3
 72
    18
 73
    14
 74
     0
 42
0.000000001
 43
0.00000001
 40
0.0
 40
0.0
 40
0.0
 40
0.0
 40
0.1249999999999997
 40
0.1249999999999997
 40
0.2499999999999994
 40
0.2499999999999994
 40
0.4999999999999993
 40
0.4999999999999993
 40
0.7499999999999992
 40
0.7499999999999992
 40
0.8749999999999996
 40
0.8749999999999996
 40
1.0
 40
1.0
 40
1.0
 40
1.0
 10
36.29765793830592
 20
23.71250074025715
 30
0.0
 10
36.29244796274555
 20
23.76551383285943
 30
0.0
 10
36.28281141223739
 20
23.83373167136266
 30
0.0
 10
36.24676871616319
 20
23.98654368673482
 30
0.0
 10
36.22044971291012
 20
24.07030226540925
 30
0.0
 10
36.11212316637642
 20
24.32398244426755
 30
0.0
 10
36.00202836532569
 20
24.49011150086545
 30
0.0
 10
35.7276102481296
 20
24.7641726440757
 30
0.0
 10
35.56149085325077
 20
24.87385042778271
 30
0.0
 10
35.30884796701194
 20
24.98154832661489
 30
0.0
 10
35.22501595061858
 20
25.00787685356213
 30
0.0
 10
35.07236087569952
 20
25.04382656147009
 30
0.0
 10
35.00495650741373
 20
25.05335226547466
 30
0.0
 10
34.95155862110062
 20
25.05860005746364
 30
0.0
  0
SPLINE
  5
135
330
1F
100
AcDbEntity
  8
0
  6
Continuous
 62
     7
370
    30
100
AcDbSpline
210
0.0
220
0.0
230
1.0
 70
     8
 71
     3
 72
     8
 73
     4
 74
     0
 42
0.000000001
 43
0.00000001
 40
0.0
 40
0.0
 40
0.0
 40
0.0
 40
1.0
 40
1.0
 40
1.0
 40
1.0
 10
34.95155862110067
 20
25.05860005746356
 30
0.0
 10
34.85985963356043
 20
25.06761197245566
 30
0.0
 10
34.78531166378533
 20
25.11566933093772
 30
0.0
 10
34.73780220398399
 20
25.18136846964815
 30
0.0
  0
ARC
  5
136
330
1F
100
AcDbEntity
  8
0
  6
Continuous
 62
     7
370
    30
100
AcDbCircle
 10
40.815257323
 20
29.5761994421
 30
0.0
 40
7.499999999999998
100
AcDbArc
 50
204.1279266565
 51
215.8720733435
  0
SPLINE
  5
137
330
1F
100
AcDbEntity
  8
0
  6
Continuous
 62
     7
370
    30
100
AcDbSpline
210
0.0
220
0.0
230
1.0
 70
     8
 71
     3
 72
     8
 73
     4
 74
     0
 42
0.000000001
 43
0.00000001
 40
0.0
 40
0.0
 40
0.0
 40
0.0
 40
1.0
 40
1.0
 40
1.0
 40
1.0
 10
33.9710521407944
 20
26.75688709850456
 30
0.0
 10
33.93300719434449
 20
26.67296748829802
 30
0.0
 10
33.93735210274084
 20
26.58437837343058
 30
0.0
 10
33.97049449597019
 20
26.51038440496727
 30
0.0
  0
SPLINE
  5
138
330
1F
100
AcDbEntity
  8
0
  6
Continuous
 62
     7
370
    30
100
AcDbSpline
210
0.0
220
0.0
230
1.0
 70
     8
 71
     3
 72
    18
 73
    14
 74
     0
 42
0.000000001
 43
0.00000001
 40
0.0
 40
0.0
 40
0.0
 40
0.0
 40
0.1250000000000001
 40
0.1250000000000001
 40
0.2500000000000001
 40
0.2500000000000001
 40
0.5000000000000002
 40
0.5000000000000002
 40
0.7500000000000003
 40
0.7500000000000003
 40
0.8750000000000001
 40
0.8750000000000001
 40
1.0
 40
1.0
 40
1.0
 40
1.0
 10
33.97105214079387
 20
26.75688709850338
 30
0.0
 10
33.99304671590662
 20
26.80540277121031
 30
0.0
 10
34.01881013761331
 20
26.86929942759945
 30
0.0
 10
34.06400225487825
 20
27.01965986295234
 30
0.0
 10
34.08308861879604
 20
27.10535642149581
 30
0.0
 10
34.11611516702276
 20
27.37921317409053
 30
0.0
 10
34.10383480078718
 20
27.57813255793642
 30
0.0
 10
34.00321231164179
 20
27.95268552874474
 30
0.0
 10
33.91418758746894
 20
28.13072897310521
 30
0.0
 10
33.74924137931677
 20
28.35031953254749
 30
0.0
 10
33.68980498694328
 20
28.41503671392471
 30
0.0
 10
33.57557666800074
 20
28.52249761169116
 30
0.0
 10
33.52196562474148
 20
28.56444929749095
 30
0.0
 10
33.47834559468043
 20
28.59569296182373
 30
0.0
  0
SPLINE
  5
139
330
1F
100
AcDbEntity
  8
0
  6
Continuous
 62
     7
370
    30
100
AcDbSpline
210
0.0
220
0.0
230
1.0
 70
     8
 71
     3
 72
     8
 73
     4
 74
     0
 42
0.000000001
 43
0.00000001
 40
0.0
 40
0.0
 40
0.0
 40
0.0
 40
1.0
 40
1.0
 40
1.0
 40
1.0
 10
33.47834559468044
 20
28.59569296182364
 30
0.0
 10
33.40343789946532
 20
28.64934700291366
 30
0.0
 10
33.36290614308039
 20
28.72823988108707
 30
0.0
 10
33.35461131332774
 20
28.80889173411611
 30
0.0
  0
ARC
  5
13A
330
1F
100
AcDbEntity
  8
0
  6
Continuous
 62
     7
370
    30
100
AcDbCircle
 10
40.815257323
 20
29.5761994421
 30
0.0
 40
7.500000000000004
100
AcDbArc
 50
174.1279266565
 51
185.8720733435
  0
SPLINE
  5
13B
330
1F
100
AcDbEntity
  8
0
  6
Continuous
 62
     7
370
    30
100
AcDbSpline
210
0.0
220
0.0
230
1.0
 70
     8
 71
     3
 72
     8
 73
     4
 74
     0
 42
0.000000001
 43
0.00000001
 40
0.0
 40
0.0
 40
0.0
 40
0.0
 40
1.0
 40
1.0
 40
1.0
 40
1.0
 10
33.47834559468043
 20
30.55670592243608
 30
0.0
 10
33.40343789946591
 20
30.50305188134649
 30
0.0
 10
33.36290614308064
 20
30.42415900317514
 30
0.0
 10
33.35461131332773
 20
30.3435071501436
 30
0.0
  0
SPLINE
  5
13C
330
1F
100
AcDbEntity
  8
0
  6
Continuous
 62
     7
370
    30
100
AcDbSpline
210
0.0
220
0.0
230
1.0
 70
     8
 71
     3
 72
    18
 73
    14
 74
     0
 42
0.000000001
 43
0.00000001
 40
0.0
 40
0.0
 40
0.0
 40
0.0
 40
0.1249999999999999
 40
0.1249999999999999
 40
0.2499999999999999
 40
0.2499999999999999
 40
0.4999999999999998
 40
0.4999999999999998
 40
0.7499999999999999
 40
0.7499999999999999
 40
0.8749999999999999
 40
0.8749999999999999
 40
1.0
 40
1.0
 40
1.0
 40
1.0
 10
33.47834559467937
 20
30.55670592243532
 30
0.0
 10
33.52165129182593
 20
30.58772443992484
 30
0.0
 10
33.5759113977069
 20
30.63017885672137
 30
0.0
 10
33.6902291369856
 20
30.7377987548286
 30
0.0
 10
33.749606692276
 20
30.80247096958526
 30
0.0
 10
33.915136898337
 20
31.02312460021684
 30
0.0
 10
34.00396148113217
 20
31.20153402305031
 30
0.0
 10
34.10409633474439
 20
31.57621765540594
 30
0.0
 10
34.11602038422603
 20
31.77492016328582
 30
0.0
 10
34.08296805742948
 20
32.04756427027016
 30
0.0
 10
34.06385322241334
 20
32.1333291895909
 30
0.0
 10
34.01865904526073
 20
32.28350721644139
 30
0.0
 10
33.99320636277472
 20
32.34664396370522
 30
0.0
 10
33.9710521407944
 20
32.39551178575525
 30
0.0
  0
SPLINE
  5
13D
330
1F
100
AcDbEntity
  8
0
  6
Continuous
 62
     7
370
    30
100
AcDbSpline
210
0.0
220
0.0
230
1.0
 70
     8
 71
     3
 72
     8
 73
     4
 74
     0
 42
0.000000001
 43
0.00000001
 40
0.0
 40
0.0
 40
0.0
 40
0.0
 40
1.0
 40
1.0
 40
1.0
 40
1.0
 10
33.97105214079436
 20
32.39551178575517
 30
0.0
 10
33.93300719434414
 20
32.47943139596239
 30
0.0
 10
33.93735210274091
 20
32.56802051082939
 30
0.0
 10
33.97049449597015
 20
32.64201447929246
 30
0.0
  0
ARC
  5
13E
330
1F
100
AcDbEntity
  8
0
  6
Continuous
 62
     7
370
    30
100
AcDbCircle
 10
40.815257323
 20
29.5761994421
 30
0.0
 40
7.500000000000003
100
AcDbArc
 50
144.1279266565
 51
155.8720733435
  0
CIRCLE
  5
13F
330
1F
100
AcDbEntity
  8
0
  6
Continuous
 62
     7
370
    30
100
AcDbCircle
 10
40.815257323
 20
29.5761994421
 30
0.0
 40
6.500000000000004
  0
DIMENSION
  5
140
330
1F
100
AcDbEntity
  8
SLD-0
 62
     7
100
AcDbDimension
  2
_D
 10
50.2440824529
 20
22.9777641768
 30
0.0
 11
50.7440824529
 21
23.8437895806
 31
0.0
 70
   160
  1
<>
 71
     2
 42
-1.0
  3
SLDDIMSTYLE0
100
AcDbAlignedDimension
 13
41.815257323
 23
30.1535497113
 33
0.0
 14
40.815257323
 24
28.4214989038
 34
0.0
 50
60.0
100
AcDbRotatedDimension
  0
DIMENSION
  5
14B
330
1F
100
AcDbEntity
  8
SLD-0
 62
     7
100
AcDbDimension
  2
_D_1
 10
36.89586628
 20
23.1817976834
 30
0.0
 11
47.4846460808
 21
38.7389412177
 31
0.0
 70
   163
  1
<>
 71
     1
 42
-1.0
  3
SLDDIMSTYLE1
100
AcDbDiametricDimension
 15
44.7346483659
 25
35.9706012009
 35
0.0
 40
0.0
  0
INSERT
  5
160
330
1F
100
AcDbEntity
  8
SLD-0
 62
     7
100
AcDbBlockReference
  2
SW_CENTERMARKSYMBOL_0
 10
40.815257323
 20
29.5761994421
 30
0.0
  0
ARC
  5
161
330
1F
100
AcDbEntity
  8
0
  6
Continuous
 62
     7
370
    30
100
AcDbCircle
 10
22.7238228073
 20
23.0761994421
 30
0.0
 40
1.0
100
AcDbArc
 50
270.0
 51
0.0
  0
ARC
  5
162
330
1F
100
AcDbEntity
  8
0
  6
Continuous
 62
     7
370
    30
100
AcDbCircle
 10
22.7238228073
 20
36.0761994421
 30
0.0
 40
1.000000000000004
100
AcDbArc
 50
0.0
 51
90.0
  0
ARC
  5
163
330
1F
100
AcDbEntity
  8
0
  6
Continuous
 62
     7
370
    30
100
AcDbCircle
 10
16.7238228073
 20
23.0761994421
 30
0.0
 40
1.0
100
AcDbArc
 50
180.0
 51
270.0
  0
ARC
  5
164
330
1F
100
AcDbEntity
  8
0
  6
Continuous
 62
     7
370
    30
100
AcDbCircle
 10
16.7238228073
 20
36.0761994421
 30
0.0
 40
1.0
100
AcDbArc
 50
90.0
 51
180.0
  0
LINE
  5
165
330
1F
100
AcDbEntity
  8
0
  6
Continuous
 62
     7
370
    30
100
AcDbLine
 10
22.9460842892
 20
36.4471719004
 30
0.0
 11
16.5015289312
 21
36.4471719004
 31
0.0
  0
LINE
  5
166
330
1F
100
AcDbEntity
  8
0
  6
Continuous
 62
     7
370
    30
100
AcDbLine
 10
16.5015615275
 20
22.7052269839
 30
0.0
 11
22.9461168855
 21
22.7052269839
 31
0.0
  0
LINE
  5
167
330
1F
100
AcDbEntity
  8
0
  6
Continuous
 62
     7
370
    30
100
AcDbLine
 10
22.7238227598
 20
37.0761992745
 30
0.0
 11
16.7238225913
 21
37.0761992745
 31
0.0
  0
LINE
  5
168
330
1F
100
AcDbEntity
  8
0
  6
Continuous
 62
     7
370
    30
100
AcDbLine
 10
16.7238225913
 20
22.0761996098
 30
0.0
 11
22.7238227598
 21
22.0761996098
 31
0.0
  0
SPLINE
  5
169
330
1F
100
AcDbEntity
  8
0
  6
Continuous
 62
     7
370
    30
100
AcDbSpline
210
0.0
220
0.0
230
1.0
 70
     8
 71
     3
 72
     8
 73
     4
 74
     0
 42
0.000000001
 43
0.00000001
 40
0.0
 40
0.0
 40
0.0
 40
0.0
 40
1.0
 40
1.0
 40
1.0
 40
1.0
 10
23.15526762250051
 20
34.09379882679618
 30
0.0
 10
23.01487876116821
 20
34.08478691180414
 30
0.0
 10
22.8688596975182
 20
34.03672955332254
 30
0.0
 10
22.72382280732451
 20
33.97103041461158
 30
0.0
  0
SPLINE
  5
16A
330
1F
100
AcDbEntity
  8
0
  6
Continuous
 62
     7
370
    30
100
AcDbSpline
210
0.0
220
0.0
230
1.0
 70
     8
 71
     3
 72
    18
 73
    14
 74
     0
 42
0.000000001
 43
0.00000001
 40
0.0
 40
0.0
 40
0.0
 40
0.0
 40
0.1250000000000001
 40
0.1250000000000001
 40
0.2500000000000003
 40
0.2500000000000003
 40
0.5
 40
0.5
 40
0.7499999999999997
 40
0.7499999999999997
 40
0.8749999999999999
 40
0.8749999999999999
 40
1.0
 40
1.0
 40
1.0
 40
1.0
 10
23.1552676225005
 20
34.09379882679605
 30
0.0
 10
23.23642934419286
 20
34.09900880235643
 30
0.0
 10
23.3075850955645
 20
34.10864535286458
 30
0.0
 10
23.42307187674566
 20
34.14468804893879
 30
0.0
 10
23.46732326884872
 20
34.17100705219185
 30
0.0
 10
23.56671251153345
 20
34.27933359872557
 30
0.0
 10
23.58993646983631
 20
34.3894283997763
 30
0.0
 10
23.58975950692609
 20
34.66384651697239
 30
0.0
 10
23.56625801354565
 20
34.82996591185122
 30
0.0
 10
23.46704573375255
 20
35.08260879809006
 30
0.0
 10
23.42271281061215
 20
35.16644081448341
 30
0.0
 10
23.30717705885273
 20
35.31909588940247
 30
0.0
 10
23.23701845376206
 20
35.38650025768825
 30
0.0
 10
23.15526762250251
 20
35.43989814400136
 30
0.0
  0
SPLINE
  5
16B
330
1F
100
AcDbEntity
  8
0
  6
Continuous
 62
     7
370
    30
100
AcDbSpline
210
0.0
220
0.0
230
1.0
 70
     8
 71
     3
 72
     8
 73
     4
 74
     0
 42
0.000000001
 43
0.00000001
 40
0.0
 40
0.0
 40
0.0
 40
0.0
 40
1.0
 40
1.0
 40
1.0
 40
1.0
 10
23.15526762250248
 20
35.43989814400131
 30
0.0
 10
23.01487876116968
 20
35.53159713154156
 30
0.0
 10
22.86885969751809
 20
35.60614510131521
 30
0.0
 10
22.72382280732449
 20
35.653654561118
 30
0.0
  0
LINE
  5
16C
330
1F
100
AcDbEntity
  8
0
  6
Continuous
 62
     7
370
    30
100
AcDbLine
 10
22.7238227598
 20
35.6536543332
 30
0.0
 11
22.7238227598
 21
36.4209621548
 31
0.0
  0
SPLINE
  5
16D
330
1F
100
AcDbEntity
  8
0
  6
Continuous
 62
     7
370
    30
100
AcDbSpline
210
0.0
220
0.0
230
1.0
 70
     8
 71
     3
 72
     8
 73
     4
 74
     0
 42
0.000000001
 43
0.00000001
 40
0.0
 40
0.0
 40
0.0
 40
0.0
 40
1.0
 40
1.0
 40
1.0
 40
1.0
 10
23.15526762250049
 20
36.42040462430761
 30
0.0
 10
23.01487876116818
 20
36.45844957075751
 30
0.0
 10
22.8688596975189
 20
36.45410466236088
 30
0.0
 10
22.72382280732448
 20
36.42096226913181
 30
0.0
  0
SPLINE
  5
16E
330
1F
100
AcDbEntity
  8
0
  6
Continuous
 62
     7
370
    30
100
AcDbSpline
210
0.0
220
0.0
230
1.0
 70
     8
 71
     3
 72
    18
 73
    14
 74
     0
 42
0.000000001
 43
0.00000001
 40
0.0
 40
0.0
 40
0.0
 40
0.0
 40
0.1249999999999999
 40
0.1249999999999999
 40
0.2499999999999999
 40
0.2499999999999999
 40
0.5000000000000002
 40
0.5000000000000002
 40
0.7500000000000006
 40
0.7500000000000006
 40
0.8750000000000002
 40
0.8750000000000002
 40
1.0
 40
1.0
 40
1.0
 40
1.0
 10
23.15526762250048
 20
36.42040462430815
 30
0.0
 10
23.23642934419283
 20
36.39841004919538
 30
0.0
 10
23.30758509556447
 20
36.37264662748869
 30
0.0
 10
23.42307187674564
 20
36.32745451022375
 30
0.0
 10
23.4673232688487
 20
36.30836814630597
 30
0.0
 10
23.56671251153342
 20
36.27534159807927
 30
0.0
 10
23.58993646983629
 20
36.28762196431484
 30
0.0
 10
23.58975950692608
 20
36.38824445346023
 30
0.0
 10
23.56625801354563
 20
36.47726917763308
 30
0.0
 10
23.46704573375253
 20
36.64221538578526
 30
0.0
 10
23.42271281061214
 20
36.70165177815876
 30
0.0
 10
23.30717705885271
 20
36.81588009710129
 30
0.0
 10
23.23701845376204
 20
36.86949114036054
 30
0.0
 10
23.15526762250249
 20
36.91311117042159
 30
0.0
  0
SPLINE
  5
16F
330
1F
100
AcDbEntity
  8
0
  6
Continuous
 62
     7
370
    30
100
AcDbSpline
210
0.0
220
0.0
230
1.0
 70
     8
 71
     3
 72
     8
 73
     4
 74
     0
 42
0.000000001
 43
0.00000001
 40
0.0
 40
0.0
 40
0.0
 40
0.0
 40
1.0
 40
1.0
 40
1.0
 40
1.0
 10
23.15526762250246
 20
36.91311117042159
 30
0.0
 10
23.01487876116967
 20
36.9880188656367
 30
0.0
 10
22.868859697519
 20
37.02855062202138
 30
0.0
 10
22.72382280732448
 20
37.03684545177428
 30
0.0
  0
SPLINE
  5
170
330
1F
100
AcDbEntity
  8
0
  6
Continuous
 62
     7
370
    30
100
AcDbSpline
210
0.0
220
0.0
230
1.0
 70
     8
 71
     3
 72
     8
 73
     4
 74
     0
 42
0.000000001
 43
0.00000001
 40
0.0
 40
0.0
 40
0.0
 40
0.0
 40
1.0
 40
1.0
 40
1.0
 40
1.0
 10
23.15526762250063
 20
22.23928771383822
 30
0.0
 10
23.01487876116833
 20
22.16438001862371
 30
0.0
 10
22.86885969751965
 20
22.12384826223817
 30
0.0
 10
22.72382280732463
 20
22.11555343248552
 30
0.0
  0
SPLINE
  5
171
330
1F
100
AcDbEntity
  8
0
  6
Continuous
 62
     7
370
    30
100
AcDbSpline
210
0.0
220
0.0
230
1.0
 70
     8
 71
     3
 72
    18
 73
    14
 74
     0
 42
0.000000001
 43
0.00000001
 40
0.0
 40
0.0
 40
0.0
 40
0.0
 40
0.1249999999999999
 40
0.1249999999999999
 40
0.2499999999999997
 40
0.2499999999999997
 40
0.4999999999999997
 40
0.4999999999999997
 40
0.7499999999999996
 40
0.7499999999999996
 40
0.8749999999999998
 40
0.8749999999999998
 40
1.0
 40
1.0
 40
1.0
 40
1.0
 10
23.15526762250063
 20
22.23928771383716
 30
0.0
 10
23.23642934419298
 20
22.28259341098373
 30
0.0
 10
23.30758509556462
 20
22.33685351686471
 30
0.0
 10
23.42307187674578
 20
22.4511712561434
 30
0.0
 10
23.46732326884884
 20
22.5105488114338
 30
0.0
 10
23.56671251153357
 20
22.67607901749481
 30
0.0
 10
23.58993646983643
 20
22.76490360028997
 30
0.0
 10
23.58975950692622
 20
22.8650384539022
 30
0.0
 10
23.56625801354577
 20
22.87696250338384
 30
0.0
 10
23.46704573375268
 20
22.84391017658729
 30
0.0
 10
23.42271281061229
 20
22.82479534157115
 30
0.0
 10
23.30717705885287
 20
22.77960116441854
 30
0.0
 10
23.23701845376219
 20
22.75414848193253
 30
0.0
 10
23.15526762250264
 20
22.73199425995222
 30
0.0
  0
SPLINE
  5
172
330
1F
100
AcDbEntity
  8
0
  6
Continuous
 62
     7
370
    30
100
AcDbSpline
210
0.0
220
0.0
230
1.0
 70
     8
 71
     3
 72
     8
 73
     4
 74
     0
 42
0.000000001
 43
0.00000001
 40
0.0
 40
0.0
 40
0.0
 40
0.0
 40
1.0
 40
1.0
 40
1.0
 40
1.0
 10
23.15526762250261
 20
22.73199425995218
 30
0.0
 10
23.01487876116981
 20
22.69394931350196
 30
0.0
 10
22.86885969751927
 20
22.6982942218984
 30
0.0
 10
22.72382280732463
 20
22.73143661512797
 30
0.0
  0
LINE
  5
173
330
1F
100
AcDbEntity
  8
0
  6
Continuous
 62
     7
370
    30
100
AcDbLine
 10
22.7238227598
 20
22.7314367294
 30
0.0
 11
22.7238227598
 21
23.4987445511
 31
0.0
  0
SPLINE
  5
174
330
1F
100
AcDbEntity
  8
0
  6
Continuous
 62
     7
370
    30
100
AcDbSpline
210
0.0
220
0.0
230
1.0
 70
     8
 71
     3
 72
     8
 73
     4
 74
     0
 42
0.000000001
 43
0.00000001
 40
0.0
 40
0.0
 40
0.0
 40
0.0
 40
1.0
 40
1.0
 40
1.0
 40
1.0
 10
23.15526762250061
 20
23.71250074025845
 30
0.0
 10
23.01487876116832
 20
23.62080175271894
 30
0.0
 10
22.86885969751855
 20
23.54625378294323
 30
0.0
 10
22.72382280732462
 20
23.49874432314176
 30
0.0
  0
SPLINE
  5
175
330
1F
100
AcDbEntity
  8
0
  6
Continuous
 62
     7
370
    30
100
AcDbSpline
210
0.0
220
0.0
230
1.0
 70
     8
 71
     3
 72
    18
 73
    14
 74
     0
 42
0.000000001
 43
0.00000001
 40
0.0
 40
0.0
 40
0.0
 40
0.0
 40
0.1249999999999997
 40
0.1249999999999997
 40
0.2499999999999994
 40
0.2499999999999994
 40
0.4999999999999993
 40
0.4999999999999993
 40
0.7499999999999992
 40
0.7499999999999992
 40
0.8749999999999996
 40
0.8749999999999996
 40
1.0
 40
1.0
 40
1.0
 40
1.0
 10
23.15526762250061
 20
23.71250074025715
 30
0.0
 10
23.23642934419296
 20
23.76551383285943
 30
0.0
 10
23.30758509556461
 20
23.83373167136266
 30
0.0
 10
23.42307187674577
 20
23.98654368673482
 30
0.0
 10
23.46732326884883
 20
24.07030226540925
 30
0.0
 10
23.56671251153355
 20
24.32398244426755
 30
0.0
 10
23.58993646983641
 20
24.49011150086545
 30
0.0
 10
23.5897595069262
 20
24.7641726440757
 30
0.0
 10
23.56625801354576
 20
24.87385042778271
 30
0.0
 10
23.46704573375266
 20
24.98154832661489
 30
0.0
 10
23.42271281061226
 20
25.00787685356213
 30
0.0
 10
23.30717705885284
 20
25.04382656147009
 30
0.0
 10
23.23701845376216
 20
25.05335226547466
 30
0.0
 10
23.15526762250261
 20
25.05860005746364
 30
0.0
  0
SPLINE
  5
176
330
1F
100
AcDbEntity
  8
0
  6
Continuous
 62
     7
370
    30
100
AcDbSpline
210
0.0
220
0.0
230
1.0
 70
     8
 71
     3
 72
     8
 73
     4
 74
     0
 42
0.000000001
 43
0.00000001
 40
0.0
 40
0.0
 40
0.0
 40
0.0
 40
1.0
 40
1.0
 40
1.0
 40
1.0
 10
23.15526762250258
 20
25.05860005746356
 30
0.0
 10
23.01487876116979
 20
25.06761197245566
 30
0.0
 10
22.86885969751958
 20
25.11566933093772
 30
0.0
 10
22.7238228073246
 20
25.18136846964815
 30
0.0
  0
LINE
  5
177
330
1F
100
AcDbEntity
  8
0
  6
Continuous
 62
     7
370
    30
100
AcDbLine
 10
22.7238227598
 20
25.1813683063
 30
0.0
 11
22.7238227598
 21
26.5103844795
 31
0.0
  0
SPLINE
  5
178
330
1F
100
AcDbEntity
  8
0
  6
Continuous
 62
     7
370
    30
100
AcDbSpline
210
0.0
220
0.0
230
1.0
 70
     8
 71
     3
 72
     8
 73
     4
 74
     0
 42
0.000000001
 43
0.00000001
 40
0.0
 40
0.0
 40
0.0
 40
0.0
 40
1.0
 40
1.0
 40
1.0
 40
1.0
 10
23.15526762250058
 20
26.75688709850456
 30
0.0
 10
23.01487876116828
 20
26.67296748829802
 30
0.0
 10
22.86885969751861
 20
26.58437837343058
 30
0.0
 10
22.72382280732459
 20
26.51038440496727
 30
0.0
  0
SPLINE
  5
179
330
1F
100
AcDbEntity
  8
0
  6
Continuous
 62
     7
370
    30
100
AcDbSpline
210
0.0
220
0.0
230
1.0
 70
     8
 71
     3
 72
    18
 73
    14
 74
     0
 42
0.000000001
 43
0.00000001
 40
0.0
 40
0.0
 40
0.0
 40
0.0
 40
0.1250000000000001
 40
0.1250000000000001
 40
0.2500000000000001
 40
0.2500000000000001
 40
0.5000000000000002
 40
0.5000000000000002
 40
0.7500000000000003
 40
0.7500000000000003
 40
0.8750000000000001
 40
0.8750000000000001
 40
1.0
 40
1.0
 40
1.0
 40
1.0
 10
23.15526762250058
 20
26.75688709850338
 30
0.0
 10
23.23642934419293
 20
26.80540277121031
 30
0.0
 10
23.30758509556458
 20
26.86929942759945
 30
0.0
 10
23.42307187674574
 20
27.01965986295234
 30
0.0
 10
23.4673232688488
 20
27.10535642149581
 30
0.0
 10
23.56671251153352
 20
27.37921317409053
 30
0.0
 10
23.58993646983638
 20
27.57813255793642
 30
0.0
 10
23.58975950692616
 20
27.95268552874474
 30
0.0
 10
23.56625801354572
 20
28.13072897310521
 30
0.0
 10
23.46704573375262
 20
28.35031953254749
 30
0.0
 10
23.42271281061223
 20
28.41503671392471
 30
0.0
 10
23.3071770588528
 20
28.52249761169116
 30
0.0
 10
23.23701845376213
 20
28.56444929749095
 30
0.0
 10
23.15526762250258
 20
28.59569296182373
 30
0.0
  0
SPLINE
  5
17A
330
1F
100
AcDbEntity
  8
0
  6
Continuous
 62
     7
370
    30
100
AcDbSpline
210
0.0
220
0.0
230
1.0
 70
     8
 71
     3
 72
     8
 73
     4
 74
     0
 42
0.000000001
 43
0.00000001
 40
0.0
 40
0.0
 40
0.0
 40
0.0
 40
1.0
 40
1.0
 40
1.0
 40
1.0
 10
23.15526762250255
 20
28.59569296182364
 30
0.0
 10
23.01487876116975
 20
28.64934700291366
 30
0.0
 10
22.86885969752045
 20
28.72823988108707
 30
0.0
 10
22.72382280732456
 20
28.80889173411611
 30
0.0
  0
LINE
  5
17B
330
1F
100
AcDbEntity
  8
0
  6
Continuous
 62
     7
370
    30
100
AcDbLine
 10
22.7238227598
 20
28.8088917369
 30
0.0
 11
22.7238227598
 21
30.3435071474
 31
0.0
  0
SPLINE
  5
17C
330
1F
100
AcDbEntity
  8
0
  6
Continuous
 62
     7
370
    30
100
AcDbSpline
210
0.0
220
0.0
230
1.0
 70
     8
 71
     3
 72
     8
 73
     4
 74
     0
 42
0.000000001
 43
0.00000001
 40
0.0
 40
0.0
 40
0.0
 40
0.0
 40
1.0
 40
1.0
 40
1.0
 40
1.0
 10
23.15526762250054
 20
30.55670592243608
 30
0.0
 10
23.01487876116824
 20
30.50305188134649
 30
0.0
 10
22.86885969751811
 20
30.42415900317514
 30
0.0
 10
22.72382280732455
 20
30.3435071501436
 30
0.0
  0
SPLINE
  5
17D
330
1F
100
AcDbEntity
  8
0
  6
Continuous
 62
     7
370
    30
100
AcDbSpline
210
0.0
220
0.0
230
1.0
 70
     8
 71
     3
 72
    18
 73
    14
 74
     0
 42
0.000000001
 43
0.00000001
 40
0.0
 40
0.0
 40
0.0
 40
0.0
 40
0.1249999999999999
 40
0.1249999999999999
 40
0.2499999999999999
 40
0.2499999999999999
 40
0.4999999999999998
 40
0.4999999999999998
 40
0.7499999999999999
 40
0.7499999999999999
 40
0.8749999999999999
 40
0.8749999999999999
 40
1.0
 40
1.0
 40
1.0
 40
1.0
 10
23.15526762250054
 20
30.55670592243532
 30
0.0
 10
23.23642934419289
 20
30.58772443992484
 30
0.0
 10
23.30758509556454
 20
30.63017885672137
 30
0.0
 10
23.4230718767457
 20
30.7377987548286
 30
0.0
 10
23.46732326884876
 20
30.80247096958526
 30
0.0
 10
23.56671251153348
 20
31.02312460021684
 30
0.0
 10
23.58993646983634
 20
31.20153402305031
 30
0.0
 10
23.58975950692612
 20
31.57621765540594
 30
0.0
 10
23.56625801354568
 20
31.77492016328582
 30
0.0
 10
23.46704573375258
 20
32.04756427027016
 30
0.0
 10
23.42271281061219
 20
32.1333291895909
 30
0.0
 10
23.30717705885276
 20
32.28350721644139
 30
0.0
 10
23.23701845376209
 20
32.34664396370522
 30
0.0
 10
23.15526762250254
 20
32.39551178575525
 30
0.0
  0
SPLINE
  5
17E
330
1F
100
AcDbEntity
  8
0
  6
Continuous
 62
     7
370
    30
100
AcDbSpline
210
0.0
220
0.0
230
1.0
 70
     8
 71
     3
 72
     8
 73
     4
 74
     0
 42
0.000000001
 43
0.00000001
 40
0.0
 40
0.0
 40
0.0
 40
0.0
 40
1.0
 40
1.0
 40
1.0
 40
1.0
 10
23.15526762250251
 20
32.39551178575517
 30
0.0
 10
23.01487876116971
 20
32.47943139596239
 30
0.0
 10
22.86885969751961
 20
32.56802051082939
 30
0.0
 10
22.72382280732452
 20
32.64201447929246
 30
0.0
  0
LINE
  5
17F
330
1F
100
AcDbEntity
  8
0
  6
Continuous
 62
     7
370
    30
100
AcDbLine
 10
22.7238227598
 20
32.6420144047
 30
0.0
 11
22.7238227598
 21
33.971030578
 31
0.0
  0
LINE
  5
180
330
1F
100
AcDbEntity
  8
0
  6
Continuous
 62
     7
370
    30
100
AcDbLine
 10
23.7238228073
 20
36.0761995762
 30
0.0
 11
23.7238228073
 21
23.076199308
 31
0.0
  0
LINE
  5
181
330
1F
100
AcDbEntity
  8
0
  6
Continuous
 62
     7
370
    30
100
AcDbLine
 10
16.7238225913
 20
28.8088917369
 30
0.0
 11
22.7238227598
 21
28.8088917369
 31
0.0
  0
LINE
  5
182
330
1F
100
AcDbEntity
  8
0
  6
Continuous
 62
     7
370
    30
100
AcDbLine
 10
16.7238225913
 20
30.3435071474
 30
0.0
 11
16.7238225913
 21
28.8088917369
 31
0.0
  0
LINE
  5
183
330
1F
100
AcDbEntity
  8
0
  6
Continuous
 62
     7
370
    30
100
AcDbLine
 10
22.7238227598
 20
30.3435071474
 30
0.0
 11
16.7238225913
 21
30.3435071474
 31
0.0
  0
SPLINE
  5
184
330
1F
100
AcDbEntity
  8
0
  6
Continuous
 62
     7
370
    30
100
AcDbSpline
210
0.0
220
0.0
230
1.0
 70
     8
 71
     3
 72
     8
 73
     4
 74
     0
 42
0.000000001
 43
0.00000001
 40
0.0
 40
0.0
 40
0.0
 40
0.0
 40
1.0
 40
1.0
 40
1.0
 40
1.0
 10
16.29237799214657
 20
30.55670592243601
 30
0.0
 10
16.43276685347936
 20
30.50305188134598
 30
0.0
 10
16.5787859171302
 20
30.4241590031753
 30
0.0
 10
16.72382280732455
 20
30.34350715014354
 30
0.0
  0
SPLINE
  5
185
330
1F
100
AcDbEntity
  8
0
  6
Continuous
 62
     7
370
    30
100
AcDbSpline
210
0.0
220
0.0
230
1.0
 70
     8
 71
     3
 72
     8
 73
     4
 74
     0
 42
0.000000001
 43
0.00000001
 40
0.0
 40
0.0
 40
0.0
 40
0.0
 40
1.0
 40
1.0
 40
1.0
 40
1.0
 10
16.29237799214857
 20
28.59569296182356
 30
0.0
 10
16.43276685348087
 20
28.64934700291316
 30
0.0
 10
16.57878591713059
 20
28.72823988108523
 30
0.0
 10
16.72382280732456
 20
28.80889173411605
 30
0.0
  0
SPLINE
  5
186
330
1F
100
AcDbEntity
  8
0
  6
Continuous
 62
     7
370
    30
100
AcDbSpline
210
0.0
220
0.0
230
1.0
 70
     8
 71
     3
 72
    18
 73
    14
 74
     0
 42
0.000000001
 43
0.00000001
 40
0.0
 40
0.0
 40
0.0
 40
0.0
 40
0.1250000000000003
 40
0.1250000000000003
 40
0.2500000000000007
 40
0.2500000000000007
 40
0.5000000000000001
 40
0.5000000000000001
 40
0.7499999999999996
 40
0.7499999999999996
 40
0.8749999999999998
 40
0.8749999999999998
 40
1.0
 40
1.0
 40
1.0
 40
1.0
 10
16.29237799214857
 20
28.59569296182433
 30
0.0
 10
16.21121627045622
 20
28.56467444433481
 30
0.0
 10
16.14006051908458
 20
28.52222002753828
 30
0.0
 10
16.02457373790341
 20
28.41460012943105
 30
0.0
 10
15.98032234580035
 20
28.3499279146744
 30
0.0
 10
15.88093310311563
 20
28.12927428404282
 30
0.0
 10
15.85770914481277
 20
27.95086486120934
 30
0.0
 10
15.85788610772298
 20
27.57618122885372
 30
0.0
 10
15.88138760110343
 20
27.37747872097384
 30
0.0
 10
15.98059988089653
 20
27.1048346139895
 30
0.0
 10
16.02493280403693
 20
27.01906969466876
 30
0.0
 10
16.14046855579635
 20
26.86889166781826
 30
0.0
 10
16.21062716088703
 20
26.80575492055444
 30
0.0
 10
16.29237799214658
 20
26.75688709850441
 30
0.0
  0
SPLINE
  5
187
330
1F
100
AcDbEntity
  8
0
  6
Continuous
 62
     7
370
    30
100
AcDbSpline
210
0.0
220
0.0
230
1.0
 70
     8
 71
     3
 72
     8
 73
     4
 74
     0
 42
0.000000001
 43
0.00000001
 40
0.0
 40
0.0
 40
0.0
 40
0.0
 40
1.0
 40
1.0
 40
1.0
 40
1.0
 10
16.2923779921466
 20
26.75688709850449
 30
0.0
 10
16.4327668534794
 20
26.67296748829727
 30
0.0
 10
16.57878591712998
 20
26.58437837343104
 30
0.0
 10
16.72382280732459
 20
26.5103844049672
 30
0.0
  0
LINE
  5
188
330
1F
100
AcDbEntity
  8
0
  6
Continuous
 62
     7
370
    30
100
AcDbLine
 10
16.7238225913
 20
26.5103844795
 30
0.0
 11
16.7238225913
 21
25.1813683063
 31
0.0
  0
SPLINE
  5
189
330
1F
100
AcDbEntity
  8
0
  6
Continuous
 62
     7
370
    30
100
AcDbSpline
210
0.0
220
0.0
230
1.0
 70
     8
 71
     3
 72
     8
 73
     4
 74
     0
 42
0.000000001
 43
0.00000001
 40
0.0
 40
0.0
 40
0.0
 40
0.0
 40
1.0
 40
1.0
 40
1.0
 40
1.0
 10
16.29237799214861
 20
25.05860005746349
 30
0.0
 10
16.43276685348091
 20
25.06761197245552
 30
0.0
 10
16.57878591713048
 20
25.11566933093775
 30
0.0
 10
16.7238228073246
 20
25.18136846964809
 30
0.0
  0
SPLINE
  5
18A
330
1F
100
AcDbEntity
  8
0
  6
Continuous
 62
     7
370
    30
100
AcDbSpline
210
0.0
220
0.0
230
1.0
 70
     8
 71
     3
 72
    18
 73
    14
 74
     0
 42
0.000000001
 43
0.00000001
 40
0.0
 40
0.0
 40
0.0
 40
0.0
 40
0.1250000000000002
 40
0.1250000000000002
 40
0.2500000000000004
 40
0.2500000000000004
 40
0.5000000000000009
 40
0.5000000000000009
 40
0.7500000000000013
 40
0.7500000000000013
 40
0.8750000000000007
 40
0.8750000000000007
 40
1.0
 40
1.0
 40
1.0
 40
1.0
 10
16.29237799214861
 20
25.05860005746362
 30
0.0
 10
16.21121627045626
 20
25.05339008190325
 30
0.0
 10
16.14006051908461
 20
25.04375353139509
 30
0.0
 10
16.02457373790345
 20
25.00771083532089
 30
0.0
 10
15.98032234580039
 20
24.98139183206782
 30
0.0
 10
15.88093310311566
 20
24.87306528553411
 30
0.0
 10
15.8577091448128
 20
24.76297048448338
 30
0.0
 10
15.85788610772302
 20
24.48855236728729
 30
0.0
 10
15.88138760110346
 20
24.32243297240847
 30
0.0
 10
15.98059988089656
 20
24.06979008616963
 30
0.0
 10
16.02493280403696
 20
23.98595806977628
 30
0.0
 10
16.14046855579638
 20
23.83330299485722
 30
0.0
 10
16.21062716088706
 20
23.76589862657143
 30
0.0
 10
16.2923779921466
 20
23.71250074025832
 30
0.0
  0
SPLINE
  5
18B
330
1F
100
AcDbEntity
  8
0
  6
Continuous
 62
     7
370
    30
100
AcDbSpline
210
0.0
220
0.0
230
1.0
 70
     8
 71
     3
 72
     8
 73
     4
 74
     0
 42
0.000000001
 43
0.00000001
 40
0.0
 40
0.0
 40
0.0
 40
0.0
 40
1.0
 40
1.0
 40
1.0
 40
1.0
 10
16.29237799214663
 20
23.71250074025838
 30
0.0
 10
16.43276685347943
 20
23.62080175271813
 30
0.0
 10
16.578785917129
 20
23.54625378294235
 30
0.0
 10
16.72382280732462
 20
23.4987443231417
 30
0.0
  0
LINE
  5
18C
330
1F
100
AcDbEntity
  8
0
  6
Continuous
 62
     7
370
    30
100
AcDbLine
 10
16.7238225913
 20
23.4987445511
 30
0.0
 11
16.7238225913
 21
22.7314367294
 31
0.0
  0
SPLINE
  5
18D
330
1F
100
AcDbEntity
  8
0
  6
Continuous
 62
     7
370
    30
100
AcDbSpline
210
0.0
220
0.0
230
1.0
 70
     8
 71
     3
 72
     8
 73
     4
 74
     0
 42
0.000000001
 43
0.00000001
 40
0.0
 40
0.0
 40
0.0
 40
0.0
 40
1.0
 40
1.0
 40
1.0
 40
1.0
 10
16.29237799214863
 20
22.73199425995211
 30
0.0
 10
16.43276685348093
 20
22.6939493135022
 30
0.0
 10
16.57878591713052
 20
22.69829422189861
 30
0.0
 10
16.72382280732463
 20
22.7314366151279
 30
0.0
  0
SPLINE
  5
18E
330
1F
100
AcDbEntity
  8
0
  6
Continuous
 62
     7
370
    30
100
AcDbSpline
210
0.0
220
0.0
230
1.0
 70
     8
 71
     3
 72
    18
 73
    14
 74
     0
 42
0.000000001
 43
0.00000001
 40
0.0
 40
0.0
 40
0.0
 40
0.0
 40
0.125
 40
0.125
 40
0.2499999999999999
 40
0.2499999999999999
 40
0.4999999999999998
 40
0.4999999999999998
 40
0.75
 40
0.75
 40
0.875
 40
0.875
 40
1.0
 40
1.0
 40
1.0
 40
1.0
 10
16.29237799214863
 20
22.73199425995157
 30
0.0
 10
16.21121627045628
 20
22.75398883506433
 30
0.0
 10
16.14006051908463
 20
22.77975225677102
 30
0.0
 10
16.02457373790347
 20
22.82494437403596
 30
0.0
 10
15.98032234580041
 20
22.84403073795374
 30
0.0
 10
15.88093310311569
 20
22.87705728618046
 30
0.0
 10
15.85770914481282
 20
22.86477691994488
 30
0.0
 10
15.85788610772304
 20
22.7641544307995
 30
0.0
 10
15.88138760110348
 20
22.67512970662665
 30
0.0
 10
15.98059988089658
 20
22.51018349847448
 30
0.0
 10
16.02493280403697
 20
22.45074710610099
 30
0.0
 10
16.1404685557964
 20
22.33651878715845
 30
0.0
 10
16.21062716088707
 20
22.28290774389919
 30
0.0
 10
16.29237799214662
 20
22.23928771383815
 30
0.0
  0
SPLINE
  5
18F
330
1F
100
AcDbEntity
  8
0
  6
Continuous
 62
     7
370
    30
100
AcDbSpline
210
0.0
220
0.0
230
1.0
 70
     8
 71
     3
 72
     8
 73
     4
 74
     0
 42
0.000000001
 43
0.00000001
 40
0.0
 40
0.0
 40
0.0
 40
0.0
 40
1.0
 40
1.0
 40
1.0
 40
1.0
 10
16.29237799214665
 20
22.23928771383815
 30
0.0
 10
16.43276685347945
 20
22.16438001862304
 30
0.0
 10
16.5787859171288
 20
22.12384826223812
 30
0.0
 10
16.72382280732463
 20
22.11555343248546
 30
0.0
  0
SPLINE
  5
190
330
1F
100
AcDbEntity
  8
0
  6
Continuous
 62
     7
370
    30
100
AcDbSpline
210
0.0
220
0.0
230
1.0
 70
     8
 71
     3
 72
     8
 73
     4
 74
     0
 42
0.000000001
 43
0.00000001
 40
0.0
 40
0.0
 40
0.0
 40
0.0
 40
1.0
 40
1.0
 40
1.0
 40
1.0
 10
16.29237799214848
 20
36.91311117042152
 30
0.0
 10
16.43276685348078
 20
36.98801886563603
 30
0.0
 10
16.57878591713051
 20
37.02855062202139
 30
0.0
 10
16.72382280732448
 20
37.03684545177421
 30
0.0
  0
SPLINE
  5
191
330
1F
100
AcDbEntity
  8
0
  6
Continuous
 62
     7
370
    30
100
AcDbSpline
210
0.0
220
0.0
230
1.0
 70
     8
 71
     3
 72
    18
 73
    14
 74
     0
 42
0.000000001
 43
0.00000001
 40
0.0
 40
0.0
 40
0.0
 40
0.0
 40
0.1249999999999999
 40
0.1249999999999999
 40
0.2499999999999998
 40
0.2499999999999998
 40
0.4999999999999996
 40
0.4999999999999996
 40
0.7499999999999997
 40
0.7499999999999997
 40
0.8749999999999998
 40
0.8749999999999998
 40
1.0
 40
1.0
 40
1.0
 40
1.0
 10
16.29237799214848
 20
36.91311117042257
 30
0.0
 10
16.21121627045613
 20
36.86980547327602
 30
0.0
 10
16.14006051908449
 20
36.81554536739503
 30
0.0
 10
16.02457373790333
 20
36.70122762811634
 30
0.0
 10
15.98032234580027
 20
36.64185007282593
 30
0.0
 10
15.88093310311554
 20
36.47631986676492
 30
0.0
 10
15.85770914481268
 20
36.38749528396976
 30
0.0
 10
15.85788610772289
 20
36.28736043035752
 30
0.0
 10
15.88138760110333
 20
36.27543638087587
 30
0.0
 10
15.98059988089643
 20
36.30848870767242
 30
0.0
 10
16.02493280403683
 20
36.32760354268856
 30
0.0
 10
16.14046855579625
 20
36.37279771984117
 30
0.0
 10
16.21062716088692
 20
36.39825040232718
 30
0.0
 10
16.29237799214647
 20
36.42040462430749
 30
0.0
  0
SPLINE
  5
192
330
1F
100
AcDbEntity
  8
0
  6
Continuous
 62
     7
370
    30
100
AcDbSpline
210
0.0
220
0.0
230
1.0
 70
     8
 71
     3
 72
     8
 73
     4
 74
     0
 42
0.000000001
 43
0.00000001
 40
0.0
 40
0.0
 40
0.0
 40
0.0
 40
1.0
 40
1.0
 40
1.0
 40
1.0
 10
16.2923779921465
 20
36.42040462430754
 30
0.0
 10
16.4327668534793
 20
36.45844957075776
 30
0.0
 10
16.57878591712903
 20
36.45410466236072
 30
0.0
 10
16.72382280732448
 20
36.42096226913174
 30
0.0
  0
LINE
  5
193
330
1F
100
AcDbEntity
  8
0
  6
Continuous
 62
     7
370
    30
100
AcDbLine
 10
16.7238225913
 20
36.4209621548
 30
0.0
 11
16.7238225913
 21
35.6536543332
 31
0.0
  0
SPLINE
  5
194
330
1F
100
AcDbEntity
  8
0
  6
Continuous
 62
     7
370
    30
100
AcDbSpline
210
0.0
220
0.0
230
1.0
 70
     8
 71
     3
 72
     8
 73
     4
 74
     0
 42
0.000000001
 43
0.00000001
 40
0.0
 40
0.0
 40
0.0
 40
0.0
 40
1.0
 40
1.0
 40
1.0
 40
1.0
 10
16.2923779921485
 20
35.43989814400124
 30
0.0
 10
16.4327668534808
 20
35.53159713154074
 30
0.0
 10
16.57878591713053
 20
35.6061451013165
 30
0.0
 10
16.72382280732449
 20
35.65365456111793
 30
0.0
  0
SPLINE
  5
195
330
1F
100
AcDbEntity
  8
0
  6
Continuous
 62
     7
370
    30
100
AcDbSpline
210
0.0
220
0.0
230
1.0
 70
     8
 71
     3
 72
    18
 73
    14
 74
     0
 42
0.000000001
 43
0.00000001
 40
0.0
 40
0.0
 40
0.0
 40
0.0
 40
0.1250000000000002
 40
0.1250000000000002
 40
0.2500000000000004
 40
0.2500000000000004
 40
0.4999999999999999
 40
0.4999999999999999
 40
0.7499999999999993
 40
0.7499999999999993
 40
0.8749999999999997
 40
0.8749999999999997
 40
1.0
 40
1.0
 40
1.0
 40
1.0
 10
16.2923779921485
 20
35.43989814400253
 30
0.0
 10
16.21121627045614
 20
35.38688505140026
 30
0.0
 10
16.1400605190845
 20
35.31866721289703
 30
0.0
 10
16.02457373790334
 20
35.16585519752487
 30
0.0
 10
15.98032234580029
 20
35.08209661885043
 30
0.0
 10
15.88093310311556
 20
34.82841643999214
 30
0.0
 10
15.8577091448127
 20
34.66228738339423
 30
0.0
 10
15.85788610772291
 20
34.38822624018399
 30
0.0
 10
15.88138760110336
 20
34.27854845647696
 30
0.0
 10
15.98059988089646
 20
34.17085055764479
 30
0.0
 10
16.02493280403685
 20
34.14452203069754
 30
0.0
 10
16.14046855579628
 20
34.10857232278958
 30
0.0
 10
16.21062716088695
 20
34.09904661878502
 30
0.0
 10
16.2923779921465
 20
34.09379882679603
 30
0.0
  0
SPLINE
  5
196
330
1F
100
AcDbEntity
  8
0
  6
Continuous
 62
     7
370
    30
100
AcDbSpline
210
0.0
220
0.0
230
1.0
 70
     8
 71
     3
 72
     8
 73
     4
 74
     0
 42
0.000000001
 43
0.00000001
 40
0.0
 40
0.0
 40
0.0
 40
0.0
 40
1.0
 40
1.0
 40
1.0
 40
1.0
 10
16.29237799214652
 20
34.0937988267961
 30
0.0
 10
16.43276685347932
 20
34.084786911804
 30
0.0
 10
16.57878591712941
 20
34.03672955332177
 30
0.0
 10
16.72382280732451
 20
33.97103041461151
 30
0.0
  0
LINE
  5
197
330
1F
100
AcDbEntity
  8
0
  6
Continuous
 62
     7
370
    30
100
AcDbLine
 10
16.7238225913
 20
33.971030578
 30
0.0
 11
16.7238225913
 21
32.6420144047
 31
0.0
  0
SPLINE
  5
198
330
1F
100
AcDbEntity
  8
0
  6
Continuous
 62
     7
370
    30
100
AcDbSpline
210
0.0
220
0.0
230
1.0
 70
     8
 71
     3
 72
     8
 73
     4
 74
     0
 42
0.000000001
 43
0.00000001
 40
0.0
 40
0.0
 40
0.0
 40
0.0
 40
1.0
 40
1.0
 40
1.0
 40
1.0
 10
16.29237799214853
 20
32.39551178575509
 30
0.0
 10
16.43276685348083
 20
32.47943139596163
 30
0.0
 10
16.57878591713083
 20
32.56802051082855
 30
0.0
 10
16.72382280732452
 20
32.64201447929239
 30
0.0
  0
SPLINE
  5
199
330
1F
100
AcDbEntity
  8
0
  6
Continuous
 62
     7
370
    30
100
AcDbSpline
210
0.0
220
0.0
230
1.0
 70
     8
 71
     3
 72
    18
 73
    14
 74
     0
 42
0.000000001
 43
0.00000001
 40
0.0
 40
0.0
 40
0.0
 40
0.0
 40
0.1250000000000002
 40
0.1250000000000002
 40
0.2500000000000005
 40
0.2500000000000005
 40
0.5000000000000002
 40
0.5000000000000002
 40
0.7499999999999999
 40
0.7499999999999999
 40
0.875
 40
0.875
 40
1.0
 40
1.0
 40
1.0
 40
1.0
 10
16.29237799214853
 20
32.39551178575628
 30
0.0
 10
16.21121627045618
 20
32.34699611304934
 30
0.0
 10
16.14006051908454
 20
32.28309945666021
 30
0.0
 10
16.02457373790338
 20
32.13273902130732
 30
0.0
 10
15.98032234580032
 20
32.04704246276385
 30
0.0
 10
15.88093310311559
 20
31.77318571016913
 30
0.0
 10
15.85770914481273
 20
31.57426632632324
 30
0.0
 10
15.85788610772295
 20
31.19971335551492
 30
0.0
 10
15.88138760110339
 20
31.02166991115445
 30
0.0
 10
15.98059988089649
 20
30.80207935171216
 30
0.0
 10
16.02493280403689
 20
30.73736217033494
 30
0.0
 10
16.14046855579631
 20
30.6299012725685
 30
0.0
 10
16.21062716088698
 20
30.5879495867687
 30
0.0
 10
16.29237799214654
 20
30.55670592243592
 30
0.0
  0
LINE
  5
19A
330
1F
100
AcDbEntity
  8
0
  6
Continuous
 62
     7
370
    30
100
AcDbLine
 10
15.7238224273
 20
23.076199308
 30
0.0
 11
15.7238224273
 21
36.0761995762
 31
0.0
  0
LINE
  5
19B
330
1F
100
AcDbEntity
  8
0
  6
Continuous
 62
     7
370
    30
100
AcDbLine
 10
16.2923780953
 20
30.5567059768
 30
0.0
 11
23.155267605
 21
30.5567059768
 31
0.0
  0
LINE
  5
19C
330
1F
100
AcDbEntity
  8
0
  6
Continuous
 62
     7
370
    30
100
AcDbLine
 10
23.155267605
 20
28.5956929074
 30
0.0
 11
16.2923780953
 21
28.5956929074
 31
0.0
  0
LINE
  5
19D
330
1F
100
AcDbEntity
  8
0
  6
Continuous
 62
     7
370
    30
100
AcDbLine
 10
23.155267605
 20
32.3955117129
 30
0.0
 11
16.2923780953
 21
32.3955117129
 31
0.0
  0
LINE
  5
19E
330
1F
100
AcDbEntity
  8
0
  6
Continuous
 62
     7
370
    30
100
AcDbLine
 10
16.2923780953
 20
26.7568871714
 30
0.0
 11
23.155267605
 21
26.7568871714
 31
0.0
  0
LINE
  5
19F
330
1F
100
AcDbEntity
  8
0
  6
Continuous
 62
     7
370
    30
100
AcDbLine
 10
16.7238225913
 20
32.6420144047
 30
0.0
 11
22.7238227598
 21
32.6420144047
 31
0.0
  0
LINE
  5
1A0
330
1F
100
AcDbEntity
  8
0
  6
Continuous
 62
     7
370
    30
100
AcDbLine
 10
22.7238227598
 20
26.5103844795
 30
0.0
 11
16.7238225913
 21
26.5103844795
 31
0.0
  0
LINE
  5
1A1
330
1F
100
AcDbEntity
  8
0
  6
Continuous
 62
     7
370
    30
100
AcDbLine
 10
22.7238227598
 20
33.971030578
 30
0.0
 11
16.7238225913
 21
33.971030578
 31
0.0
  0
LINE
  5
1A2
330
1F
100
AcDbEntity
  8
0
  6
Continuous
 62
     7
370
    30
100
AcDbLine
 10
16.7238225913
 20
25.1813683063
 30
0.0
 11
22.7238227598
 21
25.1813683063
 31
0.0
  0
LINE
  5
1A3
330
1F
100
AcDbEntity
  8
0
  6
Continuous
 62
     7
370
    30
100
AcDbLine
 10
16.2923780953
 20
34.0937989168
 30
0.0
 11
23.155267605
 21
34.0937989168
 31
0.0
  0
LINE
  5
1A4
330
1F
100
AcDbEntity
  8
0
  6
Continuous
 62
     7
370
    30
100
AcDbLine
 10
23.155267605
 20
25.0585999675
 30
0.0
 11
16.2923780953
 21
25.0585999675
 31
0.0
  0
LINE
  5
1A5
330
1F
100
AcDbEntity
  8
0
  6
Continuous
 62
     7
370
    30
100
AcDbLine
 10
23.155267605
 20
35.4398981072
 30
0.0
 11
16.2923780953
 21
35.4398981072
 31
0.0
  0
LINE
  5
1A6
330
1F
100
AcDbEntity
  8
0
  6
Continuous
 62
     7
370
    30
100
AcDbLine
 10
16.2923780953
 20
23.7125007771
 30
0.0
 11
23.155267605
 21
23.7125007771
 31
0.0
  0
LINE
  5
1A7
330
1F
100
AcDbEntity
  8
0
  6
Continuous
 62
     7
370
    30
100
AcDbLine
 10
16.7238225913
 20
35.6536543332
 30
0.0
 11
22.7238227598
 21
35.6536543332
 31
0.0
  0
LINE
  5
1A8
330
1F
100
AcDbEntity
  8
0
  6
Continuous
 62
     7
370
    30
100
AcDbLine
 10
22.7238227598
 20
23.4987445511
 30
0.0
 11
16.7238225913
 21
23.4987445511
 31
0.0
  0
LINE
  5
1A9
330
1F
100
AcDbEntity
  8
0
  6
Continuous
 62
     7
370
    30
100
AcDbLine
 10
22.7238227598
 20
36.4209621548
 30
0.0
 11
16.7238225913
 21
36.4209621548
 31
0.0
  0
LINE
  5
1AA
330
1F
100
AcDbEntity
  8
0
  6
Continuous
 62
     7
370
    30
100
AcDbLine
 10
16.7238225913
 20
22.7314367294
 30
0.0
 11
22.7238227598
 21
22.7314367294
 31
0.0
  0
LINE
  5
1AB
330
1F
100
AcDbEntity
  8
0
  6
Continuous
 62
     7
370
    30
100
AcDbLine
 10
23.155267605
 20
36.9131111875
 30
0.0
 11
16.2923780953
 21
36.9131111875
 31
0.0
  0
LINE
  5
1AC
330
1F
100
AcDbEntity
  8
0
  6
Continuous
 62
     7
370
    30
100
AcDbLine
 10
16.2923780953
 20
22.2392876968
 30
0.0
 11
23.155267605
 21
22.2392876968
 31
0.0
  0
LINE
  5
1AD
330
1F
100
AcDbEntity
  8
0
  6
Continuous
 62
     7
370
    30
100
AcDbLine
 10
26.2238227514
 20
30.7308999691
 30
0.0
 11
23.7238228073
 21
30.7308999691
 31
0.0
  0
LINE
  5
1AE
330
1F
100
AcDbEntity
  8
0
  6
Continuous
 62
     7
370
    30
100
AcDbLine
 10
26.2238227514
 20
30.7308999691
 30
0.0
 11
26.2238227514
 21
30.1535497056
 31
0.0
  0
LINE
  5
1AF
330
1F
100
AcDbEntity
  8
0
  6
Continuous
 62
     7
370
    30
100
AcDbLine
 10
26.2238227514
 20
30.1535497056
 30
0.0
 11
23.7238228073
 21
30.1535497056
 31
0.0
  0
LINE
  5
1B0
330
1F
100
AcDbEntity
  8
0
  6
Continuous
 62
     7
370
    30
100
AcDbLine
 10
26.2238227514
 20
30.1535497056
 30
0.0
 11
26.2238227514
 21
28.9988491786
 31
0.0
  0
LINE
  5
1B1
330
1F
100
AcDbEntity
  8
0
  6
Continuous
 62
     7
370
    30
100
AcDbLine
 10
26.2238227514
 20
28.9988491786
 30
0.0
 11
23.7238228073
 21
28.9988491786
 31
0.0
  0
LINE
  5
1B2
330
1F
100
AcDbEntity
  8
0
  6
Continuous
 62
     7
370
    30
100
AcDbLine
 10
26.2238227514
 20
28.9988491786
 30
0.0
 11
26.2238227514
 21
28.4214989152
 31
0.0
  0
LINE
  5
1B3
330
1F
100
AcDbEntity
  8
0
  6
Continuous
 62
     7
370
    30
100
AcDbLine
 10
26.2238227514
 20
28.4214989152
 30
0.0
 11
23.7238228073
 21
28.4214989152
 31
0.0
  0
LINE
  5
1B4
330
1F
100
AcDbEntity
  8
0
  6
Continuous
 62
     7
370
    30
100
AcDbLine
 10
16.7238225913
 20
37.0368453078
 30
0.0
 11
22.7238227598
 21
37.0368453078
 31
0.0
  0
LINE
  5
1B5
330
1F
100
AcDbEntity
  8
0
  6
Continuous
 62
     7
370
    30
100
AcDbLine
 10
22.7238227598
 20
22.1155535765
 30
0.0
 11
16.7238225913
 21
22.1155535765
 31
0.0
  0
LINE
  5
1B6
330
1F
100
AcDbEntity
  8
0
  6
Continuous
 62
     8
370
    30
100
AcDbLine
 10
22.7238227598
 20
37.0368453078
 30
0.0
 11
22.7238227598
 21
37.0761992745
 31
0.0
  0
LINE
  5
1B7
330
1F
100
AcDbEntity
  8
0
  6
Continuous
 62
     8
370
    30
100
AcDbLine
 10
22.7238227598
 20
22.0761996098
 30
0.0
 11
22.7238227598
 21
22.1155535765
 31
0.0
  0
LINE
  5
1B8
330
1F
100
AcDbEntity
  8
0
  6
Continuous
 62
     8
370
    30
100
AcDbLine
 10
16.7238225913
 20
22.1155535765
 30
0.0
 11
16.7238225913
 21
22.0761996098
 31
0.0
  0
LINE
  5
1B9
330
1F
100
AcDbEntity
  8
0
  6
Continuous
 62
     8
370
    30
100
AcDbLine
 10
16.7238225913
 20
37.0761992745
 30
0.0
 11
16.7238225913
 21
37.0368453078
 31
0.0
  0
DIMENSION
  5
1BA
330
1F
100
AcDbEntity
  8
SLD-0
 62
     7
100
AcDbDimension
  2
_D_2
 10
23.7238228073
 20
18.8368518003
 30
0.0
 11
19.7238228073
 21
18.8368518003
 31
0.0
 70
   160
  1
<>
 71
     2
 42
-1.0
  3
SLDDIMSTYLE0
100
AcDbAlignedDimension
 13
15.7238228073
 23
23.0761994421
 33
0.0
 14
23.7238228073
 24
23.0761994421
 34
0.0
 50
0.0
100
AcDbRotatedDimension
  0
DIMENSION
  5
1C4
330
1F
100
AcDbEntity
  8
SLD-0
 62
     7
100
AcDbDimension
  2
_D_3
 10
26.2238228073
 20
15.7242815477
 30
0.0
 11
20.9738228073
 21
15.7242815477
 31
0.0
 70
   160
  1
<>
 71
     2
 42
-1.0
  3
SLDDIMSTYLE0
100
AcDbAlignedDimension
 13
15.7238228073
 23
23.0761994421
 33
0.0
 14
26.2238228073
 24
28.4214989038
 34
0.0
 50
0.0
100
AcDbRotatedDimension
  0
SPLINE
  5
1CE
330
1F
100
AcDbEntity
  8
0
  6
Continuous
 62
     7
370
    30
100
AcDbSpline
210
0.0
220
0.0
230
1.0
 70
     8
 71
     3
 72
    11
 73
     7
 74
     0
 42
0.000000001
 43
0.00000001
 40
0.0
 40
0.0
 40
0.0
 40
0.0
 40
0.2246140480028032
 40
0.5120802139819396
 40
0.8000291175121048
 40
1.0
 40
1.0
 40
1.0
 40
1.0
 10
64.94598146217344
 20
37.40856249102166
 30
0.0
 10
64.994835284992
 20
37.37048882012359
 30
0.0
 10
65.10621334110742
 20
37.28368759947902
 30
0.0
 10
65.2831402228013
 20
37.15960792201631
 30
0.0
 10
65.45610153873025
 20
37.04679665780625
 30
0.0
 10
65.56596097929936
 20
36.98206765994274
 30
0.0
 10
65.61098618612593
 20
36.95553888370483
 30
0.0
  0
SPLINE
  5
1CF
330
1F
100
AcDbEntity
  8
0
  6
Continuous
 62
     7
370
    30
100
AcDbSpline
210
0.0
220
0.0
230
1.0
 70
     8
 71
     3
 72
    16
 73
    12
 74
     0
 42
0.000000001
 43
0.00000001
 40
0.0
 40
0.0
 40
0.0
 40
0.0
 40
0.0599571008933066
 40
0.1914036216335533
 40
0.3229106385110294
 40
0.4545054091484397
 40
0.5862149655404867
 40
0.7180658427692668
 40
0.8500836715194232
 40
0.9822925756796426
 40
1.0
 40
1.0
 40
1.0
 40
1.0
 10
63.18629478524505
 20
39.40605852640518
 30
0.0
 10
63.20696998153731
 20
39.37257915073658
 30
0.0
 10
63.27297229634848
 20
39.26570150559492
 30
0.0
 10
63.39092250434459
 20
39.09027005760768
 30
0.0
 10
63.53951014189084
 20
38.88017885154666
 30
0.0
 10
63.69400955457153
 20
38.67587953201753
 30
0.0
 10
63.85369843938417
 20
38.4775790470414
 30
0.0
 10
64.01827136764662
 20
38.28553767540171
 30
0.0
 10
64.18783251992733
 20
38.1011848014933
 30
0.0
 10
64.31049683893296
 20
37.97322914317076
 30
0.0
 10
64.37757598628768
 20
37.9093005232148
 30
0.0
 10
64.38549906536318
 20
37.90174956988471
 30
0.0
  0
SPLINE
  5
1D0
330
1F
100
AcDbEntity
  8
0
  6
Continuous
 62
     7
370
    30
100
AcDbSpline
210
0.0
220
0.0
230
1.0
 70
     8
 71
     3
 72
    16
 73
    12
 74
     0
 42
0.000000001
 43
0.00000001
 40
0.0
 40
0.0
 40
0.0
 40
0.0
 40
0.0537204064930155
 40
0.1855914642864635
 40
0.3172879135409564
 40
0.4488265559211226
 40
0.5802277260122368
 40
0.7115141807095519
 40
0.8427103110793448
 40
0.9738415961529864
 40
1.0
 40
1.0
 40
1.0
 40
1.0
 10
62.17808599696885
 20
41.72608292082663
 30
0.0
 10
62.18616748459826
 20
41.69370342210683
 30
0.0
 10
62.2140871378673
 20
41.58183981249224
 30
0.0
 10
62.27104332371687
 20
41.38981445327599
 30
0.0
 10
62.34849128370382
 20
41.15078277059713
 30
0.0
 10
62.43470890907798
 20
40.91239534658008
 30
0.0
 10
62.52883135013076
 20
40.67524584415177
 30
0.0
 10
62.63059740647137
 20
40.43971389857753
 30
0.0
 10
62.74048049139643
 20
40.2066669622751
 30
0.0
 10
62.82472391576736
 20
40.03695370476134
 30
0.0
 10
62.87436904608909
 20
39.94613589742728
 30
0.0
 10
62.88262538747361
 20
39.93103224443485
 30
0.0
  0
SPLINE
  5
1D1
330
1F
100
AcDbEntity
  8
0
  6
Continuous
 62
     7
370
    30
100
AcDbSpline
210
0.0
220
0.0
230
1.0
 70
     8
 71
     3
 72
    15
 73
    11
 74
     0
 42
0.000000001
 43
0.00000001
 40
0.0
 40
0.0
 40
0.0
 40
0.0
 40
0.003468356115423
 40
0.1556603726333144
 40
0.308441517806167
 40
0.4615975193773263
 40
0.6149473962927825
 40
0.7683254462456529
 40
0.9216172118093189
 40
0.9999999999999999
 40
0.9999999999999999
 40
0.9999999999999999
 40
0.9999999999999999
 10
62.01686000670019
 20
43.91981906495761
 30
0.0
 10
62.01659279335735
 20
43.91825384697579
 30
0.0
 10
62.00460021614357
 20
43.84800661566691
 30
0.0
 10
61.99011727898571
 20
43.70403467707692
 30
0.0
 10
61.97410806277021
 20
43.48778389362526
 30
0.0
 10
61.96925463719494
 20
43.26597726058584
 30
0.0
 10
61.97379507916739
 20
43.04011532766591
 30
0.0
 10
61.98865249425622
 20
42.81047240327514
 30
0.0
 10
62.00760502807009
 20
42.61605327742986
 30
0.0
 10
62.02518959040758
 20
42.49741555670889
 30
0.0
 10
62.03113900091809
 20
42.45727668438131
 30
0.0
  0
SPLINE
  5
1D2
330
1F
100
AcDbEntity
  8
0
  6
Continuous
 62
     7
370
    30
100
AcDbSpline
210
0.0
220
0.0
230
1.0
 70
     8
 71
     3
 72
    14
 73
    10
 74
     0
 42
0.000000001
 43
0.00000001
 40
0.0
 40
0.0
 40
0.0
 40
0.0
 40
0.0883745345024475
 40
0.262032543234187
 40
0.4371015344645346
 40
0.6138880705242522
 40
0.792619714712503
 40
0.9734307043526442
 40
0.9999999999999999
 40
0.9999999999999999
 40
0.9999999999999999
 40
0.9999999999999999
 10
62.83966629138077
 20
45.66208488410584
 30
0.0
 10
62.81864913212066
 20
45.64206354085564
 30
0.0
 10
62.75633276775746
 20
45.58269979404383
 30
0.0
 10
62.6613988253607
 20
45.47375703289849
 30
0.0
 10
62.55452230173297
 20
45.33602825296228
 30
0.0
 10
62.45591909458117
 20
45.1886080650306
 30
0.0
 10
62.36644512378341
 20
45.03150720998433
 30
0.0
 10
62.30642548678809
 20
44.91494630508468
 30
0.0
 10
62.27914711677649
 20
44.84894475284302
 30
0.0
 10
62.27565224706593
 20
44.84048871878819
 30
0.0
  0
SPLINE
  5
1D3
330
1F
100
AcDbEntity
  8
0
  6
Continuous
 62
     7
370
    30
100
AcDbSpline
210
0.0
220
0.0
230
1.0
 70
     8
 71
     3
 72
    13
 73
     9
 74
     0
 42
0.000000001
 43
0.00000001
 40
0.0
 40
0.0
 40
0.0
 40
0.0
 40
0.1489277332712789
 40
0.3343231752247385
 40
0.5174844655703296
 40
0.6983739591731134
 40
0.8770715167638334
 40
1.0
 40
1.0
 40
1.0
 40
1.0
 10
67.13276546447074
 20
36.42984165191573
 30
0.0
 10
67.18343153804247
 20
36.42480499939856
 30
0.0
 10
67.29717020995132
 20
36.41349837688401
 30
0.0
 10
67.47172736210659
 20
36.41089297974097
 30
0.0
 10
67.65538958798383
 20
36.41918304884262
 30
0.0
 10
67.83424884819539
 20
36.44072960584968
 30
0.0
 10
67.99110133977302
 20
36.46943620046591
 30
0.0
 10
68.08640039286291
 20
36.49632689832114
 30
0.0
 10
68.12523977164489
 20
36.50728627268896
 30
0.0
  0
SPLINE
  5
1D4
330
1F
100
AcDbEntity
  8
0
  6
Continuous
 62
     7
370
    30
100
AcDbSpline
210
0.0
220
0.0
230
1.0
 70
     8
 71
     3
 72
    11
 73
     7
 74
     0
 42
0.000000001
 43
0.00000001
 40
0.0
 40
0.0
 40
0.0
 40
0.0
 40
0.1774585654774554
 40
0.508742929301544
 40
0.8401912944810287
 40
1.0
 40
1.0
 40
1.0
 40
1.0
 10
65.61098618612593
 20
36.95553888370483
 30
0.0
 10
65.64586981608285
 20
36.93572013475885
 30
0.0
 10
65.74587513304913
 20
36.87890321883968
 30
0.0
 10
65.9121452596486
 20
36.79390403118035
 30
0.0
 10
66.07561757065314
 20
36.71747386245361
 30
0.0
 10
66.17370935319674
 20
36.67930723355413
 30
0.0
 10
66.20561916523884
 20
36.66689141315734
 30
0.0
  0
SPLINE
  5
1D5
330
1F
100
AcDbEntity
  8
0
  6
Continuous
 62
     7
370
    30
100
AcDbSpline
210
0.0
220
0.0
230
1.0
 70
     8
 71
     3
 72
    13
 73
     9
 74
     0
 42
0.000000001
 43
0.00000001
 40
0.0
 40
0.0
 40
0.0
 40
0.0
 40
0.1285755790668096
 40
0.3140203407586811
 40
0.4972450436780009
 40
0.6781986923032008
 40
0.8569478639373952
 40
1.0
 40
1.0
 40
1.0
 40
1.0
 10
67.83503052320938
 20
48.04961315697032
 30
0.0
 10
67.79121909734121
 20
48.05425189213161
 30
0.0
 10
67.68421838243019
 20
48.06558108237603
 30
0.0
 10
67.51616696162222
 20
48.06914905385127
 30
0.0
 10
67.33201295620506
 20
48.0623407115638
 30
0.0
 10
67.15257757122598
 20
48.04225458880718
 30
0.0
 10
66.98870490453099
 20
48.01339642578795
 30
0.0
 10
66.88667542407332
 20
47.98540935366377
 30
0.0
 10
66.8413196881837
 20
47.97296810388093
 30
0.0
  0
LINE
  5
1D6
330
1F
100
AcDbEntity
  8
0
  6
Continuous
 62
     7
370
    30
100
AcDbLine
 10
70.0205845953
 20
47.0718492377
 30
0.0
 11
70.0132875597
 21
47.0774010464
 31
0.0
  0
SPLINE
  5
1D7
330
1F
100
AcDbEntity
  8
0
  6
Continuous
 62
     7
370
    30
100
AcDbSpline
210
0.0
220
0.0
230
1.0
 70
     8
 71
     3
 72
    14
 73
    10
 74
     0
 42
0.000000001
 43
0.00000001
 40
0.0
 40
0.0
 40
0.0
 40
0.0
 40
0.1104558541370885
 40
0.2690383244913039
 40
0.4278830476745588
 40
0.5869410718147547
 40
0.7461339176339964
 40
0.9053076903074759
 40
1.0
 40
1.0
 40
1.0
 40
1.0
 10
69.98334172410382
 20
47.10018475701652
 30
0.0
 10
69.93970801746973
 20
47.13385019717436
 30
0.0
 10
69.83342900296307
 20
47.2158494147268
 30
0.0
 10
69.66162281502704
 20
47.33514075614956
 30
0.0
 10
69.46864063396845
 20
47.45916865588108
 30
0.0
 10
69.27363048541265
 20
47.57270224131205
 30
0.0
 10
69.07709583980011
 20
47.6751104497997
 30
0.0
 10
68.90620119739842
 20
47.7557448221993
 30
0.0
 10
68.80066829453335
 20
47.79741454812245
 30
0.0
 10
68.76130441327865
 20
47.81295739872755
 30
0.0
  0
SPLINE
  5
1D8
330
1F
100
AcDbEntity
  8
0
  6
Continuous
 62
     7
370
    30
100
AcDbSpline
210
0.0
220
0.0
230
1.0
 70
     8
 71
     3
 72
    16
 73
    12
 74
     0
 42
0.000000001
 43
0.00000001
 40
0.0
 40
0.0
 40
0.0
 40
0.0
 40
0.0775776351127863
 40
0.2087925161862459
 40
0.340070895860476
 40
0.4714399673687383
 40
0.6029266730934545
 40
0.734557420822597
 40
0.8663576579953401
 40
0.998351243823726
 40
0.9999999999999999
 40
0.9999999999999999
 40
0.9999999999999999
 40
0.9999999999999999
 10
71.78325778237624
 20
45.06925347933796
 30
0.0
 10
71.75634526473782
 20
45.11257347984588
 30
0.0
 10
71.68391289081377
 20
45.22916496776746
 30
0.0
 10
71.55907575048484
 20
45.41389513692334
 30
0.0
 10
71.40977803602487
 20
45.62333349620363
 30
0.0
 10
71.25467983592168
 20
45.82698342724612
 30
0.0
 10
71.09440104130888
 20
46.02455531736079
 30
0.0
 10
70.92930049452544
 20
46.21587376494777
 30
0.0
 10
70.75916504163395
 20
46.39925725682486
 30
0.0
 10
70.64332939515383
 20
46.51973360495312
 30
0.0
 10
70.58334599743867
 20
46.57663664434637
 30
0.0
 10
70.58260597750207
 20
46.57733866165796
 30
0.0
  0
SPLINE
  5
1D9
330
1F
100
AcDbEntity
  8
0
  6
Continuous
 62
     7
370
    30
100
AcDbSpline
210
0.0
220
0.0
230
1.0
 70
     8
 71
     3
 72
    16
 73
    12
 74
     0
 42
0.000000001
 43
0.00000001
 40
0.0
 40
0.0
 40
0.0
 40
0.0
 40
0.0693810754357793
 40
0.201600672808134
 40
0.3336468728731657
 40
0.4655369975800975
 40
0.5972917652594757
 40
0.7289342183914101
 40
0.8604889647596102
 40
0.9919816529521112
 40
1.0
 40
1.0
 40
1.0
 40
1.0
 10
72.78872442075352
 20
42.75309169598595
 30
0.0
 10
72.77817386816315
 20
42.79480962871371
 30
0.0
 10
72.74751711504479
 20
42.9160294750948
 30
0.0
 10
72.68720874901486
 20
43.11739678364924
 30
0.0
 10
72.6087292974624
 20
43.35638207282516
 30
0.0
 10
72.52160921648253
 20
43.59465624439127
 30
0.0
 10
72.42657277606811
 20
43.83163269796417
 30
0.0
 10
72.32397126928122
 20
44.06695661866623
 30
0.0
 10
72.21311709055826
 20
44.29965597023962
 30
0.0
 10
72.13394817117079
 20
44.45861957112701
 30
0.0
 10
72.08987833737665
 20
44.53886375695389
 30
0.0
 10
72.08734543937975
 20
44.54347576294629
 30
0.0
  0
SPLINE
  5
1DA
330
1F
100
AcDbEntity
  8
0
  6
Continuous
 62
     7
370
    30
100
AcDbSpline
210
0.0
220
0.0
230
1.0
 70
     8
 71
     3
 72
    15
 73
    11
 74
     0
 42
0.000000001
 43
0.00000001
 40
0.0
 40
0.0
 40
0.0
 40
0.0
 40
0.021825076810562
 40
0.179235210986963
 40
0.3372275883785109
 40
0.4955842488823285
 40
0.6541223817109105
 40
0.8126711724418924
 40
0.9711214697488016
 40
1.0
 40
1.0
 40
1.0
 40
1.0
 10
72.9492473034269
 20
40.55991686442559
 30
0.0
 10
72.95084118994393
 20
40.56946197473761
 30
0.0
 10
72.96393074690855
 20
40.64784977953289
 30
0.0
 10
72.97889841955961
 20
40.80027020696288
 30
0.0
 10
72.99360348492641
 20
41.01720836708693
 30
0.0
 10
72.99735533978246
 20
41.23951490787272
 30
0.0
 10
72.99176052665172
 20
41.46580875110559
 30
0.0
 10
72.97551456434512
 20
41.69589656857636
 30
0.0
 10
72.95903312914558
 20
41.86487075667742
 30
0.0
 10
72.94514631733347
 20
41.95769503095774
 30
0.0
 10
72.94300553248878
 20
41.97200478054511
 30
0.0
  0
SPLINE
  5
1DB
330
1F
100
AcDbEntity
  8
0
  6
Continuous
 62
     7
370
    30
100
AcDbSpline
210
0.0
220
0.0
230
1.0
 70
     8
 71
     3
 72
    14
 73
    10
 74
     0
 42
0.000000001
 43
0.00000001
 40
0.0
 40
0.0
 40
0.0
 40
0.0
 40
0.1082641438756957
 40
0.2822590924804165
 40
0.4577051126500247
 40
0.6349008995134112
 40
0.8140642578705561
 40
0.9953181954612119
 40
1.0
 40
1.0
 40
1.0
 40
1.0
 10
72.12704970618803
 20
38.81773806107997
 30
0.0
 10
72.15260812395547
 20
38.84242362171707
 30
0.0
 10
72.21924233493262
 20
38.90678217749891
 30
0.0
 10
72.3178805615448
 20
39.02137291913685
 30
0.0
 10
72.4237730281803
 20
39.1602579989036
 30
0.0
 10
72.52149964011107
 20
39.30868812516859
 30
0.0
 10
72.6098289164332
 20
39.46694479407601
 30
0.0
 10
72.66621609331854
 20
39.57728208000352
 30
0.0
 10
72.69041901398919
 20
39.63654271552577
 30
0.0
 10
72.69102843605377
 20
39.63803488001864
 30
0.0
  0
LINE
  5
1DC
330
1F
100
AcDbEntity
  8
0
  6
Continuous
 62
     7
370
    30
100
AcDbLine
 10
69.514402517
 20
38.5587701533
 30
0.0
 11
72.901428548
 21
40.5140586615
 31
0.0
  0
LINE
  5
1DD
330
1F
100
AcDbEntity
  8
0
  6
Continuous
 62
     7
370
    30
100
AcDbLine
 10
68.6976362652
 20
47.7952586021
 30
0.0
 11
65.3106890601
 21
45.8400155991
 31
0.0
  0
LINE
  5
1DE
330
1F
100
AcDbEntity
  8
0
  6
Continuous
 62
     7
370
    30
100
AcDbLine
 10
68.979145755
 20
36.9930146967
 30
0.0
 11
72.0953706997
 21
38.7919730654
 31
0.0
  0
LINE
  5
1DF
330
1F
100
AcDbEntity
  8
0
  6
Continuous
 62
     7
370
    30
100
AcDbLine
 10
66.8033274191
 20
47.9579997408
 30
0.0
 11
63.687190251
 21
46.1590920445
 31
0.0
  0
LINE
  5
1E0
330
1F
100
AcDbEntity
  8
0
  6
Continuous
 62
     7
370
    30
100
AcDbLine
 10
68.163330253
 20
36.5219013228
 30
0.0
 11
71.2794674211
 21
38.3208090191
 31
0.0
  0
LINE
  5
1E1
330
1F
100
AcDbEntity
  8
0
  6
Continuous
 62
     7
370
    30
100
AcDbLine
 10
63.6567525873
 20
46.141367646
 30
0.0
 11
62.8712869724
 21
45.6879279983
 31
0.0
  0
SPLINE
  5
1E2
330
1F
100
AcDbEntity
  8
0
  6
Continuous
 62
     7
370
    30
100
AcDbSpline
210
0.0
220
0.0
230
1.0
 70
     8
 71
     3
 72
    10
 73
     6
 74
     0
 42
0.000000001
 43
0.00000001
 40
0.0
 40
0.0
 40
0.0
 40
0.0
 40
0.3732676340637743
 40
0.7541497588257801
 40
1.0
 40
1.0
 40
1.0
 40
1.0
 10
62.7885723981768
 20
45.58399351103154
 30
0.0
 10
62.79660704005591
 20
45.60117028219008
 30
0.0
 10
62.8128402268699
 20
45.6358742228602
 30
0.0
 10
62.84053225442742
 20
45.66909160647047
 30
0.0
 10
62.86354454039188
 20
45.681008400318
 30
0.0
 10
62.87257164089255
 20
45.68568303785178
 30
0.0
  0
SPLINE
  5
1E3
330
1F
100
AcDbEntity
  8
0
  6
Continuous
 62
     7
370
    30
100
AcDbSpline
210
0.0
220
0.0
230
1.0
 70
     8
 71
     3
 72
    18
 73
    14
 74
     0
 42
0.000000001
 43
0.00000001
 40
0.0
 40
0.0
 40
0.0
 40
0.0
 40
0.1250000000000001
 40
0.1250000000000001
 40
0.2500000000000003
 40
0.2500000000000003
 40
0.5
 40
0.5
 40
0.7499999999999997
 40
0.7499999999999997
 40
0.8749999999999999
 40
0.8749999999999999
 40
1.0
 40
1.0
 40
1.0
 40
1.0
 10
62.78857239817616
 20
45.58399351103184
 30
0.0
 10
62.77435519352565
 20
45.54791026408737
 30
0.0
 10
62.77287132344581
 20
45.51289295844585
 30
0.0
 10
62.79172341359283
 20
45.45568558370712
 30
0.0
 10
62.81167755611441
 20
45.43371154871841
 30
0.0
 10
62.88960624700294
 20
45.39394631754933
 30
0.0
 10
62.96178422133905
 20
45.40294791008706
 30
0.0
 10
63.10029538169443
 20
45.48314288077495
 30
0.0
 10
63.16756107451018
 20
45.55490413386754
 30
0.0
 10
63.27206649622622
 20
45.6997822505375
 30
0.0
 10
63.30775591803011
 20
45.75392634359331
 30
0.0
 10
63.38426762930294
 20
45.86616666124116
 30
0.0
 10
63.42451428309967
 20
45.92315881391955
 30
0.0
 10
63.46845522342319
 20
45.97660910275017
 30
0.0
  0
SPLINE
  5
1E4
330
1F
100
AcDbEntity
  8
0
  6
Continuous
 62
     7
370
    30
100
AcDbSpline
210
0.0
220
0.0
230
1.0
 70
     8
 71
     3
 72
     8
 73
     4
 74
     0
 42
0.000000001
 43
0.00000001
 40
0.0
 40
0.0
 40
0.0
 40
0.0
 40
1.0
 40
1.0
 40
1.0
 40
1.0
 10
63.46845522342316
 20
45.97660910275017
 30
0.0
 10
63.5439140106045
 20
46.06839807995356
 30
0.0
 10
63.64193740643144
 20
46.14044081219529
 30
0.0
 10
63.74837517434556
 20
46.19128324421037
 30
0.0
  0
ARC
  5
1E5
330
1F
100
AcDbEntity
  8
0
  6
Continuous
 62
     7
370
    30
100
AcDbCircle
 10
64.2743911286
 20
44.092024234
 30
0.0
 40
2.164158306647152
100
AcDbArc
 50
86.1519404671
 51
104.0670955951
  0
SPLINE
  5
1E6
330
1F
100
AcDbEntity
  8
0
  6
Continuous
 62
     7
370
    30
100
AcDbSpline
210
0.0
220
0.0
230
1.0
 70
     8
 71
     3
 72
     8
 73
     4
 74
     0
 42
0.000000001
 43
0.00000001
 40
0.0
 40
0.0
 40
0.0
 40
0.0
 40
1.0
 40
1.0
 40
1.0
 40
1.0
 10
64.32621971136795
 20
46.05330617363212
 30
0.0
 10
64.35474099022478
 20
46.14089823028912
 30
0.0
 10
64.3837474946722
 20
46.20676981242556
 30
0.0
 10
64.41962958875207
 20
46.25130350399589
 30
0.0
  0
SPLINE
  5
1E7
330
1F
100
AcDbEntity
  8
0
  6
Continuous
 62
     7
370
    30
100
AcDbSpline
210
0.0
220
0.0
230
1.0
 70
     8
 71
     3
 72
    18
 73
    14
 74
     0
 42
0.000000001
 43
0.00000001
 40
0.0
 40
0.0
 40
0.0
 40
0.0
 40
0.1249999999999999
 40
0.1249999999999999
 40
0.2499999999999999
 40
0.2499999999999999
 40
0.5000000000000002
 40
0.5000000000000002
 40
0.7500000000000006
 40
0.7500000000000006
 40
0.8750000000000002
 40
0.8750000000000002
 40
1.0
 40
1.0
 40
1.0
 40
1.0
 10
64.32621971136736
 20
46.05330617363279
 30
0.0
 10
64.30973096664127
 20
46.00266738322318
 30
0.0
 10
64.3060645700074
 20
45.94826322187611
 30
0.0
 10
64.3236784252571
 20
45.84439099318733
 30
0.0
 10
64.3446113954267
 20
45.79536951061544
 30
0.0
 10
64.43273079496532
 20
45.66727804373789
 30
0.0
 10
64.52147038555455
 20
45.60966919156463
 30
0.0
 10
64.71073758358737
 20
45.55919816593666
 30
0.0
 10
64.81253314943767
 20
45.56606078690487
 30
0.0
 10
64.97355289906972
 20
45.62716536456603
 30
0.0
 10
65.0286315193508
 20
45.65588772399118
 30
0.0
 10
65.14126183582337
 20
45.72486506144868
 30
0.0
 10
65.19788608363012
 20
45.76435776405457
 30
0.0
 10
65.25495692225162
 20
45.80452545344932
 30
0.0
  0
SPLINE
  5
1E8
330
1F
100
AcDbEntity
  8
0
  6
Continuous
 62
     7
370
    30
100
AcDbSpline
210
0.0
220
0.0
230
1.0
 70
     8
 71
     3
 72
     8
 73
     4
 74
     0
 42
0.000000001
 43
0.00000001
 40
0.0
 40
0.0
 40
0.0
 40
0.0
 40
1.0
 40
1.0
 40
1.0
 40
1.0
 10
65.2549569222516
 20
45.80452545344934
 30
0.0
 10
65.35296338806894
 20
45.87350452179168
 30
0.0
 10
65.4665610732346
 20
45.91671667496038
 30
0.0
 10
65.58055110235786
 20
45.94032760376813
 30
0.0
  0
ARC
  5
1E9
330
1F
100
AcDbEntity
  8
0
  6
Continuous
 62
     7
370
    30
100
AcDbCircle
 10
63.4565150591
 20
41.3659362143
 30
0.0
 40
5.043469608981988
100
AcDbArc
 50
54.9123243179
 51
65.0930522148
  0
SPLINE
  5
1EA
330
1F
100
AcDbEntity
  8
0
  6
Continuous
 62
     7
370
    30
100
AcDbSpline
210
0.0
220
0.0
230
1.0
 70
     8
 71
     3
 72
     8
 73
     4
 74
     0
 42
0.000000001
 43
0.00000001
 40
0.0
 40
0.0
 40
0.0
 40
0.0
 40
1.0
 40
1.0
 40
1.0
 40
1.0
 10
66.24541803828389
 20
45.23274442186653
 30
0.0
 10
66.28922573796862
 20
45.33301177190679
 30
0.0
 10
66.32312958150128
 20
45.42223020057877
 30
0.0
 10
66.35564893606252
 20
45.49287314870632
 30
0.0
  0
SPLINE
  5
1EB
330
1F
100
AcDbEntity
  8
0
  6
Continuous
 62
     7
370
    30
100
AcDbSpline
210
0.0
220
0.0
230
1.0
 70
     8
 71
     3
 72
    18
 73
    14
 74
     0
 42
0.000000001
 43
0.00000001
 40
0.0
 40
0.0
 40
0.0
 40
0.0
 40
0.1249999999999999
 40
0.1249999999999999
 40
0.2499999999999998
 40
0.2499999999999998
 40
0.5000000000000001
 40
0.5000000000000001
 40
0.7500000000000003
 40
0.7500000000000003
 40
0.8750000000000002
 40
0.8750000000000002
 40
1.0
 40
1.0
 40
1.0
 40
1.0
 10
66.24541803828352
 20
45.23274442186736
 30
0.0
 10
66.22009189562478
 20
45.17477778062845
 30
0.0
 10
66.20559553254822
 20
45.11000512180839
 30
0.0
 10
66.2016221565708
 20
44.97827787107268
 30
0.0
 10
66.21193622955349
 20
44.91188697442321
 30
0.0
 10
66.27318399457754
 20
44.72202628313615
 30
0.0
 10
66.3515644905141
 20
44.61142881103761
 30
0.0
 10
66.54089768259416
 20
44.44382928525185
 30
0.0
 10
66.65312765123555
 20
44.38579054399245
 30
0.0
 10
66.84094348889116
 20
44.35449982861645
 30
0.0
 10
66.9066528221926
 20
44.35356792434346
 30
0.0
 10
67.04085854698529
 20
44.3698263335624
 30
0.0
 10
67.10818286666424
 20
44.38671883703865
 30
0.0
 10
67.17415524916757
 20
44.4092279828475
 30
0.0
  0
SPLINE
  5
1EC
330
1F
100
AcDbEntity
  8
0
  6
Continuous
 62
     7
370
    30
100
AcDbSpline
210
0.0
220
0.0
230
1.0
 70
     8
 71
     3
 72
     8
 73
     4
 74
     0
 42
0.000000001
 43
0.00000001
 40
0.0
 40
0.0
 40
0.0
 40
0.0
 40
1.0
 40
1.0
 40
1.0
 40
1.0
 10
67.17415524916754
 20
44.40922798284756
 30
0.0
 10
67.28744813581291
 20
44.44788243199496
 30
0.0
 10
67.40594316006352
 20
44.46209339127763
 30
0.0
 10
67.51657044966832
 20
44.46347759993334
 30
0.0
  0
ARC
  5
1ED
330
1F
100
AcDbEntity
  8
0
  6
Continuous
 62
     7
370
    30
100
AcDbCircle
 10
61.1264265072
 20
38.6393507785
 30
0.0
 40
8.646062273518407
100
AcDbArc
 50
35.2423681327
 51
42.3467750638
  0
SPLINE
  5
1EE
330
1F
100
AcDbEntity
  8
0
  6
Continuous
 62
     7
370
    30
100
AcDbSpline
210
0.0
220
0.0
230
1.0
 70
     8
 71
     3
 72
     8
 73
     4
 74
     0
 42
0.000000001
 43
0.00000001
 40
0.0
 40
0.0
 40
0.0
 40
0.0
 40
1.0
 40
1.0
 40
1.0
 40
1.0
 10
68.03191973711233
 20
43.34217711446018
 30
0.0
 10
68.0982751154329
 20
43.43922137773626
 30
0.0
 10
68.14775324830501
 20
43.53928869376191
 30
0.0
 10
68.18782486407484
 20
43.62844348990773
 30
0.0
  0
SPLINE
  5
1EF
330
1F
100
AcDbEntity
  8
0
  6
Continuous
 62
     7
370
    30
100
AcDbSpline
210
0.0
220
0.0
230
1.0
 70
     8
 71
     3
 72
    18
 73
    14
 74
     0
 42
0.000000001
 43
0.00000001
 40
0.0
 40
0.0
 40
0.0
 40
0.0
 40
0.1249999999999996
 40
0.1249999999999996
 40
0.2499999999999992
 40
0.2499999999999992
 40
0.4999999999999993
 40
0.4999999999999993
 40
0.7499999999999994
 40
0.7499999999999994
 40
0.8749999999999997
 40
0.8749999999999997
 40
1.0
 40
1.0
 40
1.0
 40
1.0
 10
68.03191973711228
 20
43.34217711446098
 30
0.0
 10
67.99355831230308
 20
43.28607380674058
 30
0.0
 10
67.96248642365754
 20
43.22272923920468
 30
0.0
 10
67.92236110129733
 20
43.08942052898779
 30
0.0
 10
67.91330387718396
 20
43.01999237224146
 30
0.0
 10
67.91781789729622
 20
42.81147048164141
 30
0.0
 10
67.96169429872079
 20
42.67570447232036
 30
0.0
 10
68.10038575816624
 20
42.43589842956284
 30
0.0
 10
68.19615876955392
 20
42.33034586356915
 30
0.0
 10
68.37387246519442
 20
42.22279534528136
 30
0.0
 10
68.43860553509062
 20
42.19592248325283
 30
0.0
 10
68.57406235808803
 20
42.16413201043236
 30
0.0
 10
68.64354215188423
 20
42.15937927082737
 30
0.0
 10
68.71180256235873
 20
42.16458552139372
 30
0.0
  0
SPLINE
  5
1F0
330
1F
100
AcDbEntity
  8
0
  6
Continuous
 62
     7
370
    30
100
AcDbSpline
210
0.0
220
0.0
230
1.0
 70
     8
 71
     3
 72
     8
 73
     4
 74
     0
 42
0.000000001
 43
0.00000001
 40
0.0
 40
0.0
 40
0.0
 40
0.0
 40
1.0
 40
1.0
 40
1.0
 40
1.0
 10
68.7118025623587
 20
42.16458552139378
 30
0.0
 10
68.82902462790808
 20
42.17352609823637
 30
0.0
 10
68.94042780293753
 20
42.16633609530039
 30
0.0
 10
69.03767839563405
 20
42.15645399857544
 30
0.0
  0
ARC
  5
1F1
330
1F
100
AcDbEntity
  8
0
  6
Continuous
 62
     7
370
    30
100
AcDbCircle
 10
61.1856338434
 20
38.5353353164
 30
0.0
 40
8.64679733547199
100
AcDbArc
 50
17.6536779275
 51
24.7576818128
  0
SPLINE
  5
1F2
330
1F
100
AcDbEntity
  8
0
  6
Continuous
 62
     7
370
    30
100
AcDbSpline
210
0.0
220
0.0
230
1.0
 70
     8
 71
     3
 72
     8
 73
     4
 74
     0
 42
0.000000001
 43
0.00000001
 40
0.0
 40
0.0
 40
0.0
 40
0.0
 40
1.0
 40
1.0
 40
1.0
 40
1.0
 10
69.20703312037537
 20
40.88818023466931
 30
0.0
 10
69.29715580285804
 20
40.96696665452933
 30
0.0
 10
69.3687120570712
 20
41.06247794812239
 30
0.0
 10
69.42522731248638
 20
41.15758694901984
 30
0.0
  0
SPLINE
  5
1F3
330
1F
100
AcDbEntity
  8
0
  6
Continuous
 62
     7
370
    30
100
AcDbSpline
210
0.0
220
0.0
230
1.0
 70
     8
 71
     3
 72
    18
 73
    14
 74
     0
 42
0.000000001
 43
0.00000001
 40
0.0
 40
0.0
 40
0.0
 40
0.0
 40
0.1249999999999999
 40
0.1249999999999999
 40
0.2499999999999999
 40
0.2499999999999999
 40
0.4999999999999999
 40
0.4999999999999999
 40
0.7499999999999999
 40
0.7499999999999999
 40
0.8749999999999999
 40
0.8749999999999999
 40
1.0
 40
1.0
 40
1.0
 40
1.0
 10
69.20703312037564
 20
40.88818023466985
 30
0.0
 10
69.15493132252351
 20
40.84263216610428
 30
0.0
 10
69.10597974787302
 20
40.79212962270338
 30
0.0
 10
69.02482464881243
 20
40.6839367663619
 30
0.0
 10
68.9928342511071
 20
40.62661733488958
 30
0.0
 10
68.92595417704304
 20
40.44754252335882
 30
0.0
 10
68.9204268283564
 20
40.32117194874145
 30
0.0
 10
68.97133823984811
 20
40.07342905010902
 30
0.0
 10
69.02817256234326
 20
39.95048148784124
 30
0.0
 10
69.16159274672475
 20
39.80324040937222
 30
0.0
 10
69.21400416578115
 20
39.76109075421223
 30
0.0
 10
69.33005254611427
 20
39.69879610469115
 30
0.0
 10
69.39256565872378
 20
39.67915290345693
 30
0.0
 10
69.45588750601163
 20
39.67204820393107
 30
0.0
  0
SPLINE
  5
1F4
330
1F
100
AcDbEntity
  8
0
  6
Continuous
 62
     7
370
    30
100
AcDbSpline
210
0.0
220
0.0
230
1.0
 70
     8
 71
     3
 72
     8
 73
     4
 74
     0
 42
0.000000001
 43
0.00000001
 40
0.0
 40
0.0
 40
0.0
 40
0.0
 40
1.0
 40
1.0
 40
1.0
 40
1.0
 10
69.45588750601165
 20
39.67204820393114
 30
0.0
 10
69.56462868822675
 20
39.65984746344716
 30
0.0
 10
69.65885108099991
 20
39.64459110050271
 30
0.0
 10
69.73629529453298
 20
39.63742191059784
 30
0.0
  0
ARC
  5
1F5
330
1F
100
AcDbEntity
  8
0
  6
Continuous
 62
     7
370
    30
100
AcDbCircle
 10
64.7114887734
 20
39.1898947257
 30
0.0
 40
5.044696339282555
100
AcDbArc
 50
354.9104625158
 51
5.0895374842
  0
SPLINE
  5
1F6
330
1F
100
AcDbEntity
  8
0
  6
Continuous
 62
     7
370
    30
100
AcDbSpline
210
0.0
220
0.0
230
1.0
 70
     8
 71
     3
 72
     8
 73
     4
 74
     0
 42
0.000000001
 43
0.00000001
 40
0.0
 40
0.0
 40
0.0
 40
0.0
 40
1.0
 40
1.0
 40
1.0
 40
1.0
 10
69.45588750601266
 20
38.52830026466239
 30
0.0
 10
69.5646286882272
 20
38.57868625885334
 30
0.0
 10
69.65885108100065
 20
38.6554574027583
 30
0.0
 10
69.736295294533
 20
38.74236754078672
 30
0.0
  0
SPLINE
  5
1F7
330
1F
100
AcDbEntity
  8
0
  6
Continuous
 62
     7
370
    30
100
AcDbSpline
210
0.0
220
0.0
230
1.0
 70
     8
 71
     3
 72
    18
 73
    14
 74
     0
 42
0.000000001
 43
0.00000001
 40
0.0
 40
0.0
 40
0.0
 40
0.0
 40
0.1250000000000001
 40
0.1250000000000001
 40
0.2500000000000001
 40
0.2500000000000001
 40
0.5000000000000002
 40
0.5000000000000002
 40
0.7500000000000003
 40
0.7500000000000003
 40
0.8750000000000001
 40
0.8750000000000001
 40
1.0
 40
1.0
 40
1.0
 40
1.0
 10
69.4558875060132
 20
38.52830026466252
 30
0.0
 10
69.39302196608621
 20
38.49917107308062
 30
0.0
 10
69.32967739242073
 20
38.4694834766694
 30
0.0
 10
69.21360858187468
 20
38.4063740147968
 30
0.0
 10
69.1612680594253
 20
38.3730647708108
 30
0.0
 10
69.02746353179936
 20
38.26365499567554
 30
0.0
 10
68.9708704723476
 20
38.17872632854665
 30
0.0
 10
68.92038411352723
 20
37.98944290925832
 30
0.0
 10
68.92623160573413
 20
37.8838801543806
 30
0.0
 10
68.99303532018449
 20
37.74415281200862
 30
0.0
 10
69.02508127735847
 20
37.70148393272375
 30
0.0
 10
69.10626215069657
 20
37.63440338135359
 30
0.0
 10
69.15455314341331
 20
37.61061438711063
 30
0.0
 10
69.20703312037435
 20
37.59948939177815
 30
0.0
  0
SPLINE
  5
1F8
330
1F
100
AcDbEntity
  8
0
  6
Continuous
 62
     7
370
    30
100
AcDbSpline
210
0.0
220
0.0
230
1.0
 70
     8
 71
     3
 72
     8
 73
     4
 74
     0
 42
0.000000001
 43
0.00000001
 40
0.0
 40
0.0
 40
0.0
 40
0.0
 40
1.0
 40
1.0
 40
1.0
 40
1.0
 10
69.20703312037439
 20
37.59948939177819
 30
0.0
 10
69.29715580285746
 20
37.58038468785046
 30
0.0
 10
69.36871205707168
 20
37.57255794176214
 30
0.0
 10
69.4252273124864
 20
37.5813539496822
 30
0.0
  0
ARC
  5
1F9
330
1F
100
AcDbEntity
  8
0
  6
Continuous
 62
     7
370
    30
100
AcDbCircle
 10
67.4820782914
 20
38.535159317
 30
0.0
 40
2.164618395198655
100
AcDbArc
 50
315.9430235294
 51
333.8556334778
  0
SPLINE
  5
1FA
330
1F
100
AcDbEntity
  8
0
  6
Continuous
 62
     7
370
    30
100
AcDbSpline
210
0.0
220
0.0
230
1.0
 70
     8
 71
     3
 72
     8
 73
     4
 74
     0
 42
0.000000001
 43
0.00000001
 40
0.0
 40
0.0
 40
0.0
 40
0.0
 40
1.0
 40
1.0
 40
1.0
 40
1.0
 10
68.71180256235975
 20
36.89486513663714
 30
0.0
 10
68.8290246279085
 20
36.91431799402876
 30
0.0
 10
68.94042780293803
 20
36.96318626896573
 30
0.0
 10
69.03767839563409
 20
37.02994135518841
 30
0.0
  0
SPLINE
  5
1FB
330
1F
100
AcDbEntity
  8
0
  6
Continuous
 62
     7
370
    30
100
AcDbSpline
210
0.0
220
0.0
230
1.0
 70
     8
 71
     3
 72
    18
 73
    14
 74
     0
 42
0.000000001
 43
0.00000001
 40
0.0
 40
0.0
 40
0.0
 40
0.0
 40
0.1250000000000005
 40
0.1250000000000005
 40
0.2500000000000011
 40
0.2500000000000011
 40
0.5000000000000007
 40
0.5000000000000007
 40
0.7500000000000003
 40
0.7500000000000003
 40
0.8750000000000002
 40
0.8750000000000002
 40
1.0
 40
1.0
 40
1.0
 40
1.0
 10
68.7118025623604
 20
36.89486513663683
 30
0.0
 10
68.64403404732313
 20
36.88361903503905
 30
0.0
 10
68.5736397540954
 20
36.87714196023584
 30
0.0
 10
68.43812839807607
 20
36.86700337428557
 30
0.0
 10
68.37347359922161
 20
36.86317226965114
 30
0.0
 10
68.19514661193398
 20
36.84497879799471
 30
0.0
 10
68.09950889702365
 20
36.82243418549476
 30
0.0
 10
67.96117649620233
 20
36.74234241048931
 30
0.0
 10
67.91765089672559
 20
36.68428602156511
 30
0.0
 10
67.91336501189338
 20
36.59726341204907
 30
0.0
 10
67.9224586052072
 20
36.56897200333086
 30
0.0
 10
67.9626556275609
 20
36.52410620349868
 30
0.0
 10
67.99327986721875
 20
36.50802694675613
 30
0.0
 10
68.03191973711134
 20
36.50224954491732
 30
0.0
  0
SPLINE
  5
1FC
330
1F
100
AcDbEntity
  8
0
  6
Continuous
 62
     7
370
    30
100
AcDbSpline
210
0.0
220
0.0
230
1.0
 70
     8
 71
     3
 72
    10
 73
     6
 74
     0
 42
0.000000001
 43
0.00000001
 40
0.0
 40
0.0
 40
0.0
 40
0.0
 40
0.246037349732423
 40
0.6195158371829085
 40
1.0
 40
1.0
 40
1.0
 40
1.0
 10
68.16202851190388
 20
36.52413615699218
 30
0.0
 10
68.15345755113215
 20
36.51865051879336
 30
0.0
 10
68.1318760882212
 20
36.50483782025422
 30
0.0
 10
68.08931652547473
 20
36.49734817745667
 30
0.0
 10
68.05117014948588
 20
36.50060566644422
 30
0.0
 10
68.03191973711138
 20
36.50224954491734
 30
0.0
  0
SPLINE
  5
1FD
330
1F
100
AcDbEntity
  8
0
  6
Continuous
 62
     7
370
    30
100
AcDbSpline
210
0.0
220
0.0
230
1.0
 70
     8
 71
     3
 72
    20
 73
    16
 74
     0
 42
0.000000001
 43
0.00000001
 40
0.0
 40
0.0
 40
0.0
 40
0.0
 40
0.0065542160927092
 40
0.0738409682898659
 40
0.1429781017500069
 40
0.2124406610828654
 40
0.2834906480142951
 40
0.3623250567249509
 40
0.4427724222062228
 40
0.5369817081165877
 40
0.6333773479850621
 40
0.7382663321624942
 40
0.846527925585429
 40
0.924777851739159
 40
1.0
 40
1.0
 40
1.0
 40
1.0
 10
67.13269940035545
 20
36.4290676164569
 30
0.0
 10
67.12984087169124
 20
36.42930046900139
 30
0.0
 10
67.09763617757325
 20
36.43192382732687
 30
0.0
 10
67.0337697448091
 20
36.44415716323746
 30
0.0
 10
66.9424191877651
 20
36.46771653820171
 30
0.0
 10
66.85117864061299
 20
36.49776931348939
 30
0.0
 10
66.7592170874539
 20
36.53156298204431
 30
0.0
 10
66.66743087538094
 20
36.56671603511168
 30
0.0
 10
66.57269136531662
 20
36.60177961962361
 30
0.0
 10
66.47916512523237
 20
36.63256179412907
 30
0.0
 10
66.38770741729074
 20
36.65623897997908
 30
0.0
 10
66.30568595891243
 20
36.66966266746136
 30
0.0
 10
66.24739725981138
 20
36.67233835884643
 30
0.0
 10
66.21258629276085
 20
36.6696505551843
 30
0.0
 10
66.20705522619757
 20
36.667807715812
 30
0.0
 10
66.20434425281266
 20
36.66690447437858
 30
0.0
  0
LINE
  5
1FE
330
1F
100
AcDbEntity
  8
0
  6
Continuous
 62
     7
370
    30
100
AcDbLine
 10
66.2035468175
 20
36.6667242769
 30
0.0
 11
66.2055197446
 21
36.6666301593
 31
0.0
  0
SPLINE
  5
1FF
330
1F
100
AcDbEntity
  8
0
  6
Continuous
 62
     7
370
    30
100
AcDbSpline
210
0.0
220
0.0
230
1.0
 70
     8
 71
     3
 72
    15
 73
    11
 74
     0
 42
0.000000001
 43
0.00000001
 40
0.0
 40
0.0
 40
0.0
 40
0.0
 40
0.0596287372138347
 40
0.1884573301832791
 40
0.3199217639572352
 40
0.4738754746146472
 40
0.6314020528658305
 40
0.8028081745146693
 40
0.979725703058543
 40
1.0
 40
1.0
 40
1.0
 40
1.0
 10
64.94591559484364
 20
37.40847835280073
 30
0.0
 10
64.93285046932805
 20
37.41862166097753
 30
0.0
 10
64.8915579853979
 20
37.45067970660358
 30
0.0
 10
64.82382683922955
 20
37.5103484142093
 30
0.0
 10
64.73814695306538
 20
37.58724028815045
 30
0.0
 10
64.64966427287416
 20
37.66744523267259
 30
0.0
 10
64.55714365087563
 20
37.74901854467304
 30
0.0
 10
64.46916868691072
 20
37.82556550492846
 30
0.0
 10
64.4097998088265
 20
37.87599677281926
 30
0.0
 10
64.38770965065856
 20
37.89928938710523
 30
0.0
 10
64.38543844887279
 20
37.9016842195351
 30
0.0
  0
SPLINE
  5
200
330
1F
100
AcDbEntity
  8
0
  6
Continuous
 62
     7
370
    30
100
AcDbSpline
210
0.0
220
0.0
230
1.0
 70
     8
 71
     3
 72
    13
 73
     9
 74
     0
 42
0.000000001
 43
0.00000001
 40
0.0
 40
0.0
 40
0.0
 40
0.0
 40
0.0346359243400112
 40
0.2125909136384226
 40
0.4209881975730095
 40
0.6342218436791885
 40
0.8662433392887822
 40
1.0
 40
1.0
 40
1.0
 40
1.0
 10
63.18578557783901
 20
39.40574032948366
 30
0.0
 10
63.18223161779785
 20
39.41123639073076
 30
0.0
 10
63.16041786151502
 20
39.44497051806236
 30
0.0
 10
63.11767844500517
 20
39.51883461989741
 30
0.0
 10
63.05582307795348
 20
39.62527589028402
 30
0.0
 10
62.98824709408606
 20
39.74288618636992
 30
0.0
 10
62.92779734116009
 20
39.84619714114894
 30
0.0
 10
62.89487383489029
 20
39.90839975155367
 30
0.0
 10
62.88283446572224
 20
39.93114581583193
 30
0.0
  0
SPLINE
  5
201
330
1F
100
AcDbEntity
  8
0
  6
Continuous
 62
     7
370
    30
100
AcDbSpline
210
0.0
220
0.0
230
1.0
 70
     8
 71
     3
 72
    14
 73
    10
 74
     0
 42
0.000000001
 43
0.00000001
 40
0.0
 40
0.0
 40
0.0
 40
0.0
 40
0.1186417951111706
 40
0.2503245933065121
 40
0.404534023415815
 40
0.5623222557062322
 40
0.7340130855267135
 40
0.9112244767727975
 40
1.0
 40
1.0
 40
1.0
 40
1.0
 10
62.17727173551318
 20
41.72586663165087
 30
0.0
 10
62.17226571200534
 20
41.74689980593924
 30
0.0
 10
62.16170340723318
 20
41.79127810276746
 30
0.0
 10
62.14526373788647
 20
41.87779005403315
 30
0.0
 10
62.1251406670015
 20
41.98165627058115
 30
0.0
 10
62.0998487338813
 20
42.10411237637113
 30
0.0
 10
62.07082773681087
 20
42.23907147672247
 30
0.0
 10
62.04504599914101
 20
42.35966605710242
 30
0.0
 10
62.03426131794404
 20
42.43279606601132
 30
0.0
 10
62.03066183366868
 20
42.45720386373083
 30
0.0
  0
LINE
  5
202
330
1F
100
AcDbEntity
  8
0
  6
Continuous
 62
     7
370
    30
100
AcDbLine
 10
62.0176415824
 20
43.9196779371
 30
0.0
 11
62.0169368466
 21
43.9181244605
 31
0.0
  0
SPLINE
  5
203
330
1F
100
AcDbEntity
  8
0
  6
Continuous
 62
     7
370
    30
100
AcDbSpline
210
0.0
220
0.0
230
1.0
 70
     8
 71
     3
 72
    19
 73
    15
 74
     0
 42
0.000000001
 43
0.00000001
 40
0.0
 40
0.0
 40
0.0
 40
0.0
 40
0.0642532844839613
 40
0.1353454538674665
 40
0.2142266666496071
 40
0.2947217938164972
 40
0.3889870118791337
 40
0.4854398819405275
 40
0.5903911388183412
 40
0.6987170072633192
 40
0.7770133904806242
 40
0.8574067231056157
 40
0.9358029444466657
 40
1.0
 40
1.0
 40
1.0
 40
1.0
 10
62.01745915425267
 20
43.91866442745093
 30
0.0
 10
62.01914712697343
 20
43.92010321632418
 30
0.0
 10
62.0227027340656
 20
43.92313393350282
 30
0.0
 10
62.03765605022282
 20
43.94402427422364
 30
0.0
 10
62.0574999111805
 20
43.97915422986148
 30
0.0
 10
62.08157954538483
 20
44.03275308192107
 30
0.0
 10
62.10668173013012
 20
44.10510192090033
 30
0.0
 10
62.13116564026213
 20
44.19957525098607
 30
0.0
 10
62.15319528999201
 20
44.31353308403548
 30
0.0
 10
62.17223914132271
 20
44.43343991559125
 30
0.0
 10
62.19171752559337
 20
44.550246201435
 30
0.0
 10
62.21372539058051
 20
44.6563258771771
 30
0.0
 10
62.24015510310348
 20
44.7558289871574
 30
0.0
 10
62.26491365072246
 20
44.81409314173819
 30
0.0
 10
62.27606022012273
 20
44.84032430249034
 30
0.0
  0
LWPOLYLINE
  5
204
330
1F
100
AcDbEntity
  8
0
  6
Continuous
 62
     7
370
    30
100
AcDbPolyline
 90
      115
 70
   128
 43
0.0
 10
65.4630237469
 20
37.2825708883
 10
65.6438766311
 20
37.1839234368
 10
65.8241802711
 20
37.0970889668
 10
66.0033870906
 20
37.0223311918
 10
66.1809528443
 20
36.9598771487
 10
66.356338271
 20
36.9099165083
 10
66.5290107308
 20
36.8726009995
 10
66.6984458232
 20
36.8480439482
 10
66.8641289793
 20
36.8363199334
 10
67.0255570249
 20
36.8374645606
 10
67.1822397083
 20
36.8514743536
 10
67.3337011893
 20
36.878306765
 10
67.4794814844
 20
36.9178803058
 10
67.6191378637
 20
36.9700747923
 10
67.7522461952
 20
37.0347317117
 10
67.8784022334
 20
37.1116547029
 10
67.9972228465
 20
37.2006101535
 10
68.1083471803
 20
37.3013279086
 10
68.2114377537
 20
37.4135020918
 10
68.3061814841
 20
37.5367920336
 10
68.3922906379
 20
37.6708233066
 10
68.4695037044
 20
37.8151888623
 10
68.5375861901
 20
37.9694502672
 10
68.5963313308
 20
38.1331390344
 10
68.6455607193
 20
38.3057580466
 10
68.6851248475
 20
38.4867830655
 10
68.7149035607
 20
38.6756643241
 10
68.7348064217
 20
38.8718281961
 10
68.7447729863
 20
39.0746789384
 10
68.7447729863
 20
39.2836005
 10
68.7348064217
 20
39.4979583928
 10
68.7149035607
 20
39.7171016191
 10
68.6851248475
 20
39.940364648
 10
68.6455607193
 20
40.1670694371
 10
68.5963313308
 20
40.3965274914
 10
68.5375861901
 20
40.6280419543
 10
68.4695037044
 20
40.8609097239
 10
68.3922906379
 20
41.0944235887
 10
68.3061814841
 20
41.3278743745
 10
68.2114377537
 20
41.560553099
 10
68.1083471803
 20
41.7917531247
 10
67.9972228465
 20
42.0207723046
 10
67.8784022334
 20
42.246915115
 10
67.7522461952
 20
42.4694947675
 10
67.6191378637
 20
42.6878352952
 10
67.4794814844
 20
42.9012736051
 10
67.3337011893
 20
43.1091614919
 10
67.1822397083
 20
43.310867607
 10
67.0255570249
 20
43.5057793756
 10
66.8641289793
 20
43.693304857
 10
66.6984458232
 20
43.8728745425
 10
66.5290107308
 20
44.0439430849
 10
66.356338271
 20
44.2059909547
 10
66.1809528443
 20
44.3585260177
 10
66.0033870906
 20
44.50108503
 10
65.8241802711
 20
44.6332350445
 10
65.6438766311
 20
44.7545747261
 10
65.4630237469
 20
44.8647355701
 10
65.2821708627
 20
44.9633830216
 10
65.1018672228
 20
45.0502174916
 10
64.9226604033
 20
45.1249752666
 10
64.7450946496
 20
45.1874293098
 10
64.5697092229
 20
45.2373899502
 10
64.3970367631
 20
45.274705459
 10
64.2276016707
 20
45.2992625102
 10
64.0619185146
 20
45.310986525
 10
63.9004904689
 20
45.3098418978
 10
63.7438077856
 20
45.2958321049
 10
63.5923463045
 20
45.2689996934
 10
63.4465660094
 20
45.2294261527
 10
63.3069096302
 20
45.1772316662
 10
63.1738012987
 20
45.1125747468
 10
63.0476452605
 20
45.0356517555
 10
62.9288246473
 20
44.9466963049
 10
62.8177003136
 20
44.8459785498
 10
62.7146097402
 20
44.7338043667
 10
62.6198660098
 20
44.6105144249
 10
62.533756856
 20
44.4764831518
 10
62.4565437894
 20
44.3321175961
 10
62.3884613037
 20
44.1778561913
 10
62.3297161631
 20
44.014167424
 10
62.2804867746
 20
43.8415484118
 10
62.2409226463
 20
43.6605233929
 10
62.2111439332
 20
43.4716421344
 10
62.1912410722
 20
43.2754782623
 10
62.1812745076
 20
43.07262752
 10
62.1812745076
 20
42.8637059585
 10
62.1912410722
 20
42.6493480656
 10
62.2111439332
 20
42.4302048394
 10
62.2409226463
 20
42.2069418105
 10
62.2804867746
 20
41.9802370214
 10
62.3297161631
 20
41.7507789671
 10
62.3884613037
 20
41.5192645042
 10
62.4565437894
 20
41.2863967345
 10
62.533756856
 20
41.0528828698
 10
62.6198660098
 20
40.819432084
 10
62.7146097402
 20
40.5867533594
 10
62.8177003136
 20
40.3555533337
 10
62.9288246473
 20
40.1265341539
 10
63.0476452605
 20
39.9003913435
 10
63.1738012987
 20
39.6778116909
 10
63.3069096302
 20
39.4594711632
 10
63.4465660094
 20
39.2460328534
 10
63.5923463045
 20
39.0381449666
 10
63.7438077856
 20
38.8364388514
 10
63.9004904689
 20
38.6415270828
 10
64.0619185146
 20
38.4540016014
 10
64.2276016707
 20
38.2744319159
 10
64.3970367631
 20
38.1033633735
 10
64.5697092229
 20
37.9413155038
 10
64.7450946496
 20
37.7887804408
 10
64.9226604033
 20
37.6462214285
 10
65.1018672228
 20
37.5140714139
 10
65.2821708627
 20
37.3927317323
 10
65.4630237469
 20
37.2825708883
  0
LINE
  5
205
330
1F
100
AcDbEntity
  8
0
  6
Continuous
 62
     7
370
    30
100
AcDbLine
 10
65.9681000192
 20
40.4453431482
 30
0.0
 11
65.9681000192
 21
41.118814659
 31
0.0
  0
LINE
  5
206
330
1F
100
AcDbEntity
  8
0
  6
Continuous
 62
     7
370
    30
100
AcDbLine
 10
65.9681000192
 20
41.118814659
 30
0.0
 11
65.4630237469
 21
41.74712474
 31
0.0
  0
LINE
  5
207
330
1F
100
AcDbEntity
  8
0
  6
Continuous
 62
     7
370
    30
100
AcDbLine
 10
65.4630237469
 20
41.74712474
 30
0.0
 11
64.9579474747
 21
41.7019633103
 31
0.0
  0
LINE
  5
208
330
1F
100
AcDbEntity
  8
0
  6
Continuous
 62
     7
370
    30
100
AcDbLine
 10
71.4982024487
 20
45.3432195304
 30
0.0
 11
68.0319197371
 21
43.3421771145
 31
0.0
  0
SPLINE
  5
209
330
1F
100
AcDbEntity
  8
0
  6
Continuous
 62
     7
370
    30
100
AcDbSpline
210
0.0
220
0.0
230
1.0
 70
     8
 71
     3
 72
    18
 73
    14
 74
     0
 42
0.000000001
 43
0.00000001
 40
0.0
 40
0.0
 40
0.0
 40
0.0
 40
0.1250000000000003
 40
0.1250000000000003
 40
0.2500000000000006
 40
0.2500000000000006
 40
0.5000000000000004
 40
0.5000000000000004
 40
0.7500000000000002
 40
0.7500000000000002
 40
0.8750000000000001
 40
0.8750000000000001
 40
1.0
 40
1.0
 40
1.0
 40
1.0
 10
72.17808527390092
 20
44.16562793738077
 30
0.0
 10
72.19230247855141
 20
44.20778855243091
 30
0.0
 10
72.19378634863128
 20
44.25404676775202
 30
0.0
 10
72.17493425848426
 20
44.35329747436929
 30
0.0
 10
72.15498011596267
 20
44.40597228119268
 30
0.0
 10
72.07705142507413
 20
44.57209900701236
 30
0.0
 10
72.00487345073802
 20
44.69152155480943
 30
0.0
 10
71.86636229038265
 20
44.9314317158522
 30
0.0
 10
71.79909659756687
 20
45.05344655642294
 30
0.0
 10
71.69459117585085
 20
45.203273050391
 30
0.0
 10
71.65890175404697
 20
45.24691790408927
 30
0.0
 10
71.58239004277412
 20
45.31274772760268
 30
0.0
 10
71.5421433889774
 20
45.33438188578818
 30
0.0
 10
71.49820244865387
 20
45.34321953044768
 30
0.0
  0
LINE
  5
20A
330
1F
100
AcDbEntity
  8
0
  6
Continuous
 62
     7
370
    30
100
AcDbLine
 10
68.7118025624
 20
42.1645855214
 30
0.0
 11
72.1780852739
 21
44.1656279374
 31
0.0
  0
LINE
  5
20B
330
1F
100
AcDbEntity
  8
0
  6
Continuous
 62
     7
370
    30
100
AcDbLine
 10
72.6733158319
 20
42.8892226507
 30
0.0
 11
69.2070331204
 21
40.8881802347
 31
0.0
  0
SPLINE
  5
20C
330
1F
100
AcDbEntity
  8
0
  6
Continuous
 62
     7
370
    30
100
AcDbSpline
210
0.0
220
0.0
230
1.0
 70
     8
 71
     3
 72
    18
 73
    14
 74
     0
 42
0.000000001
 43
0.00000001
 40
0.0
 40
0.0
 40
0.0
 40
0.0
 40
0.1250000000000001
 40
0.1250000000000001
 40
0.2500000000000002
 40
0.2500000000000002
 40
0.5000000000000001
 40
0.5000000000000001
 40
0.75
 40
0.75
 40
0.875
 40
0.875
 40
1.0
 40
1.0
 40
1.0
 40
1.0
 10
72.92217021755374
 20
41.67309061991782
 30
0.0
 10
72.94129039731452
 20
41.72747347038443
 30
0.0
 10
72.94982398695664
 20
41.78880277435964
 30
0.0
 10
72.95041444228288
 20
41.91857647171251
 30
0.0
 10
72.94277457616637
 20
41.98651165698371
 30
0.0
 10
72.90936834493954
 20
42.19245014853317
 30
0.0
 10
72.87623502606198
 20
42.32917675132152
 30
0.0
 10
72.82556990770757
 20
42.57685367544214
 30
0.0
 10
72.80767730657543
 20
42.68936992369314
 30
0.0
 10
72.77426148414199
 20
42.80982284627132
 30
0.0
 10
72.76152442619825
 20
42.84134493529667
 30
0.0
 10
72.72599656590981
 20
42.88207056321358
 30
0.0
 10
72.70341666517199
 20
42.89101685999281
 30
0.0
 10
72.67331583191692
 20
42.88922265065683
 30
0.0
  0
LINE
  5
20D
330
1F
100
AcDbEntity
  8
0
  6
Continuous
 62
     7
370
    30
100
AcDbLine
 10
69.455887506
 20
39.6720482039
 30
0.0
 11
72.9221702176
 21
41.6730906199
 31
0.0
  0
LINE
  5
20E
330
1F
100
AcDbEntity
  8
0
  6
Continuous
 62
     7
370
    30
100
AcDbLine
 10
69.7117007498
 20
47.2337868379
 30
0.0
 11
66.2454180383
 21
45.2327444219
 31
0.0
  0
SPLINE
  5
20F
330
1F
100
AcDbEntity
  8
0
  6
Continuous
 62
     7
370
    30
100
AcDbSpline
210
0.0
220
0.0
230
1.0
 70
     8
 71
     3
 72
    18
 73
    14
 74
     0
 42
0.000000001
 43
0.00000001
 40
0.0
 40
0.0
 40
0.0
 40
0.0
 40
0.1249999999999999
 40
0.1249999999999999
 40
0.2499999999999999
 40
0.2499999999999999
 40
0.4999999999999999
 40
0.4999999999999999
 40
0.7499999999999999
 40
0.7499999999999999
 40
0.8749999999999999
 40
0.8749999999999999
 40
1.0
 40
1.0
 40
1.0
 40
1.0
 10
70.64043796070969
 20
46.41027039883497
 30
0.0
 10
70.6569267054358
 20
46.43525280607365
 30
0.0
 10
70.66059310206965
 20
46.45960427416737
 30
0.0
 10
70.64297924681995
 20
46.51076049125279
 30
0.0
 10
70.62204627665037
 20
46.53751798083987
 30
0.0
 10
70.53392687711174
 20
46.62708441271337
 30
0.0
 10
70.4451872865225
 20
46.69901815090986
 30
0.0
 10
70.25592008848967
 20
46.86686398936746
 30
0.0
 10
70.15412452263938
 20
46.96384754061926
 30
0.0
 10
69.99310477300732
 20
47.09515054970387
 30
0.0
 10
69.93802615272625
 20
47.13575996182762
 30
0.0
 10
69.82539583625366
 20
47.20002845906966
 30
0.0
 10
69.76877158844692
 20
47.22307233473369
 30
0.0
 10
69.71170074982543
 20
47.23378683785401
 30
0.0
  0
LINE
  5
210
330
1F
100
AcDbEntity
  8
0
  6
Continuous
 62
     7
370
    30
100
AcDbLine
 10
67.1741552492
 20
44.4092279828
 30
0.0
 11
70.6404379607
 21
46.4102703988
 31
0.0
  0
LINE
  5
211
330
1F
100
AcDbEntity
  8
0
  6
Continuous
 62
     7
370
    30
100
AcDbLine
 10
69.4252273125
 20
41.157586949
 30
0.0
 11
72.4556849461
 21
42.9070329029
 31
0.0
  0
LINE
  5
212
330
1F
100
AcDbEntity
  8
0
  6
Continuous
 62
     7
370
    30
100
AcDbLine
 10
72.0681360293
 20
43.9058999525
 30
0.0
 11
69.0376783956
 21
42.1564539986
 31
0.0
  0
ARC
  5
213
330
1F
100
AcDbEntity
  8
0
  6
Continuous
 62
     7
370
    30
100
AcDbCircle
 10
64.216091477
 20
40.2847812703
 30
0.0
 40
8.646797335473016
100
AcDbArc
 50
17.6536779275
 51
24.7576818128
  0
LINE
  5
214
330
1F
100
AcDbEntity
  8
0
  6
Continuous
 62
     7
370
    30
100
AcDbLine
 10
68.1878248641
 20
43.6284434899
 30
0.0
 11
71.2182824977
 21
45.3778894438
 31
0.0
  0
LINE
  5
215
330
1F
100
AcDbEntity
  8
0
  6
Continuous
 62
     7
370
    30
100
AcDbLine
 10
70.5470280833
 20
46.2129235538
 30
0.0
 11
67.5165704497
 21
44.4634775999
 31
0.0
  0
ARC
  5
216
330
1F
100
AcDbEntity
  8
0
  6
Continuous
 62
     7
370
    30
100
AcDbCircle
 10
64.1568841408
 20
40.3887967324
 30
0.0
 40
8.646062273513882
100
AcDbArc
 50
35.2423681327
 51
42.3467750638
  0
SPLINE
  5
217
330
1F
100
AcDbEntity
  8
0
  6
Continuous
 62
     7
370
    30
100
AcDbSpline
210
0.0
220
0.0
230
1.0
 70
     8
 71
     3
 72
     8
 73
     4
 74
     0
 42
0.000000001
 43
0.00000001
 40
0.0
 40
0.0
 40
0.0
 40
0.0
 40
1.0
 40
1.0
 40
1.0
 40
1.0
 10
72.17808527390028
 20
44.16562793738122
 30
0.0
 10
72.15349317394741
 20
44.09270093908019
 30
0.0
 10
72.11739482027775
 20
44.00036011611144
 30
0.0
 10
72.06813602929071
 20
43.90589995248121
 30
0.0
  0
SPLINE
  5
218
330
1F
100
AcDbEntity
  8
0
  6
Continuous
 62
     7
370
    30
100
AcDbSpline
210
0.0
220
0.0
230
1.0
 70
     8
 71
     3
 72
     8
 73
     4
 74
     0
 42
0.000000001
 43
0.00000001
 40
0.0
 40
0.0
 40
0.0
 40
0.0
 40
1.0
 40
1.0
 40
1.0
 40
1.0
 10
71.4982024486539
 20
45.34321953044762
 30
0.0
 10
71.42274366147257
 20
45.35839621858027
 30
0.0
 10
71.32472026564541
 20
45.37331271457319
 30
0.0
 10
71.2182824977315
 20
45.3778894438135
 30
0.0
  0
SPLINE
  5
219
330
1F
100
AcDbEntity
  8
0
  6
Continuous
 62
     7
370
    30
100
AcDbSpline
210
0.0
220
0.0
230
1.0
 70
     8
 71
     3
 72
     8
 73
     4
 74
     0
 42
0.000000001
 43
0.00000001
 40
0.0
 40
0.0
 40
0.0
 40
0.0
 40
1.0
 40
1.0
 40
1.0
 40
1.0
 10
72.67331583191692
 20
42.88922265065676
 30
0.0
 10
72.6216243488979
 20
42.8861414953732
 30
0.0
 10
72.54567907441168
 20
42.89650196893255
 30
0.0
 10
72.45568494614304
 20
42.90703290292561
 30
0.0
  0
SPLINE
  5
21A
330
1F
100
AcDbEntity
  8
0
  6
Continuous
 62
     7
370
    30
100
AcDbSpline
210
0.0
220
0.0
230
1.0
 70
     8
 71
     3
 72
     8
 73
     4
 74
     0
 42
0.000000001
 43
0.00000001
 40
0.0
 40
0.0
 40
0.0
 40
0.0
 40
1.0
 40
1.0
 40
1.0
 40
1.0
 10
70.6404379607091
 20
46.410270398835
 30
0.0
 10
70.61191668185226
 20
46.36705727283853
 30
0.0
 10
70.58291017740491
 20
46.29611741208813
 30
0.0
 10
70.54702808332497
 20
46.21292355383911
 30
0.0
  0
SPLINE
  5
21B
330
1F
100
AcDbEntity
  8
0
  6
Continuous
 62
     7
370
    30
100
AcDbSpline
210
0.0
220
0.0
230
1.0
 70
     8
 71
     3
 72
    10
 73
     6
 74
     0
 42
0.000000001
 43
0.00000001
 40
0.0
 40
0.0
 40
0.0
 40
0.0
 40
0.0275880561051227
 40
0.8568312801531709
 40
1.0
 40
1.0
 40
1.0
 40
1.0
 10
72.06813602929074
 20
38.77938730909418
 30
0.0
 10
72.06875921314065
 20
38.77961606740855
 30
0.0
 10
72.08811408953521
 20
38.786720855024
 30
0.0
 10
72.10945193689405
 20
38.7964721163217
 30
0.0
 10
72.12498338573272
 20
38.8148231089316
 30
0.0
 10
72.12727008908058
 20
38.81752493518577
 30
0.0
  0
ARC
  5
21C
330
1F
100
AcDbEntity
  8
0
  6
Continuous
 62
     7
370
    30
100
AcDbCircle
 10
70.5125359251
 20
40.2846052709
 30
0.0
 40
2.164618395198241
100
AcDbArc
 50
315.9430235294
 51
333.8556334778
  0
SPLINE
  5
21D
330
1F
100
AcDbEntity
  8
0
  6
Continuous
 62
     7
370
    30
100
AcDbSpline
210
0.0
220
0.0
230
1.0
 70
     8
 71
     3
 72
     8
 73
     4
 74
     0
 42
0.000000001
 43
0.00000001
 40
0.0
 40
0.0
 40
0.0
 40
0.0
 40
1.0
 40
1.0
 40
1.0
 40
1.0
 10
72.67331583191594
 20
39.60053180776563
 30
0.0
 10
72.621624348897
 20
39.4995595286945
 30
0.0
 10
72.5456790744113
 20
39.40658196257309
 30
0.0
 10
72.45568494614307
 20
39.33079990358797
 30
0.0
  0
SPLINE
  5
21E
330
1F
100
AcDbEntity
  8
0
  6
Continuous
 62
     7
370
    30
100
AcDbSpline
210
0.0
220
0.0
230
1.0
 70
     8
 71
     3
 72
    14
 73
    10
 74
     0
 42
0.000000001
 43
0.00000001
 40
0.0
 40
0.0
 40
0.0
 40
0.0
 40
0.25
 40
0.25
 40
0.5
 40
0.5
 40
0.75
 40
0.75
 40
1.0
 40
1.0
 40
1.0
 40
1.0
 10
72.67331583191621
 20
39.60053180776479
 30
0.0
 10
72.71663693295378
 20
39.68515368448722
 30
0.0
 10
72.74499977073563
 20
39.78527094201849
 30
0.0
 10
72.78528101584348
 20
39.98106014449187
 30
0.0
 10
72.79859133414226
 20
40.07715781603777
 30
0.0
 10
72.82854779659412
 20
40.24863960019777
 30
0.0
 10
72.84520008398451
 20
40.32418713285908
 30
0.0
 10
72.88464314984101
 20
40.44960709053376
 30
0.0
 10
72.90670183158379
 20
40.49739195421984
 30
0.0
 10
72.92465339017873
 20
40.52765749068608
 30
0.0
  0
SPLINE
  5
21F
330
1F
100
AcDbEntity
  8
0
  6
Continuous
 62
     7
370
    30
100
AcDbSpline
210
0.0
220
0.0
230
1.0
 70
     8
 71
     3
 72
    10
 73
     6
 74
     0
 42
0.000000001
 43
0.00000001
 40
0.0
 40
0.0
 40
0.0
 40
0.0
 40
0.3677135667858267
 40
0.9004093868358489
 40
1.0
 40
1.0
 40
1.0
 40
1.0
 10
72.94879240620487
 20
40.55999821166015
 30
0.0
 10
72.94862095186318
 20
40.55911413970539
 30
0.0
 10
72.9482011166637
 20
40.55694933873362
 30
0.0
 10
72.9357425354697
 20
40.54242056763147
 30
0.0
 10
72.92401707894979
 20
40.53112226205607
 30
0.0
 10
72.92217021755421
 20
40.52934268064983
 30
0.0
  0
SPLINE
  5
220
330
1F
100
AcDbEntity
  8
0
  6
Continuous
 62
     7
370
    30
100
AcDbSpline
210
0.0
220
0.0
230
1.0
 70
     8
 71
     3
 72
     8
 73
     4
 74
     0
 42
0.000000001
 43
0.00000001
 40
0.0
 40
0.0
 40
0.0
 40
0.0
 40
1.0
 40
1.0
 40
1.0
 40
1.0
 10
72.92217021755421
 20
40.52934268064983
 30
0.0
 10
72.88909723426721
 20
40.49786109969698
 30
0.0
 10
72.83581809834116
 20
40.48948142357031
 30
0.0
 10
72.76675292818965
 20
40.49181349469249
 30
0.0
  0
ARC
  5
221
330
1F
100
AcDbEntity
  8
0
  6
Continuous
 62
     7
370
    30
100
AcDbCircle
 10
67.7419464071
 20
40.9393406796
 30
0.0
 40
5.044696339284643
100
AcDbArc
 50
354.9104625158
 51
5.0895374842
  0
SPLINE
  5
222
330
1F
100
AcDbEntity
  8
0
  6
Continuous
 62
     7
370
    30
100
AcDbSpline
210
0.0
220
0.0
230
1.0
 70
     8
 71
     3
 72
     8
 73
     4
 74
     0
 42
0.000000001
 43
0.00000001
 40
0.0
 40
0.0
 40
0.0
 40
0.0
 40
1.0
 40
1.0
 40
1.0
 40
1.0
 10
72.9221702175532
 20
41.67309061991858
 30
0.0
 10
72.88909723426615
 20
41.57902230429114
 30
0.0
 10
72.83581809834128
 20
41.47861512131415
 30
0.0
 10
72.76675292818963
 20
41.38686786450361
 30
0.0
  0
SPLINE
  5
223
330
1F
100
AcDbEntity
  8
0
  6
Continuous
 62
     7
370
    30
100
AcDbSpline
210
0.0
220
0.0
230
1.0
 70
     8
 71
     3
 72
     8
 73
     4
 74
     0
 42
0.000000001
 43
0.00000001
 40
0.0
 40
0.0
 40
0.0
 40
0.0
 40
1.0
 40
1.0
 40
1.0
 40
1.0
 10
69.71170074982545
 20
47.23378683785396
 30
0.0
 10
69.6136942840081
 20
47.25218661275083
 30
0.0
 10
69.50009659884174
 20
47.25625422139161
 30
0.0
 10
69.38610656971917
 20
47.24231910261209
 30
0.0
  0
ARC
  5
224
330
1F
100
AcDbEntity
  8
0
  6
Continuous
 62
     7
370
    30
100
AcDbCircle
 10
66.4869726928
 20
43.1153821682
 30
0.0
 40
5.043469608981235
100
AcDbArc
 50
54.9123243179
 51
65.0930522148
  0
SPLINE
  5
225
330
1F
100
AcDbEntity
  8
0
  6
Continuous
 62
     7
370
    30
100
AcDbSpline
210
0.0
220
0.0
230
1.0
 70
     8
 71
     3
 72
     8
 73
     4
 74
     0
 42
0.000000001
 43
0.00000001
 40
0.0
 40
0.0
 40
0.0
 40
0.0
 40
1.0
 40
1.0
 40
1.0
 40
1.0
 10
68.72123963379315
 20
47.80556786943678
 30
0.0
 10
68.67743193410843
 20
47.79267936263501
 30
0.0
 10
68.64352809057524
 20
47.7507406957718
 30
0.0
 10
68.61100873601453
 20
47.6897735576739
 30
0.0
  0
SPLINE
  5
226
330
1F
100
AcDbEntity
  8
0
  6
Continuous
 62
     7
370
    30
100
AcDbSpline
210
0.0
220
0.0
230
1.0
 70
     8
 71
     3
 72
    10
 73
     6
 74
     0
 42
0.000000001
 43
0.00000001
 40
0.0
 40
0.0
 40
0.0
 40
0.0
 40
0.250166256469307
 40
0.690635768132624
 40
1.0
 40
1.0
 40
1.0
 40
1.0
 10
68.72123963379353
 20
47.80556786943718
 30
0.0
 10
68.72718536524225
 20
47.80721819762118
 30
0.0
 10
68.74359978845087
 20
47.81177427040696
 30
0.0
 10
68.75937455867457
 20
47.81424084782378
 30
0.0
 10
68.76084952915191
 20
47.81360987764322
 30
0.0
 10
68.76145806819498
 20
47.81334955379554
 30
0.0
  0
SPLINE
  5
227
330
1F
100
AcDbEntity
  8
0
  6
Continuous
 62
     7
370
    30
100
AcDbSpline
210
0.0
220
0.0
230
1.0
 70
     8
 71
     3
 72
    18
 73
    14
 74
     0
 42
0.000000001
 43
0.00000001
 40
0.0
 40
0.0
 40
0.0
 40
0.0
 40
0.0654254737080452
 40
0.1573820385844436
 40
0.2650693725319099
 40
0.3752558510863985
 40
0.4951507739422247
 40
0.6189008082616948
 40
0.708345557233667
 40
0.8001858333765024
 40
0.8897446360959046
 40
0.9826338211306748
 40
1.0
 40
1.0
 40
1.0
 40
1.0
 10
68.71808758612434
 20
47.80889400466152
 30
0.0
 10
68.70866902124179
 20
47.8088527093187
 30
0.0
 10
68.68601251059319
 20
47.80875337270148
 30
0.0
 10
68.63119376350595
 20
47.81457524266651
 30
0.0
 10
68.55645683788887
 20
47.8288634381888
 30
0.0
 10
68.46226842178358
 20
47.8549277471105
 30
0.0
 10
68.35261104995568
 20
47.8927967083082
 30
0.0
 10
68.2392320661541
 20
47.93629149215214
 30
0.0
 10
68.12836167515934
 20
47.97771698254927
 30
0.0
 10
68.02541394141377
 20
48.01206319088482
 30
0.0
 10
67.9186823482506
 20
48.03962422608492
 30
0.0
 10
67.84091584514734
 20
48.05147122619415
 30
0.0
 10
67.79909030871616
 20
48.05395705064557
 30
0.0
 10
67.79250242290952
 20
48.05434858961957
 30
0.0
  0
SPLINE
  5
228
330
1F
100
AcDbEntity
  8
0
  6
Continuous
 62
     7
370
    30
100
AcDbSpline
210
0.0
220
0.0
230
1.0
 70
     8
 71
     3
 72
     8
 73
     4
 74
     0
 42
0.000000001
 43
0.00000001
 40
0.0
 40
0.0
 40
0.0
 40
0.0
 40
1.0
 40
1.0
 40
1.0
 40
1.0
 10
67.79250242290951
 20
48.05434858961957
 30
0.0
 10
67.67920953626414
 20
48.06007307113305
 30
0.0
 10
67.5607145120131
 20
48.04079383323753
 30
0.0
 10
67.45008722240874
 20
48.00074945790166
 30
0.0
  0
ARC
  5
229
330
1F
100
AcDbEntity
  8
0
  6
Continuous
 62
     7
370
    30
100
AcDbCircle
 10
67.3048487623
 20
45.8414701879
 30
0.0
 40
2.164158306647247
100
AcDbArc
 50
86.1519404671
 51
104.067095595
  0
SPLINE
  5
22A
330
1F
100
AcDbEntity
  8
0
  6
Continuous
 62
     7
370
    30
100
AcDbSpline
210
0.0
220
0.0
230
1.0
 70
     8
 71
     3
 72
    10
 73
     6
 74
     0
 42
0.000000001
 43
0.00000001
 40
0.0
 40
0.0
 40
0.0
 40
0.0
 40
0.1420285761777219
 40
0.9723752338115285
 40
1.0
 40
1.0
 40
1.0
 40
1.0
 10
66.84135740134245
 20
47.97281057470607
 30
0.0
 10
66.83790066807163
 20
47.97219644584669
 30
0.0
 10
66.81423471356518
 20
47.96799191384829
 30
0.0
 10
66.79517606708589
 20
47.95435843702688
 30
0.0
 10
66.77934261000458
 20
47.941154340571
 30
0.0
 10
66.77883280800222
 20
47.94072919811615
 30
0.0
  0
LINE
  5
22B
330
1F
100
AcDbEntity
  8
0
  6
Continuous
 62
     7
370
    30
100
AcDbLine
 10
72.7667529282
 20
41.3868678645
 30
0.0
 11
69.7362952945
 21
39.6374219106
 31
0.0
  0
LINE
  5
22C
330
1F
100
AcDbEntity
  8
0
  6
Continuous
 62
     7
370
    30
100
AcDbLine
 10
66.3556489361
 20
45.4928731487
 30
0.0
 11
69.3861065697
 21
47.2423191026
 31
0.0
  0
LINE
  5
22D
330
1F
100
AcDbEntity
  8
0
  6
Continuous
 62
     7
370
    30
100
AcDbLine
 10
69.7362952945
 20
38.7423675408
 30
0.0
 11
72.7667529282
 21
40.4918134947
 31
0.0
  0
LINE
  5
22E
330
1F
100
AcDbEntity
  8
0
  6
Continuous
 62
     7
370
    30
100
AcDbLine
 10
68.611008736
 20
47.6897735577
 30
0.0
 11
65.5805511024
 21
45.9403276038
 31
0.0
  0
LINE
  5
22F
330
1F
100
AcDbEntity
  8
0
  6
Continuous
 62
     7
370
    30
100
AcDbLine
 10
69.2070331204
 20
37.5994893918
 30
0.0
 11
72.6733158319
 21
39.6005318078
 31
0.0
  0
LINE
  5
230
330
1F
100
AcDbEntity
  8
0
  6
Continuous
 62
     7
370
    30
100
AcDbLine
 10
67.7925024229
 20
48.0543485896
 30
0.0
 11
64.3262197114
 21
46.0533061736
 31
0.0
  0
LINE
  5
231
330
1F
100
AcDbEntity
  8
0
  6
Continuous
 62
     7
370
    30
100
AcDbLine
 10
64.7054093385
 20
40.3898788448
 30
0.0
 11
64.2003330662
 21
41.0181889259
 31
0.0
  0
LINE
  5
232
330
1F
100
AcDbEntity
  8
0
  6
Continuous
 62
     7
370
    30
100
AcDbLine
 10
64.7054093385
 20
39.7164073341
 30
0.0
 11
64.7054093385
 21
40.3898788448
 31
0.0
  0
LINE
  5
233
330
1F
100
AcDbEntity
  8
0
  6
Continuous
 62
     7
370
    30
100
AcDbLine
 10
64.2003330662
 20
39.6712459043
 30
0.0
 11
64.7054093385
 21
39.7164073341
 31
0.0
  0
LINE
  5
234
330
1F
100
AcDbEntity
  8
0
  6
Continuous
 62
     7
370
    30
100
AcDbLine
 10
63.695256794
 20
40.2995559854
 30
0.0
 11
64.2003330662
 21
39.6712459043
 31
0.0
  0
LINE
  5
235
330
1F
100
AcDbEntity
  8
0
  6
Continuous
 62
     7
370
    30
100
AcDbLine
 10
63.695256794
 20
40.9730274961
 30
0.0
 11
63.695256794
 21
40.2995559854
 31
0.0
  0
LINE
  5
236
330
1F
100
AcDbEntity
  8
0
  6
Continuous
 62
     7
370
    30
100
AcDbLine
 10
64.2003330662
 20
41.0181889259
 30
0.0
 11
63.695256794
 21
40.9730274961
 31
0.0
  0
LINE
  5
237
330
1F
100
AcDbEntity
  8
0
  6
Continuous
 62
     7
370
    30
100
AcDbLine
 10
64.7054093385
 20
40.3898788448
 30
0.0
 11
65.9681000192
 21
41.118814659
 31
0.0
  0
LINE
  5
238
330
1F
100
AcDbEntity
  8
0
  6
Continuous
 62
     7
370
    30
100
AcDbLine
 10
64.2003330662
 20
41.0181889259
 30
0.0
 11
65.4630237469
 21
41.74712474
 31
0.0
  0
LINE
  5
239
330
1F
100
AcDbEntity
  8
0
  6
Continuous
 62
     7
370
    30
100
AcDbLine
 10
64.7054093385
 20
39.7164073341
 30
0.0
 11
65.9681000192
 21
40.4453431482
 31
0.0
  0
LINE
  5
23A
330
1F
100
AcDbEntity
  8
0
  6
Continuous
 62
     7
370
    30
100
AcDbLine
 10
63.695256794
 20
40.9730274961
 30
0.0
 11
64.9579474747
 21
41.7019633103
 31
0.0
  0
LINE
  5
23B
330
1F
100
AcDbEntity
  8
0
  6
Continuous
 62
     7
370
    30
100
AcDbLine
 10
72.4556849461
 20
39.3307999036
 30
0.0
 11
69.4252273125
 21
37.5813539497
 31
0.0
  0
LINE
  5
23C
330
1F
100
AcDbEntity
  8
0
  6
Continuous
 62
     7
370
    30
100
AcDbLine
 10
64.4196295888
 20
46.251303504
 30
0.0
 11
67.4500872224
 21
48.0007494579
 31
0.0
  0
LINE
  5
23D
330
1F
100
AcDbEntity
  8
0
  6
Continuous
 62
     7
370
    30
100
AcDbLine
 10
69.0376783956
 20
37.0299413552
 30
0.0
 11
72.0681360293
 21
38.7793873091
 31
0.0
  0
LINE
  5
23E
330
1F
100
AcDbEntity
  8
0
  6
Continuous
 62
     7
370
    30
100
AcDbLine
 10
66.778832808
 20
47.9407291981
 30
0.0
 11
63.7483751743
 21
46.1912832442
 31
0.0
  0
LINE
  5
23F
330
1F
100
AcDbEntity
  8
0
  6
Continuous
 62
     8
370
    30
100
AcDbLine
 10
68.0319197371
 20
36.5022495449
 30
0.0
 11
68.70678417
 21
36.8918404894
 31
0.0
  0
LINE
  5
240
330
1F
100
AcDbEntity
  8
0
  6
Continuous
 62
     8
370
    30
100
AcDbLine
 10
63.4682609952
 20
45.9763693862
 30
0.0
 11
62.7885723982
 21
45.583993511
 31
0.0
  0
ENDSEC
  0
SECTION
  2
OBJECTS
  0
DICTIONARY
  5
C
330
0
100
AcDbDictionary
281
     1
  3
ACAD_GROUP
350
D
  3
ACAD_LAYOUT
350
1A
  3
ACAD_MLINESTYLE
350
17
  3
ACAD_PLOTSETTINGS
350
19
  3
ACAD_PLOTSTYLENAME
350
E
  3
ACAD_SCALELIST
350
47
  0
DICTIONARY
  5
D
102
{ACAD_REACTORS
330
C
102
}
330
C
100
AcDbDictionary
281
     1
  0
DICTIONARY
  5
1A
102
{ACAD_REACTORS
330
C
102
}
330
C
100
AcDbDictionary
281
     1
  3
Layout1
350
1E
  3
Layout2
350
26
  3
Model
350
22
  0
DICTIONARY
  5
17
102
{ACAD_REACTORS
330
C
102
}
330
C
100
AcDbDictionary
281
     1
  3
Standard
350
18
  0
DICTIONARY
  5
19
102
{ACAD_REACTORS
330
C
102
}
330
C
100
AcDbDictionary
281
     1
  0
ACDBDICTIONARYWDFLT
  5
E
102
{ACAD_REACTORS
330
C
102
}
330
C
100
AcDbDictionary
281
     1
  3
Normal
350
F
100
AcDbDictionaryWithDefault
340
F
  0
DICTIONARY
  5
47
102
{ACAD_REACTORS
330
C
102
}
330
C
100
AcDbDictionary
281
     1
  3
A0
350
48
  3
A1
350
49
  3
A2
350
4A
  3
A3
350
4B
  3
A4
350
4C
  3
A5
350
4D
  3
A6
350
4E
  3
A7
350
4F
  3
A8
350
50
  3
A9
350
51
  3
B0
350
52
  3
B1
350
53
  3
B2
350
54
  3
B3
350
55
  3
B4
350
56
  3
B5
350
57
  3
B6
350
58
  3
B7
350
59
  3
B8
350
5A
  3
B9
350
5B
  3
C0
350
5C
  3
C1
350
5D
  3
C2
350
5E
  3
C3
350
5F
  3
C4
350
60
  3
C5
350
61
  3
C6
350
62
  3
C7
350
63
  3
C8
350
64
  3
C9
350
65
  3
D0
350
66
  3
D1
350
67
  3
D2
350
68
  0
LAYOUT
  5
1E
102
{ACAD_REACTORS
330
1A
102
}
330
1A
100
AcDbPlotSettings
  1

  2
none_device
  4

  6

 40
0.0
 41
0.0
 42
0.0
 43
0.0
 44
0.0
 45
0.0
 46
0.0
 47
0.0
 48
0.0
 49
0.0
140
0.0
141
0.0
142
1.0
143
1.0
 70
   688
 72
     1
 73
     0
 74
     5
  7

 75
    16
147
1.0
148
0.0
149
0.0
100
AcDbLayout
  1
Layout1
 70
     1
 71
     1
 10
0.0
 20
0.0
 11
420.0
 21
297.0
 12
0.0
 22
0.0
 32
0.0
 14
1.0000000000E+20
 24
1.0000000000E+20
 34
1.0000000000E+20
 15
-1.0000000000E+20
 25
-1.0000000000E+20
 35
-1.0000000000E+20
146
0.0
 13
0.0
 23
0.0
 33
0.0
 16
1.0
 26
0.0
 36
0.0
 17
0.0
 27
1.0
 37
0.0
 76
     0
330
1B
  0
LAYOUT
  5
26
102
{ACAD_REACTORS
330
1A
102
}
330
1A
100
AcDbPlotSettings
  1

  2
none_device
  4

  6

 40
0.0
 41
0.0
 42
0.0
 43
0.0
 44
0.0
 45
0.0
 46
0.0
 47
0.0
 48
0.0
 49
0.0
140
0.0
141
0.0
142
1.0
143
1.0
 70
   688
 72
     1
 73
     0
 74
     5
  7

 75
    16
147
1.0
148
0.0
149
0.0
100
AcDbLayout
  1
Layout2
 70
     1
 71
     2
 10
0.0
 20
0.0
 11
0.0
 21
0.0
 12
0.0
 22
0.0
 32
0.0
 14
0.0
 24
0.0
 34
0.0
 15
0.0
 25
0.0
 35
0.0
146
0.0
 13
0.0
 23
0.0
 33
0.0
 16
1.0
 26
0.0
 36
0.0
 17
0.0
 27
1.0
 37
0.0
 76
     0
330
23
  0
LAYOUT
  5
22
102
{ACAD_REACTORS
330
1A
102
}
330
1A
100
AcDbPlotSettings
  1

  2
none_device
  4
Letter_(8.50_x_11.00_Inches)
  6

 40
6.35
 41
6.35
 42
6.35000508
 43
6.35000508
 44
215.9
 45
279.4
 46
0.0
 47
0.0
 48
0.0
 49
0.0
140
0.0
141
0.0
142
1.0
143
1.0
 70
  1712
 72
     1
 73
     0
 74
     0
  7

 75
     0
147
1.0
148
0.0
149
0.0
100
AcDbLayout
  1
Model
 70
     1
 71
     0
 10
0.0
 20
0.0
 11
84.8571428571
 21
60.0
 12
0.0
 22
0.0
 32
0.0
 14
0.0
 24
0.0
 34
0.0
 15
84.8571428571
 25
60.0
 35
0.0
146
0.0
 13
0.0
 23
0.0
 33
0.0
 16
1.0
 26
0.0
 36
0.0
 17
0.0
 27
1.0
 37
0.0
 76
     0
330
1F
331
29
  0
MLINESTYLE
  5
18
102
{ACAD_REACTORS
330
17
102
}
330
17
100
AcDbMlineStyle
  2
Standard
 70
     0
  3

 62
   256
 51
90.0
 52
90.0
 71
     2
 49
0.5
 62
   256
  6
BYLAYER
 49
-0.5
 62
   256
  6
BYLAYER
  0
ACDBPLACEHOLDER
  5
F
102
{ACAD_REACTORS
330
E
102
}
330
E
  0
SCALE
  5
48
102
{ACAD_REACTORS
330
47
102
}
330
47
100
AcDbScale
 70
     0
300
1:1
140
1.0
141
1.0
290
     1
  0
SCALE
  5
49
102
{ACAD_REACTORS
330
47
102
}
330
47
100
AcDbScale
 70
     0
300
1:2
140
1.0
141
2.0
290
     0
  0
SCALE
  5
4A
102
{ACAD_REACTORS
330
47
102
}
330
47
100
AcDbScale
 70
     0
300
1:4
140
1.0
141
4.0
290
     0
  0
SCALE
  5
4B
102
{ACAD_REACTORS
330
47
102
}
330
47
100
AcDbScale
 70
     0
300
1:5
140
1.0
141
5.0
290
     0
  0
SCALE
  5
4C
102
{ACAD_REACTORS
330
47
102
}
330
47
100
AcDbScale
 70
     0
300
1:8
140
1.0
141
8.0
290
     0
  0
SCALE
  5
4D
102
{ACAD_REACTORS
330
47
102
}
330
47
100
AcDbScale
 70
     0
300
1:10
140
1.0
141
10.0
290
     0
  0
SCALE
  5
4E
102
{ACAD_REACTORS
330
47
102
}
330
47
100
AcDbScale
 70
     0
300
1:16
140
1.0
141
16.0
290
     0
  0
SCALE
  5
4F
102
{ACAD_REACTORS
330
47
102
}
330
47
100
AcDbScale
 70
     0
300
1:20
140
1.0
141
20.0
290
     0
  0
SCALE
  5
50
102
{ACAD_REACTORS
330
47
102
}
330
47
100
AcDbScale
 70
     0
300
1:30
140
1.0
141
30.0
290
     0
  0
SCALE
  5
51
102
{ACAD_REACTORS
330
47
102
}
330
47
100
AcDbScale
 70
     0
300
1:40
140
1.0
141
40.0
290
     0
  0
SCALE
  5
52
102
{ACAD_REACTORS
330
47
102
}
330
47
100
AcDbScale
 70
     0
300
1:50
140
1.0
141
50.0
290
     0
  0
SCALE
  5
53
102
{ACAD_REACTORS
330
47
102
}
330
47
100
AcDbScale
 70
     0
300
1:100
140
1.0
141
100.0
290
     0
  0
SCALE
  5
54
102
{ACAD_REACTORS
330
47
102
}
330
47
100
AcDbScale
 70
     0
300
2:1
140
2.0
141
1.0
290
     0
  0
SCALE
  5
55
102
{ACAD_REACTORS
330
47
102
}
330
47
100
AcDbScale
 70
     0
300
4:1
140
4.0
141
1.0
290
     0
  0
SCALE
  5
56
102
{ACAD_REACTORS
330
47
102
}
330
47
100
AcDbScale
 70
     0
300
8:1
140
8.0
141
1.0
290
     0
  0
SCALE
  5
57
102
{ACAD_REACTORS
330
47
102
}
330
47
100
AcDbScale
 70
     0
300
10:1
140
10.0
141
1.0
290
     0
  0
SCALE
  5
58
102
{ACAD_REACTORS
330
47
102
}
330
47
100
AcDbScale
 70
     0
300
100:1
140
100.0
141
1.0
290
     0
  0
SCALE
  5
59
102
{ACAD_REACTORS
330
47
102
}
330
47
100
AcDbScale
 70
     0
300
1/128" = 1'-0"
140
0.0078125
141
12.0
290
     0
  0
SCALE
  5
5A
102
{ACAD_REACTORS
330
47
102
}
330
47
100
AcDbScale
 70
     0
300
1/64" = 1'-0"
140
0.015625
141
12.0
290
     0
  0
SCALE
  5
5B
102
{ACAD_REACTORS
330
47
102
}
330
47
100
AcDbScale
 70
     0
300
1/32" = 1'-0"
140
0.03125
141
12.0
290
     0
  0
SCALE
  5
5C
102
{ACAD_REACTORS
330
47
102
}
330
47
100
AcDbScale
 70
     0
300
1/16" = 1'-0"
140
0.0625
141
12.0
290
     0
  0
SCALE
  5
5D
102
{ACAD_REACTORS
330
47
102
}
330
47
100
AcDbScale
 70
     0
300
3/32" = 1'-0"
140
0.09375
141
12.0
290
     0
  0
SCALE
  5
5E
102
{ACAD_REACTORS
330
47
102
}
330
47
100
AcDbScale
 70
     0
300
1/8" = 1'-0"
140
0.125
141
12.0
290
     0
  0
SCALE
  5
5F
102
{ACAD_REACTORS
330
47
102
}
330
47
100
AcDbScale
 70
     0
300
3/16" = 1'-0"
140
0.1875
141
12.0
290
     0
  0
SCALE
  5
60
102
{ACAD_REACTORS
330
47
102
}
330
47
100
AcDbScale
 70
     0
300
1/4" = 1'-0"
140
0.25
141
12.0
290
     0
  0
SCALE
  5
61
102
{ACAD_REACTORS
330
47
102
}
330
47
100
AcDbScale
 70
     0
300
3/8" = 1'-0"
140
0.375
141
12.0
290
     0
  0
SCALE
  5
62
102
{ACAD_REACTORS
330
47
102
}
330
47
100
AcDbScale
 70
     0
300
1/2" = 1'-0"
140
0.5
141
12.0
290
     0
  0
SCALE
  5
63
102
{ACAD_REACTORS
330
47
102
}
330
47
100
AcDbScale
 70
     0
300
3/4" = 1'-0"
140
0.75
141
12.0
290
     0
  0
SCALE
  5
64
102
{ACAD_REACTORS
330
47
102
}
330
47
100
AcDbScale
 70
     0
300
1" = 1'-0"
140
1.0
141
12.0
290
     0
  0
SCALE
  5
65
102
{ACAD_REACTORS
330
47
102
}
330
47
100
AcDbScale
 70
     0
300
1-1/2" = 1'-0"
140
1.5
141
12.0
290
     0
  0
SCALE
  5
66
102
{ACAD_REACTORS
330
47
102
}
330
47
100
AcDbScale
 70
     0
300
3" = 1'-0"
140
3.0
141
12.0
290
     0
  0
SCALE
  5
67
102
{ACAD_REACTORS
330
47
102
}
330
47
100
AcDbScale
 70
     0
300
6" = 1'-0"
140
6.0
141
12.0
290
     0
  0
SCALE
  5
68
102
{ACAD_REACTORS
330
47
102
}
330
47
100
AcDbScale
 70
     0
300
1'-0" = 1'-0"
140
12.0
141
12.0
290
     0
  0
ENDSEC
  0
EOF
