  0
SECTION
  2
HEADER
  9
$ACADVER
  1
AC1015
  9
$ACADMAINTVER
 70
     6
  9
$DWGCODEPAGE
  3
ANSI_950
  9
$INSBASE
 10
0.0
 20
0.0
 30
0.0
  9
$EXTMIN
 10
0.0
 20
0.0
 30
0.0
  9
$EXTMAX
 10
445.5
 20
315.0
 30
0.0
  9
$LIMMIN
 10
0.0
 20
0.0
  9
$LIMMAX
 10
445.5
 20
315.0
  9
$ORTHOMODE
 70
     0
  9
$REGENMODE
 70
     1
  9
$FILLMODE
 70
     1
  9
$QTEXTMODE
 70
     0
  9
$MIRRTEXT
 70
     1
  9
$LTSCALE
 40
1.5
  9
$ATTMODE
 70
     1
  9
$TEXTSIZE
 40
5.2916666667
  9
$TRACEWID
 40
1.0
  9
$TEXTSTYLE
  7
Standard
  9
$CLAYER
  8
0
  9
$CELTYPE
  6
ByLayer
  9
$CECOLOR
 62
   256
  9
$CELTSCALE
 40
1.0
  9
$DISPSILH
 70
     0
  9
$DIMSCALE
 40
1.0
  9
$DIMASZ
 40
3.0
  9
$DIMEXO
 40
1.5
  9
$DIMDLI
 40
3.75
  9
$DIMRND
 40
0.0
  9
$DIMDLE
 40
0.0
  9
$DIMEXE
 40
1.5
  9
$DIMTP
 40
0.0
  9
$DIMTM
 40
0.0
  9
$DIMTXT
 40
3.75
  9
$DIMCEN
 40
2.5
  9
$DIMTSZ
 40
0.0
  9
$DIMTOL
 70
     0
  9
$DIMLIM
 70
     0
  9
$DIMTIH
 70
     1
  9
$DIMTOH
 70
     1
  9
$DIMSE1
 70
     0
  9
$DIMSE2
 70
     0
  9
$DIMTAD
 70
     1
  9
$DIMZIN
 70
     0
  9
$DIMBLK
  1

  9
$DIMASO
 70
     1
  9
$DIMSHO
 70
     1
  9
$DIMPOST
  1

  9
$DIMAPOST
  1

  9
$DIMALT
 70
     0
  9
$DIMALTD
 70
     3
  9
$DIMALTF
 40
0.0393700787
  9
$DIMLFAC
 40
1.0
  9
$DIMTOFL
 70
     1
  9
$DIMTVP
 40
0.0
  9
$DIMTIX
 70
     0
  9
$DIMSOXD
 70
     0
  9
$DIMSAH
 70
     0
  9
$DIMBLK1
  1

  9
$DIMBLK2
  1

  9
$DIMSTYLE
  2
ISO-25
  9
$DIMCLRD
 70
     0
  9
$DIMCLRE
 70
     0
  9
$DIMCLRT
 70
     0
  9
$DIMTFAC
 40
1.0
  9
$DIMGAP
 40
1.5
  9
$DIMJUST
 70
     0
  9
$DIMSD1
 70
     0
  9
$DIMSD2
 70
     0
  9
$DIMTOLJ
 70
     0
  9
$DIMTZIN
 70
     0
  9
$DIMALTZ
 70
     0
  9
$DIMALTTZ
 70
     0
  9
$DIMUPT
 70
     0
  9
$DIMDEC
 70
     2
  9
$DIMTDEC
 70
     2
  9
$DIMALTU
 70
     2
  9
$DIMALTTD
 70
     3
  9
$DIMTXSTY
  7
Standard
  9
$DIMAUNIT
 70
     0
  9
$DIMADEC
 70
     1
  9
$DIMALTRND
 40
0.0
  9
$DIMAZIN
 70
     0
  9
$DIMDSEP
 70
    44
  9
$DIMATFIT
 70
     3
  9
$DIMFRAC
 70
     0
  9
$DIMLDRBLK
  1

  9
$DIMLUNIT
 70
     2
  9
$DIMLWD
 70
    -2
  9
$DIMLWE
 70
    -2
  9
$DIMTMOVE
 70
     0
  9
$LUNITS
 70
     2
  9
$LUPREC
 70
     2
  9
$SKETCHINC
 40
1.0
  9
$FILLETRAD
 40
10.0
  9
$AUNITS
 70
     0
  9
$AUPREC
 70
     1
  9
$MENU
  1
.
  9
$ELEVATION
 40
0.0
  9
$PELEVATION
 40
0.0
  9
$THICKNESS
 40
0.0
  9
$LIMCHECK
 70
     0
  9
$CHAMFERA
 40
0.0
  9
$CHAMFERB
 40
0.0
  9
$CHAMFERC
 40
0.0
  9
$CHAMFERD
 40
0.0
  9
$SKPOLY
 70
     0
  9
$TDCREATE
 40
2458505.378275289
  9
$TDUCREATE
 40
2458505.044941956
  9
$TDUPDATE
 40
2458505.378287106
  9
$TDUUPDATE
 40
2458505.044953773
  9
$TDINDWG
 40
0.0000000116
  9
$TDUSRTIMER
 40
0.0000000116
  9
$USRTIMER
 70
     1
  9
$ANGBASE
 50
0.0
  9
$ANGDIR
 70
     0
  9
$PDMODE
 70
     0
  9
$PDSIZE
 40
-1.0
  9
$PLINEWID
 40
0.0
  9
$SPLFRAME
 70
     0
  9
$SPLINETYPE
 70
     6
  9
$SPLINESEGS
 70
     8
  9
$HANDSEED
  5
56B
  9
$SURFTAB1
 70
     6
  9
$SURFTAB2
 70
     6
  9
$SURFTYPE
 70
     6
  9
$SURFU
 70
     6
  9
$SURFV
 70
     6
  9
$UCSBASE
  2

  9
$UCSNAME
  2

  9
$UCSORG
 10
0.0
 20
0.0
 30
0.0
  9
$UCSXDIR
 10
1.0
 20
0.0
 30
0.0
  9
$UCSYDIR
 10
0.0
 20
1.0
 30
0.0
  9
$UCSORTHOREF
  2

  9
$UCSORTHOVIEW
 70
     0
  9
$UCSORGTOP
 10
0.0
 20
0.0
 30
0.0
  9
$UCSORGBOTTOM
 10
0.0
 20
0.0
 30
0.0
  9
$UCSORGLEFT
 10
0.0
 20
0.0
 30
0.0
  9
$UCSORGRIGHT
 10
0.0
 20
0.0
 30
0.0
  9
$UCSORGFRONT
 10
0.0
 20
0.0
 30
0.0
  9
$UCSORGBACK
 10
0.0
 20
0.0
 30
0.0
  9
$PUCSBASE
  2

  9
$PUCSNAME
  2

  9
$PUCSORG
 10
0.0
 20
0.0
 30
0.0
  9
$PUCSXDIR
 10
1.0
 20
0.0
 30
0.0
  9
$PUCSYDIR
 10
0.0
 20
1.0
 30
0.0
  9
$PUCSORTHOREF
  2

  9
$PUCSORTHOVIEW
 70
     0
  9
$PUCSORGTOP
 10
0.0
 20
0.0
 30
0.0
  9
$PUCSORGBOTTOM
 10
0.0
 20
0.0
 30
0.0
  9
$PUCSORGLEFT
 10
0.0
 20
0.0
 30
0.0
  9
$PUCSORGRIGHT
 10
0.0
 20
0.0
 30
0.0
  9
$PUCSORGFRONT
 10
0.0
 20
0.0
 30
0.0
  9
$PUCSORGBACK
 10
0.0
 20
0.0
 30
0.0
  9
$USERI1
 70
     0
  9
$USERI2
 70
     0
  9
$USERI3
 70
     0
  9
$USERI4
 70
     0
  9
$USERI5
 70
     0
  9
$USERR1
 40
0.0
  9
$USERR2
 40
0.0
  9
$USERR3
 40
0.0
  9
$USERR4
 40
0.0
  9
$USERR5
 40
0.0
  9
$WORLDVIEW
 70
     1
  9
$SHADEDGE
 70
     3
  9
$SHADEDIF
 70
    70
  9
$TILEMODE
 70
     1
  9
$MAXACTVP
 70
    64
  9
$PINSBASE
 10
0.0
 20
0.0
 30
0.0
  9
$PLIMCHECK
 70
     0
  9
$PEXTMIN
 10
1.0000000000E+20
 20
1.0000000000E+20
 30
1.0000000000E+20
  9
$PEXTMAX
 10
-1.0000000000E+20
 20
-1.0000000000E+20
 30
-1.0000000000E+20
  9
$PLIMMIN
 10
0.0
 20
0.0
  9
$PLIMMAX
 10
420.0
 20
297.0
  9
$UNITMODE
 70
     0
  9
$VISRETAIN
 70
     1
  9
$PLINEGEN
 70
     0
  9
$PSLTSCALE
 70
     1
  9
$TREEDEPTH
 70
  3020
  9
$CMLSTYLE
  2
Standard
  9
$CMLJUST
 70
     0
  9
$CMLSCALE
 40
20.0
  9
$PROXYGRAPHICS
 70
     1
  9
$MEASUREMENT
 70
     1
  9
$CELWEIGHT
370
    -1
  9
$ENDCAPS
280
     0
  9
$JOINSTYLE
280
     0
  9
$LWDISPLAY
290
     1
  9
$INSUNITS
 70
     4
  9
$HYPERLINKBASE
  1

  9
$STYLESHEET
  1

  9
$XEDIT
290
     1
  9
$CEPSNTYPE
380
     0
  9
$PSTYLEMODE
290
     1
  9
$FINGERPRINTGUID
  2
{A33AB114-01DB-418F-BEB6-A5E4B606A1C9}
  9
$VERSIONGUID
  2
{FAEB1C32-E019-11D5-929B-00C0DF256EC4}
  9
$EXTNAMES
290
     1
  9
$PSVPSCALE
 40
0.0
  9
$OLESTARTUP
290
     0
  0
ENDSEC
  0
SECTION
  2
CLASSES
  0
CLASS
  1
ACDBDICTIONARYWDFLT
  2
AcDbDictionaryWithDefault
  3
ObjectDBX Classes
 90
        0
280
     0
281
     0
  0
CLASS
  1
VISUALSTYLE
  2
AcDbVisualStyle
  3
ObjectDBX Classes
 90
     4095
280
     0
281
     0
  0
CLASS
  1
MATERIAL
  2
AcDbMaterial
  3
ObjectDBX Classes
 90
     1153
280
     0
281
     0
  0
CLASS
  1
SCALE
  2
AcDbScale
  3
ObjectDBX Classes
 90
     1153
280
     0
281
     0
  0
CLASS
  1
TABLESTYLE
  2
AcDbTableStyle
  3
ObjectDBX Classes
 90
     4095
280
     0
281
     0
  0
CLASS
  1
MLEADERSTYLE
  2
AcDbMLeaderStyle
  3
ACDB_MLEADERSTYLE_CLASS
 90
     4095
280
     0
281
     0
  0
CLASS
  1
SUN
  2
AcDbSun
  3
SCENEOE
 90
     1153
280
     0
281
     0
  0
CLASS
  1
ACDBPLACEHOLDER
  2
AcDbPlaceHolder
  3
ObjectDBX Classes
 90
        0
280
     0
281
     0
  0
CLASS
  1
LAYOUT
  2
AcDbLayout
  3
ObjectDBX Classes
 90
        0
280
     0
281
     0
  0
ENDSEC
  0
SECTION
  2
TABLES
  0
TABLE
  2
VPORT
  5
8
330
0
100
AcDbSymbolTable
 70
     1
  0
VPORT
  5
29
330
8
100
AcDbSymbolTableRecord
100
AcDbViewportTableRecord
  2
*Active
 70
     0
 10
0.0
 20
0.0
 11
1.0
 21
1.0
 12
222.75
 22
157.5
 13
0.0
 23
0.0
 14
10.0
 24
10.0
 15
10.0
 25
10.0
 16
0.0
 26
0.0
 36
1.0
 17
0.0
 27
0.0
 37
0.0
 40
315.0
 41
1.4142857143
 42
50.0
 43
0.0
 44
0.0
 50
0.0
 51
0.0
 71
     0
 72
  2000
 73
     1
 74
     3
 75
     0
 76
     0
 77
     0
 78
     0
281
     0
 65
     1
110
0.0
120
0.0
130
0.0
111
1.0
121
0.0
131
0.0
112
0.0
122
1.0
132
0.0
 79
     0
146
0.0
  0
ENDTAB
  0
TABLE
  2
LTYPE
  5
5
330
0
100
AcDbSymbolTable
 70
     6
  0
LTYPE
  5
14
330
5
100
AcDbSymbolTableRecord
100
AcDbLinetypeTableRecord
  2
ByBlock
 70
     0
  3

 72
    65
 73
     0
 40
0.0
  0
LTYPE
  5
15
330
5
100
AcDbSymbolTableRecord
100
AcDbLinetypeTableRecord
  2
ByLayer
 70
     0
  3

 72
    65
 73
     0
 40
0.0
  0
LTYPE
  5
16
330
5
100
AcDbSymbolTableRecord
100
AcDbLinetypeTableRecord
  2
Continuous
 70
     0
  3
Solid line
 72
    65
 73
     0
 40
0.0
  0
LTYPE
  5
6E
330
5
100
AcDbSymbolTableRecord
100
AcDbLinetypeTableRecord
  2
HIDDEN
 70
     0
  3
Hidden __ __ __ __ __ __ __ __ __ __ __ __ __ __
 72
    65
 73
     2
 40
1.905
 49
1.27
 74
     0
 49
-0.635
 74
     0
  0
LTYPE
  5
6F
330
5
100
AcDbSymbolTableRecord
100
AcDbLinetypeTableRecord
  2
PHANTOM
 70
     0
  3
Phantom ______  __  __  ______  __  __  ______
 72
    65
 73
     6
 40
12.7
 49
6.35
 74
     0
 49
-1.27
 74
     0
 49
1.27
 74
     0
 49
-1.27
 74
     0
 49
1.27
 74
     0
 49
-1.27
 74
     0
  0
LTYPE
  5
70
330
5
100
AcDbSymbolTableRecord
100
AcDbLinetypeTableRecord
  2
CENTER
 70
     0
  3
Center ____ _ ____ _ ____ _ ____ _ ____ _ ____
 72
    65
 73
     4
 40
10.16
 49
6.35
 74
     0
 49
-1.27
 74
     0
 49
1.27
 74
     0
 49
-1.27
 74
     0
  0
LTYPE
  5
71
330
5
100
AcDbSymbolTableRecord
100
AcDbLinetypeTableRecord
  2
CENTERX2
 70
     0
  3
Center (2x) ________  __  ________  __  _____
 72
    65
 73
     4
 40
20.32
 49
12.7
 74
     0
 49
-2.54
 74
     0
 49
2.54
 74
     0
 49
-2.54
 74
     0
  0
LTYPE
  5
72
330
5
100
AcDbSymbolTableRecord
100
AcDbLinetypeTableRecord
  2
DOT2
 70
     0
  3
Dot (.5x) ........................................
 72
    65
 73
     2
 40
0.635
 49
0.0
 74
     0
 49
-0.635
 74
     0
  0
ENDTAB
  0
TABLE
  2
LAYER
  5
2
330
0
100
AcDbSymbolTable
 70
     8
  0
LAYER
  5
10
330
2
100
AcDbSymbolTableRecord
100
AcDbLayerTableRecord
  2
0
 70
     0
 62
     7
  6
Continuous
370
    -3
390
F
  0
LAYER
  5
73
330
2
100
AcDbSymbolTableRecord
100
AcDbLayerTableRecord
  2
SLD-0
 70
     0
 62
   179
  6
Continuous
370
    15
390
F
  0
LAYER
  5
74
330
2
100
AcDbSymbolTableRecord
100
AcDbLayerTableRecord
  2
輪廓線
 70
     0
 62
   219
  6
Continuous
370
    15
390
F
  0
LAYER
  5
75
330
2
100
AcDbSymbolTableRecord
100
AcDbLayerTableRecord
  2
DIM
 70
     0
 62
     7
  6
Continuous
370
    -3
390
F
  0
LAYER
  5
76
330
2
100
AcDbSymbolTableRecord
100
AcDbLayerTableRecord
  2
中心線
 70
     0
 62
     1
  6
CENTERX2
370
    -3
390
F
  0
LAYER
  5
77
330
2
100
AcDbSymbolTableRecord
100
AcDbLayerTableRecord
  2
虛線
 70
     0
 62
     6
  6
HIDDEN
370
    -3
390
F
  0
LAYER
  5
78
330
2
100
AcDbSymbolTableRecord
100
AcDbLayerTableRecord
  2
SECTION
 70
     0
 62
     5
  6
PHANTOM
370
    15
390
F
  0
LAYER
  5
79
330
2
100
AcDbSymbolTableRecord
100
AcDbLayerTableRecord
  2
假想線
 70
     0
 62
     5
  6
PHANTOM
370
    -3
390
F
  0
ENDTAB
  0
TABLE
  2
STYLE
  5
3
330
0
100
AcDbSymbolTable
 70
     3
  0
STYLE
  5
11
330
3
100
AcDbSymbolTableRecord
100
AcDbTextStyleTableRecord
  2
Standard
 70
     0
 40
0.0
 41
1.0
 50
0.0
 71
     0
 42
5.2916666667
  3
txt
  4

  0
STYLE
  5
CA
330
3
100
AcDbSymbolTableRecord
100
AcDbTextStyleTableRecord
  2
SLDTEXTSTYLE0
 70
     0
 40
0.0
 41
0.605
 50
0.0
 71
     0
 42
5.2916666667
  3
TXT
  4

  0
STYLE
  5
D3
330
3
100
AcDbSymbolTableRecord
100
AcDbTextStyleTableRecord
  2
SLDTEXTSTYLE1
 70
     0
 40
0.0
 41
0.7
 50
0.0
 71
     0
 42
5.2916666667
  3
TXT
  4

  0
ENDTAB
  0
TABLE
  2
VIEW
  5
6
330
0
100
AcDbSymbolTable
 70
     0
  0
ENDTAB
  0
TABLE
  2
UCS
  5
7
330
0
100
AcDbSymbolTable
 70
     0
  0
ENDTAB
  0
TABLE
  2
APPID
  5
9
330
0
100
AcDbSymbolTable
 70
     1
  0
APPID
  5
12
330
9
100
AcDbSymbolTableRecord
100
AcDbRegAppTableRecord
  2
ACAD
 70
     0
  0
ENDTAB
  0
TABLE
  2
DIMSTYLE
  5
A
330
0
100
AcDbSymbolTable
 70
     4
100
AcDbDimStyleTable
  0
DIMSTYLE
105
27
330
A
100
AcDbSymbolTableRecord
100
AcDbDimStyleTableRecord
  2
ISO-25
 70
     0
 41
2.5
 42
0.625
 43
3.75
 44
1.25
 73
     0
 74
     0
 77
     1
 78
     8
140
2.5
141
2.5
143
0.0393700787
147
0.625
171
     3
172
     1
178
     0
271
     2
272
     2
274
     3
278
    44
283
     0
284
     8
340
11
  0
DIMSTYLE
105
18D
102
{ACAD_REACTORS
330
18C
330
197
330
1A1
330
1AB
330
1B5
330
1BF
330
1C9
330
314
330
31E
330
328
330
332
330
346
102
}
330
A
100
AcDbSymbolTableRecord
100
AcDbDimStyleTableRecord
  2
SLDDIMSTYLE0
 70
     0
 41
3.0
 44
0.0
 45
0.000000001
 73
     0
 74
     0
 77
     1
 78
    12
 79
     3
140
3.75
147
0.9375
173
     1
178
     0
271
     2
272
     2
276
     2
284
    12
340
CA
  0
DIMSTYLE
105
1D4
102
{ACAD_REACTORS
330
1D3
102
}
330
A
100
AcDbSymbolTableRecord
100
AcDbDimStyleTableRecord
  2
SLDDIMSTYLE1
 70
     0
  3
<>
 41
3.0
 44
0.0
 45
0.000000001
 78
    12
 79
     3
140
3.75
141
0.0
147
0.9375
173
     1
178
     0
271
     2
272
     2
276
     2
284
    12
340
CA
  0
DIMSTYLE
105
33D
102
{ACAD_REACTORS
330
33C
102
}
330
A
100
AcDbSymbolTableRecord
100
AcDbDimStyleTableRecord
  2
SLDDIMSTYLE2
 70
     0
 41
3.0
 44
0.0
 45
0.000000001
 78
    12
 79
     3
140
3.75
141
0.0
147
0.9375
173
     1
178
     0
271
     2
272
     2
276
     2
284
    12
340
CA
  0
ENDTAB
  0
TABLE
  2
BLOCK_RECORD
  5
1
330
0
100
AcDbSymbolTable
 70
    27
  0
BLOCK_RECORD
  5
1F
330
1
100
AcDbSymbolTableRecord
100
AcDbBlockTableRecord
  2
*Model_Space
340
22
  0
BLOCK_RECORD
  5
1B
330
1
100
AcDbSymbolTableRecord
100
AcDbBlockTableRecord
  2
*Paper_Space
340
1E
  0
BLOCK_RECORD
  5
23
330
1
100
AcDbSymbolTableRecord
100
AcDbBlockTableRecord
  2
*Paper_Space0
340
26
  0
BLOCK_RECORD
  5
CC
330
1
100
AcDbSymbolTableRecord
100
AcDbBlockTableRecord
  2
SW_NOTE_0
340
0
102
{BLKREFS
331
D2
102
}
  0
BLOCK_RECORD
  5
103
330
1
100
AcDbSymbolTableRecord
100
AcDbBlockTableRecord
  2
SW_NOTE_1
340
0
102
{BLKREFS
331
108
102
}
  0
BLOCK_RECORD
  5
18E
330
1
100
AcDbSymbolTableRecord
100
AcDbBlockTableRecord
  2
_D
340
0
  0
BLOCK_RECORD
  5
198
330
1
100
AcDbSymbolTableRecord
100
AcDbBlockTableRecord
  2
_D_1
340
0
  0
BLOCK_RECORD
  5
1A2
330
1
100
AcDbSymbolTableRecord
100
AcDbBlockTableRecord
  2
_D_2
340
0
  0
BLOCK_RECORD
  5
1AC
330
1
100
AcDbSymbolTableRecord
100
AcDbBlockTableRecord
  2
_D_3
340
0
  0
BLOCK_RECORD
  5
1B6
330
1
100
AcDbSymbolTableRecord
100
AcDbBlockTableRecord
  2
_D_4
340
0
  0
BLOCK_RECORD
  5
1C0
330
1
100
AcDbSymbolTableRecord
100
AcDbBlockTableRecord
  2
_D_5
340
0
  0
BLOCK_RECORD
  5
1CA
330
1
100
AcDbSymbolTableRecord
100
AcDbBlockTableRecord
  2
_D_6
340
0
  0
BLOCK_RECORD
  5
1D5
330
1
100
AcDbSymbolTableRecord
100
AcDbBlockTableRecord
  2
_D_7
340
0
  0
BLOCK_RECORD
  5
1DD
330
1
100
AcDbSymbolTableRecord
100
AcDbBlockTableRecord
  2
SW_CENTERMARKSYMBOL_0
340
0
102
{BLKREFS
331
1E8
102
}
  0
BLOCK_RECORD
  5
1E9
330
1
100
AcDbSymbolTableRecord
100
AcDbBlockTableRecord
  2
SW_CENTERMARKSYMBOL_1
340
0
102
{BLKREFS
331
1F4
102
}
  0
BLOCK_RECORD
  5
1F5
330
1
100
AcDbSymbolTableRecord
100
AcDbBlockTableRecord
  2
SW_CENTERMARKSYMBOL_2
340
0
102
{BLKREFS
331
200
102
}
  0
BLOCK_RECORD
  5
201
330
1
100
AcDbSymbolTableRecord
100
AcDbBlockTableRecord
  2
SW_CENTERMARKSYMBOL_3
340
0
102
{BLKREFS
331
20C
102
}
  0
BLOCK_RECORD
  5
20D
330
1
100
AcDbSymbolTableRecord
100
AcDbBlockTableRecord
  2
SW_CENTERMARKSYMBOL_4
340
0
102
{BLKREFS
331
218
102
}
  0
BLOCK_RECORD
  5
219
330
1
100
AcDbSymbolTableRecord
100
AcDbBlockTableRecord
  2
SW_CENTERMARKSYMBOL_5
340
0
102
{BLKREFS
331
224
102
}
  0
BLOCK_RECORD
  5
225
330
1
100
AcDbSymbolTableRecord
100
AcDbBlockTableRecord
  2
SW_CENTERMARKSYMBOL_6
340
0
102
{BLKREFS
331
230
102
}
  0
BLOCK_RECORD
  5
231
330
1
100
AcDbSymbolTableRecord
100
AcDbBlockTableRecord
  2
SW_CENTERMARKSYMBOL_7
340
0
102
{BLKREFS
331
23C
102
}
  0
BLOCK_RECORD
  5
23D
330
1
100
AcDbSymbolTableRecord
100
AcDbBlockTableRecord
  2
SW_CENTERMARKSYMBOL_8
340
0
102
{BLKREFS
331
248
102
}
  0
BLOCK_RECORD
  5
315
330
1
100
AcDbSymbolTableRecord
100
AcDbBlockTableRecord
  2
_D_8
340
0
  0
BLOCK_RECORD
  5
31F
330
1
100
AcDbSymbolTableRecord
100
AcDbBlockTableRecord
  2
_D_9
340
0
  0
BLOCK_RECORD
  5
329
330
1
100
AcDbSymbolTableRecord
100
AcDbBlockTableRecord
  2
_D_10
340
0
  0
BLOCK_RECORD
  5
333
330
1
100
AcDbSymbolTableRecord
100
AcDbBlockTableRecord
  2
_D_11
340
0
  0
BLOCK_RECORD
  5
33E
330
1
100
AcDbSymbolTableRecord
100
AcDbBlockTableRecord
  2
_D_12
340
0
  0
BLOCK_RECORD
  5
347
330
1
100
AcDbSymbolTableRecord
100
AcDbBlockTableRecord
  2
_D_13
340
0
  0
BLOCK_RECORD
  5
350
330
1
100
AcDbSymbolTableRecord
100
AcDbBlockTableRecord
  2
SW_CENTERMARKSYMBOL_9
340
0
102
{BLKREFS
331
35B
102
}
  0
ENDTAB
  0
ENDSEC
  0
SECTION
  2
BLOCKS
  0
BLOCK
  5
20
330
1F
100
AcDbEntity
  8
0
100
AcDbBlockBegin
  2
*Model_Space
 70
     0
 10
0.0
 20
0.0
 30
0.0
  3
*Model_Space
  1

  0
ENDBLK
  5
21
330
1F
100
AcDbEntity
  8
0
100
AcDbBlockEnd
  0
BLOCK
  5
1C
330
1B
100
AcDbEntity
 67
     1
  8
0
100
AcDbBlockBegin
  2
*Paper_Space
 70
     0
 10
0.0
 20
0.0
 30
0.0
  3
*Paper_Space
  1

  0
ENDBLK
  5
1D
330
1B
100
AcDbEntity
 67
     1
  8
0
100
AcDbBlockEnd
  0
BLOCK
  5
24
330
23
100
AcDbEntity
  8
0
100
AcDbBlockBegin
  2
*Paper_Space0
 70
     0
 10
0.0
 20
0.0
 30
0.0
  3
*Paper_Space0
  1

  0
ENDBLK
  5
25
330
23
100
AcDbEntity
  8
0
100
AcDbBlockEnd
  0
BLOCK
  5
CD
330
CC
100
AcDbEntity
  8
0
100
AcDbBlockBegin
  2
SW_NOTE_0
 70
     0
 10
0.0
 20
0.0
 30
0.0
  3
SW_NOTE_0
  1

  0
MTEXT
  5
CF
330
CC
100
AcDbEntity
  8
0
  6
Continuous
 62
     0
370
     0
100
AcDbMText
 10
0.0
 20
5.1159875922
 30
0.0
 40
3.96875
 41
0.0
 71
     1
 72
     1
  1
PROPRIETARY AND CONFIDENTIAL
  7
SLDTEXTSTYLE0
 73
     1
 44
1.0
  0
MTEXT
  5
D0
330
CC
100
AcDbEntity
  8
0
  6
Continuous
 62
     0
370
     0
100
AcDbMText
 10
0.0
 20
-0.12297522
 30
0.0
 40
2.778125
 41
0.0
 71
     1
 72
     1
  1
THE INFORMATION CONTAINED IN THIS DRAWING IS THE SOLE PROPERTY OF UNICE E-O SERVICES INC. ANY REPRODUCTION IN PART OR AS A WHOLE WITHOUT THE WRITTEN PERMISSION OF UNICE E-O SERVICES INC IS
  7
SLDTEXTSTYLE0
 73
     1
 44
1.0
  0
MTEXT
  5
D1
330
CC
100
AcDbEntity
  8
0
  6
Continuous
 62
     0
370
     0
100
AcDbMText
 10
0.0
 20
-3.8271418419
 30
0.0
 40
2.778125
 41
0.0
 71
     1
 72
     1
  1
PROHIBITED.
  7
SLDTEXTSTYLE0
 73
     1
 44
1.0
  0
ENDBLK
  5
CE
330
CC
100
AcDbEntity
  8
0
100
AcDbBlockEnd
  0
BLOCK
  5
104
330
103
100
AcDbEntity
  8
0
100
AcDbBlockBegin
  2
SW_NOTE_1
 70
     0
 10
0.0
 20
0.0
 30
0.0
  3
SW_NOTE_1
  1

  0
MTEXT
  5
106
330
103
100
AcDbEntity
  8
DIM
 62
     0
100
AcDbMText
 10
0.0
 20
3.5811913146
 30
0.0
 40
2.778125
 41
0.0
 71
     1
 72
     1
  1
No.5, Andong Rd., Chung Li District,
  7
SLDTEXTSTYLE1
 73
     1
 44
1.0
  0
MTEXT
  5
107
330
103
100
AcDbEntity
  8
DIM
 62
     0
100
AcDbMText
 10
0.0
 20
-0.1229753073
 30
0.0
 40
2.778125
 41
0.0
 71
     1
 72
     1
  1
Taoyuan City 32063, Taiwan, R.O.C.
  7
SLDTEXTSTYLE1
 73
     1
 44
1.0
  0
ENDBLK
  5
105
330
103
100
AcDbEntity
  8
0
100
AcDbBlockEnd
  0
BLOCK
  5
18F
330
18E
100
AcDbEntity
  8
0
100
AcDbBlockBegin
  2
_D
 70
     0
 10
0.0
 20
0.0
 30
0.0
  3
_D
  1

  0
SOLID
  5
191
330
18E
100
AcDbEntity
  8
DIM
 62
     7
100
AcDbTrace
 10
134.5339864175
 20
134.3136531288
 30
0.0
 11
137.5339864175
 21
133.9386531288
 31
0.0
 12
137.5339864175
 22
134.6886531288
 32
0.0
 13
137.5339864175
 23
134.6886531288
 33
0.0
  0
SOLID
  5
192
330
18E
100
AcDbEntity
  8
DIM
 62
     7
100
AcDbTrace
 10
147.0339864175
 20
134.3136531288
 30
0.0
 11
144.0339864175
 21
134.6886531288
 31
0.0
 12
144.0339864175
 22
133.9386531288
 32
0.0
 13
144.0339864175
 23
133.9386531288
 33
0.0
  0
LINE
  5
193
330
18E
100
AcDbEntity
  8
DIM
 62
     7
100
AcDbLine
 10
134.5339864175
 20
120.6241287733
 30
0.0
 11
134.5339864175
 21
135.8136531288
 31
0.0
  0
LINE
  5
194
330
18E
100
AcDbEntity
  8
DIM
 62
     7
100
AcDbLine
 10
147.0339864175
 20
120.6241287733
 30
0.0
 11
147.0339864175
 21
135.8136531288
 31
0.0
  0
LINE
  5
195
330
18E
100
AcDbEntity
  8
DIM
 62
     7
100
AcDbLine
 10
134.5339864175
 20
134.3136531288
 30
0.0
 11
147.0339864175
 21
134.3136531288
 31
0.0
  0
MTEXT
  5
196
330
18E
100
AcDbEntity
  8
DIM
 62
     7
100
AcDbMText
 10
135.7709657084
 20
139.147656891
 30
0.0
 40
3.75
 41
0.0
 71
     1
 72
     1
  1
12.5
  7
SLDTEXTSTYLE0
 73
     1
 44
1.0
  0
ENDBLK
  5
190
330
18E
100
AcDbEntity
  8
0
100
AcDbBlockEnd
  0
BLOCK
  5
199
330
198
100
AcDbEntity
  8
0
100
AcDbBlockBegin
  2
_D_1
 70
     0
 10
0.0
 20
0.0
 30
0.0
  3
_D_1
  1

  0
SOLID
  5
19B
330
198
100
AcDbEntity
  8
DIM
 62
     7
100
AcDbTrace
 10
147.0339864175
 20
134.3136531288
 30
0.0
 11
150.0339864175
 21
133.9386531288
 31
0.0
 12
150.0339864175
 22
134.6886531288
 32
0.0
 13
150.0339864175
 23
134.6886531288
 33
0.0
  0
SOLID
  5
19C
330
198
100
AcDbEntity
  8
DIM
 62
     7
100
AcDbTrace
 10
159.5339864175
 20
134.3136531288
 30
0.0
 11
156.5339864175
 21
134.6886531288
 31
0.0
 12
156.5339864175
 22
133.9386531288
 32
0.0
 13
156.5339864175
 23
133.9386531288
 33
0.0
  0
LINE
  5
19D
330
198
100
AcDbEntity
  8
DIM
 62
     7
100
AcDbLine
 10
147.0339864175
 20
120.6241287733
 30
0.0
 11
147.0339864175
 21
135.8136531288
 31
0.0
  0
LINE
  5
19E
330
198
100
AcDbEntity
  8
DIM
 62
     7
100
AcDbLine
 10
159.5339864175
 20
120.6241287733
 30
0.0
 11
159.5339864175
 21
135.8136531288
 31
0.0
  0
LINE
  5
19F
330
198
100
AcDbEntity
  8
DIM
 62
     7
100
AcDbLine
 10
147.0339864175
 20
134.3136531288
 30
0.0
 11
159.5339864175
 21
134.3136531288
 31
0.0
  0
MTEXT
  5
1A0
330
198
100
AcDbEntity
  8
DIM
 62
     7
100
AcDbMText
 10
148.2709657084
 20
139.147656891
 30
0.0
 40
3.75
 41
0.0
 71
     1
 72
     1
  1
12.5
  7
SLDTEXTSTYLE0
 73
     1
 44
1.0
  0
ENDBLK
  5
19A
330
198
100
AcDbEntity
  8
0
100
AcDbBlockEnd
  0
BLOCK
  5
1A3
330
1A2
100
AcDbEntity
  8
0
100
AcDbBlockBegin
  2
_D_2
 70
     0
 10
0.0
 20
0.0
 30
0.0
  3
_D_2
  1

  0
SOLID
  5
1A5
330
1A2
100
AcDbEntity
  8
DIM
 62
     7
100
AcDbTrace
 10
122.0339864175
 20
143.887889275
 30
0.0
 11
125.0339864175
 21
143.512889275
 31
0.0
 12
125.0339864175
 22
144.262889275
 32
0.0
 13
125.0339864175
 23
144.262889275
 33
0.0
  0
SOLID
  5
1A6
330
1A2
100
AcDbEntity
  8
DIM
 62
     7
100
AcDbTrace
 10
172.0339864175
 20
143.887889275
 30
0.0
 11
169.0339864175
 21
144.262889275
 31
0.0
 12
169.0339864175
 22
143.512889275
 32
0.0
 13
169.0339864175
 23
143.512889275
 33
0.0
  0
LINE
  5
1A7
330
1A2
100
AcDbEntity
  8
DIM
 62
     7
100
AcDbLine
 10
122.0339864175
 20
130.1241287733
 30
0.0
 11
122.0339864175
 21
145.387889275
 31
0.0
  0
LINE
  5
1A8
330
1A2
100
AcDbEntity
  8
DIM
 62
     7
100
AcDbLine
 10
172.0339864175
 20
130.1241287733
 30
0.0
 11
172.0339864175
 21
145.387889275
 31
0.0
  0
LINE
  5
1A9
330
1A2
100
AcDbEntity
  8
DIM
 62
     7
100
AcDbLine
 10
122.0339864175
 20
143.887889275
 30
0.0
 11
172.0339864175
 21
143.887889275
 31
0.0
  0
MTEXT
  5
1AA
330
1A2
100
AcDbEntity
  8
DIM
 62
     7
100
AcDbMText
 10
144.1694030803
 20
148.7218930372
 30
0.0
 40
3.75
 41
0.0
 71
     1
 72
     1
  1
50
  7
SLDTEXTSTYLE0
 73
     1
 44
1.0
  0
ENDBLK
  5
1A4
330
1A2
100
AcDbEntity
  8
0
100
AcDbBlockEnd
  0
BLOCK
  5
1AD
330
1AC
100
AcDbEntity
  8
0
100
AcDbBlockBegin
  2
_D_3
 70
     0
 10
0.0
 20
0.0
 30
0.0
  3
_D_3
  1

  0
SOLID
  5
1AF
330
1AC
100
AcDbEntity
  8
DIM
 62
     7
100
AcDbTrace
 10
99.0339864175
 20
103.1241287733
 30
0.0
 11
98.6589864175
 21
100.1241287733
 31
0.0
 12
99.4089864175
 22
100.1241287733
 32
0.0
 13
99.4089864175
 23
100.1241287733
 33
0.0
  0
SOLID
  5
1B0
330
1AC
100
AcDbEntity
  8
DIM
 62
     7
100
AcDbTrace
 10
99.0339864175
 20
90.6241287733
 30
0.0
 11
99.4089864175
 21
93.6241287733
 31
0.0
 12
98.6589864175
 22
93.6241287733
 32
0.0
 13
98.6589864175
 23
93.6241287733
 33
0.0
  0
LINE
  5
1B1
330
1AC
100
AcDbEntity
  8
DIM
 62
     7
100
AcDbLine
 10
129.5339864175
 20
103.1241287733
 30
0.0
 11
97.5339864175
 21
103.1241287733
 31
0.0
  0
LINE
  5
1B2
330
1AC
100
AcDbEntity
  8
DIM
 62
     7
100
AcDbLine
 10
104.1215438083
 20
90.6241287733
 30
0.0
 11
97.5339864175
 21
90.6241287733
 31
0.0
  0
LINE
  5
1B3
330
1AC
100
AcDbEntity
  8
DIM
 62
     7
100
AcDbLine
 10
99.0339864175
 20
103.1241287733
 30
0.0
 11
99.0339864175
 21
90.6241287733
 31
0.0
  0
MTEXT
  5
1B4
330
1AC
100
AcDbEntity
  8
DIM
 62
     7
100
AcDbMText
 10
94.1999826553
 20
91.8611080641
 30
0.0
 40
3.75
 41
0.0
 71
     1
 72
     1
  1
12.5
  7
SLDTEXTSTYLE0
 11
-7.044195017643634E-15
 21
1.0
 31
0.0
 73
     1
 44
1.0
  0
ENDBLK
  5
1AE
330
1AC
100
AcDbEntity
  8
0
100
AcDbBlockEnd
  0
BLOCK
  5
1B7
330
1B6
100
AcDbEntity
  8
0
100
AcDbBlockBegin
  2
_D_4
 70
     0
 10
0.0
 20
0.0
 30
0.0
  3
_D_4
  1

  0
SOLID
  5
1B9
330
1B6
100
AcDbEntity
  8
DIM
 62
     7
100
AcDbTrace
 10
88.728142299
 20
90.6241287733
 30
0.0
 11
89.103142299
 21
93.6241287733
 31
0.0
 12
88.353142299
 22
93.6241287733
 32
0.0
 13
88.353142299
 23
93.6241287733
 33
0.0
  0
SOLID
  5
1BA
330
1B6
100
AcDbEntity
  8
DIM
 62
     7
100
AcDbTrace
 10
88.728142299
 20
115.6241287733
 30
0.0
 11
88.353142299
 21
112.6241287733
 31
0.0
 12
89.103142299
 22
112.6241287733
 32
0.0
 13
89.103142299
 23
112.6241287733
 33
0.0
  0
LINE
  5
1BB
330
1B6
100
AcDbEntity
  8
DIM
 62
     7
100
AcDbLine
 10
104.1215438083
 20
90.6241287733
 30
0.0
 11
87.228142299
 21
90.6241287733
 31
0.0
  0
LINE
  5
1BC
330
1B6
100
AcDbEntity
  8
DIM
 62
     7
100
AcDbLine
 10
129.5339864175
 20
115.6241287733
 30
0.0
 11
87.228142299
 21
115.6241287733
 31
0.0
  0
LINE
  5
1BD
330
1B6
100
AcDbEntity
  8
DIM
 62
     7
100
AcDbLine
 10
88.728142299
 20
90.6241287733
 30
0.0
 11
88.728142299
 21
115.6241287733
 31
0.0
  0
MTEXT
  5
1BE
330
1B6
100
AcDbEntity
  8
DIM
 62
     7
100
AcDbMText
 10
83.8941385368
 20
100.2595454361
 30
0.0
 40
3.75
 41
0.0
 71
     1
 72
     1
  1
25
  7
SLDTEXTSTYLE0
 11
6.123233995736766E-17
 21
1.0
 31
0.0
 73
     1
 44
1.0
  0
ENDBLK
  5
1B8
330
1B6
100
AcDbEntity
  8
0
100
AcDbBlockEnd
  0
BLOCK
  5
1C1
330
1C0
100
AcDbEntity
  8
0
100
AcDbBlockBegin
  2
_D_5
 70
     0
 10
0.0
 20
0.0
 30
0.0
  3
_D_5
  1

  0
SOLID
  5
1C3
330
1C0
100
AcDbEntity
  8
DIM
 62
     7
100
AcDbTrace
 10
88.728142299
 20
90.6241287733
 30
0.0
 11
88.353142299
 21
87.6241287733
 31
0.0
 12
89.103142299
 22
87.6241287733
 32
0.0
 13
89.103142299
 23
87.6241287733
 33
0.0
  0
SOLID
  5
1C4
330
1C0
100
AcDbEntity
  8
DIM
 62
     7
100
AcDbTrace
 10
88.728142299
 20
65.6241287733
 30
0.0
 11
89.103142299
 21
68.6241287733
 31
0.0
 12
88.353142299
 22
68.6241287733
 32
0.0
 13
88.353142299
 23
68.6241287733
 33
0.0
  0
LINE
  5
1C5
330
1C0
100
AcDbEntity
  8
DIM
 62
     7
100
AcDbLine
 10
104.1215438083
 20
90.6241287733
 30
0.0
 11
87.228142299
 21
90.6241287733
 31
0.0
  0
LINE
  5
1C6
330
1C0
100
AcDbEntity
  8
DIM
 62
     7
100
AcDbLine
 10
129.5339864175
 20
65.6241287733
 30
0.0
 11
87.228142299
 21
65.6241287733
 31
0.0
  0
LINE
  5
1C7
330
1C0
100
AcDbEntity
  8
DIM
 62
     7
100
AcDbLine
 10
88.728142299
 20
90.6241287733
 30
0.0
 11
88.728142299
 21
65.6241287733
 31
0.0
  0
MTEXT
  5
1C8
330
1C0
100
AcDbEntity
  8
DIM
 62
     7
100
AcDbMText
 10
83.8941385368
 20
75.2595454361
 30
0.0
 40
3.75
 41
0.0
 71
     1
 72
     1
  1
25
  7
SLDTEXTSTYLE0
 11
-7.044195017643634E-15
 21
1.0
 31
0.0
 73
     1
 44
1.0
  0
ENDBLK
  5
1C2
330
1C0
100
AcDbEntity
  8
0
100
AcDbBlockEnd
  0
BLOCK
  5
1CB
330
1CA
100
AcDbEntity
  8
0
100
AcDbBlockBegin
  2
_D_6
 70
     0
 10
0.0
 20
0.0
 30
0.0
  3
_D_6
  1

  0
SOLID
  5
1CD
330
1CA
100
AcDbEntity
  8
DIM
 62
     7
100
AcDbTrace
 10
78.3484413631
 20
128.6241287733
 30
0.0
 11
77.9734413631
 21
125.6241287733
 31
0.0
 12
78.7234413631
 22
125.6241287733
 32
0.0
 13
78.7234413631
 23
125.6241287733
 33
0.0
  0
SOLID
  5
1CE
330
1CA
100
AcDbEntity
  8
DIM
 62
     7
100
AcDbTrace
 10
78.3484413631
 20
52.6241287733
 30
0.0
 11
78.7234413631
 21
55.6241287733
 31
0.0
 12
77.9734413631
 22
55.6241287733
 32
0.0
 13
77.9734413631
 23
55.6241287733
 33
0.0
  0
LINE
  5
1CF
330
1CA
100
AcDbEntity
  8
DIM
 62
     7
100
AcDbLine
 10
120.5339864175
 20
128.6241287733
 30
0.0
 11
76.8484413631
 21
128.6241287733
 31
0.0
  0
LINE
  5
1D0
330
1CA
100
AcDbEntity
  8
DIM
 62
     7
100
AcDbLine
 10
120.5339864175
 20
52.6241287733
 30
0.0
 11
76.8484413631
 21
52.6241287733
 31
0.0
  0
LINE
  5
1D1
330
1CA
100
AcDbEntity
  8
DIM
 62
     7
100
AcDbLine
 10
78.3484413631
 20
128.6241287733
 30
0.0
 11
78.3484413631
 21
52.6241287733
 31
0.0
  0
MTEXT
  5
1D2
330
1CA
100
AcDbEntity
  8
DIM
 62
     7
100
AcDbMText
 10
73.5144376009
 20
87.7595454361
 30
0.0
 40
3.75
 41
0.0
 71
     1
 72
     1
  1
76
  7
SLDTEXTSTYLE0
 11
-1.059690869644414E-14
 21
1.0
 31
0.0
 73
     1
 44
1.0
  0
ENDBLK
  5
1CC
330
1CA
100
AcDbEntity
  8
0
100
AcDbBlockEnd
  0
BLOCK
  5
1D6
330
1D5
100
AcDbEntity
  8
0
100
AcDbBlockBegin
  2
_D_7
 70
     0
 10
0.0
 20
0.0
 30
0.0
  3
_D_7
  1

  0
SOLID
  5
1D8
330
1D5
100
AcDbEntity
  8
DIM
100
AcDbTrace
 10
161.699049927
 20
116.8741287733
 30
0.0
 11
164.4846261383
 21
118.0493692468
 31
0.0
 12
164.1096261383
 22
118.6988882997
 32
0.0
 13
164.1096261383
 23
118.6988882997
 33
0.0
  0
LINE
  5
1D9
330
1D5
100
AcDbEntity
  8
DIM
100
AcDbLine
 10
161.699049927
 20
116.8741287733
 30
0.0
 11
184.4082098132
 21
129.9852683467
 31
0.0
  0
LINE
  5
1DA
330
1D5
100
AcDbEntity
  8
DIM
100
AcDbLine
 10
184.4082098132
 20
129.9852683467
 30
0.0
 11
209.4759177281
 21
129.9852683467
 31
0.0
  0
MTEXT
  5
1DB
330
1D5
100
AcDbEntity
  8
DIM
100
AcDbMText
 10
186.2832098132
 20
140.5744803087
 30
0.0
 40
3.75
 41
0.0
 71
     1
 72
     1
  1
9 HOLES,
  7
SLDTEXTSTYLE0
 73
     1
 44
1.0
  0
MTEXT
  5
1DC
330
1D5
100
AcDbEntity
  8
DIM
100
AcDbMText
 10
187.6894598132
 20
134.8192721089
 30
0.0
 40
3.75
 41
0.0
 71
     1
 72
     1
  1
M6
  7
SLDTEXTSTYLE0
 73
     1
 44
1.0
  0
ENDBLK
  5
1D7
330
1D5
100
AcDbEntity
  8
0
100
AcDbBlockEnd
  0
BLOCK
  5
1DE
330
1DD
100
AcDbEntity
  8
0
100
AcDbBlockBegin
  2
SW_CENTERMARKSYMBOL_0
 70
     0
 10
0.0
 20
0.0
 30
0.0
  3
SW_CENTERMARKSYMBOL_0
  1

  0
LINE
  5
1E0
330
1DD
100
AcDbEntity
  8
DIM
 62
     0
100
AcDbLine
 10
0.0
 20
0.0
 30
0.0
 11
0.0
 21
1.0
 31
0.0
  0
LINE
  5
1E1
330
1DD
100
AcDbEntity
  8
DIM
 62
     0
100
AcDbLine
 10
0.0
 20
0.0
 30
0.0
 11
-1.0
 21
0.0
 31
0.0
  0
LINE
  5
1E2
330
1DD
100
AcDbEntity
  8
DIM
 62
     0
100
AcDbLine
 10
0.0
 20
0.0
 30
0.0
 11
0.0
 21
-1.0
 31
0.0
  0
LINE
  5
1E3
330
1DD
100
AcDbEntity
  8
DIM
 62
     0
100
AcDbLine
 10
0.0
 20
0.0
 30
0.0
 11
1.0
 21
0.0
 31
0.0
  0
LINE
  5
1E4
330
1DD
100
AcDbEntity
  8
DIM
 62
     0
100
AcDbLine
 10
0.0
 20
2.0
 30
0.0
 11
0.0
 21
3.5
 31
0.0
  0
LINE
  5
1E5
330
1DD
100
AcDbEntity
  8
DIM
 62
     0
100
AcDbLine
 10
-2.0
 20
0.0
 30
0.0
 11
-3.5
 21
0.0
 31
0.0
  0
LINE
  5
1E6
330
1DD
100
AcDbEntity
  8
DIM
 62
     0
100
AcDbLine
 10
0.0
 20
-2.0
 30
0.0
 11
0.0
 21
-3.5
 31
0.0
  0
LINE
  5
1E7
330
1DD
100
AcDbEntity
  8
DIM
 62
     0
100
AcDbLine
 10
2.0
 20
0.0
 30
0.0
 11
3.5
 21
0.0
 31
0.0
  0
ENDBLK
  5
1DF
330
1DD
100
AcDbEntity
  8
0
100
AcDbBlockEnd
  0
BLOCK
  5
1EA
330
1E9
100
AcDbEntity
  8
0
100
AcDbBlockBegin
  2
SW_CENTERMARKSYMBOL_1
 70
     0
 10
0.0
 20
0.0
 30
0.0
  3
SW_CENTERMARKSYMBOL_1
  1

  0
LINE
  5
1EC
330
1E9
100
AcDbEntity
  8
DIM
 62
     0
100
AcDbLine
 10
0.0
 20
0.0
 30
0.0
 11
0.0
 21
1.0
 31
0.0
  0
LINE
  5
1ED
330
1E9
100
AcDbEntity
  8
DIM
 62
     0
100
AcDbLine
 10
0.0
 20
0.0
 30
0.0
 11
-1.0
 21
0.0
 31
0.0
  0
LINE
  5
1EE
330
1E9
100
AcDbEntity
  8
DIM
 62
     0
100
AcDbLine
 10
0.0
 20
0.0
 30
0.0
 11
0.0
 21
-1.0
 31
0.0
  0
LINE
  5
1EF
330
1E9
100
AcDbEntity
  8
DIM
 62
     0
100
AcDbLine
 10
0.0
 20
0.0
 30
0.0
 11
1.0
 21
0.0
 31
0.0
  0
LINE
  5
1F0
330
1E9
100
AcDbEntity
  8
DIM
 62
     0
100
AcDbLine
 10
0.0
 20
2.0
 30
0.0
 11
0.0
 21
3.5
 31
0.0
  0
LINE
  5
1F1
330
1E9
100
AcDbEntity
  8
DIM
 62
     0
100
AcDbLine
 10
-2.0
 20
0.0
 30
0.0
 11
-3.5
 21
0.0
 31
0.0
  0
LINE
  5
1F2
330
1E9
100
AcDbEntity
  8
DIM
 62
     0
100
AcDbLine
 10
0.0
 20
-2.0
 30
0.0
 11
0.0
 21
-3.5
 31
0.0
  0
LINE
  5
1F3
330
1E9
100
AcDbEntity
  8
DIM
 62
     0
100
AcDbLine
 10
2.0
 20
0.0
 30
0.0
 11
3.5
 21
0.0
 31
0.0
  0
ENDBLK
  5
1EB
330
1E9
100
AcDbEntity
  8
0
100
AcDbBlockEnd
  0
BLOCK
  5
1F6
330
1F5
100
AcDbEntity
  8
0
100
AcDbBlockBegin
  2
SW_CENTERMARKSYMBOL_2
 70
     0
 10
0.0
 20
0.0
 30
0.0
  3
SW_CENTERMARKSYMBOL_2
  1

  0
LINE
  5
1F8
330
1F5
100
AcDbEntity
  8
DIM
 62
     0
100
AcDbLine
 10
0.0
 20
0.0
 30
0.0
 11
0.0
 21
1.0
 31
0.0
  0
LINE
  5
1F9
330
1F5
100
AcDbEntity
  8
DIM
 62
     0
100
AcDbLine
 10
0.0
 20
0.0
 30
0.0
 11
-1.0
 21
0.0
 31
0.0
  0
LINE
  5
1FA
330
1F5
100
AcDbEntity
  8
DIM
 62
     0
100
AcDbLine
 10
0.0
 20
0.0
 30
0.0
 11
0.0
 21
-1.0
 31
0.0
  0
LINE
  5
1FB
330
1F5
100
AcDbEntity
  8
DIM
 62
     0
100
AcDbLine
 10
0.0
 20
0.0
 30
0.0
 11
1.0
 21
0.0
 31
0.0
  0
LINE
  5
1FC
330
1F5
100
AcDbEntity
  8
DIM
 62
     0
100
AcDbLine
 10
0.0
 20
2.0
 30
0.0
 11
0.0
 21
3.5
 31
0.0
  0
LINE
  5
1FD
330
1F5
100
AcDbEntity
  8
DIM
 62
     0
100
AcDbLine
 10
-2.0
 20
0.0
 30
0.0
 11
-3.5
 21
0.0
 31
0.0
  0
LINE
  5
1FE
330
1F5
100
AcDbEntity
  8
DIM
 62
     0
100
AcDbLine
 10
0.0
 20
-2.0
 30
0.0
 11
0.0
 21
-3.5
 31
0.0
  0
LINE
  5
1FF
330
1F5
100
AcDbEntity
  8
DIM
 62
     0
100
AcDbLine
 10
2.0
 20
0.0
 30
0.0
 11
3.5
 21
0.0
 31
0.0
  0
ENDBLK
  5
1F7
330
1F5
100
AcDbEntity
  8
0
100
AcDbBlockEnd
  0
BLOCK
  5
202
330
201
100
AcDbEntity
  8
0
100
AcDbBlockBegin
  2
SW_CENTERMARKSYMBOL_3
 70
     0
 10
0.0
 20
0.0
 30
0.0
  3
SW_CENTERMARKSYMBOL_3
  1

  0
LINE
  5
204
330
201
100
AcDbEntity
  8
DIM
 62
     0
100
AcDbLine
 10
0.0
 20
0.0
 30
0.0
 11
0.0
 21
1.0
 31
0.0
  0
LINE
  5
205
330
201
100
AcDbEntity
  8
DIM
 62
     0
100
AcDbLine
 10
0.0
 20
0.0
 30
0.0
 11
-1.0
 21
0.0
 31
0.0
  0
LINE
  5
206
330
201
100
AcDbEntity
  8
DIM
 62
     0
100
AcDbLine
 10
0.0
 20
0.0
 30
0.0
 11
0.0
 21
-1.0
 31
0.0
  0
LINE
  5
207
330
201
100
AcDbEntity
  8
DIM
 62
     0
100
AcDbLine
 10
0.0
 20
0.0
 30
0.0
 11
1.0
 21
0.0
 31
0.0
  0
LINE
  5
208
330
201
100
AcDbEntity
  8
DIM
 62
     0
100
AcDbLine
 10
0.0
 20
2.0
 30
0.0
 11
0.0
 21
3.5
 31
0.0
  0
LINE
  5
209
330
201
100
AcDbEntity
  8
DIM
 62
     0
100
AcDbLine
 10
-2.0
 20
0.0
 30
0.0
 11
-3.5
 21
0.0
 31
0.0
  0
LINE
  5
20A
330
201
100
AcDbEntity
  8
DIM
 62
     0
100
AcDbLine
 10
0.0
 20
-2.0
 30
0.0
 11
0.0
 21
-3.5
 31
0.0
  0
LINE
  5
20B
330
201
100
AcDbEntity
  8
DIM
 62
     0
100
AcDbLine
 10
2.0
 20
0.0
 30
0.0
 11
3.5
 21
0.0
 31
0.0
  0
ENDBLK
  5
203
330
201
100
AcDbEntity
  8
0
100
AcDbBlockEnd
  0
BLOCK
  5
20E
330
20D
100
AcDbEntity
  8
0
100
AcDbBlockBegin
  2
SW_CENTERMARKSYMBOL_4
 70
     0
 10
0.0
 20
0.0
 30
0.0
  3
SW_CENTERMARKSYMBOL_4
  1

  0
LINE
  5
210
330
20D
100
AcDbEntity
  8
DIM
 62
     0
100
AcDbLine
 10
0.0
 20
0.0
 30
0.0
 11
0.0
 21
1.0
 31
0.0
  0
LINE
  5
211
330
20D
100
AcDbEntity
  8
DIM
 62
     0
100
AcDbLine
 10
0.0
 20
0.0
 30
0.0
 11
-1.0
 21
0.0
 31
0.0
  0
LINE
  5
212
330
20D
100
AcDbEntity
  8
DIM
 62
     0
100
AcDbLine
 10
0.0
 20
0.0
 30
0.0
 11
0.0
 21
-1.0
 31
0.0
  0
LINE
  5
213
330
20D
100
AcDbEntity
  8
DIM
 62
     0
100
AcDbLine
 10
0.0
 20
0.0
 30
0.0
 11
1.0
 21
0.0
 31
0.0
  0
LINE
  5
214
330
20D
100
AcDbEntity
  8
DIM
 62
     0
100
AcDbLine
 10
0.0
 20
2.0
 30
0.0
 11
0.0
 21
3.5
 31
0.0
  0
LINE
  5
215
330
20D
100
AcDbEntity
  8
DIM
 62
     0
100
AcDbLine
 10
-2.0
 20
0.0
 30
0.0
 11
-3.5
 21
0.0
 31
0.0
  0
LINE
  5
216
330
20D
100
AcDbEntity
  8
DIM
 62
     0
100
AcDbLine
 10
0.0
 20
-2.0
 30
0.0
 11
0.0
 21
-3.5
 31
0.0
  0
LINE
  5
217
330
20D
100
AcDbEntity
  8
DIM
 62
     0
100
AcDbLine
 10
2.0
 20
0.0
 30
0.0
 11
3.5
 21
0.0
 31
0.0
  0
ENDBLK
  5
20F
330
20D
100
AcDbEntity
  8
0
100
AcDbBlockEnd
  0
BLOCK
  5
21A
330
219
100
AcDbEntity
  8
0
100
AcDbBlockBegin
  2
SW_CENTERMARKSYMBOL_5
 70
     0
 10
0.0
 20
0.0
 30
0.0
  3
SW_CENTERMARKSYMBOL_5
  1

  0
LINE
  5
21C
330
219
100
AcDbEntity
  8
DIM
 62
     0
100
AcDbLine
 10
0.0
 20
0.0
 30
0.0
 11
0.0
 21
1.0
 31
0.0
  0
LINE
  5
21D
330
219
100
AcDbEntity
  8
DIM
 62
     0
100
AcDbLine
 10
0.0
 20
0.0
 30
0.0
 11
-1.0
 21
0.0
 31
0.0
  0
LINE
  5
21E
330
219
100
AcDbEntity
  8
DIM
 62
     0
100
AcDbLine
 10
0.0
 20
0.0
 30
0.0
 11
0.0
 21
-1.0
 31
0.0
  0
LINE
  5
21F
330
219
100
AcDbEntity
  8
DIM
 62
     0
100
AcDbLine
 10
0.0
 20
0.0
 30
0.0
 11
1.0
 21
0.0
 31
0.0
  0
LINE
  5
220
330
219
100
AcDbEntity
  8
DIM
 62
     0
100
AcDbLine
 10
0.0
 20
2.0
 30
0.0
 11
0.0
 21
20.8395907937
 31
0.0
  0
LINE
  5
221
330
219
100
AcDbEntity
  8
DIM
 62
     0
100
AcDbLine
 10
-2.0
 20
0.0
 30
0.0
 11
-41.4124426092
 21
0.0
 31
0.0
  0
LINE
  5
222
330
219
100
AcDbEntity
  8
DIM
 62
     0
100
AcDbLine
 10
0.0
 20
-2.0
 30
0.0
 11
0.0
 21
-21.4629862365
 31
0.0
  0
LINE
  5
223
330
219
100
AcDbEntity
  8
DIM
 62
     0
100
AcDbLine
 10
2.0
 20
0.0
 30
0.0
 11
43.4171283055
 21
0.0
 31
0.0
  0
ENDBLK
  5
21B
330
219
100
AcDbEntity
  8
0
100
AcDbBlockEnd
  0
BLOCK
  5
226
330
225
100
AcDbEntity
  8
0
100
AcDbBlockBegin
  2
SW_CENTERMARKSYMBOL_6
 70
     0
 10
0.0
 20
0.0
 30
0.0
  3
SW_CENTERMARKSYMBOL_6
  1

  0
LINE
  5
228
330
225
100
AcDbEntity
  8
DIM
 62
     0
100
AcDbLine
 10
0.0
 20
0.0
 30
0.0
 11
0.0
 21
1.0
 31
0.0
  0
LINE
  5
229
330
225
100
AcDbEntity
  8
DIM
 62
     0
100
AcDbLine
 10
0.0
 20
0.0
 30
0.0
 11
-1.0
 21
0.0
 31
0.0
  0
LINE
  5
22A
330
225
100
AcDbEntity
  8
DIM
 62
     0
100
AcDbLine
 10
0.0
 20
0.0
 30
0.0
 11
0.0
 21
-1.0
 31
0.0
  0
LINE
  5
22B
330
225
100
AcDbEntity
  8
DIM
 62
     0
100
AcDbLine
 10
0.0
 20
0.0
 30
0.0
 11
1.0
 21
0.0
 31
0.0
  0
LINE
  5
22C
330
225
100
AcDbEntity
  8
DIM
 62
     0
100
AcDbLine
 10
0.0
 20
2.0
 30
0.0
 11
0.0
 21
3.5
 31
0.0
  0
LINE
  5
22D
330
225
100
AcDbEntity
  8
DIM
 62
     0
100
AcDbLine
 10
-2.0
 20
0.0
 30
0.0
 11
-3.5
 21
0.0
 31
0.0
  0
LINE
  5
22E
330
225
100
AcDbEntity
  8
DIM
 62
     0
100
AcDbLine
 10
0.0
 20
-2.0
 30
0.0
 11
0.0
 21
-3.5
 31
0.0
  0
LINE
  5
22F
330
225
100
AcDbEntity
  8
DIM
 62
     0
100
AcDbLine
 10
2.0
 20
0.0
 30
0.0
 11
3.5
 21
0.0
 31
0.0
  0
ENDBLK
  5
227
330
225
100
AcDbEntity
  8
0
100
AcDbBlockEnd
  0
BLOCK
  5
232
330
231
100
AcDbEntity
  8
0
100
AcDbBlockBegin
  2
SW_CENTERMARKSYMBOL_7
 70
     0
 10
0.0
 20
0.0
 30
0.0
  3
SW_CENTERMARKSYMBOL_7
  1

  0
LINE
  5
234
330
231
100
AcDbEntity
  8
DIM
 62
     0
100
AcDbLine
 10
0.0
 20
0.0
 30
0.0
 11
0.0
 21
1.0
 31
0.0
  0
LINE
  5
235
330
231
100
AcDbEntity
  8
DIM
 62
     0
100
AcDbLine
 10
0.0
 20
0.0
 30
0.0
 11
-1.0
 21
0.0
 31
0.0
  0
LINE
  5
236
330
231
100
AcDbEntity
  8
DIM
 62
     0
100
AcDbLine
 10
0.0
 20
0.0
 30
0.0
 11
0.0
 21
-1.0
 31
0.0
  0
LINE
  5
237
330
231
100
AcDbEntity
  8
DIM
 62
     0
100
AcDbLine
 10
0.0
 20
0.0
 30
0.0
 11
1.0
 21
0.0
 31
0.0
  0
LINE
  5
238
330
231
100
AcDbEntity
  8
DIM
 62
     0
100
AcDbLine
 10
0.0
 20
2.0
 30
0.0
 11
0.0
 21
3.5
 31
0.0
  0
LINE
  5
239
330
231
100
AcDbEntity
  8
DIM
 62
     0
100
AcDbLine
 10
-2.0
 20
0.0
 30
0.0
 11
-3.5
 21
0.0
 31
0.0
  0
LINE
  5
23A
330
231
100
AcDbEntity
  8
DIM
 62
     0
100
AcDbLine
 10
0.0
 20
-2.0
 30
0.0
 11
0.0
 21
-3.5
 31
0.0
  0
LINE
  5
23B
330
231
100
AcDbEntity
  8
DIM
 62
     0
100
AcDbLine
 10
2.0
 20
0.0
 30
0.0
 11
3.5
 21
0.0
 31
0.0
  0
ENDBLK
  5
233
330
231
100
AcDbEntity
  8
0
100
AcDbBlockEnd
  0
BLOCK
  5
23E
330
23D
100
AcDbEntity
  8
0
100
AcDbBlockBegin
  2
SW_CENTERMARKSYMBOL_8
 70
     0
 10
0.0
 20
0.0
 30
0.0
  3
SW_CENTERMARKSYMBOL_8
  1

  0
LINE
  5
240
330
23D
100
AcDbEntity
  8
DIM
 62
     0
100
AcDbLine
 10
0.0
 20
0.0
 30
0.0
 11
0.0
 21
1.0
 31
0.0
  0
LINE
  5
241
330
23D
100
AcDbEntity
  8
DIM
 62
     0
100
AcDbLine
 10
0.0
 20
0.0
 30
0.0
 11
-1.0
 21
0.0
 31
0.0
  0
LINE
  5
242
330
23D
100
AcDbEntity
  8
DIM
 62
     0
100
AcDbLine
 10
0.0
 20
0.0
 30
0.0
 11
0.0
 21
-1.0
 31
0.0
  0
LINE
  5
243
330
23D
100
AcDbEntity
  8
DIM
 62
     0
100
AcDbLine
 10
0.0
 20
0.0
 30
0.0
 11
1.0
 21
0.0
 31
0.0
  0
LINE
  5
244
330
23D
100
AcDbEntity
  8
DIM
 62
     0
100
AcDbLine
 10
0.0
 20
2.0
 30
0.0
 11
0.0
 21
3.5
 31
0.0
  0
LINE
  5
245
330
23D
100
AcDbEntity
  8
DIM
 62
     0
100
AcDbLine
 10
-2.0
 20
0.0
 30
0.0
 11
-3.5
 21
0.0
 31
0.0
  0
LINE
  5
246
330
23D
100
AcDbEntity
  8
DIM
 62
     0
100
AcDbLine
 10
0.0
 20
-2.0
 30
0.0
 11
0.0
 21
-3.5
 31
0.0
  0
LINE
  5
247
330
23D
100
AcDbEntity
  8
DIM
 62
     0
100
AcDbLine
 10
2.0
 20
0.0
 30
0.0
 11
3.5
 21
0.0
 31
0.0
  0
ENDBLK
  5
23F
330
23D
100
AcDbEntity
  8
0
100
AcDbBlockEnd
  0
BLOCK
  5
316
330
315
100
AcDbEntity
  8
0
100
AcDbBlockBegin
  2
_D_8
 70
     0
 10
0.0
 20
0.0
 30
0.0
  3
_D_8
  1

  0
SOLID
  5
318
330
315
100
AcDbEntity
  8
DIM
 62
     7
100
AcDbTrace
 10
106.5339864175
 20
264.0351577935
 30
0.0
 11
109.5339864175
 21
263.6601577935
 31
0.0
 12
109.5339864175
 22
264.4101577935
 32
0.0
 13
109.5339864175
 23
264.4101577935
 33
0.0
  0
SOLID
  5
319
330
315
100
AcDbEntity
  8
DIM
 62
     7
100
AcDbTrace
 10
187.5339864175
 20
264.0351577935
 30
0.0
 11
184.5339864175
 21
264.4101577935
 31
0.0
 12
184.5339864175
 22
263.6601577935
 32
0.0
 13
184.5339864175
 23
263.6601577935
 33
0.0
  0
LINE
  5
31A
330
315
100
AcDbEntity
  8
DIM
 62
     7
100
AcDbLine
 10
106.5339864175
 20
251.1792401211
 30
0.0
 11
106.5339864175
 21
265.5351577935
 31
0.0
  0
LINE
  5
31B
330
315
100
AcDbEntity
  8
DIM
 62
     7
100
AcDbLine
 10
187.5339864175
 20
251.1792401211
 30
0.0
 11
187.5339864175
 21
265.5351577935
 31
0.0
  0
LINE
  5
31C
330
315
100
AcDbEntity
  8
DIM
 62
     7
100
AcDbLine
 10
106.5339864175
 20
264.0351577935
 30
0.0
 11
187.5339864175
 21
264.0351577935
 31
0.0
  0
MTEXT
  5
31D
330
315
100
AcDbEntity
  8
DIM
 62
     7
100
AcDbMText
 10
144.1694030803
 20
268.8691615557
 30
0.0
 40
3.75
 41
0.0
 71
     1
 72
     1
  1
81
  7
SLDTEXTSTYLE0
 73
     1
 44
1.0
  0
ENDBLK
  5
317
330
315
100
AcDbEntity
  8
0
100
AcDbBlockEnd
  0
BLOCK
  5
320
330
31F
100
AcDbEntity
  8
0
100
AcDbBlockBegin
  2
_D_9
 70
     0
 10
0.0
 20
0.0
 30
0.0
  3
_D_9
  1

  0
SOLID
  5
322
330
31F
100
AcDbEntity
  8
DIM
 62
     7
100
AcDbTrace
 10
208.4265662563
 20
255.6788787803
 30
0.0
 11
208.0515662563
 21
252.6788787803
 31
0.0
 12
208.8015662563
 22
252.6788787803
 32
0.0
 13
208.8015662563
 23
252.6788787803
 33
0.0
  0
SOLID
  5
323
330
31F
100
AcDbEntity
  8
DIM
 62
     7
100
AcDbTrace
 10
208.4265662563
 20
175.0792401211
 30
0.0
 11
208.8015662563
 21
178.0792401211
 31
0.0
 12
208.0515662563
 22
178.0792401211
 32
0.0
 13
208.0515662563
 23
178.0792401211
 33
0.0
  0
LINE
  5
324
330
31F
100
AcDbEntity
  8
DIM
 62
     7
100
AcDbLine
 10
186.0341670879
 20
255.6788787803
 30
0.0
 11
209.9265662563
 21
255.6788787803
 31
0.0
  0
LINE
  5
325
330
31F
100
AcDbEntity
  8
DIM
 62
     7
100
AcDbLine
 10
167.5339864175
 20
175.0792401211
 30
0.0
 11
209.9265662563
 21
175.0792401211
 31
0.0
  0
LINE
  5
326
330
31F
100
AcDbEntity
  8
DIM
 62
     7
100
AcDbLine
 10
208.4265662563
 20
255.6788787803
 30
0.0
 11
208.4265662563
 21
175.0792401211
 31
0.0
  0
MTEXT
  5
327
330
31F
100
AcDbEntity
  8
DIM
 62
     7
100
AcDbMText
 10
203.5925624941
 20
212.5144761135
 30
0.0
 40
3.75
 41
0.0
 71
     1
 72
     1
  1
80
  7
SLDTEXTSTYLE0
 11
-7.044195017643634E-15
 21
1.0
 31
0.0
 73
     1
 44
1.0
  0
ENDBLK
  5
321
330
31F
100
AcDbEntity
  8
0
100
AcDbBlockEnd
  0
BLOCK
  5
32A
330
329
100
AcDbEntity
  8
0
100
AcDbBlockBegin
  2
_D_10
 70
     0
 10
0.0
 20
0.0
 30
0.0
  3
_D_10
  1

  0
SOLID
  5
32C
330
329
100
AcDbEntity
  8
DIM
 62
     7
100
AcDbTrace
 10
199.5339864175
 20
242.0792401211
 30
0.0
 11
199.1589864175
 21
239.0792401211
 31
0.0
 12
199.9089864175
 22
239.0792401211
 32
0.0
 13
199.9089864175
 23
239.0792401211
 33
0.0
  0
SOLID
  5
32D
330
329
100
AcDbEntity
  8
DIM
 62
     7
100
AcDbTrace
 10
199.5339864175
 20
175.0792401211
 30
0.0
 11
199.9089864175
 21
178.0792401211
 31
0.0
 12
199.1589864175
 22
178.0792401211
 32
0.0
 13
199.1589864175
 23
178.0792401211
 33
0.0
  0
LINE
  5
32E
330
329
100
AcDbEntity
  8
DIM
 62
     7
100
AcDbLine
 10
160.0339864175
 20
242.0792401211
 30
0.0
 11
201.0339864175
 21
242.0792401211
 31
0.0
  0
LINE
  5
32F
330
329
100
AcDbEntity
  8
DIM
 62
     7
100
AcDbLine
 10
167.5339864175
 20
175.0792401211
 30
0.0
 11
201.0339864175
 21
175.0792401211
 31
0.0
  0
LINE
  5
330
330
329
100
AcDbEntity
  8
DIM
 62
     7
100
AcDbLine
 10
199.5339864175
 20
242.0792401211
 30
0.0
 11
199.5339864175
 21
175.0792401211
 31
0.0
  0
MTEXT
  5
331
330
329
100
AcDbEntity
  8
DIM
 62
     7
100
AcDbMText
 10
194.6999826553
 20
205.7146567838
 30
0.0
 40
3.75
 41
0.0
 71
     1
 72
     1
  1
67
  7
SLDTEXTSTYLE0
 11
-7.044195017643634E-15
 21
1.0
 31
0.0
 73
     1
 44
1.0
  0
ENDBLK
  5
32B
330
329
100
AcDbEntity
  8
0
100
AcDbBlockEnd
  0
BLOCK
  5
334
330
333
100
AcDbEntity
  8
0
100
AcDbBlockBegin
  2
_D_11
 70
     0
 10
0.0
 20
0.0
 30
0.0
  3
_D_11
  1

  0
SOLID
  5
336
330
333
100
AcDbEntity
  8
DIM
 62
     7
100
AcDbTrace
 10
190.9339864175
 20
203.5792401211
 30
0.0
 11
190.5589864175
 21
200.5792401211
 31
0.0
 12
191.3089864175
 22
200.5792401211
 32
0.0
 13
191.3089864175
 23
200.5792401211
 33
0.0
  0
SOLID
  5
337
330
333
100
AcDbEntity
  8
DIM
 62
     7
100
AcDbTrace
 10
190.9339864175
 20
175.0792401211
 30
0.0
 11
191.3089864175
 21
178.0792401211
 31
0.0
 12
190.5589864175
 22
178.0792401211
 32
0.0
 13
190.5589864175
 23
178.0792401211
 33
0.0
  0
LINE
  5
338
330
333
100
AcDbEntity
  8
DIM
 62
     7
100
AcDbLine
 10
148.5339864175
 20
203.5792401211
 30
0.0
 11
192.4339864175
 21
203.5792401211
 31
0.0
  0
LINE
  5
339
330
333
100
AcDbEntity
  8
DIM
 62
     7
100
AcDbLine
 10
167.5339864175
 20
175.0792401211
 30
0.0
 11
192.4339864175
 21
175.0792401211
 31
0.0
  0
LINE
  5
33A
330
333
100
AcDbEntity
  8
DIM
 62
     7
100
AcDbLine
 10
190.9339864175
 20
203.5792401211
 30
0.0
 11
190.9339864175
 21
175.0792401211
 31
0.0
  0
MTEXT
  5
33B
330
333
100
AcDbEntity
  8
DIM
 62
     7
100
AcDbMText
 10
186.0999826553
 20
184.3162194119
 30
0.0
 40
3.75
 41
0.0
 71
     1
 72
     1
  1
28.5
  7
SLDTEXTSTYLE0
 11
-7.044195017643634E-15
 21
1.0
 31
0.0
 73
     1
 44
1.0
  0
ENDBLK
  5
335
330
333
100
AcDbEntity
  8
0
100
AcDbBlockEnd
  0
BLOCK
  5
33F
330
33E
100
AcDbEntity
  8
0
100
AcDbBlockBegin
  2
_D_12
 70
     0
 10
0.0
 20
0.0
 30
0.0
  3
_D_12
  1

  0
SOLID
  5
341
330
33E
100
AcDbEntity
  8
DIM
 62
     7
100
AcDbTrace
 10
130.3749169167
 20
212.819256537
 30
0.0
 11
127.9333314917
 21
214.6023116714
 31
0.0
 12
127.5695513179
 22
213.9464427935
 32
0.0
 13
127.5695513179
 23
213.9464427935
 33
0.0
  0
LINE
  5
342
330
33E
100
AcDbEntity
  8
DIM
 62
     7
100
AcDbLine
 10
130.3749169167
 20
212.819256537
 30
0.0
 11
97.86348873
 21
230.8518441397
 31
0.0
  0
LINE
  5
343
330
33E
100
AcDbEntity
  8
DIM
 62
     7
100
AcDbLine
 10
97.86348873
 20
230.8518441397
 30
0.0
 11
80.4949989281
 21
230.8518441397
 31
0.0
  0
MTEXT
  5
344
330
33E
100
AcDbEntity
  8
DIM
 62
     7
100
AcDbMText
 10
80.4949989281
 20
235.6858478146
 30
0.0
 40
3.75
 41
0.0
 71
     1
 72
     1
  1
%%c
  7
SLDTEXTSTYLE0
 73
     1
 44
1.0
  0
MTEXT
  5
345
330
33E
100
AcDbEntity
  8
DIM
 62
     7
100
AcDbMText
 10
85.9624469624
 20
235.696264512
 30
0.0
 40
3.75
 41
0.0
 71
     1
 72
     1
  1
38.1
  7
SLDTEXTSTYLE0
 73
     1
 44
1.0
  0
ENDBLK
  5
340
330
33E
100
AcDbEntity
  8
0
100
AcDbBlockEnd
  0
BLOCK
  5
348
330
347
100
AcDbEntity
  8
0
100
AcDbBlockBegin
  2
_D_13
 70
     0
 10
0.0
 20
0.0
 30
0.0
  3
_D_13
  1

  0
SOLID
  5
34A
330
347
100
AcDbEntity
  8
DIM
 62
     7
100
AcDbTrace
 10
128.0339864175
 20
164.5903453504
 30
0.0
 11
131.0339864175
 21
164.2153453504
 31
0.0
 12
131.0339864175
 22
164.9653453504
 32
0.0
 13
131.0339864175
 23
164.9653453504
 33
0.0
  0
SOLID
  5
34B
330
347
100
AcDbEntity
  8
DIM
 62
     7
100
AcDbTrace
 10
166.0339864175
 20
164.5903453504
 30
0.0
 11
163.0339864175
 21
164.9653453504
 31
0.0
 12
163.0339864175
 22
164.2153453504
 32
0.0
 13
163.0339864175
 23
164.2153453504
 33
0.0
  0
LINE
  5
34C
330
347
100
AcDbEntity
  8
DIM
 62
     7
100
AcDbLine
 10
128.0339864175
 20
173.5792401211
 30
0.0
 11
128.0339864175
 21
163.0903453504
 31
0.0
  0
LINE
  5
34D
330
347
100
AcDbEntity
  8
DIM
 62
     7
100
AcDbLine
 10
166.0339864175
 20
173.5792401211
 30
0.0
 11
166.0339864175
 21
163.0903453504
 31
0.0
  0
LINE
  5
34E
330
347
100
AcDbEntity
  8
DIM
 62
     7
100
AcDbLine
 10
128.0339864175
 20
164.5903453504
 30
0.0
 11
166.0339864175
 21
164.5903453504
 31
0.0
  0
MTEXT
  5
34F
330
347
100
AcDbEntity
  8
DIM
 62
     7
100
AcDbMText
 10
144.1694030803
 20
169.4243491126
 30
0.0
 40
3.75
 41
0.0
 71
     1
 72
     1
  1
38
  7
SLDTEXTSTYLE0
 73
     1
 44
1.0
  0
ENDBLK
  5
349
330
347
100
AcDbEntity
  8
0
100
AcDbBlockEnd
  0
BLOCK
  5
351
330
350
100
AcDbEntity
  8
0
100
AcDbBlockBegin
  2
SW_CENTERMARKSYMBOL_9
 70
     0
 10
0.0
 20
0.0
 30
0.0
  3
SW_CENTERMARKSYMBOL_9
  1

  0
LINE
  5
353
330
350
100
AcDbEntity
  8
DIM
 62
     0
100
AcDbLine
 10
0.0
 20
0.0
 30
0.0
 11
0.0
 21
1.0
 31
0.0
  0
LINE
  5
354
330
350
100
AcDbEntity
  8
DIM
 62
     0
100
AcDbLine
 10
0.0
 20
0.0
 30
0.0
 11
-1.0
 21
0.0
 31
0.0
  0
LINE
  5
355
330
350
100
AcDbEntity
  8
DIM
 62
     0
100
AcDbLine
 10
0.0
 20
0.0
 30
0.0
 11
0.0
 21
-1.0
 31
0.0
  0
LINE
  5
356
330
350
100
AcDbEntity
  8
DIM
 62
     0
100
AcDbLine
 10
0.0
 20
0.0
 30
0.0
 11
1.0
 21
0.0
 31
0.0
  0
LINE
  5
357
330
350
100
AcDbEntity
  8
DIM
 62
     0
100
AcDbLine
 10
0.0
 20
2.0
 30
0.0
 11
0.0
 21
26.0
 31
0.0
  0
LINE
  5
358
330
350
100
AcDbEntity
  8
DIM
 62
     0
100
AcDbLine
 10
-2.0
 20
0.0
 30
0.0
 11
-26.0
 21
0.0
 31
0.0
  0
LINE
  5
359
330
350
100
AcDbEntity
  8
DIM
 62
     0
100
AcDbLine
 10
0.0
 20
-2.0
 30
0.0
 11
0.0
 21
-26.0
 31
0.0
  0
LINE
  5
35A
330
350
100
AcDbEntity
  8
DIM
 62
     0
100
AcDbLine
 10
2.0
 20
0.0
 30
0.0
 11
26.0
 21
0.0
 31
0.0
  0
ENDBLK
  5
352
330
350
100
AcDbEntity
  8
0
100
AcDbBlockEnd
  0
ENDSEC
  0
SECTION
  2
ENTITIES
  0
HATCH
  5
7A
330
1F
100
AcDbEntity
  8
DIM
 62
     7
100
AcDbHatch
 10
0.0
 20
0.0
 30
0.0
210
0.0
220
0.0
230
1.0
  2
SOLID
 70
     1
 71
     0
 91
        1
 92
        0
 93
       10
 72
     2
 10
288.3225605267567
 20
53.13021510614322
 40
4.568627093596871
 50
249.211220914341
 51
308.9221353953368
 73
     1
 72
     1
 10
291.1928629686086
 20
49.57582100691241
 11
292.6400924604342
 21
48.30489083144889
 72
     1
 10
292.6400924604342
 20
48.30489083144889
 11
287.8248825007006
 21
43.62933126230528
 72
     1
 10
287.8248825007006
 20
43.62933126230528
 11
286.4136818174596
 21
44.84432686747028
 72
     1
 10
286.4136818174596
 20
44.84432686747028
 11
287.3602596980823
 21
45.76817745317682
 72
     1
 10
287.3602596980823
 20
45.76817745317682
 11
281.3464562327889
 21
50.99508321358884
 72
     2
 10
282.8688683770999
 20
52.71642377722961
 40
2.297988701708712
 50
131.4906380929584
 51
229.7089352075136
 73
     0
 72
     1
 10
281.3828261058267
 20
54.46925874982968
 11
283.3427684881492
 21
56.36163936459095
 72
     1
 10
283.3427684881492
 20
56.36163936459095
 11
284.8655592592529
 21
55.01834151336427
 72
     2
 10
287.8254647143119
 20
52.54725248227209
 40
3.855816554566925
 50
140.1430462780654
 51
253.0452525074006
 73
     1
 97
        0
 75
     0
 76
     1
 98
        1
 10
0.0
 20
0.0
  0
HATCH
  5
7B
330
1F
100
AcDbEntity
  8
DIM
 62
     1
100
AcDbHatch
 10
0.0
 20
0.0
 30
0.0
210
0.0
220
0.0
230
1.0
  2
SOLID
 70
     1
 71
     0
 91
        1
 92
        0
 93
       10
 72
     2
 10
288.5223086852026
 20
51.99891564809016
 40
4.772455056791806
 50
234.1674444878509
 51
314.4407074583988
 73
     0
 72
     2
 10
288.9987931212893
 20
52.81014835630742
 40
3.866351232519375
 50
317.8184992995779
 51
398.0564711573086
 73
     0
 72
     1
 10
292.0431718858604
 20
50.42678313229496
 11
293.5213452253347
 21
49.13873772246072
 72
     1
 10
293.5213452253347
 20
49.13873772246072
 11
295.3838671975253
 21
50.94538713607155
 72
     2
 10
294.0437787090322
 20
52.78730723380295
 40
2.277829406127398
 50
306.0377529468133
 51
403.4396461533867
 73
     1
 72
     1
 10
295.6977085060406
 20
54.35352019186015
 11
289.5075747185256
 21
59.73728459481109
 72
     1
 10
289.5075747185256
 20
59.73728459481109
 11
290.4439516714165
 21
60.65087224106706
 72
     1
 10
290.4439516714165
 20
60.65087224106706
 11
289.0481919061405
 21
61.89616057083387
 72
     1
 10
289.0481919061405
 20
61.89616057083387
 11
284.1948137335257
 21
57.20578020091271
 72
     1
 10
284.1948137335257
 20
57.20578020091271
 11
285.7284255495485
 21
55.86809441023151
 97
        0
 75
     0
 76
     1
 98
        1
 10
0.0
 20
0.0
  0
LINE
  5
7C
330
1F
100
AcDbEntity
  8
0
  6
Continuous
 62
     7
370
     0
100
AcDbLine
 10
251.7890662777
 20
26.6617788769
 30
0.0
 11
253.2890662777
 21
26.6617788769
 31
0.0
  0
LINE
  5
7D
330
1F
100
AcDbEntity
  8
0
  6
Continuous
 62
     7
370
     0
100
AcDbLine
 10
247.2890662777
 20
26.6617788769
 30
0.0
 11
251.0390662777
 21
26.6617788769
 31
0.0
  0
LINE
  5
7E
330
1F
100
AcDbEntity
  8
0
  6
Continuous
 62
     7
370
     0
100
AcDbLine
 10
272.0390662777
 20
22.9117788769
 30
0.0
 11
272.0390662777
 21
30.4117788769
 31
0.0
  0
LINE
  5
7F
330
1F
100
AcDbEntity
  8
0
  6
Continuous
 62
     7
370
     0
100
AcDbLine
 10
261.5390662777
 20
24.4117788769
 30
0.0
 11
272.0390662777
 21
22.9117788769
 31
0.0
  0
LINE
  5
80
330
1F
100
AcDbEntity
  8
0
  6
Continuous
 62
     7
370
     0
100
AcDbLine
 10
252.5390662777
 20
25.1617788769
 30
0.0
 11
252.5390662777
 21
21.4117788769
 31
0.0
  0
LINE
  5
81
330
1F
100
AcDbEntity
  8
0
  6
Continuous
 62
     7
370
     0
100
AcDbLine
 10
272.0390662777
 20
30.4117788769
 30
0.0
 11
261.5390662777
 21
28.9117788769
 31
0.0
  0
LINE
  5
82
330
1F
100
AcDbEntity
  8
0
  6
Continuous
 62
     7
370
     0
100
AcDbLine
 10
260.0390662777
 20
26.6617788769
 30
0.0
 11
273.5390662777
 21
26.6617788769
 31
0.0
  0
LINE
  5
83
330
1F
100
AcDbEntity
  8
0
  6
Continuous
 62
     7
370
     0
100
AcDbLine
 10
252.5390662777
 20
27.4117788769
 30
0.0
 11
252.5390662777
 21
25.9117788769
 31
0.0
  0
LINE
  5
84
330
1F
100
AcDbEntity
  8
0
  6
Continuous
 62
     7
370
     0
100
AcDbLine
 10
254.0390662777
 20
26.6617788769
 30
0.0
 11
257.7890662777
 21
26.6617788769
 31
0.0
  0
LINE
  5
85
330
1F
100
AcDbEntity
  8
0
  6
Continuous
 62
     7
370
     0
100
AcDbLine
 10
252.5390662777
 20
31.9117788769
 30
0.0
 11
252.5390662777
 21
28.1617788769
 31
0.0
  0
LINE
  5
86
330
1F
100
AcDbEntity
  8
0
  6
Continuous
 62
     7
370
     0
100
AcDbLine
 10
261.5390662777
 20
28.9117788769
 30
0.0
 11
261.5390662777
 21
24.4117788769
 31
0.0
  0
LINE
  5
87
330
1F
100
AcDbEntity
  8
0
370
     0
100
AcDbLine
 10
292.6400924604
 20
48.3048908314
 30
0.0
 11
287.8248825007
 21
43.6293312623
 31
0.0
  0
LINE
  5
88
330
1F
100
AcDbEntity
  8
0
370
     0
100
AcDbLine
 10
287.8248825007
 20
43.6293312623
 30
0.0
 11
286.4136818175
 21
44.8443268675
 31
0.0
  0
LINE
  5
89
330
1F
100
AcDbEntity
  8
0
370
     0
100
AcDbLine
 10
286.4136818175
 20
44.8443268675
 30
0.0
 11
287.3602596981
 21
45.7681774532
 31
0.0
  0
LINE
  5
8A
330
1F
100
AcDbEntity
  8
0
370
     0
100
AcDbLine
 10
281.3464562328
 20
50.9950832136
 30
0.0
 11
287.3602596981
 21
45.7681774532
 31
0.0
  0
LINE
  5
8B
330
1F
100
AcDbEntity
  8
0
370
     0
100
AcDbLine
 10
283.3427684881
 20
56.3616393646
 30
0.0
 11
281.3828261058
 21
54.4692587498
 31
0.0
  0
LINE
  5
8C
330
1F
100
AcDbEntity
  8
0
370
     0
100
AcDbLine
 10
283.3427684881
 20
56.3616393646
 30
0.0
 11
284.8655592593
 21
55.0183415134
 31
0.0
  0
LINE
  5
8D
330
1F
100
AcDbEntity
  8
0
370
     0
100
AcDbLine
 10
291.1928629686
 20
49.5758210069
 30
0.0
 11
292.6400924604
 21
48.3048908314
 31
0.0
  0
LINE
  5
8E
330
1F
100
AcDbEntity
  8
0
 62
     1
370
     0
100
AcDbLine
 10
285.7284255495
 20
55.8680944102
 30
0.0
 11
284.1948137335
 21
57.2057802009
 31
0.0
  0
LINE
  5
8F
330
1F
100
AcDbEntity
  8
0
 62
     1
370
     0
100
AcDbLine
 10
284.1948137335
 20
57.2057802009
 30
0.0
 11
289.0481919061
 21
61.8961605708
 31
0.0
  0
LINE
  5
90
330
1F
100
AcDbEntity
  8
0
 62
     1
370
     0
100
AcDbLine
 10
289.0481919061
 20
61.8961605708
 30
0.0
 11
290.4439516714
 21
60.6508722411
 31
0.0
  0
LINE
  5
91
330
1F
100
AcDbEntity
  8
0
 62
     1
370
     0
100
AcDbLine
 10
290.4439516714
 20
60.6508722411
 30
0.0
 11
289.5075747185
 21
59.7372845948
 31
0.0
  0
LINE
  5
92
330
1F
100
AcDbEntity
  8
0
 62
     1
370
     0
100
AcDbLine
 10
289.5075747185
 20
59.7372845948
 30
0.0
 11
295.697708506
 21
54.3535201919
 31
0.0
  0
LINE
  5
93
330
1F
100
AcDbEntity
  8
0
 62
     1
370
     0
100
AcDbLine
 10
292.0431718859
 20
50.4267831323
 30
0.0
 11
293.5213452253
 21
49.1387377225
 31
0.0
  0
LINE
  5
94
330
1F
100
AcDbEntity
  8
0
 62
     1
370
     0
100
AcDbLine
 10
293.5213452253
 20
49.1387377225
 30
0.0
 11
295.3838671975
 21
50.9453871361
 31
0.0
  0
LINE
  5
95
330
1F
100
AcDbEntity
  8
0
  6
Continuous
 62
     7
370
     0
100
AcDbLine
 10
278.5361947814
 20
19.6728696119
 30
0.0
 11
428.5361947814
 21
19.6728696119
 31
0.0
  0
LINE
  5
96
330
1F
100
AcDbEntity
  8
0
  6
Continuous
 62
     7
370
     0
100
AcDbLine
 10
278.5361947814
 20
27.1728696119
 30
0.0
 11
353.5361947814
 21
27.1728696119
 31
0.0
  0
LINE
  5
97
330
1F
100
AcDbEntity
  8
0
  6
Continuous
 62
     7
370
     0
100
AcDbLine
 10
278.5361947814
 20
34.6728696119
 30
0.0
 11
353.5361947814
 21
34.6728696119
 31
0.0
  0
LINE
  5
98
330
1F
100
AcDbEntity
  8
0
  6
Continuous
 62
     7
370
     0
100
AcDbLine
 10
278.5361947814
 20
42.1728696119
 30
0.0
 11
428.5361947814
 21
42.1728696119
 31
0.0
  0
LINE
  5
99
330
1F
100
AcDbEntity
  8
0
  6
Continuous
 62
     7
370
     0
100
AcDbLine
 10
353.5361947814
 20
49.6728696119
 30
0.0
 11
428.5361947814
 21
49.6728696119
 31
0.0
  0
LINE
  5
9A
330
1F
100
AcDbEntity
  8
0
  6
Continuous
 62
     7
370
    15
100
AcDbLine
 10
353.5361947814
 20
27.1728696119
 30
0.0
 11
428.5361947814
 21
27.1728696119
 31
0.0
  0
LINE
  5
9B
330
1F
100
AcDbEntity
  8
0
  6
Continuous
 62
     7
370
     0
100
AcDbLine
 10
278.5801967253
 20
64.6728696119
 30
0.0
 11
428.5361947814
 21
64.6728696119
 31
0.0
  0
LINE
  5
9C
330
1F
100
AcDbEntity
  8
0
  6
Continuous
 62
     7
370
     0
100
AcDbLine
 10
376.8558265126
 20
12.1728696119
 30
0.0
 11
376.8558265126
 21
27.1728696119
 31
0.0
  0
LINE
  5
9D
330
1F
100
AcDbEntity
  8
0
  6
Continuous
 62
     7
370
     0
100
AcDbLine
 10
353.5361947814
 20
12.1728696119
 30
0.0
 11
353.5361947814
 21
64.6728696119
 31
0.0
  0
LINE
  5
9E
330
1F
100
AcDbEntity
  8
0
  6
Continuous
 62
     7
370
     0
100
AcDbLine
 10
376.8558265126
 20
42.1728696119
 30
0.0
 11
376.8558265126
 21
49.6728696119
 31
0.0
  0
LINE
  5
9F
330
1F
100
AcDbEntity
  8
0
  6
Continuous
 62
     7
370
     0
100
AcDbLine
 10
321.624612953
 20
12.1728696119
 30
0.0
 11
321.624612953
 21
42.1728696119
 31
0.0
  0
LINE
  5
A0
330
1F
100
AcDbEntity
  8
0
  6
Continuous
 62
     7
370
     0
100
AcDbLine
 10
299.6678831259
 20
12.1728696119
 30
0.0
 11
299.6678831259
 21
42.1728696119
 31
0.0
  0
LINE
  5
A1
330
1F
100
AcDbEntity
  8
0
  6
Continuous
 62
     7
370
     0
100
AcDbLine
 10
278.5801967253
 20
12.1728696119
 30
0.0
 11
278.5801967253
 21
64.6728696119
 31
0.0
  0
LINE
  5
A2
330
1F
100
AcDbEntity
  8
0
  6
Continuous
 62
     7
370
    15
100
AcDbLine
 10
13.0361947814
 20
157.1154554872
 30
0.0
 11
22.0361947814
 21
157.1154554872
 31
0.0
  0
LINE
  5
A3
330
1F
100
AcDbEntity
  8
0
  6
Continuous
 62
     7
370
    15
100
AcDbLine
 10
428.5361947814
 20
157.1154554872
 30
0.0
 11
419.5361947814
 21
157.1154554872
 31
0.0
  0
LINE
  5
A4
330
1F
100
AcDbEntity
  8
0
  6
Continuous
 62
     7
370
    15
100
AcDbLine
 10
220.7861947814
 20
12.1728696119
 30
0.0
 11
220.7861947814
 21
21.1728696119
 31
0.0
  0
LINE
  5
A5
330
1F
100
AcDbEntity
  8
0
  6
Continuous
 62
     7
370
    15
100
AcDbLine
 10
220.7861947814
 20
302.0580413626
 30
0.0
 11
220.7861947814
 21
293.0580413626
 31
0.0
  0
LINE
  5
A6
330
1F
100
AcDbEntity
  8
0
  6
Continuous
 62
     7
370
    15
100
AcDbLine
 10
64.9811947814
 20
302.0580413626
 30
0.0
 11
64.9811947814
 21
304.3080413626
 31
0.0
  0
LINE
  5
A7
330
1F
100
AcDbEntity
  8
0
  6
Continuous
 62
     7
370
    15
100
AcDbLine
 10
116.9261947814
 20
302.0580413626
 30
0.0
 11
116.9261947814
 21
304.3080413626
 31
0.0
  0
LINE
  5
A8
330
1F
100
AcDbEntity
  8
0
  6
Continuous
 62
     7
370
    15
100
AcDbLine
 10
168.8711947814
 20
302.0580413626
 30
0.0
 11
168.8711947814
 21
304.3080413626
 31
0.0
  0
LINE
  5
A9
330
1F
100
AcDbEntity
  8
0
  6
Continuous
 62
     7
370
    15
100
AcDbLine
 10
220.8161947814
 20
302.0580413626
 30
0.0
 11
220.8161947814
 21
304.3080413626
 31
0.0
  0
LINE
  5
AA
330
1F
100
AcDbEntity
  8
0
  6
Continuous
 62
     7
370
    15
100
AcDbLine
 10
272.7611947814
 20
302.0580413626
 30
0.0
 11
272.7611947814
 21
304.3080413626
 31
0.0
  0
LINE
  5
AB
330
1F
100
AcDbEntity
  8
0
  6
Continuous
 62
     7
370
    15
100
AcDbLine
 10
324.7061947814
 20
302.0580413626
 30
0.0
 11
324.7061947814
 21
304.3080413626
 31
0.0
  0
LINE
  5
AC
330
1F
100
AcDbEntity
  8
0
  6
Continuous
 62
     7
370
    15
100
AcDbLine
 10
376.6511947814
 20
302.0580413626
 30
0.0
 11
376.6511947814
 21
304.3080413626
 31
0.0
  0
LINE
  5
AD
330
1F
100
AcDbEntity
  8
0
  6
Continuous
 62
     7
370
    15
100
AcDbLine
 10
64.9736947814
 20
12.1728696119
 30
0.0
 11
64.9736947814
 21
9.9228696119
 31
0.0
  0
LINE
  5
AE
330
1F
100
AcDbEntity
  8
0
  6
Continuous
 62
     7
370
    15
100
AcDbLine
 10
116.9111947814
 20
12.1728696119
 30
0.0
 11
116.9111947814
 21
9.9228696119
 31
0.0
  0
LINE
  5
AF
330
1F
100
AcDbEntity
  8
0
  6
Continuous
 62
     7
370
    15
100
AcDbLine
 10
168.8486947814
 20
12.1728696119
 30
0.0
 11
168.8486947814
 21
9.9228696119
 31
0.0
  0
LINE
  5
B0
330
1F
100
AcDbEntity
  8
0
  6
Continuous
 62
     7
370
    15
100
AcDbLine
 10
220.7861947814
 20
12.1728696119
 30
0.0
 11
220.7861947814
 21
9.9228696119
 31
0.0
  0
LINE
  5
B1
330
1F
100
AcDbEntity
  8
0
  6
Continuous
 62
     7
370
    15
100
AcDbLine
 10
272.7236947814
 20
12.1728696119
 30
0.0
 11
272.7236947814
 21
9.9228696119
 31
0.0
  0
LINE
  5
B2
330
1F
100
AcDbEntity
  8
0
  6
Continuous
 62
     7
370
    15
100
AcDbLine
 10
324.6611947814
 20
12.1728696119
 30
0.0
 11
324.6611947814
 21
9.9228696119
 31
0.0
  0
LINE
  5
B3
330
1F
100
AcDbEntity
  8
0
  6
Continuous
 62
     7
370
     0
100
AcDbLine
 10
428.5361947814
 20
302.0580413626
 30
0.0
 11
13.0361947814
 21
302.0580413626
 31
0.0
  0
LINE
  5
B4
330
1F
100
AcDbEntity
  8
0
  6
Continuous
 62
     7
370
     0
100
AcDbLine
 10
428.5361947814
 20
12.1728696119
 30
0.0
 11
428.5361947814
 21
302.0580413626
 31
0.0
  0
LINE
  5
B5
330
1F
100
AcDbEntity
  8
0
  6
Continuous
 62
     7
370
     0
100
AcDbLine
 10
13.0361947814
 20
302.0580413626
 30
0.0
 11
13.0361947814
 21
12.1728696119
 31
0.0
  0
LINE
  5
B6
330
1F
100
AcDbEntity
  8
0
  6
Continuous
 62
     7
370
     0
100
AcDbLine
 10
13.0361947814
 20
12.1728696119
 30
0.0
 11
428.5361947814
 21
12.1728696119
 31
0.0
  0
LINE
  5
B7
330
1F
100
AcDbEntity
  8
0
  6
Continuous
 62
     7
370
    15
100
AcDbLine
 10
376.5986947814
 20
12.1728696119
 30
0.0
 11
376.5986947814
 21
9.9228696119
 31
0.0
  0
LINE
  5
B8
330
1F
100
AcDbEntity
  8
0
  6
Continuous
 62
     7
370
    15
100
AcDbLine
 10
13.0361947814
 20
60.4878696119
 30
0.0
 11
10.7861947814
 21
60.4878696119
 31
0.0
  0
LINE
  5
B9
330
1F
100
AcDbEntity
  8
0
  6
Continuous
 62
     7
370
    15
100
AcDbLine
 10
13.0361947814
 20
108.8028696119
 30
0.0
 11
10.7861947814
 21
108.8028696119
 31
0.0
  0
LINE
  5
BA
330
1F
100
AcDbEntity
  8
0
  6
Continuous
 62
     7
370
    15
100
AcDbLine
 10
13.0361947814
 20
157.1178696119
 30
0.0
 11
10.7861947814
 21
157.1178696119
 31
0.0
  0
LINE
  5
BB
330
1F
100
AcDbEntity
  8
0
  6
Continuous
 62
     7
370
    15
100
AcDbLine
 10
13.0361947814
 20
205.4328696119
 30
0.0
 11
10.7861947814
 21
205.4328696119
 31
0.0
  0
LINE
  5
BC
330
1F
100
AcDbEntity
  8
0
  6
Continuous
 62
     7
370
    15
100
AcDbLine
 10
13.0361947814
 20
253.7478696119
 30
0.0
 11
10.7861947814
 21
253.7478696119
 31
0.0
  0
LINE
  5
BD
330
1F
100
AcDbEntity
  8
0
  6
Continuous
 62
     7
370
    15
100
AcDbLine
 10
428.5361947814
 20
60.4878696119
 30
0.0
 11
430.7861947814
 21
60.4878696119
 31
0.0
  0
LINE
  5
BE
330
1F
100
AcDbEntity
  8
0
  6
Continuous
 62
     7
370
    15
100
AcDbLine
 10
428.5361947814
 20
108.8028696119
 30
0.0
 11
430.7861947814
 21
108.8028696119
 31
0.0
  0
LINE
  5
BF
330
1F
100
AcDbEntity
  8
0
  6
Continuous
 62
     7
370
    15
100
AcDbLine
 10
428.5361947814
 20
157.1178696119
 30
0.0
 11
430.7861947814
 21
157.1178696119
 31
0.0
  0
LINE
  5
C0
330
1F
100
AcDbEntity
  8
0
  6
Continuous
 62
     7
370
    15
100
AcDbLine
 10
428.5361947814
 20
205.4328696119
 30
0.0
 11
430.7861947814
 21
205.4328696119
 31
0.0
  0
LINE
  5
C1
330
1F
100
AcDbEntity
  8
0
  6
Continuous
 62
     7
370
    15
100
AcDbLine
 10
428.5361947814
 20
253.7478696119
 30
0.0
 11
430.7861947814
 21
253.7478696119
 31
0.0
  0
CIRCLE
  5
C2
330
1F
100
AcDbEntity
  8
0
  6
Continuous
 62
     7
370
     0
100
AcDbCircle
 10
252.5390662777
 20
26.6617788769
 30
0.0
 40
2.249999999999943
  0
CIRCLE
  5
C3
330
1F
100
AcDbEntity
  8
0
  6
Continuous
 62
     7
370
     0
100
AcDbCircle
 10
252.5390662777
 20
26.6617788769
 30
0.0
 40
3.749999999999943
  0
ARC
  5
C4
330
1F
100
AcDbEntity
  8
0
370
     0
100
AcDbCircle
 10
282.8688683771
 20
52.7164237772
 30
0.0
 40
2.297988701708751
100
AcDbArc
 50
130.2910647925
 51
228.509361907
  0
ARC
  5
C5
330
1F
100
AcDbEntity
  8
0
370
     0
100
AcDbCircle
 10
287.8254647143
 20
52.5472524823
 30
0.0
 40
3.855816554566914
100
AcDbArc
 50
140.1430462781
 51
253.0452525074
  0
ARC
  5
C6
330
1F
100
AcDbEntity
  8
0
370
     0
100
AcDbCircle
 10
288.3225605268
 20
53.1302151061
 30
0.0
 40
4.568627093596874
100
AcDbArc
 50
249.2112209143
 51
308.9221353953
  0
ARC
  5
C7
330
1F
100
AcDbEntity
  8
0
 62
     1
370
     0
100
AcDbCircle
 10
294.043778709
 20
52.7873072338
 30
0.0
 40
2.277829406127405
100
AcDbArc
 50
306.0377529468
 51
43.4396461534
  0
ARC
  5
C8
330
1F
100
AcDbEntity
  8
0
 62
     1
370
     0
100
AcDbCircle
 10
288.5223086852
 20
51.9989156481
 30
0.0
 40
4.772455056791805
100
AcDbArc
 50
45.5592925416
 51
125.8325555121
  0
ARC
  5
C9
330
1F
100
AcDbEntity
  8
0
 62
     1
370
     0
100
AcDbCircle
 10
288.9987931213
 20
52.8101483563
 30
0.0
 40
3.866351232519347
100
AcDbArc
 50
321.9435288427
 51
42.1815007004
  0
MTEXT
  5
CB
330
1F
100
AcDbEntity
  8
0
  6
Continuous
 62
     7
370
     0
100
AcDbMText
 10
248.3140276206
 20
19.8312660554
 30
0.0
 40
3.96875
 41
0.0
 71
     1
 72
     1
  1
UNIT:m/m
  7
SLDTEXTSTYLE0
 73
     1
 44
1.0
  0
INSERT
  5
D2
330
1F
100
AcDbEntity
  8
0
  6
Continuous
 62
     7
370
     0
100
AcDbBlockReference
  2
SW_NOTE_0
 10
18.347261408
 20
290.8356456377
 30
0.0
  0
MTEXT
  5
D4
330
1F
100
AcDbEntity
  8
0
  6
Continuous
 62
     7
370
     0
100
AcDbMText
 10
298.0877840902
 20
60.6610161208
 30
0.0
 40
3.571875
 41
0.0
 71
     1
 72
     1
  1
Unice E-O Services Inc.
  7
SLDTEXTSTYLE1
 73
     1
 44
1.0
  0
MTEXT
  5
D5
330
1F
100
AcDbEntity
  8
0
  6
Continuous
 62
     7
370
     0
100
AcDbMText
 10
326.3385807224
 20
32.3800722766
 30
0.0
 40
2.778125
 41
0.0
 71
     1
 72
     1
  1
2010/12/30
  7
SLDTEXTSTYLE0
 73
     1
 44
1.0
  0
MTEXT
  5
D6
330
1F
100
AcDbEntity
  8
0
  6
Continuous
 62
     7
370
     0
100
AcDbMText
 10
378.913347376
 20
25.30676661
 30
0.0
 40
3.75
 41
0.0
 71
     1
 72
     1
  1
1:1.5
  7
SLDTEXTSTYLE0
 73
     1
 44
1.0
  0
MTEXT
  5
D7
330
1F
100
AcDbEntity
  8
0
  6
Continuous
 62
     7
370
     0
100
AcDbMText
 10
378.4613399977
 20
48.2278793156
 30
0.0
 40
3.75
 41
0.0
 71
     1
 72
     1
  1
07RCP-2M
  7
SLDTEXTSTYLE0
 73
     1
 44
1.0
  0
MTEXT
  5
D8
330
1F
100
AcDbEntity
  8
0
  6
Continuous
 62
     7
370
     0
100
AcDbMText
 10
378.4613399977
 20
57.1623176818
 30
0.0
 40
3.75
 41
0.0
 71
     1
 72
     1
  1
07RCP-2M
  7
SLDTEXTSTYLE0
 73
     1
 44
1.0
  0
MTEXT
  5
D9
330
1F
100
AcDbEntity
  8
0
  6
Continuous
 62
     7
370
     0
100
AcDbMText
 10
354.588280018
 20
24.7597193593
 30
0.0
 40
3.175
 41
0.0
 71
     1
 72
     1
  1
SCALE:
  7
SLDTEXTSTYLE0
 73
     1
 44
1.0
  0
MTEXT
  5
DA
330
1F
100
AcDbEntity
  8
0
  6
Continuous
 62
     7
370
     0
100
AcDbMText
 10
279.5004130184
 20
32.3800722766
 30
0.0
 40
2.778125
 41
0.0
 71
     1
 72
     1
  1
DRAWN
  7
SLDTEXTSTYLE0
 73
     1
 44
1.0
  0
MTEXT
  5
DB
330
1F
100
AcDbEntity
  8
0
  6
Continuous
 62
     7
370
     0
100
AcDbMText
 10
304.8342551905
 20
40.024812462
 30
0.0
 40
2.778125
 41
0.0
 71
     1
 72
     1
  1
NAME
  7
SLDTEXTSTYLE0
 73
     1
 44
1.0
  0
MTEXT
  5
DC
330
1F
100
AcDbEntity
  8
0
  6
Continuous
 62
     7
370
     0
100
AcDbMText
 10
331.3065233636
 20
40.024812462
 30
0.0
 40
2.778125
 41
0.0
 71
     1
 72
     1
  1
DATE
  7
SLDTEXTSTYLE0
 73
     1
 44
1.0
  0
MTEXT
  5
DD
330
1F
100
AcDbEntity
  8
0
  6
Continuous
 62
     7
370
     0
100
AcDbMText
 10
354.4134474968
 20
47.6808320649
 30
0.0
 40
3.175
 41
0.0
 71
     1
 72
     1
  1
DWG. NO.
  7
SLDTEXTSTYLE0
 73
     1
 44
1.0
  0
MTEXT
  5
DE
330
1F
100
AcDbEntity
  8
0
  6
Continuous
 62
     7
370
     0
100
AcDbMText
 10
354.5444860632
 20
62.8260987365
 30
0.0
 40
3.175
 41
0.0
 71
     1
 72
     1
  1
TITLE:
  7
SLDTEXTSTYLE0
 73
     1
 44
1.0
  0
MTEXT
  5
DF
330
1F
100
AcDbEntity
  8
0
  6
Continuous
 62
     7
370
     0
100
AcDbMText
 10
304.5471314703
 20
24.3605684586
 30
0.0
 40
2.778125
 41
0.0
 71
     1
 72
     1
  1
Johnny
  7
SLDTEXTSTYLE0
 73
     1
 44
1.0
  0
MTEXT
  5
E0
330
1F
100
AcDbEntity
  8
0
  6
Continuous
 62
     7
370
     0
100
AcDbMText
 10
326.3385807224
 20
24.3605684586
 30
0.0
 40
2.778125
 41
0.0
 71
     1
 72
     1
  1
2010/12/30
  7
SLDTEXTSTYLE0
 73
     1
 44
1.0
  0
MTEXT
  5
E1
330
1F
100
AcDbEntity
  8
0
  6
Continuous
 62
     7
370
     0
100
AcDbMText
 10
279.5004130184
 20
24.3605684586
 30
0.0
 40
2.778125
 41
0.0
 71
     1
 72
     1
  1
ENG APPR.
  7
SLDTEXTSTYLE0
 73
     1
 44
1.0
  0
MTEXT
  5
E2
330
1F
100
AcDbEntity
  8
0
  6
Continuous
 62
     7
370
     0
100
AcDbMText
 10
354.588280018
 20
17.5280083932
 30
0.0
 40
3.175
 41
0.0
 71
     1
 72
     1
  1
REV
  7
SLDTEXTSTYLE0
 73
     1
 44
1.0
  0
MTEXT
  5
E3
330
1F
100
AcDbEntity
  8
0
  6
Continuous
 62
     7
370
     0
100
AcDbMText
 10
354.5444860632
 20
40.4239633627
 30
0.0
 40
3.175
 41
0.0
 71
     1
 72
     1
  1
MATERIAL:
  7
SLDTEXTSTYLE0
 73
     1
 44
1.0
  0
MTEXT
  5
E4
330
1F
100
AcDbEntity
  8
0
  6
Continuous
 62
     7
370
     0
100
AcDbMText
 10
378.913347376
 20
33.326270428
 30
0.0
 40
3.75
 41
0.0
 71
     1
 72
     1
  1
N/A
  7
SLDTEXTSTYLE0
 73
     1
 44
1.0
  0
MTEXT
  5
E5
330
1F
100
AcDbEntity
  8
0
  6
Continuous
 62
     7
370
     0
100
AcDbMText
 10
39.90448973
 20
306.6800274854
 30
0.0
 40
3.175
 41
0.0
 71
     1
 72
     1
  1
1
  7
SLDTEXTSTYLE0
 73
     1
 44
1.0
  0
MTEXT
  5
E6
330
1F
100
AcDbEntity
  8
0
  6
Continuous
 62
     7
370
     0
100
AcDbMText
 10
91.0756493586
 20
306.6800274854
 30
0.0
 40
3.175
 41
0.0
 71
     1
 72
     1
  1
2
  7
SLDTEXTSTYLE0
 73
     1
 44
1.0
  0
MTEXT
  5
E7
330
1F
100
AcDbEntity
  8
0
  6
Continuous
 62
     7
370
     0
100
AcDbMText
 10
142.3514915859
 20
306.6800274854
 30
0.0
 40
3.175
 41
0.0
 71
     1
 72
     1
  1
3
  7
SLDTEXTSTYLE0
 73
     1
 44
1.0
  0
MTEXT
  5
E8
330
1F
100
AcDbEntity
  8
0
  6
Continuous
 62
     7
370
     0
100
AcDbMText
 10
193.8800044277
 20
306.4488876546
 30
0.0
 40
3.175
 41
0.0
 71
     1
 72
     1
  1
4
  7
SLDTEXTSTYLE0
 73
     1
 44
1.0
  0
MTEXT
  5
E9
330
1F
100
AcDbEntity
  8
0
  6
Continuous
 62
     7
370
     0
100
AcDbMText
 10
245.5534851959
 20
306.6800274854
 30
0.0
 40
3.175
 41
0.0
 71
     1
 72
     1
  1
5
  7
SLDTEXTSTYLE0
 73
     1
 44
1.0
  0
MTEXT
  5
EA
330
1F
100
AcDbEntity
  8
0
  6
Continuous
 62
     7
370
     0
100
AcDbMText
 10
297.9573255623
 20
306.6800274854
 30
0.0
 40
3.175
 41
0.0
 71
     1
 72
     1
  1
6
  7
SLDTEXTSTYLE0
 73
     1
 44
1.0
  0
MTEXT
  5
EB
330
1F
100
AcDbEntity
  8
0
  6
Continuous
 62
     7
370
     0
100
AcDbMText
 10
351.544598611
 20
306.6800274854
 30
0.0
 40
3.175
 41
0.0
 71
     1
 72
     1
  1
7
  7
SLDTEXTSTYLE0
 73
     1
 44
1.0
  0
MTEXT
  5
EC
330
1F
100
AcDbEntity
  8
0
  6
Continuous
 62
     7
370
     0
100
AcDbMText
 10
399.4181730741
 20
306.6800274854
 30
0.0
 40
3.175
 41
0.0
 71
     1
 72
     1
  1
8
  7
SLDTEXTSTYLE0
 73
     1
 44
1.0
  0
MTEXT
  5
ED
330
1F
100
AcDbEntity
  8
0
  6
Continuous
 62
     7
370
     0
100
AcDbMText
 10
8.0352354832
 20
278.7169534319
 30
0.0
 40
3.175
 41
0.0
 71
     1
 72
     1
  1
A
  7
SLDTEXTSTYLE0
 73
     1
 44
1.0
  0
MTEXT
  5
EE
330
1F
100
AcDbEntity
  8
0
  6
Continuous
 62
     7
370
     0
100
AcDbMText
 10
8.3865647747
 20
231.4489572357
 30
0.0
 40
3.175
 41
0.0
 71
     1
 72
     1
  1
B
  7
SLDTEXTSTYLE0
 73
     1
 44
1.0
  0
MTEXT
  5
EF
330
1F
100
AcDbEntity
  8
0
  6
Continuous
 62
     7
370
     0
100
AcDbMText
 10
8.3865647747
 20
181.9115271345
 30
0.0
 40
3.175
 41
0.0
 71
     1
 72
     1
  1
C
  7
SLDTEXTSTYLE0
 73
     1
 44
1.0
  0
MTEXT
  5
F0
330
1F
100
AcDbEntity
  8
0
  6
Continuous
 62
     7
370
     0
100
AcDbMText
 10
8.3865647747
 20
133.1179830331
 30
0.0
 40
3.175
 41
0.0
 71
     1
 72
     1
  1
D
  7
SLDTEXTSTYLE0
 73
     1
 44
1.0
  0
MTEXT
  5
F1
330
1F
100
AcDbEntity
  8
0
  6
Continuous
 62
     7
370
     0
100
AcDbMText
 10
8.3865647747
 20
86.3338273796
 30
0.0
 40
3.175
 41
0.0
 71
     1
 72
     1
  1
E
  7
SLDTEXTSTYLE0
 73
     1
 44
1.0
  0
MTEXT
  5
F2
330
1F
100
AcDbEntity
  8
0
  6
Continuous
 62
     7
370
     0
100
AcDbMText
 10
8.3865647747
 20
38.3541318378
 30
0.0
 40
3.175
 41
0.0
 71
     1
 72
     1
  1
F
  7
SLDTEXTSTYLE0
 73
     1
 44
1.0
  0
MTEXT
  5
F3
330
1F
100
AcDbEntity
  8
0
  6
Continuous
 62
     7
370
     0
100
AcDbMText
 10
399.2787925446
 20
9.9354335945
 30
0.0
 40
3.175
 41
0.0
 71
     1
 72
     1
  1
8
  7
SLDTEXTSTYLE0
 73
     1
 44
1.0
  0
MTEXT
  5
F4
330
1F
100
AcDbEntity
  8
0
  6
Continuous
 62
     7
370
     0
100
AcDbMText
 10
351.4052180815
 20
9.9354335945
 30
0.0
 40
3.175
 41
0.0
 71
     1
 72
     1
  1
7
  7
SLDTEXTSTYLE0
 73
     1
 44
1.0
  0
MTEXT
  5
F5
330
1F
100
AcDbEntity
  8
0
  6
Continuous
 62
     7
370
     0
100
AcDbMText
 10
297.8179450327
 20
9.9354335945
 30
0.0
 40
3.175
 41
0.0
 71
     1
 72
     1
  1
6
  7
SLDTEXTSTYLE0
 73
     1
 44
1.0
  0
MTEXT
  5
F6
330
1F
100
AcDbEntity
  8
0
  6
Continuous
 62
     7
370
     0
100
AcDbMText
 10
245.4141046664
 20
9.9354335945
 30
0.0
 40
3.175
 41
0.0
 71
     1
 72
     1
  1
5
  7
SLDTEXTSTYLE0
 73
     1
 44
1.0
  0
MTEXT
  5
F7
330
1F
100
AcDbEntity
  8
0
  6
Continuous
 62
     7
370
     0
100
AcDbMText
 10
193.7406238981
 20
9.7042937637
 30
0.0
 40
3.175
 41
0.0
 71
     1
 72
     1
  1
4
  7
SLDTEXTSTYLE0
 73
     1
 44
1.0
  0
MTEXT
  5
F8
330
1F
100
AcDbEntity
  8
0
  6
Continuous
 62
     7
370
     0
100
AcDbMText
 10
142.2121110564
 20
9.9354335945
 30
0.0
 40
3.175
 41
0.0
 71
     1
 72
     1
  1
3
  7
SLDTEXTSTYLE0
 73
     1
 44
1.0
  0
MTEXT
  5
F9
330
1F
100
AcDbEntity
  8
0
  6
Continuous
 62
     7
370
     0
100
AcDbMText
 10
90.9362688291
 20
9.9354335945
 30
0.0
 40
3.175
 41
0.0
 71
     1
 72
     1
  1
2
  7
SLDTEXTSTYLE0
 73
     1
 44
1.0
  0
MTEXT
  5
FA
330
1F
100
AcDbEntity
  8
0
  6
Continuous
 62
     7
370
     0
100
AcDbMText
 10
39.7651092004
 20
9.9354335945
 30
0.0
 40
3.175
 41
0.0
 71
     1
 72
     1
  1
1
  7
SLDTEXTSTYLE0
 73
     1
 44
1.0
  0
MTEXT
  5
FB
330
1F
100
AcDbEntity
  8
0
  6
Continuous
 62
     7
370
     0
100
AcDbMText
 10
430.6535769217
 20
279.9637363637
 30
0.0
 40
3.175
 41
0.0
 71
     1
 72
     1
  1
A
  7
SLDTEXTSTYLE0
 73
     1
 44
1.0
  0
MTEXT
  5
FC
330
1F
100
AcDbEntity
  8
0
  6
Continuous
 62
     7
370
     0
100
AcDbMText
 10
431.0049062132
 20
232.6957401676
 30
0.0
 40
3.175
 41
0.0
 71
     1
 72
     1
  1
B
  7
SLDTEXTSTYLE0
 73
     1
 44
1.0
  0
MTEXT
  5
FD
330
1F
100
AcDbEntity
  8
0
  6
Continuous
 62
     7
370
     0
100
AcDbMText
 10
431.0049062132
 20
183.1583100664
 30
0.0
 40
3.175
 41
0.0
 71
     1
 72
     1
  1
C
  7
SLDTEXTSTYLE0
 73
     1
 44
1.0
  0
MTEXT
  5
FE
330
1F
100
AcDbEntity
  8
0
  6
Continuous
 62
     7
370
     0
100
AcDbMText
 10
431.0049062132
 20
134.364765965
 30
0.0
 40
3.175
 41
0.0
 71
     1
 72
     1
  1
D
  7
SLDTEXTSTYLE0
 73
     1
 44
1.0
  0
MTEXT
  5
FF
330
1F
100
AcDbEntity
  8
0
  6
Continuous
 62
     7
370
     0
100
AcDbMText
 10
431.0049062132
 20
87.5806103114
 30
0.0
 40
3.175
 41
0.0
 71
     1
 72
     1
  1
E
  7
SLDTEXTSTYLE0
 73
     1
 44
1.0
  0
MTEXT
  5
100
330
1F
100
AcDbEntity
  8
0
  6
Continuous
 62
     7
370
     0
100
AcDbMText
 10
431.0049062132
 20
39.6009147696
 30
0.0
 40
3.175
 41
0.0
 71
     1
 72
     1
  1
F
  7
SLDTEXTSTYLE0
 73
     1
 44
1.0
  0
MTEXT
  5
101
330
1F
100
AcDbEntity
  8
0
  6
Continuous
 62
     7
370
     0
100
AcDbMText
 10
304.7329693203
 20
32.3800722766
 30
0.0
 40
2.778125
 41
0.0
 71
     1
 72
     1
  1
Eric
  7
SLDTEXTSTYLE0
 73
     1
 44
1.0
  0
MTEXT
  5
102
330
1F
100
AcDbEntity
  8
0
  6
Continuous
 62
     7
370
     0
100
AcDbMText
 10
379.2723359468
 20
18.315372684
 30
0.0
 40
3.96875
 41
0.0
 71
     1
 72
     1
  1
0
  7
SLDTEXTSTYLE0
 73
     1
 44
1.0
  0
INSERT
  5
108
330
1F
100
AcDbEntity
  8
DIM
 62
     7
100
AcDbBlockReference
  2
SW_NOTE_1
 10
298.0877840902
 20
50.4927202993
 30
0.0
  0
LINE
  5
109
330
1F
100
AcDbEntity
  8
0
  6
Continuous
 62
     7
370
    15
100
AcDbLine
 10
184.5339864175
 20
70.6241287733
 30
0.0
 11
187.5339864175
 21
76.6241287733
 31
0.0
  0
LINE
  5
10A
330
1F
100
AcDbEntity
  8
0
  6
Continuous
 62
     7
370
    15
100
AcDbLine
 10
187.5339864175
 20
104.6241287733
 30
0.0
 11
184.5339864175
 21
110.6241287733
 31
0.0
  0
LINE
  5
10B
330
1F
100
AcDbEntity
  8
0
  6
Continuous
 62
     7
370
    15
100
AcDbLine
 10
172.5339864175
 20
76.8104202743
 30
0.0
 11
174.0339864175
 21
75.3104202743
 31
0.0
  0
LINE
  5
10C
330
1F
100
AcDbEntity
  8
0
  6
Continuous
 62
     7
370
    15
100
AcDbLine
 10
174.0339864175
 20
75.3104202743
 30
0.0
 11
185.0308993524
 21
75.3104202743
 31
0.0
  0
LINE
  5
10D
330
1F
100
AcDbEntity
  8
0
  6
Continuous
 62
     7
370
    15
100
AcDbLine
 10
185.0317238251
 20
105.9378372723
 30
0.0
 11
174.0339864175
 21
105.9378372723
 31
0.0
  0
LINE
  5
10E
330
1F
100
AcDbEntity
  8
0
  6
Continuous
 62
     7
370
    15
100
AcDbLine
 10
174.0339864175
 20
105.9378372723
 30
0.0
 11
172.5339864175
 21
104.4378372723
 31
0.0
  0
LINE
  5
10F
330
1F
100
AcDbEntity
  8
0
  6
Continuous
 62
     7
370
    15
100
AcDbLine
 10
172.0339864175
 20
83.1241287733
 30
0.0
 11
172.5339864175
 21
83.1241287733
 31
0.0
  0
LINE
  5
110
330
1F
100
AcDbEntity
  8
0
  6
Continuous
 62
     7
370
    15
100
AcDbLine
 10
172.5339864175
 20
98.1241287733
 30
0.0
 11
172.0339864175
 21
98.1241287733
 31
0.0
  0
LINE
  5
111
330
1F
100
AcDbEntity
  8
0
  6
Continuous
 62
     7
370
    15
100
AcDbLine
 10
174.0339864175
 20
70.6241287733
 30
0.0
 11
184.5400185206
 21
70.6241287733
 31
0.0
  0
LINE
  5
112
330
1F
100
AcDbEntity
  8
0
  6
Continuous
 62
     7
370
    15
100
AcDbLine
 10
172.5339864175
 20
72.1241287733
 30
0.0
 11
174.0339864175
 21
70.6241287733
 31
0.0
  0
LINE
  5
113
330
1F
100
AcDbEntity
  8
0
  6
Continuous
 62
     7
370
    15
100
AcDbLine
 10
174.0339864175
 20
110.6241287733
 30
0.0
 11
172.5339864175
 21
109.1241287733
 31
0.0
  0
LINE
  5
114
330
1F
100
AcDbEntity
  8
0
  6
Continuous
 62
     7
370
    15
100
AcDbLine
 10
184.5400185206
 20
110.6241287733
 30
0.0
 11
174.0339864175
 21
110.6241287733
 31
0.0
  0
LINE
  5
115
330
1F
100
AcDbEntity
  8
0
  6
Continuous
 62
     7
370
    15
100
AcDbLine
 10
109.5339864175
 20
110.6241287733
 30
0.0
 11
106.5339864175
 21
104.6241287733
 31
0.0
  0
LINE
  5
116
330
1F
100
AcDbEntity
  8
0
  6
Continuous
 62
     7
370
    15
100
AcDbLine
 10
106.5339864175
 20
76.6241287733
 30
0.0
 11
109.5339864175
 21
70.6241287733
 31
0.0
  0
LINE
  5
117
330
1F
100
AcDbEntity
  8
0
  6
Continuous
 62
     7
370
    15
100
AcDbLine
 10
120.0339864175
 20
105.9378372723
 30
0.0
 11
109.0370734827
 21
105.9378372723
 31
0.0
  0
LINE
  5
118
330
1F
100
AcDbEntity
  8
0
  6
Continuous
 62
     7
370
    15
100
AcDbLine
 10
121.5339864175
 20
104.4378372723
 30
0.0
 11
120.0339864175
 21
105.9378372723
 31
0.0
  0
LINE
  5
119
330
1F
100
AcDbEntity
  8
0
  6
Continuous
 62
     7
370
    15
100
AcDbLine
 10
109.03624901
 20
75.3104202743
 30
0.0
 11
120.0339864175
 21
75.3104202743
 31
0.0
  0
LINE
  5
11A
330
1F
100
AcDbEntity
  8
0
  6
Continuous
 62
     7
370
    15
100
AcDbLine
 10
120.0339864175
 20
75.3104202743
 30
0.0
 11
121.5339864175
 21
76.8104202743
 31
0.0
  0
LINE
  5
11B
330
1F
100
AcDbEntity
  8
0
  6
Continuous
 62
     7
370
    15
100
AcDbLine
 10
122.0339864175
 20
98.1241287733
 30
0.0
 11
121.5339864175
 21
98.1241287733
 31
0.0
  0
LINE
  5
11C
330
1F
100
AcDbEntity
  8
0
  6
Continuous
 62
     7
370
    15
100
AcDbLine
 10
121.5339864175
 20
83.1241287733
 30
0.0
 11
122.0339864175
 21
83.1241287733
 31
0.0
  0
LINE
  5
11D
330
1F
100
AcDbEntity
  8
0
  6
Continuous
 62
     7
370
    15
100
AcDbLine
 10
120.0339864175
 20
110.6241287733
 30
0.0
 11
109.5279543144
 21
110.6241287733
 31
0.0
  0
LINE
  5
11E
330
1F
100
AcDbEntity
  8
0
  6
Continuous
 62
     7
370
    15
100
AcDbLine
 10
121.5339864175
 20
109.1241287733
 30
0.0
 11
120.0339864175
 21
110.6241287733
 31
0.0
  0
LINE
  5
11F
330
1F
100
AcDbEntity
  8
0
  6
Continuous
 62
     7
370
    15
100
AcDbLine
 10
120.0339864175
 20
70.6241287733
 30
0.0
 11
121.5339864175
 21
72.1241287733
 31
0.0
  0
LINE
  5
120
330
1F
100
AcDbEntity
  8
0
  6
Continuous
 62
     7
370
    15
100
AcDbLine
 10
109.5279543144
 20
70.6241287733
 30
0.0
 11
120.0339864175
 21
70.6241287733
 31
0.0
  0
LINE
  5
121
330
1F
100
AcDbEntity
  8
0
  6
Continuous
 62
     7
370
    15
100
AcDbLine
 10
172.0339864175
 20
52.6241287733
 30
0.0
 11
172.0339864175
 21
128.6241287733
 31
0.0
  0
LINE
  5
122
330
1F
100
AcDbEntity
  8
0
  6
Continuous
 62
     7
370
    15
100
AcDbLine
 10
122.0339864175
 20
128.6241287733
 30
0.0
 11
122.0339864175
 21
52.6241287733
 31
0.0
  0
LINE
  5
123
330
1F
100
AcDbEntity
  8
0
  6
Continuous
 62
     7
370
    15
100
AcDbLine
 10
172.5339864175
 20
88.5646041896
 30
0.0
 11
172.5339864175
 21
92.6836533569
 31
0.0
  0
LINE
  5
124
330
1F
100
AcDbEntity
  8
0
  6
Continuous
 62
     7
370
    15
100
AcDbLine
 10
172.5339864175
 20
92.6836533569
 30
0.0
 11
174.0339864175
 21
93.9289149785
 31
0.0
  0
LINE
  5
125
330
1F
100
AcDbEntity
  8
0
  6
Continuous
 62
     7
370
    15
100
AcDbLine
 10
174.0339864175
 20
93.9289149785
 30
0.0
 11
174.0339864175
 21
87.319342568
 31
0.0
  0
LINE
  5
126
330
1F
100
AcDbEntity
  8
0
  6
Continuous
 62
     7
370
    15
100
AcDbLine
 10
172.5339864175
 20
88.5646041896
 30
0.0
 11
174.0339864175
 21
87.319342568
 31
0.0
  0
SPLINE
  5
127
330
1F
100
AcDbEntity
  8
0
  6
Continuous
 62
     7
370
    15
100
AcDbSpline
210
0.0
220
0.0
230
1.0
 70
     8
 71
     3
 72
    13
 73
     9
 74
     0
 42
0.000000001
 43
0.00000001
 40
0.0
 40
0.0
 40
0.0
 40
0.0
 40
0.1735274932632295
 40
0.3474759845328524
 40
0.5125418655588584
 40
0.6710295171733972
 40
0.8297608130563453
 40
1.0
 40
1.0
 40
1.0
 40
1.0
 10
185.2588463403451
 20
93.92891497849963
 30
0.0
 10
185.1152387164248
 20
93.64871590904949
 30
0.0
 10
184.8276750596823
 20
93.08763797441529
 30
0.0
 10
184.5819759146609
 20
91.85977929354642
 30
0.0
 10
184.5058310259735
 20
90.53862657928083
 30
0.0
 10
184.6019372741141
 20
89.27062507300836
 30
0.0
 10
184.8450082273022
 20
88.12307305221442
 30
0.0
 10
185.1177203402769
 20
87.59342865336947
 30
0.0
 10
185.2588463403471
 20
87.31934256803474
 30
0.0
  0
LINE
  5
128
330
1F
100
AcDbEntity
  8
0
  6
Continuous
 62
     7
370
    15
100
AcDbLine
 10
185.2588463403
 20
87.319342568
 30
0.0
 11
174.0339864175
 21
87.319342568
 31
0.0
  0
LINE
  5
129
330
1F
100
AcDbEntity
  8
0
  6
Continuous
 62
     7
370
    15
100
AcDbLine
 10
185.2588463403
 20
93.9289149785
 30
0.0
 11
174.0339864175
 21
93.9289149785
 31
0.0
  0
LINE
  5
12A
330
1F
100
AcDbEntity
  8
0
  6
Continuous
 62
     7
370
    15
100
AcDbLine
 10
187.5339864175
 20
90.6241287733
 30
0.0
 11
187.5339864175
 21
104.6241287733
 31
0.0
  0
LINE
  5
12B
330
1F
100
AcDbEntity
  8
0
  6
Continuous
 62
     7
370
    15
100
AcDbLine
 10
187.5339864175
 20
76.6241287733
 30
0.0
 11
187.5339864175
 21
90.6241287733
 31
0.0
  0
SPLINE
  5
12C
330
1F
100
AcDbEntity
  8
0
  6
Continuous
 62
     7
370
    15
100
AcDbSpline
210
0.0
220
0.0
230
1.0
 70
     8
 71
     3
 72
    16
 73
    12
 74
     0
 42
0.000000001
 43
0.00000001
 40
0.0
 40
0.0
 40
0.0
 40
0.0
 40
0.1261972859071827
 40
0.2523057075281382
 40
0.3792002878030841
 40
0.5060336522260208
 40
0.6221120449958409
 40
0.7382342111575549
 40
0.8536816913006918
 40
0.9691932593055956
 40
1.0
 40
1.0
 40
1.0
 40
1.0
 10
185.2588463403474
 20
75.38009865629027
 30
0.0
 10
185.3757769762331
 20
75.43479498360387
 30
0.0
 10
185.6095559090109
 20
75.5441491227428
 30
0.0
 10
185.8713964428028
 20
75.5210114354506
 30
0.0
 10
186.038289541606
 20
75.34163219033438
 30
0.0
 10
186.0928742631661
 20
75.00812371344857
 30
0.0
 10
186.0341170151127
 20
74.54071673931762
 30
0.0
 10
185.8853058324861
 20
73.97660312187773
 30
0.0
 10
185.6523052330987
 20
73.31664459501337
 30
0.0
 10
185.4285878256409
 20
72.7645773933341
 30
0.0
 10
185.2883688835473
 20
72.43912380628947
 30
0.0
 10
185.2588463403474
 20
72.37060084184795
 30
0.0
  0
SPLINE
  5
12D
330
1F
100
AcDbEntity
  8
0
  6
Continuous
 62
     7
370
    15
100
AcDbSpline
210
0.0
220
0.0
230
1.0
 70
     8
 71
     3
 72
    13
 73
     9
 74
     0
 42
0.000000001
 43
0.00000001
 40
0.0
 40
0.0
 40
0.0
 40
0.0
 40
0.1735322077433413
 40
0.3474803110675795
 40
0.5125459321891217
 40
0.6710335034925644
 40
0.8297648889640779
 40
1.0
 40
1.0
 40
1.0
 40
1.0
 10
185.2588463403463
 20
80.05377212847338
 30
0.0
 10
185.1152350462625
 20
79.61648242197714
 30
0.0
 10
184.8276682724054
 20
78.74085497957924
 30
0.0
 10
184.5819716998806
 20
77.44032910437622
 30
0.0
 10
184.5058313695706
 20
76.3718444209001
 30
0.0
 10
184.601941657651
 20
75.64480462916889
 30
0.0
 10
184.8450143350393
 20
75.25954754615667
 30
0.0
 10
185.1177235228138
 20
75.3389889496928
 30
0.0
 10
185.2588463403474
 20
75.38009865629027
 30
0.0
  0
SPLINE
  5
12E
330
1F
100
AcDbEntity
  8
0
  6
Continuous
 62
     7
370
    15
100
AcDbSpline
210
0.0
220
0.0
230
1.0
 70
     8
 71
     3
 72
    16
 73
    12
 74
     0
 42
0.000000001
 43
0.00000001
 40
0.0
 40
0.0
 40
0.0
 40
0.0
 40
0.126195411714844
 40
0.2523019645586853
 40
0.3791968622309674
 40
0.5060305420539921
 40
0.622109078835781
 40
0.7382313883705742
 40
0.8536787578253859
 40
0.9691902150884492
 40
1.0
 40
1.0
 40
1.0
 40
1.0
 10
185.2588463403471
 20
87.31934256803474
 30
0.0
 10
185.375775323481
 20
87.12037565707979
 30
0.0
 10
185.609550955714
 20
86.72258193515316
 30
0.0
 10
185.871390982496
 20
85.96037591927148
 30
0.0
 10
186.0382865687323
 20
85.08510802973547
 30
0.0
 10
186.0928743998835
 20
84.13897664703862
 30
0.0
 10
186.0341197153514
 20
83.1629208746925
 30
0.0
 10
185.8853107054519
 20
82.19445077581169
 30
0.0
 10
185.6523119747446
 20
81.23069996701025
 30
0.0
 10
185.4285933686352
 20
80.51995055854943
 30
0.0
 10
185.2883717685956
 20
80.13485818887354
 30
0.0
 10
185.2588463403463
 20
80.05377212847338
 30
0.0
  0
SPLINE
  5
12F
330
1F
100
AcDbEntity
  8
0
  6
Continuous
 62
     7
370
    15
100
AcDbSpline
210
0.0
220
0.0
230
1.0
 70
     8
 71
     3
 72
    16
 73
    12
 74
     0
 42
0.000000001
 43
0.00000001
 40
0.0
 40
0.0
 40
0.0
 40
0.0
 40
0.1261972859071086
 40
0.2523057075279898
 40
0.3792002878028564
 40
0.5060336522257131
 40
0.6221120449954723
 40
0.7382342111571242
 40
0.8536816913002154
 40
0.9691932593050735
 40
1.0
 40
1.0
 40
1.0
 40
1.0
 10
185.2588463403482
 20
101.1944854180588
 30
0.0
 10
185.3757769762338
 20
100.8584029168223
 30
0.0
 10
185.6095559090115
 20
100.1864745734136
 30
0.0
 10
185.8713964428032
 20
99.13167622751521
 30
0.0
 10
186.0382895416061
 20
98.0732314094186
 30
0.0
 10
186.092874263166
 20
97.06870801072014
 30
0.0
 10
186.0341170151124
 20
96.15576457930642
 30
0.0
 10
185.8853058324856
 20
95.35025502490782
 30
0.0
 10
185.6523052330982
 20
94.64726425660362
 30
0.0
 10
185.4285878256398
 20
94.1941917914067
 30
0.0
 10
185.2883688835456
 20
93.97505364728497
 30
0.0
 10
185.2588463403451
 20
93.92891497849963
 30
0.0
  0
SPLINE
  5
130
330
1F
100
AcDbEntity
  8
0
  6
Continuous
 62
     7
370
    15
100
AcDbSpline
210
0.0
220
0.0
230
1.0
 70
     8
 71
     3
 72
    13
 73
     9
 74
     0
 42
0.000000001
 43
0.00000001
 40
0.0
 40
0.0
 40
0.0
 40
0.0
 40
0.1735322077432489
 40
0.3474803110673937
 40
0.5125459321888426
 40
0.6710335034921839
 40
0.8297648889635729
 40
1.0
 40
1.0
 40
1.0
 40
1.0
 10
185.2588463403474
 20
105.8681588902472
 30
0.0
 10
185.1152350462635
 20
105.909175015602
 30
0.0
 10
184.8276682724061
 20
105.9913055675174
 30
0.0
 10
184.581971699881
 20
105.5553540644236
 30
0.0
 10
184.5058313695706
 20
104.7554470139933
 30
0.0
 10
184.6019416576506
 20
103.6892659248399
 30
0.0
 10
184.8450143350389
 20
102.4516610295206
 30
0.0
 10
185.117723522814
 20
101.6232008440012
 30
0.0
 10
185.2588463403482
 20
101.1944854180588
 30
0.0
  0
SPLINE
  5
131
330
1F
100
AcDbEntity
  8
0
  6
Continuous
 62
     7
370
    15
100
AcDbSpline
210
0.0
220
0.0
230
1.0
 70
     8
 71
     3
 72
    16
 73
    12
 74
     0
 42
0.000000001
 43
0.00000001
 40
0.0
 40
0.0
 40
0.0
 40
0.0
 40
0.1261954117148921
 40
0.2523019645587817
 40
0.379196862231114
 40
0.50603054205419
 40
0.6221090788360282
 40
0.7382313883708704
 40
0.8536787578257311
 40
0.9691902150888433
 40
1.0
 40
1.0
 40
1.0
 40
1.0
 10
185.2588463403473
 20
108.8776567046895
 30
0.0
 10
185.3757753234812
 20
108.6013383571545
 30
0.0
 10
185.6095509557142
 20
108.0488962280838
 30
0.0
 10
185.8713909824961
 20
107.3194064957018
 30
0.0
 10
186.0382865687324
 20
106.697811731958
 30
0.0
 10
186.0928743998836
 20
106.2233277857491
 30
0.0
 10
186.0341197153515
 20
105.9082817331078
 30
0.0
 10
185.8853107054518
 20
105.7375854567137
 30
0.0
 10
185.6523119747446
 20
105.7071538218567
 30
0.0
 10
185.4285933686354
 20
105.7771518267476
 30
0.0
 10
185.2883717685963
 20
105.8523293199118
 30
0.0
 10
185.2588463403474
 20
105.8681588902472
 30
0.0
  0
SPLINE
  5
132
330
1F
100
AcDbEntity
  8
0
  6
Continuous
 62
     7
370
    15
100
AcDbSpline
210
0.0
220
0.0
230
1.0
 70
     8
 71
     3
 72
    11
 73
     7
 74
     0
 42
0.000000001
 43
0.00000001
 40
0.0
 40
0.0
 40
0.0
 40
0.0
 40
0.0257232708959432
 40
0.3424906400473482
 40
0.6597449780769225
 40
1.0
 40
1.0
 40
1.0
 40
1.0
 10
184.5401349945111
 20
110.6088090937294
 30
0.0
 10
184.5381044707087
 20
110.6138670986135
 30
0.0
 10
184.5110692075995
 20
110.6812115408153
 30
0.0
 10
184.6128575967267
 20
110.4273580977604
 30
0.0
 10
184.8420441934994
 20
109.8592568868874
 30
0.0
 10
185.1167095531564
 20
109.2123994531584
 30
0.0
 10
185.2588463403473
 20
108.8776567046895
 30
0.0
  0
SPLINE
  5
133
330
1F
100
AcDbEntity
  8
0
  6
Continuous
 62
     7
370
    15
100
AcDbSpline
210
0.0
220
0.0
230
1.0
 70
     8
 71
     3
 72
    10
 73
     6
 74
     0
 42
0.000000001
 43
0.00000001
 40
0.0
 40
0.0
 40
0.0
 40
0.0
 40
0.3472829518019082
 40
0.6954084526855862
 40
1.0
 40
1.0
 40
1.0
 40
1.0
 10
185.2588463403474
 20
72.37060084184793
 30
0.0
 10
185.1160827934516
 20
72.03450114000654
 30
0.0
 10
184.8302093385884
 20
71.36148631911512
 30
0.0
 10
184.5785094981002
 20
70.73513724713054
 30
0.0
 10
184.5523447975781
 20
70.66989422344034
 30
0.0
 10
184.5401349945111
 20
70.63944845280795
 30
0.0
  0
LINE
  5
134
330
1F
100
AcDbEntity
  8
0
  6
Continuous
 62
     7
370
    15
100
AcDbLine
 10
185.2588463403
 20
80.0537721285
 30
0.0
 11
174.0339864175
 21
80.0537721285
 31
0.0
  0
LINE
  5
135
330
1F
100
AcDbEntity
  8
0
  6
Continuous
 62
     7
370
    15
100
AcDbLine
 10
174.0339864175
 20
87.319342568
 30
0.0
 11
174.0339864175
 21
80.0537721285
 31
0.0
  0
LINE
  5
136
330
1F
100
AcDbEntity
  8
0
  6
Continuous
 62
     7
370
    15
100
AcDbLine
 10
174.0339864175
 20
101.1944854181
 30
0.0
 11
174.0339864175
 21
93.9289149785
 31
0.0
  0
LINE
  5
137
330
1F
100
AcDbEntity
  8
0
  6
Continuous
 62
     7
370
    15
100
AcDbLine
 10
185.2588463403
 20
101.1944854181
 30
0.0
 11
174.0339864175
 21
101.1944854181
 31
0.0
  0
LINE
  5
138
330
1F
100
AcDbEntity
  8
0
  6
Continuous
 62
     7
370
    15
100
AcDbLine
 10
172.5339864175
 20
101.4836209168
 30
0.0
 11
174.0339864175
 21
101.1944854181
 31
0.0
  0
LINE
  5
139
330
1F
100
AcDbEntity
  8
0
  6
Continuous
 62
     7
370
    15
100
AcDbLine
 10
172.5339864175
 20
92.6836533569
 30
0.0
 11
172.5339864175
 21
101.4836209168
 31
0.0
  0
LINE
  5
13A
330
1F
100
AcDbEntity
  8
0
  6
Continuous
 62
     7
370
    15
100
AcDbLine
 10
172.5339864175
 20
79.7646366297
 30
0.0
 11
174.0339864175
 21
80.0537721285
 31
0.0
  0
LINE
  5
13B
330
1F
100
AcDbEntity
  8
0
  6
Continuous
 62
     7
370
    15
100
AcDbLine
 10
172.5339864175
 20
79.7646366297
 30
0.0
 11
172.5339864175
 21
88.5646041896
 31
0.0
  0
LINE
  5
13C
330
1F
100
AcDbEntity
  8
0
  6
Continuous
 62
     7
370
    15
100
AcDbLine
 10
174.0339864175
 20
80.0537721285
 30
0.0
 11
174.0339864175
 21
75.3104202743
 31
0.0
  0
LINE
  5
13D
330
1F
100
AcDbEntity
  8
0
  6
Continuous
 62
     7
370
    15
100
AcDbLine
 10
172.5339864175
 20
76.8104202743
 30
0.0
 11
172.5339864175
 21
79.7646366297
 31
0.0
  0
LINE
  5
13E
330
1F
100
AcDbEntity
  8
0
  6
Continuous
 62
     7
370
    15
100
AcDbLine
 10
174.0339864175
 20
105.9378372723
 30
0.0
 11
174.0339864175
 21
101.1944854181
 31
0.0
  0
LINE
  5
13F
330
1F
100
AcDbEntity
  8
0
  6
Continuous
 62
     7
370
    15
100
AcDbLine
 10
172.5339864175
 20
101.4836209168
 30
0.0
 11
172.5339864175
 21
104.4378372723
 31
0.0
  0
LINE
  5
140
330
1F
100
AcDbEntity
  8
0
  6
Continuous
 62
     7
370
    15
100
AcDbLine
 10
174.0339864175
 20
75.3104202743
 30
0.0
 11
174.0339864175
 21
72.3706008418
 31
0.0
  0
LINE
  5
141
330
1F
100
AcDbEntity
  8
0
  6
Continuous
 62
     7
370
    15
100
AcDbLine
 10
172.5339864175
 20
73.2069631198
 30
0.0
 11
174.0339864175
 21
72.3706008418
 31
0.0
  0
LINE
  5
142
330
1F
100
AcDbEntity
  8
0
  6
Continuous
 62
     7
370
    15
100
AcDbLine
 10
172.5339864175
 20
73.2069631198
 30
0.0
 11
172.5339864175
 21
76.810781615
 31
0.0
  0
LINE
  5
143
330
1F
100
AcDbEntity
  8
0
  6
Continuous
 62
     7
370
    15
100
AcDbLine
 10
174.0339864175
 20
108.8776567047
 30
0.0
 11
172.5339864175
 21
108.0412944268
 31
0.0
  0
LINE
  5
144
330
1F
100
AcDbEntity
  8
0
  6
Continuous
 62
     7
370
    15
100
AcDbLine
 10
174.0339864175
 20
108.8776567047
 30
0.0
 11
174.0339864175
 21
105.9378372723
 31
0.0
  0
LINE
  5
145
330
1F
100
AcDbEntity
  8
0
  6
Continuous
 62
     7
370
    15
100
AcDbLine
 10
172.5339864175
 20
104.4374759315
 30
0.0
 11
172.5339864175
 21
108.0412944268
 31
0.0
  0
LINE
  5
146
330
1F
100
AcDbEntity
  8
0
  6
Continuous
 62
     7
370
    15
100
AcDbLine
 10
185.2588463403
 20
108.8776567047
 30
0.0
 11
174.0339864175
 21
108.8776567047
 31
0.0
  0
LINE
  5
147
330
1F
100
AcDbEntity
  8
0
  6
Continuous
 62
     7
370
    15
100
AcDbLine
 10
185.2588463403
 20
72.3706008418
 30
0.0
 11
174.0339864175
 21
72.3706008418
 31
0.0
  0
LINE
  5
148
330
1F
100
AcDbEntity
  8
0
  6
Continuous
 62
     7
370
    15
100
AcDbLine
 10
174.0339864175
 20
72.3706008418
 30
0.0
 11
174.0339864175
 21
70.6241287733
 31
0.0
  0
LINE
  5
149
330
1F
100
AcDbEntity
  8
0
  6
Continuous
 62
     7
370
    15
100
AcDbLine
 10
172.5339864175
 20
72.1241287733
 30
0.0
 11
172.5339864175
 21
73.2069631198
 31
0.0
  0
LINE
  5
14A
330
1F
100
AcDbEntity
  8
0
  6
Continuous
 62
     7
370
    15
100
AcDbLine
 10
174.0339864175
 20
110.6241287733
 30
0.0
 11
174.0339864175
 21
108.8776567047
 31
0.0
  0
LINE
  5
14B
330
1F
100
AcDbEntity
  8
0
  6
Continuous
 62
     7
370
    15
100
AcDbLine
 10
172.5339864175
 20
108.0412944268
 30
0.0
 11
172.5339864175
 21
109.1241287733
 31
0.0
  0
SPLINE
  5
14C
330
1F
100
AcDbEntity
  8
0
  6
Continuous
 62
     7
370
    15
100
AcDbSpline
210
0.0
220
0.0
230
1.0
 70
     8
 71
     3
 72
    13
 73
     9
 74
     0
 42
0.000000001
 43
0.00000001
 40
0.0
 40
0.0
 40
0.0
 40
0.0
 40
0.1735274932632295
 40
0.3474759845328524
 40
0.5125418655588584
 40
0.6710295171733972
 40
0.8297608130563453
 40
1.0
 40
1.0
 40
1.0
 40
1.0
 10
108.8091264947154
 20
87.31934256803778
 30
0.0
 10
108.9527341186358
 20
87.59954163748795
 30
0.0
 10
109.2402977753783
 20
88.16061957212216
 30
0.0
 10
109.4859969203997
 20
89.38847825299098
 30
0.0
 10
109.5621418090871
 20
90.7096309672566
 30
0.0
 10
109.4660355609465
 20
91.97763247352904
 30
0.0
 10
109.2229646077584
 20
93.125184494323
 30
0.0
 10
108.9502524947837
 20
93.65482889316793
 30
0.0
 10
108.8091264947135
 20
93.92891497850268
 30
0.0
  0
LINE
  5
14D
330
1F
100
AcDbEntity
  8
0
  6
Continuous
 62
     7
370
    15
100
AcDbLine
 10
108.8091264947
 20
93.9289149785
 30
0.0
 11
120.0339864175
 21
93.9289149785
 31
0.0
  0
LINE
  5
14E
330
1F
100
AcDbEntity
  8
0
  6
Continuous
 62
     7
370
    15
100
AcDbLine
 10
120.0339864175
 20
87.319342568
 30
0.0
 11
120.0339864175
 21
93.9289149785
 31
0.0
  0
LINE
  5
14F
330
1F
100
AcDbEntity
  8
0
  6
Continuous
 62
     7
370
    15
100
AcDbLine
 10
108.8091264947
 20
87.319342568
 30
0.0
 11
120.0339864175
 21
87.319342568
 31
0.0
  0
LINE
  5
150
330
1F
100
AcDbEntity
  8
0
  6
Continuous
 62
     7
370
    15
100
AcDbLine
 10
121.5339864175
 20
92.6836533569
 30
0.0
 11
121.5339864175
 21
88.5646041896
 31
0.0
  0
LINE
  5
151
330
1F
100
AcDbEntity
  8
0
  6
Continuous
 62
     7
370
    15
100
AcDbLine
 10
121.5339864175
 20
88.5646041896
 30
0.0
 11
120.0339864175
 21
87.319342568
 31
0.0
  0
LINE
  5
152
330
1F
100
AcDbEntity
  8
0
  6
Continuous
 62
     7
370
    15
100
AcDbLine
 10
121.5339864175
 20
92.6836533569
 30
0.0
 11
120.0339864175
 21
93.9289149785
 31
0.0
  0
LINE
  5
153
330
1F
100
AcDbEntity
  8
0
  6
Continuous
 62
     7
370
    15
100
AcDbLine
 10
106.5339864175
 20
90.6241287733
 30
0.0
 11
106.5339864175
 21
76.6241287733
 31
0.0
  0
LINE
  5
154
330
1F
100
AcDbEntity
  8
0
  6
Continuous
 62
     7
370
    15
100
AcDbLine
 10
106.5339864175
 20
104.6241287733
 30
0.0
 11
106.5339864175
 21
90.6241287733
 31
0.0
  0
SPLINE
  5
155
330
1F
100
AcDbEntity
  8
0
  6
Continuous
 62
     7
370
    15
100
AcDbSpline
210
0.0
220
0.0
230
1.0
 70
     8
 71
     3
 72
    16
 73
    12
 74
     0
 42
0.000000001
 43
0.00000001
 40
0.0
 40
0.0
 40
0.0
 40
0.0
 40
0.1261972859071834
 40
0.2523057075281382
 40
0.3792002878030842
 40
0.5060336522260208
 40
0.622112044995841
 40
0.7382342111575548
 40
0.8536816913006918
 40
0.9691932593055956
 40
1.0
 40
1.0
 40
1.0
 40
1.0
 10
108.8091264947132
 20
105.8681588902471
 30
0.0
 10
108.6921958588275
 20
105.8134625629336
 30
0.0
 10
108.4584169260497
 20
105.7041084237946
 30
0.0
 10
108.1965763922578
 20
105.7272461110868
 30
0.0
 10
108.0296832934546
 20
105.906625356203
 30
0.0
 10
107.9750985718945
 20
106.2401338330888
 30
0.0
 10
108.0338558199479
 20
106.7075408072198
 30
0.0
 10
108.1826670025745
 20
107.2716544246597
 30
0.0
 10
108.4156676019619
 20
107.931612951524
 30
0.0
 10
108.6393850094197
 20
108.4836801532033
 30
0.0
 10
108.7796039515133
 20
108.8091337402479
 30
0.0
 10
108.8091264947132
 20
108.8776567046895
 30
0.0
  0
SPLINE
  5
156
330
1F
100
AcDbEntity
  8
0
  6
Continuous
 62
     7
370
    15
100
AcDbSpline
210
0.0
220
0.0
230
1.0
 70
     8
 71
     3
 72
    13
 73
     9
 74
     0
 42
0.000000001
 43
0.00000001
 40
0.0
 40
0.0
 40
0.0
 40
0.0
 40
0.1735322077433413
 40
0.3474803110675795
 40
0.512545932189122
 40
0.6710335034925645
 40
0.8297648889640779
 40
1.0
 40
1.0
 40
1.0
 40
1.0
 10
108.8091264947143
 20
101.194485418064
 30
0.0
 10
108.9527377887981
 20
101.6317751245603
 30
0.0
 10
109.2403045626552
 20
102.5074025669582
 30
0.0
 10
109.4860011351799
 20
103.8079284421612
 30
0.0
 10
109.5621414654899
 20
104.8764131256373
 30
0.0
 10
109.4660311774096
 20
105.6034529173685
 30
0.0
 10
109.2229585000213
 20
105.9887100003807
 30
0.0
 10
108.9502493122468
 20
105.9092685968446
 30
0.0
 10
108.8091264947132
 20
105.8681588902471
 30
0.0
  0
SPLINE
  5
157
330
1F
100
AcDbEntity
  8
0
  6
Continuous
 62
     7
370
    15
100
AcDbSpline
210
0.0
220
0.0
230
1.0
 70
     8
 71
     3
 72
    16
 73
    12
 74
     0
 42
0.000000001
 43
0.00000001
 40
0.0
 40
0.0
 40
0.0
 40
0.0
 40
0.126195411714844
 40
0.2523019645586855
 40
0.379196862230967
 40
0.5060305420539916
 40
0.622109078835781
 40
0.7382313883705743
 40
0.853678757825385
 40
0.9691902150884492
 40
1.0
 40
1.0
 40
1.0
 40
1.0
 10
108.8091264947135
 20
93.92891497850268
 30
0.0
 10
108.6921975115796
 20
94.12788188945764
 30
0.0
 10
108.4584218793466
 20
94.52567561138426
 30
0.0
 10
108.1965818525646
 20
95.28788162726595
 30
0.0
 10
108.0296862663283
 20
96.16314951680195
 30
0.0
 10
107.9750984351771
 20
97.1092808994988
 30
0.0
 10
108.0338531197091
 20
98.08533667184491
 30
0.0
 10
108.1826621296087
 20
99.0538067707257
 30
0.0
 10
108.415660860316
 20
100.0175575795272
 30
0.0
 10
108.6393794664254
 20
100.728306987988
 30
0.0
 10
108.779601066465
 20
101.1133993576639
 30
0.0
 10
108.8091264947143
 20
101.194485418064
 30
0.0
  0
SPLINE
  5
158
330
1F
100
AcDbEntity
  8
0
  6
Continuous
 62
     7
370
    15
100
AcDbSpline
210
0.0
220
0.0
230
1.0
 70
     8
 71
     3
 72
    16
 73
    12
 74
     0
 42
0.000000001
 43
0.00000001
 40
0.0
 40
0.0
 40
0.0
 40
0.0
 40
0.1261972859071086
 40
0.2523057075279897
 40
0.3792002878028557
 40
0.5060336522257131
 40
0.6221120449954716
 40
0.7382342111571242
 40
0.8536816913002149
 40
0.9691932593050736
 40
1.0
 40
1.0
 40
1.0
 40
1.0
 10
108.8091264947124
 20
80.05377212847864
 30
0.0
 10
108.6921958588268
 20
80.38985462971509
 30
0.0
 10
108.4584169260491
 20
81.06178297312377
 30
0.0
 10
108.1965763922574
 20
82.1165813190222
 30
0.0
 10
108.0296832934545
 20
83.17502613711882
 30
0.0
 10
107.9750985718946
 20
84.17954953581726
 30
0.0
 10
108.0338558199482
 20
85.09249296723101
 30
0.0
 10
108.1826670025749
 20
85.89800252162959
 30
0.0
 10
108.4156676019624
 20
86.60099328993378
 30
0.0
 10
108.6393850094208
 20
87.05406575513074
 30
0.0
 10
108.779603951515
 20
87.27320389925247
 30
0.0
 10
108.8091264947154
 20
87.31934256803778
 30
0.0
  0
SPLINE
  5
159
330
1F
100
AcDbEntity
  8
0
  6
Continuous
 62
     7
370
    15
100
AcDbSpline
210
0.0
220
0.0
230
1.0
 70
     8
 71
     3
 72
    13
 73
     9
 74
     0
 42
0.000000001
 43
0.00000001
 40
0.0
 40
0.0
 40
0.0
 40
0.0
 40
0.1735322077432488
 40
0.3474803110673936
 40
0.5125459321888428
 40
0.6710335034921842
 40
0.829764888963573
 40
1.0
 40
1.0
 40
1.0
 40
1.0
 10
108.8091264947132
 20
75.38009865629024
 30
0.0
 10
108.9527377887971
 20
75.33908253093546
 30
0.0
 10
109.2403045626545
 20
75.25695197901997
 30
0.0
 10
109.4860011351796
 20
75.6929034821138
 30
0.0
 10
109.5621414654901
 20
76.49281053254413
 30
0.0
 10
109.46603117741
 20
77.55899162169753
 30
0.0
 10
109.2229585000217
 20
78.79659651701685
 30
0.0
 10
108.9502493122466
 20
79.62505670253618
 30
0.0
 10
108.8091264947124
 20
80.05377212847864
 30
0.0
  0
SPLINE
  5
15A
330
1F
100
AcDbEntity
  8
0
  6
Continuous
 62
     7
370
    15
100
AcDbSpline
210
0.0
220
0.0
230
1.0
 70
     8
 71
     3
 72
    16
 73
    12
 74
     0
 42
0.000000001
 43
0.00000001
 40
0.0
 40
0.0
 40
0.0
 40
0.0
 40
0.1261954117148918
 40
0.2523019645587816
 40
0.3791968622311137
 40
0.5060305420541898
 40
0.6221090788360281
 40
0.7382313883708702
 40
0.8536787578257303
 40
0.9691902150888431
 40
1.0
 40
1.0
 40
1.0
 40
1.0
 10
108.8091264947133
 20
72.37060084184787
 30
0.0
 10
108.6921975115794
 20
72.6469191893829
 30
0.0
 10
108.4584218793464
 20
73.19936131845357
 30
0.0
 10
108.1965818525645
 20
73.92885105083562
 30
0.0
 10
108.0296862663281
 20
74.5504458145794
 30
0.0
 10
107.975098435177
 20
75.02492976078834
 30
0.0
 10
108.0338531197091
 20
75.33997581342962
 30
0.0
 10
108.1826621296088
 20
75.5106720898237
 30
0.0
 10
108.415660860316
 20
75.54110372468071
 30
0.0
 10
108.6393794664252
 20
75.4711057197898
 30
0.0
 10
108.7796010664643
 20
75.39592822662557
 30
0.0
 10
108.8091264947132
 20
75.38009865629024
 30
0.0
  0
SPLINE
  5
15B
330
1F
100
AcDbEntity
  8
0
  6
Continuous
 62
     7
370
    15
100
AcDbSpline
210
0.0
220
0.0
230
1.0
 70
     8
 71
     3
 72
    11
 73
     7
 74
     0
 42
0.000000001
 43
0.00000001
 40
0.0
 40
0.0
 40
0.0
 40
0.0
 40
0.0257232708959449
 40
0.3424906400473488
 40
0.6597449780769227
 40
1.0
 40
1.0
 40
1.0
 40
1.0
 10
109.5278378405495
 20
70.63944845280795
 30
0.0
 10
109.5298683643519
 20
70.63439044792393
 30
0.0
 10
109.5569036274611
 20
70.56704600572213
 30
0.0
 10
109.4551152383339
 20
70.82089944877696
 30
0.0
 10
109.2259286415612
 20
71.38900065965005
 30
0.0
 10
108.9512632819042
 20
72.035858093379
 30
0.0
 10
108.8091264947133
 20
72.37060084184787
 30
0.0
  0
SPLINE
  5
15C
330
1F
100
AcDbEntity
  8
0
  6
Continuous
 62
     7
370
    15
100
AcDbSpline
210
0.0
220
0.0
230
1.0
 70
     8
 71
     3
 72
    10
 73
     6
 74
     0
 42
0.000000001
 43
0.00000001
 40
0.0
 40
0.0
 40
0.0
 40
0.0
 40
0.3472829518019092
 40
0.6954084526855882
 40
1.0
 40
1.0
 40
1.0
 40
1.0
 10
108.8091264947132
 20
108.8776567046895
 30
0.0
 10
108.951890041609
 20
109.2137564065309
 30
0.0
 10
109.2377634964722
 20
109.8867712274223
 30
0.0
 10
109.4894633369604
 20
110.5131202994069
 30
0.0
 10
109.5156280374824
 20
110.5783633230971
 30
0.0
 10
109.5278378405495
 20
110.6088090937294
 30
0.0
  0
LINE
  5
15D
330
1F
100
AcDbEntity
  8
0
  6
Continuous
 62
     7
370
    15
100
AcDbLine
 10
108.8091264947
 20
101.1944854181
 30
0.0
 11
120.0339864175
 21
101.1944854181
 31
0.0
  0
LINE
  5
15E
330
1F
100
AcDbEntity
  8
0
  6
Continuous
 62
     7
370
    15
100
AcDbLine
 10
120.0339864175
 20
93.9289149785
 30
0.0
 11
120.0339864175
 21
101.1944854181
 31
0.0
  0
LINE
  5
15F
330
1F
100
AcDbEntity
  8
0
  6
Continuous
 62
     7
370
    15
100
AcDbLine
 10
120.0339864175
 20
80.0537721285
 30
0.0
 11
120.0339864175
 21
87.319342568
 31
0.0
  0
LINE
  5
160
330
1F
100
AcDbEntity
  8
0
  6
Continuous
 62
     7
370
    15
100
AcDbLine
 10
108.8091264947
 20
80.0537721285
 30
0.0
 11
120.0339864175
 21
80.0537721285
 31
0.0
  0
LINE
  5
161
330
1F
100
AcDbEntity
  8
0
  6
Continuous
 62
     7
370
    15
100
AcDbLine
 10
121.5339864175
 20
79.7646366297
 30
0.0
 11
120.0339864175
 21
80.0537721285
 31
0.0
  0
LINE
  5
162
330
1F
100
AcDbEntity
  8
0
  6
Continuous
 62
     7
370
    15
100
AcDbLine
 10
121.5339864175
 20
88.5646041896
 30
0.0
 11
121.5339864175
 21
79.7646366297
 31
0.0
  0
LINE
  5
163
330
1F
100
AcDbEntity
  8
0
  6
Continuous
 62
     7
370
    15
100
AcDbLine
 10
121.5339864175
 20
101.4836209168
 30
0.0
 11
120.0339864175
 21
101.1944854181
 31
0.0
  0
LINE
  5
164
330
1F
100
AcDbEntity
  8
0
  6
Continuous
 62
     7
370
    15
100
AcDbLine
 10
121.5339864175
 20
101.4836209168
 30
0.0
 11
121.5339864175
 21
92.6836533569
 31
0.0
  0
LINE
  5
165
330
1F
100
AcDbEntity
  8
0
  6
Continuous
 62
     7
370
    15
100
AcDbLine
 10
120.0339864175
 20
101.1944854181
 30
0.0
 11
120.0339864175
 21
105.9378372723
 31
0.0
  0
LINE
  5
166
330
1F
100
AcDbEntity
  8
0
  6
Continuous
 62
     7
370
    15
100
AcDbLine
 10
121.5339864175
 20
104.4378372723
 30
0.0
 11
121.5339864175
 21
101.4836209168
 31
0.0
  0
LINE
  5
167
330
1F
100
AcDbEntity
  8
0
  6
Continuous
 62
     7
370
    15
100
AcDbLine
 10
120.0339864175
 20
75.3104202743
 30
0.0
 11
120.0339864175
 21
80.0537721285
 31
0.0
  0
LINE
  5
168
330
1F
100
AcDbEntity
  8
0
  6
Continuous
 62
     7
370
    15
100
AcDbLine
 10
121.5339864175
 20
79.7646366297
 30
0.0
 11
121.5339864175
 21
76.8104202743
 31
0.0
  0
LINE
  5
169
330
1F
100
AcDbEntity
  8
0
  6
Continuous
 62
     7
370
    15
100
AcDbLine
 10
120.0339864175
 20
105.9378372723
 30
0.0
 11
120.0339864175
 21
108.8776567047
 31
0.0
  0
LINE
  5
16A
330
1F
100
AcDbEntity
  8
0
  6
Continuous
 62
     7
370
    15
100
AcDbLine
 10
121.5339864175
 20
108.0412944268
 30
0.0
 11
120.0339864175
 21
108.8776567047
 31
0.0
  0
LINE
  5
16B
330
1F
100
AcDbEntity
  8
0
  6
Continuous
 62
     7
370
    15
100
AcDbLine
 10
121.5339864175
 20
108.0412944268
 30
0.0
 11
121.5339864175
 21
104.4374759315
 31
0.0
  0
LINE
  5
16C
330
1F
100
AcDbEntity
  8
0
  6
Continuous
 62
     7
370
    15
100
AcDbLine
 10
120.0339864175
 20
72.3706008418
 30
0.0
 11
121.5339864175
 21
73.2069631198
 31
0.0
  0
LINE
  5
16D
330
1F
100
AcDbEntity
  8
0
  6
Continuous
 62
     7
370
    15
100
AcDbLine
 10
120.0339864175
 20
72.3706008418
 30
0.0
 11
120.0339864175
 21
75.3104202743
 31
0.0
  0
LINE
  5
16E
330
1F
100
AcDbEntity
  8
0
  6
Continuous
 62
     7
370
    15
100
AcDbLine
 10
121.5339864175
 20
76.810781615
 30
0.0
 11
121.5339864175
 21
73.2069631198
 31
0.0
  0
LINE
  5
16F
330
1F
100
AcDbEntity
  8
0
  6
Continuous
 62
     7
370
    15
100
AcDbLine
 10
108.8091264947
 20
72.3706008418
 30
0.0
 11
120.0339864175
 21
72.3706008418
 31
0.0
  0
LINE
  5
170
330
1F
100
AcDbEntity
  8
0
  6
Continuous
 62
     7
370
    15
100
AcDbLine
 10
108.8091264947
 20
108.8776567047
 30
0.0
 11
120.0339864175
 21
108.8776567047
 31
0.0
  0
LINE
  5
171
330
1F
100
AcDbEntity
  8
0
  6
Continuous
 62
     7
370
    15
100
AcDbLine
 10
120.0339864175
 20
108.8776567047
 30
0.0
 11
120.0339864175
 21
110.6241287733
 31
0.0
  0
LINE
  5
172
330
1F
100
AcDbEntity
  8
0
  6
Continuous
 62
     7
370
    15
100
AcDbLine
 10
121.5339864175
 20
109.1241287733
 30
0.0
 11
121.5339864175
 21
108.0412944268
 31
0.0
  0
LINE
  5
173
330
1F
100
AcDbEntity
  8
0
  6
Continuous
 62
     7
370
    15
100
AcDbLine
 10
120.0339864175
 20
70.6241287733
 30
0.0
 11
120.0339864175
 21
72.3706008418
 31
0.0
  0
LINE
  5
174
330
1F
100
AcDbEntity
  8
0
  6
Continuous
 62
     7
370
    15
100
AcDbLine
 10
121.5339864175
 20
73.2069631198
 30
0.0
 11
121.5339864175
 21
72.1241287733
 31
0.0
  0
LINE
  5
175
330
1F
100
AcDbEntity
  8
0
  6
Continuous
 62
     7
370
    15
100
AcDbLine
 10
140.5339864175
 20
52.6241287733
 30
0.0
 11
140.5339864175
 21
128.6241287733
 31
0.0
  0
LINE
  5
176
330
1F
100
AcDbEntity
  8
0
  6
Continuous
 62
     7
370
    15
100
AcDbLine
 10
140.5339864175
 20
128.6241287733
 30
0.0
 11
128.0339864175
 21
128.6241287733
 31
0.0
  0
CIRCLE
  5
177
330
1F
100
AcDbEntity
  8
0
  6
Continuous
 62
     7
370
    15
100
AcDbCircle
 10
134.5339864175
 20
65.6241287733
 30
0.0
 40
2.499999999999986
  0
CIRCLE
  5
178
330
1F
100
AcDbEntity
  8
0
  6
Continuous
 62
     7
370
    15
100
AcDbCircle
 10
134.5339864175
 20
103.1241287733
 30
0.0
 40
2.5
  0
CIRCLE
  5
179
330
1F
100
AcDbEntity
  8
0
  6
Continuous
 62
     7
370
    15
100
AcDbCircle
 10
134.5339864175
 20
115.6241287733
 30
0.0
 40
2.500000000000014
  0
LINE
  5
17A
330
1F
100
AcDbEntity
  8
0
  6
Continuous
 62
     7
370
    15
100
AcDbLine
 10
140.5339864175
 20
52.6241287733
 30
0.0
 11
128.0339864175
 21
52.6241287733
 31
0.0
  0
LINE
  5
17B
330
1F
100
AcDbEntity
  8
0
  6
Continuous
 62
     7
370
    15
100
AcDbLine
 10
128.0339864175
 20
52.6241287733
 30
0.0
 11
128.0339864175
 21
128.6241287733
 31
0.0
  0
CIRCLE
  5
17C
330
1F
100
AcDbEntity
  8
0
  6
Continuous
 62
     7
370
    15
100
AcDbCircle
 10
159.5339864175
 20
103.1241287733
 30
0.0
 40
2.5
  0
LINE
  5
17D
330
1F
100
AcDbEntity
  8
0
  6
Continuous
 62
     7
370
    15
100
AcDbLine
 10
166.0339864175
 20
128.6241287733
 30
0.0
 11
153.5339864175
 21
128.6241287733
 31
0.0
  0
CIRCLE
  5
17E
330
1F
100
AcDbEntity
  8
0
  6
Continuous
 62
     7
370
    15
100
AcDbCircle
 10
159.5339864175
 20
115.6241287733
 30
0.0
 40
2.500000000000014
  0
LINE
  5
17F
330
1F
100
AcDbEntity
  8
0
  6
Continuous
 62
     7
370
    15
100
AcDbLine
 10
153.5339864175
 20
52.6241287733
 30
0.0
 11
153.5339864175
 21
128.6241287733
 31
0.0
  0
CIRCLE
  5
180
330
1F
100
AcDbEntity
  8
0
  6
Continuous
 62
     7
370
    15
100
AcDbCircle
 10
159.5339864175
 20
65.6241287733
 30
0.0
 40
2.499999999999986
  0
LINE
  5
181
330
1F
100
AcDbEntity
  8
0
  6
Continuous
 62
     7
370
    15
100
AcDbLine
 10
166.0339864175
 20
52.6241287733
 30
0.0
 11
153.5339864175
 21
52.6241287733
 31
0.0
  0
LINE
  5
182
330
1F
100
AcDbEntity
  8
0
  6
Continuous
 62
     7
370
    15
100
AcDbLine
 10
166.0339864175
 20
52.6241287733
 30
0.0
 11
166.0339864175
 21
128.6241287733
 31
0.0
  0
CIRCLE
  5
183
330
1F
100
AcDbEntity
  8
0
  6
Continuous
 62
     7
370
    15
100
AcDbCircle
 10
147.0339864175
 20
65.6241287733
 30
0.0
 40
2.5
  0
CIRCLE
  5
184
330
1F
100
AcDbEntity
  8
0
  6
Continuous
 62
     7
370
    15
100
AcDbCircle
 10
147.0339864175
 20
90.6241287733
 30
0.0
 40
2.5
  0
CIRCLE
  5
185
330
1F
100
AcDbEntity
  8
0
  6
Continuous
 62
     7
370
    15
100
AcDbCircle
 10
147.0339864175
 20
115.6241287733
 30
0.0
 40
2.499999999999986
  0
LINE
  5
186
330
1F
100
AcDbEntity
  8
0
  6
Continuous
 62
     7
370
    15
100
AcDbLine
 10
153.5339864175
 20
128.6241287733
 30
0.0
 11
140.5339864175
 21
128.6241287733
 31
0.0
  0
LINE
  5
187
330
1F
100
AcDbEntity
  8
0
  6
Continuous
 62
     7
370
    15
100
AcDbLine
 10
153.5339864175
 20
52.6241287733
 30
0.0
 11
140.5339864175
 21
52.6241287733
 31
0.0
  0
LINE
  5
188
330
1F
100
AcDbEntity
  8
0
  6
Continuous
 62
     7
370
    15
100
AcDbLine
 10
172.0339864175
 20
128.6241287733
 30
0.0
 11
166.0339864175
 21
128.6241287733
 31
0.0
  0
LINE
  5
189
330
1F
100
AcDbEntity
  8
0
  6
Continuous
 62
     7
370
    15
100
AcDbLine
 10
172.0339864175
 20
52.6241287733
 30
0.0
 11
166.0339864175
 21
52.6241287733
 31
0.0
  0
LINE
  5
18A
330
1F
100
AcDbEntity
  8
0
  6
Continuous
 62
     7
370
    15
100
AcDbLine
 10
128.0339864175
 20
128.6241287733
 30
0.0
 11
122.0339864175
 21
128.6241287733
 31
0.0
  0
LINE
  5
18B
330
1F
100
AcDbEntity
  8
0
  6
Continuous
 62
     7
370
    15
100
AcDbLine
 10
128.0339864175
 20
52.6241287733
 30
0.0
 11
122.0339864175
 21
52.6241287733
 31
0.0
  0
DIMENSION
  5
18C
330
1F
100
AcDbEntity
  8
DIM
 62
     7
100
AcDbDimension
  2
_D
 10
147.0339864175
 20
134.3136531288
 30
0.0
 11
140.7839864175
 21
134.3136531288
 31
0.0
 70
   160
  1
<>
 71
     2
 42
-1.0
  3
SLDDIMSTYLE0
100
AcDbAlignedDimension
 13
134.5339864175
 23
119.1241287733
 33
0.0
 14
147.0339864175
 24
119.1241287733
 34
0.0
100
AcDbRotatedDimension
  0
DIMENSION
  5
197
330
1F
100
AcDbEntity
  8
DIM
 62
     7
100
AcDbDimension
  2
_D_1
 10
159.5339864175
 20
134.3136531288
 30
0.0
 11
153.2839864175
 21
134.3136531288
 31
0.0
 70
   160
  1
<>
 71
     2
 42
-1.0
  3
SLDDIMSTYLE0
100
AcDbAlignedDimension
 13
147.0339864175
 23
119.1241287733
 33
0.0
 14
159.5339864175
 24
119.1241287733
 34
0.0
100
AcDbRotatedDimension
  0
DIMENSION
  5
1A1
330
1F
100
AcDbEntity
  8
DIM
 62
     7
100
AcDbDimension
  2
_D_2
 10
172.0339864175
 20
143.887889275
 30
0.0
 11
147.0339864175
 21
143.887889275
 31
0.0
 70
   160
  1
<>
 71
     2
 42
-1.0
  3
SLDDIMSTYLE0
100
AcDbAlignedDimension
 13
122.0339864175
 23
128.6241287733
 33
0.0
 14
172.0339864175
 24
128.6241287733
 34
0.0
 50
0.0
100
AcDbRotatedDimension
  0
DIMENSION
  5
1AB
330
1F
100
AcDbEntity
  8
DIM
 62
     7
100
AcDbDimension
  2
_D_3
 10
99.0339864175
 20
90.6241287733
 30
0.0
 11
99.0339864175
 21
96.8741287733
 31
0.0
 70
   160
  1
<>
 71
     2
 42
-1.0
  3
SLDDIMSTYLE0
100
AcDbAlignedDimension
 13
131.0339864175
 23
103.1241287733
 33
0.0
 14
105.6215438083
 24
90.6241287733
 34
0.0
 50
90.0
100
AcDbRotatedDimension
  0
DIMENSION
  5
1B5
330
1F
100
AcDbEntity
  8
DIM
 62
     7
100
AcDbDimension
  2
_D_4
 10
88.728142299
 20
115.6241287733
 30
0.0
 11
88.728142299
 21
103.1241287733
 31
0.0
 70
   160
  1
<>
 71
     2
 42
-1.0
  3
SLDDIMSTYLE0
100
AcDbAlignedDimension
 13
105.6215438083
 23
90.6241287733
 33
0.0
 14
131.0339864175
 24
115.6241287733
 34
0.0
 50
90.0
100
AcDbRotatedDimension
  0
DIMENSION
  5
1BF
330
1F
100
AcDbEntity
  8
DIM
 62
     7
100
AcDbDimension
  2
_D_5
 10
88.728142299
 20
65.6241287733
 30
0.0
 11
88.728142299
 21
78.1241287733
 31
0.0
 70
   160
  1
<>
 71
     2
 42
-1.0
  3
SLDDIMSTYLE0
100
AcDbAlignedDimension
 13
105.6215438083
 23
90.6241287733
 33
0.0
 14
131.0339864175
 24
65.6241287733
 34
0.0
 50
90.0
100
AcDbRotatedDimension
  0
DIMENSION
  5
1C9
330
1F
100
AcDbEntity
  8
DIM
 62
     7
100
AcDbDimension
  2
_D_6
 10
78.3484413631
 20
52.6241287733
 30
0.0
 11
78.3484413631
 21
90.6241287733
 31
0.0
 70
   160
  1
<>
 71
     2
 42
-1.0
  3
SLDDIMSTYLE0
100
AcDbAlignedDimension
 13
122.0339864175
 23
128.6241287733
 33
0.0
 14
122.0339864175
 24
52.6241287733
 34
0.0
 50
90.0
100
AcDbRotatedDimension
  0
DIMENSION
  5
1D3
330
1F
100
AcDbEntity
  8
DIM
100
AcDbDimension
  2
_D_7
 10
157.3689229081
 20
114.3741287733
 30
0.0
 11
197.8795637707
 21
135.7404765465
 31
0.0
 70
   163
  1
9 HOLES,\P M6
 71
     1
 42
-1.0
  3
SLDDIMSTYLE1
100
AcDbDiametricDimension
 15
161.699049927
 25
116.8741287733
 35
0.0
 40
0.0
  0
INSERT
  5
1E8
330
1F
100
AcDbEntity
  8
DIM
 62
     7
100
AcDbBlockReference
  2
SW_CENTERMARKSYMBOL_0
 10
134.5339864175
 20
115.6241287733
 30
0.0
  0
INSERT
  5
1F4
330
1F
100
AcDbEntity
  8
DIM
 62
     7
100
AcDbBlockReference
  2
SW_CENTERMARKSYMBOL_1
 10
147.0339864175
 20
115.6241287733
 30
0.0
  0
INSERT
  5
200
330
1F
100
AcDbEntity
  8
DIM
 62
     7
100
AcDbBlockReference
  2
SW_CENTERMARKSYMBOL_2
 10
159.5339864175
 20
115.6241287733
 30
0.0
  0
INSERT
  5
20C
330
1F
100
AcDbEntity
  8
DIM
 62
     7
100
AcDbBlockReference
  2
SW_CENTERMARKSYMBOL_3
 10
159.5339864175
 20
103.1241287733
 30
0.0
  0
INSERT
  5
218
330
1F
100
AcDbEntity
  8
DIM
 62
     7
100
AcDbBlockReference
  2
SW_CENTERMARKSYMBOL_4
 10
134.5339864175
 20
103.1241287733
 30
0.0
  0
INSERT
  5
224
330
1F
100
AcDbEntity
  8
DIM
 62
     7
100
AcDbBlockReference
  2
SW_CENTERMARKSYMBOL_5
 10
147.0339864175
 20
90.6241287733
 30
0.0
  0
INSERT
  5
230
330
1F
100
AcDbEntity
  8
DIM
 62
     7
100
AcDbBlockReference
  2
SW_CENTERMARKSYMBOL_6
 10
134.5339864175
 20
65.6241287733
 30
0.0
  0
INSERT
  5
23C
330
1F
100
AcDbEntity
  8
DIM
 62
     7
100
AcDbBlockReference
  2
SW_CENTERMARKSYMBOL_7
 10
147.0339864175
 20
65.6241287733
 30
0.0
  0
INSERT
  5
248
330
1F
100
AcDbEntity
  8
DIM
 62
     7
100
AcDbBlockReference
  2
SW_CENTERMARKSYMBOL_8
 10
159.5339864175
 20
65.6241287733
 30
0.0
  0
LINE
  5
249
330
1F
100
AcDbEntity
  8
0
  6
Continuous
 62
     7
370
    15
100
AcDbLine
 10
184.5339864175
 20
215.6792401211
 30
0.0
 11
187.5339864175
 21
221.6792401211
 31
0.0
  0
LINE
  5
24A
330
1F
100
AcDbEntity
  8
0
  6
Continuous
 62
     7
370
    15
100
AcDbLine
 10
187.5339864175
 20
249.6792401211
 30
0.0
 11
184.5341670879
 21
255.6788787803
 31
0.0
  0
LINE
  5
24B
330
1F
100
AcDbEntity
  8
0
  6
Continuous
 62
     7
370
    15
100
AcDbLine
 10
174.0339864175
 20
220.3655316221
 30
0.0
 11
185.0308993524
 21
220.3655316221
 31
0.0
  0
LINE
  5
24C
330
1F
100
AcDbEntity
  8
0
  6
Continuous
 62
     7
370
    15
100
AcDbLine
 10
172.5339864175
 20
221.8655316221
 30
0.0
 11
174.0339864175
 21
220.3655316221
 31
0.0
  0
LINE
  5
24D
330
1F
100
AcDbEntity
  8
0
  6
Continuous
 62
     7
370
    15
100
AcDbLine
 10
185.0314246641
 20
250.9925872793
 30
0.0
 11
174.0339864175
 21
250.9925872793
 31
0.0
  0
LINE
  5
24E
330
1F
100
AcDbEntity
  8
0
  6
Continuous
 62
     7
370
    15
100
AcDbLine
 10
174.0339864175
 20
250.9925872793
 30
0.0
 11
172.5339864175
 21
249.4925872793
 31
0.0
  0
LINE
  5
24F
330
1F
100
AcDbEntity
  8
0
  6
Continuous
 62
     7
370
    15
100
AcDbLine
 10
162.5339864175
 20
228.1792401211
 30
0.0
 11
172.5339864175
 21
228.1792401211
 31
0.0
  0
LINE
  5
250
330
1F
100
AcDbEntity
  8
0
  6
Continuous
 62
     7
370
    15
100
AcDbLine
 10
165.8339864175
 20
243.1792401211
 30
0.0
 11
162.5339864175
 21
243.1792401211
 31
0.0
  0
LINE
  5
251
330
1F
100
AcDbEntity
  8
0
  6
Continuous
 62
     7
370
    15
100
AcDbLine
 10
172.5339864175
 20
243.1792401211
 30
0.0
 11
169.2339864175
 21
243.1792401211
 31
0.0
  0
LINE
  5
252
330
1F
100
AcDbEntity
  8
0
  6
Continuous
 62
     7
370
    15
100
AcDbLine
 10
184.538141523
 20
255.6788787803
 30
0.0
 11
174.0339864175
 21
255.6788787803
 31
0.0
  0
LINE
  5
253
330
1F
100
AcDbEntity
  8
0
  6
Continuous
 62
     7
370
    15
100
AcDbLine
 10
174.0339864175
 20
255.6788787803
 30
0.0
 11
172.5339864175
 21
254.1788787803
 31
0.0
  0
LINE
  5
254
330
1F
100
AcDbEntity
  8
0
  6
Continuous
 62
     7
370
    15
100
AcDbLine
 10
174.0339864175
 20
215.6792401211
 30
0.0
 11
184.5400185206
 21
215.6792401211
 31
0.0
  0
LINE
  5
255
330
1F
100
AcDbEntity
  8
0
  6
Continuous
 62
     7
370
    15
100
AcDbLine
 10
172.5339864175
 20
217.1792401211
 30
0.0
 11
174.0339864175
 21
215.6792401211
 31
0.0
  0
LINE
  5
256
330
1F
100
AcDbEntity
  8
0
  6
Continuous
 62
     7
370
    15
100
AcDbLine
 10
109.5338057472
 20
255.6788787803
 30
0.0
 11
106.5339864175
 21
249.6792401211
 31
0.0
  0
LINE
  5
257
330
1F
100
AcDbEntity
  8
0
  6
Continuous
 62
     7
370
    15
100
AcDbLine
 10
106.5339864175
 20
221.6792401211
 30
0.0
 11
109.5339864175
 21
215.6792401211
 31
0.0
  0
LINE
  5
258
330
1F
100
AcDbEntity
  8
0
  6
Continuous
 62
     7
370
    15
100
AcDbLine
 10
120.0339864175
 20
220.3655316221
 30
0.0
 11
121.5339864175
 21
221.8655316221
 31
0.0
  0
LINE
  5
259
330
1F
100
AcDbEntity
  8
0
  6
Continuous
 62
     7
370
    15
100
AcDbLine
 10
109.03624901
 20
220.3655316221
 30
0.0
 11
120.0339864175
 21
220.3655316221
 31
0.0
  0
LINE
  5
25A
330
1F
100
AcDbEntity
  8
0
  6
Continuous
 62
     7
370
    15
100
AcDbLine
 10
121.5339864175
 20
249.4925872793
 30
0.0
 11
120.0339864175
 21
250.9925872793
 31
0.0
  0
LINE
  5
25B
330
1F
100
AcDbEntity
  8
0
  6
Continuous
 62
     7
370
    15
100
AcDbLine
 10
120.0339864175
 20
250.9925872793
 30
0.0
 11
109.0348405768
 21
250.9925872793
 31
0.0
  0
LINE
  5
25C
330
1F
100
AcDbEntity
  8
0
  6
Continuous
 62
     7
370
    15
100
AcDbLine
 10
124.8339864175
 20
243.1792401211
 30
0.0
 11
121.5339864175
 21
243.1792401211
 31
0.0
  0
LINE
  5
25D
330
1F
100
AcDbEntity
  8
0
  6
Continuous
 62
     7
370
    15
100
AcDbLine
 10
131.5339864175
 20
243.1792401211
 30
0.0
 11
128.2339864175
 21
243.1792401211
 31
0.0
  0
LINE
  5
25E
330
1F
100
AcDbEntity
  8
0
  6
Continuous
 62
     7
370
    15
100
AcDbLine
 10
121.5339864175
 20
228.1792401211
 30
0.0
 11
131.5339864175
 21
228.1792401211
 31
0.0
  0
LINE
  5
25F
330
1F
100
AcDbEntity
  8
0
  6
Continuous
 62
     7
370
    15
100
AcDbLine
 10
121.5339864175
 20
254.1788787803
 30
0.0
 11
120.0339864175
 21
255.6788787803
 31
0.0
  0
LINE
  5
260
330
1F
100
AcDbEntity
  8
0
  6
Continuous
 62
     7
370
    15
100
AcDbLine
 10
120.0339864175
 20
255.6788787803
 30
0.0
 11
109.529831312
 21
255.6788787803
 31
0.0
  0
LINE
  5
261
330
1F
100
AcDbEntity
  8
0
  6
Continuous
 62
     7
370
    15
100
AcDbLine
 10
120.0339864175
 20
215.6792401211
 30
0.0
 11
121.5339864175
 21
217.1792401211
 31
0.0
  0
LINE
  5
262
330
1F
100
AcDbEntity
  8
0
  6
Continuous
 62
     7
370
    15
100
AcDbLine
 10
109.5279543144
 20
215.6792401211
 30
0.0
 11
120.0339864175
 21
215.6792401211
 31
0.0
  0
LINE
  5
263
330
1F
100
AcDbEntity
  8
0
  6
Continuous
 62
     7
370
    15
100
AcDbLine
 10
158.5339864175
 20
229.3292401211
 30
0.0
 11
162.5339864175
 21
229.3292401211
 31
0.0
  0
LINE
  5
264
330
1F
100
AcDbEntity
  8
0
  6
Continuous
 62
     7
370
    15
100
AcDbLine
 10
162.5339864175
 20
242.0292401211
 30
0.0
 11
158.5339864175
 21
242.0292401211
 31
0.0
  0
LINE
  5
265
330
1F
100
AcDbEntity
  8
0
  6
Continuous
 62
     7
370
    15
100
AcDbLine
 10
135.5339864175
 20
242.0292401211
 30
0.0
 11
131.5339864175
 21
242.0292401211
 31
0.0
  0
LINE
  5
266
330
1F
100
AcDbEntity
  8
0
  6
Continuous
 62
     7
370
    15
100
AcDbLine
 10
131.5339864175
 20
229.3292401211
 30
0.0
 11
135.5339864175
 21
229.3292401211
 31
0.0
  0
LINE
  5
267
330
1F
100
AcDbEntity
  8
0
  6
Continuous
 62
     7
370
    15
100
AcDbLine
 10
151.3839864175
 20
232.1792401211
 30
0.0
 11
152.0339864175
 21
232.1792401211
 31
0.0
  0
LINE
  5
268
330
1F
100
AcDbEntity
  8
0
  6
Continuous
 62
     7
370
    15
100
AcDbLine
 10
152.0339864175
 20
239.1792401211
 30
0.0
 11
151.3839864175
 21
239.1792401211
 31
0.0
  0
LINE
  5
269
330
1F
100
AcDbEntity
  8
0
  6
Continuous
 62
     7
370
    15
100
AcDbLine
 10
150.0339864175
 20
228.4292401211
 30
0.0
 11
151.3839864175
 21
228.4292401211
 31
0.0
  0
LINE
  5
26A
330
1F
100
AcDbEntity
  8
0
  6
Continuous
 62
     7
370
    15
100
AcDbLine
 10
151.3839864175
 20
242.9292401211
 30
0.0
 11
150.1220903754
 21
242.9292401211
 31
0.0
  0
LINE
  5
26B
330
1F
100
AcDbEntity
  8
0
  6
Continuous
 62
     7
370
    15
100
AcDbLine
 10
144.0339864175
 20
225.5292401211
 30
0.0
 11
149.0339864175
 21
225.5292401211
 31
0.0
  0
LINE
  5
26C
330
1F
100
AcDbEntity
  8
0
  6
Continuous
 62
     7
370
    15
100
AcDbLine
 10
127.1704841405
 20
243.1792401211
 30
0.0
 11
128.2339864175
 21
243.1792401211
 31
0.0
  0
LINE
  5
26D
330
1F
100
AcDbEntity
  8
0
  6
Continuous
 62
     7
370
    15
100
AcDbLine
 10
124.8339864175
 20
243.1792401211
 30
0.0
 11
127.1704841405
 21
243.1792401211
 31
0.0
  0
LINE
  5
26E
330
1F
100
AcDbEntity
  8
0
  6
Continuous
 62
     7
370
    15
100
AcDbLine
 10
167.5339864175
 20
243.1792401211
 30
0.0
 11
169.2339864175
 21
243.1792401211
 31
0.0
  0
LINE
  5
26F
330
1F
100
AcDbEntity
  8
0
  6
Continuous
 62
     7
370
    15
100
AcDbLine
 10
165.8339864175
 20
243.1792401211
 30
0.0
 11
167.5339864175
 21
243.1792401211
 31
0.0
  0
LINE
  5
270
330
1F
100
AcDbEntity
  8
0
  6
Continuous
 62
     7
370
    15
100
AcDbLine
 10
187.5339864175
 20
221.6792401211
 30
0.0
 11
187.5339864175
 21
249.6792401211
 31
0.0
  0
SPLINE
  5
271
330
1F
100
AcDbEntity
  8
0
  6
Continuous
 62
     7
370
    15
100
AcDbSpline
210
0.0
220
0.0
230
1.0
 70
     8
 71
     3
 72
    10
 73
     6
 74
     0
 42
0.000000001
 43
0.00000001
 40
0.0
 40
0.0
 40
0.0
 40
0.0
 40
0.3472829518009757
 40
0.695408452685173
 40
1.0
 40
1.0
 40
1.0
 40
1.0
 10
185.2588463403451
 20
217.4257121896281
 30
0.0
 10
185.1160827934501
 20
217.0896124877884
 30
0.0
 10
184.8302093385879
 20
216.416597666899
 30
0.0
 10
184.5785094981
 20
215.7902485949155
 30
0.0
 10
184.5523447975781
 20
215.7250055712254
 30
0.0
 10
184.540134994511
 20
215.6945598005931
 30
0.0
  0
SPLINE
  5
272
330
1F
100
AcDbEntity
  8
0
  6
Continuous
 62
     7
370
    15
100
AcDbSpline
210
0.0
220
0.0
230
1.0
 70
     8
 71
     3
 72
    16
 73
    12
 74
     0
 42
0.000000001
 43
0.00000001
 40
0.0
 40
0.0
 40
0.0
 40
0.0
 40
0.1261972859071088
 40
0.25230570752799
 40
0.3792002878028567
 40
0.5060336522257134
 40
0.6221120449954728
 40
0.7382342111571245
 40
0.8536816913002155
 40
0.9691932593050735
 40
1.0
 40
1.0
 40
1.0
 40
1.0
 10
185.2588463403482
 20
220.4352100040757
 30
0.0
 10
185.3757769762338
 20
220.4899063313892
 30
0.0
 10
185.6095559090115
 20
220.5992604705279
 30
0.0
 10
185.8713964428032
 20
220.5761227832353
 30
0.0
 10
186.0382895416062
 20
220.3967435381189
 30
0.0
 10
186.092874263166
 20
220.0632350612329
 30
0.0
 10
186.0341170151124
 20
219.5958280871018
 30
0.0
 10
185.8853058324857
 20
219.0317144696618
 30
0.0
 10
185.6523052330982
 20
218.3717559427973
 30
0.0
 10
185.4285878256398
 20
217.8196887411168
 30
0.0
 10
185.2883688835456
 20
217.4942351540709
 30
0.0
 10
185.2588463403451
 20
217.4257121896281
 30
0.0
  0
SPLINE
  5
273
330
1F
100
AcDbEntity
  8
0
  6
Continuous
 62
     7
370
    15
100
AcDbSpline
210
0.0
220
0.0
230
1.0
 70
     8
 71
     3
 72
    13
 73
     9
 74
     0
 42
0.000000001
 43
0.00000001
 40
0.0
 40
0.0
 40
0.0
 40
0.0
 40
0.1735322077432488
 40
0.3474803110673935
 40
0.5125459321888427
 40
0.671033503492184
 40
0.829764888963573
 40
1.0
 40
1.0
 40
1.0
 40
1.0
 10
185.2588463403474
 20
225.1088834762614
 30
0.0
 10
185.1152350462635
 20
224.6715937697652
 30
0.0
 10
184.8276682724061
 20
223.7959663273673
 30
0.0
 10
184.581971699881
 20
222.4954404521637
 30
0.0
 10
184.5058313695706
 20
221.4269557686869
 30
0.0
 10
184.6019416576506
 20
220.699915976955
 30
0.0
 10
184.8450143350389
 20
220.3146588939414
 30
0.0
 10
185.117723522814
 20
220.3941002974779
 30
0.0
 10
185.2588463403482
 20
220.4352100040757
 30
0.0
  0
SPLINE
  5
274
330
1F
100
AcDbEntity
  8
0
  6
Continuous
 62
     7
370
    15
100
AcDbSpline
210
0.0
220
0.0
230
1.0
 70
     8
 71
     3
 72
    16
 73
    12
 74
     0
 42
0.000000001
 43
0.00000001
 40
0.0
 40
0.0
 40
0.0
 40
0.0
 40
0.1261954117148916
 40
0.2523019645587812
 40
0.3791968622311135
 40
0.5060305420541897
 40
0.6221090788360274
 40
0.7382313883708702
 40
0.8536787578257299
 40
0.9691902150888432
 40
1.0
 40
1.0
 40
1.0
 40
1.0
 10
185.2588463403473
 20
232.3744539158196
 30
0.0
 10
185.3757753234812
 20
232.1754870048646
 30
0.0
 10
185.6095509557142
 20
231.777693282938
 30
0.0
 10
185.8713909824961
 20
231.0154872670563
 30
0.0
 10
186.0382865687324
 20
230.1402193775203
 30
0.0
 10
186.0928743998836
 20
229.1940879948235
 30
0.0
 10
186.0341197153515
 20
228.2180322224773
 30
0.0
 10
185.8853107054518
 20
227.2495621235966
 30
0.0
 10
185.6523119747446
 20
226.285811314795
 30
0.0
 10
185.4285933686354
 20
225.5750619063354
 30
0.0
 10
185.2883717685963
 20
225.1899695366605
 30
0.0
 10
185.2588463403474
 20
225.1088834762614
 30
0.0
  0
SPLINE
  5
275
330
1F
100
AcDbEntity
  8
0
  6
Continuous
 62
     7
370
    15
100
AcDbSpline
210
0.0
220
0.0
230
1.0
 70
     8
 71
     3
 72
    13
 73
     9
 74
     0
 42
0.000000001
 43
0.00000001
 40
0.0
 40
0.0
 40
0.0
 40
0.0
 40
0.1735274932638168
 40
0.3474759845333024
 40
0.512541865559178
 40
0.6710295171735884
 40
0.8297608130564003
 40
1.0
 40
1.0
 40
1.0
 40
1.0
 10
185.2588463403474
 20
238.984026326288
 30
0.0
 10
185.1152387164263
 20
238.7038272568371
 30
0.0
 10
184.8276750596828
 20
238.1427493222025
 30
0.0
 10
184.5819759146611
 20
236.9148906413318
 30
0.0
 10
184.5058310259736
 20
235.5937379270662
 30
0.0
 10
184.6019372741141
 20
234.3257364207938
 30
0.0
 10
184.8450082273022
 20
233.1781843999995
 30
0.0
 10
185.117720340277
 20
232.6485400011545
 30
0.0
 10
185.2588463403473
 20
232.3744539158196
 30
0.0
  0
SPLINE
  5
276
330
1F
100
AcDbEntity
  8
0
  6
Continuous
 62
     7
370
    15
100
AcDbSpline
210
0.0
220
0.0
230
1.0
 70
     8
 71
     3
 72
    16
 73
    12
 74
     0
 42
0.000000001
 43
0.00000001
 40
0.0
 40
0.0
 40
0.0
 40
0.0
 40
0.1264962559498446
 40
0.2529036824100966
 40
0.3800899751862521
 40
0.5072171695547063
 40
0.6237421202764424
 40
0.7403118530593091
 40
0.8565151858428581
 40
0.9727830133942649
 40
1.0
 40
1.0
 40
1.0
 40
1.0
 10
185.2743222764464
 20
246.2075680282304
 30
0.0
 10
185.3900455504132
 20
245.8718709947492
 30
0.0
 10
185.6214108339702
 20
245.2007126643778
 30
0.0
 10
185.8791665249485
 20
244.1484069189295
 30
0.0
 10
186.0418634381754
 20
243.0935672459684
 30
0.0
 10
186.0926510578174
 20
242.093119616947
 30
0.0
 10
186.0307649278947
 20
241.1843502542083
 30
0.0
 10
185.8792963204612
 20
240.3821547048476
 30
0.0
 10
185.6440080277199
 20
239.68206974765
 30
0.0
 10
185.4217814265429
 20
239.2377894623253
 30
0.0
 10
185.28482498872
 20
239.0244867540263
 30
0.0
 10
185.2588463403474
 20
238.984026326288
 30
0.0
  0
SPLINE
  5
277
330
1F
100
AcDbEntity
  8
0
  6
Continuous
 62
     7
370
    15
100
AcDbSpline
210
0.0
220
0.0
230
1.0
 70
     8
 71
     3
 72
    13
 73
     9
 74
     0
 42
0.000000001
 43
0.00000001
 40
0.0
 40
0.0
 40
0.0
 40
0.0
 40
0.1720087238365724
 40
0.344433423290858
 40
0.5079344031875658
 40
0.6647334886924885
 40
0.8215865234924917
 40
1.0
 40
1.0
 40
1.0
 40
1.0
 10
185.2743222764464
 20
250.9147194867207
 30
0.0
 10
185.1290396264214
 20
250.9604294621945
 30
0.0
 10
184.8381229834933
 20
251.0519599554148
 30
0.0
 10
184.5869274619155
 20
250.6283663862077
 30
0.0
 10
184.5056936536102
 20
249.8374283980253
 30
0.0
 10
184.5973165033227
 20
248.7771024926017
 30
0.0
 10
184.8411334812602
 20
247.5160215893727
 30
0.0
 10
185.1238653367825
 20
246.6620255781245
 30
0.0
 10
185.2743222764464
 20
246.2075680282304
 30
0.0
  0
SPLINE
  5
278
330
1F
100
AcDbEntity
  8
0
  6
Continuous
 62
     7
370
    15
100
AcDbSpline
210
0.0
220
0.0
230
1.0
 70
     8
 71
     3
 72
    15
 73
    11
 74
     0
 42
0.000000001
 43
0.00000001
 40
0.0
 40
0.0
 40
0.0
 40
0.0
 40
0.1271849696374564
 40
0.2542806304146247
 40
0.3821616953698169
 40
0.5099833371586516
 40
0.6271446673522506
 40
0.7443510234677264
 40
0.8721298639779488
 40
1.0
 40
1.0
 40
1.0
 40
1.0
 10
185.2743222764464
 20
253.8970029528649
 30
0.0
 10
185.3900441650883
 20
253.6224719807044
 30
0.0
 10
185.6214066828488
 20
253.0736028111139
 30
0.0
 10
185.8791571894605
 20
252.3500557489805
 30
0.0
 10
186.0418746581414
 20
251.7346167693475
 30
0.0
 10
186.092600188873
 20
251.2660897897721
 30
0.0
 10
186.0309409578803
 20
250.9556106242087
 30
0.0
 10
185.8739097779453
 20
250.786220590325
 30
0.0
 10
185.6232062403688
 20
250.7564386699255
 30
0.0
 10
185.390644614662
 20
250.8619466550398
 30
0.0
 10
185.2743222764464
 20
250.9147194867207
 30
0.0
  0
SPLINE
  5
279
330
1F
100
AcDbEntity
  8
0
  6
Continuous
 62
     7
370
    15
100
AcDbSpline
210
0.0
220
0.0
230
1.0
 70
     8
 71
     3
 72
    11
 73
     7
 74
     0
 42
0.000000001
 43
0.00000001
 40
0.0
 40
0.0
 40
0.0
 40
0.0
 40
0.0162940010877543
 40
0.3297544312309938
 40
0.6433223952664622
 40
1.0
 40
1.0
 40
1.0
 40
1.0
 10
184.5382291043068
 20
255.6687613820451
 30
0.0
 10
184.5368806882499
 20
255.6721193784178
 30
0.0
 10
184.5095917389307
 20
255.740077774763
 30
0.0
 10
184.6087906182924
 20
255.4927667771378
 30
0.0
 10
184.8377932251466
 20
254.9244588321021
 30
0.0
 10
185.1227041803398
 20
254.2538655804028
 30
0.0
 10
185.2743222764464
 20
253.8970029528649
 30
0.0
  0
LINE
  5
27A
330
1F
100
AcDbEntity
  8
0
  6
Continuous
 62
     7
370
    15
100
AcDbLine
 10
185.2588463403
 20
232.3744539158
 30
0.0
 11
174.0339864175
 21
232.3744539158
 31
0.0
  0
LINE
  5
27B
330
1F
100
AcDbEntity
  8
0
  6
Continuous
 62
     7
370
    15
100
AcDbLine
 10
174.0339864175
 20
238.9840263263
 30
0.0
 11
174.0339864175
 21
232.3744539158
 31
0.0
  0
LINE
  5
27C
330
1F
100
AcDbEntity
  8
0
  6
Continuous
 62
     7
370
    15
100
AcDbLine
 10
185.2588463403
 20
238.9840263263
 30
0.0
 11
174.0339864175
 21
238.9840263263
 31
0.0
  0
LINE
  5
27D
330
1F
100
AcDbEntity
  8
0
  6
Continuous
 62
     7
370
    15
100
AcDbLine
 10
174.0339864175
 20
232.3744539158
 30
0.0
 11
172.5339864175
 21
233.6197155374
 31
0.0
  0
LINE
  5
27E
330
1F
100
AcDbEntity
  8
0
  6
Continuous
 62
     7
370
    15
100
AcDbLine
 10
172.5339864175
 20
233.6197155374
 30
0.0
 11
172.5339864175
 21
237.7387647047
 31
0.0
  0
LINE
  5
27F
330
1F
100
AcDbEntity
  8
0
  6
Continuous
 62
     7
370
    15
100
AcDbLine
 10
174.0339864175
 20
238.9840263263
 30
0.0
 11
172.5339864175
 21
237.7387647047
 31
0.0
  0
LINE
  5
280
330
1F
100
AcDbEntity
  8
0
  6
Continuous
 62
     7
370
    15
100
AcDbLine
 10
185.2588463403
 20
225.1088834763
 30
0.0
 11
174.0339864175
 21
225.1088834763
 31
0.0
  0
LINE
  5
281
330
1F
100
AcDbEntity
  8
0
  6
Continuous
 62
     7
370
    15
100
AcDbLine
 10
174.0339864175
 20
232.3744539158
 30
0.0
 11
174.0339864175
 21
225.1088834763
 31
0.0
  0
LINE
  5
282
330
1F
100
AcDbEntity
  8
0
  6
Continuous
 62
     7
370
    15
100
AcDbLine
 10
174.0339864175
 20
246.2075680282
 30
0.0
 11
174.0339864175
 21
238.9840263263
 31
0.0
  0
LINE
  5
283
330
1F
100
AcDbEntity
  8
0
  6
Continuous
 62
     7
370
    15
100
AcDbLine
 10
185.2743222764
 20
246.2075680282
 30
0.0
 11
174.0339864175
 21
246.2075680282
 31
0.0
  0
LINE
  5
284
330
1F
100
AcDbEntity
  8
0
  6
Continuous
 62
     7
370
    15
100
AcDbLine
 10
172.5339864175
 20
224.8197479775
 30
0.0
 11
174.0339864175
 21
225.1088834763
 31
0.0
  0
LINE
  5
285
330
1F
100
AcDbEntity
  8
0
  6
Continuous
 62
     7
370
    15
100
AcDbLine
 10
172.5339864175
 20
224.8197479775
 30
0.0
 11
172.5339864175
 21
233.6197155374
 31
0.0
  0
LINE
  5
286
330
1F
100
AcDbEntity
  8
0
  6
Continuous
 62
     7
370
    15
100
AcDbLine
 10
174.0339864175
 20
246.2075680282
 30
0.0
 11
172.5339864175
 21
246.5021123579
 31
0.0
  0
LINE
  5
287
330
1F
100
AcDbEntity
  8
0
  6
Continuous
 62
     7
370
    15
100
AcDbLine
 10
172.5339864175
 20
237.7387647047
 30
0.0
 11
172.5339864175
 21
246.5021123579
 31
0.0
  0
LINE
  5
288
330
1F
100
AcDbEntity
  8
0
  6
Continuous
 62
     7
370
    15
100
AcDbLine
 10
174.0339864175
 20
225.1088834763
 30
0.0
 11
174.0339864175
 21
220.3655316221
 31
0.0
  0
LINE
  5
289
330
1F
100
AcDbEntity
  8
0
  6
Continuous
 62
     7
370
    15
100
AcDbLine
 10
172.5339864175
 20
221.8655316221
 30
0.0
 11
172.5339864175
 21
224.8197479775
 31
0.0
  0
LINE
  5
28A
330
1F
100
AcDbEntity
  8
0
  6
Continuous
 62
     7
370
    15
100
AcDbLine
 10
174.0339864175
 20
250.9925872793
 30
0.0
 11
174.0339864175
 21
246.2075680282
 31
0.0
  0
LINE
  5
28B
330
1F
100
AcDbEntity
  8
0
  6
Continuous
 62
     7
370
    15
100
AcDbLine
 10
172.5339864175
 20
246.5021123579
 30
0.0
 11
172.5339864175
 21
249.4925872793
 31
0.0
  0
LINE
  5
28C
330
1F
100
AcDbEntity
  8
0
  6
Continuous
 62
     7
370
    15
100
AcDbLine
 10
174.0339864175
 20
220.3655316221
 30
0.0
 11
174.0339864175
 21
217.4257121896
 31
0.0
  0
LINE
  5
28D
330
1F
100
AcDbEntity
  8
0
  6
Continuous
 62
     7
370
    15
100
AcDbLine
 10
172.5339864175
 20
218.2620744676
 30
0.0
 11
174.0339864175
 21
217.4257121896
 31
0.0
  0
LINE
  5
28E
330
1F
100
AcDbEntity
  8
0
  6
Continuous
 62
     7
370
    15
100
AcDbLine
 10
172.5339864175
 20
218.2620744676
 30
0.0
 11
172.5339864175
 21
221.8655316221
 31
0.0
  0
LINE
  5
28F
330
1F
100
AcDbEntity
  8
0
  6
Continuous
 62
     7
370
    15
100
AcDbLine
 10
174.0339864175
 20
253.8970029529
 30
0.0
 11
174.0339864175
 21
250.9925872793
 31
0.0
  0
LINE
  5
290
330
1F
100
AcDbEntity
  8
0
  6
Continuous
 62
     7
370
    15
100
AcDbLine
 10
174.0339864175
 20
253.8970029529
 30
0.0
 11
172.5339864175
 21
253.0652667559
 31
0.0
  0
LINE
  5
291
330
1F
100
AcDbEntity
  8
0
  6
Continuous
 62
     7
370
    15
100
AcDbLine
 10
172.5339864175
 20
249.4925872793
 30
0.0
 11
172.5339864175
 21
253.0652667559
 31
0.0
  0
LINE
  5
292
330
1F
100
AcDbEntity
  8
0
  6
Continuous
 62
     7
370
    15
100
AcDbLine
 10
185.2588463403
 20
217.4257121896
 30
0.0
 11
174.0339864175
 21
217.4257121896
 31
0.0
  0
LINE
  5
293
330
1F
100
AcDbEntity
  8
0
  6
Continuous
 62
     7
370
    15
100
AcDbLine
 10
185.2743222764
 20
253.8970029529
 30
0.0
 11
174.0339864175
 21
253.8970029529
 31
0.0
  0
LINE
  5
294
330
1F
100
AcDbEntity
  8
0
  6
Continuous
 62
     7
370
    15
100
AcDbLine
 10
162.5339864175
 20
228.1792401211
 30
0.0
 11
162.5339864175
 21
243.1792401211
 31
0.0
  0
LINE
  5
295
330
1F
100
AcDbEntity
  8
0
  6
Continuous
 62
     7
370
    15
100
AcDbLine
 10
174.0339864175
 20
255.6788787803
 30
0.0
 11
174.0339864175
 21
253.8970029529
 31
0.0
  0
LINE
  5
296
330
1F
100
AcDbEntity
  8
0
  6
Continuous
 62
     7
370
    15
100
AcDbLine
 10
172.5339864175
 20
253.0652667559
 30
0.0
 11
172.5339864175
 21
254.1788787803
 31
0.0
  0
LINE
  5
297
330
1F
100
AcDbEntity
  8
0
  6
Continuous
 62
     7
370
    15
100
AcDbLine
 10
174.0339864175
 20
217.4257121896
 30
0.0
 11
174.0339864175
 21
215.6792401211
 31
0.0
  0
LINE
  5
298
330
1F
100
AcDbEntity
  8
0
  6
Continuous
 62
     7
370
    15
100
AcDbLine
 10
172.5339864175
 20
217.1792401211
 30
0.0
 11
172.5339864175
 21
218.2620744676
 31
0.0
  0
LINE
  5
299
330
1F
100
AcDbEntity
  8
0
  6
Continuous
 62
     7
370
    15
100
AcDbLine
 10
121.5339864175
 20
237.7387647047
 30
0.0
 11
121.5339864175
 21
233.6197155374
 31
0.0
  0
LINE
  5
29A
330
1F
100
AcDbEntity
  8
0
  6
Continuous
 62
     7
370
    15
100
AcDbLine
 10
121.5339864175
 20
233.6197155374
 30
0.0
 11
120.0339864175
 21
232.3744539158
 31
0.0
  0
LINE
  5
29B
330
1F
100
AcDbEntity
  8
0
  6
Continuous
 62
     7
370
    15
100
AcDbLine
 10
120.0339864175
 20
232.3744539158
 30
0.0
 11
120.0339864175
 21
238.9840263263
 31
0.0
  0
LINE
  5
29C
330
1F
100
AcDbEntity
  8
0
  6
Continuous
 62
     7
370
    15
100
AcDbLine
 10
121.5339864175
 20
237.7387647047
 30
0.0
 11
120.0339864175
 21
238.9840263263
 31
0.0
  0
SPLINE
  5
29D
330
1F
100
AcDbEntity
  8
0
  6
Continuous
 62
     7
370
    15
100
AcDbSpline
210
0.0
220
0.0
230
1.0
 70
     8
 71
     3
 72
    13
 73
     9
 74
     0
 42
0.000000001
 43
0.00000001
 40
0.0
 40
0.0
 40
0.0
 40
0.0
 40
0.1735274932638203
 40
0.347475984533309
 40
0.5125418655591883
 40
0.6710295171736013
 40
0.8297608130564136
 40
1.0
 40
1.0
 40
1.0
 40
1.0
 10
108.8091264947132
 20
232.3744539158195
 30
0.0
 10
108.9527341186343
 20
232.6546529852705
 30
0.0
 10
109.2402977753778
 20
233.2157309199051
 30
0.0
 10
109.4859969203995
 20
234.4435896007758
 30
0.0
 10
109.562141809087
 20
235.7647423150413
 30
0.0
 10
109.4660355609465
 20
237.0327438213138
 30
0.0
 10
109.2229646077584
 20
238.180295842108
 30
0.0
 10
108.9502524947836
 20
238.709940240953
 30
0.0
 10
108.8091264947133
 20
238.9840263262878
 30
0.0
  0
LINE
  5
29E
330
1F
100
AcDbEntity
  8
0
  6
Continuous
 62
     7
370
    15
100
AcDbLine
 10
108.8091264947
 20
238.9840263263
 30
0.0
 11
120.0339864175
 21
238.9840263263
 31
0.0
  0
LINE
  5
29F
330
1F
100
AcDbEntity
  8
0
  6
Continuous
 62
     7
370
    15
100
AcDbLine
 10
108.8091264947
 20
232.3744539158
 30
0.0
 11
120.0339864175
 21
232.3744539158
 31
0.0
  0
LINE
  5
2A0
330
1F
100
AcDbEntity
  8
0
  6
Continuous
 62
     7
370
    15
100
AcDbLine
 10
106.5339864175
 20
249.6792401211
 30
0.0
 11
106.5339864175
 21
221.6792401211
 31
0.0
  0
SPLINE
  5
2A1
330
1F
100
AcDbEntity
  8
0
  6
Continuous
 62
     7
370
    15
100
AcDbSpline
210
0.0
220
0.0
230
1.0
 70
     8
 71
     3
 72
    16
 73
    12
 74
     0
 42
0.000000001
 43
0.00000001
 40
0.0
 40
0.0
 40
0.0
 40
0.0
 40
0.1261972859071828
 40
0.2523057075281382
 40
0.3792002878030842
 40
0.5060336522260208
 40
0.622112044995841
 40
0.7382342111575548
 40
0.8536816913006915
 40
0.9691932593055956
 40
1.0
 40
1.0
 40
1.0
 40
1.0
 10
108.8091264947132
 20
225.1088834762615
 30
0.0
 10
108.6921958588275
 20
225.4449659774979
 30
0.0
 10
108.4584169260497
 20
226.1168943209067
 30
0.0
 10
108.1965763922578
 20
227.1716926668052
 30
0.0
 10
108.0296832934546
 20
228.230137484902
 30
0.0
 10
107.9750985718945
 20
229.2346608836007
 30
0.0
 10
108.0338558199479
 20
230.1476043150146
 30
0.0
 10
108.1826670025745
 20
230.9531138694134
 30
0.0
 10
108.4156676019619
 20
231.6561046377177
 30
0.0
 10
108.6393850094197
 20
232.1091771029138
 30
0.0
 10
108.7796039515133
 20
232.328315247035
 30
0.0
 10
108.8091264947132
 20
232.3744539158195
 30
0.0
  0
SPLINE
  5
2A2
330
1F
100
AcDbEntity
  8
0
  6
Continuous
 62
     7
370
    15
100
AcDbSpline
210
0.0
220
0.0
230
1.0
 70
     8
 71
     3
 72
    13
 73
     9
 74
     0
 42
0.000000001
 43
0.00000001
 40
0.0
 40
0.0
 40
0.0
 40
0.0
 40
0.1735322077433413
 40
0.3474803110675794
 40
0.5125459321891221
 40
0.6710335034925646
 40
0.829764888964078
 40
1.0
 40
1.0
 40
1.0
 40
1.0
 10
108.8091264947143
 20
220.4352100040747
 30
0.0
 10
108.9527377887981
 20
220.3941938787202
 30
0.0
 10
109.2403045626552
 20
220.3120633268054
 30
0.0
 10
109.48600113518
 20
220.7480148299001
 30
0.0
 10
109.5621414654899
 20
221.5479218803311
 30
0.0
 10
109.4660311774096
 20
222.6141029694849
 30
0.0
 10
109.2229585000213
 20
223.8517078648028
 30
0.0
 10
108.9502493122468
 20
224.6801680503206
 30
0.0
 10
108.8091264947132
 20
225.1088834762615
 30
0.0
  0
SPLINE
  5
2A3
330
1F
100
AcDbEntity
  8
0
  6
Continuous
 62
     7
370
    15
100
AcDbSpline
210
0.0
220
0.0
230
1.0
 70
     8
 71
     3
 72
    16
 73
    12
 74
     0
 42
0.000000001
 43
0.00000001
 40
0.0
 40
0.0
 40
0.0
 40
0.0
 40
0.1261954117148434
 40
0.2523019645586851
 40
0.3791968622309662
 40
0.5060305420539917
 40
0.6221090788357805
 40
0.7382313883705742
 40
0.8536787578253852
 40
0.9691902150884492
 40
1.0
 40
1.0
 40
1.0
 40
1.0
 10
108.8091264947135
 20
217.4257121896327
 30
0.0
 10
108.6921975115796
 20
217.7020305371678
 30
0.0
 10
108.4584218793466
 20
218.2544726662385
 30
0.0
 10
108.1965818525646
 20
218.9839623986206
 30
0.0
 10
108.0296862663283
 20
219.6055571623644
 30
0.0
 10
107.9750984351771
 20
220.0800411085734
 30
0.0
 10
108.0338531197091
 20
220.3950871612147
 30
0.0
 10
108.1826621296087
 20
220.5657834376087
 30
0.0
 10
108.415660860316
 20
220.5962150724658
 30
0.0
 10
108.6393794664254
 20
220.5262170675747
 30
0.0
 10
108.779601066465
 20
220.4510395744103
 30
0.0
 10
108.8091264947143
 20
220.4352100040747
 30
0.0
  0
SPLINE
  5
2A4
330
1F
100
AcDbEntity
  8
0
  6
Continuous
 62
     7
370
    15
100
AcDbSpline
210
0.0
220
0.0
230
1.0
 70
     8
 71
     3
 72
    11
 73
     7
 74
     0
 42
0.000000001
 43
0.00000001
 40
0.0
 40
0.0
 40
0.0
 40
0.0
 40
0.0257232708959918
 40
0.3424906400474299
 40
0.6597449780770526
 40
1.0
 40
1.0
 40
1.0
 40
1.0
 10
109.5278378405496
 20
215.694559800593
 30
0.0
 10
109.529868364352
 20
215.689501795709
 30
0.0
 10
109.5569036274611
 20
215.6221573535072
 30
0.0
 10
109.4551152383339
 20
215.8760107965621
 30
0.0
 10
109.2259286415612
 20
216.4441120074353
 30
0.0
 10
108.9512632819043
 20
217.090969441164
 30
0.0
 10
108.8091264947135
 20
217.4257121896327
 30
0.0
  0
SPLINE
  5
2A5
330
1F
100
AcDbEntity
  8
0
  6
Continuous
 62
     7
370
    15
100
AcDbSpline
210
0.0
220
0.0
230
1.0
 70
     8
 71
     3
 72
    10
 73
     6
 74
     0
 42
0.000000001
 43
0.00000001
 40
0.0
 40
0.0
 40
0.0
 40
0.0
 40
0.3441600559381873
 40
0.6891619660977539
 40
1.0
 40
1.0
 40
1.0
 40
1.0
 10
108.7936505586142
 20
253.8970029528649
 30
0.0
 10
108.9381308908841
 20
254.2366401749561
 30
0.0
 10
109.2274449705736
 20
254.9167454099996
 30
0.0
 10
109.4862343196901
 20
255.5602398197579
 30
0.0
 10
109.5157531567472
 20
255.6338659672055
 30
0.0
 10
109.5297437307538
 20
255.6687613820451
 30
0.0
  0
SPLINE
  5
2A6
330
1F
100
AcDbEntity
  8
0
  6
Continuous
 62
     7
370
    15
100
AcDbSpline
210
0.0
220
0.0
230
1.0
 70
     8
 71
     3
 72
    15
 73
    11
 74
     0
 42
0.000000001
 43
0.00000001
 40
0.0
 40
0.0
 40
0.0
 40
0.0
 40
0.1271869315281121
 40
0.2542845485533917
 40
0.3821652845417318
 40
0.5099865994422501
 40
0.6271477819411145
 40
0.7443539910132966
 40
0.8721313499224586
 40
1.0
 40
1.0
 40
1.0
 40
1.0
 10
108.7936505586142
 20
250.9147194867208
 30
0.0
 10
108.6779269716885
 20
250.8621660116816
 30
0.0
 10
108.4465610624335
 20
250.7570959662397
 30
0.0
 10
108.1888100712947
 20
250.7861334859772
 30
0.0
 10
108.0260951978241
 20
250.9706576128073
 30
0.0
 10
107.9753728818638
 20
251.3083537762236
 30
0.0
 10
108.0370347677641
 20
251.7785989477529
 30
0.0
 10
108.1940675732103
 20
252.3641459423643
 30
0.0
 10
108.4447704465807
 20
253.069264051963
 30
0.0
 10
108.6773295056628
 20
253.6210243080505
 30
0.0
 10
108.7936505586142
 20
253.8970029528649
 30
0.0
  0
SPLINE
  5
2A7
330
1F
100
AcDbEntity
  8
0
  6
Continuous
 62
     7
370
    15
100
AcDbSpline
210
0.0
220
0.0
230
1.0
 70
     8
 71
     3
 72
    13
 73
     9
 74
     0
 42
0.000000001
 43
0.00000001
 40
0.0
 40
0.0
 40
0.0
 40
0.0
 40
0.172008723836571
 40
0.3444334232908541
 40
0.5079344031875617
 40
0.6647334886924857
 40
0.8215865234924863
 40
1.0
 40
1.0
 40
1.0
 40
1.0
 10
108.7936505586141
 20
246.2075680282304
 30
0.0
 10
108.9389332086392
 20
246.6450063835157
 30
0.0
 10
109.2298498515673
 20
247.5209409688616
 30
0.0
 10
109.4810453731451
 20
248.827753579058
 30
0.0
 10
109.5622791814505
 20
249.9052589263766
 30
0.0
 10
109.470656331738
 20
250.6423503321466
 30
0.0
 10
109.2268393538005
 20
251.0475434269405
 30
0.0
 10
108.9441074982782
 20
250.9608524517966
 30
0.0
 10
108.7936505586142
 20
250.9147194867208
 30
0.0
  0
SPLINE
  5
2A8
330
1F
100
AcDbEntity
  8
0
  6
Continuous
 62
     7
370
    15
100
AcDbSpline
210
0.0
220
0.0
230
1.0
 70
     8
 71
     3
 72
    15
 73
    11
 74
     0
 42
0.000000001
 43
0.00000001
 40
0.0
 40
0.0
 40
0.0
 40
0.0
 40
0.1268822801305647
 40
0.2536752177405934
 40
0.3812607910574382
 40
0.508784813322681
 40
0.6254951534289754
 40
0.7422495045387848
 40
0.8710767568061337
 40
1.0
 40
1.0
 40
1.0
 40
1.0
 10
108.8091264947133
 20
238.9840263262878
 30
0.0
 10
108.6921971936369
 20
239.182993554628
 30
0.0
 10
108.4584209257428
 20
239.5807879111016
 30
0.0
 10
108.1965856737722
 20
240.3429891605412
 30
0.0
 10
108.0296718393307
 20
241.2182752662966
 30
0.0
 10
107.9751503271857
 20
242.1643404462328
 30
0.0
 10
108.0336776115838
 20
243.1406232201208
 30
0.0
 10
108.1887767293454
 20
244.1435639580658
 30
0.0
 10
108.4402430085313
 20
245.1811866261735
 30
0.0
 10
108.6758187976977
 20
245.865355961884
 30
0.0
 10
108.7936505586142
 20
246.2075680282304
 30
0.0
  0
LINE
  5
2A9
330
1F
100
AcDbEntity
  8
0
  6
Continuous
 62
     7
370
    15
100
AcDbLine
 10
108.7936505586
 20
246.2075680282
 30
0.0
 11
120.0339864175
 21
246.2075680282
 31
0.0
  0
LINE
  5
2AA
330
1F
100
AcDbEntity
  8
0
  6
Continuous
 62
     7
370
    15
100
AcDbLine
 10
120.0339864175
 20
238.9840263263
 30
0.0
 11
120.0339864175
 21
246.2075680282
 31
0.0
  0
LINE
  5
2AB
330
1F
100
AcDbEntity
  8
0
  6
Continuous
 62
     7
370
    15
100
AcDbLine
 10
120.0339864175
 20
225.1088834763
 30
0.0
 11
120.0339864175
 21
232.3744539158
 31
0.0
  0
LINE
  5
2AC
330
1F
100
AcDbEntity
  8
0
  6
Continuous
 62
     7
370
    15
100
AcDbLine
 10
108.8091264947
 20
225.1088834763
 30
0.0
 11
120.0339864175
 21
225.1088834763
 31
0.0
  0
LINE
  5
2AD
330
1F
100
AcDbEntity
  8
0
  6
Continuous
 62
     7
370
    15
100
AcDbLine
 10
120.0339864175
 20
246.2075680282
 30
0.0
 11
121.5339864175
 21
246.5021123579
 31
0.0
  0
LINE
  5
2AE
330
1F
100
AcDbEntity
  8
0
  6
Continuous
 62
     7
370
    15
100
AcDbLine
 10
121.5339864175
 20
246.5021123579
 30
0.0
 11
121.5339864175
 21
237.7387647047
 31
0.0
  0
LINE
  5
2AF
330
1F
100
AcDbEntity
  8
0
  6
Continuous
 62
     7
370
    15
100
AcDbLine
 10
121.5339864175
 20
224.8197479775
 30
0.0
 11
120.0339864175
 21
225.1088834763
 31
0.0
  0
LINE
  5
2B0
330
1F
100
AcDbEntity
  8
0
  6
Continuous
 62
     7
370
    15
100
AcDbLine
 10
121.5339864175
 20
233.6197155374
 30
0.0
 11
121.5339864175
 21
224.8197479775
 31
0.0
  0
LINE
  5
2B1
330
1F
100
AcDbEntity
  8
0
  6
Continuous
 62
     7
370
    15
100
AcDbLine
 10
120.0339864175
 20
220.3655316221
 30
0.0
 11
120.0339864175
 21
225.1088834763
 31
0.0
  0
LINE
  5
2B2
330
1F
100
AcDbEntity
  8
0
  6
Continuous
 62
     7
370
    15
100
AcDbLine
 10
121.5339864175
 20
224.8197479775
 30
0.0
 11
121.5339864175
 21
221.8655316221
 31
0.0
  0
LINE
  5
2B3
330
1F
100
AcDbEntity
  8
0
  6
Continuous
 62
     7
370
    15
100
AcDbLine
 10
120.0339864175
 20
246.2075680282
 30
0.0
 11
120.0339864175
 21
250.9925872793
 31
0.0
  0
LINE
  5
2B4
330
1F
100
AcDbEntity
  8
0
  6
Continuous
 62
     7
370
    15
100
AcDbLine
 10
121.5339864175
 20
249.4925872793
 30
0.0
 11
121.5339864175
 21
246.5021123579
 31
0.0
  0
LINE
  5
2B5
330
1F
100
AcDbEntity
  8
0
  6
Continuous
 62
     7
370
    15
100
AcDbLine
 10
121.5339864175
 20
218.2620744676
 30
0.0
 11
120.0339864175
 21
217.4257121896
 31
0.0
  0
LINE
  5
2B6
330
1F
100
AcDbEntity
  8
0
  6
Continuous
 62
     7
370
    15
100
AcDbLine
 10
120.0339864175
 20
217.4257121896
 30
0.0
 11
120.0339864175
 21
220.3655316221
 31
0.0
  0
LINE
  5
2B7
330
1F
100
AcDbEntity
  8
0
  6
Continuous
 62
     7
370
    15
100
AcDbLine
 10
121.5339864175
 20
221.8655316221
 30
0.0
 11
121.5339864175
 21
218.2620744676
 31
0.0
  0
LINE
  5
2B8
330
1F
100
AcDbEntity
  8
0
  6
Continuous
 62
     7
370
    15
100
AcDbLine
 10
120.0339864175
 20
250.9925872793
 30
0.0
 11
120.0339864175
 21
253.8970029529
 31
0.0
  0
LINE
  5
2B9
330
1F
100
AcDbEntity
  8
0
  6
Continuous
 62
     7
370
    15
100
AcDbLine
 10
120.0339864175
 20
253.8970029529
 30
0.0
 11
121.5339864175
 21
253.0652667559
 31
0.0
  0
LINE
  5
2BA
330
1F
100
AcDbEntity
  8
0
  6
Continuous
 62
     7
370
    15
100
AcDbLine
 10
121.5339864175
 20
253.0652667559
 30
0.0
 11
121.5339864175
 21
249.4925872793
 31
0.0
  0
LINE
  5
2BB
330
1F
100
AcDbEntity
  8
0
  6
Continuous
 62
     7
370
    15
100
AcDbLine
 10
108.8091264947
 20
217.4257121896
 30
0.0
 11
120.0339864175
 21
217.4257121896
 31
0.0
  0
LINE
  5
2BC
330
1F
100
AcDbEntity
  8
0
  6
Continuous
 62
     7
370
    15
100
AcDbLine
 10
108.7936505586
 20
253.8970029529
 30
0.0
 11
120.0339864175
 21
253.8970029529
 31
0.0
  0
LINE
  5
2BD
330
1F
100
AcDbEntity
  8
0
  6
Continuous
 62
     7
370
    15
100
AcDbLine
 10
131.5339864175
 20
243.1792401211
 30
0.0
 11
131.5339864175
 21
228.1792401211
 31
0.0
  0
LINE
  5
2BE
330
1F
100
AcDbEntity
  8
0
  6
Continuous
 62
     7
370
    15
100
AcDbLine
 10
120.0339864175
 20
253.8970029529
 30
0.0
 11
120.0339864175
 21
255.6788787803
 31
0.0
  0
LINE
  5
2BF
330
1F
100
AcDbEntity
  8
0
  6
Continuous
 62
     7
370
    15
100
AcDbLine
 10
121.5339864175
 20
254.1788787803
 30
0.0
 11
121.5339864175
 21
253.0652667559
 31
0.0
  0
LINE
  5
2C0
330
1F
100
AcDbEntity
  8
0
  6
Continuous
 62
     7
370
    15
100
AcDbLine
 10
120.0339864175
 20
215.6792401211
 30
0.0
 11
120.0339864175
 21
217.4257121896
 31
0.0
  0
LINE
  5
2C1
330
1F
100
AcDbEntity
  8
0
  6
Continuous
 62
     7
370
    15
100
AcDbLine
 10
121.5339864175
 20
218.2620744676
 30
0.0
 11
121.5339864175
 21
217.1792401211
 31
0.0
  0
LINE
  5
2C2
330
1F
100
AcDbEntity
  8
0
  6
Continuous
 62
     7
370
    15
100
AcDbLine
 10
142.0339864175
 20
242.0792401211
 30
0.0
 11
150.0339864175
 21
242.0792401211
 31
0.0
  0
LINE
  5
2C3
330
1F
100
AcDbEntity
  8
0
  6
Continuous
 62
     7
370
    15
100
AcDbLine
 10
150.0339864175
 20
242.0792401211
 30
0.0
 11
150.0339864175
 21
223.0792401211
 31
0.0
  0
LINE
  5
2C4
330
1F
100
AcDbEntity
  8
0
  6
Continuous
 62
     7
370
    15
100
AcDbLine
 10
150.0339864175
 20
223.0792401211
 30
0.0
 11
149.0839864175
 21
223.0792401211
 31
0.0
  0
LINE
  5
2C5
330
1F
100
AcDbEntity
  8
0
  6
Continuous
 62
     7
370
    15
100
AcDbLine
 10
149.0839864175
 20
223.0792401211
 30
0.0
 11
149.0839864175
 21
227.0792401211
 31
0.0
  0
LINE
  5
2C6
330
1F
100
AcDbEntity
  8
0
  6
Continuous
 62
     7
370
    15
100
AcDbLine
 10
149.0839864175
 20
227.0792401211
 30
0.0
 11
143.9839864175
 21
227.0792401211
 31
0.0
  0
LINE
  5
2C7
330
1F
100
AcDbEntity
  8
0
  6
Continuous
 62
     7
370
    15
100
AcDbLine
 10
143.9839864175
 20
227.0792401211
 30
0.0
 11
143.9839864175
 21
223.0792401211
 31
0.0
  0
LINE
  5
2C8
330
1F
100
AcDbEntity
  8
0
  6
Continuous
 62
     7
370
    15
100
AcDbLine
 10
143.9839864175
 20
223.0792401211
 30
0.0
 11
142.0339864175
 21
223.0792401211
 31
0.0
  0
LINE
  5
2C9
330
1F
100
AcDbEntity
  8
0
  6
Continuous
 62
     7
370
    15
100
AcDbLine
 10
149.0339864175
 20
242.8867905225
 30
0.0
 11
144.0339864175
 21
242.8867905225
 31
0.0
  0
LINE
  5
2CA
330
1F
100
AcDbEntity
  8
0
  6
Continuous
 62
     7
370
    15
100
AcDbLine
 10
149.0339864175
 20
242.5261035492
 30
0.0
 11
144.0339864175
 21
242.5261035492
 31
0.0
  0
LINE
  5
2CB
330
1F
100
AcDbEntity
  8
0
  6
Continuous
 62
     7
370
    15
100
AcDbLine
 10
149.0339864175
 20
242.8867905225
 30
0.0
 11
149.0339864175
 21
242.5261035492
 31
0.0
  0
LINE
  5
2CC
330
1F
100
AcDbEntity
  8
0
  6
Continuous
 62
     7
370
    15
100
AcDbLine
 10
144.0339864175
 20
242.8867905225
 30
0.0
 11
144.0339864175
 21
242.5261035492
 31
0.0
  0
LINE
  5
2CD
330
1F
100
AcDbEntity
  8
0
  6
Continuous
 62
     7
370
    15
100
AcDbLine
 10
149.0339864175
 20
242.0792401211
 30
0.0
 11
149.0339864175
 21
242.5261035492
 31
0.0
  0
LINE
  5
2CE
330
1F
100
AcDbEntity
  8
0
  6
Continuous
 62
     7
370
    15
100
AcDbLine
 10
144.0339864175
 20
242.0792401211
 30
0.0
 11
144.0339864175
 21
242.5261035492
 31
0.0
  0
SPLINE
  5
2CF
330
1F
100
AcDbEntity
  8
0
  6
Continuous
 62
     7
370
    15
100
AcDbSpline
210
0.0
220
0.0
230
1.0
 70
     8
 71
     3
 72
    16
 73
    12
 74
     0
 42
0.000000001
 43
0.00000001
 40
0.0
 40
0.0
 40
0.0
 40
0.0
 40
0.1155780249843679
 40
0.2311094065254514
 40
0.3476979228729357
 40
0.464281710584303
 40
0.5793768947770075
 40
0.6938229486599292
 40
0.8094170124927621
 40
0.9262314262823903
 40
1.0
 40
1.0
 40
1.0
 40
1.0
 10
149.0339864175304
 20
242.8460560942194
 30
0.0
 10
149.1712488468244
 20
242.8507460942419
 30
0.0
 10
149.4457183108655
 20
242.8601242015589
 30
0.0
 10
149.7901081574799
 20
242.8929414132749
 30
0.0
 10
150.0354743942266
 20
242.921741974014
 30
0.0
 10
150.1508404833796
 20
242.933427732988
 30
0.0
 10
150.1236718999447
 20
242.9198993383798
 30
0.0
 10
149.9598711218062
 20
242.8847040830979
 30
0.0
 10
149.6766460304981
 20
242.8404232042277
 30
0.0
 10
149.3482809425666
 20
242.8067879539149
 30
0.0
 10
149.1216918153414
 20
242.7986231613336
 30
0.0
 10
149.0339864175304
 20
242.7954628314884
 30
0.0
  0
LINE
  5
2D0
330
1F
100
AcDbEntity
  8
0
  6
Continuous
 62
     7
370
    15
100
AcDbLine
 10
151.3839864175
 20
242.9292401211
 30
0.0
 11
151.3839864175
 21
228.4292401211
 31
0.0
  0
LINE
  5
2D1
330
1F
100
AcDbEntity
  8
0
  6
Continuous
 62
     7
370
    15
100
AcDbLine
 10
149.0339864175
 20
244.4908722287
 30
0.0
 11
144.0339864175
 21
244.4908722287
 31
0.0
  0
LINE
  5
2D2
330
1F
100
AcDbEntity
  8
0
  6
Continuous
 62
     7
370
    15
100
AcDbLine
 10
149.0339864175
 20
244.2320973821
 30
0.0
 11
144.0339864175
 21
244.2320973821
 31
0.0
  0
LINE
  5
2D3
330
1F
100
AcDbEntity
  8
0
  6
Continuous
 62
     7
370
    15
100
AcDbLine
 10
149.0339864175
 20
244.4908722287
 30
0.0
 11
149.0339864175
 21
244.2320973821
 31
0.0
  0
LINE
  5
2D4
330
1F
100
AcDbEntity
  8
0
  6
Continuous
 62
     7
370
    15
100
AcDbLine
 10
144.0339864175
 20
244.4908722287
 30
0.0
 11
144.0339864175
 21
244.2320973821
 31
0.0
  0
LINE
  5
2D5
330
1F
100
AcDbEntity
  8
0
  6
Continuous
 62
     7
370
    15
100
AcDbLine
 10
149.0339864175
 20
243.1232371164
 30
0.0
 11
144.0339864175
 21
243.1232371164
 31
0.0
  0
LINE
  5
2D6
330
1F
100
AcDbEntity
  8
0
  6
Continuous
 62
     7
370
    15
100
AcDbLine
 10
149.0339864175
 20
243.1232371164
 30
0.0
 11
149.0339864175
 21
244.2320973821
 31
0.0
  0
LINE
  5
2D7
330
1F
100
AcDbEntity
  8
0
  6
Continuous
 62
     7
370
    15
100
AcDbLine
 10
144.0339864175
 20
243.1232371164
 30
0.0
 11
144.0339864175
 21
244.2320973821
 31
0.0
  0
LINE
  5
2D8
330
1F
100
AcDbEntity
  8
0
  6
Continuous
 62
     7
370
    15
100
AcDbLine
 10
149.0339864175
 20
243.1232371164
 30
0.0
 11
149.0339864175
 21
242.8867905225
 31
0.0
  0
LINE
  5
2D9
330
1F
100
AcDbEntity
  8
0
  6
Continuous
 62
     7
370
    15
100
AcDbLine
 10
144.0339864175
 20
243.1232371164
 30
0.0
 11
144.0339864175
 21
242.8867905225
 31
0.0
  0
LINE
  5
2DA
330
1F
100
AcDbEntity
  8
0
  6
Continuous
 62
     7
370
    15
100
AcDbLine
 10
149.0339864175
 20
226.9107150809
 30
0.0
 11
144.0339864175
 21
226.9107150809
 31
0.0
  0
LINE
  5
2DB
330
1F
100
AcDbEntity
  8
0
  6
Continuous
 62
     7
370
    15
100
AcDbLine
 10
149.0339864175
 20
226.9107150809
 30
0.0
 11
149.0339864175
 21
227.0792401211
 31
0.0
  0
LINE
  5
2DC
330
1F
100
AcDbEntity
  8
0
  6
Continuous
 62
     7
370
    15
100
AcDbLine
 10
144.0339864175
 20
226.9107150809
 30
0.0
 11
144.0339864175
 21
227.0792401211
 31
0.0
  0
LINE
  5
2DD
330
1F
100
AcDbEntity
  8
0
  6
Continuous
 62
     7
370
    15
100
AcDbLine
 10
149.0339864175
 20
226.6695938213
 30
0.0
 11
144.0339864175
 21
226.6695938213
 31
0.0
  0
LINE
  5
2DE
330
1F
100
AcDbEntity
  8
0
  6
Continuous
 62
     7
370
    15
100
AcDbLine
 10
149.0339864175
 20
226.9107150809
 30
0.0
 11
149.0339864175
 21
226.6695938213
 31
0.0
  0
LINE
  5
2DF
330
1F
100
AcDbEntity
  8
0
  6
Continuous
 62
     7
370
    15
100
AcDbLine
 10
144.0339864175
 20
226.9107150809
 30
0.0
 11
144.0339864175
 21
226.6695938213
 31
0.0
  0
LINE
  5
2E0
330
1F
100
AcDbEntity
  8
0
  6
Continuous
 62
     7
370
    15
100
AcDbLine
 10
149.0339864175
 20
245.3552281269
 30
0.0
 11
144.0339864175
 21
245.3552281269
 31
0.0
  0
LINE
  5
2E1
330
1F
100
AcDbEntity
  8
0
  6
Continuous
 62
     7
370
    15
100
AcDbLine
 10
149.0339864175
 20
244.4908722287
 30
0.0
 11
149.0339864175
 21
245.3552281269
 31
0.0
  0
LINE
  5
2E2
330
1F
100
AcDbEntity
  8
0
  6
Continuous
 62
     7
370
    15
100
AcDbLine
 10
144.0339864175
 20
244.4908722287
 30
0.0
 11
144.0339864175
 21
245.3552281269
 31
0.0
  0
LINE
  5
2E3
330
1F
100
AcDbEntity
  8
0
  6
Continuous
 62
     7
370
    15
100
AcDbLine
 10
149.0339864175
 20
245.4944557687
 30
0.0
 11
144.0339864175
 21
245.4944557687
 31
0.0
  0
LINE
  5
2E4
330
1F
100
AcDbEntity
  8
0
  6
Continuous
 62
     7
370
    15
100
AcDbLine
 10
149.0339864175
 20
245.4944557687
 30
0.0
 11
149.0339864175
 21
245.3552281269
 31
0.0
  0
LINE
  5
2E5
330
1F
100
AcDbEntity
  8
0
  6
Continuous
 62
     7
370
    15
100
AcDbLine
 10
144.0339864175
 20
245.4944557687
 30
0.0
 11
144.0339864175
 21
245.3552281269
 31
0.0
  0
LINE
  5
2E6
330
1F
100
AcDbEntity
  8
0
  6
Continuous
 62
     7
370
    15
100
AcDbLine
 10
149.0339864175
 20
225.8863383335
 30
0.0
 11
144.0339864175
 21
225.8863383335
 31
0.0
  0
LINE
  5
2E7
330
1F
100
AcDbEntity
  8
0
  6
Continuous
 62
     7
370
    15
100
AcDbLine
 10
149.0339864175
 20
225.8863383335
 30
0.0
 11
149.0339864175
 21
226.6695938213
 31
0.0
  0
LINE
  5
2E8
330
1F
100
AcDbEntity
  8
0
  6
Continuous
 62
     7
370
    15
100
AcDbLine
 10
144.0339864175
 20
225.8863383335
 30
0.0
 11
144.0339864175
 21
226.6695938213
 31
0.0
  0
LINE
  5
2E9
330
1F
100
AcDbEntity
  8
0
  6
Continuous
 62
     7
370
    15
100
AcDbLine
 10
149.0339864175
 20
225.7668007095
 30
0.0
 11
144.0339864175
 21
225.7668007095
 31
0.0
  0
LINE
  5
2EA
330
1F
100
AcDbEntity
  8
0
  6
Continuous
 62
     7
370
    15
100
AcDbLine
 10
149.0339864175
 20
225.8863383335
 30
0.0
 11
149.0339864175
 21
225.7668007095
 31
0.0
  0
LINE
  5
2EB
330
1F
100
AcDbEntity
  8
0
  6
Continuous
 62
     7
370
    15
100
AcDbLine
 10
144.0339864175
 20
225.8863383335
 30
0.0
 11
144.0339864175
 21
225.7668007095
 31
0.0
  0
ELLIPSE
  5
2EC
330
1F
100
AcDbEntity
  8
0
  6
Continuous
 62
     7
370
    15
100
AcDbEllipse
 10
148.8839864175
 20
246.3926764559
 30
0.0
 11
0.0
 21
2.868600881698882
 31
0.0
210
0.0
220
0.0
230
1.0
 40
0.435752498
 41
1.7721542475852
 42
1.889274396319319
  0
SPLINE
  5
2ED
330
1F
100
AcDbEntity
  8
0
  6
Continuous
 62
     7
370
    15
100
AcDbSpline
210
0.0
220
0.0
230
1.0
 70
     8
 71
     3
 72
     9
 73
     5
 74
     0
 42
0.000000001
 43
0.00000001
 40
0.0
 40
0.0
 40
0.0
 40
0.0
 40
0.8312212001137957
 40
1.0
 40
1.0
 40
1.0
 40
1.0
 10
147.6592415461388
 20
245.8189562795128
 30
0.0
 10
147.6429594657964
 20
245.8237788426615
 30
0.0
 10
147.6233713220626
 20
245.8295806234006
 30
0.0
 10
147.6540616666169
 20
245.8292109720565
 30
0.0
 10
147.6592415461388
 20
245.8291485827462
 30
0.0
  0
ELLIPSE
  5
2EE
330
1F
100
AcDbEntity
  8
0
  6
Continuous
 62
     7
370
    15
100
AcDbEllipse
 10
148.8839864175
 20
246.3926764559
 30
0.0
 11
0.0
 21
2.817639365532415
 31
0.0
210
0.0
220
0.0
230
1.0
 40
0.4436337791
 41
1.772154247585292
 42
1.895243478877155
  0
LINE
  5
2EF
330
1F
100
AcDbEntity
  8
0
  6
Continuous
 62
     7
370
    15
100
AcDbLine
 10
147.6592415461
 20
245.8189562795
 30
0.0
 11
144.0339864175
 21
245.8189562795
 31
0.0
  0
LINE
  5
2F0
330
1F
100
AcDbEntity
  8
0
  6
Continuous
 62
     7
370
    15
100
AcDbLine
 10
144.0339864175
 20
245.4944557687
 30
0.0
 11
144.0339864175
 21
245.8189562795
 31
0.0
  0
LINE
  5
2F1
330
1F
100
AcDbEntity
  8
0
  6
Continuous
 62
     7
370
    15
100
AcDbLine
 10
149.0339864175
 20
225.5293316594
 30
0.0
 11
144.0339864175
 21
225.5293316594
 31
0.0
  0
LINE
  5
2F2
330
1F
100
AcDbEntity
  8
0
  6
Continuous
 62
     7
370
    15
100
AcDbLine
 10
149.0339864175
 20
225.5293316594
 30
0.0
 11
149.0339864175
 21
225.7668007095
 31
0.0
  0
LINE
  5
2F3
330
1F
100
AcDbEntity
  8
0
  6
Continuous
 62
     7
370
    15
100
AcDbLine
 10
144.0339864175
 20
225.5293316594
 30
0.0
 11
144.0339864175
 21
225.7668007095
 31
0.0
  0
LINE
  5
2F4
330
1F
100
AcDbEntity
  8
0
  6
Continuous
 62
     7
370
    15
100
AcDbLine
 10
147.6592415461
 20
245.8291485827
 30
0.0
 11
144.0339864175
 21
245.8291485827
 31
0.0
  0
LINE
  5
2F5
330
1F
100
AcDbEntity
  8
0
  6
Continuous
 62
     7
370
    15
100
AcDbLine
 10
144.0339864175
 20
245.8189562795
 30
0.0
 11
144.0339864175
 21
245.8292215828
 31
0.0
  0
LINE
  5
2F6
330
1F
100
AcDbEntity
  8
0
  6
Continuous
 62
     7
370
    15
100
AcDbLine
 10
149.0339864175
 20
245.5916795326
 30
0.0
 11
147.6855595818
 21
245.5916795326
 31
0.0
  0
LINE
  5
2F7
330
1F
100
AcDbEntity
  8
0
  6
Continuous
 62
     7
370
    15
100
AcDbLine
 10
149.0339864175
 20
245.4944557687
 30
0.0
 11
149.0339864175
 21
245.5916795326
 31
0.0
  0
LINE
  5
2F8
330
1F
100
AcDbEntity
  8
0
  6
Continuous
 62
     7
370
    15
100
AcDbLine
 10
166.0339864175
 20
187.3311633118
 30
0.0
 11
166.0339864175
 21
175.0792401211
 31
0.0
  0
LINE
  5
2F9
330
1F
100
AcDbEntity
  8
0
  6
Continuous
 62
     7
370
    15
100
AcDbLine
 10
166.0339864175
 20
175.0792401211
 30
0.0
 11
153.5339864175
 21
175.0792401211
 31
0.0
  0
LINE
  5
2FA
330
1F
100
AcDbEntity
  8
0
  6
Continuous
 62
     7
370
    15
100
AcDbLine
 10
153.5339864175
 20
175.0792401211
 30
0.0
 11
153.5339864175
 21
175.5792401211
 31
0.0
  0
LINE
  5
2FB
330
1F
100
AcDbEntity
  8
0
  6
Continuous
 62
     7
370
    15
100
AcDbLine
 10
153.5339864175
 20
175.5792401211
 30
0.0
 11
140.5339864175
 21
175.5792401211
 31
0.0
  0
LINE
  5
2FC
330
1F
100
AcDbEntity
  8
0
  6
Continuous
 62
     7
370
    15
100
AcDbLine
 10
140.5339864175
 20
175.5792401211
 30
0.0
 11
140.5339864175
 21
175.0792401211
 31
0.0
  0
LINE
  5
2FD
330
1F
100
AcDbEntity
  8
0
  6
Continuous
 62
     7
370
    15
100
AcDbLine
 10
140.5339864175
 20
175.0792401211
 30
0.0
 11
128.0339864175
 21
175.0792401211
 31
0.0
  0
LINE
  5
2FE
330
1F
100
AcDbEntity
  8
0
  6
Continuous
 62
     7
370
    15
100
AcDbLine
 10
128.0339864175
 20
175.0792401211
 30
0.0
 11
128.0339864175
 21
187.3311633118
 31
0.0
  0
ARC
  5
2FF
330
1F
100
AcDbEntity
  8
0
  6
Continuous
 62
     7
370
    15
100
AcDbCircle
 10
147.0339864175
 20
203.5792401211
 30
0.0
 40
25.00000000000004
100
AcDbArc
 50
117.3871075027
 51
220.5358021113
  0
LINE
  5
300
330
1F
100
AcDbEntity
  8
0
  6
Continuous
 62
     7
370
    15
100
AcDbLine
 10
135.5339864175
 20
225.7772130015
 30
0.0
 11
135.5339864175
 21
242.0792401211
 31
0.0
  0
LINE
  5
301
330
1F
100
AcDbEntity
  8
0
  6
Continuous
 62
     7
370
    15
100
AcDbLine
 10
135.5339864175
 20
242.0792401211
 30
0.0
 11
142.0339864175
 21
242.0792401211
 31
0.0
  0
LINE
  5
302
330
1F
100
AcDbEntity
  8
0
  6
Continuous
 62
     7
370
    15
100
AcDbLine
 10
142.0339864175
 20
242.0792401211
 30
0.0
 11
142.0339864175
 21
222.9441568521
 31
0.0
  0
ARC
  5
303
330
1F
100
AcDbEntity
  8
0
  6
Continuous
 62
     7
370
    15
100
AcDbCircle
 10
147.0339864175
 20
203.5792401211
 30
0.0
 40
19.99999999999999
100
AcDbArc
 50
104.4775121859
 51
137.731101004
  0
LINE
  5
304
330
1F
100
AcDbEntity
  8
0
  6
Continuous
 62
     7
370
    15
100
AcDbLine
 10
132.2340602729
 20
217.0314587527
 30
0.0
 11
133.0770089272
 21
216.5447821203
 31
0.0
  0
ARC
  5
305
330
1F
100
AcDbEntity
  8
0
  6
Continuous
 62
     7
370
    15
100
AcDbCircle
 10
147.0339864175
 20
203.5792401211
 30
0.0
 40
19.05000000000001
100
AcDbArc
 50
137.1089932563
 51
162.8910067437
  0
LINE
  5
306
330
1F
100
AcDbEntity
  8
0
  6
Continuous
 62
     7
370
    15
100
AcDbLine
 10
128.8270089272
 20
209.1835661881
 30
0.0
 11
127.9840602729
 21
209.6702428206
 31
0.0
  0
ARC
  5
307
330
1F
100
AcDbEntity
  8
0
  6
Continuous
 62
     7
370
    15
100
AcDbCircle
 10
147.0339864175
 20
203.5792401211
 30
0.0
 40
20.0
100
AcDbArc
 50
162.268898996
 51
257.731101004
  0
LINE
  5
308
330
1F
100
AcDbEntity
  8
0
  6
Continuous
 62
     7
370
    15
100
AcDbLine
 10
142.7839864175
 20
184.0360187899
 30
0.0
 11
142.7839864175
 21
185.0093720547
 31
0.0
  0
ARC
  5
309
330
1F
100
AcDbEntity
  8
0
  6
Continuous
 62
     7
370
    15
100
AcDbCircle
 10
147.0339864175
 20
203.5792401211
 30
0.0
 40
19.05000000000002
100
AcDbArc
 50
257.1089932563
 51
282.8910067437
  0
LINE
  5
30A
330
1F
100
AcDbEntity
  8
0
  6
Continuous
 62
     7
370
    15
100
AcDbLine
 10
151.2839864175
 20
185.0093720547
 30
0.0
 11
151.2839864175
 21
184.0360187899
 31
0.0
  0
ARC
  5
30B
330
1F
100
AcDbEntity
  8
0
  6
Continuous
 62
     7
370
    15
100
AcDbCircle
 10
147.0339864175
 20
203.5792401211
 30
0.0
 40
20.00000000000002
100
AcDbArc
 50
282.268898996
 51
17.731101004
  0
LINE
  5
30C
330
1F
100
AcDbEntity
  8
0
  6
Continuous
 62
     7
370
    15
100
AcDbLine
 10
166.0839125621
 20
209.6702428206
 30
0.0
 11
165.2409639079
 21
209.1835661881
 31
0.0
  0
ARC
  5
30D
330
1F
100
AcDbEntity
  8
0
  6
Continuous
 62
     7
370
    15
100
AcDbCircle
 10
147.0339864175
 20
203.5792401211
 30
0.0
 40
19.05000000000001
100
AcDbArc
 50
17.1089932563
 51
42.8910067437
  0
LINE
  5
30E
330
1F
100
AcDbEntity
  8
0
  6
Continuous
 62
     7
370
    15
100
AcDbLine
 10
160.9909639079
 20
216.5447821203
 30
0.0
 11
161.8339125621
 21
217.0314587527
 31
0.0
  0
ARC
  5
30F
330
1F
100
AcDbEntity
  8
0
  6
Continuous
 62
     7
370
    15
100
AcDbCircle
 10
147.0339864175
 20
203.5792401211
 30
0.0
 40
20.0
100
AcDbArc
 50
42.268898996
 51
75.5224878141
  0
LINE
  5
310
330
1F
100
AcDbEntity
  8
0
  6
Continuous
 62
     7
370
    15
100
AcDbLine
 10
152.0339864175
 20
222.9441568521
 30
0.0
 11
152.0339864175
 21
242.0792401211
 31
0.0
  0
LINE
  5
311
330
1F
100
AcDbEntity
  8
0
  6
Continuous
 62
     7
370
    15
100
AcDbLine
 10
152.0339864175
 20
242.0792401211
 30
0.0
 11
158.5339864175
 21
242.0792401211
 31
0.0
  0
LINE
  5
312
330
1F
100
AcDbEntity
  8
0
  6
Continuous
 62
     7
370
    15
100
AcDbLine
 10
158.5339864175
 20
242.0792401211
 30
0.0
 11
158.5339864175
 21
225.7772130015
 31
0.0
  0
ARC
  5
313
330
1F
100
AcDbEntity
  8
0
  6
Continuous
 62
     7
370
    15
100
AcDbCircle
 10
147.0339864175
 20
203.5792401211
 30
0.0
 40
25.00000000000003
100
AcDbArc
 50
319.4641978887
 51
62.6128924973
  0
DIMENSION
  5
314
330
1F
100
AcDbEntity
  8
DIM
 62
     7
100
AcDbDimension
  2
_D_8
 10
187.5339864175
 20
264.0351577935
 30
0.0
 11
147.0339864175
 21
264.0351577935
 31
0.0
 70
   160
  1
<>
 71
     2
 42
-1.0
  3
SLDDIMSTYLE0
100
AcDbAlignedDimension
 13
106.5339864175
 23
249.6792401211
 33
0.0
 14
187.5339864175
 24
249.6792401211
 34
0.0
100
AcDbRotatedDimension
  0
DIMENSION
  5
31E
330
1F
100
AcDbEntity
  8
DIM
 62
     7
100
AcDbDimension
  2
_D_9
 10
208.4265662563
 20
175.0792401211
 30
0.0
 11
208.4265662563
 21
215.3790594507
 31
0.0
 70
   160
  1
<>
 71
     2
 42
-1.0
  3
SLDDIMSTYLE0
100
AcDbAlignedDimension
 13
184.5341670879
 23
255.6788787803
 33
0.0
 14
166.0339864175
 24
175.0792401211
 34
0.0
 50
90.0
100
AcDbRotatedDimension
  0
DIMENSION
  5
328
330
1F
100
AcDbEntity
  8
DIM
 62
     7
100
AcDbDimension
  2
_D_10
 10
199.5339864175
 20
175.0792401211
 30
0.0
 11
199.5339864175
 21
208.5792401211
 31
0.0
 70
   160
  1
<>
 71
     2
 42
-1.0
  3
SLDDIMSTYLE0
100
AcDbAlignedDimension
 13
158.5339864175
 23
242.0792401211
 33
0.0
 14
166.0339864175
 24
175.0792401211
 34
0.0
 50
90.0
100
AcDbRotatedDimension
  0
DIMENSION
  5
332
330
1F
100
AcDbEntity
  8
DIM
 62
     7
100
AcDbDimension
  2
_D_11
 10
190.9339864175
 20
175.0792401211
 30
0.0
 11
190.9339864175
 21
189.3292401211
 31
0.0
 70
   160
  1
<>
 71
     2
 42
-1.0
  3
SLDDIMSTYLE0
100
AcDbAlignedDimension
 13
147.0339864175
 23
203.5792401211
 33
0.0
 14
166.0339864175
 24
175.0792401211
 34
0.0
 50
90.0
100
AcDbRotatedDimension
  0
DIMENSION
  5
33C
330
1F
100
AcDbEntity
  8
DIM
 62
     7
100
AcDbDimension
  2
_D_12
 10
163.6930559183
 20
194.3392237051
 30
0.0
 11
88.2417438291
 21
234.0237190484
 31
0.0
 70
   163
  1
<>
 71
     1
 42
-1.0
  3
SLDDIMSTYLE2
100
AcDbDiametricDimension
 15
130.3749169167
 25
212.819256537
 35
0.0
 40
0.0
  0
DIMENSION
  5
346
330
1F
100
AcDbEntity
  8
DIM
 62
     7
100
AcDbDimension
  2
_D_13
 10
166.0339864175
 20
164.5903453504
 30
0.0
 11
147.0339864175
 21
164.5903453504
 31
0.0
 70
   160
  1
<>
 71
     2
 42
-1.0
  3
SLDDIMSTYLE0
100
AcDbAlignedDimension
 13
128.0339864175
 23
175.0792401211
 33
0.0
 14
166.0339864175
 24
175.0792401211
 34
0.0
100
AcDbRotatedDimension
  0
INSERT
  5
35B
330
1F
100
AcDbEntity
  8
DIM
 62
     7
100
AcDbBlockReference
  2
SW_CENTERMARKSYMBOL_9
 10
147.0339864175
 20
203.5792401211
 30
0.0
  0
LINE
  5
35C
330
1F
100
AcDbEntity
  8
0
  6
Continuous
 62
     7
370
    15
100
AcDbLine
 10
355.1778676223
 20
228.6393422672
 30
0.0
 11
361.0099146802
 21
225.2725731644
 31
0.0
  0
LINE
  5
35D
330
1F
100
AcDbEntity
  8
0
  6
Continuous
 62
     7
370
    15
100
AcDbLine
 10
372.4952830288
 20
245.1656137991
 30
0.0
 11
366.6629051944
 21
248.5325738551
 31
0.0
  0
LINE
  5
35E
330
1F
100
AcDbEntity
  8
0
  6
Continuous
 62
     7
370
    15
100
AcDbLine
 10
359.1626823213
 20
242.0502131646
 30
0.0
 11
358.3673164828
 21
241.590908964
 31
0.0
  0
LINE
  5
35F
330
1F
100
AcDbEntity
  8
0
  6
Continuous
 62
     7
370
    15
100
AcDbLine
 10
357.0417067519
 20
239.2946367533
 30
0.0
 11
357.0417067519
 21
238.3761776275
 31
0.0
  0
LINE
  5
360
330
1F
100
AcDbEntity
  8
0
  6
Continuous
 62
     7
370
    15
100
AcDbLine
 10
354.5564253777
 20
230.9313358125
 30
0.0
 11
354.5564253777
 21
230.0128766867
 31
0.0
  0
LINE
  5
361
330
1F
100
AcDbEntity
  8
0
  6
Continuous
 62
     7
370
    15
100
AcDbLine
 10
365.1626823213
 20
248.3838506373
 30
0.0
 11
364.3673164828
 21
247.9245464367
 31
0.0
  0
LINE
  5
362
330
1F
100
AcDbEntity
  8
0
  6
Continuous
 62
     7
370
    15
100
AcDbLine
 10
378.2334300454
 20
245.9102804593
 30
0.0
 11
372.6627697027
 21
249.1261542233
 31
0.0
  0
LINE
  5
363
330
1F
100
AcDbEntity
  8
0
  6
Continuous
 62
     7
370
    15
100
AcDbLine
 10
357.6631489965
 20
223.1454861233
 30
0.0
 11
363.2348053841
 21
219.9290373548
 31
0.0
  0
LINE
  5
364
330
1F
100
AcDbEntity
  8
0
  6
Continuous
 62
     7
370
    15
100
AcDbLine
 10
356.2519596722
 20
234.7851726567
 30
0.0
 11
356.394083128
 21
234.7031265321
 31
0.0
  0
LINE
  5
365
330
1F
100
AcDbEntity
  8
0
  6
Continuous
 62
     7
370
    15
100
AcDbLine
 10
362.0189167648
 20
244.4460083783
 30
0.0
 11
361.8765025433
 21
244.5282223585
 31
0.0
  0
LINE
  5
366
330
1F
100
AcDbEntity
  8
0
  6
Continuous
 62
     7
370
    15
100
AcDbLine
 10
371.1626823524
 20
248.9774444405
 30
0.0
 11
370.3673165139
 21
248.5181402399
 31
0.0
  0
LINE
  5
367
330
1F
100
AcDbEntity
  8
0
  6
Continuous
 62
     7
370
    15
100
AcDbLine
 10
357.0417067519
 20
225.4374796685
 30
0.0
 11
357.0417067519
 21
224.5190205427
 31
0.0
  0
LINE
  5
368
330
1F
100
AcDbEntity
  8
0
  6
Continuous
 62
     7
370
    15
100
AcDbLine
 10
380.981282371
 20
240.2648453315
 30
0.0
 11
380.1294951429
 21
240.7565716316
 31
0.0
  0
LINE
  5
369
330
1F
100
AcDbEntity
  8
0
  6
Continuous
 62
     7
370
    15
100
AcDbLine
 10
368.6327039066
 20
220.8704382115
 30
0.0
 11
369.4955268309
 21
220.3723411395
 31
0.0
  0
LINE
  5
36A
330
1F
100
AcDbEntity
  8
0
  6
Continuous
 62
     7
370
    15
100
AcDbLine
 10
339.590447946
 20
268.2183991836
 30
0.0
 11
338.4542645408
 21
268.8743039021
 31
0.0
  0
LINE
  5
36B
330
1F
100
AcDbEntity
  8
0
  6
Continuous
 62
     7
370
    15
100
AcDbLine
 10
354.5618542821
 20
236.7567519682
 30
0.0
 11
355.186455307
 21
236.3961774716
 31
0.0
  0
LINE
  5
36C
330
1F
100
AcDbEntity
  8
0
  6
Continuous
 62
     7
370
    15
100
AcDbLine
 10
359.9485682712
 20
244.6452928857
 30
0.0
 11
359.3239672463
 21
245.0058673824
 31
0.0
  0
LINE
  5
36D
330
1F
100
AcDbEntity
  8
0
  6
Continuous
 62
     7
370
    15
100
AcDbLine
 10
352.5705190194
 20
211.3031438727
 30
0.0
 11
352.5705190194
 21
257.8459701502
 31
0.0
  0
LWPOLYLINE
  5
36E
330
1F
100
AcDbEntity
  8
0
  6
Continuous
 62
     7
370
    15
100
AcDbPolyline
 90
       50
 70
   128
 43
0.0
 10
364.8978620525
 20
227.7167288722
 10
364.95881809
 20
228.8482957185
 10
365.1406853059
 20
230.0316606113
 10
365.4404774455
 20
231.2473927317
 10
365.8532719303
 20
232.4755297919
 10
366.3722906861
 20
233.6959058154
 10
366.9890114395
 20
234.8884822616
 10
367.6933076526
 20
236.0336770581
 10
368.4736148011
 20
237.1126861382
 10
369.3171202633
 20
238.1077922025
 10
370.2099737026
 20
239.002655637
 10
371.1375144904
 20
239.7825828088
 10
372.0845124326
 20
240.4347673353
 10
373.0354178491
 20
240.9485003646
 10
373.9746168993
 20
241.3153464147
 10
374.8866879607
 20
241.5292818834
 10
375.7566548517
 20
241.5867939563
 10
376.57023274
 20
241.4869382868
 10
377.3140626993
 20
241.2313545022
 10
377.975931062
 20
240.8242392812
 10
378.5449699681
 20
240.2722774444
 10
379.0118358144
 20
239.5845321899
 10
379.3688626766
 20
238.7722962758
 10
379.6101881835
 20
237.8489065935
 10
379.7318497769
 20
236.8295251758
 10
379.7318497769
 20
235.7308902375
 10
379.6101881835
 20
234.571041334
 10
379.3688626766
 20
233.3690231521
 10
379.0118358144
 20
232.1445727972
 10
378.5449699681
 20
230.9177957103
 10
377.975931062
 20
229.7088355371
 10
377.3140626993
 20
228.5375433704
 10
376.57023274
 20
227.4231517951
 10
375.7566548517
 20
226.38395909
 10
374.8866879607
 20
225.4370287707
 10
373.9746168992
 20
224.5979094069
 10
373.0354178491
 20
223.8803793152
 10
372.0845124326
 20
223.2962203199
 10
371.1375144904
 20
222.8550242957
 10
370.2099737026
 20
222.564035669
 10
369.3171202633
 20
222.428032465
 10
368.4736148011
 20
222.4492478525
 10
367.6933076526
 20
222.6273334756
 10
366.9890114395
 20
222.9593651732
 10
366.3722906861
 20
223.4398909939
 10
365.8532719303
 20
224.0610207172
 10
365.4404774455
 20
224.8125554101
 10
365.1406853059
 20
225.6821548937
 10
364.95881809
 20
226.6555403686
 10
364.8978620525
 20
227.7167288722
  0
SPLINE
  5
36F
330
1F
100
AcDbEntity
  8
0
  6
Continuous
 62
     7
370
    15
100
AcDbSpline
210
0.0
220
0.0
230
1.0
 70
     8
 71
     3
 72
    12
 73
     8
 74
     0
 42
0.000000001
 43
0.00000001
 40
0.0
 40
0.0
 40
0.0
 40
0.0
 40
0.2523425790010242
 40
0.5058462538030646
 40
0.737997042637073
 40
0.9690912189386458
 40
1.0
 40
1.0
 40
1.0
 40
1.0
 10
365.5101298751434
 20
220.1277361274558
 30
0.0
 10
365.9903845303597
 20
220.3189502477822
 30
0.0
 10
366.9531036211068
 20
220.7022583158233
 30
0.0
 10
368.1724204800002
 20
220.9406659796511
 30
0.0
 10
368.9886910601581
 20
220.8972574259064
 30
0.0
 10
369.2796024453347
 20
220.6870817568859
 30
0.0
 10
369.3544505553818
 20
220.5278625452806
 30
0.0
 10
369.3632804703934
 20
220.5090792773289
 30
0.0
  0
SPLINE
  5
370
330
1F
100
AcDbEntity
  8
0
  6
Continuous
 62
     7
370
    15
100
AcDbSpline
210
0.0
220
0.0
230
1.0
 70
     8
 71
     3
 72
    13
 73
     9
 74
     0
 42
0.000000001
 43
0.00000001
 40
0.0
 40
0.0
 40
0.0
 40
0.0
 40
0.1735322077433412
 40
0.3474803110675794
 40
0.512545932189122
 40
0.6710335034925646
 40
0.829764888964078
 40
1.0
 40
1.0
 40
1.0
 40
1.0
 10
363.0315402212166
 20
221.5590606255412
 30
0.0
 10
362.9336267460083
 20
221.3226717795566
 30
0.0
 10
362.7375651314783
 20
220.8493275467838
 30
0.0
 10
362.8384630451486
 20
220.2615668381503
 30
0.0
 10
363.2222983119945
 20
219.8754253954421
 30
0.0
 10
363.8386963979122
 20
219.7271722757217
 30
0.0
 10
364.6239442622208
 20
219.795717741031
 30
0.0
 10
365.2079275105382
 20
220.0145129606532
 30
0.0
 10
365.5101298751434
 20
220.1277361274558
 30
0.0
  0
SPLINE
  5
371
330
1F
100
AcDbEntity
  8
0
  6
Continuous
 62
     7
370
    15
100
AcDbSpline
210
0.0
220
0.0
230
1.0
 70
     8
 71
     3
 72
    12
 73
     8
 74
     0
 42
0.000000001
 43
0.00000001
 40
0.0
 40
0.0
 40
0.0
 40
0.0
 40
0.2523388541794054
 40
0.5058431516690055
 40
0.7379942180549657
 40
0.9690881654589661
 40
1.0
 40
1.0
 40
1.0
 40
1.0
 10
361.4355129867985
 20
225.0871698041067
 30
0.0
 10
361.8410047375462
 20
224.925015843339
 30
0.0
 10
362.6538610289049
 20
224.5999590032536
 30
0.0
 10
363.3456667769611
 20
223.7294139468923
 30
0.0
 10
363.4910356134753
 20
222.7270801645006
 30
0.0
 10
363.2592106672165
 20
221.9897802167715
 30
0.0
 10
363.0555664687365
 20
221.6045148146658
 30
0.0
 10
363.0315402212166
 20
221.5590606255412
 30
0.0
  0
SPLINE
  5
372
330
1F
100
AcDbEntity
  8
0
  6
Continuous
 62
     7
370
    15
100
AcDbSpline
210
0.0
220
0.0
230
1.0
 70
     8
 71
     3
 72
    13
 73
     9
 74
     0
 42
0.000000001
 43
0.00000001
 40
0.0
 40
0.0
 40
0.0
 40
0.0
 40
0.1735274932632295
 40
0.3474759845328526
 40
0.5125418655588585
 40
0.6710295171733973
 40
0.8297608130563453
 40
1.0
 40
1.0
 40
1.0
 40
1.0
 10
361.435512986795
 20
229.1349090207999
 30
0.0
 10
361.1799935162675
 20
228.903737110338
 30
0.0
 10
360.6683346550739
 20
228.4408324393057
 30
0.0
 10
360.2138145130216
 20
227.5769390845828
 30
0.0
 10
360.0727099138028
 20
226.7330237794852
 30
0.0
 10
360.25085058809
 20
226.0004845267866
 30
0.0
 10
360.6993868505223
 20
225.40781788201
 30
0.0
 10
361.1844811608619
 20
225.1965163800703
 30
0.0
 10
361.4355129867985
 20
225.0871698041067
 30
0.0
  0
SPLINE
  5
373
330
1F
100
AcDbEntity
  8
0
  6
Continuous
 62
     7
370
    15
100
AcDbSpline
210
0.0
220
0.0
230
1.0
 70
     8
 71
     3
 72
    12
 73
     8
 74
     0
 42
0.000000001
 43
0.00000001
 40
0.0
 40
0.0
 40
0.0
 40
0.0
 40
0.2523425790008753
 40
0.5058462538027569
 40
0.737997042636642
 40
0.9690912189381221
 40
1.0
 40
1.0
 40
1.0
 40
1.0
 10
363.0315402212181
 20
234.5057520205324
 30
0.0
 10
363.1942198214149
 20
234.0451068620984
 30
0.0
 10
363.5203275542261
 20
233.1216969934634
 30
0.0
 10
363.3465335774696
 20
231.6133672806652
 30
0.0
 10
362.6674674394963
 20
230.2787297027544
 30
0.0
 10
361.9280175489835
 20
229.5158819737348
 30
0.0
 10
361.4874833030633
 20
229.1751102420144
 30
0.0
 10
361.435512986795
 20
229.1349090207999
 30
0.0
  0
SPLINE
  5
374
330
1F
100
AcDbEntity
  8
0
  6
Continuous
 62
     7
370
    15
100
AcDbSpline
210
0.0
220
0.0
230
1.0
 70
     8
 71
     3
 72
    13
 73
     9
 74
     0
 42
0.000000001
 43
0.00000001
 40
0.0
 40
0.0
 40
0.0
 40
0.0
 40
0.1735322077432488
 40
0.3474803110673935
 40
0.5125459321888427
 40
0.671033503492184
 40
0.829764888963573
 40
1.0
 40
1.0
 40
1.0
 40
1.0
 10
365.5101298751433
 20
238.7987952196484
 30
0.0
 10
365.2020605976121
 20
238.7340031855614
 30
0.0
 10
364.5851837089988
 20
238.6042638337026
 30
0.0
 10
363.7651754254899
 20
238.0143454882577
 30
0.0
 10
363.1581463436165
 20
237.2206686815966
 30
0.0
 10
362.8235454457542
 20
236.3157235015784
 30
0.0
 10
362.7481407777068
 20
235.3654422545807
 30
0.0
 10
362.9348968310432
 20
234.7989190701541
 30
0.0
 10
363.0315402212181
 20
234.5057520205324
 30
0.0
  0
SPLINE
  5
375
330
1F
100
AcDbEntity
  8
0
  6
Continuous
 62
     7
370
    15
100
AcDbSpline
210
0.0
220
0.0
230
1.0
 70
     8
 71
     3
 72
    12
 73
     8
 74
     0
 42
0.000000001
 43
0.00000001
 40
0.0
 40
0.0
 40
0.0
 40
0.0
 40
0.2523388541795012
 40
0.505843151669204
 40
0.7379942180552624
 40
0.9690881654593616
 40
1.0
 40
1.0
 40
1.0
 40
1.0
 10
369.3632804703934
 20
242.8662050526814
 30
0.0
 10
369.2573230662341
 20
242.3368124949299
 30
0.0
 10
369.0449188867948
 20
241.2755823456772
 30
0.0
 10
368.1745143126915
 20
239.9742582560476
 30
0.0
 10
367.0004410366384
 20
239.1285917112546
 30
0.0
 10
366.0658386945501
 20
238.8567214915234
 30
0.0
 10
365.5687742792744
 20
238.8049082262789
 30
0.0
 10
365.5101298751433
 20
238.7987952196484
 30
0.0
  0
SPLINE
  5
376
330
1F
100
AcDbEntity
  8
0
  6
Continuous
 62
     7
370
    15
100
AcDbSpline
210
0.0
220
0.0
230
1.0
 70
     8
 71
     3
 72
    13
 73
     9
 74
     0
 42
0.000000001
 43
0.00000001
 40
0.0
 40
0.0
 40
0.0
 40
0.0
 40
0.1735274932638168
 40
0.3474759845333024
 40
0.512541865559178
 40
0.6710295171735884
 40
0.8297608130564003
 40
1.0
 40
1.0
 40
1.0
 40
1.0
 10
372.8685355745327
 20
244.889745752026
 30
0.0
 10
372.643778134436
 20
245.055046204548
 30
0.0
 10
372.1937179663907
 20
245.3860481478341
 30
0.0
 10
371.4122459180215
 20
245.4597525676393
 30
0.0
 10
370.6712169602336
 20
245.1949004607488
 30
0.0
 10
370.0497256473345
 20
244.6304204520575
 30
0.0
 10
369.5700521250651
 20
243.8355818929239
 30
0.0
 10
369.4337932038317
 20
243.1967794287764
 30
0.0
 10
369.3632804703934
 20
242.8662050526814
 30
0.0
  0
SPLINE
  5
377
330
1F
100
AcDbEntity
  8
0
  6
Continuous
 62
     7
370
    15
100
AcDbSpline
210
0.0
220
0.0
230
1.0
 70
     8
 71
     3
 72
    12
 73
     8
 74
     0
 42
0.000000001
 43
0.00000001
 40
0.0
 40
0.0
 40
0.0
 40
0.0
 40
0.2529409289825461
 40
0.5070337664678931
 40
0.740083526310047
 40
0.9726927897603379
 40
1.0
 40
1.0
 40
1.0
 40
1.0
 10
376.7076044202738
 20
245.2482471430524
 30
0.0
 10
376.4637208505093
 20
244.9237491505802
 30
0.0
 10
375.9748430502469
 20
244.2732753818777
 30
0.0
 10
374.9844032468081
 20
243.9132219218982
 30
0.0
 10
373.9355165327514
 20
244.0991422182089
 30
0.0
 10
373.2391144939128
 20
244.5484732965041
 30
0.0
 10
372.9037676150227
 20
244.8572999642538
 30
0.0
 10
372.8685355745327
 20
244.889745752026
 30
0.0
  0
SPLINE
  5
378
330
1F
100
AcDbEntity
  8
0
  6
Continuous
 62
     7
370
    15
100
AcDbSpline
210
0.0
220
0.0
230
1.0
 70
     8
 71
     3
 72
    13
 73
     9
 74
     0
 42
0.000000001
 43
0.00000001
 40
0.0
 40
0.0
 40
0.0
 40
0.0
 40
0.1720087238365725
 40
0.3444334232908582
 40
0.507934403187566
 40
0.6647334886924884
 40
0.8215865234924917
 40
1.0
 40
1.0
 40
1.0
 40
1.0
 10
379.2039484575519
 20
243.8066699257223
 30
0.0
 10
379.1511420725048
 20
244.1330326013366
 30
0.0
 10
379.045401598605
 20
244.786547208555
 30
0.0
 10
378.6875406421314
 20
245.5340663941341
 30
0.0
 10
378.2250016983893
 20
245.9766586189249
 30
0.0
 10
377.7112693236522
 20
246.0753849145646
 30
0.0
 10
377.1717836587798
 20
245.8627983743912
 30
0.0
 10
376.8688250900077
 20
245.4616956407085
 30
0.0
 10
376.7076044202738
 20
245.2482471430524
 30
0.0
  0
SPLINE
  5
379
330
1F
100
AcDbEntity
  8
0
  6
Continuous
 62
     7
370
    15
100
AcDbSpline
210
0.0
220
0.0
230
1.0
 70
     8
 71
     3
 72
    11
 73
     7
 74
     0
 42
0.000000001
 43
0.00000001
 40
0.0
 40
0.0
 40
0.0
 40
0.0
 40
0.2543692972481048
 40
0.5099015709742154
 40
0.7442712505501877
 40
0.9999999999999999
 40
0.9999999999999999
 40
0.9999999999999999
 40
0.9999999999999999
 10
380.7855431043001
 20
240.3104648048914
 30
0.0
 10
380.6176751012995
 20
240.3388999142542
 30
0.0
 10
380.281171602755
 20
240.3959001383056
 30
0.0
 10
379.8234123472507
 20
241.142715220424
 30
0.0
 10
379.4252789829583
 20
242.3128348497394
 30
0.0
 10
379.2798381275863
 20
243.2944647032655
 30
0.0
 10
379.2039484575519
 20
243.8066699257223
 30
0.0
  0
SPLINE
  5
37A
330
1F
100
AcDbEntity
  8
0
  6
Continuous
 62
     7
370
    15
100
AcDbSpline
210
0.0
220
0.0
230
1.0
 70
     8
 71
     3
 72
    13
 73
     9
 74
     0
 42
0.000000001
 43
0.00000001
 40
0.0
 40
0.0
 40
0.0
 40
0.0
 40
0.1720043241260367
 40
0.3444293901826448
 40
0.5079306177206039
 40
0.6647297837317664
 40
0.8215827403429472
 40
1.0
 40
1.0
 40
1.0
 40
1.0
 10
380.7855431043001
 20
236.2337312310012
 30
0.0
 10
380.8896733850492
 20
236.5524272698086
 30
0.0
 10
381.0981886609306
 20
237.190598913794
 30
0.0
 10
381.2961808509236
 20
238.2080263996998
 30
0.0
 10
381.360566317614
 20
239.1040415473239
 30
0.0
 10
381.2879467635153
 20
239.7843685808254
 30
0.0
 10
381.0962934390502
 20
240.2460056812791
 30
0.0
 10
380.8934749223063
 20
240.2880764447818
 30
0.0
 10
380.7855431043001
 20
240.3104648048914
 30
0.0
  0
SPLINE
  5
37B
330
1F
100
AcDbEntity
  8
0
  6
Continuous
 62
     7
370
    15
100
AcDbSpline
210
0.0
220
0.0
230
1.0
 70
     8
 71
     3
 72
    11
 73
     7
 74
     0
 42
0.000000001
 43
0.00000001
 40
0.0
 40
0.0
 40
0.0
 40
0.0
 40
0.2543731898028521
 40
0.5099048107121191
 40
0.7442741989811525
 40
1.0
 40
1.0
 40
1.0
 40
1.0
 10
379.2039484575519
 20
230.9114558000342
 30
0.0
 10
379.2793792767784
 20
231.2368646671324
 30
0.0
 10
379.4305844318083
 20
231.8891643332661
 30
0.0
 10
379.8344685687027
 20
233.2629289166664
 30
0.0
 10
380.2930919473444
 20
234.7866673086234
 30
0.0
 10
380.6166923100587
 20
235.7375644758615
 30
0.0
 10
380.7855431043001
 20
236.2337312310012
 30
0.0
  0
SPLINE
  5
37C
330
1F
100
AcDbEntity
  8
0
  6
Continuous
 62
     7
370
    15
100
AcDbSpline
210
0.0
220
0.0
230
1.0
 70
     8
 71
     3
 72
    13
 73
     9
 74
     0
 42
0.000000001
 43
0.00000001
 40
0.0
 40
0.0
 40
0.0
 40
0.0
 40
0.172008723836571
 40
0.3444334232908541
 40
0.5079344031875617
 40
0.6647334886924857
 40
0.8215865234924863
 40
1.0
 40
1.0
 40
1.0
 40
1.0
 10
376.7076044202739
 20
226.5876611069868
 30
0.0
 10
376.8625433805378
 20
226.7380698699976
 30
0.0
 10
377.1727959961873
 20
227.0392511355828
 30
0.0
 10
377.7326214974614
 20
227.7756511421651
 30
0.0
 10
378.2609742683159
 20
228.6147775197331
 30
0.0
 10
378.700466370604
 20
229.4617392134012
 30
0.0
 10
379.0446559382191
 20
230.2834380209044
 30
0.0
 10
379.1486223151482
 20
230.6933300448151
 30
0.0
 10
379.2039484575519
 20
230.9114558000342
 30
0.0
  0
SPLINE
  5
37D
330
1F
100
AcDbEntity
  8
0
  6
Continuous
 62
     7
370
    15
100
AcDbSpline
210
0.0
220
0.0
230
1.0
 70
     8
 71
     3
 72
    11
 73
     7
 74
     0
 42
0.000000001
 43
0.00000001
 40
0.0
 40
0.0
 40
0.0
 40
0.0
 40
0.2537719365525903
 40
0.5087159351989531
 40
0.7421854335094625
 40
1.0
 40
1.0
 40
1.0
 40
1.0
 10
372.8685355745326
 20
222.5326199766735
 30
0.0
 10
373.2119373667593
 20
222.9254446616843
 30
0.0
 10
373.9003269745888
 20
223.7129083179072
 30
0.0
 10
374.9964326629511
 20
224.8765202743273
 30
0.0
 10
375.9833769647424
 20
225.9107311203507
 30
0.0
 10
376.4583496763873
 20
226.354684561898
 30
0.0
 10
376.7076044202739
 20
226.5876611069868
 30
0.0
  0
SPLINE
  5
37E
330
1F
100
AcDbEntity
  8
0
  6
Continuous
 62
     7
370
    15
100
AcDbSpline
210
0.0
220
0.0
230
1.0
 70
     8
 71
     3
 72
    13
 73
     9
 74
     0
 42
0.000000001
 43
0.00000001
 40
0.0
 40
0.0
 40
0.0
 40
0.0
 40
0.1735274932638202
 40
0.3474759845333088
 40
0.5125418655591888
 40
0.6710295171736016
 40
0.8297608130564138
 40
1.0
 40
1.0
 40
1.0
 40
1.0
 10
369.3632804703934
 20
220.5090792773289
 30
0.0
 10
369.4357190234331
 20
220.4317106466235
 30
0.0
 10
369.5807718739192
 20
220.2767856798605
 30
0.0
 10
370.1016406249236
 20
220.353524341353
 30
0.0
 10
370.761905731996
 20
220.6650004268422
 30
0.0
 10
371.485333114557
 20
221.1706339950994
 30
0.0
 10
372.2228223157895
 20
221.8166387307846
 30
0.0
 10
372.6483361136172
 20
222.2884579090133
 30
0.0
 10
372.8685355745326
 20
222.5326199766735
 30
0.0
  0
LINE
  5
37F
330
1F
100
AcDbEntity
  8
0
  6
Continuous
 62
     7
370
    15
100
AcDbLine
 10
363.0315402212
 20
234.5057520205
 30
0.0
 11
357.0786592942
 21
237.9422770312
 31
0.0
  0
ARC
  5
380
330
1F
100
AcDbEntity
  8
0
  6
Continuous
 62
     7
370
    15
100
AcDbCircle
 10
361.3920372155
 20
238.3139759235
 30
0.0
 40
4.329363597371113
100
AcDbArc
 50
115.074789014
 51
184.9252108404
  0
LINE
  5
381
330
1F
100
AcDbEntity
  8
0
  6
Continuous
 62
     7
370
    15
100
AcDbLine
 10
365.5101298751
 20
238.7987952196
 30
0.0
 11
359.5572489482
 21
242.2353202303
 31
0.0
  0
LINE
  5
382
330
1F
100
AcDbEntity
  8
0
  6
Continuous
 62
     7
370
    15
100
AcDbLine
 10
361.4355129868
 20
229.1349090208
 30
0.0
 11
355.4826320598
 21
232.5714340314
 31
0.0
  0
ARC
  5
383
330
1F
100
AcDbEntity
  8
0
  6
Continuous
 62
     7
370
    15
100
AcDbCircle
 10
349.819426395
 20
237.1769045706
 30
0.0
 40
7.299469658077573
100
AcDbArc
 50
320.8810670043
 51
6.0187065532
  0
ARC
  5
384
330
1F
100
AcDbEntity
  8
0
  6
Continuous
 62
     7
370
    15
100
AcDbCircle
 10
356.591124412
 20
248.9039918826
 30
0.0
 40
7.298566734025619
100
AcDbArc
 50
293.9787765776
 51
339.1202861927
  0
LINE
  5
385
330
1F
100
AcDbEntity
  8
0
  6
Continuous
 62
     7
370
    15
100
AcDbLine
 10
369.3632804704
 20
242.8662050527
 30
0.0
 11
363.4103995434
 21
246.3027300633
 31
0.0
  0
LWPOLYLINE
  5
386
330
1F
100
AcDbEntity
  8
0
  6
Continuous
 62
     7
370
    15
100
AcDbPolyline
 90
        9
 70
   128
 43
0.0
 10
355.4826320598
 20
232.5714340314
 10
355.0959203723
 20
231.9565153684
 10
354.8022166062
 20
231.2993194959
 10
354.6187899098
 20
230.6384881151
 10
354.5564253777
 20
230.0128766867
 10
354.6187899098
 20
229.4592698144
 10
354.8022166062
 20
229.0102183893
 10
355.0959203723
 20
228.6921256672
 10
355.1778676223
 20
228.6393422672
  0
LWPOLYLINE
  5
387
330
1F
100
AcDbEntity
  8
0
  6
Continuous
 62
     7
370
    15
100
AcDbPolyline
 90
        9
 70
   128
 43
0.0
 10
366.6629051944
 20
248.5325738551
 10
366.5764727314
 20
248.5770255936
 10
366.1541832581
 20
248.6724013384
 10
365.6736159385
 20
248.6067901088
 10
365.1630270955
 20
248.3840497036
 10
364.6524382524
 20
248.0172767787
 10
364.1718709329
 20
247.5280367916
 10
363.7495814596
 20
246.945095999
 10
363.4103995434
 20
246.3027300633
  0
ARC
  5
388
330
1F
100
AcDbEntity
  8
0
  6
Continuous
 62
     7
370
    15
100
AcDbCircle
 10
359.8960727172
 20
239.1776115654
 30
0.0
 40
2.856763896092835
100
AcDbArc
 50
122.35311204
 51
177.6522644927
  0
LINE
  5
389
330
1F
100
AcDbEntity
  8
0
  6
Continuous
 62
     7
370
    15
100
AcDbLine
 10
355.1306850097
 20
232.5241132483
 30
0.0
 11
355.4826320598
 21
232.5714340314
 31
0.0
  0
ARC
  5
38A
330
1F
100
AcDbEntity
  8
0
  6
Continuous
 62
     7
370
    15
100
AcDbCircle
 10
347.4803633211
 20
238.4908026061
 30
0.0
 40
9.701999991388154
100
AcDbArc
 50
322.048384054
 51
354.4047120753
  0
LINE
  5
38B
330
1F
100
AcDbEntity
  8
0
  6
Continuous
 62
     7
370
    15
100
AcDbLine
 10
363.4103995434
 20
246.3027300633
 30
0.0
 11
363.2753041173
 21
246.6310073096
 31
0.0
  0
ARC
  5
38C
330
1F
100
AcDbEntity
  8
0
  6
Continuous
 62
     7
370
    15
100
AcDbCircle
 10
354.064906754
 20
250.4447735266
 30
0.0
 40
9.968762829395816
100
AcDbArc
 50
306.0451290954
 51
337.506931102
  0
LINE
  5
38D
330
1F
100
AcDbEntity
  8
0
  6
Continuous
 62
     7
370
    15
100
AcDbLine
 10
363.0315402212
 20
221.5590606255
 30
0.0
 11
357.0786592942
 21
224.9955856362
 31
0.0
  0
ARC
  5
38E
330
1F
100
AcDbEntity
  8
0
  6
Continuous
 62
     7
370
    15
100
AcDbCircle
 10
353.3594487279
 20
225.8411012081
 30
0.0
 40
3.814108522225742
100
AcDbArc
 50
347.1922118013
 51
30.8991969008
  0
ARC
  5
38F
330
1F
100
AcDbEntity
  8
0
  6
Continuous
 62
     7
370
    15
100
AcDbCircle
 10
368.2198883767
 20
251.3866344176
 30
0.0
 40
3.695717402190364
100
AcDbArc
 50
268.4270703403
 51
313.1306036266
  0
LINE
  5
390
330
1F
100
AcDbEntity
  8
0
  6
Continuous
 62
     7
370
    15
100
AcDbLine
 10
376.7076044203
 20
245.2482471431
 30
0.0
 11
370.7465161388
 21
248.6895101586
 31
0.0
  0
ARC
  5
391
330
1F
100
AcDbEntity
  8
0
  6
Continuous
 62
     7
370
    15
100
AcDbCircle
 10
357.3906798754
 20
230.8093847489
 30
0.0
 40
2.836876913008781
100
AcDbArc
 50
142.8112767582
 51
177.5362219511
  0
ARC
  5
392
330
1F
100
AcDbEntity
  8
0
  6
Continuous
 62
     7
370
    15
100
AcDbCircle
 10
365.8901732728
 20
245.5312321407
 30
0.0
 40
2.836731591543582
100
AcDbArc
 50
122.4684420445
 51
157.1891002708
  0
ARC
  5
393
330
1F
100
AcDbEntity
  8
0
  6
Continuous
 62
     7
370
    15
100
AcDbCircle
 10
372.0304377377
 20
247.4780509812
 30
0.0
 40
1.765244462027654
100
AcDbArc
 50
69.0095631416
 51
136.6633231154
  0
LWPOLYLINE
  5
394
330
1F
100
AcDbEntity
  8
0
  6
Continuous
 62
     7
370
    15
100
AcDbPolyline
 90
        6
 70
   128
 43
0.0
 10
357.0786592942
 20
224.9955856362
 10
357.0450506707
 20
224.3834620383
 10
357.1359744962
 20
223.8513135444
 10
357.3460846458
 20
223.4304293392
 10
357.6630270955
 20
223.1455565067
 10
357.6631489965
 20
223.1454861233
  0
LINE
  5
395
330
1F
100
AcDbEntity
  8
0
  6
Continuous
 62
     7
370
    15
100
AcDbLine
 10
357.0637731277
 20
225.7283829598
 30
0.0
 11
357.0786592942
 21
224.9955856362
 31
0.0
  0
LINE
  5
396
330
1F
100
AcDbEntity
  8
0
  6
Continuous
 62
     7
370
    15
100
AcDbLine
 10
357.0637731277
 20
225.7283829598
 30
0.0
 11
357.1361373763
 21
226.3331855498
 31
0.0
  0
LINE
  5
397
330
1F
100
AcDbEntity
  8
0
  6
Continuous
 62
     7
370
    15
100
AcDbLine
 10
370.7465161388
 20
248.6895101586
 30
0.0
 11
370.1072267296
 21
248.3381910686
 31
0.0
  0
LINE
  5
398
330
1F
100
AcDbEntity
  8
0
  6
Continuous
 62
     7
370
    15
100
AcDbLine
 10
369.639807075
 20
247.9894126228
 30
0.0
 11
370.1072267296
 21
248.3381910686
 31
0.0
  0
LWPOLYLINE
  5
399
330
1F
100
AcDbEntity
  8
0
  6
Continuous
 62
     7
370
    15
100
AcDbPolyline
 90
       15
 70
   128
 43
0.0
 10
355.0867554636
 20
237.3605496931
 10
355.147182256
 20
238.1930067226
 10
355.3266265956
 20
239.069937256
 10
355.619636157
 20
239.9646962028
 10
356.0173079929
 20
240.850096765
 10
356.5075590459
 20
241.6992364947
 10
357.0754932857
 20
242.4863147109
 10
357.7038543179
 20
243.1874164401
 10
358.3735497104
 20
243.7812390613
 10
359.0642311078
 20
244.2497395744
 10
359.7549125051
 20
244.5786828286
 10
360.4246078977
 20
244.7580740494
 10
361.0529689298
 20
244.7824625254
 10
361.6209031697
 20
244.6511072251
 10
361.8765025433
 20
244.5282223585
  0
ARC
  5
39A
330
1F
100
AcDbEntity
  8
0
  6
Continuous
 62
     7
370
    15
100
AcDbCircle
 10
357.8991302331
 20
237.0817000583
 30
0.0
 40
2.826165062973345
100
AcDbArc
 50
174.337576136
 51
234.3502434707
  0
LINE
  5
39B
330
1F
100
AcDbEntity
  8
0
  6
Continuous
 62
     7
370
    15
100
AcDbLine
 10
370.1072267296
 20
248.3381910686
 30
0.0
 11
370.3673165139
 21
248.5181402399
 31
0.0
  0
LINE
  5
39C
330
1F
100
AcDbEntity
  8
0
  6
Continuous
 62
     7
370
    15
100
AcDbLine
 10
357.0417067519
 20
225.4374796685
 30
0.0
 11
357.0637731277
 21
225.7283829598
 31
0.0
  0
LINE
  5
39D
330
1F
100
AcDbEntity
  8
0
  6
Continuous
 62
     7
370
    15
100
AcDbLine
 10
335.8578187953
 20
268.5575573262
 30
0.0
 11
336.1476032192
 21
268.6630374386
 31
0.0
  0
SPLINE
  5
39E
330
1F
100
AcDbEntity
  8
0
  6
Continuous
 62
     7
370
    15
100
AcDbSpline
210
0.0
220
0.0
230
1.0
 70
     8
 71
     3
 72
    10
 73
     6
 74
     0
 42
0.000000001
 43
0.00000001
 40
0.0
 40
0.0
 40
0.0
 40
0.0
 40
0.34406907713554
 40
0.6889702303641102
 40
1.0
 40
1.0
 40
1.0
 40
1.0
 10
336.1476032192378
 20
268.6630374385853
 30
0.0
 10
336.4554751818337
 20
268.7794241184652
 30
0.0
 10
337.07196364618
 20
269.0124789408159
 30
0.0
 10
337.9021114518225
 20
269.0905339225342
 30
0.0
 10
338.2745064304237
 20
268.9392535495844
 30
0.0
 10
338.4510889338101
 20
268.8675193197915
 30
0.0
  0
LWPOLYLINE
  5
39F
330
1F
100
AcDbEntity
  8
0
  6
Continuous
 62
     7
370
    15
100
AcDbPolyline
 90
       14
 70
   128
 43
0.0
 10
356.9429107642
 20
244.7700852919
 10
356.3055890221
 20
244.3318920401
 10
355.6913017483
 20
243.7689857512
 10
355.1222508854
 20
243.1017113252
 10
354.6190034141
 20
242.3541857984
 10
354.1997480094
 20
241.5534266909
 10
353.8796376539
 20
240.7283755233
 10
353.6702419698
 20
239.9088517944
 10
353.5791290629
 20
239.124475227
 10
353.6095919909
 20
238.403595234
 10
353.7605297442
 20
237.7722662966
 10
354.0264870392
 20
237.2533062873
 10
354.3978514863
 20
236.8654717732
 10
354.5618542821
 20
236.7567519682
  0
ARC
  5
3A0
330
1F
100
AcDbEntity
  8
0
  6
Continuous
 62
     7
370
    15
100
AcDbCircle
 10
358.3338160257
 20
242.8644596124
 30
0.0
 40
2.359242818569179
100
AcDbArc
 50
65.184966448
 51
126.1254919811
  0
LINE
  5
3A1
330
1F
100
AcDbEntity
  8
0
  6
Continuous
 62
     7
370
    15
100
AcDbLine
 10
355.8292175838
 20
267.4897909711
 30
0.0
 11
355.8292175838
 21
268.4082003344
 31
0.0
  0
LINE
  5
3A2
330
1F
100
AcDbEntity
  8
0
  6
Continuous
 62
     7
370
    15
100
AcDbLine
 10
345.7529459519
 20
252.5987713743
 30
0.0
 11
345.7529459519
 21
262.5912925377
 31
0.0
  0
LINE
  5
3A3
330
1F
100
AcDbEntity
  8
0
  6
Continuous
 62
     7
370
    15
100
AcDbLine
 10
355.8292175838
 20
268.4082003344
 30
0.0
 11
345.7529459519
 21
262.5912925377
 31
0.0
  0
LINE
  5
3A4
330
1F
100
AcDbEntity
  8
0
  6
Continuous
 62
     7
370
    15
100
AcDbLine
 10
341.5103052648
 20
265.0405168731
 30
0.0
 11
351.5865768967
 21
270.8574246699
 31
0.0
  0
LINE
  5
3A5
330
1F
100
AcDbEntity
  8
0
  6
Continuous
 62
     7
370
    15
100
AcDbLine
 10
351.5865768967
 20
270.8574246699
 30
0.0
 11
355.8292175838
 21
268.4082003344
 31
0.0
  0
LINE
  5
3A6
330
1F
100
AcDbEntity
  8
0
  6
Continuous
 62
     7
370
    15
100
AcDbLine
 10
345.7529459519
 20
262.5912925377
 30
0.0
 11
345.2491323703
 21
262.8821379275
 31
0.0
  0
LINE
  5
3A7
330
1F
100
AcDbEntity
  8
0
  6
Continuous
 62
     7
370
    15
100
AcDbLine
 10
345.2491323703
 20
262.8821379275
 30
0.0
 11
347.3704527139
 21
264.1067500952
 31
0.0
  0
LINE
  5
3A8
330
1F
100
AcDbEntity
  8
0
  6
Continuous
 62
     7
370
    15
100
AcDbLine
 10
347.3704527139
 20
264.1067500952
 30
0.0
 11
344.6657692758
 21
265.6681306091
 31
0.0
  0
LINE
  5
3A9
330
1F
100
AcDbEntity
  8
0
  6
Continuous
 62
     7
370
    15
100
AcDbLine
 10
344.6657692758
 20
265.6681306091
 30
0.0
 11
342.5444489323
 21
264.4435184414
 31
0.0
  0
LINE
  5
3AA
330
1F
100
AcDbEntity
  8
0
  6
Continuous
 62
     7
370
    15
100
AcDbLine
 10
342.5444489323
 20
264.4435184414
 30
0.0
 11
341.5103052648
 21
265.0405168731
 31
0.0
  0
LINE
  5
3AB
330
1F
100
AcDbEntity
  8
0
  6
Continuous
 62
     7
370
    15
100
AcDbLine
 10
345.2491323703
 20
252.2374544829
 30
0.0
 11
345.2491323703
 21
262.8821379275
 31
0.0
  0
LINE
  5
3AC
330
1F
100
AcDbEntity
  8
0
  6
Continuous
 62
     7
370
    15
100
AcDbLine
 10
344.6657692758
 20
251.8638501714
 30
0.0
 11
344.6657692758
 21
265.6681306091
 31
0.0
  0
LINE
  5
3AD
330
1F
100
AcDbEntity
  8
0
  6
Continuous
 62
     7
370
    15
100
AcDbLine
 10
342.5444489323
 20
250.8018051209
 30
0.0
 11
342.5444489323
 21
264.4435184414
 31
0.0
  0
LINE
  5
3AE
330
1F
100
AcDbEntity
  8
0
  6
Continuous
 62
     7
370
    15
100
AcDbLine
 10
341.5103052648
 20
250.4111142821
 30
0.0
 11
341.5103052648
 21
265.0405168731
 31
0.0
  0
LINE
  5
3AF
330
1F
100
AcDbEntity
  8
0
  6
Continuous
 62
     7
370
    15
100
AcDbLine
 10
335.2799466815
 20
247.0546642127
 30
0.0
 11
328.7823832034
 21
243.3037006584
 31
0.0
  0
LINE
  5
3B0
330
1F
100
AcDbEntity
  8
0
  6
Continuous
 62
     7
370
    15
100
AcDbLine
 10
328.7823832034
 20
243.3037006584
 30
0.0
 11
322.1532571298
 21
247.1306136825
 31
0.0
  0
LINE
  5
3B1
330
1F
100
AcDbEntity
  8
0
  6
Continuous
 62
     7
370
    15
100
AcDbLine
 10
322.1532571298
 20
247.1306136825
 30
0.0
 11
322.4184221728
 21
247.2836902035
 31
0.0
  0
LINE
  5
3B2
330
1F
100
AcDbEntity
  8
0
  6
Continuous
 62
     7
370
    15
100
AcDbLine
 10
322.4184221728
 20
247.2836902035
 30
0.0
 11
315.5241310562
 21
251.2636797486
 31
0.0
  0
LINE
  5
3B3
330
1F
100
AcDbEntity
  8
0
  6
Continuous
 62
     7
370
    15
100
AcDbLine
 10
315.5241310562
 20
251.2636797486
 30
0.0
 11
315.2589660133
 21
251.1106032277
 31
0.0
  0
LINE
  5
3B4
330
1F
100
AcDbEntity
  8
0
  6
Continuous
 62
     7
370
    15
100
AcDbLine
 10
315.2589660133
 20
251.1106032277
 30
0.0
 11
308.6298399396
 21
254.9375162518
 31
0.0
  0
LINE
  5
3B5
330
1F
100
AcDbEntity
  8
0
  6
Continuous
 62
     7
370
    15
100
AcDbLine
 10
308.6298399396
 20
254.9375162518
 30
0.0
 11
315.1274034177
 21
258.6884798062
 31
0.0
  0
LWPOLYLINE
  5
3B6
330
1F
100
AcDbEntity
  8
0
  6
Continuous
 62
     7
370
    15
100
AcDbPolyline
 90
       20
 70
   128
 43
0.0
 10
315.1274034177
 20
258.6884798062
 10
315.3493297503
 20
259.7056670989
 10
315.7369646334
 20
260.7061706968
 10
316.2868305209
 20
261.6810148917
 10
316.9939944612
 20
262.6214541712
 10
317.8521123522
 20
263.5190516757
 10
318.8534858552
 20
264.3657548873
 10
319.9891314582
 20
265.1539678705
 10
321.2488610685
 20
265.8766194169
 10
322.6213734123
 20
266.5272264819
 10
324.0943554204
 20
267.099952346
 10
325.6545926912
 20
267.5896589765
 10
327.2880880395
 20
267.9919531222
 10
328.9801870681
 20
268.3032257258
 10
330.7157096348
 20
268.5206843015
 10
332.4790860367
 20
268.6423779872
 10
334.254496689
 20
268.6672150457
 10
336.026014045
 20
268.5949726589
 10
337.777745486
 20
268.4262989272
 10
339.4939758959
 20
268.1627070545
  0
LINE
  5
3B7
330
1F
100
AcDbEntity
  8
0
  6
Continuous
 62
     7
370
    15
100
AcDbLine
 10
339.4939758959
 20
268.1627070545
 30
0.0
 11
348.1394313384
 21
273.1536222469
 31
0.0
  0
LINE
  5
3B8
330
1F
100
AcDbEntity
  8
0
  6
Continuous
 62
     7
370
    15
100
AcDbLine
 10
348.1394313384
 20
273.1536222469
 30
0.0
 11
351.5865768967
 21
271.1636274743
 31
0.0
  0
LINE
  5
3B9
330
1F
100
AcDbEntity
  8
0
  6
Continuous
 62
     7
370
    15
100
AcDbLine
 10
351.5865768967
 20
271.1636274743
 30
0.0
 11
341.4386665432
 21
265.3053635239
 31
0.0
  0
ARC
  5
3BA
330
1F
100
AcDbEntity
  8
0
  6
Continuous
 62
     7
370
    15
100
AcDbCircle
 10
333.9162732932
 20
242.4023221742
 30
0.0
 40
24.1067563821797
100
AcDbArc
 50
71.817483876
 51
91.9266827621
  0
LINE
  5
3BB
330
1F
100
AcDbEntity
  8
0
  6
Continuous
 62
     7
370
    15
100
AcDbLine
 10
333.1057891783
 20
266.4954502146
 30
0.0
 11
333.2947309502
 21
266.0883813885
 31
0.0
  0
ARC
  5
3BC
330
1F
100
AcDbEntity
  8
0
  6
Continuous
 62
     7
370
    15
100
AcDbCircle
 10
333.6819319707
 20
243.2045440408
 30
0.0
 40
22.88711288875308
100
AcDbArc
 50
90.9693683435
 51
106.6167095222
  0
LINE
  5
3BD
330
1F
100
AcDbEntity
  8
0
  6
Continuous
 62
     7
370
    15
100
AcDbLine
 10
327.1369538077
 20
265.1358731667
 30
0.0
 11
326.9480120357
 21
265.5429419929
 31
0.0
  0
LWPOLYLINE
  5
3BE
330
1F
100
AcDbEntity
  8
0
  6
Continuous
 62
     7
370
    15
100
AcDbPolyline
 90
       16
 70
   128
 43
0.0
 10
326.9480120357
 20
265.5429419929
 10
325.5124412525
 20
265.0557330921
 10
324.1792679102
 20
264.4796635313
 10
322.9649234316
 20
263.8218333942
 10
321.8843746683
 20
263.0903504675
 10
320.9509394335
 20
262.2942303121
 10
320.1761223595
 20
261.4432851454
 10
319.5694731023
 20
260.5480029058
 10
319.138468642
 20
259.6194179882
 10
318.8884211283
 20
258.6689752443
 10
318.8224124085
 20
257.7083889247
 10
318.941256043
 20
256.7494983001
 10
319.2434872786
 20
255.8041217415
 10
319.7253811013
 20
254.8839110585
 10
320.3809981476
 20
254.0002078902
 10
321.2022579072
 20
253.1639039187
  0
LINE
  5
3BF
330
1F
100
AcDbEntity
  8
0
  6
Continuous
 62
     7
370
    15
100
AcDbLine
 10
321.2022579072
 20
253.1639039187
 30
0.0
 11
321.7184564278
 21
253.4618989816
 31
0.0
  0
ARC
  5
3C0
330
1F
100
AcDbEntity
  8
0
  6
Continuous
 62
     7
370
    15
100
AcDbCircle
 10
330.5374434403
 20
263.5330400642
 30
0.0
 40
13.38665061288917
100
AcDbArc
 50
228.7923693783
 51
251.2130071544
  0
LINE
  5
3C1
330
1F
100
AcDbEntity
  8
0
  6
Continuous
 62
     7
370
    15
100
AcDbLine
 10
326.2262621579
 20
250.8595981252
 30
0.0
 11
325.7100636373
 21
250.5616030623
 31
0.0
  0
LWPOLYLINE
  5
3C2
330
1F
100
AcDbEntity
  8
0
  6
Continuous
 62
     7
370
    15
100
AcDbPolyline
 90
       16
 70
   128
 43
0.0
 10
325.7100636373
 20
250.5616030623
 10
327.1587415737
 20
250.0874998946
 10
328.6895262238
 20
249.7090202299
 10
330.2835505962
 20
249.4308288475
 10
331.9211682673
 20
249.256354469
 10
333.5821955238
 20
249.1877474992
 10
335.2461601284
 20
249.225853522
 10
336.8925536406
 20
249.3702028791
 10
338.5010841848
 20
249.6190164579
 10
340.0519265479
 20
249.9692276196
 10
341.5259665263
 20
250.4165199956
 10
342.9050365096
 20
250.9553806866
 10
344.1721393967
 20
251.57916821
 10
345.3116580861
 20
252.2801943558
 10
346.3095479576
 20
253.0498189444
 10
347.1535099726
 20
253.8785563173
  0
LINE
  5
3C3
330
1F
100
AcDbEntity
  8
0
  6
Continuous
 62
     7
370
    15
100
AcDbLine
 10
347.1535099726
 20
253.8785563173
 30
0.0
 11
346.4483696802
 21
253.9876300805
 31
0.0
  0
ARC
  5
3C4
330
1F
100
AcDbEntity
  8
0
  6
Continuous
 62
     7
370
    15
100
AcDbCircle
 10
342.2728343997
 20
258.0860359714
 30
0.0
 40
5.850814107814595
100
AcDbArc
 50
315.5340937776
 51
354.6689833334
  0
LINE
  5
3C5
330
1F
100
AcDbEntity
  8
0
  6
Continuous
 62
     7
370
    15
100
AcDbLine
 10
348.0983410927
 20
257.5424391587
 30
0.0
 11
348.8034813852
 21
257.4333653955
 31
0.0
  0
ARC
  5
3C6
330
1F
100
AcDbEntity
  8
0
  6
Continuous
 62
     7
370
    15
100
AcDbCircle
 10
342.7359472257
 20
257.6801009107
 30
0.0
 40
6.072548821615767
100
AcDbArc
 50
357.6713573234
 51
48.7235086166
  0
LINE
  5
3C7
330
1F
100
AcDbEntity
  8
0
  6
Continuous
 62
     7
370
    15
100
AcDbLine
 10
346.7419674021
 20
262.2438331045
 30
0.0
 11
356.8898777556
 21
268.102097055
 31
0.0
  0
LINE
  5
3C8
330
1F
100
AcDbEntity
  8
0
  6
Continuous
 62
     7
370
    15
100
AcDbLine
 10
356.8898777556
 20
268.102097055
 30
0.0
 11
360.3370233139
 21
266.1121022824
 31
0.0
  0
LINE
  5
3C9
330
1F
100
AcDbEntity
  8
0
  6
Continuous
 62
     7
370
    15
100
AcDbLine
 10
360.3370233139
 20
266.1121022824
 30
0.0
 11
351.6915678714
 21
261.1211870901
 31
0.0
  0
LWPOLYLINE
  5
3CA
330
1F
100
AcDbEntity
  8
0
  6
Continuous
 62
     7
370
    15
100
AcDbPolyline
 90
       20
 70
   128
 43
0.0
 10
351.6915678714
 20
261.1211870901
 10
352.1481718613
 20
260.1304283633
 10
352.4403549932
 20
259.1191753276
 10
352.5654960368
 20
258.0965001262
 10
352.5224723279
 20
257.0715773727
 10
352.3116698404
 20
256.0536018441
 10
351.9349797235
 20
255.0517059923
 10
351.3957813359
 20
254.0748780155
 10
350.6989119287
 20
253.1318812231
 10
349.85062325
 20
252.2311754188
 10
348.8585254588
 20
251.3808410054
 10
347.7315188528
 20
250.5885064946
 10
346.4797140227
 20
249.86128007
 10
345.1143411476
 20
249.2056858182
 10
343.6476492471
 20
248.6276051997
 10
342.092796293
 20
248.1322242856
 10
340.4637311669
 20
247.7239872325
 10
338.7750685216
 20
247.4065564124
 10
337.0419576708
 20
247.1827795575
 10
335.2799466815
 20
247.0546642127
  0
LINE
  5
3CB
330
1F
100
AcDbEntity
  8
0
  6
Continuous
 62
     7
370
    15
100
AcDbLine
 10
335.2799466815
 20
200.5118379353
 30
0.0
 11
335.2799466815
 21
247.0546642127
 31
0.0
  0
LINE
  5
3CC
330
1F
100
AcDbEntity
  8
0
  6
Continuous
 62
     7
370
    15
100
AcDbLine
 10
335.2799466815
 20
200.5118379353
 30
0.0
 11
328.7823832034
 21
196.7608743809
 31
0.0
  0
LINE
  5
3CD
330
1F
100
AcDbEntity
  8
0
  6
Continuous
 62
     7
370
    15
100
AcDbLine
 10
328.7823832034
 20
196.7608743809
 30
0.0
 11
328.7823832034
 21
243.3037006584
 31
0.0
  0
LINE
  5
3CE
330
1F
100
AcDbEntity
  8
0
  6
Continuous
 62
     7
370
    15
100
AcDbLine
 10
328.7823832034
 20
196.7608743809
 30
0.0
 11
322.1532571298
 21
200.587787405
 31
0.0
  0
LINE
  5
3CF
330
1F
100
AcDbEntity
  8
0
  6
Continuous
 62
     7
370
    15
100
AcDbLine
 10
322.1532571298
 20
200.587787405
 30
0.0
 11
322.1532571298
 21
247.1306136825
 31
0.0
  0
LWPOLYLINE
  5
3D0
330
1F
100
AcDbEntity
  8
0
  6
Continuous
 62
     7
370
    15
100
AcDbPolyline
 90
       21
 70
   128
 43
0.0
 10
325.3352376452
 20
208.2431560916
 10
324.9255351222
 20
208.4047391639
 10
324.5559371368
 20
208.4006390395
 10
324.2626225149
 20
208.2312570672
 10
324.0743029352
 20
207.9131735346
 10
324.0094124304
 20
207.4775246742
 10
324.0743029352
 20
206.9669548316
 10
324.2626225149
 20
206.4314421405
 10
324.5559371368
 20
205.9234063142
 10
324.9255351222
 20
205.492577439
 10
325.3352376452
 20
205.181128047
 10
325.7449401681
 20
205.0195449748
 10
326.1145381535
 20
205.0236450992
 10
326.4078527754
 20
205.1930270715
 10
326.5961723551
 20
205.511110604
 10
326.6610628599
 20
205.9467594645
 10
326.5961723551
 20
206.4573293071
 10
326.4078527754
 20
206.9928419982
 10
326.1145381535
 20
207.5008778245
 10
325.7449401681
 20
207.9317066997
 10
325.3352376452
 20
208.2431560916
  0
LWPOLYLINE
  5
3D1
330
1F
100
AcDbEntity
  8
0
  6
Continuous
 62
     7
370
    15
100
AcDbPolyline
 90
       21
 70
   128
 43
0.0
 10
325.3352376452
 20
231.2083664259
 10
324.9255351222
 20
231.3699494981
 10
324.5559371368
 20
231.3658493738
 10
324.2626225149
 20
231.1964674015
 10
324.0743029352
 20
230.8783838689
 10
324.0094124304
 20
230.4427350085
 10
324.0743029352
 20
229.9321651659
 10
324.2626225149
 20
229.3966524748
 10
324.5559371368
 20
228.8886166484
 10
324.9255351222
 20
228.4577877733
 10
325.3352376452
 20
228.1463383813
 10
325.7449401681
 20
227.9847553091
 10
326.1145381535
 20
227.9888554335
 10
326.4078527754
 20
228.1582374058
 10
326.5961723551
 20
228.4763209383
 10
326.6610628599
 20
228.9119697988
 10
326.5961723551
 20
229.4225396413
 10
326.4078527754
 20
229.9580523325
 10
326.1145381535
 20
230.4660881588
 10
325.7449401681
 20
230.896917034
 10
325.3352376452
 20
231.2083664259
  0
LWPOLYLINE
  5
3D2
330
1F
100
AcDbEntity
  8
0
  6
Continuous
 62
     7
370
    15
100
AcDbPolyline
 90
       21
 70
   128
 43
0.0
 10
325.3352376452
 20
238.8634365373
 10
324.9255351222
 20
239.0250196096
 10
324.5559371368
 20
239.0209194852
 10
324.2626225149
 20
238.8515375129
 10
324.0743029352
 20
238.5334539803
 10
324.0094124304
 20
238.0978051199
 10
324.0743029352
 20
237.5872352773
 10
324.2626225149
 20
237.0517225862
 10
324.5559371368
 20
236.5436867599
 10
324.9255351222
 20
236.1128578847
 10
325.3352376452
 20
235.8014084928
 10
325.7449401681
 20
235.6398254205
 10
326.1145381535
 20
235.6439255449
 10
326.4078527754
 20
235.8133075172
 10
326.5961723551
 20
236.1313910497
 10
326.6610628599
 20
236.5670399102
 10
326.5961723551
 20
237.0776097528
 10
326.4078527754
 20
237.6131224439
 10
326.1145381535
 20
238.1211582702
 10
325.7449401681
 20
238.5519871454
 10
325.3352376452
 20
238.8634365373
  0
LWPOLYLINE
  5
3D3
330
1F
100
AcDbEntity
  8
0
  6
Continuous
 62
     7
370
    15
100
AcDbPolyline
 90
       17
 70
   128
 43
0.0
 10
352.5705190194
 20
211.3031438727
 10
352.5224723279
 20
210.5287510952
 10
352.3116698404
 20
209.5107755666
 10
351.9349797235
 20
208.5088797148
 10
351.3957813359
 20
207.532051738
 10
350.6989119287
 20
206.5890549456
 10
349.85062325
 20
205.6883491413
 10
348.8585254588
 20
204.8380147279
 10
347.7315188528
 20
204.0456802171
 10
346.4797140227
 20
203.3184537926
 10
345.1143411476
 20
202.6628595407
 10
343.6476492471
 20
202.0847789222
 10
342.092796293
 20
201.5893980082
 10
340.4637311669
 20
201.181160955
 10
338.7750685216
 20
200.8637301349
 10
337.0419576708
 20
200.6399532801
 10
335.2799466815
 20
200.5118379353
  0
LINE
  5
3D4
330
1F
100
AcDbEntity
  8
0
  6
Continuous
 62
     7
370
    15
100
AcDbLine
 10
322.1532571298
 20
200.893940447
 30
0.0
 11
315.5241310562
 21
204.7208534711
 31
0.0
  0
LINE
  5
3D5
330
1F
100
AcDbEntity
  8
0
  6
Continuous
 62
     7
370
    15
100
AcDbLine
 10
315.5241310562
 20
204.7208534711
 30
0.0
 11
315.5241310562
 21
251.2636797486
 31
0.0
  0
LWPOLYLINE
  5
3D6
330
1F
100
AcDbEntity
  8
0
  6
Continuous
 62
     7
370
    15
100
AcDbPolyline
 90
       21
 70
   128
 43
0.0
 10
318.9712766145
 20
212.2231456368
 10
318.5615740916
 20
212.384728709
 10
318.1919761061
 20
212.3806285846
 10
317.8986614842
 20
212.2112466123
 10
317.7103419045
 20
211.8931630798
 10
317.6454513998
 20
211.4575142193
 10
317.7103419045
 20
210.9469443767
 10
317.8986614842
 20
210.4114316856
 10
318.1919761061
 20
209.9033958593
 10
318.5615740916
 20
209.4725669841
 10
318.9712766145
 20
209.1611175922
 10
319.3809791374
 20
208.9995345199
 10
319.7505771228
 20
209.0036346443
 10
320.0438917448
 20
209.1730166166
 10
320.2322113244
 20
209.4911001492
 10
320.2971018292
 20
209.9267490096
 10
320.2322113244
 20
210.4373188522
 10
320.0438917448
 20
210.9728315433
 10
319.7505771228
 20
211.4808673696
 10
319.3809791374
 20
211.9116962448
 10
318.9712766145
 20
212.2231456368
  0
LWPOLYLINE
  5
3D7
330
1F
100
AcDbEntity
  8
0
  6
Continuous
 62
     7
370
    15
100
AcDbPolyline
 90
       21
 70
   128
 43
0.0
 10
318.9712766145
 20
227.5332858596
 10
318.5615740916
 20
227.6948689319
 10
318.1919761061
 20
227.6907688075
 10
317.8986614842
 20
227.5213868352
 10
317.7103419045
 20
227.2033033026
 10
317.6454513998
 20
226.7676544422
 10
317.7103419045
 20
226.2570845996
 10
317.8986614842
 20
225.7215719085
 10
318.1919761061
 20
225.2135360822
 10
318.5615740916
 20
224.782707207
 10
318.9712766145
 20
224.471257815
 10
319.3809791374
 20
224.3096747428
 10
319.7505771228
 20
224.3137748672
 10
320.0438917448
 20
224.4831568395
 10
320.2322113244
 20
224.801240372
 10
320.2971018292
 20
225.2368892325
 10
320.2322113244
 20
225.7474590751
 10
320.0438917448
 20
226.2829717662
 10
319.7505771228
 20
226.7910075925
 10
319.3809791374
 20
227.2218364677
 10
318.9712766145
 20
227.5332858596
  0
LWPOLYLINE
  5
3D8
330
1F
100
AcDbEntity
  8
0
  6
Continuous
 62
     7
370
    15
100
AcDbPolyline
 90
       21
 70
   128
 43
0.0
 10
318.9712766145
 20
242.8434260825
 10
318.5615740916
 20
243.0050091547
 10
318.1919761061
 20
243.0009090303
 10
317.8986614842
 20
242.831527058
 10
317.7103419045
 20
242.5134435255
 10
317.6454513998
 20
242.077794665
 10
317.7103419045
 20
241.5672248225
 10
317.8986614842
 20
241.0317121313
 10
318.1919761061
 20
240.523676305
 10
318.5615740916
 20
240.0928474298
 10
318.9712766145
 20
239.7813980379
 10
319.3809791374
 20
239.6198149657
 10
319.7505771228
 20
239.62391509
 10
320.0438917448
 20
239.7932970623
 10
320.2322113244
 20
240.1113805949
 10
320.2971018292
 20
240.5470294554
 10
320.2322113244
 20
241.0575992979
 10
320.0438917448
 20
241.593111989
 10
319.7505771228
 20
242.1011478154
 10
319.3809791374
 20
242.5319766905
 10
318.9712766145
 20
242.8434260825
  0
LINE
  5
3D9
330
1F
100
AcDbEntity
  8
0
  6
Continuous
 62
     7
370
    15
100
AcDbLine
 10
326.2262621579
 20
250.378462664
 30
0.0
 11
326.2262621579
 21
250.8595981252
 31
0.0
  0
LINE
  5
3DA
330
1F
100
AcDbEntity
  8
0
  6
Continuous
 62
     7
370
    15
100
AcDbLine
 10
315.2589660133
 20
204.5677769502
 30
0.0
 11
315.2589660133
 21
251.1106032277
 31
0.0
  0
LINE
  5
3DB
330
1F
100
AcDbEntity
  8
0
  6
Continuous
 62
     7
370
    15
100
AcDbLine
 10
315.2589660133
 20
204.5677769502
 30
0.0
 11
308.6298399396
 21
208.3946899744
 31
0.0
  0
LINE
  5
3DC
330
1F
100
AcDbEntity
  8
0
  6
Continuous
 62
     7
370
    15
100
AcDbLine
 10
308.6298399396
 20
208.3946899744
 30
0.0
 11
308.6298399396
 21
254.9375162518
 31
0.0
  0
LWPOLYLINE
  5
3DD
330
1F
100
AcDbEntity
  8
0
  6
Continuous
 62
     7
370
    15
100
AcDbPolyline
 90
       21
 70
   128
 43
0.0
 10
312.0769854979
 20
215.89698214
 10
311.667282975
 20
216.0585652122
 10
311.2976849896
 20
216.0544650878
 10
311.0043703676
 20
215.8850831155
 10
310.816050788
 20
215.566999583
 10
310.7511602832
 20
215.1313507225
 10
310.816050788
 20
214.6207808799
 10
311.0043703676
 20
214.0852681888
 10
311.2976849896
 20
213.5772323625
 10
311.667282975
 20
213.1464034873
 10
312.0769854979
 20
212.8349540954
 10
312.4866880208
 20
212.6733710231
 10
312.8562860062
 20
212.6774711475
 10
313.1496006282
 20
212.8468531198
 10
313.3379202078
 20
213.1649366524
 10
313.4028107126
 20
213.6005855128
 10
313.3379202078
 20
214.1111553554
 10
313.1496006282
 20
214.6466680465
 10
312.8562860062
 20
215.1547038728
 10
312.4866880208
 20
215.585532748
 10
312.0769854979
 20
215.89698214
  0
LWPOLYLINE
  5
3DE
330
1F
100
AcDbEntity
  8
0
  6
Continuous
 62
     7
370
    15
100
AcDbPolyline
 90
       21
 70
   128
 43
0.0
 10
312.0769854979
 20
238.8621924742
 10
311.667282975
 20
239.0237755465
 10
311.2976849896
 20
239.0196754221
 10
311.0043703676
 20
238.8502934498
 10
310.816050788
 20
238.5322099173
 10
310.7511602832
 20
238.0965610568
 10
310.816050788
 20
237.5859912142
 10
311.0043703676
 20
237.0504785231
 10
311.2976849896
 20
236.5424426968
 10
311.667282975
 20
236.1116138216
 10
312.0769854979
 20
235.8001644297
 10
312.4866880208
 20
235.6385813574
 10
312.8562860062
 20
235.6426814818
 10
313.1496006282
 20
235.8120634541
 10
313.3379202078
 20
236.1301469867
 10
313.4028107126
 20
236.5657958471
 10
313.3379202078
 20
237.0763656897
 10
313.1496006282
 20
237.6118783808
 10
312.8562860062
 20
238.1199142071
 10
312.4866880208
 20
238.5507430823
 10
312.0769854979
 20
238.8621924742
  0
LWPOLYLINE
  5
3DF
330
1F
100
AcDbEntity
  8
0
  6
Continuous
 62
     7
370
    15
100
AcDbPolyline
 90
       21
 70
   128
 43
0.0
 10
312.0769854979
 20
246.5172625857
 10
311.667282975
 20
246.6788456579
 10
311.2976849896
 20
246.6747455335
 10
311.0043703676
 20
246.5053635612
 10
310.816050788
 20
246.1872800287
 10
310.7511602832
 20
245.7516311682
 10
310.816050788
 20
245.2410613257
 10
311.0043703676
 20
244.7055486345
 10
311.2976849896
 20
244.1975128082
 10
311.667282975
 20
243.766683933
 10
312.0769854979
 20
243.4552345411
 10
312.4866880208
 20
243.2936514689
 10
312.8562860062
 20
243.2977515932
 10
313.1496006282
 20
243.4671335655
 10
313.3379202078
 20
243.7852170981
 10
313.4028107126
 20
244.2208659586
 10
313.3379202078
 20
244.7314358011
 10
313.1496006282
 20
245.2669484922
 10
312.8562860062
 20
245.7749843186
 10
312.4866880208
 20
246.2058131937
 10
312.0769854979
 20
246.5172625857
  0
LINE
  5
3E0
330
1F
100
AcDbEntity
  8
0
  6
Continuous
 62
     7
370
    15
100
AcDbLine
 10
315.5241310562
 20
204.7208534711
 30
0.0
 11
315.2589660133
 21
204.5677769502
 31
0.0
  0
LINE
  5
3E1
330
1F
100
AcDbEntity
  8
0
  6
Continuous
 62
     7
370
    15
100
AcDbLine
 10
326.9480120357
 20
250.1489983076
 30
0.0
 11
326.9480120357
 21
265.5429419929
 31
0.0
  0
LINE
  5
3E2
330
1F
100
AcDbEntity
  8
0
  6
Continuous
 62
     7
370
    15
100
AcDbLine
 10
346.4483696802
 20
253.1725279415
 30
0.0
 11
346.4483696802
 21
253.9876300805
 31
0.0
  0
LINE
  5
3E3
330
1F
100
AcDbEntity
  8
0
  6
Continuous
 62
     7
370
    15
100
AcDbLine
 10
346.7419674021
 20
254.3264638524
 30
0.0
 11
346.7419674021
 21
262.2438331045
 31
0.0
  0
LINE
  5
3E4
330
1F
100
AcDbEntity
  8
0
  6
Continuous
 62
     7
370
    15
100
AcDbLine
 10
360.3370233139
 20
219.5692760049
 30
0.0
 11
360.3370233139
 21
221.6018913362
 31
0.0
  0
LINE
  5
3E5
330
1F
100
AcDbEntity
  8
0
  6
Continuous
 62
     7
370
    15
100
AcDbLine
 10
360.3370233139
 20
244.7429934362
 30
0.0
 11
360.3370233139
 21
266.1121022824
 31
0.0
  0
LINE
  5
3E6
330
1F
100
AcDbEntity
  8
0
  6
Continuous
 62
     7
370
    15
100
AcDbLine
 10
360.3370233139
 20
219.5692760049
 30
0.0
 11
352.5705190194
 21
215.0857685099
 31
0.0
  0
LINE
  5
3E7
330
1F
100
AcDbEntity
  8
0
  6
Continuous
 62
     7
370
    15
100
AcDbLine
 10
341.4386665432
 20
250.3865767765
 30
0.0
 11
341.4386665432
 21
265.3053635239
 31
0.0
  0
LINE
  5
3E8
330
1F
100
AcDbEntity
  8
0
  6
Continuous
 62
     7
370
    15
100
AcDbLine
 10
333.2947309502
 20
249.1919758698
 30
0.0
 11
333.2947309502
 21
266.0883813885
 31
0.0
  0
LINE
  5
3E9
330
1F
100
AcDbEntity
  8
0
  6
Continuous
 62
     7
370
    15
100
AcDbLine
 10
327.1369538077
 20
250.0937472448
 30
0.0
 11
327.1369538077
 21
265.1358731667
 31
0.0
  0
LINE
  5
3EA
330
1F
100
AcDbEntity
  8
0
  6
Continuous
 62
     7
370
    15
100
AcDbLine
 10
351.5865768967
 20
270.8574246699
 30
0.0
 11
351.5865768967
 21
271.1636274743
 31
0.0
  0
LINE
  5
3EB
330
1F
100
AcDbEntity
  8
0
  6
Continuous
 62
     8
370
    15
100
AcDbLine
 10
369.3632804704
 20
220.5090792773
 30
0.0
 11
368.7480029893
 21
220.8642714067
 31
0.0
  0
LINE
  5
3EC
330
1F
100
AcDbEntity
  8
0
  6
Continuous
 62
     8
370
    15
100
AcDbLine
 10
380.7855431043
 20
240.3104648049
 30
0.0
 11
380.1976384986
 21
240.6498549096
 31
0.0
  0
LINE
  5
3ED
330
1F
100
AcDbEntity
  8
0
  6
Continuous
 62
     8
370
    15
100
AcDbLine
 10
336.1476032192
 20
268.6630374386
 30
0.0
 11
336.3000100456
 21
268.5750548505
 31
0.0
  0
LINE
  5
3EE
330
1F
100
AcDbEntity
  8
0
  6
Continuous
 62
     7
370
    15
100
AcDbLine
 10
351.1294688294
 20
156.386566352
 30
0.0
 11
351.2677942675
 21
156.3066868152
 31
0.0
  0
SPLINE
  5
3EF
330
1F
100
AcDbEntity
  8
0
  6
Continuous
 62
     7
370
    15
100
AcDbSpline
210
0.0
220
0.0
230
1.0
 70
     8
 71
     3
 72
    11
 73
     7
 74
     0
 42
0.000000001
 43
0.00000001
 40
0.0
 40
0.0
 40
0.0
 40
0.0
 40
0.196799843230022
 40
0.4738393018502124
 40
0.7572990977187687
 40
1.0
 40
1.0
 40
1.0
 40
1.0
 10
371.368121945667
 20
160.5525112554641
 30
0.0
 10
371.4531952686954
 20
160.50550529929
 30
0.0
 10
371.6580281757151
 20
160.3923280269367
 30
0.0
 10
372.0463979173328
 20
160.3749034601923
 30
0.0
 10
372.4591868584271
 20
160.4559637796479
 30
0.0
 10
372.7256094763707
 20
160.5927671878937
 30
0.0
 10
372.8485016079769
 20
160.6558701728433
 30
0.0
  0
SPLINE
  5
3F0
330
1F
100
AcDbEntity
  8
0
  6
Continuous
 62
     7
370
    15
100
AcDbSpline
210
0.0
220
0.0
230
1.0
 70
     8
 71
     3
 72
    18
 73
    14
 74
     0
 42
0.000000001
 43
0.00000001
 40
0.0
 40
0.0
 40
0.0
 40
0.0
 40
0.0571536982549111
 40
0.1636589013892227
 40
0.2698399201737445
 40
0.3757847496224588
 40
0.4819605576149146
 40
0.5887985393662255
 40
0.6969329090866184
 40
0.806613422787103
 40
0.9011614213842866
 40
0.9921514714062475
 40
1.0
 40
1.0
 40
1.0
 40
1.0
 10
372.8485016079769
 20
160.6558701728433
 30
0.0
 10
372.9318549360614
 20
160.7079071798901
 30
0.0
 10
373.1705361503653
 20
160.856914499887
 30
0.0
 10
373.5441972868161
 20
161.1934533285716
 30
0.0
 10
373.9367930131239
 20
161.6763919683723
 30
0.0
 10
374.2586138649073
 20
162.2245696689299
 30
0.0
 10
374.4921183380741
 20
162.8056125212503
 30
0.0
 10
374.6231359761129
 20
163.3909021836671
 30
0.0
 10
374.6388760882829
 20
163.9502447675236
 30
0.0
 10
374.5354379729225
 20
164.438231127176
 30
0.0
 10
374.3146232499663
 20
164.8118523206317
 30
0.0
 10
374.1178807871156
 20
165.030102832063
 30
0.0
 10
373.9845931319284
 20
165.0803176493385
 30
0.0
 10
373.974009086836
 20
165.084305084556
 30
0.0
  0
LINE
  5
3F1
330
1F
100
AcDbEntity
  8
0
  6
Continuous
 62
     7
370
    15
100
AcDbLine
 10
370.8875451643
 20
160.810651922
 30
0.0
 11
371.348623509
 21
160.5444770592
 31
0.0
  0
LINE
  5
3F2
330
1F
100
AcDbEntity
  8
0
  6
Continuous
 62
     7
370
    15
100
AcDbLine
 10
373.9734101822
 20
165.0912335867
 30
0.0
 11
373.5123318374
 21
165.3574084495
 31
0.0
  0
SPLINE
  5
3F3
330
1F
100
AcDbEntity
  8
0
  6
Continuous
 62
     7
370
    15
100
AcDbSpline
210
0.0
220
0.0
230
1.0
 70
     8
 71
     3
 72
    10
 73
     6
 74
     0
 42
0.000000001
 43
0.00000001
 40
0.0
 40
0.0
 40
0.0
 40
0.0
 40
0.3559357986660222
 40
0.856994434422785
 40
1.0
 40
1.0
 40
1.0
 40
1.0
 10
371.368121945667
 20
136.0562868988916
 30
0.0
 10
371.4531756339782
 20
136.0103337510603
 30
0.0
 10
371.6579612660586
 20
135.8996913484607
 30
0.0
 10
371.9418554552551
 20
135.8685623211516
 30
0.0
 10
372.1242895351206
 20
135.9119282614304
 30
0.0
 10
372.164796504329
 20
135.9215570698683
 30
0.0
  0
LINE
  5
3F4
330
1F
100
AcDbEntity
  8
0
  6
Continuous
 62
     7
370
    15
100
AcDbLine
 10
370.8875451643
 20
136.3144275654
 30
0.0
 11
371.348623509
 21
136.0482527027
 31
0.0
  0
SPLINE
  5
3F5
330
1F
100
AcDbEntity
  8
0
  6
Continuous
 62
     7
370
    15
100
AcDbSpline
210
0.0
220
0.0
230
1.0
 70
     8
 71
     3
 72
    11
 73
     7
 74
     0
 42
0.000000001
 43
0.00000001
 40
0.0
 40
0.0
 40
0.0
 40
0.0
 40
0.1967998432300217
 40
0.4738393018502124
 40
0.7572990977187685
 40
1.0
 40
1.0
 40
1.0
 40
1.0
 10
371.368121945667
 20
166.6765673446072
 30
0.0
 10
371.4531952686954
 20
166.6295613884331
 30
0.0
 10
371.6580281757151
 20
166.5163841160798
 30
0.0
 10
372.0463979173328
 20
166.4989595493355
 30
0.0
 10
372.4591868584271
 20
166.5800198687911
 30
0.0
 10
372.7256094763707
 20
166.7168232770368
 30
0.0
 10
372.8485016079769
 20
166.7799262619864
 30
0.0
  0
SPLINE
  5
3F6
330
1F
100
AcDbEntity
  8
0
  6
Continuous
 62
     7
370
    15
100
AcDbSpline
210
0.0
220
0.0
230
1.0
 70
     8
 71
     3
 72
    18
 73
    14
 74
     0
 42
0.000000001
 43
0.00000001
 40
0.0
 40
0.0
 40
0.0
 40
0.0
 40
0.0571536982549111
 40
0.1636589013892226
 40
0.2698399201737444
 40
0.3757847496224587
 40
0.4819605576149144
 40
0.5887985393662252
 40
0.6969329090866181
 40
0.8066134227871028
 40
0.9011614213842863
 40
0.9921514714062473
 40
1.0
 40
1.0
 40
1.0
 40
1.0
 10
372.8485016079769
 20
166.7799262619864
 30
0.0
 10
372.9318549360614
 20
166.8319632690333
 30
0.0
 10
373.1705361503653
 20
166.9809705890302
 30
0.0
 10
373.5441972868161
 20
167.3175094177147
 30
0.0
 10
373.9367930131239
 20
167.8004480575154
 30
0.0
 10
374.2586138649074
 20
168.348625758073
 30
0.0
 10
374.4921183380741
 20
168.9296686103934
 30
0.0
 10
374.6231359761129
 20
169.5149582728102
 30
0.0
 10
374.638876088283
 20
170.0743008566667
 30
0.0
 10
374.5354379729225
 20
170.5622872163191
 30
0.0
 10
374.3146232499663
 20
170.9359084097748
 30
0.0
 10
374.1178807871156
 20
171.1541589212061
 30
0.0
 10
373.9845931319284
 20
171.2043737384816
 30
0.0
 10
373.9740090868361
 20
171.2083611736991
 30
0.0
  0
LINE
  5
3F7
330
1F
100
AcDbEntity
  8
0
  6
Continuous
 62
     7
370
    15
100
AcDbLine
 10
370.8875451643
 20
166.9347080111
 30
0.0
 11
371.348623509
 21
166.6685331484
 31
0.0
  0
LINE
  5
3F8
330
1F
100
AcDbEntity
  8
0
  6
Continuous
 62
     7
370
    15
100
AcDbLine
 10
373.9734101822
 20
171.2152896759
 30
0.0
 11
373.5123318374
 21
171.4814645386
 31
0.0
  0
SPLINE
  5
3F9
330
1F
100
AcDbEntity
  8
0
  6
Continuous
 62
     7
370
    15
100
AcDbSpline
210
0.0
220
0.0
230
1.0
 70
     8
 71
     3
 72
    15
 73
    11
 74
     0
 42
0.000000001
 43
0.00000001
 40
0.0
 40
0.0
 40
0.0
 40
0.0
 40
0.0987300200874327
 40
0.2377144362620589
 40
0.3799197900913883
 40
0.5016773309724393
 40
0.5857124320413494
 40
0.7423107937053322
 40
0.8984324956704426
 40
1.0
 40
1.0
 40
1.0
 40
1.0
 10
371.3681219456669
 20
129.9322308097485
 30
0.0
 10
371.4531864487307
 20
129.8852780702995
 30
0.0
 10
371.6579981197278
 20
129.7722289290233
 30
0.0
 10
372.0465790744747
 20
129.753529972701
 30
0.0
 10
372.4585399310085
 20
129.8395866782145
 30
0.0
 10
372.8121950657162
 20
130.0053754355525
 30
0.0
 10
373.1702695807871
 20
130.2396104018144
 30
0.0
 10
373.5423015697653
 20
130.5732901023362
 30
0.0
 10
373.8977965390614
 20
130.9967639698179
 30
0.0
 10
374.066404439486
 20
131.3008108022181
 30
0.0
 10
374.1328607878236
 20
131.4206500396089
 30
0.0
  0
LINE
  5
3FA
330
1F
100
AcDbEntity
  8
0
  6
Continuous
 62
     7
370
    15
100
AcDbLine
 10
370.8875451643
 20
130.1903714763
 30
0.0
 11
371.348623509
 21
129.9241966135
 31
0.0
  0
LINE
  5
3FB
330
1F
100
AcDbEntity
  8
0
  6
Continuous
 62
     7
370
    15
100
AcDbLine
 10
356.485949226
 20
165.4227357832
 30
0.0
 11
355.2677120087
 21
166.1260091591
 31
0.0
  0
LINE
  5
3FC
330
1F
100
AcDbEntity
  8
0
  6
Continuous
 62
     7
370
    15
100
AcDbLine
 10
349.6431691377
 20
156.3829594573
 30
0.0
 11
354.9464699966
 21
153.3214290379
 31
0.0
  0
LINE
  5
3FD
330
1F
100
AcDbEntity
  8
0
  6
Continuous
 62
     7
370
    15
100
AcDbLine
 10
335.8425965729
 20
157.5842828089
 30
0.0
 11
341.6749214629
 21
154.217353317
 31
0.0
  0
LINE
  5
3FE
330
1F
100
AcDbEntity
  8
0
  6
Continuous
 62
     7
370
    15
100
AcDbLine
 10
353.1598235433
 20
174.1103502008
 30
0.0
 11
347.3278819601
 21
177.4770584144
 31
0.0
  0
LINE
  5
3FF
330
1F
100
AcDbEntity
  8
0
  6
Continuous
 62
     7
370
    15
100
AcDbLine
 10
345.6602901874
 20
148.8722069559
 30
0.0
 11
346.4556560259
 21
149.3315111565
 31
0.0
  0
LINE
  5
400
330
1F
100
AcDbEntity
  8
0
  6
Continuous
 62
     7
370
    15
100
AcDbLine
 10
338.5895223133
 20
151.9393825874
 30
0.0
 11
344.1602028372
 21
148.7234971731
 31
0.0
  0
LINE
  5
401
330
1F
100
AcDbEntity
  8
0
  6
Continuous
 62
     7
370
    15
100
AcDbLine
 10
356.485949226
 20
176.2477600602
 30
0.0
 11
353.5881482176
 21
177.9206249744
 31
0.0
  0
LINE
  5
402
330
1F
100
AcDbEntity
  8
0
  6
Continuous
 62
     7
370
    15
100
AcDbLine
 10
351.6602902186
 20
149.4658007591
 30
0.0
 11
352.4556560571
 21
149.9251049597
 31
0.0
  0
LINE
  5
403
330
1F
100
AcDbEntity
  8
0
  6
Continuous
 62
     7
370
    15
100
AcDbLine
 10
348.7045292157
 20
150.157341818
 30
0.0
 11
350.1600673454
 21
149.3170775413
 31
0.0
  0
LINE
  5
404
330
1F
100
AcDbEntity
  8
0
  6
Continuous
 62
     7
370
    15
100
AcDbLine
 10
370.312746101
 20
137.6850890526
 30
0.0
 11
376.1459773951
 21
134.3176363048
 31
0.0
  0
LINE
  5
405
330
1F
100
AcDbEntity
  8
0
  6
Continuous
 62
     7
370
    15
100
AcDbLine
 10
387.6300260158
 20
154.2111258804
 30
0.0
 11
381.7976481814
 21
157.5780859364
 31
0.0
  0
LINE
  5
406
330
1F
100
AcDbEntity
  8
0
  6
Continuous
 62
     7
370
    15
100
AcDbLine
 10
374.2974253394
 20
151.0955039768
 30
0.0
 11
373.5020595008
 21
150.6361997762
 31
0.0
  0
LINE
  5
407
330
1F
100
AcDbEntity
  8
0
  6
Continuous
 62
     7
370
    15
100
AcDbLine
 10
372.1766413687
 20
148.3402594602
 30
0.0
 11
372.1766413687
 21
147.4218003344
 31
0.0
  0
LINE
  5
408
330
1F
100
AcDbEntity
  8
0
  6
Continuous
 62
     7
370
    15
100
AcDbLine
 10
369.6913599945
 20
139.9769585194
 30
0.0
 11
369.6913599945
 21
139.0584993936
 31
0.0
  0
LINE
  5
409
330
1F
100
AcDbEntity
  8
0
  6
Continuous
 62
     7
370
    15
100
AcDbLine
 10
380.2974253082
 20
157.4293627187
 30
0.0
 11
379.5020594697
 21
156.9700585181
 31
0.0
  0
LINE
  5
40A
330
1F
100
AcDbEntity
  8
0
  6
Continuous
 62
     7
370
    15
100
AcDbLine
 10
372.7980274752
 20
132.1912329087
 30
0.0
 11
378.368687818
 21
128.9753591446
 31
0.0
  0
LINE
  5
40B
330
1F
100
AcDbEntity
  8
0
  6
Continuous
 62
     7
370
    15
100
AcDbLine
 10
393.369304569
 20
154.9554522402
 30
0.0
 11
387.7976481814
 21
158.1719010087
 31
0.0
  0
LINE
  5
40C
330
1F
100
AcDbEntity
  8
0
  6
Continuous
 62
     7
370
    15
100
AcDbLine
 10
371.3867026591
 20
143.830684738
 30
0.0
 11
371.5288261149
 21
143.7486386134
 31
0.0
  0
LINE
  5
40D
330
1F
100
AcDbEntity
  8
0
  6
Continuous
 62
     7
370
    15
100
AcDbLine
 10
377.1536597518
 20
153.4915204597
 30
0.0
 11
377.0112455302
 21
153.5737344398
 31
0.0
  0
LINE
  5
40E
330
1F
100
AcDbEntity
  8
0
  6
Continuous
 62
     7
370
    15
100
AcDbLine
 10
372.1766413687
 20
134.4831023754
 30
0.0
 11
372.1766413687
 21
133.5646432496
 31
0.0
  0
LINE
  5
40F
330
1F
100
AcDbEntity
  8
0
  6
Continuous
 62
     7
370
    15
100
AcDbLine
 10
386.2974253082
 20
158.023177791
 30
0.0
 11
385.5020594697
 21
157.5638735903
 31
0.0
  0
LINE
  5
410
330
1F
100
AcDbEntity
  8
0
  6
Continuous
 62
     7
370
    15
100
AcDbLine
 10
383.7682373043
 20
129.9154939984
 30
0.0
 11
384.6302698179
 21
129.4178532209
 31
0.0
  0
LINE
  5
411
330
1F
100
AcDbEntity
  8
0
  6
Continuous
 62
     7
370
    15
100
AcDbLine
 10
396.1149766136
 20
149.3112757619
 30
0.0
 11
395.2659637292
 21
149.8014004674
 31
0.0
  0
LINE
  5
412
330
1F
100
AcDbEntity
  8
0
  6
Continuous
 62
     7
370
    15
100
AcDbLine
 10
355.37768495
 20
154.0683961817
 30
0.0
 11
356.485949226
 21
153.4286088335
 31
0.0
  0
LINE
  5
413
330
1F
100
AcDbEntity
  8
0
  6
Continuous
 62
     7
370
    15
100
AcDbLine
 10
369.696597269
 20
145.8022640495
 30
0.0
 11
370.321198294
 21
145.4416895529
 31
0.0
  0
LINE
  5
414
330
1F
100
AcDbEntity
  8
0
  6
Continuous
 62
     7
370
    15
100
AcDbLine
 10
375.0833112582
 20
153.6908049671
 30
0.0
 11
374.4587102332
 21
154.0513794637
 31
0.0
  0
LINE
  5
415
330
1F
100
AcDbEntity
  8
0
  6
Continuous
 62
     7
370
    15
100
AcDbLine
 10
364.2524535205
 20
186.5465075237
 30
0.0
 11
364.2524535205
 21
182.7638828865
 31
0.0
  0
ARC
  5
416
330
1F
100
AcDbEntity
  8
0
  6
Continuous
 62
     7
370
    15
100
AcDbCircle
 10
372.7768379804
 20
145.3746133372
 30
0.0
 40
0.8206526578550288
100
AcDbArc
 50
135.3596309015
 51
199.8474040478
  0
LWPOLYLINE
  5
417
330
1F
100
AcDbEntity
  8
0
  6
Continuous
 62
     7
370
    15
100
AcDbPolyline
 90
       18
 70
   128
 43
0.0
 10
351.1296153585
 20
158.4686608192
 10
350.8039339079
 20
158.5863702633
 10
350.5222375419
 20
158.5475774842
 10
350.3225709157
 20
158.3575216616
 10
350.2319001134
 20
158.0418708874
 10
350.2624707294
 20
157.6432555479
 10
350.4101540325
 20
157.2155108533
 10
350.6550045744
 20
156.816406095
 10
350.9639539326
 20
156.4998425821
 10
351.2952767843
 20
156.3085739711
 10
351.6042261425
 20
156.2684321477
 10
351.8490766844
 20
156.3848384877
 10
351.9967599876
 20
156.6420716699
 10
352.0273306036
 20
157.0053909275
 10
351.9366598013
 20
157.4257279817
 10
351.736993175
 20
157.846313984
 10
351.455296809
 20
158.2103464644
 10
351.1296153585
 20
158.4686608192
  0
LINE
  5
418
330
1F
100
AcDbEntity
  8
0
  6
Continuous
 62
     7
370
    15
100
AcDbLine
 10
351.4080386536
 20
157.8237176925
 30
0.0
 11
350.8511920634
 21
158.1451783865
 31
0.0
  0
LINE
  5
419
330
1F
100
AcDbEntity
  8
0
  6
Continuous
 62
     7
370
    15
100
AcDbLine
 10
350.8511920634
 20
158.1451783865
 30
0.0
 11
350.5727687683
 21
157.749031978
 31
0.0
  0
LINE
  5
41A
330
1F
100
AcDbEntity
  8
0
  6
Continuous
 62
     7
370
    15
100
AcDbLine
 10
350.5727687683
 20
157.749031978
 30
0.0
 11
350.8511920634
 21
157.0314248755
 31
0.0
  0
LINE
  5
41B
330
1F
100
AcDbEntity
  8
0
  6
Continuous
 62
     7
370
    15
100
AcDbLine
 10
350.8511920634
 20
157.0314248755
 30
0.0
 11
351.4080386536
 21
156.7099641815
 31
0.0
  0
LINE
  5
41C
330
1F
100
AcDbEntity
  8
0
  6
Continuous
 62
     7
370
    15
100
AcDbLine
 10
351.4080386536
 20
156.7099641815
 30
0.0
 11
351.6864619487
 21
157.10611059
 31
0.0
  0
LINE
  5
41D
330
1F
100
AcDbEntity
  8
0
  6
Continuous
 62
     7
370
    15
100
AcDbLine
 10
351.6864619487
 20
157.10611059
 30
0.0
 11
351.4080386536
 21
157.8237176925
 31
0.0
  0
LINE
  5
41E
330
1F
100
AcDbEntity
  8
0
  6
Continuous
 62
     7
370
    15
100
AcDbLine
 10
351.0550904459
 20
158.0274703558
 30
0.0
 11
350.5727687683
 21
157.749031978
 31
0.0
  0
LINE
  5
41F
330
1F
100
AcDbEntity
  8
0
  6
Continuous
 62
     7
370
    15
100
AcDbLine
 10
351.5572872495
 20
157.43904495
 30
0.0
 11
350.8511920634
 21
157.0314248755
 31
0.0
  0
LWPOLYLINE
  5
420
330
1F
100
AcDbEntity
  8
0
  6
Continuous
 62
     7
370
    15
100
AcDbPolyline
 90
       23
 70
   128
 43
0.0
 10
372.9261818886
 20
160.8275619753
 10
373.3744156418
 20
161.1607420036
 10
373.786336162
 20
161.6157701485
 10
374.1285720986
 20
162.1557827358
 10
374.3733975312
 20
162.7370311573
 10
374.5009781594
 20
163.3124261226
 10
374.5009781594
 20
163.8353525538
 10
374.3733975312
 20
164.2634460612
 10
374.1285720986
 20
164.562025055
 10
373.786336162
 20
164.7069004407
 10
373.3744156418
 20
164.6863352761
 10
372.9261818886
 20
164.5019956288
 10
372.4779481353
 20
164.1688156004
 10
372.0660276151
 20
163.7137874555
 10
371.7237916785
 20
163.1737748682
 10
371.4789662459
 20
162.5925264467
 10
371.3513856177
 20
162.0171314814
 10
371.3513856177
 20
161.4942050502
 10
371.4789662459
 20
161.0661115428
 10
371.7237916785
 20
160.767532549
 10
372.0660276151
 20
160.6226571634
 10
372.4779481353
 20
160.6432223279
 10
372.9261818886
 20
160.8275619753
  0
LINE
  5
421
330
1F
100
AcDbEntity
  8
0
  6
Continuous
 62
     7
370
    15
100
AcDbLine
 10
372.4669025618
 20
161.4810340769
 30
0.0
 11
373.3854612153
 21
162.0113067004
 31
0.0
  0
LINE
  5
422
330
1F
100
AcDbEntity
  8
0
  6
Continuous
 62
     7
370
    15
100
AcDbLine
 10
373.3854612153
 20
162.0113067004
 30
0.0
 11
373.8447405421
 21
163.1950514255
 31
0.0
  0
LINE
  5
423
330
1F
100
AcDbEntity
  8
0
  6
Continuous
 62
     7
370
    15
100
AcDbLine
 10
373.8447405421
 20
163.1950514255
 30
0.0
 11
373.3854612153
 21
163.8485235271
 31
0.0
  0
LINE
  5
424
330
1F
100
AcDbEntity
  8
0
  6
Continuous
 62
     7
370
    15
100
AcDbLine
 10
373.3854612153
 20
163.8485235271
 30
0.0
 11
372.4669025618
 21
163.3182509036
 31
0.0
  0
LINE
  5
425
330
1F
100
AcDbEntity
  8
0
  6
Continuous
 62
     7
370
    15
100
AcDbLine
 10
372.4669025618
 20
163.3182509036
 30
0.0
 11
372.007623235
 21
162.1345061785
 31
0.0
  0
LINE
  5
426
330
1F
100
AcDbEntity
  8
0
  6
Continuous
 62
     7
370
    15
100
AcDbLine
 10
372.007623235
 20
162.1345061785
 30
0.0
 11
372.4669025618
 21
161.4810340769
 31
0.0
  0
LINE
  5
427
330
1F
100
AcDbEntity
  8
0
  6
Continuous
 62
     7
370
    15
100
AcDbLine
 10
373.0491161124
 20
163.6543556322
 30
0.0
 11
373.8447405421
 21
163.1950514255
 31
0.0
  0
LINE
  5
428
330
1F
100
AcDbEntity
  8
0
  6
Continuous
 62
     7
370
    15
100
AcDbLine
 10
372.2207062274
 20
162.6837054425
 30
0.0
 11
373.3854612153
 21
162.0113067004
 31
0.0
  0
LWPOLYLINE
  5
429
330
1F
100
AcDbEntity
  8
0
  6
Continuous
 62
     7
370
    15
100
AcDbPolyline
 90
       23
 70
   128
 43
0.0
 10
372.9261818886
 20
166.9516180644
 10
373.3744156418
 20
167.2847980928
 10
373.786336162
 20
167.7398262377
 10
374.1285720986
 20
168.279838825
 10
374.3733975312
 20
168.8610872464
 10
374.5009781594
 20
169.4364822118
 10
374.5009781594
 20
169.9594086429
 10
374.3733975312
 20
170.3875021504
 10
374.1285720986
 20
170.6860811441
 10
373.786336162
 20
170.8309565298
 10
373.3744156418
 20
170.8103913653
 10
372.9261818886
 20
170.6260517179
 10
372.4779481353
 20
170.2928716896
 10
372.0660276151
 20
169.8378435447
 10
371.7237916785
 20
169.2978309573
 10
371.4789662459
 20
168.7165825359
 10
371.3513856177
 20
168.1411875705
 10
371.3513856177
 20
167.6182611394
 10
371.4789662459
 20
167.1901676319
 10
371.7237916785
 20
166.8915886382
 10
372.0660276151
 20
166.7467132525
 10
372.4779481353
 20
166.767278417
 10
372.9261818886
 20
166.9516180644
  0
LINE
  5
42A
330
1F
100
AcDbEntity
  8
0
  6
Continuous
 62
     7
370
    15
100
AcDbLine
 10
372.4669025618
 20
167.605090166
 30
0.0
 11
373.3854612153
 21
168.1353627895
 31
0.0
  0
LINE
  5
42B
330
1F
100
AcDbEntity
  8
0
  6
Continuous
 62
     7
370
    15
100
AcDbLine
 10
373.3854612153
 20
168.1353627895
 30
0.0
 11
373.8447405421
 21
169.3191075147
 31
0.0
  0
LINE
  5
42C
330
1F
100
AcDbEntity
  8
0
  6
Continuous
 62
     7
370
    15
100
AcDbLine
 10
373.8447405421
 20
169.3191075147
 30
0.0
 11
373.3854612153
 21
169.9725796163
 31
0.0
  0
LINE
  5
42D
330
1F
100
AcDbEntity
  8
0
  6
Continuous
 62
     7
370
    15
100
AcDbLine
 10
373.3854612153
 20
169.9725796163
 30
0.0
 11
372.4669025618
 21
169.4423069928
 31
0.0
  0
LINE
  5
42E
330
1F
100
AcDbEntity
  8
0
  6
Continuous
 62
     7
370
    15
100
AcDbLine
 10
372.4669025618
 20
169.4423069928
 30
0.0
 11
372.007623235
 21
168.2585622676
 31
0.0
  0
LINE
  5
42F
330
1F
100
AcDbEntity
  8
0
  6
Continuous
 62
     7
370
    15
100
AcDbLine
 10
372.007623235
 20
168.2585622676
 30
0.0
 11
372.4669025618
 21
167.605090166
 31
0.0
  0
LINE
  5
430
330
1F
100
AcDbEntity
  8
0
  6
Continuous
 62
     7
370
    15
100
AcDbLine
 10
373.0491161124
 20
169.7784117214
 30
0.0
 11
373.8447405421
 21
169.3191075147
 31
0.0
  0
LINE
  5
431
330
1F
100
AcDbEntity
  8
0
  6
Continuous
 62
     7
370
    15
100
AcDbLine
 10
372.2207062274
 20
168.8077615317
 30
0.0
 11
373.3854612153
 21
168.1353627895
 31
0.0
  0
LINE
  5
432
330
1F
100
AcDbEntity
  8
0
  6
Continuous
 62
     7
370
    15
100
AcDbLine
 10
372.4669025618
 20
130.8607536312
 30
0.0
 11
373.3854612153
 21
131.3910262547
 31
0.0
  0
LINE
  5
433
330
1F
100
AcDbEntity
  8
0
  6
Continuous
 62
     7
370
    15
100
AcDbLine
 10
373.3854612153
 20
131.3910262547
 30
0.0
 11
373.5316211502
 21
131.7677382944
 31
0.0
  0
LINE
  5
434
330
1F
100
AcDbEntity
  8
0
  6
Continuous
 62
     7
370
    15
100
AcDbLine
 10
372.4173563856
 20
132.5702703388
 30
0.0
 11
372.007623235
 21
131.5142257328
 31
0.0
  0
LINE
  5
435
330
1F
100
AcDbEntity
  8
0
  6
Continuous
 62
     7
370
    15
100
AcDbLine
 10
372.007623235
 20
131.5142257328
 30
0.0
 11
372.4669025618
 21
130.8607536312
 31
0.0
  0
LINE
  5
436
330
1F
100
AcDbEntity
  8
0
  6
Continuous
 62
     7
370
    15
100
AcDbLine
 10
372.2207062274
 20
132.0634249968
 30
0.0
 11
373.3854612153
 21
131.3910262547
 31
0.0
  0
LWPOLYLINE
  5
437
330
1F
100
AcDbEntity
  8
0
  6
Continuous
 62
     7
370
    15
100
AcDbPolyline
 90
       20
 70
   128
 43
0.0
 10
355.2677120087
 20
166.1260091591
 10
355.0121126351
 20
166.2488940257
 10
354.4441783953
 20
166.380249326
 10
353.8158173631
 20
166.35586085
 10
353.1461219705
 20
166.1764696292
 10
352.4554405732
 20
165.847526375
 10
351.7647591759
 20
165.3790258619
 10
351.0950637833
 20
164.7852032407
 10
350.4667027511
 20
164.0841015115
 10
349.8987685113
 20
163.2970232953
 10
349.4085174583
 20
162.4478835656
 10
349.0108456224
 20
161.5624830034
 10
348.717836061
 20
160.6677240567
 10
348.5383917214
 20
159.7907935232
 10
348.477964929
 20
158.9583364937
 10
348.5383917214
 20
158.1956467535
 10
348.717836061
 20
157.5258982446
 10
349.0108456224
 20
156.9694409365
 10
349.4085174583
 20
156.5431825029
 10
349.6431691377
 20
156.3829594573
  0
ARC
  5
438
330
1F
100
AcDbEntity
  8
0
  6
Continuous
 62
     7
370
    15
100
AcDbCircle
 10
363.6122550138
 20
146.8851616254
 30
0.0
 40
10.95787267205457
100
AcDbArc
 50
143.4968189919
 51
156.7048662555
  0
LWPOLYLINE
  5
439
330
1F
100
AcDbEntity
  8
0
  6
Continuous
 62
     7
370
    15
100
AcDbPolyline
 90
        9
 70
   128
 43
0.0
 10
351.3632127239
 20
149.9575846544
 10
351.5751730059
 20
149.802955448
 10
351.8384446656
 20
149.7446829831
 10
352.1376814241
 20
149.7861640002
 10
352.4554405732
 20
149.9249805433
 10
352.7731997223
 20
150.1530409045
 10
353.0724364808
 20
150.4570512948
 10
353.3357081405
 20
150.8192907479
 10
353.5476684225
 20
151.2186440868
  0
LWPOLYLINE
  5
43A
330
1F
100
AcDbEntity
  8
0
  6
Continuous
 62
     7
370
    15
100
AcDbPolyline
 90
        9
 70
   128
 43
0.0
 10
346.7157458103
 20
149.5114603278
 10
347.3778160002
 20
149.9886297489
 10
348.0447729164
 20
150.3547388521
 10
348.7020074111
 20
150.6017683159
 10
349.3351232984
 20
150.7243071612
 10
349.9302526907
 20
150.7196712743
 10
350.4743597635
 20
150.5879622007
 10
350.9555262948
 20
150.3320649203
 10
351.3632127239
 20
149.9575846544
  0
LWPOLYLINE
  5
43B
330
1F
100
AcDbEntity
  8
0
  6
Continuous
 62
     7
370
    15
100
AcDbPolyline
 90
        9
 70
   128
 43
0.0
 10
345.15561536
 20
150.4123972498
 10
345.1313410935
 20
150.0241687755
 10
345.1866389149
 20
149.6863007639
 10
345.3181856877
 20
149.4190974773
 10
345.518076076
 20
149.2386165636
 10
345.774297617
 20
149.1557040683
 10
346.0714526136
 20
149.1753426385
 10
346.3916834622
 20
149.2963520894
 10
346.7157458103
 20
149.5114603278
  0
LWPOLYLINE
  5
43C
330
1F
100
AcDbEntity
  8
0
  6
Continuous
 62
     7
370
    15
100
AcDbPolyline
 90
        9
 70
   128
 43
0.0
 10
343.2351075747
 20
154.6577891823
 10
343.7595759413
 20
154.4890203091
 10
344.2182955181
 20
154.1983619161
 10
344.6012926922
 20
153.7921335816
 10
344.9002402288
 20
153.2791676389
 10
345.1086383247
 20
152.6706171411
 10
345.2219559285
 20
151.9797133681
 10
345.2377292564
 20
151.2214781482
 10
345.15561536
 20
150.4123972498
  0
LWPOLYLINE
  5
43D
330
1F
100
AcDbEntity
  8
0
  6
Continuous
 62
     7
370
    15
100
AcDbPolyline
 90
        9
 70
   128
 43
0.0
 10
343.2351075747
 20
157.2056095513
 10
342.9887963924
 20
156.8186279289
 10
342.8014604523
 20
156.4038467076
 10
342.6843577542
 20
155.9861922681
 10
342.6445256141
 20
155.590763658
 10
342.6843577542
 20
155.2413242579
 10
342.8014604523
 20
154.9588737157
 10
342.9887963924
 20
154.7603859669
 10
343.2351075747
 20
154.6577891823
  0
ARC
  5
43E
330
1F
100
AcDbEntity
  8
0
  6
Continuous
 62
     7
370
    15
100
AcDbCircle
 10
336.3252142441
 20
162.7757243508
 30
0.0
 40
8.875404481984955
100
AcDbArc
 50
321.127462406
 51
5.7723111516
  0
ARC
  5
43F
330
1F
100
AcDbEntity
  8
0
  6
Continuous
 62
     7
370
    15
100
AcDbCircle
 10
347.8384635572
 20
163.9209129094
 30
0.0
 40
2.694707974927656
100
AcDbArc
 50
114.6225117091
 51
185.3774881453
  0
ARC
  5
440
330
1F
100
AcDbEntity
  8
0
  6
Continuous
 62
     7
370
    15
100
AcDbCircle
 10
343.0674909016
 20
174.4719570534
 30
0.0
 40
8.884919024320507
100
AcDbArc
 50
294.243289289
 51
339.016837251
  0
LWPOLYLINE
  5
441
330
1F
100
AcDbEntity
  8
0
  6
Continuous
 62
     7
370
    15
100
AcDbPolyline
 90
        9
 70
   128
 43
0.0
 10
353.5476684225
 20
172.551383962
 10
353.3357081405
 20
172.7060131683
 10
353.0724364808
 20
172.7642856332
 10
352.7731997223
 20
172.7228046162
 10
352.4554405732
 20
172.5839880731
 10
352.1376814241
 20
172.3559277119
 10
351.8384446656
 20
172.0519173215
 10
351.5751730059
 20
171.6896778685
 10
351.3632127239
 20
171.2903245295
  0
ARC
  5
442
330
1F
100
AcDbEntity
  8
0
  6
Continuous
 62
     7
370
    15
100
AcDbCircle
 10
355.4111567071
 20
174.3650481972
 30
0.0
 40
2.600378154188139
100
AcDbArc
 50
224.2237109959
 51
294.4136654697
  0
ARC
  5
443
330
1F
100
AcDbEntity
  8
0
  6
Continuous
 62
     7
370
    15
100
AcDbCircle
 10
347.8729021744
 20
163.9010190204
 30
0.0
 40
4.311766483523002
100
AcDbArc
 50
114.6225117091
 51
185.3774881453
  0
LINE
  5
444
330
1F
100
AcDbEntity
  8
0
  6
Continuous
 62
     7
370
    15
100
AcDbLine
 10
346.0764564011
 20
167.8207272738
 30
0.0
 11
346.7157458103
 21
166.370597773
 31
0.0
  0
LINE
  5
445
330
1F
100
AcDbEntity
  8
0
  6
Continuous
 62
     7
370
    15
100
AcDbLine
 10
343.5801123638
 20
163.4969325808
 30
0.0
 11
345.15561536
 21
163.6683725746
 31
0.0
  0
SPLINE
  5
446
330
1F
100
AcDbEntity
  8
0
  6
Continuous
 62
     7
370
    15
100
AcDbSpline
210
0.0
220
0.0
230
1.0
 70
     8
 71
     3
 72
    13
 73
     9
 74
     0
 42
0.000000001
 43
0.00000001
 40
0.0
 40
0.0
 40
0.0
 40
0.0
 40
0.1720087238365725
 40
0.3444334232908583
 40
0.5079344031875662
 40
0.664733488692488
 40
0.8215865234924914
 40
0.9999999999999999
 40
0.9999999999999999
 40
0.9999999999999999
 40
0.9999999999999999
 10
337.6190240823087
 20
166.9381955963643
 30
0.0
 10
337.6718304673558
 20
167.147612325412
 30
0.0
 10
337.7775709412556
 20
167.5669522244092
 30
0.0
 10
338.1354318977291
 20
168.4200317833985
 30
0.0
 10
338.5979708414712
 20
169.2971801952739
 30
0.0
 10
339.1117032162083
 20
170.1012517219865
 30
0.0
 10
339.6511888810808
 20
170.8101233100499
 30
0.0
 10
339.9541474498528
 20
171.105045964892
 30
0.0
 10
340.1153681195868
 20
171.2619902894116
 30
0.0
  0
LINE
  5
447
330
1F
100
AcDbEntity
  8
0
  6
Continuous
 62
     7
370
    15
100
AcDbLine
 10
340.1153681196
 20
171.2619902894
 30
0.0
 11
346.0764564011
 21
167.8207272738
 31
0.0
  0
LINE
  5
448
330
1F
100
AcDbEntity
  8
0
  6
Continuous
 62
     7
370
    15
100
AcDbLine
 10
337.6190240823
 20
166.9381955964
 30
0.0
 11
343.5801123638
 21
163.4969325808
 31
0.0
  0
ARC
  5
449
330
1F
100
AcDbEntity
  8
0
  6
Continuous
 62
     7
370
    15
100
AcDbCircle
 10
343.0697793072
 20
174.4951831466
 30
0.0
 40
7.320414492627791
100
AcDbArc
 50
294.2503850307
 51
339.073131428
  0
LINE
  5
44A
330
1F
100
AcDbEntity
  8
0
  6
Continuous
 62
     7
370
    15
100
AcDbLine
 10
349.9073178923
 20
171.8805064091
 30
0.0
 11
351.3632127239
 21
171.2903245295
 31
0.0
  0
ARC
  5
44B
330
1F
100
AcDbEntity
  8
0
  6
Continuous
 62
     7
370
    15
100
AcDbCircle
 10
336.3080173272
 20
162.7618105141
 30
0.0
 40
7.309156632223393
100
AcDbArc
 50
321.127462406
 51
5.7723111516
  0
LINE
  5
44C
330
1F
100
AcDbEntity
  8
0
  6
Continuous
 62
     7
370
    15
100
AcDbLine
 10
341.9985177171
 20
158.1746571498
 30
0.0
 11
343.2351075747
 21
157.2056095513
 31
0.0
  0
LINE
  5
44D
330
1F
100
AcDbEntity
  8
0
  6
Continuous
 62
     7
370
    15
100
AcDbLine
 10
343.9544369653
 20
175.3170314197
 30
0.0
 11
349.9073178923
 21
171.8805064091
 31
0.0
  0
SPLINE
  5
44E
330
1F
100
AcDbEntity
  8
0
  6
Continuous
 62
     7
370
    15
100
AcDbSpline
210
0.0
220
0.0
230
1.0
 70
     8
 71
     3
 72
    12
 73
     8
 74
     0
 42
0.000000001
 43
0.00000001
 40
0.0
 40
0.0
 40
0.0
 40
0.0
 40
0.2529409289825461
 40
0.5070337664678931
 40
0.740083526310047
 40
0.9726927897603379
 40
1.0
 40
1.0
 40
1.0
 40
1.0
 10
340.1153681195868
 20
171.2619902894116
 30
0.0
 10
340.3592516893513
 20
171.4898748982014
 30
0.0
 10
340.8481294896137
 20
171.9466819162652
 30
0.0
 10
341.8385692930524
 20
172.9846605132563
 30
0.0
 10
342.8874560071092
 20
174.1048699980807
 30
0.0
 10
343.5838580459478
 20
174.8823346489357
 30
0.0
 10
343.9192049248379
 20
175.2757035043243
 30
0.0
 10
343.9544369653279
 20
175.3170314197247
 30
0.0
  0
LINE
  5
44F
330
1F
100
AcDbEntity
  8
0
  6
Continuous
 62
     7
370
    15
100
AcDbLine
 10
336.0374294356
 20
161.6159201654
 30
0.0
 11
341.9985177171
 21
158.1746571498
 31
0.0
  0
SPLINE
  5
450
330
1F
100
AcDbEntity
  8
0
  6
Continuous
 62
     7
370
    15
100
AcDbSpline
210
0.0
220
0.0
230
1.0
 70
     8
 71
     3
 72
    11
 73
     7
 74
     0
 42
0.000000001
 43
0.00000001
 40
0.0
 40
0.0
 40
0.0
 40
0.0
 40
0.2543692972481045
 40
0.509901570974215
 40
0.7442712505501881
 40
1.0
 40
1.0
 40
1.0
 40
1.0
 10
336.0374294355605
 20
161.6159201653974
 30
0.0
 10
336.205297438561
 20
162.1092448365456
 30
0.0
 10
336.5418009371055
 20
163.0981496593373
 30
0.0
 10
336.9995601926099
 20
164.6239280986723
 30
0.0
 10
337.3976935569023
 20
165.9832886038992
 30
0.0
 10
337.5431344122742
 20
166.610777693033
 30
0.0
 10
337.6190240823087
 20
166.9381955963643
 30
0.0
  0
LWPOLYLINE
  5
451
330
1F
100
AcDbEntity
  8
0
  6
Continuous
 62
     7
370
    15
100
AcDbPolyline
 90
       17
 70
   128
 43
0.0
 10
356.485949226
 20
161.8097152162
 10
356.3983646422
 20
161.7236728214
 10
355.77000361
 20
161.0225710921
 10
355.2020693702
 20
160.235492876
 10
354.7118183172
 20
159.3863531463
 10
354.3141464813
 20
158.5009525841
 10
354.0211369199
 20
157.6061936373
 10
353.8416925803
 20
156.7292631039
 10
353.7812657879
 20
155.8968060743
 10
353.8416925803
 20
155.1341163342
 10
354.0211369199
 20
154.4643678253
 10
354.3141464813
 20
153.9079105172
 10
354.7118183172
 20
153.4816520836
 10
355.2020693702
 20
153.1985441713
 10
355.77000361
 20
153.067188871
 10
356.3983646422
 20
153.091577347
 10
356.485949226
 20
153.1066579602
  0
SPLINE
  5
452
330
1F
100
AcDbEntity
  8
0
  6
Continuous
 62
     7
370
    15
100
AcDbSpline
210
0.0
220
0.0
230
1.0
 70
     8
 71
     3
 72
    10
 73
     6
 74
     0
 42
0.000000001
 43
0.00000001
 40
0.0
 40
0.0
 40
0.0
 40
0.0
 40
0.4226246684570615
 40
0.8450143982020997
 40
1.0
 40
1.0
 40
1.0
 40
1.0
 10
350.254570716759
 20
157.932723803194
 30
0.0
 10
350.2669321591472
 20
158.0391160208548
 30
0.0
 10
350.2916481721492
 20
158.2518413123252
 30
0.0
 10
350.4210205015115
 20
158.451696435499
 30
0.0
 10
350.5359878100702
 20
158.5000893506704
 30
0.0
 10
350.5668486323648
 20
158.5130795230433
 30
0.0
  0
SPLINE
  5
453
330
1F
100
AcDbEntity
  8
0
  6
Continuous
 62
     7
370
    15
100
AcDbSpline
210
0.0
220
0.0
230
1.0
 70
     8
 71
     3
 72
    12
 73
     8
 74
     0
 42
0.000000001
 43
0.00000001
 40
0.0
 40
0.0
 40
0.0
 40
0.0
 40
0.0150317160439642
 40
0.2816228221189562
 40
0.5428509485377445
 40
0.8012281646662961
 40
1.0
 40
1.0
 40
1.0
 40
1.0
 10
351.9218765484036
 20
157.4666825442082
 30
0.0
 10
351.9246280460677
 20
157.4593053602084
 30
0.0
 10
351.9761780178031
 20
157.3210920403696
 30
0.0
 10
352.0070572532169
 20
157.0492254708664
 30
0.0
 10
352.0029413340536
 20
156.7185159925078
 30
0.0
 10
351.9305582901071
 20
156.4853275609546
 30
0.0
 10
351.8327570250049
 20
156.4220018137674
 30
0.0
 10
351.790232301613
 20
156.3944673040664
 30
0.0
  0
LWPOLYLINE
  5
454
330
1F
100
AcDbEntity
  8
0
  6
Continuous
 62
     7
370
    15
100
AcDbPolyline
 90
        9
 70
   128
 43
0.0
 10
341.9985177171
 20
154.0979235759
 10
341.6043984618
 20
154.26208733
 10
341.3046447091
 20
154.5796849437
 10
341.1172702355
 20
155.0316303095
 10
341.0535353564
 20
155.590763658
 10
341.1172702355
 20
156.2234837314
 10
341.3046447091
 20
156.8917670596
 10
341.6043984618
 20
157.5554529894
 10
341.9985177171
 20
158.1746571498
  0
LINE
  5
455
330
1F
100
AcDbEntity
  8
0
  6
Continuous
 62
     7
370
    15
100
AcDbLine
 10
341.9985177171
 20
154.0979235759
 30
0.0
 11
343.2351075747
 21
154.6577891823
 31
0.0
  0
LWPOLYLINE
  5
456
330
1F
100
AcDbEntity
  8
0
  6
Continuous
 62
     7
370
    15
100
AcDbPolyline
 90
        9
 70
   128
 43
0.0
 10
349.9073178923
 20
171.8805064091
 10
350.2464998085
 20
172.5228723448
 10
350.6687892818
 20
173.1058131373
 10
351.1493566013
 20
173.5950531245
 10
351.6599454444
 20
173.9618260494
 10
352.1705342874
 20
174.1845664545
 10
352.6511016069
 20
174.2501776841
 10
353.0733910802
 20
174.1548019394
 10
353.4125729964
 20
173.9040471084
  0
LINE
  5
457
330
1F
100
AcDbEntity
  8
0
  6
Continuous
 62
     7
370
    15
100
AcDbLine
 10
353.4125729964
 20
173.9040471084
 30
0.0
 11
353.5476684225
 21
172.551383962
 31
0.0
  0
SPLINE
  5
458
330
1F
100
AcDbEntity
  8
0
  6
Continuous
 62
     7
370
    15
100
AcDbSpline
210
0.0
220
0.0
230
1.0
 70
     8
 71
     3
 72
    13
 73
     9
 74
     0
 42
0.000000001
 43
0.00000001
 40
0.0
 40
0.0
 40
0.0
 40
0.0
 40
0.0770080605280564
 40
0.2692155209899537
 40
0.4514753074942928
 40
0.6262641023650717
 40
0.8011128592521787
 40
1.0
 40
1.0
 40
1.0
 40
1.0
 10
335.8615853929965
 20
157.6186433773086
 30
0.0
 10
335.820776439552
 20
157.6307903574789
 30
0.0
 10
335.6781108070548
 20
157.6732554653205
 30
0.0
 10
335.5290156791791
 20
158.0906650036053
 30
0.0
 10
335.4618506896525
 20
158.8021837865808
 30
0.0
 10
335.5351707289971
 20
159.681243204909
 30
0.0
 10
335.7266369908983
 20
160.6620193119762
 30
0.0
 10
335.929482991667
 20
161.2846051456077
 30
0.0
 10
336.0374294355605
 20
161.6159201653974
 30
0.0
  0
SPLINE
  5
459
330
1F
100
AcDbEntity
  8
0
  6
Continuous
 62
     7
370
    15
100
AcDbSpline
210
0.0
220
0.0
230
1.0
 70
     8
 71
     3
 72
    13
 73
     9
 74
     0
 42
0.000000001
 43
0.00000001
 40
0.0
 40
0.0
 40
0.0
 40
0.0
 40
0.1924799611760215
 40
0.3854269012627747
 40
0.568521082903738
 40
0.7443185686845198
 40
0.9203863092730016
 40
1.0
 40
1.0
 40
1.0
 40
1.0
 10
343.9544369653279
 20
175.3170314197247
 30
0.0
 10
344.1792318211598
 20
175.5660047191672
 30
0.0
 10
344.6293669114505
 20
176.0645553564126
 30
0.0
 10
345.410285587961
 20
176.7390937203752
 30
0.0
 10
346.1532892175073
 20
177.2385241061291
 30
0.0
 10
346.767761962406
 20
177.5023411444179
 30
0.0
 10
347.1718101937678
 20
177.5686192820114
 30
0.0
 10
347.2758951577528
 20
177.4737886424468
 30
0.0
 10
347.3083049737078
 20
177.4442604237925
 30
0.0
  0
ARC
  5
45A
330
1F
100
AcDbEntity
  8
0
  6
Continuous
 62
     7
370
    15
100
AcDbCircle
 10
355.0465297813
 20
175.7248540326
 30
0.0
 40
2.44645715878517
100
AcDbArc
 50
228.0958134632
 51
306.0413496118
  0
LWPOLYLINE
  5
45B
330
1F
100
AcDbEntity
  8
0
  6
Continuous
 62
     7
370
    15
100
AcDbPolyline
 90
        9
 70
   128
 43
0.0
 10
343.5801123638
 20
150.6017184551
 10
343.6477355726
 20
151.2680203714
 10
343.6347457732
 20
151.892449376
 10
343.5414253936
 20
152.4614289538
 10
343.3698034322
 20
152.9625881873
 10
343.1236113432
 20
153.3850307283
 10
342.8082019058
 20
153.7195717097
 10
342.4304328425
 20
153.9589374451
 10
341.9985177171
 20
154.0979235759
  0
LINE
  5
45C
330
1F
100
AcDbEntity
  8
0
  6
Continuous
 62
     7
370
    15
100
AcDbLine
 10
343.5801123638
 20
150.6017184551
 30
0.0
 11
345.15561536
 21
150.4123972498
 31
0.0
  0
SPLINE
  5
45D
330
1F
100
AcDbEntity
  8
0
  6
Continuous
 62
     7
370
    15
100
AcDbSpline
210
0.0
220
0.0
230
1.0
 70
     8
 71
     3
 72
    11
 73
     7
 74
     0
 42
0.000000001
 43
0.00000001
 40
0.0
 40
0.0
 40
0.0
 40
0.0
 40
0.2489977601763957
 40
0.6018128054849619
 40
0.9530212784554272
 40
1.0
 40
1.0
 40
1.0
 40
1.0
 10
348.1777643096023
 20
176.9864317773523
 30
0.0
 10
348.3480640546583
 20
176.9652431644128
 30
0.0
 10
348.7596684292234
 20
176.9140315447243
 30
0.0
 10
349.8339369808191
 20
177.1571033346394
 30
0.0
 10
350.7568501972352
 20
177.4804323756157
 30
0.0
 10
351.254168326974
 20
177.6964313826115
 30
0.0
 10
351.3128426647173
 20
177.7219152689426
 30
0.0
  0
LINE
  5
45E
330
1F
100
AcDbEntity
  8
0
  6
Continuous
 62
     7
370
    15
100
AcDbLine
 10
337.6190240823
 20
154.0429814707
 30
0.0
 11
343.5801123638
 21
150.6017184551
 31
0.0
  0
SPLINE
  5
45F
330
1F
100
AcDbEntity
  8
0
  6
Continuous
 62
     7
370
    15
100
AcDbSpline
210
0.0
220
0.0
230
1.0
 70
     8
 71
     3
 72
    10
 73
     6
 74
     0
 42
0.000000001
 43
0.00000001
 40
0.0
 40
0.0
 40
0.0
 40
0.0
 40
0.3888704334951648
 40
0.779511806792889
 40
1.0
 40
1.0
 40
1.0
 40
1.0
 10
337.6190240823087
 20
154.0429814706762
 30
0.0
 10
337.5432385971143
 20
154.5477798892094
 30
0.0
 10
337.3913224949782
 20
155.5596756092318
 30
0.0
 10
337.0409263127161
 20
156.6365982315922
 30
0.0
 10
336.7926745151505
 20
156.9679663572694
 30
0.0
 10
336.7031082540732
 20
157.0875199893
 30
0.0
  0
LWPOLYLINE
  5
460
330
1F
100
AcDbEntity
  8
0
  6
Continuous
 62
     7
370
    15
100
AcDbPolyline
 90
        9
 70
   128
 43
0.0
 10
345.6602901874
 20
148.8722069559
 10
345.5579285369
 20
148.815949399
 10
345.0455314041
 20
148.6223237819
 10
344.5700576361
 20
148.5909003663
 10
344.1600809471
 20
148.7235675501
 10
343.8402389885
 20
149.0123526659
 10
343.6297527424
 20
149.4399011002
 10
343.541271432
 20
149.9805192235
 10
343.5801123638
 20
150.6017184551
  0
SPLINE
  5
461
330
1F
100
AcDbEntity
  8
0
  6
Continuous
 62
     7
370
    15
100
AcDbSpline
210
0.0
220
0.0
230
1.0
 70
     8
 71
     3
 72
    11
 73
     7
 74
     0
 42
0.000000001
 43
0.00000001
 40
0.0
 40
0.0
 40
0.0
 40
0.0
 40
0.0160164585317075
 40
0.3295675794667786
 40
0.6432265828036533
 40
1.0
 40
1.0
 40
1.0
 40
1.0
 10
338.5926979202631
 20
151.9461671697811
 30
0.0
 10
338.5842545824802
 20
151.9481875695783
 30
0.0
 10
338.4105176486753
 20
151.9897609467009
 30
0.0
 10
338.1261655262606
 20
152.3681875414827
 30
0.0
 10
337.7772535553538
 20
153.0618008939583
 30
0.0
 10
337.6739810030406
 20
153.7021937391578
 30
0.0
 10
337.6190240823087
 20
154.0429814706762
 30
0.0
  0
SPLINE
  5
462
330
1F
100
AcDbEntity
  8
0
  6
Continuous
 62
     7
370
    15
100
AcDbSpline
210
0.0
220
0.0
230
1.0
 70
     8
 71
     3
 72
    10
 73
     6
 74
     0
 42
0.000000001
 43
0.00000001
 40
0.0
 40
0.0
 40
0.0
 40
0.0
 40
0.3471360905362018
 40
0.6951041440140443
 40
1.0
 40
1.0
 40
1.0
 40
1.0
 10
351.3128426647173
 20
177.7219152689426
 30
0.0
 10
351.6196875625966
 20
177.8358333882904
 30
0.0
 10
352.2341127574993
 20
178.0639426485941
 30
0.0
 10
353.0515447796789
 20
178.1345459607365
 30
0.0
 10
353.4140076432553
 20
177.9817387158819
 30
0.0
 10
353.5832824698329
 20
177.9103757640546
 30
0.0
  0
LINE
  5
463
330
1F
100
AcDbEntity
  8
0
  6
Continuous
 62
     7
370
    15
100
AcDbLine
 10
351.3632127239
 20
149.9575846544
 30
0.0
 11
349.9073178923
 21
149.5233806337
 31
0.0
  0
ARC
  5
464
330
1F
100
AcDbEntity
  8
0
  6
Continuous
 62
     7
370
    15
100
AcDbCircle
 10
348.3309767197
 20
147.9590612892
 30
0.0
 40
2.220798618488073
100
AcDbArc
 50
44.7806841454
 51
121.1209354247
  0
ARC
  5
465
330
1F
100
AcDbEntity
  8
0
  6
Continuous
 62
     7
370
    15
100
AcDbCircle
 10
350.8202459317
 20
150.6040339002
 30
0.0
 40
1.414655112558928
100
AcDbArc
 50
229.8091188385
 51
306.4282455132
  0
LWPOLYLINE
  5
466
330
1F
100
AcDbEntity
  8
0
  6
Continuous
 62
     7
370
    15
100
AcDbPolyline
 90
       50
 70
   128
 43
0.0
 10
394.8818474444
 20
145.3345261276
 10
394.820891407
 20
144.2029592813
 10
394.6390241911
 20
143.0195943885
 10
394.3392320514
 20
141.8038622681
 10
393.9264375667
 20
140.5757252079
 10
393.4074188108
 20
139.3553491844
 10
392.7906980574
 20
138.1627727382
 10
392.0864018443
 20
137.0175779417
 10
391.3060946958
 20
135.9385688616
 10
390.4625892337
 20
134.9434627973
 10
389.5697357943
 20
134.0485993628
 10
388.6421950065
 20
133.268672191
 10
387.6951970643
 20
132.6164876645
 10
386.7442916479
 20
132.1027546352
 10
385.8050925977
 20
131.7359085851
 10
384.8930215363
 20
131.5219731164
 10
384.0230546453
 20
131.4644610435
 10
383.2094767569
 20
131.564316713
 10
382.4656467977
 20
131.8199004976
 10
381.8037784349
 20
132.2270157186
 10
381.2347395288
 20
132.7789775554
 10
380.7678736826
 20
133.4667228099
 10
380.4108468204
 20
134.2789587239
 10
380.1695213135
 20
135.2023484063
 10
380.04785972
 20
136.221729824
 10
380.04785972
 20
137.3203647623
 10
380.1695213135
 20
138.4802136658
 10
380.4108468204
 20
139.6822318477
 10
380.7678736826
 20
140.9066822026
 10
381.2347395288
 20
142.1334592895
 10
381.8037784349
 20
143.3424194627
 10
382.4656467977
 20
144.5137116294
 10
383.2094767569
 20
145.6281032047
 10
384.0230546453
 20
146.6672959098
 10
384.8930215363
 20
147.6142262291
 10
385.8050925977
 20
148.4533455929
 10
386.7442916479
 20
149.1708756846
 10
387.6951970643
 20
149.7550346798
 10
388.6421950065
 20
150.1962307041
 10
389.5697357943
 20
150.4872193308
 10
390.4625892337
 20
150.6232225348
 10
391.3060946958
 20
150.6020071472
 10
392.0864018443
 20
150.4239215242
 10
392.7906980574
 20
150.0918898266
 10
393.4074188108
 20
149.6113640058
 10
393.9264375667
 20
148.9902342826
 10
394.3392320514
 20
148.2386995897
 10
394.6390241911
 20
147.3691001061
 10
394.820891407
 20
146.3957146312
 10
394.8818474444
 20
145.3345261276
  0
SPLINE
  5
467
330
1F
100
AcDbEntity
  8
0
  6
Continuous
 62
     7
370
    15
100
AcDbSpline
210
0.0
220
0.0
230
1.0
 70
     8
 71
     3
 72
    12
 73
     8
 74
     0
 42
0.000000001
 43
0.00000001
 40
0.0
 40
0.0
 40
0.0
 40
0.0
 40
0.2523425790010243
 40
0.5058462538030646
 40
0.7379970426370729
 40
0.9690912189386458
 40
1.0
 40
1.0
 40
1.0
 40
1.0
 10
391.8564291567117
 20
154.3166009832362
 30
0.0
 10
391.613374363657
 20
153.9884542971755
 30
0.0
 10
391.1261464173378
 20
153.3306510342508
 30
0.0
 10
390.1361576578872
 20
152.9598550765787
 30
0.0
 10
389.086461808143
 20
153.1380171701458
 30
0.0
 10
388.3835067136768
 20
153.5860606093814
 30
0.0
 10
388.0434011894363
 20
153.8984096667402
 30
0.0
 10
388.0032785614617
 20
153.9352578333632
 30
0.0
  0
SPLINE
  5
468
330
1F
100
AcDbEntity
  8
0
  6
Continuous
 62
     7
370
    15
100
AcDbSpline
210
0.0
220
0.0
230
1.0
 70
     8
 71
     3
 72
    13
 73
     9
 74
     0
 42
0.000000001
 43
0.00000001
 40
0.0
 40
0.0
 40
0.0
 40
0.0
 40
0.1735322077433413
 40
0.3474803110675794
 40
0.5125459321891221
 40
0.6710335034925646
 40
0.829764888964078
 40
1.0
 40
1.0
 40
1.0
 40
1.0
 10
394.3350188106374
 20
152.8852764851515
 30
0.0
 10
394.2806095059933
 20
153.2095994002157
 30
0.0
 10
394.1716604967657
 20
153.8590225181392
 30
0.0
 10
393.8101620142758
 20
154.597224732915
 30
0.0
 10
393.3455677316038
 20
155.0299873630995
 30
0.0
 10
392.8311100003511
 20
155.1193915687062
 30
0.0
 10
392.3036796437963
 20
154.9020112242101
 30
0.0
 10
392.0089481694297
 20
154.5162345097871
 30
0.0
 10
391.8564291567117
 20
154.3166009832362
 30
0.0
  0
SPLINE
  5
469
330
1F
100
AcDbEntity
  8
0
  6
Continuous
 62
     7
370
    15
100
AcDbSpline
210
0.0
220
0.0
230
1.0
 70
     8
 71
     3
 72
    12
 73
     8
 74
     0
 42
0.000000001
 43
0.00000001
 40
0.0
 40
0.0
 40
0.0
 40
0.0
 40
0.2523388541794053
 40
0.5058431516690058
 40
0.7379942180549659
 40
0.9690881654589663
 40
1.0
 40
1.0
 40
1.0
 40
1.0
 10
395.9310460450563
 20
149.3571673065856
 30
0.0
 10
395.7627509327577
 20
149.3823905626286
 30
0.0
 10
395.425383426305
 20
149.4329535699532
 30
0.0
 10
394.9629116942917
 20
150.1711069168897
 30
0.0
 10
394.5841227182192
 20
151.3081912776019
 30
0.0
 10
394.4039041022674
 20
152.283358910639
 30
0.0
 10
394.3422883315447
 20
152.8217556334736
 30
0.0
 10
394.3350188106374
 20
152.8852764851515
 30
0.0
  0
SPLINE
  5
46A
330
1F
100
AcDbEntity
  8
0
  6
Continuous
 62
     7
370
    15
100
AcDbSpline
210
0.0
220
0.0
230
1.0
 70
     8
 71
     3
 72
    13
 73
     9
 74
     0
 42
0.000000001
 43
0.00000001
 40
0.0
 40
0.0
 40
0.0
 40
0.0
 40
0.1735274932632294
 40
0.3474759845328528
 40
0.5125418655588586
 40
0.6710295171733973
 40
0.8297608130563453
 40
1.0
 40
1.0
 40
1.0
 40
1.0
 10
395.9310460450577
 20
145.3094280898936
 30
0.0
 10
396.0342466285289
 20
145.6285318221715
 30
0.0
 10
396.2408981721645
 20
146.2675134697264
 30
0.0
 10
396.4348150168522
 20
147.2818499057467
 30
0.0
 10
396.4951557653556
 20
148.1723891894431
 30
0.0
 10
396.4189511607304
 20
148.8460820017076
 30
0.0
 10
396.2282305772612
 20
149.2899148230358
 30
0.0
 10
396.0323911435158
 20
149.3342330390568
 30
0.0
 10
395.9310460450563
 20
149.3571673065856
 30
0.0
  0
SPLINE
  5
46B
330
1F
100
AcDbEntity
  8
0
  6
Continuous
 62
     7
370
    15
100
AcDbSpline
210
0.0
220
0.0
230
1.0
 70
     8
 71
     3
 72
    12
 73
     8
 74
     0
 42
0.000000001
 43
0.00000001
 40
0.0
 40
0.0
 40
0.0
 40
0.0
 40
0.252342579000875
 40
0.5058462538027577
 40
0.7379970426366426
 40
0.9690912189381221
 40
1.0
 40
1.0
 40
1.0
 40
1.0
 10
394.3350188106378
 20
139.9385850901593
 30
0.0
 10
394.4095390726025
 20
140.262297682859
 30
0.0
 10
394.5589224842188
 20
140.9112123566105
 30
0.0
 10
394.9620445604176
 20
142.2871537755647
 30
0.0
 10
395.4076854288044
 20
143.756544893298
 30
0.0
 10
395.7350916100269
 20
144.7572603925331
 30
0.0
 10
395.9103684417529
 20
145.2511619700074
 30
0.0
 10
395.9310460450577
 20
145.3094280898936
 30
0.0
  0
SPLINE
  5
46C
330
1F
100
AcDbEntity
  8
0
  6
Continuous
 62
     7
370
    15
100
AcDbSpline
210
0.0
220
0.0
230
1.0
 70
     8
 71
     3
 72
    13
 73
     9
 74
     0
 42
0.000000001
 43
0.00000001
 40
0.0
 40
0.0
 40
0.0
 40
0.0
 40
0.1735322077432488
 40
0.3474803110673935
 40
0.5125459321888427
 40
0.671033503492184
 40
0.829764888963573
 40
1.0
 40
1.0
 40
1.0
 40
1.0
 10
391.8564291567117
 20
135.6455418910436
 30
0.0
 10
392.0121756543903
 20
135.7982679942103
 30
0.0
 10
392.3240419192459
 20
136.1040862312201
 30
0.0
 10
392.8834496339346
 20
136.8444460828074
 30
0.0
 10
393.4097196999817
 20
137.6847440769451
 30
0.0
 10
393.8462609525087
 20
138.5308403428496
 30
0.0
 10
394.1794831283098
 20
139.3322867106607
 30
0.0
 10
394.2819788489248
 20
139.7318284002862
 30
0.0
 10
394.3350188106378
 20
139.9385850901593
 30
0.0
  0
SPLINE
  5
46D
330
1F
100
AcDbEntity
  8
0
  6
Continuous
 62
     7
370
    15
100
AcDbSpline
210
0.0
220
0.0
230
1.0
 70
     8
 71
     3
 72
    12
 73
     8
 74
     0
 42
0.000000001
 43
0.00000001
 40
0.0
 40
0.0
 40
0.0
 40
0.0
 40
0.2523388541794998
 40
0.5058431516692035
 40
0.7379942180552621
 40
0.9690881654593615
 40
1.0
 40
1.0
 40
1.0
 40
1.0
 10
388.0032785614616
 20
131.5781320580109
 30
0.0
 10
388.3464326040699
 20
131.9705939110376
 30
0.0
 10
389.0343255684153
 20
132.7573302275296
 30
0.0
 10
390.1340641585614
 20
133.9262626077344
 30
0.0
 10
391.0747172950558
 20
134.9066797308479
 30
0.0
 10
391.5972760749339
 20
135.4164176358871
 30
0.0
 10
391.8290805210075
 20
135.6213622218601
 30
0.0
 10
391.8564291567117
 20
135.6455418910436
 30
0.0
  0
SPLINE
  5
46E
330
1F
100
AcDbEntity
  8
0
  6
Continuous
 62
     7
370
    15
100
AcDbSpline
210
0.0
220
0.0
230
1.0
 70
     8
 71
     3
 72
    13
 73
     9
 74
     0
 42
0.000000001
 43
0.00000001
 40
0.0
 40
0.0
 40
0.0
 40
0.0
 40
0.1735274932638169
 40
0.3474759845333027
 40
0.5125418655591784
 40
0.671029517173588
 40
0.8297608130564
 40
1.0
 40
1.0
 40
1.0
 40
1.0
 10
384.4980234573222
 20
129.5545913586662
 30
0.0
 10
384.570462010362
 20
129.4772227279608
 30
0.0
 10
384.7155148608481
 20
129.3222977611978
 30
0.0
 10
385.2363836118524
 20
129.3990364226902
 30
0.0
 10
385.8966487189249
 20
129.7105125081794
 30
0.0
 10
386.6200761014858
 20
130.2161460764367
 30
0.0
 10
387.3575653027183
 20
130.8621508121219
 30
0.0
 10
387.783079100546
 20
131.3339699903507
 30
0.0
 10
388.0032785614616
 20
131.5781320580109
 30
0.0
  0
SPLINE
  5
46F
330
1F
100
AcDbEntity
  8
0
  6
Continuous
 62
     7
370
    15
100
AcDbSpline
210
0.0
220
0.0
230
1.0
 70
     8
 71
     3
 72
    12
 73
     8
 74
     0
 42
0.000000001
 43
0.00000001
 40
0.0
 40
0.0
 40
0.0
 40
0.0
 40
0.2529409289825461
 40
0.5070337664678936
 40
0.7400835263100474
 40
0.9726927897603379
 40
1.0
 40
1.0
 40
1.0
 40
1.0
 10
380.6753693206224
 20
129.1866139578128
 30
0.0
 10
381.1537985247245
 20
129.3757116376586
 30
0.0
 10
382.1128357288649
 20
129.7547681597809
 30
0.0
 10
383.3236982049776
 20
129.9875743193607
 30
0.0
 10
384.1329040558509
 20
129.9400188401879
 30
0.0
 10
384.4171068594878
 20
129.7286453153056
 30
0.0
 10
384.490330475606
 20
129.5711391862059
 30
0.0
 10
384.4980234573222
 20
129.5545913586662
 30
0.0
  0
SPLINE
  5
470
330
1F
100
AcDbEntity
  8
0
  6
Continuous
 62
     7
370
    15
100
AcDbSpline
210
0.0
220
0.0
230
1.0
 70
     8
 71
     3
 72
    13
 73
     9
 74
     0
 42
0.000000001
 43
0.00000001
 40
0.0
 40
0.0
 40
0.0
 40
0.0
 40
0.1720087238365726
 40
0.3444334232908585
 40
0.5079344031875664
 40
0.6647334886924879
 40
0.8215865234924914
 40
1.0
 40
1.0
 40
1.0
 40
1.0
 10
378.1790252833444
 20
130.6281911751429
 30
0.0
 10
378.0777361478593
 20
130.3907859500193
 30
0.0
 10
377.8749129252974
 20
129.9154013731639
 30
0.0
 10
377.9663407967038
 20
129.321690733687
 30
0.0
 10
378.3427182753745
 20
128.9288384639373
 30
0.0
 10
378.9536313576266
 20
128.7740109399975
 30
0.0
 10
379.7517239802012
 20
128.8373068612296
 30
0.0
 10
380.3545649674191
 20
129.065291159673
 30
0.0
 10
380.6753693206224
 20
129.1866139578128
 30
0.0
  0
SPLINE
  5
471
330
1F
100
AcDbEntity
  8
0
  6
Continuous
 62
     7
370
    15
100
AcDbSpline
210
0.0
220
0.0
230
1.0
 70
     8
 71
     3
 72
    11
 73
     7
 74
     0
 42
0.000000001
 43
0.00000001
 40
0.0
 40
0.0
 40
0.0
 40
0.0
 40
0.2543692972481043
 40
0.5099015709742146
 40
0.7442712505501883
 40
1.0
 40
1.0
 40
1.0
 40
1.0
 10
376.5974306365961
 20
134.1243962959738
 30
0.0
 10
377.0000804350007
 20
133.9604245411028
 30
0.0
 10
377.8072209467688
 20
133.6317313524648
 30
0.0
 10
378.4818961051942
 20
132.7596933850342
 30
0.0
 10
378.645801270634
 20
131.7247908167403
 30
0.0
 10
378.3390731375225
 20
131.0041925640518
 30
0.0
 10
378.1790252833444
 20
130.6281911751429
 30
0.0
  0
SPLINE
  5
472
330
1F
100
AcDbEntity
  8
0
  6
Continuous
 62
     7
370
    15
100
AcDbSpline
210
0.0
220
0.0
230
1.0
 70
     8
 71
     3
 72
    13
 73
     9
 74
     0
 42
0.000000001
 43
0.00000001
 40
0.0
 40
0.0
 40
0.0
 40
0.0
 40
0.1720043241260367
 40
0.3444293901826448
 40
0.5079306177206039
 40
0.6647297837317664
 40
0.8215827403429472
 40
1.0
 40
1.0
 40
1.0
 40
1.0
 10
376.5974306365961
 20
138.201129869864
 30
0.0
 10
376.3392085493507
 20
137.9713891374799
 30
0.0
 10
375.8221327345795
 20
137.5113457010302
 30
0.0
 10
375.3577049354685
 20
136.6477282183302
 30
0.0
 10
375.2071534356037
 20
135.8014556628568
 30
0.0
 10
375.3769496513592
 20
135.0650297366795
 30
0.0
 10
375.8272080854211
 20
134.4541030841729
 30
0.0
 10
376.3299119538423
 20
134.2389121921125
 30
0.0
 10
376.5974306365961
 20
134.1243962959738
 30
0.0
  0
SPLINE
  5
473
330
1F
100
AcDbEntity
  8
0
  6
Continuous
 62
     7
370
    15
100
AcDbSpline
210
0.0
220
0.0
230
1.0
 70
     8
 71
     3
 72
    11
 73
     7
 74
     0
 42
0.000000001
 43
0.00000001
 40
0.0
 40
0.0
 40
0.0
 40
0.0
 40
0.2543731898028521
 40
0.5099048107121191
 40
0.7442741989811525
 40
1.0
 40
1.0
 40
1.0
 40
1.0
 10
378.1790252833444
 20
143.523405300831
 30
0.0
 10
378.3383795674553
 20
143.0624578785953
 30
0.0
 10
378.6578138448596
 20
142.1384638512945
 30
0.0
 10
378.4708394789451
 20
140.6394799224762
 30
0.0
 10
377.7779832441014
 20
139.2509612801713
 30
0.0
 10
377.0022164566828
 20
138.5610942337326
 30
0.0
 10
376.5974306365961
 20
138.201129869864
 30
0.0
  0
SPLINE
  5
474
330
1F
100
AcDbEntity
  8
0
  6
Continuous
 62
     7
370
    15
100
AcDbSpline
210
0.0
220
0.0
230
1.0
 70
     8
 71
     3
 72
    13
 73
     9
 74
     0
 42
0.000000001
 43
0.00000001
 40
0.0
 40
0.0
 40
0.0
 40
0.0
 40
0.172008723836571
 40
0.3444334232908541
 40
0.5079344031875617
 40
0.6647334886924857
 40
0.8215865234924863
 40
1.0
 40
1.0
 40
1.0
 40
1.0
 10
380.6753693206225
 20
147.8471999938783
 30
0.0
 10
380.3663348398263
 20
147.7857486813581
 30
0.0
 10
379.747518527715
 20
147.662697446136
 30
0.0
 10
378.9212599413741
 20
147.080105985656
 30
0.0
 10
378.306745705448
 20
146.290719563129
 30
0.0
 10
377.9644343106748
 20
145.3876566411608
 30
0.0
 10
377.8788517007617
 20
144.4166672147164
 30
0.0
 10
378.0747677422786
 20
143.8336567555663
 30
0.0
 10
378.1790252833444
 20
143.523405300831
 30
0.0
  0
SPLINE
  5
475
330
1F
100
AcDbEntity
  8
0
  6
Continuous
 62
     7
370
    15
100
AcDbSpline
210
0.0
220
0.0
230
1.0
 70
     8
 71
     3
 72
    11
 73
     7
 74
     0
 42
0.000000001
 43
0.00000001
 40
0.0
 40
0.0
 40
0.0
 40
0.0
 40
0.2537719365525903
 40
0.5087159351989531
 40
0.7421854335094625
 40
1.0
 40
1.0
 40
1.0
 40
1.0
 10
384.4980234573223
 20
151.9117171340186
 30
0.0
 10
384.3920623919238
 20
151.3818208350614
 30
0.0
 10
384.1796508730964
 20
150.3195808768355
 30
0.0
 10
383.3092999859482
 20
149.0256434477303
 30
0.0
 10
382.0936476879569
 20
148.1234629175688
 30
0.0
 10
381.1634930564873
 20
147.9422804050998
 30
0.0
 10
380.6753693206225
 20
147.8471999938783
 30
0.0
  0
SPLINE
  5
476
330
1F
100
AcDbEntity
  8
0
  6
Continuous
 62
     7
370
    15
100
AcDbSpline
210
0.0
220
0.0
230
1.0
 70
     8
 71
     3
 72
    13
 73
     9
 74
     0
 42
0.000000001
 43
0.00000001
 40
0.0
 40
0.0
 40
0.0
 40
0.0
 40
0.1735274932638203
 40
0.347475984533309
 40
0.51254186555919
 40
0.6710295171736029
 40
0.8297608130564137
 40
1.0
 40
1.0
 40
1.0
 40
1.0
 10
388.0032785614617
 20
153.9352578333632
 30
0.0
 10
387.778521121365
 20
154.1005582858852
 30
0.0
 10
387.3284609533197
 20
154.4315602291713
 30
0.0
 10
386.5469889049504
 20
154.5052646489765
 30
0.0
 10
385.8059599471625
 20
154.240412542086
 30
0.0
 10
385.1844686342635
 20
153.6759325333947
 30
0.0
 10
384.7047951119941
 20
152.8810939742611
 30
0.0
 10
384.5685361907606
 20
152.2422915101137
 30
0.0
 10
384.4980234573223
 20
151.9117171340186
 30
0.0
  0
LINE
  5
477
330
1F
100
AcDbEntity
  8
0
  6
Continuous
 62
     7
370
    15
100
AcDbLine
 10
378.1790252833
 20
143.5234053008
 30
0.0
 11
372.2179370019
 21
146.9646683164
 31
0.0
  0
ARC
  5
478
330
1F
100
AcDbEntity
  8
0
  6
Continuous
 62
     7
370
    15
100
AcDbCircle
 10
376.5107268124
 20
147.368754756
 30
0.0
 40
4.311766483523077
100
AcDbArc
 50
114.6225117091
 51
185.3774881453
  0
LINE
  5
479
330
1F
100
AcDbEntity
  8
0
  6
Continuous
 62
     7
370
    15
100
AcDbLine
 10
380.6753693206
 20
147.8471999939
 30
0.0
 11
374.7142810391
 21
151.2884630094
 31
0.0
  0
ARC
  5
47A
330
1F
100
AcDbEntity
  8
0
  6
Continuous
 62
     7
370
    15
100
AcDbCircle
 10
371.7076039453
 20
157.9629188822
 30
0.0
 40
7.320414492627877
100
AcDbArc
 50
294.2503850307
 51
339.073131428
  0
LINE
  5
47B
330
1F
100
AcDbEntity
  8
0
  6
Continuous
 62
     7
370
    15
100
AcDbLine
 10
384.4980234573
 20
151.911717134
 30
0.0
 11
378.5451425304
 21
155.3482421447
 31
0.0
  0
LINE
  5
47C
330
1F
100
AcDbEntity
  8
0
  6
Continuous
 62
     7
370
    15
100
AcDbLine
 10
376.5974306366
 20
138.2011298699
 30
0.0
 11
370.6363423551
 21
141.6423928854
 31
0.0
  0
ARC
  5
47D
330
1F
100
AcDbEntity
  8
0
  6
Continuous
 62
     7
370
    15
100
AcDbCircle
 10
364.9458419652
 20
146.2295462497
 30
0.0
 40
7.309156632222623
100
AcDbArc
 50
321.127462406
 51
5.7723111516
  0
LWPOLYLINE
  5
47E
330
1F
100
AcDbEntity
  8
0
  6
Continuous
 62
     7
370
    15
100
AcDbPolyline
 90
        9
 70
   128
 43
0.0
 10
370.6363423551
 20
141.6423928854
 10
370.2422230998
 20
141.023188725
 10
369.9424693472
 20
140.3595027952
 10
369.7550948735
 20
139.691219467
 10
369.6913599945
 20
139.0584993936
 10
369.7550948735
 20
138.4993660451
 10
369.9424693472
 20
138.0474206793
 10
370.2422230998
 20
137.7298230656
 10
370.312746101
 20
137.6850890526
  0
LWPOLYLINE
  5
47F
330
1F
100
AcDbEntity
  8
0
  6
Continuous
 62
     7
370
    15
100
AcDbPolyline
 90
        9
 70
   128
 43
0.0
 10
381.7976481814
 20
157.5780859364
 10
381.7112157183
 20
157.622537675
 10
381.288926245
 20
157.7179134197
 10
380.8083589255
 20
157.6523021901
 10
380.2977700824
 20
157.4295617849
 10
379.7871812394
 20
157.0627888601
 10
379.3066139199
 20
156.5735488729
 10
378.8843244466
 20
155.9906080804
 10
378.5451425304
 20
155.3482421447
  0
ARC
  5
480
330
1F
100
AcDbEntity
  8
0
  6
Continuous
 62
     7
370
    15
100
AcDbCircle
 10
375.0284062946
 20
148.2245145692
 30
0.0
 40
2.854112834555512
100
AcDbArc
 50
122.3295708564
 51
177.6758056763
  0
LINE
  5
481
330
1F
100
AcDbEntity
  8
0
  6
Continuous
 62
     7
370
    15
100
AcDbLine
 10
378.4100471043
 20
155.6765193909
 30
0.0
 11
378.5451425304
 21
155.3482421447
 31
0.0
  0
ARC
  5
482
330
1F
100
AcDbEntity
  8
0
  6
Continuous
 62
     7
370
    15
100
AcDbCircle
 10
369.1969848274
 20
159.492384494
 30
0.0
 40
9.972028028488392
100
AcDbArc
 50
306.0504133382
 51
337.5016468593
  0
LINE
  5
483
330
1F
100
AcDbEntity
  8
0
  6
Continuous
 62
     7
370
    15
100
AcDbLine
 10
370.6363423551
 20
141.6423928854
 30
0.0
 11
370.281941955
 21
141.5918044127
 31
0.0
  0
ARC
  5
484
330
1F
100
AcDbEntity
  8
0
  6
Continuous
 62
     7
370
    15
100
AcDbCircle
 10
362.6186835266
 20
147.536014886
 30
0.0
 40
9.698410585858804
100
AcDbArc
 50
322.2001030586
 51
354.4044142687
  0
ARC
  5
485
330
1F
100
AcDbEntity
  8
0
  6
Continuous
 62
     7
370
    15
100
AcDbCircle
 10
383.3499364355
 20
160.4521835738
 30
0.0
 40
3.715621753520876
100
AcDbArc
 50
268.5079212117
 51
313.4138920193
  0
LINE
  5
486
330
1F
100
AcDbEntity
  8
0
  6
Continuous
 62
     7
370
    15
100
AcDbLine
 10
391.8564291567
 20
154.3166009832
 30
0.0
 11
385.9035482297
 21
157.7531259939
 31
0.0
  0
LINE
  5
487
330
1F
100
AcDbEntity
  8
0
  6
Continuous
 62
     7
370
    15
100
AcDbLine
 10
378.1790252833
 20
130.6281911751
 30
0.0
 11
372.2179370019
 21
134.0694541907
 31
0.0
  0
ARC
  5
488
330
1F
100
AcDbEntity
  8
0
  6
Continuous
 62
     7
370
    15
100
AcDbCircle
 10
368.5117979216
 20
134.8918005535
 30
0.0
 40
3.796277179330684
100
AcDbArc
 50
347.4894629539
 51
30.9786145095
  0
ARC
  5
489
330
1F
100
AcDbEntity
  8
0
  6
Continuous
 62
     7
370
    15
100
AcDbCircle
 10
372.5336473146
 20
139.8528931437
 30
0.0
 40
2.844993748288962
100
AcDbArc
 50
142.3223785563
 51
177.5006351634
  0
ARC
  5
48A
330
1F
100
AcDbEntity
  8
0
  6
Continuous
 62
     7
370
    15
100
AcDbCircle
 10
381.0249162598
 20
154.5767442221
 30
0.0
 40
2.836731591542555
100
AcDbArc
 50
122.4684420445
 51
157.1891002708
  0
LWPOLYLINE
  5
48B
330
1F
100
AcDbEntity
  8
0
  6
Continuous
 62
     7
370
    15
100
AcDbPolyline
 90
        6
 70
   128
 43
0.0
 10
372.2179370019
 20
134.0694541907
 10
372.1790960701
 20
133.4482549591
 10
372.2675773804
 20
132.9076368358
 10
372.4780636266
 20
132.4800884015
 10
372.7979055852
 20
132.1913032857
 10
372.7980274752
 20
132.1912329087
  0
ARC
  5
48C
330
1F
100
AcDbEntity
  8
0
  6
Continuous
 62
     7
370
    15
100
AcDbCircle
 10
387.165211675
 20
156.5395313842
 30
0.0
 40
1.750601760985993
100
AcDbArc
 50
68.8219074803
 51
136.1125285536
  0
LINE
  5
48D
330
1F
100
AcDbEntity
  8
0
  6
Continuous
 62
     7
370
    15
100
AcDbLine
 10
385.2613903548
 20
157.3994568515
 30
0.0
 11
385.9035482297
 21
157.7531259939
 31
0.0
  0
LINE
  5
48E
330
1F
100
AcDbEntity
  8
0
  6
Continuous
 62
     7
370
    15
100
AcDbLine
 10
384.7745500619
 20
157.0349247041
 30
0.0
 11
385.2613903548
 21
157.3994568515
 31
0.0
  0
LINE
  5
48F
330
1F
100
AcDbEntity
  8
0
  6
Continuous
 62
     7
370
    15
100
AcDbLine
 10
372.2179370019
 20
134.0694541907
 30
0.0
 11
372.2024497404
 21
134.7985921112
 31
0.0
  0
LINE
  5
490
330
1F
100
AcDbEntity
  8
0
  6
Continuous
 62
     7
370
    15
100
AcDbLine
 10
372.2024497404
 20
134.7985921112
 30
0.0
 11
372.2708803632
 21
135.378697631
 31
0.0
  0
LWPOLYLINE
  5
491
330
1F
100
AcDbEntity
  8
0
  6
Continuous
 62
     7
370
    15
100
AcDbPolyline
 90
       20
 70
   128
 43
0.0
 10
371.3867026591
 20
143.830684738
 10
371.1520509798
 20
143.9909077837
 10
370.7543791439
 20
144.4171662173
 10
370.4613695825
 20
144.9736235254
 10
370.2819252429
 20
145.6433720343
 10
370.2214984505
 20
146.4060617744
 10
370.2819252429
 20
147.238518804
 10
370.4613695825
 20
148.1154493374
 10
370.7543791439
 20
149.0102082841
 10
371.1520509798
 20
149.8956088464
 10
371.6423020328
 20
150.7447485761
 10
372.2102362726
 20
151.5318267922
 10
372.8385973048
 20
152.2329285215
 10
373.5082926974
 20
152.8267511426
 10
374.1989740947
 20
153.2952516558
 10
374.889655492
 20
153.6241949099
 10
375.5593508846
 20
153.8035861307
 10
376.1877119168
 20
153.8279746067
 10
376.7556461566
 20
153.6966193064
 10
377.0112455302
 20
153.5737344398
  0
SPLINE
  5
492
330
1F
100
AcDbEntity
  8
0
  6
Continuous
 62
     7
370
    15
100
AcDbSpline
210
0.0
220
0.0
230
1.0
 70
     8
 71
     3
 72
     9
 73
     5
 74
     0
 42
0.000000001
 43
0.00000001
 40
0.0
 40
0.0
 40
0.0
 40
0.0
 40
0.8583406004439588
 40
1.0
 40
1.0
 40
1.0
 40
1.0
 10
372.0127937569524
 20
145.3915917510144
 30
0.0
 10
372.0062576429899
 20
145.4589091764076
 30
0.0
 10
371.9986428174078
 20
145.5373365808183
 30
0.0
 10
372.0278791343724
 20
145.5940263370067
 30
0.0
 10
372.0320207334788
 20
145.6020569738293
 30
0.0
  0
LINE
  5
493
330
1F
100
AcDbEntity
  8
0
  6
Continuous
 62
     7
370
    15
100
AcDbLine
 10
372.1766413687
 20
134.4831023754
 30
0.0
 11
372.2024497404
 21
134.7985921112
 31
0.0
  0
LINE
  5
494
330
1F
100
AcDbEntity
  8
0
  6
Continuous
 62
     7
370
    15
100
AcDbLine
 10
385.2613903548
 20
157.3994568515
 30
0.0
 11
385.5020594697
 21
157.5638735903
 31
0.0
  0
LWPOLYLINE
  5
495
330
1F
100
AcDbEntity
  8
0
  6
Continuous
 62
     7
370
    15
100
AcDbPolyline
 90
       12
 70
   128
 43
0.0
 10
355.37768495
 20
154.0683961817
 10
355.2136821542
 20
154.1771159867
 10
354.8423177071
 20
154.5649505009
 10
354.5763604121
 20
155.0839105101
 10
354.4254226588
 20
155.7152394476
 10
354.3949597308
 20
156.4361194406
 10
354.4860726377
 20
157.2204960079
 10
354.6954683218
 20
158.0400197368
 10
355.0155786773
 20
158.8650709044
 10
355.434834082
 20
159.6658300119
 10
355.9380815533
 20
160.4133555388
 10
356.485949226
 20
161.0585118191
  0
LWPOLYLINE
  5
496
330
1F
100
AcDbEntity
  8
0
  6
Continuous
 62
     7
370
    15
100
AcDbPolyline
 90
        3
 70
   128
 43
0.0
 10
369.1791107307
 20
146.2738079927
 10
369.5559426362
 20
145.8936759382
 10
369.696597269
 20
145.8022640495
  0
LWPOLYLINE
  5
497
330
1F
100
AcDbEntity
  8
0
  6
Continuous
 62
     7
370
    15
100
AcDbPolyline
 90
       17
 70
   128
 43
0.0
 10
374.4587102332
 20
154.0513794637
 10
374.375784422
 20
154.0960278914
 10
373.86840011
 20
154.2539873446
 10
373.2962935588
 20
154.2555517593
 10
372.6801421899
 20
154.1006645932
 10
372.042215319
 20
153.7949238721
 10
371.4055692854
 20
153.3493798624
 10
370.7932141355
 20
152.7801356854
 10
370.2272819798
 20
152.1077653087
 10
369.7282270811
 20
151.3565699496
 10
369.3140865836
 20
150.5536997657
 10
368.999828604
 20
149.7281725772
 10
368.7968112443
 20
148.9098250877
 10
368.712372081
 20
148.1282345075
 10
368.7495629654
 20
147.4116495567
 10
368.9070397221
 20
146.7859694824
 10
369.1791107307
 20
146.2738079927
  0
LINE
  5
498
330
1F
100
AcDbEntity
  8
0
  6
Continuous
 62
     7
370
    15
100
AcDbLine
 10
365.2363956431
 20
172.9226473951
 30
0.0
 11
360.993754956
 21
175.3718717306
 31
0.0
  0
LINE
  5
499
330
1F
100
AcDbEntity
  8
0
  6
Continuous
 62
     7
370
    15
100
AcDbLine
 10
360.993754956
 20
175.3718717306
 30
0.0
 11
371.0700265879
 21
181.1887795273
 31
0.0
  0
LINE
  5
49A
330
1F
100
AcDbEntity
  8
0
  6
Continuous
 62
     7
370
    15
100
AcDbLine
 10
371.0700265879
 20
181.1887795273
 30
0.0
 11
371.5738401695
 21
180.8979341375
 31
0.0
  0
LINE
  5
49B
330
1F
100
AcDbEntity
  8
0
  6
Continuous
 62
     7
370
    15
100
AcDbLine
 10
371.5738401695
 20
180.8979341375
 30
0.0
 11
369.452519826
 21
179.6733219697
 31
0.0
  0
LINE
  5
49C
330
1F
100
AcDbEntity
  8
0
  6
Continuous
 62
     7
370
    15
100
AcDbLine
 10
369.452519826
 20
179.6733219697
 30
0.0
 11
372.157203264
 21
178.1119414559
 31
0.0
  0
LINE
  5
49D
330
1F
100
AcDbEntity
  8
0
  6
Continuous
 62
     7
370
    15
100
AcDbLine
 10
372.157203264
 20
178.1119414559
 30
0.0
 11
374.2785236076
 21
179.3365536236
 31
0.0
  0
LINE
  5
49E
330
1F
100
AcDbEntity
  8
0
  6
Continuous
 62
     7
370
    15
100
AcDbLine
 10
374.2785236076
 20
179.3365536236
 30
0.0
 11
375.0474591318
 21
178.8926565941
 31
0.0
  0
LINE
  5
49F
330
1F
100
AcDbEntity
  8
0
  6
Continuous
 62
     7
370
    15
100
AcDbLine
 10
365.2363956431
 20
157.6125071723
 30
0.0
 11
365.2363956431
 21
172.9226473951
 31
0.0
  0
LINE
  5
4A0
330
1F
100
AcDbEntity
  8
0
  6
Continuous
 62
     7
370
    15
100
AcDbLine
 10
365.2363956431
 20
157.6125071723
 30
0.0
 11
360.993754956
 21
160.0617315077
 31
0.0
  0
LINE
  5
4A1
330
1F
100
AcDbEntity
  8
0
  6
Continuous
 62
     7
370
    15
100
AcDbLine
 10
360.993754956
 20
160.0617315077
 30
0.0
 11
360.993754956
 21
175.3718717306
 31
0.0
  0
LINE
  5
4A2
330
1F
100
AcDbEntity
  8
0
  6
Continuous
 62
     7
370
    15
100
AcDbLine
 10
371.5738401695
 20
178.448709802
 30
0.0
 11
371.5738401695
 21
180.8979341375
 31
0.0
  0
LINE
  5
4A3
330
1F
100
AcDbEntity
  8
0
  6
Continuous
 62
     7
370
    15
100
AcDbLine
 10
365.2363956431
 20
142.3023669494
 30
0.0
 11
360.993754956
 21
144.7515912849
 31
0.0
  0
LINE
  5
4A4
330
1F
100
AcDbEntity
  8
0
  6
Continuous
 62
     7
370
    15
100
AcDbLine
 10
360.993754956
 20
144.7515912849
 30
0.0
 11
363.4050184452
 21
146.1435840678
 31
0.0
  0
LINE
  5
4A5
330
1F
100
AcDbEntity
  8
0
  6
Continuous
 62
     7
370
    15
100
AcDbLine
 10
365.2363956431
 20
126.9922267265
 30
0.0
 11
365.2363956431
 21
142.3023669494
 31
0.0
  0
LINE
  5
4A6
330
1F
100
AcDbEntity
  8
0
  6
Continuous
 62
     7
370
    15
100
AcDbLine
 10
365.2363956431
 20
126.9922267265
 30
0.0
 11
360.993754956
 21
129.441451062
 31
0.0
  0
LINE
  5
4A7
330
1F
100
AcDbEntity
  8
0
  6
Continuous
 62
     7
370
    15
100
AcDbLine
 10
360.993754956
 20
129.441451062
 30
0.0
 11
360.993754956
 21
144.7515912849
 31
0.0
  0
LINE
  5
4A8
330
1F
100
AcDbEntity
  8
0
  6
Continuous
 62
     7
370
    15
100
AcDbLine
 10
364.8982452929
 20
145.5905462601
 30
0.0
 11
365.2363956431
 21
146.0602261984
 31
0.0
  0
ARC
  5
4A9
330
1F
100
AcDbEntity
  8
0
  6
Continuous
 62
     7
370
    15
100
AcDbCircle
 10
365.1436901094
 20
148.5658827605
 30
0.0
 40
2.98544309088171
100
AcDbArc
 50
260.8968471772
 51
265.2841698059
  0
LINE
  5
4AA
330
1F
100
AcDbEntity
  8
0
  6
Continuous
 62
     7
370
    15
100
AcDbLine
 10
364.7481426491
 20
146.341441262
 30
0.0
 11
364.6713559883
 21
145.6180410201
 31
0.0
  0
LINE
  5
4AB
330
1F
100
AcDbEntity
  8
0
  6
Continuous
 62
     7
370
    15
100
AcDbLine
 10
364.7481426491
 20
146.341441262
 30
0.0
 11
364.9959732805
 21
146.9576551005
 31
0.0
  0
ARC
  5
4AC
330
1F
100
AcDbEntity
  8
0
  6
Continuous
 62
     7
370
    15
100
AcDbCircle
 10
365.538361297
 20
149.0285340408
 30
0.0
 40
2.140729862892542
100
AcDbArc
 50
246.424236973
 51
255.3232195095
  0
LINE
  5
4AD
330
1F
100
AcDbEntity
  8
0
  6
Continuous
 62
     7
370
    15
100
AcDbLine
 10
364.3367194189
 20
146.484120633
 30
0.0
 11
364.6821520663
 21
147.0664866155
 31
0.0
  0
LINE
  5
4AE
330
1F
100
AcDbEntity
  8
0
  6
Continuous
 62
     7
370
    15
100
AcDbLine
 10
363.7797974982
 20
145.9272287257
 30
0.0
 11
364.3367194189
 21
146.484120633
 31
0.0
  0
ARC
  5
4AF
330
1F
100
AcDbEntity
  8
0
  6
Continuous
 62
     7
370
    15
100
AcDbCircle
 10
365.0347799705
 20
148.1376749277
 30
0.0
 40
2.54186022780919
100
AcDbArc
 50
235.5301927274
 51
240.4142239017
  0
LINE
  5
4B0
330
1F
100
AcDbEntity
  8
0
  6
Continuous
 62
     7
370
    15
100
AcDbLine
 10
363.8225304259
 20
146.805768477
 30
0.0
 11
363.5961585721
 21
146.0421029557
 31
0.0
  0
LINE
  5
4B1
330
1F
100
AcDbEntity
  8
0
  6
Continuous
 62
     7
370
    15
100
AcDbLine
 10
363.8225304259
 20
146.805768477
 30
0.0
 11
364.1679630732
 21
147.3881344595
 31
0.0
  0
ARC
  5
4B2
330
1F
100
AcDbEntity
  8
0
  6
Continuous
 62
     7
370
    15
100
AcDbCircle
 10
365.5996063171
 20
149.0681591468
 30
0.0
 40
2.207280074624685
100
AcDbArc
 50
220.8447226127
 51
229.5638218265
  0
LINE
  5
4B3
330
1F
100
AcDbEntity
  8
0
  6
Continuous
 62
     7
370
    15
100
AcDbLine
 10
363.5103385072
 20
147.1157422271
 30
0.0
 11
363.9298325064
 21
147.6245730743
 31
0.0
  0
LINE
  5
4B4
330
1F
100
AcDbEntity
  8
0
  6
Continuous
 62
     7
370
    15
100
AcDbLine
 10
362.9196353834
 20
146.7138193496
 30
0.0
 11
363.5103385072
 21
147.1157422271
 31
0.0
  0
ARC
  5
4B5
330
1F
100
AcDbEntity
  8
0
  6
Continuous
 62
     7
370
    15
100
AcDbCircle
 10
365.4867702374
 20
148.5414932387
 30
0.0
 40
3.151281200330911
100
AcDbArc
 50
211.2170043578
 51
215.4489979936
  0
LINE
  5
4B6
330
1F
100
AcDbEntity
  8
0
  6
Continuous
 62
     7
370
    15
100
AcDbLine
 10
363.152291704
 20
147.6601328181
 30
0.0
 11
362.7917615251
 21
146.9082445607
 31
0.0
  0
LINE
  5
4B7
330
1F
100
AcDbEntity
  8
0
  6
Continuous
 62
     7
370
    15
100
AcDbLine
 10
363.152291704
 20
147.6601328181
 30
0.0
 11
363.5717857032
 21
148.1689636653
 31
0.0
  0
ARC
  5
4B8
330
1F
100
AcDbEntity
  8
0
  6
Continuous
 62
     7
370
    15
100
AcDbCircle
 10
366.3860527699
 20
149.5562900364
 30
0.0
 40
3.137638217281016
100
AcDbArc
 50
199.3456480211
 51
206.2415399722
  0
LINE
  5
4B9
330
1F
100
AcDbEntity
  8
0
  6
Continuous
 62
     7
370
    15
100
AcDbLine
 10
362.9606064602
 20
148.1162767484
 30
0.0
 11
363.4255739885
 21
148.5168964789
 31
0.0
  0
LINE
  5
4BA
330
1F
100
AcDbEntity
  8
0
  6
Continuous
 62
     7
370
    15
100
AcDbLine
 10
362.3763775749
 20
147.8967132806
 30
0.0
 11
362.9606064602
 21
148.1162767484
 31
0.0
  0
ARC
  5
4BB
330
1F
100
AcDbEntity
  8
0
  6
Continuous
 62
     7
370
    15
100
AcDbCircle
 10
367.0361170117
 20
149.167777105
 30
0.0
 40
4.829987045923657
100
AcDbArc
 50
192.0743109641
 51
195.2577028321
  0
LINE
  5
4BC
330
1F
100
AcDbEntity
  8
0
  6
Continuous
 62
     7
370
    15
100
AcDbLine
 10
362.7831021448
 20
148.8463107674
 30
0.0
 11
362.3129831766
 21
148.157439716
 31
0.0
  0
LINE
  5
4BD
330
1F
100
AcDbEntity
  8
0
  6
Continuous
 62
     7
370
    15
100
AcDbLine
 10
362.7831021448
 20
148.8463107674
 30
0.0
 11
363.2480696731
 21
149.246930498
 31
0.0
  0
ARC
  5
4BE
330
1F
100
AcDbEntity
  8
0
  6
Continuous
 62
     7
370
    15
100
AcDbCircle
 10
368.0969471797
 20
149.9603574789
 30
0.0
 40
4.901080608565277
100
AcDbArc
 50
183.2483032463
 51
188.3700124182
  0
LINE
  5
4BF
330
1F
100
AcDbEntity
  8
0
  6
Continuous
 62
     7
370
    15
100
AcDbLine
 10
362.7249866084
 20
149.4175394228
 30
0.0
 11
363.2037408971
 21
149.6826464641
 31
0.0
  0
LINE
  5
4C0
330
1F
100
AcDbEntity
  8
0
  6
Continuous
 62
     7
370
    15
100
AcDbLine
 10
362.1870461948
 20
149.3952982523
 30
0.0
 11
362.7249866084
 21
149.4175394228
 31
0.0
  0
ARC
  5
4C1
330
1F
100
AcDbEntity
  8
0
  6
Continuous
 62
     7
370
    15
100
AcDbCircle
 10
369.5848340551
 20
149.4206756439
 30
0.0
 40
7.397831387536261
100
AcDbArc
 50
177.8008087544
 51
180.1965468267
  0
LINE
  5
4C2
330
1F
100
AcDbEntity
  8
0
  6
Continuous
 62
     7
370
    15
100
AcDbLine
 10
362.7401214066
 20
150.2834662578
 30
0.0
 11
362.1924514798
 21
149.7045578362
 31
0.0
  0
LINE
  5
4C3
330
1F
100
AcDbEntity
  8
0
  6
Continuous
 62
     7
370
    15
100
AcDbLine
 10
362.7401214066
 20
150.2834662578
 30
0.0
 11
363.2188756953
 21
150.5485732991
 31
0.0
  0
ARC
  5
4C4
330
1F
100
AcDbEntity
  8
0
  6
Continuous
 62
     7
370
    15
100
AcDbCircle
 10
370.3742649486
 20
149.9214408551
 30
0.0
 40
7.182819117144804
100
AcDbArc
 50
171.0218230982
 51
174.9911238306
  0
LINE
  5
4C5
330
1F
100
AcDbEntity
  8
0
  6
Continuous
 62
     7
370
    15
100
AcDbLine
 10
362.8195360554
 20
150.9308513495
 30
0.0
 11
363.2794507909
 21
151.0423790949
 31
0.0
  0
LINE
  5
4C6
330
1F
100
AcDbEntity
  8
0
  6
Continuous
 62
     7
370
    15
100
AcDbLine
 10
362.3645438636
 20
151.1074481752
 30
0.0
 11
362.8195360554
 21
150.9308513495
 31
0.0
  0
ARC
  5
4C7
330
1F
100
AcDbEntity
  8
0
  6
Continuous
 62
     7
370
    15
100
AcDbCircle
 10
372.4027188906
 20
149.0826938084
 30
0.0
 40
10.24034121106039
100
AcDbArc
 50
166.6673200802
 51
168.5961429397
  0
LINE
  5
4C8
330
1F
100
AcDbEntity
  8
0
  6
Continuous
 62
     7
370
    15
100
AcDbLine
 10
363.0262785556
 20
151.8736595177
 30
0.0
 11
362.4383804708
 21
151.4441653781
 31
0.0
  0
LINE
  5
4C9
330
1F
100
AcDbEntity
  8
0
  6
Continuous
 62
     7
370
    15
100
AcDbLine
 10
363.0262785556
 20
151.8736595177
 30
0.0
 11
363.4861932911
 21
151.985187263
 31
0.0
  0
ARC
  5
4CA
330
1F
100
AcDbEntity
  8
0
  6
Continuous
 62
     7
370
    15
100
AcDbCircle
 10
372.4685355434
 20
149.4728483102
 30
0.0
 40
9.327074533382815
100
AcDbArc
 50
161.0390802842
 51
164.3738250777
  0
LINE
  5
4CB
330
1F
100
AcDbEntity
  8
0
  6
Continuous
 62
     7
370
    15
100
AcDbLine
 10
363.2378114126
 20
152.5530828216
 30
0.0
 11
363.6475441658
 21
152.5034308394
 31
0.0
  0
LINE
  5
4CC
330
1F
100
AcDbEntity
  8
0
  6
Continuous
 62
     7
370
    15
100
AcDbLine
 10
362.8967744086
 20
152.9164828617
 30
0.0
 11
363.2378114126
 21
152.5530828216
 31
0.0
  0
ARC
  5
4CD
330
1F
100
AcDbEntity
  8
0
  6
Continuous
 62
     7
370
    15
100
AcDbCircle
 10
374.5031118555
 20
148.4468241592
 30
0.0
 40
12.43723915700586
100
AcDbArc
 50
157.2436552096
 51
158.9380546375
  0
LINE
  5
4CE
330
1F
100
AcDbEntity
  8
0
  6
Continuous
 62
     7
370
    15
100
AcDbLine
 10
363.6220724551
 20
153.5085215043
 30
0.0
 11
363.0340104952
 21
153.2577109627
 31
0.0
  0
LINE
  5
4CF
330
1F
100
AcDbEntity
  8
0
  6
Continuous
 62
     7
370
    15
100
AcDbLine
 10
363.6220724551
 20
153.5085215043
 30
0.0
 11
364.0318052083
 21
153.4588695222
 31
0.0
  0
ARC
  5
4D0
330
1F
100
AcDbEntity
  8
0
  6
Continuous
 62
     7
370
    15
100
AcDbCircle
 10
373.6380359626
 20
149.0198889654
 30
0.0
 40
10.58225957384414
100
AcDbArc
 50
152.1331406406
 51
155.1986297284
  0
LINE
  5
4D1
330
1F
100
AcDbEntity
  8
0
  6
Continuous
 62
     7
370
    15
100
AcDbLine
 10
363.9513079056
 20
154.173681445
 30
0.0
 11
364.2829360664
 21
153.9662334358
 31
0.0
  0
LINE
  5
4D2
330
1F
100
AcDbEntity
  8
0
  6
Continuous
 62
     7
370
    15
100
AcDbLine
 10
363.7474671976
 20
154.6991195873
 30
0.0
 11
363.9513079056
 21
154.173681445
 31
0.0
  0
ARC
  5
4D3
330
1F
100
AcDbEntity
  8
0
  6
Continuous
 62
     7
370
    15
100
AcDbCircle
 10
375.1756161493
 20
148.1384411998
 30
0.0
 40
13.17744623839797
100
AcDbArc
 50
148.5103691634
 51
150.1407034369
  0
LINE
  5
4D4
330
1F
100
AcDbEntity
  8
0
  6
Continuous
 62
     7
370
    15
100
AcDbLine
 10
364.4869007355
 20
155.076639075
 30
0.0
 11
363.9387503512
 21
155.0216044552
 31
0.0
  0
LINE
  5
4D5
330
1F
100
AcDbEntity
  8
0
  6
Continuous
 62
     7
370
    15
100
AcDbLine
 10
364.4869007355
 20
155.076639075
 30
0.0
 11
364.8185288963
 21
154.8691910659
 31
0.0
  0
ARC
  5
4D6
330
1F
100
AcDbEntity
  8
0
  6
Continuous
 62
     7
370
    15
100
AcDbCircle
 10
373.5502251346
 20
149.0927351688
 30
0.0
 40
10.46947763404397
100
AcDbArc
 50
143.4258917226
 51
146.5133610579
  0
LINE
  5
4D7
330
1F
100
AcDbEntity
  8
0
  6
Continuous
 62
     7
370
    15
100
AcDbLine
 10
364.9114019276
 20
155.6822061018
 30
0.0
 11
365.1423255849
 21
155.3310993047
 31
0.0
  0
LINE
  5
4D8
330
1F
100
AcDbEntity
  8
0
  6
Continuous
 62
     7
370
    15
100
AcDbLine
 10
364.858648923
 20
156.3338746053
 30
0.0
 11
364.9114019276
 21
155.6822061018
 31
0.0
  0
ARC
  5
4D9
330
1F
100
AcDbEntity
  8
0
  6
Continuous
 62
     7
370
    15
100
AcDbCircle
 10
374.3668025306
 20
148.7317313921
 30
0.0
 40
12.17364228401927
100
AcDbArc
 50
139.6375151362
 51
141.3562878902
  0
LINE
  5
4DA
330
1F
100
AcDbEntity
  8
0
  6
Continuous
 62
     7
370
    15
100
AcDbLine
 10
365.2363956431
 20
156.5710070444
 30
0.0
 11
365.0909435126
 21
156.6156394292
 31
0.0
  0
LINE
  5
4DB
330
1F
100
AcDbEntity
  8
0
  6
Continuous
 62
     7
370
    15
100
AcDbLine
 10
361.0958167682
 20
156.229884797
 30
0.0
 11
363.7474671976
 21
154.6991195873
 31
0.0
  0
LINE
  5
4DC
330
1F
100
AcDbEntity
  8
0
  6
Continuous
 62
     7
370
    15
100
AcDbLine
 10
361.2870999217
 20
156.5523696649
 30
0.0
 11
363.9387503512
 21
155.0216044552
 31
0.0
  0
ARC
  5
4DD
330
1F
100
AcDbEntity
  8
0
  6
Continuous
 62
     7
370
    15
100
AcDbCircle
 10
372.5239657194
 20
149.6692064097
 30
0.0
 40
13.17744623790774
100
AcDbArc
 50
148.5103691634
 51
150.140703437
  0
LINE
  5
4DE
330
1F
100
AcDbEntity
  8
0
  6
Continuous
 62
     7
370
    15
100
AcDbLine
 10
361.2996574762
 20
155.7044466547
 30
0.0
 11
363.9513079056
 21
154.173681445
 31
0.0
  0
LINE
  5
4DF
330
1F
100
AcDbEntity
  8
0
  6
Continuous
 62
     7
370
    15
100
AcDbLine
 10
361.0958167682
 20
156.229884797
 30
0.0
 11
361.2996574762
 21
155.7044466547
 31
0.0
  0
LINE
  5
4E0
330
1F
100
AcDbEntity
  8
0
  6
Continuous
 62
     7
370
    15
100
AcDbLine
 10
361.835250306
 20
156.6074042847
 30
0.0
 11
364.4869007355
 21
155.076639075
 31
0.0
  0
LINE
  5
4E1
330
1F
100
AcDbEntity
  8
0
  6
Continuous
 62
     7
370
    15
100
AcDbLine
 10
361.835250306
 20
156.6074042847
 30
0.0
 11
361.2870999217
 21
156.5523696649
 31
0.0
  0
LINE
  5
4E2
330
1F
100
AcDbEntity
  8
0
  6
Continuous
 62
     7
370
    15
100
AcDbLine
 10
360.2451239791
 20
154.4472480713
 30
0.0
 11
362.8967744086
 21
152.9164828617
 31
0.0
  0
LINE
  5
4E3
330
1F
100
AcDbEntity
  8
0
  6
Continuous
 62
     7
370
    15
100
AcDbLine
 10
360.3823600658
 20
154.7884761723
 30
0.0
 11
363.0340104952
 21
153.2577109627
 31
0.0
  0
ARC
  5
4E4
330
1F
100
AcDbEntity
  8
0
  6
Continuous
 62
     7
370
    15
100
AcDbCircle
 10
371.8514614261
 20
149.9775893689
 30
0.0
 40
12.4372391570617
100
AcDbArc
 50
157.2436552097
 51
158.9380546375
  0
LINE
  5
4E5
330
1F
100
AcDbEntity
  8
0
  6
Continuous
 62
     7
370
    15
100
AcDbLine
 10
362.2069984936
 20
157.8646398149
 30
0.0
 11
364.858648923
 21
156.3338746053
 31
0.0
  0
LINE
  5
4E6
330
1F
100
AcDbEntity
  8
0
  6
Continuous
 62
     7
370
    15
100
AcDbLine
 10
362.4392930832
 20
158.1464046389
 30
0.0
 11
365.0909435126
 21
156.6156394292
 31
0.0
  0
ARC
  5
4E7
330
1F
100
AcDbEntity
  8
0
  6
Continuous
 62
     7
370
    15
100
AcDbCircle
 10
371.7151521011
 20
150.2624966018
 30
0.0
 40
12.17364228393674
100
AcDbArc
 50
139.6375151361
 51
141.3562878902
  0
LINE
  5
4E8
330
1F
100
AcDbEntity
  8
0
  6
Continuous
 62
     7
370
    15
100
AcDbLine
 10
360.9704220257
 20
155.039286714
 30
0.0
 11
363.6220724551
 21
153.5085215043
 31
0.0
  0
LINE
  5
4E9
330
1F
100
AcDbEntity
  8
0
  6
Continuous
 62
     7
370
    15
100
AcDbLine
 10
360.9704220257
 20
155.039286714
 30
0.0
 11
360.3823600658
 21
154.7884761723
 31
0.0
  0
LINE
  5
4EA
330
1F
100
AcDbEntity
  8
0
  6
Continuous
 62
     7
370
    15
100
AcDbLine
 10
362.2597514981
 20
157.2129713115
 30
0.0
 11
364.9114019276
 21
155.6822061018
 31
0.0
  0
LINE
  5
4EB
330
1F
100
AcDbEntity
  8
0
  6
Continuous
 62
     7
370
    15
100
AcDbLine
 10
362.2069984936
 20
157.8646398149
 30
0.0
 11
362.2597514981
 21
157.2129713115
 31
0.0
  0
LINE
  5
4EC
330
1F
100
AcDbEntity
  8
0
  6
Continuous
 62
     7
370
    15
100
AcDbLine
 10
360.5861609831
 20
154.0838480312
 30
0.0
 11
363.2378114126
 21
152.5530828216
 31
0.0
  0
LINE
  5
4ED
330
1F
100
AcDbEntity
  8
0
  6
Continuous
 62
     7
370
    15
100
AcDbLine
 10
360.2451239791
 20
154.4472480713
 30
0.0
 11
360.5861609831
 21
154.0838480312
 31
0.0
  0
LINE
  5
4EE
330
1F
100
AcDbEntity
  8
0
  6
Continuous
 62
     7
370
    15
100
AcDbLine
 10
362.9101763491
 20
158.0019128185
 30
0.0
 11
365.2363956431
 21
156.6590150044
 31
0.0
  0
LINE
  5
4EF
330
1F
100
AcDbEntity
  8
0
  6
Continuous
 62
     7
370
    15
100
AcDbLine
 10
362.9101763491
 20
158.0019128185
 30
0.0
 11
362.4392930832
 21
158.1464046389
 31
0.0
  0
LINE
  5
4F0
330
1F
100
AcDbEntity
  8
0
  6
Continuous
 62
     7
370
    15
100
AcDbLine
 10
361.631285637
 20
155.4969986455
 30
0.0
 11
364.2829360664
 21
153.9662334358
 31
0.0
  0
LINE
  5
4F1
330
1F
100
AcDbEntity
  8
0
  6
Continuous
 62
     7
370
    15
100
AcDbLine
 10
361.2996574762
 20
155.7044466547
 30
0.0
 11
361.631285637
 21
155.4969986455
 31
0.0
  0
LINE
  5
4F2
330
1F
100
AcDbEntity
  8
0
  6
Continuous
 62
     7
370
    15
100
AcDbLine
 10
359.7867300414
 20
152.9749305878
 30
0.0
 11
362.4383804708
 21
151.4441653781
 31
0.0
  0
LINE
  5
4F3
330
1F
100
AcDbEntity
  8
0
  6
Continuous
 62
     7
370
    15
100
AcDbLine
 10
360.3746281262
 20
153.4044247273
 30
0.0
 11
363.0262785556
 21
151.8736595177
 31
0.0
  0
LINE
  5
4F4
330
1F
100
AcDbEntity
  8
0
  6
Continuous
 62
     7
370
    15
100
AcDbLine
 10
360.3746281262
 20
153.4044247273
 30
0.0
 11
359.7867300414
 21
152.9749305878
 31
0.0
  0
LINE
  5
4F5
330
1F
100
AcDbEntity
  8
0
  6
Continuous
 62
     7
370
    15
100
AcDbLine
 10
359.7128934342
 20
152.6382133849
 30
0.0
 11
362.3645438636
 21
151.1074481752
 31
0.0
  0
ARC
  5
4F6
330
1F
100
AcDbEntity
  8
0
  6
Continuous
 62
     7
370
    15
100
AcDbCircle
 10
369.751068461
 20
150.6134590181
 30
0.0
 40
10.24034121085418
100
AcDbArc
 50
166.6673200802
 51
168.5961429398
  0
LINE
  5
4F7
330
1F
100
AcDbEntity
  8
0
  6
Continuous
 62
     7
370
    15
100
AcDbLine
 10
361.3801547789
 20
154.9896347318
 30
0.0
 11
364.0318052083
 21
153.4588695222
 31
0.0
  0
LINE
  5
4F8
330
1F
100
AcDbEntity
  8
0
  6
Continuous
 62
     7
370
    15
100
AcDbLine
 10
360.9704220257
 20
155.039286714
 30
0.0
 11
361.3801547789
 21
154.9896347318
 31
0.0
  0
LINE
  5
4F9
330
1F
100
AcDbEntity
  8
0
  6
Continuous
 62
     7
370
    15
100
AcDbLine
 10
362.4906751555
 20
156.8618645143
 30
0.0
 11
365.1423255849
 21
155.3310993047
 31
0.0
  0
LINE
  5
4FA
330
1F
100
AcDbEntity
  8
0
  6
Continuous
 62
     7
370
    15
100
AcDbLine
 10
362.2597514981
 20
157.2129713115
 30
0.0
 11
362.4906751555
 21
156.8618645143
 31
0.0
  0
LINE
  5
4FB
330
1F
100
AcDbEntity
  8
0
  6
Continuous
 62
     7
370
    15
100
AcDbLine
 10
363.4010142281
 20
158.5066185392
 30
0.0
 11
365.2363956431
 21
157.4470754013
 31
0.0
  0
LINE
  5
4FC
330
1F
100
AcDbEntity
  8
0
  6
Continuous
 62
     7
370
    15
100
AcDbLine
 10
363.4222962487
 20
158.6597644612
 30
0.0
 11
363.4010142281
 21
158.5066185392
 31
0.0
  0
ARC
  5
4FD
330
1F
100
AcDbEntity
  8
0
  6
Continuous
 62
     7
370
    15
100
AcDbCircle
 10
370.9863855332
 20
150.5506541751
 30
0.0
 40
10.58225957381691
100
AcDbArc
 50
152.1331406406
 51
155.1986297284
  0
ARC
  5
4FE
330
1F
100
AcDbEntity
  8
0
  6
Continuous
 62
     7
370
    15
100
AcDbCircle
 10
370.8985747052
 20
150.6235003785
 30
0.0
 40
10.46947763410661
100
AcDbArc
 50
143.4258917226
 51
146.5133610579
  0
LINE
  5
4FF
330
1F
100
AcDbEntity
  8
0
  6
Continuous
 62
     7
370
    15
100
AcDbLine
 10
360.8345428617
 20
153.5159524727
 30
0.0
 11
363.4861932911
 21
151.985187263
 31
0.0
  0
LINE
  5
500
330
1F
100
AcDbEntity
  8
0
  6
Continuous
 62
     7
370
    15
100
AcDbLine
 10
360.3746281262
 20
153.4044247273
 30
0.0
 11
360.8345428617
 21
153.5159524727
 31
0.0
  0
LINE
  5
501
330
1F
100
AcDbEntity
  8
0
  6
Continuous
 62
     7
370
    15
100
AcDbLine
 10
363.5154963163
 20
158.0357803021
 30
0.0
 11
365.2363956431
 21
157.042326267
 31
0.0
  0
LINE
  5
502
330
1F
100
AcDbEntity
  8
0
  6
Continuous
 62
     7
370
    15
100
AcDbLine
 10
363.4010142281
 20
158.5066185392
 30
0.0
 11
363.5154963163
 21
158.0357803021
 31
0.0
  0
ARC
  5
503
330
1F
100
AcDbEntity
  8
0
  6
Continuous
 62
     7
370
    15
100
AcDbCircle
 10
369.7304987429
 20
151.0292885142
 30
0.0
 40
9.236965339510068
100
AcDbArc
 50
162.0402731125
 51
164.3828628016
  0
ARC
  5
504
330
1F
100
AcDbEntity
  8
0
  6
Continuous
 62
     7
370
    15
100
AcDbCircle
 10
369.7234275011
 20
151.626001629
 30
0.0
 40
8.923209749432075
100
AcDbArc
 50
134.0835085815
 51
136.2885085278
  0
LINE
  5
505
330
1F
100
AcDbEntity
  8
0
  6
Continuous
 62
     7
370
    15
100
AcDbLine
 10
360.7172386843
 20
151.4512515963
 30
0.0
 11
362.7401214066
 21
150.2834662578
 31
0.0
  0
LINE
  5
506
330
1F
100
AcDbEntity
  8
0
  6
Continuous
 62
     7
370
    15
100
AcDbLine
 10
360.2698696161
 20
150.8144407216
 30
0.0
 11
362.1924514798
 21
149.7045578362
 31
0.0
  0
ELLIPSE
  5
507
330
1F
100
AcDbEntity
  8
0
  6
Continuous
 62
     7
370
    15
100
AcDbEllipse
 10
359.3160894929
 20
150.8677842998
 30
0.0
 11
1.574794619468776
 21
1.567109818408369
 31
0.0
210
0.0
220
0.0
230
1.0
 40
0.3339281109
 41
5.003870655654921
 42
5.396898534865715
  0
LINE
  5
508
330
1F
100
AcDbEntity
  8
0
  6
Continuous
 62
     7
370
    15
100
AcDbLine
 10
360.2644643311
 20
150.5051811377
 30
0.0
 11
362.1870461948
 21
149.3952982523
 31
0.0
  0
SPLINE
  5
509
330
1F
100
AcDbEntity
  8
0
  6
Continuous
 62
     7
370
    15
100
AcDbSpline
210
0.0
220
0.0
230
1.0
 70
     8
 71
     3
 72
     9
 73
     5
 74
     0
 42
0.000000001
 43
0.00000001
 40
0.0
 40
0.0
 40
0.0
 40
0.0
 40
0.8312212001137911
 40
1.0
 40
1.0
 40
1.0
 40
1.0
 10
360.2698696161218
 20
150.8144407216175
 30
0.0
 10
360.2759469428594
 20
150.7225040935701
 30
0.0
 10
360.2832582659305
 20
150.611899806727
 30
0.0
 10
360.2671782900961
 20
150.5205919655457
 30
0.0
 10
360.2644643310725
 20
150.5051811376909
 30
0.0
  0
LINE
  5
50A
330
1F
100
AcDbEntity
  8
0
  6
Continuous
 62
     7
370
    15
100
AcDbLine
 10
361.195992973
 20
151.7163586377
 30
0.0
 11
360.7172386843
 21
151.4512515963
 31
0.0
  0
LINE
  5
50B
330
1F
100
AcDbEntity
  8
0
  6
Continuous
 62
     7
370
    15
100
AcDbLine
 10
361.195992973
 20
151.7163586377
 30
0.0
 11
363.2188756953
 21
150.5485732991
 31
0.0
  0
SPLINE
  5
50C
330
1F
100
AcDbEntity
  8
0
  6
Continuous
 62
     7
370
    15
100
AcDbSpline
210
0.0
220
0.0
230
1.0
 70
     8
 71
     3
 72
     9
 73
     5
 74
     0
 42
0.000000001
 43
0.00000001
 40
0.0
 40
0.0
 40
0.0
 40
0.0
 40
0.0399772896082772
 40
0.9999999999999999
 40
0.9999999999999999
 40
0.9999999999999999
 40
0.9999999999999999
 10
361.1628121481102
 20
151.8011931278048
 30
0.0
 10
361.163387232267
 20
151.8001286367029
 30
0.0
 10
361.1777725035668
 20
151.7735012411902
 30
0.0
 10
361.1870685537485
 20
151.7443471894393
 30
0.0
 10
361.1959929730398
 20
151.7163586376584
 30
0.0
  0
SPLINE
  5
50D
330
1F
100
AcDbEntity
  8
0
  6
Continuous
 62
     7
370
    15
100
AcDbSpline
210
0.0
220
0.0
230
1.0
 70
     8
 71
     3
 72
    11
 73
     7
 74
     0
 42
0.000000001
 43
0.00000001
 40
0.0
 40
0.0
 40
0.0
 40
0.0
 40
0.2080100097467735
 40
0.6031464241905575
 40
0.9982668125592042
 40
1.0
 40
1.0
 40
1.0
 40
1.0
 10
360.8047044590251
 20
151.4996851942918
 30
0.0
 10
360.7687284685459
 20
151.5420240340321
 30
0.0
 10
360.6644123827929
 20
151.664789855854
 30
0.0
 10
360.5543656382085
 20
151.9040740717497
 30
0.0
 10
360.4863995999577
 20
152.1023377522399
 30
0.0
 10
360.4935645297585
 20
152.1871530741501
 30
0.0
 10
360.4935958213156
 20
152.1875234899903
 30
0.0
  0
ARC
  5
50E
330
1F
100
AcDbEntity
  8
0
  6
Continuous
 62
     7
370
    15
100
AcDbCircle
 10
368.42527571
 20
152.0416913902
 30
0.0
 40
8.635384649089733
100
AcDbArc
 50
128.0354866013
 51
173.2102292986
  0
ARC
  5
50F
330
1F
100
AcDbEntity
  8
0
  6
Continuous
 62
     7
370
    15
100
AcDbCircle
 10
363.2606158836
 20
152.4390552904
 30
0.0
 40
3.43615671841067
100
AcDbArc
 50
177.777410277
 51
209.5929717718
  0
LINE
  5
510
330
1F
100
AcDbEntity
  8
0
  6
Continuous
 62
     7
370
    15
100
AcDbLine
 10
359.6613327471
 20
149.6882049257
 30
0.0
 11
362.3129831766
 21
148.157439716
 31
0.0
  0
LINE
  5
511
330
1F
100
AcDbEntity
  8
0
  6
Continuous
 62
     7
370
    15
100
AcDbLine
 10
360.1314517153
 20
150.3770759771
 30
0.0
 11
362.7831021448
 21
148.8463107674
 31
0.0
  0
LINE
  5
512
330
1F
100
AcDbEntity
  8
0
  6
Continuous
 62
     7
370
    15
100
AcDbLine
 10
360.1314517153
 20
150.3770759771
 30
0.0
 11
359.6613327471
 21
149.6882049257
 31
0.0
  0
LINE
  5
513
330
1F
100
AcDbEntity
  8
0
  6
Continuous
 62
     7
370
    15
100
AcDbLine
 10
362.8411288578
 20
149.4818524302
 30
0.0
 11
363.2480696731
 21
149.246930498
 31
0.0
  0
LINE
  5
514
330
1F
100
AcDbEntity
  8
0
  6
Continuous
 62
     7
370
    15
100
AcDbLine
 10
360.1314517153
 20
150.3770759771
 30
0.0
 11
360.273846825
 21
150.4997647392
 31
0.0
  0
LINE
  5
515
330
1F
100
AcDbEntity
  8
0
  6
Continuous
 62
     7
370
    15
100
AcDbLine
 10
359.7247271455
 20
149.4274784903
 30
0.0
 11
362.3763775749
 21
147.8967132806
 31
0.0
  0
ARC
  5
516
330
1F
100
AcDbEntity
  8
0
  6
Continuous
 62
     7
370
    15
100
AcDbCircle
 10
364.3844665822
 20
150.6985423147
 30
0.0
 40
4.829987045936905
100
AcDbArc
 50
192.0743109641
 51
195.2577028321
  0
LINE
  5
517
330
1F
100
AcDbEntity
  8
0
  6
Continuous
 62
     7
370
    15
100
AcDbLine
 10
360.1401110956
 20
148.4390097704
 30
0.0
 11
362.7917615251
 21
146.9082445607
 31
0.0
  0
LINE
  5
518
330
1F
100
AcDbEntity
  8
0
  6
Continuous
 62
     7
370
    15
100
AcDbLine
 10
362.5981214247
 20
147.9800485108
 30
0.0
 11
363.152291704
 21
147.6601328181
 31
0.0
  0
LINE
  5
519
330
1F
100
AcDbEntity
  8
0
  6
Continuous
 62
     7
370
    15
100
AcDbLine
 10
360.4212715737
 20
149.025371951
 30
0.0
 11
360.1401110956
 21
148.4390097704
 31
0.0
  0
LINE
  5
51A
330
1F
100
AcDbEntity
  8
0
  6
Continuous
 62
     7
370
    15
100
AcDbLine
 10
363.242428963
 20
148.3590972644
 30
0.0
 11
363.5717857032
 21
148.1689636653
 31
0.0
  0
LINE
  5
51B
330
1F
100
AcDbEntity
  8
0
  6
Continuous
 62
     7
370
    15
100
AcDbLine
 10
360.2679849539
 20
148.2445845593
 30
0.0
 11
362.9196353834
 21
146.7138193496
 31
0.0
  0
ARC
  5
51C
330
1F
100
AcDbEntity
  8
0
  6
Continuous
 62
     7
370
    15
100
AcDbCircle
 10
362.8351198079
 20
150.0722584483
 30
0.0
 40
3.151281200304952
100
AcDbArc
 50
211.2170043578
 51
215.4489979936
  0
LINE
  5
51D
330
1F
100
AcDbEntity
  8
0
  6
Continuous
 62
     7
370
    15
100
AcDbLine
 10
363.8745504476
 20
147.5575179629
 30
0.0
 11
364.1679630732
 21
147.3881344595
 31
0.0
  0
LINE
  5
51E
330
1F
100
AcDbEntity
  8
0
  6
Continuous
 62
     7
370
    15
100
AcDbLine
 10
363.4071748119
 20
147.0455481691
 30
0.0
 11
363.8225304259
 21
146.805768477
 31
0.0
  0
LINE
  5
51F
330
1F
100
AcDbEntity
  8
0
  6
Continuous
 62
     7
370
    15
100
AcDbLine
 10
360.9445081427
 20
147.5728681654
 30
0.0
 11
363.5961585721
 21
146.0421029557
 31
0.0
  0
LINE
  5
520
330
1F
100
AcDbEntity
  8
0
  6
Continuous
 62
     7
370
    15
100
AcDbLine
 10
361.0156756839
 20
147.8129518884
 30
0.0
 11
360.9445081427
 21
147.5728681654
 31
0.0
  0
LINE
  5
521
330
1F
100
AcDbEntity
  8
0
  6
Continuous
 62
     7
370
    15
100
AcDbLine
 10
361.1281470688
 20
147.4579939354
 30
0.0
 11
363.7797974982
 21
145.9272287257
 31
0.0
  0
ARC
  5
522
330
1F
100
AcDbEntity
  8
0
  6
Continuous
 62
     7
370
    15
100
AcDbCircle
 10
362.3831295411
 20
149.6684401374
 30
0.0
 40
2.541860227828308
100
AcDbArc
 50
235.5301927274
 51
240.4142239017
  0
LINE
  5
523
330
1F
100
AcDbEntity
  8
0
  6
Continuous
 62
     7
370
    15
100
AcDbLine
 10
364.378620527
 20
146.5547618424
 30
0.0
 11
364.7481426491
 21
146.341441262
 31
0.0
  0
LINE
  5
524
330
1F
100
AcDbEntity
  8
0
  6
Continuous
 62
     7
370
    15
100
AcDbLine
 10
363.9100876636
 20
146.0575118695
 30
0.0
 11
364.6713559883
 21
145.6180410201
 31
0.0
  0
LINE
  5
525
330
1F
100
AcDbEntity
  8
0
  6
Continuous
 62
     7
370
    15
100
AcDbLine
 10
381.5430258584
 20
197.3378134611
 30
0.0
 11
388.0405893364
 21
201.0887770155
 31
0.0
  0
LINE
  5
526
330
1F
100
AcDbEntity
  8
0
  6
Continuous
 62
     7
370
    15
100
AcDbLine
 10
388.0405893364
 20
201.0887770155
 30
0.0
 11
394.66971541
 21
197.2618639914
 31
0.0
  0
LINE
  5
527
330
1F
100
AcDbEntity
  8
0
  6
Continuous
 62
     7
370
    15
100
AcDbLine
 10
394.66971541
 20
197.2618639914
 30
0.0
 11
394.4045503671
 21
197.1087874704
 31
0.0
  0
LINE
  5
528
330
1F
100
AcDbEntity
  8
0
  6
Continuous
 62
     7
370
    15
100
AcDbLine
 10
394.4045503671
 20
197.1087874704
 30
0.0
 11
401.2988414837
 21
193.1287979252
 31
0.0
  0
LINE
  5
529
330
1F
100
AcDbEntity
  8
0
  6
Continuous
 62
     7
370
    15
100
AcDbLine
 10
401.2988414837
 20
193.1287979252
 30
0.0
 11
401.5640065266
 21
193.2818744462
 31
0.0
  0
LINE
  5
52A
330
1F
100
AcDbEntity
  8
0
  6
Continuous
 62
     7
370
    15
100
AcDbLine
 10
401.5640065266
 20
193.2818744462
 30
0.0
 11
408.1931326002
 21
189.454961422
 31
0.0
  0
LINE
  5
52B
330
1F
100
AcDbEntity
  8
0
  6
Continuous
 62
     7
370
    15
100
AcDbLine
 10
408.1931326002
 20
189.454961422
 30
0.0
 11
401.6955691222
 21
185.7039978677
 31
0.0
  0
LWPOLYLINE
  5
52C
330
1F
100
AcDbEntity
  8
0
  6
Continuous
 62
     7
370
    15
100
AcDbPolyline
 90
       20
 70
   128
 43
0.0
 10
401.6955691222
 20
185.7039978677
 10
401.4736427896
 20
184.686810575
 10
401.0860079064
 20
183.6863069771
 10
400.536142019
 20
182.7114627822
 10
399.8289780787
 20
181.7710235027
 10
398.9708601876
 20
180.8734259982
 10
397.9694866846
 20
180.0267227866
 10
396.8338410817
 20
179.2385098034
 10
395.5741114714
 20
178.515858257
 10
394.2015991276
 20
177.865251192
 10
392.7286171195
 20
177.2925253279
 10
391.1683798487
 20
176.8028186974
 10
389.5348845003
 20
176.4005245517
 10
387.8427854718
 20
176.0892519481
 10
386.1072629051
 20
175.8717933724
 10
384.3438865031
 20
175.7500996867
 10
382.5684758509
 20
175.7252626282
 10
380.7969584948
 20
175.7975050149
 10
379.0452270539
 20
175.9661787467
 10
377.3289966439
 20
176.2297706193
  0
LINE
  5
52D
330
1F
100
AcDbEntity
  8
0
  6
Continuous
 62
     7
370
    15
100
AcDbLine
 10
377.3289966439
 20
176.2297706193
 30
0.0
 11
368.6835412014
 21
171.238855427
 31
0.0
  0
LINE
  5
52E
330
1F
100
AcDbEntity
  8
0
  6
Continuous
 62
     7
370
    15
100
AcDbLine
 10
368.6835412014
 20
171.238855427
 30
0.0
 11
365.2363956431
 21
173.2288501996
 31
0.0
  0
LINE
  5
52F
330
1F
100
AcDbEntity
  8
0
  6
Continuous
 62
     7
370
    15
100
AcDbLine
 10
365.2363956431
 20
173.2288501996
 30
0.0
 11
375.3843059967
 21
179.08711415
 31
0.0
  0
ARC
  5
530
330
1F
100
AcDbEntity
  8
0
  6
Continuous
 62
     7
370
    15
100
AcDbCircle
 10
382.9066992467
 20
201.9901554996
 30
0.0
 40
24.10675638217982
100
AcDbArc
 50
251.817483876
 51
271.9266827621
  0
LINE
  5
531
330
1F
100
AcDbEntity
  8
0
  6
Continuous
 62
     7
370
    15
100
AcDbLine
 10
383.7171833615
 20
177.8970274593
 30
0.0
 11
383.5282415896
 21
178.3040962854
 31
0.0
  0
ARC
  5
532
330
1F
100
AcDbEntity
  8
0
  6
Continuous
 62
     7
370
    15
100
AcDbCircle
 10
383.1410405691
 20
201.187933633
 30
0.0
 40
22.88711288875696
100
AcDbArc
 50
270.9693683435
 51
286.6167095222
  0
LINE
  5
533
330
1F
100
AcDbEntity
  8
0
  6
Continuous
 62
     7
370
    15
100
AcDbLine
 10
389.6860187322
 20
179.2566045072
 30
0.0
 11
389.8749605041
 21
178.849535681
 31
0.0
  0
LWPOLYLINE
  5
534
330
1F
100
AcDbEntity
  8
0
  6
Continuous
 62
     7
370
    15
100
AcDbPolyline
 90
       16
 70
   128
 43
0.0
 10
389.8749605041
 20
178.849535681
 10
391.3105312873
 20
179.3367445818
 10
392.6437046296
 20
179.9128141426
 10
393.8580491082
 20
180.5706442797
 10
394.9385978716
 20
181.3021272064
 10
395.8720331064
 20
182.0982473618
 10
396.6468501804
 20
182.9491925285
 10
397.2534994376
 20
183.8444747681
 10
397.6845038979
 20
184.7730596857
 10
397.9345514115
 20
185.7235024296
 10
398.0005601313
 20
186.6840887492
 10
397.8817164968
 20
187.6429793738
 10
397.5794852613
 20
188.5883559324
 10
397.0975914386
 20
189.5085666154
 10
396.4419743923
 20
190.3922697837
 10
395.6207146326
 20
191.2285737552
  0
LINE
  5
535
330
1F
100
AcDbEntity
  8
0
  6
Continuous
 62
     7
370
    15
100
AcDbLine
 10
395.6207146326
 20
191.2285737552
 30
0.0
 11
395.1045161121
 21
190.9305786923
 31
0.0
  0
ARC
  5
536
330
1F
100
AcDbEntity
  8
0
  6
Continuous
 62
     7
370
    15
100
AcDbCircle
 10
386.2855290996
 20
180.8594376097
 30
0.0
 40
13.3866506128915
100
AcDbArc
 50
48.7923693783
 51
71.2130071544
  0
LINE
  5
537
330
1F
100
AcDbEntity
  8
0
  6
Continuous
 62
     7
370
    15
100
AcDbLine
 10
390.596710382
 20
193.5328795487
 30
0.0
 11
391.1129089026
 21
193.8308746116
 31
0.0
  0
LWPOLYLINE
  5
538
330
1F
100
AcDbEntity
  8
0
  6
Continuous
 62
     7
370
    15
100
AcDbPolyline
 90
       16
 70
   128
 43
0.0
 10
391.1129089026
 20
193.8308746116
 10
389.6642309661
 20
194.3049777793
 10
388.1334463161
 20
194.683457444
 10
386.5394219436
 20
194.9616488263
 10
384.9018042726
 20
195.1361232048
 10
383.240777016
 20
195.2047301747
 10
381.5768124115
 20
195.1666241518
 10
379.9304188992
 20
195.0222747948
 10
378.321888355
 20
194.773461216
 10
376.771045992
 20
194.4232500543
 10
375.2970060135
 20
193.9759576783
 10
373.9179360303
 20
193.4370969872
 10
372.6508331432
 20
192.8133094639
 10
371.5113144538
 20
192.1122833181
 10
370.5134245822
 20
191.3426587295
 10
369.6694625672
 20
190.5139213566
  0
LINE
  5
539
330
1F
100
AcDbEntity
  8
0
  6
Continuous
 62
     7
370
    15
100
AcDbLine
 10
369.6694625672
 20
190.5139213566
 30
0.0
 11
370.3746028597
 21
190.4048475933
 31
0.0
  0
ARC
  5
53A
330
1F
100
AcDbEntity
  8
0
  6
Continuous
 62
     7
370
    15
100
AcDbCircle
 10
374.5501381401
 20
186.3064417025
 30
0.0
 40
5.850814107814998
100
AcDbArc
 50
135.5340937776
 51
174.6689833334
  0
LINE
  5
53B
330
1F
100
AcDbEntity
  8
0
  6
Continuous
 62
     7
370
    15
100
AcDbLine
 10
368.7246314472
 20
186.8500385152
 30
0.0
 11
368.0194911547
 21
186.9591122784
 31
0.0
  0
ARC
  5
53C
330
1F
100
AcDbEntity
  8
0
  6
Continuous
 62
     7
370
    15
100
AcDbCircle
 10
374.0870253142
 20
186.7123767632
 30
0.0
 40
6.072548821616366
100
AcDbArc
 50
177.6713573234
 51
228.7235086165
  0
LINE
  5
53D
330
1F
100
AcDbEntity
  8
0
  6
Continuous
 62
     7
370
    15
100
AcDbLine
 10
370.0810051378
 20
182.1486445693
 30
0.0
 11
359.9330947842
 21
176.2903806189
 31
0.0
  0
LINE
  5
53E
330
1F
100
AcDbEntity
  8
0
  6
Continuous
 62
     7
370
    15
100
AcDbLine
 10
359.9330947842
 20
176.2903806189
 30
0.0
 11
356.485949226
 21
178.2803753915
 31
0.0
  0
LINE
  5
53F
330
1F
100
AcDbEntity
  8
0
  6
Continuous
 62
     7
370
    15
100
AcDbLine
 10
356.485949226
 20
178.2803753915
 30
0.0
 11
365.1314046685
 21
183.2712905838
 31
0.0
  0
LWPOLYLINE
  5
540
330
1F
100
AcDbEntity
  8
0
  6
Continuous
 62
     7
370
    15
100
AcDbPolyline
 90
       20
 70
   128
 43
0.0
 10
365.1314046685
 20
183.2712905838
 10
364.6748006786
 20
184.2620493106
 10
364.3826175466
 20
185.2733023463
 10
364.2574765031
 20
186.2959775477
 10
364.300500212
 20
187.3209003012
 10
364.5113026995
 20
188.3388758298
 10
364.8879928163
 20
189.3407716816
 10
365.427191204
 20
190.3175996584
 10
366.1240606111
 20
191.2605964508
 10
366.9723492898
 20
192.1613022551
 10
367.9644470811
 20
193.0116366685
 10
369.091453687
 20
193.8039711793
 10
370.3432585171
 20
194.5311976038
 10
371.7086313923
 20
195.1867918557
 10
373.1753232928
 20
195.7648724742
 10
374.7301762469
 20
196.2602533882
 10
376.359241373
 20
196.6684904414
 10
378.0479040183
 20
196.9859212615
 10
379.781014869
 20
197.2096981163
 10
381.5430258584
 20
197.3378134611
  0
LINE
  5
541
330
1F
100
AcDbEntity
  8
0
  6
Continuous
 62
     7
370
    15
100
AcDbLine
 10
377.3289966439
 20
153.7352294913
 30
0.0
 11
377.3289966439
 21
176.2297706193
 31
0.0
  0
LINE
  5
542
330
1F
100
AcDbEntity
  8
0
  6
Continuous
 62
     7
370
    15
100
AcDbLine
 10
377.2325245939
 20
129.6312522128
 30
0.0
 11
368.6835412014
 21
124.6960291495
 31
0.0
  0
LINE
  5
543
330
1F
100
AcDbEntity
  8
0
  6
Continuous
 62
     7
370
    15
100
AcDbLine
 10
368.6835412014
 20
124.6960291495
 30
0.0
 11
368.6835412014
 21
171.238855427
 31
0.0
  0
ARC
  5
544
330
1F
100
AcDbEntity
  8
0
  6
Continuous
 62
     7
370
    15
100
AcDbCircle
 10
370.5589748477
 20
133.3421506318
 30
0.0
 40
4.432351174609261
100
AcDbArc
 50
302.2811879617
 51
331.5887975254
  0
LWPOLYLINE
  5
545
330
1F
100
AcDbEntity
  8
0
  6
Continuous
 62
     7
370
    15
100
AcDbPolyline
 90
       13
 70
   128
 43
0.0
 10
372.1766413687
 20
133.903410269
 10
371.9403551696
 20
133.6444256514
 10
371.5194863034
 20
133.0659990024
 10
371.1803694714
 20
132.4282064488
 10
370.9427129114
 20
131.7681141756
 10
370.8203283587
 20
131.1240843463
 10
370.8203283587
 20
130.5335456338
 10
370.9427129114
 20
130.0308180014
 10
371.1803694714
 20
129.6451181518
 10
371.5194863034
 20
129.3988615583
 10
371.9403551696
 20
129.306359759
 10
372.4185167014
 20
129.3729886222
 10
372.9261818886
 20
129.5948759206
  0
LWPOLYLINE
  5
546
330
1F
100
AcDbEntity
  8
0
  6
Continuous
 62
     7
370
    15
100
AcDbPolyline
 90
        8
 70
   128
 43
0.0
 10
370.8363751704
 20
137.3828044252
 10
370.8203283587
 20
137.2481404355
 10
370.8203283587
 20
136.6576017229
 10
370.9427129114
 20
136.1548740905
 10
371.1803694714
 20
135.7691742409
 10
371.5194863034
 20
135.5229176474
 10
371.9403551696
 20
135.4304158481
 10
372.2626100763
 20
135.458793299
  0
LWPOLYLINE
  5
547
330
1F
100
AcDbEntity
  8
0
  6
Continuous
 62
     7
370
    15
100
AcDbPolyline
 90
       27
 70
   128
 43
0.0
 10
372.9261818886
 20
160.2151563664
 10
373.4338470757
 20
160.5794068167
 10
373.9120086075
 20
161.0648515069
 10
374.3328774738
 20
161.6432781559
 10
374.6719943057
 20
162.2810707095
 10
374.9096508657
 20
162.9411629827
 10
375.0320354184
 20
163.585192812
 10
375.0320354184
 20
164.1757315245
 10
374.9096508657
 20
164.6784591569
 10
374.6719943057
 20
165.0641590065
 10
374.3328774738
 20
165.3104156
 10
373.9120086075
 20
165.4029173994
 10
373.4338470757
 20
165.3362885361
 10
372.9261818886
 20
165.1144012377
 10
372.4185167014
 20
164.7501507873
 10
371.9403551696
 20
164.2647060971
 10
371.5194863034
 20
163.6862794481
 10
371.1803694714
 20
163.0484868945
 10
370.9427129114
 20
162.3883946213
 10
370.8203283587
 20
161.744364792
 10
370.8203283587
 20
161.1538260795
 10
370.9427129114
 20
160.6510984471
 10
371.1803694714
 20
160.2653985975
 10
371.5194863034
 20
160.019142004
 10
371.9403551696
 20
159.9266402047
 10
372.4185167014
 20
159.9932690679
 10
372.9261818886
 20
160.2151563664
  0
LWPOLYLINE
  5
548
330
1F
100
AcDbEntity
  8
0
  6
Continuous
 62
     7
370
    15
100
AcDbPolyline
 90
       27
 70
   128
 43
0.0
 10
372.9261818886
 20
166.3392124555
 10
373.4338470757
 20
166.7034629059
 10
373.9120086075
 20
167.188907596
 10
374.3328774738
 20
167.7673342451
 10
374.6719943057
 20
168.4051267987
 10
374.9096508657
 20
169.0652190719
 10
375.0320354184
 20
169.7092489011
 10
375.0320354184
 20
170.2997876137
 10
374.9096508657
 20
170.8025152461
 10
374.6719943057
 20
171.1882150957
 10
374.3328774738
 20
171.4344716892
 10
373.9120086075
 20
171.5269734885
 10
373.4338470757
 20
171.4603446253
 10
372.9261818886
 20
171.2384573268
 10
372.4185167014
 20
170.8742068764
 10
371.9403551696
 20
170.3887621863
 10
371.5194863034
 20
169.8103355372
 10
371.1803694714
 20
169.1725429836
 10
370.9427129114
 20
168.5124507104
 10
370.8203283587
 20
167.8684208812
 10
370.8203283587
 20
167.2778821686
 10
370.9427129114
 20
166.7751545362
 10
371.1803694714
 20
166.3894546866
 10
371.5194863034
 20
166.1431980931
 10
371.9403551696
 20
166.0506962938
 10
372.4185167014
 20
166.1173251571
 10
372.9261818886
 20
166.3392124555
  0
LINE
  5
549
330
1F
100
AcDbEntity
  8
0
  6
Continuous
 62
     7
370
    15
100
AcDbLine
 10
368.6835412014
 20
124.6960291495
 30
0.0
 11
365.2363956431
 21
126.6860239221
 31
0.0
  0
LINE
  5
54A
330
1F
100
AcDbEntity
  8
0
  6
Continuous
 62
     7
370
    15
100
AcDbLine
 10
365.2363956431
 20
126.6860239221
 30
0.0
 11
365.2363956431
 21
173.2288501996
 31
0.0
  0
LINE
  5
54B
330
1F
100
AcDbEntity
  8
0
  6
Continuous
 62
     7
370
    15
100
AcDbLine
 10
401.6955691222
 20
139.1611715902
 30
0.0
 11
401.6955691222
 21
185.7039978677
 31
0.0
  0
LWPOLYLINE
  5
54C
330
1F
100
AcDbEntity
  8
0
  6
Continuous
 62
     7
370
    15
100
AcDbPolyline
 90
       18
 70
   128
 43
0.0
 10
401.6955691222
 20
139.1611715902
 10
401.4736427896
 20
138.1439842975
 10
401.0860079064
 20
137.1434806996
 10
400.536142019
 20
136.1686365047
 10
399.8289780787
 20
135.2281972252
 10
398.9708601876
 20
134.3305997207
 10
397.9694866846
 20
133.4838965091
 10
396.8338410817
 20
132.6956835259
 10
395.5741114714
 20
131.9730319795
 10
394.2015991276
 20
131.3224249145
 10
392.7286171195
 20
130.7496990504
 10
391.1683798487
 20
130.2599924199
 10
389.5348845003
 20
129.8576982742
 10
387.8427854718
 20
129.5464256706
 10
386.1072629051
 20
129.3289670949
 10
384.3438865031
 20
129.2072734092
 10
382.5684758509
 20
129.1824363507
 10
380.9549166022
 20
129.2442695507
  0
LINE
  5
54D
330
1F
100
AcDbEntity
  8
0
  6
Continuous
 62
     7
370
    15
100
AcDbLine
 10
359.9330947842
 20
129.7475543414
 30
0.0
 11
359.9330947842
 21
149.3071904129
 31
0.0
  0
LINE
  5
54E
330
1F
100
AcDbEntity
  8
0
  6
Continuous
 62
     7
370
    15
100
AcDbLine
 10
359.9330947842
 20
150.0864211494
 30
0.0
 11
359.9330947842
 21
151.5852966658
 31
0.0
  0
LINE
  5
54F
330
1F
100
AcDbEntity
  8
0
  6
Continuous
 62
     7
370
    15
100
AcDbLine
 10
359.9330947842
 20
153.6566403855
 30
0.0
 11
359.9330947842
 21
176.2903806189
 31
0.0
  0
LINE
  5
550
330
1F
100
AcDbEntity
  8
0
  6
Continuous
 62
     7
370
    15
100
AcDbLine
 10
359.9330947842
 20
129.7475543414
 30
0.0
 11
356.485949226
 21
131.737549114
 31
0.0
  0
LINE
  5
551
330
1F
100
AcDbEntity
  8
0
  6
Continuous
 62
     7
370
    15
100
AcDbLine
 10
356.485949226
 20
131.737549114
 30
0.0
 11
356.485949226
 21
178.2803753915
 31
0.0
  0
LINE
  5
552
330
1F
100
AcDbEntity
  8
0
  6
Continuous
 62
     7
370
    15
100
AcDbLine
 10
370.0810051378
 20
180.6178295972
 30
0.0
 11
370.0810051378
 21
182.1486445693
 31
0.0
  0
LINE
  5
553
330
1F
100
AcDbEntity
  8
0
  6
Continuous
 62
     7
370
    15
100
AcDbLine
 10
360.993754956
 20
130.3598604253
 30
0.0
 11
359.9330947842
 21
129.7475543414
 31
0.0
  0
LINE
  5
554
330
1F
100
AcDbEntity
  8
0
  6
Continuous
 62
     7
370
    15
100
AcDbLine
 10
383.5282415896
 20
177.8925132433
 30
0.0
 11
383.5282415896
 21
178.3040962854
 31
0.0
  0
LINE
  5
555
330
1F
100
AcDbEntity
  8
0
  6
Continuous
 62
     7
370
    15
100
AcDbLine
 10
395.6207146326
 20
181.8644412922
 30
0.0
 11
395.6207146326
 21
191.2285737552
 31
0.0
  0
LINE
  5
556
330
1F
100
AcDbEntity
  8
0
  6
Continuous
 62
     7
370
    15
100
AcDbLine
 10
368.0194911547
 20
186.133902769
 30
0.0
 11
368.0194911547
 21
186.9591122784
 31
0.0
  0
LINE
  5
557
330
1F
100
AcDbEntity
  8
0
  6
Continuous
 62
     7
370
    15
100
AcDbLine
 10
408.1931326002
 20
142.9121351446
 30
0.0
 11
408.1931326002
 21
189.454961422
 31
0.0
  0
LINE
  5
558
330
1F
100
AcDbEntity
  8
0
  6
Continuous
 62
     7
370
    15
100
AcDbLine
 10
408.1931326002
 20
142.9121351446
 30
0.0
 11
401.6955691222
 21
139.1611715902
 31
0.0
  0
LINE
  5
559
330
1F
100
AcDbEntity
  8
0
  6
Continuous
 62
     7
370
    15
100
AcDbLine
 10
368.7246314472
 20
183.8920009692
 30
0.0
 11
368.7246314472
 21
186.8500385152
 31
0.0
  0
LINE
  5
55A
330
1F
100
AcDbEntity
  8
0
  6
Continuous
 62
     7
370
    15
100
AcDbLine
 10
370.3746028597
 20
180.7873199543
 30
0.0
 11
370.3746028597
 21
190.4048475933
 31
0.0
  0
LINE
  5
55B
330
1F
100
AcDbEntity
  8
0
  6
Continuous
 62
     7
370
    15
100
AcDbLine
 10
395.1045161121
 20
181.4304197609
 30
0.0
 11
395.1045161121
 21
190.9305786923
 31
0.0
  0
LINE
  5
55C
330
1F
100
AcDbEntity
  8
0
  6
Continuous
 62
     7
370
    15
100
AcDbLine
 10
390.596710382
 20
179.0790000374
 30
0.0
 11
390.596710382
 21
193.5328795487
 31
0.0
  0
LINE
  5
55D
330
1F
100
AcDbEntity
  8
0
  6
Continuous
 62
     7
370
    15
100
AcDbLine
 10
394.66971541
 20
196.9557109494
 30
0.0
 11
394.66971541
 21
197.2618639914
 31
0.0
  0
ARC
  5
55E
330
1F
100
AcDbEntity
  8
0
  6
Continuous
 62
     8
370
    15
100
AcDbCircle
 10
372.0128298027
 20
161.5502825258
 30
0.0
 40
1.204604915650435
100
AcDbArc
 50
177.5910935291
 51
237.1146099815
  0
ARC
  5
55F
330
1F
100
AcDbEntity
  8
0
  6
Continuous
 62
     8
370
    15
100
AcDbCircle
 10
373.4352176024
 20
164.010531854
 30
0.0
 40
1.207091811108715
100
AcDbArc
 50
63.3693030565
 51
122.3762324544
  0
ARC
  5
560
330
1F
100
AcDbEntity
  8
0
  6
Continuous
 62
     8
370
    15
100
AcDbCircle
 10
372.0128298026
 20
137.0540581691
 30
0.0
 40
1.204604915563763
100
AcDbArc
 50
177.5910935388
 51
237.1146099823
  0
ARC
  5
561
330
1F
100
AcDbEntity
  8
0
  6
Continuous
 62
     8
370
    15
100
AcDbCircle
 10
372.2874099026
 20
137.0516445859
 30
0.0
 40
0.946815419482005
100
AcDbArc
 50
177.6028230147
 51
260.1916116674
  0
ARC
  5
562
330
1F
100
AcDbEntity
  8
0
  6
Continuous
 62
     8
370
    15
100
AcDbCircle
 10
372.0128298027
 20
167.6743386149
 30
0.0
 40
1.204604915687193
100
AcDbArc
 50
177.5910935245
 51
237.1146099812
  0
ARC
  5
563
330
1F
100
AcDbEntity
  8
0
  6
Continuous
 62
     8
370
    15
100
AcDbCircle
 10
373.4352176023
 20
170.1345879431
 30
0.0
 40
1.207091811140815
100
AcDbArc
 50
63.3693030568
 51
122.3762324581
  0
ARC
  5
564
330
1F
100
AcDbEntity
  8
0
  6
Continuous
 62
     8
370
    15
100
AcDbCircle
 10
372.0128298025
 20
130.9300020799
 30
0.0
 40
1.2046049153811
100
AcDbArc
 50
177.5910935596
 51
237.1146099839
  0
ARC
  5
565
330
1F
100
AcDbEntity
  8
0
  6
Continuous
 62
     8
370
    15
100
AcDbCircle
 10
371.1737676642
 20
132.9970151067
 30
0.0
 40
3.294475534208387
100
AcDbArc
 50
302.1356185141
 51
331.9894907933
  0
LWPOLYLINE
  5
566
330
1F
100
AcDbEntity
  8
0
  6
Continuous
 62
     8
370
    15
100
AcDbPolyline
 90
       11
 70
   128
 43
0.0
 10
372.1949546638
 20
133.254045104
 10
372.0660276151
 20
133.0935070098
 10
371.7237916785
 20
132.5534944225
 10
371.4789662459
 20
131.972246001
 10
371.3513856177
 20
131.3968510357
 10
371.3513856177
 20
130.8739246045
 10
371.4789662459
 20
130.4458310971
 10
371.7237916785
 20
130.1472521033
 10
372.0660276151
 20
130.0023767176
 10
372.4779481353
 20
130.0229418822
 10
372.9261818886
 20
130.2072815296
  0
LINE
  5
567
330
1F
100
AcDbEntity
  8
0
  6
Continuous
 62
     8
370
    15
100
AcDbLine
 10
351.3128426647
 20
177.7219152689
 30
0.0
 11
356.485949226
 21
174.7355444178
 31
0.0
  0
LINE
  5
568
330
1F
100
AcDbEntity
  8
0
  6
Continuous
 62
     8
370
    15
100
AcDbLine
 10
348.8443870122
 20
150.1369975696
 30
0.0
 11
349.9073178923
 21
149.5233806337
 31
0.0
  0
LINE
  5
569
330
1F
100
AcDbEntity
  8
0
  6
Continuous
 62
     8
370
    15
100
AcDbLine
 10
395.9310460451
 20
149.3571673066
 30
0.0
 11
395.3283028397
 21
149.7051235526
 31
0.0
  0
LINE
  5
56A
330
1F
100
AcDbEntity
  8
0
  6
Continuous
 62
     8
370
    15
100
AcDbLine
 10
384.4980234573
 20
129.5545913587
 30
0.0
 11
383.8847882137
 21
129.9086045294
 31
0.0
  0
ENDSEC
  0
SECTION
  2
OBJECTS
  0
DICTIONARY
  5
C
330
0
100
AcDbDictionary
281
     1
  3
ACAD_GROUP
350
D
  3
ACAD_LAYOUT
350
1A
  3
ACAD_MLINESTYLE
350
17
  3
ACAD_PLOTSETTINGS
350
19
  3
ACAD_PLOTSTYLENAME
350
E
  3
ACAD_SCALELIST
350
47
  0
DICTIONARY
  5
D
102
{ACAD_REACTORS
330
C
102
}
330
C
100
AcDbDictionary
281
     1
  0
DICTIONARY
  5
1A
102
{ACAD_REACTORS
330
C
102
}
330
C
100
AcDbDictionary
281
     1
  3
Layout1
350
1E
  3
Layout2
350
26
  3
Model
350
22
  0
DICTIONARY
  5
17
102
{ACAD_REACTORS
330
C
102
}
330
C
100
AcDbDictionary
281
     1
  3
Standard
350
18
  0
DICTIONARY
  5
19
102
{ACAD_REACTORS
330
C
102
}
330
C
100
AcDbDictionary
281
     1
  0
ACDBDICTIONARYWDFLT
  5
E
102
{ACAD_REACTORS
330
C
102
}
330
C
100
AcDbDictionary
281
     1
  3
Normal
350
F
100
AcDbDictionaryWithDefault
340
F
  0
DICTIONARY
  5
47
102
{ACAD_REACTORS
330
C
102
}
330
C
100
AcDbDictionary
281
     1
  3
A0
350
48
  3
A1
350
49
  3
A2
350
4A
  3
A3
350
4B
  3
A4
350
4C
  3
A5
350
4D
  3
A6
350
4E
  3
A7
350
4F
  3
A8
350
50
  3
A9
350
51
  3
B0
350
52
  3
B1
350
53
  3
B2
350
54
  3
B3
350
55
  3
B4
350
56
  3
B5
350
57
  3
B6
350
58
  3
B7
350
59
  3
B8
350
5A
  3
B9
350
5B
  3
C0
350
5C
  3
C1
350
5D
  3
C2
350
5E
  3
C3
350
5F
  3
C4
350
60
  3
C5
350
61
  3
C6
350
62
  3
C7
350
63
  3
C8
350
64
  3
C9
350
65
  3
D0
350
66
  3
D1
350
67
  3
D2
350
68
  0
LAYOUT
  5
1E
102
{ACAD_REACTORS
330
1A
102
}
330
1A
100
AcDbPlotSettings
  1

  2
none_device
  4

  6

 40
0.0
 41
0.0
 42
0.0
 43
0.0
 44
0.0
 45
0.0
 46
0.0
 47
0.0
 48
0.0
 49
0.0
140
0.0
141
0.0
142
1.0
143
1.0
 70
   688
 72
     1
 73
     0
 74
     5
  7

 75
    16
147
1.0
148
0.0
149
0.0
100
AcDbLayout
  1
Layout1
 70
     1
 71
     1
 10
0.0
 20
0.0
 11
420.0
 21
297.0
 12
0.0
 22
0.0
 32
0.0
 14
1.0000000000E+20
 24
1.0000000000E+20
 34
1.0000000000E+20
 15
-1.0000000000E+20
 25
-1.0000000000E+20
 35
-1.0000000000E+20
146
0.0
 13
0.0
 23
0.0
 33
0.0
 16
1.0
 26
0.0
 36
0.0
 17
0.0
 27
1.0
 37
0.0
 76
     0
330
1B
  0
LAYOUT
  5
26
102
{ACAD_REACTORS
330
1A
102
}
330
1A
100
AcDbPlotSettings
  1

  2
none_device
  4

  6

 40
0.0
 41
0.0
 42
0.0
 43
0.0
 44
0.0
 45
0.0
 46
0.0
 47
0.0
 48
0.0
 49
0.0
140
0.0
141
0.0
142
1.0
143
1.0
 70
   688
 72
     1
 73
     0
 74
     5
  7

 75
    16
147
1.0
148
0.0
149
0.0
100
AcDbLayout
  1
Layout2
 70
     1
 71
     2
 10
0.0
 20
0.0
 11
0.0
 21
0.0
 12
0.0
 22
0.0
 32
0.0
 14
0.0
 24
0.0
 34
0.0
 15
0.0
 25
0.0
 35
0.0
146
0.0
 13
0.0
 23
0.0
 33
0.0
 16
1.0
 26
0.0
 36
0.0
 17
0.0
 27
1.0
 37
0.0
 76
     0
330
23
  0
LAYOUT
  5
22
102
{ACAD_REACTORS
330
1A
102
}
330
1A
100
AcDbPlotSettings
  1

  2
none_device
  4
Letter_(8.50_x_11.00_Inches)
  6

 40
6.35
 41
6.35
 42
6.35000508
 43
6.35000508
 44
215.9
 45
279.4
 46
0.0
 47
0.0
 48
0.0
 49
0.0
140
0.0
141
0.0
142
1.0
143
1.0
 70
  1712
 72
     1
 73
     0
 74
     0
  7

 75
     0
147
1.0
148
0.0
149
0.0
100
AcDbLayout
  1
Model
 70
     1
 71
     0
 10
0.0
 20
0.0
 11
445.5
 21
315.0
 12
0.0
 22
0.0
 32
0.0
 14
0.0
 24
0.0
 34
0.0
 15
445.5
 25
315.0
 35
0.0
146
0.0
 13
0.0
 23
0.0
 33
0.0
 16
1.0
 26
0.0
 36
0.0
 17
0.0
 27
1.0
 37
0.0
 76
     0
330
1F
331
29
  0
MLINESTYLE
  5
18
102
{ACAD_REACTORS
330
17
102
}
330
17
100
AcDbMlineStyle
  2
Standard
 70
     0
  3

 62
   256
 51
90.0
 52
90.0
 71
     2
 49
0.5
 62
   256
  6
BYLAYER
 49
-0.5
 62
   256
  6
BYLAYER
  0
ACDBPLACEHOLDER
  5
F
102
{ACAD_REACTORS
330
E
102
}
330
E
  0
SCALE
  5
48
102
{ACAD_REACTORS
330
47
102
}
330
47
100
AcDbScale
 70
     0
300
1:1
140
1.0
141
1.0
290
     1
  0
SCALE
  5
49
102
{ACAD_REACTORS
330
47
102
}
330
47
100
AcDbScale
 70
     0
300
1:2
140
1.0
141
2.0
290
     0
  0
SCALE
  5
4A
102
{ACAD_REACTORS
330
47
102
}
330
47
100
AcDbScale
 70
     0
300
1:4
140
1.0
141
4.0
290
     0
  0
SCALE
  5
4B
102
{ACAD_REACTORS
330
47
102
}
330
47
100
AcDbScale
 70
     0
300
1:5
140
1.0
141
5.0
290
     0
  0
SCALE
  5
4C
102
{ACAD_REACTORS
330
47
102
}
330
47
100
AcDbScale
 70
     0
300
1:8
140
1.0
141
8.0
290
     0
  0
SCALE
  5
4D
102
{ACAD_REACTORS
330
47
102
}
330
47
100
AcDbScale
 70
     0
300
1:10
140
1.0
141
10.0
290
     0
  0
SCALE
  5
4E
102
{ACAD_REACTORS
330
47
102
}
330
47
100
AcDbScale
 70
     0
300
1:16
140
1.0
141
16.0
290
     0
  0
SCALE
  5
4F
102
{ACAD_REACTORS
330
47
102
}
330
47
100
AcDbScale
 70
     0
300
1:20
140
1.0
141
20.0
290
     0
  0
SCALE
  5
50
102
{ACAD_REACTORS
330
47
102
}
330
47
100
AcDbScale
 70
     0
300
1:30
140
1.0
141
30.0
290
     0
  0
SCALE
  5
51
102
{ACAD_REACTORS
330
47
102
}
330
47
100
AcDbScale
 70
     0
300
1:40
140
1.0
141
40.0
290
     0
  0
SCALE
  5
52
102
{ACAD_REACTORS
330
47
102
}
330
47
100
AcDbScale
 70
     0
300
1:50
140
1.0
141
50.0
290
     0
  0
SCALE
  5
53
102
{ACAD_REACTORS
330
47
102
}
330
47
100
AcDbScale
 70
     0
300
1:100
140
1.0
141
100.0
290
     0
  0
SCALE
  5
54
102
{ACAD_REACTORS
330
47
102
}
330
47
100
AcDbScale
 70
     0
300
2:1
140
2.0
141
1.0
290
     0
  0
SCALE
  5
55
102
{ACAD_REACTORS
330
47
102
}
330
47
100
AcDbScale
 70
     0
300
4:1
140
4.0
141
1.0
290
     0
  0
SCALE
  5
56
102
{ACAD_REACTORS
330
47
102
}
330
47
100
AcDbScale
 70
     0
300
8:1
140
8.0
141
1.0
290
     0
  0
SCALE
  5
57
102
{ACAD_REACTORS
330
47
102
}
330
47
100
AcDbScale
 70
     0
300
10:1
140
10.0
141
1.0
290
     0
  0
SCALE
  5
58
102
{ACAD_REACTORS
330
47
102
}
330
47
100
AcDbScale
 70
     0
300
100:1
140
100.0
141
1.0
290
     0
  0
SCALE
  5
59
102
{ACAD_REACTORS
330
47
102
}
330
47
100
AcDbScale
 70
     0
300
1/128" = 1'-0"
140
0.0078125
141
12.0
290
     0
  0
SCALE
  5
5A
102
{ACAD_REACTORS
330
47
102
}
330
47
100
AcDbScale
 70
     0
300
1/64" = 1'-0"
140
0.015625
141
12.0
290
     0
  0
SCALE
  5
5B
102
{ACAD_REACTORS
330
47
102
}
330
47
100
AcDbScale
 70
     0
300
1/32" = 1'-0"
140
0.03125
141
12.0
290
     0
  0
SCALE
  5
5C
102
{ACAD_REACTORS
330
47
102
}
330
47
100
AcDbScale
 70
     0
300
1/16" = 1'-0"
140
0.0625
141
12.0
290
     0
  0
SCALE
  5
5D
102
{ACAD_REACTORS
330
47
102
}
330
47
100
AcDbScale
 70
     0
300
3/32" = 1'-0"
140
0.09375
141
12.0
290
     0
  0
SCALE
  5
5E
102
{ACAD_REACTORS
330
47
102
}
330
47
100
AcDbScale
 70
     0
300
1/8" = 1'-0"
140
0.125
141
12.0
290
     0
  0
SCALE
  5
5F
102
{ACAD_REACTORS
330
47
102
}
330
47
100
AcDbScale
 70
     0
300
3/16" = 1'-0"
140
0.1875
141
12.0
290
     0
  0
SCALE
  5
60
102
{ACAD_REACTORS
330
47
102
}
330
47
100
AcDbScale
 70
     0
300
1/4" = 1'-0"
140
0.25
141
12.0
290
     0
  0
SCALE
  5
61
102
{ACAD_REACTORS
330
47
102
}
330
47
100
AcDbScale
 70
     0
300
3/8" = 1'-0"
140
0.375
141
12.0
290
     0
  0
SCALE
  5
62
102
{ACAD_REACTORS
330
47
102
}
330
47
100
AcDbScale
 70
     0
300
1/2" = 1'-0"
140
0.5
141
12.0
290
     0
  0
SCALE
  5
63
102
{ACAD_REACTORS
330
47
102
}
330
47
100
AcDbScale
 70
     0
300
3/4" = 1'-0"
140
0.75
141
12.0
290
     0
  0
SCALE
  5
64
102
{ACAD_REACTORS
330
47
102
}
330
47
100
AcDbScale
 70
     0
300
1" = 1'-0"
140
1.0
141
12.0
290
     0
  0
SCALE
  5
65
102
{ACAD_REACTORS
330
47
102
}
330
47
100
AcDbScale
 70
     0
300
1-1/2" = 1'-0"
140
1.5
141
12.0
290
     0
  0
SCALE
  5
66
102
{ACAD_REACTORS
330
47
102
}
330
47
100
AcDbScale
 70
     0
300
3" = 1'-0"
140
3.0
141
12.0
290
     0
  0
SCALE
  5
67
102
{ACAD_REACTORS
330
47
102
}
330
47
100
AcDbScale
 70
     0
300
6" = 1'-0"
140
6.0
141
12.0
290
     0
  0
SCALE
  5
68
102
{ACAD_REACTORS
330
47
102
}
330
47
100
AcDbScale
 70
     0
300
1'-0" = 1'-0"
140
12.0
141
12.0
290
     0
  0
ENDSEC
  0
EOF
