  0
SECTION
  2
HEADER
  9
$ACADVER
  1
AC1015
  9
$ACADMAINTVER
 70
     6
  9
$DWGCODEPAGE
  3
ANSI_950
  9
$INSBASE
 10
0.0
 20
0.0
 30
0.0
  9
$EXTMIN
 10
0.0
 20
0.0
 30
0.0
  9
$EXTMAX
 10
445.5
 20
315.0
 30
0.0
  9
$LIMMIN
 10
0.0
 20
0.0
  9
$LIMMAX
 10
445.5
 20
315.0
  9
$ORTHOMODE
 70
     0
  9
$REGENMODE
 70
     1
  9
$FILLMODE
 70
     1
  9
$QTEXTMODE
 70
     0
  9
$MIRRTEXT
 70
     1
  9
$LTSCALE
 40
1.5
  9
$ATTMODE
 70
     1
  9
$TEXTSIZE
 40
5.2916666667
  9
$TRACEWID
 40
1.0
  9
$TEXTSTYLE
  7
Standard
  9
$CLAYER
  8
0
  9
$CELTYPE
  6
ByLayer
  9
$CECOLOR
 62
   256
  9
$CELTSCALE
 40
1.0
  9
$DISPSILH
 70
     0
  9
$DIMSCALE
 40
1.0
  9
$DIMASZ
 40
3.0
  9
$DIMEXO
 40
1.5
  9
$DIMDLI
 40
3.75
  9
$DIMRND
 40
0.0
  9
$DIMDLE
 40
0.0
  9
$DIMEXE
 40
1.5
  9
$DIMTP
 40
0.0
  9
$DIMTM
 40
0.0
  9
$DIMTXT
 40
3.75
  9
$DIMCEN
 40
2.5
  9
$DIMTSZ
 40
0.0
  9
$DIMTOL
 70
     0
  9
$DIMLIM
 70
     0
  9
$DIMTIH
 70
     1
  9
$DIMTOH
 70
     1
  9
$DIMSE1
 70
     0
  9
$DIMSE2
 70
     0
  9
$DIMTAD
 70
     1
  9
$DIMZIN
 70
     0
  9
$DIMBLK
  1

  9
$DIMASO
 70
     1
  9
$DIMSHO
 70
     1
  9
$DIMPOST
  1

  9
$DIMAPOST
  1

  9
$DIMALT
 70
     0
  9
$DIMALTD
 70
     3
  9
$DIMALTF
 40
0.0393700787
  9
$DIMLFAC
 40
1.0
  9
$DIMTOFL
 70
     1
  9
$DIMTVP
 40
0.0
  9
$DIMTIX
 70
     0
  9
$DIMSOXD
 70
     0
  9
$DIMSAH
 70
     0
  9
$DIMBLK1
  1

  9
$DIMBLK2
  1

  9
$DIMSTYLE
  2
ISO-25
  9
$DIMCLRD
 70
     0
  9
$DIMCLRE
 70
     0
  9
$DIMCLRT
 70
     0
  9
$DIMTFAC
 40
1.0
  9
$DIMGAP
 40
1.5
  9
$DIMJUST
 70
     0
  9
$DIMSD1
 70
     0
  9
$DIMSD2
 70
     0
  9
$DIMTOLJ
 70
     0
  9
$DIMTZIN
 70
     0
  9
$DIMALTZ
 70
     0
  9
$DIMALTTZ
 70
     0
  9
$DIMUPT
 70
     0
  9
$DIMDEC
 70
     2
  9
$DIMTDEC
 70
     2
  9
$DIMALTU
 70
     2
  9
$DIMALTTD
 70
     3
  9
$DIMTXSTY
  7
Standard
  9
$DIMAUNIT
 70
     0
  9
$DIMADEC
 70
     1
  9
$DIMALTRND
 40
0.0
  9
$DIMAZIN
 70
     0
  9
$DIMDSEP
 70
    44
  9
$DIMATFIT
 70
     3
  9
$DIMFRAC
 70
     0
  9
$DIMLDRBLK
  1

  9
$DIMLUNIT
 70
     2
  9
$DIMLWD
 70
    -2
  9
$DIMLWE
 70
    -2
  9
$DIMTMOVE
 70
     0
  9
$LUNITS
 70
     2
  9
$LUPREC
 70
     2
  9
$SKETCHINC
 40
1.0
  9
$FILLETRAD
 40
10.0
  9
$AUNITS
 70
     0
  9
$AUPREC
 70
     1
  9
$MENU
  1
.
  9
$ELEVATION
 40
0.0
  9
$PELEVATION
 40
0.0
  9
$THICKNESS
 40
0.0
  9
$LIMCHECK
 70
     0
  9
$CHAMFERA
 40
0.0
  9
$CHAMFERB
 40
0.0
  9
$CHAMFERC
 40
0.0
  9
$CHAMFERD
 40
0.0
  9
$SKPOLY
 70
     0
  9
$TDCREATE
 40
2458505.377944479
  9
$TDUCREATE
 40
2458505.044611146
  9
$TDUPDATE
 40
2458505.377961273
  9
$TDUUPDATE
 40
2458505.04462794
  9
$TDINDWG
 40
0.0000000116
  9
$TDUSRTIMER
 40
0.0000000116
  9
$USRTIMER
 70
     1
  9
$ANGBASE
 50
0.0
  9
$ANGDIR
 70
     0
  9
$PDMODE
 70
     0
  9
$PDSIZE
 40
-1.0
  9
$PLINEWID
 40
0.0
  9
$SPLFRAME
 70
     0
  9
$SPLINETYPE
 70
     6
  9
$SPLINESEGS
 70
     8
  9
$HANDSEED
  5
56A
  9
$SURFTAB1
 70
     6
  9
$SURFTAB2
 70
     6
  9
$SURFTYPE
 70
     6
  9
$SURFU
 70
     6
  9
$SURFV
 70
     6
  9
$UCSBASE
  2

  9
$UCSNAME
  2

  9
$UCSORG
 10
0.0
 20
0.0
 30
0.0
  9
$UCSXDIR
 10
1.0
 20
0.0
 30
0.0
  9
$UCSYDIR
 10
0.0
 20
1.0
 30
0.0
  9
$UCSORTHOREF
  2

  9
$UCSORTHOVIEW
 70
     0
  9
$UCSORGTOP
 10
0.0
 20
0.0
 30
0.0
  9
$UCSORGBOTTOM
 10
0.0
 20
0.0
 30
0.0
  9
$UCSORGLEFT
 10
0.0
 20
0.0
 30
0.0
  9
$UCSORGRIGHT
 10
0.0
 20
0.0
 30
0.0
  9
$UCSORGFRONT
 10
0.0
 20
0.0
 30
0.0
  9
$UCSORGBACK
 10
0.0
 20
0.0
 30
0.0
  9
$PUCSBASE
  2

  9
$PUCSNAME
  2

  9
$PUCSORG
 10
0.0
 20
0.0
 30
0.0
  9
$PUCSXDIR
 10
1.0
 20
0.0
 30
0.0
  9
$PUCSYDIR
 10
0.0
 20
1.0
 30
0.0
  9
$PUCSORTHOREF
  2

  9
$PUCSORTHOVIEW
 70
     0
  9
$PUCSORGTOP
 10
0.0
 20
0.0
 30
0.0
  9
$PUCSORGBOTTOM
 10
0.0
 20
0.0
 30
0.0
  9
$PUCSORGLEFT
 10
0.0
 20
0.0
 30
0.0
  9
$PUCSORGRIGHT
 10
0.0
 20
0.0
 30
0.0
  9
$PUCSORGFRONT
 10
0.0
 20
0.0
 30
0.0
  9
$PUCSORGBACK
 10
0.0
 20
0.0
 30
0.0
  9
$USERI1
 70
     0
  9
$USERI2
 70
     0
  9
$USERI3
 70
     0
  9
$USERI4
 70
     0
  9
$USERI5
 70
     0
  9
$USERR1
 40
0.0
  9
$USERR2
 40
0.0
  9
$USERR3
 40
0.0
  9
$USERR4
 40
0.0
  9
$USERR5
 40
0.0
  9
$WORLDVIEW
 70
     1
  9
$SHADEDGE
 70
     3
  9
$SHADEDIF
 70
    70
  9
$TILEMODE
 70
     1
  9
$MAXACTVP
 70
    64
  9
$PINSBASE
 10
0.0
 20
0.0
 30
0.0
  9
$PLIMCHECK
 70
     0
  9
$PEXTMIN
 10
1.0000000000E+20
 20
1.0000000000E+20
 30
1.0000000000E+20
  9
$PEXTMAX
 10
-1.0000000000E+20
 20
-1.0000000000E+20
 30
-1.0000000000E+20
  9
$PLIMMIN
 10
0.0
 20
0.0
  9
$PLIMMAX
 10
420.0
 20
297.0
  9
$UNITMODE
 70
     0
  9
$VISRETAIN
 70
     1
  9
$PLINEGEN
 70
     0
  9
$PSLTSCALE
 70
     1
  9
$TREEDEPTH
 70
  3020
  9
$CMLSTYLE
  2
Standard
  9
$CMLJUST
 70
     0
  9
$CMLSCALE
 40
20.0
  9
$PROXYGRAPHICS
 70
     1
  9
$MEASUREMENT
 70
     1
  9
$CELWEIGHT
370
    -1
  9
$ENDCAPS
280
     0
  9
$JOINSTYLE
280
     0
  9
$LWDISPLAY
290
     1
  9
$INSUNITS
 70
     4
  9
$HYPERLINKBASE
  1

  9
$STYLESHEET
  1

  9
$XEDIT
290
     1
  9
$CEPSNTYPE
380
     0
  9
$PSTYLEMODE
290
     1
  9
$FINGERPRINTGUID
  2
{E0968EB3-19F5-4348-8F1E-3A14E778CD67}
  9
$VERSIONGUID
  2
{FAEB1C32-E019-11D5-929B-00C0DF256EC4}
  9
$EXTNAMES
290
     1
  9
$PSVPSCALE
 40
0.0
  9
$OLESTARTUP
290
     0
  0
ENDSEC
  0
SECTION
  2
CLASSES
  0
CLASS
  1
ACDBDICTIONARYWDFLT
  2
AcDbDictionaryWithDefault
  3
ObjectDBX Classes
 90
        0
280
     0
281
     0
  0
CLASS
  1
VISUALSTYLE
  2
AcDbVisualStyle
  3
ObjectDBX Classes
 90
     4095
280
     0
281
     0
  0
CLASS
  1
MATERIAL
  2
AcDbMaterial
  3
ObjectDBX Classes
 90
     1153
280
     0
281
     0
  0
CLASS
  1
SCALE
  2
AcDbScale
  3
ObjectDBX Classes
 90
     1153
280
     0
281
     0
  0
CLASS
  1
TABLESTYLE
  2
AcDbTableStyle
  3
ObjectDBX Classes
 90
     4095
280
     0
281
     0
  0
CLASS
  1
MLEADERSTYLE
  2
AcDbMLeaderStyle
  3
ACDB_MLEADERSTYLE_CLASS
 90
     4095
280
     0
281
     0
  0
CLASS
  1
SUN
  2
AcDbSun
  3
SCENEOE
 90
     1153
280
     0
281
     0
  0
CLASS
  1
ACDBPLACEHOLDER
  2
AcDbPlaceHolder
  3
ObjectDBX Classes
 90
        0
280
     0
281
     0
  0
CLASS
  1
LAYOUT
  2
AcDbLayout
  3
ObjectDBX Classes
 90
        0
280
     0
281
     0
  0
ENDSEC
  0
SECTION
  2
TABLES
  0
TABLE
  2
VPORT
  5
8
330
0
100
AcDbSymbolTable
 70
     1
  0
VPORT
  5
29
330
8
100
AcDbSymbolTableRecord
100
AcDbViewportTableRecord
  2
*Active
 70
     0
 10
0.0
 20
0.0
 11
1.0
 21
1.0
 12
222.75
 22
157.5
 13
0.0
 23
0.0
 14
10.0
 24
10.0
 15
10.0
 25
10.0
 16
0.0
 26
0.0
 36
1.0
 17
0.0
 27
0.0
 37
0.0
 40
315.0
 41
1.4142857143
 42
50.0
 43
0.0
 44
0.0
 50
0.0
 51
0.0
 71
     0
 72
  2000
 73
     1
 74
     3
 75
     0
 76
     0
 77
     0
 78
     0
281
     0
 65
     1
110
0.0
120
0.0
130
0.0
111
1.0
121
0.0
131
0.0
112
0.0
122
1.0
132
0.0
 79
     0
146
0.0
  0
ENDTAB
  0
TABLE
  2
LTYPE
  5
5
330
0
100
AcDbSymbolTable
 70
     6
  0
LTYPE
  5
14
330
5
100
AcDbSymbolTableRecord
100
AcDbLinetypeTableRecord
  2
ByBlock
 70
     0
  3

 72
    65
 73
     0
 40
0.0
  0
LTYPE
  5
15
330
5
100
AcDbSymbolTableRecord
100
AcDbLinetypeTableRecord
  2
ByLayer
 70
     0
  3

 72
    65
 73
     0
 40
0.0
  0
LTYPE
  5
16
330
5
100
AcDbSymbolTableRecord
100
AcDbLinetypeTableRecord
  2
Continuous
 70
     0
  3
Solid line
 72
    65
 73
     0
 40
0.0
  0
LTYPE
  5
6E
330
5
100
AcDbSymbolTableRecord
100
AcDbLinetypeTableRecord
  2
HIDDEN
 70
     0
  3
Hidden __ __ __ __ __ __ __ __ __ __ __ __ __ __
 72
    65
 73
     2
 40
1.905
 49
1.27
 74
     0
 49
-0.635
 74
     0
  0
LTYPE
  5
6F
330
5
100
AcDbSymbolTableRecord
100
AcDbLinetypeTableRecord
  2
PHANTOM
 70
     0
  3
Phantom ______  __  __  ______  __  __  ______
 72
    65
 73
     6
 40
12.7
 49
6.35
 74
     0
 49
-1.27
 74
     0
 49
1.27
 74
     0
 49
-1.27
 74
     0
 49
1.27
 74
     0
 49
-1.27
 74
     0
  0
LTYPE
  5
70
330
5
100
AcDbSymbolTableRecord
100
AcDbLinetypeTableRecord
  2
CENTER
 70
     0
  3
Center ____ _ ____ _ ____ _ ____ _ ____ _ ____
 72
    65
 73
     4
 40
10.16
 49
6.35
 74
     0
 49
-1.27
 74
     0
 49
1.27
 74
     0
 49
-1.27
 74
     0
  0
LTYPE
  5
71
330
5
100
AcDbSymbolTableRecord
100
AcDbLinetypeTableRecord
  2
CENTERX2
 70
     0
  3
Center (2x) ________  __  ________  __  _____
 72
    65
 73
     4
 40
20.32
 49
12.7
 74
     0
 49
-2.54
 74
     0
 49
2.54
 74
     0
 49
-2.54
 74
     0
  0
LTYPE
  5
72
330
5
100
AcDbSymbolTableRecord
100
AcDbLinetypeTableRecord
  2
DOT2
 70
     0
  3
Dot (.5x) ........................................
 72
    65
 73
     2
 40
0.635
 49
0.0
 74
     0
 49
-0.635
 74
     0
  0
ENDTAB
  0
TABLE
  2
LAYER
  5
2
330
0
100
AcDbSymbolTable
 70
     8
  0
LAYER
  5
10
330
2
100
AcDbSymbolTableRecord
100
AcDbLayerTableRecord
  2
0
 70
     0
 62
     7
  6
Continuous
370
    -3
390
F
  0
LAYER
  5
73
330
2
100
AcDbSymbolTableRecord
100
AcDbLayerTableRecord
  2
SLD-0
 70
     0
 62
   179
  6
Continuous
370
    15
390
F
  0
LAYER
  5
74
330
2
100
AcDbSymbolTableRecord
100
AcDbLayerTableRecord
  2
輪廓線
 70
     0
 62
   219
  6
Continuous
370
    15
390
F
  0
LAYER
  5
75
330
2
100
AcDbSymbolTableRecord
100
AcDbLayerTableRecord
  2
DIM
 70
     0
 62
     7
  6
Continuous
370
    -3
390
F
  0
LAYER
  5
76
330
2
100
AcDbSymbolTableRecord
100
AcDbLayerTableRecord
  2
中心線
 70
     0
 62
     1
  6
CENTERX2
370
    -3
390
F
  0
LAYER
  5
77
330
2
100
AcDbSymbolTableRecord
100
AcDbLayerTableRecord
  2
虛線
 70
     0
 62
     6
  6
HIDDEN
370
    -3
390
F
  0
LAYER
  5
78
330
2
100
AcDbSymbolTableRecord
100
AcDbLayerTableRecord
  2
SECTION
 70
     0
 62
     5
  6
PHANTOM
370
    15
390
F
  0
LAYER
  5
79
330
2
100
AcDbSymbolTableRecord
100
AcDbLayerTableRecord
  2
假想線
 70
     0
 62
     5
  6
PHANTOM
370
    -3
390
F
  0
ENDTAB
  0
TABLE
  2
STYLE
  5
3
330
0
100
AcDbSymbolTable
 70
     3
  0
STYLE
  5
11
330
3
100
AcDbSymbolTableRecord
100
AcDbTextStyleTableRecord
  2
Standard
 70
     0
 40
0.0
 41
1.0
 50
0.0
 71
     0
 42
5.2916666667
  3
txt
  4

  0
STYLE
  5
CA
330
3
100
AcDbSymbolTableRecord
100
AcDbTextStyleTableRecord
  2
SLDTEXTSTYLE0
 70
     0
 40
0.0
 41
0.605
 50
0.0
 71
     0
 42
5.2916666667
  3
TXT
  4

  0
STYLE
  5
D3
330
3
100
AcDbSymbolTableRecord
100
AcDbTextStyleTableRecord
  2
SLDTEXTSTYLE1
 70
     0
 40
0.0
 41
0.7
 50
0.0
 71
     0
 42
5.2916666667
  3
TXT
  4

  0
ENDTAB
  0
TABLE
  2
VIEW
  5
6
330
0
100
AcDbSymbolTable
 70
     0
  0
ENDTAB
  0
TABLE
  2
UCS
  5
7
330
0
100
AcDbSymbolTable
 70
     0
  0
ENDTAB
  0
TABLE
  2
APPID
  5
9
330
0
100
AcDbSymbolTable
 70
     1
  0
APPID
  5
12
330
9
100
AcDbSymbolTableRecord
100
AcDbRegAppTableRecord
  2
ACAD
 70
     0
  0
ENDTAB
  0
TABLE
  2
DIMSTYLE
  5
A
330
0
100
AcDbSymbolTable
 70
     5
100
AcDbDimStyleTable
  0
DIMSTYLE
105
27
330
A
100
AcDbSymbolTableRecord
100
AcDbDimStyleTableRecord
  2
ISO-25
 70
     0
 41
2.5
 42
0.625
 43
3.75
 44
1.25
 73
     0
 74
     0
 77
     1
 78
     8
140
2.5
141
2.5
143
0.0393700787
147
0.625
171
     3
172
     1
178
     0
271
     2
272
     2
274
     3
278
    44
283
     0
284
     8
340
11
  0
DIMSTYLE
105
18B
102
{ACAD_REACTORS
330
18A
330
195
330
1A9
330
1B3
330
1BD
330
1C7
330
1D1
330
314
330
31E
330
328
330
33C
102
}
330
A
100
AcDbSymbolTableRecord
100
AcDbDimStyleTableRecord
  2
SLDDIMSTYLE0
 70
     0
 41
3.0
 44
0.0
 45
0.000000001
 73
     0
 74
     0
 77
     1
 78
    12
 79
     3
140
3.75
147
0.9375
173
     1
178
     0
271
     2
272
     2
276
     2
284
    12
340
CA
  0
DIMSTYLE
105
1A0
102
{ACAD_REACTORS
330
19F
102
}
330
A
100
AcDbSymbolTableRecord
100
AcDbDimStyleTableRecord
  2
SLDDIMSTYLE1
 70
     0
  3
<>
 41
3.0
 44
0.0
 45
0.000000001
 78
    12
 79
     3
140
3.75
141
0.0
147
0.9375
173
     1
178
     0
271
     2
272
     2
276
     2
284
    12
340
CA
  0
DIMSTYLE
105
333
102
{ACAD_REACTORS
330
332
102
}
330
A
100
AcDbSymbolTableRecord
100
AcDbDimStyleTableRecord
  2
SLDDIMSTYLE2
 70
     0
 41
3.0
 44
0.0
 45
0.000000001
 78
    12
 79
     3
140
3.75
141
0.0
147
0.9375
173
     1
178
     0
271
     2
272
     2
276
     2
284
    12
340
CA
  0
DIMSTYLE
105
347
102
{ACAD_REACTORS
330
346
102
}
330
A
100
AcDbSymbolTableRecord
100
AcDbDimStyleTableRecord
  2
SLDDIMSTYLE3
 70
     0
 41
3.0
 44
0.0
 45
0.000000001
 73
     0
 74
     0
 77
     1
 78
    12
 79
     3
140
3.75
147
0.9375
173
     1
178
     0
271
     0
272
     0
276
     2
284
    12
340
CA
  0
ENDTAB
  0
TABLE
  2
BLOCK_RECORD
  5
1
330
0
100
AcDbSymbolTable
 70
    27
  0
BLOCK_RECORD
  5
1F
330
1
100
AcDbSymbolTableRecord
100
AcDbBlockTableRecord
  2
*Model_Space
340
22
  0
BLOCK_RECORD
  5
1B
330
1
100
AcDbSymbolTableRecord
100
AcDbBlockTableRecord
  2
*Paper_Space
340
1E
  0
BLOCK_RECORD
  5
23
330
1
100
AcDbSymbolTableRecord
100
AcDbBlockTableRecord
  2
*Paper_Space0
340
26
  0
BLOCK_RECORD
  5
CC
330
1
100
AcDbSymbolTableRecord
100
AcDbBlockTableRecord
  2
SW_NOTE_0
340
0
102
{BLKREFS
331
D2
102
}
  0
BLOCK_RECORD
  5
103
330
1
100
AcDbSymbolTableRecord
100
AcDbBlockTableRecord
  2
SW_NOTE_1
340
0
102
{BLKREFS
331
108
102
}
  0
BLOCK_RECORD
  5
18C
330
1
100
AcDbSymbolTableRecord
100
AcDbBlockTableRecord
  2
_D
340
0
  0
BLOCK_RECORD
  5
196
330
1
100
AcDbSymbolTableRecord
100
AcDbBlockTableRecord
  2
_D_1
340
0
  0
BLOCK_RECORD
  5
1A1
330
1
100
AcDbSymbolTableRecord
100
AcDbBlockTableRecord
  2
_D_2
340
0
  0
BLOCK_RECORD
  5
1AA
330
1
100
AcDbSymbolTableRecord
100
AcDbBlockTableRecord
  2
_D_3
340
0
  0
BLOCK_RECORD
  5
1B4
330
1
100
AcDbSymbolTableRecord
100
AcDbBlockTableRecord
  2
_D_4
340
0
  0
BLOCK_RECORD
  5
1BE
330
1
100
AcDbSymbolTableRecord
100
AcDbBlockTableRecord
  2
_D_5
340
0
  0
BLOCK_RECORD
  5
1C8
330
1
100
AcDbSymbolTableRecord
100
AcDbBlockTableRecord
  2
_D_6
340
0
  0
BLOCK_RECORD
  5
1D2
330
1
100
AcDbSymbolTableRecord
100
AcDbBlockTableRecord
  2
_D_7
340
0
  0
BLOCK_RECORD
  5
1DB
330
1
100
AcDbSymbolTableRecord
100
AcDbBlockTableRecord
  2
SW_CENTERMARKSYMBOL_0
340
0
102
{BLKREFS
331
1E6
102
}
  0
BLOCK_RECORD
  5
1E7
330
1
100
AcDbSymbolTableRecord
100
AcDbBlockTableRecord
  2
SW_CENTERMARKSYMBOL_1
340
0
102
{BLKREFS
331
1F2
102
}
  0
BLOCK_RECORD
  5
1F3
330
1
100
AcDbSymbolTableRecord
100
AcDbBlockTableRecord
  2
SW_CENTERMARKSYMBOL_2
340
0
102
{BLKREFS
331
1FE
102
}
  0
BLOCK_RECORD
  5
1FF
330
1
100
AcDbSymbolTableRecord
100
AcDbBlockTableRecord
  2
SW_CENTERMARKSYMBOL_3
340
0
102
{BLKREFS
331
20A
102
}
  0
BLOCK_RECORD
  5
20B
330
1
100
AcDbSymbolTableRecord
100
AcDbBlockTableRecord
  2
SW_CENTERMARKSYMBOL_4
340
0
102
{BLKREFS
331
216
102
}
  0
BLOCK_RECORD
  5
217
330
1
100
AcDbSymbolTableRecord
100
AcDbBlockTableRecord
  2
SW_CENTERMARKSYMBOL_5
340
0
102
{BLKREFS
331
222
102
}
  0
BLOCK_RECORD
  5
223
330
1
100
AcDbSymbolTableRecord
100
AcDbBlockTableRecord
  2
SW_CENTERMARKSYMBOL_6
340
0
102
{BLKREFS
331
22E
102
}
  0
BLOCK_RECORD
  5
22F
330
1
100
AcDbSymbolTableRecord
100
AcDbBlockTableRecord
  2
SW_CENTERMARKSYMBOL_7
340
0
102
{BLKREFS
331
23A
102
}
  0
BLOCK_RECORD
  5
23B
330
1
100
AcDbSymbolTableRecord
100
AcDbBlockTableRecord
  2
SW_CENTERMARKSYMBOL_8
340
0
102
{BLKREFS
331
246
102
}
  0
BLOCK_RECORD
  5
315
330
1
100
AcDbSymbolTableRecord
100
AcDbBlockTableRecord
  2
_D_8
340
0
  0
BLOCK_RECORD
  5
31F
330
1
100
AcDbSymbolTableRecord
100
AcDbBlockTableRecord
  2
_D_9
340
0
  0
BLOCK_RECORD
  5
329
330
1
100
AcDbSymbolTableRecord
100
AcDbBlockTableRecord
  2
_D_10
340
0
  0
BLOCK_RECORD
  5
334
330
1
100
AcDbSymbolTableRecord
100
AcDbBlockTableRecord
  2
_D_11
340
0
  0
BLOCK_RECORD
  5
33D
330
1
100
AcDbSymbolTableRecord
100
AcDbBlockTableRecord
  2
_D_12
340
0
  0
BLOCK_RECORD
  5
348
330
1
100
AcDbSymbolTableRecord
100
AcDbBlockTableRecord
  2
_D_13
340
0
  0
BLOCK_RECORD
  5
351
330
1
100
AcDbSymbolTableRecord
100
AcDbBlockTableRecord
  2
SW_CENTERMARKSYMBOL_9
340
0
102
{BLKREFS
331
35C
102
}
  0
ENDTAB
  0
ENDSEC
  0
SECTION
  2
BLOCKS
  0
BLOCK
  5
20
330
1F
100
AcDbEntity
  8
0
100
AcDbBlockBegin
  2
*Model_Space
 70
     0
 10
0.0
 20
0.0
 30
0.0
  3
*Model_Space
  1

  0
ENDBLK
  5
21
330
1F
100
AcDbEntity
  8
0
100
AcDbBlockEnd
  0
BLOCK
  5
1C
330
1B
100
AcDbEntity
 67
     1
  8
0
100
AcDbBlockBegin
  2
*Paper_Space
 70
     0
 10
0.0
 20
0.0
 30
0.0
  3
*Paper_Space
  1

  0
ENDBLK
  5
1D
330
1B
100
AcDbEntity
 67
     1
  8
0
100
AcDbBlockEnd
  0
BLOCK
  5
24
330
23
100
AcDbEntity
  8
0
100
AcDbBlockBegin
  2
*Paper_Space0
 70
     0
 10
0.0
 20
0.0
 30
0.0
  3
*Paper_Space0
  1

  0
ENDBLK
  5
25
330
23
100
AcDbEntity
  8
0
100
AcDbBlockEnd
  0
BLOCK
  5
CD
330
CC
100
AcDbEntity
  8
0
100
AcDbBlockBegin
  2
SW_NOTE_0
 70
     0
 10
0.0
 20
0.0
 30
0.0
  3
SW_NOTE_0
  1

  0
MTEXT
  5
CF
330
CC
100
AcDbEntity
  8
0
  6
Continuous
 62
     0
370
     0
100
AcDbMText
 10
0.0
 20
5.1159875922
 30
0.0
 40
3.96875
 41
0.0
 71
     1
 72
     1
  1
PROPRIETARY AND CONFIDENTIAL
  7
SLDTEXTSTYLE0
 73
     1
 44
1.0
  0
MTEXT
  5
D0
330
CC
100
AcDbEntity
  8
0
  6
Continuous
 62
     0
370
     0
100
AcDbMText
 10
0.0
 20
-0.12297522
 30
0.0
 40
2.778125
 41
0.0
 71
     1
 72
     1
  1
THE INFORMATION CONTAINED IN THIS DRAWING IS THE SOLE PROPERTY OF UNICE E-O SERVICES INC. ANY REPRODUCTION IN PART OR AS A WHOLE WITHOUT THE WRITTEN PERMISSION OF UNICE E-O SERVICES INC IS
  7
SLDTEXTSTYLE0
 73
     1
 44
1.0
  0
MTEXT
  5
D1
330
CC
100
AcDbEntity
  8
0
  6
Continuous
 62
     0
370
     0
100
AcDbMText
 10
0.0
 20
-3.8271418419
 30
0.0
 40
2.778125
 41
0.0
 71
     1
 72
     1
  1
PROHIBITED.
  7
SLDTEXTSTYLE0
 73
     1
 44
1.0
  0
ENDBLK
  5
CE
330
CC
100
AcDbEntity
  8
0
100
AcDbBlockEnd
  0
BLOCK
  5
104
330
103
100
AcDbEntity
  8
0
100
AcDbBlockBegin
  2
SW_NOTE_1
 70
     0
 10
0.0
 20
0.0
 30
0.0
  3
SW_NOTE_1
  1

  0
MTEXT
  5
106
330
103
100
AcDbEntity
  8
DIM
 62
     0
100
AcDbMText
 10
0.0
 20
3.5811913146
 30
0.0
 40
2.778125
 41
0.0
 71
     1
 72
     1
  1
No.5, Andong Rd., Chung Li District,
  7
SLDTEXTSTYLE1
 73
     1
 44
1.0
  0
MTEXT
  5
107
330
103
100
AcDbEntity
  8
DIM
 62
     0
100
AcDbMText
 10
0.0
 20
-0.1229753073
 30
0.0
 40
2.778125
 41
0.0
 71
     1
 72
     1
  1
Taoyuan City 32063, Taiwan, R.O.C.
  7
SLDTEXTSTYLE1
 73
     1
 44
1.0
  0
ENDBLK
  5
105
330
103
100
AcDbEntity
  8
0
100
AcDbBlockEnd
  0
BLOCK
  5
18D
330
18C
100
AcDbEntity
  8
0
100
AcDbBlockBegin
  2
_D
 70
     0
 10
0.0
 20
0.0
 30
0.0
  3
_D
  1

  0
SOLID
  5
18F
330
18C
100
AcDbEntity
  8
DIM
 62
     7
100
AcDbTrace
 10
119.8108890222
 20
144.8060199859
 30
0.0
 11
122.8108890222
 21
144.4310199859
 31
0.0
 12
122.8108890222
 22
145.1810199859
 32
0.0
 13
122.8108890222
 23
145.1810199859
 33
0.0
  0
SOLID
  5
190
330
18C
100
AcDbEntity
  8
DIM
 62
     7
100
AcDbTrace
 10
169.8108890222
 20
144.8060199859
 30
0.0
 11
166.8108890222
 21
145.1810199859
 31
0.0
 12
166.8108890222
 22
144.4310199859
 32
0.0
 13
166.8108890222
 23
144.4310199859
 33
0.0
  0
LINE
  5
191
330
18C
100
AcDbEntity
  8
DIM
 62
     7
100
AcDbLine
 10
119.8108890222
 20
129.8060199859
 30
0.0
 11
119.8108890222
 21
146.3060199859
 31
0.0
  0
LINE
  5
192
330
18C
100
AcDbEntity
  8
DIM
 62
     7
100
AcDbLine
 10
169.8108890222
 20
129.8060199859
 30
0.0
 11
169.8108890222
 21
146.3060199859
 31
0.0
  0
LINE
  5
193
330
18C
100
AcDbEntity
  8
DIM
 62
     7
100
AcDbLine
 10
119.8108890222
 20
144.8060199859
 30
0.0
 11
169.8108890222
 21
144.8060199859
 31
0.0
  0
MTEXT
  5
194
330
18C
100
AcDbEntity
  8
DIM
 62
     7
100
AcDbMText
 10
141.946305685
 20
149.6400237481
 30
0.0
 40
3.75
 41
0.0
 71
     1
 72
     1
  1
50
  7
SLDTEXTSTYLE0
 73
     1
 44
1.0
  0
ENDBLK
  5
18E
330
18C
100
AcDbEntity
  8
0
100
AcDbBlockEnd
  0
BLOCK
  5
197
330
196
100
AcDbEntity
  8
0
100
AcDbBlockBegin
  2
_D_1
 70
     0
 10
0.0
 20
0.0
 30
0.0
  3
_D_1
  1

  0
SOLID
  5
199
330
196
100
AcDbEntity
  8
DIM
 62
     7
100
AcDbTrace
 10
75.5357789975
 20
128.3060199859
 30
0.0
 11
75.1607789975
 21
125.3060199859
 31
0.0
 12
75.9107789975
 22
125.3060199859
 32
0.0
 13
75.9107789975
 23
125.3060199859
 33
0.0
  0
SOLID
  5
19A
330
196
100
AcDbEntity
  8
DIM
 62
     7
100
AcDbTrace
 10
75.5357789975
 20
52.3060199859
 30
0.0
 11
75.9107789975
 21
55.3060199859
 31
0.0
 12
75.1607789975
 22
55.3060199859
 32
0.0
 13
75.1607789975
 23
55.3060199859
 33
0.0
  0
LINE
  5
19B
330
196
100
AcDbEntity
  8
DIM
 62
     7
100
AcDbLine
 10
118.3108890222
 20
128.3060199859
 30
0.0
 11
74.0357789975
 21
128.3060199859
 31
0.0
  0
LINE
  5
19C
330
196
100
AcDbEntity
  8
DIM
 62
     7
100
AcDbLine
 10
118.3108890222
 20
52.3060199859
 30
0.0
 11
74.0357789975
 21
52.3060199859
 31
0.0
  0
LINE
  5
19D
330
196
100
AcDbEntity
  8
DIM
 62
     7
100
AcDbLine
 10
75.5357789975
 20
128.3060199859
 30
0.0
 11
75.5357789975
 21
52.3060199859
 31
0.0
  0
MTEXT
  5
19E
330
196
100
AcDbEntity
  8
DIM
 62
     7
100
AcDbMText
 10
70.7017752353
 20
87.4414366487
 30
0.0
 40
3.75
 41
0.0
 71
     1
 72
     1
  1
76
  7
SLDTEXTSTYLE0
 11
-1.059690869644414E-14
 21
1.0
 31
0.0
 73
     1
 44
1.0
  0
ENDBLK
  5
198
330
196
100
AcDbEntity
  8
0
100
AcDbBlockEnd
  0
BLOCK
  5
1A2
330
1A1
100
AcDbEntity
  8
0
100
AcDbBlockBegin
  2
_D_2
 70
     0
 10
0.0
 20
0.0
 30
0.0
  3
_D_2
  1

  0
SOLID
  5
1A4
330
1A1
100
AcDbEntity
  8
DIM
100
AcDbTrace
 10
159.7215920705
 20
116.9823699859
 30
0.0
 11
162.5071682818
 21
118.1576104595
 31
0.0
 12
162.1321682818
 22
118.8071295123
 32
0.0
 13
162.1321682818
 23
118.8071295123
 33
0.0
  0
LINE
  5
1A5
330
1A1
100
AcDbEntity
  8
DIM
100
AcDbLine
 10
159.7215920705
 20
116.9823699859
 30
0.0
 11
179.7099152906
 21
128.5226337776
 31
0.0
  0
LINE
  5
1A6
330
1A1
100
AcDbEntity
  8
DIM
100
AcDbLine
 10
179.7099152906
 20
128.5226337776
 30
0.0
 11
204.7776232054
 21
128.5226337776
 31
0.0
  0
MTEXT
  5
1A7
330
1A1
100
AcDbEntity
  8
DIM
100
AcDbMText
 10
181.5849152906
 20
139.1118457397
 30
0.0
 40
3.75
 41
0.0
 71
     1
 72
     1
  1
9 HOLES,
  7
SLDTEXTSTYLE0
 73
     1
 44
1.0
  0
MTEXT
  5
1A8
330
1A1
100
AcDbEntity
  8
DIM
100
AcDbMText
 10
182.9911652906
 20
133.3566375399
 30
0.0
 40
3.75
 41
0.0
 71
     1
 72
     1
  1
1/4"-20
  7
SLDTEXTSTYLE0
 73
     1
 44
1.0
  0
ENDBLK
  5
1A3
330
1A1
100
AcDbEntity
  8
0
100
AcDbBlockEnd
  0
BLOCK
  5
1AB
330
1AA
100
AcDbEntity
  8
0
100
AcDbBlockBegin
  2
_D_3
 70
     0
 10
0.0
 20
0.0
 30
0.0
  3
_D_3
  1

  0
SOLID
  5
1AD
330
1AA
100
AcDbEntity
  8
DIM
100
AcDbTrace
 10
144.8108890222
 20
135.8060199859
 30
0.0
 11
141.8108890222
 21
136.1810199859
 31
0.0
 12
141.8108890222
 22
135.4310199859
 32
0.0
 13
141.8108890222
 23
135.4310199859
 33
0.0
  0
SOLID
  5
1AE
330
1AA
100
AcDbEntity
  8
DIM
100
AcDbTrace
 10
132.1108890222
 20
135.8060199859
 30
0.0
 11
135.1108890222
 21
135.4310199859
 31
0.0
 12
135.1108890222
 22
136.1810199859
 32
0.0
 13
135.1108890222
 23
136.1810199859
 33
0.0
  0
LINE
  5
1AF
330
1AA
100
AcDbEntity
  8
DIM
100
AcDbLine
 10
144.8108890222
 20
120.7587199859
 30
0.0
 11
144.8108890222
 21
137.3060199859
 31
0.0
  0
LINE
  5
1B0
330
1AA
100
AcDbEntity
  8
DIM
100
AcDbLine
 10
132.1108890222
 20
120.7587199859
 30
0.0
 11
132.1108890222
 21
137.3060199859
 31
0.0
  0
LINE
  5
1B1
330
1AA
100
AcDbEntity
  8
DIM
100
AcDbLine
 10
144.8108890222
 20
135.8060199859
 30
0.0
 11
132.1108890222
 21
135.8060199859
 31
0.0
  0
MTEXT
  5
1B2
330
1AA
100
AcDbEntity
  8
DIM
100
AcDbMText
 10
133.4478683131
 20
140.6400237481
 30
0.0
 40
3.75
 41
0.0
 71
     1
 72
     1
  1
12.7
  7
SLDTEXTSTYLE0
 73
     1
 44
1.0
  0
ENDBLK
  5
1AC
330
1AA
100
AcDbEntity
  8
0
100
AcDbBlockEnd
  0
BLOCK
  5
1B5
330
1B4
100
AcDbEntity
  8
0
100
AcDbBlockBegin
  2
_D_4
 70
     0
 10
0.0
 20
0.0
 30
0.0
  3
_D_4
  1

  0
SOLID
  5
1B7
330
1B4
100
AcDbEntity
  8
DIM
100
AcDbTrace
 10
144.8108890222
 20
135.8060199859
 30
0.0
 11
147.8108890222
 21
135.4310199859
 31
0.0
 12
147.8108890222
 22
136.1810199859
 32
0.0
 13
147.8108890222
 23
136.1810199859
 33
0.0
  0
SOLID
  5
1B8
330
1B4
100
AcDbEntity
  8
DIM
100
AcDbTrace
 10
157.5108890222
 20
135.8060199859
 30
0.0
 11
154.5108890222
 21
136.1810199859
 31
0.0
 12
154.5108890222
 22
135.4310199859
 32
0.0
 13
154.5108890222
 23
135.4310199859
 33
0.0
  0
LINE
  5
1B9
330
1B4
100
AcDbEntity
  8
DIM
100
AcDbLine
 10
144.8108890222
 20
120.7587199859
 30
0.0
 11
144.8108890222
 21
137.3060199859
 31
0.0
  0
LINE
  5
1BA
330
1B4
100
AcDbEntity
  8
DIM
100
AcDbLine
 10
157.5108890222
 20
120.7587199859
 30
0.0
 11
157.5108890222
 21
137.3060199859
 31
0.0
  0
LINE
  5
1BB
330
1B4
100
AcDbEntity
  8
DIM
100
AcDbLine
 10
144.8108890222
 20
135.8060199859
 30
0.0
 11
157.5108890222
 21
135.8060199859
 31
0.0
  0
MTEXT
  5
1BC
330
1B4
100
AcDbEntity
  8
DIM
100
AcDbMText
 10
146.1478683131
 20
140.6400237481
 30
0.0
 40
3.75
 41
0.0
 71
     1
 72
     1
  1
12.7
  7
SLDTEXTSTYLE0
 73
     1
 44
1.0
  0
ENDBLK
  5
1B6
330
1B4
100
AcDbEntity
  8
0
100
AcDbBlockEnd
  0
BLOCK
  5
1BF
330
1BE
100
AcDbEntity
  8
0
100
AcDbBlockBegin
  2
_D_5
 70
     0
 10
0.0
 20
0.0
 30
0.0
  3
_D_5
  1

  0
SOLID
  5
1C1
330
1BE
100
AcDbEntity
  8
DIM
100
AcDbTrace
 10
95.4439304334
 20
103.0060199859
 30
0.0
 11
95.0689304334
 21
100.0060199859
 31
0.0
 12
95.8189304334
 22
100.0060199859
 32
0.0
 13
95.8189304334
 23
100.0060199859
 33
0.0
  0
SOLID
  5
1C2
330
1BE
100
AcDbEntity
  8
DIM
100
AcDbTrace
 10
95.4439304334
 20
90.3060199859
 30
0.0
 11
95.8189304334
 21
93.3060199859
 31
0.0
 12
95.0689304334
 22
93.3060199859
 32
0.0
 13
95.0689304334
 23
93.3060199859
 33
0.0
  0
LINE
  5
1C3
330
1BE
100
AcDbEntity
  8
DIM
100
AcDbLine
 10
127.0581890222
 20
103.0060199859
 30
0.0
 11
93.9439304334
 21
103.0060199859
 31
0.0
  0
LINE
  5
1C4
330
1BE
100
AcDbEntity
  8
DIM
100
AcDbLine
 10
139.7581890222
 20
90.3060199859
 30
0.0
 11
93.9439304334
 21
90.3060199859
 31
0.0
  0
LINE
  5
1C5
330
1BE
100
AcDbEntity
  8
DIM
100
AcDbLine
 10
95.4439304334
 20
103.0060199859
 30
0.0
 11
95.4439304334
 21
90.3060199859
 31
0.0
  0
MTEXT
  5
1C6
330
1BE
100
AcDbEntity
  8
DIM
100
AcDbMText
 10
90.6099266712
 20
91.6429992767
 30
0.0
 40
3.75
 41
0.0
 71
     1
 72
     1
  1
12.7
  7
SLDTEXTSTYLE0
 11
-7.044195017643634E-15
 21
1.0
 31
0.0
 73
     1
 44
1.0
  0
ENDBLK
  5
1C0
330
1BE
100
AcDbEntity
  8
0
100
AcDbBlockEnd
  0
BLOCK
  5
1C9
330
1C8
100
AcDbEntity
  8
0
100
AcDbBlockBegin
  2
_D_6
 70
     0
 10
0.0
 20
0.0
 30
0.0
  3
_D_6
  1

  0
SOLID
  5
1CB
330
1C8
100
AcDbEntity
  8
DIM
100
AcDbTrace
 10
85.4205408029
 20
90.3060199859
 30
0.0
 11
85.7955408029
 21
93.3060199859
 31
0.0
 12
85.0455408029
 22
93.3060199859
 32
0.0
 13
85.0455408029
 23
93.3060199859
 33
0.0
  0
SOLID
  5
1CC
330
1C8
100
AcDbEntity
  8
DIM
100
AcDbTrace
 10
85.4205408029
 20
115.7060199859
 30
0.0
 11
85.0455408029
 21
112.7060199859
 31
0.0
 12
85.7955408029
 22
112.7060199859
 32
0.0
 13
85.7955408029
 23
112.7060199859
 33
0.0
  0
LINE
  5
1CD
330
1C8
100
AcDbEntity
  8
DIM
100
AcDbLine
 10
139.7581890222
 20
90.3060199859
 30
0.0
 11
83.9205408029
 21
90.3060199859
 31
0.0
  0
LINE
  5
1CE
330
1C8
100
AcDbEntity
  8
DIM
100
AcDbLine
 10
127.0581890222
 20
115.7060199859
 30
0.0
 11
83.9205408029
 21
115.7060199859
 31
0.0
  0
LINE
  5
1CF
330
1C8
100
AcDbEntity
  8
DIM
100
AcDbLine
 10
85.4205408029
 20
90.3060199859
 30
0.0
 11
85.4205408029
 21
115.7060199859
 31
0.0
  0
MTEXT
  5
1D0
330
1C8
100
AcDbEntity
  8
DIM
100
AcDbMText
 10
80.5865370407
 20
97.9929992767
 30
0.0
 40
3.75
 41
0.0
 71
     1
 72
     1
  1
25.4
  7
SLDTEXTSTYLE0
 11
6.123233995736766E-17
 21
1.0
 31
0.0
 73
     1
 44
1.0
  0
ENDBLK
  5
1CA
330
1C8
100
AcDbEntity
  8
0
100
AcDbBlockEnd
  0
BLOCK
  5
1D3
330
1D2
100
AcDbEntity
  8
0
100
AcDbBlockBegin
  2
_D_7
 70
     0
 10
0.0
 20
0.0
 30
0.0
  3
_D_7
  1

  0
SOLID
  5
1D5
330
1D2
100
AcDbEntity
  8
DIM
100
AcDbTrace
 10
85.4205408029
 20
90.3060199859
 30
0.0
 11
85.0455408029
 21
87.3060199859
 31
0.0
 12
85.7955408029
 22
87.3060199859
 32
0.0
 13
85.7955408029
 23
87.3060199859
 33
0.0
  0
SOLID
  5
1D6
330
1D2
100
AcDbEntity
  8
DIM
100
AcDbTrace
 10
85.4205408029
 20
64.9060199859
 30
0.0
 11
85.7955408029
 21
67.9060199859
 31
0.0
 12
85.0455408029
 22
67.9060199859
 32
0.0
 13
85.0455408029
 23
67.9060199859
 33
0.0
  0
LINE
  5
1D7
330
1D2
100
AcDbEntity
  8
DIM
100
AcDbLine
 10
139.7581890222
 20
90.3060199859
 30
0.0
 11
83.9205408029
 21
90.3060199859
 31
0.0
  0
LINE
  5
1D8
330
1D2
100
AcDbEntity
  8
DIM
100
AcDbLine
 10
130.6108890222
 20
64.9060199859
 30
0.0
 11
83.9205408029
 21
64.9060199859
 31
0.0
  0
LINE
  5
1D9
330
1D2
100
AcDbEntity
  8
DIM
100
AcDbLine
 10
85.4205408029
 20
90.3060199859
 30
0.0
 11
85.4205408029
 21
64.9060199859
 31
0.0
  0
MTEXT
  5
1DA
330
1D2
100
AcDbEntity
  8
DIM
100
AcDbMText
 10
80.5865370407
 20
72.5929992767
 30
0.0
 40
3.75
 41
0.0
 71
     1
 72
     1
  1
25.4
  7
SLDTEXTSTYLE0
 11
-7.044195017643634E-15
 21
1.0
 31
0.0
 73
     1
 44
1.0
  0
ENDBLK
  5
1D4
330
1D2
100
AcDbEntity
  8
0
100
AcDbBlockEnd
  0
BLOCK
  5
1DC
330
1DB
100
AcDbEntity
  8
0
100
AcDbBlockBegin
  2
SW_CENTERMARKSYMBOL_0
 70
     0
 10
0.0
 20
0.0
 30
0.0
  3
SW_CENTERMARKSYMBOL_0
  1

  0
LINE
  5
1DE
330
1DB
100
AcDbEntity
  8
DIM
 62
     0
100
AcDbLine
 10
0.0
 20
0.0
 30
0.0
 11
0.0
 21
1.0
 31
0.0
  0
LINE
  5
1DF
330
1DB
100
AcDbEntity
  8
DIM
 62
     0
100
AcDbLine
 10
0.0
 20
0.0
 30
0.0
 11
-1.0
 21
0.0
 31
0.0
  0
LINE
  5
1E0
330
1DB
100
AcDbEntity
  8
DIM
 62
     0
100
AcDbLine
 10
0.0
 20
0.0
 30
0.0
 11
0.0
 21
-1.0
 31
0.0
  0
LINE
  5
1E1
330
1DB
100
AcDbEntity
  8
DIM
 62
     0
100
AcDbLine
 10
0.0
 20
0.0
 30
0.0
 11
1.0
 21
0.0
 31
0.0
  0
LINE
  5
1E2
330
1DB
100
AcDbEntity
  8
DIM
 62
     0
100
AcDbLine
 10
0.0
 20
2.0
 30
0.0
 11
0.0
 21
3.5527
 31
0.0
  0
LINE
  5
1E3
330
1DB
100
AcDbEntity
  8
DIM
 62
     0
100
AcDbLine
 10
-2.0
 20
0.0
 30
0.0
 11
-3.5527
 21
0.0
 31
0.0
  0
LINE
  5
1E4
330
1DB
100
AcDbEntity
  8
DIM
 62
     0
100
AcDbLine
 10
0.0
 20
-2.0
 30
0.0
 11
0.0
 21
-3.5527
 31
0.0
  0
LINE
  5
1E5
330
1DB
100
AcDbEntity
  8
DIM
 62
     0
100
AcDbLine
 10
2.0
 20
0.0
 30
0.0
 11
3.5527
 21
0.0
 31
0.0
  0
ENDBLK
  5
1DD
330
1DB
100
AcDbEntity
  8
0
100
AcDbBlockEnd
  0
BLOCK
  5
1E8
330
1E7
100
AcDbEntity
  8
0
100
AcDbBlockBegin
  2
SW_CENTERMARKSYMBOL_1
 70
     0
 10
0.0
 20
0.0
 30
0.0
  3
SW_CENTERMARKSYMBOL_1
  1

  0
LINE
  5
1EA
330
1E7
100
AcDbEntity
  8
DIM
 62
     0
100
AcDbLine
 10
0.0
 20
0.0
 30
0.0
 11
0.0
 21
1.0
 31
0.0
  0
LINE
  5
1EB
330
1E7
100
AcDbEntity
  8
DIM
 62
     0
100
AcDbLine
 10
0.0
 20
0.0
 30
0.0
 11
-1.0
 21
0.0
 31
0.0
  0
LINE
  5
1EC
330
1E7
100
AcDbEntity
  8
DIM
 62
     0
100
AcDbLine
 10
0.0
 20
0.0
 30
0.0
 11
0.0
 21
-1.0
 31
0.0
  0
LINE
  5
1ED
330
1E7
100
AcDbEntity
  8
DIM
 62
     0
100
AcDbLine
 10
0.0
 20
0.0
 30
0.0
 11
1.0
 21
0.0
 31
0.0
  0
LINE
  5
1EE
330
1E7
100
AcDbEntity
  8
DIM
 62
     0
100
AcDbLine
 10
0.0
 20
2.0
 30
0.0
 11
0.0
 21
3.5527
 31
0.0
  0
LINE
  5
1EF
330
1E7
100
AcDbEntity
  8
DIM
 62
     0
100
AcDbLine
 10
-2.0
 20
0.0
 30
0.0
 11
-3.5527
 21
0.0
 31
0.0
  0
LINE
  5
1F0
330
1E7
100
AcDbEntity
  8
DIM
 62
     0
100
AcDbLine
 10
0.0
 20
-2.0
 30
0.0
 11
0.0
 21
-3.5527
 31
0.0
  0
LINE
  5
1F1
330
1E7
100
AcDbEntity
  8
DIM
 62
     0
100
AcDbLine
 10
2.0
 20
0.0
 30
0.0
 11
3.5527
 21
0.0
 31
0.0
  0
ENDBLK
  5
1E9
330
1E7
100
AcDbEntity
  8
0
100
AcDbBlockEnd
  0
BLOCK
  5
1F4
330
1F3
100
AcDbEntity
  8
0
100
AcDbBlockBegin
  2
SW_CENTERMARKSYMBOL_2
 70
     0
 10
0.0
 20
0.0
 30
0.0
  3
SW_CENTERMARKSYMBOL_2
  1

  0
LINE
  5
1F6
330
1F3
100
AcDbEntity
  8
DIM
 62
     0
100
AcDbLine
 10
0.0
 20
0.0
 30
0.0
 11
0.0
 21
1.0
 31
0.0
  0
LINE
  5
1F7
330
1F3
100
AcDbEntity
  8
DIM
 62
     0
100
AcDbLine
 10
0.0
 20
0.0
 30
0.0
 11
-1.0
 21
0.0
 31
0.0
  0
LINE
  5
1F8
330
1F3
100
AcDbEntity
  8
DIM
 62
     0
100
AcDbLine
 10
0.0
 20
0.0
 30
0.0
 11
0.0
 21
-1.0
 31
0.0
  0
LINE
  5
1F9
330
1F3
100
AcDbEntity
  8
DIM
 62
     0
100
AcDbLine
 10
0.0
 20
0.0
 30
0.0
 11
1.0
 21
0.0
 31
0.0
  0
LINE
  5
1FA
330
1F3
100
AcDbEntity
  8
DIM
 62
     0
100
AcDbLine
 10
0.0
 20
2.0
 30
0.0
 11
0.0
 21
3.5527
 31
0.0
  0
LINE
  5
1FB
330
1F3
100
AcDbEntity
  8
DIM
 62
     0
100
AcDbLine
 10
-2.0
 20
0.0
 30
0.0
 11
-3.5527
 21
0.0
 31
0.0
  0
LINE
  5
1FC
330
1F3
100
AcDbEntity
  8
DIM
 62
     0
100
AcDbLine
 10
0.0
 20
-2.0
 30
0.0
 11
0.0
 21
-3.5527
 31
0.0
  0
LINE
  5
1FD
330
1F3
100
AcDbEntity
  8
DIM
 62
     0
100
AcDbLine
 10
2.0
 20
0.0
 30
0.0
 11
3.5527
 21
0.0
 31
0.0
  0
ENDBLK
  5
1F5
330
1F3
100
AcDbEntity
  8
0
100
AcDbBlockEnd
  0
BLOCK
  5
200
330
1FF
100
AcDbEntity
  8
0
100
AcDbBlockBegin
  2
SW_CENTERMARKSYMBOL_3
 70
     0
 10
0.0
 20
0.0
 30
0.0
  3
SW_CENTERMARKSYMBOL_3
  1

  0
LINE
  5
202
330
1FF
100
AcDbEntity
  8
DIM
 62
     0
100
AcDbLine
 10
0.0
 20
0.0
 30
0.0
 11
0.0
 21
1.0
 31
0.0
  0
LINE
  5
203
330
1FF
100
AcDbEntity
  8
DIM
 62
     0
100
AcDbLine
 10
0.0
 20
0.0
 30
0.0
 11
-1.0
 21
0.0
 31
0.0
  0
LINE
  5
204
330
1FF
100
AcDbEntity
  8
DIM
 62
     0
100
AcDbLine
 10
0.0
 20
0.0
 30
0.0
 11
0.0
 21
-1.0
 31
0.0
  0
LINE
  5
205
330
1FF
100
AcDbEntity
  8
DIM
 62
     0
100
AcDbLine
 10
0.0
 20
0.0
 30
0.0
 11
1.0
 21
0.0
 31
0.0
  0
LINE
  5
206
330
1FF
100
AcDbEntity
  8
DIM
 62
     0
100
AcDbLine
 10
0.0
 20
2.0
 30
0.0
 11
0.0
 21
3.5527
 31
0.0
  0
LINE
  5
207
330
1FF
100
AcDbEntity
  8
DIM
 62
     0
100
AcDbLine
 10
-2.0
 20
0.0
 30
0.0
 11
-3.5527
 21
0.0
 31
0.0
  0
LINE
  5
208
330
1FF
100
AcDbEntity
  8
DIM
 62
     0
100
AcDbLine
 10
0.0
 20
-2.0
 30
0.0
 11
0.0
 21
-3.5527
 31
0.0
  0
LINE
  5
209
330
1FF
100
AcDbEntity
  8
DIM
 62
     0
100
AcDbLine
 10
2.0
 20
0.0
 30
0.0
 11
3.5527
 21
0.0
 31
0.0
  0
ENDBLK
  5
201
330
1FF
100
AcDbEntity
  8
0
100
AcDbBlockEnd
  0
BLOCK
  5
20C
330
20B
100
AcDbEntity
  8
0
100
AcDbBlockBegin
  2
SW_CENTERMARKSYMBOL_4
 70
     0
 10
0.0
 20
0.0
 30
0.0
  3
SW_CENTERMARKSYMBOL_4
  1

  0
LINE
  5
20E
330
20B
100
AcDbEntity
  8
DIM
 62
     0
100
AcDbLine
 10
0.0
 20
0.0
 30
0.0
 11
0.0
 21
1.0
 31
0.0
  0
LINE
  5
20F
330
20B
100
AcDbEntity
  8
DIM
 62
     0
100
AcDbLine
 10
0.0
 20
0.0
 30
0.0
 11
-1.0
 21
0.0
 31
0.0
  0
LINE
  5
210
330
20B
100
AcDbEntity
  8
DIM
 62
     0
100
AcDbLine
 10
0.0
 20
0.0
 30
0.0
 11
0.0
 21
-1.0
 31
0.0
  0
LINE
  5
211
330
20B
100
AcDbEntity
  8
DIM
 62
     0
100
AcDbLine
 10
0.0
 20
0.0
 30
0.0
 11
1.0
 21
0.0
 31
0.0
  0
LINE
  5
212
330
20B
100
AcDbEntity
  8
DIM
 62
     0
100
AcDbLine
 10
0.0
 20
2.0
 30
0.0
 11
0.0
 21
3.5527
 31
0.0
  0
LINE
  5
213
330
20B
100
AcDbEntity
  8
DIM
 62
     0
100
AcDbLine
 10
-2.0
 20
0.0
 30
0.0
 11
-3.5527
 21
0.0
 31
0.0
  0
LINE
  5
214
330
20B
100
AcDbEntity
  8
DIM
 62
     0
100
AcDbLine
 10
0.0
 20
-2.0
 30
0.0
 11
0.0
 21
-3.5527
 31
0.0
  0
LINE
  5
215
330
20B
100
AcDbEntity
  8
DIM
 62
     0
100
AcDbLine
 10
2.0
 20
0.0
 30
0.0
 11
3.5527
 21
0.0
 31
0.0
  0
ENDBLK
  5
20D
330
20B
100
AcDbEntity
  8
0
100
AcDbBlockEnd
  0
BLOCK
  5
218
330
217
100
AcDbEntity
  8
0
100
AcDbBlockBegin
  2
SW_CENTERMARKSYMBOL_5
 70
     0
 10
0.0
 20
0.0
 30
0.0
  3
SW_CENTERMARKSYMBOL_5
  1

  0
LINE
  5
21A
330
217
100
AcDbEntity
  8
DIM
 62
     0
100
AcDbLine
 10
0.0
 20
0.0
 30
0.0
 11
0.0
 21
1.0
 31
0.0
  0
LINE
  5
21B
330
217
100
AcDbEntity
  8
DIM
 62
     0
100
AcDbLine
 10
0.0
 20
0.0
 30
0.0
 11
-1.0
 21
0.0
 31
0.0
  0
LINE
  5
21C
330
217
100
AcDbEntity
  8
DIM
 62
     0
100
AcDbLine
 10
0.0
 20
0.0
 30
0.0
 11
0.0
 21
-1.0
 31
0.0
  0
LINE
  5
21D
330
217
100
AcDbEntity
  8
DIM
 62
     0
100
AcDbLine
 10
0.0
 20
0.0
 30
0.0
 11
1.0
 21
0.0
 31
0.0
  0
LINE
  5
21E
330
217
100
AcDbEntity
  8
DIM
 62
     0
100
AcDbLine
 10
0.0
 20
2.0
 30
0.0
 11
0.0
 21
3.5527
 31
0.0
  0
LINE
  5
21F
330
217
100
AcDbEntity
  8
DIM
 62
     0
100
AcDbLine
 10
-2.0
 20
0.0
 30
0.0
 11
-3.5527
 21
0.0
 31
0.0
  0
LINE
  5
220
330
217
100
AcDbEntity
  8
DIM
 62
     0
100
AcDbLine
 10
0.0
 20
-2.0
 30
0.0
 11
0.0
 21
-3.5527
 31
0.0
  0
LINE
  5
221
330
217
100
AcDbEntity
  8
DIM
 62
     0
100
AcDbLine
 10
2.0
 20
0.0
 30
0.0
 11
3.5527
 21
0.0
 31
0.0
  0
ENDBLK
  5
219
330
217
100
AcDbEntity
  8
0
100
AcDbBlockEnd
  0
BLOCK
  5
224
330
223
100
AcDbEntity
  8
0
100
AcDbBlockBegin
  2
SW_CENTERMARKSYMBOL_6
 70
     0
 10
0.0
 20
0.0
 30
0.0
  3
SW_CENTERMARKSYMBOL_6
  1

  0
LINE
  5
226
330
223
100
AcDbEntity
  8
DIM
 62
     0
100
AcDbLine
 10
0.0
 20
0.0
 30
0.0
 11
0.0
 21
1.0
 31
0.0
  0
LINE
  5
227
330
223
100
AcDbEntity
  8
DIM
 62
     0
100
AcDbLine
 10
0.0
 20
0.0
 30
0.0
 11
-1.0
 21
0.0
 31
0.0
  0
LINE
  5
228
330
223
100
AcDbEntity
  8
DIM
 62
     0
100
AcDbLine
 10
0.0
 20
0.0
 30
0.0
 11
0.0
 21
-1.0
 31
0.0
  0
LINE
  5
229
330
223
100
AcDbEntity
  8
DIM
 62
     0
100
AcDbLine
 10
0.0
 20
0.0
 30
0.0
 11
1.0
 21
0.0
 31
0.0
  0
LINE
  5
22A
330
223
100
AcDbEntity
  8
DIM
 62
     0
100
AcDbLine
 10
0.0
 20
2.0
 30
0.0
 11
0.0
 21
3.5527
 31
0.0
  0
LINE
  5
22B
330
223
100
AcDbEntity
  8
DIM
 62
     0
100
AcDbLine
 10
-2.0
 20
0.0
 30
0.0
 11
-3.5527
 21
0.0
 31
0.0
  0
LINE
  5
22C
330
223
100
AcDbEntity
  8
DIM
 62
     0
100
AcDbLine
 10
0.0
 20
-2.0
 30
0.0
 11
0.0
 21
-3.5527
 31
0.0
  0
LINE
  5
22D
330
223
100
AcDbEntity
  8
DIM
 62
     0
100
AcDbLine
 10
2.0
 20
0.0
 30
0.0
 11
3.5527
 21
0.0
 31
0.0
  0
ENDBLK
  5
225
330
223
100
AcDbEntity
  8
0
100
AcDbBlockEnd
  0
BLOCK
  5
230
330
22F
100
AcDbEntity
  8
0
100
AcDbBlockBegin
  2
SW_CENTERMARKSYMBOL_7
 70
     0
 10
0.0
 20
0.0
 30
0.0
  3
SW_CENTERMARKSYMBOL_7
  1

  0
LINE
  5
232
330
22F
100
AcDbEntity
  8
DIM
 62
     0
100
AcDbLine
 10
0.0
 20
0.0
 30
0.0
 11
0.0
 21
1.0
 31
0.0
  0
LINE
  5
233
330
22F
100
AcDbEntity
  8
DIM
 62
     0
100
AcDbLine
 10
0.0
 20
0.0
 30
0.0
 11
-1.0
 21
0.0
 31
0.0
  0
LINE
  5
234
330
22F
100
AcDbEntity
  8
DIM
 62
     0
100
AcDbLine
 10
0.0
 20
0.0
 30
0.0
 11
0.0
 21
-1.0
 31
0.0
  0
LINE
  5
235
330
22F
100
AcDbEntity
  8
DIM
 62
     0
100
AcDbLine
 10
0.0
 20
0.0
 30
0.0
 11
1.0
 21
0.0
 31
0.0
  0
LINE
  5
236
330
22F
100
AcDbEntity
  8
DIM
 62
     0
100
AcDbLine
 10
0.0
 20
2.0
 30
0.0
 11
0.0
 21
3.5527
 31
0.0
  0
LINE
  5
237
330
22F
100
AcDbEntity
  8
DIM
 62
     0
100
AcDbLine
 10
-2.0
 20
0.0
 30
0.0
 11
-3.5527
 21
0.0
 31
0.0
  0
LINE
  5
238
330
22F
100
AcDbEntity
  8
DIM
 62
     0
100
AcDbLine
 10
0.0
 20
-2.0
 30
0.0
 11
0.0
 21
-3.5527
 31
0.0
  0
LINE
  5
239
330
22F
100
AcDbEntity
  8
DIM
 62
     0
100
AcDbLine
 10
2.0
 20
0.0
 30
0.0
 11
3.5527
 21
0.0
 31
0.0
  0
ENDBLK
  5
231
330
22F
100
AcDbEntity
  8
0
100
AcDbBlockEnd
  0
BLOCK
  5
23C
330
23B
100
AcDbEntity
  8
0
100
AcDbBlockBegin
  2
SW_CENTERMARKSYMBOL_8
 70
     0
 10
0.0
 20
0.0
 30
0.0
  3
SW_CENTERMARKSYMBOL_8
  1

  0
LINE
  5
23E
330
23B
100
AcDbEntity
  8
DIM
 62
     0
100
AcDbLine
 10
0.0
 20
0.0
 30
0.0
 11
0.0
 21
1.0
 31
0.0
  0
LINE
  5
23F
330
23B
100
AcDbEntity
  8
DIM
 62
     0
100
AcDbLine
 10
0.0
 20
0.0
 30
0.0
 11
-1.0
 21
0.0
 31
0.0
  0
LINE
  5
240
330
23B
100
AcDbEntity
  8
DIM
 62
     0
100
AcDbLine
 10
0.0
 20
0.0
 30
0.0
 11
0.0
 21
-1.0
 31
0.0
  0
LINE
  5
241
330
23B
100
AcDbEntity
  8
DIM
 62
     0
100
AcDbLine
 10
0.0
 20
0.0
 30
0.0
 11
1.0
 21
0.0
 31
0.0
  0
LINE
  5
242
330
23B
100
AcDbEntity
  8
DIM
 62
     0
100
AcDbLine
 10
0.0
 20
2.0
 30
0.0
 11
0.0
 21
3.5527
 31
0.0
  0
LINE
  5
243
330
23B
100
AcDbEntity
  8
DIM
 62
     0
100
AcDbLine
 10
-2.0
 20
0.0
 30
0.0
 11
-3.5527
 21
0.0
 31
0.0
  0
LINE
  5
244
330
23B
100
AcDbEntity
  8
DIM
 62
     0
100
AcDbLine
 10
0.0
 20
-2.0
 30
0.0
 11
0.0
 21
-3.5527
 31
0.0
  0
LINE
  5
245
330
23B
100
AcDbEntity
  8
DIM
 62
     0
100
AcDbLine
 10
2.0
 20
0.0
 30
0.0
 11
3.5527
 21
0.0
 31
0.0
  0
ENDBLK
  5
23D
330
23B
100
AcDbEntity
  8
0
100
AcDbBlockEnd
  0
BLOCK
  5
316
330
315
100
AcDbEntity
  8
0
100
AcDbBlockBegin
  2
_D_8
 70
     0
 10
0.0
 20
0.0
 30
0.0
  3
_D_8
  1

  0
SOLID
  5
318
330
315
100
AcDbEntity
  8
DIM
 62
     7
100
AcDbTrace
 10
104.3108890222
 20
262.6618478199
 30
0.0
 11
107.3108890222
 21
262.2868478199
 31
0.0
 12
107.3108890222
 22
263.0368478199
 32
0.0
 13
107.3108890222
 23
263.0368478199
 33
0.0
  0
SOLID
  5
319
330
315
100
AcDbEntity
  8
DIM
 62
     7
100
AcDbTrace
 10
185.3108890222
 20
262.6618478199
 30
0.0
 11
182.3108890222
 21
263.0368478199
 31
0.0
 12
182.3108890222
 22
262.2868478199
 32
0.0
 13
182.3108890222
 23
262.2868478199
 33
0.0
  0
LINE
  5
31A
330
315
100
AcDbEntity
  8
DIM
 62
     7
100
AcDbLine
 10
104.3108890222
 20
249.8059301474
 30
0.0
 11
104.3108890222
 21
264.1618478199
 31
0.0
  0
LINE
  5
31B
330
315
100
AcDbEntity
  8
DIM
 62
     7
100
AcDbLine
 10
185.3108890222
 20
249.8059301474
 30
0.0
 11
185.3108890222
 21
264.1618478199
 31
0.0
  0
LINE
  5
31C
330
315
100
AcDbEntity
  8
DIM
 62
     7
100
AcDbLine
 10
104.3108890222
 20
262.6618478199
 30
0.0
 11
185.3108890222
 21
262.6618478199
 31
0.0
  0
MTEXT
  5
31D
330
315
100
AcDbEntity
  8
DIM
 62
     7
100
AcDbMText
 10
141.946305685
 20
267.4958515821
 30
0.0
 40
3.75
 41
0.0
 71
     1
 72
     1
  1
81
  7
SLDTEXTSTYLE0
 73
     1
 44
1.0
  0
ENDBLK
  5
317
330
315
100
AcDbEntity
  8
0
100
AcDbBlockEnd
  0
BLOCK
  5
320
330
31F
100
AcDbEntity
  8
0
100
AcDbBlockBegin
  2
_D_9
 70
     0
 10
0.0
 20
0.0
 30
0.0
  3
_D_9
  1

  0
SOLID
  5
322
330
31F
100
AcDbEntity
  8
DIM
 62
     7
100
AcDbTrace
 10
198.854223008
 20
240.7059301474
 30
0.0
 11
198.479223008
 21
237.7059301474
 31
0.0
 12
199.229223008
 22
237.7059301474
 32
0.0
 13
199.229223008
 23
237.7059301474
 33
0.0
  0
SOLID
  5
323
330
31F
100
AcDbEntity
  8
DIM
 62
     7
100
AcDbTrace
 10
198.854223008
 20
173.7059301474
 30
0.0
 11
199.229223008
 21
176.7059301474
 31
0.0
 12
198.479223008
 22
176.7059301474
 32
0.0
 13
198.479223008
 23
176.7059301474
 33
0.0
  0
LINE
  5
324
330
31F
100
AcDbEntity
  8
DIM
 62
     7
100
AcDbLine
 10
157.8108890222
 20
240.7059301474
 30
0.0
 11
200.354223008
 21
240.7059301474
 31
0.0
  0
LINE
  5
325
330
31F
100
AcDbEntity
  8
DIM
 62
     7
100
AcDbLine
 10
165.3108890222
 20
173.7059301474
 30
0.0
 11
200.354223008
 21
173.7059301474
 31
0.0
  0
LINE
  5
326
330
31F
100
AcDbEntity
  8
DIM
 62
     7
100
AcDbLine
 10
198.854223008
 20
240.7059301474
 30
0.0
 11
198.854223008
 21
173.7059301474
 31
0.0
  0
MTEXT
  5
327
330
31F
100
AcDbEntity
  8
DIM
 62
     7
100
AcDbMText
 10
194.0202192458
 20
204.3413468102
 30
0.0
 40
3.75
 41
0.0
 71
     1
 72
     1
  1
67
  7
SLDTEXTSTYLE0
 11
-7.044195017643634E-15
 21
1.0
 31
0.0
 73
     1
 44
1.0
  0
ENDBLK
  5
321
330
31F
100
AcDbEntity
  8
0
100
AcDbBlockEnd
  0
BLOCK
  5
32A
330
329
100
AcDbEntity
  8
0
100
AcDbBlockBegin
  2
_D_10
 70
     0
 10
0.0
 20
0.0
 30
0.0
  3
_D_10
  1

  0
SOLID
  5
32C
330
329
100
AcDbEntity
  8
DIM
 62
     7
100
AcDbTrace
 10
188.7108890222
 20
202.2059301474
 30
0.0
 11
188.3358890222
 21
199.2059301474
 31
0.0
 12
189.0858890222
 22
199.2059301474
 32
0.0
 13
189.0858890222
 23
199.2059301474
 33
0.0
  0
SOLID
  5
32D
330
329
100
AcDbEntity
  8
DIM
 62
     7
100
AcDbTrace
 10
188.7108890222
 20
173.7059301474
 30
0.0
 11
189.0858890222
 21
176.7059301474
 31
0.0
 12
188.3358890222
 22
176.7059301474
 32
0.0
 13
188.3358890222
 23
176.7059301474
 33
0.0
  0
LINE
  5
32E
330
329
100
AcDbEntity
  8
DIM
 62
     7
100
AcDbLine
 10
146.3108890222
 20
202.2059301474
 30
0.0
 11
190.2108890222
 21
202.2059301474
 31
0.0
  0
LINE
  5
32F
330
329
100
AcDbEntity
  8
DIM
 62
     7
100
AcDbLine
 10
165.3108890222
 20
173.7059301474
 30
0.0
 11
190.2108890222
 21
173.7059301474
 31
0.0
  0
LINE
  5
330
330
329
100
AcDbEntity
  8
DIM
 62
     7
100
AcDbLine
 10
188.7108890222
 20
202.2059301474
 30
0.0
 11
188.7108890222
 21
173.7059301474
 31
0.0
  0
MTEXT
  5
331
330
329
100
AcDbEntity
  8
DIM
 62
     7
100
AcDbMText
 10
183.87688526
 20
182.9429094382
 30
0.0
 40
3.75
 41
0.0
 71
     1
 72
     1
  1
28.5
  7
SLDTEXTSTYLE0
 11
-7.044195017643634E-15
 21
1.0
 31
0.0
 73
     1
 44
1.0
  0
ENDBLK
  5
32B
330
329
100
AcDbEntity
  8
0
100
AcDbBlockEnd
  0
BLOCK
  5
335
330
334
100
AcDbEntity
  8
0
100
AcDbBlockBegin
  2
_D_11
 70
     0
 10
0.0
 20
0.0
 30
0.0
  3
_D_11
  1

  0
SOLID
  5
337
330
334
100
AcDbEntity
  8
DIM
 62
     7
100
AcDbTrace
 10
128.1536219485
 20
211.4491954597
 30
0.0
 11
125.7123843249
 21
213.2327267505
 31
0.0
 12
125.3484762417
 22
212.5769288342
 32
0.0
 13
125.3484762417
 23
212.5769288342
 33
0.0
  0
LINE
  5
338
330
334
100
AcDbEntity
  8
DIM
 62
     7
100
AcDbLine
 10
128.1536219485
 20
211.4491954597
 30
0.0
 11
95.0815367489
 21
229.8011890115
 31
0.0
  0
LINE
  5
339
330
334
100
AcDbEntity
  8
DIM
 62
     7
100
AcDbLine
 10
95.0815367489
 20
229.8011890115
 30
0.0
 11
77.7130469471
 21
229.8011890115
 31
0.0
  0
MTEXT
  5
33A
330
334
100
AcDbEntity
  8
DIM
 62
     7
100
AcDbMText
 10
77.7130469471
 20
234.6351926864
 30
0.0
 40
3.75
 41
0.0
 71
     1
 72
     1
  1
%%c
  7
SLDTEXTSTYLE0
 73
     1
 44
1.0
  0
MTEXT
  5
33B
330
334
100
AcDbEntity
  8
DIM
 62
     7
100
AcDbMText
 10
83.1804949814
 20
234.6456093839
 30
0.0
 40
3.75
 41
0.0
 71
     1
 72
     1
  1
38.1
  7
SLDTEXTSTYLE0
 73
     1
 44
1.0
  0
ENDBLK
  5
336
330
334
100
AcDbEntity
  8
0
100
AcDbBlockEnd
  0
BLOCK
  5
33E
330
33D
100
AcDbEntity
  8
0
100
AcDbBlockBegin
  2
_D_12
 70
     0
 10
0.0
 20
0.0
 30
0.0
  3
_D_12
  1

  0
SOLID
  5
340
330
33D
100
AcDbEntity
  8
DIM
 62
     7
100
AcDbTrace
 10
125.8108890222
 20
163.2170353767
 30
0.0
 11
128.8108890222
 21
162.8420353767
 31
0.0
 12
128.8108890222
 22
163.5920353767
 32
0.0
 13
128.8108890222
 23
163.5920353767
 33
0.0
  0
SOLID
  5
341
330
33D
100
AcDbEntity
  8
DIM
 62
     7
100
AcDbTrace
 10
163.8108890222
 20
163.2170353767
 30
0.0
 11
160.8108890222
 21
163.5920353767
 31
0.0
 12
160.8108890222
 22
162.8420353767
 32
0.0
 13
160.8108890222
 23
162.8420353767
 33
0.0
  0
LINE
  5
342
330
33D
100
AcDbEntity
  8
DIM
 62
     7
100
AcDbLine
 10
125.8108890222
 20
172.2059301474
 30
0.0
 11
125.8108890222
 21
161.7170353767
 31
0.0
  0
LINE
  5
343
330
33D
100
AcDbEntity
  8
DIM
 62
     7
100
AcDbLine
 10
163.8108890222
 20
172.2059301474
 30
0.0
 11
163.8108890222
 21
161.7170353767
 31
0.0
  0
LINE
  5
344
330
33D
100
AcDbEntity
  8
DIM
 62
     7
100
AcDbLine
 10
125.8108890222
 20
163.2170353767
 30
0.0
 11
163.8108890222
 21
163.2170353767
 31
0.0
  0
MTEXT
  5
345
330
33D
100
AcDbEntity
  8
DIM
 62
     7
100
AcDbMText
 10
141.946305685
 20
168.0510391389
 30
0.0
 40
3.75
 41
0.0
 71
     1
 72
     1
  1
38
  7
SLDTEXTSTYLE0
 73
     1
 44
1.0
  0
ENDBLK
  5
33F
330
33D
100
AcDbEntity
  8
0
100
AcDbBlockEnd
  0
BLOCK
  5
349
330
348
100
AcDbEntity
  8
0
100
AcDbBlockBegin
  2
_D_13
 70
     0
 10
0.0
 20
0.0
 30
0.0
  3
_D_13
  1

  0
SOLID
  5
34B
330
348
100
AcDbEntity
  8
DIM
100
AcDbTrace
 10
207.9345331813
 20
173.7059301474
 30
0.0
 11
208.3095331813
 21
176.7059301474
 31
0.0
 12
207.5595331813
 22
176.7059301474
 32
0.0
 13
207.5595331813
 23
176.7059301474
 33
0.0
  0
SOLID
  5
34C
330
348
100
AcDbEntity
  8
DIM
100
AcDbTrace
 10
207.9345331813
 20
254.3059301474
 30
0.0
 11
207.5595331813
 21
251.3059301474
 31
0.0
 12
208.3095331813
 22
251.3059301474
 32
0.0
 13
208.3095331813
 23
251.3059301474
 33
0.0
  0
LINE
  5
34D
330
348
100
AcDbEntity
  8
DIM
100
AcDbLine
 10
165.3108890222
 20
173.7059301474
 30
0.0
 11
209.4345331813
 21
173.7059301474
 31
0.0
  0
LINE
  5
34E
330
348
100
AcDbEntity
  8
DIM
100
AcDbLine
 10
183.8108890222
 20
254.3059301474
 30
0.0
 11
209.4345331813
 21
254.3059301474
 31
0.0
  0
LINE
  5
34F
330
348
100
AcDbEntity
  8
DIM
100
AcDbLine
 10
207.9345331813
 20
173.7059301474
 30
0.0
 11
207.9345331813
 21
254.3059301474
 31
0.0
  0
MTEXT
  5
350
330
348
100
AcDbEntity
  8
DIM
100
AcDbMText
 10
203.100529419
 20
211.1413468102
 30
0.0
 40
3.75
 41
0.0
 71
     1
 72
     1
  1
81
  7
SLDTEXTSTYLE0
 11
2.832769448823990E-16
 21
1.0
 31
0.0
 73
     1
 44
1.0
  0
ENDBLK
  5
34A
330
348
100
AcDbEntity
  8
0
100
AcDbBlockEnd
  0
BLOCK
  5
352
330
351
100
AcDbEntity
  8
0
100
AcDbBlockBegin
  2
SW_CENTERMARKSYMBOL_9
 70
     0
 10
0.0
 20
0.0
 30
0.0
  3
SW_CENTERMARKSYMBOL_9
  1

  0
LINE
  5
354
330
351
100
AcDbEntity
  8
DIM
 62
     0
100
AcDbLine
 10
0.0
 20
0.0
 30
0.0
 11
0.0
 21
1.0
 31
0.0
  0
LINE
  5
355
330
351
100
AcDbEntity
  8
DIM
 62
     0
100
AcDbLine
 10
0.0
 20
0.0
 30
0.0
 11
-1.0
 21
0.0
 31
0.0
  0
LINE
  5
356
330
351
100
AcDbEntity
  8
DIM
 62
     0
100
AcDbLine
 10
0.0
 20
0.0
 30
0.0
 11
0.0
 21
-1.0
 31
0.0
  0
LINE
  5
357
330
351
100
AcDbEntity
  8
DIM
 62
     0
100
AcDbLine
 10
0.0
 20
0.0
 30
0.0
 11
1.0
 21
0.0
 31
0.0
  0
LINE
  5
358
330
351
100
AcDbEntity
  8
DIM
 62
     0
100
AcDbLine
 10
0.0
 20
2.0
 30
0.0
 11
0.0
 21
26.0
 31
0.0
  0
LINE
  5
359
330
351
100
AcDbEntity
  8
DIM
 62
     0
100
AcDbLine
 10
-2.0
 20
0.0
 30
0.0
 11
-26.0
 21
0.0
 31
0.0
  0
LINE
  5
35A
330
351
100
AcDbEntity
  8
DIM
 62
     0
100
AcDbLine
 10
0.0
 20
-2.0
 30
0.0
 11
0.0
 21
-26.0
 31
0.0
  0
LINE
  5
35B
330
351
100
AcDbEntity
  8
DIM
 62
     0
100
AcDbLine
 10
2.0
 20
0.0
 30
0.0
 11
26.0
 21
0.0
 31
0.0
  0
ENDBLK
  5
353
330
351
100
AcDbEntity
  8
0
100
AcDbBlockEnd
  0
ENDSEC
  0
SECTION
  2
ENTITIES
  0
HATCH
  5
7A
330
1F
100
AcDbEntity
  8
DIM
 62
     7
100
AcDbHatch
 10
0.0
 20
0.0
 30
0.0
210
0.0
220
0.0
230
1.0
  2
SOLID
 70
     1
 71
     0
 91
        1
 92
        0
 93
       10
 72
     2
 10
288.3225605267567
 20
53.13021510614322
 40
4.568627093596871
 50
249.211220914341
 51
308.9221353953368
 73
     1
 72
     1
 10
291.1928629686086
 20
49.57582100691241
 11
292.6400924604342
 21
48.30489083144889
 72
     1
 10
292.6400924604342
 20
48.30489083144889
 11
287.8248825007006
 21
43.62933126230528
 72
     1
 10
287.8248825007006
 20
43.62933126230528
 11
286.4136818174596
 21
44.84432686747028
 72
     1
 10
286.4136818174596
 20
44.84432686747028
 11
287.3602596980823
 21
45.76817745317682
 72
     1
 10
287.3602596980823
 20
45.76817745317682
 11
281.3464562327889
 21
50.99508321358884
 72
     2
 10
282.8688683770999
 20
52.71642377722961
 40
2.297988701708712
 50
131.4906380929584
 51
229.7089352075136
 73
     0
 72
     1
 10
281.3828261058267
 20
54.46925874982968
 11
283.3427684881492
 21
56.36163936459095
 72
     1
 10
283.3427684881492
 20
56.36163936459095
 11
284.8655592592529
 21
55.01834151336427
 72
     2
 10
287.8254647143119
 20
52.54725248227209
 40
3.855816554566925
 50
140.1430462780654
 51
253.0452525074006
 73
     1
 97
        0
 75
     0
 76
     1
 98
        1
 10
0.0
 20
0.0
  0
HATCH
  5
7B
330
1F
100
AcDbEntity
  8
DIM
 62
     1
100
AcDbHatch
 10
0.0
 20
0.0
 30
0.0
210
0.0
220
0.0
230
1.0
  2
SOLID
 70
     1
 71
     0
 91
        1
 92
        0
 93
       10
 72
     2
 10
288.5223086852026
 20
51.99891564809016
 40
4.772455056791806
 50
234.1674444878509
 51
314.4407074583988
 73
     0
 72
     2
 10
288.9987931212893
 20
52.81014835630742
 40
3.866351232519375
 50
317.8184992995779
 51
398.0564711573086
 73
     0
 72
     1
 10
292.0431718858604
 20
50.42678313229496
 11
293.5213452253347
 21
49.13873772246072
 72
     1
 10
293.5213452253347
 20
49.13873772246072
 11
295.3838671975253
 21
50.94538713607155
 72
     2
 10
294.0437787090322
 20
52.78730723380295
 40
2.277829406127398
 50
306.0377529468133
 51
403.4396461533867
 73
     1
 72
     1
 10
295.6977085060406
 20
54.35352019186015
 11
289.5075747185256
 21
59.73728459481109
 72
     1
 10
289.5075747185256
 20
59.73728459481109
 11
290.4439516714165
 21
60.65087224106706
 72
     1
 10
290.4439516714165
 20
60.65087224106706
 11
289.0481919061405
 21
61.89616057083387
 72
     1
 10
289.0481919061405
 20
61.89616057083387
 11
284.1948137335257
 21
57.20578020091271
 72
     1
 10
284.1948137335257
 20
57.20578020091271
 11
285.7284255495485
 21
55.86809441023151
 97
        0
 75
     0
 76
     1
 98
        1
 10
0.0
 20
0.0
  0
LINE
  5
7C
330
1F
100
AcDbEntity
  8
0
  6
Continuous
 62
     7
370
     0
100
AcDbLine
 10
251.7890662777
 20
26.6617788769
 30
0.0
 11
253.2890662777
 21
26.6617788769
 31
0.0
  0
LINE
  5
7D
330
1F
100
AcDbEntity
  8
0
  6
Continuous
 62
     7
370
     0
100
AcDbLine
 10
247.2890662777
 20
26.6617788769
 30
0.0
 11
251.0390662777
 21
26.6617788769
 31
0.0
  0
LINE
  5
7E
330
1F
100
AcDbEntity
  8
0
  6
Continuous
 62
     7
370
     0
100
AcDbLine
 10
272.0390662777
 20
22.9117788769
 30
0.0
 11
272.0390662777
 21
30.4117788769
 31
0.0
  0
LINE
  5
7F
330
1F
100
AcDbEntity
  8
0
  6
Continuous
 62
     7
370
     0
100
AcDbLine
 10
261.5390662777
 20
24.4117788769
 30
0.0
 11
272.0390662777
 21
22.9117788769
 31
0.0
  0
LINE
  5
80
330
1F
100
AcDbEntity
  8
0
  6
Continuous
 62
     7
370
     0
100
AcDbLine
 10
252.5390662777
 20
25.1617788769
 30
0.0
 11
252.5390662777
 21
21.4117788769
 31
0.0
  0
LINE
  5
81
330
1F
100
AcDbEntity
  8
0
  6
Continuous
 62
     7
370
     0
100
AcDbLine
 10
272.0390662777
 20
30.4117788769
 30
0.0
 11
261.5390662777
 21
28.9117788769
 31
0.0
  0
LINE
  5
82
330
1F
100
AcDbEntity
  8
0
  6
Continuous
 62
     7
370
     0
100
AcDbLine
 10
260.0390662777
 20
26.6617788769
 30
0.0
 11
273.5390662777
 21
26.6617788769
 31
0.0
  0
LINE
  5
83
330
1F
100
AcDbEntity
  8
0
  6
Continuous
 62
     7
370
     0
100
AcDbLine
 10
252.5390662777
 20
27.4117788769
 30
0.0
 11
252.5390662777
 21
25.9117788769
 31
0.0
  0
LINE
  5
84
330
1F
100
AcDbEntity
  8
0
  6
Continuous
 62
     7
370
     0
100
AcDbLine
 10
254.0390662777
 20
26.6617788769
 30
0.0
 11
257.7890662777
 21
26.6617788769
 31
0.0
  0
LINE
  5
85
330
1F
100
AcDbEntity
  8
0
  6
Continuous
 62
     7
370
     0
100
AcDbLine
 10
252.5390662777
 20
31.9117788769
 30
0.0
 11
252.5390662777
 21
28.1617788769
 31
0.0
  0
LINE
  5
86
330
1F
100
AcDbEntity
  8
0
  6
Continuous
 62
     7
370
     0
100
AcDbLine
 10
261.5390662777
 20
28.9117788769
 30
0.0
 11
261.5390662777
 21
24.4117788769
 31
0.0
  0
LINE
  5
87
330
1F
100
AcDbEntity
  8
0
370
     0
100
AcDbLine
 10
292.6400924604
 20
48.3048908314
 30
0.0
 11
287.8248825007
 21
43.6293312623
 31
0.0
  0
LINE
  5
88
330
1F
100
AcDbEntity
  8
0
370
     0
100
AcDbLine
 10
287.8248825007
 20
43.6293312623
 30
0.0
 11
286.4136818175
 21
44.8443268675
 31
0.0
  0
LINE
  5
89
330
1F
100
AcDbEntity
  8
0
370
     0
100
AcDbLine
 10
286.4136818175
 20
44.8443268675
 30
0.0
 11
287.3602596981
 21
45.7681774532
 31
0.0
  0
LINE
  5
8A
330
1F
100
AcDbEntity
  8
0
370
     0
100
AcDbLine
 10
281.3464562328
 20
50.9950832136
 30
0.0
 11
287.3602596981
 21
45.7681774532
 31
0.0
  0
LINE
  5
8B
330
1F
100
AcDbEntity
  8
0
370
     0
100
AcDbLine
 10
283.3427684881
 20
56.3616393646
 30
0.0
 11
281.3828261058
 21
54.4692587498
 31
0.0
  0
LINE
  5
8C
330
1F
100
AcDbEntity
  8
0
370
     0
100
AcDbLine
 10
283.3427684881
 20
56.3616393646
 30
0.0
 11
284.8655592593
 21
55.0183415134
 31
0.0
  0
LINE
  5
8D
330
1F
100
AcDbEntity
  8
0
370
     0
100
AcDbLine
 10
291.1928629686
 20
49.5758210069
 30
0.0
 11
292.6400924604
 21
48.3048908314
 31
0.0
  0
LINE
  5
8E
330
1F
100
AcDbEntity
  8
0
 62
     1
370
     0
100
AcDbLine
 10
285.7284255495
 20
55.8680944102
 30
0.0
 11
284.1948137335
 21
57.2057802009
 31
0.0
  0
LINE
  5
8F
330
1F
100
AcDbEntity
  8
0
 62
     1
370
     0
100
AcDbLine
 10
284.1948137335
 20
57.2057802009
 30
0.0
 11
289.0481919061
 21
61.8961605708
 31
0.0
  0
LINE
  5
90
330
1F
100
AcDbEntity
  8
0
 62
     1
370
     0
100
AcDbLine
 10
289.0481919061
 20
61.8961605708
 30
0.0
 11
290.4439516714
 21
60.6508722411
 31
0.0
  0
LINE
  5
91
330
1F
100
AcDbEntity
  8
0
 62
     1
370
     0
100
AcDbLine
 10
290.4439516714
 20
60.6508722411
 30
0.0
 11
289.5075747185
 21
59.7372845948
 31
0.0
  0
LINE
  5
92
330
1F
100
AcDbEntity
  8
0
 62
     1
370
     0
100
AcDbLine
 10
289.5075747185
 20
59.7372845948
 30
0.0
 11
295.697708506
 21
54.3535201919
 31
0.0
  0
LINE
  5
93
330
1F
100
AcDbEntity
  8
0
 62
     1
370
     0
100
AcDbLine
 10
292.0431718859
 20
50.4267831323
 30
0.0
 11
293.5213452253
 21
49.1387377225
 31
0.0
  0
LINE
  5
94
330
1F
100
AcDbEntity
  8
0
 62
     1
370
     0
100
AcDbLine
 10
293.5213452253
 20
49.1387377225
 30
0.0
 11
295.3838671975
 21
50.9453871361
 31
0.0
  0
LINE
  5
95
330
1F
100
AcDbEntity
  8
0
  6
Continuous
 62
     7
370
     0
100
AcDbLine
 10
278.5361947814
 20
19.6728696119
 30
0.0
 11
428.5361947814
 21
19.6728696119
 31
0.0
  0
LINE
  5
96
330
1F
100
AcDbEntity
  8
0
  6
Continuous
 62
     7
370
     0
100
AcDbLine
 10
278.5361947814
 20
27.1728696119
 30
0.0
 11
353.5361947814
 21
27.1728696119
 31
0.0
  0
LINE
  5
97
330
1F
100
AcDbEntity
  8
0
  6
Continuous
 62
     7
370
     0
100
AcDbLine
 10
278.5361947814
 20
34.6728696119
 30
0.0
 11
353.5361947814
 21
34.6728696119
 31
0.0
  0
LINE
  5
98
330
1F
100
AcDbEntity
  8
0
  6
Continuous
 62
     7
370
     0
100
AcDbLine
 10
278.5361947814
 20
42.1728696119
 30
0.0
 11
428.5361947814
 21
42.1728696119
 31
0.0
  0
LINE
  5
99
330
1F
100
AcDbEntity
  8
0
  6
Continuous
 62
     7
370
     0
100
AcDbLine
 10
353.5361947814
 20
49.6728696119
 30
0.0
 11
428.5361947814
 21
49.6728696119
 31
0.0
  0
LINE
  5
9A
330
1F
100
AcDbEntity
  8
0
  6
Continuous
 62
     7
370
    15
100
AcDbLine
 10
353.5361947814
 20
27.1728696119
 30
0.0
 11
428.5361947814
 21
27.1728696119
 31
0.0
  0
LINE
  5
9B
330
1F
100
AcDbEntity
  8
0
  6
Continuous
 62
     7
370
     0
100
AcDbLine
 10
278.5801967253
 20
64.6728696119
 30
0.0
 11
428.5361947814
 21
64.6728696119
 31
0.0
  0
LINE
  5
9C
330
1F
100
AcDbEntity
  8
0
  6
Continuous
 62
     7
370
     0
100
AcDbLine
 10
376.8558265126
 20
12.1728696119
 30
0.0
 11
376.8558265126
 21
27.1728696119
 31
0.0
  0
LINE
  5
9D
330
1F
100
AcDbEntity
  8
0
  6
Continuous
 62
     7
370
     0
100
AcDbLine
 10
353.5361947814
 20
12.1728696119
 30
0.0
 11
353.5361947814
 21
64.6728696119
 31
0.0
  0
LINE
  5
9E
330
1F
100
AcDbEntity
  8
0
  6
Continuous
 62
     7
370
     0
100
AcDbLine
 10
376.8558265126
 20
42.1728696119
 30
0.0
 11
376.8558265126
 21
49.6728696119
 31
0.0
  0
LINE
  5
9F
330
1F
100
AcDbEntity
  8
0
  6
Continuous
 62
     7
370
     0
100
AcDbLine
 10
321.624612953
 20
12.1728696119
 30
0.0
 11
321.624612953
 21
42.1728696119
 31
0.0
  0
LINE
  5
A0
330
1F
100
AcDbEntity
  8
0
  6
Continuous
 62
     7
370
     0
100
AcDbLine
 10
299.6678831259
 20
12.1728696119
 30
0.0
 11
299.6678831259
 21
42.1728696119
 31
0.0
  0
LINE
  5
A1
330
1F
100
AcDbEntity
  8
0
  6
Continuous
 62
     7
370
     0
100
AcDbLine
 10
278.5801967253
 20
12.1728696119
 30
0.0
 11
278.5801967253
 21
64.6728696119
 31
0.0
  0
LINE
  5
A2
330
1F
100
AcDbEntity
  8
0
  6
Continuous
 62
     7
370
    15
100
AcDbLine
 10
13.0361947814
 20
157.1154554872
 30
0.0
 11
22.0361947814
 21
157.1154554872
 31
0.0
  0
LINE
  5
A3
330
1F
100
AcDbEntity
  8
0
  6
Continuous
 62
     7
370
    15
100
AcDbLine
 10
428.5361947814
 20
157.1154554872
 30
0.0
 11
419.5361947814
 21
157.1154554872
 31
0.0
  0
LINE
  5
A4
330
1F
100
AcDbEntity
  8
0
  6
Continuous
 62
     7
370
    15
100
AcDbLine
 10
220.7861947814
 20
12.1728696119
 30
0.0
 11
220.7861947814
 21
21.1728696119
 31
0.0
  0
LINE
  5
A5
330
1F
100
AcDbEntity
  8
0
  6
Continuous
 62
     7
370
    15
100
AcDbLine
 10
220.7861947814
 20
302.0580413626
 30
0.0
 11
220.7861947814
 21
293.0580413626
 31
0.0
  0
LINE
  5
A6
330
1F
100
AcDbEntity
  8
0
  6
Continuous
 62
     7
370
    15
100
AcDbLine
 10
64.9811947814
 20
302.0580413626
 30
0.0
 11
64.9811947814
 21
304.3080413626
 31
0.0
  0
LINE
  5
A7
330
1F
100
AcDbEntity
  8
0
  6
Continuous
 62
     7
370
    15
100
AcDbLine
 10
116.9261947814
 20
302.0580413626
 30
0.0
 11
116.9261947814
 21
304.3080413626
 31
0.0
  0
LINE
  5
A8
330
1F
100
AcDbEntity
  8
0
  6
Continuous
 62
     7
370
    15
100
AcDbLine
 10
168.8711947814
 20
302.0580413626
 30
0.0
 11
168.8711947814
 21
304.3080413626
 31
0.0
  0
LINE
  5
A9
330
1F
100
AcDbEntity
  8
0
  6
Continuous
 62
     7
370
    15
100
AcDbLine
 10
220.8161947814
 20
302.0580413626
 30
0.0
 11
220.8161947814
 21
304.3080413626
 31
0.0
  0
LINE
  5
AA
330
1F
100
AcDbEntity
  8
0
  6
Continuous
 62
     7
370
    15
100
AcDbLine
 10
272.7611947814
 20
302.0580413626
 30
0.0
 11
272.7611947814
 21
304.3080413626
 31
0.0
  0
LINE
  5
AB
330
1F
100
AcDbEntity
  8
0
  6
Continuous
 62
     7
370
    15
100
AcDbLine
 10
324.7061947814
 20
302.0580413626
 30
0.0
 11
324.7061947814
 21
304.3080413626
 31
0.0
  0
LINE
  5
AC
330
1F
100
AcDbEntity
  8
0
  6
Continuous
 62
     7
370
    15
100
AcDbLine
 10
376.6511947814
 20
302.0580413626
 30
0.0
 11
376.6511947814
 21
304.3080413626
 31
0.0
  0
LINE
  5
AD
330
1F
100
AcDbEntity
  8
0
  6
Continuous
 62
     7
370
    15
100
AcDbLine
 10
64.9736947814
 20
12.1728696119
 30
0.0
 11
64.9736947814
 21
9.9228696119
 31
0.0
  0
LINE
  5
AE
330
1F
100
AcDbEntity
  8
0
  6
Continuous
 62
     7
370
    15
100
AcDbLine
 10
116.9111947814
 20
12.1728696119
 30
0.0
 11
116.9111947814
 21
9.9228696119
 31
0.0
  0
LINE
  5
AF
330
1F
100
AcDbEntity
  8
0
  6
Continuous
 62
     7
370
    15
100
AcDbLine
 10
168.8486947814
 20
12.1728696119
 30
0.0
 11
168.8486947814
 21
9.9228696119
 31
0.0
  0
LINE
  5
B0
330
1F
100
AcDbEntity
  8
0
  6
Continuous
 62
     7
370
    15
100
AcDbLine
 10
220.7861947814
 20
12.1728696119
 30
0.0
 11
220.7861947814
 21
9.9228696119
 31
0.0
  0
LINE
  5
B1
330
1F
100
AcDbEntity
  8
0
  6
Continuous
 62
     7
370
    15
100
AcDbLine
 10
272.7236947814
 20
12.1728696119
 30
0.0
 11
272.7236947814
 21
9.9228696119
 31
0.0
  0
LINE
  5
B2
330
1F
100
AcDbEntity
  8
0
  6
Continuous
 62
     7
370
    15
100
AcDbLine
 10
324.6611947814
 20
12.1728696119
 30
0.0
 11
324.6611947814
 21
9.9228696119
 31
0.0
  0
LINE
  5
B3
330
1F
100
AcDbEntity
  8
0
  6
Continuous
 62
     7
370
     0
100
AcDbLine
 10
428.5361947814
 20
302.0580413626
 30
0.0
 11
13.0361947814
 21
302.0580413626
 31
0.0
  0
LINE
  5
B4
330
1F
100
AcDbEntity
  8
0
  6
Continuous
 62
     7
370
     0
100
AcDbLine
 10
428.5361947814
 20
12.1728696119
 30
0.0
 11
428.5361947814
 21
302.0580413626
 31
0.0
  0
LINE
  5
B5
330
1F
100
AcDbEntity
  8
0
  6
Continuous
 62
     7
370
     0
100
AcDbLine
 10
13.0361947814
 20
302.0580413626
 30
0.0
 11
13.0361947814
 21
12.1728696119
 31
0.0
  0
LINE
  5
B6
330
1F
100
AcDbEntity
  8
0
  6
Continuous
 62
     7
370
     0
100
AcDbLine
 10
13.0361947814
 20
12.1728696119
 30
0.0
 11
428.5361947814
 21
12.1728696119
 31
0.0
  0
LINE
  5
B7
330
1F
100
AcDbEntity
  8
0
  6
Continuous
 62
     7
370
    15
100
AcDbLine
 10
376.5986947814
 20
12.1728696119
 30
0.0
 11
376.5986947814
 21
9.9228696119
 31
0.0
  0
LINE
  5
B8
330
1F
100
AcDbEntity
  8
0
  6
Continuous
 62
     7
370
    15
100
AcDbLine
 10
13.0361947814
 20
60.4878696119
 30
0.0
 11
10.7861947814
 21
60.4878696119
 31
0.0
  0
LINE
  5
B9
330
1F
100
AcDbEntity
  8
0
  6
Continuous
 62
     7
370
    15
100
AcDbLine
 10
13.0361947814
 20
108.8028696119
 30
0.0
 11
10.7861947814
 21
108.8028696119
 31
0.0
  0
LINE
  5
BA
330
1F
100
AcDbEntity
  8
0
  6
Continuous
 62
     7
370
    15
100
AcDbLine
 10
13.0361947814
 20
157.1178696119
 30
0.0
 11
10.7861947814
 21
157.1178696119
 31
0.0
  0
LINE
  5
BB
330
1F
100
AcDbEntity
  8
0
  6
Continuous
 62
     7
370
    15
100
AcDbLine
 10
13.0361947814
 20
205.4328696119
 30
0.0
 11
10.7861947814
 21
205.4328696119
 31
0.0
  0
LINE
  5
BC
330
1F
100
AcDbEntity
  8
0
  6
Continuous
 62
     7
370
    15
100
AcDbLine
 10
13.0361947814
 20
253.7478696119
 30
0.0
 11
10.7861947814
 21
253.7478696119
 31
0.0
  0
LINE
  5
BD
330
1F
100
AcDbEntity
  8
0
  6
Continuous
 62
     7
370
    15
100
AcDbLine
 10
428.5361947814
 20
60.4878696119
 30
0.0
 11
430.7861947814
 21
60.4878696119
 31
0.0
  0
LINE
  5
BE
330
1F
100
AcDbEntity
  8
0
  6
Continuous
 62
     7
370
    15
100
AcDbLine
 10
428.5361947814
 20
108.8028696119
 30
0.0
 11
430.7861947814
 21
108.8028696119
 31
0.0
  0
LINE
  5
BF
330
1F
100
AcDbEntity
  8
0
  6
Continuous
 62
     7
370
    15
100
AcDbLine
 10
428.5361947814
 20
157.1178696119
 30
0.0
 11
430.7861947814
 21
157.1178696119
 31
0.0
  0
LINE
  5
C0
330
1F
100
AcDbEntity
  8
0
  6
Continuous
 62
     7
370
    15
100
AcDbLine
 10
428.5361947814
 20
205.4328696119
 30
0.0
 11
430.7861947814
 21
205.4328696119
 31
0.0
  0
LINE
  5
C1
330
1F
100
AcDbEntity
  8
0
  6
Continuous
 62
     7
370
    15
100
AcDbLine
 10
428.5361947814
 20
253.7478696119
 30
0.0
 11
430.7861947814
 21
253.7478696119
 31
0.0
  0
CIRCLE
  5
C2
330
1F
100
AcDbEntity
  8
0
  6
Continuous
 62
     7
370
     0
100
AcDbCircle
 10
252.5390662777
 20
26.6617788769
 30
0.0
 40
2.249999999999943
  0
CIRCLE
  5
C3
330
1F
100
AcDbEntity
  8
0
  6
Continuous
 62
     7
370
     0
100
AcDbCircle
 10
252.5390662777
 20
26.6617788769
 30
0.0
 40
3.749999999999943
  0
ARC
  5
C4
330
1F
100
AcDbEntity
  8
0
370
     0
100
AcDbCircle
 10
282.8688683771
 20
52.7164237772
 30
0.0
 40
2.297988701708751
100
AcDbArc
 50
130.2910647925
 51
228.509361907
  0
ARC
  5
C5
330
1F
100
AcDbEntity
  8
0
370
     0
100
AcDbCircle
 10
287.8254647143
 20
52.5472524823
 30
0.0
 40
3.855816554566914
100
AcDbArc
 50
140.1430462781
 51
253.0452525074
  0
ARC
  5
C6
330
1F
100
AcDbEntity
  8
0
370
     0
100
AcDbCircle
 10
288.3225605268
 20
53.1302151061
 30
0.0
 40
4.568627093596874
100
AcDbArc
 50
249.2112209143
 51
308.9221353953
  0
ARC
  5
C7
330
1F
100
AcDbEntity
  8
0
 62
     1
370
     0
100
AcDbCircle
 10
294.043778709
 20
52.7873072338
 30
0.0
 40
2.277829406127405
100
AcDbArc
 50
306.0377529468
 51
43.4396461534
  0
ARC
  5
C8
330
1F
100
AcDbEntity
  8
0
 62
     1
370
     0
100
AcDbCircle
 10
288.5223086852
 20
51.9989156481
 30
0.0
 40
4.772455056791805
100
AcDbArc
 50
45.5592925416
 51
125.8325555121
  0
ARC
  5
C9
330
1F
100
AcDbEntity
  8
0
 62
     1
370
     0
100
AcDbCircle
 10
288.9987931213
 20
52.8101483563
 30
0.0
 40
3.866351232519347
100
AcDbArc
 50
321.9435288427
 51
42.1815007004
  0
MTEXT
  5
CB
330
1F
100
AcDbEntity
  8
0
  6
Continuous
 62
     7
370
     0
100
AcDbMText
 10
248.3140276206
 20
19.8312660554
 30
0.0
 40
3.96875
 41
0.0
 71
     1
 72
     1
  1
UNIT:m/m
  7
SLDTEXTSTYLE0
 73
     1
 44
1.0
  0
INSERT
  5
D2
330
1F
100
AcDbEntity
  8
0
  6
Continuous
 62
     7
370
     0
100
AcDbBlockReference
  2
SW_NOTE_0
 10
18.347261408
 20
290.8356456377
 30
0.0
  0
MTEXT
  5
D4
330
1F
100
AcDbEntity
  8
0
  6
Continuous
 62
     7
370
     0
100
AcDbMText
 10
298.0877840902
 20
60.6610161208
 30
0.0
 40
3.571875
 41
0.0
 71
     1
 72
     1
  1
Unice E-O Services Inc.
  7
SLDTEXTSTYLE1
 73
     1
 44
1.0
  0
MTEXT
  5
D5
330
1F
100
AcDbEntity
  8
0
  6
Continuous
 62
     7
370
     0
100
AcDbMText
 10
326.3385807224
 20
32.3800722766
 30
0.0
 40
2.778125
 41
0.0
 71
     1
 72
     1
  1
2010/12/30
  7
SLDTEXTSTYLE0
 73
     1
 44
1.0
  0
MTEXT
  5
D6
330
1F
100
AcDbEntity
  8
0
  6
Continuous
 62
     7
370
     0
100
AcDbMText
 10
378.913347376
 20
25.30676661
 30
0.0
 40
3.75
 41
0.0
 71
     1
 72
     1
  1
1:1.5
  7
SLDTEXTSTYLE0
 73
     1
 44
1.0
  0
MTEXT
  5
D7
330
1F
100
AcDbEntity
  8
0
  6
Continuous
 62
     7
370
     0
100
AcDbMText
 10
378.4613399977
 20
48.2278793156
 30
0.0
 40
3.75
 41
0.0
 71
     1
 72
     1
  1
07RCP-2
  7
SLDTEXTSTYLE0
 73
     1
 44
1.0
  0
MTEXT
  5
D8
330
1F
100
AcDbEntity
  8
0
  6
Continuous
 62
     7
370
     0
100
AcDbMText
 10
378.4613399977
 20
57.1623176818
 30
0.0
 40
3.75
 41
0.0
 71
     1
 72
     1
  1
07RCP-2
  7
SLDTEXTSTYLE0
 73
     1
 44
1.0
  0
MTEXT
  5
D9
330
1F
100
AcDbEntity
  8
0
  6
Continuous
 62
     7
370
     0
100
AcDbMText
 10
354.588280018
 20
24.7597193593
 30
0.0
 40
3.175
 41
0.0
 71
     1
 72
     1
  1
SCALE:
  7
SLDTEXTSTYLE0
 73
     1
 44
1.0
  0
MTEXT
  5
DA
330
1F
100
AcDbEntity
  8
0
  6
Continuous
 62
     7
370
     0
100
AcDbMText
 10
279.5004130184
 20
32.3800722766
 30
0.0
 40
2.778125
 41
0.0
 71
     1
 72
     1
  1
DRAWN
  7
SLDTEXTSTYLE0
 73
     1
 44
1.0
  0
MTEXT
  5
DB
330
1F
100
AcDbEntity
  8
0
  6
Continuous
 62
     7
370
     0
100
AcDbMText
 10
304.8342551905
 20
40.024812462
 30
0.0
 40
2.778125
 41
0.0
 71
     1
 72
     1
  1
NAME
  7
SLDTEXTSTYLE0
 73
     1
 44
1.0
  0
MTEXT
  5
DC
330
1F
100
AcDbEntity
  8
0
  6
Continuous
 62
     7
370
     0
100
AcDbMText
 10
331.3065233636
 20
40.024812462
 30
0.0
 40
2.778125
 41
0.0
 71
     1
 72
     1
  1
DATE
  7
SLDTEXTSTYLE0
 73
     1
 44
1.0
  0
MTEXT
  5
DD
330
1F
100
AcDbEntity
  8
0
  6
Continuous
 62
     7
370
     0
100
AcDbMText
 10
354.4134474968
 20
47.6808320649
 30
0.0
 40
3.175
 41
0.0
 71
     1
 72
     1
  1
DWG. NO.
  7
SLDTEXTSTYLE0
 73
     1
 44
1.0
  0
MTEXT
  5
DE
330
1F
100
AcDbEntity
  8
0
  6
Continuous
 62
     7
370
     0
100
AcDbMText
 10
354.5444860632
 20
62.8260987365
 30
0.0
 40
3.175
 41
0.0
 71
     1
 72
     1
  1
TITLE:
  7
SLDTEXTSTYLE0
 73
     1
 44
1.0
  0
MTEXT
  5
DF
330
1F
100
AcDbEntity
  8
0
  6
Continuous
 62
     7
370
     0
100
AcDbMText
 10
304.5471314703
 20
24.3605684586
 30
0.0
 40
2.778125
 41
0.0
 71
     1
 72
     1
  1
Johnny
  7
SLDTEXTSTYLE0
 73
     1
 44
1.0
  0
MTEXT
  5
E0
330
1F
100
AcDbEntity
  8
0
  6
Continuous
 62
     7
370
     0
100
AcDbMText
 10
326.3385807224
 20
24.3605684586
 30
0.0
 40
2.778125
 41
0.0
 71
     1
 72
     1
  1
2010/12/30
  7
SLDTEXTSTYLE0
 73
     1
 44
1.0
  0
MTEXT
  5
E1
330
1F
100
AcDbEntity
  8
0
  6
Continuous
 62
     7
370
     0
100
AcDbMText
 10
279.5004130184
 20
24.3605684586
 30
0.0
 40
2.778125
 41
0.0
 71
     1
 72
     1
  1
ENG APPR.
  7
SLDTEXTSTYLE0
 73
     1
 44
1.0
  0
MTEXT
  5
E2
330
1F
100
AcDbEntity
  8
0
  6
Continuous
 62
     7
370
     0
100
AcDbMText
 10
354.588280018
 20
17.5280083932
 30
0.0
 40
3.175
 41
0.0
 71
     1
 72
     1
  1
REV
  7
SLDTEXTSTYLE0
 73
     1
 44
1.0
  0
MTEXT
  5
E3
330
1F
100
AcDbEntity
  8
0
  6
Continuous
 62
     7
370
     0
100
AcDbMText
 10
354.5444860632
 20
40.4239633627
 30
0.0
 40
3.175
 41
0.0
 71
     1
 72
     1
  1
MATERIAL:
  7
SLDTEXTSTYLE0
 73
     1
 44
1.0
  0
MTEXT
  5
E4
330
1F
100
AcDbEntity
  8
0
  6
Continuous
 62
     7
370
     0
100
AcDbMText
 10
378.913347376
 20
33.326270428
 30
0.0
 40
3.75
 41
0.0
 71
     1
 72
     1
  1
N/A
  7
SLDTEXTSTYLE0
 73
     1
 44
1.0
  0
MTEXT
  5
E5
330
1F
100
AcDbEntity
  8
0
  6
Continuous
 62
     7
370
     0
100
AcDbMText
 10
39.90448973
 20
306.6800274854
 30
0.0
 40
3.175
 41
0.0
 71
     1
 72
     1
  1
1
  7
SLDTEXTSTYLE0
 73
     1
 44
1.0
  0
MTEXT
  5
E6
330
1F
100
AcDbEntity
  8
0
  6
Continuous
 62
     7
370
     0
100
AcDbMText
 10
91.0756493586
 20
306.6800274854
 30
0.0
 40
3.175
 41
0.0
 71
     1
 72
     1
  1
2
  7
SLDTEXTSTYLE0
 73
     1
 44
1.0
  0
MTEXT
  5
E7
330
1F
100
AcDbEntity
  8
0
  6
Continuous
 62
     7
370
     0
100
AcDbMText
 10
142.3514915859
 20
306.6800274854
 30
0.0
 40
3.175
 41
0.0
 71
     1
 72
     1
  1
3
  7
SLDTEXTSTYLE0
 73
     1
 44
1.0
  0
MTEXT
  5
E8
330
1F
100
AcDbEntity
  8
0
  6
Continuous
 62
     7
370
     0
100
AcDbMText
 10
193.8800044277
 20
306.4488876546
 30
0.0
 40
3.175
 41
0.0
 71
     1
 72
     1
  1
4
  7
SLDTEXTSTYLE0
 73
     1
 44
1.0
  0
MTEXT
  5
E9
330
1F
100
AcDbEntity
  8
0
  6
Continuous
 62
     7
370
     0
100
AcDbMText
 10
245.5534851959
 20
306.6800274854
 30
0.0
 40
3.175
 41
0.0
 71
     1
 72
     1
  1
5
  7
SLDTEXTSTYLE0
 73
     1
 44
1.0
  0
MTEXT
  5
EA
330
1F
100
AcDbEntity
  8
0
  6
Continuous
 62
     7
370
     0
100
AcDbMText
 10
297.9573255623
 20
306.6800274854
 30
0.0
 40
3.175
 41
0.0
 71
     1
 72
     1
  1
6
  7
SLDTEXTSTYLE0
 73
     1
 44
1.0
  0
MTEXT
  5
EB
330
1F
100
AcDbEntity
  8
0
  6
Continuous
 62
     7
370
     0
100
AcDbMText
 10
351.544598611
 20
306.6800274854
 30
0.0
 40
3.175
 41
0.0
 71
     1
 72
     1
  1
7
  7
SLDTEXTSTYLE0
 73
     1
 44
1.0
  0
MTEXT
  5
EC
330
1F
100
AcDbEntity
  8
0
  6
Continuous
 62
     7
370
     0
100
AcDbMText
 10
399.4181730741
 20
306.6800274854
 30
0.0
 40
3.175
 41
0.0
 71
     1
 72
     1
  1
8
  7
SLDTEXTSTYLE0
 73
     1
 44
1.0
  0
MTEXT
  5
ED
330
1F
100
AcDbEntity
  8
0
  6
Continuous
 62
     7
370
     0
100
AcDbMText
 10
8.0352354832
 20
278.7169534319
 30
0.0
 40
3.175
 41
0.0
 71
     1
 72
     1
  1
A
  7
SLDTEXTSTYLE0
 73
     1
 44
1.0
  0
MTEXT
  5
EE
330
1F
100
AcDbEntity
  8
0
  6
Continuous
 62
     7
370
     0
100
AcDbMText
 10
8.3865647747
 20
231.4489572357
 30
0.0
 40
3.175
 41
0.0
 71
     1
 72
     1
  1
B
  7
SLDTEXTSTYLE0
 73
     1
 44
1.0
  0
MTEXT
  5
EF
330
1F
100
AcDbEntity
  8
0
  6
Continuous
 62
     7
370
     0
100
AcDbMText
 10
8.3865647747
 20
181.9115271345
 30
0.0
 40
3.175
 41
0.0
 71
     1
 72
     1
  1
C
  7
SLDTEXTSTYLE0
 73
     1
 44
1.0
  0
MTEXT
  5
F0
330
1F
100
AcDbEntity
  8
0
  6
Continuous
 62
     7
370
     0
100
AcDbMText
 10
8.3865647747
 20
133.1179830331
 30
0.0
 40
3.175
 41
0.0
 71
     1
 72
     1
  1
D
  7
SLDTEXTSTYLE0
 73
     1
 44
1.0
  0
MTEXT
  5
F1
330
1F
100
AcDbEntity
  8
0
  6
Continuous
 62
     7
370
     0
100
AcDbMText
 10
8.3865647747
 20
86.3338273796
 30
0.0
 40
3.175
 41
0.0
 71
     1
 72
     1
  1
E
  7
SLDTEXTSTYLE0
 73
     1
 44
1.0
  0
MTEXT
  5
F2
330
1F
100
AcDbEntity
  8
0
  6
Continuous
 62
     7
370
     0
100
AcDbMText
 10
8.3865647747
 20
38.3541318378
 30
0.0
 40
3.175
 41
0.0
 71
     1
 72
     1
  1
F
  7
SLDTEXTSTYLE0
 73
     1
 44
1.0
  0
MTEXT
  5
F3
330
1F
100
AcDbEntity
  8
0
  6
Continuous
 62
     7
370
     0
100
AcDbMText
 10
399.2787925446
 20
9.9354335945
 30
0.0
 40
3.175
 41
0.0
 71
     1
 72
     1
  1
8
  7
SLDTEXTSTYLE0
 73
     1
 44
1.0
  0
MTEXT
  5
F4
330
1F
100
AcDbEntity
  8
0
  6
Continuous
 62
     7
370
     0
100
AcDbMText
 10
351.4052180815
 20
9.9354335945
 30
0.0
 40
3.175
 41
0.0
 71
     1
 72
     1
  1
7
  7
SLDTEXTSTYLE0
 73
     1
 44
1.0
  0
MTEXT
  5
F5
330
1F
100
AcDbEntity
  8
0
  6
Continuous
 62
     7
370
     0
100
AcDbMText
 10
297.8179450327
 20
9.9354335945
 30
0.0
 40
3.175
 41
0.0
 71
     1
 72
     1
  1
6
  7
SLDTEXTSTYLE0
 73
     1
 44
1.0
  0
MTEXT
  5
F6
330
1F
100
AcDbEntity
  8
0
  6
Continuous
 62
     7
370
     0
100
AcDbMText
 10
245.4141046664
 20
9.9354335945
 30
0.0
 40
3.175
 41
0.0
 71
     1
 72
     1
  1
5
  7
SLDTEXTSTYLE0
 73
     1
 44
1.0
  0
MTEXT
  5
F7
330
1F
100
AcDbEntity
  8
0
  6
Continuous
 62
     7
370
     0
100
AcDbMText
 10
193.7406238981
 20
9.7042937637
 30
0.0
 40
3.175
 41
0.0
 71
     1
 72
     1
  1
4
  7
SLDTEXTSTYLE0
 73
     1
 44
1.0
  0
MTEXT
  5
F8
330
1F
100
AcDbEntity
  8
0
  6
Continuous
 62
     7
370
     0
100
AcDbMText
 10
142.2121110564
 20
9.9354335945
 30
0.0
 40
3.175
 41
0.0
 71
     1
 72
     1
  1
3
  7
SLDTEXTSTYLE0
 73
     1
 44
1.0
  0
MTEXT
  5
F9
330
1F
100
AcDbEntity
  8
0
  6
Continuous
 62
     7
370
     0
100
AcDbMText
 10
90.9362688291
 20
9.9354335945
 30
0.0
 40
3.175
 41
0.0
 71
     1
 72
     1
  1
2
  7
SLDTEXTSTYLE0
 73
     1
 44
1.0
  0
MTEXT
  5
FA
330
1F
100
AcDbEntity
  8
0
  6
Continuous
 62
     7
370
     0
100
AcDbMText
 10
39.7651092004
 20
9.9354335945
 30
0.0
 40
3.175
 41
0.0
 71
     1
 72
     1
  1
1
  7
SLDTEXTSTYLE0
 73
     1
 44
1.0
  0
MTEXT
  5
FB
330
1F
100
AcDbEntity
  8
0
  6
Continuous
 62
     7
370
     0
100
AcDbMText
 10
430.6535769217
 20
279.9637363637
 30
0.0
 40
3.175
 41
0.0
 71
     1
 72
     1
  1
A
  7
SLDTEXTSTYLE0
 73
     1
 44
1.0
  0
MTEXT
  5
FC
330
1F
100
AcDbEntity
  8
0
  6
Continuous
 62
     7
370
     0
100
AcDbMText
 10
431.0049062132
 20
232.6957401676
 30
0.0
 40
3.175
 41
0.0
 71
     1
 72
     1
  1
B
  7
SLDTEXTSTYLE0
 73
     1
 44
1.0
  0
MTEXT
  5
FD
330
1F
100
AcDbEntity
  8
0
  6
Continuous
 62
     7
370
     0
100
AcDbMText
 10
431.0049062132
 20
183.1583100664
 30
0.0
 40
3.175
 41
0.0
 71
     1
 72
     1
  1
C
  7
SLDTEXTSTYLE0
 73
     1
 44
1.0
  0
MTEXT
  5
FE
330
1F
100
AcDbEntity
  8
0
  6
Continuous
 62
     7
370
     0
100
AcDbMText
 10
431.0049062132
 20
134.364765965
 30
0.0
 40
3.175
 41
0.0
 71
     1
 72
     1
  1
D
  7
SLDTEXTSTYLE0
 73
     1
 44
1.0
  0
MTEXT
  5
FF
330
1F
100
AcDbEntity
  8
0
  6
Continuous
 62
     7
370
     0
100
AcDbMText
 10
431.0049062132
 20
87.5806103114
 30
0.0
 40
3.175
 41
0.0
 71
     1
 72
     1
  1
E
  7
SLDTEXTSTYLE0
 73
     1
 44
1.0
  0
MTEXT
  5
100
330
1F
100
AcDbEntity
  8
0
  6
Continuous
 62
     7
370
     0
100
AcDbMText
 10
431.0049062132
 20
39.6009147696
 30
0.0
 40
3.175
 41
0.0
 71
     1
 72
     1
  1
F
  7
SLDTEXTSTYLE0
 73
     1
 44
1.0
  0
MTEXT
  5
101
330
1F
100
AcDbEntity
  8
0
  6
Continuous
 62
     7
370
     0
100
AcDbMText
 10
304.7329693203
 20
32.3800722766
 30
0.0
 40
2.778125
 41
0.0
 71
     1
 72
     1
  1
Eric
  7
SLDTEXTSTYLE0
 73
     1
 44
1.0
  0
MTEXT
  5
102
330
1F
100
AcDbEntity
  8
0
  6
Continuous
 62
     7
370
     0
100
AcDbMText
 10
379.2723359468
 20
18.315372684
 30
0.0
 40
3.96875
 41
0.0
 71
     1
 72
     1
  1
0
  7
SLDTEXTSTYLE0
 73
     1
 44
1.0
  0
INSERT
  5
108
330
1F
100
AcDbEntity
  8
DIM
 62
     7
100
AcDbBlockReference
  2
SW_NOTE_1
 10
298.0877840902
 20
50.4927202993
 30
0.0
  0
LINE
  5
109
330
1F
100
AcDbEntity
  8
0
  6
Continuous
 62
     7
370
    15
100
AcDbLine
 10
182.3108890222
 20
70.3060199859
 30
0.0
 11
185.3108890222
 21
76.3060199859
 31
0.0
  0
LINE
  5
10A
330
1F
100
AcDbEntity
  8
0
  6
Continuous
 62
     7
370
    15
100
AcDbLine
 10
185.3108890222
 20
104.3060199859
 30
0.0
 11
182.3110696926
 21
110.3056586451
 31
0.0
  0
LINE
  5
10B
330
1F
100
AcDbEntity
  8
0
  6
Continuous
 62
     7
370
    15
100
AcDbLine
 10
171.8108890222
 20
74.9923114869
 30
0.0
 11
182.7933306907
 21
74.9923114869
 31
0.0
  0
LINE
  5
10C
330
1F
100
AcDbEntity
  8
0
  6
Continuous
 62
     7
370
    15
100
AcDbLine
 10
170.3108890222
 20
76.4923114869
 30
0.0
 11
171.8108890222
 21
74.9923114869
 31
0.0
  0
LINE
  5
10D
330
1F
100
AcDbEntity
  8
0
  6
Continuous
 62
     7
370
    15
100
AcDbLine
 10
171.8108890222
 20
105.6193671441
 30
0.0
 11
170.3108890222
 21
104.1193671441
 31
0.0
  0
LINE
  5
10E
330
1F
100
AcDbEntity
  8
0
  6
Continuous
 62
     7
370
    15
100
AcDbLine
 10
182.7944740536
 20
105.6193671441
 30
0.0
 11
171.8108890222
 21
105.6193671441
 31
0.0
  0
LINE
  5
10F
330
1F
100
AcDbEntity
  8
0
  6
Continuous
 62
     7
370
    15
100
AcDbLine
 10
169.8108890222
 20
82.8060199859
 30
0.0
 11
170.3108890222
 21
82.8060199859
 31
0.0
  0
LINE
  5
110
330
1F
100
AcDbEntity
  8
0
  6
Continuous
 62
     7
370
    15
100
AcDbLine
 10
170.3108890222
 20
97.8060199859
 30
0.0
 11
169.8108890222
 21
97.8060199859
 31
0.0
  0
LINE
  5
111
330
1F
100
AcDbEntity
  8
0
  6
Continuous
 62
     7
370
    15
100
AcDbLine
 10
182.3150441277
 20
110.3056586451
 30
0.0
 11
171.8108890222
 21
110.3056586451
 31
0.0
  0
LINE
  5
112
330
1F
100
AcDbEntity
  8
0
  6
Continuous
 62
     7
370
    15
100
AcDbLine
 10
171.8108890222
 20
110.3056586451
 30
0.0
 11
170.3108890222
 21
108.8056586451
 31
0.0
  0
LINE
  5
113
330
1F
100
AcDbEntity
  8
0
  6
Continuous
 62
     7
370
    15
100
AcDbLine
 10
170.3108890222
 20
71.8060199859
 30
0.0
 11
171.8108890222
 21
70.3060199859
 31
0.0
  0
LINE
  5
114
330
1F
100
AcDbEntity
  8
0
  6
Continuous
 62
     7
370
    15
100
AcDbLine
 10
171.8108890222
 20
70.3060199859
 30
0.0
 11
182.3169211253
 21
70.3060199859
 31
0.0
  0
LINE
  5
115
330
1F
100
AcDbEntity
  8
0
  6
Continuous
 62
     7
370
    15
100
AcDbLine
 10
107.3108890222
 20
110.3060199859
 30
0.0
 11
104.3108890222
 21
104.3060199859
 31
0.0
  0
LINE
  5
116
330
1F
100
AcDbEntity
  8
0
  6
Continuous
 62
     7
370
    15
100
AcDbLine
 10
104.3108890222
 20
76.3060199859
 30
0.0
 11
107.3107083519
 21
70.3063813266
 31
0.0
  0
LINE
  5
117
330
1F
100
AcDbEntity
  8
0
  6
Continuous
 62
     7
370
    15
100
AcDbLine
 10
117.8108890222
 20
105.6197284849
 30
0.0
 11
106.8284473538
 21
105.6197284849
 31
0.0
  0
LINE
  5
118
330
1F
100
AcDbEntity
  8
0
  6
Continuous
 62
     7
370
    15
100
AcDbLine
 10
119.3108890222
 20
104.1197284849
 30
0.0
 11
117.8108890222
 21
105.6197284849
 31
0.0
  0
LINE
  5
119
330
1F
100
AcDbEntity
  8
0
  6
Continuous
 62
     7
370
    15
100
AcDbLine
 10
117.8108890222
 20
74.9926728276
 30
0.0
 11
119.3108890222
 21
76.4926728276
 31
0.0
  0
LINE
  5
11A
330
1F
100
AcDbEntity
  8
0
  6
Continuous
 62
     7
370
    15
100
AcDbLine
 10
106.8273039909
 20
74.9926728276
 30
0.0
 11
117.8108890222
 21
74.9926728276
 31
0.0
  0
LINE
  5
11B
330
1F
100
AcDbEntity
  8
0
  6
Continuous
 62
     7
370
    15
100
AcDbLine
 10
119.8108890222
 20
97.8060199859
 30
0.0
 11
119.3108890222
 21
97.8060199859
 31
0.0
  0
LINE
  5
11C
330
1F
100
AcDbEntity
  8
0
  6
Continuous
 62
     7
370
    15
100
AcDbLine
 10
119.3108890222
 20
82.8060199859
 30
0.0
 11
119.8108890222
 21
82.8060199859
 31
0.0
  0
LINE
  5
11D
330
1F
100
AcDbEntity
  8
0
  6
Continuous
 62
     7
370
    15
100
AcDbLine
 10
107.3067339167
 20
70.3063813266
 30
0.0
 11
117.8108890222
 21
70.3063813266
 31
0.0
  0
LINE
  5
11E
330
1F
100
AcDbEntity
  8
0
  6
Continuous
 62
     7
370
    15
100
AcDbLine
 10
117.8108890222
 20
70.3063813266
 30
0.0
 11
119.3108890222
 21
71.8063813266
 31
0.0
  0
LINE
  5
11F
330
1F
100
AcDbEntity
  8
0
  6
Continuous
 62
     7
370
    15
100
AcDbLine
 10
119.3108890222
 20
108.8060199859
 30
0.0
 11
117.8108890222
 21
110.3060199859
 31
0.0
  0
LINE
  5
120
330
1F
100
AcDbEntity
  8
0
  6
Continuous
 62
     7
370
    15
100
AcDbLine
 10
117.8108890222
 20
110.3060199859
 30
0.0
 11
107.3048569191
 21
110.3060199859
 31
0.0
  0
LINE
  5
121
330
1F
100
AcDbEntity
  8
0
  6
Continuous
 62
     7
370
    15
100
AcDbLine
 10
169.8108890222
 20
52.3060199859
 30
0.0
 11
169.8108890222
 21
128.3060199859
 31
0.0
  0
LINE
  5
122
330
1F
100
AcDbEntity
  8
0
  6
Continuous
 62
     7
370
    15
100
AcDbLine
 10
119.8108890222
 20
128.3060199859
 30
0.0
 11
119.8108890222
 21
52.3060199859
 31
0.0
  0
LINE
  5
123
330
1F
100
AcDbEntity
  8
0
  6
Continuous
 62
     7
370
    15
100
AcDbLine
 10
171.8108890222
 20
93.6108061911
 30
0.0
 11
171.8108890222
 21
87.0012337806
 31
0.0
  0
LINE
  5
124
330
1F
100
AcDbEntity
  8
0
  6
Continuous
 62
     7
370
    15
100
AcDbLine
 10
171.8108890222
 20
87.0012337806
 30
0.0
 11
170.3108890222
 21
88.2464954022
 31
0.0
  0
LINE
  5
125
330
1F
100
AcDbEntity
  8
0
  6
Continuous
 62
     7
370
    15
100
AcDbLine
 10
170.3108890222
 20
88.2464954022
 30
0.0
 11
170.3108890222
 21
92.3655445695
 31
0.0
  0
LINE
  5
126
330
1F
100
AcDbEntity
  8
0
  6
Continuous
 62
     7
370
    15
100
AcDbLine
 10
171.8108890222
 20
93.6108061911
 30
0.0
 11
170.3108890222
 21
92.3655445695
 31
0.0
  0
SPLINE
  5
127
330
1F
100
AcDbEntity
  8
0
  6
Continuous
 62
     7
370
    15
100
AcDbSpline
210
0.0
220
0.0
230
1.0
 70
     8
 71
     3
 72
    13
 73
     9
 74
     0
 42
0.000000001
 43
0.00000001
 40
0.0
 40
0.0
 40
0.0
 40
0.0
 40
0.1735274932638163
 40
0.347475984533302
 40
0.5125418655591778
 40
0.6710295171735883
 40
0.8297608130564003
 40
1.0
 40
1.0
 40
1.0
 40
1.0
 10
183.0357489450408
 20
93.61080619110984
 30
0.0
 10
182.8921413211197
 20
93.33060712165889
 30
0.0
 10
182.6045776643762
 20
92.76952918702425
 30
0.0
 10
182.3588785193545
 20
91.54167050615366
 30
0.0
 10
182.282733630667
 20
90.22051779188806
 30
0.0
 10
182.3788398788075
 20
88.95251628561559
 30
0.0
 10
182.6219108319956
 20
87.80496426482135
 30
0.0
 10
182.8946229449704
 20
87.27531986597631
 30
0.0
 10
183.0357489450407
 20
87.00123378064144
 30
0.0
  0
LINE
  5
128
330
1F
100
AcDbEntity
  8
0
  6
Continuous
 62
     7
370
    15
100
AcDbLine
 10
183.035748945
 20
87.0012337806
 30
0.0
 11
171.8108890222
 21
87.0012337806
 31
0.0
  0
LINE
  5
129
330
1F
100
AcDbEntity
  8
0
  6
Continuous
 62
     7
370
    15
100
AcDbLine
 10
183.035748945
 20
93.6108061911
 30
0.0
 11
171.8108890222
 21
93.6108061911
 31
0.0
  0
LINE
  5
12A
330
1F
100
AcDbEntity
  8
0
  6
Continuous
 62
     7
370
    15
100
AcDbLine
 10
185.3108890222
 20
76.3060199859
 30
0.0
 11
185.3108890222
 21
104.3060199859
 31
0.0
  0
SPLINE
  5
12B
330
1F
100
AcDbEntity
  8
0
  6
Continuous
 62
     7
370
    15
100
AcDbSpline
210
0.0
220
0.0
230
1.0
 70
     8
 71
     3
 72
    10
 73
     6
 74
     0
 42
0.000000001
 43
0.00000001
 40
0.0
 40
0.0
 40
0.0
 40
0.0
 40
0.347282951800982
 40
0.6954084526851855
 40
1.0
 40
1.0
 40
1.0
 40
1.0
 10
183.0357489450385
 20
72.05249205444996
 30
0.0
 10
182.8929853981436
 20
71.71639235261028
 30
0.0
 10
182.6071119432813
 20
71.04337753172085
 30
0.0
 10
182.3554121027934
 20
70.4170284597373
 30
0.0
 10
182.3292474022714
 20
70.3517854360472
 30
0.0
 10
182.3170375992044
 20
70.32133966541488
 30
0.0
  0
SPLINE
  5
12C
330
1F
100
AcDbEntity
  8
0
  6
Continuous
 62
     7
370
    15
100
AcDbSpline
210
0.0
220
0.0
230
1.0
 70
     8
 71
     3
 72
    16
 73
    12
 74
     0
 42
0.000000001
 43
0.00000001
 40
0.0
 40
0.0
 40
0.0
 40
0.0
 40
0.1261972859071088
 40
0.25230570752799
 40
0.3792002878028561
 40
0.5060336522257133
 40
0.6221120449954717
 40
0.738234211157124
 40
0.8536816913002152
 40
0.9691932593050735
 40
1.0
 40
1.0
 40
1.0
 40
1.0
 10
183.0357489450416
 20
75.0619898688975
 30
0.0
 10
183.1526795809272
 20
75.11668619621099
 30
0.0
 10
183.3864585137049
 20
75.2260403353497
 30
0.0
 10
183.6482990474966
 20
75.20290264805716
 30
0.0
 10
183.8151921462996
 20
75.02352340294075
 30
0.0
 10
183.8697768678594
 20
74.69001492605476
 30
0.0
 10
183.8110196198058
 20
74.22260795192365
 30
0.0
 10
183.6622084371791
 20
73.65849433448362
 30
0.0
 10
183.4292078377916
 20
72.99853580761916
 30
0.0
 10
183.2054904303332
 20
72.4464686059386
 30
0.0
 10
183.065271488239
 20
72.12101501889272
 30
0.0
 10
183.0357489450385
 20
72.05249205444997
 30
0.0
  0
SPLINE
  5
12D
330
1F
100
AcDbEntity
  8
0
  6
Continuous
 62
     7
370
    15
100
AcDbSpline
210
0.0
220
0.0
230
1.0
 70
     8
 71
     3
 72
    19
 73
    15
 74
     0
 42
0.000000001
 43
0.00000001
 40
0.0
 40
0.0
 40
0.0
 40
0.0
 40
0.0855769788512123
 40
0.1735073385622205
 40
0.2591427523958169
 40
0.3475259764593421
 40
0.428805083611303
 40
0.5126419224607524
 40
0.5907519850988293
 40
0.6711263156280637
 40
0.7494155777289908
 40
0.8298119002537755
 40
0.9137671715589202
 40
1.0
 40
1.0
 40
1.0
 40
1.0
 10
183.0357489450408
 20
79.73566334108324
 30
0.0
 10
182.962239181954
 20
79.52295819467068
 30
0.0
 10
182.81319812532
 20
79.09169847566729
 30
0.0
 10
182.6305959023392
 20
78.42666627095767
 30
0.0
 10
182.4819635894748
 20
77.76328330299488
 30
0.0
 10
182.3788009310829
 20
77.14303899280577
 30
0.0
 10
182.3193713424892
 20
76.57496956898952
 30
0.0
 10
182.3043290751712
 20
76.09135593189502
 30
0.0
 10
182.3307825253902
 20
75.68520333795207
 30
0.0
 10
182.3955704161948
 20
75.37117406047432
 30
0.0
 10
182.4983278545798
 20
75.14477089726172
 30
0.0
 10
182.6384640172595
 20
75.01260111896124
 30
0.0
 10
182.8155055602624
 20
74.97180352934497
 30
0.0
 10
182.9616824086274
 20
75.03166074092289
 30
0.0
 10
183.0357489450416
 20
75.0619898688975
 30
0.0
  0
SPLINE
  5
12E
330
1F
100
AcDbEntity
  8
0
  6
Continuous
 62
     7
370
    15
100
AcDbSpline
210
0.0
220
0.0
230
1.0
 70
     8
 71
     3
 72
    16
 73
    12
 74
     0
 42
0.000000001
 43
0.00000001
 40
0.0
 40
0.0
 40
0.0
 40
0.0
 40
0.1261954117148921
 40
0.2523019645587816
 40
0.3791968622311142
 40
0.5060305420541898
 40
0.6221090788360276
 40
0.7382313883708703
 40
0.8536787578257308
 40
0.9691902150888431
 40
1.0
 40
1.0
 40
1.0
 40
1.0
 10
183.0357489450407
 20
87.00123378064144
 30
0.0
 10
183.1526779281746
 20
86.80226686968648
 30
0.0
 10
183.3864535604076
 20
86.40447314775983
 30
0.0
 10
183.6482935871895
 20
85.64226713187816
 30
0.0
 10
183.8151891734259
 20
84.76699924234212
 30
0.0
 10
183.869777004577
 20
83.82086785964528
 30
0.0
 10
183.8110223200449
 20
82.84481208729916
 30
0.0
 10
183.6622133101453
 20
81.87634198841836
 30
0.0
 10
183.429214579438
 20
80.91259117961687
 30
0.0
 10
183.2054959733288
 20
80.2018417711572
 30
0.0
 10
183.0652743732897
 20
79.81674940148231
 30
0.0
 10
183.0357489450408
 20
79.73566334108324
 30
0.0
  0
SPLINE
  5
12F
330
1F
100
AcDbEntity
  8
0
  6
Continuous
 62
     7
370
    15
100
AcDbSpline
210
0.0
220
0.0
230
1.0
 70
     8
 71
     3
 72
    16
 73
    12
 74
     0
 42
0.000000001
 43
0.00000001
 40
0.0
 40
0.0
 40
0.0
 40
0.0
 40
0.1264962559498441
 40
0.2529036824100966
 40
0.3800899751862524
 40
0.5072171695547069
 40
0.6237421202764423
 40
0.7403118530593092
 40
0.8565151858428581
 40
0.972783013394265
 40
1.0
 40
1.0
 40
1.0
 40
1.0
 10
183.0512248811398
 20
100.8343478930522
 30
0.0
 10
183.1669481551066
 20
100.498650859571
 30
0.0
 10
183.3983134386636
 20
99.82749252919957
 30
0.0
 10
183.6560691296419
 20
98.77518678375132
 30
0.0
 10
183.8187660428688
 20
97.72034711079019
 30
0.0
 10
183.8695536625109
 20
96.71989948176878
 30
0.0
 10
183.8076675325881
 20
95.81113011903011
 30
0.0
 10
183.6561989251547
 20
95.00893456966938
 30
0.0
 10
183.4209106324133
 20
94.30884961247179
 30
0.0
 10
183.1986840312364
 20
93.86456932714708
 30
0.0
 10
183.0617275934134
 20
93.65126661884808
 30
0.0
 10
183.0357489450408
 20
93.61080619110984
 30
0.0
  0
SPLINE
  5
130
330
1F
100
AcDbEntity
  8
0
  6
Continuous
 62
     7
370
    15
100
AcDbSpline
210
0.0
220
0.0
230
1.0
 70
     8
 71
     3
 72
    19
 73
    15
 74
     0
 42
0.000000001
 43
0.00000001
 40
0.0
 40
0.0
 40
0.0
 40
0.0
 40
0.0848194393149625
 40
0.1719710587643858
 40
0.2568487638895636
 40
0.3444537197813806
 40
0.4249542201458802
 40
0.5079937877788813
 40
0.5852639676497332
 40
0.6647792938729018
 40
0.742134886289228
 40
0.8215762606479926
 40
0.9094442829817805
 40
1.0
 40
1.0
 40
1.0
 40
1.0
 10
183.0512248811398
 20
105.5414993515426
 30
0.0
 10
182.9769103732535
 20
105.573944114725
 30
0.0
 10
182.8262380190621
 20
105.6397257364959
 30
0.0
 10
182.6409901485945
 20
105.6025966007109
 30
0.0
 10
182.4895977550067
 20
105.4586102762569
 30
0.0
 10
182.3837429912269
 20
105.2051007956808
 30
0.0
 10
182.3216969690817
 20
104.8514568751014
 30
0.0
 10
182.3042451837851
 20
104.4250781423212
 30
0.0
 10
182.3284043667745
 20
103.9284931975251
 30
0.0
 10
182.3910298362461
 20
103.3888995524585
 30
0.0
 10
182.4916990116352
 20
102.8054804462502
 30
0.0
 10
182.6326283493021
 20
102.1789710122666
 30
0.0
 10
182.816037236419
 20
101.5094596323852
 30
0.0
 10
182.9720456527745
 20
101.0616337551315
 30
0.0
 10
183.0512248811398
 20
100.8343478930522
 30
0.0
  0
SPLINE
  5
131
330
1F
100
AcDbEntity
  8
0
  6
Continuous
 62
     7
370
    15
100
AcDbSpline
210
0.0
220
0.0
230
1.0
 70
     8
 71
     3
 72
    15
 73
    11
 74
     0
 42
0.000000001
 43
0.00000001
 40
0.0
 40
0.0
 40
0.0
 40
0.0
 40
0.1271849696374564
 40
0.2542806304146247
 40
0.382161695369817
 40
0.5099833371586516
 40
0.6271446673522503
 40
0.7443510234677265
 40
0.8721298639779491
 40
1.0
 40
1.0
 40
1.0
 40
1.0
 10
183.0512248811398
 20
108.5237828176867
 30
0.0
 10
183.1669467697817
 20
108.2492518455262
 30
0.0
 10
183.3983092875422
 20
107.7003826759358
 30
0.0
 10
183.6560597941539
 20
106.9768356138023
 30
0.0
 10
183.8187772628348
 20
106.3613966341694
 30
0.0
 10
183.8695027935664
 20
105.892869654594
 30
0.0
 10
183.8078435625737
 20
105.5823904890306
 30
0.0
 10
183.6508123826387
 20
105.4130004551468
 30
0.0
 10
183.4001088450622
 20
105.3832185347473
 30
0.0
 10
183.1675472193554
 20
105.4887265198615
 30
0.0
 10
183.0512248811398
 20
105.5414993515426
 30
0.0
  0
SPLINE
  5
132
330
1F
100
AcDbEntity
  8
0
  6
Continuous
 62
     7
370
    15
100
AcDbSpline
210
0.0
220
0.0
230
1.0
 70
     8
 71
     3
 72
    11
 73
     7
 74
     0
 42
0.000000001
 43
0.00000001
 40
0.0
 40
0.0
 40
0.0
 40
0.0
 40
0.0162940010877043
 40
0.3297544312309597
 40
0.643322395266444
 40
1.0
 40
1.0
 40
1.0
 40
1.0
 10
182.3151317090002
 20
110.2955412468669
 30
0.0
 10
182.3137832929433
 20
110.2988992432397
 30
0.0
 10
182.2864943436241
 20
110.3668576395848
 30
0.0
 10
182.3856932229858
 20
110.1195466419596
 30
0.0
 10
182.61469582984
 20
109.551238696924
 30
0.0
 10
182.8996067850332
 20
108.8806454452247
 30
0.0
 10
183.0512248811398
 20
108.5237828176867
 30
0.0
  0
LINE
  5
133
330
1F
100
AcDbEntity
  8
0
  6
Continuous
 62
     7
370
    15
100
AcDbLine
 10
183.035748945
 20
79.7356633411
 30
0.0
 11
171.8108890222
 21
79.7356633411
 31
0.0
  0
LINE
  5
134
330
1F
100
AcDbEntity
  8
0
  6
Continuous
 62
     7
370
    15
100
AcDbLine
 10
171.8108890222
 20
87.0012337806
 30
0.0
 11
171.8108890222
 21
79.7356633411
 31
0.0
  0
LINE
  5
135
330
1F
100
AcDbEntity
  8
0
  6
Continuous
 62
     7
370
    15
100
AcDbLine
 10
171.8108890222
 20
100.8343478931
 30
0.0
 11
171.8108890222
 21
93.6108061911
 31
0.0
  0
LINE
  5
136
330
1F
100
AcDbEntity
  8
0
  6
Continuous
 62
     7
370
    15
100
AcDbLine
 10
183.0512248811
 20
100.8343478931
 30
0.0
 11
171.8108890222
 21
100.8343478931
 31
0.0
  0
LINE
  5
137
330
1F
100
AcDbEntity
  8
0
  6
Continuous
 62
     7
370
    15
100
AcDbLine
 10
170.3108890222
 20
79.4465278424
 30
0.0
 11
171.8108890222
 21
79.7356633411
 31
0.0
  0
LINE
  5
138
330
1F
100
AcDbEntity
  8
0
  6
Continuous
 62
     7
370
    15
100
AcDbLine
 10
170.3108890222
 20
79.4465278424
 30
0.0
 11
170.3108890222
 21
88.2464954022
 31
0.0
  0
LINE
  5
139
330
1F
100
AcDbEntity
  8
0
  6
Continuous
 62
     7
370
    15
100
AcDbLine
 10
171.8108890222
 20
100.8343478931
 30
0.0
 11
170.3108890222
 21
101.1288922227
 31
0.0
  0
LINE
  5
13A
330
1F
100
AcDbEntity
  8
0
  6
Continuous
 62
     7
370
    15
100
AcDbLine
 10
170.3108890222
 20
92.3655445695
 30
0.0
 11
170.3108890222
 21
101.1288922227
 31
0.0
  0
LINE
  5
13B
330
1F
100
AcDbEntity
  8
0
  6
Continuous
 62
     7
370
    15
100
AcDbLine
 10
171.8108890222
 20
79.7356633411
 30
0.0
 11
171.8108890222
 21
74.9923114869
 31
0.0
  0
LINE
  5
13C
330
1F
100
AcDbEntity
  8
0
  6
Continuous
 62
     7
370
    15
100
AcDbLine
 10
170.3108890222
 20
76.4923114869
 30
0.0
 11
170.3108890222
 21
79.4465278424
 31
0.0
  0
LINE
  5
13D
330
1F
100
AcDbEntity
  8
0
  6
Continuous
 62
     7
370
    15
100
AcDbLine
 10
171.8108890222
 20
105.6193671441
 30
0.0
 11
171.8108890222
 21
100.8343478931
 31
0.0
  0
LINE
  5
13E
330
1F
100
AcDbEntity
  8
0
  6
Continuous
 62
     7
370
    15
100
AcDbLine
 10
170.3108890222
 20
101.1288922227
 30
0.0
 11
170.3108890222
 21
104.1193671441
 31
0.0
  0
LINE
  5
13F
330
1F
100
AcDbEntity
  8
0
  6
Continuous
 62
     7
370
    15
100
AcDbLine
 10
171.8108890222
 20
74.9923114869
 30
0.0
 11
171.8108890222
 21
72.0524920544
 31
0.0
  0
LINE
  5
140
330
1F
100
AcDbEntity
  8
0
  6
Continuous
 62
     7
370
    15
100
AcDbLine
 10
170.3108890222
 20
72.8888543324
 30
0.0
 11
171.8108890222
 21
72.0524920544
 31
0.0
  0
LINE
  5
141
330
1F
100
AcDbEntity
  8
0
  6
Continuous
 62
     7
370
    15
100
AcDbLine
 10
170.3108890222
 20
72.8888543324
 30
0.0
 11
170.3108890222
 21
76.4923114869
 31
0.0
  0
LINE
  5
142
330
1F
100
AcDbEntity
  8
0
  6
Continuous
 62
     7
370
    15
100
AcDbLine
 10
171.8108890222
 20
108.5237828177
 30
0.0
 11
171.8108890222
 21
105.6193671441
 31
0.0
  0
LINE
  5
143
330
1F
100
AcDbEntity
  8
0
  6
Continuous
 62
     7
370
    15
100
AcDbLine
 10
171.8108890222
 20
108.5237828177
 30
0.0
 11
170.3108890222
 21
107.6920466207
 31
0.0
  0
LINE
  5
144
330
1F
100
AcDbEntity
  8
0
  6
Continuous
 62
     7
370
    15
100
AcDbLine
 10
170.3108890222
 20
104.1193671441
 30
0.0
 11
170.3108890222
 21
107.6920466207
 31
0.0
  0
LINE
  5
145
330
1F
100
AcDbEntity
  8
0
  6
Continuous
 62
     7
370
    15
100
AcDbLine
 10
183.035748945
 20
72.0524920544
 30
0.0
 11
171.8108890222
 21
72.0524920544
 31
0.0
  0
LINE
  5
146
330
1F
100
AcDbEntity
  8
0
  6
Continuous
 62
     7
370
    15
100
AcDbLine
 10
183.0512248811
 20
108.5237828177
 30
0.0
 11
171.8108890222
 21
108.5237828177
 31
0.0
  0
LINE
  5
147
330
1F
100
AcDbEntity
  8
0
  6
Continuous
 62
     7
370
    15
100
AcDbLine
 10
171.8108890222
 20
110.3056586451
 30
0.0
 11
171.8108890222
 21
108.5237828177
 31
0.0
  0
LINE
  5
148
330
1F
100
AcDbEntity
  8
0
  6
Continuous
 62
     7
370
    15
100
AcDbLine
 10
170.3108890222
 20
107.6920466207
 30
0.0
 11
170.3108890222
 21
108.8056586451
 31
0.0
  0
LINE
  5
149
330
1F
100
AcDbEntity
  8
0
  6
Continuous
 62
     7
370
    15
100
AcDbLine
 10
171.8108890222
 20
72.0524920544
 30
0.0
 11
171.8108890222
 21
70.3060199859
 31
0.0
  0
LINE
  5
14A
330
1F
100
AcDbEntity
  8
0
  6
Continuous
 62
     7
370
    15
100
AcDbLine
 10
170.3108890222
 20
71.8060199859
 30
0.0
 11
170.3108890222
 21
72.8888543324
 31
0.0
  0
LINE
  5
14B
330
1F
100
AcDbEntity
  8
0
  6
Continuous
 62
     7
370
    15
100
AcDbLine
 10
104.3108890222
 20
104.3060199859
 30
0.0
 11
104.3108890222
 21
76.3060199859
 31
0.0
  0
SPLINE
  5
14C
330
1F
100
AcDbEntity
  8
0
  6
Continuous
 62
     7
370
    15
100
AcDbSpline
210
0.0
220
0.0
230
1.0
 70
     8
 71
     3
 72
    10
 73
     6
 74
     0
 42
0.000000001
 43
0.00000001
 40
0.0
 40
0.0
 40
0.0
 40
0.0
 40
0.3472829518009828
 40
0.6954084526851873
 40
1.0
 40
1.0
 40
1.0
 40
1.0
 10
106.5860290994089
 20
108.5595479173012
 30
0.0
 10
106.7287926463039
 20
108.8956476191409
 30
0.0
 10
107.0146661011662
 20
109.5686624400303
 30
0.0
 10
107.266365941654
 20
110.1950115120138
 30
0.0
 10
107.292530642176
 20
110.260254535704
 30
0.0
 10
107.3047404452431
 20
110.2907003063363
 30
0.0
  0
SPLINE
  5
14D
330
1F
100
AcDbEntity
  8
0
  6
Continuous
 62
     7
370
    15
100
AcDbSpline
210
0.0
220
0.0
230
1.0
 70
     8
 71
     3
 72
    16
 73
    12
 74
     0
 42
0.000000001
 43
0.00000001
 40
0.0
 40
0.0
 40
0.0
 40
0.0
 40
0.1261972859071087
 40
0.2523057075279898
 40
0.3792002878028564
 40
0.5060336522257131
 40
0.622112044995472
 40
0.7382342111571241
 40
0.8536816913002153
 40
0.9691932593050736
 40
1.0
 40
1.0
 40
1.0
 40
1.0
 10
106.5860290994059
 20
105.5500501028536
 30
0.0
 10
106.4690984635203
 20
105.4953537755402
 30
0.0
 10
106.2353195307426
 20
105.3859996364015
 30
0.0
 10
105.9734789969509
 20
105.409137323694
 30
0.0
 10
105.8065858981479
 20
105.5885165688104
 30
0.0
 10
105.7520011765881
 20
105.9220250456964
 30
0.0
 10
105.8107584246417
 20
106.3894320198275
 30
0.0
 10
105.9595696072684
 20
106.9535456372675
 30
0.0
 10
106.1925702066559
 20
107.613504164132
 30
0.0
 10
106.4162876141143
 20
108.1655713658125
 30
0.0
 10
106.5565065562084
 20
108.4910249528584
 30
0.0
 10
106.5860290994089
 20
108.5595479173012
 30
0.0
  0
SPLINE
  5
14E
330
1F
100
AcDbEntity
  8
0
  6
Continuous
 62
     7
370
    15
100
AcDbSpline
210
0.0
220
0.0
230
1.0
 70
     8
 71
     3
 72
    19
 73
    15
 74
     0
 42
0.000000001
 43
0.00000001
 40
0.0
 40
0.0
 40
0.0
 40
0.0
 40
0.0855769788512132
 40
0.1735073385622206
 40
0.2591427523958176
 40
0.3475259764593421
 40
0.4288050836113038
 40
0.5126419224607522
 40
0.5907519850988305
 40
0.6711263156280638
 40
0.7494155777289916
 40
0.8298119002537756
 40
0.913767171558921
 40
1.0
 40
1.0
 40
1.0
 40
1.0
 10
106.5860290994067
 20
100.8763766306679
 30
0.0
 10
106.6595388624934
 20
101.0890817770805
 30
0.0
 10
106.8085799191274
 20
101.5203414960839
 30
0.0
 10
106.9911821421083
 20
102.1853737007935
 30
0.0
 10
107.1398144549726
 20
102.8487566687563
 30
0.0
 10
107.2429771133646
 20
103.4690009789454
 30
0.0
 10
107.3024067019583
 20
104.0370704027616
 30
0.0
 10
107.3174489692763
 20
104.5206840398562
 30
0.0
 10
107.2909955190572
 20
104.9268366337991
 30
0.0
 10
107.2262076282527
 20
105.2408659112768
 30
0.0
 10
107.1234501898676
 20
105.4672690744895
 30
0.0
 10
106.983314027188
 20
105.5994388527899
 30
0.0
 10
106.8062724841851
 20
105.6402364424062
 30
0.0
 10
106.6600956358201
 20
105.5803792308283
 30
0.0
 10
106.5860290994059
 20
105.5500501028536
 30
0.0
  0
SPLINE
  5
14F
330
1F
100
AcDbEntity
  8
0
  6
Continuous
 62
     7
370
    15
100
AcDbSpline
210
0.0
220
0.0
230
1.0
 70
     8
 71
     3
 72
    16
 73
    12
 74
     0
 42
0.000000001
 43
0.00000001
 40
0.0
 40
0.0
 40
0.0
 40
0.0
 40
0.1261954117148924
 40
0.2523019645587818
 40
0.3791968622311143
 40
0.5060305420541903
 40
0.6221090788360281
 40
0.7382313883708705
 40
0.853678757825731
 40
0.9691902150888433
 40
1.0
 40
1.0
 40
1.0
 40
1.0
 10
106.5860290994068
 20
93.6108061911097
 30
0.0
 10
106.4691001162728
 20
93.80977310206468
 30
0.0
 10
106.2353244840399
 20
94.20756682399131
 30
0.0
 10
105.9734844572579
 20
94.96977283987302
 30
0.0
 10
105.8065888710216
 20
95.84504072940904
 30
0.0
 10
105.7520010398704
 20
96.79117211210588
 30
0.0
 10
105.8107557244026
 20
97.76722788445201
 30
0.0
 10
105.9595647343022
 20
98.7356979833328
 30
0.0
 10
106.1925634650095
 20
99.69944879213426
 30
0.0
 10
106.4162820711187
 20
100.4101982005939
 30
0.0
 10
106.5565036711578
 20
100.7952905702688
 30
0.0
 10
106.5860290994067
 20
100.8763766306679
 30
0.0
  0
SPLINE
  5
150
330
1F
100
AcDbEntity
  8
0
  6
Continuous
 62
     7
370
    15
100
AcDbSpline
210
0.0
220
0.0
230
1.0
 70
     8
 71
     3
 72
    13
 73
     9
 74
     0
 42
0.000000001
 43
0.00000001
 40
0.0
 40
0.0
 40
0.0
 40
0.0
 40
0.1735274932638163
 40
0.347475984533302
 40
0.5125418655591778
 40
0.6710295171735883
 40
0.8297608130564003
 40
1.0
 40
1.0
 40
1.0
 40
1.0
 10
106.5860290994067
 20
87.00123378064133
 30
0.0
 10
106.7296367233278
 20
87.28143285009229
 30
0.0
 10
107.0172003800713
 20
87.84251078472688
 30
0.0
 10
107.262899525093
 20
89.07036946559752
 30
0.0
 10
107.3390444137805
 20
90.3915221798631
 30
0.0
 10
107.2429381656399
 20
91.65952368613557
 30
0.0
 10
106.9998672124519
 20
92.80707570692981
 30
0.0
 10
106.7271550994771
 20
93.33672010577484
 30
0.0
 10
106.5860290994068
 20
93.61080619110972
 30
0.0
  0
SPLINE
  5
151
330
1F
100
AcDbEntity
  8
0
  6
Continuous
 62
     7
370
    15
100
AcDbSpline
210
0.0
220
0.0
230
1.0
 70
     8
 71
     3
 72
    16
 73
    12
 74
     0
 42
0.000000001
 43
0.00000001
 40
0.0
 40
0.0
 40
0.0
 40
0.0
 40
0.1264962559498448
 40
0.2529036824100966
 40
0.3800899751862528
 40
0.507217169554707
 40
0.6237421202764424
 40
0.7403118530593096
 40
0.8565151858428584
 40
0.972783013394265
 40
1.0
 40
1.0
 40
1.0
 40
1.0
 10
106.5705531633076
 20
79.77769207869892
 30
0.0
 10
106.4548298893409
 20
80.1133891121801
 30
0.0
 10
106.2234646057839
 20
80.78454744255158
 30
0.0
 10
105.9657089148055
 20
81.83685318799982
 30
0.0
 10
105.8030120015787
 20
82.89169286096099
 30
0.0
 10
105.7522243819366
 20
83.89214048998238
 30
0.0
 10
105.8141105118594
 20
84.80090985272108
 30
0.0
 10
105.9655791192928
 20
85.60310540208177
 30
0.0
 10
106.2008674120341
 20
86.3031903592794
 30
0.0
 10
106.4230940132111
 20
86.74747064460402
 30
0.0
 10
106.5600504510341
 20
86.96077335290309
 30
0.0
 10
106.5860290994067
 20
87.00123378064133
 30
0.0
  0
SPLINE
  5
152
330
1F
100
AcDbEntity
  8
0
  6
Continuous
 62
     7
370
    15
100
AcDbSpline
210
0.0
220
0.0
230
1.0
 70
     8
 71
     3
 72
    19
 73
    15
 74
     0
 42
0.000000001
 43
0.00000001
 40
0.0
 40
0.0
 40
0.0
 40
0.0
 40
0.0848194393149625
 40
0.1719710587643858
 40
0.2568487638895635
 40
0.3444537197813806
 40
0.4249542201458807
 40
0.5079937877788812
 40
0.5852639676497331
 40
0.6647792938729017
 40
0.7421348862892286
 40
0.8215762606479925
 40
0.9094442829817808
 40
1.0
 40
1.0
 40
1.0
 40
1.0
 10
106.5705531633076
 20
75.07054062020856
 30
0.0
 10
106.644867671194
 20
75.03809585702616
 30
0.0
 10
106.7955400253853
 20
74.97231423525524
 30
0.0
 10
106.980787895853
 20
75.00944337104025
 30
0.0
 10
107.1321802894407
 20
75.1534296954943
 30
0.0
 10
107.2380350532206
 20
75.40693917607035
 30
0.0
 10
107.3000810753657
 20
75.7605830966498
 30
0.0
 10
107.3175328606623
 20
76.18696182942993
 30
0.0
 10
107.293373677673
 20
76.68354677422604
 30
0.0
 10
107.2307482082014
 20
77.22314041929268
 30
0.0
 10
107.1300790328122
 20
77.80655952550093
 30
0.0
 10
106.9891496951454
 20
78.43306895948456
 30
0.0
 10
106.8057408080285
 20
79.10258033936597
 30
0.0
 10
106.649732391673
 20
79.55040621661968
 30
0.0
 10
106.5705531633076
 20
79.7776920786989
 30
0.0
  0
SPLINE
  5
153
330
1F
100
AcDbEntity
  8
0
  6
Continuous
 62
     7
370
    15
100
AcDbSpline
210
0.0
220
0.0
230
1.0
 70
     8
 71
     3
 72
    15
 73
    11
 74
     0
 42
0.000000001
 43
0.00000001
 40
0.0
 40
0.0
 40
0.0
 40
0.0
 40
0.127184969637457
 40
0.2542806304146252
 40
0.3821616953698172
 40
0.5099833371586521
 40
0.6271446673522504
 40
0.7443510234677265
 40
0.8721298639779491
 40
1.0
 40
1.0
 40
1.0
 40
1.0
 10
106.5705531633076
 20
72.0882571540645
 30
0.0
 10
106.4548312746658
 20
72.36278812622494
 30
0.0
 10
106.2234687569053
 20
72.91165729581539
 30
0.0
 10
105.9657182502936
 20
73.63520435794885
 30
0.0
 10
105.8030007816127
 20
74.25064333758178
 30
0.0
 10
105.7522752508811
 20
74.71917031715724
 30
0.0
 10
105.8139344818738
 20
75.02964948272059
 30
0.0
 10
105.9709656618087
 20
75.19903951660436
 30
0.0
 10
106.2216691993853
 20
75.22882143700383
 30
0.0
 10
106.4542308250921
 20
75.12331345188962
 30
0.0
 10
106.5705531633076
 20
75.07054062020856
 30
0.0
  0
SPLINE
  5
154
330
1F
100
AcDbEntity
  8
0
  6
Continuous
 62
     7
370
    15
100
AcDbSpline
210
0.0
220
0.0
230
1.0
 70
     8
 71
     3
 72
    11
 73
     7
 74
     0
 42
0.000000001
 43
0.00000001
 40
0.0
 40
0.0
 40
0.0
 40
0.0
 40
0.0162940010877045
 40
0.3297544312309598
 40
0.643322395266444
 40
1.0
 40
1.0
 40
1.0
 40
1.0
 10
107.3066463354473
 20
70.31649872488421
 30
0.0
 10
107.3079947515042
 20
70.31314072851147
 30
0.0
 10
107.3352837008234
 20
70.24518233216641
 30
0.0
 10
107.2360848214616
 20
70.49249332979157
 30
0.0
 10
107.0070822146075
 20
71.06080127482714
 30
0.0
 10
106.7221712594142
 20
71.7313945265265
 30
0.0
 10
106.5705531633076
 20
72.08825715406448
 30
0.0
  0
LINE
  5
155
330
1F
100
AcDbEntity
  8
0
  6
Continuous
 62
     7
370
    15
100
AcDbLine
 10
106.5860290994
 20
93.6108061911
 30
0.0
 11
117.8108890222
 21
93.6108061911
 31
0.0
  0
LINE
  5
156
330
1F
100
AcDbEntity
  8
0
  6
Continuous
 62
     7
370
    15
100
AcDbLine
 10
117.8108890222
 20
87.0012337806
 30
0.0
 11
117.8108890222
 21
93.6108061911
 31
0.0
  0
LINE
  5
157
330
1F
100
AcDbEntity
  8
0
  6
Continuous
 62
     7
370
    15
100
AcDbLine
 10
106.5860290994
 20
87.0012337806
 30
0.0
 11
117.8108890222
 21
87.0012337806
 31
0.0
  0
LINE
  5
158
330
1F
100
AcDbEntity
  8
0
  6
Continuous
 62
     7
370
    15
100
AcDbLine
 10
117.8108890222
 20
93.6108061911
 30
0.0
 11
119.3108890222
 21
92.3655445695
 31
0.0
  0
LINE
  5
159
330
1F
100
AcDbEntity
  8
0
  6
Continuous
 62
     7
370
    15
100
AcDbLine
 10
119.3108890222
 20
92.3655445695
 30
0.0
 11
119.3108890222
 21
88.2464954022
 31
0.0
  0
LINE
  5
15A
330
1F
100
AcDbEntity
  8
0
  6
Continuous
 62
     7
370
    15
100
AcDbLine
 10
117.8108890222
 20
87.0012337806
 30
0.0
 11
119.3108890222
 21
88.2464954022
 31
0.0
  0
LINE
  5
15B
330
1F
100
AcDbEntity
  8
0
  6
Continuous
 62
     7
370
    15
100
AcDbLine
 10
106.5860290994
 20
100.8763766307
 30
0.0
 11
117.8108890222
 21
100.8763766307
 31
0.0
  0
LINE
  5
15C
330
1F
100
AcDbEntity
  8
0
  6
Continuous
 62
     7
370
    15
100
AcDbLine
 10
117.8108890222
 20
93.6108061911
 30
0.0
 11
117.8108890222
 21
100.8763766307
 31
0.0
  0
LINE
  5
15D
330
1F
100
AcDbEntity
  8
0
  6
Continuous
 62
     7
370
    15
100
AcDbLine
 10
117.8108890222
 20
79.7776920787
 30
0.0
 11
117.8108890222
 21
87.0012337806
 31
0.0
  0
LINE
  5
15E
330
1F
100
AcDbEntity
  8
0
  6
Continuous
 62
     7
370
    15
100
AcDbLine
 10
106.5705531633
 20
79.7776920787
 30
0.0
 11
117.8108890222
 21
79.7776920787
 31
0.0
  0
LINE
  5
15F
330
1F
100
AcDbEntity
  8
0
  6
Continuous
 62
     7
370
    15
100
AcDbLine
 10
119.3108890222
 20
101.1655121294
 30
0.0
 11
117.8108890222
 21
100.8763766307
 31
0.0
  0
LINE
  5
160
330
1F
100
AcDbEntity
  8
0
  6
Continuous
 62
     7
370
    15
100
AcDbLine
 10
119.3108890222
 20
101.1655121294
 30
0.0
 11
119.3108890222
 21
92.3655445695
 31
0.0
  0
LINE
  5
161
330
1F
100
AcDbEntity
  8
0
  6
Continuous
 62
     7
370
    15
100
AcDbLine
 10
117.8108890222
 20
79.7776920787
 30
0.0
 11
119.3108890222
 21
79.4831477491
 31
0.0
  0
LINE
  5
162
330
1F
100
AcDbEntity
  8
0
  6
Continuous
 62
     7
370
    15
100
AcDbLine
 10
119.3108890222
 20
88.2464954022
 30
0.0
 11
119.3108890222
 21
79.4831477491
 31
0.0
  0
LINE
  5
163
330
1F
100
AcDbEntity
  8
0
  6
Continuous
 62
     7
370
    15
100
AcDbLine
 10
117.8108890222
 20
100.8763766307
 30
0.0
 11
117.8108890222
 21
105.6197284849
 31
0.0
  0
LINE
  5
164
330
1F
100
AcDbEntity
  8
0
  6
Continuous
 62
     7
370
    15
100
AcDbLine
 10
119.3108890222
 20
104.1197284849
 30
0.0
 11
119.3108890222
 21
101.1655121294
 31
0.0
  0
LINE
  5
165
330
1F
100
AcDbEntity
  8
0
  6
Continuous
 62
     7
370
    15
100
AcDbLine
 10
117.8108890222
 20
74.9926728276
 30
0.0
 11
117.8108890222
 21
79.7776920787
 31
0.0
  0
LINE
  5
166
330
1F
100
AcDbEntity
  8
0
  6
Continuous
 62
     7
370
    15
100
AcDbLine
 10
119.3108890222
 20
79.4831477491
 30
0.0
 11
119.3108890222
 21
76.4926728276
 31
0.0
  0
LINE
  5
167
330
1F
100
AcDbEntity
  8
0
  6
Continuous
 62
     7
370
    15
100
AcDbLine
 10
117.8108890222
 20
105.6197284849
 30
0.0
 11
117.8108890222
 21
108.5595479173
 31
0.0
  0
LINE
  5
168
330
1F
100
AcDbEntity
  8
0
  6
Continuous
 62
     7
370
    15
100
AcDbLine
 10
119.3108890222
 20
107.7231856394
 30
0.0
 11
117.8108890222
 21
108.5595479173
 31
0.0
  0
LINE
  5
169
330
1F
100
AcDbEntity
  8
0
  6
Continuous
 62
     7
370
    15
100
AcDbLine
 10
119.3108890222
 20
107.7231856394
 30
0.0
 11
119.3108890222
 21
104.1197284849
 31
0.0
  0
LINE
  5
16A
330
1F
100
AcDbEntity
  8
0
  6
Continuous
 62
     7
370
    15
100
AcDbLine
 10
117.8108890222
 20
72.0882571541
 30
0.0
 11
117.8108890222
 21
74.9926728276
 31
0.0
  0
LINE
  5
16B
330
1F
100
AcDbEntity
  8
0
  6
Continuous
 62
     7
370
    15
100
AcDbLine
 10
117.8108890222
 20
72.0882571541
 30
0.0
 11
119.3108890222
 21
72.919993351
 31
0.0
  0
LINE
  5
16C
330
1F
100
AcDbEntity
  8
0
  6
Continuous
 62
     7
370
    15
100
AcDbLine
 10
119.3108890222
 20
76.4926728276
 30
0.0
 11
119.3108890222
 21
72.919993351
 31
0.0
  0
LINE
  5
16D
330
1F
100
AcDbEntity
  8
0
  6
Continuous
 62
     7
370
    15
100
AcDbLine
 10
106.5860290994
 20
108.5595479173
 30
0.0
 11
117.8108890222
 21
108.5595479173
 31
0.0
  0
LINE
  5
16E
330
1F
100
AcDbEntity
  8
0
  6
Continuous
 62
     7
370
    15
100
AcDbLine
 10
106.5705531633
 20
72.0882571541
 30
0.0
 11
117.8108890222
 21
72.0882571541
 31
0.0
  0
LINE
  5
16F
330
1F
100
AcDbEntity
  8
0
  6
Continuous
 62
     7
370
    15
100
AcDbLine
 10
117.8108890222
 20
70.3063813266
 30
0.0
 11
117.8108890222
 21
72.0882571541
 31
0.0
  0
LINE
  5
170
330
1F
100
AcDbEntity
  8
0
  6
Continuous
 62
     7
370
    15
100
AcDbLine
 10
119.3108890222
 20
72.919993351
 30
0.0
 11
119.3108890222
 21
71.8063813266
 31
0.0
  0
LINE
  5
171
330
1F
100
AcDbEntity
  8
0
  6
Continuous
 62
     7
370
    15
100
AcDbLine
 10
117.8108890222
 20
108.5595479173
 30
0.0
 11
117.8108890222
 21
110.3060199859
 31
0.0
  0
LINE
  5
172
330
1F
100
AcDbEntity
  8
0
  6
Continuous
 62
     7
370
    15
100
AcDbLine
 10
119.3108890222
 20
108.8060199859
 30
0.0
 11
119.3108890222
 21
107.7231856394
 31
0.0
  0
LINE
  5
173
330
1F
100
AcDbEntity
  8
0
  6
Continuous
 62
     7
370
    15
100
AcDbLine
 10
138.3108890222
 20
52.3060199859
 30
0.0
 11
138.3108890222
 21
128.3060199859
 31
0.0
  0
LINE
  5
174
330
1F
100
AcDbEntity
  8
0
  6
Continuous
 62
     7
370
    15
100
AcDbLine
 10
138.3108890222
 20
52.3060199859
 30
0.0
 11
125.8108890222
 21
52.3060199859
 31
0.0
  0
LINE
  5
175
330
1F
100
AcDbEntity
  8
0
  6
Continuous
 62
     7
370
    15
100
AcDbLine
 10
138.3108890222
 20
128.3060199859
 30
0.0
 11
125.8108890222
 21
128.3060199859
 31
0.0
  0
CIRCLE
  5
176
330
1F
100
AcDbEntity
  8
0
  6
Continuous
 62
     7
370
    15
100
AcDbCircle
 10
132.1108890222
 20
103.0060199859
 30
0.0
 40
2.552700000000002
  0
CIRCLE
  5
177
330
1F
100
AcDbEntity
  8
0
  6
Continuous
 62
     7
370
    15
100
AcDbCircle
 10
132.1108890222
 20
115.7060199859
 30
0.0
 40
2.552699999999987
  0
CIRCLE
  5
178
330
1F
100
AcDbEntity
  8
0
  6
Continuous
 62
     7
370
    15
100
AcDbCircle
 10
132.1108890222
 20
64.9060199859
 30
0.0
 40
2.552699999999987
  0
LINE
  5
179
330
1F
100
AcDbEntity
  8
0
  6
Continuous
 62
     7
370
    15
100
AcDbLine
 10
125.8108890222
 20
52.3060199859
 30
0.0
 11
125.8108890222
 21
128.3060199859
 31
0.0
  0
LINE
  5
17A
330
1F
100
AcDbEntity
  8
0
  6
Continuous
 62
     7
370
    15
100
AcDbLine
 10
163.8108890222
 20
52.3060199859
 30
0.0
 11
163.8108890222
 21
128.3060199859
 31
0.0
  0
LINE
  5
17B
330
1F
100
AcDbEntity
  8
0
  6
Continuous
 62
     7
370
    15
100
AcDbLine
 10
151.3108890222
 20
52.3060199859
 30
0.0
 11
151.3108890222
 21
128.3060199859
 31
0.0
  0
CIRCLE
  5
17C
330
1F
100
AcDbEntity
  8
0
  6
Continuous
 62
     7
370
    15
100
AcDbCircle
 10
157.5108890222
 20
115.7060199859
 30
0.0
 40
2.552699999999987
  0
CIRCLE
  5
17D
330
1F
100
AcDbEntity
  8
0
  6
Continuous
 62
     7
370
    15
100
AcDbCircle
 10
157.5108890222
 20
103.0060199859
 30
0.0
 40
2.552700000000002
  0
CIRCLE
  5
17E
330
1F
100
AcDbEntity
  8
0
  6
Continuous
 62
     7
370
    15
100
AcDbCircle
 10
157.5108890222
 20
64.9060199859
 30
0.0
 40
2.552699999999987
  0
LINE
  5
17F
330
1F
100
AcDbEntity
  8
0
  6
Continuous
 62
     7
370
    15
100
AcDbLine
 10
163.8108890222
 20
128.3060199859
 30
0.0
 11
151.3108890222
 21
128.3060199859
 31
0.0
  0
LINE
  5
180
330
1F
100
AcDbEntity
  8
0
  6
Continuous
 62
     7
370
    15
100
AcDbLine
 10
163.8108890222
 20
52.3060199859
 30
0.0
 11
151.3108890222
 21
52.3060199859
 31
0.0
  0
CIRCLE
  5
181
330
1F
100
AcDbEntity
  8
0
  6
Continuous
 62
     7
370
    15
100
AcDbCircle
 10
144.8108890222
 20
64.9060199859
 30
0.0
 40
2.552699999999987
  0
CIRCLE
  5
182
330
1F
100
AcDbEntity
  8
0
  6
Continuous
 62
     7
370
    15
100
AcDbCircle
 10
144.8108890222
 20
90.3060199859
 30
0.0
 40
2.552699999999987
  0
CIRCLE
  5
183
330
1F
100
AcDbEntity
  8
0
  6
Continuous
 62
     7
370
    15
100
AcDbCircle
 10
144.8108890222
 20
115.7060199859
 30
0.0
 40
2.552699999999973
  0
LINE
  5
184
330
1F
100
AcDbEntity
  8
0
  6
Continuous
 62
     7
370
    15
100
AcDbLine
 10
151.3108890222
 20
128.3060199859
 30
0.0
 11
138.3108890222
 21
128.3060199859
 31
0.0
  0
LINE
  5
185
330
1F
100
AcDbEntity
  8
0
  6
Continuous
 62
     7
370
    15
100
AcDbLine
 10
151.3108890222
 20
52.3060199859
 30
0.0
 11
138.3108890222
 21
52.3060199859
 31
0.0
  0
LINE
  5
186
330
1F
100
AcDbEntity
  8
0
  6
Continuous
 62
     7
370
    15
100
AcDbLine
 10
169.8108890222
 20
128.3060199859
 30
0.0
 11
163.8108890222
 21
128.3060199859
 31
0.0
  0
LINE
  5
187
330
1F
100
AcDbEntity
  8
0
  6
Continuous
 62
     7
370
    15
100
AcDbLine
 10
169.8108890222
 20
52.3060199859
 30
0.0
 11
163.8108890222
 21
52.3060199859
 31
0.0
  0
LINE
  5
188
330
1F
100
AcDbEntity
  8
0
  6
Continuous
 62
     7
370
    15
100
AcDbLine
 10
125.8108890222
 20
128.3060199859
 30
0.0
 11
119.8108890222
 21
128.3060199859
 31
0.0
  0
LINE
  5
189
330
1F
100
AcDbEntity
  8
0
  6
Continuous
 62
     7
370
    15
100
AcDbLine
 10
125.8108890222
 20
52.3060199859
 30
0.0
 11
119.8108890222
 21
52.3060199859
 31
0.0
  0
DIMENSION
  5
18A
330
1F
100
AcDbEntity
  8
DIM
 62
     7
100
AcDbDimension
  2
_D
 10
169.8108890222
 20
144.8060199859
 30
0.0
 11
144.8108890222
 21
144.8060199859
 31
0.0
 70
   160
  1
<>
 71
     2
 42
-1.0
  3
SLDDIMSTYLE0
100
AcDbAlignedDimension
 13
119.8108890222
 23
128.3060199859
 33
0.0
 14
169.8108890222
 24
128.3060199859
 34
0.0
 50
0.0
100
AcDbRotatedDimension
  0
DIMENSION
  5
195
330
1F
100
AcDbEntity
  8
DIM
 62
     7
100
AcDbDimension
  2
_D_1
 10
75.5357789975
 20
52.3060199859
 30
0.0
 11
75.5357789975
 21
90.3060199859
 31
0.0
 70
   160
  1
<>
 71
     2
 42
-1.0
  3
SLDDIMSTYLE0
100
AcDbAlignedDimension
 13
119.8108890222
 23
128.3060199859
 33
0.0
 14
119.8108890222
 24
52.3060199859
 34
0.0
 50
90.0
100
AcDbRotatedDimension
  0
DIMENSION
  5
19F
330
1F
100
AcDbEntity
  8
DIM
100
AcDbDimension
  2
_D_2
 10
155.300185974
 20
114.4296699859
 30
0.0
 11
193.181269248
 21
134.2778419775
 31
0.0
 70
   163
  1
9 HOLES,\P 1/4"-20
 71
     1
 42
-1.0
  3
SLDDIMSTYLE1
100
AcDbDiametricDimension
 15
159.7215920705
 25
116.9823699859
 35
0.0
 40
0.0
  0
DIMENSION
  5
1A9
330
1F
100
AcDbEntity
  8
DIM
100
AcDbDimension
  2
_D_3
 10
132.1108890222
 20
135.8060199859
 30
0.0
 11
138.4608890222
 21
135.8060199859
 31
0.0
 70
   160
  1
<>
 71
     2
 42
-1.0
  3
SLDDIMSTYLE0
100
AcDbAlignedDimension
 13
144.8108890222
 23
119.2587199859
 33
0.0
 14
132.1108890222
 24
119.2587199859
 34
0.0
100
AcDbRotatedDimension
  0
DIMENSION
  5
1B3
330
1F
100
AcDbEntity
  8
DIM
100
AcDbDimension
  2
_D_4
 10
157.5108890222
 20
135.8060199859
 30
0.0
 11
151.1608890222
 21
135.8060199859
 31
0.0
 70
   160
  1
<>
 71
     2
 42
-1.0
  3
SLDDIMSTYLE0
100
AcDbAlignedDimension
 13
144.8108890222
 23
119.2587199859
 33
0.0
 14
157.5108890222
 24
119.2587199859
 34
0.0
100
AcDbRotatedDimension
  0
DIMENSION
  5
1BD
330
1F
100
AcDbEntity
  8
DIM
100
AcDbDimension
  2
_D_5
 10
95.4439304334
 20
90.3060199859
 30
0.0
 11
95.4439304334
 21
96.6560199859
 31
0.0
 70
   160
  1
<>
 71
     2
 42
-1.0
  3
SLDDIMSTYLE0
100
AcDbAlignedDimension
 13
128.5581890222
 23
103.0060199859
 33
0.0
 14
141.2581890222
 24
90.3060199859
 34
0.0
 50
90.0
100
AcDbRotatedDimension
  0
DIMENSION
  5
1C7
330
1F
100
AcDbEntity
  8
DIM
100
AcDbDimension
  2
_D_6
 10
85.4205408029
 20
115.7060199859
 30
0.0
 11
85.4205408029
 21
103.0060199859
 31
0.0
 70
   160
  1
<>
 71
     2
 42
-1.0
  3
SLDDIMSTYLE0
100
AcDbAlignedDimension
 13
141.2581890222
 23
90.3060199859
 33
0.0
 14
128.5581890222
 24
115.7060199859
 34
0.0
 50
90.0
100
AcDbRotatedDimension
  0
DIMENSION
  5
1D1
330
1F
100
AcDbEntity
  8
DIM
100
AcDbDimension
  2
_D_7
 10
85.4205408029
 20
64.9060199859
 30
0.0
 11
85.4205408029
 21
77.6060199859
 31
0.0
 70
   160
  1
<>
 71
     2
 42
-1.0
  3
SLDDIMSTYLE0
100
AcDbAlignedDimension
 13
141.2581890222
 23
90.3060199859
 33
0.0
 14
132.1108890222
 24
64.9060199859
 34
0.0
 50
90.0
100
AcDbRotatedDimension
  0
INSERT
  5
1E6
330
1F
100
AcDbEntity
  8
DIM
100
AcDbBlockReference
  2
SW_CENTERMARKSYMBOL_0
 10
132.1108890222
 20
115.7060199859
 30
0.0
  0
INSERT
  5
1F2
330
1F
100
AcDbEntity
  8
DIM
100
AcDbBlockReference
  2
SW_CENTERMARKSYMBOL_1
 10
144.8108890222
 20
115.7060199859
 30
0.0
  0
INSERT
  5
1FE
330
1F
100
AcDbEntity
  8
DIM
100
AcDbBlockReference
  2
SW_CENTERMARKSYMBOL_2
 10
157.5108890222
 20
115.7060199859
 30
0.0
  0
INSERT
  5
20A
330
1F
100
AcDbEntity
  8
DIM
100
AcDbBlockReference
  2
SW_CENTERMARKSYMBOL_3
 10
157.5108890222
 20
103.0060199859
 30
0.0
  0
INSERT
  5
216
330
1F
100
AcDbEntity
  8
DIM
100
AcDbBlockReference
  2
SW_CENTERMARKSYMBOL_4
 10
132.1108890222
 20
103.0060199859
 30
0.0
  0
INSERT
  5
222
330
1F
100
AcDbEntity
  8
DIM
100
AcDbBlockReference
  2
SW_CENTERMARKSYMBOL_5
 10
144.8108890222
 20
90.3060199859
 30
0.0
  0
INSERT
  5
22E
330
1F
100
AcDbEntity
  8
DIM
100
AcDbBlockReference
  2
SW_CENTERMARKSYMBOL_6
 10
144.8108890222
 20
64.9060199859
 30
0.0
  0
INSERT
  5
23A
330
1F
100
AcDbEntity
  8
DIM
100
AcDbBlockReference
  2
SW_CENTERMARKSYMBOL_7
 10
157.5108890222
 20
64.9060199859
 30
0.0
  0
INSERT
  5
246
330
1F
100
AcDbEntity
  8
DIM
100
AcDbBlockReference
  2
SW_CENTERMARKSYMBOL_8
 10
132.1108890222
 20
64.9060199859
 30
0.0
  0
LINE
  5
247
330
1F
100
AcDbEntity
  8
0
  6
Continuous
 62
     7
370
    15
100
AcDbLine
 10
182.3108890222
 20
214.3059301474
 30
0.0
 11
185.3108890222
 21
220.3059301474
 31
0.0
  0
LINE
  5
248
330
1F
100
AcDbEntity
  8
0
  6
Continuous
 62
     7
370
    15
100
AcDbLine
 10
185.3108890222
 20
248.3059301474
 30
0.0
 11
182.3108890222
 21
254.3059301474
 31
0.0
  0
LINE
  5
249
330
1F
100
AcDbEntity
  8
0
  6
Continuous
 62
     7
370
    15
100
AcDbLine
 10
182.8083272688
 20
249.6192773057
 30
0.0
 11
171.8108890222
 21
249.6192773057
 31
0.0
  0
LINE
  5
24A
330
1F
100
AcDbEntity
  8
0
  6
Continuous
 62
     7
370
    15
100
AcDbLine
 10
171.8108890222
 20
249.6192773057
 30
0.0
 11
170.3108890222
 21
248.1192773057
 31
0.0
  0
LINE
  5
24B
330
1F
100
AcDbEntity
  8
0
  6
Continuous
 62
     7
370
    15
100
AcDbLine
 10
171.8108890222
 20
218.9925829891
 30
0.0
 11
182.7936974285
 21
218.9925829891
 31
0.0
  0
LINE
  5
24C
330
1F
100
AcDbEntity
  8
0
  6
Continuous
 62
     7
370
    15
100
AcDbLine
 10
170.3108890222
 20
220.4925829891
 30
0.0
 11
171.8108890222
 21
218.9925829891
 31
0.0
  0
LINE
  5
24D
330
1F
100
AcDbEntity
  8
0
  6
Continuous
 62
     7
370
    15
100
AcDbLine
 10
160.3108890222
 20
226.8059301474
 30
0.0
 11
170.3108890222
 21
226.8059301474
 31
0.0
  0
LINE
  5
24E
330
1F
100
AcDbEntity
  8
0
  6
Continuous
 62
     7
370
    15
100
AcDbLine
 10
170.3108890222
 20
241.8059301474
 30
0.0
 11
160.3108890222
 21
241.8059301474
 31
0.0
  0
LINE
  5
24F
330
1F
100
AcDbEntity
  8
0
  6
Continuous
 62
     7
370
    15
100
AcDbLine
 10
171.8108890222
 20
214.3059301474
 30
0.0
 11
182.3169211253
 21
214.3059301474
 31
0.0
  0
LINE
  5
250
330
1F
100
AcDbEntity
  8
0
  6
Continuous
 62
     7
370
    15
100
AcDbLine
 10
182.3169211253
 20
254.3059301474
 30
0.0
 11
171.8108890222
 21
254.3059301474
 31
0.0
  0
LINE
  5
251
330
1F
100
AcDbEntity
  8
0
  6
Continuous
 62
     7
370
    15
100
AcDbLine
 10
170.3108890222
 20
215.8059301474
 30
0.0
 11
171.8108890222
 21
214.3059301474
 31
0.0
  0
LINE
  5
252
330
1F
100
AcDbEntity
  8
0
  6
Continuous
 62
     7
370
    15
100
AcDbLine
 10
171.8108890222
 20
254.3059301474
 30
0.0
 11
170.3108890222
 21
252.8059301474
 31
0.0
  0
LINE
  5
253
330
1F
100
AcDbEntity
  8
0
  6
Continuous
 62
     7
370
    15
100
AcDbLine
 10
107.3108890222
 20
254.3059301474
 30
0.0
 11
104.3108890222
 21
248.3059301474
 31
0.0
  0
LINE
  5
254
330
1F
100
AcDbEntity
  8
0
  6
Continuous
 62
     7
370
    15
100
AcDbLine
 10
104.3108890222
 20
220.3059301474
 30
0.0
 11
107.3108890222
 21
214.3059301474
 31
0.0
  0
LINE
  5
255
330
1F
100
AcDbEntity
  8
0
  6
Continuous
 62
     7
370
    15
100
AcDbLine
 10
119.3108890222
 20
248.1196386464
 30
0.0
 11
117.8108890222
 21
249.6196386464
 31
0.0
  0
LINE
  5
256
330
1F
100
AcDbEntity
  8
0
  6
Continuous
 62
     7
370
    15
100
AcDbLine
 10
117.8108890222
 20
249.6196386464
 30
0.0
 11
106.8139760874
 21
249.6196386464
 31
0.0
  0
LINE
  5
257
330
1F
100
AcDbEntity
  8
0
  6
Continuous
 62
     7
370
    15
100
AcDbLine
 10
117.8108890222
 20
218.9922216484
 30
0.0
 11
119.3108890222
 21
220.4922216484
 31
0.0
  0
LINE
  5
258
330
1F
100
AcDbEntity
  8
0
  6
Continuous
 62
     7
370
    15
100
AcDbLine
 10
106.8282129199
 20
218.9922216484
 30
0.0
 11
117.8108890222
 21
218.9922216484
 31
0.0
  0
LINE
  5
259
330
1F
100
AcDbEntity
  8
0
  6
Continuous
 62
     7
370
    15
100
AcDbLine
 10
129.3108890222
 20
241.8059301474
 30
0.0
 11
119.3108890222
 21
241.8059301474
 31
0.0
  0
LINE
  5
25A
330
1F
100
AcDbEntity
  8
0
  6
Continuous
 62
     7
370
    15
100
AcDbLine
 10
119.3108890222
 20
226.8059301474
 30
0.0
 11
129.3108890222
 21
226.8059301474
 31
0.0
  0
LINE
  5
25B
330
1F
100
AcDbEntity
  8
0
  6
Continuous
 62
     7
370
    15
100
AcDbLine
 10
117.8108890222
 20
254.3059301474
 30
0.0
 11
107.3048569191
 21
254.3059301474
 31
0.0
  0
LINE
  5
25C
330
1F
100
AcDbEntity
  8
0
  6
Continuous
 62
     7
370
    15
100
AcDbLine
 10
119.3108890222
 20
252.8059301474
 30
0.0
 11
117.8108890222
 21
254.3059301474
 31
0.0
  0
LINE
  5
25D
330
1F
100
AcDbEntity
  8
0
  6
Continuous
 62
     7
370
    15
100
AcDbLine
 10
117.8108890222
 20
214.3059301474
 30
0.0
 11
119.3108890222
 21
215.8059301474
 31
0.0
  0
LINE
  5
25E
330
1F
100
AcDbEntity
  8
0
  6
Continuous
 62
     7
370
    15
100
AcDbLine
 10
107.3048569191
 20
214.3059301474
 30
0.0
 11
117.8108890222
 21
214.3059301474
 31
0.0
  0
LINE
  5
25F
330
1F
100
AcDbEntity
  8
0
  6
Continuous
 62
     7
370
    15
100
AcDbLine
 10
147.8108890222
 20
227.0559301474
 30
0.0
 11
149.1608890222
 21
227.0559301474
 31
0.0
  0
LINE
  5
260
330
1F
100
AcDbEntity
  8
0
  6
Continuous
 62
     7
370
    15
100
AcDbLine
 10
149.1608890222
 20
241.5559301474
 30
0.0
 11
146.8108890222
 21
241.5559301474
 31
0.0
  0
LINE
  5
261
330
1F
100
AcDbEntity
  8
0
  6
Continuous
 62
     7
370
    15
100
AcDbLine
 10
141.8108890222
 20
224.1559301474
 30
0.0
 11
146.8108890222
 21
224.1559301474
 31
0.0
  0
LINE
  5
262
330
1F
100
AcDbEntity
  8
0
  6
Continuous
 62
     7
370
    15
100
AcDbLine
 10
146.8108890222
 20
244.4559301474
 30
0.0
 11
141.8108890222
 21
244.4559301474
 31
0.0
  0
LINE
  5
263
330
1F
100
AcDbEntity
  8
0
  6
Continuous
 62
     7
370
    15
100
AcDbLine
 10
156.3108890222
 20
227.9559301474
 30
0.0
 11
160.3108890222
 21
227.9559301474
 31
0.0
  0
LINE
  5
264
330
1F
100
AcDbEntity
  8
0
  6
Continuous
 62
     7
370
    15
100
AcDbLine
 10
160.3108890222
 20
240.6559301474
 30
0.0
 11
156.3108890222
 21
240.6559301474
 31
0.0
  0
LINE
  5
265
330
1F
100
AcDbEntity
  8
0
  6
Continuous
 62
     7
370
    15
100
AcDbLine
 10
133.3108890222
 20
240.6559301474
 30
0.0
 11
129.3108890222
 21
240.6559301474
 31
0.0
  0
LINE
  5
266
330
1F
100
AcDbEntity
  8
0
  6
Continuous
 62
     7
370
    15
100
AcDbLine
 10
129.3108890222
 20
227.9559301474
 30
0.0
 11
133.3108890222
 21
227.9559301474
 31
0.0
  0
LINE
  5
267
330
1F
100
AcDbEntity
  8
0
  6
Continuous
 62
     7
370
    15
100
AcDbLine
 10
149.1608890222
 20
230.8059301474
 30
0.0
 11
149.8108890222
 21
230.8059301474
 31
0.0
  0
LINE
  5
268
330
1F
100
AcDbEntity
  8
0
  6
Continuous
 62
     7
370
    15
100
AcDbLine
 10
149.8108890222
 20
237.8059301474
 30
0.0
 11
149.1608890222
 21
237.8059301474
 31
0.0
  0
CIRCLE
  5
269
330
1F
100
AcDbEntity
  8
0
  6
Continuous
 62
     7
370
    15
100
AcDbCircle
 10
165.3108890222
 20
234.3059301474
 30
0.0
 40
2.0
  0
CIRCLE
  5
26A
330
1F
100
AcDbEntity
  8
0
  6
Continuous
 62
     7
370
    15
100
AcDbCircle
 10
165.3108890222
 20
234.3059301474
 30
0.0
 40
1.699999999999989
  0
LINE
  5
26B
330
1F
100
AcDbEntity
  8
0
  6
Continuous
 62
     7
370
    15
100
AcDbLine
 10
164.7858890222
 20
233.3966034734
 30
0.0
 11
165.8358890222
 21
233.3966034734
 31
0.0
  0
LINE
  5
26C
330
1F
100
AcDbEntity
  8
0
  6
Continuous
 62
     7
370
    15
100
AcDbLine
 10
165.8358890222
 20
233.3966034734
 30
0.0
 11
166.3608890222
 21
234.3059301474
 31
0.0
  0
LINE
  5
26D
330
1F
100
AcDbEntity
  8
0
  6
Continuous
 62
     7
370
    15
100
AcDbLine
 10
166.3608890222
 20
234.3059301474
 30
0.0
 11
165.8358890222
 21
235.2152568214
 31
0.0
  0
LINE
  5
26E
330
1F
100
AcDbEntity
  8
0
  6
Continuous
 62
     7
370
    15
100
AcDbLine
 10
165.8358890222
 20
235.2152568214
 30
0.0
 11
164.7858890222
 21
235.2152568214
 31
0.0
  0
LINE
  5
26F
330
1F
100
AcDbEntity
  8
0
  6
Continuous
 62
     7
370
    15
100
AcDbLine
 10
164.7858890222
 20
235.2152568214
 30
0.0
 11
164.2608890222
 21
234.3059301474
 31
0.0
  0
LINE
  5
270
330
1F
100
AcDbEntity
  8
0
  6
Continuous
 62
     7
370
    15
100
AcDbLine
 10
164.2608890222
 20
234.3059301474
 30
0.0
 11
164.7858890222
 21
233.3966034734
 31
0.0
  0
LINE
  5
271
330
1F
100
AcDbEntity
  8
0
  6
Continuous
 62
     7
370
    15
100
AcDbLine
 10
185.3108890222
 20
220.3059301474
 30
0.0
 11
185.3108890222
 21
248.3059301474
 31
0.0
  0
SPLINE
  5
272
330
1F
100
AcDbEntity
  8
0
  6
Continuous
 62
     7
370
    15
100
AcDbSpline
210
0.0
220
0.0
230
1.0
 70
     8
 71
     3
 72
    10
 73
     6
 74
     0
 42
0.000000001
 43
0.00000001
 40
0.0
 40
0.0
 40
0.0
 40
0.0
 40
0.3472829518018869
 40
0.6954084526855461
 40
1.0
 40
1.0
 40
1.0
 40
1.0
 10
183.0357489450408
 20
216.05240221598
 30
0.0
 10
182.892985398145
 20
215.7163025141386
 30
0.0
 10
182.6071119432818
 20
215.0432876932471
 30
0.0
 10
182.3554121027936
 20
214.4169386212625
 30
0.0
 10
182.3292474022716
 20
214.3516955975723
 30
0.0
 10
182.3170375992045
 20
214.3212498269399
 30
0.0
  0
SPLINE
  5
273
330
1F
100
AcDbEntity
  8
0
  6
Continuous
 62
     7
370
    15
100
AcDbSpline
210
0.0
220
0.0
230
1.0
 70
     8
 71
     3
 72
    16
 73
    12
 74
     0
 42
0.000000001
 43
0.00000001
 40
0.0
 40
0.0
 40
0.0
 40
0.0
 40
0.1264962559498441
 40
0.2529036824100967
 40
0.3800899751862526
 40
0.5072171695547071
 40
0.6237421202764425
 40
0.7403118530593097
 40
0.8565151858428584
 40
0.9727830133942649
 40
1.0
 40
1.0
 40
1.0
 40
1.0
 10
183.0512248811398
 20
219.0704507817337
 30
0.0
 10
183.1669481551066
 20
219.1230039211432
 30
0.0
 10
183.3983134386636
 20
219.2280732955612
 30
0.0
 10
183.6560691296419
 20
219.1990408161218
 30
0.0
 10
183.8187660428688
 20
219.0144974279996
 30
0.0
 10
183.8695536625109
 20
218.6768712988934
 30
0.0
 10
183.8076675325881
 20
218.2063856390031
 30
0.0
 10
183.6561989251546
 20
217.639406703941
 30
0.0
 10
183.4209106324134
 20
216.9767353630646
 30
0.0
 10
183.1986840312364
 20
216.43031623046
 30
0.0
 10
183.0617275934134
 20
216.1126574717784
 30
0.0
 10
183.0357489450408
 20
216.05240221598
 30
0.0
  0
SPLINE
  5
274
330
1F
100
AcDbEntity
  8
0
  6
Continuous
 62
     7
370
    15
100
AcDbSpline
210
0.0
220
0.0
230
1.0
 70
     8
 71
     3
 72
    19
 73
    15
 74
     0
 42
0.000000001
 43
0.00000001
 40
0.0
 40
0.0
 40
0.0
 40
0.0
 40
0.0848194393149629
 40
0.1719710587643857
 40
0.2568487638895641
 40
0.3444537197813807
 40
0.4249542201458808
 40
0.5079937877788813
 40
0.5852639676497332
 40
0.6647792938729018
 40
0.7421348862892287
 40
0.8215762606479925
 40
0.9094442829817808
 40
1.0
 40
1.0
 40
1.0
 40
1.0
 10
183.0512248811398
 20
223.7776022402241
 30
0.0
 10
182.9769103732535
 20
223.5649370815507
 30
0.0
 10
182.8262380190621
 20
223.1337593610338
 30
0.0
 10
182.6409901485945
 20
222.4673268901325
 30
0.0
 10
182.4895977550067
 20
221.8013745741719
 30
0.0
 10
182.3837429912269
 20
221.1776174346046
 30
0.0
 10
182.3216969690818
 20
220.6052411877938
 30
0.0
 10
182.3042451837852
 20
220.1170731237896
 30
0.0
 10
182.3284043667745
 20
219.7059764903035
 30
0.0
 10
182.3910298362461
 20
219.3869821214072
 30
0.0
 10
182.4916990116352
 20
219.1553488433306
 30
0.0
 10
182.6326283493021
 20
219.0149578932149
 30
0.0
 10
182.816037236419
 20
218.9694689401914
 30
0.0
 10
182.9720456527745
 20
219.0364538245308
 30
0.0
 10
183.0512248811398
 20
219.0704507817337
 30
0.0
  0
SPLINE
  5
275
330
1F
100
AcDbEntity
  8
0
  6
Continuous
 62
     7
370
    15
100
AcDbSpline
210
0.0
220
0.0
230
1.0
 70
     8
 71
     3
 72
    15
 73
    11
 74
     0
 42
0.000000001
 43
0.00000001
 40
0.0
 40
0.0
 40
0.0
 40
0.0
 40
0.1271849696374566
 40
0.2542806304146253
 40
0.3821616953698172
 40
0.509983337158652
 40
0.6271446673522504
 40
0.7443510234677265
 40
0.872129863977949
 40
1.0
 40
1.0
 40
1.0
 40
1.0
 10
183.0512248811398
 20
230.97747143103
 30
0.0
 10
183.1669467697817
 20
230.7772614575198
 30
0.0
 10
183.3983092875422
 20
230.3769820972731
 30
0.0
 10
183.6560597941539
 20
229.6123754000562
 30
0.0
 10
183.8187772628348
 20
228.7359876222703
 30
0.0
 10
183.8695027935664
 20
227.7898910828209
 30
0.0
 10
183.8078435625737
 20
226.8143885142335
 30
0.0
 10
183.6508123826387
 20
225.8169098792603
 30
0.0
 10
183.4001088450622
 20
224.7899342930464
 30
0.0
 10
183.1675472193554
 20
224.1151265853127
 30
0.0
 10
183.0512248811398
 20
223.7776022402241
 30
0.0
  0
SPLINE
  5
276
330
1F
100
AcDbEntity
  8
0
  6
Continuous
 62
     7
370
    15
100
AcDbSpline
210
0.0
220
0.0
230
1.0
 70
     8
 71
     3
 72
    13
 73
     9
 74
     0
 42
0.000000001
 43
0.00000001
 40
0.0
 40
0.0
 40
0.0
 40
0.0
 40
0.1720043241260366
 40
0.344429390182645
 40
0.507930617720604
 40
0.6647297837317664
 40
0.8215827403429473
 40
1.0
 40
1.0
 40
1.0
 40
1.0
 10
183.0512248811398
 20
237.6343888637713
 30
0.0
 10
182.9059457327413
 20
237.3574031562884
 30
0.0
 10
182.6150320668006
 20
236.802754203116
 30
0.0
 10
182.3638341655248
 20
235.579187642946
 30
0.0
 10
182.2825960503708
 20
234.2579985405951
 30
0.0
 10
182.3742150856114
 20
232.9870299356608
 30
0.0
 10
182.6180303211387
 20
231.808781808607
 30
0.0
 10
182.900764942138
 20
231.2662075331212
 30
0.0
 10
183.0512248811398
 20
230.97747143103
 30
0.0
  0
SPLINE
  5
277
330
1F
100
AcDbEntity
  8
0
  6
Continuous
 62
     7
370
    15
100
AcDbSpline
210
0.0
220
0.0
230
1.0
 70
     8
 71
     3
 72
    15
 73
    11
 74
     0
 42
0.000000001
 43
0.00000001
 40
0.0
 40
0.0
 40
0.0
 40
0.0
 40
0.1271869315281118
 40
0.2542845485533919
 40
0.3821652845417315
 40
0.5099865994422504
 40
0.6271477819411142
 40
0.7443539910132967
 40
0.8721313499224582
 40
1.0
 40
1.0
 40
1.0
 40
1.0
 10
183.0512248811398
 20
244.8342580545773
 30
0.0
 10
183.1669484680655
 20
244.4985602486256
 30
0.0
 10
183.3983143773205
 20
243.8274003738557
 30
0.0
 10
183.6560653684593
 20
242.7751062289318
 30
0.0
 10
183.8187802419299
 20
241.7202222250424
 30
0.0
 10
183.8695025578901
 20
240.7199357838575
 30
0.0
 10
183.8078406719899
 20
239.8106129238615
 30
0.0
 10
183.6508078665437
 20
238.9855186737837
 30
0.0
 10
183.4001049931733
 20
238.2382867804777
 30
0.0
 10
183.1675459340912
 20
237.8357360862799
 30
0.0
 10
183.0512248811398
 20
237.6343888637713
 30
0.0
  0
SPLINE
  5
278
330
1F
100
AcDbEntity
  8
0
  6
Continuous
 62
     7
370
    15
100
AcDbSpline
210
0.0
220
0.0
230
1.0
 70
     8
 71
     3
 72
    13
 73
     9
 74
     0
 42
0.000000001
 43
0.00000001
 40
0.0
 40
0.0
 40
0.0
 40
0.0
 40
0.1720087238365711
 40
0.3444334232908546
 40
0.5079344031875617
 40
0.6647334886924858
 40
0.8215865234924863
 40
1.0
 40
1.0
 40
1.0
 40
1.0
 10
183.0512248811398
 20
249.5414095130678
 30
0.0
 10
182.9059422311148
 20
249.5871194885415
 30
0.0
 10
182.6150255881867
 20
249.6786499817618
 30
0.0
 10
182.3638300666089
 20
249.2550564125547
 30
0.0
 10
182.2825962583035
 20
248.4641184243724
 30
0.0
 10
182.374219108016
 20
247.4037925189486
 30
0.0
 10
182.6180360859535
 20
246.1427116157196
 30
0.0
 10
182.9007679414758
 20
245.2887156044714
 30
0.0
 10
183.0512248811398
 20
244.8342580545773
 30
0.0
  0
SPLINE
  5
279
330
1F
100
AcDbEntity
  8
0
  6
Continuous
 62
     7
370
    15
100
AcDbSpline
210
0.0
220
0.0
230
1.0
 70
     8
 71
     3
 72
    15
 73
    11
 74
     0
 42
0.000000001
 43
0.00000001
 40
0.0
 40
0.0
 40
0.0
 40
0.0
 40
0.1268822801305642
 40
0.2536752177405934
 40
0.3812607910574385
 40
0.5087848133226817
 40
0.6254951534289754
 40
0.7422495045387848
 40
0.8710767568061335
 40
1.0
 40
1.0
 40
1.0
 40
1.0
 10
183.0357489450406
 20
252.5594580788217
 30
0.0
 10
183.1526782461171
 20
252.2831389341216
 30
0.0
 10
183.3864545140112
 20
251.7306952112823
 30
0.0
 10
183.6482897659817
 20
251.0012174506013
 30
0.0
 10
183.8152036004233
 20
250.379576933834
 30
0.0
 10
183.8697251125683
 20
249.9052592667197
 30
0.0
 10
183.8111978281702
 20
249.589643062464
 30
0.0
 10
183.6560987104086
 20
249.4148794944357
 30
0.0
 10
183.4046324312227
 20
249.3815636710049
 30
0.0
 10
183.1690566420563
 20
249.4881143385843
 30
0.0
 10
183.0512248811398
 20
249.5414095130678
 30
0.0
  0
SPLINE
  5
27A
330
1F
100
AcDbEntity
  8
0
  6
Continuous
 62
     7
370
    15
100
AcDbSpline
210
0.0
220
0.0
230
1.0
 70
     8
 71
     3
 72
    11
 73
     7
 74
     0
 42
0.000000001
 43
0.00000001
 40
0.0
 40
0.0
 40
0.0
 40
0.0
 40
0.0257232708960374
 40
0.3424906400474219
 40
0.6597449780769761
 40
1.0
 40
1.0
 40
1.0
 40
1.0
 10
182.3170375992045
 20
254.2906104678614
 30
0.0
 10
182.3150070754021
 20
254.2956684727455
 30
0.0
 10
182.2879718122929
 20
254.3630129149473
 30
0.0
 10
182.3897602014201
 20
254.1091594718924
 30
0.0
 10
182.6189467981928
 20
253.5410582610194
 30
0.0
 10
182.8936121578498
 20
252.8942008272905
 30
0.0
 10
183.0357489450406
 20
252.5594580788217
 30
0.0
  0
LINE
  5
27B
330
1F
100
AcDbEntity
  8
0
  6
Continuous
 62
     7
370
    15
100
AcDbLine
 10
183.0512248811
 20
230.977471431
 30
0.0
 11
171.8108890222
 21
230.977471431
 31
0.0
  0
LINE
  5
27C
330
1F
100
AcDbEntity
  8
0
  6
Continuous
 62
     7
370
    15
100
AcDbLine
 10
171.8108890222
 20
237.6343888638
 30
0.0
 11
171.8108890222
 21
230.977471431
 31
0.0
  0
LINE
  5
27D
330
1F
100
AcDbEntity
  8
0
  6
Continuous
 62
     7
370
    15
100
AcDbLine
 10
183.0512248811
 20
237.6343888638
 30
0.0
 11
171.8108890222
 21
237.6343888638
 31
0.0
  0
LINE
  5
27E
330
1F
100
AcDbEntity
  8
0
  6
Continuous
 62
     7
370
    15
100
AcDbLine
 10
171.8108890222
 20
230.977471431
 30
0.0
 11
170.3108890222
 21
232.2257562137
 31
0.0
  0
LINE
  5
27F
330
1F
100
AcDbEntity
  8
0
  6
Continuous
 62
     7
370
    15
100
AcDbLine
 10
170.3108890222
 20
232.2257562137
 30
0.0
 11
170.3108890222
 21
236.3861040811
 31
0.0
  0
LINE
  5
280
330
1F
100
AcDbEntity
  8
0
  6
Continuous
 62
     7
370
    15
100
AcDbLine
 10
171.8108890222
 20
237.6343888638
 30
0.0
 11
170.3108890222
 21
236.3861040811
 31
0.0
  0
LINE
  5
281
330
1F
100
AcDbEntity
  8
0
  6
Continuous
 62
     7
370
    15
100
AcDbLine
 10
183.0512248811
 20
223.7776022402
 30
0.0
 11
171.8108890222
 21
223.7776022402
 31
0.0
  0
LINE
  5
282
330
1F
100
AcDbEntity
  8
0
  6
Continuous
 62
     7
370
    15
100
AcDbLine
 10
171.8108890222
 20
230.977471431
 30
0.0
 11
171.8108890222
 21
223.7776022402
 31
0.0
  0
LINE
  5
283
330
1F
100
AcDbEntity
  8
0
  6
Continuous
 62
     7
370
    15
100
AcDbLine
 10
171.8108890222
 20
244.8342580546
 30
0.0
 11
171.8108890222
 21
237.6343888638
 31
0.0
  0
LINE
  5
284
330
1F
100
AcDbEntity
  8
0
  6
Continuous
 62
     7
370
    15
100
AcDbLine
 10
183.0512248811
 20
244.8342580546
 30
0.0
 11
171.8108890222
 21
244.8342580546
 31
0.0
  0
LINE
  5
285
330
1F
100
AcDbEntity
  8
0
  6
Continuous
 62
     7
370
    15
100
AcDbLine
 10
171.8108890222
 20
244.8342580546
 30
0.0
 11
170.3108890222
 21
245.1288023842
 31
0.0
  0
LINE
  5
286
330
1F
100
AcDbEntity
  8
0
  6
Continuous
 62
     7
370
    15
100
AcDbLine
 10
170.3108890222
 20
236.3861040811
 30
0.0
 11
170.3108890222
 21
245.1288023842
 31
0.0
  0
LINE
  5
287
330
1F
100
AcDbEntity
  8
0
  6
Continuous
 62
     7
370
    15
100
AcDbLine
 10
171.8108890222
 20
223.7776022402
 30
0.0
 11
170.3108890222
 21
223.4830579106
 31
0.0
  0
LINE
  5
288
330
1F
100
AcDbEntity
  8
0
  6
Continuous
 62
     7
370
    15
100
AcDbLine
 10
170.3108890222
 20
223.4830579106
 30
0.0
 11
170.3108890222
 21
232.2257562137
 31
0.0
  0
LINE
  5
289
330
1F
100
AcDbEntity
  8
0
  6
Continuous
 62
     7
370
    15
100
AcDbLine
 10
171.8108890222
 20
249.6192773057
 30
0.0
 11
171.8108890222
 21
244.8342580546
 31
0.0
  0
LINE
  5
28A
330
1F
100
AcDbEntity
  8
0
  6
Continuous
 62
     7
370
    15
100
AcDbLine
 10
170.3108890222
 20
245.1288023842
 30
0.0
 11
170.3108890222
 21
248.1192773057
 31
0.0
  0
LINE
  5
28B
330
1F
100
AcDbEntity
  8
0
  6
Continuous
 62
     7
370
    15
100
AcDbLine
 10
171.8108890222
 20
223.7776022402
 30
0.0
 11
171.8108890222
 21
218.9925829891
 31
0.0
  0
LINE
  5
28C
330
1F
100
AcDbEntity
  8
0
  6
Continuous
 62
     7
370
    15
100
AcDbLine
 10
170.3108890222
 20
220.4925829891
 30
0.0
 11
170.3108890222
 21
223.4830579106
 31
0.0
  0
LINE
  5
28D
330
1F
100
AcDbEntity
  8
0
  6
Continuous
 62
     7
370
    15
100
AcDbLine
 10
170.3108890222
 20
251.7230958009
 30
0.0
 11
171.8108890222
 21
252.5594580788
 31
0.0
  0
LINE
  5
28E
330
1F
100
AcDbEntity
  8
0
  6
Continuous
 62
     7
370
    15
100
AcDbLine
 10
171.8108890222
 20
252.5594580788
 30
0.0
 11
171.8108890222
 21
249.6192773057
 31
0.0
  0
LINE
  5
28F
330
1F
100
AcDbEntity
  8
0
  6
Continuous
 62
     7
370
    15
100
AcDbLine
 10
170.3108890222
 20
248.1196386464
 30
0.0
 11
170.3108890222
 21
251.7230958009
 31
0.0
  0
LINE
  5
290
330
1F
100
AcDbEntity
  8
0
  6
Continuous
 62
     7
370
    15
100
AcDbLine
 10
171.8108890222
 20
218.9925829891
 30
0.0
 11
171.8108890222
 21
216.052402216
 31
0.0
  0
LINE
  5
291
330
1F
100
AcDbEntity
  8
0
  6
Continuous
 62
     7
370
    15
100
AcDbLine
 10
171.8108890222
 20
216.052402216
 30
0.0
 11
170.3108890222
 21
216.8887644939
 31
0.0
  0
LINE
  5
292
330
1F
100
AcDbEntity
  8
0
  6
Continuous
 62
     7
370
    15
100
AcDbLine
 10
170.3108890222
 20
216.8887644939
 30
0.0
 11
170.3108890222
 21
220.4922216484
 31
0.0
  0
LINE
  5
293
330
1F
100
AcDbEntity
  8
0
  6
Continuous
 62
     7
370
    15
100
AcDbLine
 10
183.035748945
 20
252.5594580788
 30
0.0
 11
171.8108890222
 21
252.5594580788
 31
0.0
  0
LINE
  5
294
330
1F
100
AcDbEntity
  8
0
  6
Continuous
 62
     7
370
    15
100
AcDbLine
 10
183.035748945
 20
216.052402216
 30
0.0
 11
171.8108890222
 21
216.052402216
 31
0.0
  0
LINE
  5
295
330
1F
100
AcDbEntity
  8
0
  6
Continuous
 62
     7
370
    15
100
AcDbLine
 10
160.3108890222
 20
226.8059301474
 30
0.0
 11
160.3108890222
 21
241.8059301474
 31
0.0
  0
LINE
  5
296
330
1F
100
AcDbEntity
  8
0
  6
Continuous
 62
     7
370
    15
100
AcDbLine
 10
171.8108890222
 20
216.052402216
 30
0.0
 11
171.8108890222
 21
214.3059301474
 31
0.0
  0
LINE
  5
297
330
1F
100
AcDbEntity
  8
0
  6
Continuous
 62
     7
370
    15
100
AcDbLine
 10
171.8108890222
 20
254.3059301474
 30
0.0
 11
171.8108890222
 21
252.5594580788
 31
0.0
  0
LINE
  5
298
330
1F
100
AcDbEntity
  8
0
  6
Continuous
 62
     7
370
    15
100
AcDbLine
 10
170.3108890222
 20
215.8059301474
 30
0.0
 11
170.3108890222
 21
216.8887644939
 31
0.0
  0
LINE
  5
299
330
1F
100
AcDbEntity
  8
0
  6
Continuous
 62
     7
370
    15
100
AcDbLine
 10
170.3108890222
 20
251.7230958009
 30
0.0
 11
170.3108890222
 21
252.8059301474
 31
0.0
  0
LINE
  5
29A
330
1F
100
AcDbEntity
  8
0
  6
Continuous
 62
     7
370
    15
100
AcDbLine
 10
119.3108890222
 20
236.365454731
 30
0.0
 11
119.3108890222
 21
232.2464055638
 31
0.0
  0
LINE
  5
29B
330
1F
100
AcDbEntity
  8
0
  6
Continuous
 62
     7
370
    15
100
AcDbLine
 10
119.3108890222
 20
232.2464055638
 30
0.0
 11
117.8108890222
 21
231.0011439422
 31
0.0
  0
LINE
  5
29C
330
1F
100
AcDbEntity
  8
0
  6
Continuous
 62
     7
370
    15
100
AcDbLine
 10
117.8108890222
 20
231.0011439422
 30
0.0
 11
117.8108890222
 21
237.6107163526
 31
0.0
  0
LINE
  5
29D
330
1F
100
AcDbEntity
  8
0
  6
Continuous
 62
     7
370
    15
100
AcDbLine
 10
119.3108890222
 20
236.365454731
 30
0.0
 11
117.8108890222
 21
237.6107163526
 31
0.0
  0
LINE
  5
29E
330
1F
100
AcDbEntity
  8
0
  6
Continuous
 62
     7
370
    15
100
AcDbLine
 10
104.3108890222
 20
234.3059301474
 30
0.0
 11
104.3108890222
 21
220.3059301474
 31
0.0
  0
LINE
  5
29F
330
1F
100
AcDbEntity
  8
0
  6
Continuous
 62
     7
370
    15
100
AcDbLine
 10
104.3108890222
 20
248.3059301474
 30
0.0
 11
104.3108890222
 21
234.3059301474
 31
0.0
  0
SPLINE
  5
2A0
330
1F
100
AcDbEntity
  8
0
  6
Continuous
 62
     7
370
    15
100
AcDbSpline
210
0.0
220
0.0
230
1.0
 70
     8
 71
     3
 72
    16
 73
    12
 74
     0
 42
0.000000001
 43
0.00000001
 40
0.0
 40
0.0
 40
0.0
 40
0.0
 40
0.1261972859071835
 40
0.2523057075281385
 40
0.3792002878030846
 40
0.5060336522260214
 40
0.6221120449958412
 40
0.7382342111575552
 40
0.8536816913006914
 40
0.9691932593055956
 40
1.0
 40
1.0
 40
1.0
 40
1.0
 10
106.5860290994067
 20
249.5499602643791
 30
0.0
 10
106.469098463521
 20
249.4952639370655
 30
0.0
 10
106.2353195307432
 20
249.3859097979266
 30
0.0
 10
105.9734789969513
 20
249.4090474852188
 30
0.0
 10
105.8065858981481
 20
249.588426730335
 30
0.0
 10
105.752001176588
 20
249.9219352072209
 30
0.0
 10
105.8107584246414
 20
250.3893421813518
 30
0.0
 10
105.959569607268
 20
250.9534557987917
 30
0.0
 10
106.1925702066554
 20
251.613414325656
 30
0.0
 10
106.4162876141132
 20
252.1654815273353
 30
0.0
 10
106.5565065562067
 20
252.4909351143799
 30
0.0
 10
106.5860290994067
 20
252.5594580788215
 30
0.0
  0
SPLINE
  5
2A1
330
1F
100
AcDbEntity
  8
0
  6
Continuous
 62
     7
370
    15
100
AcDbSpline
210
0.0
220
0.0
230
1.0
 70
     8
 71
     3
 72
    13
 73
     9
 74
     0
 42
0.000000001
 43
0.00000001
 40
0.0
 40
0.0
 40
0.0
 40
0.0
 40
0.1735322077433414
 40
0.3474803110675796
 40
0.5125459321891219
 40
0.6710335034925647
 40
0.829764888964078
 40
1.0
 40
1.0
 40
1.0
 40
1.0
 10
106.5860290994078
 20
244.876286792196
 30
0.0
 10
106.7296403934916
 20
245.3135764986923
 30
0.0
 10
107.0172071673487
 20
246.1892039410902
 30
0.0
 10
107.2629037398734
 20
247.4897298162932
 30
0.0
 10
107.3390440701834
 20
248.5582144997693
 30
0.0
 10
107.2429337821031
 20
249.2852542915005
 30
0.0
 10
106.9998611047148
 20
249.6705113745127
 30
0.0
 10
106.7271519169403
 20
249.5910699709766
 30
0.0
 10
106.5860290994067
 20
249.5499602643791
 30
0.0
  0
SPLINE
  5
2A2
330
1F
100
AcDbEntity
  8
0
  6
Continuous
 62
     7
370
    15
100
AcDbSpline
210
0.0
220
0.0
230
1.0
 70
     8
 71
     3
 72
    16
 73
    12
 74
     0
 42
0.000000001
 43
0.00000001
 40
0.0
 40
0.0
 40
0.0
 40
0.0
 40
0.1261954117148447
 40
0.252301964558686
 40
0.3791968622309679
 40
0.506030542053993
 40
0.6221090788357818
 40
0.7382313883705747
 40
0.8536787578253863
 40
0.9691902150884492
 40
0.9999999999999999
 40
0.9999999999999999
 40
0.9999999999999999
 40
0.9999999999999999
 10
106.586029099407
 20
237.6107163526347
 30
0.0
 10
106.4691001162731
 20
237.8096832635896
 30
0.0
 10
106.2353244840401
 20
238.2074769855163
 30
0.0
 10
105.9734844572581
 20
238.9696830013979
 30
0.0
 10
105.8065888710217
 20
239.844950890934
 30
0.0
 10
105.7520010398706
 20
240.7910822736308
 30
0.0
 10
105.8107557244026
 20
241.7671380459769
 30
0.0
 10
105.9595647343021
 20
242.7356081448577
 30
0.0
 10
106.1925634650094
 20
243.6993589536592
 30
0.0
 10
106.4162820711189
 20
244.41010836212
 30
0.0
 10
106.5565036711585
 20
244.7952007317959
 30
0.0
 10
106.5860290994078
 20
244.876286792196
 30
0.0
  0
SPLINE
  5
2A3
330
1F
100
AcDbEntity
  8
0
  6
Continuous
 62
     7
370
    15
100
AcDbSpline
210
0.0
220
0.0
230
1.0
 70
     8
 71
     3
 72
    13
 73
     9
 74
     0
 42
0.000000001
 43
0.00000001
 40
0.0
 40
0.0
 40
0.0
 40
0.0
 40
0.1735274932632302
 40
0.3474759845328529
 40
0.5125418655588581
 40
0.6710295171733969
 40
0.8297608130563451
 40
1.0
 40
1.0
 40
1.0
 40
1.0
 10
106.5860290994089
 20
231.0011439421698
 30
0.0
 10
106.7296367233292
 20
231.28134301162
 30
0.0
 10
107.0172003800717
 20
231.8424209462542
 30
0.0
 10
107.2628995250931
 20
233.070279627123
 30
0.0
 10
107.3390444137806
 20
234.3914323413886
 30
0.0
 10
107.24293816564
 20
235.659433847661
 30
0.0
 10
106.9998672124519
 20
236.806985868455
 30
0.0
 10
106.7271550994772
 20
237.3366302672999
 30
0.0
 10
106.586029099407
 20
237.6107163526347
 30
0.0
  0
SPLINE
  5
2A4
330
1F
100
AcDbEntity
  8
0
  6
Continuous
 62
     7
370
    15
100
AcDbSpline
210
0.0
220
0.0
230
1.0
 70
     8
 71
     3
 72
    16
 73
    12
 74
     0
 42
0.000000001
 43
0.00000001
 40
0.0
 40
0.0
 40
0.0
 40
0.0
 40
0.1261972859071087
 40
0.2523057075279898
 40
0.3792002878028563
 40
0.5060336522257137
 40
0.6221120449954722
 40
0.7382342111571246
 40
0.8536816913002157
 40
0.9691932593050736
 40
1.0
 40
1.0
 40
1.0
 40
1.0
 10
106.5860290994059
 20
223.7355735026106
 30
0.0
 10
106.4690984635203
 20
224.0716560038471
 30
0.0
 10
106.2353195307426
 20
224.7435843472558
 30
0.0
 10
105.9734789969509
 20
225.7983826931542
 30
0.0
 10
105.8065858981479
 20
226.8568275112508
 30
0.0
 10
105.7520011765881
 20
227.8613509099493
 30
0.0
 10
105.8107584246417
 20
228.774294341363
 30
0.0
 10
105.9595696072684
 20
229.5798038957616
 30
0.0
 10
106.1925702066559
 20
230.2827946640658
 30
0.0
 10
106.4162876141143
 20
230.7358671292627
 30
0.0
 10
106.5565065562084
 20
230.9550052733845
 30
0.0
 10
106.5860290994089
 20
231.0011439421698
 30
0.0
  0
SPLINE
  5
2A5
330
1F
100
AcDbEntity
  8
0
  6
Continuous
 62
     7
370
    15
100
AcDbSpline
210
0.0
220
0.0
230
1.0
 70
     8
 71
     3
 72
    19
 73
    15
 74
     0
 42
0.000000001
 43
0.00000001
 40
0.0
 40
0.0
 40
0.0
 40
0.0
 40
0.0855769788512133
 40
0.1735073385622207
 40
0.2591427523958177
 40
0.3475259764593424
 40
0.4288050836113038
 40
0.5126419224607526
 40
0.590751985098831
 40
0.6711263156280636
 40
0.7494155777289915
 40
0.8298119002537755
 40
0.913767171558921
 40
1.0
 40
1.0
 40
1.0
 40
1.0
 10
106.5860290994067
 20
219.0619000304223
 30
0.0
 10
106.6595388624934
 20
219.0317648131545
 30
0.0
 10
106.8085799191274
 20
218.9706656552348
 30
0.0
 10
106.9911821421083
 20
219.0146278074186
 30
0.0
 10
107.1398144549726
 20
219.1650861318301
 30
0.0
 10
107.2429771133646
 20
219.4242703869219
 30
0.0
 10
107.3024067019583
 20
219.7827565722129
 30
0.0
 10
107.3174489692763
 20
220.2131053334743
 30
0.0
 10
107.2909955190572
 20
220.7128513938462
 30
0.0
 10
107.2262076282527
 20
221.2550190130274
 30
0.0
 10
107.1234501898677
 20
221.8402961068676
 30
0.0
 10
106.983314027188
 20
222.4554887878964
 30
0.0
 10
106.8062724841851
 20
223.098162203811
 30
0.0
 10
106.6600956358201
 20
223.5212158853742
 30
0.0
 10
106.5860290994059
 20
223.7355735026106
 30
0.0
  0
SPLINE
  5
2A6
330
1F
100
AcDbEntity
  8
0
  6
Continuous
 62
     7
370
    15
100
AcDbSpline
210
0.0
220
0.0
230
1.0
 70
     8
 71
     3
 72
    16
 73
    12
 74
     0
 42
0.000000001
 43
0.00000001
 40
0.0
 40
0.0
 40
0.0
 40
0.0
 40
0.1261954117148923
 40
0.2523019645587817
 40
0.3791968622311144
 40
0.5060305420541901
 40
0.6221090788360278
 40
0.7382313883708705
 40
0.853678757825731
 40
0.9691902150888433
 40
1.0
 40
1.0
 40
1.0
 40
1.0
 10
106.5860290994068
 20
216.0524022159799
 30
0.0
 10
106.4691001162728
 20
216.3287205635149
 30
0.0
 10
106.2353244840399
 20
216.8811626925856
 30
0.0
 10
105.973484457258
 20
217.6106524249676
 30
0.0
 10
105.8065888710216
 20
218.2322471887114
 30
0.0
 10
105.7520010398705
 20
218.7067311349203
 30
0.0
 10
105.8107557244026
 20
219.0217771875616
 30
0.0
 10
105.9595647343022
 20
219.1924734639557
 30
0.0
 10
106.1925634650095
 20
219.2229050988127
 30
0.0
 10
106.4162820711187
 20
219.1529070939218
 30
0.0
 10
106.5565036711578
 20
219.0777296007576
 30
0.0
 10
106.5860290994067
 20
219.0619000304223
 30
0.0
  0
SPLINE
  5
2A7
330
1F
100
AcDbEntity
  8
0
  6
Continuous
 62
     7
370
    15
100
AcDbSpline
210
0.0
220
0.0
230
1.0
 70
     8
 71
     3
 72
    11
 73
     7
 74
     0
 42
0.000000001
 43
0.00000001
 40
0.0
 40
0.0
 40
0.0
 40
0.0
 40
0.0257232708958915
 40
0.3424906400473133
 40
0.6597449780769044
 40
0.9999999999999999
 40
0.9999999999999999
 40
0.9999999999999999
 40
0.9999999999999999
 10
107.304740445243
 20
214.3212498269399
 30
0.0
 10
107.3067709690453
 20
214.3161918220559
 30
0.0
 10
107.3338062321546
 20
214.2488473798541
 30
0.0
 10
107.2320178430273
 20
214.502700822909
 30
0.0
 10
107.0028312462547
 20
215.070802033782
 30
0.0
 10
106.7281658865977
 20
215.717659467511
 30
0.0
 10
106.5860290994068
 20
216.0524022159799
 30
0.0
  0
SPLINE
  5
2A8
330
1F
100
AcDbEntity
  8
0
  6
Continuous
 62
     7
370
    15
100
AcDbSpline
210
0.0
220
0.0
230
1.0
 70
     8
 71
     3
 72
    10
 73
     6
 74
     0
 42
0.000000001
 43
0.00000001
 40
0.0
 40
0.0
 40
0.0
 40
0.0
 40
0.3472829518019153
 40
0.6954084526855996
 40
1.0
 40
1.0
 40
1.0
 40
1.0
 10
106.5860290994067
 20
252.5594580788215
 30
0.0
 10
106.7287926463025
 20
252.8955577806628
 30
0.0
 10
107.0146661011657
 20
253.5685726015543
 30
0.0
 10
107.2663659416539
 20
254.1949216735389
 30
0.0
 10
107.2925306421759
 20
254.2601646972291
 30
0.0
 10
107.304740445243
 20
254.2906104678615
 30
0.0
  0
LINE
  5
2A9
330
1F
100
AcDbEntity
  8
0
  6
Continuous
 62
     7
370
    15
100
AcDbLine
 10
106.5860290994
 20
237.6107163526
 30
0.0
 11
117.8108890222
 21
237.6107163526
 31
0.0
  0
LINE
  5
2AA
330
1F
100
AcDbEntity
  8
0
  6
Continuous
 62
     7
370
    15
100
AcDbLine
 10
106.5860290994
 20
231.0011439422
 30
0.0
 11
117.8108890222
 21
231.0011439422
 31
0.0
  0
LINE
  5
2AB
330
1F
100
AcDbEntity
  8
0
  6
Continuous
 62
     7
370
    15
100
AcDbLine
 10
106.5860290994
 20
244.8762867922
 30
0.0
 11
117.8108890222
 21
244.8762867922
 31
0.0
  0
LINE
  5
2AC
330
1F
100
AcDbEntity
  8
0
  6
Continuous
 62
     7
370
    15
100
AcDbLine
 10
117.8108890222
 20
237.6107163526
 30
0.0
 11
117.8108890222
 21
244.8762867922
 31
0.0
  0
LINE
  5
2AD
330
1F
100
AcDbEntity
  8
0
  6
Continuous
 62
     7
370
    15
100
AcDbLine
 10
117.8108890222
 20
223.7355735026
 30
0.0
 11
117.8108890222
 21
231.0011439422
 31
0.0
  0
LINE
  5
2AE
330
1F
100
AcDbEntity
  8
0
  6
Continuous
 62
     7
370
    15
100
AcDbLine
 10
106.5860290994
 20
223.7355735026
 30
0.0
 11
117.8108890222
 21
223.7355735026
 31
0.0
  0
LINE
  5
2AF
330
1F
100
AcDbEntity
  8
0
  6
Continuous
 62
     7
370
    15
100
AcDbLine
 10
119.3108890222
 20
223.4464380039
 30
0.0
 11
117.8108890222
 21
223.7355735026
 31
0.0
  0
LINE
  5
2B0
330
1F
100
AcDbEntity
  8
0
  6
Continuous
 62
     7
370
    15
100
AcDbLine
 10
119.3108890222
 20
232.2464055638
 30
0.0
 11
119.3108890222
 21
223.4464380039
 31
0.0
  0
LINE
  5
2B1
330
1F
100
AcDbEntity
  8
0
  6
Continuous
 62
     7
370
    15
100
AcDbLine
 10
119.3108890222
 20
245.1654222909
 30
0.0
 11
117.8108890222
 21
244.8762867922
 31
0.0
  0
LINE
  5
2B2
330
1F
100
AcDbEntity
  8
0
  6
Continuous
 62
     7
370
    15
100
AcDbLine
 10
119.3108890222
 20
245.1654222909
 30
0.0
 11
119.3108890222
 21
236.365454731
 31
0.0
  0
LINE
  5
2B3
330
1F
100
AcDbEntity
  8
0
  6
Continuous
 62
     7
370
    15
100
AcDbLine
 10
117.8108890222
 20
244.8762867922
 30
0.0
 11
117.8108890222
 21
249.6196386464
 31
0.0
  0
LINE
  5
2B4
330
1F
100
AcDbEntity
  8
0
  6
Continuous
 62
     7
370
    15
100
AcDbLine
 10
119.3108890222
 20
248.1196386464
 30
0.0
 11
119.3108890222
 21
245.1654222909
 31
0.0
  0
LINE
  5
2B5
330
1F
100
AcDbEntity
  8
0
  6
Continuous
 62
     7
370
    15
100
AcDbLine
 10
117.8108890222
 20
218.9922216484
 30
0.0
 11
117.8108890222
 21
223.7355735026
 31
0.0
  0
LINE
  5
2B6
330
1F
100
AcDbEntity
  8
0
  6
Continuous
 62
     7
370
    15
100
AcDbLine
 10
119.3108890222
 20
223.4464380039
 30
0.0
 11
119.3108890222
 21
220.4922216484
 31
0.0
  0
LINE
  5
2B7
330
1F
100
AcDbEntity
  8
0
  6
Continuous
 62
     7
370
    15
100
AcDbLine
 10
117.8108890222
 20
249.6196386464
 30
0.0
 11
117.8108890222
 21
252.5594580788
 31
0.0
  0
LINE
  5
2B8
330
1F
100
AcDbEntity
  8
0
  6
Continuous
 62
     7
370
    15
100
AcDbLine
 10
119.3108890222
 20
251.7230958009
 30
0.0
 11
117.8108890222
 21
252.5594580788
 31
0.0
  0
LINE
  5
2B9
330
1F
100
AcDbEntity
  8
0
  6
Continuous
 62
     7
370
    15
100
AcDbLine
 10
119.3108890222
 20
251.7230958009
 30
0.0
 11
119.3108890222
 21
248.1192773057
 31
0.0
  0
LINE
  5
2BA
330
1F
100
AcDbEntity
  8
0
  6
Continuous
 62
     7
370
    15
100
AcDbLine
 10
117.8108890222
 20
216.052402216
 30
0.0
 11
119.3108890222
 21
216.8887644939
 31
0.0
  0
LINE
  5
2BB
330
1F
100
AcDbEntity
  8
0
  6
Continuous
 62
     7
370
    15
100
AcDbLine
 10
117.8108890222
 20
216.052402216
 30
0.0
 11
117.8108890222
 21
218.9922216484
 31
0.0
  0
LINE
  5
2BC
330
1F
100
AcDbEntity
  8
0
  6
Continuous
 62
     7
370
    15
100
AcDbLine
 10
119.3108890222
 20
220.4925829891
 30
0.0
 11
119.3108890222
 21
216.8887644939
 31
0.0
  0
LINE
  5
2BD
330
1F
100
AcDbEntity
  8
0
  6
Continuous
 62
     7
370
    15
100
AcDbLine
 10
106.5860290994
 20
252.5594580788
 30
0.0
 11
117.8108890222
 21
252.5594580788
 31
0.0
  0
LINE
  5
2BE
330
1F
100
AcDbEntity
  8
0
  6
Continuous
 62
     7
370
    15
100
AcDbLine
 10
106.5860290994
 20
216.052402216
 30
0.0
 11
117.8108890222
 21
216.052402216
 31
0.0
  0
LINE
  5
2BF
330
1F
100
AcDbEntity
  8
0
  6
Continuous
 62
     7
370
    15
100
AcDbLine
 10
129.3108890222
 20
234.3059301474
 30
0.0
 11
129.3108890222
 21
226.8059301474
 31
0.0
  0
LINE
  5
2C0
330
1F
100
AcDbEntity
  8
0
  6
Continuous
 62
     7
370
    15
100
AcDbLine
 10
129.3108890222
 20
241.8059301474
 30
0.0
 11
129.3108890222
 21
234.3059301474
 31
0.0
  0
LINE
  5
2C1
330
1F
100
AcDbEntity
  8
0
  6
Continuous
 62
     7
370
    15
100
AcDbLine
 10
117.8108890222
 20
252.5594580788
 30
0.0
 11
117.8108890222
 21
254.3059301474
 31
0.0
  0
LINE
  5
2C2
330
1F
100
AcDbEntity
  8
0
  6
Continuous
 62
     7
370
    15
100
AcDbLine
 10
119.3108890222
 20
252.8059301474
 30
0.0
 11
119.3108890222
 21
251.7230958009
 31
0.0
  0
LINE
  5
2C3
330
1F
100
AcDbEntity
  8
0
  6
Continuous
 62
     7
370
    15
100
AcDbLine
 10
117.8108890222
 20
214.3059301474
 30
0.0
 11
117.8108890222
 21
216.052402216
 31
0.0
  0
LINE
  5
2C4
330
1F
100
AcDbEntity
  8
0
  6
Continuous
 62
     7
370
    15
100
AcDbLine
 10
119.3108890222
 20
216.8887644939
 30
0.0
 11
119.3108890222
 21
215.8059301474
 31
0.0
  0
LINE
  5
2C5
330
1F
100
AcDbEntity
  8
0
  6
Continuous
 62
     7
370
    15
100
AcDbLine
 10
149.1608890222
 20
241.5559301474
 30
0.0
 11
149.1608890222
 21
227.0559301474
 31
0.0
  0
LINE
  5
2C6
330
1F
100
AcDbEntity
  8
0
  6
Continuous
 62
     7
370
    15
100
AcDbLine
 10
146.8108890222
 20
241.7051157853
 30
0.0
 11
141.8108890222
 21
241.7051157853
 31
0.0
  0
LINE
  5
2C7
330
1F
100
AcDbEntity
  8
0
  6
Continuous
 62
     7
370
    15
100
AcDbLine
 10
146.8108890222
 20
241.3539765173
 30
0.0
 11
141.8108890222
 21
241.3539765173
 31
0.0
  0
LINE
  5
2C8
330
1F
100
AcDbEntity
  8
0
  6
Continuous
 62
     7
370
    15
100
AcDbLine
 10
141.8108890222
 20
241.7051157853
 30
0.0
 11
141.8108890222
 21
241.3539765173
 31
0.0
  0
LINE
  5
2C9
330
1F
100
AcDbEntity
  8
0
  6
Continuous
 62
     7
370
    15
100
AcDbLine
 10
146.8108890222
 20
241.7051157853
 30
0.0
 11
146.8108890222
 21
241.3539765173
 31
0.0
  0
LINE
  5
2CA
330
1F
100
AcDbEntity
  8
0
  6
Continuous
 62
     7
370
    15
100
AcDbLine
 10
141.8108890222
 20
240.7059301474
 30
0.0
 11
141.8108890222
 21
241.3539765173
 31
0.0
  0
LINE
  5
2CB
330
1F
100
AcDbEntity
  8
0
  6
Continuous
 62
     7
370
    15
100
AcDbLine
 10
146.8108890222
 20
240.7059301474
 30
0.0
 11
146.8108890222
 21
241.3539765173
 31
0.0
  0
LINE
  5
2CC
330
1F
100
AcDbEntity
  8
0
  6
Continuous
 62
     7
370
    15
100
AcDbLine
 10
146.8108890222
 20
225.6796379179
 30
0.0
 11
141.8108890222
 21
225.6796379179
 31
0.0
  0
LINE
  5
2CD
330
1F
100
AcDbEntity
  8
0
  6
Continuous
 62
     7
370
    15
100
AcDbLine
 10
141.8108890222
 20
225.6796379179
 30
0.0
 11
141.8108890222
 21
225.7059301474
 31
0.0
  0
LINE
  5
2CE
330
1F
100
AcDbEntity
  8
0
  6
Continuous
 62
     7
370
    15
100
AcDbLine
 10
146.8108890222
 20
225.6796379179
 30
0.0
 11
146.8108890222
 21
225.7059301474
 31
0.0
  0
LINE
  5
2CF
330
1F
100
AcDbEntity
  8
0
  6
Continuous
 62
     7
370
    15
100
AcDbLine
 10
146.8108890222
 20
243.0042189877
 30
0.0
 11
141.8108890222
 21
243.0042189877
 31
0.0
  0
LINE
  5
2D0
330
1F
100
AcDbEntity
  8
0
  6
Continuous
 62
     7
370
    15
100
AcDbLine
 10
146.8108890222
 20
241.8918320967
 30
0.0
 11
141.8108890222
 21
241.8918320967
 31
0.0
  0
LINE
  5
2D1
330
1F
100
AcDbEntity
  8
0
  6
Continuous
 62
     7
370
    15
100
AcDbLine
 10
141.8108890222
 20
241.8918320967
 30
0.0
 11
141.8108890222
 21
243.0042189877
 31
0.0
  0
LINE
  5
2D2
330
1F
100
AcDbEntity
  8
0
  6
Continuous
 62
     7
370
    15
100
AcDbLine
 10
146.8108890222
 20
241.8918320967
 30
0.0
 11
146.8108890222
 21
243.0042189877
 31
0.0
  0
LINE
  5
2D3
330
1F
100
AcDbEntity
  8
0
  6
Continuous
 62
     7
370
    15
100
AcDbLine
 10
146.8108890222
 20
225.4266970484
 30
0.0
 11
141.8108890222
 21
225.4266970484
 31
0.0
  0
LINE
  5
2D4
330
1F
100
AcDbEntity
  8
0
  6
Continuous
 62
     7
370
    15
100
AcDbLine
 10
141.8108890222
 20
225.6796379179
 30
0.0
 11
141.8108890222
 21
225.4266970484
 31
0.0
  0
LINE
  5
2D5
330
1F
100
AcDbEntity
  8
0
  6
Continuous
 62
     7
370
    15
100
AcDbLine
 10
146.8108890222
 20
225.6796379179
 30
0.0
 11
146.8108890222
 21
225.4266970484
 31
0.0
  0
LINE
  5
2D6
330
1F
100
AcDbEntity
  8
0
  6
Continuous
 62
     7
370
    15
100
AcDbLine
 10
146.8108890222
 20
243.2512665409
 30
0.0
 11
141.8108890222
 21
243.2512665409
 31
0.0
  0
LINE
  5
2D7
330
1F
100
AcDbEntity
  8
0
  6
Continuous
 62
     7
370
    15
100
AcDbLine
 10
141.8108890222
 20
243.2512665409
 30
0.0
 11
141.8108890222
 21
243.0042189877
 31
0.0
  0
LINE
  5
2D8
330
1F
100
AcDbEntity
  8
0
  6
Continuous
 62
     7
370
    15
100
AcDbLine
 10
146.8108890222
 20
243.2512665409
 30
0.0
 11
146.8108890222
 21
243.0042189877
 31
0.0
  0
LINE
  5
2D9
330
1F
100
AcDbEntity
  8
0
  6
Continuous
 62
     7
370
    15
100
AcDbLine
 10
141.8108890222
 20
241.8918320967
 30
0.0
 11
141.8108890222
 21
241.7051157853
 31
0.0
  0
LINE
  5
2DA
330
1F
100
AcDbEntity
  8
0
  6
Continuous
 62
     7
370
    15
100
AcDbLine
 10
146.8108890222
 20
241.8918320967
 30
0.0
 11
146.8108890222
 21
241.7051157853
 31
0.0
  0
LINE
  5
2DB
330
1F
100
AcDbEntity
  8
0
  6
Continuous
 62
     7
370
    15
100
AcDbLine
 10
146.8108890222
 20
244.0616874481
 30
0.0
 11
141.8108890222
 21
244.0616874481
 31
0.0
  0
LINE
  5
2DC
330
1F
100
AcDbEntity
  8
0
  6
Continuous
 62
     7
370
    15
100
AcDbLine
 10
141.8108890222
 20
243.2512665409
 30
0.0
 11
141.8108890222
 21
244.0616874481
 31
0.0
  0
LINE
  5
2DD
330
1F
100
AcDbEntity
  8
0
  6
Continuous
 62
     7
370
    15
100
AcDbLine
 10
146.8108890222
 20
243.2512665409
 30
0.0
 11
146.8108890222
 21
244.0616874481
 31
0.0
  0
LINE
  5
2DE
330
1F
100
AcDbEntity
  8
0
  6
Continuous
 62
     7
370
    15
100
AcDbLine
 10
146.8108890222
 20
224.5892023024
 30
0.0
 11
141.8108890222
 21
224.5892023024
 31
0.0
  0
LINE
  5
2DF
330
1F
100
AcDbEntity
  8
0
  6
Continuous
 62
     7
370
    15
100
AcDbLine
 10
141.8108890222
 20
224.5892023024
 30
0.0
 11
141.8108890222
 21
225.4266970484
 31
0.0
  0
LINE
  5
2E0
330
1F
100
AcDbEntity
  8
0
  6
Continuous
 62
     7
370
    15
100
AcDbLine
 10
146.8108890222
 20
224.5892023024
 30
0.0
 11
146.8108890222
 21
225.4266970484
 31
0.0
  0
LINE
  5
2E1
330
1F
100
AcDbEntity
  8
0
  6
Continuous
 62
     7
370
    15
100
AcDbLine
 10
146.8108890222
 20
224.4565092061
 30
0.0
 11
141.8108890222
 21
224.4565092061
 31
0.0
  0
LINE
  5
2E2
330
1F
100
AcDbEntity
  8
0
  6
Continuous
 62
     7
370
    15
100
AcDbLine
 10
141.8108890222
 20
224.5892023024
 30
0.0
 11
141.8108890222
 21
224.4565092061
 31
0.0
  0
LINE
  5
2E3
330
1F
100
AcDbEntity
  8
0
  6
Continuous
 62
     7
370
    15
100
AcDbLine
 10
146.8108890222
 20
224.5892023024
 30
0.0
 11
146.8108890222
 21
224.4565092061
 31
0.0
  0
LINE
  5
2E4
330
1F
100
AcDbEntity
  8
0
  6
Continuous
 62
     7
370
    15
100
AcDbLine
 10
146.8108890222
 20
244.1878074042
 30
0.0
 11
141.8108890222
 21
244.1878074042
 31
0.0
  0
LINE
  5
2E5
330
1F
100
AcDbEntity
  8
0
  6
Continuous
 62
     7
370
    15
100
AcDbLine
 10
141.8108890222
 20
244.1878074042
 30
0.0
 11
141.8108890222
 21
244.0616874481
 31
0.0
  0
LINE
  5
2E6
330
1F
100
AcDbEntity
  8
0
  6
Continuous
 62
     7
370
    15
100
AcDbLine
 10
146.8108890222
 20
244.1878074042
 30
0.0
 11
146.8108890222
 21
244.0616874481
 31
0.0
  0
LINE
  5
2E7
330
1F
100
AcDbEntity
  8
0
  6
Continuous
 62
     7
370
    15
100
AcDbLine
 10
146.8108890222
 20
244.4543171707
 30
0.0
 11
141.8108890222
 21
244.4543171707
 31
0.0
  0
LINE
  5
2E8
330
1F
100
AcDbEntity
  8
0
  6
Continuous
 62
     7
370
    15
100
AcDbLine
 10
141.8108890222
 20
244.1878074042
 30
0.0
 11
141.8108890222
 21
244.4543171707
 31
0.0
  0
LINE
  5
2E9
330
1F
100
AcDbEntity
  8
0
  6
Continuous
 62
     7
370
    15
100
AcDbLine
 10
146.8108890222
 20
244.1878074042
 30
0.0
 11
146.8108890222
 21
244.4543171707
 31
0.0
  0
LINE
  5
2EA
330
1F
100
AcDbEntity
  8
0
  6
Continuous
 62
     7
370
    15
100
AcDbLine
 10
146.8108890222
 20
224.1609456318
 30
0.0
 11
141.8108890222
 21
224.1609456318
 31
0.0
  0
LINE
  5
2EB
330
1F
100
AcDbEntity
  8
0
  6
Continuous
 62
     7
370
    15
100
AcDbLine
 10
141.8108890222
 20
224.1609456318
 30
0.0
 11
141.8108890222
 21
224.4565092061
 31
0.0
  0
LINE
  5
2EC
330
1F
100
AcDbEntity
  8
0
  6
Continuous
 62
     7
370
    15
100
AcDbLine
 10
146.8108890222
 20
224.1609456318
 30
0.0
 11
146.8108890222
 21
224.4565092061
 31
0.0
  0
LINE
  5
2ED
330
1F
100
AcDbEntity
  8
0
  6
Continuous
 62
     7
370
    15
100
AcDbLine
 10
141.8108890222
 20
224.1609456318
 30
0.0
 11
141.8108890222
 21
224.1559301474
 31
0.0
  0
LINE
  5
2EE
330
1F
100
AcDbEntity
  8
0
  6
Continuous
 62
     7
370
    15
100
AcDbLine
 10
146.8108890222
 20
224.1609456318
 30
0.0
 11
146.8108890222
 21
224.1559301474
 31
0.0
  0
LINE
  5
2EF
330
1F
100
AcDbEntity
  8
0
  6
Continuous
 62
     7
370
    15
100
AcDbLine
 10
141.8108890222
 20
244.4559301474
 30
0.0
 11
141.8108890222
 21
244.4543171707
 31
0.0
  0
LINE
  5
2F0
330
1F
100
AcDbEntity
  8
0
  6
Continuous
 62
     7
370
    15
100
AcDbLine
 10
146.8108890222
 20
244.4559301474
 30
0.0
 11
146.8108890222
 21
244.4543171707
 31
0.0
  0
LINE
  5
2F1
330
1F
100
AcDbEntity
  8
0
  6
Continuous
 62
     7
370
    15
100
AcDbLine
 10
139.8108890222
 20
240.7059301474
 30
0.0
 11
147.8108890222
 21
240.7059301474
 31
0.0
  0
LINE
  5
2F2
330
1F
100
AcDbEntity
  8
0
  6
Continuous
 62
     7
370
    15
100
AcDbLine
 10
147.8108890222
 20
221.7059301474
 30
0.0
 11
146.8608890222
 21
221.7059301474
 31
0.0
  0
LINE
  5
2F3
330
1F
100
AcDbEntity
  8
0
  6
Continuous
 62
     7
370
    15
100
AcDbLine
 10
146.8608890222
 20
221.7059301474
 30
0.0
 11
146.8608890222
 21
225.7059301474
 31
0.0
  0
LINE
  5
2F4
330
1F
100
AcDbEntity
  8
0
  6
Continuous
 62
     7
370
    15
100
AcDbLine
 10
146.8608890222
 20
225.7059301474
 30
0.0
 11
141.7608890222
 21
225.7059301474
 31
0.0
  0
LINE
  5
2F5
330
1F
100
AcDbEntity
  8
0
  6
Continuous
 62
     7
370
    15
100
AcDbLine
 10
141.7608890222
 20
225.7059301474
 30
0.0
 11
141.7608890222
 21
221.7059301474
 31
0.0
  0
LINE
  5
2F6
330
1F
100
AcDbEntity
  8
0
  6
Continuous
 62
     7
370
    15
100
AcDbLine
 10
141.7608890222
 20
221.7059301474
 30
0.0
 11
139.8108890222
 21
221.7059301474
 31
0.0
  0
LINE
  5
2F7
330
1F
100
AcDbEntity
  8
0
  6
Continuous
 62
     7
370
    15
100
AcDbLine
 10
147.8108890222
 20
240.7059301474
 30
0.0
 11
147.8108890222
 21
221.7059301474
 31
0.0
  0
LINE
  5
2F8
330
1F
100
AcDbEntity
  8
0
  6
Continuous
 62
     7
370
    15
100
AcDbLine
 10
163.8108890222
 20
185.9578533381
 30
0.0
 11
163.8108890222
 21
173.7059301474
 31
0.0
  0
LINE
  5
2F9
330
1F
100
AcDbEntity
  8
0
  6
Continuous
 62
     7
370
    15
100
AcDbLine
 10
163.8108890222
 20
173.7059301474
 30
0.0
 11
151.3108890222
 21
173.7059301474
 31
0.0
  0
LINE
  5
2FA
330
1F
100
AcDbEntity
  8
0
  6
Continuous
 62
     7
370
    15
100
AcDbLine
 10
151.3108890222
 20
173.7059301474
 30
0.0
 11
151.3108890222
 21
174.2059301474
 31
0.0
  0
LINE
  5
2FB
330
1F
100
AcDbEntity
  8
0
  6
Continuous
 62
     7
370
    15
100
AcDbLine
 10
151.3108890222
 20
174.2059301474
 30
0.0
 11
138.3108890222
 21
174.2059301474
 31
0.0
  0
LINE
  5
2FC
330
1F
100
AcDbEntity
  8
0
  6
Continuous
 62
     7
370
    15
100
AcDbLine
 10
138.3108890222
 20
174.2059301474
 30
0.0
 11
138.3108890222
 21
173.7059301474
 31
0.0
  0
LINE
  5
2FD
330
1F
100
AcDbEntity
  8
0
  6
Continuous
 62
     7
370
    15
100
AcDbLine
 10
138.3108890222
 20
173.7059301474
 30
0.0
 11
125.8108890222
 21
173.7059301474
 31
0.0
  0
LINE
  5
2FE
330
1F
100
AcDbEntity
  8
0
  6
Continuous
 62
     7
370
    15
100
AcDbLine
 10
125.8108890222
 20
173.7059301474
 30
0.0
 11
125.8108890222
 21
185.9578533381
 31
0.0
  0
ARC
  5
2FF
330
1F
100
AcDbEntity
  8
0
  6
Continuous
 62
     7
370
    15
100
AcDbCircle
 10
144.8108890222
 20
202.2059301474
 30
0.0
 40
25.0
100
AcDbArc
 50
117.3871075027
 51
220.5358021113
  0
LINE
  5
300
330
1F
100
AcDbEntity
  8
0
  6
Continuous
 62
     7
370
    15
100
AcDbLine
 10
133.3108890222
 20
224.4039030278
 30
0.0
 11
133.3108890222
 21
240.7059301474
 31
0.0
  0
LINE
  5
301
330
1F
100
AcDbEntity
  8
0
  6
Continuous
 62
     7
370
    15
100
AcDbLine
 10
133.3108890222
 20
240.7059301474
 30
0.0
 11
139.8108890222
 21
240.7059301474
 31
0.0
  0
LINE
  5
302
330
1F
100
AcDbEntity
  8
0
  6
Continuous
 62
     7
370
    15
100
AcDbLine
 10
139.8108890222
 20
240.7059301474
 30
0.0
 11
139.8108890222
 21
221.5708468784
 31
0.0
  0
ARC
  5
303
330
1F
100
AcDbEntity
  8
0
  6
Continuous
 62
     7
370
    15
100
AcDbCircle
 10
144.8108890222
 20
202.2059301474
 30
0.0
 40
20.0
100
AcDbArc
 50
104.4775121859
 51
137.731101004
  0
LINE
  5
304
330
1F
100
AcDbEntity
  8
0
  6
Continuous
 62
     7
370
    15
100
AcDbLine
 10
130.0109628776
 20
215.6581487791
 30
0.0
 11
130.8539115319
 21
215.1714721466
 31
0.0
  0
ARC
  5
305
330
1F
100
AcDbEntity
  8
0
  6
Continuous
 62
     7
370
    15
100
AcDbCircle
 10
144.8108890222
 20
202.2059301474
 30
0.0
 40
19.05
100
AcDbArc
 50
137.1089932563
 51
162.8910067437
  0
LINE
  5
306
330
1F
100
AcDbEntity
  8
0
  6
Continuous
 62
     7
370
    15
100
AcDbLine
 10
126.6039115319
 20
207.8102562145
 30
0.0
 11
125.7609628776
 21
208.2969328469
 31
0.0
  0
ARC
  5
307
330
1F
100
AcDbEntity
  8
0
  6
Continuous
 62
     7
370
    15
100
AcDbCircle
 10
144.8108890222
 20
202.2059301474
 30
0.0
 40
20.00000000000001
100
AcDbArc
 50
162.268898996
 51
257.731101004
  0
LINE
  5
308
330
1F
100
AcDbEntity
  8
0
  6
Continuous
 62
     7
370
    15
100
AcDbLine
 10
140.5608890222
 20
182.6627088162
 30
0.0
 11
140.5608890222
 21
183.6360620811
 31
0.0
  0
ARC
  5
309
330
1F
100
AcDbEntity
  8
0
  6
Continuous
 62
     7
370
    15
100
AcDbCircle
 10
144.8108890222
 20
202.2059301474
 30
0.0
 40
19.05000000000001
100
AcDbArc
 50
257.1089932563
 51
282.8910067437
  0
LINE
  5
30A
330
1F
100
AcDbEntity
  8
0
  6
Continuous
 62
     7
370
    15
100
AcDbLine
 10
149.0608890222
 20
183.6360620811
 30
0.0
 11
149.0608890222
 21
182.6627088162
 31
0.0
  0
ARC
  5
30B
330
1F
100
AcDbEntity
  8
0
  6
Continuous
 62
     7
370
    15
100
AcDbCircle
 10
144.8108890222
 20
202.2059301474
 30
0.0
 40
20.00000000000001
100
AcDbArc
 50
282.268898996
 51
17.731101004
  0
LINE
  5
30C
330
1F
100
AcDbEntity
  8
0
  6
Continuous
 62
     7
370
    15
100
AcDbLine
 10
163.8608151668
 20
208.2969328469
 30
0.0
 11
163.0178665126
 21
207.8102562145
 31
0.0
  0
ARC
  5
30D
330
1F
100
AcDbEntity
  8
0
  6
Continuous
 62
     7
370
    15
100
AcDbCircle
 10
144.8108890222
 20
202.2059301474
 30
0.0
 40
19.05000000000002
100
AcDbArc
 50
17.1089932563
 51
42.8910067437
  0
LINE
  5
30E
330
1F
100
AcDbEntity
  8
0
  6
Continuous
 62
     7
370
    15
100
AcDbLine
 10
158.7678665126
 20
215.1714721466
 30
0.0
 11
159.6108151668
 21
215.6581487791
 31
0.0
  0
ARC
  5
30F
330
1F
100
AcDbEntity
  8
0
  6
Continuous
 62
     7
370
    15
100
AcDbCircle
 10
144.8108890222
 20
202.2059301474
 30
0.0
 40
20.0
100
AcDbArc
 50
42.268898996
 51
75.5224878141
  0
LINE
  5
310
330
1F
100
AcDbEntity
  8
0
  6
Continuous
 62
     7
370
    15
100
AcDbLine
 10
149.8108890222
 20
221.5708468784
 30
0.0
 11
149.8108890222
 21
240.7059301474
 31
0.0
  0
LINE
  5
311
330
1F
100
AcDbEntity
  8
0
  6
Continuous
 62
     7
370
    15
100
AcDbLine
 10
149.8108890222
 20
240.7059301474
 30
0.0
 11
156.3108890222
 21
240.7059301474
 31
0.0
  0
LINE
  5
312
330
1F
100
AcDbEntity
  8
0
  6
Continuous
 62
     7
370
    15
100
AcDbLine
 10
156.3108890222
 20
240.7059301474
 30
0.0
 11
156.3108890222
 21
224.4039030278
 31
0.0
  0
ARC
  5
313
330
1F
100
AcDbEntity
  8
0
  6
Continuous
 62
     7
370
    15
100
AcDbCircle
 10
144.8108890222
 20
202.2059301474
 30
0.0
 40
25.00000000000001
100
AcDbArc
 50
319.4641978887
 51
62.6128924973
  0
DIMENSION
  5
314
330
1F
100
AcDbEntity
  8
DIM
 62
     7
100
AcDbDimension
  2
_D_8
 10
185.3108890222
 20
262.6618478199
 30
0.0
 11
144.8108890222
 21
262.6618478199
 31
0.0
 70
   160
  1
<>
 71
     2
 42
-1.0
  3
SLDDIMSTYLE0
100
AcDbAlignedDimension
 13
104.3108890222
 23
248.3059301474
 33
0.0
 14
185.3108890222
 24
248.3059301474
 34
0.0
100
AcDbRotatedDimension
  0
DIMENSION
  5
31E
330
1F
100
AcDbEntity
  8
DIM
 62
     7
100
AcDbDimension
  2
_D_9
 10
198.854223008
 20
173.7059301474
 30
0.0
 11
198.854223008
 21
207.2059301474
 31
0.0
 70
   160
  1
<>
 71
     2
 42
-1.0
  3
SLDDIMSTYLE0
100
AcDbAlignedDimension
 13
156.3108890222
 23
240.7059301474
 33
0.0
 14
163.8108890222
 24
173.7059301474
 34
0.0
 50
90.0
100
AcDbRotatedDimension
  0
DIMENSION
  5
328
330
1F
100
AcDbEntity
  8
DIM
 62
     7
100
AcDbDimension
  2
_D_10
 10
188.7108890222
 20
173.7059301474
 30
0.0
 11
188.7108890222
 21
187.9559301474
 31
0.0
 70
   160
  1
<>
 71
     2
 42
-1.0
  3
SLDDIMSTYLE0
100
AcDbAlignedDimension
 13
144.8108890222
 23
202.2059301474
 33
0.0
 14
163.8108890222
 24
173.7059301474
 34
0.0
 50
90.0
100
AcDbRotatedDimension
  0
DIMENSION
  5
332
330
1F
100
AcDbEntity
  8
DIM
 62
     7
100
AcDbDimension
  2
_D_11
 10
161.468156096
 20
192.9626648351
 30
0.0
 11
85.459791848
 21
232.9730639203
 31
0.0
 70
   163
  1
<>
 71
     1
 42
-1.0
  3
SLDDIMSTYLE2
100
AcDbDiametricDimension
 15
128.1536219485
 25
211.4491954597
 35
0.0
 40
0.0
  0
DIMENSION
  5
33C
330
1F
100
AcDbEntity
  8
DIM
 62
     7
100
AcDbDimension
  2
_D_12
 10
163.8108890222
 20
163.2170353767
 30
0.0
 11
144.8108890222
 21
163.2170353767
 31
0.0
 70
   160
  1
<>
 71
     2
 42
-1.0
  3
SLDDIMSTYLE0
100
AcDbAlignedDimension
 13
125.8108890222
 23
173.7059301474
 33
0.0
 14
163.8108890222
 24
173.7059301474
 34
0.0
100
AcDbRotatedDimension
  0
DIMENSION
  5
346
330
1F
100
AcDbEntity
  8
DIM
100
AcDbDimension
  2
_D_13
 10
207.9345331813
 20
254.3059301474
 30
0.0
 11
207.9345331813
 21
214.0059301474
 31
0.0
 70
   160
  1
<>
 71
     2
 42
-1.0
  3
SLDDIMSTYLE3
100
AcDbAlignedDimension
 13
163.8108890222
 23
173.7059301474
 33
0.0
 14
182.3108890222
 24
254.3059301474
 34
0.0
 50
90.0
100
AcDbRotatedDimension
  0
INSERT
  5
35C
330
1F
100
AcDbEntity
  8
DIM
 62
     7
100
AcDbBlockReference
  2
SW_CENTERMARKSYMBOL_9
 10
144.8108890222
 20
202.2059301474
 30
0.0
  0
LINE
  5
35D
330
1F
100
AcDbEntity
  8
0
  6
Continuous
 62
     7
370
    15
100
AcDbLine
 10
379.3321567236
 20
245.1654710124
 30
0.0
 11
373.4999381121
 21
248.5323391511
 31
0.0
  0
LINE
  5
35E
330
1F
100
AcDbEntity
  8
0
  6
Continuous
 62
     7
370
    15
100
AcDbLine
 10
362.0150360318
 20
228.6393422672
 30
0.0
 11
367.8470830897
 21
225.2725731644
 31
0.0
  0
LINE
  5
35F
330
1F
100
AcDbEntity
  8
0
  6
Continuous
 62
     7
370
    15
100
AcDbLine
 10
365.9998507619
 20
242.0499918955
 30
0.0
 11
365.2044849234
 21
241.5906876949
 31
0.0
  0
LINE
  5
360
330
1F
100
AcDbEntity
  8
0
  6
Continuous
 62
     7
370
    15
100
AcDbLine
 10
363.8790667913
 20
239.2947473788
 30
0.0
 11
363.8790667913
 21
238.376288253
 31
0.0
  0
LINE
  5
361
330
1F
100
AcDbEntity
  8
0
  6
Continuous
 62
     7
370
    15
100
AcDbLine
 10
371.9998507619
 20
248.3836293682
 30
0.0
 11
371.2044849234
 21
247.9243251676
 31
0.0
  0
LINE
  5
362
330
1F
100
AcDbEntity
  8
0
  6
Continuous
 62
     7
370
    15
100
AcDbLine
 10
361.3935937872
 20
230.9313358125
 30
0.0
 11
361.3935937872
 21
230.0128766867
 31
0.0
  0
LINE
  5
363
330
1F
100
AcDbEntity
  8
0
  6
Continuous
 62
     7
370
    15
100
AcDbLine
 10
385.0705984549
 20
245.9102804593
 30
0.0
 11
379.4999381121
 21
249.1261542233
 31
0.0
  0
LINE
  5
364
330
1F
100
AcDbEntity
  8
0
  6
Continuous
 62
     7
370
    15
100
AcDbLine
 10
364.500317406
 20
223.1454861233
 30
0.0
 11
370.0702883915
 21
219.9300103167
 31
0.0
  0
LINE
  5
365
330
1F
100
AcDbEntity
  8
0
  6
Continuous
 62
     7
370
    15
100
AcDbLine
 10
363.0891280817
 20
234.7851726567
 30
0.0
 11
363.2312515374
 21
234.7031265321
 31
0.0
  0
LINE
  5
366
330
1F
100
AcDbEntity
  8
0
  6
Continuous
 62
     7
370
    15
100
AcDbLine
 10
368.8560851743
 20
244.4460083783
 30
0.0
 11
368.7136709528
 21
244.5282223585
 31
0.0
  0
LINE
  5
367
330
1F
100
AcDbEntity
  8
0
  6
Continuous
 62
     7
370
    15
100
AcDbLine
 10
377.9998507619
 20
248.9774444405
 30
0.0
 11
377.2044849234
 21
248.5181402399
 31
0.0
  0
LINE
  5
368
330
1F
100
AcDbEntity
  8
0
  6
Continuous
 62
     7
370
    15
100
AcDbLine
 10
363.8788751614
 20
225.4374796685
 30
0.0
 11
363.8788751614
 21
224.5190205427
 31
0.0
  0
LINE
  5
369
330
1F
100
AcDbEntity
  8
0
  6
Continuous
 62
     7
370
    15
100
AcDbLine
 10
375.469872316
 20
220.8704382115
 30
0.0
 11
376.3326952404
 21
220.3723411395
 31
0.0
  0
LINE
  5
36A
330
1F
100
AcDbEntity
  8
0
  6
Continuous
 62
     7
370
    15
100
AcDbLine
 10
387.8174020361
 20
240.2657636805
 30
0.0
 11
386.9683891517
 21
240.7558883861
 31
0.0
  0
LINE
  5
36B
330
1F
100
AcDbEntity
  8
0
  6
Continuous
 62
     7
370
    15
100
AcDbLine
 10
346.427887383
 20
268.2185556445
 30
0.0
 11
345.2905736401
 21
268.8751128931
 31
0.0
  0
LINE
  5
36C
330
1F
100
AcDbEntity
  8
0
  6
Continuous
 62
     7
370
    15
100
AcDbLine
 10
361.3990226916
 20
236.7567519682
 30
0.0
 11
362.0236237165
 21
236.3961774716
 31
0.0
  0
LINE
  5
36D
330
1F
100
AcDbEntity
  8
0
  6
Continuous
 62
     7
370
    15
100
AcDbLine
 10
366.7857366807
 20
244.6452928857
 30
0.0
 11
366.1611356558
 21
245.0058673824
 31
0.0
  0
LINE
  5
36E
330
1F
100
AcDbEntity
  8
0
  6
Continuous
 62
     7
370
    15
100
AcDbLine
 10
359.4076874289
 20
211.3031438727
 30
0.0
 11
359.4076874289
 21
257.8459701502
 31
0.0
  0
ARC
  5
36F
330
1F
100
AcDbEntity
  8
0
  6
Continuous
 62
     7
370
    15
100
AcDbCircle
 10
369.1901498897
 20
242.7889866468
 30
0.0
 40
0.6469910710549596
100
AcDbArc
 50
294.1266854937
 51
348.2101470919
  0
ARC
  5
370
330
1F
100
AcDbEntity
  8
0
  6
Continuous
 62
     7
370
    15
100
AcDbCircle
 10
368.0678556511
 20
242.557417815
 30
0.0
 40
0.815044570426111
100
AcDbArc
 50
99.9410015506
 51
164.8348693255
  0
LWPOLYLINE
  5
371
330
1F
100
AcDbEntity
  8
0
  6
Continuous
 62
     7
370
    15
100
AcDbPolyline
 90
       50
 70
   128
 43
0.0
 10
379.1596516645
 20
223.4291929344
 10
378.2102121785
 20
222.951482968
 10
377.2763624627
 20
222.6223965503
 10
376.3734363035
 20
222.4473372714
 10
375.5162597234
 20
222.4291795996
 10
374.7189075384
 20
222.5682216834
 10
373.9944722491
 20
222.8621804558
 10
373.354849063
 20
223.3062291217
 10
372.8105405751
 20
223.8930764143
 10
372.3704843158
 20
224.6130863174
 10
372.0419059967
 20
225.4544362883
 10
371.8302008646
 20
226.4033113835
 10
371.7388451121
 20
227.4441311005
 10
371.769338798
 20
228.559805208
 10
371.9211812168
 20
229.7320143683
 10
372.1918791203
 20
230.9415109392
 10
372.5769876563
 20
232.1684350204
 10
373.0701833533
 20
233.3926405526
 10
373.6633679517
 20
234.5940261147
 10
374.3468013766
 20
235.752864989
 10
375.1092616703
 20
236.8501290732
 10
375.9382292556
 20
237.8678013214
 10
376.8200925079
 20
238.7891715834
 10
377.7403712568
 20
239.599110985
 10
378.6839545508
 20
240.2843203435
 10
379.6353487782
 20
240.8335485404
 10
380.5789320722
 20
241.2377772637
 10
381.4992108211
 20
241.490369089
 10
382.3810740733
 20
241.5871764655
 10
383.2100416587
 20
241.5266098188
 10
383.9725019523
 20
241.3096636516
 10
384.6559353773
 20
240.9399002138
 10
385.2491199756
 20
240.423391011
 10
385.7423156727
 20
239.7686171099
 10
386.1274242087
 20
238.9863298799
 10
386.3981221121
 20
238.0893744557
 10
386.549964531
 20
237.0924788206
 10
386.5804582168
 20
236.0120119734
 10
386.4891024643
 20
234.8657151497
 10
386.2773973322
 20
233.6724105118
 10
385.9488190131
 20
232.4516920888
 10
385.5087627538
 20
231.2236040434
 10
384.964454266
 20
230.0083115475
 10
384.3248310799
 20
228.8257696702
 10
383.6003957906
 20
227.6953957164
 10
382.8030436055
 20
226.6357503953
 10
381.9458670255
 20
225.6642330536
 10
381.0429408663
 20
224.7967959793
 10
380.1090911504
 20
224.0476824652
 10
379.1596516645
 20
223.4291929344
  0
SPLINE
  5
372
330
1F
100
AcDbEntity
  8
0
  6
Continuous
 62
     7
370
    15
100
AcDbSpline
210
0.0
220
0.0
230
1.0
 70
     8
 71
     3
 72
    12
 73
     8
 74
     0
 42
0.000000001
 43
0.00000001
 40
0.0
 40
0.0
 40
0.0
 40
0.0
 40
0.2523425790010249
 40
0.5058462538030658
 40
0.7379970426370729
 40
0.9690912189386457
 40
1.0
 40
1.0
 40
1.0
 40
1.0
 10
386.0374442331706
 20
230.893073008821
 30
0.0
 10
386.1119644951352
 20
231.2167856015207
 30
0.0
 10
386.2613479067514
 20
231.8657002752721
 30
0.0
 10
386.6644699829502
 20
233.2416416942262
 30
0.0
 10
387.1101108513369
 20
234.7110328119596
 30
0.0
 10
387.4375170325591
 20
235.7117483111937
 30
0.0
 10
387.6127938642848
 20
236.205649888667
 30
0.0
 10
387.6334714675892
 20
236.2639160085522
 30
0.0
  0
SPLINE
  5
373
330
1F
100
AcDbEntity
  8
0
  6
Continuous
 62
     7
370
    15
100
AcDbSpline
210
0.0
220
0.0
230
1.0
 70
     8
 71
     3
 72
    13
 73
     9
 74
     0
 42
0.000000001
 43
0.00000001
 40
0.0
 40
0.0
 40
0.0
 40
0.0
 40
0.1735322077433413
 40
0.3474803110675799
 40
0.5125459321891221
 40
0.6710335034925649
 40
0.829764888964078
 40
1.0
 40
1.0
 40
1.0
 40
1.0
 10
383.5588545792457
 20
226.6000298097073
 30
0.0
 10
383.7146010769244
 20
226.7527559128741
 30
0.0
 10
384.0264673417801
 20
227.0585741498842
 30
0.0
 10
384.5858750564687
 20
227.7989340014718
 30
0.0
 10
385.1121451225156
 20
228.6392319956096
 30
0.0
 10
385.5486863750423
 20
229.4853282615141
 30
0.0
 10
385.8819085508428
 20
230.2867746293238
 30
0.0
 10
385.9844042714576
 20
230.6863163189487
 30
0.0
 10
386.0374442331706
 20
230.893073008821
 30
0.0
  0
SPLINE
  5
374
330
1F
100
AcDbEntity
  8
0
  6
Continuous
 62
     7
370
    15
100
AcDbSpline
210
0.0
220
0.0
230
1.0
 70
     8
 71
     3
 72
    12
 73
     8
 74
     0
 42
0.000000001
 43
0.00000001
 40
0.0
 40
0.0
 40
0.0
 40
0.0
 40
0.2523388541794063
 40
0.5058431516690073
 40
0.7379942180549663
 40
0.9690881654589663
 40
1.0
 40
1.0
 40
1.0
 40
1.0
 10
379.7057039839943
 20
222.5326199766735
 30
0.0
 10
380.0488580266027
 20
222.9250818297003
 30
0.0
 10
380.7367509909481
 20
223.7118181461923
 30
0.0
 10
381.8364895810941
 20
224.8807505263972
 30
0.0
 10
382.7771427175887
 20
225.8611676495106
 30
0.0
 10
383.2997014974673
 20
226.3709055545502
 30
0.0
 10
383.5315059435411
 20
226.5758501405234
 30
0.0
 10
383.5588545792457
 20
226.6000298097073
 30
0.0
  0
SPLINE
  5
375
330
1F
100
AcDbEntity
  8
0
  6
Continuous
 62
     7
370
    15
100
AcDbSpline
210
0.0
220
0.0
230
1.0
 70
     8
 71
     3
 72
    13
 73
     9
 74
     0
 42
0.000000001
 43
0.00000001
 40
0.0
 40
0.0
 40
0.0
 40
0.0
 40
0.1735274932632308
 40
0.3474759845328531
 40
0.5125418655588582
 40
0.671029517173397
 40
0.8297608130563451
 40
1.0
 40
1.0
 40
1.0
 40
1.0
 10
376.2004488798559
 20
220.5090792773276
 30
0.0
 10
376.2728874328955
 20
220.4317106466227
 30
0.0
 10
376.4179402833819
 20
220.2767856798605
 30
0.0
 10
376.9388090343855
 20
220.3535243413531
 30
0.0
 10
377.5990741414581
 20
220.6650004268423
 30
0.0
 10
378.322501524019
 20
221.1706339950995
 30
0.0
 10
379.0599907252513
 20
221.8166387307847
 30
0.0
 10
379.485504523079
 20
222.2884579090134
 30
0.0
 10
379.7057039839943
 20
222.5326199766735
 30
0.0
  0
SPLINE
  5
376
330
1F
100
AcDbEntity
  8
0
  6
Continuous
 62
     7
370
    15
100
AcDbSpline
210
0.0
220
0.0
230
1.0
 70
     8
 71
     3
 72
    12
 73
     8
 74
     0
 42
0.000000001
 43
0.00000001
 40
0.0
 40
0.0
 40
0.0
 40
0.0
 40
0.2523425790008753
 40
0.5058462538027572
 40
0.7379970426366418
 40
0.9690912189381221
 40
1.0
 40
1.0
 40
1.0
 40
1.0
 10
372.3472982846069
 20
220.1277361274565
 30
0.0
 10
372.8275529398231
 20
220.3189502477828
 30
0.0
 10
373.79027203057
 20
220.7022583158235
 30
0.0
 10
375.009588889463
 20
220.9406659796512
 30
0.0
 10
375.8258594696205
 20
220.8972574259062
 30
0.0
 10
376.1167708547971
 20
220.6870817568855
 30
0.0
 10
376.1916189648442
 20
220.5278625452796
 30
0.0
 10
376.2004488798559
 20
220.5090792773276
 30
0.0
  0
SPLINE
  5
377
330
1F
100
AcDbEntity
  8
0
  6
Continuous
 62
     7
370
    15
100
AcDbSpline
210
0.0
220
0.0
230
1.0
 70
     8
 71
     3
 72
    19
 73
    15
 74
     0
 42
0.000000001
 43
0.00000001
 40
0.0
 40
0.0
 40
0.0
 40
0.0
 40
0.0855769788512133
 40
0.1735073385622207
 40
0.2591427523958177
 40
0.3475259764593423
 40
0.4288050836113037
 40
0.5126419224607526
 40
0.5907519850988309
 40
0.6711263156280635
 40
0.7494155777289914
 40
0.8298119002537755
 40
0.913767171558921
 40
1.0
 40
1.0
 40
1.0
 40
1.0
 10
369.8687086306794
 20
221.5590606255429
 30
0.0
 10
369.8137425793459
 20
221.4420780499798
 30
0.0
 10
369.7022989013127
 20
221.2048958589681
 30
0.0
 10
369.6287739006592
 20
220.8669897793457
 30
0.0
 10
369.6297422895198
 20
220.5522978373229
 30
0.0
 10
369.7124852362983
 20
220.2833903526642
 30
0.0
 10
369.8710839469107
 20
220.0634476367132
 30
0.0
 10
370.0913334755144
 20
219.9036377510586
 30
0.0
 10
370.3703929071613
 20
219.7998075967758
 30
0.0
 10
370.6922796749034
 20
219.753645561885
 30
0.0
 10
371.0571650874737
 20
219.7627198551679
 30
0.0
 10
371.4577386980326
 20
219.8272183397907
 30
0.0
 10
371.8924582026007
 20
219.9447882813926
 30
0.0
 10
372.1943382784286
 20
220.0662118582214
 30
0.0
 10
372.3472982846069
 20
220.1277361274565
 30
0.0
  0
SPLINE
  5
378
330
1F
100
AcDbEntity
  8
0
  6
Continuous
 62
     7
370
    15
100
AcDbSpline
210
0.0
220
0.0
230
1.0
 70
     8
 71
     3
 72
    12
 73
     8
 74
     0
 42
0.000000001
 43
0.00000001
 40
0.0
 40
0.0
 40
0.0
 40
0.0
 40
0.2523388541795025
 40
0.5058431516692045
 40
0.7379942180552628
 40
0.9690881654593614
 40
1.0
 40
1.0
 40
1.0
 40
1.0
 10
368.2726813962606
 20
225.0871698041066
 30
0.0
 10
368.6781731470082
 20
224.9250158433389
 30
0.0
 10
369.491029438367
 20
224.5999590032534
 30
0.0
 10
370.1828351864231
 20
223.7294139468921
 30
0.0
 10
370.3282040229371
 20
222.7270801645004
 30
0.0
 10
370.0963790766785
 20
221.989780216772
 30
0.0
 10
369.892734878199
 20
221.6045148146669
 30
0.0
 10
369.8687086306794
 20
221.5590606255429
 30
0.0
  0
SPLINE
  5
379
330
1F
100
AcDbEntity
  8
0
  6
Continuous
 62
     7
370
    15
100
AcDbSpline
210
0.0
220
0.0
230
1.0
 70
     8
 71
     3
 72
    13
 73
     9
 74
     0
 42
0.000000001
 43
0.00000001
 40
0.0
 40
0.0
 40
0.0
 40
0.0
 40
0.1735274932638162
 40
0.3474759845333023
 40
0.512541865559178
 40
0.6710295171735884
 40
0.8297608130564003
 40
1.0
 40
1.0
 40
1.0
 40
1.0
 10
368.2726813962607
 20
229.1349090208027
 30
0.0
 10
368.0171619257318
 20
228.9037371103401
 30
0.0
 10
367.5055030645366
 20
228.4408324393071
 30
0.0
 10
367.0509829224837
 20
227.576939084583
 30
0.0
 10
366.9098783232647
 20
226.7330237794853
 30
0.0
 10
367.0880189975518
 20
226.0004845267867
 30
0.0
 10
367.5365552599842
 20
225.4078178820099
 30
0.0
 10
368.0216495703239
 20
225.1965163800702
 30
0.0
 10
368.2726813962606
 20
225.0871698041066
 30
0.0
  0
SPLINE
  5
37A
330
1F
100
AcDbEntity
  8
0
  6
Continuous
 62
     7
370
    15
100
AcDbSpline
210
0.0
220
0.0
230
1.0
 70
     8
 71
     3
 72
    12
 73
     8
 74
     0
 42
0.000000001
 43
0.00000001
 40
0.0
 40
0.0
 40
0.0
 40
0.0
 40
0.2529409289825462
 40
0.5070337664678941
 40
0.7400835263100481
 40
0.9726927897603379
 40
1.0
 40
1.0
 40
1.0
 40
1.0
 10
369.8814507058775
 20
234.4778932194938
 30
0.0
 10
370.0405560792153
 20
234.0172924183293
 30
0.0
 10
370.3594914015187
 20
233.0939932117045
 30
0.0
 10
370.1761684438313
 20
231.5899245088692
 30
0.0
 10
369.4907878629253
 20
230.2597991822839
 30
0.0
 10
368.7534988873734
 20
229.5059457306756
 30
0.0
 10
368.3183941457704
 20
229.170184584797
 30
0.0
 10
368.2726813962607
 20
229.1349090208027
 30
0.0
  0
SPLINE
  5
37B
330
1F
100
AcDbEntity
  8
0
  6
Continuous
 62
     7
370
    15
100
AcDbSpline
210
0.0
220
0.0
230
1.0
 70
     8
 71
     3
 72
    19
 73
    15
 74
     0
 42
0.000000001
 43
0.00000001
 40
0.0
 40
0.0
 40
0.0
 40
0.0
 40
0.0848194393149629
 40
0.1719710587643857
 40
0.2568487638895642
 40
0.3444537197813808
 40
0.4249542201458809
 40
0.5079937877788813
 40
0.5852639676497332
 40
0.6647792938729018
 40
0.7421348862892287
 40
0.8215762606479925
 40
0.9094442829817808
 40
1.0
 40
1.0
 40
1.0
 40
1.0
 10
372.3777947431554
 20
238.8016879125411
 30
0.0
 10
372.2256007919401
 20
238.779200794902
 30
0.0
 10
371.917028191845
 20
238.7336082578587
 30
0.0
 10
371.4653564832561
 20
238.5635540376955
 30
0.0
 10
371.0318939932397
 20
238.3178419195013
 30
0.0
 10
370.6449588498713
 20
238.0040339039117
 30
0.0
 10
370.3085056334854
 20
237.6312212327184
 30
0.0
 10
370.0403602153781
 20
237.2259932846281
 30
0.0
 10
369.8351556440221
 20
236.7886269868993
 30
0.0
 10
369.6991955035707
 20
236.3413427377475
 30
0.0
 10
369.629741299744
 20
235.8823181977873
 30
0.0
 10
369.6300268228602
 20
235.4125132445157
 30
0.0
 10
369.7031699133539
 20
234.9324229501934
 30
0.0
 10
369.8214299696643
 20
234.6309170460158
 30
0.0
 10
369.8814507058775
 20
234.4778932194938
 30
0.0
  0
SPLINE
  5
37C
330
1F
100
AcDbEntity
  8
0
  6
Continuous
 62
     7
370
    15
100
AcDbSpline
210
0.0
220
0.0
230
1.0
 70
     8
 71
     3
 72
    11
 73
     7
 74
     0
 42
0.000000001
 43
0.00000001
 40
0.0
 40
0.0
 40
0.0
 40
0.0
 40
0.2543692972481064
 40
0.5099015709742164
 40
0.744271250550188
 40
1.0
 40
1.0
 40
1.0
 40
1.0
 10
376.1961019895116
 20
242.8323168888687
 30
0.0
 10
376.0875765131761
 20
242.3047233696846
 30
0.0
 10
375.8700293820056
 20
241.2471241736407
 30
0.0
 10
374.9944787777951
 20
239.9626099514563
 30
0.0
 10
373.782126981749
 20
239.0734405431368
 30
0.0
 10
372.8593112895511
 20
238.8948662819912
 30
0.0
 10
372.3777947431554
 20
238.8016879125411
 30
0.0
  0
SPLINE
  5
37D
330
1F
100
AcDbEntity
  8
0
  6
Continuous
 62
     7
370
    15
100
AcDbSpline
210
0.0
220
0.0
230
1.0
 70
     8
 71
     3
 72
    13
 73
     9
 74
     0
 42
0.000000001
 43
0.00000001
 40
0.0
 40
0.0
 40
0.0
 40
0.0
 40
0.1720043241260366
 40
0.3444293901826452
 40
0.5079306177206042
 40
0.6647297837317666
 40
0.8215827403429473
 40
1.0
 40
1.0
 40
1.0
 40
1.0
 10
379.7264655833794
 20
244.8703524108028
 30
0.0
 10
379.5025258260915
 20
245.039245617236
 30
0.0
 10
379.0540985296719
 20
245.3774451618892
 30
0.0
 10
378.271986566166
 20
245.4622206159681
 30
0.0
 10
377.5282372194523
 20
245.2067064872595
 30
0.0
 10
376.9027926608624
 20
244.6495797445397
 30
0.0
 10
376.4072347852407
 20
243.843582717243
 30
0.0
 10
376.2694339989594
 20
243.1835562831295
 30
0.0
 10
376.1961019895116
 20
242.8323168888687
 30
0.0
  0
SPLINE
  5
37E
330
1F
100
AcDbEntity
  8
0
  6
Continuous
 62
     7
370
    15
100
AcDbSpline
210
0.0
220
0.0
230
1.0
 70
     8
 71
     3
 72
    11
 73
     7
 74
     0
 42
0.000000001
 43
0.00000001
 40
0.0
 40
0.0
 40
0.0
 40
0.0
 40
0.2543731898028522
 40
0.5099048107121192
 40
0.7442741989811523
 40
1.0
 40
1.0
 40
1.0
 40
1.0
 10
383.5447728297357
 20
245.2482471430524
 30
0.0
 10
383.300704107959
 20
244.9233548540955
 30
0.0
 10
382.8114551604787
 20
244.2720906967729
 30
0.0
 10
381.8237314531421
 20
243.9178213875202
 30
0.0
 10
380.7334621673837
 20
244.0884851541402
 30
0.0
 10
380.0717428166761
 20
244.6022671288128
 30
0.0
 10
379.7264655833794
 20
244.8703524108028
 30
0.0
  0
SPLINE
  5
37F
330
1F
100
AcDbEntity
  8
0
  6
Continuous
 62
     7
370
    15
100
AcDbSpline
210
0.0
220
0.0
230
1.0
 70
     8
 71
     3
 72
    13
 73
     9
 74
     0
 42
0.000000001
 43
0.00000001
 40
0.0
 40
0.0
 40
0.0
 40
0.0
 40
0.1720087238365711
 40
0.344433423290855
 40
0.5079344031875616
 40
0.6647334886924857
 40
0.8215865234924862
 40
1.0
 40
1.0
 40
1.0
 40
1.0
 10
386.0411168670138
 20
243.8066699257223
 30
0.0
 10
385.9883104819667
 20
244.1330326013366
 30
0.0
 10
385.8825700080669
 20
244.786547208555
 30
0.0
 10
385.5247090515934
 20
245.5340663941341
 30
0.0
 10
385.0621701078512
 20
245.976658618925
 30
0.0
 10
384.5484377331141
 20
246.0753849145646
 30
0.0
 10
384.0089520682415
 20
245.8627983743913
 30
0.0
 10
383.7059934994696
 20
245.4616956407085
 30
0.0
 10
383.5447728297357
 20
245.2482471430524
 30
0.0
  0
SPLINE
  5
380
330
1F
100
AcDbEntity
  8
0
  6
Continuous
 62
     7
370
    15
100
AcDbSpline
210
0.0
220
0.0
230
1.0
 70
     8
 71
     3
 72
    11
 73
     7
 74
     0
 42
0.000000001
 43
0.00000001
 40
0.0
 40
0.0
 40
0.0
 40
0.0
 40
0.2537719365525904
 40
0.5087159351989546
 40
0.7421854335094626
 40
1.0
 40
1.0
 40
1.0
 40
1.0
 10
387.6334714675893
 20
240.3116552252484
 30
0.0
 10
387.4649860251078
 20
240.3367728567832
 30
0.0
 10
387.1272369792374
 20
240.3871241272578
 30
0.0
 10
386.6675561732622
 20
241.1268263099384
 30
0.0
 10
386.2653251941709
 20
242.2983922523855
 30
0.0
 10
386.1182818360245
 20
243.2875714542323
 30
0.0
 10
386.0411168670138
 20
243.8066699257223
 30
0.0
  0
SPLINE
  5
381
330
1F
100
AcDbEntity
  8
0
  6
Continuous
 62
     7
370
    15
100
AcDbSpline
210
0.0
220
0.0
230
1.0
 70
     8
 71
     3
 72
    13
 73
     9
 74
     0
 42
0.000000001
 43
0.00000001
 40
0.0
 40
0.0
 40
0.0
 40
0.0
 40
0.1735274932638201
 40
0.3474759845333078
 40
0.512541865559186
 40
0.6710295171735987
 40
0.8297608130564139
 40
1.0
 40
1.0
 40
1.0
 40
1.0
 10
387.6334714675892
 20
236.2639160085522
 30
0.0
 10
387.736672051061
 20
236.5830197408314
 30
0.0
 10
387.9433235946971
 20
237.2220013883874
 30
0.0
 10
388.1372404393852
 20
238.2363378244093
 30
0.0
 10
388.1975811878886
 20
239.1268771081057
 30
0.0
 10
388.1213765832634
 20
239.8005699203702
 30
0.0
 10
387.9306559997942
 20
240.2444027416986
 30
0.0
 10
387.7348165660488
 20
240.2887209577196
 30
0.0
 10
387.6334714675893
 20
240.3116552252484
 30
0.0
  0
LINE
  5
382
330
1F
100
AcDbEntity
  8
0
  6
Continuous
 62
     7
370
    15
100
AcDbLine
 10
369.8814507059
 20
234.4778932195
 30
0.0
 11
363.9203624244
 21
237.9191562351
 31
0.0
  0
ARC
  5
383
330
1F
100
AcDbEntity
  8
0
  6
Continuous
 62
     7
370
    15
100
AcDbCircle
 10
368.213152235
 20
238.3232426747
 30
0.0
 40
4.311766483523173
100
AcDbArc
 50
114.6225117091
 51
185.3774881453
  0
LINE
  5
384
330
1F
100
AcDbEntity
  8
0
  6
Continuous
 62
     7
370
    15
100
AcDbLine
 10
372.3777947432
 20
238.8016879125
 30
0.0
 11
366.4167064617
 21
242.2429509281
 31
0.0
  0
LINE
  5
385
330
1F
100
AcDbEntity
  8
0
  6
Continuous
 62
     7
370
    15
100
AcDbLine
 10
368.2726813963
 20
229.1349090208
 30
0.0
 11
362.3198004693
 21
232.5714340315
 31
0.0
  0
ARC
  5
386
330
1F
100
AcDbEntity
  8
0
  6
Continuous
 62
     7
370
    15
100
AcDbCircle
 10
356.6358491945
 20
237.1860121443
 30
0.0
 40
7.321313628967446
100
AcDbArc
 50
320.9282028966
 51
5.7471359545
  0
ARC
  5
387
330
1F
100
AcDbEntity
  8
0
  6
Continuous
 62
     7
370
    15
100
AcDbCircle
 10
363.4179548786
 20
248.90763655
 30
0.0
 40
7.308251876823441
100
AcDbArc
 50
294.22519338
 51
338.8738693903
  0
LINE
  5
388
330
1F
100
AcDbEntity
  8
0
  6
Continuous
 62
     7
370
    15
100
AcDbLine
 10
376.1961019895
 20
242.8323168889
 30
0.0
 11
370.235013708
 21
246.2735799044
 31
0.0
  0
LWPOLYLINE
  5
389
330
1F
100
AcDbEntity
  8
0
  6
Continuous
 62
     7
370
    15
100
AcDbPolyline
 90
        9
 70
   128
 43
0.0
 10
373.4999381121
 20
248.5323391511
 10
373.4261874191
 20
248.5709196442
 10
373.0013021973
 20
248.6717831964
 10
372.5162552197
 20
248.6081446626
 10
372.000195505
 20
248.3838284165
 10
371.4841357903
 20
248.0123147987
 10
370.9990888126
 20
247.5159300124
 10
370.5742035908
 20
246.924504425
 10
370.235013708
 20
246.2735799044
  0
LWPOLYLINE
  5
38A
330
1F
100
AcDbEntity
  8
0
  6
Continuous
 62
     7
370
    15
100
AcDbPolyline
 90
        9
 70
   128
 43
0.0
 10
362.3198004693
 20
232.5714340315
 10
361.9330887818
 20
231.9565153684
 10
361.6393850157
 20
231.299319496
 10
361.4559583193
 20
230.6384881151
 10
361.3935937872
 20
230.0128766867
 10
361.4559583193
 20
229.4592698144
 10
361.6393850157
 20
229.0102183893
 10
361.9330887818
 20
228.6921256672
 10
362.0150360318
 20
228.6393422672
  0
ARC
  5
38B
330
1F
100
AcDbEntity
  8
0
  6
Continuous
 62
     7
370
    15
100
AcDbCircle
 10
366.7308317172
 20
239.1790024879
 30
0.0
 40
2.854112834555543
100
AcDbArc
 50
122.3295708564
 51
177.6758056763
  0
LINE
  5
38C
330
1F
100
AcDbEntity
  8
0
  6
Continuous
 62
     7
370
    15
100
AcDbLine
 10
362.3198004693
 20
232.5714340315
 30
0.0
 11
361.9678534191
 21
232.5241132483
 31
0.0
  0
ARC
  5
38D
330
1F
100
AcDbEntity
  8
0
  6
Continuous
 62
     7
370
    15
100
AcDbCircle
 10
354.3127044057
 20
238.4927308042
 30
0.0
 40
9.706992425395203
100
AcDbArc
 50
322.0569329297
 51
354.3961631995
  0
LINE
  5
38E
330
1F
100
AcDbEntity
  8
0
  6
Continuous
 62
     7
370
    15
100
AcDbLine
 10
370.235013708
 20
246.2735799044
 30
0.0
 11
370.1015215552
 21
246.6056157386
 31
0.0
  0
ARC
  5
38F
330
1F
100
AcDbEntity
  8
0
  6
Continuous
 62
     7
370
    15
100
AcDbCircle
 10
360.9050051882
 20
250.4415965287
 30
0.0
 40
9.964469976395652
100
AcDbArc
 50
306.0422560109
 51
337.3583789475
  0
LINE
  5
390
330
1F
100
AcDbEntity
  8
0
  6
Continuous
 62
     7
370
    15
100
AcDbLine
 10
369.8687086307
 20
221.5590606255
 30
0.0
 11
363.9158277037
 21
224.9955856362
 31
0.0
  0
ARC
  5
391
330
1F
100
AcDbEntity
  8
0
  6
Continuous
 62
     7
370
    15
100
AcDbCircle
 10
360.1966171373
 20
225.8411012081
 30
0.0
 40
3.814108522223712
100
AcDbArc
 50
347.1922118014
 51
30.8991969009
  0
ARC
  5
392
330
1F
100
AcDbEntity
  8
0
  6
Continuous
 62
     7
370
    15
100
AcDbCircle
 10
375.0558245698
 20
251.3900886461
 30
0.0
 40
3.699080999093443
100
AcDbArc
 50
268.437209061
 51
313.1079543593
  0
LINE
  5
393
330
1F
100
AcDbEntity
  8
0
  6
Continuous
 62
     7
370
    15
100
AcDbLine
 10
383.5447728297
 20
245.2482471431
 30
0.0
 11
377.5836845482
 21
248.6895101586
 31
0.0
  0
ARC
  5
394
330
1F
100
AcDbEntity
  8
0
  6
Continuous
 62
     7
370
    15
100
AcDbCircle
 10
372.7331926962
 20
245.5251081913
 30
0.0
 40
2.844853169118395
100
AcDbArc
 50
122.5040424714
 51
157.6780017312
  0
ARC
  5
395
330
1F
100
AcDbEntity
  8
0
  6
Continuous
 62
     7
370
    15
100
AcDbCircle
 10
364.2278482848
 20
230.8093847489
 30
0.0
 40
2.836876913010746
100
AcDbArc
 50
142.8112767581
 51
177.5362219511
  0
ARC
  5
396
330
1F
100
AcDbEntity
  8
0
  6
Continuous
 62
     7
370
    15
100
AcDbCircle
 10
378.8676061472
 20
247.4780509812
 30
0.0
 40
1.765244462027799
100
AcDbArc
 50
69.0095631416
 51
136.6633231154
  0
LWPOLYLINE
  5
397
330
1F
100
AcDbEntity
  8
0
  6
Continuous
 62
     7
370
    15
100
AcDbPolyline
 90
        6
 70
   128
 43
0.0
 10
363.9158277037
 20
224.9955856362
 10
363.8822190801
 20
224.3834620383
 10
363.9731429056
 20
223.8513135444
 10
364.1832530552
 20
223.4304293392
 10
364.500195505
 20
223.1455565067
 10
364.500317406
 20
223.1454861233
  0
LINE
  5
398
330
1F
100
AcDbEntity
  8
0
  6
Continuous
 62
     7
370
    15
100
AcDbLine
 10
363.9009415372
 20
225.7283829598
 30
0.0
 11
363.9158277037
 21
224.9955856362
 31
0.0
  0
LINE
  5
399
330
1F
100
AcDbEntity
  8
0
  6
Continuous
 62
     7
370
    15
100
AcDbLine
 10
363.9009415372
 20
225.7283829598
 30
0.0
 11
363.9733057857
 21
226.3331855498
 31
0.0
  0
LINE
  5
39A
330
1F
100
AcDbEntity
  8
0
  6
Continuous
 62
     7
370
    15
100
AcDbLine
 10
377.5836845482
 20
248.6895101586
 30
0.0
 11
376.944395139
 21
248.3381910686
 31
0.0
  0
LINE
  5
39B
330
1F
100
AcDbEntity
  8
0
  6
Continuous
 62
     7
370
    15
100
AcDbLine
 10
376.4769754844
 20
247.9894126228
 30
0.0
 11
376.944395139
 21
248.3381910686
 31
0.0
  0
LWPOLYLINE
  5
39C
330
1F
100
AcDbEntity
  8
0
  6
Continuous
 62
     7
370
    15
100
AcDbPolyline
 90
       20
 70
   128
 43
0.0
 10
363.0891280817
 20
234.7851726567
 10
362.8544764024
 20
234.9453957023
 10
362.4568045664
 20
235.3716541359
 10
362.163795005
 20
235.928111444
 10
361.9843506654
 20
236.5978599529
 10
361.923923873
 20
237.3605496931
 10
361.9843506654
 20
238.1930067226
 10
362.163795005
 20
239.069937256
 10
362.4568045664
 20
239.9646962028
 10
362.8544764024
 20
240.850096765
 10
363.3447274553
 20
241.6992364947
 10
363.9126616951
 20
242.4863147109
 10
364.5410227273
 20
243.1874164401
 10
365.2107181199
 20
243.7812390613
 10
365.9013995172
 20
244.2497395744
 10
366.5920809145
 20
244.5786828286
 10
367.2617763071
 20
244.7580740494
 10
367.8901373393
 20
244.7824625254
 10
368.4580715791
 20
244.6511072251
 10
368.7136709528
 20
244.5282223585
  0
LINE
  5
39D
330
1F
100
AcDbEntity
  8
0
  6
Continuous
 62
     7
370
    15
100
AcDbLine
 10
376.944395139
 20
248.3381910686
 30
0.0
 11
377.2044849234
 21
248.5181402399
 31
0.0
  0
LINE
  5
39E
330
1F
100
AcDbEntity
  8
0
  6
Continuous
 62
     7
370
    15
100
AcDbLine
 10
363.8788751614
 20
225.4374796685
 30
0.0
 11
363.9009415372
 21
225.7283829598
 31
0.0
  0
SPLINE
  5
39F
330
1F
100
AcDbEntity
  8
0
  6
Continuous
 62
     7
370
    15
100
AcDbSpline
210
0.0
220
0.0
230
1.0
 70
     8
 71
     3
 72
     9
 73
     5
 74
     0
 42
0.000000001
 43
0.00000001
 40
0.0
 40
0.0
 40
0.0
 40
0.0
 40
0.4202787569247731
 40
1.0
 40
1.0
 40
1.0
 40
1.0
 10
342.7149190178525
 20
268.5562020196572
 30
0.0
 10
342.756181409707
 20
268.5702491121235
 30
0.0
 10
342.8543600379974
 20
268.6036723871161
 30
0.0
 10
342.9562185462374
 20
268.6497126621384
 30
0.0
 10
343.0152680872521
 20
268.6764031876058
 30
0.0
  0
SPLINE
  5
3A0
330
1F
100
AcDbEntity
  8
0
  6
Continuous
 62
     7
370
    15
100
AcDbSpline
210
0.0
220
0.0
230
1.0
 70
     8
 71
     3
 72
    10
 73
     6
 74
     0
 42
0.000000001
 43
0.00000001
 40
0.0
 40
0.0
 40
0.0
 40
0.0
 40
0.3471360905364326
 40
0.6951041440145085
 40
1.0
 40
1.0
 40
1.0
 40
1.0
 10
343.0152680872521
 20
268.6764031876058
 30
0.0
 10
343.3221129851313
 20
268.7903213069535
 30
0.0
 10
343.9365381800339
 20
269.0184305672569
 30
0.0
 10
344.7539702022125
 20
269.0890338793988
 30
0.0
 10
345.1164330657882
 20
268.936226634544
 30
0.0
 10
345.2857078923653
 20
268.8648636827168
 30
0.0
  0
LWPOLYLINE
  5
3A1
330
1F
100
AcDbEntity
  8
0
  6
Continuous
 62
     7
370
    15
100
AcDbPolyline
 90
       14
 70
   128
 43
0.0
 10
363.7800791737
 20
244.7700852919
 10
363.1427574316
 20
244.3318920401
 10
362.5284701578
 20
243.7689857512
 10
361.9594192948
 20
243.1017113252
 10
361.4561718236
 20
242.3541857984
 10
361.0369164189
 20
241.5534266909
 10
360.7168060633
 20
240.7283755233
 10
360.5074103793
 20
239.9088517944
 10
360.4162974723
 20
239.124475227
 10
360.4467604003
 20
238.403595234
 10
360.5976981537
 20
237.7722662966
 10
360.8636554487
 20
237.2533062873
 10
361.2350198958
 20
236.8654717732
 10
361.3990226916
 20
236.7567519682
  0
ARC
  5
3A2
330
1F
100
AcDbEntity
  8
0
  6
Continuous
 62
     7
370
    15
100
AcDbCircle
 10
365.1709844352
 20
242.8644596124
 30
0.0
 40
2.359242818568974
100
AcDbArc
 50
65.184966448
 51
126.1254919811
  0
LINE
  5
3A3
330
1F
100
AcDbEntity
  8
0
  6
Continuous
 62
     7
370
    15
100
AcDbLine
 10
352.5901143614
 20
252.5987713743
 30
0.0
 11
352.5901143614
 21
262.5912925377
 31
0.0
  0
LINE
  5
3A4
330
1F
100
AcDbEntity
  8
0
  6
Continuous
 62
     7
370
    15
100
AcDbLine
 10
352.0863007798
 20
252.2374544829
 30
0.0
 11
352.0863007798
 21
262.8821379275
 31
0.0
  0
LINE
  5
3A5
330
1F
100
AcDbEntity
  8
0
  6
Continuous
 62
     7
370
    15
100
AcDbLine
 10
352.5901143614
 20
262.5912925377
 30
0.0
 11
352.0863007798
 21
262.8821379275
 31
0.0
  0
LINE
  5
3A6
330
1F
100
AcDbEntity
  8
0
  6
Continuous
 62
     7
370
    15
100
AcDbLine
 10
362.6663859933
 20
267.4897909711
 30
0.0
 11
362.6663859933
 21
268.4082003344
 31
0.0
  0
LINE
  5
3A7
330
1F
100
AcDbEntity
  8
0
  6
Continuous
 62
     7
370
    15
100
AcDbLine
 10
362.6663859933
 20
268.4082003344
 30
0.0
 11
352.5901143614
 21
262.5912925377
 31
0.0
  0
LINE
  5
3A8
330
1F
100
AcDbEntity
  8
0
  6
Continuous
 62
     7
370
    15
100
AcDbLine
 10
348.3474736743
 20
265.0405168731
 30
0.0
 11
358.4237453062
 21
270.8574246699
 31
0.0
  0
LINE
  5
3A9
330
1F
100
AcDbEntity
  8
0
  6
Continuous
 62
     7
370
    15
100
AcDbLine
 10
358.4237453062
 20
270.8574246699
 30
0.0
 11
362.6663859933
 21
268.4082003344
 31
0.0
  0
LINE
  5
3AA
330
1F
100
AcDbEntity
  8
0
  6
Continuous
 62
     7
370
    15
100
AcDbLine
 10
352.0863007798
 20
262.8821379275
 30
0.0
 11
354.2076211233
 21
264.1067500952
 31
0.0
  0
LINE
  5
3AB
330
1F
100
AcDbEntity
  8
0
  6
Continuous
 62
     7
370
    15
100
AcDbLine
 10
354.2076211233
 20
264.1067500952
 30
0.0
 11
351.5029376853
 21
265.6681306091
 31
0.0
  0
LINE
  5
3AC
330
1F
100
AcDbEntity
  8
0
  6
Continuous
 62
     7
370
    15
100
AcDbLine
 10
351.5029376853
 20
265.6681306091
 30
0.0
 11
349.3816173418
 21
264.4435184414
 31
0.0
  0
LINE
  5
3AD
330
1F
100
AcDbEntity
  8
0
  6
Continuous
 62
     7
370
    15
100
AcDbLine
 10
349.3816173418
 20
264.4435184414
 30
0.0
 11
348.3474736743
 21
265.0405168731
 31
0.0
  0
LINE
  5
3AE
330
1F
100
AcDbEntity
  8
0
  6
Continuous
 62
     7
370
    15
100
AcDbLine
 10
351.5029376853
 20
251.8638501714
 30
0.0
 11
351.5029376853
 21
265.6681306091
 31
0.0
  0
LINE
  5
3AF
330
1F
100
AcDbEntity
  8
0
  6
Continuous
 62
     7
370
    15
100
AcDbLine
 10
349.3816173418
 20
250.8018051209
 30
0.0
 11
349.3816173418
 21
264.4435184414
 31
0.0
  0
LINE
  5
3B0
330
1F
100
AcDbEntity
  8
0
  6
Continuous
 62
     7
370
    15
100
AcDbLine
 10
348.3474736743
 20
250.4111142821
 30
0.0
 11
348.3474736743
 21
265.0405168731
 31
0.0
  0
LINE
  5
3B1
330
1F
100
AcDbEntity
  8
0
  6
Continuous
 62
     7
370
    15
100
AcDbLine
 10
342.117115091
 20
247.0546642127
 30
0.0
 11
335.6195516129
 21
243.3037006584
 31
0.0
  0
LINE
  5
3B2
330
1F
100
AcDbEntity
  8
0
  6
Continuous
 62
     7
370
    15
100
AcDbLine
 10
335.6195516129
 20
243.3037006584
 30
0.0
 11
328.9904255393
 21
247.1306136825
 31
0.0
  0
LINE
  5
3B3
330
1F
100
AcDbEntity
  8
0
  6
Continuous
 62
     7
370
    15
100
AcDbLine
 10
328.9904255393
 20
247.1306136825
 30
0.0
 11
329.2555905822
 21
247.2836902035
 31
0.0
  0
LINE
  5
3B4
330
1F
100
AcDbEntity
  8
0
  6
Continuous
 62
     7
370
    15
100
AcDbLine
 10
329.2555905822
 20
247.2836902035
 30
0.0
 11
322.3612994657
 21
251.2636797486
 31
0.0
  0
LINE
  5
3B5
330
1F
100
AcDbEntity
  8
0
  6
Continuous
 62
     7
370
    15
100
AcDbLine
 10
322.3612994657
 20
251.2636797486
 30
0.0
 11
322.0961344227
 21
251.1106032277
 31
0.0
  0
LINE
  5
3B6
330
1F
100
AcDbEntity
  8
0
  6
Continuous
 62
     7
370
    15
100
AcDbLine
 10
322.0961344227
 20
251.1106032277
 30
0.0
 11
315.4670083491
 21
254.9375162518
 31
0.0
  0
LINE
  5
3B7
330
1F
100
AcDbEntity
  8
0
  6
Continuous
 62
     7
370
    15
100
AcDbLine
 10
315.4670083491
 20
254.9375162518
 30
0.0
 11
321.9645718271
 21
258.6884798062
 31
0.0
  0
LWPOLYLINE
  5
3B8
330
1F
100
AcDbEntity
  8
0
  6
Continuous
 62
     7
370
    15
100
AcDbPolyline
 90
       20
 70
   128
 43
0.0
 10
321.9645718271
 20
258.6884798062
 10
322.1864981598
 20
259.7056670989
 10
322.5741330429
 20
260.7061706968
 10
323.1239989303
 20
261.6810148917
 10
323.8311628706
 20
262.6214541712
 10
324.6892807617
 20
263.5190516757
 10
325.6906542647
 20
264.3657548873
 10
326.8262998677
 20
265.1539678705
 10
328.0860294779
 20
265.8766194169
 10
329.4585418217
 20
266.5272264819
 10
330.9315238298
 20
267.099952346
 10
332.4917611006
 20
267.5896589765
 10
334.125256449
 20
267.9919531222
 10
335.8173554775
 20
268.3032257258
 10
337.5528780442
 20
268.5206843015
 10
339.3162544462
 20
268.6423779872
 10
341.0916650984
 20
268.6672150457
 10
342.8631824545
 20
268.5949726589
 10
344.6149138954
 20
268.4262989272
 10
346.3311443054
 20
268.1627070545
  0
LINE
  5
3B9
330
1F
100
AcDbEntity
  8
0
  6
Continuous
 62
     7
370
    15
100
AcDbLine
 10
346.3311443054
 20
268.1627070545
 30
0.0
 11
354.9765997479
 21
273.1536222469
 31
0.0
  0
LINE
  5
3BA
330
1F
100
AcDbEntity
  8
0
  6
Continuous
 62
     7
370
    15
100
AcDbLine
 10
354.9765997479
 20
273.1536222469
 30
0.0
 11
358.4237453062
 21
271.1636274743
 31
0.0
  0
LINE
  5
3BB
330
1F
100
AcDbEntity
  8
0
  6
Continuous
 62
     7
370
    15
100
AcDbLine
 10
358.4237453062
 20
271.1636274743
 30
0.0
 11
348.2758349526
 21
265.3053635239
 31
0.0
  0
ARC
  5
3BC
330
1F
100
AcDbEntity
  8
0
  6
Continuous
 62
     7
370
    15
100
AcDbCircle
 10
340.7534417027
 20
242.4023221743
 30
0.0
 40
24.10675638217818
100
AcDbArc
 50
71.817483876
 51
91.9266827621
  0
LINE
  5
3BD
330
1F
100
AcDbEntity
  8
0
  6
Continuous
 62
     7
370
    15
100
AcDbLine
 10
339.9429575878
 20
266.4954502146
 30
0.0
 11
340.1318993597
 21
266.0883813885
 31
0.0
  0
ARC
  5
3BE
330
1F
100
AcDbEntity
  8
0
  6
Continuous
 62
     7
370
    15
100
AcDbCircle
 10
340.5191003802
 20
243.2045440408
 30
0.0
 40
22.88711288875216
100
AcDbArc
 50
90.9693683435
 51
106.6167095222
  0
LINE
  5
3BF
330
1F
100
AcDbEntity
  8
0
  6
Continuous
 62
     7
370
    15
100
AcDbLine
 10
333.9741222171
 20
265.1358731667
 30
0.0
 11
333.7851804452
 21
265.5429419929
 31
0.0
  0
LWPOLYLINE
  5
3C0
330
1F
100
AcDbEntity
  8
0
  6
Continuous
 62
     7
370
    15
100
AcDbPolyline
 90
       16
 70
   128
 43
0.0
 10
333.7851804452
 20
265.5429419929
 10
332.349609662
 20
265.0557330921
 10
331.0164363197
 20
264.4796635313
 10
329.8020918411
 20
263.8218333942
 10
328.7215430778
 20
263.0903504675
 10
327.788107843
 20
262.2942303121
 10
327.0132907689
 20
261.4432851454
 10
326.4066415117
 20
260.5480029058
 10
325.9756370514
 20
259.6194179882
 10
325.7255895378
 20
258.6689752443
 10
325.659580818
 20
257.7083889247
 10
325.7784244525
 20
256.7494983001
 10
326.080655688
 20
255.8041217415
 10
326.5625495107
 20
254.8839110585
 10
327.218166557
 20
254.0002078902
 10
328.0394263167
 20
253.1639039187
  0
LINE
  5
3C1
330
1F
100
AcDbEntity
  8
0
  6
Continuous
 62
     7
370
    15
100
AcDbLine
 10
328.0394263167
 20
253.1639039187
 30
0.0
 11
328.5556248373
 21
253.4618989816
 31
0.0
  0
ARC
  5
3C2
330
1F
100
AcDbEntity
  8
0
  6
Continuous
 62
     7
370
    15
100
AcDbCircle
 10
337.3746118497
 20
263.5330400642
 30
0.0
 40
13.38665061289141
100
AcDbArc
 50
228.7923693783
 51
251.2130071544
  0
LINE
  5
3C3
330
1F
100
AcDbEntity
  8
0
  6
Continuous
 62
     7
370
    15
100
AcDbLine
 10
333.0634305673
 20
250.8595981252
 30
0.0
 11
332.5472320468
 21
250.5616030623
 31
0.0
  0
LWPOLYLINE
  5
3C4
330
1F
100
AcDbEntity
  8
0
  6
Continuous
 62
     7
370
    15
100
AcDbPolyline
 90
       16
 70
   128
 43
0.0
 10
332.5472320468
 20
250.5616030623
 10
333.9959099832
 20
250.0874998946
 10
335.5266946333
 20
249.7090202299
 10
337.1207190057
 20
249.4308288475
 10
338.7583366768
 20
249.256354469
 10
340.4193639333
 20
249.1877474992
 10
342.0833285378
 20
249.225853522
 10
343.7297220501
 20
249.3702028791
 10
345.3382525943
 20
249.6190164579
 10
346.8890949573
 20
249.9692276196
 10
348.3631349358
 20
250.4165199956
 10
349.7422049191
 20
250.9553806866
 10
351.0093078061
 20
251.57916821
 10
352.1488264956
 20
252.2801943558
 10
353.1467163671
 20
253.0498189444
 10
353.9906783821
 20
253.8785563173
  0
LINE
  5
3C5
330
1F
100
AcDbEntity
  8
0
  6
Continuous
 62
     7
370
    15
100
AcDbLine
 10
353.9906783821
 20
253.8785563173
 30
0.0
 11
353.2855380896
 21
253.9876300805
 31
0.0
  0
ARC
  5
3C6
330
1F
100
AcDbEntity
  8
0
  6
Continuous
 62
     7
370
    15
100
AcDbCircle
 10
349.1100028092
 20
258.0860359714
 30
0.0
 40
5.850814107814636
100
AcDbArc
 50
315.5340937776
 51
354.6689833334
  0
LINE
  5
3C7
330
1F
100
AcDbEntity
  8
0
  6
Continuous
 62
     7
370
    15
100
AcDbLine
 10
354.9355095021
 20
257.5424391587
 30
0.0
 11
355.6406497946
 21
257.4333653955
 31
0.0
  0
ARC
  5
3C8
330
1F
100
AcDbEntity
  8
0
  6
Continuous
 62
     7
370
    15
100
AcDbCircle
 10
349.5731156352
 20
257.6801009107
 30
0.0
 40
6.072548821615954
100
AcDbArc
 50
357.6713573234
 51
48.7235086165
  0
LINE
  5
3C9
330
1F
100
AcDbEntity
  8
0
  6
Continuous
 62
     7
370
    15
100
AcDbLine
 10
353.5791358115
 20
262.2438331045
 30
0.0
 11
363.7270461651
 21
268.102097055
 31
0.0
  0
LINE
  5
3CA
330
1F
100
AcDbEntity
  8
0
  6
Continuous
 62
     7
370
    15
100
AcDbLine
 10
363.7270461651
 20
268.102097055
 30
0.0
 11
367.1741917234
 21
266.1121022824
 31
0.0
  0
LINE
  5
3CB
330
1F
100
AcDbEntity
  8
0
  6
Continuous
 62
     7
370
    15
100
AcDbLine
 10
367.1741917234
 20
266.1121022824
 30
0.0
 11
358.5287362809
 21
261.1211870901
 31
0.0
  0
LWPOLYLINE
  5
3CC
330
1F
100
AcDbEntity
  8
0
  6
Continuous
 62
     7
370
    15
100
AcDbPolyline
 90
       20
 70
   128
 43
0.0
 10
358.5287362809
 20
261.1211870901
 10
358.9853402707
 20
260.1304283633
 10
359.2775234027
 20
259.1191753276
 10
359.4026644462
 20
258.0965001262
 10
359.3596407374
 20
257.0715773727
 10
359.1488382499
 20
256.0536018441
 10
358.772148133
 20
255.0517059923
 10
358.2329497453
 20
254.0748780155
 10
357.5360803382
 20
253.1318812231
 10
356.6877916595
 20
252.2311754188
 10
355.6956938682
 20
251.3808410054
 10
354.5686872623
 20
250.5885064946
 10
353.3168824322
 20
249.86128007
 10
351.9515095571
 20
249.2056858182
 10
350.4848176565
 20
248.6276051997
 10
348.9299647025
 20
248.1322242856
 10
347.3008995763
 20
247.7239872325
 10
345.6122369311
 20
247.4065564124
 10
343.8791260803
 20
247.1827795575
 10
342.117115091
 20
247.0546642127
  0
LINE
  5
3CD
330
1F
100
AcDbEntity
  8
0
  6
Continuous
 62
     7
370
    15
100
AcDbLine
 10
335.6195516129
 20
196.7608743809
 30
0.0
 11
335.6195516129
 21
243.3037006584
 31
0.0
  0
LINE
  5
3CE
330
1F
100
AcDbEntity
  8
0
  6
Continuous
 62
     7
370
    15
100
AcDbLine
 10
335.6195516129
 20
196.7608743809
 30
0.0
 11
328.9904255393
 21
200.587787405
 31
0.0
  0
LINE
  5
3CF
330
1F
100
AcDbEntity
  8
0
  6
Continuous
 62
     7
370
    15
100
AcDbLine
 10
328.9904255393
 20
200.587787405
 30
0.0
 11
328.9904255393
 21
247.1306136825
 31
0.0
  0
LWPOLYLINE
  5
3D0
330
1F
100
AcDbEntity
  8
0
  6
Continuous
 62
     7
370
    15
100
AcDbPolyline
 90
       22
 70
   128
 43
0.0
 10
332.2784720718
 20
239.0794419481
 10
331.8794402952
 20
239.2403455989
 10
331.5158642431
 20
239.2480472729
 10
331.2200492432
 20
239.1018626427
 10
331.0182797564
 20
238.8147808542
 10
330.9284838871
 20
238.4123103841
 10
330.9586403924
 20
237.9302124999
 10
331.1060697344
 20
237.4113237143
 10
331.357672169
 20
236.901749573
 10
331.6910917159
 20
236.4467679746
 10
332.076702585
 20
236.0868060308
 10
332.4802415586
 20
235.85384794
 10
332.8658524277
 20
235.768593051
 10
333.1992719746
 20
235.8386166346
 10
333.4508744093
 20
236.0576967883
 10
333.5983037512
 20
236.4063672789
 10
333.6284602565
 20
236.8536472032
 10
333.5386643872
 20
237.3597937771
 10
333.3368949004
 20
237.8798336564
 10
333.0410799005
 20
238.3675590156
 10
332.6775038484
 20
238.7796333161
 10
332.2784720718
 20
239.0794419481
  0
LWPOLYLINE
  5
3D1
330
1F
100
AcDbEntity
  8
0
  6
Continuous
 62
     7
370
    15
100
AcDbPolyline
 90
       22
 70
   128
 43
0.0
 10
332.2784720718
 20
231.3018907149
 10
331.8794402952
 20
231.4627943656
 10
331.5158642431
 20
231.4704960397
 10
331.2200492432
 20
231.3243114095
 10
331.0182797564
 20
231.037229621
 10
330.9284838871
 20
230.6347591509
 10
330.9586403924
 20
230.1526612667
 10
331.1060697344
 20
229.6337724811
 10
331.357672169
 20
229.1241983398
 10
331.6910917159
 20
228.6692167414
 10
332.076702585
 20
228.3092547976
 10
332.4802415586
 20
228.0762967068
 10
332.8658524277
 20
227.9910418178
 10
333.1992719746
 20
228.0610654014
 10
333.4508744093
 20
228.280145555
 10
333.5983037512
 20
228.6288160456
 10
333.6284602565
 20
229.07609597
 10
333.5386643872
 20
229.5822425439
 10
333.3368949004
 20
230.1022824232
 10
333.0410799005
 20
230.5900077824
 10
332.6775038484
 20
231.0020820829
 10
332.2784720718
 20
231.3018907149
  0
LWPOLYLINE
  5
3D2
330
1F
100
AcDbEntity
  8
0
  6
Continuous
 62
     7
370
    15
100
AcDbPolyline
 90
       22
 70
   128
 43
0.0
 10
332.2784720718
 20
207.9692370153
 10
331.8794402952
 20
208.130140666
 10
331.5158642431
 20
208.1378423401
 10
331.2200492432
 20
207.9916577099
 10
331.0182797564
 20
207.7045759214
 10
330.9284838871
 20
207.3021054513
 10
330.9586403924
 20
206.8200075671
 10
331.1060697344
 20
206.3011187815
 10
331.357672169
 20
205.7915446401
 10
331.6910917159
 20
205.3365630417
 10
332.076702585
 20
204.976601098
 10
332.4802415586
 20
204.7436430072
 10
332.8658524277
 20
204.6583881181
 10
333.1992719746
 20
204.7284117018
 10
333.4508744093
 20
204.9474918554
 10
333.5983037512
 20
205.296162346
 10
333.6284602565
 20
205.7434422703
 10
333.5386643872
 20
206.2495888443
 10
333.3368949004
 20
206.7696287236
 10
333.0410799005
 20
207.2573540827
 10
332.6775038484
 20
207.6694283833
 10
332.2784720718
 20
207.9692370153
  0
LINE
  5
3D3
330
1F
100
AcDbEntity
  8
0
  6
Continuous
 62
     7
370
    15
100
AcDbLine
 10
342.117115091
 20
200.5118379353
 30
0.0
 11
342.117115091
 21
247.0546642127
 31
0.0
  0
LINE
  5
3D4
330
1F
100
AcDbEntity
  8
0
  6
Continuous
 62
     7
370
    15
100
AcDbLine
 10
342.117115091
 20
200.5118379353
 30
0.0
 11
335.6195516129
 21
196.7608743809
 31
0.0
  0
LWPOLYLINE
  5
3D5
330
1F
100
AcDbEntity
  8
0
  6
Continuous
 62
     7
370
    15
100
AcDbPolyline
 90
       17
 70
   128
 43
0.0
 10
359.4076874289
 20
211.3031438727
 10
359.3596407374
 20
210.5287510952
 10
359.1488382499
 20
209.5107755666
 10
358.772148133
 20
208.5088797148
 10
358.2329497453
 20
207.532051738
 10
357.5360803382
 20
206.5890549456
 10
356.6877916595
 20
205.6883491413
 10
355.6956938682
 20
204.8380147279
 10
354.5686872623
 20
204.0456802171
 10
353.3168824322
 20
203.3184537926
 10
351.9515095571
 20
202.6628595407
 10
350.4848176565
 20
202.0847789222
 10
348.9299647025
 20
201.5893980082
 10
347.3008995763
 20
201.181160955
 10
345.6122369311
 20
200.8637301349
 10
343.8791260803
 20
200.6399532801
 10
342.117115091
 20
200.5118379353
  0
LINE
  5
3D6
330
1F
100
AcDbEntity
  8
0
  6
Continuous
 62
     7
370
    15
100
AcDbLine
 10
328.9904255393
 20
200.893940447
 30
0.0
 11
322.3612994657
 21
204.7208534711
 31
0.0
  0
LINE
  5
3D7
330
1F
100
AcDbEntity
  8
0
  6
Continuous
 62
     7
370
    15
100
AcDbLine
 10
322.3612994657
 20
204.7208534711
 30
0.0
 11
322.3612994657
 21
251.2636797486
 31
0.0
  0
LWPOLYLINE
  5
3D8
330
1F
100
AcDbEntity
  8
0
  6
Continuous
 62
     7
370
    15
100
AcDbPolyline
 90
       22
 70
   128
 43
0.0
 10
325.8084450239
 20
239.9940865059
 10
325.4094132473
 20
240.2938951378
 10
325.0458371952
 20
240.7059694384
 10
324.7500221953
 20
241.1936947976
 10
324.5482527086
 20
241.7137346768
 10
324.4584568393
 20
242.2198812508
 10
324.4886133445
 20
242.6671611751
 10
324.6360426865
 20
243.0158316657
 10
324.8876451211
 20
243.2349118194
 10
325.221064668
 20
243.304935403
 10
325.6066755372
 20
243.2196805139
 10
326.0102145107
 20
242.9867224232
 10
326.3958253799
 20
242.6267604794
 10
326.7292449268
 20
242.171778881
 10
326.9808473614
 20
241.6622047397
 10
327.1282767034
 20
241.143315954
 10
327.1584332086
 20
240.6612180698
 10
327.0686373393
 20
240.2587475998
 10
326.8668678526
 20
239.9716658112
 10
326.5710528527
 20
239.8254811811
 10
326.2074768005
 20
239.8331828551
 10
325.8084450239
 20
239.9940865059
  0
LWPOLYLINE
  5
3D9
330
1F
100
AcDbEntity
  8
0
  6
Continuous
 62
     7
370
    15
100
AcDbPolyline
 90
       22
 70
   128
 43
0.0
 10
325.8084450239
 20
208.883881573
 10
325.4094132473
 20
209.183690205
 10
325.0458371952
 20
209.5957645055
 10
324.7500221953
 20
210.0834898647
 10
324.5482527086
 20
210.603529744
 10
324.4584568393
 20
211.1096763179
 10
324.4886133445
 20
211.5569562423
 10
324.6360426865
 20
211.9056267329
 10
324.8876451211
 20
212.1247068865
 10
325.221064668
 20
212.1947304702
 10
325.6066755372
 20
212.1094755811
 10
326.0102145107
 20
211.8765174903
 10
326.3958253799
 20
211.5165555466
 10
326.7292449268
 20
211.0615739482
 10
326.9808473614
 20
210.5519998068
 10
327.1282767034
 20
210.0331110212
 10
327.1584332086
 20
209.551013137
 10
327.0686373393
 20
209.1485426669
 10
326.8668678526
 20
208.8614608784
 10
326.5710528527
 20
208.7152762482
 10
326.2074768005
 20
208.7229779223
 10
325.8084450239
 20
208.883881573
  0
LWPOLYLINE
  5
3DA
330
1F
100
AcDbEntity
  8
0
  6
Continuous
 62
     7
370
    15
100
AcDbPolyline
 90
       22
 70
   128
 43
0.0
 10
325.8084450239
 20
224.4389840395
 10
325.4094132473
 20
224.7387926714
 10
325.0458371952
 20
225.150866972
 10
324.7500221953
 20
225.6385923311
 10
324.5482527086
 20
226.1586322104
 10
324.4584568393
 20
226.6647787844
 10
324.4886133445
 20
227.1120587087
 10
324.6360426865
 20
227.4607291993
 10
324.8876451211
 20
227.6798093529
 10
325.221064668
 20
227.7498329366
 10
325.6066755372
 20
227.6645780475
 10
326.0102145107
 20
227.4316199567
 10
326.3958253799
 20
227.071658013
 10
326.7292449268
 20
226.6166764146
 10
326.9808473614
 20
226.1071022732
 10
327.1282767034
 20
225.5882134876
 10
327.1584332086
 20
225.1061156034
 10
327.0686373393
 20
224.7036451333
 10
326.8668678526
 20
224.4165633448
 10
326.5710528527
 20
224.2703787146
 10
326.2074768005
 20
224.2780803887
 10
325.8084450239
 20
224.4389840395
  0
LINE
  5
3DB
330
1F
100
AcDbEntity
  8
0
  6
Continuous
 62
     7
370
    15
100
AcDbLine
 10
333.0634305673
 20
250.378462664
 30
0.0
 11
333.0634305673
 21
250.8595981252
 31
0.0
  0
LINE
  5
3DC
330
1F
100
AcDbEntity
  8
0
  6
Continuous
 62
     7
370
    15
100
AcDbLine
 10
322.0961344227
 20
204.5677769502
 30
0.0
 11
322.0961344227
 21
251.1106032277
 31
0.0
  0
LINE
  5
3DD
330
1F
100
AcDbEntity
  8
0
  6
Continuous
 62
     7
370
    15
100
AcDbLine
 10
322.0961344227
 20
204.5677769502
 30
0.0
 11
315.4670083491
 21
208.3946899744
 31
0.0
  0
LINE
  5
3DE
330
1F
100
AcDbEntity
  8
0
  6
Continuous
 62
     7
370
    15
100
AcDbLine
 10
315.4670083491
 20
208.3946899744
 30
0.0
 11
315.4670083491
 21
254.9375162518
 31
0.0
  0
LWPOLYLINE
  5
3DF
330
1F
100
AcDbEntity
  8
0
  6
Continuous
 62
     7
370
    15
100
AcDbPolyline
 90
       22
 70
   128
 43
0.0
 10
318.8080878902
 20
239.07817798
 10
318.4090561136
 20
239.2390816308
 10
318.0454800615
 20
239.2467833048
 10
317.7496650616
 20
239.1005986746
 10
317.5478955748
 20
238.8135168861
 10
317.4580997055
 20
238.411046416
 10
317.4882562108
 20
237.9289485318
 10
317.6356855527
 20
237.4100597462
 10
317.8872879874
 20
236.9004856049
 10
318.2207075343
 20
236.4455040065
 10
318.6063184034
 20
236.0855420627
 10
319.009857377
 20
235.8525839719
 10
319.3954682461
 20
235.7673290829
 10
319.728887793
 20
235.8373526665
 10
319.9804902276
 20
236.0564328202
 10
320.1279195696
 20
236.4051033108
 10
320.1580760749
 20
236.8523832351
 10
320.0682802056
 20
237.358529809
 10
319.8665107188
 20
237.8785696883
 10
319.5706957189
 20
238.3662950475
 10
319.2071196668
 20
238.778369348
 10
318.8080878902
 20
239.07817798
  0
LWPOLYLINE
  5
3E0
330
1F
100
AcDbEntity
  8
0
  6
Continuous
 62
     7
370
    15
100
AcDbPolyline
 90
       22
 70
   128
 43
0.0
 10
318.8080878902
 20
246.8557292132
 10
318.4090561136
 20
247.016632864
 10
318.0454800615
 20
247.024334538
 10
317.7496650616
 20
246.8781499078
 10
317.5478955748
 20
246.5910681193
 10
317.4580997055
 20
246.1885976492
 10
317.4882562108
 20
245.7064997651
 10
317.6356855527
 20
245.1876109794
 10
317.8872879874
 20
244.6780368381
 10
318.2207075343
 20
244.2230552397
 10
318.6063184034
 20
243.8630932959
 10
319.009857377
 20
243.6301352052
 10
319.3954682461
 20
243.5448803161
 10
319.728887793
 20
243.6149038997
 10
319.9804902276
 20
243.8339840534
 10
320.1279195696
 20
244.182654544
 10
320.1580760749
 20
244.6299344683
 10
320.0682802056
 20
245.1360810423
 10
319.8665107188
 20
245.6561209215
 10
319.5706957189
 20
246.1438462807
 10
319.2071196668
 20
246.5559205812
 10
318.8080878902
 20
246.8557292132
  0
LWPOLYLINE
  5
3E1
330
1F
100
AcDbEntity
  8
0
  6
Continuous
 62
     7
370
    15
100
AcDbPolyline
 90
       22
 70
   128
 43
0.0
 10
318.8080878902
 20
215.7455242804
 10
318.4090561136
 20
215.9064279311
 10
318.0454800615
 20
215.9141296052
 10
317.7496650616
 20
215.767944975
 10
317.5478955748
 20
215.4808631865
 10
317.4580997055
 20
215.0783927164
 10
317.4882562108
 20
214.5962948322
 10
317.6356855527
 20
214.0774060466
 10
317.8872879874
 20
213.5678319052
 10
318.2207075343
 20
213.1128503068
 10
318.6063184034
 20
212.7528883631
 10
319.009857377
 20
212.5199302723
 10
319.3954682461
 20
212.4346753832
 10
319.728887793
 20
212.5046989669
 10
319.9804902276
 20
212.7237791205
 10
320.1279195696
 20
213.0724496111
 10
320.1580760749
 20
213.5197295355
 10
320.0682802056
 20
214.0258761094
 10
319.8665107188
 20
214.5459159887
 10
319.5706957189
 20
215.0336413478
 10
319.2071196668
 20
215.4457156484
 10
318.8080878902
 20
215.7455242804
  0
LINE
  5
3E2
330
1F
100
AcDbEntity
  8
0
  6
Continuous
 62
     7
370
    15
100
AcDbLine
 10
322.3612994657
 20
204.7208534711
 30
0.0
 11
322.0961344227
 21
204.5677769502
 31
0.0
  0
LINE
  5
3E3
330
1F
100
AcDbEntity
  8
0
  6
Continuous
 62
     7
370
    15
100
AcDbLine
 10
333.7851804452
 20
250.1489983076
 30
0.0
 11
333.7851804452
 21
265.5429419929
 31
0.0
  0
LINE
  5
3E4
330
1F
100
AcDbEntity
  8
0
  6
Continuous
 62
     7
370
    15
100
AcDbLine
 10
353.2855380896
 20
253.1725279415
 30
0.0
 11
353.2855380896
 21
253.9876300805
 31
0.0
  0
LINE
  5
3E5
330
1F
100
AcDbEntity
  8
0
  6
Continuous
 62
     7
370
    15
100
AcDbLine
 10
353.5791358115
 20
254.3264638524
 30
0.0
 11
353.5791358115
 21
262.2438331045
 31
0.0
  0
LINE
  5
3E6
330
1F
100
AcDbEntity
  8
0
  6
Continuous
 62
     7
370
    15
100
AcDbLine
 10
367.1741917234
 20
219.5692760049
 30
0.0
 11
367.1741917234
 21
221.6018913362
 31
0.0
  0
LINE
  5
3E7
330
1F
100
AcDbEntity
  8
0
  6
Continuous
 62
     7
370
    15
100
AcDbLine
 10
367.1741917234
 20
244.7429934362
 30
0.0
 11
367.1741917234
 21
266.1121022824
 31
0.0
  0
LINE
  5
3E8
330
1F
100
AcDbEntity
  8
0
  6
Continuous
 62
     7
370
    15
100
AcDbLine
 10
367.1741917234
 20
219.5692760049
 30
0.0
 11
359.4076874289
 21
215.0857685099
 31
0.0
  0
LINE
  5
3E9
330
1F
100
AcDbEntity
  8
0
  6
Continuous
 62
     7
370
    15
100
AcDbLine
 10
348.2758349526
 20
250.3865767765
 30
0.0
 11
348.2758349526
 21
265.3053635239
 31
0.0
  0
LINE
  5
3EA
330
1F
100
AcDbEntity
  8
0
  6
Continuous
 62
     7
370
    15
100
AcDbLine
 10
340.1318993597
 20
249.1919758698
 30
0.0
 11
340.1318993597
 21
266.0883813885
 31
0.0
  0
LINE
  5
3EB
330
1F
100
AcDbEntity
  8
0
  6
Continuous
 62
     7
370
    15
100
AcDbLine
 10
333.9741222171
 20
250.0937472448
 30
0.0
 11
333.9741222171
 21
265.1358731667
 31
0.0
  0
LINE
  5
3EC
330
1F
100
AcDbEntity
  8
0
  6
Continuous
 62
     7
370
    15
100
AcDbLine
 10
358.4237453062
 20
270.8574246699
 30
0.0
 11
358.4237453062
 21
271.1636274743
 31
0.0
  0
LINE
  5
3ED
330
1F
100
AcDbEntity
  8
0
  6
Continuous
 62
     8
370
    15
100
AcDbLine
 10
376.2004488799
 20
220.5090792773
 30
0.0
 11
375.5851713988
 21
220.8642714067
 31
0.0
  0
LINE
  5
3EE
330
1F
100
AcDbEntity
  8
0
  6
Continuous
 62
     8
370
    15
100
AcDbLine
 10
387.6334714676
 20
240.3116552252
 30
0.0
 11
387.0307282622
 21
240.6596114713
 31
0.0
  0
LINE
  5
3EF
330
1F
100
AcDbEntity
  8
0
  6
Continuous
 62
     8
370
    15
100
AcDbLine
 10
343.0152680873
 20
268.6764031876
 30
0.0
 11
343.1992084815
 21
268.5702166583
 31
0.0
  0
SPLINE
  5
3F0
330
1F
100
AcDbEntity
  8
0
  6
Continuous
 62
     7
370
    15
100
AcDbSpline
210
0.0
220
0.0
230
1.0
 70
     8
 71
     3
 72
    15
 73
    11
 74
     0
 42
0.000000001
 43
0.00000001
 40
0.0
 40
0.0
 40
0.0
 40
0.0
 40
0.1080394544926801
 40
0.2470973062480393
 40
0.3898662509097259
 40
0.5023685025210837
 40
0.5864874891331096
 40
0.7432469956106428
 40
0.8995300198253745
 40
1.0
 40
1.0
 40
1.0
 40
1.0
 10
372.5845658166338
 20
130.1845708031533
 30
0.0
 10
372.67874179015
 20
130.1347953577182
 30
0.0
 10
372.8941318944263
 20
130.0209538121265
 30
0.0
 10
373.2937348655502
 20
130.00762515196
 30
0.0
 10
373.6977520205981
 20
130.0993795368463
 30
0.0
 10
374.0425520070427
 20
130.2637218884695
 30
0.0
 10
374.3922407012184
 20
130.4925340411397
 30
0.0
 10
374.7650508038757
 20
130.8272661960675
 30
0.0
 10
375.120278027831
 20
131.2508308715187
 30
0.0
 10
375.2882009326946
 20
131.5543465259232
 30
0.0
 10
375.3539108197616
 20
131.6731151917592
 30
0.0
  0
LINE
  5
3F1
330
1F
100
AcDbEntity
  8
0
  6
Continuous
 62
     7
370
    15
100
AcDbLine
 10
372.1087326499
 20
130.4427572781
 30
0.0
 11
372.5698109946
 21
130.1765824153
 31
0.0
  0
SPLINE
  5
3F2
330
1F
100
AcDbEntity
  8
0
  6
Continuous
 62
     7
370
    15
100
AcDbSpline
210
0.0
220
0.0
230
1.0
 70
     8
 71
     3
 72
    10
 73
     6
 74
     0
 42
0.000000001
 43
0.00000001
 40
0.0
 40
0.0
 40
0.0
 40
0.0
 40
0.3891909728331899
 40
0.8901196461488099
 40
1.0
 40
1.0
 40
1.0
 40
1.0
 10
372.5845658166338
 20
136.3086268922965
 30
0.0
 10
372.6787229977193
 20
136.26014081434
 30
0.0
 10
372.8940701217804
 20
136.1492481843295
 30
0.0
 10
373.1788861718277
 20
136.1203394769072
 30
0.0
 10
373.3523194695281
 20
136.1637669381821
 30
0.0
 10
373.3835189300359
 20
136.1715792405541
 30
0.0
  0
LINE
  5
3F3
330
1F
100
AcDbEntity
  8
0
  6
Continuous
 62
     7
370
    15
100
AcDbLine
 10
372.1087326499
 20
136.5668133672
 30
0.0
 11
372.5698109946
 21
136.3006385045
 31
0.0
  0
SPLINE
  5
3F4
330
1F
100
AcDbEntity
  8
0
  6
Continuous
 62
     7
370
    15
100
AcDbSpline
210
0.0
220
0.0
230
1.0
 70
     8
 71
     3
 72
    11
 73
     7
 74
     0
 42
0.000000001
 43
0.00000001
 40
0.0
 40
0.0
 40
0.0
 40
0.0
 40
0.2150601678857139
 40
0.49186464718231
 40
0.7760563191227611
 40
1.0
 40
1.0
 40
1.0
 40
1.0
 10
372.5845658166339
 20
166.928907338012
 30
0.0
 10
372.6787513288446
 20
166.8790728743595
 30
0.0
 10
372.894163249093
 20
166.7650963480556
 30
0.0
 10
373.2935644687474
 20
166.7530159731776
 30
0.0
 10
373.6983458161564
 20
166.8400421145276
 30
0.0
 10
373.9560948276814
 20
166.9734965013137
 30
0.0
 10
374.0696890935857
 20
167.0323120638215
 30
0.0
  0
SPLINE
  5
3F5
330
1F
100
AcDbEntity
  8
0
  6
Continuous
 62
     7
370
    15
100
AcDbSpline
210
0.0
220
0.0
230
1.0
 70
     8
 71
     3
 72
    18
 73
    14
 74
     0
 42
0.000000001
 43
0.00000001
 40
0.0
 40
0.0
 40
0.0
 40
0.0
 40
0.0572485479820413
 40
0.1639337862340338
 40
0.2702947467125624
 40
0.3764211797267688
 40
0.4827844906407198
 40
0.5898180879510918
 40
0.6981613980944564
 40
0.8080534910115897
 40
0.9026460752708929
 40
0.9937548076464936
 40
1.0
 40
1.0
 40
1.0
 40
1.0
 10
374.0696890935857
 20
167.0323120638215
 30
0.0
 10
374.1532404017198
 20
167.0844820814531
 30
0.0
 10
374.3924933220124
 20
167.2338732681244
 30
0.0
 10
374.7669902655086
 20
167.5714730652454
 30
0.0
 10
375.1602603164308
 20
168.0559948900726
 30
0.0
 10
375.4822919448004
 20
168.6059046099309
 30
0.0
 10
375.7154315073349
 20
169.1885802881392
 30
0.0
 10
375.8454340374166
 20
169.7752108053354
 30
0.0
 10
375.8594219731751
 20
170.3353398885346
 30
0.0
 10
375.7536094145266
 20
170.8234050882544
 30
0.0
 10
375.5297933603405
 20
171.1956086313036
 30
0.0
 10
375.3330600475442
 20
171.4115806146126
 30
0.0
 10
375.2013583686328
 20
171.4601980942963
 30
0.0
 10
375.1929097896939
 20
171.4633168746969
 30
0.0
  0
LINE
  5
3F6
330
1F
100
AcDbEntity
  8
0
  6
Continuous
 62
     7
370
    15
100
AcDbLine
 10
372.1087326499
 20
167.1870938129
 30
0.0
 11
372.5698109946
 21
166.9209189502
 31
0.0
  0
LINE
  5
3F7
330
1F
100
AcDbEntity
  8
0
  6
Continuous
 62
     7
370
    15
100
AcDbLine
 10
375.1945976678
 20
171.4676754777
 30
0.0
 11
374.733519323
 21
171.7338503404
 31
0.0
  0
SPLINE
  5
3F8
330
1F
100
AcDbEntity
  8
0
  6
Continuous
 62
     7
370
    15
100
AcDbSpline
210
0.0
220
0.0
230
1.0
 70
     8
 71
     3
 72
    11
 73
     7
 74
     0
 42
0.000000001
 43
0.00000001
 40
0.0
 40
0.0
 40
0.0
 40
0.0
 40
0.2150601678857157
 40
0.491864647182312
 40
0.7760563191227612
 40
1.0
 40
1.0
 40
1.0
 40
1.0
 10
372.5845658166339
 20
160.8048512488689
 30
0.0
 10
372.6787513288446
 20
160.7550167852164
 30
0.0
 10
372.894163249093
 20
160.6410402589125
 30
0.0
 10
373.2935644687474
 20
160.6289598840345
 30
0.0
 10
373.6983458161563
 20
160.7159860253845
 30
0.0
 10
373.9560948276814
 20
160.8494404121705
 30
0.0
 10
374.0696890935857
 20
160.9082559746784
 30
0.0
  0
SPLINE
  5
3F9
330
1F
100
AcDbEntity
  8
0
  6
Continuous
 62
     7
370
    15
100
AcDbSpline
210
0.0
220
0.0
230
1.0
 70
     8
 71
     3
 72
    18
 73
    14
 74
     0
 42
0.000000001
 43
0.00000001
 40
0.0
 40
0.0
 40
0.0
 40
0.0
 40
0.0572485479820413
 40
0.1639337862340338
 40
0.2702947467125622
 40
0.3764211797267686
 40
0.4827844906407195
 40
0.5898180879510918
 40
0.6981613980944567
 40
0.8080534910115901
 40
0.9026460752708931
 40
0.9937548076464936
 40
1.0
 40
1.0
 40
1.0
 40
1.0
 10
374.0696890935857
 20
160.9082559746784
 30
0.0
 10
374.1532404017198
 20
160.96042599231
 30
0.0
 10
374.3924933220123
 20
161.1098171789813
 30
0.0
 10
374.7669902655086
 20
161.4474169761023
 30
0.0
 10
375.1602603164308
 20
161.9319388009295
 30
0.0
 10
375.4822919448002
 20
162.4818485207878
 30
0.0
 10
375.7154315073349
 20
163.0645241989961
 30
0.0
 10
375.8454340374166
 20
163.6511547161923
 30
0.0
 10
375.8594219731751
 20
164.2112837993915
 30
0.0
 10
375.7536094145266
 20
164.6993489991113
 30
0.0
 10
375.5297933603405
 20
165.0715525421605
 30
0.0
 10
375.3330600475442
 20
165.2875245254695
 30
0.0
 10
375.2013583686327
 20
165.3361420051532
 30
0.0
 10
375.1929097896938
 20
165.3392607855538
 30
0.0
  0
LINE
  5
3FA
330
1F
100
AcDbEntity
  8
0
  6
Continuous
 62
     7
370
    15
100
AcDbLine
 10
372.1087326499
 20
161.0630377238
 30
0.0
 11
372.5698109946
 21
160.7968628611
 31
0.0
  0
LINE
  5
3FB
330
1F
100
AcDbEntity
  8
0
  6
Continuous
 62
     7
370
    15
100
AcDbLine
 10
375.1945976678
 20
165.3436193886
 30
0.0
 11
374.733519323
 21
165.6097942513
 31
0.0
  0
LINE
  5
3FC
330
1F
100
AcDbEntity
  8
0
  6
Continuous
 62
     7
370
    15
100
AcDbLine
 10
357.368356531
 20
165.009617057
 30
0.0
 11
357.2299861276
 21
165.0895225559
 31
0.0
  0
LINE
  5
3FD
330
1F
100
AcDbEntity
  8
0
  6
Continuous
 62
     7
370
    15
100
AcDbLine
 10
357.7071367116
 20
165.675121585
 30
0.0
 11
356.4888994943
 21
166.3783949609
 31
0.0
  0
LINE
  5
3FE
330
1F
100
AcDbEntity
  8
0
  6
Continuous
 62
     7
370
    15
100
AcDbLine
 10
350.8643566233
 20
156.6353452591
 30
0.0
 11
356.1676574822
 21
153.5738148398
 31
0.0
  0
LINE
  5
3FF
330
1F
100
AcDbEntity
  8
0
  6
Continuous
 62
     7
370
    15
100
AcDbLine
 10
354.3808755372
 20
174.3625012986
 30
0.0
 11
348.5477498395
 21
177.7298930869
 31
0.0
  0
LINE
  5
400
330
1F
100
AcDbEntity
  8
0
  6
Continuous
 62
     7
370
    15
100
AcDbLine
 10
337.0634904966
 20
157.8365251587
 30
0.0
 11
342.8959734568
 21
154.4695044148
 31
0.0
  0
LINE
  5
401
330
1F
100
AcDbEntity
  8
0
  6
Continuous
 62
     7
370
    15
100
AcDbLine
 10
346.8814777042
 20
149.1243714886
 30
0.0
 11
347.6768435427
 21
149.5836756892
 31
0.0
  0
LINE
  5
402
330
1F
100
AcDbEntity
  8
0
  6
Continuous
 62
     7
370
    15
100
AcDbLine
 10
357.7071367116
 20
176.4998329403
 30
0.0
 11
354.8112807238
 21
178.1715750179
 31
0.0
  0
LINE
  5
403
330
1F
100
AcDbEntity
  8
0
  6
Continuous
 62
     7
370
    15
100
AcDbLine
 10
339.8095795053
 20
152.1921079721
 30
0.0
 11
345.381254831
 21
148.9756482709
 31
0.0
  0
LINE
  5
404
330
1F
100
AcDbEntity
  8
0
  6
Continuous
 62
     7
370
    15
100
AcDbLine
 10
352.8814777042
 20
149.7181865609
 30
0.0
 11
353.6768435427
 21
150.1774907615
 31
0.0
  0
LINE
  5
405
330
1F
100
AcDbEntity
  8
0
  6
Continuous
 62
     7
370
    15
100
AcDbLine
 10
349.9257167013
 20
150.4097276199
 30
0.0
 11
351.381254831
 21
149.5694633431
 31
0.0
  0
LINE
  5
406
330
1F
100
AcDbEntity
  8
0
  6
Continuous
 62
     7
370
    15
100
AcDbLine
 10
371.5337980948
 20
137.9372401504
 30
0.0
 11
377.3658451528
 21
134.5704710476
 31
0.0
  0
LINE
  5
407
330
1F
100
AcDbEntity
  8
0
  6
Continuous
 62
     7
370
    15
100
AcDbLine
 10
388.8512135014
 20
154.4635116822
 30
0.0
 11
383.018835667
 21
157.8304717383
 31
0.0
  0
LINE
  5
408
330
1F
100
AcDbEntity
  8
0
  6
Continuous
 62
     7
370
    15
100
AcDbLine
 10
375.5186127938
 20
151.3481110478
 30
0.0
 11
374.7232469553
 21
150.8888068472
 31
0.0
  0
LINE
  5
409
330
1F
100
AcDbEntity
  8
0
  6
Continuous
 62
     7
370
    15
100
AcDbLine
 10
373.3976372245
 20
148.5925346365
 30
0.0
 11
373.3976372245
 21
147.6740755107
 31
0.0
  0
LINE
  5
40A
330
1F
100
AcDbEntity
  8
0
  6
Continuous
 62
     7
370
    15
100
AcDbLine
 10
370.9123558502
 20
140.2292336956
 30
0.0
 11
370.9123558502
 21
139.3107745698
 31
0.0
  0
LINE
  5
40B
330
1F
100
AcDbEntity
  8
0
  6
Continuous
 62
     7
370
    15
100
AcDbLine
 10
381.5186127938
 20
157.6817485205
 30
0.0
 11
380.7232469553
 21
157.2224443199
 31
0.0
  0
LINE
  5
40C
330
1F
100
AcDbEntity
  8
0
  6
Continuous
 62
     7
370
    15
100
AcDbLine
 10
374.0192149608
 20
132.4436187105
 30
0.0
 11
379.5898753036
 21
129.2277449464
 31
0.0
  0
LINE
  5
40D
330
1F
100
AcDbEntity
  8
0
  6
Continuous
 62
     7
370
    15
100
AcDbLine
 10
394.5888066524
 20
155.208811004
 30
0.0
 11
389.018835667
 21
158.4242868106
 31
0.0
  0
LINE
  5
40E
330
1F
100
AcDbEntity
  8
0
  6
Continuous
 62
     7
370
    15
100
AcDbLine
 10
372.6078901448
 20
144.0830705398
 30
0.0
 11
372.7500136005
 21
144.0010244152
 31
0.0
  0
LINE
  5
40F
330
1F
100
AcDbEntity
  8
0
  6
Continuous
 62
     7
370
    15
100
AcDbLine
 10
378.3748472374
 20
153.7439062615
 30
0.0
 11
378.2324330158
 21
153.8261202416
 31
0.0
  0
LINE
  5
410
330
1F
100
AcDbEntity
  8
0
  6
Continuous
 62
     7
370
    15
100
AcDbLine
 10
373.3978288543
 20
134.7354881772
 30
0.0
 11
373.3978288543
 21
133.8170290514
 31
0.0
  0
LINE
  5
411
330
1F
100
AcDbEntity
  8
0
  6
Continuous
 62
     7
370
    15
100
AcDbLine
 10
387.5186127938
 20
158.2755635928
 30
0.0
 11
386.7232469553
 21
157.8162593922
 31
0.0
  0
LINE
  5
412
330
1F
100
AcDbEntity
  8
0
  6
Continuous
 62
     7
370
    15
100
AcDbLine
 10
384.9900286802
 20
130.1678441035
 30
0.0
 11
385.8514335723
 21
129.6705656442
 31
0.0
  0
LINE
  5
413
330
1F
100
AcDbEntity
  8
0
  6
Continuous
 62
     7
370
    15
100
AcDbLine
 10
397.3361640992
 20
149.5636615637
 30
0.0
 11
396.4871512148
 21
150.0537862693
 31
0.0
  0
LINE
  5
414
330
1F
100
AcDbEntity
  8
0
  6
Continuous
 62
     7
370
    15
100
AcDbLine
 10
362.3334444011
 20
147.7194766597
 30
0.0
 11
364.9850948306
 21
146.18871145
 31
0.0
  0
LINE
  5
415
330
1F
100
AcDbEntity
  8
0
  6
Continuous
 62
     7
370
    15
100
AcDbLine
 10
356.5988724356
 20
154.3207819836
 30
0.0
 11
357.7071367116
 21
153.6809946353
 31
0.0
  0
LINE
  5
416
330
1F
100
AcDbEntity
  8
0
  6
Continuous
 62
     7
370
    15
100
AcDbLine
 10
370.9177847546
 20
146.0546498514
 30
0.0
 11
371.5423857796
 21
145.6940753547
 31
0.0
  0
LINE
  5
417
330
1F
100
AcDbEntity
  8
0
  6
Continuous
 62
     7
370
    15
100
AcDbLine
 10
376.3044987438
 20
153.9431907689
 30
0.0
 11
375.6798977188
 21
154.3037652656
 31
0.0
  0
LINE
  5
418
330
1F
100
AcDbEntity
  8
0
  6
Continuous
 62
     7
370
    15
100
AcDbLine
 10
365.4736410061
 20
186.7988933255
 30
0.0
 11
365.4736410061
 21
183.0162686884
 31
0.0
  0
LINE
  5
419
330
1F
100
AcDbEntity
  8
0
  6
Continuous
 62
     7
370
    15
100
AcDbLine
 10
373.6880900474
 20
131.113139433
 30
0.0
 11
374.6066487009
 21
131.6434120565
 31
0.0
  0
LINE
  5
41A
330
1F
100
AcDbEntity
  8
0
  6
Continuous
 62
     7
370
    15
100
AcDbLine
 10
374.6066487009
 20
131.6434120565
 30
0.0
 11
374.7528086359
 21
132.0201240962
 31
0.0
  0
LINE
  5
41B
330
1F
100
AcDbEntity
  8
0
  6
Continuous
 62
     7
370
    15
100
AcDbLine
 10
373.6385438712
 20
132.8226561406
 30
0.0
 11
373.2288107206
 21
131.7666115346
 31
0.0
  0
LINE
  5
41C
330
1F
100
AcDbEntity
  8
0
  6
Continuous
 62
     7
370
    15
100
AcDbLine
 10
373.2288107206
 20
131.7666115346
 30
0.0
 11
373.6880900474
 21
131.113139433
 31
0.0
  0
LINE
  5
41D
330
1F
100
AcDbEntity
  8
0
  6
Continuous
 62
     7
370
    15
100
AcDbLine
 10
373.441893713
 20
132.3158107986
 30
0.0
 11
374.6066487009
 21
131.6434120565
 31
0.0
  0
LWPOLYLINE
  5
41E
330
1F
100
AcDbEntity
  8
0
  6
Continuous
 62
     7
370
    15
100
AcDbPolyline
 90
       23
 70
   128
 43
0.0
 10
374.1473693742
 20
167.2040038662
 10
374.5956031274
 20
167.5371838946
 10
375.0075236476
 20
167.9922120395
 10
375.3497595842
 20
168.5322246268
 10
375.5945850168
 20
169.1134730483
 10
375.722165645
 20
169.6888680136
 10
375.722165645
 20
170.2117944448
 10
375.5945850168
 20
170.6398879522
 10
375.3497595842
 20
170.938466946
 10
375.0075236476
 20
171.0833423316
 10
374.5956031274
 20
171.0627771671
 10
374.1473693742
 20
170.8784375197
 10
373.699135621
 20
170.5452574914
 10
373.2872151007
 20
170.0902293465
 10
372.9449791641
 20
169.5502167592
 10
372.7001537315
 20
168.9689683377
 10
372.5725731033
 20
168.3935733724
 10
372.5725731033
 20
167.8706469412
 10
372.7001537315
 20
167.4425534338
 10
372.9449791641
 20
167.14397444
 10
373.2872151007
 20
166.9990990543
 10
373.699135621
 20
167.0196642189
 10
374.1473693742
 20
167.2040038662
  0
LINE
  5
41F
330
1F
100
AcDbEntity
  8
0
  6
Continuous
 62
     7
370
    15
100
AcDbLine
 10
373.6880900474
 20
167.8574759679
 30
0.0
 11
374.6066487009
 21
168.3877485914
 31
0.0
  0
LINE
  5
420
330
1F
100
AcDbEntity
  8
0
  6
Continuous
 62
     7
370
    15
100
AcDbLine
 10
374.6066487009
 20
168.3877485914
 30
0.0
 11
375.0659280277
 21
169.5714933165
 31
0.0
  0
LINE
  5
421
330
1F
100
AcDbEntity
  8
0
  6
Continuous
 62
     7
370
    15
100
AcDbLine
 10
375.0659280277
 20
169.5714933165
 30
0.0
 11
374.6066487009
 21
170.2249654181
 31
0.0
  0
LINE
  5
422
330
1F
100
AcDbEntity
  8
0
  6
Continuous
 62
     7
370
    15
100
AcDbLine
 10
374.6066487009
 20
170.2249654181
 30
0.0
 11
373.6880900474
 21
169.6946927946
 31
0.0
  0
LINE
  5
423
330
1F
100
AcDbEntity
  8
0
  6
Continuous
 62
     7
370
    15
100
AcDbLine
 10
373.6880900474
 20
169.6946927946
 30
0.0
 11
373.2288107206
 21
168.5109480695
 31
0.0
  0
LINE
  5
424
330
1F
100
AcDbEntity
  8
0
  6
Continuous
 62
     7
370
    15
100
AcDbLine
 10
373.2288107206
 20
168.5109480695
 30
0.0
 11
373.6880900474
 21
167.8574759679
 31
0.0
  0
LINE
  5
425
330
1F
100
AcDbEntity
  8
0
  6
Continuous
 62
     7
370
    15
100
AcDbLine
 10
374.270303598
 20
170.0307975232
 30
0.0
 11
375.0659280277
 21
169.5714933165
 31
0.0
  0
LINE
  5
426
330
1F
100
AcDbEntity
  8
0
  6
Continuous
 62
     7
370
    15
100
AcDbLine
 10
373.441893713
 20
169.0601473335
 30
0.0
 11
374.6066487009
 21
168.3877485914
 31
0.0
  0
LWPOLYLINE
  5
427
330
1F
100
AcDbEntity
  8
0
  6
Continuous
 62
     7
370
    15
100
AcDbPolyline
 90
       23
 70
   128
 43
0.0
 10
374.1473693742
 20
161.0799477771
 10
374.5956031274
 20
161.4131278054
 10
375.0075236476
 20
161.8681559503
 10
375.3497595842
 20
162.4081685377
 10
375.5945850168
 20
162.9894169591
 10
375.722165645
 20
163.5648119245
 10
375.722165645
 20
164.0877383556
 10
375.5945850168
 20
164.5158318631
 10
375.3497595842
 20
164.8144108568
 10
375.0075236476
 20
164.9592862425
 10
374.5956031274
 20
164.938721078
 10
374.1473693742
 20
164.7543814306
 10
373.699135621
 20
164.4212014022
 10
373.2872151007
 20
163.9661732573
 10
372.9449791641
 20
163.42616067
 10
372.7001537315
 20
162.8449122486
 10
372.5725731033
 20
162.2695172832
 10
372.5725731033
 20
161.7465908521
 10
372.7001537315
 20
161.3184973446
 10
372.9449791641
 20
161.0199183509
 10
373.2872151007
 20
160.8750429652
 10
373.699135621
 20
160.8956081297
 10
374.1473693742
 20
161.0799477771
  0
LINE
  5
428
330
1F
100
AcDbEntity
  8
0
  6
Continuous
 62
     7
370
    15
100
AcDbLine
 10
373.6880900474
 20
161.7334198787
 30
0.0
 11
374.6066487009
 21
162.2636925022
 31
0.0
  0
LINE
  5
429
330
1F
100
AcDbEntity
  8
0
  6
Continuous
 62
     7
370
    15
100
AcDbLine
 10
374.6066487009
 20
162.2636925022
 30
0.0
 11
375.0659280277
 21
163.4474372274
 31
0.0
  0
LINE
  5
42A
330
1F
100
AcDbEntity
  8
0
  6
Continuous
 62
     7
370
    15
100
AcDbLine
 10
375.0659280277
 20
163.4474372274
 30
0.0
 11
374.6066487009
 21
164.100909329
 31
0.0
  0
LINE
  5
42B
330
1F
100
AcDbEntity
  8
0
  6
Continuous
 62
     7
370
    15
100
AcDbLine
 10
374.6066487009
 20
164.100909329
 30
0.0
 11
373.6880900474
 21
163.5706367055
 31
0.0
  0
LINE
  5
42C
330
1F
100
AcDbEntity
  8
0
  6
Continuous
 62
     7
370
    15
100
AcDbLine
 10
373.6880900474
 20
163.5706367055
 30
0.0
 11
373.2288107206
 21
162.3868919803
 31
0.0
  0
LINE
  5
42D
330
1F
100
AcDbEntity
  8
0
  6
Continuous
 62
     7
370
    15
100
AcDbLine
 10
373.2288107206
 20
162.3868919803
 30
0.0
 11
373.6880900474
 21
161.7334198787
 31
0.0
  0
LINE
  5
42E
330
1F
100
AcDbEntity
  8
0
  6
Continuous
 62
     7
370
    15
100
AcDbLine
 10
374.270303598
 20
163.9067414341
 30
0.0
 11
375.0659280277
 21
163.4474372274
 31
0.0
  0
LINE
  5
42F
330
1F
100
AcDbEntity
  8
0
  6
Continuous
 62
     7
370
    15
100
AcDbLine
 10
373.441893713
 20
162.9360912444
 30
0.0
 11
374.6066487009
 21
162.2636925022
 31
0.0
  0
LWPOLYLINE
  5
430
330
1F
100
AcDbEntity
  8
0
  6
Continuous
 62
     7
370
    15
100
AcDbPolyline
 90
       18
 70
   128
 43
0.0
 10
357.2298396343
 20
165.0896071385
 10
356.8432777695
 20
165.2424735229
 10
356.387162398
 20
165.3044034249
 10
355.9230944283
 20
165.2670328681
 10
355.5137488111
 20
165.1354089533
 10
355.2144099402
 20
164.9273082195
 10
355.0655051889
 20
164.6708358239
 10
355.087144969
 20
164.4006297848
 10
355.2764067081
 20
164.1531829249
 10
355.6077295599
 20
163.9619143138
 10
356.0363665371
 20
163.8526558374
 10
356.5044278408
 20
163.8401634583
 10
356.9486991984
 20
163.9261243415
 10
357.3091793013
 20
164.0989289934
 10
357.5371833139
 20
164.3352391882
 10
357.6019180311
 20
164.6031399247
 10
357.4946406706
 20
164.866449724
 10
357.2298396343
 20
165.0896071385
  0
LINE
  5
431
330
1F
100
AcDbEntity
  8
0
  6
Continuous
 62
     7
370
    15
100
AcDbLine
 10
357.0889450765
 20
164.6868097475
 30
0.0
 11
356.5320984863
 21
165.0082704416
 31
0.0
  0
LINE
  5
432
330
1F
100
AcDbEntity
  8
0
  6
Continuous
 62
     7
370
    15
100
AcDbLine
 10
356.5320984863
 20
165.0082704416
 30
0.0
 11
355.7714318981
 21
164.8906076612
 31
0.0
  0
LINE
  5
433
330
1F
100
AcDbEntity
  8
0
  6
Continuous
 62
     7
370
    15
100
AcDbLine
 10
355.7714318981
 20
164.8906076612
 30
0.0
 11
355.5676119001
 21
164.4514841869
 31
0.0
  0
LINE
  5
434
330
1F
100
AcDbEntity
  8
0
  6
Continuous
 62
     7
370
    15
100
AcDbLine
 10
355.5676119001
 20
164.4514841869
 30
0.0
 11
356.1244584902
 21
164.1300234928
 31
0.0
  0
LINE
  5
435
330
1F
100
AcDbEntity
  8
0
  6
Continuous
 62
     7
370
    15
100
AcDbLine
 10
356.1244584902
 20
164.1300234928
 30
0.0
 11
356.8851250784
 21
164.2476862732
 31
0.0
  0
LINE
  5
436
330
1F
100
AcDbEntity
  8
0
  6
Continuous
 62
     7
370
    15
100
AcDbLine
 10
356.8851250784
 20
164.2476862732
 30
0.0
 11
357.0889450765
 21
164.6868097475
 31
0.0
  0
LINE
  5
437
330
1F
100
AcDbEntity
  8
0
  6
Continuous
 62
     7
370
    15
100
AcDbLine
 10
355.7714318981
 20
164.3338214065
 30
0.0
 11
355.7714318981
 21
164.8906076612
 31
0.0
  0
LINE
  5
438
330
1F
100
AcDbEntity
  8
0
  6
Continuous
 62
     7
370
    15
100
AcDbLine
 10
356.5320984863
 20
164.1930787868
 30
0.0
 11
356.5320984863
 21
165.0082704416
 31
0.0
  0
LWPOLYLINE
  5
439
330
1F
100
AcDbEntity
  8
0
  6
Continuous
 62
     7
370
    15
100
AcDbPolyline
 90
       20
 70
   128
 43
0.0
 10
356.4888994943
 20
166.3783949609
 10
356.2333001207
 20
166.5012798275
 10
355.6653658809
 20
166.6326351278
 10
355.0370048487
 20
166.6082466518
 10
354.3673094561
 20
166.428855431
 10
353.6766280588
 20
166.0999121769
 10
352.9859466615
 20
165.6314116637
 10
352.3162512689
 20
165.0375890426
 10
351.6878902367
 20
164.3364873133
 10
351.1199559969
 20
163.5494090972
 10
350.629704944
 20
162.7002693675
 10
350.232033108
 20
161.8148688052
 10
349.9390235466
 20
160.9201098585
 10
349.759579207
 20
160.0431793251
 10
349.6991524146
 20
159.2107222955
 10
349.759579207
 20
158.4480325554
 10
349.9390235466
 20
157.7782840465
 10
350.232033108
 20
157.2218267384
 10
350.629704944
 20
156.7955683048
 10
350.8643566233
 20
156.6353452591
  0
ARC
  5
43A
330
1F
100
AcDbEntity
  8
0
  6
Continuous
 62
     7
370
    15
100
AcDbCircle
 10
364.8334424994
 20
147.1375474272
 30
0.0
 40
10.95787267206011
100
AcDbArc
 50
143.4968189919
 51
156.7048662555
  0
LWPOLYLINE
  5
43B
330
1F
100
AcDbEntity
  8
0
  6
Continuous
 62
     7
370
    15
100
AcDbPolyline
 90
        9
 70
   128
 43
0.0
 10
352.5844002095
 20
150.2099704562
 10
352.7963604915
 20
150.0553412498
 10
353.0596321513
 20
149.997068785
 10
353.3588689097
 20
150.038549802
 10
353.6766280588
 20
150.1773663451
 10
353.9943872079
 20
150.4054267063
 10
354.2936239664
 20
150.7094370966
 10
354.5568956261
 20
151.0716765497
 10
354.7688559081
 20
151.4710298886
  0
LWPOLYLINE
  5
43C
330
1F
100
AcDbEntity
  8
0
  6
Continuous
 62
     7
370
    15
100
AcDbPolyline
 90
        9
 70
   128
 43
0.0
 10
347.9175126576
 20
149.748092428
 10
348.581688278
 20
150.2299903595
 10
349.2511689657
 20
150.6002473686
 10
349.9111815048
 20
150.8506931125
 10
350.5471616097
 20
150.9758010853
 10
351.1450753111
 20
150.9728105692
 10
351.6917286388
 20
150.841787555
 10
352.1750587686
 20
150.5856232857
 10
352.5844002095
 20
150.2099704562
  0
LWPOLYLINE
  5
43D
330
1F
100
AcDbEntity
  8
0
  6
Continuous
 62
     7
370
    15
100
AcDbPolyline
 90
        9
 70
   128
 43
0.0
 10
346.3728692199
 20
150.6400859816
 10
346.3531351406
 20
150.2597571121
 10
346.4105483372
 20
149.9292555759
 10
346.5417621567
 20
149.6678465257
 10
346.7391280588
 20
149.4907676678
 10
346.9911414549
 20
149.4083410455
 10
347.2831123176
 20
149.4253713612
 10
347.5980214727
 20
149.5408659065
 10
347.9175126576
 20
149.748092428
  0
LWPOLYLINE
  5
43E
330
1F
100
AcDbEntity
  8
0
  6
Continuous
 62
     7
370
    15
100
AcDbPolyline
 90
        9
 70
   128
 43
0.0
 10
344.4397811018
 20
154.9132874566
 10
344.9697258312
 20
154.7465256497
 10
345.4331843696
 20
154.4559427745
 10
345.819929726
 20
154.0479510305
 10
346.1214277144
 20
153.5315534408
 10
346.3310252751
 20
152.9181451857
 10
346.444097286
 20
152.2212621488
 10
346.458148623
 20
151.4562822251
 10
346.3728692199
 20
150.6400859816
  0
LWPOLYLINE
  5
43F
330
1F
100
AcDbEntity
  8
0
  6
Continuous
 62
     7
370
    15
100
AcDbPolyline
 90
        9
 70
   128
 43
0.0
 10
344.4397811018
 20
157.43581627
 10
344.1999126172
 20
157.052579231
 10
344.0178354788
 20
156.643451941
 10
343.9041630834
 20
156.2322826999
 10
343.8655214698
 20
155.8430388342
 10
343.9041630834
 20
155.4984096259
 10
344.0178354788
 20
155.218483739
 10
344.1999126172
 20
155.0195782383
 10
344.4397811018
 20
154.9132874566
  0
ARC
  5
440
330
1F
100
AcDbEntity
  8
0
  6
Continuous
 62
     7
370
    15
100
AcDbCircle
 10
337.5355655952
 20
163.0298337099
 30
0.0
 40
8.886012766065477
100
AcDbArc
 50
320.98449638
 51
5.7542270439
  0
ARC
  5
441
330
1F
100
AcDbEntity
  8
0
  6
Continuous
 62
     7
370
    15
100
AcDbCircle
 10
349.0596510428
 20
164.1732987113
 30
0.0
 40
2.694707974927554
100
AcDbArc
 50
114.6225117091
 51
185.3774881453
  0
ARC
  5
442
330
1F
100
AcDbEntity
  8
0
  6
Continuous
 62
     7
370
    15
100
AcDbCircle
 10
344.2955920879
 20
174.7158161157
 30
0.0
 40
8.874305850429453
100
AcDbArc
 50
294.22519338
 51
338.8738693903
  0
LWPOLYLINE
  5
443
330
1F
100
AcDbEntity
  8
0
  6
Continuous
 62
     7
370
    15
100
AcDbPolyline
 90
        9
 70
   128
 43
0.0
 10
354.7798068797
 20
172.7910219155
 10
354.5678246943
 20
172.9530782667
 10
354.3022858253
 20
173.0161145697
 10
353.999147897
 20
172.9763426421
 10
353.6766280588
 20
172.8361525878
 10
353.3541082206
 20
172.6039691631
 10
353.0509702923
 20
172.2937454886
 10
352.7854314233
 20
171.9241245332
 10
352.5734492379
 20
171.5173187604
  0
ARC
  5
444
330
1F
100
AcDbEntity
  8
0
  6
Continuous
 62
     7
370
    15
100
AcDbCircle
 10
356.6318404777
 20
174.6199826663
 30
0.0
 40
2.602907196976846
100
AcDbArc
 50
224.640868928
 51
294.400573833
  0
ARC
  5
445
330
1F
100
AcDbEntity
  8
0
  6
Continuous
 62
     7
370
    15
100
AcDbCircle
 10
349.09408966
 20
164.1534048223
 30
0.0
 40
4.311766483523337
100
AcDbArc
 50
114.6225117091
 51
185.3774881453
  0
LINE
  5
446
330
1F
100
AcDbEntity
  8
0
  6
Continuous
 62
     7
370
    15
100
AcDbLine
 10
347.2976438867
 20
168.0731130757
 30
0.0
 11
347.9369332959
 21
166.6229835748
 31
0.0
  0
LINE
  5
447
330
1F
100
AcDbEntity
  8
0
  6
Continuous
 62
     7
370
    15
100
AcDbLine
 10
344.8012998494
 20
163.7493183826
 30
0.0
 11
346.3768028456
 21
163.9207583764
 31
0.0
  0
SPLINE
  5
448
330
1F
100
AcDbEntity
  8
0
  6
Continuous
 62
     7
370
    15
100
AcDbSpline
210
0.0
220
0.0
230
1.0
 70
     8
 71
     3
 72
    13
 73
     9
 74
     0
 42
0.000000001
 43
0.00000001
 40
0.0
 40
0.0
 40
0.0
 40
0.0
 40
0.1720087238365712
 40
0.3444334232908554
 40
0.5079344031875614
 40
0.6647334886924856
 40
0.8215865234924862
 40
0.9999999999999999
 40
0.9999999999999999
 40
0.9999999999999999
 40
0.9999999999999999
 10
338.8402115679175
 20
167.1905813981994
 30
0.0
 10
338.8930179529647
 20
167.3999981272471
 30
0.0
 10
338.9987584268645
 20
167.8193380262443
 30
0.0
 10
339.3566193833379
 20
168.6724175852337
 30
0.0
 10
339.8191583270801
 20
169.549565997109
 30
0.0
 10
340.3328907018172
 20
170.3536375238216
 30
0.0
 10
340.8723763666898
 20
171.0625091118851
 30
0.0
 10
341.1753349354618
 20
171.3574317667272
 30
0.0
 10
341.3365556051957
 20
171.5143760912468
 30
0.0
  0
LINE
  5
449
330
1F
100
AcDbEntity
  8
0
  6
Continuous
 62
     7
370
    15
100
AcDbLine
 10
341.3365556052
 20
171.5143760912
 30
0.0
 11
347.2976438867
 21
168.0731130757
 31
0.0
  0
LINE
  5
44A
330
1F
100
AcDbEntity
  8
0
  6
Continuous
 62
     7
370
    15
100
AcDbLine
 10
338.8402115679
 20
167.1905813982
 30
0.0
 11
344.8012998494
 21
163.7493183826
 31
0.0
  0
LINE
  5
44B
330
1F
100
AcDbEntity
  8
0
  6
Continuous
 62
     7
370
    15
100
AcDbLine
 10
344.4397811018
 20
157.43581627
 30
0.0
 11
343.2007378943
 21
158.401596179
 31
0.0
  0
ARC
  5
44C
330
1F
100
AcDbEntity
  8
0
  6
Continuous
 62
     7
370
    15
100
AcDbCircle
 10
337.5167866196
 20
163.0161742919
 30
0.0
 40
7.321313628967499
100
AcDbArc
 50
320.9282028966
 51
5.7471359545
  0
ARC
  5
44D
330
1F
100
AcDbEntity
  8
0
  6
Continuous
 62
     7
370
    15
100
AcDbCircle
 10
344.2988923037
 20
174.7377986976
 30
0.0
 40
7.308251876823403
100
AcDbArc
 50
294.22519338
 51
338.8738693903
  0
LINE
  5
44E
330
1F
100
AcDbEntity
  8
0
  6
Continuous
 62
     7
370
    15
100
AcDbLine
 10
351.115951133
 20
172.103742052
 30
0.0
 11
352.5734492379
 21
171.5173187604
 31
0.0
  0
LINE
  5
44F
330
1F
100
AcDbEntity
  8
0
  6
Continuous
 62
     7
370
    15
100
AcDbLine
 10
337.2478569673
 20
161.8381211897
 30
0.0
 11
343.2007378943
 21
158.401596179
 31
0.0
  0
SPLINE
  5
450
330
1F
100
AcDbEntity
  8
0
  6
Continuous
 62
     7
370
    15
100
AcDbSpline
210
0.0
220
0.0
230
1.0
 70
     8
 71
     3
 72
    11
 73
     7
 74
     0
 42
0.000000001
 43
0.00000001
 40
0.0
 40
0.0
 40
0.0
 40
0.0
 40
0.2537719365525904
 40
0.5087159351989553
 40
0.7421854335094625
 40
1.0
 40
1.0
 40
1.0
 40
1.0
 10
337.2478569673421
 20
161.8381211896812
 30
0.0
 10
337.4163424098235
 20
162.3319112003287
 30
0.0
 10
337.7540914556939
 20
163.3217718227083
 30
0.0
 10
338.2137722616691
 20
164.8528611123014
 30
0.0
 10
338.6160032407603
 20
166.2247724263237
 30
0.0
 10
338.7630465989068
 20
166.8581824176173
 30
0.0
 10
338.8402115679175
 20
167.1905813981994
 30
0.0
  0
LINE
  5
451
330
1F
100
AcDbEntity
  8
0
  6
Continuous
 62
     7
370
    15
100
AcDbLine
 10
345.1548628516
 20
175.5450050676
 30
0.0
 11
351.115951133
 21
172.103742052
 31
0.0
  0
SPLINE
  5
452
330
1F
100
AcDbEntity
  8
0
  6
Continuous
 62
     7
370
    15
100
AcDbSpline
210
0.0
220
0.0
230
1.0
 70
     8
 71
     3
 72
    11
 73
     7
 74
     0
 42
0.000000001
 43
0.00000001
 40
0.0
 40
0.0
 40
0.0
 40
0.0
 40
0.2543731898028522
 40
0.5099048107121192
 40
0.7442741989811523
 40
1.0
 40
1.0
 40
1.0
 40
1.0
 10
341.3365556051957
 20
171.5143760912468
 30
0.0
 10
341.5806243269723
 20
171.7423566605368
 30
0.0
 10
342.0698732744526
 20
172.1993560366109
 30
0.0
 10
343.0575969817893
 20
173.2359269365563
 30
0.0
 10
344.1478662675477
 20
174.3949493269371
 30
0.0
 10
344.8095856182552
 20
175.1506759600364
 30
0.0
 10
345.154862851552
 20
175.5450050675744
 30
0.0
  0
LWPOLYLINE
  5
453
330
1F
100
AcDbEntity
  8
0
  6
Continuous
 62
     7
370
    15
100
AcDbPolyline
 90
       17
 70
   128
 43
0.0
 10
357.7071367116
 20
162.062101018
 10
357.6195521278
 20
161.9760586232
 10
356.9911910956
 20
161.274956894
 10
356.4232568558
 20
160.4878786778
 10
355.9330058028
 20
159.6387389481
 10
355.5353339669
 20
158.7533383859
 10
355.2423244055
 20
157.8585794392
 10
355.0628800659
 20
156.9816489057
 10
355.0024532735
 20
156.1491918762
 10
355.0628800659
 20
155.386502136
 10
355.2423244055
 20
154.7167536271
 10
355.5353339669
 20
154.160296319
 10
355.9330058028
 20
153.7340378854
 10
356.4232568558
 20
153.4509299732
 10
356.9911910956
 20
153.3195746729
 10
357.6195521278
 20
153.3439631489
 10
357.7071367116
 20
153.3590437621
  0
SPLINE
  5
454
330
1F
100
AcDbEntity
  8
0
  6
Continuous
 62
     7
370
    15
100
AcDbSpline
210
0.0
220
0.0
230
1.0
 70
     8
 71
     3
 72
    10
 73
     6
 74
     0
 42
0.000000001
 43
0.00000001
 40
0.0
 40
0.0
 40
0.0
 40
0.0
 40
0.0965177389911485
 40
0.5572820684273692
 40
1.0
 40
1.0
 40
1.0
 40
1.0
 10
357.2012295953016
 20
164.0645847835824
 30
0.0
 10
357.1915250080671
 20
164.0584357993659
 30
0.0
 10
357.1354918632396
 20
164.0229322880043
 30
0.0
 10
357.0120550290697
 20
163.966168387013
 30
0.0
 10
356.8906722768671
 20
163.9231596077045
 30
0.0
 10
356.8311931666478
 20
163.9020847525174
 30
0.0
  0
LWPOLYLINE
  5
455
330
1F
100
AcDbEntity
  8
0
  6
Continuous
 62
     7
370
    15
100
AcDbPolyline
 90
        9
 70
   128
 43
0.0
 10
351.115951133
 20
172.103742052
 10
351.4551410158
 20
172.7546665726
 10
351.8800262376
 20
173.34609216
 10
352.3650732153
 20
173.8424769462
 10
352.88113293
 20
174.2139905641
 10
353.3971926447
 20
174.4383068102
 10
353.8822396224
 20
174.501945344
 10
354.3071248442
 20
174.4010817918
 10
354.6463147269
 20
174.1417775739
  0
LINE
  5
456
330
1F
100
AcDbEntity
  8
0
  6
Continuous
 62
     7
370
    15
100
AcDbLine
 10
354.6463147269
 20
174.1417775739
 30
0.0
 11
354.7798068797
 21
172.7910219155
 31
0.0
  0
LINE
  5
457
330
1F
100
AcDbEntity
  8
0
  6
Continuous
 62
     7
370
    15
100
AcDbLine
 10
344.4397811018
 20
154.9132874566
 30
0.0
 11
343.2007378943
 21
154.3538569623
 31
0.0
  0
LWPOLYLINE
  5
458
330
1F
100
AcDbEntity
  8
0
  6
Continuous
 62
     7
370
    15
100
AcDbPolyline
 90
        9
 70
   128
 43
0.0
 10
343.2007378943
 20
154.3538569623
 10
342.8140262068
 20
154.5222878148
 10
342.5203224407
 20
154.8403805368
 10
342.3368957443
 20
155.289431962
 10
342.2745312122
 20
155.8430388342
 10
342.3368957443
 20
156.4686502626
 10
342.5203224407
 20
157.1294816435
 10
342.8140262068
 20
157.786677516
 10
343.2007378943
 20
158.401596179
  0
SPLINE
  5
459
330
1F
100
AcDbEntity
  8
0
  6
Continuous
 62
     7
370
    15
100
AcDbSpline
210
0.0
220
0.0
230
1.0
 70
     8
 71
     3
 72
    13
 73
     9
 74
     0
 42
0.000000001
 43
0.00000001
 40
0.0
 40
0.0
 40
0.0
 40
0.0
 40
0.1917343384000899
 40
0.3839376805656682
 40
0.5661935619156174
 40
0.7409786117077771
 40
0.9158236222315003
 40
1.0
 40
1.0
 40
1.0
 40
1.0
 10
345.154862851552
 20
175.5450050675744
 30
0.0
 10
345.3788415859231
 20
175.7945817736382
 30
0.0
 10
345.8273469318515
 20
176.294345678471
 30
0.0
 10
346.6088825519882
 20
176.973935064069
 30
0.0
 10
347.3546863575399
 20
177.479694129031
 30
0.0
 10
347.9728411466857
 20
177.7496366340936
 30
0.0
 10
348.3870893303702
 20
177.8230442138872
 30
0.0
 10
348.4917038498088
 20
177.7248964829767
 30
0.0
 10
348.5257013176102
 20
177.6930005822994
 30
0.0
  0
SPLINE
  5
45A
330
1F
100
AcDbEntity
  8
0
  6
Continuous
 62
     7
370
    15
100
AcDbSpline
210
0.0
220
0.0
230
1.0
 70
     8
 71
     3
 72
    13
 73
     9
 74
     0
 42
0.000000001
 43
0.00000001
 40
0.0
 40
0.0
 40
0.0
 40
0.0
 40
0.0833998074401144
 40
0.2763175624695739
 40
0.4593840493765409
 40
0.6351549441178788
 40
0.8111960527883119
 40
1.0
 40
1.0
 40
1.0
 40
1.0
 10
337.083048282842
 20
157.8714150554378
 30
0.0
 10
337.0393480702101
 20
157.8857107873579
 30
0.0
 10
336.8945619297564
 20
157.9330749470499
 30
0.0
 10
336.7461698517471
 20
158.360115150745
 30
0.0
 10
336.6832263105198
 20
159.0779187550669
 30
0.0
 10
336.7600882935618
 20
159.9597685592205
 30
0.0
 10
336.9506354015805
 20
160.9208158404565
 30
0.0
 10
337.1464992397951
 20
161.5253040984118
 30
0.0
 10
337.2478569673421
 20
161.8381211896812
 30
0.0
  0
LINE
  5
45B
330
1F
100
AcDbEntity
  8
0
  6
Continuous
 62
     7
370
    15
100
AcDbLine
 10
346.3728692199
 20
150.6400859816
 30
0.0
 11
344.7967651287
 21
150.8257477838
 31
0.0
  0
LWPOLYLINE
  5
45C
330
1F
100
AcDbEntity
  8
0
  6
Continuous
 62
     7
370
    15
100
AcDbPolyline
 90
        9
 70
   128
 43
0.0
 10
344.7967651287
 20
150.8257477838
 10
344.8680302701
 20
151.5002183202
 10
344.8570233124
 20
152.13239194
 10
344.7639885561
 20
152.7082374811
 10
344.5909909178
 20
153.2149739892
 10
344.3418700989
 20
153.6413543923
 10
344.0221553631
 20
153.9779151312
 10
343.6389428135
 20
154.2171862037
 10
343.2007378943
 20
154.3538569623
  0
ARC
  5
45D
330
1F
100
AcDbEntity
  8
0
  6
Continuous
 62
     7
370
    15
100
AcDbCircle
 10
356.265822765
 20
175.9811557973
 30
0.0
 40
2.450738365044993
100
AcDbArc
 50
228.6372132046
 51
306.023297508
  0
LINE
  5
45E
330
1F
100
AcDbEntity
  8
0
  6
Continuous
 62
     7
370
    15
100
AcDbLine
 10
338.8438842018
 20
154.2622727944
 30
0.0
 11
344.7967651287
 21
150.8257477838
 31
0.0
  0
SPLINE
  5
45F
330
1F
100
AcDbEntity
  8
0
  6
Continuous
 62
     7
370
    15
100
AcDbSpline
210
0.0
220
0.0
230
1.0
 70
     8
 71
     3
 72
    10
 73
     6
 74
     0
 42
0.000000001
 43
0.00000001
 40
0.0
 40
0.0
 40
0.0
 40
0.0
 40
0.3872063994709183
 40
0.7761944393068199
 40
1.0
 40
1.0
 40
1.0
 40
1.0
 10
338.8438842017608
 20
154.2622727944216
 30
0.0
 10
338.7690218585167
 20
154.7697869197162
 30
0.0
 10
338.618952710334
 20
155.7871503787437
 30
0.0
 10
338.2673986200144
 20
156.877113274852
 30
0.0
 10
338.016911755365
 20
157.2153921371713
 30
0.0
 10
337.9254285004146
 20
157.3389389405104
 30
0.0
  0
SPLINE
  5
460
330
1F
100
AcDbEntity
  8
0
  6
Continuous
 62
     7
370
    15
100
AcDbSpline
210
0.0
220
0.0
230
1.0
 70
     8
 71
     3
 72
    10
 73
     6
 74
     0
 42
0.000000001
 43
0.00000001
 40
0.0
 40
0.0
 40
0.0
 40
0.0
 40
0.2559806783078148
 40
0.6117777176289823
 40
1.0
 40
1.0
 40
1.0
 40
1.0
 10
349.4003965569419
 20
177.2376706142203
 30
0.0
 10
349.5753580486734
 20
177.217634483527
 30
0.0
 10
349.9935050072329
 20
177.1697493916259
 30
0.0
 10
351.1100508278058
 20
177.4132156518014
 30
0.0
 10
352.0257371720632
 20
177.7731335490559
 30
0.0
 10
352.503533691776
 20
177.960935321758
 30
0.0
  0
LWPOLYLINE
  5
461
330
1F
100
AcDbEntity
  8
0
  6
Continuous
 62
     7
370
    15
100
AcDbPolyline
 90
        9
 70
   128
 43
0.0
 10
346.8814777042
 20
149.1243714886
 10
346.7620704931
 20
149.0593005745
 10
346.2557868182
 20
148.8720247078
 10
345.7862721469
 20
148.8436071031
 10
345.38113293
 20
148.9757186543
 10
345.0641904802
 20
149.2605914868
 10
344.8540803306
 20
149.681475692
 10
344.7631565052
 20
150.2136241859
 10
344.7967651287
 20
150.8257477838
  0
SPLINE
  5
462
330
1F
100
AcDbEntity
  8
0
  6
Continuous
 62
     7
370
    15
100
AcDbSpline
210
0.0
220
0.0
230
1.0
 70
     8
 71
     3
 72
    13
 73
     9
 74
     0
 42
0.000000001
 43
0.00000001
 40
0.0
 40
0.0
 40
0.0
 40
0.0
 40
0.1696560003843796
 40
0.3439768318143775
 40
0.5137493755807955
 40
0.6889769714066227
 40
0.8499942220638442
 40
1.0
 40
1.0
 40
1.0
 40
1.0
 10
352.503533691776
 20
177.960935321758
 30
0.0
 10
352.6557336607237
 20
178.0231666142807
 30
0.0
 10
352.9643184617462
 20
178.1493402998161
 30
0.0
 10
353.4158975532147
 20
178.2738342281191
 30
0.0
 10
353.8497087428781
 20
178.3435069510033
 30
0.0
 10
354.2353444258623
 20
178.3456336115584
 30
0.0
 10
354.5654254290895
 20
178.2912316796836
 30
0.0
 10
354.730138346803
 20
178.2083277943444
 30
0.0
 10
354.8095790540376
 20
178.1683434180412
 30
0.0
  0
SPLINE
  5
463
330
1F
100
AcDbEntity
  8
0
  6
Continuous
 62
     7
370
    15
100
AcDbSpline
210
0.0
220
0.0
230
1.0
 70
     8
 71
     3
 72
    11
 73
     7
 74
     0
 42
0.000000001
 43
0.00000001
 40
0.0
 40
0.0
 40
0.0
 40
0.0
 40
0.0252931173341004
 40
0.3422028258943801
 40
0.659600062128348
 40
1.0
 40
1.0
 40
1.0
 40
1.0
 10
339.8144452531001
 20
152.2023571824465
 30
0.0
 10
339.8012704162272
 20
152.2056653660883
 30
0.0
 10
339.6230216717536
 20
152.2504233836881
 30
0.0
 10
339.3362151079845
 20
152.6359420069995
 30
0.0
 10
338.9984501015858
 20
153.3229167570021
 30
0.0
 10
338.8965934533367
 20
153.9419385308376
 30
0.0
 10
338.8438842017608
 20
154.2622727944216
 30
0.0
  0
LINE
  5
464
330
1F
100
AcDbEntity
  8
0
  6
Continuous
 62
     7
370
    15
100
AcDbLine
 10
352.5844002095
 20
150.2099704562
 30
0.0
 11
351.1285053779
 21
149.7757664356
 31
0.0
  0
ARC
  5
465
330
1F
100
AcDbEntity
  8
0
  6
Continuous
 62
     7
370
    15
100
AcDbCircle
 10
349.5518698608
 20
148.2090667436
 30
0.0
 40
2.22268474565592
100
AcDbArc
 50
44.8188933373
 51
121.0827262295
  0
ARC
  5
466
330
1F
100
AcDbEntity
  8
0
  6
Continuous
 62
     7
370
    15
100
AcDbCircle
 10
352.0414334173
 20
150.856419702
 30
0.0
 40
1.414655112559842
100
AcDbArc
 50
229.8091188386
 51
306.4282455132
  0
LWPOLYLINE
  5
467
330
1F
100
AcDbEntity
  8
0
  6
Continuous
 62
     7
370
    15
100
AcDbPolyline
 90
       50
 70
   128
 43
0.0
 10
388.6784137275
 20
149.8744478672
 10
389.6278532135
 20
150.3521578336
 10
390.5617029293
 20
150.6812442513
 10
391.4646290886
 20
150.8563035303
 10
392.3218056686
 20
150.8744612021
 10
393.1191578536
 20
150.7354191182
 10
393.8435931429
 20
150.4414603459
 10
394.483216329
 20
149.9974116799
 10
395.0275248169
 20
149.4105643873
 10
395.4675810762
 20
148.6905544842
 10
395.7961593953
 20
147.8492045134
 10
396.0078645274
 20
146.9003294181
 10
396.0992202799
 20
145.8595097012
 10
396.068726594
 20
144.7438355936
 10
395.9168841752
 20
143.5716264333
 10
395.6461862717
 20
142.3621298625
 10
395.2610777357
 20
141.1352057812
 10
394.7678820387
 20
139.911000249
 10
394.1746974403
 20
138.7096146869
 10
393.4912640154
 20
137.5507758126
 10
392.7288037218
 20
136.4535117284
 10
391.8998361364
 20
135.4358394802
 10
391.0179728842
 20
134.5144692182
 10
390.0976941352
 20
133.7045298166
 10
389.1541108413
 20
133.0193204581
 10
388.2027166138
 20
132.4700922612
 10
387.2591333199
 20
132.0658635379
 10
386.3388545709
 20
131.8132717126
 10
385.4569913187
 20
131.7164643361
 10
384.6280237333
 20
131.7770309828
 10
383.8655634397
 20
131.9939771501
 10
383.1821300147
 20
132.3637405878
 10
382.5889454164
 20
132.8802497907
 10
382.0957497194
 20
133.5350236917
 10
381.7106411834
 20
134.3173109217
 10
381.4399432799
 20
135.2142663459
 10
381.2881008611
 20
136.211161981
 10
381.2576071752
 20
137.2916288283
 10
381.3489629277
 20
138.4379256519
 10
381.5606680598
 20
139.6312302899
 10
381.8892463789
 20
140.8519487129
 10
382.3293026382
 20
142.0800367582
 10
382.8736111261
 20
143.2953292541
 10
383.5132343122
 20
144.4778711314
 10
384.2376696014
 20
145.6082450852
 10
385.0350217865
 20
146.6678904063
 10
385.8921983665
 20
147.639407748
 10
386.7951245257
 20
148.5068448223
 10
387.7289742416
 20
149.2559583364
 10
388.6784137275
 20
149.8744478672
  0
SPLINE
  5
468
330
1F
100
AcDbEntity
  8
0
  6
Continuous
 62
     7
370
    15
100
AcDbSpline
210
0.0
220
0.0
230
1.0
 70
     8
 71
     3
 72
    12
 73
     8
 74
     0
 42
0.000000001
 43
0.00000001
 40
0.0
 40
0.0
 40
0.0
 40
0.0
 40
0.2523425790010253
 40
0.5058462538030665
 40
0.7379970426370737
 40
0.9690912189386457
 40
1.0
 40
1.0
 40
1.0
 40
1.0
 10
379.3874706937552
 20
143.8036499037062
 30
0.0
 10
379.5501502939523
 20
143.3430047452722
 30
0.0
 10
379.8762580267638
 20
142.4195948766372
 30
0.0
 10
379.7024640500078
 20
140.9112651638388
 30
0.0
 10
379.0233979120347
 20
139.5766275859278
 30
0.0
 10
378.283948021523
 20
138.8137798569088
 30
0.0
 10
377.8434137756039
 20
138.4730081251889
 30
0.0
 10
377.7914434593365
 20
138.4328069039751
 30
0.0
  0
SPLINE
  5
469
330
1F
100
AcDbEntity
  8
0
  6
Continuous
 62
     7
370
    15
100
AcDbSpline
210
0.0
220
0.0
230
1.0
 70
     8
 71
     3
 72
    13
 73
     9
 74
     0
 42
0.000000001
 43
0.00000001
 40
0.0
 40
0.0
 40
0.0
 40
0.0
 40
0.1735322077433413
 40
0.3474803110675799
 40
0.5125459321891221
 40
0.6710335034925649
 40
0.829764888964078
 40
1.0
 40
1.0
 40
1.0
 40
1.0
 10
381.8660603476789
 20
148.0966931028206
 30
0.0
 10
381.5579910701478
 20
148.0319010687333
 30
0.0
 10
380.9411141815347
 20
147.902161716874
 30
0.0
 10
380.1211058980262
 20
147.3122433714286
 30
0.0
 10
379.5140768161533
 20
146.5185665647672
 30
0.0
 10
379.1794759182916
 20
145.6136213847489
 30
0.0
 10
379.1040712502449
 20
144.6633401377524
 30
0.0
 10
379.2908273035808
 20
144.0968169533268
 30
0.0
 10
379.3874706937552
 20
143.8036499037062
 30
0.0
  0
SPLINE
  5
46A
330
1F
100
AcDbEntity
  8
0
  6
Continuous
 62
     7
370
    15
100
AcDbSpline
210
0.0
220
0.0
230
1.0
 70
     8
 71
     3
 72
    12
 73
     8
 74
     0
 42
0.000000001
 43
0.00000001
 40
0.0
 40
0.0
 40
0.0
 40
0.0
 40
0.2523388541794064
 40
0.5058431516690078
 40
0.7379942180549666
 40
0.9690881654589664
 40
1.0
 40
1.0
 40
1.0
 40
1.0
 10
385.7192109429312
 20
152.1641029358539
 30
0.0
 10
385.6132535387719
 20
151.6347103781025
 30
0.0
 10
385.4008493593327
 20
150.5734802288496
 30
0.0
 10
384.5304447852294
 20
149.27215613922
 30
0.0
 10
383.3563715091764
 20
148.426489594427
 30
0.0
 10
382.4217691670873
 20
148.1546193746954
 30
0.0
 10
381.9247047518107
 20
148.1028061094511
 30
0.0
 10
381.8660603476789
 20
148.0966931028206
 30
0.0
  0
SPLINE
  5
46B
330
1F
100
AcDbEntity
  8
0
  6
Continuous
 62
     7
370
    15
100
AcDbSpline
210
0.0
220
0.0
230
1.0
 70
     8
 71
     3
 72
    13
 73
     9
 74
     0
 42
0.000000001
 43
0.00000001
 40
0.0
 40
0.0
 40
0.0
 40
0.0
 40
0.1735274932632315
 40
0.3474759845328536
 40
0.512541865558858
 40
0.6710295171733968
 40
0.8297608130563451
 40
1.0
 40
1.0
 40
1.0
 40
1.0
 10
389.2244660470676
 20
154.1876436352009
 30
0.0
 10
388.9997086069718
 20
154.3529440877219
 30
0.0
 10
388.5496484389272
 20
154.6839460310066
 30
0.0
 10
387.768176390559
 20
154.7576504508116
 30
0.0
 10
387.0271474327712
 20
154.4927983439211
 30
0.0
 10
386.4056561198721
 20
153.9283183352297
 30
0.0
 10
385.9259825976029
 20
153.1334797760961
 30
0.0
 10
385.7897236763694
 20
152.4946773119488
 30
0.0
 10
385.7192109429312
 20
152.1641029358539
 30
0.0
  0
SPLINE
  5
46C
330
1F
100
AcDbEntity
  8
0
  6
Continuous
 62
     7
370
    15
100
AcDbSpline
210
0.0
220
0.0
230
1.0
 70
     8
 71
     3
 72
    12
 73
     8
 74
     0
 42
0.000000001
 43
0.00000001
 40
0.0
 40
0.0
 40
0.0
 40
0.0
 40
0.2523425790008751
 40
0.5058462538027579
 40
0.7379970426366428
 40
0.9690912189381221
 40
1.0
 40
1.0
 40
1.0
 40
1.0
 10
393.0776166423198
 20
154.5689867850702
 30
0.0
 10
392.8345618492652
 20
154.2408400990097
 30
0.0
 10
392.3473339029458
 20
153.5830368360855
 30
0.0
 10
391.357345143495
 20
153.2122408784138
 30
0.0
 10
390.307649293751
 20
153.3904029719814
 30
0.0
 10
389.604694199284
 20
153.8384464112175
 30
0.0
 10
389.2645886750428
 20
154.1507954685773
 30
0.0
 10
389.2244660470676
 20
154.1876436352009
 30
0.0
  0
SPLINE
  5
46D
330
1F
100
AcDbEntity
  8
0
  6
Continuous
 62
     7
370
    15
100
AcDbSpline
210
0.0
220
0.0
230
1.0
 70
     8
 71
     3
 72
    19
 73
    15
 74
     0
 42
0.000000001
 43
0.00000001
 40
0.0
 40
0.0
 40
0.0
 40
0.0
 40
0.0855769788512134
 40
0.1735073385622209
 40
0.2591427523958181
 40
0.3475259764593429
 40
0.4288050836113044
 40
0.5126419224607534
 40
0.5907519850988319
 40
0.671126315628063
 40
0.749415577728991
 40
0.8298119002537753
 40
0.9137671715589207
 40
1.0
 40
1.0
 40
1.0
 40
1.0
 10
395.5562062962465
 20
153.1376622869843
 30
0.0
 10
395.5332034696368
 20
153.299655337709
 30
0.0
 10
395.4865652349384
 20
153.6280962744437
 30
0.0
 10
395.3664113303977
 20
154.0778108061249
 30
0.0
 10
395.2077945670424
 20
154.4835112175737
 30
0.0
 10
395.0156310972926
 20
154.8155858255937
 30
0.0
 10
394.7939977890335
 20
155.0719176402024
 30
0.0
 10
394.5577935265924
 20
155.240937997651
 30
0.0
 10
394.306792215999
 20
155.3285705434254
 30
0.0
 10
394.0536233836469
 20
155.3350625586156
 30
0.0
 10
393.7977286933258
 20
155.2630692606469
 30
0.0
 10
393.5457919291472
 20
155.1127645510456
 30
0.0
 10
393.2988533379928
 20
154.8867909955658
 30
0.0
 10
393.1520172232619
 20
154.6758624451626
 30
0.0
 10
393.0776166423198
 20
154.5689867850702
 30
0.0
  0
SPLINE
  5
46E
330
1F
100
AcDbEntity
  8
0
  6
Continuous
 62
     7
370
    15
100
AcDbSpline
210
0.0
220
0.0
230
1.0
 70
     8
 71
     3
 72
    12
 73
     8
 74
     0
 42
0.000000001
 43
0.00000001
 40
0.0
 40
0.0
 40
0.0
 40
0.0
 40
0.2523388541795027
 40
0.5058431516692045
 40
0.7379942180552629
 40
0.9690881654593615
 40
1.0
 40
1.0
 40
1.0
 40
1.0
 10
397.1522335306652
 20
149.6095531084207
 30
0.0
 10
396.9839384183666
 20
149.6347763644638
 30
0.0
 10
396.646570911914
 20
149.6853393717884
 30
0.0
 10
396.1840991799007
 20
150.4234927187249
 30
0.0
 10
395.805310203828
 20
151.5605770794372
 30
0.0
 10
395.6250915878763
 20
152.5357447124734
 30
0.0
 10
395.5634758171537
 20
153.0741414353072
 30
0.0
 10
395.5562062962465
 20
153.1376622869843
 30
0.0
  0
SPLINE
  5
46F
330
1F
100
AcDbEntity
  8
0
  6
Continuous
 62
     7
370
    15
100
AcDbSpline
210
0.0
220
0.0
230
1.0
 70
     8
 71
     3
 72
    13
 73
     9
 74
     0
 42
0.000000001
 43
0.00000001
 40
0.0
 40
0.0
 40
0.0
 40
0.0
 40
0.1735274932638162
 40
0.3474759845333025
 40
0.5125418655591782
 40
0.6710295171735886
 40
0.8297608130564005
 40
1.0
 40
1.0
 40
1.0
 40
1.0
 10
397.1522335306652
 20
145.5618138917245
 30
0.0
 10
397.2554341141369
 20
145.8809176240037
 30
0.0
 10
397.4620856577729
 20
146.5198992715597
 30
0.0
 10
397.6560025024611
 20
147.5342357075816
 30
0.0
 10
397.7163432509645
 20
148.424774991278
 30
0.0
 10
397.6401386463393
 20
149.0984678035425
 30
0.0
 10
397.4494180628701
 20
149.5423006248709
 30
0.0
 10
397.2535786291247
 20
149.5866188408919
 30
0.0
 10
397.1522335306652
 20
149.6095531084207
 30
0.0
  0
SPLINE
  5
470
330
1F
100
AcDbEntity
  8
0
  6
Continuous
 62
     7
370
    15
100
AcDbSpline
210
0.0
220
0.0
230
1.0
 70
     8
 71
     3
 72
    12
 73
     8
 74
     0
 42
0.000000001
 43
0.00000001
 40
0.0
 40
0.0
 40
0.0
 40
0.0
 40
0.2529409289825462
 40
0.5070337664678943
 40
0.7400835263100489
 40
0.9726927897603378
 40
1.0
 40
1.0
 40
1.0
 40
1.0
 10
395.5598789300896
 20
140.2093536832065
 30
0.0
 10
395.6353191910894
 20
140.5345541717445
 30
0.0
 10
395.7865432726639
 20
141.186436131789
 30
0.0
 10
396.1902889030252
 20
142.5632575342247
 30
0.0
 10
396.6359886207479
 20
144.0317476779478
 30
0.0
 10
396.9610783610981
 20
145.0235586829692
 30
0.0
 10
397.1340598399293
 20
145.5106403674977
 30
0.0
 10
397.1522335306652
 20
145.5618138917245
 30
0.0
  0
SPLINE
  5
471
330
1F
100
AcDbEntity
  8
0
  6
Continuous
 62
     7
370
    15
100
AcDbSpline
210
0.0
220
0.0
230
1.0
 70
     8
 71
     3
 72
    19
 73
    15
 74
     0
 42
0.000000001
 43
0.00000001
 40
0.0
 40
0.0
 40
0.0
 40
0.0
 40
0.0848194393149629
 40
0.1719710587643857
 40
0.2568487638895643
 40
0.344453719781381
 40
0.424954220145881
 40
0.5079937877788814
 40
0.5852639676497333
 40
0.6647792938729019
 40
0.7421348862892287
 40
0.8215762606479925
 40
0.9094442829817808
 40
1.0
 40
1.0
 40
1.0
 40
1.0
 10
393.0635348928116
 20
135.8855589901592
 30
0.0
 10
393.1369064053264
 20
135.9535493330967
 30
0.0
 10
393.2856668403424
 20
136.0913994692819
 30
0.0
 10
393.5408535108193
 20
136.3748820875558
 30
0.0
 10
393.8137401186468
 20
136.713292689395
 30
0.0
 10
394.0883993300807
 20
137.0919162208533
 30
0.0
 10
394.35904280196
 20
137.5027200488859
 30
0.0
 10
394.6086778064767
 20
137.9186338312876
 30
0.0
 10
394.8395070610122
 20
138.3412073142907
 30
0.0
 10
395.0418915426711
 20
138.7501456074801
 30
0.0
 10
395.2181215313591
 20
139.1475297988916
 30
0.0
 10
395.3673141437414
 20
139.5310428613144
 30
0.0
 10
395.488705554963
 20
139.8988307782198
 30
0.0
 10
395.5359174123434
 20
140.1048117799284
 30
0.0
 10
395.5598789300896
 20
140.2093536832064
 30
0.0
  0
SPLINE
  5
472
330
1F
100
AcDbEntity
  8
0
  6
Continuous
 62
     7
370
    15
100
AcDbSpline
210
0.0
220
0.0
230
1.0
 70
     8
 71
     3
 72
    11
 73
     7
 74
     0
 42
0.000000001
 43
0.00000001
 40
0.0
 40
0.0
 40
0.0
 40
0.0
 40
0.2543692972481067
 40
0.5099015709742162
 40
0.7442712505501877
 40
0.9999999999999999
 40
0.9999999999999999
 40
0.9999999999999999
 40
0.9999999999999999
 10
389.2452276464553
 20
131.8549300138315
 30
0.0
 10
389.5885349181949
 20
132.2469868875076
 30
0.0
 10
390.276719062589
 20
133.0328931189649
 30
0.0
 10
391.3691855697206
 20
134.192184455837
 30
0.0
 10
392.347309166914
 20
135.216570925178
 30
0.0
 10
392.8179558706286
 20
135.6561767871612
 30
0.0
 10
393.0635348928116
 20
135.8855589901592
 30
0.0
  0
SPLINE
  5
473
330
1F
100
AcDbEntity
  8
0
  6
Continuous
 62
     7
370
    15
100
AcDbSpline
210
0.0
220
0.0
230
1.0
 70
     8
 71
     3
 72
    13
 73
     9
 74
     0
 42
0.000000001
 43
0.00000001
 40
0.0
 40
0.0
 40
0.0
 40
0.0
 40
0.1720043241260366
 40
0.3444293901826451
 40
0.5079306177206041
 40
0.6647297837317665
 40
0.8215827403429473
 40
1.0
 40
1.0
 40
1.0
 40
1.0
 10
385.7148640525876
 20
129.8168944918975
 30
0.0
 10
385.784712003379
 20
129.7369565918877
 30
0.0
 10
385.9245787609088
 20
129.5768852547701
 30
0.0
 10
386.4402551152969
 20
129.645919803897
 30
0.0
 10
387.0978384288363
 20
129.9511765247562
 30
0.0
 10
387.8204596490827
 20
130.4522043748002
 30
0.0
 10
388.5746226343013
 20
131.1089118500441
 30
0.0
 10
389.0123087722599
 20
131.5958181555999
 30
0.0
 10
389.2452276464553
 20
131.8549300138315
 30
0.0
  0
SPLINE
  5
474
330
1F
100
AcDbEntity
  8
0
  6
Continuous
 62
     7
370
    15
100
AcDbSpline
210
0.0
220
0.0
230
1.0
 70
     8
 71
     3
 72
    11
 73
     7
 74
     0
 42
0.000000001
 43
0.00000001
 40
0.0
 40
0.0
 40
0.0
 40
0.0
 40
0.2543731898028522
 40
0.5099048107121195
 40
0.744274198981153
 40
1.0
 40
1.0
 40
1.0
 40
1.0
 10
381.8965568062313
 20
129.4389997596479
 30
0.0
 10
382.3754106313453
 20
129.6283534934674
 30
0.0
 10
383.3352990112597
 20
130.0079232896228
 30
0.0
 10
384.5399324895764
 20
130.2369732534575
 30
0.0
 10
385.3959689191328
 20
130.2015292364897
 30
0.0
 10
385.6055218451361
 20
129.9487773826165
 30
0.0
 10
385.7148640525876
 20
129.8168944918975
 30
0.0
  0
SPLINE
  5
475
330
1F
100
AcDbEntity
  8
0
  6
Continuous
 62
     7
370
    15
100
AcDbSpline
210
0.0
220
0.0
230
1.0
 70
     8
 71
     3
 72
    13
 73
     9
 74
     0
 42
0.000000001
 43
0.00000001
 40
0.0
 40
0.0
 40
0.0
 40
0.0
 40
0.1720087238365711
 40
0.3444334232908553
 40
0.5079344031875613
 40
0.6647334886924855
 40
0.8215865234924862
 40
1.0
 40
1.0
 40
1.0
 40
1.0
 10
379.4002127689532
 20
130.880576976978
 30
0.0
 10
379.2989236334681
 20
130.6431717518544
 30
0.0
 10
379.0961004109062
 20
130.167787174999
 30
0.0
 10
379.1875282823127
 20
129.5740765355221
 30
0.0
 10
379.5639057609832
 20
129.1812242657724
 30
0.0
 10
380.1748188432354
 20
129.0263967418325
 30
0.0
 10
380.97291146581
 20
129.0896926630646
 30
0.0
 10
381.5757524530279
 20
129.3176769615081
 30
0.0
 10
381.8965568062313
 20
129.4389997596479
 30
0.0
  0
SPLINE
  5
476
330
1F
100
AcDbEntity
  8
0
  6
Continuous
 62
     7
370
    15
100
AcDbSpline
210
0.0
220
0.0
230
1.0
 70
     8
 71
     3
 72
    11
 73
     7
 74
     0
 42
0.000000001
 43
0.00000001
 40
0.0
 40
0.0
 40
0.0
 40
0.0
 40
0.2537719365525904
 40
0.5087159351989553
 40
0.7421854335094625
 40
1.0
 40
1.0
 40
1.0
 40
1.0
 10
377.7914434593363
 20
134.385067687279
 30
0.0
 10
378.1973696286458
 20
134.2228784417976
 30
0.0
 10
379.0110967635185
 20
133.8977508693201
 30
0.0
 10
379.6965323707076
 20
133.0277232139543
 30
0.0
 10
379.870055353599
 20
131.9881875873691
 30
0.0
 10
379.5619167919206
 20
131.2617793146007
 30
0.0
 10
379.4002127689532
 20
130.880576976978
 30
0.0
  0
SPLINE
  5
477
330
1F
100
AcDbEntity
  8
0
  6
Continuous
 62
     7
370
    15
100
AcDbSpline
210
0.0
220
0.0
230
1.0
 70
     8
 71
     3
 72
    13
 73
     9
 74
     0
 42
0.000000001
 43
0.00000001
 40
0.0
 40
0.0
 40
0.0
 40
0.0
 40
0.17352749326382
 40
0.3474759845333073
 40
0.5125418655591855
 40
0.6710295171735982
 40
0.8297608130564139
 40
1.0
 40
1.0
 40
1.0
 40
1.0
 10
377.7914434593365
 20
138.4328069039751
 30
0.0
 10
377.5359239888077
 20
138.2016349935124
 30
0.0
 10
377.0242651276125
 20
137.7387303224795
 30
0.0
 10
376.5697449855595
 20
136.8748369677554
 30
0.0
 10
376.4286403863405
 20
136.0309216626577
 30
0.0
 10
376.6067810606276
 20
135.2983824099591
 30
0.0
 10
377.05531732306
 20
134.7057157651823
 30
0.0
 10
377.5404116333996
 20
134.4944142632426
 30
0.0
 10
377.7914434593363
 20
134.385067687279
 30
0.0
  0
LINE
  5
478
330
1F
100
AcDbEntity
  8
0
  6
Continuous
 62
     7
370
    15
100
AcDbLine
 10
379.3874706938
 20
143.8036499037
 30
0.0
 11
373.4345897668
 21
147.2401749144
 31
0.0
  0
ARC
  5
479
330
1F
100
AcDbEntity
  8
0
  6
Continuous
 62
     7
370
    15
100
AcDbCircle
 10
377.7479676881
 20
147.6118738067
 30
0.0
 40
4.32936359737229
100
AcDbArc
 50
115.074789014
 51
184.9252108404
  0
LINE
  5
47A
330
1F
100
AcDbEntity
  8
0
  6
Continuous
 62
     7
370
    15
100
AcDbLine
 10
381.8660603477
 20
148.0966931028
 30
0.0
 11
375.9131794207
 21
151.5332181135
 31
0.0
  0
LINE
  5
47B
330
1F
100
AcDbEntity
  8
0
  6
Continuous
 62
     7
370
    15
100
AcDbLine
 10
377.7914434593
 20
138.432806904
 30
0.0
 11
371.8385625324
 21
141.8693319146
 31
0.0
  0
ARC
  5
47C
330
1F
100
AcDbEntity
  8
0
  6
Continuous
 62
     7
370
    15
100
AcDbCircle
 10
366.1753568675
 20
146.4748024538
 30
0.0
 40
7.299469658075162
100
AcDbArc
 50
320.8810670043
 51
6.0187065533
  0
ARC
  5
47D
330
1F
100
AcDbEntity
  8
0
  6
Continuous
 62
     7
370
    15
100
AcDbCircle
 10
372.9470548845
 20
158.2018897658
 30
0.0
 40
7.298566734024471
100
AcDbArc
 50
293.9787765776
 51
339.1202861927
  0
LINE
  5
47E
330
1F
100
AcDbEntity
  8
0
  6
Continuous
 62
     7
370
    15
100
AcDbLine
 10
385.7192109429
 20
152.1641029359
 30
0.0
 11
379.766330016
 21
155.6006279465
 31
0.0
  0
LWPOLYLINE
  5
47F
330
1F
100
AcDbEntity
  8
0
  6
Continuous
 62
     7
370
    15
100
AcDbPolyline
 90
        9
 70
   128
 43
0.0
 10
371.8385625324
 20
141.8693319146
 10
371.4518508449
 20
141.2544132516
 10
371.1581470787
 20
140.5972173791
 10
370.9747203824
 20
139.9363859982
 10
370.9123558502
 20
139.3107745698
 10
370.9747203824
 20
138.7571676976
 10
371.1581470787
 20
138.3081162724
 10
371.4518508449
 20
137.9900235504
 10
371.5337980948
 20
137.9372401504
  0
LWPOLYLINE
  5
480
330
1F
100
AcDbEntity
  8
0
  6
Continuous
 62
     7
370
    15
100
AcDbPolyline
 90
        9
 70
   128
 43
0.0
 10
383.018835667
 20
157.8304717383
 10
382.9324032039
 20
157.8749234768
 10
382.5101137306
 20
157.9702992216
 10
382.0295464111
 20
157.9046879919
 10
381.518957568
 20
157.6819475868
 10
381.008368725
 20
157.3151746619
 10
380.5278014055
 20
156.8259346748
 10
380.1055119322
 20
156.2429938822
 10
379.766330016
 20
155.6006279465
  0
ARC
  5
481
330
1F
100
AcDbEntity
  8
0
  6
Continuous
 62
     7
370
    15
100
AcDbCircle
 10
376.2520031897
 20
148.4755094486
 30
0.0
 40
2.856763896093197
100
AcDbArc
 50
122.35311204
 51
177.6522644927
  0
LINE
  5
482
330
1F
100
AcDbEntity
  8
0
  6
Continuous
 62
     7
370
    15
100
AcDbLine
 10
371.4866154822
 20
141.8220111314
 30
0.0
 11
371.8385625324
 21
141.8693319146
 31
0.0
  0
ARC
  5
483
330
1F
100
AcDbEntity
  8
0
  6
Continuous
 62
     7
370
    15
100
AcDbCircle
 10
363.8362937937
 20
147.7887004893
 30
0.0
 40
9.701999991329327
100
AcDbArc
 50
322.0483840539
 51
354.4047120756
  0
LINE
  5
484
330
1F
100
AcDbEntity
  8
0
  6
Continuous
 62
     7
370
    15
100
AcDbLine
 10
379.6312345899
 20
155.9289051928
 30
0.0
 11
379.766330016
 21
155.6006279465
 31
0.0
  0
ARC
  5
485
330
1F
100
AcDbEntity
  8
0
  6
Continuous
 62
     7
370
    15
100
AcDbCircle
 10
370.4208372265
 20
159.7426714098
 30
0.0
 40
9.968762829390217
100
AcDbArc
 50
306.0451290953
 51
337.506931102
  0
LINE
  5
486
330
1F
100
AcDbEntity
  8
0
  6
Continuous
 62
     7
370
    15
100
AcDbLine
 10
379.400212769
 20
130.880576977
 30
0.0
 11
373.4391244875
 21
134.3218399925
 31
0.0
  0
ARC
  5
487
330
1F
100
AcDbEntity
  8
0
  6
Continuous
 62
     7
370
    15
100
AcDbCircle
 10
369.736116596
 20
135.1447810952
 30
0.0
 40
3.793349377884983
100
AcDbArc
 50
347.4704482774
 51
30.985108254
  0
ARC
  5
488
330
1F
100
AcDbEntity
  8
0
  6
Continuous
 62
     7
370
    15
100
AcDbCircle
 10
384.5711239211
 20
160.7045693756
 30
0.0
 40
3.715621753519949
100
AcDbArc
 50
268.5079212117
 51
313.4138920193
  0
LINE
  5
489
330
1F
100
AcDbEntity
  8
0
  6
Continuous
 62
     7
370
    15
100
AcDbLine
 10
393.0776166423
 20
154.5689867851
 30
0.0
 11
387.1247357153
 21
158.0055117957
 31
0.0
  0
ARC
  5
48A
330
1F
100
AcDbEntity
  8
0
  6
Continuous
 62
     7
370
    15
100
AcDbCircle
 10
373.7466103479
 20
140.1072826321
 30
0.0
 40
2.836876913010583
100
AcDbArc
 50
142.8112767581
 51
177.536221951
  0
ARC
  5
48B
330
1F
100
AcDbEntity
  8
0
  6
Continuous
 62
     7
370
    15
100
AcDbCircle
 10
382.2461037454
 20
154.8291300239
 30
0.0
 40
2.836731591542869
100
AcDbArc
 50
122.4684420445
 51
157.1891002708
  0
LWPOLYLINE
  5
48C
330
1F
100
AcDbEntity
  8
0
  6
Continuous
 62
     7
370
    15
100
AcDbPolyline
 90
        6
 70
   128
 43
0.0
 10
373.4391244875
 20
134.3218399925
 10
373.4002835557
 20
133.700640761
 10
373.488764866
 20
133.1600226377
 10
373.6992511122
 20
132.7324742033
 10
374.0190930708
 20
132.4436890875
 10
374.0192149608
 20
132.4436187105
  0
ARC
  5
48D
330
1F
100
AcDbEntity
  8
0
  6
Continuous
 62
     7
370
    15
100
AcDbCircle
 10
388.3863991606
 20
156.7919171861
 30
0.0
 40
1.7506017609862
100
AcDbArc
 50
68.8219074803
 51
136.1125285537
  0
LINE
  5
48E
330
1F
100
AcDbEntity
  8
0
  6
Continuous
 62
     7
370
    15
100
AcDbLine
 10
373.4391244875
 20
134.3218399925
 30
0.0
 11
373.423637226
 21
135.0509779131
 31
0.0
  0
LINE
  5
48F
330
1F
100
AcDbEntity
  8
0
  6
Continuous
 62
     7
370
    15
100
AcDbLine
 10
373.423637226
 20
135.0509779131
 30
0.0
 11
373.4920678488
 21
135.631083433
 31
0.0
  0
LINE
  5
490
330
1F
100
AcDbEntity
  8
0
  6
Continuous
 62
     7
370
    15
100
AcDbLine
 10
386.4825778404
 20
157.6518426534
 30
0.0
 11
387.1247357153
 21
158.0055117957
 31
0.0
  0
LINE
  5
491
330
1F
100
AcDbEntity
  8
0
  6
Continuous
 62
     7
370
    15
100
AcDbLine
 10
385.9957375475
 20
157.287310506
 30
0.0
 11
386.4825778404
 21
157.6518426534
 31
0.0
  0
ARC
  5
492
330
1F
100
AcDbEntity
  8
0
  6
Continuous
 62
     7
370
    15
100
AcDbCircle
 10
377.0591893527
 20
151.3350075295
 30
0.0
 40
2.753569181569994
100
AcDbArc
 50
64.7808901013
 51
126.5295683278
  0
LWPOLYLINE
  5
493
330
1F
100
AcDbEntity
  8
0
  6
Continuous
 62
     7
370
    15
100
AcDbPolyline
 90
       15
 70
   128
 43
0.0
 10
372.6078901448
 20
144.0830705398
 10
372.3732384654
 20
144.2432935855
 10
371.9755666295
 20
144.6695520191
 10
371.6825570681
 20
145.2260093272
 10
371.5031127285
 20
145.8957578361
 10
371.4426859361
 20
146.6584475762
 10
371.5031127285
 20
147.4909046058
 10
371.6825570681
 20
148.3678351392
 10
371.9755666295
 20
149.262594086
 10
372.3732384654
 20
150.1479946482
 10
372.8634895184
 20
150.9971343779
 10
373.4314237582
 20
151.784212594
 10
374.0597847904
 20
152.4853143233
 10
374.729480183
 20
153.0791369444
 10
375.4201615803
 20
153.5476374576
  0
LINE
  5
494
330
1F
100
AcDbEntity
  8
0
  6
Continuous
 62
     7
370
    15
100
AcDbLine
 10
373.3978288543
 20
134.7354881772
 30
0.0
 11
373.423637226
 21
135.0509779131
 31
0.0
  0
LINE
  5
495
330
1F
100
AcDbEntity
  8
0
  6
Continuous
 62
     7
370
    15
100
AcDbLine
 10
386.4825778404
 20
157.6518426534
 30
0.0
 11
386.7232469553
 21
157.8162593922
 31
0.0
  0
ARC
  5
496
330
1F
100
AcDbEntity
  8
0
  6
Continuous
 62
     7
370
    15
100
AcDbCircle
 10
369.1036828414
 20
150.1880256188
 30
0.0
 40
4.685276590799915
100
AcDbArc
 50
184.7083641226
 51
189.9862137924
  0
LINE
  5
497
330
1F
100
AcDbEntity
  8
0
  6
Continuous
 62
     7
370
    15
100
AcDbLine
 10
363.9553744151
 20
149.5232464559
 30
0.0
 11
364.4342171161
 21
149.8034393828
 31
0.0
  0
LINE
  5
498
330
1F
100
AcDbEntity
  8
0
  6
Continuous
 62
     7
370
    15
100
AcDbLine
 10
363.4108449972
 20
149.4802061095
 30
0.0
 11
363.9553744151
 21
149.5232464559
 31
0.0
  0
ARC
  5
499
330
1F
100
AcDbEntity
  8
0
  6
Continuous
 62
     7
370
    15
100
AcDbCircle
 10
370.5124320201
 20
149.6747819214
 30
0.0
 40
7.104252106364059
100
AcDbArc
 50
179.1081508996
 51
181.5694498062
  0
LINE
  5
49A
330
1F
100
AcDbEntity
  8
0
  6
Continuous
 62
     7
370
    15
100
AcDbLine
 10
363.9503219488
 20
150.3776777299
 30
0.0
 11
363.4090405449
 21
149.7853601359
 31
0.0
  0
LINE
  5
49B
330
1F
100
AcDbEntity
  8
0
  6
Continuous
 62
     7
370
    15
100
AcDbLine
 10
363.9503219488
 20
150.3776777299
 30
0.0
 11
364.4291646499
 21
150.6578706568
 31
0.0
  0
ARC
  5
49C
330
1F
100
AcDbEntity
  8
0
  6
Continuous
 62
     7
370
    15
100
AcDbCircle
 10
371.3531105901
 20
150.2010317704
 30
0.0
 40
6.939000587360524
100
AcDbArc
 50
172.1633518861
 51
176.225121229
  0
LINE
  5
49D
330
1F
100
AcDbEntity
  8
0
  6
Continuous
 62
     7
370
    15
100
AcDbLine
 10
364.0155445874
 20
151.0191408405
 30
0.0
 11
364.4789145087
 21
151.1471593442
 31
0.0
  0
LINE
  5
49E
330
1F
100
AcDbEntity
  8
0
  6
Continuous
 62
     7
370
    15
100
AcDbLine
 10
363.5503786923
 20
151.1754174792
 30
0.0
 11
364.0155445874
 21
151.0191408405
 31
0.0
  0
ARC
  5
49F
330
1F
100
AcDbEntity
  8
0
  6
Continuous
 62
     7
370
    15
100
AcDbCircle
 10
373.3481794876
 20
149.3928460058
 30
0.0
 40
9.958637531366746
100
AcDbArc
 50
167.7235958944
 51
169.6886260585
  0
LINE
  5
4A0
330
1F
100
AcDbEntity
  8
0
  6
Continuous
 62
     7
370
    15
100
AcDbLine
 10
364.2028231673
 20
151.9568990936
 30
0.0
 11
363.6172638994
 21
151.5103311411
 31
0.0
  0
LINE
  5
4A1
330
1F
100
AcDbEntity
  8
0
  6
Continuous
 62
     7
370
    15
100
AcDbLine
 10
364.2028231673
 20
151.9568990936
 30
0.0
 11
364.6661930887
 21
152.0849175973
 31
0.0
  0
ARC
  5
4A2
330
1F
100
AcDbEntity
  8
0
  6
Continuous
 62
     7
370
    15
100
AcDbCircle
 10
373.5047326372
 20
149.7811035945
 30
0.0
 40
9.133856814631102
100
AcDbArc
 50
162.0089902663
 51
165.390609807
  0
LINE
  5
4A3
330
1F
100
AcDbEntity
  8
0
  6
Continuous
 62
     7
370
    15
100
AcDbLine
 10
364.401156574
 20
152.6351376628
 30
0.0
 11
364.8174758212
 21
152.6022574939
 31
0.0
  0
LINE
  5
4A4
330
1F
100
AcDbEntity
  8
0
  6
Continuous
 62
     7
370
    15
100
AcDbLine
 10
364.0470544888
 20
152.980081292
 30
0.0
 11
364.401156574
 21
152.6351376628
 31
0.0
  0
ARC
  5
4A5
330
1F
100
AcDbEntity
  8
0
  6
Continuous
 62
     7
370
    15
100
AcDbCircle
 10
375.5649838239
 20
148.7617673701
 30
0.0
 40
12.26608611222415
100
AcDbArc
 50
158.1751778675
 51
159.8853034968
  0
LINE
  5
4A6
330
1F
100
AcDbEntity
  8
0
  6
Continuous
 62
     7
370
    15
100
AcDbLine
 10
364.7680034744
 20
153.5923162198
 30
0.0
 11
364.1780712389
 21
153.3219307767
 31
0.0
  0
LINE
  5
4A7
330
1F
100
AcDbEntity
  8
0
  6
Continuous
 62
     7
370
    15
100
AcDbLine
 10
364.7680034744
 20
153.5923162198
 30
0.0
 11
365.1843227216
 21
153.5594360509
 31
0.0
  0
ARC
  5
4A8
330
1F
100
AcDbEntity
  8
0
  6
Continuous
 62
     7
370
    15
100
AcDbCircle
 10
374.7952370125
 20
149.3033485723
 30
0.0
 40
10.51113476898411
100
AcDbArc
 50
153.0350651905
 51
156.1143701222
  0
LINE
  5
4A9
330
1F
100
AcDbEntity
  8
0
  6
Continuous
 62
     7
370
    15
100
AcDbLine
 10
365.0859315552
 20
154.26110941
 30
0.0
 11
365.4268286597
 21
154.0695712976
 31
0.0
  0
LINE
  5
4AA
330
1F
100
AcDbEntity
  8
0
  6
Continuous
 62
     7
370
    15
100
AcDbLine
 10
364.8670247518
 20
154.7712126914
 30
0.0
 11
365.0859315552
 21
154.26110941
 31
0.0
  0
ARC
  5
4AB
330
1F
100
AcDbEntity
  8
0
  6
Continuous
 62
     7
370
    15
100
AcDbCircle
 10
376.4010551263
 20
148.3883407989
 30
0.0
 40
13.18237119324548
100
AcDbArc
 50
149.4101601133
 51
151.0400882752
  0
LINE
  5
4AC
330
1F
100
AcDbEntity
  8
0
  6
Continuous
 62
     7
370
    15
100
AcDbLine
 10
365.607346766
 20
155.172478134
 30
0.0
 11
365.05324447
 21
155.0967015215
 31
0.0
  0
LINE
  5
4AD
330
1F
100
AcDbEntity
  8
0
  6
Continuous
 62
     7
370
    15
100
AcDbLine
 10
365.607346766
 20
155.172478134
 30
0.0
 11
365.9482438705
 21
154.9809400216
 31
0.0
  0
ARC
  5
4AE
330
1F
100
AcDbEntity
  8
0
  6
Continuous
 62
     7
370
    15
100
AcDbCircle
 10
374.8362539757
 20
149.3004664647
 30
0.0
 40
10.54819906244126
100
AcDbArc
 50
144.3445985384
 51
147.4166844322
  0
LINE
  5
4AF
330
1F
100
AcDbEntity
  8
0
  6
Continuous
 62
     7
370
    15
100
AcDbLine
 10
366.0232032478
 20
155.7862487945
 30
0.0
 11
366.2654466351
 21
155.4491057444
 31
0.0
  0
LINE
  5
4B0
330
1F
100
AcDbEntity
  8
0
  6
Continuous
 62
     7
370
    15
100
AcDbLine
 10
365.954409863
 20
156.4267490325
 30
0.0
 11
366.0232032478
 21
155.7862487945
 31
0.0
  0
ARC
  5
4B1
330
1F
100
AcDbEntity
  8
0
  6
Continuous
 62
     7
370
    15
100
AcDbCircle
 10
375.7270942774
 20
148.87134301
 30
0.0
 40
12.35271309581614
100
AcDbArc
 50
140.5897425176
 51
142.2918631352
  0
LINE
  5
4B2
330
1F
100
AcDbEntity
  8
0
  6
Continuous
 62
     7
370
    15
100
AcDbLine
 10
366.4575831288
 20
156.6428759425
 30
0.0
 11
366.1831419831
 21
156.713695682
 31
0.0
  0
LINE
  5
4B3
330
1F
100
AcDbEntity
  8
0
  6
Continuous
 62
     7
370
    15
100
AcDbLine
 10
366.2474706408
 20
145.8349654919
 30
0.0
 11
366.4575831288
 21
146.1368564625
 31
0.0
  0
ARC
  5
4B4
330
1F
100
AcDbEntity
  8
0
  6
Continuous
 62
     7
370
    15
100
AcDbCircle
 10
366.3755256462
 20
148.9249587524
 30
0.0
 40
3.09264553971086
100
AcDbArc
 50
263.3415899304
 51
267.6269154012
  0
LINE
  5
4B5
330
1F
100
AcDbEntity
  8
0
  6
Continuous
 62
     7
370
    15
100
AcDbLine
 10
366.0777042714
 20
146.5694867316
 30
0.0
 11
366.0169340685
 21
145.8531728688
 31
0.0
  0
LINE
  5
4B6
330
1F
100
AcDbEntity
  8
0
  6
Continuous
 62
     7
370
    15
100
AcDbLine
 10
366.0777042714
 20
146.5694867316
 30
0.0
 11
366.3143035851
 21
147.1868227086
 31
0.0
  0
ARC
  5
4B7
330
1F
100
AcDbEntity
  8
0
  6
Continuous
 62
     7
370
    15
100
AcDbCircle
 10
366.7724114525
 20
149.3207963422
 30
0.0
 40
2.182591644616061
100
AcDbArc
 50
249.0992306471
 51
257.8839944233
  0
LINE
  5
4B8
330
1F
100
AcDbEntity
  8
0
  6
Continuous
 62
     7
370
    15
100
AcDbLine
 10
365.6574819593
 20
146.6940291676
 30
0.0
 11
365.993770697
 21
147.2818199174
 31
0.0
  0
LINE
  5
4B9
330
1F
100
AcDbEntity
  8
0
  6
Continuous
 62
     7
370
    15
100
AcDbLine
 10
365.1063078749
 20
146.1230576446
 30
0.0
 11
365.6574819593
 21
146.6940291676
 31
0.0
  0
ARC
  5
4BA
330
1F
100
AcDbEntity
  8
0
  6
Continuous
 62
     7
370
    15
100
AcDbCircle
 10
366.2545043705
 20
148.3876219284
 30
0.0
 40
2.539016854630791
100
AcDbArc
 50
238.2260582321
 51
243.113735666
  0
LINE
  5
4BB
330
1F
100
AcDbEntity
  8
0
  6
Continuous
 62
     7
370
    15
100
AcDbLine
 10
365.1289214823
 20
146.9910087393
 30
0.0
 11
364.9175362759
 21
146.2291217774
 31
0.0
  0
LINE
  5
4BC
330
1F
100
AcDbEntity
  8
0
  6
Continuous
 62
     7
370
    15
100
AcDbLine
 10
365.1289214823
 20
146.9910087393
 30
0.0
 11
365.4652102199
 21
147.5787994891
 31
0.0
  0
ARC
  5
4BD
330
1F
100
AcDbEntity
  8
0
  6
Continuous
 62
     7
370
    15
100
AcDbCircle
 10
366.7887566822
 20
149.2867173539
 30
0.0
 40
2.160731050034162
100
AcDbArc
 50
223.3822500414
 51
232.2261995764
  0
LINE
  5
4BE
330
1F
100
AcDbEntity
  8
0
  6
Continuous
 62
     7
370
    15
100
AcDbLine
 10
364.8053037405
 20
147.2844039097
 30
0.0
 11
365.2183643803
 21
147.802592464
 31
0.0
  0
LINE
  5
4BF
330
1F
100
AcDbEntity
  8
0
  6
Continuous
 62
     7
370
    15
100
AcDbLine
 10
364.2162532077
 20
146.8649122137
 30
0.0
 11
364.8053037405
 21
147.2844039097
 31
0.0
  0
ARC
  5
4C0
330
1F
100
AcDbEntity
  8
0
  6
Continuous
 62
     7
370
    15
100
AcDbCircle
 10
366.6147248001
 20
148.7297956705
 30
0.0
 40
3.038166599600667
100
AcDbArc
 50
213.5297251381
 51
217.8661346131
  0
LINE
  5
4C1
330
1F
100
AcDbEntity
  8
0
  6
Continuous
 62
     7
370
    15
100
AcDbLine
 10
364.4297057119
 20
147.8071437307
 30
0.0
 11
364.0821110546
 21
147.0516050069
 31
0.0
  0
LINE
  5
4C2
330
1F
100
AcDbEntity
  8
0
  6
Continuous
 62
     7
370
    15
100
AcDbLine
 10
364.4297057119
 20
147.8071437307
 30
0.0
 11
364.8427663517
 21
148.3253322851
 31
0.0
  0
ARC
  5
4C3
330
1F
100
AcDbEntity
  8
0
  6
Continuous
 62
     7
370
    15
100
AcDbCircle
 10
367.481440907
 20
149.7531020774
 30
0.0
 40
3.000188325493772
100
AcDbArc
 50
201.3125055172
 51
208.4175344989
  0
LINE
  5
4C4
330
1F
100
AcDbEntity
  8
0
  6
Continuous
 62
     7
370
    15
100
AcDbLine
 10
364.2247465548
 20
148.2493972393
 30
0.0
 11
364.6864296969
 21
148.6626699045
 31
0.0
  0
LINE
  5
4C5
330
1F
100
AcDbEntity
  8
0
  6
Continuous
 62
     7
370
    15
100
AcDbLine
 10
363.6379623941
 20
148.0099730362
 30
0.0
 11
364.2247465548
 21
148.2493972393
 31
0.0
  0
ARC
  5
4C6
330
1F
100
AcDbEntity
  8
0
  6
Continuous
 62
     7
370
    15
100
AcDbCircle
 10
368.0423568584
 20
149.364373585
 30
0.0
 40
4.607937873311417
100
AcDbArc
 50
193.8083807993
 51
197.0932482947
  0
LINE
  5
4C7
330
1F
100
AcDbEntity
  8
0
  6
Continuous
 62
     7
370
    15
100
AcDbLine
 10
364.0277073597
 20
148.9622734548
 30
0.0
 11
363.5675912529
 21
148.2645716847
 31
0.0
  0
LINE
  5
4C8
330
1F
100
AcDbEntity
  8
0
  6
Continuous
 62
     7
370
    15
100
AcDbLine
 10
364.0277073597
 20
148.9622734548
 30
0.0
 11
364.4893905017
 21
149.3755461201
 31
0.0
  0
LINE
  5
4C9
330
1F
100
AcDbEntity
  8
0
  6
Continuous
 62
     7
370
    15
100
AcDbLine
 10
362.2153743224
 20
156.3019779011
 30
0.0
 11
364.8670247518
 21
154.7712126914
 31
0.0
  0
ARC
  5
4CA
330
1F
100
AcDbEntity
  8
0
  6
Continuous
 62
     7
370
    15
100
AcDbCircle
 10
373.7494046975
 20
149.9191060082
 30
0.0
 40
13.18237119397514
100
AcDbArc
 50
149.4101601134
 51
151.0400882751
  0
LINE
  5
4CB
330
1F
100
AcDbEntity
  8
0
  6
Continuous
 62
     7
370
    15
100
AcDbLine
 10
362.4015940405
 20
156.6274667311
 30
0.0
 11
365.05324447
 21
155.0967015215
 31
0.0
  0
LINE
  5
4CC
330
1F
100
AcDbEntity
  8
0
  6
Continuous
 62
     7
370
    15
100
AcDbLine
 10
362.9556963366
 20
156.7032433437
 30
0.0
 11
365.607346766
 21
155.172478134
 31
0.0
  0
LINE
  5
4CD
330
1F
100
AcDbEntity
  8
0
  6
Continuous
 62
     7
370
    15
100
AcDbLine
 10
362.9556963366
 20
156.7032433437
 30
0.0
 11
362.4015940405
 21
156.6274667311
 31
0.0
  0
LINE
  5
4CE
330
1F
100
AcDbEntity
  8
0
  6
Continuous
 62
     7
370
    15
100
AcDbLine
 10
362.4342811258
 20
155.7918746196
 30
0.0
 11
365.0859315552
 21
154.26110941
 31
0.0
  0
LINE
  5
4CF
330
1F
100
AcDbEntity
  8
0
  6
Continuous
 62
     7
370
    15
100
AcDbLine
 10
362.2153743224
 20
156.3019779011
 30
0.0
 11
362.4342811258
 21
155.7918746196
 31
0.0
  0
LINE
  5
4D0
330
1F
100
AcDbEntity
  8
0
  6
Continuous
 62
     7
370
    15
100
AcDbLine
 10
363.3027594336
 20
157.9575142422
 30
0.0
 11
365.954409863
 21
156.4267490325
 31
0.0
  0
LINE
  5
4D1
330
1F
100
AcDbEntity
  8
0
  6
Continuous
 62
     7
370
    15
100
AcDbLine
 10
363.5314915537
 20
158.2444608917
 30
0.0
 11
366.1831419831
 21
156.713695682
 31
0.0
  0
ARC
  5
4D2
330
1F
100
AcDbEntity
  8
0
  6
Continuous
 62
     7
370
    15
100
AcDbCircle
 10
373.0754438478
 20
150.4021082198
 30
0.0
 40
12.35271309562999
100
AcDbArc
 50
140.5897425176
 51
142.2918631352
  0
LINE
  5
4D3
330
1F
100
AcDbEntity
  8
0
  6
Continuous
 62
     7
370
    15
100
AcDbLine
 10
361.3954040593
 20
154.5108465017
 30
0.0
 11
364.0470544888
 21
152.980081292
 31
0.0
  0
LINE
  5
4D4
330
1F
100
AcDbEntity
  8
0
  6
Continuous
 62
     7
370
    15
100
AcDbLine
 10
361.5264208095
 20
154.8526959864
 30
0.0
 11
364.1780712389
 21
153.3219307767
 31
0.0
  0
ARC
  5
4D5
330
1F
100
AcDbEntity
  8
0
  6
Continuous
 62
     7
370
    15
100
AcDbCircle
 10
372.9133333949
 20
150.2925325795
 30
0.0
 40
12.26608611276534
100
AcDbArc
 50
158.1751778675
 51
159.8853034968
  0
LINE
  5
4D6
330
1F
100
AcDbEntity
  8
0
  6
Continuous
 62
     7
370
    15
100
AcDbLine
 10
362.1163530449
 20
155.1230814295
 30
0.0
 11
364.7680034744
 21
153.5923162198
 31
0.0
  0
LINE
  5
4D7
330
1F
100
AcDbEntity
  8
0
  6
Continuous
 62
     7
370
    15
100
AcDbLine
 10
362.1163530449
 20
155.1230814295
 30
0.0
 11
361.5264208095
 21
154.8526959864
 31
0.0
  0
LINE
  5
4D8
330
1F
100
AcDbEntity
  8
0
  6
Continuous
 62
     7
370
    15
100
AcDbLine
 10
363.3715528183
 20
157.3170140042
 30
0.0
 11
366.0232032478
 21
155.7862487945
 31
0.0
  0
LINE
  5
4D9
330
1F
100
AcDbEntity
  8
0
  6
Continuous
 62
     7
370
    15
100
AcDbLine
 10
363.3027594336
 20
157.9575142422
 30
0.0
 11
363.3715528183
 21
157.3170140042
 31
0.0
  0
LINE
  5
4DA
330
1F
100
AcDbEntity
  8
0
  6
Continuous
 62
     7
370
    15
100
AcDbLine
 10
364.0120027546
 20
158.1204646229
 30
0.0
 11
366.4575831288
 21
156.708661124
 31
0.0
  0
LINE
  5
4DB
330
1F
100
AcDbEntity
  8
0
  6
Continuous
 62
     7
370
    15
100
AcDbLine
 10
364.0120027546
 20
158.1204646229
 30
0.0
 11
363.5314915537
 21
158.2444608917
 31
0.0
  0
LINE
  5
4DC
330
1F
100
AcDbEntity
  8
0
  6
Continuous
 62
     7
370
    15
100
AcDbLine
 10
361.7495061445
 20
154.1659028725
 30
0.0
 11
364.401156574
 21
152.6351376628
 31
0.0
  0
LINE
  5
4DD
330
1F
100
AcDbEntity
  8
0
  6
Continuous
 62
     7
370
    15
100
AcDbLine
 10
361.3954040593
 20
154.5108465017
 30
0.0
 11
361.7495061445
 21
154.1659028725
 31
0.0
  0
LINE
  5
4DE
330
1F
100
AcDbEntity
  8
0
  6
Continuous
 62
     7
370
    15
100
AcDbLine
 10
363.296593441
 20
156.5117052313
 30
0.0
 11
365.9482438705
 21
154.9809400216
 31
0.0
  0
LINE
  5
4DF
330
1F
100
AcDbEntity
  8
0
  6
Continuous
 62
     7
370
    15
100
AcDbLine
 10
362.9556963366
 20
156.7032433437
 30
0.0
 11
363.296593441
 21
156.5117052313
 31
0.0
  0
LINE
  5
4E0
330
1F
100
AcDbEntity
  8
0
  6
Continuous
 62
     7
370
    15
100
AcDbLine
 10
360.96561347
 20
153.0410963507
 30
0.0
 11
363.6172638994
 21
151.5103311411
 31
0.0
  0
LINE
  5
4E1
330
1F
100
AcDbEntity
  8
0
  6
Continuous
 62
     7
370
    15
100
AcDbLine
 10
361.5511727379
 20
153.4876643033
 30
0.0
 11
364.2028231673
 21
151.9568990936
 31
0.0
  0
LINE
  5
4E2
330
1F
100
AcDbEntity
  8
0
  6
Continuous
 62
     7
370
    15
100
AcDbLine
 10
361.5511727379
 20
153.4876643033
 30
0.0
 11
360.96561347
 21
153.0410963507
 31
0.0
  0
LINE
  5
4E3
330
1F
100
AcDbEntity
  8
0
  6
Continuous
 62
     7
370
    15
100
AcDbLine
 10
363.6137962057
 20
156.9798709541
 30
0.0
 11
366.2654466351
 21
155.4491057444
 31
0.0
  0
LINE
  5
4E4
330
1F
100
AcDbEntity
  8
0
  6
Continuous
 62
     7
370
    15
100
AcDbLine
 10
363.3715528183
 20
157.3170140042
 30
0.0
 11
363.6137962057
 21
156.9798709541
 31
0.0
  0
LINE
  5
4E5
330
1F
100
AcDbEntity
  8
0
  6
Continuous
 62
     7
370
    15
100
AcDbLine
 10
362.5326722922
 20
155.0902012606
 30
0.0
 11
365.1843227216
 21
153.5594360509
 31
0.0
  0
LINE
  5
4E6
330
1F
100
AcDbEntity
  8
0
  6
Continuous
 62
     7
370
    15
100
AcDbLine
 10
362.1163530449
 20
155.1230814295
 30
0.0
 11
362.5326722922
 21
155.0902012606
 31
0.0
  0
LINE
  5
4E7
330
1F
100
AcDbEntity
  8
0
  6
Continuous
 62
     7
370
    15
100
AcDbLine
 10
364.4974477053
 20
158.6373852974
 30
0.0
 11
366.4575831288
 21
157.5058232034
 31
0.0
  0
LINE
  5
4E8
330
1F
100
AcDbEntity
  8
0
  6
Continuous
 62
     7
370
    15
100
AcDbLine
 10
364.5371992247
 20
158.9735070044
 30
0.0
 11
364.4974477053
 21
158.6373852974
 31
0.0
  0
LINE
  5
4E9
330
1F
100
AcDbEntity
  8
0
  6
Continuous
 62
     7
370
    15
100
AcDbLine
 10
360.8987282629
 20
152.7061826889
 30
0.0
 11
363.5503786923
 21
151.1754174792
 31
0.0
  0
ARC
  5
4EA
330
1F
100
AcDbEntity
  8
0
  6
Continuous
 62
     7
370
    15
100
AcDbCircle
 10
370.6965290583
 20
150.9236112155
 30
0.0
 40
9.958637531521143
100
AcDbArc
 50
167.7235958944
 51
169.6886260585
  0
ARC
  5
4EB
330
1F
100
AcDbEntity
  8
0
  6
Continuous
 62
     7
370
    15
100
AcDbCircle
 10
372.1846035463
 20
150.8312316743
 30
0.0
 40
10.54819906254789
100
AcDbArc
 50
144.3445985384
 51
147.4166844322
  0
ARC
  5
4EC
330
1F
100
AcDbEntity
  8
0
  6
Continuous
 62
     7
370
    15
100
AcDbCircle
 10
372.143586583
 20
150.834113782
 30
0.0
 40
10.51113476896519
100
AcDbArc
 50
153.0350651905
 51
156.1143701222
  0
LINE
  5
4ED
330
1F
100
AcDbEntity
  8
0
  6
Continuous
 62
     7
370
    15
100
AcDbLine
 10
364.624528889
 20
158.1776130514
 30
0.0
 11
366.4575831288
 21
157.1194133632
 31
0.0
  0
LINE
  5
4EE
330
1F
100
AcDbEntity
  8
0
  6
Continuous
 62
     7
370
    15
100
AcDbLine
 10
364.4974477053
 20
158.6373852974
 30
0.0
 11
364.624528889
 21
158.1776130514
 31
0.0
  0
LINE
  5
4EF
330
1F
100
AcDbEntity
  8
0
  6
Continuous
 62
     7
370
    15
100
AcDbLine
 10
362.0145426592
 20
153.615682807
 30
0.0
 11
364.6661930887
 21
152.0849175973
 31
0.0
  0
LINE
  5
4F0
330
1F
100
AcDbEntity
  8
0
  6
Continuous
 62
     7
370
    15
100
AcDbLine
 10
361.5511727379
 20
153.4876643033
 30
0.0
 11
362.0145426592
 21
153.615682807
 31
0.0
  0
ARC
  5
4F1
330
1F
100
AcDbEntity
  8
0
  6
Continuous
 62
     7
370
    15
100
AcDbCircle
 10
371.0957003742
 20
151.7312173687
 30
0.0
 40
9.134116141594719
100
AcDbArc
 50
135.1098927656
 51
137.4072283653
  0
ARC
  5
4F2
330
1F
100
AcDbEntity
  8
0
  6
Continuous
 62
     7
370
    15
100
AcDbCircle
 10
370.7539701399
 20
151.3393981755
 30
0.0
 40
9.03100572548808
100
AcDbArc
 50
163.1488477149
 51
165.4010174036
  0
LINE
  5
4F3
330
1F
100
AcDbEntity
  8
0
  6
Continuous
 62
     7
370
    15
100
AcDbLine
 10
360.7573901155
 20
151.3161253456
 30
0.0
 11
363.4090405449
 21
149.7853601359
 31
0.0
  0
LINE
  5
4F4
330
1F
100
AcDbEntity
  8
0
  6
Continuous
 62
     7
370
    15
100
AcDbLine
 10
361.2986715194
 20
151.9084429395
 30
0.0
 11
363.9503219488
 21
150.3776777299
 31
0.0
  0
LINE
  5
4F5
330
1F
100
AcDbEntity
  8
0
  6
Continuous
 62
     7
370
    15
100
AcDbLine
 10
361.2986715194
 20
151.9084429395
 30
0.0
 11
360.7573901155
 21
151.3161253456
 31
0.0
  0
LINE
  5
4F6
330
1F
100
AcDbEntity
  8
0
  6
Continuous
 62
     7
370
    15
100
AcDbLine
 10
360.7591945677
 20
151.0109713192
 30
0.0
 11
363.4108449972
 21
149.4802061095
 31
0.0
  0
ARC
  5
4F7
330
1F
100
AcDbEntity
  8
0
  6
Continuous
 62
     7
370
    15
100
AcDbCircle
 10
367.8607815907
 20
151.2055471311
 30
0.0
 40
7.10425210636427
100
AcDbArc
 50
179.1081508995
 51
181.5694498062
  0
LINE
  5
4F8
330
1F
100
AcDbEntity
  8
0
  6
Continuous
 62
     7
370
    15
100
AcDbLine
 10
361.7775142204
 20
152.1886358665
 30
0.0
 11
364.4291646499
 21
150.6578706568
 31
0.0
  0
LINE
  5
4F9
330
1F
100
AcDbEntity
  8
0
  6
Continuous
 62
     7
370
    15
100
AcDbLine
 10
361.2986715194
 20
151.9084429395
 30
0.0
 11
361.7775142204
 21
152.1886358665
 31
0.0
  0
ARC
  5
4FA
330
1F
100
AcDbEntity
  8
0
  6
Continuous
 62
     7
370
    15
100
AcDbCircle
 10
365.0904231508
 20
152.7524171467
 30
0.0
 40
4.040682084416327
100
AcDbArc
 50
181.9104903428
 51
194.0861106613
  0
ARC
  5
4FB
330
1F
100
AcDbEntity
  8
0
  6
Continuous
 62
     7
370
    15
100
AcDbCircle
 10
369.5457910285
 20
152.3589272274
 30
0.0
 40
8.522368540843567
100
AcDbArc
 50
127.771036698
 51
174.9405656613
  0
LINE
  5
4FC
330
1F
100
AcDbEntity
  8
0
  6
Continuous
 62
     7
370
    15
100
AcDbLine
 10
360.9159408235
 20
149.7953368943
 30
0.0
 11
363.5675912529
 21
148.2645716847
 31
0.0
  0
LINE
  5
4FD
330
1F
100
AcDbEntity
  8
0
  6
Continuous
 62
     7
370
    15
100
AcDbLine
 10
361.3760569302
 20
150.4930386645
 30
0.0
 11
364.0277073597
 21
148.9622734548
 31
0.0
  0
LINE
  5
4FE
330
1F
100
AcDbEntity
  8
0
  6
Continuous
 62
     7
370
    15
100
AcDbLine
 10
361.3760569302
 20
150.4930386645
 30
0.0
 11
360.9159408235
 21
149.7953368943
 31
0.0
  0
LINE
  5
4FF
330
1F
100
AcDbEntity
  8
0
  6
Continuous
 62
     7
370
    15
100
AcDbLine
 10
364.0935161233
 20
149.6040795342
 30
0.0
 11
364.4893905017
 21
149.3755461201
 31
0.0
  0
LINE
  5
500
330
1F
100
AcDbEntity
  8
0
  6
Continuous
 62
     7
370
    15
100
AcDbLine
 10
361.3760569302
 20
150.4930386645
 30
0.0
 11
361.4859605991
 21
150.5914182197
 31
0.0
  0
LINE
  5
501
330
1F
100
AcDbEntity
  8
0
  6
Continuous
 62
     7
370
    15
100
AcDbLine
 10
360.9863119646
 20
149.5407382459
 30
0.0
 11
363.6379623941
 21
148.0099730362
 31
0.0
  0
ARC
  5
502
330
1F
100
AcDbEntity
  8
0
  6
Continuous
 62
     7
370
    15
100
AcDbCircle
 10
365.3907064289
 20
150.8951387946
 30
0.0
 40
4.607937873178843
100
AcDbArc
 50
193.8083807992
 51
197.0932482947
  0
LINE
  5
503
330
1F
100
AcDbEntity
  8
0
  6
Continuous
 62
     7
370
    15
100
AcDbLine
 10
364.5186212539
 20
148.512457267
 30
0.0
 11
364.8427663517
 21
148.3253322851
 31
0.0
  0
LINE
  5
504
330
1F
100
AcDbEntity
  8
0
  6
Continuous
 62
     7
370
    15
100
AcDbLine
 10
361.4304606252
 20
148.5823702166
 30
0.0
 11
364.0821110546
 21
147.0516050069
 31
0.0
  0
LINE
  5
505
330
1F
100
AcDbEntity
  8
0
  6
Continuous
 62
     7
370
    15
100
AcDbLine
 10
363.8959857385
 20
148.1152537131
 30
0.0
 11
364.4297057119
 21
147.8071437307
 31
0.0
  0
LINE
  5
506
330
1F
100
AcDbEntity
  8
0
  6
Continuous
 62
     7
370
    15
100
AcDbLine
 10
361.6856369235
 20
149.1370265404
 30
0.0
 11
361.4304606252
 21
148.5823702166
 31
0.0
  0
LINE
  5
507
330
1F
100
AcDbEntity
  8
0
  6
Continuous
 62
     7
370
    15
100
AcDbLine
 10
361.5646027783
 20
148.3956774234
 30
0.0
 11
364.2162532077
 21
146.8649122137
 31
0.0
  0
ARC
  5
508
330
1F
100
AcDbEntity
  8
0
  6
Continuous
 62
     7
370
    15
100
AcDbCircle
 10
363.9630743706
 20
150.2605608801
 30
0.0
 40
3.038166599583171
100
AcDbArc
 50
213.5297251381
 51
217.8661346132
  0
LINE
  5
509
330
1F
100
AcDbEntity
  8
0
  6
Continuous
 62
     7
370
    15
100
AcDbLine
 10
365.1739861609
 20
147.7469195599
 30
0.0
 11
365.4652102199
 21
147.5787994891
 31
0.0
  0
LINE
  5
50A
330
1F
100
AcDbEntity
  8
0
  6
Continuous
 62
     7
370
    15
100
AcDbLine
 10
364.7226516562
 20
147.2255433177
 30
0.0
 11
365.1289214823
 21
146.9910087393
 31
0.0
  0
LINE
  5
50B
330
1F
100
AcDbEntity
  8
0
  6
Continuous
 62
     7
370
    15
100
AcDbLine
 10
362.2658858464
 20
147.759886987
 30
0.0
 11
364.9175362759
 21
146.2291217774
 31
0.0
  0
LINE
  5
50C
330
1F
100
AcDbEntity
  8
0
  6
Continuous
 62
     7
370
    15
100
AcDbLine
 10
362.3211162128
 20
147.9589515136
 30
0.0
 11
362.2658858464
 21
147.759886987
 31
0.0
  0
ARC
  5
50D
330
1F
100
AcDbEntity
  8
0
  6
Continuous
 62
     7
370
    15
100
AcDbCircle
 10
363.6025884822
 20
149.9179274537
 30
0.0
 40
2.538486279683033
100
AcDbArc
 50
238.2256885112
 51
240.0025816922
  0
LINE
  5
50E
330
1F
100
AcDbEntity
  8
0
  6
Continuous
 62
     7
370
    15
100
AcDbLine
 10
365.7082511935
 20
146.7827674537
 30
0.0
 11
366.0777042714
 21
146.5694867316
 31
0.0
  0
LINE
  5
50F
330
1F
100
AcDbEntity
  8
0
  6
Continuous
 62
     7
370
    15
100
AcDbLine
 10
365.2648793629
 20
146.2873248092
 30
0.0
 11
366.0169340685
 21
145.8531728688
 31
0.0
  0
LWPOLYLINE
  5
510
330
1F
100
AcDbEntity
  8
0
  6
Continuous
 62
     7
370
    15
100
AcDbPolyline
 90
       12
 70
   128
 43
0.0
 10
356.5988724356
 20
154.3207819836
 10
356.4348696398
 20
154.4295017886
 10
356.0635051927
 20
154.8173363027
 10
355.7975478977
 20
155.3362963119
 10
355.6466101444
 20
155.9676252494
 10
355.6161472164
 20
156.6885052424
 10
355.7072601233
 20
157.4728818098
 10
355.9166558074
 20
158.2924055387
 10
356.2367661629
 20
159.1174567063
 10
356.6560215676
 20
159.9182158137
 10
357.1592690389
 20
160.6657413406
 10
357.7071367116
 20
161.310897621
  0
LWPOLYLINE
  5
511
330
1F
100
AcDbEntity
  8
0
  6
Continuous
 62
     7
370
    15
100
AcDbPolyline
 90
        3
 70
   128
 43
0.0
 10
370.4002982163
 20
146.5261937945
 10
370.7771301218
 20
146.1460617401
 10
370.9177847546
 20
146.0546498514
  0
LWPOLYLINE
  5
512
330
1F
100
AcDbEntity
  8
0
  6
Continuous
 62
     7
370
    15
100
AcDbPolyline
 90
       17
 70
   128
 43
0.0
 10
375.6798977188
 20
154.3037652656
 10
375.5969719076
 20
154.3484136932
 10
375.0895875956
 20
154.5063731465
 10
374.5174810444
 20
154.5079375611
 10
373.9013296755
 20
154.353050395
 10
373.2634028046
 20
154.047309674
 10
372.626756771
 20
153.6017656643
 10
372.0144016211
 20
153.0325214872
 10
371.4484694655
 20
152.3601511105
 10
370.9494145667
 20
151.6089557515
 10
370.5352740692
 20
150.8060855675
 10
370.2210160896
 20
149.9805583791
 10
370.0179987299
 20
149.1622108895
 10
369.9335595666
 20
148.3806203093
 10
369.970750451
 20
147.6640353585
 10
370.1282272077
 20
147.0383552842
 10
370.4002982163
 20
146.5261937945
  0
LINE
  5
513
330
1F
100
AcDbEntity
  8
0
  6
Continuous
 62
     7
370
    15
100
AcDbLine
 10
366.4575831288
 20
173.1750331969
 30
0.0
 11
362.2149424416
 21
175.6242575324
 31
0.0
  0
LINE
  5
514
330
1F
100
AcDbEntity
  8
0
  6
Continuous
 62
     7
370
    15
100
AcDbLine
 10
362.2149424416
 20
175.6242575324
 30
0.0
 11
372.2912140735
 21
181.4411653292
 31
0.0
  0
LINE
  5
515
330
1F
100
AcDbEntity
  8
0
  6
Continuous
 62
     7
370
    15
100
AcDbLine
 10
372.2912140735
 20
181.4411653292
 30
0.0
 11
372.7950276551
 21
181.1503199393
 31
0.0
  0
LINE
  5
516
330
1F
100
AcDbEntity
  8
0
  6
Continuous
 62
     7
370
    15
100
AcDbLine
 10
372.7950276551
 20
181.1503199393
 30
0.0
 11
370.6737073116
 21
179.9257077716
 31
0.0
  0
LINE
  5
517
330
1F
100
AcDbEntity
  8
0
  6
Continuous
 62
     7
370
    15
100
AcDbLine
 10
370.6737073116
 20
179.9257077716
 30
0.0
 11
373.3783907496
 21
178.3643272577
 31
0.0
  0
LINE
  5
518
330
1F
100
AcDbEntity
  8
0
  6
Continuous
 62
     7
370
    15
100
AcDbLine
 10
373.3783907496
 20
178.3643272577
 30
0.0
 11
375.4997110932
 21
179.5889394255
 31
0.0
  0
LINE
  5
519
330
1F
100
AcDbEntity
  8
0
  6
Continuous
 62
     7
370
    15
100
AcDbLine
 10
375.4997110932
 20
179.5889394255
 30
0.0
 11
376.2686466174
 21
179.1450423959
 31
0.0
  0
LINE
  5
51A
330
1F
100
AcDbEntity
  8
0
  6
Continuous
 62
     7
370
    15
100
AcDbLine
 10
366.4575831288
 20
157.8648929741
 30
0.0
 11
366.4575831288
 21
173.1750331969
 31
0.0
  0
LINE
  5
51B
330
1F
100
AcDbEntity
  8
0
  6
Continuous
 62
     7
370
    15
100
AcDbLine
 10
366.4575831288
 20
157.8648929741
 30
0.0
 11
362.2149424416
 21
160.3141173096
 31
0.0
  0
LINE
  5
51C
330
1F
100
AcDbEntity
  8
0
  6
Continuous
 62
     7
370
    15
100
AcDbLine
 10
362.2149424416
 20
160.3141173096
 30
0.0
 11
362.2149424416
 21
175.6242575324
 31
0.0
  0
LINE
  5
51D
330
1F
100
AcDbEntity
  8
0
  6
Continuous
 62
     7
370
    15
100
AcDbLine
 10
372.7950276551
 20
178.7010956038
 30
0.0
 11
372.7950276551
 21
181.1503199393
 31
0.0
  0
LINE
  5
51E
330
1F
100
AcDbEntity
  8
0
  6
Continuous
 62
     7
370
    15
100
AcDbLine
 10
366.4575831288
 20
142.5547527512
 30
0.0
 11
362.2149424416
 21
145.0039770867
 31
0.0
  0
LINE
  5
51F
330
1F
100
AcDbEntity
  8
0
  6
Continuous
 62
     7
370
    15
100
AcDbLine
 10
362.2149424416
 20
145.0039770867
 30
0.0
 11
364.6261398739
 21
146.3959317357
 31
0.0
  0
LINE
  5
520
330
1F
100
AcDbEntity
  8
0
  6
Continuous
 62
     7
370
    15
100
AcDbLine
 10
366.4575831288
 20
127.2446125284
 30
0.0
 11
366.4575831288
 21
142.5547527512
 31
0.0
  0
LINE
  5
521
330
1F
100
AcDbEntity
  8
0
  6
Continuous
 62
     7
370
    15
100
AcDbLine
 10
366.4575831288
 20
127.2446125284
 30
0.0
 11
362.2149424416
 21
129.6938368638
 31
0.0
  0
LINE
  5
522
330
1F
100
AcDbEntity
  8
0
  6
Continuous
 62
     7
370
    15
100
AcDbLine
 10
362.2149424416
 20
129.6938368638
 30
0.0
 11
362.2149424416
 21
145.0039770867
 31
0.0
  0
LINE
  5
523
330
1F
100
AcDbEntity
  8
0
  6
Continuous
 62
     7
370
    15
100
AcDbLine
 10
382.764213344
 20
197.590199263
 30
0.0
 11
389.261776822
 21
201.3411628174
 31
0.0
  0
LINE
  5
524
330
1F
100
AcDbEntity
  8
0
  6
Continuous
 62
     7
370
    15
100
AcDbLine
 10
389.261776822
 20
201.3411628174
 30
0.0
 11
395.8909028956
 21
197.5142497932
 31
0.0
  0
LINE
  5
525
330
1F
100
AcDbEntity
  8
0
  6
Continuous
 62
     7
370
    15
100
AcDbLine
 10
395.8909028956
 20
197.5142497932
 30
0.0
 11
395.6257378527
 21
197.3611732722
 31
0.0
  0
LINE
  5
526
330
1F
100
AcDbEntity
  8
0
  6
Continuous
 62
     7
370
    15
100
AcDbLine
 10
395.6257378527
 20
197.3611732722
 30
0.0
 11
402.5200289693
 21
193.3811837271
 31
0.0
  0
LINE
  5
527
330
1F
100
AcDbEntity
  8
0
  6
Continuous
 62
     7
370
    15
100
AcDbLine
 10
402.5200289693
 20
193.3811837271
 30
0.0
 11
402.7851940122
 21
193.534260248
 31
0.0
  0
LINE
  5
528
330
1F
100
AcDbEntity
  8
0
  6
Continuous
 62
     7
370
    15
100
AcDbLine
 10
402.7851940122
 20
193.534260248
 30
0.0
 11
409.4143200858
 21
189.7073472239
 31
0.0
  0
LINE
  5
529
330
1F
100
AcDbEntity
  8
0
  6
Continuous
 62
     7
370
    15
100
AcDbLine
 10
409.4143200858
 20
189.7073472239
 30
0.0
 11
402.9167566078
 21
185.9563836695
 31
0.0
  0
LWPOLYLINE
  5
52A
330
1F
100
AcDbEntity
  8
0
  6
Continuous
 62
     7
370
    15
100
AcDbPolyline
 90
       20
 70
   128
 43
0.0
 10
402.9167566078
 20
185.9563836695
 10
402.6948302752
 20
184.9391963768
 10
402.307195392
 20
183.938692779
 10
401.7573295046
 20
182.963848584
 10
401.0501655643
 20
182.0234093045
 10
400.1920476733
 20
181.1258118
 10
399.1906741702
 20
180.2791085884
 10
398.0550285673
 20
179.4908956052
 10
396.795298957
 20
178.7682440589
 10
395.4227866132
 20
178.1176369938
 10
393.9498046051
 20
177.5449111297
 10
392.3895673343
 20
177.0552044992
 10
390.7560719859
 20
176.6529103535
 10
389.0639729574
 20
176.34163775
 10
387.3284503907
 20
176.1241791742
 10
385.5650739887
 20
176.0024854885
 10
383.7896633365
 20
175.97764843
 10
382.0181459804
 20
176.0498908168
 10
380.2664145395
 20
176.2185645485
 10
378.5501841295
 20
176.4821564212
  0
LINE
  5
52B
330
1F
100
AcDbEntity
  8
0
  6
Continuous
 62
     7
370
    15
100
AcDbLine
 10
378.5501841295
 20
176.4821564212
 30
0.0
 11
369.904728687
 21
171.4912412288
 31
0.0
  0
LINE
  5
52C
330
1F
100
AcDbEntity
  8
0
  6
Continuous
 62
     7
370
    15
100
AcDbLine
 10
369.904728687
 20
171.4912412288
 30
0.0
 11
366.4575831288
 21
173.4812360014
 31
0.0
  0
LINE
  5
52D
330
1F
100
AcDbEntity
  8
0
  6
Continuous
 62
     7
370
    15
100
AcDbLine
 10
366.4575831288
 20
173.4812360014
 30
0.0
 11
376.6054934823
 21
179.3394999518
 31
0.0
  0
ARC
  5
52E
330
1F
100
AcDbEntity
  8
0
  6
Continuous
 62
     7
370
    15
100
AcDbCircle
 10
384.1278867323
 20
202.2425413015
 30
0.0
 40
24.10675638217877
100
AcDbArc
 50
251.817483876
 51
271.9266827621
  0
LINE
  5
52F
330
1F
100
AcDbEntity
  8
0
  6
Continuous
 62
     7
370
    15
100
AcDbLine
 10
384.9383708471
 20
178.1494132611
 30
0.0
 11
384.7494290752
 21
178.5564820873
 31
0.0
  0
ARC
  5
530
330
1F
100
AcDbEntity
  8
0
  6
Continuous
 62
     7
370
    15
100
AcDbCircle
 10
384.3622280547
 20
201.4403194349
 30
0.0
 40
22.88711288875412
100
AcDbArc
 50
270.9693683435
 51
286.6167095222
  0
LINE
  5
531
330
1F
100
AcDbEntity
  8
0
  6
Continuous
 62
     7
370
    15
100
AcDbLine
 10
390.9072062178
 20
179.508990309
 30
0.0
 11
391.0961479897
 21
179.1019214829
 31
0.0
  0
LWPOLYLINE
  5
532
330
1F
100
AcDbEntity
  8
0
  6
Continuous
 62
     7
370
    15
100
AcDbPolyline
 90
       16
 70
   128
 43
0.0
 10
391.0961479897
 20
179.1019214829
 10
392.5317187729
 20
179.5891303836
 10
393.8648921152
 20
180.1651999444
 10
395.0792365938
 20
180.8230300815
 10
396.1597853572
 20
181.5545130082
 10
397.093220592
 20
182.3506331636
 10
397.868037666
 20
183.2015783303
 10
398.4746869232
 20
184.0968605699
 10
398.9056913835
 20
185.0254454876
 10
399.1557388971
 20
185.9758882315
 10
399.221747617
 20
186.936474551
 10
399.1029039825
 20
187.8953651756
 10
398.8006727469
 20
188.8407417342
 10
398.3187789242
 20
189.7609524172
 10
397.6631618779
 20
190.6446555856
 10
396.8419021182
 20
191.480959557
  0
LINE
  5
533
330
1F
100
AcDbEntity
  8
0
  6
Continuous
 62
     7
370
    15
100
AcDbLine
 10
396.8419021182
 20
191.480959557
 30
0.0
 11
396.3257035977
 21
191.1829644941
 31
0.0
  0
ARC
  5
534
330
1F
100
AcDbEntity
  8
0
  6
Continuous
 62
     7
370
    15
100
AcDbCircle
 10
387.5067165852
 20
181.1118234115
 30
0.0
 40
13.38665061288975
100
AcDbArc
 50
48.7923693783
 51
71.2130071544
  0
LINE
  5
535
330
1F
100
AcDbEntity
  8
0
  6
Continuous
 62
     7
370
    15
100
AcDbLine
 10
391.8178978676
 20
193.7852653505
 30
0.0
 11
392.3340963882
 21
194.0832604135
 31
0.0
  0
LWPOLYLINE
  5
536
330
1F
100
AcDbEntity
  8
0
  6
Continuous
 62
     7
370
    15
100
AcDbPolyline
 90
       16
 70
   128
 43
0.0
 10
392.3340963882
 20
194.0832604135
 10
390.8854184517
 20
194.5573635811
 10
389.3546338017
 20
194.9358432458
 10
387.7606094292
 20
195.2140346282
 10
386.1229917582
 20
195.3885090067
 10
384.4619645017
 20
195.4571159765
 10
382.7979998971
 20
195.4190099537
 10
381.1516063848
 20
195.2746605966
 10
379.5430758407
 20
195.0258470178
 10
377.9922334776
 20
194.6756358561
 10
376.5181934991
 20
194.2283434802
 10
375.1391235159
 20
193.6894827891
 10
373.8720206288
 20
193.0656952657
 10
372.7325019394
 20
192.36466912
 10
371.7346120678
 20
191.5950445314
 10
370.8906500528
 20
190.7663071584
  0
LINE
  5
537
330
1F
100
AcDbEntity
  8
0
  6
Continuous
 62
     7
370
    15
100
AcDbLine
 10
370.8906500528
 20
190.7663071584
 30
0.0
 11
371.5957903453
 21
190.6572333952
 31
0.0
  0
ARC
  5
538
330
1F
100
AcDbEntity
  8
0
  6
Continuous
 62
     7
370
    15
100
AcDbCircle
 10
375.7713256257
 20
186.5588275043
 30
0.0
 40
5.850814107815284
100
AcDbArc
 50
135.5340937776
 51
174.6689833334
  0
LINE
  5
539
330
1F
100
AcDbEntity
  8
0
  6
Continuous
 62
     7
370
    15
100
AcDbLine
 10
369.9458189328
 20
187.102424317
 30
0.0
 11
369.2406786403
 21
187.2114980802
 31
0.0
  0
ARC
  5
53A
330
1F
100
AcDbEntity
  8
0
  6
Continuous
 62
     7
370
    15
100
AcDbCircle
 10
375.3082127998
 20
186.9647625651
 30
0.0
 40
6.072548821616008
100
AcDbArc
 50
177.6713573234
 51
228.7235086165
  0
LINE
  5
53B
330
1F
100
AcDbEntity
  8
0
  6
Continuous
 62
     7
370
    15
100
AcDbLine
 10
371.3021926234
 20
182.4010303712
 30
0.0
 11
361.1542822699
 21
176.5427664207
 31
0.0
  0
LINE
  5
53C
330
1F
100
AcDbEntity
  8
0
  6
Continuous
 62
     7
370
    15
100
AcDbLine
 10
361.1542822699
 20
176.5427664207
 30
0.0
 11
357.7071367116
 21
178.5327611933
 31
0.0
  0
LINE
  5
53D
330
1F
100
AcDbEntity
  8
0
  6
Continuous
 62
     7
370
    15
100
AcDbLine
 10
357.7071367116
 20
178.5327611933
 30
0.0
 11
366.3525921541
 21
183.5236763856
 31
0.0
  0
LWPOLYLINE
  5
53E
330
1F
100
AcDbEntity
  8
0
  6
Continuous
 62
     7
370
    15
100
AcDbPolyline
 90
       20
 70
   128
 43
0.0
 10
366.3525921541
 20
183.5236763856
 10
365.8959881642
 20
184.5144351124
 10
365.6038050323
 20
185.5256881481
 10
365.4786639887
 20
186.5483633495
 10
365.5216876976
 20
187.573286103
 10
365.7324901851
 20
188.5912616316
 10
366.109180302
 20
189.5931574834
 10
366.6483786896
 20
190.5699854602
 10
367.3452480967
 20
191.5129822526
 10
368.1935367754
 20
192.413688057
 10
369.1856345667
 20
193.2640224704
 10
370.3126411727
 20
194.0563569811
 10
371.5644460027
 20
194.7835834057
 10
372.9298188779
 20
195.4391776576
 10
374.3965107784
 20
196.0172582761
 10
375.9513637325
 20
196.5126391901
 10
377.5804288586
 20
196.9208762433
 10
379.2690915039
 20
197.2383070634
 10
381.0022023546
 20
197.4620839182
 10
382.764213344
 20
197.590199263
  0
LINE
  5
53F
330
1F
100
AcDbEntity
  8
0
  6
Continuous
 62
     7
370
    15
100
AcDbLine
 10
369.904728687
 20
124.9484149513
 30
0.0
 11
369.904728687
 21
171.4912412288
 31
0.0
  0
LINE
  5
540
330
1F
100
AcDbEntity
  8
0
  6
Continuous
 62
     7
370
    15
100
AcDbLine
 10
369.904728687
 20
124.9484149513
 30
0.0
 11
366.4575831288
 21
126.9384097239
 31
0.0
  0
LINE
  5
541
330
1F
100
AcDbEntity
  8
0
  6
Continuous
 62
     7
370
    15
100
AcDbLine
 10
366.4575831288
 20
126.9384097239
 30
0.0
 11
366.4575831288
 21
173.4812360014
 31
0.0
  0
LWPOLYLINE
  5
542
330
1F
100
AcDbEntity
  8
0
  6
Continuous
 62
     7
370
    15
100
AcDbPolyline
 90
       27
 70
   128
 43
0.0
 10
374.1473693742
 20
166.5915982573
 10
374.6550345613
 20
166.9558487077
 10
375.1331960931
 20
167.4412933979
 10
375.5540649594
 20
168.0197200469
 10
375.8931817913
 20
168.6575126005
 10
376.1308383513
 20
169.3176048737
 10
376.253222904
 20
169.961634703
 10
376.253222904
 20
170.5521734155
 10
376.1308383513
 20
171.0549010479
 10
375.8931817913
 20
171.4406008975
 10
375.5540649594
 20
171.686857491
 10
375.1331960931
 20
171.7793592903
 10
374.6550345613
 20
171.7127304271
 10
374.1473693742
 20
171.4908431286
 10
373.639704187
 20
171.1265926783
 10
373.1615426552
 20
170.6411479881
 10
372.740673789
 20
170.0627213391
 10
372.401556957
 20
169.4249287855
 10
372.163900397
 20
168.7648365123
 10
372.0415158443
 20
168.120806683
 10
372.0415158443
 20
167.5302679705
 10
372.163900397
 20
167.0275403381
 10
372.401556957
 20
166.6418404885
 10
372.740673789
 20
166.395583895
 10
373.1615426552
 20
166.3030820956
 10
373.639704187
 20
166.3697109589
 10
374.1473693742
 20
166.5915982573
  0
LWPOLYLINE
  5
543
330
1F
100
AcDbEntity
  8
0
  6
Continuous
 62
     7
370
    15
100
AcDbPolyline
 90
        8
 70
   128
 43
0.0
 10
372.0575224409
 20
137.6349005209
 10
372.0415158443
 20
137.5005262373
 10
372.0415158443
 20
136.9099875248
 10
372.163900397
 20
136.4072598924
 10
372.401556957
 20
136.0215600428
 10
372.740673789
 20
135.7753034492
 10
373.1615426552
 20
135.6828016499
 10
373.4979361139
 20
135.7140274612
  0
LINE
  5
544
330
1F
100
AcDbEntity
  8
0
  6
Continuous
 62
     7
370
    15
100
AcDbLine
 10
378.5501841295
 20
153.9876152932
 30
0.0
 11
378.5501841295
 21
176.4821564212
 31
0.0
  0
LINE
  5
545
330
1F
100
AcDbEntity
  8
0
  6
Continuous
 62
     7
370
    15
100
AcDbLine
 10
378.4537120795
 20
129.8836380146
 30
0.0
 11
369.904728687
 21
124.9484149513
 31
0.0
  0
ARC
  5
546
330
1F
100
AcDbEntity
  8
0
  6
Continuous
 62
     7
370
    15
100
AcDbCircle
 10
371.7801623333
 20
133.5945364336
 30
0.0
 40
4.432351174608902
100
AcDbArc
 50
302.2811879617
 51
331.5887975254
  0
LWPOLYLINE
  5
547
330
1F
100
AcDbEntity
  8
0
  6
Continuous
 62
     7
370
    15
100
AcDbPolyline
 90
       13
 70
   128
 43
0.0
 10
373.3978288543
 20
134.1557960709
 10
373.1615426552
 20
133.8968114532
 10
372.740673789
 20
133.3183848042
 10
372.401556957
 20
132.6805922506
 10
372.163900397
 20
132.0204999774
 10
372.0415158443
 20
131.3764701482
 10
372.0415158443
 20
130.7859314356
 10
372.163900397
 20
130.2832038032
 10
372.401556957
 20
129.8975039536
 10
372.740673789
 20
129.6512473601
 10
373.1615426552
 20
129.5587455608
 10
373.639704187
 20
129.625374424
 10
374.1473693742
 20
129.8472617225
  0
LWPOLYLINE
  5
548
330
1F
100
AcDbEntity
  8
0
  6
Continuous
 62
     7
370
    15
100
AcDbPolyline
 90
       27
 70
   128
 43
0.0
 10
374.1473693742
 20
160.4675421682
 10
374.6550345613
 20
160.8317926186
 10
375.1331960931
 20
161.3172373087
 10
375.5540649594
 20
161.8956639578
 10
375.8931817913
 20
162.5334565114
 10
376.1308383513
 20
163.1935487846
 10
376.253222904
 20
163.8375786138
 10
376.253222904
 20
164.4281173264
 10
376.1308383513
 20
164.9308449588
 10
375.8931817913
 20
165.3165448084
 10
375.5540649594
 20
165.5628014019
 10
375.1331960931
 20
165.6553032012
 10
374.6550345613
 20
165.5886743379
 10
374.1473693742
 20
165.3667870395
 10
373.639704187
 20
165.0025365891
 10
373.1615426552
 20
164.517091899
 10
372.740673789
 20
163.9386652499
 10
372.401556957
 20
163.3008726963
 10
372.163900397
 20
162.6407804231
 10
372.0415158443
 20
161.9967505939
 10
372.0415158443
 20
161.4062118813
 10
372.163900397
 20
160.9034842489
 10
372.401556957
 20
160.5177843993
 10
372.740673789
 20
160.2715278058
 10
373.1615426552
 20
160.1790260065
 10
373.639704187
 20
160.2456548697
 10
374.1473693742
 20
160.4675421682
  0
LINE
  5
549
330
1F
100
AcDbEntity
  8
0
  6
Continuous
 62
     7
370
    15
100
AcDbLine
 10
402.9167566078
 20
139.413557392
 30
0.0
 11
402.9167566078
 21
185.9563836695
 31
0.0
  0
LWPOLYLINE
  5
54A
330
1F
100
AcDbEntity
  8
0
  6
Continuous
 62
     7
370
    15
100
AcDbPolyline
 90
       18
 70
   128
 43
0.0
 10
402.9167566078
 20
139.413557392
 10
402.6948302752
 20
138.3963700993
 10
402.307195392
 20
137.3958665015
 10
401.7573295046
 20
136.4210223065
 10
401.0501655643
 20
135.480583027
 10
400.1920476733
 20
134.5829855225
 10
399.1906741702
 20
133.7362823109
 10
398.0550285673
 20
132.9480693277
 10
396.795298957
 20
132.2254177814
 10
395.4227866132
 20
131.5748107163
 10
393.9498046051
 20
131.0020848522
 10
392.3895673343
 20
130.5123782217
 10
390.7560719859
 20
130.110084076
 10
389.0639729574
 20
129.7988114725
 10
387.3284503907
 20
129.5813528967
 10
385.5650739887
 20
129.459659211
 10
383.7896633365
 20
129.4348221526
 10
382.1759000329
 20
129.4966682944
  0
LINE
  5
54B
330
1F
100
AcDbEntity
  8
0
  6
Continuous
 62
     7
370
    15
100
AcDbLine
 10
361.1542822699
 20
129.9999401433
 30
0.0
 11
361.1542822699
 21
149.4437710527
 31
0.0
  0
LINE
  5
54C
330
1F
100
AcDbEntity
  8
0
  6
Continuous
 62
     7
370
    15
100
AcDbLine
 10
361.1542822699
 20
150.1567483872
 30
0.0
 11
361.1542822699
 21
150.7828920436
 31
0.0
  0
LINE
  5
54D
330
1F
100
AcDbEntity
  8
0
  6
Continuous
 62
     7
370
    15
100
AcDbLine
 10
361.1542822699
 20
151.7504395567
 30
0.0
 11
361.1542822699
 21
151.8376824676
 31
0.0
  0
LINE
  5
54E
330
1F
100
AcDbEntity
  8
0
  6
Continuous
 62
     7
370
    15
100
AcDbLine
 10
361.1542822699
 20
153.9090261873
 30
0.0
 11
361.1542822699
 21
176.5427664207
 31
0.0
  0
LINE
  5
54F
330
1F
100
AcDbEntity
  8
0
  6
Continuous
 62
     7
370
    15
100
AcDbLine
 10
361.1542822699
 20
129.9999401433
 30
0.0
 11
357.7071367116
 21
131.9899349158
 31
0.0
  0
LINE
  5
550
330
1F
100
AcDbEntity
  8
0
  6
Continuous
 62
     7
370
    15
100
AcDbLine
 10
357.7071367116
 20
131.9899349158
 30
0.0
 11
357.7071367116
 21
178.5327611933
 31
0.0
  0
LINE
  5
551
330
1F
100
AcDbEntity
  8
0
  6
Continuous
 62
     7
370
    15
100
AcDbLine
 10
371.3021926234
 20
180.870215399
 30
0.0
 11
371.3021926234
 21
182.4010303712
 31
0.0
  0
LINE
  5
552
330
1F
100
AcDbEntity
  8
0
  6
Continuous
 62
     7
370
    15
100
AcDbLine
 10
362.2149424416
 20
130.6122462271
 30
0.0
 11
361.1542822699
 21
129.9999401433
 31
0.0
  0
LINE
  5
553
330
1F
100
AcDbEntity
  8
0
  6
Continuous
 62
     7
370
    15
100
AcDbLine
 10
384.7494290752
 20
178.1448990451
 30
0.0
 11
384.7494290752
 21
178.5564820873
 31
0.0
  0
LINE
  5
554
330
1F
100
AcDbEntity
  8
0
  6
Continuous
 62
     7
370
    15
100
AcDbLine
 10
396.8419021182
 20
182.116827094
 30
0.0
 11
396.8419021182
 21
191.480959557
 31
0.0
  0
LINE
  5
555
330
1F
100
AcDbEntity
  8
0
  6
Continuous
 62
     7
370
    15
100
AcDbLine
 10
369.2406786403
 20
186.3862885708
 30
0.0
 11
369.2406786403
 21
187.2114980802
 31
0.0
  0
LINE
  5
556
330
1F
100
AcDbEntity
  8
0
  6
Continuous
 62
     7
370
    15
100
AcDbLine
 10
409.4143200858
 20
143.1645209464
 30
0.0
 11
409.4143200858
 21
189.7073472239
 31
0.0
  0
LINE
  5
557
330
1F
100
AcDbEntity
  8
0
  6
Continuous
 62
     7
370
    15
100
AcDbLine
 10
409.4143200858
 20
143.1645209464
 30
0.0
 11
402.9167566078
 21
139.413557392
 31
0.0
  0
LINE
  5
558
330
1F
100
AcDbEntity
  8
0
  6
Continuous
 62
     7
370
    15
100
AcDbLine
 10
369.9458189328
 20
184.1443867711
 30
0.0
 11
369.9458189328
 21
187.102424317
 31
0.0
  0
LINE
  5
559
330
1F
100
AcDbEntity
  8
0
  6
Continuous
 62
     7
370
    15
100
AcDbLine
 10
371.5957903453
 20
181.0397057562
 30
0.0
 11
371.5957903453
 21
190.6572333952
 31
0.0
  0
LINE
  5
55A
330
1F
100
AcDbEntity
  8
0
  6
Continuous
 62
     7
370
    15
100
AcDbLine
 10
396.3257035977
 20
181.6828055628
 30
0.0
 11
396.3257035977
 21
191.1829644941
 31
0.0
  0
LINE
  5
55B
330
1F
100
AcDbEntity
  8
0
  6
Continuous
 62
     7
370
    15
100
AcDbLine
 10
391.8178978676
 20
179.3313858393
 30
0.0
 11
391.8178978676
 21
193.7852653505
 31
0.0
  0
LINE
  5
55C
330
1F
100
AcDbEntity
  8
0
  6
Continuous
 62
     7
370
    15
100
AcDbLine
 10
395.8909028956
 20
197.2080967513
 30
0.0
 11
395.8909028956
 21
197.5142497932
 31
0.0
  0
ARC
  5
55D
330
1F
100
AcDbEntity
  8
0
  6
Continuous
 62
     8
370
    15
100
AcDbCircle
 10
373.2350678996
 20
131.1826859581
 30
0.0
 40
1.205642118494479
100
AcDbArc
 50
177.6073450825
 51
236.9195443098
  0
ARC
  5
55E
330
1F
100
AcDbEntity
  8
0
  6
Continuous
 62
     8
370
    15
100
AcDbCircle
 10
372.3949551498
 20
133.2494009086
 30
0.0
 40
3.294475534208133
100
AcDbArc
 50
302.1356185141
 51
331.9894907933
  0
LWPOLYLINE
  5
55F
330
1F
100
AcDbEntity
  8
0
  6
Continuous
 62
     8
370
    15
100
AcDbPolyline
 90
       11
 70
   128
 43
0.0
 10
373.4161421494
 20
133.5064309059
 10
373.2872151007
 20
133.3458928116
 10
372.9449791641
 20
132.8058802243
 10
372.7001537315
 20
132.2246318028
 10
372.5725731033
 20
131.6492368375
 10
372.5725731033
 20
131.1263104064
 10
372.7001537315
 20
130.6982168989
 10
372.9449791641
 20
130.3996379052
 10
373.2872151007
 20
130.2547625195
 10
373.699135621
 20
130.275327684
 10
374.1473693742
 20
130.4596673314
  0
ARC
  5
560
330
1F
100
AcDbEntity
  8
0
  6
Continuous
 62
     8
370
    15
100
AcDbCircle
 10
373.2350678998
 20
137.3067420475
 30
0.0
 40
1.205642118815996
100
AcDbArc
 50
177.6073450459
 51
236.9195443069
  0
ARC
  5
561
330
1F
100
AcDbEntity
  8
0
  6
Continuous
 62
     8
370
    15
100
AcDbCircle
 10
373.5085567383
 20
137.3039585547
 30
0.0
 40
0.9467377119318889
100
AcDbArc
 50
177.6181534527
 51
260.1932952325
  0
ARC
  5
562
330
1F
100
AcDbEntity
  8
0
  6
Continuous
 62
     8
370
    15
100
AcDbCircle
 10
373.2350678999
 20
167.9270224933
 30
0.0
 40
1.205642118872433
100
AcDbArc
 50
177.6073450392
 51
236.9195443064
  0
ARC
  5
563
330
1F
100
AcDbEntity
  8
0
  6
Continuous
 62
     8
370
    15
100
AcDbCircle
 10
374.6565990453
 20
170.3862039693
 30
0.0
 40
1.207845810436022
100
AcDbArc
 50
63.5094849325
 51
122.3644497439
  0
ARC
  5
564
330
1F
100
AcDbEntity
  8
0
  6
Continuous
 62
     8
370
    15
100
AcDbCircle
 10
373.2350678999
 20
161.8029664042
 30
0.0
 40
1.20564211891251
100
AcDbArc
 50
177.6073450346
 51
236.9195443061
  0
ARC
  5
565
330
1F
100
AcDbEntity
  8
0
  6
Continuous
 62
     8
370
    15
100
AcDbCircle
 10
374.6565990453
 20
164.26214788
 30
0.0
 40
1.207845810507774
100
AcDbArc
 50
63.509484934
 51
122.3644497459
  0
LINE
  5
566
330
1F
100
AcDbEntity
  8
0
  6
Continuous
 62
     8
370
    15
100
AcDbLine
 10
352.5035336918
 20
177.9609353218
 30
0.0
 11
357.7071367116
 21
174.9569592399
 31
0.0
  0
LINE
  5
567
330
1F
100
AcDbEntity
  8
0
  6
Continuous
 62
     8
370
    15
100
AcDbLine
 10
350.0655744978
 20
150.3893833715
 30
0.0
 11
351.1285053779
 21
149.7757664356
 31
0.0
  0
LINE
  5
568
330
1F
100
AcDbEntity
  8
0
  6
Continuous
 62
     8
370
    15
100
AcDbLine
 10
397.1522335307
 20
149.6095531084
 30
0.0
 11
396.5494903253
 21
149.9575093544
 31
0.0
  0
LINE
  5
569
330
1F
100
AcDbEntity
  8
0
  6
Continuous
 62
     8
370
    15
100
AcDbLine
 10
385.7148640526
 20
129.8168944919
 30
0.0
 11
385.1202718425
 21
130.1601452685
 31
0.0
  0
ENDSEC
  0
SECTION
  2
OBJECTS
  0
DICTIONARY
  5
C
330
0
100
AcDbDictionary
281
     1
  3
ACAD_GROUP
350
D
  3
ACAD_LAYOUT
350
1A
  3
ACAD_MLINESTYLE
350
17
  3
ACAD_PLOTSETTINGS
350
19
  3
ACAD_PLOTSTYLENAME
350
E
  3
ACAD_SCALELIST
350
47
  0
DICTIONARY
  5
D
102
{ACAD_REACTORS
330
C
102
}
330
C
100
AcDbDictionary
281
     1
  0
DICTIONARY
  5
1A
102
{ACAD_REACTORS
330
C
102
}
330
C
100
AcDbDictionary
281
     1
  3
Layout1
350
1E
  3
Layout2
350
26
  3
Model
350
22
  0
DICTIONARY
  5
17
102
{ACAD_REACTORS
330
C
102
}
330
C
100
AcDbDictionary
281
     1
  3
Standard
350
18
  0
DICTIONARY
  5
19
102
{ACAD_REACTORS
330
C
102
}
330
C
100
AcDbDictionary
281
     1
  0
ACDBDICTIONARYWDFLT
  5
E
102
{ACAD_REACTORS
330
C
102
}
330
C
100
AcDbDictionary
281
     1
  3
Normal
350
F
100
AcDbDictionaryWithDefault
340
F
  0
DICTIONARY
  5
47
102
{ACAD_REACTORS
330
C
102
}
330
C
100
AcDbDictionary
281
     1
  3
A0
350
48
  3
A1
350
49
  3
A2
350
4A
  3
A3
350
4B
  3
A4
350
4C
  3
A5
350
4D
  3
A6
350
4E
  3
A7
350
4F
  3
A8
350
50
  3
A9
350
51
  3
B0
350
52
  3
B1
350
53
  3
B2
350
54
  3
B3
350
55
  3
B4
350
56
  3
B5
350
57
  3
B6
350
58
  3
B7
350
59
  3
B8
350
5A
  3
B9
350
5B
  3
C0
350
5C
  3
C1
350
5D
  3
C2
350
5E
  3
C3
350
5F
  3
C4
350
60
  3
C5
350
61
  3
C6
350
62
  3
C7
350
63
  3
C8
350
64
  3
C9
350
65
  3
D0
350
66
  3
D1
350
67
  3
D2
350
68
  0
LAYOUT
  5
1E
102
{ACAD_REACTORS
330
1A
102
}
330
1A
100
AcDbPlotSettings
  1

  2
none_device
  4

  6

 40
0.0
 41
0.0
 42
0.0
 43
0.0
 44
0.0
 45
0.0
 46
0.0
 47
0.0
 48
0.0
 49
0.0
140
0.0
141
0.0
142
1.0
143
1.0
 70
   688
 72
     1
 73
     0
 74
     5
  7

 75
    16
147
1.0
148
0.0
149
0.0
100
AcDbLayout
  1
Layout1
 70
     1
 71
     1
 10
0.0
 20
0.0
 11
420.0
 21
297.0
 12
0.0
 22
0.0
 32
0.0
 14
1.0000000000E+20
 24
1.0000000000E+20
 34
1.0000000000E+20
 15
-1.0000000000E+20
 25
-1.0000000000E+20
 35
-1.0000000000E+20
146
0.0
 13
0.0
 23
0.0
 33
0.0
 16
1.0
 26
0.0
 36
0.0
 17
0.0
 27
1.0
 37
0.0
 76
     0
330
1B
  0
LAYOUT
  5
26
102
{ACAD_REACTORS
330
1A
102
}
330
1A
100
AcDbPlotSettings
  1

  2
none_device
  4

  6

 40
0.0
 41
0.0
 42
0.0
 43
0.0
 44
0.0
 45
0.0
 46
0.0
 47
0.0
 48
0.0
 49
0.0
140
0.0
141
0.0
142
1.0
143
1.0
 70
   688
 72
     1
 73
     0
 74
     5
  7

 75
    16
147
1.0
148
0.0
149
0.0
100
AcDbLayout
  1
Layout2
 70
     1
 71
     2
 10
0.0
 20
0.0
 11
0.0
 21
0.0
 12
0.0
 22
0.0
 32
0.0
 14
0.0
 24
0.0
 34
0.0
 15
0.0
 25
0.0
 35
0.0
146
0.0
 13
0.0
 23
0.0
 33
0.0
 16
1.0
 26
0.0
 36
0.0
 17
0.0
 27
1.0
 37
0.0
 76
     0
330
23
  0
LAYOUT
  5
22
102
{ACAD_REACTORS
330
1A
102
}
330
1A
100
AcDbPlotSettings
  1

  2
none_device
  4
Letter_(8.50_x_11.00_Inches)
  6

 40
6.35
 41
6.35
 42
6.35000508
 43
6.35000508
 44
215.9
 45
279.4
 46
0.0
 47
0.0
 48
0.0
 49
0.0
140
0.0
141
0.0
142
1.0
143
1.0
 70
  1712
 72
     1
 73
     0
 74
     0
  7

 75
     0
147
1.0
148
0.0
149
0.0
100
AcDbLayout
  1
Model
 70
     1
 71
     0
 10
0.0
 20
0.0
 11
445.5
 21
315.0
 12
0.0
 22
0.0
 32
0.0
 14
0.0
 24
0.0
 34
0.0
 15
445.5
 25
315.0
 35
0.0
146
0.0
 13
0.0
 23
0.0
 33
0.0
 16
1.0
 26
0.0
 36
0.0
 17
0.0
 27
1.0
 37
0.0
 76
     0
330
1F
331
29
  0
MLINESTYLE
  5
18
102
{ACAD_REACTORS
330
17
102
}
330
17
100
AcDbMlineStyle
  2
Standard
 70
     0
  3

 62
   256
 51
90.0
 52
90.0
 71
     2
 49
0.5
 62
   256
  6
BYLAYER
 49
-0.5
 62
   256
  6
BYLAYER
  0
ACDBPLACEHOLDER
  5
F
102
{ACAD_REACTORS
330
E
102
}
330
E
  0
SCALE
  5
48
102
{ACAD_REACTORS
330
47
102
}
330
47
100
AcDbScale
 70
     0
300
1:1
140
1.0
141
1.0
290
     1
  0
SCALE
  5
49
102
{ACAD_REACTORS
330
47
102
}
330
47
100
AcDbScale
 70
     0
300
1:2
140
1.0
141
2.0
290
     0
  0
SCALE
  5
4A
102
{ACAD_REACTORS
330
47
102
}
330
47
100
AcDbScale
 70
     0
300
1:4
140
1.0
141
4.0
290
     0
  0
SCALE
  5
4B
102
{ACAD_REACTORS
330
47
102
}
330
47
100
AcDbScale
 70
     0
300
1:5
140
1.0
141
5.0
290
     0
  0
SCALE
  5
4C
102
{ACAD_REACTORS
330
47
102
}
330
47
100
AcDbScale
 70
     0
300
1:8
140
1.0
141
8.0
290
     0
  0
SCALE
  5
4D
102
{ACAD_REACTORS
330
47
102
}
330
47
100
AcDbScale
 70
     0
300
1:10
140
1.0
141
10.0
290
     0
  0
SCALE
  5
4E
102
{ACAD_REACTORS
330
47
102
}
330
47
100
AcDbScale
 70
     0
300
1:16
140
1.0
141
16.0
290
     0
  0
SCALE
  5
4F
102
{ACAD_REACTORS
330
47
102
}
330
47
100
AcDbScale
 70
     0
300
1:20
140
1.0
141
20.0
290
     0
  0
SCALE
  5
50
102
{ACAD_REACTORS
330
47
102
}
330
47
100
AcDbScale
 70
     0
300
1:30
140
1.0
141
30.0
290
     0
  0
SCALE
  5
51
102
{ACAD_REACTORS
330
47
102
}
330
47
100
AcDbScale
 70
     0
300
1:40
140
1.0
141
40.0
290
     0
  0
SCALE
  5
52
102
{ACAD_REACTORS
330
47
102
}
330
47
100
AcDbScale
 70
     0
300
1:50
140
1.0
141
50.0
290
     0
  0
SCALE
  5
53
102
{ACAD_REACTORS
330
47
102
}
330
47
100
AcDbScale
 70
     0
300
1:100
140
1.0
141
100.0
290
     0
  0
SCALE
  5
54
102
{ACAD_REACTORS
330
47
102
}
330
47
100
AcDbScale
 70
     0
300
2:1
140
2.0
141
1.0
290
     0
  0
SCALE
  5
55
102
{ACAD_REACTORS
330
47
102
}
330
47
100
AcDbScale
 70
     0
300
4:1
140
4.0
141
1.0
290
     0
  0
SCALE
  5
56
102
{ACAD_REACTORS
330
47
102
}
330
47
100
AcDbScale
 70
     0
300
8:1
140
8.0
141
1.0
290
     0
  0
SCALE
  5
57
102
{ACAD_REACTORS
330
47
102
}
330
47
100
AcDbScale
 70
     0
300
10:1
140
10.0
141
1.0
290
     0
  0
SCALE
  5
58
102
{ACAD_REACTORS
330
47
102
}
330
47
100
AcDbScale
 70
     0
300
100:1
140
100.0
141
1.0
290
     0
  0
SCALE
  5
59
102
{ACAD_REACTORS
330
47
102
}
330
47
100
AcDbScale
 70
     0
300
1/128" = 1'-0"
140
0.0078125
141
12.0
290
     0
  0
SCALE
  5
5A
102
{ACAD_REACTORS
330
47
102
}
330
47
100
AcDbScale
 70
     0
300
1/64" = 1'-0"
140
0.015625
141
12.0
290
     0
  0
SCALE
  5
5B
102
{ACAD_REACTORS
330
47
102
}
330
47
100
AcDbScale
 70
     0
300
1/32" = 1'-0"
140
0.03125
141
12.0
290
     0
  0
SCALE
  5
5C
102
{ACAD_REACTORS
330
47
102
}
330
47
100
AcDbScale
 70
     0
300
1/16" = 1'-0"
140
0.0625
141
12.0
290
     0
  0
SCALE
  5
5D
102
{ACAD_REACTORS
330
47
102
}
330
47
100
AcDbScale
 70
     0
300
3/32" = 1'-0"
140
0.09375
141
12.0
290
     0
  0
SCALE
  5
5E
102
{ACAD_REACTORS
330
47
102
}
330
47
100
AcDbScale
 70
     0
300
1/8" = 1'-0"
140
0.125
141
12.0
290
     0
  0
SCALE
  5
5F
102
{ACAD_REACTORS
330
47
102
}
330
47
100
AcDbScale
 70
     0
300
3/16" = 1'-0"
140
0.1875
141
12.0
290
     0
  0
SCALE
  5
60
102
{ACAD_REACTORS
330
47
102
}
330
47
100
AcDbScale
 70
     0
300
1/4" = 1'-0"
140
0.25
141
12.0
290
     0
  0
SCALE
  5
61
102
{ACAD_REACTORS
330
47
102
}
330
47
100
AcDbScale
 70
     0
300
3/8" = 1'-0"
140
0.375
141
12.0
290
     0
  0
SCALE
  5
62
102
{ACAD_REACTORS
330
47
102
}
330
47
100
AcDbScale
 70
     0
300
1/2" = 1'-0"
140
0.5
141
12.0
290
     0
  0
SCALE
  5
63
102
{ACAD_REACTORS
330
47
102
}
330
47
100
AcDbScale
 70
     0
300
3/4" = 1'-0"
140
0.75
141
12.0
290
     0
  0
SCALE
  5
64
102
{ACAD_REACTORS
330
47
102
}
330
47
100
AcDbScale
 70
     0
300
1" = 1'-0"
140
1.0
141
12.0
290
     0
  0
SCALE
  5
65
102
{ACAD_REACTORS
330
47
102
}
330
47
100
AcDbScale
 70
     0
300
1-1/2" = 1'-0"
140
1.5
141
12.0
290
     0
  0
SCALE
  5
66
102
{ACAD_REACTORS
330
47
102
}
330
47
100
AcDbScale
 70
     0
300
3" = 1'-0"
140
3.0
141
12.0
290
     0
  0
SCALE
  5
67
102
{ACAD_REACTORS
330
47
102
}
330
47
100
AcDbScale
 70
     0
300
6" = 1'-0"
140
6.0
141
12.0
290
     0
  0
SCALE
  5
68
102
{ACAD_REACTORS
330
47
102
}
330
47
100
AcDbScale
 70
     0
300
1'-0" = 1'-0"
140
12.0
141
12.0
290
     0
  0
ENDSEC
  0
EOF
