  0
SECTION
  2
HEADER
  9
$ACADVER
  1
AC1015
  9
$ACADMAINTVER
 70
     6
  9
$DWGCODEPAGE
  3
ANSI_950
  9
$INSBASE
 10
0.0
 20
0.0
 30
0.0
  9
$EXTMIN
 10
0.0
 20
0.0
 30
0.0
  9
$EXTMAX
 10
445.5
 20
315.0
 30
0.0
  9
$LIMMIN
 10
0.0
 20
0.0
  9
$LIMMAX
 10
445.5
 20
315.0
  9
$ORTHOMODE
 70
     0
  9
$REGENMODE
 70
     1
  9
$FILLMODE
 70
     1
  9
$QTEXTMODE
 70
     0
  9
$MIRRTEXT
 70
     1
  9
$LTSCALE
 40
1.5
  9
$ATTMODE
 70
     1
  9
$TEXTSIZE
 40
5.2916666667
  9
$TRACEWID
 40
1.0
  9
$TEXTSTYLE
  7
STANDARD
  9
$CLAYER
  8
0
  9
$CELTYPE
  6
ByLayer
  9
$CECOLOR
 62
   256
  9
$CELTSCALE
 40
1.0
  9
$DISPSILH
 70
     0
  9
$DIMSCALE
 40
1.0
  9
$DIMASZ
 40
3.0
  9
$DIMEXO
 40
1.5
  9
$DIMDLI
 40
3.75
  9
$DIMRND
 40
0.0
  9
$DIMDLE
 40
0.0
  9
$DIMEXE
 40
1.5
  9
$DIMTP
 40
0.0
  9
$DIMTM
 40
0.0
  9
$DIMTXT
 40
3.75
  9
$DIMCEN
 40
2.5
  9
$DIMTSZ
 40
0.0
  9
$DIMTOL
 70
     0
  9
$DIMLIM
 70
     0
  9
$DIMTIH
 70
     1
  9
$DIMTOH
 70
     1
  9
$DIMSE1
 70
     0
  9
$DIMSE2
 70
     0
  9
$DIMTAD
 70
     1
  9
$DIMZIN
 70
     0
  9
$DIMBLK
  1

  9
$DIMASO
 70
     1
  9
$DIMSHO
 70
     1
  9
$DIMPOST
  1

  9
$DIMAPOST
  1

  9
$DIMALT
 70
     0
  9
$DIMALTD
 70
     3
  9
$DIMALTF
 40
0.0393700787
  9
$DIMLFAC
 40
1.0
  9
$DIMTOFL
 70
     1
  9
$DIMTVP
 40
0.0
  9
$DIMTIX
 70
     0
  9
$DIMSOXD
 70
     0
  9
$DIMSAH
 70
     0
  9
$DIMBLK1
  1

  9
$DIMBLK2
  1

  9
$DIMSTYLE
  2
ISO-25
  9
$DIMCLRD
 70
     0
  9
$DIMCLRE
 70
     0
  9
$DIMCLRT
 70
     0
  9
$DIMTFAC
 40
1.0
  9
$DIMGAP
 40
1.5
  9
$DIMJUST
 70
     0
  9
$DIMSD1
 70
     0
  9
$DIMSD2
 70
     0
  9
$DIMTOLJ
 70
     0
  9
$DIMTZIN
 70
     0
  9
$DIMALTZ
 70
     0
  9
$DIMALTTZ
 70
     0
  9
$DIMUPT
 70
     0
  9
$DIMDEC
 70
     2
  9
$DIMTDEC
 70
     2
  9
$DIMALTU
 70
     2
  9
$DIMALTTD
 70
     3
  9
$DIMTXSTY
  7
STANDARD
  9
$DIMAUNIT
 70
     0
  9
$DIMADEC
 70
     1
  9
$DIMALTRND
 40
0.0
  9
$DIMAZIN
 70
     0
  9
$DIMDSEP
 70
    44
  9
$DIMATFIT
 70
     3
  9
$DIMFRAC
 70
     0
  9
$DIMLDRBLK
  1

  9
$DIMLUNIT
 70
     2
  9
$DIMLWD
 70
    -2
  9
$DIMLWE
 70
    -2
  9
$DIMTMOVE
 70
     0
  9
$LUNITS
 70
     2
  9
$LUPREC
 70
     2
  9
$SKETCHINC
 40
1.0
  9
$FILLETRAD
 40
10.0
  9
$AUNITS
 70
     0
  9
$AUPREC
 70
     1
  9
$MENU
  1
.
  9
$ELEVATION
 40
0.0
  9
$PELEVATION
 40
0.0
  9
$THICKNESS
 40
0.0
  9
$LIMCHECK
 70
     0
  9
$CHAMFERA
 40
0.0
  9
$CHAMFERB
 40
0.0
  9
$CHAMFERC
 40
0.0
  9
$CHAMFERD
 40
0.0
  9
$SKPOLY
 70
     0
  9
$TDCREATE
 40
2457504.476565903
  9
$TDUCREATE
 40
2457504.14323257
  9
$TDUPDATE
 40
2457504.476577662
  9
$TDUUPDATE
 40
2457504.143244329
  9
$TDINDWG
 40
0.0000000116
  9
$TDUSRTIMER
 40
0.0000000116
  9
$USRTIMER
 70
     1
  9
$ANGBASE
 50
0.0
  9
$ANGDIR
 70
     0
  9
$PDMODE
 70
     0
  9
$PDSIZE
 40
-1.0
  9
$PLINEWID
 40
0.0
  9
$SPLFRAME
 70
     0
  9
$SPLINETYPE
 70
     6
  9
$SPLINESEGS
 70
     8
  9
$HANDSEED
  5
4A0
  9
$SURFTAB1
 70
     6
  9
$SURFTAB2
 70
     6
  9
$SURFTYPE
 70
     6
  9
$SURFU
 70
     6
  9
$SURFV
 70
     6
  9
$UCSBASE
  2

  9
$UCSNAME
  2

  9
$UCSORG
 10
0.0
 20
0.0
 30
0.0
  9
$UCSXDIR
 10
1.0
 20
0.0
 30
0.0
  9
$UCSYDIR
 10
0.0
 20
1.0
 30
0.0
  9
$UCSORTHOREF
  2

  9
$UCSORTHOVIEW
 70
     0
  9
$UCSORGTOP
 10
0.0
 20
0.0
 30
0.0
  9
$UCSORGBOTTOM
 10
0.0
 20
0.0
 30
0.0
  9
$UCSORGLEFT
 10
0.0
 20
0.0
 30
0.0
  9
$UCSORGRIGHT
 10
0.0
 20
0.0
 30
0.0
  9
$UCSORGFRONT
 10
0.0
 20
0.0
 30
0.0
  9
$UCSORGBACK
 10
0.0
 20
0.0
 30
0.0
  9
$PUCSBASE
  2

  9
$PUCSNAME
  2

  9
$PUCSORG
 10
0.0
 20
0.0
 30
0.0
  9
$PUCSXDIR
 10
1.0
 20
0.0
 30
0.0
  9
$PUCSYDIR
 10
0.0
 20
1.0
 30
0.0
  9
$PUCSORTHOREF
  2

  9
$PUCSORTHOVIEW
 70
     0
  9
$PUCSORGTOP
 10
0.0
 20
0.0
 30
0.0
  9
$PUCSORGBOTTOM
 10
0.0
 20
0.0
 30
0.0
  9
$PUCSORGLEFT
 10
0.0
 20
0.0
 30
0.0
  9
$PUCSORGRIGHT
 10
0.0
 20
0.0
 30
0.0
  9
$PUCSORGFRONT
 10
0.0
 20
0.0
 30
0.0
  9
$PUCSORGBACK
 10
0.0
 20
0.0
 30
0.0
  9
$USERI1
 70
     0
  9
$USERI2
 70
     0
  9
$USERI3
 70
     0
  9
$USERI4
 70
     0
  9
$USERI5
 70
     0
  9
$USERR1
 40
0.0
  9
$USERR2
 40
0.0
  9
$USERR3
 40
0.0
  9
$USERR4
 40
0.0
  9
$USERR5
 40
0.0
  9
$WORLDVIEW
 70
     1
  9
$SHADEDGE
 70
     3
  9
$SHADEDIF
 70
    70
  9
$TILEMODE
 70
     1
  9
$MAXACTVP
 70
    64
  9
$PINSBASE
 10
0.0
 20
0.0
 30
0.0
  9
$PLIMCHECK
 70
     0
  9
$PEXTMIN
 10
1.0000000000E+20
 20
1.0000000000E+20
 30
1.0000000000E+20
  9
$PEXTMAX
 10
-1.0000000000E+20
 20
-1.0000000000E+20
 30
-1.0000000000E+20
  9
$PLIMMIN
 10
0.0
 20
0.0
  9
$PLIMMAX
 10
420.0
 20
297.0
  9
$UNITMODE
 70
     0
  9
$VISRETAIN
 70
     1
  9
$PLINEGEN
 70
     0
  9
$PSLTSCALE
 70
     1
  9
$TREEDEPTH
 70
  3020
  9
$CMLSTYLE
  2
Standard
  9
$CMLJUST
 70
     0
  9
$CMLSCALE
 40
20.0
  9
$PROXYGRAPHICS
 70
     1
  9
$MEASUREMENT
 70
     1
  9
$CELWEIGHT
370
    -1
  9
$ENDCAPS
280
     0
  9
$JOINSTYLE
280
     0
  9
$LWDISPLAY
290
     1
  9
$INSUNITS
 70
     4
  9
$HYPERLINKBASE
  1

  9
$STYLESHEET
  1

  9
$XEDIT
290
     1
  9
$CEPSNTYPE
380
     0
  9
$PSTYLEMODE
290
     1
  9
$FINGERPRINTGUID
  2
{120BB006-9336-46DB-8B0E-BF7E100823CD}
  9
$VERSIONGUID
  2
{FAEB1C32-E019-11D5-929B-00C0DF256EC4}
  9
$EXTNAMES
290
     1
  9
$PSVPSCALE
 40
0.0
  9
$OLESTARTUP
290
     0
  0
ENDSEC
  0
SECTION
  2
CLASSES
  0
CLASS
  1
ACDBDICTIONARYWDFLT
  2
AcDbDictionaryWithDefault
  3
ObjectDBX Classes
 90
        0
280
     0
281
     0
  0
CLASS
  1
VISUALSTYLE
  2
AcDbVisualStyle
  3
ObjectDBX Classes
 90
     4095
280
     0
281
     0
  0
CLASS
  1
MATERIAL
  2
AcDbMaterial
  3
ObjectDBX Classes
 90
     1153
280
     0
281
     0
  0
CLASS
  1
SCALE
  2
AcDbScale
  3
ObjectDBX Classes
 90
     1153
280
     0
281
     0
  0
CLASS
  1
TABLESTYLE
  2
AcDbTableStyle
  3
ObjectDBX Classes
 90
     4095
280
     0
281
     0
  0
CLASS
  1
MLEADERSTYLE
  2
AcDbMLeaderStyle
  3
ACDB_MLEADERSTYLE_CLASS
 90
     4095
280
     0
281
     0
  0
CLASS
  1
SUN
  2
AcDbSun
  3
SCENEOE
 90
     1153
280
     0
281
     0
  0
CLASS
  1
ACDBPLACEHOLDER
  2
AcDbPlaceHolder
  3
ObjectDBX Classes
 90
        0
280
     0
281
     0
  0
CLASS
  1
LAYOUT
  2
AcDbLayout
  3
ObjectDBX Classes
 90
        0
280
     0
281
     0
  0
ENDSEC
  0
SECTION
  2
TABLES
  0
TABLE
  2
VPORT
  5
8
330
0
100
AcDbSymbolTable
 70
     1
  0
VPORT
  5
29
330
8
100
AcDbSymbolTableRecord
100
AcDbViewportTableRecord
  2
*Active
 70
     0
 10
0.0
 20
0.0
 11
1.0
 21
1.0
 12
222.75
 22
157.5
 13
0.0
 23
0.0
 14
10.0
 24
10.0
 15
10.0
 25
10.0
 16
0.0
 26
0.0
 36
1.0
 17
0.0
 27
0.0
 37
0.0
 40
315.0
 41
1.4142857143
 42
50.0
 43
0.0
 44
0.0
 50
0.0
 51
0.0
 71
     0
 72
  2000
 73
     1
 74
     3
 75
     0
 76
     0
 77
     0
 78
     0
281
     0
 65
     1
110
0.0
120
0.0
130
0.0
111
1.0
121
0.0
131
0.0
112
0.0
122
1.0
132
0.0
 79
     0
146
0.0
  0
ENDTAB
  0
TABLE
  2
LTYPE
  5
5
330
0
100
AcDbSymbolTable
 70
     6
  0
LTYPE
  5
14
330
5
100
AcDbSymbolTableRecord
100
AcDbLinetypeTableRecord
  2
ByBlock
 70
     0
  3

 72
    65
 73
     0
 40
0.0
  0
LTYPE
  5
15
330
5
100
AcDbSymbolTableRecord
100
AcDbLinetypeTableRecord
  2
ByLayer
 70
     0
  3

 72
    65
 73
     0
 40
0.0
  0
LTYPE
  5
16
330
5
100
AcDbSymbolTableRecord
100
AcDbLinetypeTableRecord
  2
Continuous
 70
     0
  3
Solid line
 72
    65
 73
     0
 40
0.0
  0
LTYPE
  5
6E
330
5
100
AcDbSymbolTableRecord
100
AcDbLinetypeTableRecord
  2
HIDDEN
 70
     0
  3
Hidden __ __ __ __ __ __ __ __ __ __ __ __ __ __
 72
    65
 73
     2
 40
1.905
 49
1.27
 74
     0
 49
-0.635
 74
     0
  0
LTYPE
  5
6F
330
5
100
AcDbSymbolTableRecord
100
AcDbLinetypeTableRecord
  2
PHANTOM
 70
     0
  3
Phantom ______  __  __  ______  __  __  ______
 72
    65
 73
     6
 40
12.7
 49
6.35
 74
     0
 49
-1.27
 74
     0
 49
1.27
 74
     0
 49
-1.27
 74
     0
 49
1.27
 74
     0
 49
-1.27
 74
     0
  0
LTYPE
  5
70
330
5
100
AcDbSymbolTableRecord
100
AcDbLinetypeTableRecord
  2
CENTER
 70
     0
  3
Center ____ _ ____ _ ____ _ ____ _ ____ _ ____
 72
    65
 73
     4
 40
10.16
 49
6.35
 74
     0
 49
-1.27
 74
     0
 49
1.27
 74
     0
 49
-1.27
 74
     0
  0
LTYPE
  5
71
330
5
100
AcDbSymbolTableRecord
100
AcDbLinetypeTableRecord
  2
CENTERX2
 70
     0
  3
Center (2x) ________  __  ________  __  _____
 72
    65
 73
     4
 40
20.32
 49
12.7
 74
     0
 49
-2.54
 74
     0
 49
2.54
 74
     0
 49
-2.54
 74
     0
  0
LTYPE
  5
72
330
5
100
AcDbSymbolTableRecord
100
AcDbLinetypeTableRecord
  2
DOT2
 70
     0
  3
Dot (.5x) ........................................
 72
    65
 73
     2
 40
0.635
 49
0.0
 74
     0
 49
-0.635
 74
     0
  0
ENDTAB
  0
TABLE
  2
LAYER
  5
2
330
0
100
AcDbSymbolTable
 70
     8
  0
LAYER
  5
10
330
2
100
AcDbSymbolTableRecord
100
AcDbLayerTableRecord
  2
0
 70
     0
 62
     7
  6
Continuous
370
    -3
390
F
  0
LAYER
  5
73
330
2
100
AcDbSymbolTableRecord
100
AcDbLayerTableRecord
  2
SLD-0
 70
     0
 62
   179
  6
Continuous
370
    15
390
F
  0
LAYER
  5
74
330
2
100
AcDbSymbolTableRecord
100
AcDbLayerTableRecord
  2
輪廓線
 70
     0
 62
   219
  6
Continuous
370
    15
390
F
  0
LAYER
  5
75
330
2
100
AcDbSymbolTableRecord
100
AcDbLayerTableRecord
  2
DIM
 70
     0
 62
     7
  6
Continuous
370
    -3
390
F
  0
LAYER
  5
76
330
2
100
AcDbSymbolTableRecord
100
AcDbLayerTableRecord
  2
中心線
 70
     0
 62
     1
  6
CENTERX2
370
    -3
390
F
  0
LAYER
  5
77
330
2
100
AcDbSymbolTableRecord
100
AcDbLayerTableRecord
  2
虛線
 70
     0
 62
     6
  6
HIDDEN
370
    -3
390
F
  0
LAYER
  5
78
330
2
100
AcDbSymbolTableRecord
100
AcDbLayerTableRecord
  2
SECTION
 70
     0
 62
     5
  6
PHANTOM
370
    15
390
F
  0
LAYER
  5
79
330
2
100
AcDbSymbolTableRecord
100
AcDbLayerTableRecord
  2
假想線
 70
     0
 62
     5
  6
PHANTOM
370
    -3
390
F
  0
ENDTAB
  0
TABLE
  2
STYLE
  5
3
330
0
100
AcDbSymbolTable
 70
     5
  0
STYLE
  5
11
330
3
100
AcDbSymbolTableRecord
100
AcDbTextStyleTableRecord
  2
STANDARD
 70
     0
 40
0.0
 41
1.0
 50
0.0
 71
     0
 42
5.2916666667
  3
ARIALBD.TTF
  4

1001
ACAD
1000
ARIAL
1071
 33554466
  0
STYLE
  5
7A
330
3
100
AcDbSymbolTableRecord
100
AcDbTextStyleTableRecord
  2
SLDTEXTSTYLE0
 70
     0
 40
0.0
 41
1.0
 50
0.0
 71
     0
 42
2.5
  3
ARIAL.TTF
  4

1001
ACAD
1000
Arial
1071
      290
  0
STYLE
  5
CB
330
3
100
AcDbSymbolTableRecord
100
AcDbTextStyleTableRecord
  2
SLDTEXTSTYLE1
 70
     0
 40
0.0
 41
0.948
 50
0.0
 71
     0
 42
5.2916666667
  3
ARIAL.TTF
  4

1001
ACAD
1000
Arial
1071
      290
  0
STYLE
  5
D4
330
3
100
AcDbSymbolTableRecord
100
AcDbTextStyleTableRecord
  2
SLDTEXTSTYLE2
 70
     0
 40
0.0
 41
1.0
 50
0.0
 71
     0
 42
5.2916666667
  3
ARIALBD.TTF
  4

1001
ACAD
1000
Arial CE
1071
 33554722
  0
STYLE
  5
103
330
3
100
AcDbSymbolTableRecord
100
AcDbTextStyleTableRecord
  2
SLDTEXTSTYLE3
 70
     0
 40
0.0
 41
0.948
 50
0.0
 71
     0
 42
5.2916666667
  3
ARIALBD.TTF
  4

1001
ACAD
1000
Arial
1071
 33554722
  0
ENDTAB
  0
TABLE
  2
VIEW
  5
6
330
0
100
AcDbSymbolTable
 70
     0
  0
ENDTAB
  0
TABLE
  2
UCS
  5
7
330
0
100
AcDbSymbolTable
 70
     0
  0
ENDTAB
  0
TABLE
  2
APPID
  5
9
330
0
100
AcDbSymbolTable
 70
     1
  0
APPID
  5
12
330
9
100
AcDbSymbolTableRecord
100
AcDbRegAppTableRecord
  2
ACAD
 70
     0
  0
ENDTAB
  0
TABLE
  2
DIMSTYLE
  5
A
330
0
100
AcDbSymbolTable
 70
     5
100
AcDbDimStyleTable
  0
DIMSTYLE
105
27
330
A
100
AcDbSymbolTableRecord
100
AcDbDimStyleTableRecord
  2
ISO-25
 70
     0
 41
2.5
 42
0.625
 43
3.75
 44
1.25
 73
     0
 74
     0
 77
     1
 78
     8
140
2.5
141
2.5
143
0.0393700787
147
0.625
171
     3
172
     1
178
     0
271
     2
272
     2
274
     3
278
    44
283
     0
284
     8
340
7A
  0
DIMSTYLE
105
18E
102
{ACAD_REACTORS
330
18D
330
198
330
1A2
330
1AC
330
1B6
330
1C0
330
1CA
330
2D3
330
2DD
330
2E7
330
306
102
}
330
A
100
AcDbSymbolTableRecord
100
AcDbDimStyleTableRecord
  2
SLDDIMSTYLE0
 70
     0
 41
3.0
 44
0.0
 45
0.000000001
 73
     0
 74
     0
 77
     1
 78
    12
 79
     3
140
3.75
147
0.9375
173
     1
178
     0
271
     2
272
     2
276
     2
284
    12
340
CB
  0
DIMSTYLE
105
1D5
102
{ACAD_REACTORS
330
1D4
102
}
330
A
100
AcDbSymbolTableRecord
100
AcDbDimStyleTableRecord
  2
SLDDIMSTYLE1
 70
     0
  3
<>
 41
3.0
 44
0.0
 45
0.000000001
 78
    12
 79
     3
140
3.75
141
0.0
147
0.9375
173
     1
178
     0
271
     2
272
     2
276
     2
284
    12
340
CB
  0
DIMSTYLE
105
2F2
102
{ACAD_REACTORS
330
2F1
102
}
330
A
100
AcDbSymbolTableRecord
100
AcDbDimStyleTableRecord
  2
SLDDIMSTYLE2
 70
     0
 41
3.0
 44
0.0
 45
0.000000001
 73
     0
 74
     0
 77
     1
 78
    12
 79
     3
140
3.75
147
0.9375
173
     1
178
     0
271
     0
272
     0
276
     2
284
    12
340
CB
  0
DIMSTYLE
105
2FD
102
{ACAD_REACTORS
330
2FC
102
}
330
A
100
AcDbSymbolTableRecord
100
AcDbDimStyleTableRecord
  2
SLDDIMSTYLE3
 70
     0
 41
3.0
 44
0.0
 45
0.000000001
 78
    12
 79
     3
140
3.75
141
0.0
147
0.9375
173
     1
178
     0
271
     2
272
     2
276
     2
284
    12
340
CB
  0
ENDTAB
  0
TABLE
  2
BLOCK_RECORD
  5
1
330
0
100
AcDbSymbolTable
 70
    26
  0
BLOCK_RECORD
  5
1F
330
1
100
AcDbSymbolTableRecord
100
AcDbBlockTableRecord
  2
*Model_Space
340
22
  0
BLOCK_RECORD
  5
1B
330
1
100
AcDbSymbolTableRecord
100
AcDbBlockTableRecord
  2
*Paper_Space
340
1E
  0
BLOCK_RECORD
  5
23
330
1
100
AcDbSymbolTableRecord
100
AcDbBlockTableRecord
  2
*Paper_Space0
340
26
  0
BLOCK_RECORD
  5
CD
330
1
100
AcDbSymbolTableRecord
100
AcDbBlockTableRecord
  2
SW_NOTE_0
340
0
102
{BLKREFS
331
D3
102
}
  0
BLOCK_RECORD
  5
105
330
1
100
AcDbSymbolTableRecord
100
AcDbBlockTableRecord
  2
SW_NOTE_1
340
0
102
{BLKREFS
331
10A
102
}
  0
BLOCK_RECORD
  5
18F
330
1
100
AcDbSymbolTableRecord
100
AcDbBlockTableRecord
  2
_D
340
0
  0
BLOCK_RECORD
  5
199
330
1
100
AcDbSymbolTableRecord
100
AcDbBlockTableRecord
  2
_D_1
340
0
  0
BLOCK_RECORD
  5
1A3
330
1
100
AcDbSymbolTableRecord
100
AcDbBlockTableRecord
  2
_D_2
340
0
  0
BLOCK_RECORD
  5
1AD
330
1
100
AcDbSymbolTableRecord
100
AcDbBlockTableRecord
  2
_D_3
340
0
  0
BLOCK_RECORD
  5
1B7
330
1
100
AcDbSymbolTableRecord
100
AcDbBlockTableRecord
  2
_D_4
340
0
  0
BLOCK_RECORD
  5
1C1
330
1
100
AcDbSymbolTableRecord
100
AcDbBlockTableRecord
  2
_D_5
340
0
  0
BLOCK_RECORD
  5
1CB
330
1
100
AcDbSymbolTableRecord
100
AcDbBlockTableRecord
  2
_D_6
340
0
  0
BLOCK_RECORD
  5
1D6
330
1
100
AcDbSymbolTableRecord
100
AcDbBlockTableRecord
  2
_D_7
340
0
  0
BLOCK_RECORD
  5
1DE
330
1
100
AcDbSymbolTableRecord
100
AcDbBlockTableRecord
  2
SW_CENTERMARKSYMBOL_0
340
0
102
{BLKREFS
331
1E9
102
}
  0
BLOCK_RECORD
  5
1EA
330
1
100
AcDbSymbolTableRecord
100
AcDbBlockTableRecord
  2
SW_CENTERMARKSYMBOL_1
340
0
102
{BLKREFS
331
1F5
102
}
  0
BLOCK_RECORD
  5
1F6
330
1
100
AcDbSymbolTableRecord
100
AcDbBlockTableRecord
  2
SW_CENTERMARKSYMBOL_2
340
0
102
{BLKREFS
331
201
102
}
  0
BLOCK_RECORD
  5
202
330
1
100
AcDbSymbolTableRecord
100
AcDbBlockTableRecord
  2
SW_CENTERMARKSYMBOL_3
340
0
102
{BLKREFS
331
20D
102
}
  0
BLOCK_RECORD
  5
20E
330
1
100
AcDbSymbolTableRecord
100
AcDbBlockTableRecord
  2
SW_CENTERMARKSYMBOL_4
340
0
102
{BLKREFS
331
219
102
}
  0
BLOCK_RECORD
  5
21A
330
1
100
AcDbSymbolTableRecord
100
AcDbBlockTableRecord
  2
SW_CENTERMARKSYMBOL_5
340
0
102
{BLKREFS
331
225
102
}
  0
BLOCK_RECORD
  5
226
330
1
100
AcDbSymbolTableRecord
100
AcDbBlockTableRecord
  2
SW_CENTERMARKSYMBOL_6
340
0
102
{BLKREFS
331
231
102
}
  0
BLOCK_RECORD
  5
232
330
1
100
AcDbSymbolTableRecord
100
AcDbBlockTableRecord
  2
SW_CENTERMARKSYMBOL_7
340
0
102
{BLKREFS
331
23D
102
}
  0
BLOCK_RECORD
  5
2D4
330
1
100
AcDbSymbolTableRecord
100
AcDbBlockTableRecord
  2
_D_8
340
0
  0
BLOCK_RECORD
  5
2DE
330
1
100
AcDbSymbolTableRecord
100
AcDbBlockTableRecord
  2
_D_9
340
0
  0
BLOCK_RECORD
  5
2E8
330
1
100
AcDbSymbolTableRecord
100
AcDbBlockTableRecord
  2
_D_10
340
0
  0
BLOCK_RECORD
  5
2F3
330
1
100
AcDbSymbolTableRecord
100
AcDbBlockTableRecord
  2
_D_11
340
0
  0
BLOCK_RECORD
  5
2FE
330
1
100
AcDbSymbolTableRecord
100
AcDbBlockTableRecord
  2
_D_12
340
0
  0
BLOCK_RECORD
  5
307
330
1
100
AcDbSymbolTableRecord
100
AcDbBlockTableRecord
  2
_D_13
340
0
  0
BLOCK_RECORD
  5
310
330
1
100
AcDbSymbolTableRecord
100
AcDbBlockTableRecord
  2
SW_CENTERMARKSYMBOL_8
340
0
102
{BLKREFS
331
31B
102
}
  0
ENDTAB
  0
ENDSEC
  0
SECTION
  2
BLOCKS
  0
BLOCK
  5
20
330
1F
100
AcDbEntity
  8
0
100
AcDbBlockBegin
  2
*Model_Space
 70
     0
 10
0.0
 20
0.0
 30
0.0
  3
*Model_Space
  1

  0
ENDBLK
  5
21
330
1F
100
AcDbEntity
  8
0
100
AcDbBlockEnd
  0
BLOCK
  5
1C
330
1B
100
AcDbEntity
 67
     1
  8
0
100
AcDbBlockBegin
  2
*Paper_Space
 70
     0
 10
0.0
 20
0.0
 30
0.0
  3
*Paper_Space
  1

  0
ENDBLK
  5
1D
330
1B
100
AcDbEntity
 67
     1
  8
0
100
AcDbBlockEnd
  0
BLOCK
  5
24
330
23
100
AcDbEntity
  8
0
100
AcDbBlockBegin
  2
*Paper_Space0
 70
     0
 10
0.0
 20
0.0
 30
0.0
  3
*Paper_Space0
  1

  0
ENDBLK
  5
25
330
23
100
AcDbEntity
  8
0
100
AcDbBlockEnd
  0
BLOCK
  5
CE
330
CD
100
AcDbEntity
  8
0
100
AcDbBlockBegin
  2
SW_NOTE_0
 70
     0
 10
0.0
 20
0.0
 30
0.0
  3
SW_NOTE_0
  1

  0
MTEXT
  5
D0
330
CD
100
AcDbEntity
  8
0
  6
Continuous
 62
     0
370
     0
100
AcDbMText
 10
0.0
 20
5.1159875922
 30
0.0
 40
3.96875
 41
0.0
 71
     1
 72
     1
  1
PROPRIETARY AND CONFIDENTIAL
  7
SLDTEXTSTYLE1
 73
     1
 44
1.0
  0
MTEXT
  5
D1
330
CD
100
AcDbEntity
  8
0
  6
Continuous
 62
     0
370
     0
100
AcDbMText
 10
0.0
 20
-0.12297522
 30
0.0
 40
2.778125
 41
0.0
 71
     1
 72
     1
  1
THE INFORMATION CONTAINED IN THIS DRAWING IS THE SOLE PROPERTY OF UNICE E-O SERVICES INC. ANY REPRODUCTION IN PART OR AS A WHOLE WITHOUT THE WRITTEN PERMISSION OF UNICE E-O SERVICES INC IS 
  7
SLDTEXTSTYLE1
 73
     1
 44
1.0
  0
MTEXT
  5
D2
330
CD
100
AcDbEntity
  8
0
  6
Continuous
 62
     0
370
     0
100
AcDbMText
 10
0.0
 20
-3.8271418419
 30
0.0
 40
2.778125
 41
0.0
 71
     1
 72
     1
  1
PROHIBITED.
  7
SLDTEXTSTYLE1
 73
     1
 44
1.0
  0
ENDBLK
  5
CF
330
CD
100
AcDbEntity
  8
0
100
AcDbBlockEnd
  0
BLOCK
  5
106
330
105
100
AcDbEntity
  8
0
100
AcDbBlockBegin
  2
SW_NOTE_1
 70
     0
 10
0.0
 20
0.0
 30
0.0
  3
SW_NOTE_1
  1

  0
MTEXT
  5
108
330
105
100
AcDbEntity
  8
DIM
 62
     0
100
AcDbMText
 10
0.0
 20
3.5811913146
 30
0.0
 40
2.778125
 41
0.0
 71
     1
 72
     1
  1
No.5, Andong Rd., Chung Li District,
  7
SLDTEXTSTYLE0
 73
     1
 44
1.0
  0
MTEXT
  5
109
330
105
100
AcDbEntity
  8
DIM
 62
     0
100
AcDbMText
 10
0.0
 20
-0.1229753073
 30
0.0
 40
2.778125
 41
0.0
 71
     1
 72
     1
  1
Taoyuan City 32063, Taiwan, R.O.C.
  7
SLDTEXTSTYLE0
 73
     1
 44
1.0
  0
ENDBLK
  5
107
330
105
100
AcDbEntity
  8
0
100
AcDbBlockEnd
  0
BLOCK
  5
190
330
18F
100
AcDbEntity
  8
0
100
AcDbBlockBegin
  2
_D
 70
     0
 10
0.0
 20
0.0
 30
0.0
  3
_D
  1

  0
SOLID
  5
192
330
18F
100
AcDbEntity
  8
DIM
 62
     7
100
AcDbTrace
 10
143.5768307485
 20
131.2377012467
 30
0.0
 11
140.5768307485
 21
131.6127012467
 31
0.0
 12
140.5768307485
 22
130.8627012467
 32
0.0
 13
140.5768307485
 23
130.8627012467
 33
0.0
  0
SOLID
  5
193
330
18F
100
AcDbEntity
  8
DIM
 62
     7
100
AcDbTrace
 10
131.0768307485
 20
131.2377012467
 30
0.0
 11
134.0768307485
 21
130.8627012467
 31
0.0
 12
134.0768307485
 22
131.6127012467
 32
0.0
 13
134.0768307485
 23
131.6127012467
 33
0.0
  0
LINE
  5
194
330
18F
100
AcDbEntity
  8
DIM
 62
     7
100
AcDbLine
 10
143.5768307485
 20
115.7377012467
 30
0.0
 11
143.5768307485
 21
132.7377012467
 31
0.0
  0
LINE
  5
195
330
18F
100
AcDbEntity
  8
DIM
 62
     7
100
AcDbLine
 10
131.0768307485
 20
115.7377012467
 30
0.0
 11
131.0768307485
 21
132.7377012467
 31
0.0
  0
LINE
  5
196
330
18F
100
AcDbEntity
  8
DIM
 62
     7
100
AcDbLine
 10
143.5768307485
 20
131.2377012467
 30
0.0
 11
131.0768307485
 21
131.2377012467
 31
0.0
  0
MTEXT
  5
197
330
18F
100
AcDbEntity
  8
DIM
 62
     7
100
AcDbMText
 10
132.3138100393
 20
136.0717050089
 30
0.0
 40
3.75
 41
0.0
 71
     1
 72
     1
  1
12.5
  7
SLDTEXTSTYLE1
 73
     1
 44
1.0
  0
ENDBLK
  5
191
330
18F
100
AcDbEntity
  8
0
100
AcDbBlockEnd
  0
BLOCK
  5
19A
330
199
100
AcDbEntity
  8
0
100
AcDbBlockBegin
  2
_D_1
 70
     0
 10
0.0
 20
0.0
 30
0.0
  3
_D_1
  1

  0
SOLID
  5
19C
330
199
100
AcDbEntity
  8
DIM
 62
     7
100
AcDbTrace
 10
156.0768307485
 20
131.2377012467
 30
0.0
 11
153.0768307485
 21
131.6127012467
 31
0.0
 12
153.0768307485
 22
130.8627012467
 32
0.0
 13
153.0768307485
 23
130.8627012467
 33
0.0
  0
SOLID
  5
19D
330
199
100
AcDbEntity
  8
DIM
 62
     7
100
AcDbTrace
 10
143.5768307485
 20
131.2377012467
 30
0.0
 11
146.5768307485
 21
130.8627012467
 31
0.0
 12
146.5768307485
 22
131.6127012467
 32
0.0
 13
146.5768307485
 23
131.6127012467
 33
0.0
  0
LINE
  5
19E
330
199
100
AcDbEntity
  8
DIM
 62
     7
100
AcDbLine
 10
156.0768307485
 20
115.7377012467
 30
0.0
 11
156.0768307485
 21
132.7377012467
 31
0.0
  0
LINE
  5
19F
330
199
100
AcDbEntity
  8
DIM
 62
     7
100
AcDbLine
 10
143.5768307485
 20
115.7377012467
 30
0.0
 11
143.5768307485
 21
132.7377012467
 31
0.0
  0
LINE
  5
1A0
330
199
100
AcDbEntity
  8
DIM
 62
     7
100
AcDbLine
 10
156.0768307485
 20
131.2377012467
 30
0.0
 11
143.5768307485
 21
131.2377012467
 31
0.0
  0
MTEXT
  5
1A1
330
199
100
AcDbEntity
  8
DIM
 62
     7
100
AcDbMText
 10
144.8138100393
 20
136.0717050089
 30
0.0
 40
3.75
 41
0.0
 71
     1
 72
     1
  1
12.5
  7
SLDTEXTSTYLE1
 73
     1
 44
1.0
  0
ENDBLK
  5
19B
330
199
100
AcDbEntity
  8
0
100
AcDbBlockEnd
  0
BLOCK
  5
1A4
330
1A3
100
AcDbEntity
  8
0
100
AcDbBlockBegin
  2
_D_2
 70
     0
 10
0.0
 20
0.0
 30
0.0
  3
_D_2
  1

  0
SOLID
  5
1A6
330
1A3
100
AcDbEntity
  8
DIM
 62
     7
100
AcDbTrace
 10
95.5768307485
 20
98.2377012467
 30
0.0
 11
95.2018307485
 21
95.2377012467
 31
0.0
 12
95.9518307485
 22
95.2377012467
 32
0.0
 13
95.9518307485
 23
95.2377012467
 33
0.0
  0
SOLID
  5
1A7
330
1A3
100
AcDbEntity
  8
DIM
 62
     7
100
AcDbTrace
 10
95.5768307485
 20
85.7377012467
 30
0.0
 11
95.9518307485
 21
88.7377012467
 31
0.0
 12
95.2018307485
 22
88.7377012467
 32
0.0
 13
95.2018307485
 23
88.7377012467
 33
0.0
  0
LINE
  5
1A8
330
1A3
100
AcDbEntity
  8
DIM
 62
     7
100
AcDbLine
 10
126.0768307485
 20
98.2377012467
 30
0.0
 11
94.0768307485
 21
98.2377012467
 31
0.0
  0
LINE
  5
1A9
330
1A3
100
AcDbEntity
  8
DIM
 62
     7
100
AcDbLine
 10
142.0768307485
 20
85.7377012467
 30
0.0
 11
94.0768307485
 21
85.7377012467
 31
0.0
  0
LINE
  5
1AA
330
1A3
100
AcDbEntity
  8
DIM
 62
     7
100
AcDbLine
 10
95.5768307485
 20
98.2377012467
 30
0.0
 11
95.5768307485
 21
85.7377012467
 31
0.0
  0
MTEXT
  5
1AB
330
1A3
100
AcDbEntity
  8
DIM
 62
     7
100
AcDbMText
 10
90.7428269863
 20
86.9746805375
 30
0.0
 40
3.75
 41
0.0
 71
     1
 72
     1
  1
12.5
  7
SLDTEXTSTYLE1
 11
-7.044195017643634E-15
 21
1.0
 31
0.0
 73
     1
 44
1.0
  0
ENDBLK
  5
1A5
330
1A3
100
AcDbEntity
  8
0
100
AcDbBlockEnd
  0
BLOCK
  5
1AE
330
1AD
100
AcDbEntity
  8
0
100
AcDbBlockBegin
  2
_D_3
 70
     0
 10
0.0
 20
0.0
 30
0.0
  3
_D_3
  1

  0
SOLID
  5
1B0
330
1AD
100
AcDbEntity
  8
DIM
 62
     7
100
AcDbTrace
 10
86.0667344446
 20
110.7377012467
 30
0.0
 11
85.6917344446
 21
107.7377012467
 31
0.0
 12
86.4417344446
 22
107.7377012467
 32
0.0
 13
86.4417344446
 23
107.7377012467
 33
0.0
  0
SOLID
  5
1B1
330
1AD
100
AcDbEntity
  8
DIM
 62
     7
100
AcDbTrace
 10
86.0667344446
 20
85.7377012467
 30
0.0
 11
86.4417344446
 21
88.7377012467
 31
0.0
 12
85.6917344446
 22
88.7377012467
 32
0.0
 13
85.6917344446
 23
88.7377012467
 33
0.0
  0
LINE
  5
1B2
330
1AD
100
AcDbEntity
  8
DIM
 62
     7
100
AcDbLine
 10
126.0768307485
 20
110.7377012467
 30
0.0
 11
84.5667344446
 21
110.7377012467
 31
0.0
  0
LINE
  5
1B3
330
1AD
100
AcDbEntity
  8
DIM
 62
     7
100
AcDbLine
 10
142.0768307485
 20
85.7377012467
 30
0.0
 11
84.5667344446
 21
85.7377012467
 31
0.0
  0
LINE
  5
1B4
330
1AD
100
AcDbEntity
  8
DIM
 62
     7
100
AcDbLine
 10
86.0667344446
 20
110.7377012467
 30
0.0
 11
86.0667344446
 21
85.7377012467
 31
0.0
  0
MTEXT
  5
1B5
330
1AD
100
AcDbEntity
  8
DIM
 62
     7
100
AcDbMText
 10
81.2327306824
 20
95.3731179095
 30
0.0
 40
3.75
 41
0.0
 71
     1
 72
     1
  1
25
  7
SLDTEXTSTYLE1
 11
-7.044195017643634E-15
 21
1.0
 31
0.0
 73
     1
 44
1.0
  0
ENDBLK
  5
1AF
330
1AD
100
AcDbEntity
  8
0
100
AcDbBlockEnd
  0
BLOCK
  5
1B8
330
1B7
100
AcDbEntity
  8
0
100
AcDbBlockBegin
  2
_D_4
 70
     0
 10
0.0
 20
0.0
 30
0.0
  3
_D_4
  1

  0
SOLID
  5
1BA
330
1B7
100
AcDbEntity
  8
DIM
 62
     7
100
AcDbTrace
 10
86.0667344446
 20
85.7377012467
 30
0.0
 11
85.6917344446
 21
82.7377012467
 31
0.0
 12
86.4417344446
 22
82.7377012467
 32
0.0
 13
86.4417344446
 23
82.7377012467
 33
0.0
  0
SOLID
  5
1BB
330
1B7
100
AcDbEntity
  8
DIM
 62
     7
100
AcDbTrace
 10
86.0667344446
 20
60.7377012467
 30
0.0
 11
86.4417344446
 21
63.7377012467
 31
0.0
 12
85.6917344446
 22
63.7377012467
 32
0.0
 13
85.6917344446
 23
63.7377012467
 33
0.0
  0
LINE
  5
1BC
330
1B7
100
AcDbEntity
  8
DIM
 62
     7
100
AcDbLine
 10
142.0768307485
 20
85.7377012467
 30
0.0
 11
84.5667344446
 21
85.7377012467
 31
0.0
  0
LINE
  5
1BD
330
1B7
100
AcDbEntity
  8
DIM
 62
     7
100
AcDbLine
 10
126.0768307485
 20
60.7377012467
 30
0.0
 11
84.5667344446
 21
60.7377012467
 31
0.0
  0
LINE
  5
1BE
330
1B7
100
AcDbEntity
  8
DIM
 62
     7
100
AcDbLine
 10
86.0667344446
 20
85.7377012467
 30
0.0
 11
86.0667344446
 21
60.7377012467
 31
0.0
  0
MTEXT
  5
1BF
330
1B7
100
AcDbEntity
  8
DIM
 62
     7
100
AcDbMText
 10
81.2327306824
 20
70.3731179095
 30
0.0
 40
3.75
 41
0.0
 71
     1
 72
     1
  1
25
  7
SLDTEXTSTYLE1
 11
-7.044195017643634E-15
 21
1.0
 31
0.0
 73
     1
 44
1.0
  0
ENDBLK
  5
1B9
330
1B7
100
AcDbEntity
  8
0
100
AcDbBlockEnd
  0
BLOCK
  5
1C2
330
1C1
100
AcDbEntity
  8
0
100
AcDbBlockBegin
  2
_D_5
 70
     0
 10
0.0
 20
0.0
 30
0.0
  3
_D_5
  1

  0
SOLID
  5
1C4
330
1C1
100
AcDbEntity
  8
DIM
 62
     7
100
AcDbTrace
 10
118.5768307485
 20
141.4268738891
 30
0.0
 11
121.5768307485
 21
141.0518738891
 31
0.0
 12
121.5768307485
 22
141.8018738891
 32
0.0
 13
121.5768307485
 23
141.8018738891
 33
0.0
  0
SOLID
  5
1C5
330
1C1
100
AcDbEntity
  8
DIM
 62
     7
100
AcDbTrace
 10
168.5768307485
 20
141.4268738891
 30
0.0
 11
165.5768307485
 21
141.8018738891
 31
0.0
 12
165.5768307485
 22
141.0518738891
 32
0.0
 13
165.5768307485
 23
141.0518738891
 33
0.0
  0
LINE
  5
1C6
330
1C1
100
AcDbEntity
  8
DIM
 62
     7
100
AcDbLine
 10
118.5768307485
 20
125.2377012467
 30
0.0
 11
118.5768307485
 21
142.9268738891
 31
0.0
  0
LINE
  5
1C7
330
1C1
100
AcDbEntity
  8
DIM
 62
     7
100
AcDbLine
 10
168.5768307485
 20
125.2377012467
 30
0.0
 11
168.5768307485
 21
142.9268738891
 31
0.0
  0
LINE
  5
1C8
330
1C1
100
AcDbEntity
  8
DIM
 62
     7
100
AcDbLine
 10
118.5768307485
 20
141.4268738891
 30
0.0
 11
168.5768307485
 21
141.4268738891
 31
0.0
  0
MTEXT
  5
1C9
330
1C1
100
AcDbEntity
  8
DIM
 62
     7
100
AcDbMText
 10
140.7122474113
 20
146.2608776513
 30
0.0
 40
3.75
 41
0.0
 71
     1
 72
     1
  1
50
  7
SLDTEXTSTYLE1
 73
     1
 44
1.0
  0
ENDBLK
  5
1C3
330
1C1
100
AcDbEntity
  8
0
100
AcDbBlockEnd
  0
BLOCK
  5
1CC
330
1CB
100
AcDbEntity
  8
0
100
AcDbBlockBegin
  2
_D_6
 70
     0
 10
0.0
 20
0.0
 30
0.0
  3
_D_6
  1

  0
SOLID
  5
1CE
330
1CB
100
AcDbEntity
  8
DIM
 62
     7
100
AcDbTrace
 10
75.9476935404
 20
123.7377012467
 30
0.0
 11
75.5726935404
 21
120.7377012467
 31
0.0
 12
76.3226935404
 22
120.7377012467
 32
0.0
 13
76.3226935404
 23
120.7377012467
 33
0.0
  0
SOLID
  5
1CF
330
1CB
100
AcDbEntity
  8
DIM
 62
     7
100
AcDbTrace
 10
75.9476935404
 20
47.7377012467
 30
0.0
 11
76.3226935404
 21
50.7377012467
 31
0.0
 12
75.5726935404
 22
50.7377012467
 32
0.0
 13
75.5726935404
 23
50.7377012467
 33
0.0
  0
LINE
  5
1D0
330
1CB
100
AcDbEntity
  8
DIM
 62
     7
100
AcDbLine
 10
123.0768307485
 20
123.7377012467
 30
0.0
 11
74.4476935404
 21
123.7377012467
 31
0.0
  0
LINE
  5
1D1
330
1CB
100
AcDbEntity
  8
DIM
 62
     7
100
AcDbLine
 10
123.0768307485
 20
47.7377012467
 30
0.0
 11
74.4476935404
 21
47.7377012467
 31
0.0
  0
LINE
  5
1D2
330
1CB
100
AcDbEntity
  8
DIM
 62
     7
100
AcDbLine
 10
75.9476935404
 20
123.7377012467
 30
0.0
 11
75.9476935404
 21
47.7377012467
 31
0.0
  0
MTEXT
  5
1D3
330
1CB
100
AcDbEntity
  8
DIM
 62
     7
100
AcDbMText
 10
71.1136897782
 20
82.8731179095
 30
0.0
 40
3.75
 41
0.0
 71
     1
 72
     1
  1
76
  7
SLDTEXTSTYLE1
 11
-6.156016597943509E-15
 21
1.0
 31
0.0
 73
     1
 44
1.0
  0
ENDBLK
  5
1CD
330
1CB
100
AcDbEntity
  8
0
100
AcDbBlockEnd
  0
BLOCK
  5
1D7
330
1D6
100
AcDbEntity
  8
0
100
AcDbBlockBegin
  2
_D_7
 70
     0
 10
0.0
 20
0.0
 30
0.0
  3
_D_7
  1

  0
SOLID
  5
1D9
330
1D6
100
AcDbEntity
  8
DIM
100
AcDbTrace
 10
158.3724959862
 20
111.7276108972
 30
0.0
 11
161.2757807191
 21
112.5711526921
 31
0.0
 12
160.978807824
 22
113.2598522635
 32
0.0
 13
160.978807824
 23
113.2598522635
 33
0.0
  0
LINE
  5
1DA
330
1D6
100
AcDbEntity
  8
DIM
100
AcDbLine
 10
158.3724959862
 20
111.7276108972
 30
0.0
 11
181.826453214
 21
121.8411493263
 31
0.0
  0
LINE
  5
1DB
330
1D6
100
AcDbEntity
  8
DIM
100
AcDbLine
 10
181.826453214
 20
121.8411493263
 30
0.0
 11
206.8941611289
 21
121.8411493263
 31
0.0
  0
MTEXT
  5
1DC
330
1D6
100
AcDbEntity
  8
DIM
100
AcDbMText
 10
183.701453214
 20
132.4303612884
 30
0.0
 40
3.75
 41
0.0
 71
     1
 72
     1
  1
9 HOLES,
  7
SLDTEXTSTYLE1
 73
     1
 44
1.0
  0
MTEXT
  5
1DD
330
1D6
100
AcDbEntity
  8
DIM
100
AcDbMText
 10
183.701453214
 20
126.6751530885
 30
0.0
 40
3.75
 41
0.0
 71
     1
 72
     1
  1
 M6
  7
SLDTEXTSTYLE1
 73
     1
 44
1.0
  0
ENDBLK
  5
1D8
330
1D6
100
AcDbEntity
  8
0
100
AcDbBlockEnd
  0
BLOCK
  5
1DF
330
1DE
100
AcDbEntity
  8
0
100
AcDbBlockBegin
  2
SW_CENTERMARKSYMBOL_0
 70
     0
 10
0.0
 20
0.0
 30
0.0
  3
SW_CENTERMARKSYMBOL_0
  1

  0
LINE
  5
1E1
330
1DE
100
AcDbEntity
  8
DIM
 62
     0
100
AcDbLine
 10
0.0
 20
0.0
 30
0.0
 11
0.0
 21
1.0
 31
0.0
  0
LINE
  5
1E2
330
1DE
100
AcDbEntity
  8
DIM
 62
     0
100
AcDbLine
 10
0.0
 20
0.0
 30
0.0
 11
-1.0
 21
0.0
 31
0.0
  0
LINE
  5
1E3
330
1DE
100
AcDbEntity
  8
DIM
 62
     0
100
AcDbLine
 10
0.0
 20
0.0
 30
0.0
 11
0.0
 21
-1.0
 31
0.0
  0
LINE
  5
1E4
330
1DE
100
AcDbEntity
  8
DIM
 62
     0
100
AcDbLine
 10
0.0
 20
0.0
 30
0.0
 11
1.0
 21
0.0
 31
0.0
  0
LINE
  5
1E5
330
1DE
100
AcDbEntity
  8
DIM
 62
     0
100
AcDbLine
 10
0.0
 20
2.0
 30
0.0
 11
0.0
 21
3.5
 31
0.0
  0
LINE
  5
1E6
330
1DE
100
AcDbEntity
  8
DIM
 62
     0
100
AcDbLine
 10
-2.0
 20
0.0
 30
0.0
 11
-3.5
 21
0.0
 31
0.0
  0
LINE
  5
1E7
330
1DE
100
AcDbEntity
  8
DIM
 62
     0
100
AcDbLine
 10
0.0
 20
-2.0
 30
0.0
 11
0.0
 21
-3.5
 31
0.0
  0
LINE
  5
1E8
330
1DE
100
AcDbEntity
  8
DIM
 62
     0
100
AcDbLine
 10
2.0
 20
0.0
 30
0.0
 11
3.5
 21
0.0
 31
0.0
  0
ENDBLK
  5
1E0
330
1DE
100
AcDbEntity
  8
0
100
AcDbBlockEnd
  0
BLOCK
  5
1EB
330
1EA
100
AcDbEntity
  8
0
100
AcDbBlockBegin
  2
SW_CENTERMARKSYMBOL_1
 70
     0
 10
0.0
 20
0.0
 30
0.0
  3
SW_CENTERMARKSYMBOL_1
  1

  0
LINE
  5
1ED
330
1EA
100
AcDbEntity
  8
DIM
 62
     0
100
AcDbLine
 10
0.0
 20
0.0
 30
0.0
 11
0.0
 21
1.0
 31
0.0
  0
LINE
  5
1EE
330
1EA
100
AcDbEntity
  8
DIM
 62
     0
100
AcDbLine
 10
0.0
 20
0.0
 30
0.0
 11
-1.0
 21
0.0
 31
0.0
  0
LINE
  5
1EF
330
1EA
100
AcDbEntity
  8
DIM
 62
     0
100
AcDbLine
 10
0.0
 20
0.0
 30
0.0
 11
0.0
 21
-1.0
 31
0.0
  0
LINE
  5
1F0
330
1EA
100
AcDbEntity
  8
DIM
 62
     0
100
AcDbLine
 10
0.0
 20
0.0
 30
0.0
 11
1.0
 21
0.0
 31
0.0
  0
LINE
  5
1F1
330
1EA
100
AcDbEntity
  8
DIM
 62
     0
100
AcDbLine
 10
0.0
 20
2.0
 30
0.0
 11
0.0
 21
3.5
 31
0.0
  0
LINE
  5
1F2
330
1EA
100
AcDbEntity
  8
DIM
 62
     0
100
AcDbLine
 10
-2.0
 20
0.0
 30
0.0
 11
-3.5
 21
0.0
 31
0.0
  0
LINE
  5
1F3
330
1EA
100
AcDbEntity
  8
DIM
 62
     0
100
AcDbLine
 10
0.0
 20
-2.0
 30
0.0
 11
0.0
 21
-3.5
 31
0.0
  0
LINE
  5
1F4
330
1EA
100
AcDbEntity
  8
DIM
 62
     0
100
AcDbLine
 10
2.0
 20
0.0
 30
0.0
 11
3.5
 21
0.0
 31
0.0
  0
ENDBLK
  5
1EC
330
1EA
100
AcDbEntity
  8
0
100
AcDbBlockEnd
  0
BLOCK
  5
1F7
330
1F6
100
AcDbEntity
  8
0
100
AcDbBlockBegin
  2
SW_CENTERMARKSYMBOL_2
 70
     0
 10
0.0
 20
0.0
 30
0.0
  3
SW_CENTERMARKSYMBOL_2
  1

  0
LINE
  5
1F9
330
1F6
100
AcDbEntity
  8
DIM
 62
     0
100
AcDbLine
 10
0.0
 20
0.0
 30
0.0
 11
0.0
 21
1.0
 31
0.0
  0
LINE
  5
1FA
330
1F6
100
AcDbEntity
  8
DIM
 62
     0
100
AcDbLine
 10
0.0
 20
0.0
 30
0.0
 11
-1.0
 21
0.0
 31
0.0
  0
LINE
  5
1FB
330
1F6
100
AcDbEntity
  8
DIM
 62
     0
100
AcDbLine
 10
0.0
 20
0.0
 30
0.0
 11
0.0
 21
-1.0
 31
0.0
  0
LINE
  5
1FC
330
1F6
100
AcDbEntity
  8
DIM
 62
     0
100
AcDbLine
 10
0.0
 20
0.0
 30
0.0
 11
1.0
 21
0.0
 31
0.0
  0
LINE
  5
1FD
330
1F6
100
AcDbEntity
  8
DIM
 62
     0
100
AcDbLine
 10
0.0
 20
2.0
 30
0.0
 11
0.0
 21
3.5
 31
0.0
  0
LINE
  5
1FE
330
1F6
100
AcDbEntity
  8
DIM
 62
     0
100
AcDbLine
 10
-2.0
 20
0.0
 30
0.0
 11
-3.5
 21
0.0
 31
0.0
  0
LINE
  5
1FF
330
1F6
100
AcDbEntity
  8
DIM
 62
     0
100
AcDbLine
 10
0.0
 20
-2.0
 30
0.0
 11
0.0
 21
-3.5
 31
0.0
  0
LINE
  5
200
330
1F6
100
AcDbEntity
  8
DIM
 62
     0
100
AcDbLine
 10
2.0
 20
0.0
 30
0.0
 11
3.5
 21
0.0
 31
0.0
  0
ENDBLK
  5
1F8
330
1F6
100
AcDbEntity
  8
0
100
AcDbBlockEnd
  0
BLOCK
  5
203
330
202
100
AcDbEntity
  8
0
100
AcDbBlockBegin
  2
SW_CENTERMARKSYMBOL_3
 70
     0
 10
0.0
 20
0.0
 30
0.0
  3
SW_CENTERMARKSYMBOL_3
  1

  0
LINE
  5
205
330
202
100
AcDbEntity
  8
DIM
 62
     0
100
AcDbLine
 10
0.0
 20
0.0
 30
0.0
 11
0.0
 21
1.0
 31
0.0
  0
LINE
  5
206
330
202
100
AcDbEntity
  8
DIM
 62
     0
100
AcDbLine
 10
0.0
 20
0.0
 30
0.0
 11
-1.0
 21
0.0
 31
0.0
  0
LINE
  5
207
330
202
100
AcDbEntity
  8
DIM
 62
     0
100
AcDbLine
 10
0.0
 20
0.0
 30
0.0
 11
0.0
 21
-1.0
 31
0.0
  0
LINE
  5
208
330
202
100
AcDbEntity
  8
DIM
 62
     0
100
AcDbLine
 10
0.0
 20
0.0
 30
0.0
 11
1.0
 21
0.0
 31
0.0
  0
LINE
  5
209
330
202
100
AcDbEntity
  8
DIM
 62
     0
100
AcDbLine
 10
0.0
 20
2.0
 30
0.0
 11
0.0
 21
3.5
 31
0.0
  0
LINE
  5
20A
330
202
100
AcDbEntity
  8
DIM
 62
     0
100
AcDbLine
 10
-2.0
 20
0.0
 30
0.0
 11
-3.5
 21
0.0
 31
0.0
  0
LINE
  5
20B
330
202
100
AcDbEntity
  8
DIM
 62
     0
100
AcDbLine
 10
0.0
 20
-2.0
 30
0.0
 11
0.0
 21
-3.5
 31
0.0
  0
LINE
  5
20C
330
202
100
AcDbEntity
  8
DIM
 62
     0
100
AcDbLine
 10
2.0
 20
0.0
 30
0.0
 11
3.5
 21
0.0
 31
0.0
  0
ENDBLK
  5
204
330
202
100
AcDbEntity
  8
0
100
AcDbBlockEnd
  0
BLOCK
  5
20F
330
20E
100
AcDbEntity
  8
0
100
AcDbBlockBegin
  2
SW_CENTERMARKSYMBOL_4
 70
     0
 10
0.0
 20
0.0
 30
0.0
  3
SW_CENTERMARKSYMBOL_4
  1

  0
LINE
  5
211
330
20E
100
AcDbEntity
  8
DIM
 62
     0
100
AcDbLine
 10
0.0
 20
0.0
 30
0.0
 11
0.0
 21
1.0
 31
0.0
  0
LINE
  5
212
330
20E
100
AcDbEntity
  8
DIM
 62
     0
100
AcDbLine
 10
0.0
 20
0.0
 30
0.0
 11
-1.0
 21
0.0
 31
0.0
  0
LINE
  5
213
330
20E
100
AcDbEntity
  8
DIM
 62
     0
100
AcDbLine
 10
0.0
 20
0.0
 30
0.0
 11
0.0
 21
-1.0
 31
0.0
  0
LINE
  5
214
330
20E
100
AcDbEntity
  8
DIM
 62
     0
100
AcDbLine
 10
0.0
 20
0.0
 30
0.0
 11
1.0
 21
0.0
 31
0.0
  0
LINE
  5
215
330
20E
100
AcDbEntity
  8
DIM
 62
     0
100
AcDbLine
 10
0.0
 20
2.0
 30
0.0
 11
0.0
 21
3.5
 31
0.0
  0
LINE
  5
216
330
20E
100
AcDbEntity
  8
DIM
 62
     0
100
AcDbLine
 10
-2.0
 20
0.0
 30
0.0
 11
-3.5
 21
0.0
 31
0.0
  0
LINE
  5
217
330
20E
100
AcDbEntity
  8
DIM
 62
     0
100
AcDbLine
 10
0.0
 20
-2.0
 30
0.0
 11
0.0
 21
-3.5
 31
0.0
  0
LINE
  5
218
330
20E
100
AcDbEntity
  8
DIM
 62
     0
100
AcDbLine
 10
2.0
 20
0.0
 30
0.0
 11
3.5
 21
0.0
 31
0.0
  0
ENDBLK
  5
210
330
20E
100
AcDbEntity
  8
0
100
AcDbBlockEnd
  0
BLOCK
  5
21B
330
21A
100
AcDbEntity
  8
0
100
AcDbBlockBegin
  2
SW_CENTERMARKSYMBOL_5
 70
     0
 10
0.0
 20
0.0
 30
0.0
  3
SW_CENTERMARKSYMBOL_5
  1

  0
LINE
  5
21D
330
21A
100
AcDbEntity
  8
DIM
 62
     0
100
AcDbLine
 10
0.0
 20
0.0
 30
0.0
 11
0.0
 21
1.0
 31
0.0
  0
LINE
  5
21E
330
21A
100
AcDbEntity
  8
DIM
 62
     0
100
AcDbLine
 10
0.0
 20
0.0
 30
0.0
 11
-1.0
 21
0.0
 31
0.0
  0
LINE
  5
21F
330
21A
100
AcDbEntity
  8
DIM
 62
     0
100
AcDbLine
 10
0.0
 20
0.0
 30
0.0
 11
0.0
 21
-1.0
 31
0.0
  0
LINE
  5
220
330
21A
100
AcDbEntity
  8
DIM
 62
     0
100
AcDbLine
 10
0.0
 20
0.0
 30
0.0
 11
1.0
 21
0.0
 31
0.0
  0
LINE
  5
221
330
21A
100
AcDbEntity
  8
DIM
 62
     0
100
AcDbLine
 10
0.0
 20
2.0
 30
0.0
 11
0.0
 21
3.5
 31
0.0
  0
LINE
  5
222
330
21A
100
AcDbEntity
  8
DIM
 62
     0
100
AcDbLine
 10
-2.0
 20
0.0
 30
0.0
 11
-3.5
 21
0.0
 31
0.0
  0
LINE
  5
223
330
21A
100
AcDbEntity
  8
DIM
 62
     0
100
AcDbLine
 10
0.0
 20
-2.0
 30
0.0
 11
0.0
 21
-3.5
 31
0.0
  0
LINE
  5
224
330
21A
100
AcDbEntity
  8
DIM
 62
     0
100
AcDbLine
 10
2.0
 20
0.0
 30
0.0
 11
3.5
 21
0.0
 31
0.0
  0
ENDBLK
  5
21C
330
21A
100
AcDbEntity
  8
0
100
AcDbBlockEnd
  0
BLOCK
  5
227
330
226
100
AcDbEntity
  8
0
100
AcDbBlockBegin
  2
SW_CENTERMARKSYMBOL_6
 70
     0
 10
0.0
 20
0.0
 30
0.0
  3
SW_CENTERMARKSYMBOL_6
  1

  0
LINE
  5
229
330
226
100
AcDbEntity
  8
DIM
 62
     0
100
AcDbLine
 10
0.0
 20
0.0
 30
0.0
 11
0.0
 21
1.0
 31
0.0
  0
LINE
  5
22A
330
226
100
AcDbEntity
  8
DIM
 62
     0
100
AcDbLine
 10
0.0
 20
0.0
 30
0.0
 11
-1.0
 21
0.0
 31
0.0
  0
LINE
  5
22B
330
226
100
AcDbEntity
  8
DIM
 62
     0
100
AcDbLine
 10
0.0
 20
0.0
 30
0.0
 11
0.0
 21
-1.0
 31
0.0
  0
LINE
  5
22C
330
226
100
AcDbEntity
  8
DIM
 62
     0
100
AcDbLine
 10
0.0
 20
0.0
 30
0.0
 11
1.0
 21
0.0
 31
0.0
  0
LINE
  5
22D
330
226
100
AcDbEntity
  8
DIM
 62
     0
100
AcDbLine
 10
0.0
 20
2.0
 30
0.0
 11
0.0
 21
3.5
 31
0.0
  0
LINE
  5
22E
330
226
100
AcDbEntity
  8
DIM
 62
     0
100
AcDbLine
 10
-2.0
 20
0.0
 30
0.0
 11
-3.5
 21
0.0
 31
0.0
  0
LINE
  5
22F
330
226
100
AcDbEntity
  8
DIM
 62
     0
100
AcDbLine
 10
0.0
 20
-2.0
 30
0.0
 11
0.0
 21
-3.5
 31
0.0
  0
LINE
  5
230
330
226
100
AcDbEntity
  8
DIM
 62
     0
100
AcDbLine
 10
2.0
 20
0.0
 30
0.0
 11
3.5
 21
0.0
 31
0.0
  0
ENDBLK
  5
228
330
226
100
AcDbEntity
  8
0
100
AcDbBlockEnd
  0
BLOCK
  5
233
330
232
100
AcDbEntity
  8
0
100
AcDbBlockBegin
  2
SW_CENTERMARKSYMBOL_7
 70
     0
 10
0.0
 20
0.0
 30
0.0
  3
SW_CENTERMARKSYMBOL_7
  1

  0
LINE
  5
235
330
232
100
AcDbEntity
  8
DIM
 62
     0
100
AcDbLine
 10
0.0
 20
0.0
 30
0.0
 11
0.0
 21
1.0
 31
0.0
  0
LINE
  5
236
330
232
100
AcDbEntity
  8
DIM
 62
     0
100
AcDbLine
 10
0.0
 20
0.0
 30
0.0
 11
-1.0
 21
0.0
 31
0.0
  0
LINE
  5
237
330
232
100
AcDbEntity
  8
DIM
 62
     0
100
AcDbLine
 10
0.0
 20
0.0
 30
0.0
 11
0.0
 21
-1.0
 31
0.0
  0
LINE
  5
238
330
232
100
AcDbEntity
  8
DIM
 62
     0
100
AcDbLine
 10
0.0
 20
0.0
 30
0.0
 11
1.0
 21
0.0
 31
0.0
  0
LINE
  5
239
330
232
100
AcDbEntity
  8
DIM
 62
     0
100
AcDbLine
 10
0.0
 20
2.0
 30
0.0
 11
0.0
 21
3.5
 31
0.0
  0
LINE
  5
23A
330
232
100
AcDbEntity
  8
DIM
 62
     0
100
AcDbLine
 10
-2.0
 20
0.0
 30
0.0
 11
-3.5
 21
0.0
 31
0.0
  0
LINE
  5
23B
330
232
100
AcDbEntity
  8
DIM
 62
     0
100
AcDbLine
 10
0.0
 20
-2.0
 30
0.0
 11
0.0
 21
-3.5
 31
0.0
  0
LINE
  5
23C
330
232
100
AcDbEntity
  8
DIM
 62
     0
100
AcDbLine
 10
2.0
 20
0.0
 30
0.0
 11
3.5
 21
0.0
 31
0.0
  0
ENDBLK
  5
234
330
232
100
AcDbEntity
  8
0
100
AcDbBlockEnd
  0
BLOCK
  5
2D5
330
2D4
100
AcDbEntity
  8
0
100
AcDbBlockBegin
  2
_D_8
 70
     0
 10
0.0
 20
0.0
 30
0.0
  3
_D_8
  1

  0
SOLID
  5
2D7
330
2D4
100
AcDbEntity
  8
DIM
100
AcDbTrace
 10
124.5768307485
 20
159.2765446898
 30
0.0
 11
127.5768307485
 21
158.9015446898
 31
0.0
 12
127.5768307485
 22
159.6515446898
 32
0.0
 13
127.5768307485
 23
159.6515446898
 33
0.0
  0
SOLID
  5
2D8
330
2D4
100
AcDbEntity
  8
DIM
100
AcDbTrace
 10
162.5768307485
 20
159.2765446898
 30
0.0
 11
159.5768307485
 21
159.6515446898
 31
0.0
 12
159.5768307485
 22
158.9015446898
 32
0.0
 13
159.5768307485
 23
158.9015446898
 33
0.0
  0
LINE
  5
2D9
330
2D4
100
AcDbEntity
  8
DIM
100
AcDbLine
 10
124.5768307485
 20
169.0631367209
 30
0.0
 11
124.5768307485
 21
157.7765446898
 31
0.0
  0
LINE
  5
2DA
330
2D4
100
AcDbEntity
  8
DIM
100
AcDbLine
 10
162.5768307485
 20
169.0631367209
 30
0.0
 11
162.5768307485
 21
157.7765446898
 31
0.0
  0
LINE
  5
2DB
330
2D4
100
AcDbEntity
  8
DIM
100
AcDbLine
 10
124.5768307485
 20
159.2765446898
 30
0.0
 11
162.5768307485
 21
159.2765446898
 31
0.0
  0
MTEXT
  5
2DC
330
2D4
100
AcDbEntity
  8
DIM
100
AcDbMText
 10
140.7133490423
 20
164.110548452
 30
0.0
 40
3.75
 41
0.0
 71
     1
 72
     1
  1
38
  7
SLDTEXTSTYLE1
 73
     1
 44
1.0
  0
ENDBLK
  5
2D6
330
2D4
100
AcDbEntity
  8
0
100
AcDbBlockEnd
  0
BLOCK
  5
2DF
330
2DE
100
AcDbEntity
  8
0
100
AcDbBlockBegin
  2
_D_9
 70
     0
 10
0.0
 20
0.0
 30
0.0
  3
_D_9
  1

  0
SOLID
  5
2E1
330
2DE
100
AcDbEntity
  8
DIM
100
AcDbTrace
 10
188.0768307485
 20
199.0631367209
 30
0.0
 11
187.7018307485
 21
196.0631367209
 31
0.0
 12
188.4518307485
 22
196.0631367209
 32
0.0
 13
188.4518307485
 23
196.0631367209
 33
0.0
  0
SOLID
  5
2E2
330
2DE
100
AcDbEntity
  8
DIM
100
AcDbTrace
 10
188.0768307485
 20
170.5631367209
 30
0.0
 11
188.4518307485
 21
173.5631367209
 31
0.0
 12
187.7018307485
 22
173.5631367209
 32
0.0
 13
187.7018307485
 23
173.5631367209
 33
0.0
  0
LINE
  5
2E3
330
2DE
100
AcDbEntity
  8
DIM
100
AcDbLine
 10
165.1268307485
 20
199.0631367209
 30
0.0
 11
189.5768307485
 21
199.0631367209
 31
0.0
  0
LINE
  5
2E4
330
2DE
100
AcDbEntity
  8
DIM
100
AcDbLine
 10
164.0768307485
 20
170.5631367209
 30
0.0
 11
189.5768307485
 21
170.5631367209
 31
0.0
  0
LINE
  5
2E5
330
2DE
100
AcDbEntity
  8
DIM
100
AcDbLine
 10
188.0768307485
 20
199.0631367209
 30
0.0
 11
188.0768307485
 21
170.5631367209
 31
0.0
  0
MTEXT
  5
2E6
330
2DE
100
AcDbEntity
  8
DIM
100
AcDbMText
 10
183.2428269863
 20
179.8005757848
 30
0.0
 40
3.75
 41
0.0
 71
     1
 72
     1
  1
28.5
  7
SLDTEXTSTYLE1
 11
-7.044195017643634E-15
 21
1.0
 31
0.0
 73
     1
 44
1.0
  0
ENDBLK
  5
2E0
330
2DE
100
AcDbEntity
  8
0
100
AcDbBlockEnd
  0
BLOCK
  5
2E9
330
2E8
100
AcDbEntity
  8
0
100
AcDbBlockBegin
  2
_D_10
 70
     0
 10
0.0
 20
0.0
 30
0.0
  3
_D_10
  1

  0
SOLID
  5
2EB
330
2E8
100
AcDbEntity
  8
DIM
100
AcDbTrace
 10
103.0768307485
 20
261.0889605675
 30
0.0
 11
106.0768307485
 21
260.7139605675
 31
0.0
 12
106.0768307485
 22
261.4639605675
 32
0.0
 13
106.0768307485
 23
261.4639605675
 33
0.0
  0
SOLID
  5
2EC
330
2E8
100
AcDbEntity
  8
DIM
100
AcDbTrace
 10
184.0768307485
 20
261.0889605675
 30
0.0
 11
181.0768307485
 21
261.4639605675
 31
0.0
 12
181.0768307485
 22
260.7139605675
 32
0.0
 13
181.0768307485
 23
260.7139605675
 33
0.0
  0
LINE
  5
2ED
330
2E8
100
AcDbEntity
  8
DIM
100
AcDbLine
 10
103.0768307485
 20
246.6631367209
 30
0.0
 11
103.0768307485
 21
262.5889605675
 31
0.0
  0
LINE
  5
2EE
330
2E8
100
AcDbEntity
  8
DIM
100
AcDbLine
 10
184.0768307485
 20
246.6631367209
 30
0.0
 11
184.0768307485
 21
262.5889605675
 31
0.0
  0
LINE
  5
2EF
330
2E8
100
AcDbEntity
  8
DIM
100
AcDbLine
 10
103.0768307485
 20
261.0889605675
 30
0.0
 11
184.0768307485
 21
261.0889605675
 31
0.0
  0
MTEXT
  5
2F0
330
2E8
100
AcDbEntity
  8
DIM
100
AcDbMText
 10
140.7133490423
 20
265.9229643298
 30
0.0
 40
3.75
 41
0.0
 71
     1
 72
     1
  1
81
  7
SLDTEXTSTYLE1
 73
     1
 44
1.0
  0
ENDBLK
  5
2EA
330
2E8
100
AcDbEntity
  8
0
100
AcDbBlockEnd
  0
BLOCK
  5
2F4
330
2F3
100
AcDbEntity
  8
0
100
AcDbBlockBegin
  2
_D_11
 70
     0
 10
0.0
 20
0.0
 30
0.0
  3
_D_11
  1

  0
SOLID
  5
2F6
330
2F3
100
AcDbEntity
  8
DIM
100
AcDbTrace
 10
208.6685195252
 20
170.5631367209
 30
0.0
 11
209.0435195252
 21
173.5631367209
 31
0.0
 12
208.2935195252
 22
173.5631367209
 32
0.0
 13
208.2935195252
 23
173.5631367209
 33
0.0
  0
SOLID
  5
2F7
330
2F3
100
AcDbEntity
  8
DIM
100
AcDbTrace
 10
208.6685195252
 20
251.1631367209
 30
0.0
 11
208.2935195252
 21
248.1631367209
 31
0.0
 12
209.0435195252
 22
248.1631367209
 32
0.0
 13
209.0435195252
 23
248.1631367209
 33
0.0
  0
LINE
  5
2F8
330
2F3
100
AcDbEntity
  8
DIM
100
AcDbLine
 10
164.0768307485
 20
170.5631367209
 30
0.0
 11
210.1685195252
 21
170.5631367209
 31
0.0
  0
LINE
  5
2F9
330
2F3
100
AcDbEntity
  8
DIM
100
AcDbLine
 10
182.5768307485
 20
251.1631367209
 30
0.0
 11
210.1685195252
 21
251.1631367209
 31
0.0
  0
LINE
  5
2FA
330
2F3
100
AcDbEntity
  8
DIM
100
AcDbLine
 10
208.6685195252
 20
170.5631367209
 30
0.0
 11
208.6685195252
 21
251.1631367209
 31
0.0
  0
MTEXT
  5
2FB
330
2F3
100
AcDbEntity
  8
DIM
100
AcDbMText
 10
203.834515763
 20
207.9996550147
 30
0.0
 40
3.75
 41
0.0
 71
     1
 72
     1
  1
80
  7
SLDTEXTSTYLE1
 11
-6.049014748177263E-16
 21
1.0
 31
0.0
 73
     1
 44
1.0
  0
ENDBLK
  5
2F5
330
2F3
100
AcDbEntity
  8
0
100
AcDbBlockEnd
  0
BLOCK
  5
2FF
330
2FE
100
AcDbEntity
  8
0
100
AcDbBlockBegin
  2
_D_12
 70
     0
 10
0.0
 20
0.0
 30
0.0
  3
_D_12
  1

  0
SOLID
  5
301
330
2FE
100
AcDbEntity
  8
DIM
100
AcDbTrace
 10
127.0795044946
 20
208.5889294162
 30
0.0
 11
124.6690159644
 21
210.4138047669
 31
0.0
 12
124.2939847559
 22
209.7643037333
 32
0.0
 13
124.2939847559
 23
209.7643037333
 33
0.0
  0
LINE
  5
302
330
2FE
100
AcDbEntity
  8
DIM
100
AcDbLine
 10
127.0795044946
 20
208.5889294162
 30
0.0
 11
96.4643322254
 21
226.2665688034
 31
0.0
  0
LINE
  5
303
330
2FE
100
AcDbEntity
  8
DIM
100
AcDbLine
 10
96.4643322254
 20
226.2665688034
 30
0.0
 11
74.3370207265
 21
226.2665688034
 31
0.0
  0
MTEXT
  5
304
330
2FE
100
AcDbEntity
  8
DIM
100
AcDbMText
 10
76.7182707265
 20
231.1005728275
 30
0.0
 40
3.75
 41
0.0
 71
     1
 72
     1
  1
%%c
  7
SLDTEXTSTYLE1
 73
     1
 44
1.0
  0
MTEXT
  5
305
330
2FE
100
AcDbEntity
  8
DIM
100
AcDbMText
 10
82.1829603531
 20
231.1005725656
 30
0.0
 40
3.75
 41
0.0
 71
     1
 72
     1
  1
38.1
  7
SLDTEXTSTYLE1
 73
     1
 44
1.0
  0
ENDBLK
  5
300
330
2FE
100
AcDbEntity
  8
0
100
AcDbBlockEnd
  0
BLOCK
  5
308
330
307
100
AcDbEntity
  8
0
100
AcDbBlockBegin
  2
_D_13
 70
     0
 10
0.0
 20
0.0
 30
0.0
  3
_D_13
  1

  0
SOLID
  5
30A
330
307
100
AcDbEntity
  8
DIM
 62
     7
100
AcDbTrace
 10
198.5532063778
 20
237.5631367209
 30
0.0
 11
198.1782063778
 21
234.5631367209
 31
0.0
 12
198.9282063778
 22
234.5631367209
 32
0.0
 13
198.9282063778
 23
234.5631367209
 33
0.0
  0
SOLID
  5
30B
330
307
100
AcDbEntity
  8
DIM
 62
     7
100
AcDbTrace
 10
198.5532063778
 20
170.5631367209
 30
0.0
 11
198.9282063778
 21
173.5631367209
 31
0.0
 12
198.1782063778
 22
173.5631367209
 32
0.0
 13
198.1782063778
 23
173.5631367209
 33
0.0
  0
LINE
  5
30C
330
307
100
AcDbEntity
  8
DIM
 62
     7
100
AcDbLine
 10
156.5768307485
 20
237.5631367209
 30
0.0
 11
200.0532063778
 21
237.5631367209
 31
0.0
  0
LINE
  5
30D
330
307
100
AcDbEntity
  8
DIM
 62
     7
100
AcDbLine
 10
164.0768307485
 20
170.5631367209
 30
0.0
 11
200.0532063778
 21
170.5631367209
 31
0.0
  0
LINE
  5
30E
330
307
100
AcDbEntity
  8
DIM
 62
     7
100
AcDbLine
 10
198.5532063778
 20
237.5631367209
 30
0.0
 11
198.5532063778
 21
170.5631367209
 31
0.0
  0
MTEXT
  5
30F
330
307
100
AcDbEntity
  8
DIM
 62
     7
100
AcDbMText
 10
193.7192026155
 20
201.1985533837
 30
0.0
 40
3.75
 41
0.0
 71
     1
 72
     1
  1
67
  7
SLDTEXTSTYLE1
 11
-7.044195017643634E-15
 21
1.0
 31
0.0
 73
     1
 44
1.0
  0
ENDBLK
  5
309
330
307
100
AcDbEntity
  8
0
100
AcDbBlockEnd
  0
BLOCK
  5
311
330
310
100
AcDbEntity
  8
0
100
AcDbBlockBegin
  2
SW_CENTERMARKSYMBOL_8
 70
     0
 10
0.0
 20
0.0
 30
0.0
  3
SW_CENTERMARKSYMBOL_8
  1

  0
LINE
  5
313
330
310
100
AcDbEntity
  8
DIM
 62
     0
100
AcDbLine
 10
0.0
 20
0.0
 30
0.0
 11
0.0
 21
1.0
 31
0.0
  0
LINE
  5
314
330
310
100
AcDbEntity
  8
DIM
 62
     0
100
AcDbLine
 10
0.0
 20
0.0
 30
0.0
 11
-1.0
 21
0.0
 31
0.0
  0
LINE
  5
315
330
310
100
AcDbEntity
  8
DIM
 62
     0
100
AcDbLine
 10
0.0
 20
0.0
 30
0.0
 11
0.0
 21
-1.0
 31
0.0
  0
LINE
  5
316
330
310
100
AcDbEntity
  8
DIM
 62
     0
100
AcDbLine
 10
0.0
 20
0.0
 30
0.0
 11
1.0
 21
0.0
 31
0.0
  0
LINE
  5
317
330
310
100
AcDbEntity
  8
DIM
 62
     0
100
AcDbLine
 10
0.0
 20
2.0
 30
0.0
 11
0.0
 21
20.05
 31
0.0
  0
LINE
  5
318
330
310
100
AcDbEntity
  8
DIM
 62
     0
100
AcDbLine
 10
-2.0
 20
0.0
 30
0.0
 11
-20.05
 21
0.0
 31
0.0
  0
LINE
  5
319
330
310
100
AcDbEntity
  8
DIM
 62
     0
100
AcDbLine
 10
0.0
 20
-2.0
 30
0.0
 11
0.0
 21
-20.05
 31
0.0
  0
LINE
  5
31A
330
310
100
AcDbEntity
  8
DIM
 62
     0
100
AcDbLine
 10
2.0
 20
0.0
 30
0.0
 11
20.05
 21
0.0
 31
0.0
  0
ENDBLK
  5
312
330
310
100
AcDbEntity
  8
0
100
AcDbBlockEnd
  0
ENDSEC
  0
SECTION
  2
ENTITIES
  0
HATCH
  5
7B
330
1F
100
AcDbEntity
  8
DIM
 62
     7
100
AcDbHatch
 10
0.0
 20
0.0
 30
0.0
210
0.0
220
0.0
230
1.0
  2
SOLID
 70
     1
 71
     0
 91
        1
 92
        0
 93
       10
 72
     2
 10
288.3225605267567
 20
53.13021510614322
 40
4.568627093596871
 50
249.211220914341
 51
308.9221353953368
 73
     1
 72
     1
 10
291.1928629686086
 20
49.57582100691241
 11
292.6400924604342
 21
48.30489083144889
 72
     1
 10
292.6400924604342
 20
48.30489083144889
 11
287.8248825007006
 21
43.62933126230528
 72
     1
 10
287.8248825007006
 20
43.62933126230528
 11
286.4136818174596
 21
44.84432686747028
 72
     1
 10
286.4136818174596
 20
44.84432686747028
 11
287.3602596980823
 21
45.76817745317682
 72
     1
 10
287.3602596980823
 20
45.76817745317682
 11
281.3464562327889
 21
50.99508321358884
 72
     2
 10
282.8688683770999
 20
52.71642377722961
 40
2.297988701708712
 50
131.4906380929584
 51
229.7089352075136
 73
     0
 72
     1
 10
281.3828261058267
 20
54.46925874982968
 11
283.3427684881492
 21
56.36163936459095
 72
     1
 10
283.3427684881492
 20
56.36163936459095
 11
284.8655592592529
 21
55.01834151336427
 72
     2
 10
287.8254647143119
 20
52.54725248227209
 40
3.855816554566925
 50
140.1430462780654
 51
253.0452525074006
 73
     1
 97
        0
 75
     0
 76
     1
 98
        1
 10
0.0
 20
0.0
  0
HATCH
  5
7C
330
1F
100
AcDbEntity
  8
DIM
 62
     1
100
AcDbHatch
 10
0.0
 20
0.0
 30
0.0
210
0.0
220
0.0
230
1.0
  2
SOLID
 70
     1
 71
     0
 91
        1
 92
        0
 93
       10
 72
     2
 10
288.5223086852026
 20
51.99891564809016
 40
4.772455056791806
 50
234.1674444878509
 51
314.4407074583988
 73
     0
 72
     2
 10
288.9987931212893
 20
52.81014835630742
 40
3.866351232519375
 50
317.8184992995779
 51
398.0564711573086
 73
     0
 72
     1
 10
292.0431718858604
 20
50.42678313229496
 11
293.5213452253347
 21
49.13873772246072
 72
     1
 10
293.5213452253347
 20
49.13873772246072
 11
295.3838671975253
 21
50.94538713607155
 72
     2
 10
294.0437787090322
 20
52.78730723380295
 40
2.277829406127398
 50
306.0377529468133
 51
403.4396461533867
 73
     1
 72
     1
 10
295.6977085060406
 20
54.35352019186015
 11
289.5075747185256
 21
59.73728459481109
 72
     1
 10
289.5075747185256
 20
59.73728459481109
 11
290.4439516714165
 21
60.65087224106706
 72
     1
 10
290.4439516714165
 20
60.65087224106706
 11
289.0481919061405
 21
61.89616057083387
 72
     1
 10
289.0481919061405
 20
61.89616057083387
 11
284.1948137335257
 21
57.20578020091271
 72
     1
 10
284.1948137335257
 20
57.20578020091271
 11
285.7284255495485
 21
55.86809441023151
 97
        0
 75
     0
 76
     1
 98
        1
 10
0.0
 20
0.0
  0
LINE
  5
7D
330
1F
100
AcDbEntity
  8
0
  6
Continuous
 62
     7
370
     0
100
AcDbLine
 10
251.7890662777
 20
26.6617788769
 30
0.0
 11
253.2890662777
 21
26.6617788769
 31
0.0
  0
LINE
  5
7E
330
1F
100
AcDbEntity
  8
0
  6
Continuous
 62
     7
370
     0
100
AcDbLine
 10
247.2890662777
 20
26.6617788769
 30
0.0
 11
251.0390662777
 21
26.6617788769
 31
0.0
  0
LINE
  5
7F
330
1F
100
AcDbEntity
  8
0
  6
Continuous
 62
     7
370
     0
100
AcDbLine
 10
272.0390662777
 20
22.9117788769
 30
0.0
 11
272.0390662777
 21
30.4117788769
 31
0.0
  0
LINE
  5
80
330
1F
100
AcDbEntity
  8
0
  6
Continuous
 62
     7
370
     0
100
AcDbLine
 10
261.5390662777
 20
24.4117788769
 30
0.0
 11
272.0390662777
 21
22.9117788769
 31
0.0
  0
LINE
  5
81
330
1F
100
AcDbEntity
  8
0
  6
Continuous
 62
     7
370
     0
100
AcDbLine
 10
252.5390662777
 20
25.1617788769
 30
0.0
 11
252.5390662777
 21
21.4117788769
 31
0.0
  0
LINE
  5
82
330
1F
100
AcDbEntity
  8
0
  6
Continuous
 62
     7
370
     0
100
AcDbLine
 10
272.0390662777
 20
30.4117788769
 30
0.0
 11
261.5390662777
 21
28.9117788769
 31
0.0
  0
LINE
  5
83
330
1F
100
AcDbEntity
  8
0
  6
Continuous
 62
     7
370
     0
100
AcDbLine
 10
260.0390662777
 20
26.6617788769
 30
0.0
 11
273.5390662777
 21
26.6617788769
 31
0.0
  0
LINE
  5
84
330
1F
100
AcDbEntity
  8
0
  6
Continuous
 62
     7
370
     0
100
AcDbLine
 10
252.5390662777
 20
27.4117788769
 30
0.0
 11
252.5390662777
 21
25.9117788769
 31
0.0
  0
LINE
  5
85
330
1F
100
AcDbEntity
  8
0
  6
Continuous
 62
     7
370
     0
100
AcDbLine
 10
254.0390662777
 20
26.6617788769
 30
0.0
 11
257.7890662777
 21
26.6617788769
 31
0.0
  0
LINE
  5
86
330
1F
100
AcDbEntity
  8
0
  6
Continuous
 62
     7
370
     0
100
AcDbLine
 10
252.5390662777
 20
31.9117788769
 30
0.0
 11
252.5390662777
 21
28.1617788769
 31
0.0
  0
LINE
  5
87
330
1F
100
AcDbEntity
  8
0
  6
Continuous
 62
     7
370
     0
100
AcDbLine
 10
261.5390662777
 20
28.9117788769
 30
0.0
 11
261.5390662777
 21
24.4117788769
 31
0.0
  0
LINE
  5
88
330
1F
100
AcDbEntity
  8
0
370
     0
100
AcDbLine
 10
292.6400924604
 20
48.3048908314
 30
0.0
 11
287.8248825007
 21
43.6293312623
 31
0.0
  0
LINE
  5
89
330
1F
100
AcDbEntity
  8
0
370
     0
100
AcDbLine
 10
287.8248825007
 20
43.6293312623
 30
0.0
 11
286.4136818175
 21
44.8443268675
 31
0.0
  0
LINE
  5
8A
330
1F
100
AcDbEntity
  8
0
370
     0
100
AcDbLine
 10
286.4136818175
 20
44.8443268675
 30
0.0
 11
287.3602596981
 21
45.7681774532
 31
0.0
  0
LINE
  5
8B
330
1F
100
AcDbEntity
  8
0
370
     0
100
AcDbLine
 10
281.3464562328
 20
50.9950832136
 30
0.0
 11
287.3602596981
 21
45.7681774532
 31
0.0
  0
LINE
  5
8C
330
1F
100
AcDbEntity
  8
0
370
     0
100
AcDbLine
 10
283.3427684881
 20
56.3616393646
 30
0.0
 11
281.3828261058
 21
54.4692587498
 31
0.0
  0
LINE
  5
8D
330
1F
100
AcDbEntity
  8
0
370
     0
100
AcDbLine
 10
283.3427684881
 20
56.3616393646
 30
0.0
 11
284.8655592593
 21
55.0183415134
 31
0.0
  0
LINE
  5
8E
330
1F
100
AcDbEntity
  8
0
370
     0
100
AcDbLine
 10
291.1928629686
 20
49.5758210069
 30
0.0
 11
292.6400924604
 21
48.3048908314
 31
0.0
  0
LINE
  5
8F
330
1F
100
AcDbEntity
  8
0
 62
     1
370
     0
100
AcDbLine
 10
285.7284255495
 20
55.8680944102
 30
0.0
 11
284.1948137335
 21
57.2057802009
 31
0.0
  0
LINE
  5
90
330
1F
100
AcDbEntity
  8
0
 62
     1
370
     0
100
AcDbLine
 10
284.1948137335
 20
57.2057802009
 30
0.0
 11
289.0481919061
 21
61.8961605708
 31
0.0
  0
LINE
  5
91
330
1F
100
AcDbEntity
  8
0
 62
     1
370
     0
100
AcDbLine
 10
289.0481919061
 20
61.8961605708
 30
0.0
 11
290.4439516714
 21
60.6508722411
 31
0.0
  0
LINE
  5
92
330
1F
100
AcDbEntity
  8
0
 62
     1
370
     0
100
AcDbLine
 10
290.4439516714
 20
60.6508722411
 30
0.0
 11
289.5075747185
 21
59.7372845948
 31
0.0
  0
LINE
  5
93
330
1F
100
AcDbEntity
  8
0
 62
     1
370
     0
100
AcDbLine
 10
289.5075747185
 20
59.7372845948
 30
0.0
 11
295.697708506
 21
54.3535201919
 31
0.0
  0
LINE
  5
94
330
1F
100
AcDbEntity
  8
0
 62
     1
370
     0
100
AcDbLine
 10
292.0431718859
 20
50.4267831323
 30
0.0
 11
293.5213452253
 21
49.1387377225
 31
0.0
  0
LINE
  5
95
330
1F
100
AcDbEntity
  8
0
 62
     1
370
     0
100
AcDbLine
 10
293.5213452253
 20
49.1387377225
 30
0.0
 11
295.3838671975
 21
50.9453871361
 31
0.0
  0
LINE
  5
96
330
1F
100
AcDbEntity
  8
0
  6
Continuous
 62
     7
370
     0
100
AcDbLine
 10
278.5361947814
 20
19.6728696119
 30
0.0
 11
428.5361947814
 21
19.6728696119
 31
0.0
  0
LINE
  5
97
330
1F
100
AcDbEntity
  8
0
  6
Continuous
 62
     7
370
     0
100
AcDbLine
 10
278.5361947814
 20
27.1728696119
 30
0.0
 11
353.5361947814
 21
27.1728696119
 31
0.0
  0
LINE
  5
98
330
1F
100
AcDbEntity
  8
0
  6
Continuous
 62
     7
370
     0
100
AcDbLine
 10
278.5361947814
 20
34.6728696119
 30
0.0
 11
353.5361947814
 21
34.6728696119
 31
0.0
  0
LINE
  5
99
330
1F
100
AcDbEntity
  8
0
  6
Continuous
 62
     7
370
     0
100
AcDbLine
 10
278.5361947814
 20
42.1728696119
 30
0.0
 11
428.5361947814
 21
42.1728696119
 31
0.0
  0
LINE
  5
9A
330
1F
100
AcDbEntity
  8
0
  6
Continuous
 62
     7
370
     0
100
AcDbLine
 10
353.5361947814
 20
49.6728696119
 30
0.0
 11
428.5361947814
 21
49.6728696119
 31
0.0
  0
LINE
  5
9B
330
1F
100
AcDbEntity
  8
0
  6
Continuous
 62
     7
370
    15
100
AcDbLine
 10
353.5361947814
 20
27.1728696119
 30
0.0
 11
428.5361947814
 21
27.1728696119
 31
0.0
  0
LINE
  5
9C
330
1F
100
AcDbEntity
  8
0
  6
Continuous
 62
     7
370
     0
100
AcDbLine
 10
278.5801967253
 20
64.6728696119
 30
0.0
 11
428.5361947814
 21
64.6728696119
 31
0.0
  0
LINE
  5
9D
330
1F
100
AcDbEntity
  8
0
  6
Continuous
 62
     7
370
     0
100
AcDbLine
 10
376.8558265126
 20
12.1728696119
 30
0.0
 11
376.8558265126
 21
27.1728696119
 31
0.0
  0
LINE
  5
9E
330
1F
100
AcDbEntity
  8
0
  6
Continuous
 62
     7
370
     0
100
AcDbLine
 10
353.5361947814
 20
12.1728696119
 30
0.0
 11
353.5361947814
 21
64.6728696119
 31
0.0
  0
LINE
  5
9F
330
1F
100
AcDbEntity
  8
0
  6
Continuous
 62
     7
370
     0
100
AcDbLine
 10
376.8558265126
 20
42.1728696119
 30
0.0
 11
376.8558265126
 21
49.6728696119
 31
0.0
  0
LINE
  5
A0
330
1F
100
AcDbEntity
  8
0
  6
Continuous
 62
     7
370
     0
100
AcDbLine
 10
321.624612953
 20
12.1728696119
 30
0.0
 11
321.624612953
 21
42.1728696119
 31
0.0
  0
LINE
  5
A1
330
1F
100
AcDbEntity
  8
0
  6
Continuous
 62
     7
370
     0
100
AcDbLine
 10
299.6678831259
 20
12.1728696119
 30
0.0
 11
299.6678831259
 21
42.1728696119
 31
0.0
  0
LINE
  5
A2
330
1F
100
AcDbEntity
  8
0
  6
Continuous
 62
     7
370
     0
100
AcDbLine
 10
278.5801967253
 20
12.1728696119
 30
0.0
 11
278.5801967253
 21
64.6728696119
 31
0.0
  0
LINE
  5
A3
330
1F
100
AcDbEntity
  8
0
  6
Continuous
 62
     7
370
    15
100
AcDbLine
 10
13.0361947814
 20
157.1154554872
 30
0.0
 11
22.0361947814
 21
157.1154554872
 31
0.0
  0
LINE
  5
A4
330
1F
100
AcDbEntity
  8
0
  6
Continuous
 62
     7
370
    15
100
AcDbLine
 10
428.5361947814
 20
157.1154554872
 30
0.0
 11
419.5361947814
 21
157.1154554872
 31
0.0
  0
LINE
  5
A5
330
1F
100
AcDbEntity
  8
0
  6
Continuous
 62
     7
370
    15
100
AcDbLine
 10
220.7861947814
 20
12.1728696119
 30
0.0
 11
220.7861947814
 21
21.1728696119
 31
0.0
  0
LINE
  5
A6
330
1F
100
AcDbEntity
  8
0
  6
Continuous
 62
     7
370
    15
100
AcDbLine
 10
220.7861947814
 20
302.0580413626
 30
0.0
 11
220.7861947814
 21
293.0580413626
 31
0.0
  0
LINE
  5
A7
330
1F
100
AcDbEntity
  8
0
  6
Continuous
 62
     7
370
    15
100
AcDbLine
 10
64.9811947814
 20
302.0580413626
 30
0.0
 11
64.9811947814
 21
304.3080413626
 31
0.0
  0
LINE
  5
A8
330
1F
100
AcDbEntity
  8
0
  6
Continuous
 62
     7
370
    15
100
AcDbLine
 10
116.9261947814
 20
302.0580413626
 30
0.0
 11
116.9261947814
 21
304.3080413626
 31
0.0
  0
LINE
  5
A9
330
1F
100
AcDbEntity
  8
0
  6
Continuous
 62
     7
370
    15
100
AcDbLine
 10
168.8711947814
 20
302.0580413626
 30
0.0
 11
168.8711947814
 21
304.3080413626
 31
0.0
  0
LINE
  5
AA
330
1F
100
AcDbEntity
  8
0
  6
Continuous
 62
     7
370
    15
100
AcDbLine
 10
220.8161947814
 20
302.0580413626
 30
0.0
 11
220.8161947814
 21
304.3080413626
 31
0.0
  0
LINE
  5
AB
330
1F
100
AcDbEntity
  8
0
  6
Continuous
 62
     7
370
    15
100
AcDbLine
 10
272.7611947814
 20
302.0580413626
 30
0.0
 11
272.7611947814
 21
304.3080413626
 31
0.0
  0
LINE
  5
AC
330
1F
100
AcDbEntity
  8
0
  6
Continuous
 62
     7
370
    15
100
AcDbLine
 10
324.7061947814
 20
302.0580413626
 30
0.0
 11
324.7061947814
 21
304.3080413626
 31
0.0
  0
LINE
  5
AD
330
1F
100
AcDbEntity
  8
0
  6
Continuous
 62
     7
370
    15
100
AcDbLine
 10
376.6511947814
 20
302.0580413626
 30
0.0
 11
376.6511947814
 21
304.3080413626
 31
0.0
  0
LINE
  5
AE
330
1F
100
AcDbEntity
  8
0
  6
Continuous
 62
     7
370
    15
100
AcDbLine
 10
64.9736947814
 20
12.1728696119
 30
0.0
 11
64.9736947814
 21
9.9228696119
 31
0.0
  0
LINE
  5
AF
330
1F
100
AcDbEntity
  8
0
  6
Continuous
 62
     7
370
    15
100
AcDbLine
 10
116.9111947814
 20
12.1728696119
 30
0.0
 11
116.9111947814
 21
9.9228696119
 31
0.0
  0
LINE
  5
B0
330
1F
100
AcDbEntity
  8
0
  6
Continuous
 62
     7
370
    15
100
AcDbLine
 10
168.8486947814
 20
12.1728696119
 30
0.0
 11
168.8486947814
 21
9.9228696119
 31
0.0
  0
LINE
  5
B1
330
1F
100
AcDbEntity
  8
0
  6
Continuous
 62
     7
370
    15
100
AcDbLine
 10
220.7861947814
 20
12.1728696119
 30
0.0
 11
220.7861947814
 21
9.9228696119
 31
0.0
  0
LINE
  5
B2
330
1F
100
AcDbEntity
  8
0
  6
Continuous
 62
     7
370
    15
100
AcDbLine
 10
272.7236947814
 20
12.1728696119
 30
0.0
 11
272.7236947814
 21
9.9228696119
 31
0.0
  0
LINE
  5
B3
330
1F
100
AcDbEntity
  8
0
  6
Continuous
 62
     7
370
    15
100
AcDbLine
 10
324.6611947814
 20
12.1728696119
 30
0.0
 11
324.6611947814
 21
9.9228696119
 31
0.0
  0
LINE
  5
B4
330
1F
100
AcDbEntity
  8
0
  6
Continuous
 62
     7
370
     0
100
AcDbLine
 10
428.5361947814
 20
302.0580413626
 30
0.0
 11
13.0361947814
 21
302.0580413626
 31
0.0
  0
LINE
  5
B5
330
1F
100
AcDbEntity
  8
0
  6
Continuous
 62
     7
370
     0
100
AcDbLine
 10
428.5361947814
 20
12.1728696119
 30
0.0
 11
428.5361947814
 21
302.0580413626
 31
0.0
  0
LINE
  5
B6
330
1F
100
AcDbEntity
  8
0
  6
Continuous
 62
     7
370
     0
100
AcDbLine
 10
13.0361947814
 20
302.0580413626
 30
0.0
 11
13.0361947814
 21
12.1728696119
 31
0.0
  0
LINE
  5
B7
330
1F
100
AcDbEntity
  8
0
  6
Continuous
 62
     7
370
     0
100
AcDbLine
 10
13.0361947814
 20
12.1728696119
 30
0.0
 11
428.5361947814
 21
12.1728696119
 31
0.0
  0
LINE
  5
B8
330
1F
100
AcDbEntity
  8
0
  6
Continuous
 62
     7
370
    15
100
AcDbLine
 10
376.5986947814
 20
12.1728696119
 30
0.0
 11
376.5986947814
 21
9.9228696119
 31
0.0
  0
LINE
  5
B9
330
1F
100
AcDbEntity
  8
0
  6
Continuous
 62
     7
370
    15
100
AcDbLine
 10
13.0361947814
 20
60.4878696119
 30
0.0
 11
10.7861947814
 21
60.4878696119
 31
0.0
  0
LINE
  5
BA
330
1F
100
AcDbEntity
  8
0
  6
Continuous
 62
     7
370
    15
100
AcDbLine
 10
13.0361947814
 20
108.8028696119
 30
0.0
 11
10.7861947814
 21
108.8028696119
 31
0.0
  0
LINE
  5
BB
330
1F
100
AcDbEntity
  8
0
  6
Continuous
 62
     7
370
    15
100
AcDbLine
 10
13.0361947814
 20
157.1178696119
 30
0.0
 11
10.7861947814
 21
157.1178696119
 31
0.0
  0
LINE
  5
BC
330
1F
100
AcDbEntity
  8
0
  6
Continuous
 62
     7
370
    15
100
AcDbLine
 10
13.0361947814
 20
205.4328696119
 30
0.0
 11
10.7861947814
 21
205.4328696119
 31
0.0
  0
LINE
  5
BD
330
1F
100
AcDbEntity
  8
0
  6
Continuous
 62
     7
370
    15
100
AcDbLine
 10
13.0361947814
 20
253.7478696119
 30
0.0
 11
10.7861947814
 21
253.7478696119
 31
0.0
  0
LINE
  5
BE
330
1F
100
AcDbEntity
  8
0
  6
Continuous
 62
     7
370
    15
100
AcDbLine
 10
428.5361947814
 20
60.4878696119
 30
0.0
 11
430.7861947814
 21
60.4878696119
 31
0.0
  0
LINE
  5
BF
330
1F
100
AcDbEntity
  8
0
  6
Continuous
 62
     7
370
    15
100
AcDbLine
 10
428.5361947814
 20
108.8028696119
 30
0.0
 11
430.7861947814
 21
108.8028696119
 31
0.0
  0
LINE
  5
C0
330
1F
100
AcDbEntity
  8
0
  6
Continuous
 62
     7
370
    15
100
AcDbLine
 10
428.5361947814
 20
157.1178696119
 30
0.0
 11
430.7861947814
 21
157.1178696119
 31
0.0
  0
LINE
  5
C1
330
1F
100
AcDbEntity
  8
0
  6
Continuous
 62
     7
370
    15
100
AcDbLine
 10
428.5361947814
 20
205.4328696119
 30
0.0
 11
430.7861947814
 21
205.4328696119
 31
0.0
  0
LINE
  5
C2
330
1F
100
AcDbEntity
  8
0
  6
Continuous
 62
     7
370
    15
100
AcDbLine
 10
428.5361947814
 20
253.7478696119
 30
0.0
 11
430.7861947814
 21
253.7478696119
 31
0.0
  0
CIRCLE
  5
C3
330
1F
100
AcDbEntity
  8
0
  6
Continuous
 62
     7
370
     0
100
AcDbCircle
 10
252.5390662777
 20
26.6617788769
 30
0.0
 40
2.249999999999943
  0
CIRCLE
  5
C4
330
1F
100
AcDbEntity
  8
0
  6
Continuous
 62
     7
370
     0
100
AcDbCircle
 10
252.5390662777
 20
26.6617788769
 30
0.0
 40
3.749999999999943
  0
ARC
  5
C5
330
1F
100
AcDbEntity
  8
0
370
     0
100
AcDbCircle
 10
282.8688683771
 20
52.7164237772
 30
0.0
 40
2.297988701708751
100
AcDbArc
 50
130.2910647925
 51
228.509361907
  0
ARC
  5
C6
330
1F
100
AcDbEntity
  8
0
370
     0
100
AcDbCircle
 10
287.8254647143
 20
52.5472524823
 30
0.0
 40
3.855816554566914
100
AcDbArc
 50
140.1430462781
 51
253.0452525074
  0
ARC
  5
C7
330
1F
100
AcDbEntity
  8
0
370
     0
100
AcDbCircle
 10
288.3225605268
 20
53.1302151061
 30
0.0
 40
4.568627093596874
100
AcDbArc
 50
249.2112209143
 51
308.9221353953
  0
ARC
  5
C8
330
1F
100
AcDbEntity
  8
0
 62
     1
370
     0
100
AcDbCircle
 10
294.043778709
 20
52.7873072338
 30
0.0
 40
2.277829406127405
100
AcDbArc
 50
306.0377529468
 51
43.4396461534
  0
ARC
  5
C9
330
1F
100
AcDbEntity
  8
0
 62
     1
370
     0
100
AcDbCircle
 10
288.5223086852
 20
51.9989156481
 30
0.0
 40
4.772455056791805
100
AcDbArc
 50
45.5592925416
 51
125.8325555121
  0
ARC
  5
CA
330
1F
100
AcDbEntity
  8
0
 62
     1
370
     0
100
AcDbCircle
 10
288.9987931213
 20
52.8101483563
 30
0.0
 40
3.866351232519347
100
AcDbArc
 50
321.9435288427
 51
42.1815007004
  0
MTEXT
  5
CC
330
1F
100
AcDbEntity
  8
0
  6
Continuous
 62
     7
370
     0
100
AcDbMText
 10
248.3140276206
 20
19.8312660554
 30
0.0
 40
3.96875
 41
0.0
 71
     1
 72
     1
  1
UNIT:m/m
  7
SLDTEXTSTYLE1
 73
     1
 44
1.0
  0
INSERT
  5
D3
330
1F
100
AcDbEntity
  8
0
  6
Continuous
 62
     7
370
     0
100
AcDbBlockReference
  2
SW_NOTE_0
 10
18.347261408
 20
290.8356456377
 30
0.0
  0
MTEXT
  5
D5
330
1F
100
AcDbEntity
  8
0
  6
Continuous
 62
     7
370
     0
100
AcDbMText
 10
298.0877840902
 20
60.6610161208
 30
0.0
 40
3.571875
 41
0.0
 71
     1
 72
     1
  1
Unice E-O Services Inc.
  7
SLDTEXTSTYLE2
 73
     1
 44
1.0
  0
MTEXT
  5
D6
330
1F
100
AcDbEntity
  8
0
  6
Continuous
 62
     7
370
     0
100
AcDbMText
 10
326.3385807224
 20
32.3800722766
 30
0.0
 40
2.778125
 41
0.0
 71
     1
 72
     1
  1
2010/12/30
  7
SLDTEXTSTYLE1
 73
     1
 44
1.0
  0
MTEXT
  5
D7
330
1F
100
AcDbEntity
  8
0
  6
Continuous
 62
     7
370
     0
100
AcDbMText
 10
378.913347376
 20
25.30676661
 30
0.0
 40
3.75
 41
0.0
 71
     1
 72
     1
  1
1:1.5
  7
SLDTEXTSTYLE1
 73
     1
 44
1.0
  0
MTEXT
  5
D8
330
1F
100
AcDbEntity
  8
0
  6
Continuous
 62
     7
370
     0
100
AcDbMText
 10
378.4613399977
 20
48.2278793156
 30
0.0
 40
3.75
 41
0.0
 71
     1
 72
     1
  1
07RCP-1M
  7
SLDTEXTSTYLE1
 73
     1
 44
1.0
  0
MTEXT
  5
D9
330
1F
100
AcDbEntity
  8
0
  6
Continuous
 62
     7
370
     0
100
AcDbMText
 10
378.4613399977
 20
57.1623176818
 30
0.0
 40
3.75
 41
0.0
 71
     1
 72
     1
  1
07RCP-1M
  7
SLDTEXTSTYLE1
 73
     1
 44
1.0
  0
MTEXT
  5
DA
330
1F
100
AcDbEntity
  8
0
  6
Continuous
 62
     7
370
     0
100
AcDbMText
 10
354.588280018
 20
24.7597193593
 30
0.0
 40
3.175
 41
0.0
 71
     1
 72
     1
  1
SCALE:
  7
SLDTEXTSTYLE1
 73
     1
 44
1.0
  0
MTEXT
  5
DB
330
1F
100
AcDbEntity
  8
0
  6
Continuous
 62
     7
370
     0
100
AcDbMText
 10
279.5004130184
 20
32.3800722766
 30
0.0
 40
2.778125
 41
0.0
 71
     1
 72
     1
  1
DRAWN
  7
SLDTEXTSTYLE1
 73
     1
 44
1.0
  0
MTEXT
  5
DC
330
1F
100
AcDbEntity
  8
0
  6
Continuous
 62
     7
370
     0
100
AcDbMText
 10
304.8342551905
 20
40.024812462
 30
0.0
 40
2.778125
 41
0.0
 71
     1
 72
     1
  1
NAME
  7
SLDTEXTSTYLE1
 73
     1
 44
1.0
  0
MTEXT
  5
DD
330
1F
100
AcDbEntity
  8
0
  6
Continuous
 62
     7
370
     0
100
AcDbMText
 10
331.3065233636
 20
40.024812462
 30
0.0
 40
2.778125
 41
0.0
 71
     1
 72
     1
  1
DATE
  7
SLDTEXTSTYLE1
 73
     1
 44
1.0
  0
MTEXT
  5
DE
330
1F
100
AcDbEntity
  8
0
  6
Continuous
 62
     7
370
     0
100
AcDbMText
 10
354.4134474968
 20
47.6808320649
 30
0.0
 40
3.175
 41
0.0
 71
     1
 72
     1
  1
DWG. NO.
  7
SLDTEXTSTYLE1
 73
     1
 44
1.0
  0
MTEXT
  5
DF
330
1F
100
AcDbEntity
  8
0
  6
Continuous
 62
     7
370
     0
100
AcDbMText
 10
354.5444860632
 20
62.8260987365
 30
0.0
 40
3.175
 41
0.0
 71
     1
 72
     1
  1
TITLE:
  7
SLDTEXTSTYLE1
 73
     1
 44
1.0
  0
MTEXT
  5
E0
330
1F
100
AcDbEntity
  8
0
  6
Continuous
 62
     7
370
     0
100
AcDbMText
 10
304.5471314703
 20
24.3605684586
 30
0.0
 40
2.778125
 41
0.0
 71
     1
 72
     1
  1
Johnny
  7
SLDTEXTSTYLE1
 73
     1
 44
1.0
  0
MTEXT
  5
E1
330
1F
100
AcDbEntity
  8
0
  6
Continuous
 62
     7
370
     0
100
AcDbMText
 10
326.3385807224
 20
24.3605684586
 30
0.0
 40
2.778125
 41
0.0
 71
     1
 72
     1
  1
2010/12/30
  7
SLDTEXTSTYLE1
 73
     1
 44
1.0
  0
MTEXT
  5
E2
330
1F
100
AcDbEntity
  8
0
  6
Continuous
 62
     7
370
     0
100
AcDbMText
 10
279.5004130184
 20
24.3605684586
 30
0.0
 40
2.778125
 41
0.0
 71
     1
 72
     1
  1
ENG APPR.
  7
SLDTEXTSTYLE1
 73
     1
 44
1.0
  0
MTEXT
  5
E3
330
1F
100
AcDbEntity
  8
0
  6
Continuous
 62
     7
370
     0
100
AcDbMText
 10
354.588280018
 20
17.5280083932
 30
0.0
 40
3.175
 41
0.0
 71
     1
 72
     1
  1
REV
  7
SLDTEXTSTYLE1
 73
     1
 44
1.0
  0
MTEXT
  5
E4
330
1F
100
AcDbEntity
  8
0
  6
Continuous
 62
     7
370
     0
100
AcDbMText
 10
354.5444860632
 20
40.4239633627
 30
0.0
 40
3.175
 41
0.0
 71
     1
 72
     1
  1
MATERIAL:
  7
SLDTEXTSTYLE1
 73
     1
 44
1.0
  0
MTEXT
  5
E5
330
1F
100
AcDbEntity
  8
0
  6
Continuous
 62
     7
370
     0
100
AcDbMText
 10
378.913347376
 20
33.326270428
 30
0.0
 40
3.75
 41
0.0
 71
     1
 72
     1
  1
N/A
  7
SLDTEXTSTYLE1
 73
     1
 44
1.0
  0
MTEXT
  5
E6
330
1F
100
AcDbEntity
  8
0
  6
Continuous
 62
     7
370
     0
100
AcDbMText
 10
39.90448973
 20
306.6800274854
 30
0.0
 40
3.175
 41
0.0
 71
     1
 72
     1
  1
1
  7
SLDTEXTSTYLE1
 73
     1
 44
1.0
  0
MTEXT
  5
E7
330
1F
100
AcDbEntity
  8
0
  6
Continuous
 62
     7
370
     0
100
AcDbMText
 10
91.0756493586
 20
306.6800274854
 30
0.0
 40
3.175
 41
0.0
 71
     1
 72
     1
  1
2
  7
SLDTEXTSTYLE1
 73
     1
 44
1.0
  0
MTEXT
  5
E8
330
1F
100
AcDbEntity
  8
0
  6
Continuous
 62
     7
370
     0
100
AcDbMText
 10
142.3514915859
 20
306.6800274854
 30
0.0
 40
3.175
 41
0.0
 71
     1
 72
     1
  1
3
  7
SLDTEXTSTYLE1
 73
     1
 44
1.0
  0
MTEXT
  5
E9
330
1F
100
AcDbEntity
  8
0
  6
Continuous
 62
     7
370
     0
100
AcDbMText
 10
193.8800044277
 20
306.4488876546
 30
0.0
 40
3.175
 41
0.0
 71
     1
 72
     1
  1
4
  7
SLDTEXTSTYLE1
 73
     1
 44
1.0
  0
MTEXT
  5
EA
330
1F
100
AcDbEntity
  8
0
  6
Continuous
 62
     7
370
     0
100
AcDbMText
 10
245.5534851959
 20
306.6800274854
 30
0.0
 40
3.175
 41
0.0
 71
     1
 72
     1
  1
5
  7
SLDTEXTSTYLE1
 73
     1
 44
1.0
  0
MTEXT
  5
EB
330
1F
100
AcDbEntity
  8
0
  6
Continuous
 62
     7
370
     0
100
AcDbMText
 10
297.9573255623
 20
306.6800274854
 30
0.0
 40
3.175
 41
0.0
 71
     1
 72
     1
  1
6
  7
SLDTEXTSTYLE1
 73
     1
 44
1.0
  0
MTEXT
  5
EC
330
1F
100
AcDbEntity
  8
0
  6
Continuous
 62
     7
370
     0
100
AcDbMText
 10
351.544598611
 20
306.6800274854
 30
0.0
 40
3.175
 41
0.0
 71
     1
 72
     1
  1
7
  7
SLDTEXTSTYLE1
 73
     1
 44
1.0
  0
MTEXT
  5
ED
330
1F
100
AcDbEntity
  8
0
  6
Continuous
 62
     7
370
     0
100
AcDbMText
 10
399.4181730741
 20
306.6800274854
 30
0.0
 40
3.175
 41
0.0
 71
     1
 72
     1
  1
8
  7
SLDTEXTSTYLE1
 73
     1
 44
1.0
  0
MTEXT
  5
EE
330
1F
100
AcDbEntity
  8
0
  6
Continuous
 62
     7
370
     0
100
AcDbMText
 10
8.0352354832
 20
278.7169534319
 30
0.0
 40
3.175
 41
0.0
 71
     1
 72
     1
  1
A
  7
SLDTEXTSTYLE1
 73
     1
 44
1.0
  0
MTEXT
  5
EF
330
1F
100
AcDbEntity
  8
0
  6
Continuous
 62
     7
370
     0
100
AcDbMText
 10
8.3865647747
 20
231.4489572357
 30
0.0
 40
3.175
 41
0.0
 71
     1
 72
     1
  1
B
  7
SLDTEXTSTYLE1
 73
     1
 44
1.0
  0
MTEXT
  5
F0
330
1F
100
AcDbEntity
  8
0
  6
Continuous
 62
     7
370
     0
100
AcDbMText
 10
8.3865647747
 20
181.9115271345
 30
0.0
 40
3.175
 41
0.0
 71
     1
 72
     1
  1
C
  7
SLDTEXTSTYLE1
 73
     1
 44
1.0
  0
MTEXT
  5
F1
330
1F
100
AcDbEntity
  8
0
  6
Continuous
 62
     7
370
     0
100
AcDbMText
 10
8.3865647747
 20
133.1179830331
 30
0.0
 40
3.175
 41
0.0
 71
     1
 72
     1
  1
D
  7
SLDTEXTSTYLE1
 73
     1
 44
1.0
  0
MTEXT
  5
F2
330
1F
100
AcDbEntity
  8
0
  6
Continuous
 62
     7
370
     0
100
AcDbMText
 10
8.3865647747
 20
86.3338273796
 30
0.0
 40
3.175
 41
0.0
 71
     1
 72
     1
  1
E
  7
SLDTEXTSTYLE1
 73
     1
 44
1.0
  0
MTEXT
  5
F3
330
1F
100
AcDbEntity
  8
0
  6
Continuous
 62
     7
370
     0
100
AcDbMText
 10
8.3865647747
 20
38.3541318378
 30
0.0
 40
3.175
 41
0.0
 71
     1
 72
     1
  1
F
  7
SLDTEXTSTYLE1
 73
     1
 44
1.0
  0
MTEXT
  5
F4
330
1F
100
AcDbEntity
  8
0
  6
Continuous
 62
     7
370
     0
100
AcDbMText
 10
399.2787925446
 20
9.9354335945
 30
0.0
 40
3.175
 41
0.0
 71
     1
 72
     1
  1
8
  7
SLDTEXTSTYLE1
 73
     1
 44
1.0
  0
MTEXT
  5
F5
330
1F
100
AcDbEntity
  8
0
  6
Continuous
 62
     7
370
     0
100
AcDbMText
 10
351.4052180815
 20
9.9354335945
 30
0.0
 40
3.175
 41
0.0
 71
     1
 72
     1
  1
7
  7
SLDTEXTSTYLE1
 73
     1
 44
1.0
  0
MTEXT
  5
F6
330
1F
100
AcDbEntity
  8
0
  6
Continuous
 62
     7
370
     0
100
AcDbMText
 10
297.8179450327
 20
9.9354335945
 30
0.0
 40
3.175
 41
0.0
 71
     1
 72
     1
  1
6
  7
SLDTEXTSTYLE1
 73
     1
 44
1.0
  0
MTEXT
  5
F7
330
1F
100
AcDbEntity
  8
0
  6
Continuous
 62
     7
370
     0
100
AcDbMText
 10
245.4141046664
 20
9.9354335945
 30
0.0
 40
3.175
 41
0.0
 71
     1
 72
     1
  1
5
  7
SLDTEXTSTYLE1
 73
     1
 44
1.0
  0
MTEXT
  5
F8
330
1F
100
AcDbEntity
  8
0
  6
Continuous
 62
     7
370
     0
100
AcDbMText
 10
193.7406238981
 20
9.7042937637
 30
0.0
 40
3.175
 41
0.0
 71
     1
 72
     1
  1
4
  7
SLDTEXTSTYLE1
 73
     1
 44
1.0
  0
MTEXT
  5
F9
330
1F
100
AcDbEntity
  8
0
  6
Continuous
 62
     7
370
     0
100
AcDbMText
 10
142.2121110564
 20
9.9354335945
 30
0.0
 40
3.175
 41
0.0
 71
     1
 72
     1
  1
3
  7
SLDTEXTSTYLE1
 73
     1
 44
1.0
  0
MTEXT
  5
FA
330
1F
100
AcDbEntity
  8
0
  6
Continuous
 62
     7
370
     0
100
AcDbMText
 10
90.9362688291
 20
9.9354335945
 30
0.0
 40
3.175
 41
0.0
 71
     1
 72
     1
  1
2
  7
SLDTEXTSTYLE1
 73
     1
 44
1.0
  0
MTEXT
  5
FB
330
1F
100
AcDbEntity
  8
0
  6
Continuous
 62
     7
370
     0
100
AcDbMText
 10
39.7651092004
 20
9.9354335945
 30
0.0
 40
3.175
 41
0.0
 71
     1
 72
     1
  1
1
  7
SLDTEXTSTYLE1
 73
     1
 44
1.0
  0
MTEXT
  5
FC
330
1F
100
AcDbEntity
  8
0
  6
Continuous
 62
     7
370
     0
100
AcDbMText
 10
430.6535769217
 20
279.9637363637
 30
0.0
 40
3.175
 41
0.0
 71
     1
 72
     1
  1
A
  7
SLDTEXTSTYLE1
 73
     1
 44
1.0
  0
MTEXT
  5
FD
330
1F
100
AcDbEntity
  8
0
  6
Continuous
 62
     7
370
     0
100
AcDbMText
 10
431.0049062132
 20
232.6957401676
 30
0.0
 40
3.175
 41
0.0
 71
     1
 72
     1
  1
B
  7
SLDTEXTSTYLE1
 73
     1
 44
1.0
  0
MTEXT
  5
FE
330
1F
100
AcDbEntity
  8
0
  6
Continuous
 62
     7
370
     0
100
AcDbMText
 10
431.0049062132
 20
183.1583100664
 30
0.0
 40
3.175
 41
0.0
 71
     1
 72
     1
  1
C
  7
SLDTEXTSTYLE1
 73
     1
 44
1.0
  0
MTEXT
  5
FF
330
1F
100
AcDbEntity
  8
0
  6
Continuous
 62
     7
370
     0
100
AcDbMText
 10
431.0049062132
 20
134.364765965
 30
0.0
 40
3.175
 41
0.0
 71
     1
 72
     1
  1
D
  7
SLDTEXTSTYLE1
 73
     1
 44
1.0
  0
MTEXT
  5
100
330
1F
100
AcDbEntity
  8
0
  6
Continuous
 62
     7
370
     0
100
AcDbMText
 10
431.0049062132
 20
87.5806103114
 30
0.0
 40
3.175
 41
0.0
 71
     1
 72
     1
  1
E
  7
SLDTEXTSTYLE1
 73
     1
 44
1.0
  0
MTEXT
  5
101
330
1F
100
AcDbEntity
  8
0
  6
Continuous
 62
     7
370
     0
100
AcDbMText
 10
431.0049062132
 20
39.6009147696
 30
0.0
 40
3.175
 41
0.0
 71
     1
 72
     1
  1
F
  7
SLDTEXTSTYLE1
 73
     1
 44
1.0
  0
MTEXT
  5
102
330
1F
100
AcDbEntity
  8
0
  6
Continuous
 62
     7
370
     0
100
AcDbMText
 10
304.7329693203
 20
32.3800722766
 30
0.0
 40
2.778125
 41
0.0
 71
     1
 72
     1
  1
Eric
  7
SLDTEXTSTYLE1
 73
     1
 44
1.0
  0
MTEXT
  5
104
330
1F
100
AcDbEntity
  8
0
  6
Continuous
 62
     7
370
     0
100
AcDbMText
 10
379.2723359468
 20
18.315372684
 30
0.0
 40
3.96875
 41
0.0
 71
     1
 72
     1
  1
0
  7
SLDTEXTSTYLE3
 73
     1
 44
1.0
  0
INSERT
  5
10A
330
1F
100
AcDbEntity
  8
DIM
 62
     7
100
AcDbBlockReference
  2
SW_NOTE_1
 10
298.0877840902
 20
50.4927202993
 30
0.0
  0
LINE
  5
10B
330
1F
100
AcDbEntity
  8
0
  6
Continuous
 62
     7
370
    15
100
AcDbLine
 10
106.0768307485
 20
105.7377012467
 30
0.0
 11
103.0768307485
 21
99.7377012467
 31
0.0
  0
LINE
  5
10C
330
1F
100
AcDbEntity
  8
0
  6
Continuous
 62
     7
370
    15
100
AcDbLine
 10
103.0768307485
 20
71.7377012467
 30
0.0
 11
106.0768307485
 21
65.7377012467
 31
0.0
  0
LINE
  5
10D
330
1F
100
AcDbEntity
  8
0
  6
Continuous
 62
     7
370
    15
100
AcDbLine
 10
118.0768307485
 20
99.5514097457
 30
0.0
 11
116.5768307485
 21
101.0514097457
 31
0.0
  0
LINE
  5
10E
330
1F
100
AcDbEntity
  8
0
  6
Continuous
 62
     7
370
    15
100
AcDbLine
 10
116.5768307485
 20
101.0514097457
 30
0.0
 11
105.5927747963
 21
101.0514097457
 31
0.0
  0
LINE
  5
10F
330
1F
100
AcDbEntity
  8
0
  6
Continuous
 62
     7
370
    15
100
AcDbLine
 10
105.5956744742
 20
70.4239927477
 30
0.0
 11
116.5768307485
 21
70.4239927477
 31
0.0
  0
LINE
  5
110
330
1F
100
AcDbEntity
  8
0
  6
Continuous
 62
     7
370
    15
100
AcDbLine
 10
116.5768307485
 20
70.4239927477
 30
0.0
 11
118.0768307485
 21
71.9239927477
 31
0.0
  0
LINE
  5
111
330
1F
100
AcDbEntity
  8
0
  6
Continuous
 62
     7
370
    15
100
AcDbLine
 10
118.5768307485
 20
93.2377012467
 30
0.0
 11
118.0768307485
 21
93.2377012467
 31
0.0
  0
LINE
  5
112
330
1F
100
AcDbEntity
  8
0
  6
Continuous
 62
     7
370
    15
100
AcDbLine
 10
118.0768307485
 20
78.2377012467
 30
0.0
 11
118.5768307485
 21
78.2377012467
 31
0.0
  0
LINE
  5
113
330
1F
100
AcDbEntity
  8
0
  6
Continuous
 62
     7
370
    15
100
AcDbLine
 10
116.5768307485
 20
105.7377012467
 30
0.0
 11
106.0756523179
 21
105.7377012467
 31
0.0
  0
LINE
  5
114
330
1F
100
AcDbEntity
  8
0
  6
Continuous
 62
     7
370
    15
100
AcDbLine
 10
118.0768307485
 20
104.2377012467
 30
0.0
 11
116.5768307485
 21
105.7377012467
 31
0.0
  0
LINE
  5
115
330
1F
100
AcDbEntity
  8
0
  6
Continuous
 62
     7
370
    15
100
AcDbLine
 10
116.5768307485
 20
65.7377012467
 30
0.0
 11
118.0768307485
 21
67.2377012467
 31
0.0
  0
LINE
  5
116
330
1F
100
AcDbEntity
  8
0
  6
Continuous
 62
     7
370
    15
100
AcDbLine
 10
106.0756523179
 20
65.7377012467
 30
0.0
 11
116.5768307485
 21
65.7377012467
 31
0.0
  0
LINE
  5
117
330
1F
100
AcDbEntity
  8
0
  6
Continuous
 62
     7
370
    15
100
AcDbLine
 10
181.0768307485
 20
65.7377012467
 30
0.0
 11
184.0768307485
 21
71.7377012467
 31
0.0
  0
LINE
  5
118
330
1F
100
AcDbEntity
  8
0
  6
Continuous
 62
     7
370
    15
100
AcDbLine
 10
184.0768307485
 20
99.7377012467
 30
0.0
 11
181.0768307485
 21
105.7377012467
 31
0.0
  0
LINE
  5
119
330
1F
100
AcDbEntity
  8
0
  6
Continuous
 62
     7
370
    15
100
AcDbLine
 10
181.5582849958
 20
101.0510484049
 30
0.0
 11
170.5768307485
 21
101.0510484049
 31
0.0
  0
LINE
  5
11A
330
1F
100
AcDbEntity
  8
0
  6
Continuous
 62
     7
370
    15
100
AcDbLine
 10
170.5768307485
 20
101.0510484049
 30
0.0
 11
169.0768307485
 21
99.5510484049
 31
0.0
  0
LINE
  5
11B
330
1F
100
AcDbEntity
  8
0
  6
Continuous
 62
     7
370
    15
100
AcDbLine
 10
170.5768307485
 20
70.4243540884
 30
0.0
 11
181.557922655
 21
70.4243540884
 31
0.0
  0
LINE
  5
11C
330
1F
100
AcDbEntity
  8
0
  6
Continuous
 62
     7
370
    15
100
AcDbLine
 10
169.0768307485
 20
71.9243540884
 30
0.0
 11
170.5768307485
 21
70.4243540884
 31
0.0
  0
LINE
  5
11D
330
1F
100
AcDbEntity
  8
0
  6
Continuous
 62
     7
370
    15
100
AcDbLine
 10
168.5768307485
 20
78.2377012467
 30
0.0
 11
169.0768307485
 21
78.2377012467
 31
0.0
  0
LINE
  5
11E
330
1F
100
AcDbEntity
  8
0
  6
Continuous
 62
     7
370
    15
100
AcDbLine
 10
169.0768307485
 20
93.2377012467
 30
0.0
 11
168.5768307485
 21
93.2377012467
 31
0.0
  0
LINE
  5
11F
330
1F
100
AcDbEntity
  8
0
  6
Continuous
 62
     7
370
    15
100
AcDbLine
 10
169.0768307485
 20
67.2377012467
 30
0.0
 11
170.5768307485
 21
65.7377012467
 31
0.0
  0
LINE
  5
120
330
1F
100
AcDbEntity
  8
0
  6
Continuous
 62
     7
370
    15
100
AcDbLine
 10
170.5768307485
 20
65.7377012467
 30
0.0
 11
181.0780091791
 21
65.7377012467
 31
0.0
  0
LINE
  5
121
330
1F
100
AcDbEntity
  8
0
  6
Continuous
 62
     7
370
    15
100
AcDbLine
 10
181.0780091791
 20
105.7377012467
 30
0.0
 11
170.5768307485
 21
105.7377012467
 31
0.0
  0
LINE
  5
122
330
1F
100
AcDbEntity
  8
0
  6
Continuous
 62
     7
370
    15
100
AcDbLine
 10
170.5768307485
 20
105.7377012467
 30
0.0
 11
169.0768307485
 21
104.2377012467
 31
0.0
  0
LINE
  5
123
330
1F
100
AcDbEntity
  8
0
  6
Continuous
 62
     7
370
    15
100
AcDbLine
 10
118.5768307485
 20
123.7377012467
 30
0.0
 11
118.5768307485
 21
47.7377012467
 31
0.0
  0
LINE
  5
124
330
1F
100
AcDbEntity
  8
0
  6
Continuous
 62
     7
370
    15
100
AcDbLine
 10
168.5768307485
 20
47.7377012467
 30
0.0
 11
168.5768307485
 21
123.7377012467
 31
0.0
  0
SPLINE
  5
125
330
1F
100
AcDbEntity
  8
0
  6
Continuous
 62
     7
370
    15
100
AcDbSpline
210
0.0
220
0.0
230
1.0
 70
     8
 71
     3
 72
    19
 73
    15
 74
     0
 42
0.000000001
 43
0.00000001
 40
0.0
 40
0.0
 40
0.0
 40
0.0
 40
0.0855747042396849
 40
0.1735025911126453
 40
0.2591381948402378
 40
0.3475216183002925
 40
0.4288008516339918
 40
0.512637825933014
 40
0.5907479265422922
 40
0.67112230087962
 40
0.7494115176304758
 40
0.8298077970745841
 40
0.9137650347532312
 40
1.0
 40
1.0
 40
1.0
 40
1.0
 10
105.3519708256706
 20
82.43291504145797
 30
0.0
 10
105.4254787006964
 20
82.56200780593359
 30
0.0
 10
105.5745158127434
 20
82.82374320226845
 30
0.0
 10
105.7571162482358
 20
83.32506551916995
 30
0.0
 10
105.9057495403244
 20
83.90052998754639
 30
0.0
 10
106.0089146214434
 20
84.5223785832879
 30
0.0
 10
106.0683465626447
 20
85.17755207713938
 30
0.0
 10
106.0833909940486
 20
85.82382153048928
 30
0.0
 10
106.0569396020292
 20
86.46438981458859
 30
0.0
 10
105.9921536493709
 20
87.06981403372538
 30
0.0
 10
105.8893980812435
 20
87.64376084520741
 30
0.0
 10
105.7492625733989
 20
88.17223301506854
 30
0.0
 10
105.5722193879576
 20
88.6555308865532
 30
0.0
 10
105.4260391361758
 20
88.91235620957238
 30
0.0
 10
105.3519708256686
 20
89.04248745192287
 30
0.0
  0
LINE
  5
126
330
1F
100
AcDbEntity
  8
0
  6
Continuous
 62
     7
370
    15
100
AcDbLine
 10
105.3519708257
 20
89.0424874519
 30
0.0
 11
116.5768307485
 21
89.0424874519
 31
0.0
  0
LINE
  5
127
330
1F
100
AcDbEntity
  8
0
  6
Continuous
 62
     7
370
    15
100
AcDbLine
 10
116.5768307485
 20
82.4329150415
 30
0.0
 11
116.5768307485
 21
89.0424874519
 31
0.0
  0
LINE
  5
128
330
1F
100
AcDbEntity
  8
0
  6
Continuous
 62
     7
370
    15
100
AcDbLine
 10
105.3519708257
 20
82.4329150415
 30
0.0
 11
116.5768307485
 21
82.4329150415
 31
0.0
  0
LINE
  5
129
330
1F
100
AcDbEntity
  8
0
  6
Continuous
 62
     7
370
    15
100
AcDbLine
 10
118.0768307485
 20
87.7972258303
 30
0.0
 11
118.0768307485
 21
83.6781766631
 31
0.0
  0
LINE
  5
12A
330
1F
100
AcDbEntity
  8
0
  6
Continuous
 62
     7
370
    15
100
AcDbLine
 10
118.0768307485
 20
83.6781766631
 30
0.0
 11
116.5768307485
 21
82.4329150415
 31
0.0
  0
LINE
  5
12B
330
1F
100
AcDbEntity
  8
0
  6
Continuous
 62
     7
370
    15
100
AcDbLine
 10
118.0768307485
 20
87.7972258303
 30
0.0
 11
116.5768307485
 21
89.0424874519
 31
0.0
  0
LINE
  5
12C
330
1F
100
AcDbEntity
  8
0
  6
Continuous
 62
     7
370
    15
100
AcDbLine
 10
103.0768307485
 20
85.7377012467
 30
0.0
 11
103.0768307485
 21
71.7377012467
 31
0.0
  0
LINE
  5
12D
330
1F
100
AcDbEntity
  8
0
  6
Continuous
 62
     7
370
    15
100
AcDbLine
 10
103.0768307485
 20
99.7377012467
 30
0.0
 11
103.0768307485
 21
85.7377012467
 31
0.0
  0
SPLINE
  5
12E
330
1F
100
AcDbEntity
  8
0
  6
Continuous
 62
     7
370
    15
100
AcDbSpline
210
0.0
220
0.0
230
1.0
 70
     8
 71
     3
 72
    16
 73
    12
 74
     0
 42
0.000000001
 43
0.00000001
 40
0.0
 40
0.0
 40
0.0
 40
0.0
 40
0.1261972859071833
 40
0.2523057075281381
 40
0.3792002878030845
 40
0.5060336522260209
 40
0.622112044995841
 40
0.7382342111575549
 40
0.8536816913006918
 40
0.9691932593055956
 40
1.0
 40
1.0
 40
1.0
 40
1.0
 10
105.3519708256683
 20
100.9817313636673
 30
0.0
 10
105.2350401897827
 20
100.9270350363537
 30
0.0
 10
105.0012612570048
 20
100.8176808972148
 30
0.0
 10
104.7394207232129
 20
100.840818584507
 30
0.0
 10
104.5725276244097
 20
101.0201978296232
 30
0.0
 10
104.5179429028496
 20
101.3537063065091
 30
0.0
 10
104.576700150903
 20
101.82111328064
 30
0.0
 10
104.7255113335297
 20
102.3852268980799
 30
0.0
 10
104.958511932917
 20
103.0451854249442
 30
0.0
 10
105.1822293403748
 20
103.5972526266235
 30
0.0
 10
105.3224482824684
 20
103.9227062136681
 30
0.0
 10
105.3519708256683
 20
103.9912291781097
 30
0.0
  0
SPLINE
  5
12F
330
1F
100
AcDbEntity
  8
0
  6
Continuous
 62
     7
370
    15
100
AcDbSpline
210
0.0
220
0.0
230
1.0
 70
     8
 71
     3
 72
    27
 73
    23
 74
     0
 42
0.000000001
 43
0.00000001
 40
0.0
 40
0.0
 40
0.0
 40
0.0
 40
0.0426606797130388
 40
0.0855935073502103
 40
0.1294123204537267
 40
0.1735509225917163
 40
0.2162236415775121
 40
0.2592142218224081
 40
0.3032398763007057
 40
0.3476370058791249
 40
0.3881390265364096
 40
0.4706287588872068
 40
0.5127326489498892
 40
0.5516617646078317
 40
0.6308467217354314
 40
0.671190991632444
 40
0.7102149879124682
 40
0.7895062952715595
 40
0.8298451975724516
 40
0.8716915672088613
 40
0.9567335501972687
 40
1.0
 40
1.0
 40
1.0
 40
1.0
 10
105.3519708256694
 20
96.30805789148424
 30
0.0
 10
105.3892646579602
 20
96.4133773410374
 30
0.0
 10
105.4640902334029
 20
96.62468811105066
 30
0.0
 10
105.5679543980344
 20
96.95137726665283
 30
0.0
 10
105.6652546945918
 20
97.28451005510556
 30
0.0
 10
105.7532580793211
 20
97.6179945038918
 30
0.0
 10
105.8313465094293
 20
97.94764403368146
 30
0.0
 10
105.8995690270865
 20
98.27286218457303
 30
0.0
 10
105.9581178301059
 20
98.59542667749747
 30
0.0
 10
106.0045476763191
 20
98.90218314687479
 30
0.0
 10
106.0506123307731
 20
99.28465530372783
 30
0.0
 10
106.0752609955656
 20
99.6358488696285
 30
0.0
 10
106.078130170403
 20
99.94753992331269
 30
0.0
 10
106.0672970570614
 20
100.2280991358631
 30
0.0
 10
106.0368715989097
 20
100.4672222796448
 30
0.0
 10
105.9872332871845
 20
100.6621322914406
 30
0.0
 10
105.9251728356081
 20
100.827130790518
 30
0.0
 10
105.8450123923186
 20
100.9461802466628
 30
0.0
 10
105.7466865192852
 20
101.0189410372672
 30
0.0
 10
105.6333277218836
 20
101.0596671142741
 30
0.0
 10
105.5017826256665
 20
101.0512312989879
 30
0.0
 10
105.3897492267168
 20
100.9992573291081
 30
0.0
 10
105.3519708256683
 20
100.9817313636673
 30
0.0
  0
SPLINE
  5
130
330
1F
100
AcDbEntity
  8
0
  6
Continuous
 62
     7
370
    15
100
AcDbSpline
210
0.0
220
0.0
230
1.0
 70
     8
 71
     3
 72
    16
 73
    12
 74
     0
 42
0.000000001
 43
0.00000001
 40
0.0
 40
0.0
 40
0.0
 40
0.0
 40
0.126195411714844
 40
0.2523019645586855
 40
0.3791968622309669
 40
0.5060305420539923
 40
0.6221090788357813
 40
0.7382313883705742
 40
0.8536787578253849
 40
0.9691902150884492
 40
1.0
 40
1.0
 40
1.0
 40
1.0
 10
105.3519708256686
 20
89.04248745192287
 30
0.0
 10
105.2350418425347
 20
89.24145436287783
 30
0.0
 10
105.0012662103017
 20
89.63924808480446
 30
0.0
 10
104.7394261835198
 20
90.40145410068615
 30
0.0
 10
104.5725305972834
 20
91.27672199022216
 30
0.0
 10
104.5179427661322
 20
92.22285337291899
 30
0.0
 10
104.5766974506643
 20
93.1989091452651
 30
0.0
 10
104.7255064605638
 20
94.16737924414592
 30
0.0
 10
104.9585051912711
 20
95.13113005294737
 30
0.0
 10
105.1822237973805
 20
95.84187946140818
 30
0.0
 10
105.3224453974201
 20
96.2269718310841
 30
0.0
 10
105.3519708256694
 20
96.30805789148424
 30
0.0
  0
SPLINE
  5
131
330
1F
100
AcDbEntity
  8
0
  6
Continuous
 62
     7
370
    15
100
AcDbSpline
210
0.0
220
0.0
230
1.0
 70
     8
 71
     3
 72
    16
 73
    12
 74
     0
 42
0.000000001
 43
0.00000001
 40
0.0
 40
0.0
 40
0.0
 40
0.0
 40
0.1261972859071087
 40
0.2523057075279898
 40
0.3792002878028558
 40
0.5060336522257131
 40
0.6221120449954716
 40
0.7382342111571241
 40
0.8536816913002148
 40
0.9691932593050736
 40
1.0
 40
1.0
 40
1.0
 40
1.0
 10
105.3519708256675
 20
75.16734460189885
 30
0.0
 10
105.2350401897819
 20
75.5034271031353
 30
0.0
 10
105.0012612570042
 20
76.17535544654399
 30
0.0
 10
104.7394207232125
 20
77.23015379244238
 30
0.0
 10
104.5725276244096
 20
78.28859861053901
 30
0.0
 10
104.5179429028497
 20
79.29312200923749
 30
0.0
 10
104.5767001509033
 20
80.20606544065117
 30
0.0
 10
104.7255113335301
 20
81.01157499504978
 30
0.0
 10
104.9585119329175
 20
81.71456576335397
 30
0.0
 10
105.182229340376
 20
82.16763822855094
 30
0.0
 10
105.3224482824701
 20
82.38677637267266
 30
0.0
 10
105.3519708256706
 20
82.43291504145797
 30
0.0
  0
SPLINE
  5
132
330
1F
100
AcDbEntity
  8
0
  6
Continuous
 62
     7
370
    15
100
AcDbSpline
210
0.0
220
0.0
230
1.0
 70
     8
 71
     3
 72
    27
 73
    23
 74
     0
 42
0.000000001
 43
0.00000001
 40
0.0
 40
0.0
 40
0.0
 40
0.0
 40
0.0426606797130155
 40
0.0855935073501641
 40
0.1294123204536568
 40
0.1735509225916227
 40
0.216223641577395
 40
0.2592142218222677
 40
0.3032398763005418
 40
0.3476370058789373
 40
0.3881390265361984
 40
0.4706287588869489
 40
0.5127326489496081
 40
0.5516617646075249
 40
0.6308467217350742
 40
0.6711909916320611
 40
0.7102149879120546
 40
0.7895062952710826
 40
0.8298451975719432
 40
0.871691567208472
 40
0.956733550197132
 40
1.0
 40
1.0
 40
1.0
 40
1.0
 10
105.3519708256683
 20
70.49367112971045
 30
0.0
 10
105.3892646579592
 20
70.47625310086285
 30
0.0
 10
105.4640902334019
 20
70.44130592725419
 30
0.0
 10
105.5679543980335
 20
70.42101465412892
 30
0.0
 10
105.6652546945909
 20
70.42596794008489
 30
0.0
 10
105.7532580793204
 20
70.45961733519032
 30
0.0
 10
105.8313465094287
 20
70.5209482609222
 30
0.0
 10
105.899569027086
 20
70.60998806905269
 30
0.0
 10
105.9581178301055
 20
70.72854514009444
 30
0.0
 10
106.0045476763188
 20
70.87264220533129
 30
0.0
 10
106.0506123307729
 20
71.0930785410803
 30
0.0
 10
106.0752609955655
 20
71.35712487936227
 30
0.0
 10
106.0781301704031
 20
71.65867559587218
 30
0.0
 10
106.0672970570616
 20
71.97753059801389
 30
0.0
 10
106.03687159891
 20
72.32409813055185
 30
0.0
 10
105.9872332871848
 20
72.69332114999311
 30
0.0
 10
105.9251728356086
 20
73.07532044615633
 30
0.0
 10
105.8450123923192
 20
73.47267016437624
 30
0.0
 10
105.7466865192858
 20
73.88302212360288
 30
0.0
 10
105.633327721884
 20
74.30965434605814
 30
0.0
 10
105.5017826256663
 20
74.74369647276158
 30
0.0
 10
105.3897492267162
 20
75.06051223671678
 30
0.0
 10
105.3519708256675
 20
75.16734460189885
 30
0.0
  0
SPLINE
  5
133
330
1F
100
AcDbEntity
  8
0
  6
Continuous
 62
     7
370
    15
100
AcDbSpline
210
0.0
220
0.0
230
1.0
 70
     8
 71
     3
 72
    16
 73
    12
 74
     0
 42
0.000000001
 43
0.00000001
 40
0.0
 40
0.0
 40
0.0
 40
0.0
 40
0.124574987250131
 40
0.2522965301460505
 40
0.3770193056408634
 40
0.5060351398638088
 40
0.620445220788781
 40
0.7382392163824508
 40
0.8524079450197269
 40
0.9691919620656593
 40
1.0
 40
1.0
 40
1.0
 40
1.0
 10
105.3519708256684
 20
67.48417331526808
 30
0.0
 10
105.2363438287388
 20
67.75717180078601
 30
0.0
 10
105.0021692904909
 20
68.31006425658056
 30
0.0
 10
104.7421031040274
 20
69.0351499023514
 30
0.0
 10
104.5717760884636
 20
69.66211533518309
 30
0.0
 10
104.5184463335997
 20
70.1338040925051
 30
0.0
 10
104.5751415698559
 20
70.45358677612703
 30
0.0
 10
104.7241904229572
 20
70.62299449400606
 30
0.0
 10
104.9571095263021
 20
70.65552011898588
 30
0.0
 10
105.1810194790683
 20
70.58529520965173
 30
0.0
 10
105.3224491169913
 20
70.5094937567305
 30
0.0
 10
105.3519708256683
 20
70.49367112971045
 30
0.0
  0
SPLINE
  5
134
330
1F
100
AcDbEntity
  8
0
  6
Continuous
 62
     7
370
    15
100
AcDbSpline
210
0.0
220
0.0
230
1.0
 70
     8
 71
     3
 72
    17
 73
    13
 74
     0
 42
0.000000001
 43
0.00000001
 40
0.0
 40
0.0
 40
0.0
 40
0.0
 40
0.0253588917922765
 40
0.1032250066100051
 40
0.2616109615562967
 40
0.3423076774980242
 40
0.420363489687058
 40
0.5789619965550783
 40
0.659647888711371
 40
0.7433510117478711
 40
0.9134562178701174
 40
1.0
 40
1.0
 40
1.0
 40
1.0
 10
106.0756519937039
 20
65.74064782926908
 30
0.0
 10
106.075991420061
 20
65.73979939118057
 30
0.0
 10
106.0773730769663
 20
65.73634576915269
 30
0.0
 10
106.0662983860287
 20
65.76402914343997
 30
0.0
 10
106.0370387231919
 20
65.83708956234786
 30
0.0
 10
105.9872080850808
 20
65.96082831866808
 30
0.0
 10
105.9251956641347
 20
66.11415109466584
 30
0.0
 10
105.8450163350399
 20
66.31098648696852
 30
0.0
 10
105.7466944090576
 20
66.54968985123892
 30
0.0
 10
105.6333336648213
 20
66.8225716821531
 30
0.0
 10
105.5017862839129
 20
67.13545641765438
 30
0.0
 10
105.3897501657272
 20
67.39623650011171
 30
0.0
 10
105.3519708256684
 20
67.48417331526808
 30
0.0
  0
SPLINE
  5
135
330
1F
100
AcDbEntity
  8
0
  6
Continuous
 62
     7
370
    15
100
AcDbSpline
210
0.0
220
0.0
230
1.0
 70
     8
 71
     3
 72
    18
 73
    14
 74
     0
 42
0.000000001
 43
0.00000001
 40
0.0
 40
0.0
 40
0.0
 40
0.0
 40
0.0853105076251447
 40
0.1711652122724955
 40
0.2587915597503938
 40
0.347057364862271
 40
0.4323943942007636
 40
0.5183670839235841
 40
0.6064097207391935
 40
0.6951952359326573
 40
0.7761912423263265
 40
0.941154347926671
 40
1.0
 40
1.0
 40
1.0
 40
1.0
 10
105.3519708256683
 20
103.9912291781097
 30
0.0
 10
105.3892636863706
 20
104.0780154116083
 30
0.0
 10
105.4640872994991
 20
104.2521414893054
 30
0.0
 10
105.5679489934813
 20
104.4974877535
 30
0.0
 10
105.6652470441756
 20
104.729540176839
 30
0.0
 10
105.7532501020304
 20
104.9415546371361
 30
0.0
 10
105.8313374458338
 20
105.1312816313857
 30
0.0
 10
105.8995668305819
 20
105.2983019170077
 30
0.0
 10
105.9580952805441
 20
105.4425059368191
 30
0.0
 10
106.0046056496321
 20
105.5577247111057
 30
0.0
 10
106.0503094148335
 20
105.6713991352755
 30
0.0
 10
106.0751292195168
 20
105.7334488558162
 30
0.0
 10
106.0755431576594
 20
105.7344828086633
 30
0.0
 10
106.0756519937039
 20
105.7347546641088
 30
0.0
  0
LINE
  5
136
330
1F
100
AcDbEntity
  8
0
  6
Continuous
 62
     7
370
    15
100
AcDbLine
 10
105.3519708257
 20
96.3080578915
 30
0.0
 11
116.5768307485
 21
96.3080578915
 31
0.0
  0
LINE
  5
137
330
1F
100
AcDbEntity
  8
0
  6
Continuous
 62
     7
370
    15
100
AcDbLine
 10
116.5768307485
 20
89.0424874519
 30
0.0
 11
116.5768307485
 21
96.3080578915
 31
0.0
  0
LINE
  5
138
330
1F
100
AcDbEntity
  8
0
  6
Continuous
 62
     7
370
    15
100
AcDbLine
 10
116.5768307485
 20
75.1673446019
 30
0.0
 11
116.5768307485
 21
82.4329150415
 31
0.0
  0
LINE
  5
139
330
1F
100
AcDbEntity
  8
0
  6
Continuous
 62
     7
370
    15
100
AcDbLine
 10
105.3519708257
 20
75.1673446019
 30
0.0
 11
116.5768307485
 21
75.1673446019
 31
0.0
  0
LINE
  5
13A
330
1F
100
AcDbEntity
  8
0
  6
Continuous
 62
     7
370
    15
100
AcDbLine
 10
118.0768307485
 20
74.8782091032
 30
0.0
 11
116.5768307485
 21
75.1673446019
 31
0.0
  0
LINE
  5
13B
330
1F
100
AcDbEntity
  8
0
  6
Continuous
 62
     7
370
    15
100
AcDbLine
 10
118.0768307485
 20
83.6781766631
 30
0.0
 11
118.0768307485
 21
74.8782091032
 31
0.0
  0
LINE
  5
13C
330
1F
100
AcDbEntity
  8
0
  6
Continuous
 62
     7
370
    15
100
AcDbLine
 10
118.0768307485
 20
96.5971933902
 30
0.0
 11
116.5768307485
 21
96.3080578915
 31
0.0
  0
LINE
  5
13D
330
1F
100
AcDbEntity
  8
0
  6
Continuous
 62
     7
370
    15
100
AcDbLine
 10
118.0768307485
 20
96.5971933902
 30
0.0
 11
118.0768307485
 21
87.7972258303
 31
0.0
  0
LINE
  5
13E
330
1F
100
AcDbEntity
  8
0
  6
Continuous
 62
     7
370
    15
100
AcDbLine
 10
116.5768307485
 20
96.3080578915
 30
0.0
 11
116.5768307485
 21
101.0514097457
 31
0.0
  0
LINE
  5
13F
330
1F
100
AcDbEntity
  8
0
  6
Continuous
 62
     7
370
    15
100
AcDbLine
 10
118.0768307485
 20
99.5514097457
 30
0.0
 11
118.0768307485
 21
96.5971933902
 31
0.0
  0
LINE
  5
140
330
1F
100
AcDbEntity
  8
0
  6
Continuous
 62
     7
370
    15
100
AcDbLine
 10
116.5768307485
 20
70.4239927477
 30
0.0
 11
116.5768307485
 21
75.1673446019
 31
0.0
  0
LINE
  5
141
330
1F
100
AcDbEntity
  8
0
  6
Continuous
 62
     7
370
    15
100
AcDbLine
 10
118.0768307485
 20
74.8782091032
 30
0.0
 11
118.0768307485
 21
71.9239927477
 31
0.0
  0
LINE
  5
142
330
1F
100
AcDbEntity
  8
0
  6
Continuous
 62
     7
370
    15
100
AcDbLine
 10
116.5768307485
 20
101.0514097457
 30
0.0
 11
116.5768307485
 21
103.9912291781
 31
0.0
  0
LINE
  5
143
330
1F
100
AcDbEntity
  8
0
  6
Continuous
 62
     7
370
    15
100
AcDbLine
 10
118.0768307485
 20
103.1548669002
 30
0.0
 11
116.5768307485
 21
103.9912291781
 31
0.0
  0
LINE
  5
144
330
1F
100
AcDbEntity
  8
0
  6
Continuous
 62
     7
370
    15
100
AcDbLine
 10
118.0768307485
 20
103.1548669002
 30
0.0
 11
118.0768307485
 21
99.5510484049
 31
0.0
  0
LINE
  5
145
330
1F
100
AcDbEntity
  8
0
  6
Continuous
 62
     7
370
    15
100
AcDbLine
 10
116.5768307485
 20
67.4841733153
 30
0.0
 11
118.0768307485
 21
68.3205355932
 31
0.0
  0
LINE
  5
146
330
1F
100
AcDbEntity
  8
0
  6
Continuous
 62
     7
370
    15
100
AcDbLine
 10
116.5768307485
 20
67.4841733153
 30
0.0
 11
116.5768307485
 21
70.4239927477
 31
0.0
  0
LINE
  5
147
330
1F
100
AcDbEntity
  8
0
  6
Continuous
 62
     7
370
    15
100
AcDbLine
 10
118.0768307485
 20
71.9243540884
 30
0.0
 11
118.0768307485
 21
68.3205355932
 31
0.0
  0
LINE
  5
148
330
1F
100
AcDbEntity
  8
0
  6
Continuous
 62
     7
370
    15
100
AcDbLine
 10
105.3519708257
 20
67.4841733153
 30
0.0
 11
116.5768307485
 21
67.4841733153
 31
0.0
  0
LINE
  5
149
330
1F
100
AcDbEntity
  8
0
  6
Continuous
 62
     7
370
    15
100
AcDbLine
 10
105.3519708257
 20
103.9912291781
 30
0.0
 11
116.5768307485
 21
103.9912291781
 31
0.0
  0
LINE
  5
14A
330
1F
100
AcDbEntity
  8
0
  6
Continuous
 62
     7
370
    15
100
AcDbLine
 10
116.5768307485
 20
103.9912291781
 30
0.0
 11
116.5768307485
 21
105.7377012467
 31
0.0
  0
LINE
  5
14B
330
1F
100
AcDbEntity
  8
0
  6
Continuous
 62
     7
370
    15
100
AcDbLine
 10
118.0768307485
 20
104.2377012467
 30
0.0
 11
118.0768307485
 21
103.1548669002
 31
0.0
  0
LINE
  5
14C
330
1F
100
AcDbEntity
  8
0
  6
Continuous
 62
     7
370
    15
100
AcDbLine
 10
116.5768307485
 20
65.7377012467
 30
0.0
 11
116.5768307485
 21
67.4841733153
 31
0.0
  0
LINE
  5
14D
330
1F
100
AcDbEntity
  8
0
  6
Continuous
 62
     7
370
    15
100
AcDbLine
 10
118.0768307485
 20
68.3205355932
 30
0.0
 11
118.0768307485
 21
67.2377012467
 31
0.0
  0
LINE
  5
14E
330
1F
100
AcDbEntity
  8
0
  6
Continuous
 62
     7
370
    15
100
AcDbLine
 10
184.0768307485
 20
71.7377012467
 30
0.0
 11
184.0768307485
 21
99.7377012467
 31
0.0
  0
SPLINE
  5
14F
330
1F
100
AcDbEntity
  8
0
  6
Continuous
 62
     7
370
    15
100
AcDbSpline
210
0.0
220
0.0
230
1.0
 70
     8
 71
     3
 72
    18
 73
    14
 74
     0
 42
0.000000001
 43
0.00000001
 40
0.0
 40
0.0
 40
0.0
 40
0.0
 40
0.0853105076251409
 40
0.1711652122724895
 40
0.2587915597503831
 40
0.3470573648622569
 40
0.4323943942007468
 40
0.5183670839235645
 40
0.6064097207391705
 40
0.6951952359326307
 40
0.7761912423262961
 40
0.9411543479266362
 40
1.0
 40
1.0
 40
1.0
 40
1.0
 10
181.8016906713024
 20
67.4841733152682
 30
0.0
 10
181.7643978106002
 20
67.39738708176961
 30
0.0
 10
181.6895741974716
 20
67.2232610040725
 30
0.0
 10
181.5857125034894
 20
66.97791473987783
 30
0.0
 10
181.4884144527952
 20
66.74586231653886
 30
0.0
 10
181.4004113949403
 20
66.5338478562417
 30
0.0
 10
181.3223240511369
 20
66.34412086199215
 30
0.0
 10
181.2540946663888
 20
66.17710057637014
 30
0.0
 10
181.1955662164266
 20
66.0328965565588
 30
0.0
 10
181.1490558473387
 20
65.91767778227211
 30
0.0
 10
181.1033520821373
 20
65.80400335810242
 30
0.0
 10
181.078532277454
 20
65.74195363756168
 30
0.0
 10
181.0781183393114
 20
65.74091968471448
 30
0.0
 10
181.0780095032669
 20
65.74064782926908
 30
0.0
  0
SPLINE
  5
150
330
1F
100
AcDbEntity
  8
0
  6
Continuous
 62
     7
370
    15
100
AcDbSpline
210
0.0
220
0.0
230
1.0
 70
     8
 71
     3
 72
    16
 73
    12
 74
     0
 42
0.000000001
 43
0.00000001
 40
0.0
 40
0.0
 40
0.0
 40
0.0
 40
0.124871069626843
 40
0.252898354461832
 40
0.3779145965856622
 40
0.5072218623673356
 40
0.6220810633072301
 40
0.7403195802979521
 40
0.8552389276217847
 40
0.9727845549775287
 40
1.0
 40
1.0
 40
1.0
 40
1.0
 10
181.8171666074015
 20
70.50222188102192
 30
0.0
 10
181.9316058691421
 20
70.55452961359536
 30
0.0
 10
182.1633769356232
 20
70.66046719812147
 30
0.0
 10
182.4193780150599
 20
70.63111519318696
 30
0.0
 10
182.5854863214792
 20
70.44948783892583
 30
0.0
 10
182.6350322254733
 20
70.1123413178531
 30
0.0
 10
182.5751615531251
 20
69.64166450367331
 30
0.0
 10
182.4234735136572
 20
69.07606714994051
 30
0.0
 10
182.1882482899836
 20
68.41156264332422
 30
0.0
 10
181.9658335429043
 20
67.86490998490264
 30
0.0
 10
181.827666434537
 20
67.5444252499921
 30
0.0
 10
181.8016906713024
 20
67.4841733152682
 30
0.0
  0
SPLINE
  5
151
330
1F
100
AcDbEntity
  8
0
  6
Continuous
 62
     7
370
    15
100
AcDbSpline
210
0.0
220
0.0
230
1.0
 70
     8
 71
     3
 72
    27
 73
    23
 74
     0
 42
0.000000001
 43
0.00000001
 40
0.0
 40
0.0
 40
0.0
 40
0.0
 40
0.0317262444763785
 40
0.1390819092625253
 40
0.1719033606729609
 40
0.2037246273479313
 40
0.3113876835766112
 40
0.3443169601053438
 40
0.374495604040797
 40
0.4765840418984195
 40
0.5077912971846698
 40
0.5592923351384479
 40
0.6116722403150379
 40
0.6646229377021614
 40
0.7161771931744699
 40
0.7685568366486665
 40
0.8214581798935494
 40
0.8543103419585617
 40
0.8873026157860532
 40
0.9319323035353494
 40
0.9658962945750467
 40
1.0
 40
1.0
 40
1.0
 40
1.0
 10
181.8171666074015
 20
75.2093733395123
 30
0.0
 10
181.7888105274273
 20
75.13054224734182
 30
0.0
 10
181.6645027876649
 20
74.78496151475672
 30
0.0
 10
181.5282701892521
 20
74.34042886187592
 30
0.0
 10
181.4111547574492
 20
73.89695912677908
 30
0.0
 10
181.3033116773065
 20
73.45402413961499
 30
0.0
 10
181.2162943501237
 20
73.01593555100622
 30
0.0
 10
181.1544336861991
 20
72.60580861615871
 30
0.0
 10
181.1051544213
 20
72.22046623888623
 30
0.0
 10
181.0788404943586
 20
71.86508974069027
 30
0.0
 10
181.0758420768437
 20
71.50972634301195
 30
0.0
 10
181.0856711234527
 20
71.27131837254552
 30
0.0
 10
181.1145207022559
 20
71.02966722198437
 30
0.0
 10
181.1606890237496
 20
70.82617954407
 30
0.0
 10
181.2234577351589
 20
70.6627314619992
 30
0.0
 10
181.3019869492072
 20
70.54036210524905
 30
0.0
 10
181.3844659525672
 20
70.46968000418943
 30
0.0
 10
181.4640309126191
 20
70.4348741965366
 30
0.0
 10
181.5439448534372
 20
70.42073117898543
 30
0.0
 10
181.6314740734466
 20
70.42836932648382
 30
0.0
 10
181.7258215663916
 20
70.45626092836883
 30
0.0
 10
181.7866766237757
 20
70.48688061368742
 30
0.0
 10
181.8171666074015
 20
70.50222188102192
 30
0.0
  0
SPLINE
  5
152
330
1F
100
AcDbEntity
  8
0
  6
Continuous
 62
     7
370
    15
100
AcDbSpline
210
0.0
220
0.0
230
1.0
 70
     8
 71
     3
 72
    15
 73
    11
 74
     0
 42
0.000000001
 43
0.00000001
 40
0.0
 40
0.0
 40
0.0
 40
0.0
 40
0.1255505115575921
 40
0.254274305198854
 40
0.3799729809583527
 40
0.5099861143893033
 40
0.6254721503975574
 40
0.7443559600027092
 40
0.8704688384767284
 40
1.0
 40
1.0
 40
1.0
 40
1.0
 10
181.8171666074015
 20
82.4092425303182
 30
0.0
 10
181.9316045332721
 20
82.21198239931198
 30
0.0
 10
182.1633727971218
 20
81.81247639863722
 30
0.0
 10
182.4193687056815
 20
81.05177780180334
 30
0.0
 10
182.5854971994367
 20
80.17416830088078
 30
0.0
 10
182.6349811451618
 20
79.23151446505133
 30
0.0
 10
182.5753340899722
 20
78.25106379090742
 30
0.0
 10
182.4182247010496
 20
77.25784146030523
 30
0.0
 10
182.1678281090455
 20
76.2261922025175
 30
0.0
 10
181.935091103657
 20
75.55132092041544
 30
0.0
 10
181.8171666074015
 20
75.2093733395123
 30
0.0
  0
SPLINE
  5
153
330
1F
100
AcDbEntity
  8
0
  6
Continuous
 62
     7
370
    15
100
AcDbSpline
210
0.0
220
0.0
230
1.0
 70
     8
 71
     3
 72
    19
 73
    15
 74
     0
 42
0.000000001
 43
0.00000001
 40
0.0
 40
0.0
 40
0.0
 40
0.0
 40
0.0848173163342519
 40
0.1719666277871837
 40
0.2568445119593701
 40
0.3444496558075537
 40
0.4249502760439838
 40
0.5079899722588882
 40
0.5852601899258979
 40
0.6647755594794325
 40
0.7421311118706726
 40
0.821572448407648
 40
0.909442287543455
 40
1.0
 40
1.0
 40
1.0
 40
1.0
 10
181.8171666074015
 20
89.06615996305956
 30
0.0
 10
181.7428538982146
 20
88.93872831610457
 30
0.0
 10
181.5921853018369
 20
88.68036137469069
 30
0.0
 10
181.4069391632468
 20
88.1828798436836
 30
0.0
 10
181.2555458695985
 20
87.61017452208594
 30
0.0
 10
181.1496888175848
 20
86.98985462843036
 30
0.0
 10
181.0876405721064
 20
86.33505978003932
 30
0.0
 10
181.0701867424712
 20
85.68837715736788
 30
0.0
 10
181.0943439815452
 20
85.04654825676329
 30
0.0
 10
181.156967622887
 20
84.4394333824339
 30
0.0
 10
181.2576350351522
 20
83.8631022712974
 30
0.0
 10
181.398563696556
 20
83.32081509546782
 30
0.0
 10
181.5819740642262
 20
82.81522311373988
 30
0.0
 10
181.7379856947515
 20
82.54592166427165
 30
0.0
 10
181.8171666074015
 20
82.4092425303182
 30
0.0
  0
SPLINE
  5
154
330
1F
100
AcDbEntity
  8
0
  6
Continuous
 62
     7
370
    15
100
AcDbSpline
210
0.0
220
0.0
230
1.0
 70
     8
 71
     3
 72
    15
 73
    11
 74
     0
 42
0.000000001
 43
0.00000001
 40
0.0
 40
0.0
 40
0.0
 40
0.0
 40
0.1255523938562809
 40
0.2542782239303525
 40
0.3799765823769391
 40
0.5099893772574043
 40
0.6254752754523861
 40
0.744358927995481
 40
0.8704703861780994
 40
1.0
 40
1.0
 40
1.0
 40
1.0
 10
181.8171666074015
 20
96.26602915386552
 30
0.0
 10
181.9316061730459
 20
95.93474868430133
 30
0.0
 10
182.1633778550159
 20
95.26381436886308
 30
0.0
 10
182.4193742659803
 20
94.21736662627352
 30
0.0
 10
182.5855001984502
 20
93.15783868649552
 30
0.0
 10
182.6349809436867
 20
92.16194188332594
 30
0.0
 10
182.5753311961604
 20
91.24581370074029
 30
0.0
 10
182.4182201801541
 20
90.42477921480865
 30
0.0
 10
182.1678241870266
 20
89.6724668995252
 30
0.0
 10
181.9350897582122
 20
89.27005581034979
 30
0.0
 10
181.8171666074015
 20
89.06615996305956
 30
0.0
  0
SPLINE
  5
155
330
1F
100
AcDbEntity
  8
0
  6
Continuous
 62
     7
370
    15
100
AcDbSpline
210
0.0
220
0.0
230
1.0
 70
     8
 71
     3
 72
    27
 73
    23
 74
     0
 42
0.000000001
 43
0.00000001
 40
0.0
 40
0.0
 40
0.0
 40
0.0
 40
0.0422828649192651
 40
0.0848353827771233
 40
0.1282658983749426
 40
0.1720133992495615
 40
0.2143082379527559
 40
0.3004702161960711
 40
0.3444766527369014
 40
0.3845903072283666
 40
0.4662920781676037
 40
0.5079960069610673
 40
0.5465061701194586
 40
0.6248417087251631
 40
0.664755141297697
 40
0.703313415779501
 40
0.7816605130082749
 40
0.8215204526377662
 40
0.865303154155587
 40
0.9094168769478728
 40
0.9545415235882093
 40
1.0
 40
1.0
 40
1.0
 40
1.0
 10
181.8171666074015
 20
100.973180612356
 30
0.0
 10
181.7794763484134
 20
100.9917489952697
 30
0.0
 10
181.7038554661877
 20
101.0290041783101
 30
0.0
 10
181.5987317968461
 20
101.0527697667879
 30
0.0
 10
181.5001239158756
 20
101.0512904574661
 30
0.0
 10
181.4107756094168
 20
101.0210169263334
 30
0.0
 10
181.3044620396317
 20
100.9433497092328
 30
0.0
 10
181.2176732846962
 20
100.8084820492256
 30
0.0
 10
181.1540214102102
 20
100.6201048483295
 30
0.0
 10
181.1062235068338
 20
100.4030021412059
 30
0.0
 10
181.0799014988008
 20
100.1418764456769
 30
0.0
 10
181.0754370018833
 20
99.84278103734604
 30
0.0
 10
181.0847412012259
 20
99.5261964711046
 30
0.0
 10
181.1136908915483
 20
99.18152818160388
 30
0.0
 10
181.1619131376794
 20
98.81382066278404
 30
0.0
 10
181.2225674566708
 20
98.4332580227718
 30
0.0
 10
181.3013392929458
 20
98.0369772682667
 30
0.0
 10
181.3998481981261
 20
97.62109205149669
 30
0.0
 10
181.4866537165541
 20
97.2912210719099
 30
0.0
 10
181.5865255459738
 20
96.94879481411327
 30
0.0
 10
181.6960494883467
 20
96.60491683868459
 30
0.0
 10
181.7766951654212
 20
96.37926891205198
 30
0.0
 10
181.8171666074015
 20
96.26602915386552
 30
0.0
  0
SPLINE
  5
156
330
1F
100
AcDbEntity
  8
0
  6
Continuous
 62
     7
370
    15
100
AcDbSpline
210
0.0
220
0.0
230
1.0
 70
     8
 71
     3
 72
    15
 73
    11
 74
     0
 42
0.000000001
 43
0.00000001
 40
0.0
 40
0.0
 40
0.0
 40
0.0
 40
0.1268822801305643
 40
0.2536752177405935
 40
0.3812607910574377
 40
0.5087848133226811
 40
0.6254951534289748
 40
0.742249504538785
 40
0.871076756806134
 40
1.0
 40
1.0
 40
1.0
 40
1.0
 10
181.8016906713023
 20
103.9912291781099
 30
0.0
 10
181.9186199723787
 20
103.7149100334099
 30
0.0
 10
182.1523962402728
 20
103.1624663105706
 30
0.0
 10
182.4142314922434
 20
102.4329885498895
 30
0.0
 10
182.5811453266849
 20
101.8113480331222
 30
0.0
 10
182.6356668388299
 20
101.3370303660079
 30
0.0
 10
182.5771395544318
 20
101.0214141617522
 30
0.0
 10
182.4220404366702
 20
100.8466505937239
 30
0.0
 10
182.1705741574843
 20
100.8133347702932
 30
0.0
 10
181.934998368318
 20
100.9198854378726
 30
0.0
 10
181.8171666074015
 20
100.973180612356
 30
0.0
  0
SPLINE
  5
157
330
1F
100
AcDbEntity
  8
0
  6
Continuous
 62
     7
370
    15
100
AcDbSpline
210
0.0
220
0.0
230
1.0
 70
     8
 71
     3
 72
    17
 73
    13
 74
     0
 42
0.000000001
 43
0.00000001
 40
0.0
 40
0.0
 40
0.0
 40
0.0
 40
0.0253588917923183
 40
0.1032250066100468
 40
0.2616109615563371
 40
0.3423076774980637
 40
0.4203634896870961
 40
0.578961996555116
 40
0.6596478887114063
 40
0.743351011747899
 40
0.9134562178701268
 40
1.0
 40
1.0
 40
1.0
 40
1.0
 10
181.0780095032669
 20
105.7347546641088
 30
0.0
 10
181.0776700769098
 20
105.7356031021973
 30
0.0
 10
181.0762884200045
 20
105.7390567242252
 30
0.0
 10
181.087363110942
 20
105.7113733499379
 30
0.0
 10
181.1166227737789
 20
105.63831293103
 30
0.0
 10
181.16645341189
 20
105.5145741747098
 30
0.0
 10
181.2284658328361
 20
105.361251398712
 30
0.0
 10
181.3086451619309
 20
105.1644160064093
 30
0.0
 10
181.4069670879132
 20
104.925712642139
 30
0.0
 10
181.5203278321494
 20
104.6528308112248
 30
0.0
 10
181.6518752130578
 20
104.3399460757235
 30
0.0
 10
181.7639113312435
 20
104.0791659932663
 30
0.0
 10
181.8016906713023
 20
103.9912291781099
 30
0.0
  0
LINE
  5
158
330
1F
100
AcDbEntity
  8
0
  6
Continuous
 62
     7
370
    15
100
AcDbLine
 10
181.8171666074
 20
82.4092425303
 30
0.0
 11
170.5768307485
 21
82.4092425303
 31
0.0
  0
LINE
  5
159
330
1F
100
AcDbEntity
  8
0
  6
Continuous
 62
     7
370
    15
100
AcDbLine
 10
170.5768307485
 20
89.0661599631
 30
0.0
 11
170.5768307485
 21
82.4092425303
 31
0.0
  0
LINE
  5
15A
330
1F
100
AcDbEntity
  8
0
  6
Continuous
 62
     7
370
    15
100
AcDbLine
 10
181.8171666074
 20
89.0661599631
 30
0.0
 11
170.5768307485
 21
89.0661599631
 31
0.0
  0
LINE
  5
15B
330
1F
100
AcDbEntity
  8
0
  6
Continuous
 62
     7
370
    15
100
AcDbLine
 10
170.5768307485
 20
82.4092425303
 30
0.0
 11
169.0768307485
 21
83.657527313
 31
0.0
  0
LINE
  5
15C
330
1F
100
AcDbEntity
  8
0
  6
Continuous
 62
     7
370
    15
100
AcDbLine
 10
169.0768307485
 20
83.657527313
 30
0.0
 11
169.0768307485
 21
87.8178751804
 31
0.0
  0
LINE
  5
15D
330
1F
100
AcDbEntity
  8
0
  6
Continuous
 62
     7
370
    15
100
AcDbLine
 10
170.5768307485
 20
89.0661599631
 30
0.0
 11
169.0768307485
 21
87.8178751804
 31
0.0
  0
LINE
  5
15E
330
1F
100
AcDbEntity
  8
0
  6
Continuous
 62
     7
370
    15
100
AcDbLine
 10
181.8171666074
 20
75.2093733395
 30
0.0
 11
170.5768307485
 21
75.2093733395
 31
0.0
  0
LINE
  5
15F
330
1F
100
AcDbEntity
  8
0
  6
Continuous
 62
     7
370
    15
100
AcDbLine
 10
170.5768307485
 20
82.4092425303
 30
0.0
 11
170.5768307485
 21
75.2093733395
 31
0.0
  0
LINE
  5
160
330
1F
100
AcDbEntity
  8
0
  6
Continuous
 62
     7
370
    15
100
AcDbLine
 10
170.5768307485
 20
96.2660291539
 30
0.0
 11
170.5768307485
 21
89.0661599631
 31
0.0
  0
LINE
  5
161
330
1F
100
AcDbEntity
  8
0
  6
Continuous
 62
     7
370
    15
100
AcDbLine
 10
181.8171666074
 20
96.2660291539
 30
0.0
 11
170.5768307485
 21
96.2660291539
 31
0.0
  0
LINE
  5
162
330
1F
100
AcDbEntity
  8
0
  6
Continuous
 62
     7
370
    15
100
AcDbLine
 10
170.5768307485
 20
96.2660291539
 30
0.0
 11
169.0768307485
 21
96.5605734835
 31
0.0
  0
LINE
  5
163
330
1F
100
AcDbEntity
  8
0
  6
Continuous
 62
     7
370
    15
100
AcDbLine
 10
169.0768307485
 20
87.8178751804
 30
0.0
 11
169.0768307485
 21
96.5605734835
 31
0.0
  0
LINE
  5
164
330
1F
100
AcDbEntity
  8
0
  6
Continuous
 62
     7
370
    15
100
AcDbLine
 10
170.5768307485
 20
75.2093733395
 30
0.0
 11
169.0768307485
 21
74.9148290099
 31
0.0
  0
LINE
  5
165
330
1F
100
AcDbEntity
  8
0
  6
Continuous
 62
     7
370
    15
100
AcDbLine
 10
169.0768307485
 20
74.9148290099
 30
0.0
 11
169.0768307485
 21
83.657527313
 31
0.0
  0
LINE
  5
166
330
1F
100
AcDbEntity
  8
0
  6
Continuous
 62
     7
370
    15
100
AcDbLine
 10
170.5768307485
 20
101.0510484049
 30
0.0
 11
170.5768307485
 21
96.2660291539
 31
0.0
  0
LINE
  5
167
330
1F
100
AcDbEntity
  8
0
  6
Continuous
 62
     7
370
    15
100
AcDbLine
 10
169.0768307485
 20
96.5605734835
 30
0.0
 11
169.0768307485
 21
99.5510484049
 31
0.0
  0
LINE
  5
168
330
1F
100
AcDbEntity
  8
0
  6
Continuous
 62
     7
370
    15
100
AcDbLine
 10
170.5768307485
 20
75.2093733395
 30
0.0
 11
170.5768307485
 21
70.4243540884
 31
0.0
  0
LINE
  5
169
330
1F
100
AcDbEntity
  8
0
  6
Continuous
 62
     7
370
    15
100
AcDbLine
 10
169.0768307485
 20
71.9243540884
 30
0.0
 11
169.0768307485
 21
74.9148290099
 31
0.0
  0
LINE
  5
16A
330
1F
100
AcDbEntity
  8
0
  6
Continuous
 62
     7
370
    15
100
AcDbLine
 10
170.5768307485
 20
70.4243540884
 30
0.0
 11
170.5768307485
 21
67.4841733153
 31
0.0
  0
LINE
  5
16B
330
1F
100
AcDbEntity
  8
0
  6
Continuous
 62
     7
370
    15
100
AcDbLine
 10
170.5768307485
 20
67.4841733153
 30
0.0
 11
169.0768307485
 21
68.3205355932
 31
0.0
  0
LINE
  5
16C
330
1F
100
AcDbEntity
  8
0
  6
Continuous
 62
     7
370
    15
100
AcDbLine
 10
169.0768307485
 20
68.3205355932
 30
0.0
 11
169.0768307485
 21
71.9239927477
 31
0.0
  0
LINE
  5
16D
330
1F
100
AcDbEntity
  8
0
  6
Continuous
 62
     7
370
    15
100
AcDbLine
 10
169.0768307485
 20
103.1548669002
 30
0.0
 11
170.5768307485
 21
103.9912291781
 31
0.0
  0
LINE
  5
16E
330
1F
100
AcDbEntity
  8
0
  6
Continuous
 62
     7
370
    15
100
AcDbLine
 10
170.5768307485
 20
103.9912291781
 30
0.0
 11
170.5768307485
 21
101.0510484049
 31
0.0
  0
LINE
  5
16F
330
1F
100
AcDbEntity
  8
0
  6
Continuous
 62
     7
370
    15
100
AcDbLine
 10
169.0768307485
 20
99.5514097457
 30
0.0
 11
169.0768307485
 21
103.1548669002
 31
0.0
  0
LINE
  5
170
330
1F
100
AcDbEntity
  8
0
  6
Continuous
 62
     7
370
    15
100
AcDbLine
 10
181.8016906713
 20
67.4841733153
 30
0.0
 11
170.5768307485
 21
67.4841733153
 31
0.0
  0
LINE
  5
171
330
1F
100
AcDbEntity
  8
0
  6
Continuous
 62
     7
370
    15
100
AcDbLine
 10
181.8016906713
 20
103.9912291781
 30
0.0
 11
170.5768307485
 21
103.9912291781
 31
0.0
  0
LINE
  5
172
330
1F
100
AcDbEntity
  8
0
  6
Continuous
 62
     7
370
    15
100
AcDbLine
 10
170.5768307485
 20
67.4841733153
 30
0.0
 11
170.5768307485
 21
65.7377012467
 31
0.0
  0
LINE
  5
173
330
1F
100
AcDbEntity
  8
0
  6
Continuous
 62
     7
370
    15
100
AcDbLine
 10
169.0768307485
 20
67.2377012467
 30
0.0
 11
169.0768307485
 21
68.3205355932
 31
0.0
  0
LINE
  5
174
330
1F
100
AcDbEntity
  8
0
  6
Continuous
 62
     7
370
    15
100
AcDbLine
 10
170.5768307485
 20
105.7377012467
 30
0.0
 11
170.5768307485
 21
103.9912291781
 31
0.0
  0
LINE
  5
175
330
1F
100
AcDbEntity
  8
0
  6
Continuous
 62
     7
370
    15
100
AcDbLine
 10
169.0768307485
 20
103.1548669002
 30
0.0
 11
169.0768307485
 21
104.2377012467
 31
0.0
  0
LINE
  5
176
330
1F
100
AcDbEntity
  8
0
  6
Continuous
 62
     7
370
    15
100
AcDbLine
 10
137.0768307485
 20
47.7377012467
 30
0.0
 11
137.0768307485
 21
123.7377012467
 31
0.0
  0
LINE
  5
177
330
1F
100
AcDbEntity
  8
0
  6
Continuous
 62
     7
370
    15
100
AcDbLine
 10
124.5768307485
 20
47.7377012467
 30
0.0
 11
124.5768307485
 21
123.7377012467
 31
0.0
  0
CIRCLE
  5
178
330
1F
100
AcDbEntity
  8
0
  6
Continuous
 62
     7
370
    15
100
AcDbCircle
 10
131.0768307485
 20
60.7377012467
 30
0.0
 40
2.500000000000014
  0
CIRCLE
  5
179
330
1F
100
AcDbEntity
  8
0
  6
Continuous
 62
     7
370
    15
100
AcDbCircle
 10
131.0768307485
 20
98.2377012467
 30
0.0
 40
2.499999999999986
  0
CIRCLE
  5
17A
330
1F
100
AcDbEntity
  8
0
  6
Continuous
 62
     7
370
    15
100
AcDbCircle
 10
131.0768307485
 20
110.7377012467
 30
0.0
 40
2.5
  0
LINE
  5
17B
330
1F
100
AcDbEntity
  8
0
  6
Continuous
 62
     7
370
    15
100
AcDbLine
 10
137.0768307485
 20
123.7377012467
 30
0.0
 11
124.5768307485
 21
123.7377012467
 31
0.0
  0
LINE
  5
17C
330
1F
100
AcDbEntity
  8
0
  6
Continuous
 62
     7
370
    15
100
AcDbLine
 10
137.0768307485
 20
47.7377012467
 30
0.0
 11
124.5768307485
 21
47.7377012467
 31
0.0
  0
LINE
  5
17D
330
1F
100
AcDbEntity
  8
0
  6
Continuous
 62
     7
370
    15
100
AcDbLine
 10
150.0768307485
 20
47.7377012467
 30
0.0
 11
150.0768307485
 21
123.7377012467
 31
0.0
  0
CIRCLE
  5
17E
330
1F
100
AcDbEntity
  8
0
  6
Continuous
 62
     7
370
    15
100
AcDbCircle
 10
156.0768307485
 20
98.2377012467
 30
0.0
 40
2.499999999999986
  0
CIRCLE
  5
17F
330
1F
100
AcDbEntity
  8
0
  6
Continuous
 62
     7
370
    15
100
AcDbCircle
 10
156.0768307485
 20
110.7377012467
 30
0.0
 40
2.5
  0
LINE
  5
180
330
1F
100
AcDbEntity
  8
0
  6
Continuous
 62
     7
370
    15
100
AcDbLine
 10
162.5768307485
 20
47.7377012467
 30
0.0
 11
162.5768307485
 21
123.7377012467
 31
0.0
  0
CIRCLE
  5
181
330
1F
100
AcDbEntity
  8
0
  6
Continuous
 62
     7
370
    15
100
AcDbCircle
 10
156.0768307485
 20
60.7377012467
 30
0.0
 40
2.500000000000014
  0
LINE
  5
182
330
1F
100
AcDbEntity
  8
0
  6
Continuous
 62
     7
370
    15
100
AcDbLine
 10
162.5768307485
 20
123.7377012467
 30
0.0
 11
150.0768307485
 21
123.7377012467
 31
0.0
  0
LINE
  5
183
330
1F
100
AcDbEntity
  8
0
  6
Continuous
 62
     7
370
    15
100
AcDbLine
 10
162.5768307485
 20
47.7377012467
 30
0.0
 11
150.0768307485
 21
47.7377012467
 31
0.0
  0
CIRCLE
  5
184
330
1F
100
AcDbEntity
  8
0
  6
Continuous
 62
     7
370
    15
100
AcDbCircle
 10
143.5768307485
 20
60.7377012467
 30
0.0
 40
2.5
  0
CIRCLE
  5
185
330
1F
100
AcDbEntity
  8
0
  6
Continuous
 62
     7
370
    15
100
AcDbCircle
 10
143.5768307485
 20
85.7377012467
 30
0.0
 40
2.5
  0
CIRCLE
  5
186
330
1F
100
AcDbEntity
  8
0
  6
Continuous
 62
     7
370
    15
100
AcDbCircle
 10
143.5768307485
 20
110.7377012467
 30
0.0
 40
2.499999999999972
  0
LINE
  5
187
330
1F
100
AcDbEntity
  8
0
  6
Continuous
 62
     7
370
    15
100
AcDbLine
 10
150.0768307485
 20
123.7377012467
 30
0.0
 11
137.0768307485
 21
123.7377012467
 31
0.0
  0
LINE
  5
188
330
1F
100
AcDbEntity
  8
0
  6
Continuous
 62
     7
370
    15
100
AcDbLine
 10
150.0768307485
 20
47.7377012467
 30
0.0
 11
137.0768307485
 21
47.7377012467
 31
0.0
  0
LINE
  5
189
330
1F
100
AcDbEntity
  8
0
  6
Continuous
 62
     7
370
    15
100
AcDbLine
 10
124.5768307485
 20
123.7377012467
 30
0.0
 11
118.5768307485
 21
123.7377012467
 31
0.0
  0
LINE
  5
18A
330
1F
100
AcDbEntity
  8
0
  6
Continuous
 62
     7
370
    15
100
AcDbLine
 10
124.5768307485
 20
47.7377012467
 30
0.0
 11
118.5768307485
 21
47.7377012467
 31
0.0
  0
LINE
  5
18B
330
1F
100
AcDbEntity
  8
0
  6
Continuous
 62
     7
370
    15
100
AcDbLine
 10
168.5768307485
 20
123.7377012467
 30
0.0
 11
162.5768307485
 21
123.7377012467
 31
0.0
  0
LINE
  5
18C
330
1F
100
AcDbEntity
  8
0
  6
Continuous
 62
     7
370
    15
100
AcDbLine
 10
168.5768307485
 20
47.7377012467
 30
0.0
 11
162.5768307485
 21
47.7377012467
 31
0.0
  0
DIMENSION
  5
18D
330
1F
100
AcDbEntity
  8
DIM
 62
     7
100
AcDbDimension
  2
_D
 10
131.0768307485
 20
131.2377012467
 30
0.0
 11
137.3268307485
 21
131.2377012467
 31
0.0
 70
   160
  1
<>
 71
     2
 42
-1.0
  3
SLDDIMSTYLE0
100
AcDbAlignedDimension
 13
143.5768307485
 23
114.2377012467
 33
0.0
 14
131.0768307485
 24
114.2377012467
 34
0.0
100
AcDbRotatedDimension
  0
DIMENSION
  5
198
330
1F
100
AcDbEntity
  8
DIM
 62
     7
100
AcDbDimension
  2
_D_1
 10
143.5768307485
 20
131.2377012467
 30
0.0
 11
149.8268307485
 21
131.2377012467
 31
0.0
 70
   160
  1
<>
 71
     2
 42
-1.0
  3
SLDDIMSTYLE0
100
AcDbAlignedDimension
 13
156.0768307485
 23
114.2377012467
 33
0.0
 14
143.5768307485
 24
114.2377012467
 34
0.0
100
AcDbRotatedDimension
  0
DIMENSION
  5
1A2
330
1F
100
AcDbEntity
  8
DIM
 62
     7
100
AcDbDimension
  2
_D_2
 10
95.5768307485
 20
85.7377012467
 30
0.0
 11
95.5768307485
 21
91.9877012467
 31
0.0
 70
   160
  1
<>
 71
     2
 42
-1.0
  3
SLDDIMSTYLE0
100
AcDbAlignedDimension
 13
127.5768307485
 23
98.2377012467
 33
0.0
 14
143.5768307485
 24
85.7377012467
 34
0.0
 50
90.0
100
AcDbRotatedDimension
  0
DIMENSION
  5
1AC
330
1F
100
AcDbEntity
  8
DIM
 62
     7
100
AcDbDimension
  2
_D_3
 10
86.0667344446
 20
85.7377012467
 30
0.0
 11
86.0667344446
 21
98.2377012467
 31
0.0
 70
   160
  1
<>
 71
     2
 42
-1.0
  3
SLDDIMSTYLE0
100
AcDbAlignedDimension
 13
127.5768307485
 23
110.7377012467
 33
0.0
 14
143.5768307485
 24
85.7377012467
 34
0.0
 50
90.0
100
AcDbRotatedDimension
  0
DIMENSION
  5
1B6
330
1F
100
AcDbEntity
  8
DIM
 62
     7
100
AcDbDimension
  2
_D_4
 10
86.0667344446
 20
60.7377012467
 30
0.0
 11
86.0667344446
 21
73.2377012467
 31
0.0
 70
   160
  1
<>
 71
     2
 42
-1.0
  3
SLDDIMSTYLE0
100
AcDbAlignedDimension
 13
143.5768307485
 23
85.7377012467
 33
0.0
 14
127.5768307485
 24
60.7377012467
 34
0.0
 50
90.0
100
AcDbRotatedDimension
  0
DIMENSION
  5
1C0
330
1F
100
AcDbEntity
  8
DIM
 62
     7
100
AcDbDimension
  2
_D_5
 10
168.5768307485
 20
141.4268738891
 30
0.0
 11
143.5768307485
 21
141.4268738891
 31
0.0
 70
   160
  1
<>
 71
     2
 42
-1.0
  3
SLDDIMSTYLE0
100
AcDbAlignedDimension
 13
118.5768307485
 23
123.7377012467
 33
0.0
 14
168.5768307485
 24
123.7377012467
 34
0.0
100
AcDbRotatedDimension
  0
DIMENSION
  5
1CA
330
1F
100
AcDbEntity
  8
DIM
 62
     7
100
AcDbDimension
  2
_D_6
 10
75.9476935404
 20
47.7377012467
 30
0.0
 11
75.9476935404
 21
85.7377012467
 31
0.0
 70
   160
  1
<>
 71
     2
 42
-1.0
  3
SLDDIMSTYLE0
100
AcDbAlignedDimension
 13
124.5768307485
 23
123.7377012467
 33
0.0
 14
124.5768307485
 24
47.7377012467
 34
0.0
 50
90.0
100
AcDbRotatedDimension
  0
DIMENSION
  5
1D4
330
1F
100
AcDbEntity
  8
DIM
100
AcDbDimension
  2
_D_7
 10
153.7811655107
 20
109.7477915962
 30
0.0
 11
195.2978071715
 21
127.5963575262
 31
0.0
 70
   163
  1
9 HOLES,\P M6
 71
     1
 42
-1.0
  3
SLDDIMSTYLE1
100
AcDbDiametricDimension
 15
158.3724959862
 25
111.7276108972
 35
0.0
 40
0.0
  0
INSERT
  5
1E9
330
1F
100
AcDbEntity
  8
DIM
 62
     7
100
AcDbBlockReference
  2
SW_CENTERMARKSYMBOL_0
 10
131.0768307485
 20
110.7377012467
 30
0.0
  0
INSERT
  5
1F5
330
1F
100
AcDbEntity
  8
DIM
 62
     7
100
AcDbBlockReference
  2
SW_CENTERMARKSYMBOL_1
 10
143.5768307485
 20
110.7377012467
 30
0.0
  0
INSERT
  5
201
330
1F
100
AcDbEntity
  8
DIM
 62
     7
100
AcDbBlockReference
  2
SW_CENTERMARKSYMBOL_2
 10
156.0768307485
 20
110.7377012467
 30
0.0
  0
INSERT
  5
20D
330
1F
100
AcDbEntity
  8
DIM
 62
     7
100
AcDbBlockReference
  2
SW_CENTERMARKSYMBOL_3
 10
156.0768307485
 20
98.2377012467
 30
0.0
  0
INSERT
  5
219
330
1F
100
AcDbEntity
  8
DIM
 62
     7
100
AcDbBlockReference
  2
SW_CENTERMARKSYMBOL_4
 10
131.0768307485
 20
98.2377012467
 30
0.0
  0
INSERT
  5
225
330
1F
100
AcDbEntity
  8
DIM
 62
     7
100
AcDbBlockReference
  2
SW_CENTERMARKSYMBOL_5
 10
156.0768307485
 20
60.7377012467
 30
0.0
  0
INSERT
  5
231
330
1F
100
AcDbEntity
  8
DIM
 62
     7
100
AcDbBlockReference
  2
SW_CENTERMARKSYMBOL_6
 10
143.5768307485
 20
60.7377012467
 30
0.0
  0
INSERT
  5
23D
330
1F
100
AcDbEntity
  8
DIM
 62
     7
100
AcDbBlockReference
  2
SW_CENTERMARKSYMBOL_7
 10
131.0768307485
 20
60.7377012467
 30
0.0
  0
LINE
  5
23E
330
1F
100
AcDbEntity
  8
DIM
  6
CENTERX2
370
     0
100
AcDbLine
 10
165.5768307485
 20
85.7377012467
 30
0.0
 11
115.5768307485
 21
85.7377012467
 31
0.0
  0
LINE
  5
23F
330
1F
100
AcDbEntity
  8
DIM
  6
CENTERX2
370
     0
100
AcDbLine
 10
143.5768307485
 20
44.7377012467
 30
0.0
 11
143.5768307485
 21
126.7377012467
 31
0.0
  0
LINE
  5
240
330
1F
100
AcDbEntity
  8
0
  6
Continuous
 62
     7
370
    15
100
AcDbLine
 10
106.0766500781
 20
251.1627753802
 30
0.0
 11
103.0768307485
 21
245.1631367209
 31
0.0
  0
LINE
  5
241
330
1F
100
AcDbEntity
  8
0
  6
Continuous
 62
     7
370
    15
100
AcDbLine
 10
103.0768307485
 20
217.1631367209
 30
0.0
 11
106.0768307485
 21
211.1631367209
 31
0.0
  0
LINE
  5
242
330
1F
100
AcDbEntity
  8
0
  6
Continuous
 62
     7
370
    15
100
AcDbLine
 10
116.5768307485
 20
215.849428222
 30
0.0
 11
118.0768307485
 21
217.349428222
 31
0.0
  0
LINE
  5
243
330
1F
100
AcDbEntity
  8
0
  6
Continuous
 62
     7
370
    15
100
AcDbLine
 10
105.5956744742
 20
215.849428222
 30
0.0
 11
116.5768307485
 21
215.849428222
 31
0.0
  0
LINE
  5
244
330
1F
100
AcDbEntity
  8
0
  6
Continuous
 62
     7
370
    15
100
AcDbLine
 10
116.5768307485
 20
246.4764838792
 30
0.0
 11
105.5955153399
 21
246.4764838792
 31
0.0
  0
LINE
  5
245
330
1F
100
AcDbEntity
  8
0
  6
Continuous
 62
     7
370
    15
100
AcDbLine
 10
118.0768307485
 20
244.9764838792
 30
0.0
 11
116.5768307485
 21
246.4764838792
 31
0.0
  0
LINE
  5
246
330
1F
100
AcDbEntity
  8
0
  6
Continuous
 62
     7
370
    15
100
AcDbLine
 10
121.4268307485
 20
238.6631367209
 30
0.0
 11
118.0768307485
 21
238.6631367209
 31
0.0
  0
LINE
  5
247
330
1F
100
AcDbEntity
  8
0
  6
Continuous
 62
     7
370
    15
100
AcDbLine
 10
128.0768307485
 20
238.6631367209
 30
0.0
 11
124.7221906692
 21
238.6631367209
 31
0.0
  0
LINE
  5
248
330
1F
100
AcDbEntity
  8
0
  6
Continuous
 62
     7
370
    15
100
AcDbLine
 10
118.0768307485
 20
223.6631367209
 30
0.0
 11
128.0768307485
 21
223.6631367209
 31
0.0
  0
LINE
  5
249
330
1F
100
AcDbEntity
  8
0
  6
Continuous
 62
     7
370
    15
100
AcDbLine
 10
116.5768307485
 20
251.1627753802
 30
0.0
 11
106.074711614
 21
251.1627753802
 31
0.0
  0
LINE
  5
24A
330
1F
100
AcDbEntity
  8
0
  6
Continuous
 62
     7
370
    15
100
AcDbLine
 10
118.0768307485
 20
249.6627753802
 30
0.0
 11
116.5768307485
 21
251.1627753802
 31
0.0
  0
LINE
  5
24B
330
1F
100
AcDbEntity
  8
0
  6
Continuous
 62
     7
370
    15
100
AcDbLine
 10
116.5768307485
 20
211.1631367209
 30
0.0
 11
118.0768307485
 21
212.6631367209
 31
0.0
  0
LINE
  5
24C
330
1F
100
AcDbEntity
  8
0
  6
Continuous
 62
     7
370
    15
100
AcDbLine
 10
106.073985944
 20
211.1631367209
 30
0.0
 11
116.5768307485
 21
211.1631367209
 31
0.0
  0
LINE
  5
24D
330
1F
100
AcDbEntity
  8
0
  6
Continuous
 62
     7
370
    15
100
AcDbLine
 10
181.0770114188
 20
211.1634980617
 30
0.0
 11
184.0768307485
 21
217.1631367209
 31
0.0
  0
LINE
  5
24E
330
1F
100
AcDbEntity
  8
0
  6
Continuous
 62
     7
370
    15
100
AcDbLine
 10
184.0768307485
 20
245.1631367209
 30
0.0
 11
181.0768307485
 21
251.1631367209
 31
0.0
  0
LINE
  5
24F
330
1F
100
AcDbEntity
  8
0
  6
Continuous
 62
     7
370
    15
100
AcDbLine
 10
181.5579870228
 20
246.4768452199
 30
0.0
 11
170.5768307485
 21
246.4768452199
 31
0.0
  0
LINE
  5
250
330
1F
100
AcDbEntity
  8
0
  6
Continuous
 62
     7
370
    15
100
AcDbLine
 10
170.5768307485
 20
246.4768452199
 30
0.0
 11
169.0768307485
 21
244.9768452199
 31
0.0
  0
LINE
  5
251
330
1F
100
AcDbEntity
  8
0
  6
Continuous
 62
     7
370
    15
100
AcDbLine
 10
170.5768307485
 20
215.8497895627
 30
0.0
 11
181.5581461571
 21
215.8497895627
 31
0.0
  0
LINE
  5
252
330
1F
100
AcDbEntity
  8
0
  6
Continuous
 62
     7
370
    15
100
AcDbLine
 10
169.0768307485
 20
217.3497895627
 30
0.0
 11
170.5768307485
 21
215.8497895627
 31
0.0
  0
LINE
  5
253
330
1F
100
AcDbEntity
  8
0
  6
Continuous
 62
     7
370
    15
100
AcDbLine
 10
165.7268307485
 20
223.6631367209
 30
0.0
 11
169.0768307485
 21
223.6631367209
 31
0.0
  0
LINE
  5
254
330
1F
100
AcDbEntity
  8
0
  6
Continuous
 62
     7
370
    15
100
AcDbLine
 10
159.0768307485
 20
223.6631367209
 30
0.0
 11
162.4314708277
 21
223.6631367209
 31
0.0
  0
LINE
  5
255
330
1F
100
AcDbEntity
  8
0
  6
Continuous
 62
     7
370
    15
100
AcDbLine
 10
169.0768307485
 20
238.6631367209
 30
0.0
 11
159.0768307485
 21
238.6631367209
 31
0.0
  0
LINE
  5
256
330
1F
100
AcDbEntity
  8
0
  6
Continuous
 62
     7
370
    15
100
AcDbLine
 10
169.0768307485
 20
212.6634980617
 30
0.0
 11
170.5768307485
 21
211.1634980617
 31
0.0
  0
LINE
  5
257
330
1F
100
AcDbEntity
  8
0
  6
Continuous
 62
     7
370
    15
100
AcDbLine
 10
170.5768307485
 20
211.1634980617
 30
0.0
 11
181.078949883
 21
211.1634980617
 31
0.0
  0
LINE
  5
258
330
1F
100
AcDbEntity
  8
0
  6
Continuous
 62
     7
370
    15
100
AcDbLine
 10
170.5768307485
 20
251.1631367209
 30
0.0
 11
169.0768307485
 21
249.6631367209
 31
0.0
  0
LINE
  5
259
330
1F
100
AcDbEntity
  8
0
  6
Continuous
 62
     7
370
    15
100
AcDbLine
 10
181.079675553
 20
251.1631367209
 30
0.0
 11
170.5768307485
 21
251.1631367209
 31
0.0
  0
LINE
  5
25A
330
1F
100
AcDbEntity
  8
0
  6
Continuous
 62
     7
370
    15
100
AcDbLine
 10
132.0768307485
 20
237.5131367209
 30
0.0
 11
128.0768307485
 21
237.5131367209
 31
0.0
  0
LINE
  5
25B
330
1F
100
AcDbEntity
  8
0
  6
Continuous
 62
     7
370
    15
100
AcDbLine
 10
128.0768307485
 20
224.8131367209
 30
0.0
 11
132.0768307485
 21
224.8131367209
 31
0.0
  0
LINE
  5
25C
330
1F
100
AcDbEntity
  8
0
  6
Continuous
 62
     7
370
    15
100
AcDbLine
 10
159.0768307485
 20
237.5131367209
 30
0.0
 11
155.0768307485
 21
237.5131367209
 31
0.0
  0
LINE
  5
25D
330
1F
100
AcDbEntity
  8
0
  6
Continuous
 62
     7
370
    15
100
AcDbLine
 10
155.0768307485
 20
224.8131367209
 30
0.0
 11
159.0768307485
 21
224.8131367209
 31
0.0
  0
LINE
  5
25E
330
1F
100
AcDbEntity
  8
0
  6
Continuous
 62
     7
370
    15
100
AcDbLine
 10
146.5768307485
 20
227.6631367209
 30
0.0
 11
148.5768307485
 21
227.6631367209
 31
0.0
  0
LINE
  5
25F
330
1F
100
AcDbEntity
  8
0
  6
Continuous
 62
     7
370
    15
100
AcDbLine
 10
148.5768307485
 20
234.6631367209
 30
0.0
 11
146.5768307485
 21
234.6631367209
 31
0.0
  0
LINE
  5
260
330
1F
100
AcDbEntity
  8
0
  6
Continuous
 62
     7
370
    15
100
AcDbLine
 10
118.0768307485
 20
233.2226613046
 30
0.0
 11
118.0768307485
 21
229.1036121373
 31
0.0
  0
LINE
  5
261
330
1F
100
AcDbEntity
  8
0
  6
Continuous
 62
     7
370
    15
100
AcDbLine
 10
118.0768307485
 20
229.1036121373
 30
0.0
 11
116.5768307485
 21
227.8583505157
 31
0.0
  0
LINE
  5
262
330
1F
100
AcDbEntity
  8
0
  6
Continuous
 62
     7
370
    15
100
AcDbLine
 10
116.5768307485
 20
227.8583505157
 30
0.0
 11
116.5768307485
 21
234.4679229262
 31
0.0
  0
LINE
  5
263
330
1F
100
AcDbEntity
  8
0
  6
Continuous
 62
     7
370
    15
100
AcDbLine
 10
118.0768307485
 20
233.2226613046
 30
0.0
 11
116.5768307485
 21
234.4679229262
 31
0.0
  0
SPLINE
  5
264
330
1F
100
AcDbEntity
  8
0
  6
Continuous
 62
     7
370
    15
100
AcDbSpline
210
0.0
220
0.0
230
1.0
 70
     8
 71
     3
 72
    27
 73
    23
 74
     0
 42
0.000000001
 43
0.00000001
 40
0.0
 40
0.0
 40
0.0
 40
0.0
 40
0.0426595515913602
 40
0.0855912291094201
 40
0.1294088172947011
 40
0.1735461665116133
 40
0.2162189802957604
 40
0.2592096562954145
 40
0.3032354101214049
 40
0.347632640561102
 40
0.3881347241804758
 40
0.4706245875036512
 40
0.5127285464348514
 40
0.5516576810990754
 40
0.630842679393379
 40
0.671186972019378
 40
0.7102109458126667
 40
0.7895022093598788
 40
0.8298410906384411
 40
0.8716884353548345
 40
0.9567324688438414
 40
1.0
 40
1.0
 40
1.0
 40
1.0
 10
105.3519708256683
 20
227.8583505157031
 30
0.0
 10
105.3892636882354
 20
227.9205045041738
 30
0.0
 10
105.4640873051054
 20
228.0452089623504
 30
0.0
 10
105.5679489706949
 20
228.2618582135207
 30
0.0
 10
105.6652471318474
 20
228.5009131389252
 30
0.0
 10
105.7532497769203
 20
228.7605093477226
 30
0.0
 10
105.8313386177915
 20
229.0369700842723
 30
0.0
 10
105.8995623706367
 20
229.3298936561469
 30
0.0
 10
105.9581124302148
 20
229.6418129548397
 30
0.0
 10
106.0045434929888
 20
229.9606140504393
 30
0.0
 10
106.0506096995368
 20
230.3869343512955
 30
0.0
 10
106.0752598708718
 20
230.8219747544185
 30
0.0
 10
106.0781304773803
 20
231.2556026798867
 30
0.0
 10
106.0672987363743
 20
231.6794531308226
 30
0.0
 10
106.0368746017346
 20
232.0935999079761
 30
0.0
 10
105.9872375582671
 20
232.4925034309084
 30
0.0
 10
105.9251783678636
 20
232.8792905635213
 30
0.0
 10
105.8450191569088
 20
233.2444414880524
 30
0.0
 10
105.7466938601629
 20
233.586057828398
 30
0.0
 10
105.6333339952424
 20
233.9165380901028
 30
0.0
 10
105.5017862355439
 20
234.2174959599605
 30
0.0
 10
105.38975015353
 20
234.4047721296699
 30
0.0
 10
105.3519708256685
 20
234.4679229261715
 30
0.0
  0
LINE
  5
265
330
1F
100
AcDbEntity
  8
0
  6
Continuous
 62
     7
370
    15
100
AcDbLine
 10
105.3519708257
 20
234.4679229262
 30
0.0
 11
116.5768307485
 21
234.4679229262
 31
0.0
  0
LINE
  5
266
330
1F
100
AcDbEntity
  8
0
  6
Continuous
 62
     7
370
    15
100
AcDbLine
 10
105.3519708257
 20
227.8583505157
 30
0.0
 11
116.5768307485
 21
227.8583505157
 31
0.0
  0
LINE
  5
267
330
1F
100
AcDbEntity
  8
0
  6
Continuous
 62
     7
370
    15
100
AcDbLine
 10
103.0768307485
 20
245.1631367209
 30
0.0
 11
103.0768307485
 21
217.1631367209
 31
0.0
  0
SPLINE
  5
268
330
1F
100
AcDbEntity
  8
0
  6
Continuous
 62
     7
370
    15
100
AcDbSpline
210
0.0
220
0.0
230
1.0
 70
     8
 71
     3
 72
    16
 73
    12
 74
     0
 42
0.000000001
 43
0.00000001
 40
0.0
 40
0.0
 40
0.0
 40
0.0
 40
0.1261972859071829
 40
0.2523057075281382
 40
0.3792002878030841
 40
0.5060336522260208
 40
0.6221120449958413
 40
0.738234211157555
 40
0.8536816913006916
 40
0.9691932593055957
 40
1.0
 40
1.0
 40
1.0
 40
1.0
 10
105.3519708256683
 20
220.5927800761451
 30
0.0
 10
105.2350401897827
 20
220.9288625773816
 30
0.0
 10
105.0012612570048
 20
221.6007909207903
 30
0.0
 10
104.7394207232129
 20
222.6555892666888
 30
0.0
 10
104.5725276244097
 20
223.7140340847856
 30
0.0
 10
104.5179429028496
 20
224.7185574834843
 30
0.0
 10
104.576700150903
 20
225.6315009148982
 30
0.0
 10
104.7255113335297
 20
226.437010469297
 30
0.0
 10
104.958511932917
 20
227.1400012376013
 30
0.0
 10
105.1822293403748
 20
227.5930737027974
 30
0.0
 10
105.3224482824684
 20
227.8122118469186
 30
0.0
 10
105.3519708256683
 20
227.8583505157031
 30
0.0
  0
SPLINE
  5
269
330
1F
100
AcDbEntity
  8
0
  6
Continuous
 62
     7
370
    15
100
AcDbSpline
210
0.0
220
0.0
230
1.0
 70
     8
 71
     3
 72
    27
 73
    23
 74
     0
 42
0.000000001
 43
0.00000001
 40
0.0
 40
0.0
 40
0.0
 40
0.0
 40
0.0426606797130388
 40
0.0855935073502105
 40
0.1294123204537274
 40
0.1735509225917162
 40
0.2162236415775124
 40
0.2592142218224084
 40
0.303239876300706
 40
0.3476370058791245
 40
0.3881390265364097
 40
0.4706287588872077
 40
0.5127326489498891
 40
0.5516617646078316
 40
0.6308467217354323
 40
0.6711909916324442
 40
0.7102149879124686
 40
0.78950629527156
 40
0.8298451975724518
 40
0.8716915672088611
 40
0.9567335501972691
 40
1.0
 40
1.0
 40
1.0
 40
1.0
 10
105.3519708256694
 20
215.9191066039583
 30
0.0
 10
105.3892646579602
 20
215.9016885751108
 30
0.0
 10
105.4640902334029
 20
215.8667414015023
 30
0.0
 10
105.5679543980344
 20
215.8464501283773
 30
0.0
 10
105.6652546945917
 20
215.8514034143334
 30
0.0
 10
105.7532580793211
 20
215.8850528094391
 30
0.0
 10
105.8313465094293
 20
215.9463837351713
 30
0.0
 10
105.8995690270865
 20
216.035423543302
 30
0.0
 10
105.9581178301059
 20
216.153980614344
 30
0.0
 10
106.0045476763191
 20
216.298077679581
 30
0.0
 10
106.0506123307731
 20
216.5185140153303
 30
0.0
 10
106.0752609955656
 20
216.7825603536125
 30
0.0
 10
106.078130170403
 20
217.0841110701225
 30
0.0
 10
106.0672970570614
 20
217.4029660722644
 30
0.0
 10
106.0368715989097
 20
217.7495336048025
 30
0.0
 10
105.9872332871845
 20
218.1187566242438
 30
0.0
 10
105.9251728356081
 20
218.5007559204072
 30
0.0
 10
105.8450123923186
 20
218.8981056386271
 30
0.0
 10
105.7466865192852
 20
219.3084575978535
 30
0.0
 10
105.6333277218836
 20
219.7350898203075
 30
0.0
 10
105.5017826256665
 20
220.1691319470094
 30
0.0
 10
105.3897492267168
 20
220.4859477109634
 30
0.0
 10
105.3519708256683
 20
220.5927800761451
 30
0.0
  0
SPLINE
  5
26A
330
1F
100
AcDbEntity
  8
0
  6
Continuous
 62
     7
370
    15
100
AcDbSpline
210
0.0
220
0.0
230
1.0
 70
     8
 71
     3
 72
    16
 73
    12
 74
     0
 42
0.000000001
 43
0.00000001
 40
0.0
 40
0.0
 40
0.0
 40
0.0
 40
0.1261954117148444
 40
0.2523019645586858
 40
0.3791968622309678
 40
0.5060305420539934
 40
0.6221090788357816
 40
0.738231388370574
 40
0.8536787578253857
 40
0.9691902150884492
 40
1.0
 40
1.0
 40
1.0
 40
1.0
 10
105.3519708256686
 20
212.9096087895163
 30
0.0
 10
105.2350418425347
 20
213.1859271370514
 30
0.0
 10
105.0012662103017
 20
213.7383692661221
 30
0.0
 10
104.7394261835198
 20
214.4678589985042
 30
0.0
 10
104.5725305972834
 20
215.089453762248
 30
0.0
 10
104.5179427661322
 20
215.563937708457
 30
0.0
 10
104.5766974506643
 20
215.8789837610983
 30
0.0
 10
104.7255064605638
 20
216.0496800374924
 30
0.0
 10
104.9585051912711
 20
216.0801116723494
 30
0.0
 10
105.1822237973805
 20
216.0101136674584
 30
0.0
 10
105.3224453974201
 20
215.9349361742938
 30
0.0
 10
105.3519708256694
 20
215.9191066039583
 30
0.0
  0
SPLINE
  5
26B
330
1F
100
AcDbEntity
  8
0
  6
Continuous
 62
     7
370
    15
100
AcDbSpline
210
0.0
220
0.0
230
1.0
 70
     8
 71
     3
 72
    14
 73
    10
 74
     0
 42
0.000000001
 43
0.00000001
 40
0.0
 40
0.0
 40
0.0
 40
0.0
 40
0.0254131007991051
 40
0.1816112729178224
 40
0.3423373539079757
 40
0.4988937077943892
 40
0.6596635928202905
 40
0.8275543900315221
 40
1.0
 40
1.0
 40
1.0
 40
1.0
 10
106.0739763872573
 20
211.170267752502
 30
0.0
 10
106.0748950399904
 20
211.1679727551227
 30
0.0
 10
106.0814600669643
 20
211.1515718680888
 30
0.0
 10
106.0544439090983
 20
211.2191281133571
 30
0.0
 10
105.9928102455844
 20
211.3725673425433
 30
0.0
 10
105.8892192045741
 20
211.6284119951364
 30
0.0
 10
105.7493131527716
 20
211.9693862487831
 30
0.0
 10
105.5722061080641
 20
212.3951405457031
 30
0.0
 10
105.4260346702248
 20
212.7365961113277
 30
0.0
 10
105.3519708256686
 20
212.9096087895163
 30
0.0
  0
SPLINE
  5
26C
330
1F
100
AcDbEntity
  8
0
  6
Continuous
 62
     7
370
    15
100
AcDbSpline
210
0.0
220
0.0
230
1.0
 70
     8
 71
     3
 72
    13
 73
     9
 74
     0
 42
0.000000001
 43
0.00000001
 40
0.0
 40
0.0
 40
0.0
 40
0.0
 40
0.1696517703269523
 40
0.3439680020796662
 40
0.5137409203204454
 40
0.6889689089663158
 40
0.8499864148929062
 40
1.0
 40
1.0
 40
1.0
 40
1.0
 10
105.3364948895693
 20
249.3808995527485
 30
0.0
 10
105.4108117263351
 20
249.5542245327574
 30
0.0
 10
105.5614886913556
 20
249.905639946633
 30
0.0
 10
105.7466713031309
 20
250.3504611949523
 30
0.0
 10
105.8983037791182
 20
250.7201468556623
 30
0.0
 10
106.0032694915384
 20
250.9797282892398
 30
0.0
 10
106.0663524604868
 20
251.1370032937978
 30
0.0
 10
106.0719858304278
 20
251.1511083962622
 30
0.0
 10
106.0747028643368
 20
251.1579114363761
 30
0.0
  0
SPLINE
  5
26D
330
1F
100
AcDbEntity
  8
0
  6
Continuous
 62
     7
370
    15
100
AcDbSpline
210
0.0
220
0.0
230
1.0
 70
     8
 71
     3
 72
    15
 73
    11
 74
     0
 42
0.000000001
 43
0.00000001
 40
0.0
 40
0.0
 40
0.0
 40
0.0
 40
0.125552393856281
 40
0.2542782239303527
 40
0.3799765823769397
 40
0.5099893772574041
 40
0.6254752754523859
 40
0.7443589279954809
 40
0.8704703861780999
 40
1.0
 40
1.0
 40
1.0
 40
1.0
 10
105.3364948895693
 20
246.3986160866044
 30
0.0
 10
105.2220553239248
 20
246.3463080248635
 30
0.0
 10
104.9902836419549
 20
246.2403697736825
 30
0.0
 10
104.7342872309905
 20
246.2697268351824
 30
0.0
 10
104.5681612985206
 20
246.4513350981285
 30
0.0
 10
104.5186805532841
 20
246.7885521946464
 30
0.0
 10
104.5783303008104
 20
247.2589897183877
 30
0.0
 10
104.7354413168167
 20
247.8425773814588
 30
0.0
 10
104.9858373099442
 20
248.5492246035293
 30
0.0
 10
105.2185717387586
 20
249.1012143665133
 30
0.0
 10
105.3364948895693
 20
249.3808995527485
 30
0.0
  0
SPLINE
  5
26E
330
1F
100
AcDbEntity
  8
0
  6
Continuous
 62
     7
370
    15
100
AcDbSpline
210
0.0
220
0.0
230
1.0
 70
     8
 71
     3
 72
    27
 73
    23
 74
     0
 42
0.000000001
 43
0.00000001
 40
0.0
 40
0.0
 40
0.0
 40
0.0
 40
0.0422828649192644
 40
0.084835382777123
 40
0.1282658983749433
 40
0.1720133992495618
 40
0.2143082379527554
 40
0.3004702161960706
 40
0.3444766527369017
 40
0.3845903072283666
 40
0.4662920781676033
 40
0.5079960069610675
 40
0.5465061701194581
 40
0.6248417087251631
 40
0.664755141297697
 40
0.7033134157795009
 40
0.7816605130082748
 40
0.8215204526377662
 40
0.865303154155587
 40
0.9094168769478732
 40
0.9545415235882093
 40
1.0
 40
1.0
 40
1.0
 40
1.0
 10
105.3364948895693
 20
241.691464628114
 30
0.0
 10
105.3741851485574
 20
241.7967366590672
 30
0.0
 10
105.4498060307831
 20
242.0079520783318
 30
0.0
 10
105.5549297001247
 20
242.3348684512455
 30
0.0
 10
105.6535375810951
 20
242.6685052906386
 30
0.0
 10
105.7428858875539
 20
243.002846633615
 30
0.0
 10
105.8491994573391
 20
243.4454551266552
 30
0.0
 10
105.9359882122746
 20
243.8819305595347
 30
0.0
 10
105.9996400867606
 20
244.2931737645976
 30
0.0
 10
106.047437990137
 20
244.6783380178427
 30
0.0
 10
106.0737599981699
 20
245.0325053403812
 30
0.0
 10
106.0782244950874
 20
245.3473829314289
 30
0.0
 10
106.0689202957449
 20
245.6310751681422
 30
0.0
 10
106.0399706054224
 20
245.8734863382062
 30
0.0
 10
105.9917483592914
 20
246.0717847579765
 30
0.0
 10
105.9310940403
 20
246.2401574642344
 30
0.0
 10
105.8523222040249
 20
246.3627609487961
 30
0.0
 10
105.7538132988447
 20
246.4401735256034
 30
0.0
 10
105.6670077804167
 20
246.4742208353892
 30
0.0
 10
105.5671359509969
 20
246.4797461080941
 30
0.0
 10
105.457612008624
 20
246.4577969158017
 30
0.0
 10
105.3769663315496
 20
246.4183914372229
 30
0.0
 10
105.3364948895693
 20
246.3986160866044
 30
0.0
  0
SPLINE
  5
26F
330
1F
100
AcDbEntity
  8
0
  6
Continuous
 62
     7
370
    15
100
AcDbSpline
210
0.0
220
0.0
230
1.0
 70
     8
 71
     3
 72
    15
 73
    11
 74
     0
 42
0.000000001
 43
0.00000001
 40
0.0
 40
0.0
 40
0.0
 40
0.0
 40
0.1268822801305646
 40
0.2536752177405943
 40
0.3812607910574382
 40
0.5087848133226814
 40
0.625495153428975
 40
0.7422495045387851
 40
0.8710767568061338
 40
1.0
 40
1.0
 40
1.0
 40
1.0
 10
105.3519708256685
 20
234.4679229261715
 30
0.0
 10
105.235041524592
 20
234.6668901545116
 30
0.0
 10
105.0012652566979
 20
235.0646845109852
 30
0.0
 10
104.7394300047274
 20
235.8268857604249
 30
0.0
 10
104.5725161702858
 20
236.7021718661803
 30
0.0
 10
104.5179946581409
 20
237.6482370461164
 30
0.0
 10
104.5765219425389
 20
238.6245198200044
 30
0.0
 10
104.7316210603005
 20
239.6274605579493
 30
0.0
 10
104.9830873394864
 20
240.6650832260571
 30
0.0
 10
105.2186631286528
 20
241.3492525617676
 30
0.0
 10
105.3364948895693
 20
241.691464628114
 30
0.0
  0
LINE
  5
270
330
1F
100
AcDbEntity
  8
0
  6
Continuous
 62
     7
370
    15
100
AcDbLine
 10
105.3364948896
 20
241.6914646281
 30
0.0
 11
116.5768307485
 21
241.6914646281
 31
0.0
  0
LINE
  5
271
330
1F
100
AcDbEntity
  8
0
  6
Continuous
 62
     7
370
    15
100
AcDbLine
 10
116.5768307485
 20
234.4679229262
 30
0.0
 11
116.5768307485
 21
241.6914646281
 31
0.0
  0
LINE
  5
272
330
1F
100
AcDbEntity
  8
0
  6
Continuous
 62
     7
370
    15
100
AcDbLine
 10
116.5768307485
 20
220.5927800761
 30
0.0
 11
116.5768307485
 21
227.8583505157
 31
0.0
  0
LINE
  5
273
330
1F
100
AcDbEntity
  8
0
  6
Continuous
 62
     7
370
    15
100
AcDbLine
 10
105.3519708257
 20
220.5927800761
 30
0.0
 11
116.5768307485
 21
220.5927800761
 31
0.0
  0
LINE
  5
274
330
1F
100
AcDbEntity
  8
0
  6
Continuous
 62
     7
370
    15
100
AcDbLine
 10
116.5768307485
 20
241.6914646281
 30
0.0
 11
118.0768307485
 21
241.9860089578
 31
0.0
  0
LINE
  5
275
330
1F
100
AcDbEntity
  8
0
  6
Continuous
 62
     7
370
    15
100
AcDbLine
 10
118.0768307485
 20
241.9860089578
 30
0.0
 11
118.0768307485
 21
233.2226613046
 31
0.0
  0
LINE
  5
276
330
1F
100
AcDbEntity
  8
0
  6
Continuous
 62
     7
370
    15
100
AcDbLine
 10
118.0768307485
 20
220.3036445774
 30
0.0
 11
116.5768307485
 21
220.5927800761
 31
0.0
  0
LINE
  5
277
330
1F
100
AcDbEntity
  8
0
  6
Continuous
 62
     7
370
    15
100
AcDbLine
 10
118.0768307485
 20
229.1036121373
 30
0.0
 11
118.0768307485
 21
220.3036445774
 31
0.0
  0
LINE
  5
278
330
1F
100
AcDbEntity
  8
0
  6
Continuous
 62
     7
370
    15
100
AcDbLine
 10
116.5768307485
 20
215.849428222
 30
0.0
 11
116.5768307485
 21
220.5927800761
 31
0.0
  0
LINE
  5
279
330
1F
100
AcDbEntity
  8
0
  6
Continuous
 62
     7
370
    15
100
AcDbLine
 10
118.0768307485
 20
220.3036445774
 30
0.0
 11
118.0768307485
 21
217.349428222
 31
0.0
  0
LINE
  5
27A
330
1F
100
AcDbEntity
  8
0
  6
Continuous
 62
     7
370
    15
100
AcDbLine
 10
116.5768307485
 20
241.6914646281
 30
0.0
 11
116.5768307485
 21
246.4764838792
 31
0.0
  0
LINE
  5
27B
330
1F
100
AcDbEntity
  8
0
  6
Continuous
 62
     7
370
    15
100
AcDbLine
 10
118.0768307485
 20
244.9764838792
 30
0.0
 11
118.0768307485
 21
241.9860089578
 31
0.0
  0
LINE
  5
27C
330
1F
100
AcDbEntity
  8
0
  6
Continuous
 62
     7
370
    15
100
AcDbLine
 10
118.0768307485
 20
213.7459710675
 30
0.0
 11
116.5768307485
 21
212.9096087895
 31
0.0
  0
LINE
  5
27D
330
1F
100
AcDbEntity
  8
0
  6
Continuous
 62
     7
370
    15
100
AcDbLine
 10
116.5768307485
 20
212.9096087895
 30
0.0
 11
116.5768307485
 21
215.849428222
 31
0.0
  0
LINE
  5
27E
330
1F
100
AcDbEntity
  8
0
  6
Continuous
 62
     7
370
    15
100
AcDbLine
 10
118.0768307485
 20
217.349428222
 30
0.0
 11
118.0768307485
 21
213.7459710675
 31
0.0
  0
LINE
  5
27F
330
1F
100
AcDbEntity
  8
0
  6
Continuous
 62
     7
370
    15
100
AcDbLine
 10
116.5768307485
 20
246.4764838792
 30
0.0
 11
116.5768307485
 21
249.3808995527
 31
0.0
  0
LINE
  5
280
330
1F
100
AcDbEntity
  8
0
  6
Continuous
 62
     7
370
    15
100
AcDbLine
 10
116.5768307485
 20
249.3808995527
 30
0.0
 11
118.0768307485
 21
248.5491633558
 31
0.0
  0
LINE
  5
281
330
1F
100
AcDbEntity
  8
0
  6
Continuous
 62
     7
370
    15
100
AcDbLine
 10
118.0768307485
 20
248.5491633558
 30
0.0
 11
118.0768307485
 21
244.9764838792
 31
0.0
  0
LINE
  5
282
330
1F
100
AcDbEntity
  8
0
  6
Continuous
 62
     7
370
    15
100
AcDbLine
 10
105.3519708257
 20
212.9096087895
 30
0.0
 11
116.5768307485
 21
212.9096087895
 31
0.0
  0
LINE
  5
283
330
1F
100
AcDbEntity
  8
0
  6
Continuous
 62
     7
370
    15
100
AcDbLine
 10
105.3364948896
 20
249.3808995527
 30
0.0
 11
116.5768307485
 21
249.3808995527
 31
0.0
  0
ARC
  5
284
330
1F
100
AcDbEntity
  8
0
  6
Continuous
 62
     7
370
    15
100
AcDbCircle
 10
123.0767944394
 20
246.0540643136
 30
0.0
 40
7.572858830156548
100
AcDbArc
 50
257.4155380116
 51
282.5490566617
  0
LINE
  5
285
330
1F
100
AcDbEntity
  8
0
  6
Continuous
 62
     7
370
    15
100
AcDbLine
 10
128.0768307485
 20
238.6631367209
 30
0.0
 11
128.0768307485
 21
223.6631367209
 31
0.0
  0
LINE
  5
286
330
1F
100
AcDbEntity
  8
0
  6
Continuous
 62
     7
370
    15
100
AcDbLine
 10
116.5768307485
 20
249.3808995527
 30
0.0
 11
116.5768307485
 21
251.1627753802
 31
0.0
  0
LINE
  5
287
330
1F
100
AcDbEntity
  8
0
  6
Continuous
 62
     7
370
    15
100
AcDbLine
 10
118.0768307485
 20
249.6627753802
 30
0.0
 11
118.0768307485
 21
248.5491633558
 31
0.0
  0
LINE
  5
288
330
1F
100
AcDbEntity
  8
0
  6
Continuous
 62
     7
370
    15
100
AcDbLine
 10
116.5768307485
 20
211.1631367209
 30
0.0
 11
116.5768307485
 21
212.9096087895
 31
0.0
  0
LINE
  5
289
330
1F
100
AcDbEntity
  8
0
  6
Continuous
 62
     7
370
    15
100
AcDbLine
 10
118.0768307485
 20
213.7459710675
 30
0.0
 11
118.0768307485
 21
212.6631367209
 31
0.0
  0
LINE
  5
28A
330
1F
100
AcDbEntity
  8
0
  6
Continuous
 62
     7
370
    15
100
AcDbLine
 10
169.0768307485
 20
229.1036121373
 30
0.0
 11
169.0768307485
 21
233.2226613046
 31
0.0
  0
LINE
  5
28B
330
1F
100
AcDbEntity
  8
0
  6
Continuous
 62
     7
370
    15
100
AcDbLine
 10
169.0768307485
 20
233.2226613046
 30
0.0
 11
170.5768307485
 21
234.4679229262
 31
0.0
  0
LINE
  5
28C
330
1F
100
AcDbEntity
  8
0
  6
Continuous
 62
     7
370
    15
100
AcDbLine
 10
170.5768307485
 20
234.4679229262
 30
0.0
 11
170.5768307485
 21
227.8583505157
 31
0.0
  0
LINE
  5
28D
330
1F
100
AcDbEntity
  8
0
  6
Continuous
 62
     7
370
    15
100
AcDbLine
 10
169.0768307485
 20
229.1036121373
 30
0.0
 11
170.5768307485
 21
227.8583505157
 31
0.0
  0
SPLINE
  5
28E
330
1F
100
AcDbEntity
  8
0
  6
Continuous
 62
     7
370
    15
100
AcDbSpline
210
0.0
220
0.0
230
1.0
 70
     8
 71
     3
 72
    27
 73
    23
 74
     0
 42
0.000000001
 43
0.00000001
 40
0.0
 40
0.0
 40
0.0
 40
0.0
 40
0.0426595515913602
 40
0.08559122910942
 40
0.1294088172947009
 40
0.1735461665116131
 40
0.2162189802957603
 40
0.2592096562954143
 40
0.3032354101214046
 40
0.3476326405611017
 40
0.3881347241804755
 40
0.4706245875036517
 40
0.5127285464348519
 40
0.5516576810990759
 40
0.6308426793933793
 40
0.6711869720193783
 40
0.710210945812667
 40
0.789502209359879
 40
0.8298410906384412
 40
0.8716884353548346
 40
0.9567324688438414
 40
1.0
 40
1.0
 40
1.0
 40
1.0
 10
181.8016906713024
 20
234.4679229261716
 30
0.0
 10
181.7643978087354
 20
234.4057689377009
 30
0.0
 10
181.6895741918654
 20
234.2810644795243
 30
0.0
 10
181.5857125262759
 20
234.064415228354
 30
0.0
 10
181.4884143651234
 20
233.8253603029495
 30
0.0
 10
181.4004117200504
 20
233.5657640941521
 30
0.0
 10
181.3223228791792
 20
233.2893033576024
 30
0.0
 10
181.2540991263341
 20
232.9963797857279
 30
0.0
 10
181.195549066756
 20
232.684460487035
 30
0.0
 10
181.149118003982
 20
232.3656593914355
 30
0.0
 10
181.1030517974339
 20
231.9393390905792
 30
0.0
 10
181.0784016260989
 20
231.5042986874563
 30
0.0
 10
181.0755310195905
 20
231.0706707619881
 30
0.0
 10
181.0863627605965
 20
230.6468203110521
 30
0.0
 10
181.1167868952362
 20
230.2326735338985
 30
0.0
 10
181.1664239387037
 20
229.8337700109663
 30
0.0
 10
181.2284831291072
 20
229.4469828783535
 30
0.0
 10
181.3086423400619
 20
229.0818319538222
 30
0.0
 10
181.4069676368079
 20
228.7402156134767
 30
0.0
 10
181.5203275017283
 20
228.4097353517719
 30
0.0
 10
181.6518752614268
 20
228.1087774819142
 30
0.0
 10
181.7639113434408
 20
227.9215013122048
 30
0.0
 10
181.8016906713023
 20
227.8583505157033
 30
0.0
  0
LINE
  5
28F
330
1F
100
AcDbEntity
  8
0
  6
Continuous
 62
     7
370
    15
100
AcDbLine
 10
181.8016906713
 20
227.8583505157
 30
0.0
 11
170.5768307485
 21
227.8583505157
 31
0.0
  0
LINE
  5
290
330
1F
100
AcDbEntity
  8
0
  6
Continuous
 62
     7
370
    15
100
AcDbLine
 10
181.8016906713
 20
234.4679229262
 30
0.0
 11
170.5768307485
 21
234.4679229262
 31
0.0
  0
LINE
  5
291
330
1F
100
AcDbEntity
  8
0
  6
Continuous
 62
     7
370
    15
100
AcDbLine
 10
184.0768307485
 20
217.1631367209
 30
0.0
 11
184.0768307485
 21
245.1631367209
 31
0.0
  0
SPLINE
  5
292
330
1F
100
AcDbEntity
  8
0
  6
Continuous
 62
     7
370
    15
100
AcDbSpline
210
0.0
220
0.0
230
1.0
 70
     8
 71
     3
 72
    16
 73
    12
 74
     0
 42
0.000000001
 43
0.00000001
 40
0.0
 40
0.0
 40
0.0
 40
0.0
 40
0.126197285907183
 40
0.2523057075281382
 40
0.3792002878030842
 40
0.5060336522260207
 40
0.6221120449958412
 40
0.7382342111575549
 40
0.8536816913006915
 40
0.9691932593055956
 40
1.0
 40
1.0
 40
1.0
 40
1.0
 10
181.8016906713025
 20
241.7334933657297
 30
0.0
 10
181.9186213071881
 20
241.3974108644932
 30
0.0
 10
182.1524002399659
 20
240.7254825210845
 30
0.0
 10
182.4142407737579
 20
239.6706841751859
 30
0.0
 10
182.5811338725611
 20
238.6122393570891
 30
0.0
 10
182.6357185941211
 20
237.6077159583905
 30
0.0
 10
182.5769613460677
 20
236.6947725269765
 30
0.0
 10
182.4281501634411
 20
235.8892629725777
 30
0.0
 10
182.1951495640538
 20
235.1862722042734
 30
0.0
 10
181.9714321565959
 20
234.7331997390773
 30
0.0
 10
181.8312132145024
 20
234.5140615949562
 30
0.0
 10
181.8016906713024
 20
234.4679229261716
 30
0.0
  0
SPLINE
  5
293
330
1F
100
AcDbEntity
  8
0
  6
Continuous
 62
     7
370
    15
100
AcDbSpline
210
0.0
220
0.0
230
1.0
 70
     8
 71
     3
 72
    27
 73
    23
 74
     0
 42
0.000000001
 43
0.00000001
 40
0.0
 40
0.0
 40
0.0
 40
0.0
 40
0.0426606797130388
 40
0.0855935073502104
 40
0.1294123204537272
 40
0.1735509225917164
 40
0.2162236415775128
 40
0.2592142218224086
 40
0.3032398763007061
 40
0.3476370058791249
 40
0.3881390265364102
 40
0.4706287588872076
 40
0.512732648949889
 40
0.5516617646078313
 40
0.630846721735432
 40
0.6711909916324439
 40
0.7102149879124691
 40
0.7895062952715605
 40
0.8298451975724512
 40
0.8716915672088613
 40
0.9567335501972692
 40
1.0
 40
1.0
 40
1.0
 40
1.0
 10
181.8016906713013
 20
246.4071668379164
 30
0.0
 10
181.7643968390105
 20
246.424584866764
 30
0.0
 10
181.6895712635679
 20
246.4595320403725
 30
0.0
 10
181.5857070989363
 20
246.4798233134975
 30
0.0
 10
181.488406802379
 20
246.4748700275413
 30
0.0
 10
181.4004034176497
 20
246.4412206324356
 30
0.0
 10
181.3223149875415
 20
246.3798897067035
 30
0.0
 10
181.2540924698843
 20
246.2908498985727
 30
0.0
 10
181.1955436668648
 20
246.1722928275308
 30
0.0
 10
181.1491138206516
 20
246.0281957622938
 30
0.0
 10
181.1030491661977
 20
245.8077594265445
 30
0.0
 10
181.0784005014052
 20
245.5437130882623
 30
0.0
 10
181.0755313265678
 20
245.2421623717523
 30
0.0
 10
181.0863644399093
 20
244.9233073696103
 30
0.0
 10
181.116789898061
 20
244.5767398370722
 30
0.0
 10
181.1664282097862
 20
244.2075168176309
 30
0.0
 10
181.2284886613627
 20
243.8255175214676
 30
0.0
 10
181.3086491046522
 20
243.4281678032476
 30
0.0
 10
181.4069749776855
 20
243.0178158440213
 30
0.0
 10
181.5203337750871
 20
242.5911836215672
 30
0.0
 10
181.6518788713043
 20
242.1571414948654
 30
0.0
 10
181.763912270254
 20
241.8403257309113
 30
0.0
 10
181.8016906713025
 20
241.7334933657297
 30
0.0
  0
SPLINE
  5
294
330
1F
100
AcDbEntity
  8
0
  6
Continuous
 62
     7
370
    15
100
AcDbSpline
210
0.0
220
0.0
230
1.0
 70
     8
 71
     3
 72
    16
 73
    12
 74
     0
 42
0.000000001
 43
0.00000001
 40
0.0
 40
0.0
 40
0.0
 40
0.0
 40
0.1261954117148446
 40
0.2523019645586856
 40
0.379196862230968
 40
0.5060305420539933
 40
0.6221090788357819
 40
0.7382313883705742
 40
0.8536787578253856
 40
0.9691902150884492
 40
1.0
 40
1.0
 40
1.0
 40
1.0
 10
181.8016906713021
 20
249.4166646523584
 30
0.0
 10
181.9186196544361
 20
249.1403463048233
 30
0.0
 10
182.152395286669
 20
248.5879041757526
 30
0.0
 10
182.414235313451
 20
247.8584144433705
 30
0.0
 10
182.5811308996874
 20
247.2368196796267
 30
0.0
 10
182.6357187308385
 20
246.7623357334177
 30
0.0
 10
182.5769640463065
 20
246.4472896807764
 30
0.0
 10
182.4281550364069
 20
246.2765934043824
 30
0.0
 10
182.1951563056997
 20
246.2461617695253
 30
0.0
 10
181.9714376995902
 20
246.3161597744164
 30
0.0
 10
181.8312160995506
 20
246.3913372675809
 30
0.0
 10
181.8016906713013
 20
246.4071668379164
 30
0.0
  0
SPLINE
  5
295
330
1F
100
AcDbEntity
  8
0
  6
Continuous
 62
     7
370
    15
100
AcDbSpline
210
0.0
220
0.0
230
1.0
 70
     8
 71
     3
 72
    14
 73
    10
 74
     0
 42
0.000000001
 43
0.00000001
 40
0.0
 40
0.0
 40
0.0
 40
0.0
 40
0.0254131007991427
 40
0.181611272917854
 40
0.342337353908001
 40
0.4988937077944085
 40
0.6596635928203036
 40
0.8275543900315288
 40
1.0
 40
1.0
 40
1.0
 40
1.0
 10
181.0796851097135
 20
251.1560056893728
 30
0.0
 10
181.0787664569803
 20
251.158300686752
 30
0.0
 10
181.0722014300064
 20
251.1747015737859
 30
0.0
 10
181.0992175878725
 20
251.1071453285176
 30
0.0
 10
181.1608512513863
 20
250.9537060993314
 30
0.0
 10
181.2644422923967
 20
250.6978614467384
 30
0.0
 10
181.4043483441992
 20
250.3568871930916
 30
0.0
 10
181.5814553889067
 20
249.9311328961716
 30
0.0
 10
181.727626826746
 20
249.589677330547
 30
0.0
 10
181.8016906713021
 20
249.4166646523584
 30
0.0
  0
SPLINE
  5
296
330
1F
100
AcDbEntity
  8
0
  6
Continuous
 62
     7
370
    15
100
AcDbSpline
210
0.0
220
0.0
230
1.0
 70
     8
 71
     3
 72
    13
 73
     9
 74
     0
 42
0.000000001
 43
0.00000001
 40
0.0
 40
0.0
 40
0.0
 40
0.0
 40
0.1696517703269567
 40
0.3439680020796766
 40
0.5137409203204616
 40
0.688968908966338
 40
0.8499864148929356
 40
1.0
 40
1.0
 40
1.0
 40
1.0
 10
181.8171666074015
 20
212.9453738891262
 30
0.0
 10
181.7428497706357
 20
212.7720489091173
 30
0.0
 10
181.5921728056152
 20
212.4206334952417
 30
0.0
 10
181.4069901938399
 20
211.9758122469224
 30
0.0
 10
181.2553577178525
 20
211.6061265862124
 30
0.0
 10
181.1503920054324
 20
211.346545152635
 30
0.0
 10
181.087309036484
 20
211.1892701480769
 30
0.0
 10
181.081675666543
 20
211.1751650456125
 30
0.0
 10
181.078958632634
 20
211.1683620054986
 30
0.0
  0
SPLINE
  5
297
330
1F
100
AcDbEntity
  8
0
  6
Continuous
 62
     7
370
    15
100
AcDbSpline
210
0.0
220
0.0
230
1.0
 70
     8
 71
     3
 72
    15
 73
    11
 74
     0
 42
0.000000001
 43
0.00000001
 40
0.0
 40
0.0
 40
0.0
 40
0.0
 40
0.125552393856281
 40
0.2542782239303526
 40
0.3799765823769396
 40
0.5099893772574043
 40
0.625475275452386
 40
0.744358927995481
 40
0.8704703861780994
 40
1.0
 40
1.0
 40
1.0
 40
1.0
 10
181.8171666074015
 20
215.9276573552703
 30
0.0
 10
181.9316061730459
 20
215.9799654170112
 30
0.0
 10
182.1633778550159
 20
216.0859036681922
 30
0.0
 10
182.4193742659803
 20
216.0565466066924
 30
0.0
 10
182.5855001984502
 20
215.8749383437462
 30
0.0
 10
182.6349809436867
 20
215.5377212472284
 30
0.0
 10
182.5753311961604
 20
215.0672837234871
 30
0.0
 10
182.4182201801541
 20
214.483696060416
 30
0.0
 10
182.1678241870266
 20
213.7770488383454
 30
0.0
 10
181.9350897582122
 20
213.2250590753614
 30
0.0
 10
181.8171666074015
 20
212.9453738891262
 30
0.0
  0
SPLINE
  5
298
330
1F
100
AcDbEntity
  8
0
  6
Continuous
 62
     7
370
    15
100
AcDbSpline
210
0.0
220
0.0
230
1.0
 70
     8
 71
     3
 72
    27
 73
    23
 74
     0
 42
0.000000001
 43
0.00000001
 40
0.0
 40
0.0
 40
0.0
 40
0.0
 40
0.0422828649192644
 40
0.084835382777123
 40
0.1282658983749424
 40
0.1720133992495618
 40
0.2143082379527554
 40
0.3004702161960706
 40
0.3444766527369017
 40
0.3845903072283666
 40
0.4662920781676033
 40
0.5079960069610675
 40
0.5465061701194581
 40
0.6248417087251631
 40
0.664755141297697
 40
0.7033134157795009
 40
0.7816605130082748
 40
0.8215204526377662
 40
0.8653031541555869
 40
0.9094168769478731
 40
0.9545415235882092
 40
1.0
 40
1.0
 40
1.0
 40
1.0
 10
181.8171666074015
 20
220.6348088137607
 30
0.0
 10
181.7794763484134
 20
220.5295367828076
 30
0.0
 10
181.7038554661877
 20
220.3183213635429
 30
0.0
 10
181.5987317968461
 20
219.9914049906292
 30
0.0
 10
181.5001239158756
 20
219.6577681512361
 30
0.0
 10
181.4107756094168
 20
219.3234268082597
 30
0.0
 10
181.3044620396317
 20
218.8808183152195
 30
0.0
 10
181.2176732846962
 20
218.44434288234
 30
0.0
 10
181.1540214102102
 20
218.0330996772772
 30
0.0
 10
181.1062235068338
 20
217.6479354240321
 30
0.0
 10
181.0799014988008
 20
217.2937681014935
 30
0.0
 10
181.0754370018833
 20
216.9788905104458
 30
0.0
 10
181.0847412012259
 20
216.6951982737325
 30
0.0
 10
181.1136908915483
 20
216.4527871036686
 30
0.0
 10
181.1619131376793
 20
216.2544886838982
 30
0.0
 10
181.2225674566708
 20
216.0861159776403
 30
0.0
 10
181.3013392929458
 20
215.9635124930786
 30
0.0
 10
181.3998481981261
 20
215.8860999162713
 30
0.0
 10
181.4866537165541
 20
215.8520526064856
 30
0.0
 10
181.5865255459738
 20
215.8465273337806
 30
0.0
 10
181.6960494883468
 20
215.868476526073
 30
0.0
 10
181.7766951654212
 20
215.9078820046518
 30
0.0
 10
181.8171666074015
 20
215.9276573552703
 30
0.0
  0
SPLINE
  5
299
330
1F
100
AcDbEntity
  8
0
  6
Continuous
 62
     7
370
    15
100
AcDbSpline
210
0.0
220
0.0
230
1.0
 70
     8
 71
     3
 72
    15
 73
    11
 74
     0
 42
0.000000001
 43
0.00000001
 40
0.0
 40
0.0
 40
0.0
 40
0.0
 40
0.1268822801305643
 40
0.2536752177405937
 40
0.3812607910574375
 40
0.5087848133226808
 40
0.6254951534289743
 40
0.7422495045387844
 40
0.871076756806133
 40
1.0
 40
1.0
 40
1.0
 40
1.0
 10
181.8016906713023
 20
227.8583505157033
 30
0.0
 10
181.9186199723787
 20
227.6593832873631
 30
0.0
 10
182.1523962402728
 20
227.2615889308896
 30
0.0
 10
182.4142314922434
 20
226.4993876814499
 30
0.0
 10
182.5811453266849
 20
225.6241015756945
 30
0.0
 10
182.6356668388299
 20
224.6780363957583
 30
0.0
 10
182.5771395544318
 20
223.7017536218703
 30
0.0
 10
182.4220404366702
 20
222.6988128839253
 30
0.0
 10
182.1705741574844
 20
221.6611902158177
 30
0.0
 10
181.9349983683179
 20
220.9770208801071
 30
0.0
 10
181.8171666074015
 20
220.6348088137607
 30
0.0
  0
LINE
  5
29A
330
1F
100
AcDbEntity
  8
0
  6
Continuous
 62
     7
370
    15
100
AcDbLine
 10
181.8171666074
 20
220.6348088138
 30
0.0
 11
170.5768307485
 21
220.6348088138
 31
0.0
  0
LINE
  5
29B
330
1F
100
AcDbEntity
  8
0
  6
Continuous
 62
     7
370
    15
100
AcDbLine
 10
170.5768307485
 20
227.8583505157
 30
0.0
 11
170.5768307485
 21
220.6348088138
 31
0.0
  0
LINE
  5
29C
330
1F
100
AcDbEntity
  8
0
  6
Continuous
 62
     7
370
    15
100
AcDbLine
 10
170.5768307485
 20
241.7334933657
 30
0.0
 11
170.5768307485
 21
234.4679229262
 31
0.0
  0
LINE
  5
29D
330
1F
100
AcDbEntity
  8
0
  6
Continuous
 62
     7
370
    15
100
AcDbLine
 10
181.8016906713
 20
241.7334933657
 30
0.0
 11
170.5768307485
 21
241.7334933657
 31
0.0
  0
LINE
  5
29E
330
1F
100
AcDbEntity
  8
0
  6
Continuous
 62
     7
370
    15
100
AcDbLine
 10
170.5768307485
 20
220.6348088138
 30
0.0
 11
169.0768307485
 21
220.3402644841
 31
0.0
  0
LINE
  5
29F
330
1F
100
AcDbEntity
  8
0
  6
Continuous
 62
     7
370
    15
100
AcDbLine
 10
169.0768307485
 20
220.3402644841
 30
0.0
 11
169.0768307485
 21
229.1036121373
 31
0.0
  0
LINE
  5
2A0
330
1F
100
AcDbEntity
  8
0
  6
Continuous
 62
     7
370
    15
100
AcDbLine
 10
169.0768307485
 20
242.0226288645
 30
0.0
 11
170.5768307485
 21
241.7334933657
 31
0.0
  0
LINE
  5
2A1
330
1F
100
AcDbEntity
  8
0
  6
Continuous
 62
     7
370
    15
100
AcDbLine
 10
169.0768307485
 20
233.2226613046
 30
0.0
 11
169.0768307485
 21
242.0226288645
 31
0.0
  0
LINE
  5
2A2
330
1F
100
AcDbEntity
  8
0
  6
Continuous
 62
     7
370
    15
100
AcDbLine
 10
170.5768307485
 20
246.4768452199
 30
0.0
 11
170.5768307485
 21
241.7334933657
 31
0.0
  0
LINE
  5
2A3
330
1F
100
AcDbEntity
  8
0
  6
Continuous
 62
     7
370
    15
100
AcDbLine
 10
169.0768307485
 20
242.0226288645
 30
0.0
 11
169.0768307485
 21
244.9768452199
 31
0.0
  0
LINE
  5
2A4
330
1F
100
AcDbEntity
  8
0
  6
Continuous
 62
     7
370
    15
100
AcDbLine
 10
170.5768307485
 20
220.6348088138
 30
0.0
 11
170.5768307485
 21
215.8497895627
 31
0.0
  0
LINE
  5
2A5
330
1F
100
AcDbEntity
  8
0
  6
Continuous
 62
     7
370
    15
100
AcDbLine
 10
169.0768307485
 20
217.3497895627
 30
0.0
 11
169.0768307485
 21
220.3402644841
 31
0.0
  0
LINE
  5
2A6
330
1F
100
AcDbEntity
  8
0
  6
Continuous
 62
     7
370
    15
100
AcDbLine
 10
169.0768307485
 20
248.5803023744
 30
0.0
 11
170.5768307485
 21
249.4166646524
 31
0.0
  0
LINE
  5
2A7
330
1F
100
AcDbEntity
  8
0
  6
Continuous
 62
     7
370
    15
100
AcDbLine
 10
170.5768307485
 20
249.4166646524
 30
0.0
 11
170.5768307485
 21
246.4768452199
 31
0.0
  0
LINE
  5
2A8
330
1F
100
AcDbEntity
  8
0
  6
Continuous
 62
     7
370
    15
100
AcDbLine
 10
169.0768307485
 20
244.9768452199
 30
0.0
 11
169.0768307485
 21
248.5803023744
 31
0.0
  0
LINE
  5
2A9
330
1F
100
AcDbEntity
  8
0
  6
Continuous
 62
     7
370
    15
100
AcDbLine
 10
170.5768307485
 20
215.8497895627
 30
0.0
 11
170.5768307485
 21
212.9453738891
 31
0.0
  0
LINE
  5
2AA
330
1F
100
AcDbEntity
  8
0
  6
Continuous
 62
     7
370
    15
100
AcDbLine
 10
170.5768307485
 20
212.9453738891
 30
0.0
 11
169.0768307485
 21
213.7771100861
 31
0.0
  0
LINE
  5
2AB
330
1F
100
AcDbEntity
  8
0
  6
Continuous
 62
     7
370
    15
100
AcDbLine
 10
169.0768307485
 20
213.7771100861
 30
0.0
 11
169.0768307485
 21
217.3497895627
 31
0.0
  0
LINE
  5
2AC
330
1F
100
AcDbEntity
  8
0
  6
Continuous
 62
     7
370
    15
100
AcDbLine
 10
181.8016906713
 20
249.4166646524
 30
0.0
 11
170.5768307485
 21
249.4166646524
 31
0.0
  0
LINE
  5
2AD
330
1F
100
AcDbEntity
  8
0
  6
Continuous
 62
     7
370
    15
100
AcDbLine
 10
181.8171666074
 20
212.9453738891
 30
0.0
 11
170.5768307485
 21
212.9453738891
 31
0.0
  0
ARC
  5
2AE
330
1F
100
AcDbEntity
  8
0
  6
Continuous
 62
     7
370
    15
100
AcDbCircle
 10
164.0768670576
 20
216.2722091283
 30
0.0
 40
7.572858830159689
100
AcDbArc
 50
77.4155380116
 51
102.5490566617
  0
LINE
  5
2AF
330
1F
100
AcDbEntity
  8
0
  6
Continuous
 62
     7
370
    15
100
AcDbLine
 10
159.0768307485
 20
223.6631367209
 30
0.0
 11
159.0768307485
 21
238.6631367209
 31
0.0
  0
LINE
  5
2B0
330
1F
100
AcDbEntity
  8
0
  6
Continuous
 62
     7
370
    15
100
AcDbLine
 10
170.5768307485
 20
212.9453738891
 30
0.0
 11
170.5768307485
 21
211.1634980617
 31
0.0
  0
LINE
  5
2B1
330
1F
100
AcDbEntity
  8
0
  6
Continuous
 62
     7
370
    15
100
AcDbLine
 10
169.0768307485
 20
212.6634980617
 30
0.0
 11
169.0768307485
 21
213.7771100861
 31
0.0
  0
LINE
  5
2B2
330
1F
100
AcDbEntity
  8
0
  6
Continuous
 62
     7
370
    15
100
AcDbLine
 10
170.5768307485
 20
251.1631367209
 30
0.0
 11
170.5768307485
 21
249.4166646524
 31
0.0
  0
LINE
  5
2B3
330
1F
100
AcDbEntity
  8
0
  6
Continuous
 62
     7
370
    15
100
AcDbLine
 10
169.0768307485
 20
248.5803023744
 30
0.0
 11
169.0768307485
 21
249.6631367209
 31
0.0
  0
LINE
  5
2B4
330
1F
100
AcDbEntity
  8
0
  6
Continuous
 62
     7
370
    15
100
AcDbLine
 10
146.5768307485
 20
237.5631367209
 30
0.0
 11
146.5768307485
 21
218.5631367209
 31
0.0
  0
LINE
  5
2B5
330
1F
100
AcDbEntity
  8
0
  6
Continuous
 62
     7
370
    15
100
AcDbLine
 10
146.5768307485
 20
218.5631367209
 30
0.0
 11
138.5768307485
 21
218.5631367209
 31
0.0
  0
LINE
  5
2B6
330
1F
100
AcDbEntity
  8
0
  6
Continuous
 62
     7
370
    15
100
AcDbLine
 10
138.5768307485
 20
237.5631367209
 30
0.0
 11
146.5768307485
 21
237.5631367209
 31
0.0
  0
LINE
  5
2B7
330
1F
100
AcDbEntity
  8
0
  6
Continuous
 62
     7
370
    15
100
AcDbLine
 10
162.5768307485
 20
182.8150599117
 30
0.0
 11
162.5768307485
 21
170.5631367209
 31
0.0
  0
LINE
  5
2B8
330
1F
100
AcDbEntity
  8
0
  6
Continuous
 62
     7
370
    15
100
AcDbLine
 10
162.5768307485
 20
170.5631367209
 30
0.0
 11
150.0768307485
 21
170.5631367209
 31
0.0
  0
LINE
  5
2B9
330
1F
100
AcDbEntity
  8
0
  6
Continuous
 62
     7
370
    15
100
AcDbLine
 10
150.0768307485
 20
170.5631367209
 30
0.0
 11
150.0768307485
 21
171.0631367209
 31
0.0
  0
LINE
  5
2BA
330
1F
100
AcDbEntity
  8
0
  6
Continuous
 62
     7
370
    15
100
AcDbLine
 10
150.0768307485
 20
171.0631367209
 30
0.0
 11
137.0768307485
 21
171.0631367209
 31
0.0
  0
LINE
  5
2BB
330
1F
100
AcDbEntity
  8
0
  6
Continuous
 62
     7
370
    15
100
AcDbLine
 10
137.0768307485
 20
171.0631367209
 30
0.0
 11
137.0768307485
 21
170.5631367209
 31
0.0
  0
LINE
  5
2BC
330
1F
100
AcDbEntity
  8
0
  6
Continuous
 62
     7
370
    15
100
AcDbLine
 10
137.0768307485
 20
170.5631367209
 30
0.0
 11
124.5768307485
 21
170.5631367209
 31
0.0
  0
LINE
  5
2BD
330
1F
100
AcDbEntity
  8
0
  6
Continuous
 62
     7
370
    15
100
AcDbLine
 10
124.5768307485
 20
170.5631367209
 30
0.0
 11
124.5768307485
 21
182.8150599117
 31
0.0
  0
ARC
  5
2BE
330
1F
100
AcDbEntity
  8
0
  6
Continuous
 62
     7
370
    15
100
AcDbCircle
 10
143.5768307485
 20
199.0631367209
 30
0.0
 40
25.00000000000004
100
AcDbArc
 50
117.3871075027
 51
220.5358021113
  0
LINE
  5
2BF
330
1F
100
AcDbEntity
  8
0
  6
Continuous
 62
     7
370
    15
100
AcDbLine
 10
132.0768307485
 20
221.2611096014
 30
0.0
 11
132.0768307485
 21
237.5631367209
 31
0.0
  0
LINE
  5
2C0
330
1F
100
AcDbEntity
  8
0
  6
Continuous
 62
     7
370
    15
100
AcDbLine
 10
132.0768307485
 20
237.5631367209
 30
0.0
 11
138.5768307485
 21
237.5631367209
 31
0.0
  0
ARC
  5
2C1
330
1F
100
AcDbEntity
  8
0
  6
Continuous
 62
     7
370
    15
100
AcDbCircle
 10
143.5768307485
 20
199.0631367209
 30
0.0
 40
20.00000000000003
100
AcDbArc
 50
104.4775121859
 51
137.731101004
  0
LINE
  5
2C2
330
1F
100
AcDbEntity
  8
0
  6
Continuous
 62
     7
370
    15
100
AcDbLine
 10
128.7769046039
 20
212.5153553526
 30
0.0
 11
129.6198532581
 21
212.0286787202
 31
0.0
  0
ARC
  5
2C3
330
1F
100
AcDbEntity
  8
0
  6
Continuous
 62
     7
370
    15
100
AcDbCircle
 10
143.5768307485
 20
199.0631367209
 30
0.0
 40
19.05000000000001
100
AcDbArc
 50
137.1089932563
 51
162.8910067437
  0
LINE
  5
2C4
330
1F
100
AcDbEntity
  8
0
  6
Continuous
 62
     7
370
    15
100
AcDbLine
 10
125.3698532581
 20
204.667462788
 30
0.0
 11
124.5269046039
 21
205.1541394205
 31
0.0
  0
ARC
  5
2C5
330
1F
100
AcDbEntity
  8
0
  6
Continuous
 62
     7
370
    15
100
AcDbCircle
 10
143.5768307485
 20
199.0631367209
 30
0.0
 40
20.00000000000001
100
AcDbArc
 50
162.268898996
 51
257.731101004
  0
LINE
  5
2C6
330
1F
100
AcDbEntity
  8
0
  6
Continuous
 62
     7
370
    15
100
AcDbLine
 10
139.3268307485
 20
179.5199153897
 30
0.0
 11
139.3268307485
 21
180.4932686546
 31
0.0
  0
ARC
  5
2C7
330
1F
100
AcDbEntity
  8
0
  6
Continuous
 62
     7
370
    15
100
AcDbCircle
 10
143.5768307485
 20
199.0631367209
 30
0.0
 40
19.04999999999999
100
AcDbArc
 50
257.1089932563
 51
282.8910067437
  0
LINE
  5
2C8
330
1F
100
AcDbEntity
  8
0
  6
Continuous
 62
     7
370
    15
100
AcDbLine
 10
147.8268307485
 20
180.4932686546
 30
0.0
 11
147.8268307485
 21
179.5199153897
 31
0.0
  0
ARC
  5
2C9
330
1F
100
AcDbEntity
  8
0
  6
Continuous
 62
     7
370
    15
100
AcDbCircle
 10
143.5768307485
 20
199.0631367209
 30
0.0
 40
20.00000000000001
100
AcDbArc
 50
282.268898996
 51
17.731101004
  0
LINE
  5
2CA
330
1F
100
AcDbEntity
  8
0
  6
Continuous
 62
     7
370
    15
100
AcDbLine
 10
162.6267568931
 20
205.1541394205
 30
0.0
 11
161.7838082388
 21
204.667462788
 31
0.0
  0
ARC
  5
2CB
330
1F
100
AcDbEntity
  8
0
  6
Continuous
 62
     7
370
    15
100
AcDbCircle
 10
143.5768307485
 20
199.0631367209
 30
0.0
 40
19.05000000000001
100
AcDbArc
 50
17.1089932563
 51
42.8910067437
  0
LINE
  5
2CC
330
1F
100
AcDbEntity
  8
0
  6
Continuous
 62
     7
370
    15
100
AcDbLine
 10
157.5338082388
 20
212.0286787202
 30
0.0
 11
158.3767568931
 21
212.5153553526
 31
0.0
  0
ARC
  5
2CD
330
1F
100
AcDbEntity
  8
0
  6
Continuous
 62
     7
370
    15
100
AcDbCircle
 10
143.5768307485
 20
199.0631367209
 30
0.0
 40
20.0
100
AcDbArc
 50
42.268898996
 51
75.5224878141
  0
LINE
  5
2CE
330
1F
100
AcDbEntity
  8
0
  6
Continuous
 62
     7
370
    15
100
AcDbLine
 10
148.5768307485
 20
218.428053452
 30
0.0
 11
148.5768307485
 21
237.5631367209
 31
0.0
  0
LINE
  5
2CF
330
1F
100
AcDbEntity
  8
0
  6
Continuous
 62
     7
370
    15
100
AcDbLine
 10
148.5768307485
 20
237.5631367209
 30
0.0
 11
155.0768307485
 21
237.5631367209
 31
0.0
  0
LINE
  5
2D0
330
1F
100
AcDbEntity
  8
0
  6
Continuous
 62
     7
370
    15
100
AcDbLine
 10
155.0768307485
 20
237.5631367209
 30
0.0
 11
155.0768307485
 21
221.2611096014
 31
0.0
  0
ARC
  5
2D1
330
1F
100
AcDbEntity
  8
0
  6
Continuous
 62
     7
370
    15
100
AcDbCircle
 10
143.5768307485
 20
199.0631367209
 30
0.0
 40
24.99999999999999
100
AcDbArc
 50
319.4641978887
 51
62.6128924973
  0
LINE
  5
2D2
330
1F
100
AcDbEntity
  8
0
  6
Continuous
 62
     7
370
    15
100
AcDbLine
 10
138.5768307485
 20
237.5631367209
 30
0.0
 11
138.5768307485
 21
218.428053452
 31
0.0
  0
DIMENSION
  5
2D3
330
1F
100
AcDbEntity
  8
DIM
100
AcDbDimension
  2
_D_8
 10
162.5768307485
 20
159.2765446898
 30
0.0
 11
143.5768307485
 21
159.2765446898
 31
0.0
 70
   160
  1
<>
 71
     2
 42
-1.0
  3
SLDDIMSTYLE0
100
AcDbAlignedDimension
 13
124.5768307485
 23
170.5631367209
 33
0.0
 14
162.5768307485
 24
170.5631367209
 34
0.0
100
AcDbRotatedDimension
  0
DIMENSION
  5
2DD
330
1F
100
AcDbEntity
  8
DIM
100
AcDbDimension
  2
_D_9
 10
188.0768307485
 20
170.5631367209
 30
0.0
 11
188.0768307485
 21
184.8131367209
 31
0.0
 70
   160
  1
<>
 71
     2
 42
-1.0
  3
SLDDIMSTYLE0
100
AcDbAlignedDimension
 13
163.6268307485
 23
199.0631367209
 33
0.0
 14
162.5768307485
 24
170.5631367209
 34
0.0
 50
90.0
100
AcDbRotatedDimension
  0
DIMENSION
  5
2E7
330
1F
100
AcDbEntity
  8
DIM
100
AcDbDimension
  2
_D_10
 10
184.0768307485
 20
261.0889605675
 30
0.0
 11
143.5768307485
 21
261.0889605675
 31
0.0
 70
   160
  1
<>
 71
     2
 42
-1.0
  3
SLDDIMSTYLE0
100
AcDbAlignedDimension
 13
103.0768307485
 23
245.1631367209
 33
0.0
 14
184.0768307485
 24
245.1631367209
 34
0.0
100
AcDbRotatedDimension
  0
DIMENSION
  5
2F1
330
1F
100
AcDbEntity
  8
DIM
100
AcDbDimension
  2
_D_11
 10
208.6685195252
 20
251.1631367209
 30
0.0
 11
208.6685195252
 21
210.8631367209
 31
0.0
 70
   160
  1
<>
 71
     2
 42
-1.0
  3
SLDDIMSTYLE2
100
AcDbAlignedDimension
 13
162.5768307485
 23
170.5631367209
 33
0.0
 14
181.0768307485
 24
251.1631367209
 34
0.0
 50
90.0
100
AcDbRotatedDimension
  0
DIMENSION
  5
2FC
330
1F
100
AcDbEntity
  8
DIM
100
AcDbDimension
  2
_D_12
 10
160.0741570023
 20
189.5373440256
 30
0.0
 11
84.4631764759
 21
229.143751379
 31
0.0
 70
   163
  1
<>
 71
     1
 42
-1.0
  3
SLDDIMSTYLE3
100
AcDbDiametricDimension
 15
127.0795044946
 25
208.5889294162
 35
0.0
 40
0.0
  0
DIMENSION
  5
306
330
1F
100
AcDbEntity
  8
DIM
 62
     7
100
AcDbDimension
  2
_D_13
 10
198.5532063778
 20
170.5631367209
 30
0.0
 11
198.5532063778
 21
204.0631367209
 31
0.0
 70
   160
  1
<>
 71
     2
 42
-1.0
  3
SLDDIMSTYLE0
100
AcDbAlignedDimension
 13
155.0768307485
 23
237.5631367209
 33
0.0
 14
162.5768307485
 24
170.5631367209
 34
0.0
 50
90.0
100
AcDbRotatedDimension
  0
INSERT
  5
31B
330
1F
100
AcDbEntity
  8
DIM
100
AcDbBlockReference
  2
SW_CENTERMARKSYMBOL_8
 10
143.5768307485
 20
199.0631367209
 30
0.0
  0
LINE
  5
31C
330
1F
100
AcDbEntity
  8
0
  6
Continuous
 62
     7
370
    15
100
AcDbLine
 10
343.2348769737
 20
260.3795544167
 30
0.0
 11
342.1003478315
 21
261.0345041495
 31
0.0
  0
LINE
  5
31D
330
1F
100
AcDbEntity
  8
0
  6
Continuous
 62
     7
370
    15
100
AcDbLine
 10
358.8224321417
 20
220.8007322043
 30
0.0
 11
364.6469933626
 21
217.4382845833
 31
0.0
  0
LINE
  5
31E
330
1F
100
AcDbEntity
  8
0
  6
Continuous
 62
     7
370
    15
100
AcDbLine
 10
376.1309215274
 20
237.3318436965
 30
0.0
 11
370.3073342221
 21
240.6937290881
 31
0.0
  0
LINE
  5
31F
330
1F
100
AcDbEntity
  8
0
  6
Continuous
 62
     7
370
    15
100
AcDbLine
 10
362.8071113801
 20
234.2111471285
 30
0.0
 11
362.0117455416
 21
233.7518429279
 31
0.0
  0
LINE
  5
320
330
1F
100
AcDbEntity
  8
0
  6
Continuous
 62
     7
370
    15
100
AcDbLine
 10
360.6863274095
 20
231.4559026119
 30
0.0
 11
360.6863274095
 21
230.5374434861
 31
0.0
  0
LINE
  5
321
330
1F
100
AcDbEntity
  8
0
  6
Continuous
 62
     7
370
    15
100
AcDbLine
 10
358.2010460352
 20
223.0926016711
 30
0.0
 11
358.2010460352
 21
222.1741425453
 31
0.0
  0
LINE
  5
322
330
1F
100
AcDbEntity
  8
0
  6
Continuous
 62
     7
370
    15
100
AcDbLine
 10
368.807111349
 20
240.5450058704
 30
0.0
 11
368.0117455105
 21
240.0857016698
 31
0.0
  0
LINE
  5
323
330
1F
100
AcDbEntity
  8
0
  6
Continuous
 62
     7
370
    15
100
AcDbLine
 10
361.307713516
 20
215.3068760604
 30
0.0
 11
366.8765926802
 21
212.0920305488
 31
0.0
  0
LINE
  5
324
330
1F
100
AcDbEntity
  8
0
  6
Continuous
 62
     7
370
    15
100
AcDbLine
 10
381.8764240475
 20
238.0725770367
 30
0.0
 11
376.3073342221
 21
241.2875441604
 31
0.0
  0
LINE
  5
325
330
1F
100
AcDbEntity
  8
0
  6
Continuous
 62
     7
370
    15
100
AcDbLine
 10
359.8963886999
 20
226.9463278897
 30
0.0
 11
360.0385121557
 21
226.8642817651
 31
0.0
  0
LINE
  5
326
330
1F
100
AcDbEntity
  8
0
  6
Continuous
 62
     7
370
    15
100
AcDbLine
 10
365.6633457925
 20
236.6071636114
 30
0.0
 11
365.520931571
 21
236.6893775915
 31
0.0
  0
LINE
  5
327
330
1F
100
AcDbEntity
  8
0
  6
Continuous
 62
     7
370
    15
100
AcDbLine
 10
360.6863274095
 20
217.5987455271
 30
0.0
 11
360.6863274095
 21
216.6802864013
 31
0.0
  0
LINE
  5
328
330
1F
100
AcDbEntity
  8
0
  6
Continuous
 62
     7
370
    15
100
AcDbLine
 10
374.807111349
 20
241.1388209427
 30
0.0
 11
374.0117455105
 21
240.679516742
 31
0.0
  0
LINE
  5
329
330
1F
100
AcDbEntity
  8
0
  6
Continuous
 62
     7
370
    15
100
AcDbLine
 10
372.2125211967
 20
213.0688930066
 30
0.0
 11
373.1311653295
 21
212.538571037
 31
0.0
  0
LINE
  5
32A
330
1F
100
AcDbEntity
  8
0
  6
Continuous
 62
     7
370
    15
100
AcDbLine
 10
384.6169825817
 20
232.4313525251
 30
0.0
 11
383.7756497699
 21
232.9170436191
 31
0.0
  0
LINE
  5
32B
330
1F
100
AcDbEntity
  8
0
  6
Continuous
 62
     7
370
    15
100
AcDbLine
 10
363.5929972989
 20
236.8064481188
 30
0.0
 11
362.968396274
 21
237.1670226154
 31
0.0
  0
LINE
  5
32C
330
1F
100
AcDbEntity
  8
0
  6
Continuous
 62
     7
370
    15
100
AcDbLine
 10
358.2062833098
 20
228.9179072013
 30
0.0
 11
358.8308843347
 21
228.5573327046
 31
0.0
  0
LINE
  5
32D
330
1F
100
AcDbEntity
  8
0
  6
Continuous
 62
     7
370
    15
100
AcDbLine
 10
356.2149480471
 20
203.4642991058
 30
0.0
 11
356.2149480471
 21
250.0071253833
 31
0.0
  0
LINE
  5
32E
330
1F
100
AcDbEntity
  8
0
  6
Continuous
 62
     7
370
    15
100
AcDbLine
 10
339.5031343915
 20
260.7190352658
 30
0.0
 11
339.7920322469
 21
260.8241926716
 31
0.0
  0
SPLINE
  5
32F
330
1F
100
AcDbEntity
  8
0
  6
Continuous
 62
     7
370
    15
100
AcDbSpline
210
0.0
220
0.0
230
1.0
 70
     8
 71
     3
 72
    17
 73
    13
 74
     0
 42
0.000000001
 43
0.00000001
 40
0.0
 40
0.0
 40
0.0
 40
0.0
 40
0.084575727083946
 40
0.1696908238010869
 40
0.2565621235895453
 40
0.3440674688787357
 40
0.428667146361589
 40
0.6010114747516793
 40
0.6890347525953383
 40
0.7692715459414801
 40
0.9326944051641464
 40
1.0
 40
1.0
 40
1.0
 40
1.0
 10
339.7920322469166
 20
260.8241926716301
 30
0.0
 10
339.8678494580024
 20
260.8562544253714
 30
0.0
 10
340.019967393621
 20
260.9205824021143
 30
0.0
 10
340.2490911108935
 20
261.0030389886817
 30
0.0
 10
340.4783239396908
 20
261.074088286489
 30
0.0
 10
340.703017629514
 20
261.1305524577402
 30
0.0
 10
340.9941356616649
 20
261.185953671321
 30
0.0
 10
341.271587735586
 20
261.2103719584215
 30
0.0
 10
341.5235567328443
 20
261.2015310058057
 30
0.0
 10
341.7527318818987
 20
261.1714675355139
 30
0.0
 10
341.9471548459225
 20
261.117179112223
 30
0.0
 10
342.0651327315513
 20
261.0520643593483
 30
0.0
 10
342.0995479570254
 20
261.0330697919347
 30
0.0
  0
LWPOLYLINE
  5
330
330
1F
100
AcDbEntity
  8
0
  6
Continuous
 62
     7
370
    15
100
AcDbPolyline
 90
       50
 70
   128
 43
0.0
 10
383.3915334851
 20
228.4501692793
 10
383.3305774477
 20
227.318602433
 10
383.1487102318
 20
226.1352375402
 10
382.8489180922
 20
224.9195054198
 10
382.4361236074
 20
223.6913683596
 10
381.9171048515
 20
222.4709923361
 10
381.3003840982
 20
221.2784158899
 10
380.5960878851
 20
220.1332210934
 10
379.8157807366
 20
219.0542120133
 10
378.9722752744
 20
218.059105949
 10
378.0794218351
 20
217.1642425145
 10
377.1518810473
 20
216.3843153427
 10
376.2048831051
 20
215.7321308162
 10
375.2539776886
 20
215.2183977869
 10
374.3147786384
 20
214.8515517368
 10
373.402707577
 20
214.6376162681
 10
372.532740686
 20
214.5801041952
 10
371.7191627977
 20
214.6799598647
 10
370.9753328384
 20
214.9355436493
 10
370.3134644757
 20
215.3426588703
 10
369.7444255696
 20
215.8946207071
 10
369.2775597233
 20
216.5823659616
 10
368.9205328611
 20
217.3946018756
 10
368.6792073542
 20
218.317991558
 10
368.5575457608
 20
219.3373729757
 10
368.5575457608
 20
220.436007914
 10
368.6792073542
 20
221.5958568175
 10
368.9205328611
 20
222.7978749994
 10
369.2775597233
 20
224.0223253543
 10
369.7444255696
 20
225.2491024412
 10
370.3134644757
 20
226.4580626144
 10
370.9753328384
 20
227.6293547811
 10
371.7191627977
 20
228.7437463564
 10
372.532740686
 20
229.7829390615
 10
373.402707577
 20
230.7298693808
 10
374.3147786384
 20
231.5689887446
 10
375.2539776886
 20
232.2865188363
 10
376.2048831051
 20
232.8706778316
 10
377.1518810473
 20
233.3118738558
 10
378.0794218351
 20
233.6028624825
 10
378.9722752744
 20
233.7388656865
 10
379.8157807366
 20
233.7176502989
 10
380.5960878851
 20
233.5395646759
 10
381.3003840982
 20
233.2075329783
 10
381.9171048515
 20
232.7270071575
 10
382.4361236074
 20
232.1058774343
 10
382.8489180922
 20
231.3543427414
 10
383.1487102318
 20
230.4847432578
 10
383.3305774477
 20
229.5113577829
 10
383.3915334851
 20
228.4501692793
  0
SPLINE
  5
331
330
1F
100
AcDbEntity
  8
0
  6
Continuous
 62
     7
370
    15
100
AcDbSpline
210
0.0
220
0.0
230
1.0
 70
     8
 71
     3
 72
    12
 73
     8
 74
     0
 42
0.000000001
 43
0.00000001
 40
0.0
 40
0.0
 40
0.0
 40
0.0
 40
0.2523425790010243
 40
0.5058462538030644
 40
0.737997042637073
 40
0.9690912189386458
 40
1.0
 40
1.0
 40
1.0
 40
1.0
 10
380.3661151974615
 20
237.4322441349438
 30
0.0
 10
380.1230604044068
 20
237.1040974488831
 30
0.0
 10
379.6358324580875
 20
236.4462941859584
 30
0.0
 10
378.645843698637
 20
236.0754982282863
 30
0.0
 10
377.5961478488927
 20
236.2536603218534
 30
0.0
 10
376.8931927544265
 20
236.7017037610889
 30
0.0
 10
376.553087230186
 20
237.0140528184477
 30
0.0
 10
376.5129646022114
 20
237.0509009850707
 30
0.0
  0
SPLINE
  5
332
330
1F
100
AcDbEntity
  8
0
  6
Continuous
 62
     7
370
    15
100
AcDbSpline
210
0.0
220
0.0
230
1.0
 70
     8
 71
     3
 72
    27
 73
    23
 74
     0
 42
0.000000001
 43
0.00000001
 40
0.0
 40
0.0
 40
0.0
 40
0.0
 40
0.0426606797130387
 40
0.0855935073502103
 40
0.1294123204537271
 40
0.1735509225917162
 40
0.2162236415775127
 40
0.2592142218224084
 40
0.3032398763007059
 40
0.3476370058791247
 40
0.3881390265364099
 40
0.4706287588872071
 40
0.5127326489498885
 40
0.5516617646078308
 40
0.6308467217354318
 40
0.6711909916324437
 40
0.7102149879124687
 40
0.7895062952715599
 40
0.8298451975724507
 40
0.8716915672088615
 40
0.9567335501972694
 40
1.0
 40
1.0
 40
1.0
 40
1.0
 10
382.8447048513871
 20
236.0009196368591
 30
0.0
 10
382.8341641148398
 20
236.0821680612106
 30
0.0
 10
382.81301539857
 20
236.2451832230341
 30
0.0
 10
382.7686941798393
 20
236.4832600592381
 30
0.0
 10
382.7144660286424
 20
236.7155447656089
 30
0.0
 10
382.6499498994637
 20
236.9364131517957
 30
0.0
 10
382.5760116205062
 20
237.1434227337548
 30
0.0
 10
382.4926106777638
 20
237.3362148766783
 30
0.0
 10
382.3986861043612
 20
237.5153834675856
 30
0.0
 10
382.2976439510474
 20
237.6733417338017
 30
0.0
 10
382.1563104580233
 20
237.8541854072564
 30
0.0
 10
382.0032068122466
 20
237.9959659908579
 30
0.0
 10
381.8417637851217
 20
238.09540507783
 30
0.0
 10
381.6784105103783
 20
238.1662860937839
 30
0.0
 10
381.5107508569156
 20
238.1973088973698
 30
0.0
 10
381.3412654714234
 20
238.1884372111421
 30
0.0
 10
381.1715922764941
 20
238.1535329748688
 30
0.0
 10
381.0033772610768
 20
238.0802483410498
 30
0.0
 10
380.8379004399862
 20
237.9690741916145
 30
0.0
 10
380.6717621175711
 20
237.828695176257
 30
0.0
 10
380.5113388414128
 20
237.6503727868846
 30
0.0
 10
380.4027365921913
 20
237.487250160459
 30
0.0
 10
380.3661151974615
 20
237.4322441349438
 30
0.0
  0
SPLINE
  5
333
330
1F
100
AcDbEntity
  8
0
  6
Continuous
 62
     7
370
    15
100
AcDbSpline
210
0.0
220
0.0
230
1.0
 70
     8
 71
     3
 72
    12
 73
     8
 74
     0
 42
0.000000001
 43
0.00000001
 40
0.0
 40
0.0
 40
0.0
 40
0.0
 40
0.2523388541794063
 40
0.5058431516690082
 40
0.7379942180549656
 40
0.9690881654589661
 40
1.0
 40
1.0
 40
1.0
 40
1.0
 10
384.440732085806
 20
232.4728104582931
 30
0.0
 10
384.2724369735074
 20
232.4980337143362
 30
0.0
 10
383.9350694670547
 20
232.5485967216608
 30
0.0
 10
383.4725977350415
 20
233.2867500685973
 30
0.0
 10
383.0938087589689
 20
234.4238344293094
 30
0.0
 10
382.9135901430171
 20
235.3990020623465
 30
0.0
 10
382.8519743722945
 20
235.9373987851811
 30
0.0
 10
382.8447048513871
 20
236.0009196368591
 30
0.0
  0
SPLINE
  5
334
330
1F
100
AcDbEntity
  8
0
  6
Continuous
 62
     7
370
    15
100
AcDbSpline
210
0.0
220
0.0
230
1.0
 70
     8
 71
     3
 72
    19
 73
    15
 74
     0
 42
0.000000001
 43
0.00000001
 40
0.0
 40
0.0
 40
0.0
 40
0.0
 40
0.085574704239685
 40
0.1735025911126465
 40
0.2591381948402403
 40
0.3475216183002932
 40
0.4288008516339926
 40
0.5126378259330147
 40
0.5907479265422938
 40
0.6711223008796209
 40
0.7494115176304763
 40
0.829807797074585
 40
0.9137650347532321
 40
1.0
 40
1.0
 40
1.0
 40
1.0
 10
384.4407320858074
 20
228.4250712416012
 30
0.0
 10
384.4928114270458
 20
228.5792024574772
 30
0.0
 10
384.5984022173218
 20
228.8917032784082
 30
0.0
 10
384.7344624807942
 20
229.389069152927
 30
0.0
 10
384.8479856308799
 20
229.8980314096844
 30
0.0
 10
384.9286747099532
 20
230.3886043982723
 30
0.0
 10
384.9757529660327
 20
230.8534045586336
 30
0.0
 10
384.9877516515975
 20
231.2653220873497
 30
0.0
 10
384.9666847963302
 20
231.6292517124865
 30
0.0
 10
384.9154933888757
 20
231.9307958966088
 30
0.0
 10
384.8354124111142
 20
232.1731365192297
 30
0.0
 10
384.728597616269
 20
232.3493071476557
 30
0.0
 10
384.5967832269502
 20
232.4607820281465
 30
0.0
 10
384.4932111769617
 20
232.4687653671936
 30
0.0
 10
384.440732085806
 20
232.4728104582931
 30
0.0
  0
SPLINE
  5
335
330
1F
100
AcDbEntity
  8
0
  6
Continuous
 62
     7
370
    15
100
AcDbSpline
210
0.0
220
0.0
230
1.0
 70
     8
 71
     3
 72
    12
 73
     8
 74
     0
 42
0.000000001
 43
0.00000001
 40
0.0
 40
0.0
 40
0.0
 40
0.0
 40
0.2523425790008749
 40
0.5058462538027566
 40
0.7379970426366413
 40
0.9690912189381221
 40
1.0
 40
1.0
 40
1.0
 40
1.0
 10
382.8447048513876
 20
223.0542282418668
 30
0.0
 10
382.9192251133522
 20
223.3779408345665
 30
0.0
 10
383.0686085249686
 20
224.0268555083181
 30
0.0
 10
383.4717306011673
 20
225.4027969272723
 30
0.0
 10
383.9173714695541
 20
226.8721880450056
 30
0.0
 10
384.2447776507765
 20
227.8729035442407
 30
0.0
 10
384.4200544825026
 20
228.3668051217149
 30
0.0
 10
384.4407320858074
 20
228.4250712416012
 30
0.0
  0
SPLINE
  5
336
330
1F
100
AcDbEntity
  8
0
  6
Continuous
 62
     7
370
    15
100
AcDbSpline
210
0.0
220
0.0
230
1.0
 70
     8
 71
     3
 72
    27
 73
    23
 74
     0
 42
0.000000001
 43
0.00000001
 40
0.0
 40
0.0
 40
0.0
 40
0.0
 40
0.0426606797130159
 40
0.0855935073501638
 40
0.1294123204536566
 40
0.1735509225916229
 40
0.2162236415773951
 40
0.259214221822267
 40
0.3032398763005412
 40
0.347637005878936
 40
0.3881390265361978
 40
0.4706287588869477
 40
0.5127326489496061
 40
0.5516617646075228
 40
0.6308467217350716
 40
0.6711909916320593
 40
0.7102149879120531
 40
0.7895062952710816
 40
0.8298451975719411
 40
0.8716915672084714
 40
0.9567335501971311
 40
1.0
 40
1.0
 40
1.0
 40
1.0
 10
380.3661151974615
 20
218.7611850427512
 30
0.0
 10
380.4021912289069
 20
218.7941796342454
 30
0.0
 10
380.4745734338662
 20
218.8603793016808
 30
0.0
 10
380.592744230466
 20
218.979768020911
 30
0.0
 10
380.7178132961485
 20
219.1145798393377
 30
0.0
 10
380.8479992899341
 20
219.2642267000057
 30
0.0
 10
380.9814097095348
 20
219.4266163196583
 30
0.0
 10
381.1177022257812
 20
219.6015978550707
 30
0.0
 10
381.2577176892849
 20
219.7908818652277
 30
0.0
 10
381.395776729707
 20
219.9872567810942
 30
0.0
 10
381.5741837493483
 20
220.2534510778777
 30
0.0
 10
381.7473603348
 20
220.5302197786688
 30
0.0
 10
381.9111378683335
 20
220.8111946996648
 30
0.0
 10
382.0656719855516
 20
221.0890407571686
 30
0.0
 10
382.2086217187664
 20
221.3651740892627
 30
0.0
 10
382.3383130521838
 20
221.6357637101923
 30
0.0
 10
382.4587292449861
 20
221.9012170181372
 30
0.0
 10
382.5643762480632
 20
222.1564622038592
 30
0.0
 10
382.6551086530851
 20
222.3999372175657
 30
0.0
 10
382.7368244977648
 20
222.6389724552482
 30
0.0
 10
382.802113053295
 20
222.861926706277
 30
0.0
 10
382.8339643754722
 20
223.0057351022487
 30
0.0
 10
382.8447048513876
 20
223.0542282418668
 30
0.0
  0
SPLINE
  5
337
330
1F
100
AcDbEntity
  8
0
  6
Continuous
 62
     7
370
    15
100
AcDbSpline
210
0.0
220
0.0
230
1.0
 70
     8
 71
     3
 72
    16
 73
    12
 74
     0
 42
0.000000001
 43
0.00000001
 40
0.0
 40
0.0
 40
0.0
 40
0.0
 40
0.1245749872501313
 40
0.2522965301460501
 40
0.3770193056408622
 40
0.5060351398638093
 40
0.6204452207887817
 40
0.738239216382451
 40
0.852407945019727
 40
0.9691919620656593
 40
1.0
 40
1.0
 40
1.0
 40
1.0
 10
376.5129646022113
 20
214.6937752097184
 30
0.0
 10
376.6782474566218
 20
214.8855776606649
 30
0.0
 10
377.01298793367
 20
215.2740271714016
 30
0.0
 10
377.5530555297527
 20
215.8706079665493
 30
0.0
 10
378.1081909092971
 20
216.4707456794891
 30
0.0
 10
378.6364049043399
 20
217.0318878354705
 30
0.0
 10
379.1265940652115
 20
217.5454195618089
 30
0.0
 10
379.559452171928
 20
217.9903129840628
 30
0.0
 10
379.9495184762179
 20
218.378030127626
 30
0.0
 10
380.2077591246049
 20
218.6212045786561
 30
0.0
 10
380.3387685754951
 20
218.7370117176287
 30
0.0
 10
380.3661151974615
 20
218.7611850427512
 30
0.0
  0
SPLINE
  5
338
330
1F
100
AcDbEntity
  8
0
  6
Continuous
 62
     7
370
    15
100
AcDbSpline
210
0.0
220
0.0
230
1.0
 70
     8
 71
     3
 72
    27
 73
    23
 74
     0
 42
0.000000001
 43
0.00000001
 40
0.0
 40
0.0
 40
0.0
 40
0.0
 40
0.0426595515913585
 40
0.085591229109418
 40
0.1294088172946969
 40
0.1735461665116081
 40
0.2162189802957546
 40
0.2592096562954081
 40
0.3032354101213977
 40
0.3476326405610928
 40
0.3881347241804662
 40
0.4706245875036418
 40
0.5127285464348412
 40
0.5516576810990643
 40
0.6308426793933664
 40
0.6711869720193653
 40
0.7102109458126531
 40
0.7895022093598649
 40
0.8298410906384271
 40
0.8716884353548237
 40
0.9567324688438382
 40
1.0
 40
1.0
 40
1.0
 40
1.0
 10
373.007709498072
 20
212.6702345103736
 30
0.0
 10
373.0208941011078
 20
212.6475320873037
 30
0.0
 10
373.0473474119622
 20
212.6019824220627
 30
0.0
 10
373.1071620619107
 20
212.5498564293484
 30
0.0
 10
373.1823399388718
 20
212.5107215752485
 30
0.0
 10
373.2733411682599
 20
212.4873018089953
 30
0.0
 10
373.3785437527333
 20
212.4796560733699
 30
0.0
 10
373.4977088270586
 20
212.4879468874582
 30
0.0
 10
373.6320781574002
 20
212.5130227761886
 30
0.0
 10
373.7765241803024
 20
212.5544004971578
 30
0.0
 10
373.9781843667969
 20
212.6288533549076
 30
0.0
 10
374.1958266536694
 20
212.7318488223908
 30
0.0
 10
374.424270219631
 20
212.8610908504066
 30
0.0
 10
374.6547952638184
 20
213.0041191466865
 30
0.0
 10
374.8905645936538
 20
213.1681222934517
 30
0.0
 10
375.1284391507577
 20
213.3505332242379
 30
0.0
 10
375.3664758597944
 20
213.543916998594
 30
0.0
 10
375.6026372221943
 20
213.751680378183
 30
0.0
 10
375.8359515083795
 20
213.9723531106819
 30
0.0
 10
376.0713332808542
 20
214.2059381983071
 30
0.0
 10
376.3007040285246
 20
214.4494165657186
 30
0.0
 10
376.4594383206889
 20
214.6321546772569
 30
0.0
 10
376.5129646022113
 20
214.6937752097184
 30
0.0
  0
SPLINE
  5
339
330
1F
100
AcDbEntity
  8
0
  6
Continuous
 62
     7
370
    15
100
AcDbSpline
210
0.0
220
0.0
230
1.0
 70
     8
 71
     3
 72
    16
 73
    12
 74
     0
 42
0.000000001
 43
0.00000001
 40
0.0
 40
0.0
 40
0.0
 40
0.0
 40
0.1248710696268426
 40
0.2528983544618336
 40
0.3779145965856618
 40
0.5072218623673356
 40
0.6220810633072301
 40
0.7403195802979521
 40
0.8552389276217846
 40
0.9727845549775287
 40
1.0
 40
1.0
 40
1.0
 40
1.0
 10
369.1850553613722
 20
212.3022571095203
 30
0.0
 10
369.4214335409154
 20
212.4006770205962
 30
0.0
 10
369.9001645457494
 20
212.6000044839691
 30
0.0
 10
370.5908985451015
 20
212.8240303832444
 30
0.0
 10
371.2408668984392
 20
212.9863103897875
 30
0.0
 10
371.7953832053393
 20
213.0696181609349
 30
0.0
 10
372.2491887483314
 20
213.080008580515
 30
0.0
 10
372.5924893320519
 20
213.0246963066515
 30
0.0
 10
372.8415402275242
 20
212.9055538768253
 30
0.0
 10
372.9591538710272
 20
212.7748635366263
 30
0.0
 10
373.0000255245951
 20
212.6867921518167
 30
0.0
 10
373.007709498072
 20
212.6702345103736
 30
0.0
  0
SPLINE
  5
33A
330
1F
100
AcDbEntity
  8
0
  6
Continuous
 62
     7
370
    15
100
AcDbSpline
210
0.0
220
0.0
230
1.0
 70
     8
 71
     3
 72
    27
 73
    23
 74
     0
 42
0.000000001
 43
0.00000001
 40
0.0
 40
0.0
 40
0.0
 40
0.0
 40
0.0317262444763785
 40
0.1390819092625251
 40
0.1719033606729606
 40
0.203724627347931
 40
0.3113876835766108
 40
0.3443169601053431
 40
0.3744956040407963
 40
0.4765840418984186
 40
0.507791297184669
 40
0.5592923351384466
 40
0.6116722403150368
 40
0.6646229377021603
 40
0.7161771931744687
 40
0.7685568366486656
 40
0.821458179893548
 40
0.8543103419585618
 40
0.8873026157860537
 40
0.9319323035353494
 40
0.9658962945750467
 40
1.0
 40
1.0
 40
1.0
 40
1.0
 10
366.6887113240942
 20
213.7438343268504
 30
0.0
 10
366.6661041394332
 20
213.6998694742215
 30
0.0
 10
366.5669984791956
 20
213.5071358007287
 30
0.0
 10
366.4876262642171
 20
213.2724969551999
 30
0.0
 10
366.4491660031691
 20
213.0504214573439
 30
0.0
 10
366.4307682391536
 20
212.8345777577986
 30
0.0
 10
366.4564375412754
 20
212.6343896604617
 30
0.0
 10
366.5262189566895
 20
212.461387239718
 30
0.0
 10
366.6126066360385
 20
212.3054459459938
 30
0.0
 10
366.737748290461
 20
212.1761663021472
 30
0.0
 10
366.9189997583862
 20
212.0650099587232
 30
0.0
 10
367.0690793730417
 20
211.9996283127375
 30
0.0
 10
367.2665339764432
 20
211.9479631363534
 30
0.0
 10
367.4850225116863
 20
211.9212077435486
 30
0.0
 10
367.721388025402
 20
211.9191284640786
 30
0.0
 10
367.9725166721219
 20
211.9410783500265
 30
0.0
 10
368.204258385385
 20
211.9810714827837
 30
0.0
 10
368.4088391837543
 20
212.0291400828791
 30
0.0
 10
368.6022562406827
 20
212.0832043177276
 30
0.0
 10
368.800377730735
 20
212.1486603898767
 30
0.0
 10
369.001929217823
 20
212.2243250162334
 30
0.0
 10
369.1239298415134
 20
212.2762442223184
 30
0.0
 10
369.1850553613722
 20
212.3022571095203
 30
0.0
  0
SPLINE
  5
33B
330
1F
100
AcDbEntity
  8
0
  6
Continuous
 62
     7
370
    15
100
AcDbSpline
210
0.0
220
0.0
230
1.0
 70
     8
 71
     3
 72
    15
 73
    11
 74
     0
 42
0.000000001
 43
0.00000001
 40
0.0
 40
0.0
 40
0.0
 40
0.0
 40
0.1255505115575911
 40
0.2542743051988525
 40
0.3799729809583506
 40
0.5099861143893022
 40
0.6254721503975564
 40
0.7443559600027062
 40
0.8704688384767278
 40
1.0
 40
1.0
 40
1.0
 40
1.0
 10
365.1071166773459
 20
217.2400394476812
 30
0.0
 10
365.3116501386792
 20
217.1672398527402
 30
0.0
 10
365.725886633021
 20
217.0198006572105
 30
0.0
 10
366.2430554921367
 20
216.6957519450008
 30
0.0
 10
366.6603790930465
 20
216.2974932635378
 30
0.0
 10
366.9336293930385
 20
215.8476514866991
 30
0.0
 10
367.0691330989542
 20
215.3619648737341
 30
0.0
 10
367.0748582012696
 20
214.8532140134614
 30
0.0
 10
366.9591914058659
 20
214.3079725585407
 30
0.0
 10
366.779671487216
 20
213.9335492413154
 30
0.0
 10
366.6887113240942
 20
213.7438343268504
 30
0.0
  0
SPLINE
  5
33C
330
1F
100
AcDbEntity
  8
0
  6
Continuous
 62
     7
370
    15
100
AcDbSpline
210
0.0
220
0.0
230
1.0
 70
     8
 71
     3
 72
    19
 73
    15
 74
     0
 42
0.000000001
 43
0.00000001
 40
0.0
 40
0.0
 40
0.0
 40
0.0
 40
0.0848173163342526
 40
0.1719666277871844
 40
0.2568445119593704
 40
0.3444496558075538
 40
0.4249502760439853
 40
0.5079899722588894
 40
0.5852601899258988
 40
0.664775559479433
 40
0.7421311118706733
 40
0.8215724484076486
 40
0.9094422875434554
 40
1.0
 40
1.0
 40
1.0
 40
1.0
 10
365.1071166773459
 20
221.3167730215715
 30
0.0
 10
364.9757924337149
 20
221.2084234180197
 30
0.0
 10
364.7095332746189
 20
220.9887452113732
 30
0.0
 10
364.375305343874
 20
220.60456639167
 30
0.0
 10
364.0992786634731
 20
220.1871906644228
 30
0.0
 10
363.9042936848237
 20
219.7595577669797
 30
0.0
 10
363.7893600956867
 20
219.3302004986218
 30
0.0
 10
363.7569300934569
 20
218.9261340775926
 30
0.0
 10
363.8017969454897
 20
218.5441839168032
 30
0.0
 10
363.9177304852848
 20
218.2009655338633
 30
0.0
 10
364.1030348832962
 20
217.8933518118019
 30
0.0
 10
364.3600672688979
 20
217.6233422647285
 30
0.0
 10
364.6913457886687
 20
217.3926546340691
 30
0.0
 10
364.9671414979703
 20
217.2914195194271
 30
0.0
 10
365.1071166773459
 20
217.2400394476812
 30
0.0
  0
SPLINE
  5
33D
330
1F
100
AcDbEntity
  8
0
  6
Continuous
 62
     7
370
    15
100
AcDbSpline
210
0.0
220
0.0
230
1.0
 70
     8
 71
     3
 72
    15
 73
    11
 74
     0
 42
0.000000001
 43
0.00000001
 40
0.0
 40
0.0
 40
0.0
 40
0.0
 40
0.125552393856281
 40
0.2542782239303527
 40
0.3799765823769397
 40
0.509989377257404
 40
0.6254752754523858
 40
0.7443589279954808
 40
0.8704703861780991
 40
1.0
 40
1.0
 40
1.0
 40
1.0
 10
366.6887113240941
 20
226.6390484525384
 30
0.0
 10
366.7771426076474
 20
226.4171486859336
 30
0.0
 10
366.9562403455012
 20
225.9677404603331
 30
0.0
 10
367.0764340111688
 20
225.2395281597144
 30
0.0
 10
367.0682232655175
 20
224.484207424882
 30
0.0
 10
366.9156280216288
 20
223.7559259161589
 30
0.0
 10
366.6345067935284
 20
223.0691199513816
 30
0.0
 10
366.2416919994347
 20
222.4357467042725
 30
0.0
 10
365.7341431889183
 20
221.8353437211108
 30
0.0
 10
365.317980340882
 20
221.4911639213009
 30
0.0
 10
365.1071166773459
 20
221.3167730215715
 30
0.0
  0
SPLINE
  5
33E
330
1F
100
AcDbEntity
  8
0
  6
Continuous
 62
     7
370
    15
100
AcDbSpline
210
0.0
220
0.0
230
1.0
 70
     8
 71
     3
 72
    27
 73
    23
 74
     0
 42
0.000000001
 43
0.00000001
 40
0.0
 40
0.0
 40
0.0
 40
0.0
 40
0.0422828649192644
 40
0.084835382777123
 40
0.1282658983749433
 40
0.1720133992495618
 40
0.2143082379527554
 40
0.3004702161960706
 40
0.3444766527369017
 40
0.3845903072283666
 40
0.4662920781676033
 40
0.5079960069610675
 40
0.5465061701194581
 40
0.6248417087251631
 40
0.664755141297697
 40
0.7033134157795009
 40
0.7816605130082748
 40
0.8215204526377662
 40
0.8653031541555869
 40
0.9094168769478731
 40
0.9545415235882092
 40
1.0
 40
1.0
 40
1.0
 40
1.0
 10
369.1850553613722
 20
230.9628431455858
 30
0.0
 10
369.1092381578687
 20
230.9535241623643
 30
0.0
 10
368.9571202374629
 20
230.9348267654353
 30
0.0
 10
368.7279964047458
 20
230.881478434241
 30
0.0
 10
368.4987640250699
 20
230.8086176663515
 30
0.0
 10
368.2740686568943
 20
230.7150726227018
 30
0.0
 10
367.9829587721692
 20
230.5645510695793
 30
0.0
 10
367.7054560305022
 20
230.3748997179535
 30
0.0
 10
367.4536048821764
 20
230.1531203203273
 30
0.0
 10
367.2239920244683
 20
229.916879670516
 30
0.0
 10
367.022207085106
 20
229.6565939896229
 30
0.0
 10
366.8528503681672
 20
229.3783923709366
 30
0.0
 10
366.7073341367412
 20
229.0948124567005
 30
0.0
 10
366.5941290918557
 20
228.8006577101264
 30
0.0
 10
366.5145391817995
 20
228.4999985113959
 30
0.0
 10
366.4574128802286
 20
228.1968224956441
 30
0.0
 10
366.434167638428
 20
227.8924862718359
 30
0.0
 10
366.445355656066
 20
227.5839369355695
 30
0.0
 10
366.4733349213867
 20
227.3449226364685
 30
0.0
 10
366.5233697389127
 20
227.1029512321279
 30
0.0
 10
366.5930938977119
 20
226.8655471550596
 30
0.0
 10
366.6567606374007
 20
226.7147332869305
 30
0.0
 10
366.6887113240941
 20
226.6390484525384
 30
0.0
  0
SPLINE
  5
33F
330
1F
100
AcDbEntity
  8
0
  6
Continuous
 62
     7
370
    15
100
AcDbSpline
210
0.0
220
0.0
230
1.0
 70
     8
 71
     3
 72
    11
 73
     7
 74
     0
 42
0.000000001
 43
0.00000001
 40
0.0
 40
0.0
 40
0.0
 40
0.0
 40
0.2537719365525911
 40
0.5087159351989531
 40
0.7421854335094623
 40
1.0
 40
1.0
 40
1.0
 40
1.0
 10
373.0077094980721
 20
235.0273602857261
 30
0.0
 10
372.9017484326735
 20
234.4974639867689
 30
0.0
 10
372.6893369138461
 20
233.4352240285431
 30
0.0
 10
371.8189860266979
 20
232.1412865994378
 30
0.0
 10
370.6033337287067
 20
231.2391060692763
 30
0.0
 10
369.673179097237
 20
231.0579235568073
 30
0.0
 10
369.1850553613722
 20
230.9628431455858
 30
0.0
  0
SPLINE
  5
340
330
1F
100
AcDbEntity
  8
0
  6
Continuous
 62
     7
370
    15
100
AcDbSpline
210
0.0
220
0.0
230
1.0
 70
     8
 71
     3
 72
    27
 73
    23
 74
     0
 42
0.000000001
 43
0.00000001
 40
0.0
 40
0.0
 40
0.0
 40
0.0
 40
0.0426595515913602
 40
0.08559122910942
 40
0.1294088172947009
 40
0.1735461665116131
 40
0.2162189802957603
 40
0.2592096562954143
 40
0.3032354101214046
 40
0.3476326405611017
 40
0.3881347241804755
 40
0.4706245875036517
 40
0.5127285464348519
 40
0.5516576810990759
 40
0.6308426793933793
 40
0.6711869720193783
 40
0.710210945812667
 40
0.789502209359879
 40
0.8298410906384412
 40
0.8716884353548346
 40
0.9567324688438414
 40
1.0
 40
1.0
 40
1.0
 40
1.0
 10
376.5129646022114
 20
237.0509009850707
 30
0.0
 10
376.4602249451591
 20
237.0964380547753
 30
0.0
 10
376.3544092039821
 20
237.1878026758427
 30
0.0
 10
376.1844326219683
 20
237.303523798278
 30
0.0
 10
376.0060544606852
 20
237.4022349084006
 30
0.0
 10
375.8217123306569
 20
237.4795392296284
 30
0.0
 10
375.6336840228111
 20
237.5349992376014
 30
0.0
 10
375.4421567310735
 20
237.5684822424444
 30
0.0
 10
375.2456856844821
 20
237.5792569114045
 30
0.0
 10
375.0519920825621
 20
237.5663092126522
 30
0.0
 10
374.8014713055171
 20
237.5200629734324
 30
0.0
 10
374.5576835636821
 20
237.432160955826
 30
0.0
 10
374.3261952597281
 20
237.3046766176397
 30
0.0
 10
374.1071590118168
 20
237.1550159804429
 30
0.0
 10
373.9036593498545
 20
236.9723839509414
 30
0.0
 10
373.7184328278015
 20
236.759579956455
 30
0.0
 10
373.5462198303187
 20
236.528196962255
 30
0.0
 10
373.3950801503798
 20
236.2713516101204
 30
0.0
 10
373.2660555903315
 20
235.990473700226
 30
0.0
 10
373.1509101116563
 20
235.6874776776436
 30
0.0
 10
373.0610668333849
 20
235.3634518166497
 30
0.0
 10
373.0211647512151
 20
235.1121133304816
 30
0.0
 10
373.0077094980721
 20
235.0273602857261
 30
0.0
  0
LINE
  5
341
330
1F
100
AcDbEntity
  8
0
  6
Continuous
 62
     7
370
    15
100
AcDbLine
 10
366.6887113241
 20
226.6390484525
 30
0.0
 11
360.7276230426
 21
230.0803114681
 31
0.0
  0
ARC
  5
342
330
1F
100
AcDbEntity
  8
0
  6
Continuous
 62
     7
370
    15
100
AcDbCircle
 10
365.0204128532
 20
230.4843979077
 30
0.0
 40
4.311766483523281
100
AcDbArc
 50
114.6225117091
 51
185.3774881453
  0
LINE
  5
343
330
1F
100
AcDbEntity
  8
0
  6
Continuous
 62
     7
370
    15
100
AcDbLine
 10
369.1850553614
 20
230.9628431456
 30
0.0
 11
363.2239670799
 21
234.4041061611
 31
0.0
  0
ARC
  5
344
330
1F
100
AcDbEntity
  8
0
  6
Continuous
 62
     7
370
    15
100
AcDbCircle
 10
360.217289986
 20
241.0785620339
 30
0.0
 40
7.320414492627818
100
AcDbArc
 50
294.2503850307
 51
339.073131428
  0
LINE
  5
345
330
1F
100
AcDbEntity
  8
0
  6
Continuous
 62
     7
370
    15
100
AcDbLine
 10
373.0077094981
 20
235.0273602857
 30
0.0
 11
367.0548285711
 21
238.4638852964
 31
0.0
  0
LINE
  5
346
330
1F
100
AcDbEntity
  8
0
  6
Continuous
 62
     7
370
    15
100
AcDbLine
 10
365.1071166773
 20
221.3167730216
 30
0.0
 11
359.1460283959
 21
224.7580360371
 31
0.0
  0
ARC
  5
347
330
1F
100
AcDbEntity
  8
0
  6
Continuous
 62
     7
370
    15
100
AcDbCircle
 10
353.455528006
 20
229.3451894014
 30
0.0
 40
7.309156632222358
100
AcDbArc
 50
321.127462406
 51
5.7723111516
  0
LWPOLYLINE
  5
348
330
1F
100
AcDbEntity
  8
0
  6
Continuous
 62
     7
370
    15
100
AcDbPolyline
 90
        9
 70
   128
 43
0.0
 10
359.1460283959
 20
224.7580360371
 10
358.7519091406
 20
224.1388318767
 10
358.4521553879
 20
223.4751459469
 10
358.2647809143
 20
222.8068626187
 10
358.2010460352
 20
222.1741425453
 10
358.2647809143
 20
221.6150091968
 10
358.4521553879
 20
221.163063831
 10
358.7519091406
 20
220.8454662173
 10
358.8224321417
 20
220.8007322043
  0
LWPOLYLINE
  5
349
330
1F
100
AcDbEntity
  8
0
  6
Continuous
 62
     7
370
    15
100
AcDbPolyline
 90
        9
 70
   128
 43
0.0
 10
370.3073342221
 20
240.6937290881
 10
370.220901759
 20
240.7381808267
 10
369.7986122857
 20
240.8335565714
 10
369.3180449662
 20
240.7679453418
 10
368.8074561232
 20
240.5452049367
 10
368.2968672801
 20
240.1784320118
 10
367.8162999606
 20
239.6891920246
 10
367.3940104873
 20
239.1062512321
 10
367.0548285711
 20
238.4638852964
  0
ARC
  5
34A
330
1F
100
AcDbEntity
  8
0
  6
Continuous
 62
     7
370
    15
100
AcDbCircle
 10
363.5380923354
 20
231.3401577209
 30
0.0
 40
2.854112834555675
100
AcDbArc
 50
122.3295708564
 51
177.6758056763
  0
LINE
  5
34B
330
1F
100
AcDbEntity
  8
0
  6
Continuous
 62
     7
370
    15
100
AcDbLine
 10
366.919733145
 20
238.7921625426
 30
0.0
 11
367.0548285711
 21
238.4638852964
 31
0.0
  0
ARC
  5
34C
330
1F
100
AcDbEntity
  8
0
  6
Continuous
 62
     7
370
    15
100
AcDbCircle
 10
357.7066708682
 20
242.6080276457
 30
0.0
 40
9.972028028483514
100
AcDbArc
 50
306.0504133382
 51
337.5016468593
  0
LINE
  5
34D
330
1F
100
AcDbEntity
  8
0
  6
Continuous
 62
     7
370
    15
100
AcDbLine
 10
359.1460283959
 20
224.7580360371
 30
0.0
 11
358.7916279958
 21
224.7074475644
 31
0.0
  0
ARC
  5
34E
330
1F
100
AcDbEntity
  8
0
  6
Continuous
 62
     7
370
    15
100
AcDbCircle
 10
351.1283695673
 20
230.6516580377
 30
0.0
 40
9.69841058591564
100
AcDbArc
 50
322.2001030586
 51
354.4044142681
  0
ARC
  5
34F
330
1F
100
AcDbEntity
  8
0
  6
Continuous
 62
     7
370
    15
100
AcDbCircle
 10
371.8596224762
 20
243.5678267255
 30
0.0
 40
3.715621753520935
100
AcDbArc
 50
268.5079212117
 51
313.4138920193
  0
LINE
  5
350
330
1F
100
AcDbEntity
  8
0
  6
Continuous
 62
     7
370
    15
100
AcDbLine
 10
380.3661151975
 20
237.4322441349
 30
0.0
 11
374.4132342705
 21
240.8687691456
 31
0.0
  0
LINE
  5
351
330
1F
100
AcDbEntity
  8
0
  6
Continuous
 62
     7
370
    15
100
AcDbLine
 10
366.6887113241
 20
213.7438343269
 30
0.0
 11
360.7276230426
 21
217.1850973424
 31
0.0
  0
ARC
  5
352
330
1F
100
AcDbEntity
  8
0
  6
Continuous
 62
     7
370
    15
100
AcDbCircle
 10
357.0214839624
 20
218.0074437052
 30
0.0
 40
3.796277179330825
100
AcDbArc
 50
347.4894629539
 51
30.9786145095
  0
ARC
  5
353
330
1F
100
AcDbEntity
  8
0
  6
Continuous
 62
     7
370
    15
100
AcDbCircle
 10
361.0433333554
 20
222.9685362954
 30
0.0
 40
2.844993748288678
100
AcDbArc
 50
142.3223785563
 51
177.5006351634
  0
ARC
  5
354
330
1F
100
AcDbEntity
  8
0
  6
Continuous
 62
     7
370
    15
100
AcDbCircle
 10
369.5346023005
 20
237.6923873738
 30
0.0
 40
2.836731591542863
100
AcDbArc
 50
122.4684420445
 51
157.1891002708
  0
LWPOLYLINE
  5
355
330
1F
100
AcDbEntity
  8
0
  6
Continuous
 62
     7
370
    15
100
AcDbPolyline
 90
        6
 70
   128
 43
0.0
 10
360.7276230426
 20
217.1850973424
 10
360.6887821108
 20
216.5638981108
 10
360.7772634212
 20
216.0232799875
 10
360.9877496673
 20
215.5957315532
 10
361.3075916259
 20
215.3069464374
 10
361.307713516
 20
215.3068760604
  0
ARC
  5
356
330
1F
100
AcDbEntity
  8
0
  6
Continuous
 62
     7
370
    15
100
AcDbCircle
 10
375.6748977157
 20
239.6551745359
 30
0.0
 40
1.750601760985981
100
AcDbArc
 50
68.8219074803
 51
136.1125285536
  0
LINE
  5
357
330
1F
100
AcDbEntity
  8
0
  6
Continuous
 62
     7
370
    15
100
AcDbLine
 10
373.7710763955
 20
240.5151000032
 30
0.0
 11
374.4132342705
 21
240.8687691456
 31
0.0
  0
LINE
  5
358
330
1F
100
AcDbEntity
  8
0
  6
Continuous
 62
     7
370
    15
100
AcDbLine
 10
373.2842361026
 20
240.1505678559
 30
0.0
 11
373.7710763955
 21
240.5151000032
 31
0.0
  0
LINE
  5
359
330
1F
100
AcDbEntity
  8
0
  6
Continuous
 62
     7
370
    15
100
AcDbLine
 10
360.7276230426
 20
217.1850973424
 30
0.0
 11
360.7121357811
 21
217.9142352629
 31
0.0
  0
LINE
  5
35A
330
1F
100
AcDbEntity
  8
0
  6
Continuous
 62
     7
370
    15
100
AcDbLine
 10
360.7121357811
 20
217.9142352629
 30
0.0
 11
360.780566404
 21
218.4943407829
 31
0.0
  0
LWPOLYLINE
  5
35B
330
1F
100
AcDbEntity
  8
0
  6
Continuous
 62
     7
370
    15
100
AcDbPolyline
 90
       20
 70
   128
 43
0.0
 10
359.8963886999
 20
226.9463278897
 10
359.6617370206
 20
227.1065509354
 10
359.2640651846
 20
227.532809369
 10
358.9710556233
 20
228.0892666771
 10
358.7916112836
 20
228.759015186
 10
358.7311844913
 20
229.5217049261
 10
358.7916112836
 20
230.3541619557
 10
358.9710556233
 20
231.2310924891
 10
359.2640651846
 20
232.1258514358
 10
359.6617370206
 20
233.0112519981
 10
360.1519880735
 20
233.8603917278
 10
360.7199223134
 20
234.6474699439
 10
361.3482833455
 20
235.3485716732
 10
362.0179787381
 20
235.9423942943
 10
362.7086601354
 20
236.4108948075
 10
363.3993415328
 20
236.7398380616
 10
364.0690369253
 20
236.9192292824
 10
364.6973979575
 20
236.9436177584
 10
365.2653321973
 20
236.8122624581
 10
365.520931571
 20
236.6893775915
  0
LINE
  5
35C
330
1F
100
AcDbEntity
  8
0
  6
Continuous
 62
     7
370
    15
100
AcDbLine
 10
360.6863274095
 20
217.5987455271
 30
0.0
 11
360.7121357811
 21
217.9142352629
 31
0.0
  0
LINE
  5
35D
330
1F
100
AcDbEntity
  8
0
  6
Continuous
 62
     7
370
    15
100
AcDbLine
 10
373.7710763955
 20
240.5151000032
 30
0.0
 11
374.0117455105
 21
240.679516742
 31
0.0
  0
LWPOLYLINE
  5
35E
330
1F
100
AcDbEntity
  8
0
  6
Continuous
 62
     7
370
    15
100
AcDbPolyline
 90
       14
 70
   128
 43
0.0
 10
357.2197437465
 20
231.0983930921
 10
357.2806005941
 20
231.8694806269
 10
357.460971612
 20
232.6829628698
 10
357.7543377215
 20
233.5094384531
 10
358.1500959072
 20
234.3190363958
 10
358.6339424371
 20
235.0824957188
 10
359.1883898369
 20
235.7722230131
 10
359.793398933
 20
236.3632897372
 10
360.4271031203
 20
236.8343331997
 10
361.0665986784
 20
237.1683286624
 10
361.6887725717
 20
237.3532046593
 10
362.2711378146
 20
237.3822792901
 10
362.7926462098
 20
237.2545017218
 10
362.968396274
 20
237.1670226154
  0
ARC
  5
35F
330
1F
100
AcDbEntity
  8
0
  6
Continuous
 62
     7
370
    15
100
AcDbCircle
 10
359.5658727984
 20
230.8464582426
 30
0.0
 40
2.359617065669735
100
AcDbArc
 50
173.8708823336
 51
234.816937273
  0
LINE
  5
360
330
1F
100
AcDbEntity
  8
0
  6
Continuous
 62
     7
370
    15
100
AcDbLine
 10
359.4736466115
 20
259.6509462042
 30
0.0
 11
359.4736466115
 21
260.5693555674
 31
0.0
  0
LINE
  5
361
330
1F
100
AcDbEntity
  8
0
  6
Continuous
 62
     7
370
    15
100
AcDbLine
 10
349.3973749796
 20
244.7599266074
 30
0.0
 11
349.3973749796
 21
254.7524477707
 31
0.0
  0
LINE
  5
362
330
1F
100
AcDbEntity
  8
0
  6
Continuous
 62
     7
370
    15
100
AcDbLine
 10
359.4736466115
 20
260.5693555674
 30
0.0
 11
349.3973749796
 21
254.7524477707
 31
0.0
  0
LINE
  5
363
330
1F
100
AcDbEntity
  8
0
  6
Continuous
 62
     7
370
    15
100
AcDbLine
 10
345.1547342925
 20
257.2016721062
 30
0.0
 11
355.2310059244
 21
263.0185799029
 31
0.0
  0
LINE
  5
364
330
1F
100
AcDbEntity
  8
0
  6
Continuous
 62
     7
370
    15
100
AcDbLine
 10
355.2310059244
 20
263.0185799029
 30
0.0
 11
359.4736466115
 21
260.5693555674
 31
0.0
  0
LINE
  5
365
330
1F
100
AcDbEntity
  8
0
  6
Continuous
 62
     7
370
    15
100
AcDbLine
 10
349.3973749796
 20
254.7524477707
 30
0.0
 11
345.1547342925
 21
257.2016721062
 31
0.0
  0
LINE
  5
366
330
1F
100
AcDbEntity
  8
0
  6
Continuous
 62
     7
370
    15
100
AcDbLine
 10
345.1547342925
 20
242.5722695152
 30
0.0
 11
345.1547342925
 21
257.2016721062
 31
0.0
  0
LINE
  5
367
330
1F
100
AcDbEntity
  8
0
  6
Continuous
 62
     7
370
    15
100
AcDbLine
 10
338.9243757092
 20
239.2158194458
 30
0.0
 11
332.4268122311
 21
235.4648558914
 31
0.0
  0
LINE
  5
368
330
1F
100
AcDbEntity
  8
0
  6
Continuous
 62
     7
370
    15
100
AcDbLine
 10
332.4268122311
 20
235.4648558914
 30
0.0
 11
325.7976861575
 21
239.2917689156
 31
0.0
  0
LINE
  5
369
330
1F
100
AcDbEntity
  8
0
  6
Continuous
 62
     7
370
    15
100
AcDbLine
 10
325.7976861575
 20
239.2917689156
 30
0.0
 11
326.0628512004
 21
239.4448454365
 31
0.0
  0
LINE
  5
36A
330
1F
100
AcDbEntity
  8
0
  6
Continuous
 62
     7
370
    15
100
AcDbLine
 10
326.0628512004
 20
239.4448454365
 30
0.0
 11
319.1685600839
 21
243.4248349817
 31
0.0
  0
LINE
  5
36B
330
1F
100
AcDbEntity
  8
0
  6
Continuous
 62
     7
370
    15
100
AcDbLine
 10
319.1685600839
 20
243.4248349817
 30
0.0
 11
318.9033950409
 21
243.2717584607
 31
0.0
  0
LINE
  5
36C
330
1F
100
AcDbEntity
  8
0
  6
Continuous
 62
     7
370
    15
100
AcDbLine
 10
318.9033950409
 20
243.2717584607
 30
0.0
 11
312.2742689673
 21
247.0986714849
 31
0.0
  0
LINE
  5
36D
330
1F
100
AcDbEntity
  8
0
  6
Continuous
 62
     7
370
    15
100
AcDbLine
 10
312.2742689673
 20
247.0986714849
 30
0.0
 11
318.7718324454
 21
250.8496350393
 31
0.0
  0
LWPOLYLINE
  5
36E
330
1F
100
AcDbEntity
  8
0
  6
Continuous
 62
     7
370
    15
100
AcDbPolyline
 90
       19
 70
   128
 43
0.0
 10
318.7718324454
 20
250.8496350393
 10
319.0109722321
 20
251.9229272283
 10
319.4345562549
 20
252.9770713154
 10
320.038350866
 20
254.0015313164
 10
320.8163212448
 20
254.9860679341
 10
321.7606917143
 20
255.9208408985
 10
322.8620234582
 20
256.7965073184
 10
324.1093088598
 20
257.6043150625
 10
325.4900815213
 20
258.3361902346
 10
326.9905408634
 20
258.9848178715
 10
328.5956900592
 20
259.5437150541
 10
330.2894859256
 20
260.0072957037
 10
332.0549992713
 20
260.3709264132
 10
333.8745841015
 20
260.630972758
 10
335.7300539867
 20
260.7848356206
 10
337.6028638322
 20
260.8309771688
 10
339.4742952338
 20
260.768936226
 10
341.3256435643
 20
260.5993328804
 10
343.1384049236
 20
260.3238622876
  0
LINE
  5
36F
330
1F
100
AcDbEntity
  8
0
  6
Continuous
 62
     7
370
    15
100
AcDbLine
 10
343.1384049236
 20
260.3238622876
 30
0.0
 11
351.7838603661
 21
265.3147774799
 31
0.0
  0
LINE
  5
370
330
1F
100
AcDbEntity
  8
0
  6
Continuous
 62
     7
370
    15
100
AcDbLine
 10
351.7838603661
 20
265.3147774799
 30
0.0
 11
355.2310059244
 21
263.3247827074
 31
0.0
  0
LINE
  5
371
330
1F
100
AcDbEntity
  8
0
  6
Continuous
 62
     7
370
    15
100
AcDbLine
 10
355.2310059244
 20
263.3247827074
 30
0.0
 11
345.0830955709
 21
257.4665187569
 31
0.0
  0
ARC
  5
372
330
1F
100
AcDbEntity
  8
0
  6
Continuous
 62
     7
370
    15
100
AcDbCircle
 10
337.5607023209
 20
234.5634774073
 30
0.0
 40
24.1067563821764
100
AcDbArc
 50
71.817483876
 51
91.9266827621
  0
LINE
  5
373
330
1F
100
AcDbEntity
  8
0
  6
Continuous
 62
     7
370
    15
100
AcDbLine
 10
336.750218206
 20
258.6566054477
 30
0.0
 11
336.9391599779
 21
258.2495366215
 31
0.0
  0
ARC
  5
374
330
1F
100
AcDbEntity
  8
0
  6
Continuous
 62
     7
370
    15
100
AcDbCircle
 10
337.3263609984
 20
235.3656992739
 30
0.0
 40
22.88711288875314
100
AcDbArc
 50
90.9693683435
 51
106.6167095222
  0
LINE
  5
375
330
1F
100
AcDbEntity
  8
0
  6
Continuous
 62
     7
370
    15
100
AcDbLine
 10
330.7813828353
 20
257.2970283998
 30
0.0
 11
330.5924410634
 21
257.7040972259
 31
0.0
  0
LWPOLYLINE
  5
376
330
1F
100
AcDbEntity
  8
0
  6
Continuous
 62
     7
370
    15
100
AcDbPolyline
 90
       16
 70
   128
 43
0.0
 10
330.5924410634
 20
257.7040972259
 10
329.1568702802
 20
257.2168883252
 10
327.8236969379
 20
256.6408187643
 10
326.6093524593
 20
255.9829886272
 10
325.528803696
 20
255.2515057006
 10
324.5953684612
 20
254.4553855451
 10
323.8205513871
 20
253.6044403784
 10
323.2139021299
 20
252.7091581389
 10
322.7828976696
 20
251.7805732212
 10
322.532850156
 20
250.8301304773
 10
322.4668414362
 20
249.8695441578
 10
322.5856850707
 20
248.9106535331
 10
322.8879163062
 20
247.9652769745
 10
323.3698101289
 20
247.0450662916
 10
324.0254271753
 20
246.1613631232
 10
324.8466869349
 20
245.3250591517
  0
LINE
  5
377
330
1F
100
AcDbEntity
  8
0
  6
Continuous
 62
     7
370
    15
100
AcDbLine
 10
324.8466869349
 20
245.3250591517
 30
0.0
 11
325.3628854555
 21
245.6230542147
 31
0.0
  0
ARC
  5
378
330
1F
100
AcDbEntity
  8
0
  6
Continuous
 62
     7
370
    15
100
AcDbCircle
 10
334.181872468
 20
255.6941952973
 30
0.0
 40
13.3866506128916
100
AcDbArc
 50
228.7923693783
 51
251.2130071544
  0
LINE
  5
379
330
1F
100
AcDbEntity
  8
0
  6
Continuous
 62
     7
370
    15
100
AcDbLine
 10
329.8706911855
 20
243.0207533582
 30
0.0
 11
329.354492665
 21
242.7227582953
 31
0.0
  0
LWPOLYLINE
  5
37A
330
1F
100
AcDbEntity
  8
0
  6
Continuous
 62
     7
370
    15
100
AcDbPolyline
 90
       16
 70
   128
 43
0.0
 10
329.354492665
 20
242.7227582953
 10
330.8031706014
 20
242.2486551276
 10
332.3339552515
 20
241.870175463
 10
333.9279796239
 20
241.5919840806
 10
335.565597295
 20
241.4175097021
 10
337.2266245515
 20
241.3489027322
 10
338.8905891561
 20
241.3870087551
 10
340.5369826683
 20
241.5313581121
 10
342.1455132125
 20
241.7801716909
 10
343.6963555756
 20
242.1303828526
 10
345.170395554
 20
242.5776752286
 10
346.5494655373
 20
243.1165359197
 10
347.8165684243
 20
243.7403234431
 10
348.9560871138
 20
244.4413495888
 10
349.9539769853
 20
245.2109741774
 10
350.7979390003
 20
246.0397115504
  0
LINE
  5
37B
330
1F
100
AcDbEntity
  8
0
  6
Continuous
 62
     7
370
    15
100
AcDbLine
 10
350.7979390003
 20
246.0397115504
 30
0.0
 11
350.0927987078
 21
246.1487853136
 31
0.0
  0
ARC
  5
37C
330
1F
100
AcDbEntity
  8
0
  6
Continuous
 62
     7
370
    15
100
AcDbCircle
 10
345.9172634274
 20
250.2471912045
 30
0.0
 40
5.850814107814517
100
AcDbArc
 50
315.5340937776
 51
354.6689833334
  0
LINE
  5
37D
330
1F
100
AcDbEntity
  8
0
  6
Continuous
 62
     7
370
    15
100
AcDbLine
 10
351.7427701204
 20
249.7035943918
 30
0.0
 11
352.4479104129
 21
249.5945206285
 31
0.0
  0
ARC
  5
37E
330
1F
100
AcDbEntity
  8
0
  6
Continuous
 62
     7
370
    15
100
AcDbCircle
 10
346.3803762534
 20
249.8412561437
 30
0.0
 40
6.072548821616005
100
AcDbArc
 50
357.6713573234
 51
48.7235086165
  0
LINE
  5
37F
330
1F
100
AcDbEntity
  8
0
  6
Continuous
 62
     7
370
    15
100
AcDbLine
 10
350.3863964297
 20
254.4049883376
 30
0.0
 11
360.5343067833
 21
260.263252288
 31
0.0
  0
LINE
  5
380
330
1F
100
AcDbEntity
  8
0
  6
Continuous
 62
     7
370
    15
100
AcDbLine
 10
360.5343067833
 20
260.263252288
 30
0.0
 11
363.9814523416
 21
258.2732575155
 31
0.0
  0
LINE
  5
381
330
1F
100
AcDbEntity
  8
0
  6
Continuous
 62
     7
370
    15
100
AcDbLine
 10
363.9814523416
 20
258.2732575155
 30
0.0
 11
355.3359968991
 21
253.2823423231
 31
0.0
  0
LWPOLYLINE
  5
382
330
1F
100
AcDbEntity
  8
0
  6
Continuous
 62
     7
370
    15
100
AcDbPolyline
 90
       19
 70
   128
 43
0.0
 10
355.3359968991
 20
253.2823423231
 10
355.8131776653
 20
252.2358574655
 10
356.1069711101
 20
251.1670968235
 10
356.2144408198
 20
250.0867424713
 10
356.1345126537
 20
249.0055923604
 10
355.8679854795
 20
247.9344523956
 10
355.4175231895
 20
246.884028432
 10
354.7876280748
 20
245.864819272
 10
353.9845958262
 20
244.8870117316
 10
353.0164526093
 20
243.9603788247
 10
351.8928748451
 20
243.0941820841
 10
350.6250924953
 20
242.2970789934
 10
349.2257768211
 20
241.5770364576
 10
347.7089137359
 20
240.9412511749
 10
346.0896640191
 20
240.3960777072
 10
344.3842117861
 20
239.9469649672
 10
342.6096027314
 20
239.5984017575
 10
340.7835737599
 20
239.3538719062
 10
338.9243757092
 20
239.2158194458
  0
LINE
  5
383
330
1F
100
AcDbEntity
  8
0
  6
Continuous
 62
     7
370
    15
100
AcDbLine
 10
338.9243757092
 20
192.6729931683
 30
0.0
 11
338.9243757092
 21
239.2158194458
 31
0.0
  0
LINE
  5
384
330
1F
100
AcDbEntity
  8
0
  6
Continuous
 62
     7
370
    15
100
AcDbLine
 10
338.9243757092
 20
192.6729931683
 30
0.0
 11
332.4268122311
 21
188.9220296139
 31
0.0
  0
LINE
  5
385
330
1F
100
AcDbEntity
  8
0
  6
Continuous
 62
     7
370
    15
100
AcDbLine
 10
332.4268122311
 20
188.9220296139
 30
0.0
 11
332.4268122311
 21
235.4648558914
 31
0.0
  0
LINE
  5
386
330
1F
100
AcDbEntity
  8
0
  6
Continuous
 62
     7
370
    15
100
AcDbLine
 10
332.4268122311
 20
188.9220296139
 30
0.0
 11
325.7976861575
 21
192.7489426381
 31
0.0
  0
LINE
  5
387
330
1F
100
AcDbEntity
  8
0
  6
Continuous
 62
     7
370
    15
100
AcDbLine
 10
325.7976861575
 20
192.7489426381
 30
0.0
 11
325.7976861575
 21
239.2917689156
 31
0.0
  0
LWPOLYLINE
  5
388
330
1F
100
AcDbEntity
  8
0
  6
Continuous
 62
     7
370
    15
100
AcDbPolyline
 90
       21
 70
   128
 43
0.0
 10
328.9796666728
 20
200.4043113247
 10
328.5699641499
 20
200.5658943969
 10
328.2003661645
 20
200.5617942725
 10
327.9070515426
 20
200.3924123002
 10
327.7187319629
 20
200.0743287677
 10
327.6538414581
 20
199.6386799072
 10
327.7187319629
 20
199.1281100647
 10
327.9070515426
 20
198.5925973735
 10
328.2003661645
 20
198.0845615472
 10
328.5699641499
 20
197.653732672
 10
328.9796666728
 20
197.3422832801
 10
329.3893691958
 20
197.1807002079
 10
329.7589671812
 20
197.1848003322
 10
330.0522818031
 20
197.3541823045
 10
330.2406013828
 20
197.6722658371
 10
330.3054918876
 20
198.1079146975
 10
330.2406013828
 20
198.6184845401
 10
330.0522818031
 20
199.1539972312
 10
329.7589671812
 20
199.6620330576
 10
329.3893691958
 20
200.0928619327
 10
328.9796666728
 20
200.4043113247
  0
LWPOLYLINE
  5
389
330
1F
100
AcDbEntity
  8
0
  6
Continuous
 62
     7
370
    15
100
AcDbPolyline
 90
       21
 70
   128
 43
0.0
 10
328.9796666728
 20
223.3695216589
 10
328.5699641499
 20
223.5311047312
 10
328.2003661645
 20
223.5270046068
 10
327.9070515426
 20
223.3576226345
 10
327.7187319629
 20
223.039539102
 10
327.6538414581
 20
222.6038902415
 10
327.7187319629
 20
222.0933203989
 10
327.9070515426
 20
221.5578077078
 10
328.2003661645
 20
221.0497718815
 10
328.5699641499
 20
220.6189430063
 10
328.9796666728
 20
220.3074936144
 10
329.3893691958
 20
220.1459105421
 10
329.7589671812
 20
220.1500106665
 10
330.0522818031
 20
220.3193926388
 10
330.2406013828
 20
220.6374761714
 10
330.3054918876
 20
221.0731250318
 10
330.2406013828
 20
221.5836948744
 10
330.0522818031
 20
222.1192075655
 10
329.7589671812
 20
222.6272433918
 10
329.3893691958
 20
223.058072267
 10
328.9796666728
 20
223.3695216589
  0
LWPOLYLINE
  5
38A
330
1F
100
AcDbEntity
  8
0
  6
Continuous
 62
     7
370
    15
100
AcDbPolyline
 90
       21
 70
   128
 43
0.0
 10
328.9796666728
 20
231.0245917704
 10
328.5699641499
 20
231.1861748426
 10
328.2003661645
 20
231.1820747182
 10
327.9070515426
 20
231.012692746
 10
327.7187319629
 20
230.6946092134
 10
327.6538414581
 20
230.2589603529
 10
327.7187319629
 20
229.7483905104
 10
327.9070515426
 20
229.2128778192
 10
328.2003661645
 20
228.7048419929
 10
328.5699641499
 20
228.2740131178
 10
328.9796666728
 20
227.9625637258
 10
329.3893691958
 20
227.8009806536
 10
329.7589671812
 20
227.805080778
 10
330.0522818031
 20
227.9744627502
 10
330.2406013828
 20
228.2925462828
 10
330.3054918876
 20
228.7281951433
 10
330.2406013828
 20
229.2387649858
 10
330.0522818031
 20
229.7742776769
 10
329.7589671812
 20
230.2823135033
 10
329.3893691958
 20
230.7131423784
 10
328.9796666728
 20
231.0245917704
  0
LWPOLYLINE
  5
38B
330
1F
100
AcDbEntity
  8
0
  6
Continuous
 62
     7
370
    15
100
AcDbPolyline
 90
       16
 70
   128
 43
0.0
 10
356.2149480471
 20
203.4642991058
 10
356.1345126537
 20
202.4627660829
 10
355.8679854795
 20
201.3916261181
 10
355.4175231895
 20
200.3412021545
 10
354.7876280748
 20
199.3219929945
 10
353.9845958262
 20
198.3441854541
 10
353.0164526093
 20
197.4175525472
 10
351.8928748451
 20
196.5513558066
 10
350.6250924953
 20
195.7542527159
 10
349.2257768211
 20
195.0342101801
 10
347.7089137359
 20
194.3984248974
 10
346.0896640191
 20
193.8532514297
 10
344.3842117861
 20
193.4041386897
 10
342.6096027314
 20
193.0555754801
 10
340.7835737599
 20
192.8110456287
 10
338.9243757092
 20
192.6729931683
  0
LINE
  5
38C
330
1F
100
AcDbEntity
  8
0
  6
Continuous
 62
     7
370
    15
100
AcDbLine
 10
325.7976861575
 20
193.05509568
 30
0.0
 11
319.1685600839
 21
196.8820087042
 31
0.0
  0
LINE
  5
38D
330
1F
100
AcDbEntity
  8
0
  6
Continuous
 62
     7
370
    15
100
AcDbLine
 10
319.1685600839
 20
196.8820087042
 30
0.0
 11
319.1685600839
 21
243.4248349817
 31
0.0
  0
LWPOLYLINE
  5
38E
330
1F
100
AcDbEntity
  8
0
  6
Continuous
 62
     7
370
    15
100
AcDbPolyline
 90
       21
 70
   128
 43
0.0
 10
322.6157056422
 20
204.3843008698
 10
322.2060031192
 20
204.545883942
 10
321.8364051338
 20
204.5417838177
 10
321.5430905119
 20
204.3724018454
 10
321.3547709322
 20
204.0543183128
 10
321.2898804274
 20
203.6186694523
 10
321.3547709322
 20
203.1080996098
 10
321.5430905119
 20
202.5725869187
 10
321.8364051338
 20
202.0645510923
 10
322.2060031192
 20
201.6337222172
 10
322.6157056422
 20
201.3222728252
 10
323.0254081651
 20
201.160689753
 10
323.3950061505
 20
201.1647898774
 10
323.6883207724
 20
201.3341718497
 10
323.8766403521
 20
201.6522553822
 10
323.9415308569
 20
202.0879042427
 10
323.8766403521
 20
202.5984740852
 10
323.6883207724
 20
203.1339867764
 10
323.3950061505
 20
203.6420226027
 10
323.0254081651
 20
204.0728514779
 10
322.6157056422
 20
204.3843008698
  0
LWPOLYLINE
  5
38F
330
1F
100
AcDbEntity
  8
0
  6
Continuous
 62
     7
370
    15
100
AcDbPolyline
 90
       21
 70
   128
 43
0.0
 10
322.6157056422
 20
219.6944410927
 10
322.2060031192
 20
219.8560241649
 10
321.8364051338
 20
219.8519240405
 10
321.5430905119
 20
219.6825420682
 10
321.3547709322
 20
219.3644585357
 10
321.2898804274
 20
218.9288096752
 10
321.3547709322
 20
218.4182398326
 10
321.5430905119
 20
217.8827271415
 10
321.8364051338
 20
217.3746913152
 10
322.2060031192
 20
216.94386244
 10
322.6157056422
 20
216.6324130481
 10
323.0254081651
 20
216.4708299758
 10
323.3950061505
 20
216.4749301002
 10
323.6883207724
 20
216.6443120725
 10
323.8766403521
 20
216.9623956051
 10
323.9415308569
 20
217.3980444655
 10
323.8766403521
 20
217.9086143081
 10
323.6883207724
 20
218.4441269992
 10
323.3950061505
 20
218.9521628255
 10
323.0254081651
 20
219.3829917007
 10
322.6157056422
 20
219.6944410927
  0
LWPOLYLINE
  5
390
330
1F
100
AcDbEntity
  8
0
  6
Continuous
 62
     7
370
    15
100
AcDbPolyline
 90
       21
 70
   128
 43
0.0
 10
322.6157056422
 20
235.0045813155
 10
322.2060031192
 20
235.1661643878
 10
321.8364051338
 20
235.1620642634
 10
321.5430905119
 20
234.9926822911
 10
321.3547709322
 20
234.6745987585
 10
321.2898804274
 20
234.2389498981
 10
321.3547709322
 20
233.7283800555
 10
321.5430905119
 20
233.1928673644
 10
321.8364051338
 20
232.6848315381
 10
322.2060031192
 20
232.2540026629
 10
322.6157056422
 20
231.9425532709
 10
323.0254081651
 20
231.7809701987
 10
323.3950061505
 20
231.7850703231
 10
323.6883207724
 20
231.9544522954
 10
323.8766403521
 20
232.2725358279
 10
323.9415308569
 20
232.7081846884
 10
323.8766403521
 20
233.218754531
 10
323.6883207724
 20
233.7542672221
 10
323.3950061505
 20
234.2623030484
 10
323.0254081651
 20
234.6931319236
 10
322.6157056422
 20
235.0045813155
  0
LINE
  5
391
330
1F
100
AcDbEntity
  8
0
  6
Continuous
 62
     7
370
    15
100
AcDbLine
 10
329.8706911855
 20
242.539617897
 30
0.0
 11
329.8706911855
 21
243.0207533582
 31
0.0
  0
LINE
  5
392
330
1F
100
AcDbEntity
  8
0
  6
Continuous
 62
     7
370
    15
100
AcDbLine
 10
318.9033950409
 20
196.7289321832
 30
0.0
 11
318.9033950409
 21
243.2717584607
 31
0.0
  0
LINE
  5
393
330
1F
100
AcDbEntity
  8
0
  6
Continuous
 62
     7
370
    15
100
AcDbLine
 10
318.9033950409
 20
196.7289321832
 30
0.0
 11
312.2742689673
 21
200.5558452074
 31
0.0
  0
LINE
  5
394
330
1F
100
AcDbEntity
  8
0
  6
Continuous
 62
     7
370
    15
100
AcDbLine
 10
312.2742689673
 20
200.5558452074
 30
0.0
 11
312.2742689673
 21
247.0986714849
 31
0.0
  0
LWPOLYLINE
  5
395
330
1F
100
AcDbEntity
  8
0
  6
Continuous
 62
     7
370
    15
100
AcDbPolyline
 90
       21
 70
   128
 43
0.0
 10
315.7214145256
 20
208.058137373
 10
315.3117120027
 20
208.2197204452
 10
314.9421140173
 20
208.2156203209
 10
314.6487993953
 20
208.0462383486
 10
314.4604798157
 20
207.728154816
 10
314.3955893109
 20
207.2925059555
 10
314.4604798157
 20
206.781936113
 10
314.6487993953
 20
206.2464234219
 10
314.9421140173
 20
205.7383875955
 10
315.3117120027
 20
205.3075587204
 10
315.7214145256
 20
204.9961093284
 10
316.1311170485
 20
204.8345262562
 10
316.5007150339
 20
204.8386263806
 10
316.7940296559
 20
205.0080083529
 10
316.9823492355
 20
205.3260918854
 10
317.0472397403
 20
205.7617407459
 10
316.9823492355
 20
206.2723105884
 10
316.7940296559
 20
206.8078232796
 10
316.5007150339
 20
207.3158591059
 10
316.1311170485
 20
207.7466879811
 10
315.7214145256
 20
208.058137373
  0
LWPOLYLINE
  5
396
330
1F
100
AcDbEntity
  8
0
  6
Continuous
 62
     7
370
    15
100
AcDbPolyline
 90
       21
 70
   128
 43
0.0
 10
315.7214145256
 20
231.0233477073
 10
315.3117120027
 20
231.1849307795
 10
314.9421140173
 20
231.1808306551
 10
314.6487993953
 20
231.0114486829
 10
314.4604798157
 20
230.6933651503
 10
314.3955893109
 20
230.2577162898
 10
314.4604798157
 20
229.7471464473
 10
314.6487993953
 20
229.2116337562
 10
314.9421140173
 20
228.7035979298
 10
315.3117120027
 20
228.2727690547
 10
315.7214145256
 20
227.9613196627
 10
316.1311170485
 20
227.7997365905
 10
316.5007150339
 20
227.8038367149
 10
316.7940296559
 20
227.9732186871
 10
316.9823492355
 20
228.2913022197
 10
317.0472397403
 20
228.7269510802
 10
316.9823492355
 20
229.2375209227
 10
316.7940296559
 20
229.7730336138
 10
316.5007150339
 20
230.2810694402
 10
316.1311170485
 20
230.7118983153
 10
315.7214145256
 20
231.0233477073
  0
LWPOLYLINE
  5
397
330
1F
100
AcDbEntity
  8
0
  6
Continuous
 62
     7
370
    15
100
AcDbPolyline
 90
       21
 70
   128
 43
0.0
 10
315.7214145256
 20
238.6784178187
 10
315.3117120027
 20
238.840000891
 10
314.9421140173
 20
238.8359007666
 10
314.6487993953
 20
238.6665187943
 10
314.4604798157
 20
238.3484352617
 10
314.3955893109
 20
237.9127864013
 10
314.4604798157
 20
237.4022165587
 10
314.6487993953
 20
236.8667038676
 10
314.9421140173
 20
236.3586680413
 10
315.3117120027
 20
235.9278391661
 10
315.7214145256
 20
235.6163897741
 10
316.1311170485
 20
235.4548067019
 10
316.5007150339
 20
235.4589068263
 10
316.7940296559
 20
235.6282887986
 10
316.9823492355
 20
235.9463723311
 10
317.0472397403
 20
236.3820211916
 10
316.9823492355
 20
236.8925910342
 10
316.7940296559
 20
237.4281037253
 10
316.5007150339
 20
237.9361395516
 10
316.1311170485
 20
238.3669684268
 10
315.7214145256
 20
238.6784178187
  0
LINE
  5
398
330
1F
100
AcDbEntity
  8
0
  6
Continuous
 62
     7
370
    15
100
AcDbLine
 10
319.1685600839
 20
196.8820087042
 30
0.0
 11
318.9033950409
 21
196.7289321832
 31
0.0
  0
LINE
  5
399
330
1F
100
AcDbEntity
  8
0
  6
Continuous
 62
     7
370
    15
100
AcDbLine
 10
330.5924410634
 20
242.3101535406
 30
0.0
 11
330.5924410634
 21
257.7040972259
 31
0.0
  0
LINE
  5
39A
330
1F
100
AcDbEntity
  8
0
  6
Continuous
 62
     7
370
    15
100
AcDbLine
 10
350.0927987078
 20
245.3336831746
 30
0.0
 11
350.0927987078
 21
246.1487853136
 31
0.0
  0
LINE
  5
39B
330
1F
100
AcDbEntity
  8
0
  6
Continuous
 62
     7
370
    15
100
AcDbLine
 10
350.3863964297
 20
246.4876190855
 30
0.0
 11
350.3863964297
 21
254.4049883376
 31
0.0
  0
LINE
  5
39C
330
1F
100
AcDbEntity
  8
0
  6
Continuous
 62
     7
370
    15
100
AcDbLine
 10
363.9814523416
 20
211.730431238
 30
0.0
 11
363.9814523416
 21
213.763359491
 31
0.0
  0
LINE
  5
39D
330
1F
100
AcDbEntity
  8
0
  6
Continuous
 62
     7
370
    15
100
AcDbLine
 10
363.9814523416
 20
236.9041486692
 30
0.0
 11
363.9814523416
 21
258.2732575155
 31
0.0
  0
LINE
  5
39E
330
1F
100
AcDbEntity
  8
0
  6
Continuous
 62
     7
370
    15
100
AcDbLine
 10
363.9814523416
 20
211.730431238
 30
0.0
 11
356.2149480471
 21
207.2469237429
 31
0.0
  0
LINE
  5
39F
330
1F
100
AcDbEntity
  8
0
  6
Continuous
 62
     7
370
    15
100
AcDbLine
 10
345.0830955709
 20
242.5477320096
 30
0.0
 11
345.0830955709
 21
257.4665187569
 31
0.0
  0
LINE
  5
3A0
330
1F
100
AcDbEntity
  8
0
  6
Continuous
 62
     7
370
    15
100
AcDbLine
 10
336.9391599779
 20
241.3531311028
 30
0.0
 11
336.9391599779
 21
258.2495366215
 31
0.0
  0
LINE
  5
3A1
330
1F
100
AcDbEntity
  8
0
  6
Continuous
 62
     7
370
    15
100
AcDbLine
 10
330.7813828353
 20
242.2549024779
 30
0.0
 11
330.7813828353
 21
257.2970283998
 31
0.0
  0
LINE
  5
3A2
330
1F
100
AcDbEntity
  8
0
  6
Continuous
 62
     7
370
    15
100
AcDbLine
 10
355.2310059244
 20
263.0185799029
 30
0.0
 11
355.2310059244
 21
263.3247827074
 31
0.0
  0
LINE
  5
3A3
330
1F
100
AcDbEntity
  8
0
  6
Continuous
 62
     8
370
    15
100
AcDbLine
 10
339.7920322469
 20
260.8241926716
 30
0.0
 11
339.9444390732
 21
260.7362100836
 31
0.0
  0
LINE
  5
3A4
330
1F
100
AcDbEntity
  8
0
  6
Continuous
 62
     8
370
    15
100
AcDbLine
 10
384.4407320858
 20
232.4728104583
 30
0.0
 11
383.8379888804
 21
232.8207667043
 31
0.0
  0
LINE
  5
3A5
330
1F
100
AcDbEntity
  8
0
  6
Continuous
 62
     8
370
    15
100
AcDbLine
 10
373.0077094981
 20
212.6702345104
 30
0.0
 11
372.3496869697
 21
213.0501028303
 31
0.0
  0
LINE
  5
3A6
330
1F
100
AcDbEntity
  8
0
  6
Continuous
 62
     7
370
    15
100
AcDbLine
 10
368.185106394
 20
161.8560039651
 30
0.0
 11
367.5649290235
 21
162.2140247405
 31
0.0
  0
LINE
  5
3A7
330
1F
100
AcDbEntity
  8
0
  6
Continuous
 62
     7
370
    15
100
AcDbLine
 10
364.9401423503
 20
157.667268213
 30
0.0
 11
365.5603197208
 21
157.3092474376
 31
0.0
  0
LINE
  5
3A8
330
1F
100
AcDbEntity
  8
0
  6
Continuous
 62
     7
370
    15
100
AcDbLine
 10
364.9401423503
 20
120.9229316781
 30
0.0
 11
365.5603197208
 21
120.5649109028
 31
0.0
  0
LINE
  5
3A9
330
1F
100
AcDbEntity
  8
0
  6
Continuous
 62
     7
370
    15
100
AcDbLine
 10
364.9401423503
 20
127.0469877672
 30
0.0
 11
365.5603197208
 21
126.6889669919
 31
0.0
  0
LINE
  5
3AA
330
1F
100
AcDbEntity
  8
0
  6
Continuous
 62
     7
370
    15
100
AcDbLine
 10
368.185106394
 20
155.731947876
 30
0.0
 11
367.5649290235
 21
156.0899686513
 31
0.0
  0
LINE
  5
3AB
330
1F
100
AcDbEntity
  8
0
  6
Continuous
 62
     7
370
    15
100
AcDbLine
 10
364.9401423503
 20
151.5432121238
 30
0.0
 11
365.5603197208
 21
151.1851913485
 31
0.0
  0
LINE
  5
3AC
330
1F
100
AcDbEntity
  8
0
  6
Continuous
 62
     7
370
    15
100
AcDbLine
 10
364.365343287
 20
128.4176492545
 30
0.0
 11
370.1899045079
 21
125.0552016334
 31
0.0
  0
LINE
  5
3AD
330
1F
100
AcDbEntity
  8
0
  6
Continuous
 62
     7
370
    15
100
AcDbLine
 10
381.6738326727
 20
144.9487607467
 30
0.0
 11
375.8502453674
 21
148.3106461383
 31
0.0
  0
LINE
  5
3AE
330
1F
100
AcDbEntity
  8
0
  6
Continuous
 62
     7
370
    15
100
AcDbLine
 10
368.3500225254
 20
141.8280641787
 30
0.0
 11
367.5546566869
 21
141.3687599781
 31
0.0
  0
LINE
  5
3AF
330
1F
100
AcDbEntity
  8
0
  6
Continuous
 62
     7
370
    15
100
AcDbLine
 10
366.2292385548
 20
139.072819662
 30
0.0
 11
366.2292385548
 21
138.1543605362
 31
0.0
  0
LINE
  5
3B0
330
1F
100
AcDbEntity
  8
0
  6
Continuous
 62
     7
370
    15
100
AcDbLine
 10
363.7439571805
 20
130.7095187212
 30
0.0
 11
363.7439571805
 21
129.7910595954
 31
0.0
  0
LINE
  5
3B1
330
1F
100
AcDbEntity
  8
0
  6
Continuous
 62
     7
370
    15
100
AcDbLine
 10
374.3500224943
 20
148.1619229205
 30
0.0
 11
373.5546566558
 21
147.7026187199
 31
0.0
  0
LINE
  5
3B2
330
1F
100
AcDbEntity
  8
0
  6
Continuous
 62
     7
370
    15
100
AcDbLine
 10
366.8506246613
 20
122.9237931105
 30
0.0
 11
372.4195038255
 21
119.7089475989
 31
0.0
  0
LINE
  5
3B3
330
1F
100
AcDbEntity
  8
0
  6
Continuous
 62
     7
370
    15
100
AcDbLine
 10
387.4193351929
 20
145.6894940868
 30
0.0
 11
381.8502453674
 21
148.9044612106
 31
0.0
  0
LINE
  5
3B4
330
1F
100
AcDbEntity
  8
0
  6
Continuous
 62
     7
370
    15
100
AcDbLine
 10
365.4392998452
 20
134.5632449399
 30
0.0
 11
365.581423301
 21
134.4811988152
 31
0.0
  0
LINE
  5
3B5
330
1F
100
AcDbEntity
  8
0
  6
Continuous
 62
     7
370
    15
100
AcDbLine
 10
371.2062569378
 20
144.2240806615
 30
0.0
 11
371.0638427163
 21
144.3062946416
 31
0.0
  0
LINE
  5
3B6
330
1F
100
AcDbEntity
  8
0
  6
Continuous
 62
     7
370
    15
100
AcDbLine
 10
366.2292385548
 20
125.2156625772
 30
0.0
 11
366.2292385548
 21
124.2972034514
 31
0.0
  0
LINE
  5
3B7
330
1F
100
AcDbEntity
  8
0
  6
Continuous
 62
     7
370
    15
100
AcDbLine
 10
380.3500224943
 20
148.7557379928
 30
0.0
 11
379.5546566558
 21
148.2964337922
 31
0.0
  0
LINE
  5
3B8
330
1F
100
AcDbEntity
  8
0
  6
Continuous
 62
     7
370
    15
100
AcDbLine
 10
377.755432342
 20
120.6858100568
 30
0.0
 11
378.6740764748
 21
120.1554880871
 31
0.0
  0
LINE
  5
3B9
330
1F
100
AcDbEntity
  8
0
  6
Continuous
 62
     7
370
    15
100
AcDbLine
 10
390.159893727
 20
140.0482695753
 30
0.0
 11
389.3185609153
 21
140.5339606693
 31
0.0
  0
LINE
  5
3BA
330
1F
100
AcDbEntity
  8
0
  6
Continuous
 62
     7
370
    15
100
AcDbLine
 10
350.538546412
 20
156.155295985
 30
0.0
 11
349.3203091948
 21
156.8585693609
 31
0.0
  0
LINE
  5
3BB
330
1F
100
AcDbEntity
  8
0
  6
Continuous
 62
     7
370
    15
100
AcDbLine
 10
343.6957663237
 20
147.1155196591
 30
0.0
 11
348.9990671826
 21
144.0539892398
 31
0.0
  0
LINE
  5
3BC
330
1F
100
AcDbEntity
  8
0
  6
Continuous
 62
     7
370
    15
100
AcDbLine
 10
329.9028917356
 20
148.3120861417
 30
0.0
 11
335.7273831572
 21
144.9496788148
 31
0.0
  0
LINE
  5
3BD
330
1F
100
AcDbEntity
  8
0
  6
Continuous
 62
     7
370
    15
100
AcDbLine
 10
347.2124207294
 20
164.8429104027
 30
0.0
 11
341.3872978464
 21
168.2056822644
 31
0.0
  0
LINE
  5
3BE
330
1F
100
AcDbEntity
  8
0
  6
Continuous
 62
     7
370
    15
100
AcDbLine
 10
339.7128874046
 20
139.6045458886
 30
0.0
 11
340.5082532431
 21
140.0638500892
 31
0.0
  0
LINE
  5
3BF
330
1F
100
AcDbEntity
  8
0
  6
Continuous
 62
     7
370
    15
100
AcDbLine
 10
350.538546412
 20
166.9800073403
 30
0.0
 11
347.6432589768
 21
168.6514211996
 31
0.0
  0
LINE
  5
3C0
330
1F
100
AcDbEntity
  8
0
  6
Continuous
 62
     7
370
    15
100
AcDbLine
 10
332.6435724109
 20
142.6707911195
 30
0.0
 11
338.2126645315
 21
139.4558226709
 31
0.0
  0
LINE
  5
3C1
330
1F
100
AcDbEntity
  8
0
  6
Continuous
 62
     7
370
    15
100
AcDbLine
 10
345.7128874046
 20
140.1983609609
 30
0.0
 11
346.5082532431
 21
140.6576651615
 31
0.0
  0
LINE
  5
3C2
330
1F
100
AcDbEntity
  8
0
  6
Continuous
 62
     7
370
    15
100
AcDbLine
 10
342.7571264018
 20
140.8899020199
 30
0.0
 11
344.2126645315
 21
140.0496377431
 31
0.0
  0
LINE
  5
3C3
330
1F
100
AcDbEntity
  8
0
  6
Continuous
 62
     7
370
    15
100
AcDbLine
 10
363.7491944551
 20
136.5348242514
 30
0.0
 11
364.37379548
 21
136.1742497547
 31
0.0
  0
LINE
  5
3C4
330
1F
100
AcDbEntity
  8
0
  6
Continuous
 62
     7
370
    15
100
AcDbLine
 10
369.1359084442
 20
144.4233651689
 30
0.0
 11
368.5113074193
 21
144.7839396656
 31
0.0
  0
LINE
  5
3C5
330
1F
100
AcDbEntity
  8
0
  6
Continuous
 62
     7
370
    15
100
AcDbLine
 10
349.4302821361
 20
144.8009563836
 30
0.0
 11
350.538546412
 21
144.1611690353
 31
0.0
  0
LINE
  5
3C6
330
1F
100
AcDbEntity
  8
0
  6
Continuous
 62
     7
370
    15
100
AcDbLine
 10
359.2889928292
 20
147.6397630098
 30
0.0
 11
358.6921978566
 21
147.9842854141
 31
0.0
  0
LINE
  5
3C7
330
1F
100
AcDbEntity
  8
0
  6
Continuous
 62
     7
370
    15
100
AcDbLine
 10
356.0674111834
 20
143.4375288866
 30
0.0
 11
359.2889928292
 21
141.577749389
 31
0.0
  0
LINE
  5
3C8
330
1F
100
AcDbEntity
  8
0
  6
Continuous
 62
     7
370
    15
100
AcDbLine
 10
358.3050507065
 20
177.2790677255
 30
0.0
 11
358.3050507065
 21
173.4964430884
 31
0.0
  0
ARC
  5
3C9
330
1F
100
AcDbEntity
  8
0
  6
Continuous
 62
     7
370
    15
100
AcDbCircle
 10
368.5516163886
 20
158.6263001394
 30
0.0
 40
3.292897996287149
100
AcDbArc
 50
107.9409994983
 51
194.1245212077
  0
LWPOLYLINE
  5
3CA
330
1F
100
AcDbEntity
  8
0
  6
Continuous
 62
     7
370
    15
100
AcDbPolyline
 90
        3
 70
   128
 43
0.0
 10
367.4650629443
 20
161.9559261918
 10
367.9001677894
 20
161.9608521148
 10
368.185106394
 20
161.8560039651
  0
LWPOLYLINE
  5
3CB
330
1F
100
AcDbEntity
  8
0
  6
Continuous
 62
     7
370
    15
100
AcDbPolyline
 90
       12
 70
   128
 43
0.0
 10
365.5603197208
 20
157.3092474376
 10
365.4801728225
 20
157.3615455649
 10
365.2099866352
 20
157.6700547826
 10
365.0531125058
 20
158.1089025477
 10
365.020241147
 20
158.6481821104
 10
365.1136126875
 20
159.2511424595
 10
365.3268640112
 20
159.8766928437
 10
365.6454623927
 20
160.4822030382
 10
366.0476958789
 20
161.0264085238
 10
366.5061529224
 20
161.472222596
 10
366.9895904334
 20
161.7892637625
 10
367.4650629443
 20
161.9559261918
  0
LINE
  5
3CC
330
1F
100
AcDbEntity
  8
0
  6
Continuous
 62
     7
370
    15
100
AcDbLine
 10
366.0876476379
 20
159.3534711117
 30
0.0
 11
366.2733409987
 21
158.3962322729
 31
0.0
  0
LINE
  5
3CD
330
1F
100
AcDbEntity
  8
0
  6
Continuous
 62
     7
370
    15
100
AcDbLine
 10
366.2733409987
 20
158.3962322729
 30
0.0
 11
367.1644724354
 21
158.5641562542
 31
0.0
  0
LINE
  5
3CE
330
1F
100
AcDbEntity
  8
0
  6
Continuous
 62
     7
370
    15
100
AcDbLine
 10
367.8699105113
 20
159.6893190743
 30
0.0
 11
367.1644724354
 21
158.5641562542
 31
0.0
  0
LINE
  5
3CF
330
1F
100
AcDbEntity
  8
0
  6
Continuous
 62
     7
370
    15
100
AcDbLine
 10
367.6842171505
 20
160.6465579131
 30
0.0
 11
367.8699105113
 21
159.6893190743
 31
0.0
  0
LINE
  5
3D0
330
1F
100
AcDbEntity
  8
0
  6
Continuous
 62
     7
370
    15
100
AcDbLine
 10
367.6842171505
 20
160.6465579131
 30
0.0
 11
366.7930857138
 21
160.4786339318
 31
0.0
  0
LINE
  5
3D1
330
1F
100
AcDbEntity
  8
0
  6
Continuous
 62
     7
370
    15
100
AcDbLine
 10
366.0876476379
 20
159.3534711117
 30
0.0
 11
366.7930857138
 21
160.4786339318
 31
0.0
  0
ARC
  5
3D2
330
1F
100
AcDbEntity
  8
0
  6
Continuous
 62
     7
370
    15
100
AcDbCircle
 10
364.9014336768
 20
160.7303551588
 30
0.0
 40
1.844187337451562
100
AcDbArc
 50
327.4841483547
 51
347.5984395637
  0
ARC
  5
3D3
330
1F
100
AcDbEntity
  8
0
  6
Continuous
 62
     7
370
    15
100
AcDbCircle
 10
364.9412128794
 20
160.6741897337
 30
0.0
 40
1.780642562372845
100
AcDbArc
 50
310.3715138978
 51
328.3200874651
  0
LINE
  5
3D4
330
1F
100
AcDbEntity
  8
0
  6
Continuous
 62
     7
370
    15
100
AcDbLine
 10
366.1242771117
 20
159.1646482327
 30
0.0
 11
367.1644724354
 21
158.5641562542
 31
0.0
  0
LINE
  5
3D5
330
1F
100
AcDbEntity
  8
0
  6
Continuous
 62
     7
370
    15
100
AcDbLine
 10
366.8092503395
 20
160.3016251582
 30
0.0
 11
367.8699105113
 21
159.6893190743
 31
0.0
  0
LINE
  5
3D6
330
1F
100
AcDbEntity
  8
0
  6
Continuous
 62
     7
370
    15
100
AcDbLine
 10
366.7792068944
 20
160.4564974295
 30
0.0
 11
366.8092503395
 21
160.3016251582
 31
0.0
  0
LINE
  5
3D7
330
1F
100
AcDbEntity
  8
0
  6
Continuous
 62
     7
370
    15
100
AcDbLine
 10
366.4565313016
 20
159.7390437481
 30
0.0
 11
366.1176910831
 21
159.1985988404
 31
0.0
  0
LINE
  5
3D8
330
1F
100
AcDbEntity
  8
0
  6
Continuous
 62
     7
370
    15
100
AcDbLine
 10
366.8092503395
 20
160.3016251582
 30
0.0
 11
366.4565313016
 21
159.7390437481
 31
0.0
  0
ARC
  5
3D9
330
1F
100
AcDbEntity
  8
0
  6
Continuous
 62
     7
370
    15
100
AcDbCircle
 10
368.4392648183
 20
121.8796505838
 30
0.0
 40
3.183478165996424
100
AcDbArc
 50
133.8956837029
 51
194.5776051823
  0
LWPOLYLINE
  5
3DA
330
1F
100
AcDbEntity
  8
0
  6
Continuous
 62
     7
370
    15
100
AcDbPolyline
 90
       10
 70
   128
 43
0.0
 10
365.5603197208
 20
120.5649109028
 10
365.4801728225
 20
120.61720903
 10
365.2099866352
 20
120.9257182477
 10
365.0531125058
 20
121.3645660129
 10
365.020241147
 20
121.9038455755
 10
365.1136126875
 20
122.5068059246
 10
365.3268640112
 20
123.1323563089
 10
365.6454623927
 20
123.7378665033
 10
366.0476958789
 20
124.2820719889
 10
366.2292385548
 20
124.4773188458
  0
LINE
  5
3DB
330
1F
100
AcDbEntity
  8
0
  6
Continuous
 62
     7
370
    15
100
AcDbLine
 10
366.0876476379
 20
122.6091345768
 30
0.0
 11
366.2733409987
 21
121.651895738
 31
0.0
  0
LINE
  5
3DC
330
1F
100
AcDbEntity
  8
0
  6
Continuous
 62
     7
370
    15
100
AcDbLine
 10
366.2733409987
 20
121.651895738
 30
0.0
 11
367.1644724354
 21
121.8198197193
 31
0.0
  0
LINE
  5
3DD
330
1F
100
AcDbEntity
  8
0
  6
Continuous
 62
     7
370
    15
100
AcDbLine
 10
367.5892778113
 20
122.4973777235
 30
0.0
 11
367.1644724354
 21
121.8198197193
 31
0.0
  0
LINE
  5
3DE
330
1F
100
AcDbEntity
  8
0
  6
Continuous
 62
     7
370
    15
100
AcDbLine
 10
366.0876476379
 20
122.6091345768
 30
0.0
 11
366.4965053403
 21
123.2612562885
 31
0.0
  0
LWPOLYLINE
  5
3DF
330
1F
100
AcDbEntity
  8
0
  6
Continuous
 62
     7
370
    15
100
AcDbPolyline
 90
        3
 70
   128
 43
0.0
 10
366.4565313016
 20
122.9947072132
 10
366.5316671224
 20
123.1252708404
 10
366.5580022383
 20
123.1771580457
  0
ARC
  5
3E0
330
1F
100
AcDbEntity
  8
0
  6
Continuous
 62
     7
370
    15
100
AcDbCircle
 10
364.9412128794
 20
123.9298531988
 30
0.0
 40
1.780642562373802
100
AcDbArc
 50
310.3715138978
 51
328.3200874651
  0
LINE
  5
3E1
330
1F
100
AcDbEntity
  8
0
  6
Continuous
 62
     7
370
    15
100
AcDbLine
 10
366.1242771117
 20
122.4203116979
 30
0.0
 11
367.1644724354
 21
121.8198197193
 31
0.0
  0
LINE
  5
3E2
330
1F
100
AcDbEntity
  8
0
  6
Continuous
 62
     7
370
    15
100
AcDbLine
 10
366.4565313016
 20
122.9947072132
 30
0.0
 11
366.1176910831
 21
122.4542623055
 31
0.0
  0
LINE
  5
3E3
330
1F
100
AcDbEntity
  8
0
  6
Continuous
 62
     7
370
    15
100
AcDbLine
 10
366.5652846849
 20
123.1681671775
 30
0.0
 11
366.4565313016
 21
122.9947072132
 31
0.0
  0
LWPOLYLINE
  5
3E4
330
1F
100
AcDbEntity
  8
0
  6
Continuous
 62
     7
370
    15
100
AcDbPolyline
 90
        3
 70
   128
 43
0.0
 10
365.2288607008
 20
127.9191512623
 10
365.2631556974
 20
127.5116042453
 10
365.3582703872
 20
127.2024535611
  0
ARC
  5
3E5
330
1F
100
AcDbEntity
  8
0
  6
Continuous
 62
     7
370
    15
100
AcDbCircle
 10
366.4704935594
 20
127.8354902394
 30
0.0
 40
1.463875668672451
100
AcDbArc
 50
171.9999007592
 51
231.5555014989
  0
ARC
  5
3E6
330
1F
100
AcDbEntity
  8
0
  6
Continuous
 62
     7
370
    15
100
AcDbCircle
 10
368.5516163886
 20
152.5022440502
 30
0.0
 40
3.292897996287149
100
AcDbArc
 50
107.9409994983
 51
194.1245212077
  0
LWPOLYLINE
  5
3E7
330
1F
100
AcDbEntity
  8
0
  6
Continuous
 62
     7
370
    15
100
AcDbPolyline
 90
        3
 70
   128
 43
0.0
 10
367.4650629443
 20
155.8318701027
 10
367.9001677894
 20
155.8367960257
 10
368.185106394
 20
155.731947876
  0
LWPOLYLINE
  5
3E8
330
1F
100
AcDbEntity
  8
0
  6
Continuous
 62
     7
370
    15
100
AcDbPolyline
 90
       12
 70
   128
 43
0.0
 10
365.5603197208
 20
151.1851913485
 10
365.4801728225
 20
151.2374894757
 10
365.2099866352
 20
151.5459986934
 10
365.0531125058
 20
151.9848464586
 10
365.020241147
 20
152.5241260212
 10
365.1136126875
 20
153.1270863703
 10
365.3268640112
 20
153.7526367546
 10
365.6454623927
 20
154.358146949
 10
366.0476958789
 20
154.9023524346
 10
366.5061529224
 20
155.3481665068
 10
366.9895904334
 20
155.6652076734
 10
367.4650629443
 20
155.8318701027
  0
LINE
  5
3E9
330
1F
100
AcDbEntity
  8
0
  6
Continuous
 62
     7
370
    15
100
AcDbLine
 10
366.0876476379
 20
153.2294150226
 30
0.0
 11
366.2733409987
 21
152.2721761838
 31
0.0
  0
LINE
  5
3EA
330
1F
100
AcDbEntity
  8
0
  6
Continuous
 62
     7
370
    15
100
AcDbLine
 10
366.2733409987
 20
152.2721761838
 30
0.0
 11
367.1644724354
 21
152.440100165
 31
0.0
  0
LINE
  5
3EB
330
1F
100
AcDbEntity
  8
0
  6
Continuous
 62
     7
370
    15
100
AcDbLine
 10
367.8699105113
 20
153.5652629851
 30
0.0
 11
367.1644724354
 21
152.440100165
 31
0.0
  0
LINE
  5
3EC
330
1F
100
AcDbEntity
  8
0
  6
Continuous
 62
     7
370
    15
100
AcDbLine
 10
367.6842171505
 20
154.522501824
 30
0.0
 11
367.8699105113
 21
153.5652629851
 31
0.0
  0
LINE
  5
3ED
330
1F
100
AcDbEntity
  8
0
  6
Continuous
 62
     7
370
    15
100
AcDbLine
 10
367.6842171505
 20
154.522501824
 30
0.0
 11
366.7930857138
 21
154.3545778427
 31
0.0
  0
LINE
  5
3EE
330
1F
100
AcDbEntity
  8
0
  6
Continuous
 62
     7
370
    15
100
AcDbLine
 10
366.0876476379
 20
153.2294150226
 30
0.0
 11
366.7930857138
 21
154.3545778427
 31
0.0
  0
ARC
  5
3EF
330
1F
100
AcDbEntity
  8
0
  6
Continuous
 62
     7
370
    15
100
AcDbCircle
 10
364.9014336768
 20
154.6062990696
 30
0.0
 40
1.844187337452163
100
AcDbArc
 50
327.4841483547
 51
347.5984395637
  0
ARC
  5
3F0
330
1F
100
AcDbEntity
  8
0
  6
Continuous
 62
     7
370
    15
100
AcDbCircle
 10
364.9412128794
 20
154.5501336445
 30
0.0
 40
1.780642562373597
100
AcDbArc
 50
310.3715138978
 51
328.3200874651
  0
LINE
  5
3F1
330
1F
100
AcDbEntity
  8
0
  6
Continuous
 62
     7
370
    15
100
AcDbLine
 10
366.1242771117
 20
153.0405921436
 30
0.0
 11
367.1644724354
 21
152.440100165
 31
0.0
  0
LINE
  5
3F2
330
1F
100
AcDbEntity
  8
0
  6
Continuous
 62
     7
370
    15
100
AcDbLine
 10
366.8092503395
 20
154.177569069
 30
0.0
 11
367.8699105113
 21
153.5652629851
 31
0.0
  0
LINE
  5
3F3
330
1F
100
AcDbEntity
  8
0
  6
Continuous
 62
     7
370
    15
100
AcDbLine
 10
366.7792068944
 20
154.3324413404
 30
0.0
 11
366.8092503395
 21
154.177569069
 31
0.0
  0
LINE
  5
3F4
330
1F
100
AcDbEntity
  8
0
  6
Continuous
 62
     7
370
    15
100
AcDbLine
 10
366.4565313016
 20
153.614987659
 30
0.0
 11
366.1176910831
 21
153.0745427512
 31
0.0
  0
LINE
  5
3F5
330
1F
100
AcDbEntity
  8
0
  6
Continuous
 62
     7
370
    15
100
AcDbLine
 10
366.8092503395
 20
154.177569069
 30
0.0
 11
366.4565313016
 21
153.614987659
 31
0.0
  0
LWPOLYLINE
  5
3F6
330
1F
100
AcDbEntity
  8
0
  6
Continuous
 62
     7
370
    15
100
AcDbPolyline
 90
       50
 70
   128
 43
0.0
 10
388.9344446305
 20
136.0670863295
 10
388.873488593
 20
134.9355194831
 10
388.6916213771
 20
133.7521545903
 10
388.3918292375
 20
132.5364224699
 10
387.9790347527
 20
131.3082854097
 10
387.4600159969
 20
130.0879093862
 10
386.8432952435
 20
128.8953329401
 10
386.1389990304
 20
127.7501381435
 10
385.3586918819
 20
126.6711290634
 10
384.5151864197
 20
125.6760229991
 10
383.6223329804
 20
124.7811595647
 10
382.6947921926
 20
124.0012323929
 10
381.7477942504
 20
123.3490478663
 10
380.7968888339
 20
122.835314837
 10
379.8576897838
 20
122.468468787
 10
378.9456187223
 20
122.2545333182
 10
378.0756518313
 20
122.1970212453
 10
377.262073943
 20
122.2968769148
 10
376.5182439837
 20
122.5524606994
 10
375.856375621
 20
122.9595759205
 10
375.2873367149
 20
123.5115377573
 10
374.8204708686
 20
124.1992830117
 10
374.4634440064
 20
125.0115189258
 10
374.2221184995
 20
125.9349086082
 10
374.1004569061
 20
126.9542900258
 10
374.1004569061
 20
128.0529249641
 10
374.2221184995
 20
129.2127738676
 10
374.4634440064
 20
130.4147920495
 10
374.8204708686
 20
131.6392424044
 10
375.2873367149
 20
132.8660194913
 10
375.856375621
 20
134.0749796645
 10
376.5182439837
 20
135.2462718312
 10
377.262073943
 20
136.3606634066
 10
378.0756518313
 20
137.3998561116
 10
378.9456187223
 20
138.3467864309
 10
379.8576897838
 20
139.1859057948
 10
380.7968888339
 20
139.9034358864
 10
381.7477942504
 20
140.4875948817
 10
382.6947921926
 20
140.9287909059
 10
383.6223329804
 20
141.2197795327
 10
384.5151864197
 20
141.3557827367
 10
385.3586918819
 20
141.3345673491
 10
386.1389990304
 20
141.156481726
 10
386.8432952435
 20
140.8244500284
 10
387.4600159969
 20
140.3439242077
 10
387.9790347527
 20
139.7227944844
 10
388.3918292375
 20
138.9712597915
 10
388.6916213771
 20
138.1016603079
 10
388.873488593
 20
137.128274833
 10
388.9344446305
 20
136.0670863295
  0
SPLINE
  5
3F7
330
1F
100
AcDbEntity
  8
0
  6
Continuous
 62
     7
370
    15
100
AcDbSpline
210
0.0
220
0.0
230
1.0
 70
     8
 71
     3
 72
    12
 73
     8
 74
     0
 42
0.000000001
 43
0.00000001
 40
0.0
 40
0.0
 40
0.0
 40
0.0
 40
0.2523425790010242
 40
0.5058462538030644
 40
0.7379970426370731
 40
0.9690912189386458
 40
1.0
 40
1.0
 40
1.0
 40
1.0
 10
385.9090263427693
 20
145.0491611850803
 30
0.0
 10
385.6659715497146
 20
144.7210144990196
 30
0.0
 10
385.1787436033952
 20
144.063211236095
 30
0.0
 10
384.1887548439448
 20
143.6924152784228
 30
0.0
 10
383.1390589942005
 20
143.87057737199
 30
0.0
 10
382.4361038997343
 20
144.3186208112255
 30
0.0
 10
382.0959983754937
 20
144.6309698685843
 30
0.0
 10
382.0558757475192
 20
144.6678180352073
 30
0.0
  0
SPLINE
  5
3F8
330
1F
100
AcDbEntity
  8
0
  6
Continuous
 62
     7
370
    15
100
AcDbSpline
210
0.0
220
0.0
230
1.0
 70
     8
 71
     3
 72
    27
 73
    23
 74
     0
 42
0.000000001
 43
0.00000001
 40
0.0
 40
0.0
 40
0.0
 40
0.0
 40
0.0426606797130387
 40
0.0855935073502102
 40
0.129412320453727
 40
0.1735509225917157
 40
0.2162236415775121
 40
0.2592142218224078
 40
0.3032398763007052
 40
0.347637005879124
 40
0.3881390265364096
 40
0.4706287588872068
 40
0.5127326489498881
 40
0.5516617646078303
 40
0.6308467217354319
 40
0.6711909916324438
 40
0.7102149879124688
 40
0.78950629527156
 40
0.8298451975724507
 40
0.8716915672088615
 40
0.9567335501972694
 40
1.0
 40
1.0
 40
1.0
 40
1.0
 10
388.3876159966949
 20
143.6178366869956
 30
0.0
 10
388.3770752601476
 20
143.6990851113471
 30
0.0
 10
388.3559265438778
 20
143.8621002731707
 30
0.0
 10
388.3116053251471
 20
144.1001771093747
 30
0.0
 10
388.2573771739501
 20
144.3324618157454
 30
0.0
 10
388.1928610447715
 20
144.5533302019323
 30
0.0
 10
388.118922765814
 20
144.7603397838913
 30
0.0
 10
388.0355218230716
 20
144.9531319268148
 30
0.0
 10
387.941597249669
 20
145.1323005177221
 30
0.0
 10
387.8405550963553
 20
145.2902587839382
 30
0.0
 10
387.6992216033311
 20
145.4711024573929
 30
0.0
 10
387.5461179575544
 20
145.6128830409944
 30
0.0
 10
387.3846749304296
 20
145.7123221279666
 30
0.0
 10
387.2213216556861
 20
145.7832031439204
 30
0.0
 10
387.0536620022234
 20
145.8142259475063
 30
0.0
 10
386.8841766167312
 20
145.8053542612786
 30
0.0
 10
386.7145034218019
 20
145.7704500250053
 30
0.0
 10
386.5462884063846
 20
145.6971653911863
 30
0.0
 10
386.380811585294
 20
145.585991241751
 30
0.0
 10
386.2146732628789
 20
145.4456122263935
 30
0.0
 10
386.0542499867206
 20
145.2672898370211
 30
0.0
 10
385.9456477374991
 20
145.1041672105956
 30
0.0
 10
385.9090263427693
 20
145.0491611850803
 30
0.0
  0
SPLINE
  5
3F9
330
1F
100
AcDbEntity
  8
0
  6
Continuous
 62
     7
370
    15
100
AcDbSpline
210
0.0
220
0.0
230
1.0
 70
     8
 71
     3
 72
    12
 73
     8
 74
     0
 42
0.000000001
 43
0.00000001
 40
0.0
 40
0.0
 40
0.0
 40
0.0
 40
0.2523388541794064
 40
0.5058431516690091
 40
0.7379942180549655
 40
0.9690881654589663
 40
1.0
 40
1.0
 40
1.0
 40
1.0
 10
389.9836432311138
 20
140.0897275084297
 30
0.0
 10
389.8153481188152
 20
140.1149507644727
 30
0.0
 10
389.4779806123626
 20
140.1655137717973
 30
0.0
 10
389.0155088803493
 20
140.9036671187338
 30
0.0
 10
388.6367199042766
 20
142.040751479446
 30
0.0
 10
388.4565012883249
 20
143.015919112483
 30
0.0
 10
388.3948855176022
 20
143.5543158353177
 30
0.0
 10
388.3876159966949
 20
143.6178366869956
 30
0.0
  0
SPLINE
  5
3FA
330
1F
100
AcDbEntity
  8
0
  6
Continuous
 62
     7
370
    15
100
AcDbSpline
210
0.0
220
0.0
230
1.0
 70
     8
 71
     3
 72
    19
 73
    15
 74
     0
 42
0.000000001
 43
0.00000001
 40
0.0
 40
0.0
 40
0.0
 40
0.0
 40
0.085574704239685
 40
0.1735025911126471
 40
0.2591381948402409
 40
0.3475216183002938
 40
0.4288008516339932
 40
0.5126378259330153
 40
0.5907479265422945
 40
0.6711223008796215
 40
0.749411517630477
 40
0.8298077970745857
 40
0.9137650347532329
 40
1.0
 40
1.0
 40
1.0
 40
1.0
 10
389.9836432311153
 20
136.0419882917377
 30
0.0
 10
390.0357225723537
 20
136.1961195076137
 30
0.0
 10
390.1413133626297
 20
136.5086203285447
 30
0.0
 10
390.2773736261021
 20
137.0059862030636
 30
0.0
 10
390.3908967761878
 20
137.5149484598209
 30
0.0
 10
390.4715858552611
 20
138.0055214484089
 30
0.0
 10
390.5186641113406
 20
138.4703216087701
 30
0.0
 10
390.5306627969053
 20
138.8822391374862
 30
0.0
 10
390.5095959416381
 20
139.2461687626231
 30
0.0
 10
390.4584045341836
 20
139.5477129467453
 30
0.0
 10
390.3783235564221
 20
139.7900535693663
 30
0.0
 10
390.2715087615769
 20
139.9662241977922
 30
0.0
 10
390.1396943722581
 20
140.077699078283
 30
0.0
 10
390.0361223222695
 20
140.0856824173301
 30
0.0
 10
389.9836432311138
 20
140.0897275084297
 30
0.0
  0
SPLINE
  5
3FB
330
1F
100
AcDbEntity
  8
0
  6
Continuous
 62
     7
370
    15
100
AcDbSpline
210
0.0
220
0.0
230
1.0
 70
     8
 71
     3
 72
    12
 73
     8
 74
     0
 42
0.000000001
 43
0.00000001
 40
0.0
 40
0.0
 40
0.0
 40
0.0
 40
0.2523425790008755
 40
0.505846253802757
 40
0.7379970426366416
 40
0.9690912189381221
 40
1.0
 40
1.0
 40
1.0
 40
1.0
 10
388.3876159966953
 20
130.6711452920033
 30
0.0
 10
388.4621362586601
 20
130.9948578847031
 30
0.0
 10
388.6115196702763
 20
131.6437725584545
 30
0.0
 10
389.0146417464751
 20
133.0197139774088
 30
0.0
 10
389.4602826148619
 20
134.4891050951422
 30
0.0
 10
389.7876887960844
 20
135.4898205943772
 30
0.0
 10
389.9629656278104
 20
135.9837221718515
 30
0.0
 10
389.9836432311153
 20
136.0419882917377
 30
0.0
  0
SPLINE
  5
3FC
330
1F
100
AcDbEntity
  8
0
  6
Continuous
 62
     7
370
    15
100
AcDbSpline
210
0.0
220
0.0
230
1.0
 70
     8
 71
     3
 72
    27
 73
    23
 74
     0
 42
0.000000001
 43
0.00000001
 40
0.0
 40
0.0
 40
0.0
 40
0.0
 40
0.0426606797130159
 40
0.0855935073501637
 40
0.1294123204536565
 40
0.1735509225916228
 40
0.216223641577395
 40
0.2592142218222669
 40
0.303239876300541
 40
0.3476370058789359
 40
0.3881390265361976
 40
0.4706287588869475
 40
0.5127326489496059
 40
0.5516617646075226
 40
0.6308467217350714
 40
0.6711909916320594
 40
0.7102149879120532
 40
0.7895062952710816
 40
0.8298451975719411
 40
0.8716915672084715
 40
0.9567335501971311
 40
1.0
 40
1.0
 40
1.0
 40
1.0
 10
385.9090263427693
 20
126.3781020928877
 30
0.0
 10
385.9451023742147
 20
126.4110966843819
 30
0.0
 10
386.017484579174
 20
126.4772963518173
 30
0.0
 10
386.1356553757738
 20
126.5966850710475
 30
0.0
 10
386.2607244414563
 20
126.7314968894742
 30
0.0
 10
386.3909104352419
 20
126.8811437501422
 30
0.0
 10
386.5243208548426
 20
127.0435333697948
 30
0.0
 10
386.6606133710891
 20
127.2185149052072
 30
0.0
 10
386.8006288345927
 20
127.4077989153643
 30
0.0
 10
386.9386878750149
 20
127.6041738312308
 30
0.0
 10
387.1170948946562
 20
127.8703681280143
 30
0.0
 10
387.2902714801078
 20
128.1471368288053
 30
0.0
 10
387.4540490136413
 20
128.4281117498014
 30
0.0
 10
387.6085831308594
 20
128.7059578073051
 30
0.0
 10
387.7515328640744
 20
128.9820911393992
 30
0.0
 10
387.8812241974916
 20
129.2526807603288
 30
0.0
 10
388.0016403902939
 20
129.5181340682738
 30
0.0
 10
388.1072873933711
 20
129.7733792539957
 30
0.0
 10
388.1980197983929
 20
130.0168542677023
 30
0.0
 10
388.2797356430726
 20
130.2558895053847
 30
0.0
 10
388.3450241986029
 20
130.4788437564135
 30
0.0
 10
388.3768755207801
 20
130.6226521523852
 30
0.0
 10
388.3876159966953
 20
130.6711452920033
 30
0.0
  0
SPLINE
  5
3FD
330
1F
100
AcDbEntity
  8
0
  6
Continuous
 62
     7
370
    15
100
AcDbSpline
210
0.0
220
0.0
230
1.0
 70
     8
 71
     3
 72
    16
 73
    12
 74
     0
 42
0.000000001
 43
0.00000001
 40
0.0
 40
0.0
 40
0.0
 40
0.0
 40
0.1245749872501312
 40
0.25229653014605
 40
0.3770193056408621
 40
0.5060351398638094
 40
0.6204452207887817
 40
0.738239216382451
 40
0.8524079450197269
 40
0.9691919620656592
 40
1.0
 40
1.0
 40
1.0
 40
1.0
 10
382.0558757475191
 20
122.3106922598549
 30
0.0
 10
382.2211586019296
 20
122.5024947108015
 30
0.0
 10
382.5558990789778
 20
122.8909442215381
 30
0.0
 10
383.0959666750605
 20
123.4875250166859
 30
0.0
 10
383.6511020546048
 20
124.0876627296256
 30
0.0
 10
384.1793160496478
 20
124.648804885607
 30
0.0
 10
384.6695052105193
 20
125.1623366119454
 30
0.0
 10
385.1023633172358
 20
125.6072300341993
 30
0.0
 10
385.4924296215257
 20
125.9949471777626
 30
0.0
 10
385.7506702699127
 20
126.2381216287927
 30
0.0
 10
385.8816797208029
 20
126.3539287677652
 30
0.0
 10
385.9090263427693
 20
126.3781020928877
 30
0.0
  0
SPLINE
  5
3FE
330
1F
100
AcDbEntity
  8
0
  6
Continuous
 62
     7
370
    15
100
AcDbSpline
210
0.0
220
0.0
230
1.0
 70
     8
 71
     3
 72
    27
 73
    23
 74
     0
 42
0.000000001
 43
0.00000001
 40
0.0
 40
0.0
 40
0.0
 40
0.0
 40
0.0426595515913585
 40
0.085591229109418
 40
0.1294088172946969
 40
0.1735461665116081
 40
0.2162189802957546
 40
0.2592096562954081
 40
0.3032354101213976
 40
0.3476326405610928
 40
0.3881347241804662
 40
0.4706245875036426
 40
0.5127285464348419
 40
0.5516576810990651
 40
0.6308426793933665
 40
0.6711869720193654
 40
0.7102109458126532
 40
0.789502209359865
 40
0.8298410906384273
 40
0.8716884353548238
 40
0.9567324688438383
 40
1.0
 40
1.0
 40
1.0
 40
1.0
 10
378.5506206433798
 20
120.2871515605102
 30
0.0
 10
378.5638052464157
 20
120.2644491374403
 30
0.0
 10
378.59025855727
 20
120.2188994721992
 30
0.0
 10
378.6500732072184
 20
120.166773479485
 30
0.0
 10
378.7252510841796
 20
120.1276386253851
 30
0.0
 10
378.8162523135678
 20
120.1042188591318
 30
0.0
 10
378.9214548980411
 20
120.0965731235064
 30
0.0
 10
379.0406199723664
 20
120.1048639375948
 30
0.0
 10
379.174989302708
 20
120.1299398263251
 30
0.0
 10
379.3194353256102
 20
120.1713175472944
 30
0.0
 10
379.5210955121047
 20
120.2457704050442
 30
0.0
 10
379.7387377989771
 20
120.3487658725274
 30
0.0
 10
379.9671813649388
 20
120.4780079005432
 30
0.0
 10
380.1977064091262
 20
120.6210361968231
 30
0.0
 10
380.4334757389616
 20
120.7850393435883
 30
0.0
 10
380.6713502960655
 20
120.9674502743744
 30
0.0
 10
380.9093870051021
 20
121.1608340487306
 30
0.0
 10
381.1455483675021
 20
121.3685974283195
 30
0.0
 10
381.3788626536873
 20
121.5892701608184
 30
0.0
 10
381.614244426162
 20
121.8228552484436
 30
0.0
 10
381.8436151738324
 20
122.0663336158551
 30
0.0
 10
382.0023494659968
 20
122.2490717273934
 30
0.0
 10
382.0558757475191
 20
122.3106922598549
 30
0.0
  0
SPLINE
  5
3FF
330
1F
100
AcDbEntity
  8
0
  6
Continuous
 62
     7
370
    15
100
AcDbSpline
210
0.0
220
0.0
230
1.0
 70
     8
 71
     3
 72
    16
 73
    12
 74
     0
 42
0.000000001
 43
0.00000001
 40
0.0
 40
0.0
 40
0.0
 40
0.0
 40
0.1248710696268426
 40
0.2528983544618343
 40
0.3779145965856623
 40
0.5072218623673359
 40
0.6220810633072301
 40
0.7403195802979521
 40
0.8552389276217846
 40
0.9727845549775287
 40
1.0
 40
1.0
 40
1.0
 40
1.0
 10
374.7279665066799
 20
119.9191741596568
 30
0.0
 10
374.9643446862231
 20
120.0175940707328
 30
0.0
 10
375.4430756910571
 20
120.2169215341057
 30
0.0
 10
376.1338096904092
 20
120.440947433381
 30
0.0
 10
376.783778043747
 20
120.6032274399242
 30
0.0
 10
377.3382943506471
 20
120.6865352110714
 30
0.0
 10
377.7920998936392
 20
120.6969256306515
 30
0.0
 10
378.1354004773596
 20
120.6416133567881
 30
0.0
 10
378.384451372832
 20
120.5224709269619
 30
0.0
 10
378.5020650163351
 20
120.3917805867629
 30
0.0
 10
378.5429366699028
 20
120.3037092019532
 30
0.0
 10
378.5506206433798
 20
120.2871515605102
 30
0.0
  0
SPLINE
  5
400
330
1F
100
AcDbEntity
  8
0
  6
Continuous
 62
     7
370
    15
100
AcDbSpline
210
0.0
220
0.0
230
1.0
 70
     8
 71
     3
 72
    27
 73
    23
 74
     0
 42
0.000000001
 43
0.00000001
 40
0.0
 40
0.0
 40
0.0
 40
0.0
 40
0.0317262444763785
 40
0.1390819092625251
 40
0.1719033606729606
 40
0.203724627347931
 40
0.3113876835766108
 40
0.3443169601053431
 40
0.3744956040407963
 40
0.4765840418984186
 40
0.507791297184669
 40
0.5592923351384466
 40
0.6116722403150368
 40
0.6646229377021603
 40
0.7161771931744687
 40
0.7685568366486651
 40
0.8214581798935475
 40
0.8543103419585618
 40
0.8873026157860537
 40
0.9319323035353494
 40
0.9658962945750467
 40
1.0
 40
1.0
 40
1.0
 40
1.0
 10
372.2316224694019
 20
121.3607513769869
 30
0.0
 10
372.209015284741
 20
121.3167865243581
 30
0.0
 10
372.1099096245034
 20
121.1240528508652
 30
0.0
 10
372.0305374095248
 20
120.8894140053365
 30
0.0
 10
371.9920771484768
 20
120.6673385074805
 30
0.0
 10
371.9736793844613
 20
120.4514948079352
 30
0.0
 10
371.9993486865831
 20
120.2513067105984
 30
0.0
 10
372.0691301019973
 20
120.0783042898546
 30
0.0
 10
372.1555177813461
 20
119.9223629961304
 30
0.0
 10
372.2806594357687
 20
119.7930833522837
 30
0.0
 10
372.4619109036939
 20
119.6819270088598
 30
0.0
 10
372.6119905183494
 20
119.616545362874
 30
0.0
 10
372.8094451217509
 20
119.56488018649
 30
0.0
 10
373.027933656994
 20
119.5381247936852
 30
0.0
 10
373.2642991707097
 20
119.5360455142152
 30
0.0
 10
373.5154278174296
 20
119.5579954001631
 30
0.0
 10
373.7471695306927
 20
119.5979885329202
 30
0.0
 10
373.9517503290621
 20
119.6460571330157
 30
0.0
 10
374.1451673859905
 20
119.7001213678642
 30
0.0
 10
374.3432888760428
 20
119.7655774400133
 30
0.0
 10
374.5448403631307
 20
119.8412420663699
 30
0.0
 10
374.6668409868211
 20
119.893161272455
 30
0.0
 10
374.7279665066799
 20
119.9191741596568
 30
0.0
  0
SPLINE
  5
401
330
1F
100
AcDbEntity
  8
0
  6
Continuous
 62
     7
370
    15
100
AcDbSpline
210
0.0
220
0.0
230
1.0
 70
     8
 71
     3
 72
    15
 73
    11
 74
     0
 42
0.000000001
 43
0.00000001
 40
0.0
 40
0.0
 40
0.0
 40
0.0
 40
0.1255505115575911
 40
0.2542743051988525
 40
0.3799729809583501
 40
0.5099861143893017
 40
0.6254721503975559
 40
0.7443559600027057
 40
0.870468838476728
 40
1.0
 40
1.0
 40
1.0
 40
1.0
 10
370.6500278226537
 20
124.8569564978178
 30
0.0
 10
370.854561283987
 20
124.7841569028768
 30
0.0
 10
371.2687977783288
 20
124.6367177073471
 30
0.0
 10
371.7859666374444
 20
124.3126689951374
 30
0.0
 10
372.2032902383542
 20
123.9144103136744
 30
0.0
 10
372.4765405383462
 20
123.4645685368357
 30
0.0
 10
372.6120442442619
 20
122.9788819238707
 30
0.0
 10
372.6177693465773
 20
122.470131063598
 30
0.0
 10
372.5021025511736
 20
121.9248896086773
 30
0.0
 10
372.3225826325237
 20
121.550466291452
 30
0.0
 10
372.2316224694019
 20
121.3607513769869
 30
0.0
  0
SPLINE
  5
402
330
1F
100
AcDbEntity
  8
0
  6
Continuous
 62
     7
370
    15
100
AcDbSpline
210
0.0
220
0.0
230
1.0
 70
     8
 71
     3
 72
    19
 73
    15
 74
     0
 42
0.000000001
 43
0.00000001
 40
0.0
 40
0.0
 40
0.0
 40
0.0
 40
0.0848173163342537
 40
0.1719666277871854
 40
0.2568445119593713
 40
0.3444496558075545
 40
0.4249502760439859
 40
0.5079899722588899
 40
0.5852601899258991
 40
0.6647755594794332
 40
0.7421311118706736
 40
0.8215724484076489
 40
0.9094422875434555
 40
1.0
 40
1.0
 40
1.0
 40
1.0
 10
370.6500278226537
 20
128.9336900717081
 30
0.0
 10
370.5187035790226
 20
128.8253404681563
 30
0.0
 10
370.2524444199266
 20
128.6056622615098
 30
0.0
 10
369.9182164891817
 20
128.2214834418066
 30
0.0
 10
369.6421898087808
 20
127.8041077145594
 30
0.0
 10
369.4472048301314
 20
127.3764748171163
 30
0.0
 10
369.3322712409944
 20
126.9471175487585
 30
0.0
 10
369.2998412387645
 20
126.5430511277292
 30
0.0
 10
369.3447080907974
 20
126.1611009669398
 30
0.0
 10
369.4606416305925
 20
125.8178825839999
 30
0.0
 10
369.645946028604
 20
125.5102688619384
 30
0.0
 10
369.9029784142056
 20
125.2402593148651
 30
0.0
 10
370.2342569339763
 20
125.0095716842056
 30
0.0
 10
370.5100526432781
 20
124.9083365695637
 30
0.0
 10
370.6500278226537
 20
124.8569564978178
 30
0.0
  0
SPLINE
  5
403
330
1F
100
AcDbEntity
  8
0
  6
Continuous
 62
     7
370
    15
100
AcDbSpline
210
0.0
220
0.0
230
1.0
 70
     8
 71
     3
 72
    15
 73
    11
 74
     0
 42
0.000000001
 43
0.00000001
 40
0.0
 40
0.0
 40
0.0
 40
0.0
 40
0.1255523938562811
 40
0.2542782239303528
 40
0.3799765823769398
 40
0.509989377257404
 40
0.6254752754523858
 40
0.7443589279954808
 40
0.8704703861780999
 40
1.0
 40
1.0
 40
1.0
 40
1.0
 10
372.2316224694019
 20
134.255965502675
 30
0.0
 10
372.3200537529551
 20
134.0340657360702
 30
0.0
 10
372.4991514908089
 20
133.5846575104697
 30
0.0
 10
372.6193451564765
 20
132.856445209851
 30
0.0
 10
372.6111344108252
 20
132.1011244750186
 30
0.0
 10
372.4585391669366
 20
131.3728429662955
 30
0.0
 10
372.1774179388361
 20
130.6860370015182
 30
0.0
 10
371.7846031447424
 20
130.0526637544091
 30
0.0
 10
371.2770543342261
 20
129.4522607712474
 30
0.0
 10
370.8608914861897
 20
129.1080809714375
 30
0.0
 10
370.6500278226537
 20
128.9336900717081
 30
0.0
  0
SPLINE
  5
404
330
1F
100
AcDbEntity
  8
0
  6
Continuous
 62
     7
370
    15
100
AcDbSpline
210
0.0
220
0.0
230
1.0
 70
     8
 71
     3
 72
    27
 73
    23
 74
     0
 42
0.000000001
 43
0.00000001
 40
0.0
 40
0.0
 40
0.0
 40
0.0
 40
0.0422828649192644
 40
0.084835382777123
 40
0.1282658983749433
 40
0.1720133992495618
 40
0.2143082379527554
 40
0.3004702161960706
 40
0.3444766527369017
 40
0.3845903072283666
 40
0.4662920781676033
 40
0.5079960069610675
 40
0.5465061701194581
 40
0.6248417087251631
 40
0.664755141297697
 40
0.7033134157795009
 40
0.7816605130082748
 40
0.8215204526377662
 40
0.865303154155587
 40
0.9094168769478732
 40
0.9545415235882093
 40
1.0
 40
1.0
 40
1.0
 40
1.0
 10
374.7279665066799
 20
138.5797601957224
 30
0.0
 10
374.6521493031764
 20
138.5704412125009
 30
0.0
 10
374.5000313827707
 20
138.5517438155719
 30
0.0
 10
374.2709075500536
 20
138.4983954843776
 30
0.0
 10
374.0416751703777
 20
138.4255347164881
 30
0.0
 10
373.8169798022021
 20
138.3319896728383
 30
0.0
 10
373.525869917477
 20
138.1814681197159
 30
0.0
 10
373.24836717581
 20
137.9918167680901
 30
0.0
 10
372.9965160274841
 20
137.7700373704639
 30
0.0
 10
372.766903169776
 20
137.5337967206526
 30
0.0
 10
372.5651182304138
 20
137.2735110397595
 30
0.0
 10
372.3957615134748
 20
136.9953094210732
 30
0.0
 10
372.250245282049
 20
136.7117295068371
 30
0.0
 10
372.1370402371634
 20
136.4175747602629
 30
0.0
 10
372.0574503271072
 20
136.1169155615325
 30
0.0
 10
372.0003240255363
 20
135.8137395457807
 30
0.0
 10
371.9770787837357
 20
135.5094033219725
 30
0.0
 10
371.9882668013738
 20
135.200853985706
 30
0.0
 10
372.0162460666944
 20
134.9618396866051
 30
0.0
 10
372.0662808842204
 20
134.7198682822645
 30
0.0
 10
372.1360050430196
 20
134.4824642051962
 30
0.0
 10
372.1996717827084
 20
134.3316503370671
 30
0.0
 10
372.2316224694019
 20
134.255965502675
 30
0.0
  0
SPLINE
  5
405
330
1F
100
AcDbEntity
  8
0
  6
Continuous
 62
     7
370
    15
100
AcDbSpline
210
0.0
220
0.0
230
1.0
 70
     8
 71
     3
 72
    11
 73
     7
 74
     0
 42
0.000000001
 43
0.00000001
 40
0.0
 40
0.0
 40
0.0
 40
0.0
 40
0.2537719365525922
 40
0.5087159351989539
 40
0.7421854335094631
 40
1.0
 40
1.0
 40
1.0
 40
1.0
 10
378.5506206433798
 20
142.6442773358627
 30
0.0
 10
378.4446595779813
 20
142.1143810369055
 30
0.0
 10
378.2322480591538
 20
141.0521410786797
 30
0.0
 10
377.3618971720057
 20
139.7582036495744
 30
0.0
 10
376.1462448740144
 20
138.8560231194129
 30
0.0
 10
375.2160902425447
 20
138.6748406069439
 30
0.0
 10
374.7279665066799
 20
138.5797601957224
 30
0.0
  0
SPLINE
  5
406
330
1F
100
AcDbEntity
  8
0
  6
Continuous
 62
     7
370
    15
100
AcDbSpline
210
0.0
220
0.0
230
1.0
 70
     8
 71
     3
 72
    27
 73
    23
 74
     0
 42
0.000000001
 43
0.00000001
 40
0.0
 40
0.0
 40
0.0
 40
0.0
 40
0.0426595515913602
 40
0.0855912291094201
 40
0.1294088172947011
 40
0.1735461665116133
 40
0.2162189802957604
 40
0.2592096562954145
 40
0.3032354101214049
 40
0.347632640561102
 40
0.3881347241804758
 40
0.4706245875036512
 40
0.5127285464348514
 40
0.5516576810990754
 40
0.630842679393379
 40
0.671186972019378
 40
0.7102109458126667
 40
0.7895022093598788
 40
0.8298410906384411
 40
0.8716884353548345
 40
0.9567324688438414
 40
1.0
 40
1.0
 40
1.0
 40
1.0
 10
382.0558757475192
 20
144.6678180352073
 30
0.0
 10
382.0031360904669
 20
144.7133551049118
 30
0.0
 10
381.8973203492899
 20
144.8047197259793
 30
0.0
 10
381.7273437672761
 20
144.9204408484146
 30
0.0
 10
381.548965605993
 20
145.0191519585372
 30
0.0
 10
381.3646234759647
 20
145.096456279765
 30
0.0
 10
381.1765951681188
 20
145.151916287738
 30
0.0
 10
380.9850678763813
 20
145.185399292581
 30
0.0
 10
380.7885968297899
 20
145.196173961541
 30
0.0
 10
380.5949032278698
 20
145.1832262627887
 30
0.0
 10
380.3443824508249
 20
145.136980023569
 30
0.0
 10
380.1005947089898
 20
145.0490780059626
 30
0.0
 10
379.8691064050359
 20
144.9215936677762
 30
0.0
 10
379.6500701571246
 20
144.7719330305795
 30
0.0
 10
379.4465704951623
 20
144.589301001078
 30
0.0
 10
379.2613439731092
 20
144.3764970065916
 30
0.0
 10
379.0891309756265
 20
144.1451140123915
 30
0.0
 10
378.9379912956876
 20
143.8882686602569
 30
0.0
 10
378.8089667356392
 20
143.6073907503626
 30
0.0
 10
378.6938212569642
 20
143.3043947277801
 30
0.0
 10
378.6039779786927
 20
142.9803688667863
 30
0.0
 10
378.5640758965229
 20
142.7290303806182
 30
0.0
 10
378.5506206433798
 20
142.6442773358627
 30
0.0
  0
LINE
  5
407
330
1F
100
AcDbEntity
  8
0
  6
Continuous
 62
     7
370
    15
100
AcDbLine
 10
372.2316224694
 20
134.2559655027
 30
0.0
 11
366.2705341879
 21
137.6972285182
 31
0.0
  0
ARC
  5
408
330
1F
100
AcDbEntity
  8
0
  6
Continuous
 62
     7
370
    15
100
AcDbCircle
 10
370.5633239985
 20
138.1013149578
 30
0.0
 40
4.311766483523304
100
AcDbArc
 50
114.6225117091
 51
185.3774881453
  0
LINE
  5
409
330
1F
100
AcDbEntity
  8
0
  6
Continuous
 62
     7
370
    15
100
AcDbLine
 10
374.7279665067
 20
138.5797601957
 30
0.0
 11
368.7668782252
 21
142.0210232113
 31
0.0
  0
ARC
  5
40A
330
1F
100
AcDbEntity
  8
0
  6
Continuous
 62
     7
370
    15
100
AcDbCircle
 10
365.7602011314
 20
148.695479084
 30
0.0
 40
7.320414492627521
100
AcDbArc
 50
294.2503850307
 51
339.073131428
  0
LINE
  5
40B
330
1F
100
AcDbEntity
  8
0
  6
Continuous
 62
     7
370
    15
100
AcDbLine
 10
378.5506206434
 20
142.6442773359
 30
0.0
 11
372.5977397164
 21
146.0808023465
 31
0.0
  0
LINE
  5
40C
330
1F
100
AcDbEntity
  8
0
  6
Continuous
 62
     7
370
    15
100
AcDbLine
 10
370.6500278227
 20
128.9336900717
 30
0.0
 11
364.6889395412
 21
132.3749530873
 31
0.0
  0
ARC
  5
40D
330
1F
100
AcDbEntity
  8
0
  6
Continuous
 62
     7
370
    15
100
AcDbCircle
 10
358.9984391513
 20
136.9621064515
 30
0.0
 40
7.309156632222131
100
AcDbArc
 50
321.127462406
 51
5.7723111516
  0
LWPOLYLINE
  5
40E
330
1F
100
AcDbEntity
  8
0
  6
Continuous
 62
     7
370
    15
100
AcDbPolyline
 90
        9
 70
   128
 43
0.0
 10
364.6889395412
 20
132.3749530873
 10
364.2948202859
 20
131.7557489269
 10
363.9950665332
 20
131.092062997
 10
363.8076920596
 20
130.4237796689
 10
363.7439571805
 20
129.7910595954
 10
363.8076920596
 20
129.2319262469
 10
363.9950665332
 20
128.7799808812
 10
364.2948202859
 20
128.4623832675
 10
364.365343287
 20
128.4176492545
  0
LWPOLYLINE
  5
40F
330
1F
100
AcDbEntity
  8
0
  6
Continuous
 62
     7
370
    15
100
AcDbPolyline
 90
        9
 70
   128
 43
0.0
 10
375.8502453674
 20
148.3106461383
 10
375.7638129043
 20
148.3550978768
 10
375.341523431
 20
148.4504736216
 10
374.8609561115
 20
148.3848623919
 10
374.3503672685
 20
148.1621219868
 10
373.8397784254
 20
147.7953490619
 10
373.3592111059
 20
147.3061090748
 10
372.9369216326
 20
146.7231682822
 10
372.5977397164
 20
146.0808023465
  0
ARC
  5
410
330
1F
100
AcDbEntity
  8
0
  6
Continuous
 62
     7
370
    15
100
AcDbCircle
 10
369.0810034807
 20
138.9570747711
 30
0.0
 40
2.854112834555754
100
AcDbArc
 50
122.3295708564
 51
177.6758056763
  0
LINE
  5
411
330
1F
100
AcDbEntity
  8
0
  6
Continuous
 62
     7
370
    15
100
AcDbLine
 10
372.4626442903
 20
146.4090795928
 30
0.0
 11
372.5977397164
 21
146.0808023465
 31
0.0
  0
ARC
  5
412
330
1F
100
AcDbEntity
  8
0
  6
Continuous
 62
     7
370
    15
100
AcDbCircle
 10
363.2495820135
 20
150.2249446958
 30
0.0
 40
9.972028028478505
100
AcDbArc
 50
306.0504133381
 51
337.5016468593
  0
LINE
  5
413
330
1F
100
AcDbEntity
  8
0
  6
Continuous
 62
     7
370
    15
100
AcDbLine
 10
364.6889395412
 20
132.3749530873
 30
0.0
 11
364.3345391411
 21
132.3243646145
 31
0.0
  0
ARC
  5
414
330
1F
100
AcDbEntity
  8
0
  6
Continuous
 62
     7
370
    15
100
AcDbCircle
 10
356.6712807127
 20
138.2685750879
 30
0.0
 40
9.698410585885167
100
AcDbArc
 50
322.2001030586
 51
354.4044142684
  0
ARC
  5
415
330
1F
100
AcDbEntity
  8
0
  6
Continuous
 62
     7
370
    15
100
AcDbCircle
 10
377.4025336215
 20
151.1847437756
 30
0.0
 40
3.715621753520574
100
AcDbArc
 50
268.5079212117
 51
313.4138920193
  0
LINE
  5
416
330
1F
100
AcDbEntity
  8
0
  6
Continuous
 62
     7
370
    15
100
AcDbLine
 10
385.9090263428
 20
145.0491611851
 30
0.0
 11
379.9561454158
 21
148.4856861957
 31
0.0
  0
LINE
  5
417
330
1F
100
AcDbEntity
  8
0
  6
Continuous
 62
     7
370
    15
100
AcDbLine
 10
372.2316224694
 20
121.360751377
 30
0.0
 11
366.2705341879
 21
124.8020143925
 31
0.0
  0
ARC
  5
418
330
1F
100
AcDbEntity
  8
0
  6
Continuous
 62
     7
370
    15
100
AcDbCircle
 10
362.5643951077
 20
125.6243607553
 30
0.0
 40
3.796277179330887
100
AcDbArc
 50
347.4894629539
 51
30.9786145095
  0
ARC
  5
419
330
1F
100
AcDbEntity
  8
0
  6
Continuous
 62
     7
370
    15
100
AcDbCircle
 10
366.5862445007
 20
130.5854533456
 30
0.0
 40
2.844993748288848
100
AcDbArc
 50
142.3223785563
 51
177.5006351634
  0
ARC
  5
41A
330
1F
100
AcDbEntity
  8
0
  6
Continuous
 62
     7
370
    15
100
AcDbCircle
 10
375.0775134458
 20
145.3093044239
 30
0.0
 40
2.836731591543341
100
AcDbArc
 50
122.4684420445
 51
157.1891002708
  0
LWPOLYLINE
  5
41B
330
1F
100
AcDbEntity
  8
0
  6
Continuous
 62
     7
370
    15
100
AcDbPolyline
 90
        6
 70
   128
 43
0.0
 10
366.2705341879
 20
124.8020143925
 10
366.2316932561
 20
124.180815161
 10
366.3201745665
 20
123.6401970377
 10
366.5306608127
 20
123.2126486033
 10
366.8505027713
 20
122.9238634876
 10
366.8506246613
 20
122.9237931105
  0
ARC
  5
41C
330
1F
100
AcDbEntity
  8
0
  6
Continuous
 62
     7
370
    15
100
AcDbCircle
 10
381.217808861
 20
147.2720915861
 30
0.0
 40
1.750601760985916
100
AcDbArc
 50
68.8219074803
 51
136.1125285536
  0
LINE
  5
41D
330
1F
100
AcDbEntity
  8
0
  6
Continuous
 62
     7
370
    15
100
AcDbLine
 10
379.3139875408
 20
148.1320170534
 30
0.0
 11
379.9561454158
 21
148.4856861957
 31
0.0
  0
LINE
  5
41E
330
1F
100
AcDbEntity
  8
0
  6
Continuous
 62
     7
370
    15
100
AcDbLine
 10
378.8271472479
 20
147.767484906
 30
0.0
 11
379.3139875408
 21
148.1320170534
 31
0.0
  0
LINE
  5
41F
330
1F
100
AcDbEntity
  8
0
  6
Continuous
 62
     7
370
    15
100
AcDbLine
 10
366.2705341879
 20
124.8020143925
 30
0.0
 11
366.2550469264
 21
125.5311523131
 31
0.0
  0
LWPOLYLINE
  5
420
330
1F
100
AcDbEntity
  8
0
  6
Continuous
 62
     7
370
    15
100
AcDbPolyline
 90
        3
 70
   128
 43
0.0
 10
366.2550469264
 20
125.5311523131
 10
366.3371608228
 20
126.3402332115
 10
366.3428080748
 20
126.6039724764
  0
LWPOLYLINE
  5
421
330
1F
100
AcDbEntity
  8
0
  6
Continuous
 62
     7
370
    15
100
AcDbPolyline
 90
       20
 70
   128
 43
0.0
 10
365.4392998452
 20
134.5632449399
 10
365.2046481659
 20
134.7234679855
 10
364.80697633
 20
135.1497264191
 10
364.5139667686
 20
135.7061837272
 10
364.3345224289
 20
136.3759322361
 10
364.2740956366
 20
137.1386219762
 10
364.3345224289
 20
137.9710790058
 10
364.5139667686
 20
138.8480095392
 10
364.80697633
 20
139.742768486
 10
365.2046481659
 20
140.6281690482
 10
365.6948992188
 20
141.4773087779
 10
366.2628334587
 20
142.264386994
 10
366.8911944909
 20
142.9654887233
 10
367.5608898834
 20
143.5593113445
 10
368.2515712807
 20
144.0278118576
 10
368.9422526781
 20
144.3567551117
 10
369.6119480706
 20
144.5361463325
 10
370.2403091028
 20
144.5605348085
 10
370.8082433427
 20
144.4291795082
 10
371.0638427163
 20
144.3062946416
  0
LINE
  5
422
330
1F
100
AcDbEntity
  8
0
  6
Continuous
 62
     7
370
    15
100
AcDbLine
 10
366.2292385548
 20
125.2156625772
 30
0.0
 11
366.2550469264
 21
125.5311523131
 31
0.0
  0
LINE
  5
423
330
1F
100
AcDbEntity
  8
0
  6
Continuous
 62
     7
370
    15
100
AcDbLine
 10
379.3139875408
 20
148.1320170534
 30
0.0
 11
379.5546566558
 21
148.2964337922
 31
0.0
  0
ARC
  5
424
330
1F
100
AcDbEntity
  8
0
  6
Continuous
 62
     7
370
    15
100
AcDbCircle
 10
345.2666821624
 20
149.3775463558
 30
0.0
 40
2.754004602194568
100
AcDbArc
 50
173.4667440381
 51
235.2210755685
  0
LWPOLYLINE
  5
425
330
1F
100
AcDbEntity
  8
0
  6
Continuous
 62
     7
370
    15
100
AcDbPolyline
 90
       15
 70
   128
 43
0.0
 10
349.3203091948
 20
156.8585693609
 10
349.0647098212
 20
156.9814542275
 10
348.4967755813
 20
157.1128095278
 10
347.8684145492
 20
157.0884210518
 10
347.1987191566
 20
156.909029831
 10
346.5080377593
 20
156.5800865769
 10
345.8173563619
 20
156.1115860637
 10
345.1476609694
 20
155.5177634426
 10
344.5192999372
 20
154.8166617133
 10
343.9513656974
 20
154.0295834972
 10
343.4611146444
 20
153.1804437675
 10
343.0634428085
 20
152.2950432052
 10
342.7704332471
 20
151.4002842585
 10
342.5909889075
 20
150.5233537251
 10
342.5305621151
 20
149.6908966955
  0
LWPOLYLINE
  5
426
330
1F
100
AcDbEntity
  8
0
  6
Continuous
 62
     7
370
    15
100
AcDbPolyline
 90
        9
 70
   128
 43
0.0
 10
337.2711908023
 20
145.3934618566
 10
337.8011355316
 20
145.2267000497
 10
338.2645940701
 20
144.9361171746
 10
338.6513394265
 20
144.5281254305
 10
338.9528374149
 20
144.0117278408
 10
339.1624349756
 20
143.3983195857
 10
339.2755069864
 20
142.7014365488
 10
339.2895583234
 20
141.9364566251
 10
339.2042789203
 20
141.1202603816
  0
LWPOLYLINE
  5
427
330
1F
100
AcDbEntity
  8
0
  6
Continuous
 62
     7
370
    15
100
AcDbPolyline
 90
        9
 70
   128
 43
0.0
 10
337.2711908023
 20
147.9159906701
 10
337.0313223176
 20
147.532753631
 10
336.8492451793
 20
147.123626341
 10
336.7355727838
 20
146.7124570999
 10
336.6969311703
 20
146.3232132342
 10
336.7355727838
 20
145.9785840259
 10
336.8492451793
 20
145.698658139
 10
337.0313223176
 20
145.4997526383
 10
337.2711908023
 20
145.3934618566
  0
ARC
  5
428
330
1F
100
AcDbEntity
  8
0
  6
Continuous
 62
     7
370
    15
100
AcDbCircle
 10
330.3850564382
 20
153.5020815941
 30
0.0
 40
8.866975712871263
100
AcDbArc
 50
320.9507409247
 51
5.949032633
  0
ARC
  5
429
330
1F
100
AcDbEntity
  8
0
  6
Continuous
 62
     7
370
    15
100
AcDbCircle
 10
341.9050507745
 20
154.6453974238
 30
0.0
 40
2.710070708631044
100
AcDbArc
 50
115.2522666949
 51
184.7477331595
  0
ARC
  5
42A
330
1F
100
AcDbEntity
  8
0
  6
Continuous
 62
     7
370
    15
100
AcDbCircle
 10
337.1359960569
 20
165.1928196247
 30
0.0
 40
8.865878674386053
100
AcDbArc
 50
294.0484565499
 51
339.0506062204
  0
LWPOLYLINE
  5
42B
330
1F
100
AcDbEntity
  8
0
  6
Continuous
 62
     7
370
    15
100
AcDbPolyline
 90
        9
 70
   128
 43
0.0
 10
347.6002656086
 20
163.2839441638
 10
347.3883053265
 20
163.4385733702
 10
347.1250336668
 20
163.4968458351
 10
346.8257969083
 20
163.455364818
 10
346.5080377593
 20
163.3165482749
 10
346.1902786102
 20
163.0884879137
 10
345.8910418517
 20
162.7844775234
 10
345.627770192
 20
162.4222380703
 10
345.4158099099
 20
162.0228847314
  0
ARC
  5
42C
330
1F
100
AcDbEntity
  8
0
  6
Continuous
 62
     7
370
    15
100
AcDbCircle
 10
349.4633942275
 20
165.0957015129
 30
0.0
 40
2.598790669227308
100
AcDbArc
 50
224.1991138582
 51
294.4382626074
  0
ARC
  5
42D
330
1F
100
AcDbEntity
  8
0
  6
Continuous
 62
     7
370
    15
100
AcDbCircle
 10
357.6649635498
 20
137.6176578004
 30
0.0
 40
10.9580002652439
100
AcDbArc
 50
143.4968962304
 51
156.7047890169
  0
LWPOLYLINE
  5
42E
330
1F
100
AcDbEntity
  8
0
  6
Continuous
 62
     7
370
    15
100
AcDbPolyline
 90
        9
 70
   128
 43
0.0
 10
345.4158099099
 20
140.6901448562
 10
345.627770192
 20
140.5355156498
 10
345.8910418517
 20
140.477243185
 10
346.1902786102
 20
140.518724202
 10
346.5080377593
 20
140.6575407451
 10
346.8257969083
 20
140.8856011063
 10
347.1250336668
 20
141.1896114966
 10
347.3883053265
 20
141.5518509497
 10
347.6002656086
 20
141.9512042886
  0
LWPOLYLINE
  5
42F
330
1F
100
AcDbEntity
  8
0
  6
Continuous
 62
     7
370
    15
100
AcDbPolyline
 90
        9
 70
   128
 43
0.0
 10
340.7489223581
 20
140.2282668281
 10
341.4130979785
 20
140.7101647595
 10
342.0825786662
 20
141.0804217686
 10
342.7425912052
 20
141.3308675126
 10
343.3785713102
 20
141.4559754853
 10
343.9764850116
 20
141.4529849692
 10
344.5231383392
 20
141.321961955
 10
345.0064684691
 20
141.0657976857
 10
345.4158099099
 20
140.6901448562
  0
LWPOLYLINE
  5
430
330
1F
100
AcDbEntity
  8
0
  6
Continuous
 62
     7
370
    15
100
AcDbPolyline
 90
        9
 70
   128
 43
0.0
 10
339.2042789203
 20
141.1202603816
 10
339.184544841
 20
140.7399315121
 10
339.2419580377
 20
140.4094299759
 10
339.3731718571
 20
140.1480209257
 10
339.5705377593
 20
139.9709420678
 10
339.8225511553
 20
139.8885154455
 10
340.1145220181
 20
139.9055457612
 10
340.4294311732
 20
140.0210403065
 10
340.7489223581
 20
140.2282668281
  0
LINE
  5
431
330
1F
100
AcDbEntity
  8
0
  6
Continuous
 62
     7
370
    15
100
AcDbLine
 10
339.2042789203
 20
154.4210881789
 30
0.0
 11
337.6281748292
 21
154.2526135788
 31
0.0
  0
ARC
  5
432
330
1F
100
AcDbEntity
  8
0
  6
Continuous
 62
     7
370
    15
100
AcDbCircle
 10
341.9415527504
 20
154.6243124711
 30
0.0
 40
4.329363597372259
100
AcDbArc
 50
115.074789014
 51
184.9252108404
  0
LINE
  5
433
330
1F
100
AcDbEntity
  8
0
  6
Continuous
 62
     7
370
    15
100
AcDbLine
 10
340.7489223581
 20
157.0964890848
 30
0.0
 11
340.1067644831
 21
158.5456567779
 31
0.0
  0
SPLINE
  5
434
330
1F
100
AcDbEntity
  8
0
  6
Continuous
 62
     7
370
    15
100
AcDbSpline
210
0.0
220
0.0
230
1.0
 70
     8
 71
     3
 72
    27
 73
    23
 74
     0
 42
0.000000001
 43
0.00000001
 40
0.0
 40
0.0
 40
0.0
 40
0.0
 40
0.0426606797130386
 40
0.0855935073502102
 40
0.1294123204537268
 40
0.1735509225917159
 40
0.2162236415775124
 40
0.2592142218224081
 40
0.3032398763007055
 40
0.3476370058791242
 40
0.3881390265364093
 40
0.4706287588872065
 40
0.5127326489498877
 40
0.55166176460783
 40
0.6308467217354314
 40
0.6711909916324432
 40
0.7102149879124682
 40
0.7895062952715594
 40
0.82984519757245
 40
0.8716915672088617
 40
0.9567335501972694
 40
1.0
 40
1.0
 40
1.0
 40
1.0
 10
331.6752939022097
 20
157.6891385894227
 30
0.0
 10
331.6858346387569
 20
157.7368866083394
 30
0.0
 10
331.7069833550268
 20
157.8326872480762
 30
0.0
 10
331.7513045737575
 20
157.9947429543966
 30
0.0
 10
331.8055327249544
 20
158.1704830243494
 30
0.0
 10
331.8700488541331
 20
158.3580701320072
 30
0.0
 10
331.9439871330907
 20
158.5548189920865
 30
0.0
 10
332.027388075833
 20
158.7603576886165
 30
0.0
 10
332.1213126492356
 20
158.9762697071162
 30
0.0
 10
332.2223548025493
 20
159.194030205735
 30
0.0
 10
332.3636882955736
 20
159.481642720501
 30
0.0
 10
332.5167919413502
 20
159.7700079560439
 30
0.0
 10
332.6782349684751
 20
160.0523315681209
 30
0.0
 10
332.8415882432185
 20
160.325082622964
 30
0.0
 10
333.0092478966812
 20
160.5869405283244
 30
0.0
 10
333.1787332821734
 20
160.8345401834667
 30
0.0
 10
333.3484064771027
 20
161.0715364323349
 30
0.0
 10
333.51662149252
 20
161.2906341755164
 30
0.0
 10
333.6820983136106
 20
161.4909265575021
 30
0.0
 10
333.8482366360257
 20
161.6811873288358
 30
0.0
 10
334.0086599121841
 20
161.8491774370141
 30
0.0
 10
334.1172621614056
 20
161.9486417620958
 30
0.0
 10
334.1538835561354
 20
161.982181788536
 30
0.0
  0
LINE
  5
435
330
1F
100
AcDbEntity
  8
0
  6
Continuous
 62
     7
370
    15
100
AcDbLine
 10
334.1538835561
 20
161.9821817885
 30
0.0
 11
340.1067644831
 21
158.5456567779
 31
0.0
  0
LINE
  5
436
330
1F
100
AcDbEntity
  8
0
  6
Continuous
 62
     7
370
    15
100
AcDbLine
 10
331.6752939022
 20
157.6891385894
 30
0.0
 11
337.6281748292
 21
154.2526135788
 31
0.0
  0
LINE
  5
437
330
1F
100
AcDbEntity
  8
0
  6
Continuous
 62
     7
370
    15
100
AcDbLine
 10
337.2711908023
 20
147.9159906701
 30
0.0
 11
336.0321475948
 21
148.881770579
 31
0.0
  0
ARC
  5
438
330
1F
100
AcDbEntity
  8
0
  6
Continuous
 62
     7
370
    15
100
AcDbCircle
 10
330.3689419299
 20
153.4872411182
 30
0.0
 40
7.29946965807326
100
AcDbArc
 50
320.8810670043
 51
6.0187065533
  0
ARC
  5
439
330
1F
100
AcDbEntity
  8
0
  6
Continuous
 62
     7
370
    15
100
AcDbCircle
 10
337.1406399469
 20
165.2143284302
 30
0.0
 40
7.298566734025415
100
AcDbArc
 50
293.9787765776
 51
339.1202861927
  0
LINE
  5
43A
330
1F
100
AcDbEntity
  8
0
  6
Continuous
 62
     7
370
    15
100
AcDbLine
 10
345.4158099099
 20
162.0228847314
 30
0.0
 11
343.9599150784
 21
162.6130666109
 31
0.0
  0
LINE
  5
43B
330
1F
100
AcDbEntity
  8
0
  6
Continuous
 62
     7
370
    15
100
AcDbLine
 10
330.0792666678
 20
152.3182955897
 30
0.0
 11
336.0321475948
 21
148.881770579
 31
0.0
  0
SPLINE
  5
43C
330
1F
100
AcDbEntity
  8
0
  6
Continuous
 62
     7
370
    15
100
AcDbSpline
210
0.0
220
0.0
230
1.0
 70
     8
 71
     3
 72
    12
 73
     8
 74
     0
 42
0.000000001
 43
0.00000001
 40
0.0
 40
0.0
 40
0.0
 40
0.0
 40
0.2523388541794062
 40
0.5058431516690088
 40
0.7379942180549656
 40
0.9690881654589661
 40
0.9999999999999999
 40
0.9999999999999999
 40
0.9999999999999999
 40
0.9999999999999999
 10
330.0792666677908
 20
152.3182955896898
 30
0.0
 10
330.2475617800894
 20
152.8116896558503
 30
0.0
 10
330.584929286542
 20
153.8007565605606
 30
0.0
 10
331.0474010185554
 20
155.337651822503
 30
0.0
 10
331.426189994628
 20
156.6425754692947
 30
0.0
 10
331.6064086105796
 20
157.3500837166717
 30
0.0
 10
331.6680243813024
 20
157.6533578526662
 30
0.0
 10
331.6752939022097
 20
157.6891385894227
 30
0.0
  0
LINE
  5
43D
330
1F
100
AcDbEntity
  8
0
  6
Continuous
 62
     7
370
    15
100
AcDbLine
 10
338.0070341514
 20
166.0495916216
 30
0.0
 11
343.9599150784
 21
162.6130666109
 31
0.0
  0
SPLINE
  5
43E
330
1F
100
AcDbEntity
  8
0
  6
Continuous
 62
     7
370
    15
100
AcDbSpline
210
0.0
220
0.0
230
1.0
 70
     8
 71
     3
 72
    12
 73
     8
 74
     0
 42
0.000000001
 43
0.00000001
 40
0.0
 40
0.0
 40
0.0
 40
0.0
 40
0.2523425790010243
 40
0.5058462538030642
 40
0.7379970426370731
 40
0.9690912189386459
 40
1.0
 40
1.0
 40
1.0
 40
1.0
 10
334.1538835561354
 20
161.982181788536
 30
0.0
 10
334.3969383491901
 20
162.2085253247317
 30
0.0
 10
334.8841662955094
 20
162.662253864364
 30
0.0
 10
335.8741550549599
 20
163.6992511862477
 30
0.0
 10
336.9238509047042
 20
164.819859231139
 30
0.0
 10
337.6268059991703
 20
165.6037818063109
 30
0.0
 10
337.9669115234109
 20
166.0025486520758
 30
0.0
 10
338.0070341513854
 20
166.0495916215687
 30
0.0
  0
LWPOLYLINE
  5
43F
330
1F
100
AcDbEntity
  8
0
  6
Continuous
 62
     7
370
    15
100
AcDbPolyline
 90
        9
 70
   128
 43
0.0
 10
347.833862974
 20
146.6293662762
 10
347.8942897664
 20
145.866676536
 10
348.073734106
 20
145.1969280272
 10
348.3667436674
 20
144.6404707191
 10
348.7644155033
 20
144.2142122855
 10
349.2546665563
 20
143.9311043732
 10
349.8226007961
 20
143.7997490729
 10
350.4509618283
 20
143.8241375489
 10
350.538546412
 20
143.8392181621
  0
ARC
  5
440
330
1F
100
AcDbEntity
  8
0
  6
Continuous
 62
     7
370
    15
100
AcDbCircle
 10
356.6644334733
 20
146.1651287575
 30
0.0
 40
8.842764941867184
100
AcDbArc
 50
133.8487452361
 51
176.9906376218
  0
LINE
  5
441
330
1F
100
AcDbEntity
  8
0
  6
Continuous
 62
     7
370
    15
100
AcDbLine
 10
337.2711908023
 20
145.3934618566
 30
0.0
 11
336.0321475948
 21
144.8340313623
 31
0.0
  0
LWPOLYLINE
  5
442
330
1F
100
AcDbEntity
  8
0
  6
Continuous
 62
     7
370
    15
100
AcDbPolyline
 90
        9
 70
   128
 43
0.0
 10
336.0321475948
 20
144.8340313623
 10
335.6454359073
 20
145.0024622148
 10
335.3517321411
 20
145.3205549369
 10
335.1683054448
 20
145.769606362
 10
335.1059409126
 20
146.3232132342
 10
335.1683054448
 20
146.9488246626
 10
335.3517321411
 20
147.6096560435
 10
335.6454359073
 20
148.266851916
 10
336.0321475948
 20
148.881770579
  0
LWPOLYLINE
  5
443
330
1F
100
AcDbEntity
  8
0
  6
Continuous
 62
     7
370
    15
100
AcDbPolyline
 90
        9
 70
   128
 43
0.0
 10
343.9599150784
 20
162.6130666109
 10
344.2990969946
 20
163.2554325466
 10
344.7213864679
 20
163.8383733392
 10
345.2019537874
 20
164.3276133263
 10
345.7125426304
 20
164.6943862512
 10
346.2231314735
 20
164.9171266564
 10
346.703698793
 20
164.982737886
 10
347.1259882663
 20
164.8873621412
 10
347.4651701825
 20
164.6366073103
  0
LINE
  5
444
330
1F
100
AcDbEntity
  8
0
  6
Continuous
 62
     7
370
    15
100
AcDbLine
 10
347.6002656086
 20
163.2839441638
 30
0.0
 11
347.4651701825
 21
164.6366073103
 31
0.0
  0
SPLINE
  5
445
330
1F
100
AcDbEntity
  8
0
  6
Continuous
 62
     7
370
    15
100
AcDbSpline
210
0.0
220
0.0
230
1.0
 70
     8
 71
     3
 72
    18
 73
    14
 74
     0
 42
0.000000001
 43
0.00000001
 40
0.0
 40
0.0
 40
0.0
 40
0.0
 40
0.0828866262705813
 40
0.1779111921088433
 40
0.2759848446086449
 40
0.3661754139864243
 40
0.4592041513011013
 40
0.5458781288862917
 40
0.6350646318532283
 40
0.7219373636112981
 40
0.8111481733288263
 40
0.9043103595238483
 40
1.0
 40
1.0
 40
1.0
 40
1.0
 10
329.905768038346
 20
148.3166989672127
 30
0.0
 10
329.8653169494968
 20
148.3442379083238
 30
0.0
 10
329.7784911036025
 20
148.4033486003974
 30
0.0
 10
329.6723987438924
 20
148.5968590063597
 30
0.0
 10
329.5912287449136
 20
148.8657986249982
 30
0.0
 10
329.5442713367026
 20
149.2039986841571
 30
0.0
 10
329.532240697534
 20
149.5834974078571
 30
0.0
 10
329.5533156770454
 20
150.0041790617474
 30
0.0
 10
329.6045049122615
 20
150.4441556114439
 30
0.0
 10
329.6845864657462
 20
150.9047940372699
 30
0.0
 10
329.7914011024735
 20
151.3759013490052
 30
0.0
 10
329.9232155357977
 20
151.856375318376
 30
0.0
 10
330.0267875797126
 20
152.1629544890278
 30
0.0
 10
330.0792666677908
 20
152.3182955896898
 30
0.0
  0
SPLINE
  5
446
330
1F
100
AcDbEntity
  8
0
  6
Continuous
 62
     7
370
    15
100
AcDbSpline
210
0.0
220
0.0
230
1.0
 70
     8
 71
     3
 72
    26
 73
    22
 74
     0
 42
0.000000001
 43
0.00000001
 40
0.0
 40
0.0
 40
0.0
 40
0.0
 40
0.0473384519066789
 40
0.0949788765161427
 40
0.1436023784892783
 40
0.1925807128892173
 40
0.2399338815862046
 40
0.2876397756316875
 40
0.3364942748564056
 40
0.3857609942558893
 40
0.4307053470681753
 40
0.5222426999479829
 40
0.5689646217824608
 40
0.6121635045725045
 40
0.7000335147730927
 40
0.7448027700732733
 40
0.7881068939496066
 40
0.8760948245777781
 40
0.9208580750138469
 40
0.9672952371822464
 40
1.0
 40
1.0
 40
1.0
 40
1.0
 10
338.0070341513854
 20
166.0495916215687
 30
0.0
 10
338.0597738084376
 20
166.1103513099157
 30
0.0
 10
338.1655895496142
 20
166.2322582735833
 30
0.0
 10
338.3355661316306
 20
166.4170399208567
 30
0.0
 10
338.5139442929039
 20
166.6025495601511
 30
0.0
 10
338.6982864229686
 20
166.7849216644334
 30
0.0
 10
338.8863147306825
 20
166.9618459908769
 30
0.0
 10
339.0778420229167
 20
167.1329140624131
 30
0.0
 10
339.2743130676023
 20
167.2988282561915
 30
0.0
 10
339.4680066765164
 20
167.4526543920472
 30
0.0
 10
339.7185274215977
 20
167.6392400187288
 30
0.0
 10
339.9623153604619
 20
167.8026226183964
 30
0.0
 10
340.193803204613
 20
167.938893183505
 30
0.0
 10
340.4128411858042
 20
168.055392694449
 30
0.0
 10
340.6163301066925
 20
168.1449642395086
 30
0.0
 10
340.8015819390278
 20
168.206827689745
 30
0.0
 10
340.9736947455447
 20
168.2501836895047
 30
0.0
 10
341.1254583967535
 20
168.266579521552
 30
0.0
 10
341.2529887726721
 20
168.2537034476213
 30
0.0
 10
341.3341410017464
 20
168.2367871728864
 30
0.0
 10
341.3685334377341
 20
168.2093781574523
 30
0.0
 10
341.3827458347905
 20
168.1980516026711
 30
0.0
  0
LINE
  5
447
330
1F
100
AcDbEntity
  8
0
  6
Continuous
 62
     7
370
    15
100
AcDbLine
 10
339.2042789203
 20
141.1202603816
 30
0.0
 11
337.6281748292
 21
141.3059221838
 31
0.0
  0
LWPOLYLINE
  5
448
330
1F
100
AcDbEntity
  8
0
  6
Continuous
 62
     7
370
    15
100
AcDbPolyline
 90
        9
 70
   128
 43
0.0
 10
337.6281748292
 20
141.3059221838
 10
337.6994399706
 20
141.9803927202
 10
337.6884330128
 20
142.61256634
 10
337.5953982565
 20
143.1884118811
 10
337.4224006183
 20
143.6951483892
 10
337.1732797994
 20
144.1215287923
 10
336.8535650635
 20
144.4580895312
 10
336.4703525139
 20
144.6973606037
 10
336.0321475948
 20
144.8340313623
  0
ARC
  5
449
330
1F
100
AcDbEntity
  8
0
  6
Continuous
 62
     7
370
    15
100
AcDbCircle
 10
349.0989247057
 20
166.4534643978
 30
0.0
 40
2.443383620884722
100
AcDbArc
 50
228.0374829742
 51
306.0996801009
  0
LINE
  5
44A
330
1F
100
AcDbEntity
  8
0
  6
Continuous
 62
     7
370
    15
100
AcDbLine
 10
331.6752939022
 20
144.7424471944
 30
0.0
 11
337.6281748292
 21
141.3059221838
 31
0.0
  0
SPLINE
  5
44B
330
1F
100
AcDbEntity
  8
0
  6
Continuous
 62
     7
370
    15
100
AcDbSpline
210
0.0
220
0.0
230
1.0
 70
     8
 71
     3
 72
    10
 73
     6
 74
     0
 42
0.000000001
 43
0.00000001
 40
0.0
 40
0.0
 40
0.0
 40
0.0
 40
0.3872063994710274
 40
0.7761944393070266
 40
1.0
 40
1.0
 40
1.0
 40
1.0
 10
331.6752939022092
 20
144.7424471944321
 30
0.0
 10
331.6004315589651
 20
145.2499613197265
 30
0.0
 10
331.4503624107823
 20
146.2673247787537
 30
0.0
 10
331.0988083204629
 20
147.3572876748614
 30
0.0
 10
330.8483214558136
 20
147.6955665371802
 30
0.0
 10
330.7568382008633
 20
147.8191133405191
 30
0.0
  0
SPLINE
  5
44C
330
1F
100
AcDbEntity
  8
0
  6
Continuous
 62
     7
370
    15
100
AcDbSpline
210
0.0
220
0.0
230
1.0
 70
     8
 71
     3
 72
    10
 73
     6
 74
     0
 42
0.000000001
 43
0.00000001
 40
0.0
 40
0.0
 40
0.0
 40
0.0
 40
0.2511532339793158
 40
0.6070224577146667
 40
1.0
 40
1.0
 40
1.0
 40
1.0
 10
342.2303614956599
 20
167.7189919791962
 30
0.0
 10
342.400747851074
 20
167.6982924134665
 30
0.0
 10
342.8125615577332
 20
167.6482627918535
 30
0.0
 10
343.9279558746463
 20
167.8889560961801
 30
0.0
 10
344.8507055872822
 20
168.2510770055524
 30
0.0
 10
345.3349433922247
 20
168.4411097217668
 30
0.0
  0
LWPOLYLINE
  5
44D
330
1F
100
AcDbEntity
  8
0
  6
Continuous
 62
     7
370
    15
100
AcDbPolyline
 90
        9
 70
   128
 43
0.0
 10
339.7128874046
 20
139.6045458886
 10
339.5934801935
 20
139.5394749745
 10
339.0871965186
 20
139.3521991079
 10
338.6176818473
 20
139.3237815031
 10
338.2125426304
 20
139.4558930543
 10
337.8956001807
 20
139.7407658868
 10
337.6854900311
 20
140.161650092
 10
337.5945662056
 20
140.6937985859
 10
337.6281748292
 20
141.3059221838
  0
SPLINE
  5
44E
330
1F
100
AcDbEntity
  8
0
  6
Continuous
 62
     7
370
    15
100
AcDbSpline
210
0.0
220
0.0
230
1.0
 70
     8
 71
     3
 72
    17
 73
    13
 74
     0
 42
0.000000001
 43
0.00000001
 40
0.0
 40
0.0
 40
0.0
 40
0.0
 40
0.084575727083946
 40
0.1696908238010867
 40
0.2565621235895451
 40
0.3440674688787355
 40
0.4286671463615887
 40
0.6010114747516788
 40
0.6890347525953379
 40
0.7692715459414795
 40
0.9326944051641457
 40
1.0
 40
1.0
 40
1.0
 40
1.0
 10
345.3349433922247
 20
168.4411097217668
 30
0.0
 10
345.4107606033105
 20
168.4731714755081
 30
0.0
 10
345.5628785389291
 20
168.537499452251
 30
0.0
 10
345.7920022562016
 20
168.6199560388184
 30
0.0
 10
346.0212350849989
 20
168.6910053366258
 30
0.0
 10
346.2459287748221
 20
168.7474695078769
 30
0.0
 10
346.537046806973
 20
168.8028707214577
 30
0.0
 10
346.8144988808941
 20
168.8272890085582
 30
0.0
 10
347.0664678781524
 20
168.8184480559425
 30
0.0
 10
347.2956430272068
 20
168.7883845856506
 30
0.0
 10
347.4900659912306
 20
168.7340961623597
 30
0.0
 10
347.6080438768594
 20
168.6689814094849
 30
0.0
 10
347.6424591023335
 20
168.6499868420715
 30
0.0
  0
SPLINE
  5
44F
330
1F
100
AcDbEntity
  8
0
  6
Continuous
 62
     7
370
    15
100
AcDbSpline
210
0.0
220
0.0
230
1.0
 70
     8
 71
     3
 72
    17
 73
    13
 74
     0
 42
0.000000001
 43
0.00000001
 40
0.0
 40
0.0
 40
0.0
 40
0.0
 40
0.025434888055182
 40
0.1032955488962703
 40
0.2616704050014435
 40
0.3423614626389656
 40
0.4204118906456081
 40
0.5789994538509469
 40
0.6596797759612258
 40
0.7433751268223027
 40
0.913464400180535
 40
1.0
 40
1.0
 40
1.0
 40
1.0
 10
332.6446608772001
 20
142.6727189469586
 30
0.0
 10
332.6318889948185
 20
142.6793570402919
 30
0.0
 10
332.5800201366509
 20
142.7063155035256
 30
0.0
 10
332.4547296453911
 20
142.8026443003569
 30
0.0
 10
332.3113109371778
 20
142.9487445967236
 30
0.0
 10
332.1816975713476
 20
143.1307569005325
 30
0.0
 10
332.0612625427639
 20
143.3330904010584
 30
0.0
 10
331.9556236420057
 20
143.56456241397
 30
0.0
 10
331.8648898794573
 20
143.8236845812588
 30
0.0
 10
331.7831743888999
 20
144.1071949716084
 30
0.0
 10
331.7178856808225
 20
144.4158596557459
 30
0.0
 10
331.6860343732125
 20
144.6600908312212
 30
0.0
 10
331.6752939022092
 20
144.7424471944321
 30
0.0
  0
LINE
  5
450
330
1F
100
AcDbEntity
  8
0
  6
Continuous
 62
     7
370
    15
100
AcDbLine
 10
343.9599150784
 20
140.2559408356
 30
0.0
 11
345.4158099099
 21
140.6901448562
 31
0.0
  0
ARC
  5
451
330
1F
100
AcDbEntity
  8
0
  6
Continuous
 62
     7
370
    15
100
AcDbCircle
 10
342.3832795613
 20
138.6892411436
 30
0.0
 40
2.222684745669892
100
AcDbArc
 50
44.8188933375
 51
121.0827262306
  0
ARC
  5
452
330
1F
100
AcDbEntity
  8
0
  6
Continuous
 62
     7
370
    15
100
AcDbCircle
 10
344.8728431178
 20
141.3365941018
 30
0.0
 40
1.414655112406461
100
AcDbArc
 50
229.8091188337
 51
306.4282455181
  0
LWPOLYLINE
  5
453
330
1F
100
AcDbEntity
  8
0
  6
Continuous
 62
     7
370
    15
100
AcDbPolyline
 90
       18
 70
   128
 43
0.0
 10
368.5113074193
 20
144.7839396656
 10
368.083648292
 20
144.9547573484
 10
367.5292008922
 20
145.0043333009
 10
366.9241917961
 20
144.8968713913
 10
366.2904876087
 20
144.6362555728
 10
365.6509920506
 20
144.2319051803
 10
365.0288181573
 20
143.6984344905
 10
364.4464529145
 20
143.0551245239
 10
363.9249445193
 20
142.325226179
 10
363.4831416439
 20
141.5351198837
 10
363.1370121953
 20
140.713362138
 10
362.8990661937
 20
139.889653408
 10
362.7779036274
 20
139.0937646733
 10
362.7779036274
 20
138.3544614265
 10
362.8990661937
 20
137.6984640131
 10
363.1370121953
 20
137.1494818889
 10
363.4831416439
 20
136.7273566981
 10
363.7491944551
 20
136.5348242514
  0
LWPOLYLINE
  5
454
330
1F
100
AcDbEntity
  8
0
  6
Continuous
 62
     7
370
    15
100
AcDbPolyline
 90
       12
 70
   128
 43
0.0
 10
350.538546412
 20
151.791072021
 10
350.1275405955
 20
151.3212566561
 10
349.6060322002
 20
150.5913583112
 10
349.1642293248
 20
149.8012520159
 10
348.8180998763
 20
148.9794942702
 10
348.5801538746
 20
148.1557855402
 10
348.4589913084
 20
147.3598968055
 10
348.4589913084
 20
146.6205935587
 10
348.5801538746
 20
145.9645961453
 10
348.8180998763
 20
145.4156140211
 10
349.1642293248
 20
144.9934888303
 10
349.4302821361
 20
144.8009563836
  0
LINE
  5
455
330
1F
100
AcDbEntity
  8
0
  6
Continuous
 62
     7
370
    15
100
AcDbLine
 10
359.2889928292
 20
148.3450673741
 30
0.0
 11
359.2889928292
 21
163.655207597
 31
0.0
  0
LINE
  5
456
330
1F
100
AcDbEntity
  8
0
  6
Continuous
 62
     7
370
    15
100
AcDbLine
 10
359.2889928292
 20
148.3450673741
 30
0.0
 11
355.0463521421
 21
150.7942917096
 31
0.0
  0
LINE
  5
457
330
1F
100
AcDbEntity
  8
0
  6
Continuous
 62
     7
370
    15
100
AcDbLine
 10
355.0463521421
 20
150.7942917096
 30
0.0
 11
355.0463521421
 21
166.1044319324
 31
0.0
  0
LINE
  5
458
330
1F
100
AcDbEntity
  8
0
  6
Continuous
 62
     7
370
    15
100
AcDbLine
 10
359.2889928292
 20
163.655207597
 30
0.0
 11
355.0463521421
 21
166.1044319324
 31
0.0
  0
LINE
  5
459
330
1F
100
AcDbEntity
  8
0
  6
Continuous
 62
     7
370
    15
100
AcDbLine
 10
355.0463521421
 20
166.1044319324
 30
0.0
 11
365.122623774
 21
171.9213397292
 31
0.0
  0
LINE
  5
45A
330
1F
100
AcDbEntity
  8
0
  6
Continuous
 62
     7
370
    15
100
AcDbLine
 10
365.122623774
 20
171.9213397292
 30
0.0
 11
369.1000563179
 21
169.6252167959
 31
0.0
  0
LINE
  5
45B
330
1F
100
AcDbEntity
  8
0
  6
Continuous
 62
     7
370
    15
100
AcDbLine
 10
359.2889928292
 20
117.7247869284
 30
0.0
 11
359.2889928292
 21
133.0349271512
 31
0.0
  0
LINE
  5
45C
330
1F
100
AcDbEntity
  8
0
  6
Continuous
 62
     7
370
    15
100
AcDbLine
 10
359.2889928292
 20
117.7247869284
 30
0.0
 11
355.0463521421
 21
120.1740112639
 31
0.0
  0
LINE
  5
45D
330
1F
100
AcDbEntity
  8
0
  6
Continuous
 62
     7
370
    15
100
AcDbLine
 10
355.0463521421
 20
120.1740112639
 30
0.0
 11
355.0463521421
 21
135.4841514867
 31
0.0
  0
LINE
  5
45E
330
1F
100
AcDbEntity
  8
0
  6
Continuous
 62
     7
370
    15
100
AcDbLine
 10
359.2889928292
 20
133.0349271512
 30
0.0
 11
355.0463521421
 21
135.4841514867
 31
0.0
  0
LINE
  5
45F
330
1F
100
AcDbEntity
  8
0
  6
Continuous
 62
     7
370
    15
100
AcDbLine
 10
355.0463521421
 20
135.4841514867
 30
0.0
 11
359.2889928292
 21
137.9333758222
 31
0.0
  0
LINE
  5
460
330
1F
100
AcDbEntity
  8
0
  6
Continuous
 62
     7
370
    15
100
AcDbLine
 10
375.5956230444
 20
188.070373663
 30
0.0
 11
382.0931865225
 21
191.8213372174
 31
0.0
  0
LINE
  5
461
330
1F
100
AcDbEntity
  8
0
  6
Continuous
 62
     7
370
    15
100
AcDbLine
 10
382.0931865225
 20
191.8213372174
 30
0.0
 11
388.7223125961
 21
187.9944241932
 31
0.0
  0
LINE
  5
462
330
1F
100
AcDbEntity
  8
0
  6
Continuous
 62
     7
370
    15
100
AcDbLine
 10
388.7223125961
 20
187.9944241932
 30
0.0
 11
388.4571475532
 21
187.8413476722
 31
0.0
  0
LINE
  5
463
330
1F
100
AcDbEntity
  8
0
  6
Continuous
 62
     7
370
    15
100
AcDbLine
 10
388.4571475532
 20
187.8413476722
 30
0.0
 11
395.3514386697
 21
183.8613581271
 31
0.0
  0
LINE
  5
464
330
1F
100
AcDbEntity
  8
0
  6
Continuous
 62
     7
370
    15
100
AcDbLine
 10
395.3514386697
 20
183.8613581271
 30
0.0
 11
395.6166037127
 21
184.0144346481
 31
0.0
  0
LINE
  5
465
330
1F
100
AcDbEntity
  8
0
  6
Continuous
 62
     7
370
    15
100
AcDbLine
 10
395.6166037127
 20
184.0144346481
 30
0.0
 11
402.2457297863
 21
180.1875216239
 31
0.0
  0
LINE
  5
466
330
1F
100
AcDbEntity
  8
0
  6
Continuous
 62
     7
370
    15
100
AcDbLine
 10
402.2457297863
 20
180.1875216239
 30
0.0
 11
395.7481663082
 21
176.4365580695
 31
0.0
  0
LWPOLYLINE
  5
467
330
1F
100
AcDbEntity
  8
0
  6
Continuous
 62
     7
370
    15
100
AcDbPolyline
 90
       20
 70
   128
 43
0.0
 10
395.7481663082
 20
176.4365580695
 10
395.5262399756
 20
175.4193707768
 10
395.1386050925
 20
174.418867179
 10
394.5887392051
 20
173.444022984
 10
393.8815752647
 20
172.5035837045
 10
393.0234573737
 20
171.6059862
 10
392.0220838707
 20
170.7592829884
 10
390.8864382677
 20
169.9710700052
 10
389.6267086574
 20
169.2484184589
 10
388.2541963137
 20
168.5978113938
 10
386.7812143055
 20
168.0250855297
 10
385.2209770347
 20
167.5353788992
 10
383.5874816864
 20
167.1330847535
 10
381.8953826578
 20
166.82181215
 10
380.1598600911
 20
166.6043535742
 10
378.3964836892
 20
166.4826598885
 10
376.6210730369
 20
166.4578228301
 10
374.8495556809
 20
166.5300652168
 10
373.09782424
 20
166.6987389485
 10
371.38159383
 20
166.9623308212
  0
LINE
  5
468
330
1F
100
AcDbEntity
  8
0
  6
Continuous
 62
     7
370
    15
100
AcDbLine
 10
371.38159383
 20
166.9623308212
 30
0.0
 11
362.7361383875
 21
161.9714156288
 31
0.0
  0
LINE
  5
469
330
1F
100
AcDbEntity
  8
0
  6
Continuous
 62
     7
370
    15
100
AcDbLine
 10
362.7361383875
 20
161.9714156288
 30
0.0
 11
359.2889928292
 21
163.9614104014
 31
0.0
  0
LINE
  5
46A
330
1F
100
AcDbEntity
  8
0
  6
Continuous
 62
     7
370
    15
100
AcDbLine
 10
359.2889928292
 20
163.9614104014
 30
0.0
 11
369.4369031827
 21
169.8196743519
 31
0.0
  0
ARC
  5
46B
330
1F
100
AcDbEntity
  8
0
  6
Continuous
 62
     7
370
    15
100
AcDbCircle
 10
376.9592964327
 20
192.7227157015
 30
0.0
 40
24.1067563821786
100
AcDbArc
 50
251.817483876
 51
271.9266827621
  0
LINE
  5
46C
330
1F
100
AcDbEntity
  8
0
  6
Continuous
 62
     7
370
    15
100
AcDbLine
 10
377.7697805476
 20
168.6295876611
 30
0.0
 11
377.5808387757
 21
169.0366564873
 31
0.0
  0
ARC
  5
46D
330
1F
100
AcDbEntity
  8
0
  6
Continuous
 62
     7
370
    15
100
AcDbCircle
 10
377.1936377552
 20
191.9204938349
 30
0.0
 40
22.88711288875637
100
AcDbArc
 50
270.9693683435
 51
286.6167095222
  0
LINE
  5
46E
330
1F
100
AcDbEntity
  8
0
  6
Continuous
 62
     7
370
    15
100
AcDbLine
 10
383.7386159183
 20
169.989164709
 30
0.0
 11
383.9275576902
 21
169.5820958829
 31
0.0
  0
LWPOLYLINE
  5
46F
330
1F
100
AcDbEntity
  8
0
  6
Continuous
 62
     7
370
    15
100
AcDbPolyline
 90
       16
 70
   128
 43
0.0
 10
383.9275576902
 20
169.5820958829
 10
385.3631284734
 20
170.0693047836
 10
386.6963018157
 20
170.6453743444
 10
387.9106462943
 20
171.3032044816
 10
388.9911950576
 20
172.0346874082
 10
389.9246302924
 20
172.8308075636
 10
390.6994473665
 20
173.6817527303
 10
391.3060966237
 20
174.5770349699
 10
391.737101084
 20
175.5056198876
 10
391.9871485976
 20
176.4560626315
 10
392.0531573174
 20
177.416648951
 10
391.9343136829
 20
178.3755395756
 10
391.6320824474
 20
179.3209161342
 10
391.1501886247
 20
180.2411268172
 10
390.4945715783
 20
181.1248299856
 10
389.6733118187
 20
181.961133957
  0
LINE
  5
470
330
1F
100
AcDbEntity
  8
0
  6
Continuous
 62
     7
370
    15
100
AcDbLine
 10
389.6733118187
 20
181.961133957
 30
0.0
 11
389.1571132981
 21
181.6631388941
 31
0.0
  0
ARC
  5
471
330
1F
100
AcDbEntity
  8
0
  6
Continuous
 62
     7
370
    15
100
AcDbCircle
 10
380.3381262856
 20
171.5919978115
 30
0.0
 40
13.38665061289058
100
AcDbArc
 50
48.7923693783
 51
71.2130071544
  0
LINE
  5
472
330
1F
100
AcDbEntity
  8
0
  6
Continuous
 62
     7
370
    15
100
AcDbLine
 10
384.6493075681
 20
184.2654397505
 30
0.0
 11
385.1655060886
 21
184.5634348135
 31
0.0
  0
LWPOLYLINE
  5
473
330
1F
100
AcDbEntity
  8
0
  6
Continuous
 62
     7
370
    15
100
AcDbPolyline
 90
       16
 70
   128
 43
0.0
 10
385.1655060886
 20
184.5634348135
 10
383.7168281522
 20
185.0375379811
 10
382.1860435021
 20
185.4160176458
 10
380.5920191297
 20
185.6942090282
 10
378.9544014586
 20
185.8686834067
 10
377.2933742021
 20
185.9372903765
 10
375.6294095975
 20
185.8991843537
 10
373.9830160853
 20
185.7548349966
 10
372.3744855411
 20
185.5060214179
 10
370.823643178
 20
185.1558102561
 10
369.3496031996
 20
184.7085178802
 10
367.9705332163
 20
184.1696571891
 10
366.7034303293
 20
183.5458696657
 10
365.5639116398
 20
182.84484352
 10
364.5660217683
 20
182.0752189314
 10
363.7220597533
 20
181.2464815584
  0
LINE
  5
474
330
1F
100
AcDbEntity
  8
0
  6
Continuous
 62
     7
370
    15
100
AcDbLine
 10
363.7220597533
 20
181.2464815584
 30
0.0
 11
364.4272000458
 21
181.1374077952
 31
0.0
  0
ARC
  5
475
330
1F
100
AcDbEntity
  8
0
  6
Continuous
 62
     7
370
    15
100
AcDbCircle
 10
368.6027353262
 20
177.0390019043
 30
0.0
 40
5.850814107814172
100
AcDbArc
 50
135.5340937776
 51
174.6689833334
  0
LINE
  5
476
330
1F
100
AcDbEntity
  8
0
  6
Continuous
 62
     7
370
    15
100
AcDbLine
 10
362.7772286332
 20
177.582598717
 30
0.0
 11
362.0720883407
 21
177.6916724802
 31
0.0
  0
ARC
  5
477
330
1F
100
AcDbEntity
  8
0
  6
Continuous
 62
     7
370
    15
100
AcDbCircle
 10
368.1396225002
 20
177.4449369651
 30
0.0
 40
6.072548821615837
100
AcDbArc
 50
177.6713573234
 51
228.7235086166
  0
LINE
  5
478
330
1F
100
AcDbEntity
  8
0
  6
Continuous
 62
     7
370
    15
100
AcDbLine
 10
364.1336023238
 20
172.8812047712
 30
0.0
 11
353.9856919703
 21
167.0229408207
 31
0.0
  0
LINE
  5
479
330
1F
100
AcDbEntity
  8
0
  6
Continuous
 62
     7
370
    15
100
AcDbLine
 10
353.9856919703
 20
167.0229408207
 30
0.0
 11
350.538546412
 21
169.0129355933
 31
0.0
  0
LINE
  5
47A
330
1F
100
AcDbEntity
  8
0
  6
Continuous
 62
     7
370
    15
100
AcDbLine
 10
350.538546412
 20
169.0129355933
 30
0.0
 11
359.1840018545
 21
174.0038507857
 31
0.0
  0
LWPOLYLINE
  5
47B
330
1F
100
AcDbEntity
  8
0
  6
Continuous
 62
     7
370
    15
100
AcDbPolyline
 90
       20
 70
   128
 43
0.0
 10
359.1840018545
 20
174.0038507857
 10
358.7273978646
 20
174.9946095124
 10
358.4352147327
 20
176.0058625481
 10
358.3100736891
 20
177.0285377496
 10
358.353097398
 20
178.053460503
 10
358.5638998855
 20
179.0714360316
 10
358.9405900024
 20
180.0733318834
 10
359.47978839
 20
181.0501598602
 10
360.1766577972
 20
181.9931566526
 10
361.0249464759
 20
182.893862457
 10
362.0170442672
 20
183.7441968704
 10
363.1440508731
 20
184.5365313811
 10
364.3958557032
 20
185.2637578057
 10
365.7612285783
 20
185.9193520576
 10
367.2279204789
 20
186.4974326761
 10
368.7827734329
 20
186.9928135901
 10
370.4118385591
 20
187.4010506433
 10
372.1005012043
 20
187.7184814634
 10
373.8336120551
 20
187.9422583182
 10
375.5956230444
 20
188.070373663
  0
LINE
  5
47C
330
1F
100
AcDbEntity
  8
0
  6
Continuous
 62
     7
370
    15
100
AcDbLine
 10
371.38159383
 20
144.4677896932
 30
0.0
 11
371.38159383
 21
166.9623308212
 31
0.0
  0
LINE
  5
47D
330
1F
100
AcDbEntity
  8
0
  6
Continuous
 62
     7
370
    15
100
AcDbLine
 10
371.2851217799
 20
120.3638124146
 30
0.0
 11
362.7361383875
 21
115.4285893514
 31
0.0
  0
LINE
  5
47E
330
1F
100
AcDbEntity
  8
0
  6
Continuous
 62
     7
370
    15
100
AcDbLine
 10
362.7361383875
 20
115.4285893514
 30
0.0
 11
362.7361383875
 21
161.9714156288
 31
0.0
  0
ARC
  5
47F
330
1F
100
AcDbEntity
  8
0
  6
Continuous
 62
     7
370
    15
100
AcDbCircle
 10
364.6115720337
 20
124.0747108336
 30
0.0
 40
4.432351174608369
100
AcDbArc
 50
302.2811879617
 51
331.5887975254
  0
LWPOLYLINE
  5
480
330
1F
100
AcDbEntity
  8
0
  6
Continuous
 62
     7
370
    15
100
AcDbPolyline
 90
       13
 70
   128
 43
0.0
 10
366.2292385548
 20
124.6359704709
 10
365.9929523556
 20
124.3769858533
 10
365.5720834894
 20
123.7985592042
 10
365.2329666575
 20
123.1607666506
 10
364.9953100974
 20
122.5006743774
 10
364.8729255448
 20
121.8566445482
 10
364.8729255448
 20
121.2661058356
 10
364.9953100974
 20
120.7633782032
 10
365.2329666575
 20
120.3776783536
 10
365.5720834894
 20
120.1314217601
 10
365.9929523556
 20
120.0389199608
 10
366.4711138874
 20
120.105548824
 10
366.9787790746
 20
120.3274361225
  0
LWPOLYLINE
  5
481
330
1F
100
AcDbEntity
  8
0
  6
Continuous
 62
     7
370
    15
100
AcDbPolyline
 90
        8
 70
   128
 43
0.0
 10
364.8889723565
 20
128.115364627
 10
364.8729255448
 20
127.9807006373
 10
364.8729255448
 20
127.3901619248
 10
364.9953100974
 20
126.8874342924
 10
365.2329666575
 20
126.5017344428
 10
365.5720834894
 20
126.2554778493
 10
365.9929523556
 20
126.1629760499
 10
366.3293458143
 20
126.1942018612
  0
LWPOLYLINE
  5
482
330
1F
100
AcDbEntity
  8
0
  6
Continuous
 62
     7
370
    15
100
AcDbPolyline
 90
       27
 70
   128
 43
0.0
 10
366.9787790746
 20
150.9477165682
 10
367.4864442618
 20
151.3119670186
 10
367.9646057936
 20
151.7974117087
 10
368.3854746598
 20
152.3758383578
 10
368.7245914918
 20
153.0136309114
 10
368.9622480518
 20
153.6737231846
 10
369.0846326045
 20
154.3177530138
 10
369.0846326045
 20
154.9082917264
 10
368.9622480518
 20
155.4110193588
 10
368.7245914918
 20
155.7967192084
 10
368.3854746598
 20
156.0429758019
 10
367.9646057936
 20
156.1354776012
 10
367.4864442618
 20
156.068848738
 10
366.9787790746
 20
155.8469614395
 10
366.4711138874
 20
155.4827109891
 10
365.9929523556
 20
154.997266299
 10
365.5720834894
 20
154.4188396499
 10
365.2329666575
 20
153.7810470963
 10
364.9953100974
 20
153.1209548231
 10
364.8729255448
 20
152.4769249939
 10
364.8729255448
 20
151.8863862813
 10
364.9953100974
 20
151.3836586489
 10
365.2329666575
 20
150.9979587993
 10
365.5720834894
 20
150.7517022058
 10
365.9929523556
 20
150.6592004065
 10
366.4711138874
 20
150.7258292698
 10
366.9787790746
 20
150.9477165682
  0
LWPOLYLINE
  5
483
330
1F
100
AcDbEntity
  8
0
  6
Continuous
 62
     7
370
    15
100
AcDbPolyline
 90
       27
 70
   128
 43
0.0
 10
366.9787790746
 20
157.0717726573
 10
367.4864442618
 20
157.4360231077
 10
367.9646057936
 20
157.9214677979
 10
368.3854746598
 20
158.4998944469
 10
368.7245914918
 20
159.1376870005
 10
368.9622480518
 20
159.7977792737
 10
369.0846326045
 20
160.441809103
 10
369.0846326045
 20
161.0323478155
 10
368.9622480518
 20
161.5350754479
 10
368.7245914918
 20
161.9207752975
 10
368.3854746598
 20
162.167031891
 10
367.9646057936
 20
162.2595336903
 10
367.4864442618
 20
162.1929048271
 10
366.9787790746
 20
161.9710175287
 10
366.4711138874
 20
161.6067670783
 10
365.9929523556
 20
161.1213223881
 10
365.5720834894
 20
160.5428957391
 10
365.2329666575
 20
159.9051031855
 10
364.9953100974
 20
159.2450109123
 10
364.8729255448
 20
158.600981083
 10
364.8729255448
 20
158.0104423705
 10
364.9953100974
 20
157.5077147381
 10
365.2329666575
 20
157.1220148885
 10
365.5720834894
 20
156.875758295
 10
365.9929523556
 20
156.7832564957
 10
366.4711138874
 20
156.8498853589
 10
366.9787790746
 20
157.0717726573
  0
LINE
  5
484
330
1F
100
AcDbEntity
  8
0
  6
Continuous
 62
     7
370
    15
100
AcDbLine
 10
362.7361383875
 20
115.4285893514
 30
0.0
 11
359.2889928292
 21
117.4185841239
 31
0.0
  0
LINE
  5
485
330
1F
100
AcDbEntity
  8
0
  6
Continuous
 62
     7
370
    15
100
AcDbLine
 10
359.2889928292
 20
117.4185841239
 30
0.0
 11
359.2889928292
 21
163.9614104014
 31
0.0
  0
LINE
  5
486
330
1F
100
AcDbEntity
  8
0
  6
Continuous
 62
     7
370
    15
100
AcDbLine
 10
395.7481663082
 20
129.893731792
 30
0.0
 11
395.7481663082
 21
176.4365580695
 31
0.0
  0
LWPOLYLINE
  5
487
330
1F
100
AcDbEntity
  8
0
  6
Continuous
 62
     7
370
    15
100
AcDbPolyline
 90
       18
 70
   128
 43
0.0
 10
395.7481663082
 20
129.893731792
 10
395.5262399756
 20
128.8765444993
 10
395.1386050925
 20
127.8760409015
 10
394.5887392051
 20
126.9011967065
 10
393.8815752647
 20
125.960757427
 10
393.0234573737
 20
125.0631599225
 10
392.0220838707
 20
124.2164567109
 10
390.8864382677
 20
123.4282437277
 10
389.6267086574
 20
122.7055921814
 10
388.2541963137
 20
122.0549851163
 10
386.7812143055
 20
121.4822592522
 10
385.2209770347
 20
120.9925526217
 10
383.5874816864
 20
120.590258476
 10
381.8953826578
 20
120.2789858725
 10
380.1598600911
 20
120.0615272967
 10
378.3964836892
 20
119.939833611
 10
376.6210730369
 20
119.9149965526
 10
374.9848492861
 20
119.978275193
  0
LINE
  5
488
330
1F
100
AcDbEntity
  8
0
  6
Continuous
 62
     7
370
    15
100
AcDbLine
 10
364.1336023238
 20
171.350389799
 30
0.0
 11
364.1336023238
 21
172.8812047712
 31
0.0
  0
LINE
  5
489
330
1F
100
AcDbEntity
  8
0
  6
Continuous
 62
     7
370
    15
100
AcDbLine
 10
355.0463521421
 20
121.0924206271
 30
0.0
 11
353.9856919703
 21
120.4801145433
 31
0.0
  0
LINE
  5
48A
330
1F
100
AcDbEntity
  8
0
  6
Continuous
 62
     7
370
    15
100
AcDbLine
 10
353.9856919703
 20
120.4801145433
 30
0.0
 11
353.9856919703
 21
167.0229408207
 31
0.0
  0
LWPOLYLINE
  5
48B
330
1F
100
AcDbEntity
  8
0
  6
Continuous
 62
     7
370
    15
100
AcDbPolyline
 90
       14
 70
   128
 43
0.0
 10
356.0674111834
 20
143.4375288866
 10
356.06730452
 20
143.4375904721
 10
355.7723268763
 20
143.7112202436
 10
355.5868961775
 20
144.1211253732
 10
355.5236492194
 20
144.6393715036
 10
355.5868961775
 20
145.2306410176
 10
355.7723268763
 20
145.8546398748
 10
356.06730452
 20
146.4688435844
 10
356.4517268697
 20
147.0313951786
 10
356.8993961775
 20
147.5039576958
 10
357.37980452
 20
147.8543267816
 10
357.8602128625
 20
148.0586253616
 10
358.3078821703
 20
148.1029308254
 10
358.6921978566
 20
147.9842854141
  0
LINE
  5
48C
330
1F
100
AcDbEntity
  8
0
  6
Continuous
 62
     7
370
    15
100
AcDbLine
 10
353.9856919703
 20
120.4801145433
 30
0.0
 11
350.538546412
 21
122.4701093158
 31
0.0
  0
LINE
  5
48D
330
1F
100
AcDbEntity
  8
0
  6
Continuous
 62
     7
370
    15
100
AcDbLine
 10
350.538546412
 20
122.4701093158
 30
0.0
 11
350.538546412
 21
169.0129355933
 31
0.0
  0
LINE
  5
48E
330
1F
100
AcDbEntity
  8
0
  6
Continuous
 62
     7
370
    15
100
AcDbLine
 10
377.5808387757
 20
168.6250734451
 30
0.0
 11
377.5808387757
 21
169.0366564873
 31
0.0
  0
LINE
  5
48F
330
1F
100
AcDbEntity
  8
0
  6
Continuous
 62
     7
370
    15
100
AcDbLine
 10
389.6733118187
 20
172.597001494
 30
0.0
 11
389.6733118187
 21
181.961133957
 31
0.0
  0
LINE
  5
490
330
1F
100
AcDbEntity
  8
0
  6
Continuous
 62
     7
370
    15
100
AcDbLine
 10
362.0720883407
 20
176.8664629708
 30
0.0
 11
362.0720883407
 21
177.6916724802
 31
0.0
  0
LINE
  5
491
330
1F
100
AcDbEntity
  8
0
  6
Continuous
 62
     7
370
    15
100
AcDbLine
 10
402.2457297863
 20
133.6446953464
 30
0.0
 11
402.2457297863
 21
180.1875216239
 31
0.0
  0
LINE
  5
492
330
1F
100
AcDbEntity
  8
0
  6
Continuous
 62
     7
370
    15
100
AcDbLine
 10
402.2457297863
 20
133.6446953464
 30
0.0
 11
395.7481663082
 21
129.893731792
 31
0.0
  0
LINE
  5
493
330
1F
100
AcDbEntity
  8
0
  6
Continuous
 62
     7
370
    15
100
AcDbLine
 10
362.7772286332
 20
174.6245611711
 30
0.0
 11
362.7772286332
 21
177.582598717
 31
0.0
  0
LINE
  5
494
330
1F
100
AcDbEntity
  8
0
  6
Continuous
 62
     7
370
    15
100
AcDbLine
 10
364.4272000458
 20
171.5198801562
 30
0.0
 11
364.4272000458
 21
181.1374077952
 31
0.0
  0
LINE
  5
495
330
1F
100
AcDbEntity
  8
0
  6
Continuous
 62
     7
370
    15
100
AcDbLine
 10
389.1571132981
 20
172.1629799628
 30
0.0
 11
389.1571132981
 21
181.6631388941
 31
0.0
  0
LINE
  5
496
330
1F
100
AcDbEntity
  8
0
  6
Continuous
 62
     7
370
    15
100
AcDbLine
 10
384.6493075681
 20
169.8115602393
 30
0.0
 11
384.6493075681
 21
184.2654397505
 31
0.0
  0
LINE
  5
497
330
1F
100
AcDbEntity
  8
0
  6
Continuous
 62
     7
370
    15
100
AcDbLine
 10
388.7223125961
 20
187.6882711513
 30
0.0
 11
388.7223125961
 21
187.9944241932
 31
0.0
  0
LWPOLYLINE
  5
498
330
1F
100
AcDbEntity
  8
0
  6
Continuous
 62
     8
370
    15
100
AcDbPolyline
 90
       18
 70
   128
 43
0.0
 10
365.3582703872
 20
157.8227340068
 10
365.4110655908
 20
157.718113941
 10
365.6658125674
 20
157.4272338214
 10
366.0100360417
 20
157.2790673318
 10
366.4202777527
 20
157.2837117734
 10
366.8685804059
 20
157.4408506354
 10
367.3243929162
 20
157.7397751638
 10
367.7566524144
 20
158.1601141462
 10
368.1359011299
 20
158.6732221754
 10
368.4362938897
 20
159.2441317874
 10
368.6373594234
 20
159.8339364354
 10
368.7253954473
 20
160.4024419074
 10
368.6944024518
 20
160.910905495
 10
368.5464925584
 20
161.324676245
 10
368.2917455818
 20
161.6155563646
 10
367.9475221076
 20
161.7637228542
 10
367.5372803965
 20
161.7590784126
 10
367.5372803965
 20
161.7590784126
  0
LWPOLYLINE
  5
499
330
1F
100
AcDbEntity
  8
0
  6
Continuous
 62
     8
370
    15
100
AcDbPolyline
 90
       10
 70
   128
 43
0.0
 10
365.3582703872
 20
121.0783974719
 10
365.4110655908
 20
120.9737774061
 10
365.6658125674
 20
120.6828972866
 10
366.0100360417
 20
120.5347307969
 10
366.4202777527
 20
120.5393752386
 10
366.8685804059
 20
120.6965141005
 10
367.3243929162
 20
120.9954386289
 10
367.7566524144
 20
121.4157776113
 10
368.1359011299
 20
121.9288856406
 10
368.2474796215
 20
122.1174059064
  0
ARC
  5
49A
330
1F
100
AcDbEntity
  8
0
  6
Continuous
 62
     8
370
    15
100
AcDbCircle
 10
366.192095861
 20
127.5414566517
 30
0.0
 40
0.9001044473982138
100
AcDbArc
 50
202.1248695303
 51
272.8313661609
  0
LWPOLYLINE
  5
49B
330
1F
100
AcDbEntity
  8
0
  6
Continuous
 62
     8
370
    15
100
AcDbPolyline
 90
       18
 70
   128
 43
0.0
 10
365.3582703872
 20
151.6986779177
 10
365.4110655908
 20
151.5940578518
 10
365.6658125674
 20
151.3031777323
 10
366.0100360417
 20
151.1550112426
 10
366.4202777527
 20
151.1596556843
 10
366.8685804059
 20
151.3167945462
 10
367.3243929162
 20
151.6157190747
 10
367.7566524144
 20
152.036058057
 10
368.1359011299
 20
152.5491660863
 10
368.4362938897
 20
153.1200756982
 10
368.6373594234
 20
153.7098803462
 10
368.7253954473
 20
154.2783858183
 10
368.6944024518
 20
154.7868494059
 10
368.5464925584
 20
155.2006201559
 10
368.2917455818
 20
155.4915002754
 10
367.9475221076
 20
155.6396667651
 10
367.5372803965
 20
155.6350223234
 10
367.5372803965
 20
155.6350223234
  0
LINE
  5
49C
330
1F
100
AcDbEntity
  8
0
  6
Continuous
 62
     8
370
    15
100
AcDbLine
 10
389.9836432311
 20
140.0897275084
 30
0.0
 11
389.3809000257
 21
140.4376837544
 31
0.0
  0
LINE
  5
49D
330
1F
100
AcDbEntity
  8
0
  6
Continuous
 62
     8
370
    15
100
AcDbLine
 10
378.5506206434
 20
120.2871515605
 30
0.0
 11
377.892598115
 21
120.6670198804
 31
0.0
  0
LINE
  5
49E
330
1F
100
AcDbEntity
  8
0
  6
Continuous
 62
     8
370
    15
100
AcDbLine
 10
345.3349433922
 20
168.4411097218
 30
0.0
 11
350.538546412
 21
165.4371336399
 31
0.0
  0
LINE
  5
49F
330
1F
100
AcDbEntity
  8
0
  6
Continuous
 62
     8
370
    15
100
AcDbLine
 10
342.8969841982
 20
140.8695577715
 30
0.0
 11
343.9599150784
 21
140.2559408356
 31
0.0
  0
ENDSEC
  0
SECTION
  2
OBJECTS
  0
DICTIONARY
  5
C
330
0
100
AcDbDictionary
281
     1
  3
ACAD_GROUP
350
D
  3
ACAD_LAYOUT
350
1A
  3
ACAD_MLINESTYLE
350
17
  3
ACAD_PLOTSETTINGS
350
19
  3
ACAD_PLOTSTYLENAME
350
E
  3
ACAD_SCALELIST
350
47
  0
DICTIONARY
  5
D
102
{ACAD_REACTORS
330
C
102
}
330
C
100
AcDbDictionary
281
     1
  0
DICTIONARY
  5
1A
102
{ACAD_REACTORS
330
C
102
}
330
C
100
AcDbDictionary
281
     1
  3
Layout1
350
1E
  3
Layout2
350
26
  3
Model
350
22
  0
DICTIONARY
  5
17
102
{ACAD_REACTORS
330
C
102
}
330
C
100
AcDbDictionary
281
     1
  3
Standard
350
18
  0
DICTIONARY
  5
19
102
{ACAD_REACTORS
330
C
102
}
330
C
100
AcDbDictionary
281
     1
  0
ACDBDICTIONARYWDFLT
  5
E
102
{ACAD_REACTORS
330
C
102
}
330
C
100
AcDbDictionary
281
     1
  3
Normal
350
F
100
AcDbDictionaryWithDefault
340
F
  0
DICTIONARY
  5
47
102
{ACAD_REACTORS
330
C
102
}
330
C
100
AcDbDictionary
281
     1
  3
A0
350
48
  3
A1
350
49
  3
A2
350
4A
  3
A3
350
4B
  3
A4
350
4C
  3
A5
350
4D
  3
A6
350
4E
  3
A7
350
4F
  3
A8
350
50
  3
A9
350
51
  3
B0
350
52
  3
B1
350
53
  3
B2
350
54
  3
B3
350
55
  3
B4
350
56
  3
B5
350
57
  3
B6
350
58
  3
B7
350
59
  3
B8
350
5A
  3
B9
350
5B
  3
C0
350
5C
  3
C1
350
5D
  3
C2
350
5E
  3
C3
350
5F
  3
C4
350
60
  3
C5
350
61
  3
C6
350
62
  3
C7
350
63
  3
C8
350
64
  3
C9
350
65
  3
D0
350
66
  3
D1
350
67
  3
D2
350
68
  0
LAYOUT
  5
1E
102
{ACAD_REACTORS
330
1A
102
}
330
1A
100
AcDbPlotSettings
  1

  2
none_device
  4

  6

 40
0.0
 41
0.0
 42
0.0
 43
0.0
 44
0.0
 45
0.0
 46
0.0
 47
0.0
 48
0.0
 49
0.0
140
0.0
141
0.0
142
1.0
143
1.0
 70
   688
 72
     1
 73
     0
 74
     5
  7

 75
    16
147
1.0
148
0.0
149
0.0
100
AcDbLayout
  1
Layout1
 70
     1
 71
     1
 10
0.0
 20
0.0
 11
420.0
 21
297.0
 12
0.0
 22
0.0
 32
0.0
 14
1.0000000000E+20
 24
1.0000000000E+20
 34
1.0000000000E+20
 15
-1.0000000000E+20
 25
-1.0000000000E+20
 35
-1.0000000000E+20
146
0.0
 13
0.0
 23
0.0
 33
0.0
 16
1.0
 26
0.0
 36
0.0
 17
0.0
 27
1.0
 37
0.0
 76
     0
330
1B
  0
LAYOUT
  5
26
102
{ACAD_REACTORS
330
1A
102
}
330
1A
100
AcDbPlotSettings
  1

  2
none_device
  4

  6

 40
0.0
 41
0.0
 42
0.0
 43
0.0
 44
0.0
 45
0.0
 46
0.0
 47
0.0
 48
0.0
 49
0.0
140
0.0
141
0.0
142
1.0
143
1.0
 70
   688
 72
     1
 73
     0
 74
     5
  7

 75
    16
147
1.0
148
0.0
149
0.0
100
AcDbLayout
  1
Layout2
 70
     1
 71
     2
 10
0.0
 20
0.0
 11
0.0
 21
0.0
 12
0.0
 22
0.0
 32
0.0
 14
0.0
 24
0.0
 34
0.0
 15
0.0
 25
0.0
 35
0.0
146
0.0
 13
0.0
 23
0.0
 33
0.0
 16
1.0
 26
0.0
 36
0.0
 17
0.0
 27
1.0
 37
0.0
 76
     0
330
23
  0
LAYOUT
  5
22
102
{ACAD_REACTORS
330
1A
102
}
330
1A
100
AcDbPlotSettings
  1

  2
none_device
  4
Letter_(8.50_x_11.00_Inches)
  6

 40
6.35
 41
6.35
 42
6.35000508
 43
6.35000508
 44
215.9
 45
279.4
 46
0.0
 47
0.0
 48
0.0
 49
0.0
140
0.0
141
0.0
142
1.0
143
1.0
 70
  1712
 72
     1
 73
     0
 74
     0
  7

 75
     0
147
1.0
148
0.0
149
0.0
100
AcDbLayout
  1
Model
 70
     1
 71
     0
 10
0.0
 20
0.0
 11
445.5
 21
315.0
 12
0.0
 22
0.0
 32
0.0
 14
0.0
 24
0.0
 34
0.0
 15
445.5
 25
315.0
 35
0.0
146
0.0
 13
0.0
 23
0.0
 33
0.0
 16
1.0
 26
0.0
 36
0.0
 17
0.0
 27
1.0
 37
0.0
 76
     0
330
1F
331
29
  0
MLINESTYLE
  5
18
102
{ACAD_REACTORS
330
17
102
}
330
17
100
AcDbMlineStyle
  2
Standard
 70
     0
  3

 62
   256
 51
90.0
 52
90.0
 71
     2
 49
0.5
 62
   256
  6
BYLAYER
 49
-0.5
 62
   256
  6
BYLAYER
  0
ACDBPLACEHOLDER
  5
F
102
{ACAD_REACTORS
330
E
102
}
330
E
  0
SCALE
  5
48
102
{ACAD_REACTORS
330
47
102
}
330
47
100
AcDbScale
 70
     0
300
1:1
140
1.0
141
1.0
290
     1
  0
SCALE
  5
49
102
{ACAD_REACTORS
330
47
102
}
330
47
100
AcDbScale
 70
     0
300
1:2
140
1.0
141
2.0
290
     0
  0
SCALE
  5
4A
102
{ACAD_REACTORS
330
47
102
}
330
47
100
AcDbScale
 70
     0
300
1:4
140
1.0
141
4.0
290
     0
  0
SCALE
  5
4B
102
{ACAD_REACTORS
330
47
102
}
330
47
100
AcDbScale
 70
     0
300
1:5
140
1.0
141
5.0
290
     0
  0
SCALE
  5
4C
102
{ACAD_REACTORS
330
47
102
}
330
47
100
AcDbScale
 70
     0
300
1:8
140
1.0
141
8.0
290
     0
  0
SCALE
  5
4D
102
{ACAD_REACTORS
330
47
102
}
330
47
100
AcDbScale
 70
     0
300
1:10
140
1.0
141
10.0
290
     0
  0
SCALE
  5
4E
102
{ACAD_REACTORS
330
47
102
}
330
47
100
AcDbScale
 70
     0
300
1:16
140
1.0
141
16.0
290
     0
  0
SCALE
  5
4F
102
{ACAD_REACTORS
330
47
102
}
330
47
100
AcDbScale
 70
     0
300
1:20
140
1.0
141
20.0
290
     0
  0
SCALE
  5
50
102
{ACAD_REACTORS
330
47
102
}
330
47
100
AcDbScale
 70
     0
300
1:30
140
1.0
141
30.0
290
     0
  0
SCALE
  5
51
102
{ACAD_REACTORS
330
47
102
}
330
47
100
AcDbScale
 70
     0
300
1:40
140
1.0
141
40.0
290
     0
  0
SCALE
  5
52
102
{ACAD_REACTORS
330
47
102
}
330
47
100
AcDbScale
 70
     0
300
1:50
140
1.0
141
50.0
290
     0
  0
SCALE
  5
53
102
{ACAD_REACTORS
330
47
102
}
330
47
100
AcDbScale
 70
     0
300
1:100
140
1.0
141
100.0
290
     0
  0
SCALE
  5
54
102
{ACAD_REACTORS
330
47
102
}
330
47
100
AcDbScale
 70
     0
300
2:1
140
2.0
141
1.0
290
     0
  0
SCALE
  5
55
102
{ACAD_REACTORS
330
47
102
}
330
47
100
AcDbScale
 70
     0
300
4:1
140
4.0
141
1.0
290
     0
  0
SCALE
  5
56
102
{ACAD_REACTORS
330
47
102
}
330
47
100
AcDbScale
 70
     0
300
8:1
140
8.0
141
1.0
290
     0
  0
SCALE
  5
57
102
{ACAD_REACTORS
330
47
102
}
330
47
100
AcDbScale
 70
     0
300
10:1
140
10.0
141
1.0
290
     0
  0
SCALE
  5
58
102
{ACAD_REACTORS
330
47
102
}
330
47
100
AcDbScale
 70
     0
300
100:1
140
100.0
141
1.0
290
     0
  0
SCALE
  5
59
102
{ACAD_REACTORS
330
47
102
}
330
47
100
AcDbScale
 70
     0
300
1/128" = 1'-0"
140
0.0078125
141
12.0
290
     0
  0
SCALE
  5
5A
102
{ACAD_REACTORS
330
47
102
}
330
47
100
AcDbScale
 70
     0
300
1/64" = 1'-0"
140
0.015625
141
12.0
290
     0
  0
SCALE
  5
5B
102
{ACAD_REACTORS
330
47
102
}
330
47
100
AcDbScale
 70
     0
300
1/32" = 1'-0"
140
0.03125
141
12.0
290
     0
  0
SCALE
  5
5C
102
{ACAD_REACTORS
330
47
102
}
330
47
100
AcDbScale
 70
     0
300
1/16" = 1'-0"
140
0.0625
141
12.0
290
     0
  0
SCALE
  5
5D
102
{ACAD_REACTORS
330
47
102
}
330
47
100
AcDbScale
 70
     0
300
3/32" = 1'-0"
140
0.09375
141
12.0
290
     0
  0
SCALE
  5
5E
102
{ACAD_REACTORS
330
47
102
}
330
47
100
AcDbScale
 70
     0
300
1/8" = 1'-0"
140
0.125
141
12.0
290
     0
  0
SCALE
  5
5F
102
{ACAD_REACTORS
330
47
102
}
330
47
100
AcDbScale
 70
     0
300
3/16" = 1'-0"
140
0.1875
141
12.0
290
     0
  0
SCALE
  5
60
102
{ACAD_REACTORS
330
47
102
}
330
47
100
AcDbScale
 70
     0
300
1/4" = 1'-0"
140
0.25
141
12.0
290
     0
  0
SCALE
  5
61
102
{ACAD_REACTORS
330
47
102
}
330
47
100
AcDbScale
 70
     0
300
3/8" = 1'-0"
140
0.375
141
12.0
290
     0
  0
SCALE
  5
62
102
{ACAD_REACTORS
330
47
102
}
330
47
100
AcDbScale
 70
     0
300
1/2" = 1'-0"
140
0.5
141
12.0
290
     0
  0
SCALE
  5
63
102
{ACAD_REACTORS
330
47
102
}
330
47
100
AcDbScale
 70
     0
300
3/4" = 1'-0"
140
0.75
141
12.0
290
     0
  0
SCALE
  5
64
102
{ACAD_REACTORS
330
47
102
}
330
47
100
AcDbScale
 70
     0
300
1" = 1'-0"
140
1.0
141
12.0
290
     0
  0
SCALE
  5
65
102
{ACAD_REACTORS
330
47
102
}
330
47
100
AcDbScale
 70
     0
300
1-1/2" = 1'-0"
140
1.5
141
12.0
290
     0
  0
SCALE
  5
66
102
{ACAD_REACTORS
330
47
102
}
330
47
100
AcDbScale
 70
     0
300
3" = 1'-0"
140
3.0
141
12.0
290
     0
  0
SCALE
  5
67
102
{ACAD_REACTORS
330
47
102
}
330
47
100
AcDbScale
 70
     0
300
6" = 1'-0"
140
6.0
141
12.0
290
     0
  0
SCALE
  5
68
102
{ACAD_REACTORS
330
47
102
}
330
47
100
AcDbScale
 70
     0
300
1'-0" = 1'-0"
140
12.0
141
12.0
290
     0
  0
ENDSEC
  0
EOF
