  0
SECTION
  2
HEADER
  9
$ACADVER
  1
AC1015
  9
$ACADMAINTVER
 70
     6
  9
$DWGCODEPAGE
  3
ANSI_950
  9
$INSBASE
 10
0.0
 20
0.0
 30
0.0
  9
$EXTMIN
 10
0.0
 20
0.0
 30
0.0
  9
$EXTMAX
 10
445.5
 20
315.0
 30
0.0
  9
$LIMMIN
 10
0.0
 20
0.0
  9
$LIMMAX
 10
445.5
 20
315.0
  9
$ORTHOMODE
 70
     0
  9
$REGENMODE
 70
     1
  9
$FILLMODE
 70
     1
  9
$QTEXTMODE
 70
     0
  9
$MIRRTEXT
 70
     1
  9
$LTSCALE
 40
1.5
  9
$ATTMODE
 70
     1
  9
$TEXTSIZE
 40
5.2916666667
  9
$TRACEWID
 40
1.0
  9
$TEXTSTYLE
  7
STANDARD
  9
$CLAYER
  8
0
  9
$CELTYPE
  6
ByLayer
  9
$CECOLOR
 62
   256
  9
$CELTSCALE
 40
1.0
  9
$DISPSILH
 70
     0
  9
$DIMSCALE
 40
1.0
  9
$DIMASZ
 40
3.0
  9
$DIMEXO
 40
1.5
  9
$DIMDLI
 40
3.75
  9
$DIMRND
 40
0.0
  9
$DIMDLE
 40
0.0
  9
$DIMEXE
 40
1.5
  9
$DIMTP
 40
0.0
  9
$DIMTM
 40
0.0
  9
$DIMTXT
 40
3.75
  9
$DIMCEN
 40
2.5
  9
$DIMTSZ
 40
0.0
  9
$DIMTOL
 70
     0
  9
$DIMLIM
 70
     0
  9
$DIMTIH
 70
     1
  9
$DIMTOH
 70
     1
  9
$DIMSE1
 70
     0
  9
$DIMSE2
 70
     0
  9
$DIMTAD
 70
     1
  9
$DIMZIN
 70
     0
  9
$DIMBLK
  1

  9
$DIMASO
 70
     1
  9
$DIMSHO
 70
     1
  9
$DIMPOST
  1

  9
$DIMAPOST
  1

  9
$DIMALT
 70
     0
  9
$DIMALTD
 70
     3
  9
$DIMALTF
 40
0.0393700787
  9
$DIMLFAC
 40
1.0
  9
$DIMTOFL
 70
     1
  9
$DIMTVP
 40
0.0
  9
$DIMTIX
 70
     0
  9
$DIMSOXD
 70
     0
  9
$DIMSAH
 70
     0
  9
$DIMBLK1
  1

  9
$DIMBLK2
  1

  9
$DIMSTYLE
  2
ISO-25
  9
$DIMCLRD
 70
     0
  9
$DIMCLRE
 70
     0
  9
$DIMCLRT
 70
     0
  9
$DIMTFAC
 40
1.0
  9
$DIMGAP
 40
1.5
  9
$DIMJUST
 70
     0
  9
$DIMSD1
 70
     0
  9
$DIMSD2
 70
     0
  9
$DIMTOLJ
 70
     0
  9
$DIMTZIN
 70
     0
  9
$DIMALTZ
 70
     0
  9
$DIMALTTZ
 70
     0
  9
$DIMUPT
 70
     0
  9
$DIMDEC
 70
     2
  9
$DIMTDEC
 70
     2
  9
$DIMALTU
 70
     2
  9
$DIMALTTD
 70
     3
  9
$DIMTXSTY
  7
STANDARD
  9
$DIMAUNIT
 70
     0
  9
$DIMADEC
 70
     1
  9
$DIMALTRND
 40
0.0
  9
$DIMAZIN
 70
     0
  9
$DIMDSEP
 70
    44
  9
$DIMATFIT
 70
     3
  9
$DIMFRAC
 70
     0
  9
$DIMLDRBLK
  1

  9
$DIMLUNIT
 70
     2
  9
$DIMLWD
 70
    -2
  9
$DIMLWE
 70
    -2
  9
$DIMTMOVE
 70
     0
  9
$LUNITS
 70
     2
  9
$LUPREC
 70
     2
  9
$SKETCHINC
 40
1.0
  9
$FILLETRAD
 40
10.0
  9
$AUNITS
 70
     0
  9
$AUPREC
 70
     1
  9
$MENU
  1
.
  9
$ELEVATION
 40
0.0
  9
$PELEVATION
 40
0.0
  9
$THICKNESS
 40
0.0
  9
$LIMCHECK
 70
     0
  9
$CHAMFERA
 40
0.0
  9
$CHAMFERB
 40
0.0
  9
$CHAMFERC
 40
0.0
  9
$CHAMFERD
 40
0.0
  9
$SKPOLY
 70
     0
  9
$TDCREATE
 40
2457504.480463449
  9
$TDUCREATE
 40
2457504.147130116
  9
$TDUPDATE
 40
2457504.480473646
  9
$TDUUPDATE
 40
2457504.147140312
  9
$TDINDWG
 40
0.0000000116
  9
$TDUSRTIMER
 40
0.0000000116
  9
$USRTIMER
 70
     1
  9
$ANGBASE
 50
0.0
  9
$ANGDIR
 70
     0
  9
$PDMODE
 70
     0
  9
$PDSIZE
 40
-1.0
  9
$PLINEWID
 40
0.0
  9
$SPLFRAME
 70
     0
  9
$SPLINETYPE
 70
     6
  9
$SPLINESEGS
 70
     8
  9
$HANDSEED
  5
46D
  9
$SURFTAB1
 70
     6
  9
$SURFTAB2
 70
     6
  9
$SURFTYPE
 70
     6
  9
$SURFU
 70
     6
  9
$SURFV
 70
     6
  9
$UCSBASE
  2

  9
$UCSNAME
  2

  9
$UCSORG
 10
0.0
 20
0.0
 30
0.0
  9
$UCSXDIR
 10
1.0
 20
0.0
 30
0.0
  9
$UCSYDIR
 10
0.0
 20
1.0
 30
0.0
  9
$UCSORTHOREF
  2

  9
$UCSORTHOVIEW
 70
     0
  9
$UCSORGTOP
 10
0.0
 20
0.0
 30
0.0
  9
$UCSORGBOTTOM
 10
0.0
 20
0.0
 30
0.0
  9
$UCSORGLEFT
 10
0.0
 20
0.0
 30
0.0
  9
$UCSORGRIGHT
 10
0.0
 20
0.0
 30
0.0
  9
$UCSORGFRONT
 10
0.0
 20
0.0
 30
0.0
  9
$UCSORGBACK
 10
0.0
 20
0.0
 30
0.0
  9
$PUCSBASE
  2

  9
$PUCSNAME
  2

  9
$PUCSORG
 10
0.0
 20
0.0
 30
0.0
  9
$PUCSXDIR
 10
1.0
 20
0.0
 30
0.0
  9
$PUCSYDIR
 10
0.0
 20
1.0
 30
0.0
  9
$PUCSORTHOREF
  2

  9
$PUCSORTHOVIEW
 70
     0
  9
$PUCSORGTOP
 10
0.0
 20
0.0
 30
0.0
  9
$PUCSORGBOTTOM
 10
0.0
 20
0.0
 30
0.0
  9
$PUCSORGLEFT
 10
0.0
 20
0.0
 30
0.0
  9
$PUCSORGRIGHT
 10
0.0
 20
0.0
 30
0.0
  9
$PUCSORGFRONT
 10
0.0
 20
0.0
 30
0.0
  9
$PUCSORGBACK
 10
0.0
 20
0.0
 30
0.0
  9
$USERI1
 70
     0
  9
$USERI2
 70
     0
  9
$USERI3
 70
     0
  9
$USERI4
 70
     0
  9
$USERI5
 70
     0
  9
$USERR1
 40
0.0
  9
$USERR2
 40
0.0
  9
$USERR3
 40
0.0
  9
$USERR4
 40
0.0
  9
$USERR5
 40
0.0
  9
$WORLDVIEW
 70
     1
  9
$SHADEDGE
 70
     3
  9
$SHADEDIF
 70
    70
  9
$TILEMODE
 70
     1
  9
$MAXACTVP
 70
    64
  9
$PINSBASE
 10
0.0
 20
0.0
 30
0.0
  9
$PLIMCHECK
 70
     0
  9
$PEXTMIN
 10
1.0000000000E+20
 20
1.0000000000E+20
 30
1.0000000000E+20
  9
$PEXTMAX
 10
-1.0000000000E+20
 20
-1.0000000000E+20
 30
-1.0000000000E+20
  9
$PLIMMIN
 10
0.0
 20
0.0
  9
$PLIMMAX
 10
420.0
 20
297.0
  9
$UNITMODE
 70
     0
  9
$VISRETAIN
 70
     1
  9
$PLINEGEN
 70
     0
  9
$PSLTSCALE
 70
     1
  9
$TREEDEPTH
 70
  3020
  9
$CMLSTYLE
  2
Standard
  9
$CMLJUST
 70
     0
  9
$CMLSCALE
 40
20.0
  9
$PROXYGRAPHICS
 70
     1
  9
$MEASUREMENT
 70
     1
  9
$CELWEIGHT
370
    -1
  9
$ENDCAPS
280
     0
  9
$JOINSTYLE
280
     0
  9
$LWDISPLAY
290
     1
  9
$INSUNITS
 70
     4
  9
$HYPERLINKBASE
  1

  9
$STYLESHEET
  1

  9
$XEDIT
290
     1
  9
$CEPSNTYPE
380
     0
  9
$PSTYLEMODE
290
     1
  9
$FINGERPRINTGUID
  2
{A6946B0D-E837-4B63-980B-ED27D652787D}
  9
$VERSIONGUID
  2
{FAEB1C32-E019-11D5-929B-00C0DF256EC4}
  9
$EXTNAMES
290
     1
  9
$PSVPSCALE
 40
0.0
  9
$OLESTARTUP
290
     0
  0
ENDSEC
  0
SECTION
  2
CLASSES
  0
CLASS
  1
ACDBDICTIONARYWDFLT
  2
AcDbDictionaryWithDefault
  3
ObjectDBX Classes
 90
        0
280
     0
281
     0
  0
CLASS
  1
VISUALSTYLE
  2
AcDbVisualStyle
  3
ObjectDBX Classes
 90
     4095
280
     0
281
     0
  0
CLASS
  1
MATERIAL
  2
AcDbMaterial
  3
ObjectDBX Classes
 90
     1153
280
     0
281
     0
  0
CLASS
  1
SCALE
  2
AcDbScale
  3
ObjectDBX Classes
 90
     1153
280
     0
281
     0
  0
CLASS
  1
TABLESTYLE
  2
AcDbTableStyle
  3
ObjectDBX Classes
 90
     4095
280
     0
281
     0
  0
CLASS
  1
MLEADERSTYLE
  2
AcDbMLeaderStyle
  3
ACDB_MLEADERSTYLE_CLASS
 90
     4095
280
     0
281
     0
  0
CLASS
  1
SUN
  2
AcDbSun
  3
SCENEOE
 90
     1153
280
     0
281
     0
  0
CLASS
  1
ACDBPLACEHOLDER
  2
AcDbPlaceHolder
  3
ObjectDBX Classes
 90
        0
280
     0
281
     0
  0
CLASS
  1
LAYOUT
  2
AcDbLayout
  3
ObjectDBX Classes
 90
        0
280
     0
281
     0
  0
ENDSEC
  0
SECTION
  2
TABLES
  0
TABLE
  2
VPORT
  5
8
330
0
100
AcDbSymbolTable
 70
     1
  0
VPORT
  5
29
330
8
100
AcDbSymbolTableRecord
100
AcDbViewportTableRecord
  2
*Active
 70
     0
 10
0.0
 20
0.0
 11
1.0
 21
1.0
 12
222.75
 22
157.5
 13
0.0
 23
0.0
 14
10.0
 24
10.0
 15
10.0
 25
10.0
 16
0.0
 26
0.0
 36
1.0
 17
0.0
 27
0.0
 37
0.0
 40
315.0
 41
1.4142857143
 42
50.0
 43
0.0
 44
0.0
 50
0.0
 51
0.0
 71
     0
 72
  2000
 73
     1
 74
     3
 75
     0
 76
     0
 77
     0
 78
     0
281
     0
 65
     1
110
0.0
120
0.0
130
0.0
111
1.0
121
0.0
131
0.0
112
0.0
122
1.0
132
0.0
 79
     0
146
0.0
  0
ENDTAB
  0
TABLE
  2
LTYPE
  5
5
330
0
100
AcDbSymbolTable
 70
     6
  0
LTYPE
  5
14
330
5
100
AcDbSymbolTableRecord
100
AcDbLinetypeTableRecord
  2
ByBlock
 70
     0
  3

 72
    65
 73
     0
 40
0.0
  0
LTYPE
  5
15
330
5
100
AcDbSymbolTableRecord
100
AcDbLinetypeTableRecord
  2
ByLayer
 70
     0
  3

 72
    65
 73
     0
 40
0.0
  0
LTYPE
  5
16
330
5
100
AcDbSymbolTableRecord
100
AcDbLinetypeTableRecord
  2
Continuous
 70
     0
  3
Solid line
 72
    65
 73
     0
 40
0.0
  0
LTYPE
  5
6E
330
5
100
AcDbSymbolTableRecord
100
AcDbLinetypeTableRecord
  2
HIDDEN
 70
     0
  3
Hidden __ __ __ __ __ __ __ __ __ __ __ __ __ __
 72
    65
 73
     2
 40
1.905
 49
1.27
 74
     0
 49
-0.635
 74
     0
  0
LTYPE
  5
6F
330
5
100
AcDbSymbolTableRecord
100
AcDbLinetypeTableRecord
  2
PHANTOM
 70
     0
  3
Phantom ______  __  __  ______  __  __  ______
 72
    65
 73
     6
 40
12.7
 49
6.35
 74
     0
 49
-1.27
 74
     0
 49
1.27
 74
     0
 49
-1.27
 74
     0
 49
1.27
 74
     0
 49
-1.27
 74
     0
  0
LTYPE
  5
70
330
5
100
AcDbSymbolTableRecord
100
AcDbLinetypeTableRecord
  2
CENTER
 70
     0
  3
Center ____ _ ____ _ ____ _ ____ _ ____ _ ____
 72
    65
 73
     4
 40
10.16
 49
6.35
 74
     0
 49
-1.27
 74
     0
 49
1.27
 74
     0
 49
-1.27
 74
     0
  0
LTYPE
  5
71
330
5
100
AcDbSymbolTableRecord
100
AcDbLinetypeTableRecord
  2
CENTERX2
 70
     0
  3
Center (2x) ________  __  ________  __  _____
 72
    65
 73
     4
 40
20.32
 49
12.7
 74
     0
 49
-2.54
 74
     0
 49
2.54
 74
     0
 49
-2.54
 74
     0
  0
LTYPE
  5
72
330
5
100
AcDbSymbolTableRecord
100
AcDbLinetypeTableRecord
  2
DOT2
 70
     0
  3
Dot (.5x) ........................................
 72
    65
 73
     2
 40
0.635
 49
0.0
 74
     0
 49
-0.635
 74
     0
  0
ENDTAB
  0
TABLE
  2
LAYER
  5
2
330
0
100
AcDbSymbolTable
 70
     8
  0
LAYER
  5
10
330
2
100
AcDbSymbolTableRecord
100
AcDbLayerTableRecord
  2
0
 70
     0
 62
     7
  6
Continuous
370
    -3
390
F
  0
LAYER
  5
73
330
2
100
AcDbSymbolTableRecord
100
AcDbLayerTableRecord
  2
SLD-0
 70
     0
 62
   179
  6
Continuous
370
    15
390
F
  0
LAYER
  5
74
330
2
100
AcDbSymbolTableRecord
100
AcDbLayerTableRecord
  2
輪廓線
 70
     0
 62
   219
  6
Continuous
370
    15
390
F
  0
LAYER
  5
75
330
2
100
AcDbSymbolTableRecord
100
AcDbLayerTableRecord
  2
DIM
 70
     0
 62
     7
  6
Continuous
370
    -3
390
F
  0
LAYER
  5
76
330
2
100
AcDbSymbolTableRecord
100
AcDbLayerTableRecord
  2
中心線
 70
     0
 62
     1
  6
CENTERX2
370
    -3
390
F
  0
LAYER
  5
77
330
2
100
AcDbSymbolTableRecord
100
AcDbLayerTableRecord
  2
虛線
 70
     0
 62
     6
  6
HIDDEN
370
    -3
390
F
  0
LAYER
  5
78
330
2
100
AcDbSymbolTableRecord
100
AcDbLayerTableRecord
  2
SECTION
 70
     0
 62
     5
  6
PHANTOM
370
    15
390
F
  0
LAYER
  5
79
330
2
100
AcDbSymbolTableRecord
100
AcDbLayerTableRecord
  2
假想線
 70
     0
 62
     5
  6
PHANTOM
370
    -3
390
F
  0
ENDTAB
  0
TABLE
  2
STYLE
  5
3
330
0
100
AcDbSymbolTable
 70
     5
  0
STYLE
  5
11
330
3
100
AcDbSymbolTableRecord
100
AcDbTextStyleTableRecord
  2
STANDARD
 70
     0
 40
0.0
 41
1.0
 50
0.0
 71
     0
 42
5.2916666667
  3
ARIALBD.TTF
  4

1001
ACAD
1000
ARIAL
1071
 33554466
  0
STYLE
  5
7A
330
3
100
AcDbSymbolTableRecord
100
AcDbTextStyleTableRecord
  2
SLDTEXTSTYLE0
 70
     0
 40
0.0
 41
1.0
 50
0.0
 71
     0
 42
2.5
  3
ARIAL.TTF
  4

1001
ACAD
1000
Arial
1071
      290
  0
STYLE
  5
CB
330
3
100
AcDbSymbolTableRecord
100
AcDbTextStyleTableRecord
  2
SLDTEXTSTYLE1
 70
     0
 40
0.0
 41
0.948
 50
0.0
 71
     0
 42
5.2916666667
  3
ARIAL.TTF
  4

1001
ACAD
1000
Arial
1071
      290
  0
STYLE
  5
D4
330
3
100
AcDbSymbolTableRecord
100
AcDbTextStyleTableRecord
  2
SLDTEXTSTYLE2
 70
     0
 40
0.0
 41
1.0
 50
0.0
 71
     0
 42
5.2916666667
  3
ARIALBD.TTF
  4

1001
ACAD
1000
Arial CE
1071
 33554722
  0
STYLE
  5
103
330
3
100
AcDbSymbolTableRecord
100
AcDbTextStyleTableRecord
  2
SLDTEXTSTYLE3
 70
     0
 40
0.0
 41
0.948
 50
0.0
 71
     0
 42
5.2916666667
  3
ARIALBD.TTF
  4

1001
ACAD
1000
Arial
1071
 33554722
  0
ENDTAB
  0
TABLE
  2
VIEW
  5
6
330
0
100
AcDbSymbolTable
 70
     0
  0
ENDTAB
  0
TABLE
  2
UCS
  5
7
330
0
100
AcDbSymbolTable
 70
     0
  0
ENDTAB
  0
TABLE
  2
APPID
  5
9
330
0
100
AcDbSymbolTable
 70
     1
  0
APPID
  5
12
330
9
100
AcDbSymbolTableRecord
100
AcDbRegAppTableRecord
  2
ACAD
 70
     0
  0
ENDTAB
  0
TABLE
  2
DIMSTYLE
  5
A
330
0
100
AcDbSymbolTable
 70
     5
100
AcDbDimStyleTable
  0
DIMSTYLE
105
27
330
A
100
AcDbSymbolTableRecord
100
AcDbDimStyleTableRecord
  2
ISO-25
 70
     0
 41
2.5
 42
0.625
 43
3.75
 44
1.25
 73
     0
 74
     0
 77
     1
 78
     8
140
2.5
141
2.5
143
0.0393700787
147
0.625
171
     3
172
     1
178
     0
271
     2
272
     2
274
     3
278
    44
283
     0
284
     8
340
7A
  0
DIMSTYLE
105
18E
102
{ACAD_REACTORS
330
18D
102
}
330
A
100
AcDbSymbolTableRecord
100
AcDbDimStyleTableRecord
  2
SLDDIMSTYLE0
 70
     0
  3
<>
 41
3.0
 44
0.0
 45
0.000000001
 78
    12
 79
     3
140
3.75
141
0.0
147
0.9375
173
     1
178
     0
271
     2
272
     2
276
     2
284
    12
340
CB
  0
DIMSTYLE
105
198
102
{ACAD_REACTORS
330
197
330
1A2
330
1AC
330
1B6
330
1C0
330
1CA
330
1D4
330
2D3
330
2DD
330
2E7
330
307
102
}
330
A
100
AcDbSymbolTableRecord
100
AcDbDimStyleTableRecord
  2
SLDDIMSTYLE1
 70
     0
 41
3.0
 44
0.0
 45
0.000000001
 73
     0
 74
     0
 77
     1
 78
    12
 79
     3
140
3.75
147
0.9375
173
     1
178
     0
271
     2
272
     2
276
     2
284
    12
340
CB
  0
DIMSTYLE
105
2F2
102
{ACAD_REACTORS
330
2F1
102
}
330
A
100
AcDbSymbolTableRecord
100
AcDbDimStyleTableRecord
  2
SLDDIMSTYLE2
 70
     0
 41
3.0
 44
0.0
 45
0.000000001
 73
     0
 74
     0
 77
     1
 78
    12
 79
     3
140
3.75
147
0.9375
173
     1
178
     0
271
     0
272
     0
276
     2
284
    12
340
CB
  0
DIMSTYLE
105
2FD
102
{ACAD_REACTORS
330
2FC
102
}
330
A
100
AcDbSymbolTableRecord
100
AcDbDimStyleTableRecord
  2
SLDDIMSTYLE3
 70
     0
 41
3.0
 44
0.0
 45
0.000000001
 78
    12
 79
     3
140
3.75
141
0.0
147
0.9375
173
     1
178
     0
271
     2
272
     2
276
     2
284
    12
340
CB
  0
ENDTAB
  0
TABLE
  2
BLOCK_RECORD
  5
1
330
0
100
AcDbSymbolTable
 70
    26
  0
BLOCK_RECORD
  5
1F
330
1
100
AcDbSymbolTableRecord
100
AcDbBlockTableRecord
  2
*Model_Space
340
22
  0
BLOCK_RECORD
  5
1B
330
1
100
AcDbSymbolTableRecord
100
AcDbBlockTableRecord
  2
*Paper_Space
340
1E
  0
BLOCK_RECORD
  5
23
330
1
100
AcDbSymbolTableRecord
100
AcDbBlockTableRecord
  2
*Paper_Space0
340
26
  0
BLOCK_RECORD
  5
CD
330
1
100
AcDbSymbolTableRecord
100
AcDbBlockTableRecord
  2
SW_NOTE_0
340
0
102
{BLKREFS
331
D3
102
}
  0
BLOCK_RECORD
  5
105
330
1
100
AcDbSymbolTableRecord
100
AcDbBlockTableRecord
  2
SW_NOTE_1
340
0
102
{BLKREFS
331
10A
102
}
  0
BLOCK_RECORD
  5
18F
330
1
100
AcDbSymbolTableRecord
100
AcDbBlockTableRecord
  2
_D
340
0
  0
BLOCK_RECORD
  5
199
330
1
100
AcDbSymbolTableRecord
100
AcDbBlockTableRecord
  2
_D_1
340
0
  0
BLOCK_RECORD
  5
1A3
330
1
100
AcDbSymbolTableRecord
100
AcDbBlockTableRecord
  2
_D_2
340
0
  0
BLOCK_RECORD
  5
1AD
330
1
100
AcDbSymbolTableRecord
100
AcDbBlockTableRecord
  2
_D_3
340
0
  0
BLOCK_RECORD
  5
1B7
330
1
100
AcDbSymbolTableRecord
100
AcDbBlockTableRecord
  2
_D_4
340
0
  0
BLOCK_RECORD
  5
1C1
330
1
100
AcDbSymbolTableRecord
100
AcDbBlockTableRecord
  2
_D_5
340
0
  0
BLOCK_RECORD
  5
1CB
330
1
100
AcDbSymbolTableRecord
100
AcDbBlockTableRecord
  2
_D_6
340
0
  0
BLOCK_RECORD
  5
1D5
330
1
100
AcDbSymbolTableRecord
100
AcDbBlockTableRecord
  2
_D_7
340
0
  0
BLOCK_RECORD
  5
1DE
330
1
100
AcDbSymbolTableRecord
100
AcDbBlockTableRecord
  2
SW_CENTERMARKSYMBOL_0
340
0
102
{BLKREFS
331
1E9
102
}
  0
BLOCK_RECORD
  5
1EA
330
1
100
AcDbSymbolTableRecord
100
AcDbBlockTableRecord
  2
SW_CENTERMARKSYMBOL_1
340
0
102
{BLKREFS
331
1F5
102
}
  0
BLOCK_RECORD
  5
1F6
330
1
100
AcDbSymbolTableRecord
100
AcDbBlockTableRecord
  2
SW_CENTERMARKSYMBOL_2
340
0
102
{BLKREFS
331
201
102
}
  0
BLOCK_RECORD
  5
202
330
1
100
AcDbSymbolTableRecord
100
AcDbBlockTableRecord
  2
SW_CENTERMARKSYMBOL_3
340
0
102
{BLKREFS
331
20D
102
}
  0
BLOCK_RECORD
  5
20E
330
1
100
AcDbSymbolTableRecord
100
AcDbBlockTableRecord
  2
SW_CENTERMARKSYMBOL_4
340
0
102
{BLKREFS
331
219
102
}
  0
BLOCK_RECORD
  5
21A
330
1
100
AcDbSymbolTableRecord
100
AcDbBlockTableRecord
  2
SW_CENTERMARKSYMBOL_5
340
0
102
{BLKREFS
331
225
102
}
  0
BLOCK_RECORD
  5
226
330
1
100
AcDbSymbolTableRecord
100
AcDbBlockTableRecord
  2
SW_CENTERMARKSYMBOL_6
340
0
102
{BLKREFS
331
231
102
}
  0
BLOCK_RECORD
  5
232
330
1
100
AcDbSymbolTableRecord
100
AcDbBlockTableRecord
  2
SW_CENTERMARKSYMBOL_7
340
0
102
{BLKREFS
331
23D
102
}
  0
BLOCK_RECORD
  5
2D4
330
1
100
AcDbSymbolTableRecord
100
AcDbBlockTableRecord
  2
_D_8
340
0
  0
BLOCK_RECORD
  5
2DE
330
1
100
AcDbSymbolTableRecord
100
AcDbBlockTableRecord
  2
_D_9
340
0
  0
BLOCK_RECORD
  5
2E8
330
1
100
AcDbSymbolTableRecord
100
AcDbBlockTableRecord
  2
_D_10
340
0
  0
BLOCK_RECORD
  5
2F3
330
1
100
AcDbSymbolTableRecord
100
AcDbBlockTableRecord
  2
_D_11
340
0
  0
BLOCK_RECORD
  5
2FE
330
1
100
AcDbSymbolTableRecord
100
AcDbBlockTableRecord
  2
_D_12
340
0
  0
BLOCK_RECORD
  5
308
330
1
100
AcDbSymbolTableRecord
100
AcDbBlockTableRecord
  2
_D_13
340
0
  0
BLOCK_RECORD
  5
311
330
1
100
AcDbSymbolTableRecord
100
AcDbBlockTableRecord
  2
SW_CENTERMARKSYMBOL_8
340
0
102
{BLKREFS
331
31C
102
}
  0
ENDTAB
  0
ENDSEC
  0
SECTION
  2
BLOCKS
  0
BLOCK
  5
20
330
1F
100
AcDbEntity
  8
0
100
AcDbBlockBegin
  2
*Model_Space
 70
     0
 10
0.0
 20
0.0
 30
0.0
  3
*Model_Space
  1

  0
ENDBLK
  5
21
330
1F
100
AcDbEntity
  8
0
100
AcDbBlockEnd
  0
BLOCK
  5
1C
330
1B
100
AcDbEntity
 67
     1
  8
0
100
AcDbBlockBegin
  2
*Paper_Space
 70
     0
 10
0.0
 20
0.0
 30
0.0
  3
*Paper_Space
  1

  0
ENDBLK
  5
1D
330
1B
100
AcDbEntity
 67
     1
  8
0
100
AcDbBlockEnd
  0
BLOCK
  5
24
330
23
100
AcDbEntity
  8
0
100
AcDbBlockBegin
  2
*Paper_Space0
 70
     0
 10
0.0
 20
0.0
 30
0.0
  3
*Paper_Space0
  1

  0
ENDBLK
  5
25
330
23
100
AcDbEntity
  8
0
100
AcDbBlockEnd
  0
BLOCK
  5
CE
330
CD
100
AcDbEntity
  8
0
100
AcDbBlockBegin
  2
SW_NOTE_0
 70
     0
 10
0.0
 20
0.0
 30
0.0
  3
SW_NOTE_0
  1

  0
MTEXT
  5
D0
330
CD
100
AcDbEntity
  8
0
  6
Continuous
 62
     0
370
     0
100
AcDbMText
 10
0.0
 20
5.1159875922
 30
0.0
 40
3.96875
 41
0.0
 71
     1
 72
     1
  1
PROPRIETARY AND CONFIDENTIAL
  7
SLDTEXTSTYLE1
 73
     1
 44
1.0
  0
MTEXT
  5
D1
330
CD
100
AcDbEntity
  8
0
  6
Continuous
 62
     0
370
     0
100
AcDbMText
 10
0.0
 20
-0.12297522
 30
0.0
 40
2.778125
 41
0.0
 71
     1
 72
     1
  1
THE INFORMATION CONTAINED IN THIS DRAWING IS THE SOLE PROPERTY OF UNICE E-O SERVICES INC. ANY REPRODUCTION IN PART OR AS A WHOLE WITHOUT THE WRITTEN PERMISSION OF UNICE E-O SERVICES INC IS 
  7
SLDTEXTSTYLE1
 73
     1
 44
1.0
  0
MTEXT
  5
D2
330
CD
100
AcDbEntity
  8
0
  6
Continuous
 62
     0
370
     0
100
AcDbMText
 10
0.0
 20
-3.8271418419
 30
0.0
 40
2.778125
 41
0.0
 71
     1
 72
     1
  1
PROHIBITED.
  7
SLDTEXTSTYLE1
 73
     1
 44
1.0
  0
ENDBLK
  5
CF
330
CD
100
AcDbEntity
  8
0
100
AcDbBlockEnd
  0
BLOCK
  5
106
330
105
100
AcDbEntity
  8
0
100
AcDbBlockBegin
  2
SW_NOTE_1
 70
     0
 10
0.0
 20
0.0
 30
0.0
  3
SW_NOTE_1
  1

  0
MTEXT
  5
108
330
105
100
AcDbEntity
  8
DIM
 62
     0
100
AcDbMText
 10
0.0
 20
3.5811913146
 30
0.0
 40
2.778125
 41
0.0
 71
     1
 72
     1
  1
No.5, Andong Rd., Chung Li District,
  7
SLDTEXTSTYLE0
 73
     1
 44
1.0
  0
MTEXT
  5
109
330
105
100
AcDbEntity
  8
DIM
 62
     0
100
AcDbMText
 10
0.0
 20
-0.1229753073
 30
0.0
 40
2.778125
 41
0.0
 71
     1
 72
     1
  1
Taoyuan City 32063, Taiwan, R.O.C.
  7
SLDTEXTSTYLE0
 73
     1
 44
1.0
  0
ENDBLK
  5
107
330
105
100
AcDbEntity
  8
0
100
AcDbBlockEnd
  0
BLOCK
  5
190
330
18F
100
AcDbEntity
  8
0
100
AcDbBlockBegin
  2
_D
 70
     0
 10
0.0
 20
0.0
 30
0.0
  3
_D
  1

  0
SOLID
  5
192
330
18F
100
AcDbEntity
  8
DIM
100
AcDbTrace
 10
161.6626646849
 20
112.2065142111
 30
0.0
 11
164.4482408962
 21
113.3817546847
 31
0.0
 12
164.0732408962
 22
114.0312737375
 32
0.0
 13
164.0732408962
 23
114.0312737375
 33
0.0
  0
LINE
  5
193
330
18F
100
AcDbEntity
  8
DIM
100
AcDbLine
 10
161.6626646849
 20
112.2065142111
 30
0.0
 11
185.0810214506
 21
125.7271087938
 31
0.0
  0
LINE
  5
194
330
18F
100
AcDbEntity
  8
DIM
100
AcDbLine
 10
185.0810214506
 20
125.7271087938
 30
0.0
 11
210.1487293655
 21
125.7271087938
 31
0.0
  0
MTEXT
  5
195
330
18F
100
AcDbEntity
  8
DIM
100
AcDbMText
 10
186.9560214506
 20
136.3163207558
 30
0.0
 40
3.75
 41
0.0
 71
     1
 72
     1
  1
9 HOLES,
  7
SLDTEXTSTYLE1
 73
     1
 44
1.0
  0
MTEXT
  5
196
330
18F
100
AcDbEntity
  8
DIM
100
AcDbMText
 10
186.9560214506
 20
130.561112556
 30
0.0
 40
3.75
 41
0.0
 71
     1
 72
     1
  1
 1/4"-20
  7
SLDTEXTSTYLE1
 73
     1
 44
1.0
  0
ENDBLK
  5
191
330
18F
100
AcDbEntity
  8
0
100
AcDbBlockEnd
  0
BLOCK
  5
19A
330
199
100
AcDbEntity
  8
0
100
AcDbBlockBegin
  2
_D_1
 70
     0
 10
0.0
 20
0.0
 30
0.0
  3
_D_1
  1

  0
SOLID
  5
19C
330
199
100
AcDbEntity
  8
DIM
100
AcDbTrace
 10
134.0519616366
 20
132.2798049074
 30
0.0
 11
137.0519616366
 21
131.9048049074
 31
0.0
 12
137.0519616366
 22
132.6548049074
 32
0.0
 13
137.0519616366
 23
132.6548049074
 33
0.0
  0
SOLID
  5
19D
330
199
100
AcDbEntity
  8
DIM
100
AcDbTrace
 10
146.7519616366
 20
132.2798049074
 30
0.0
 11
143.7519616366
 21
132.6548049074
 31
0.0
 12
143.7519616366
 22
131.9048049074
 32
0.0
 13
143.7519616366
 23
131.9048049074
 33
0.0
  0
LINE
  5
19E
330
199
100
AcDbEntity
  8
DIM
100
AcDbLine
 10
134.0519616366
 20
115.9828642111
 30
0.0
 11
134.0519616366
 21
133.7798049074
 31
0.0
  0
LINE
  5
19F
330
199
100
AcDbEntity
  8
DIM
100
AcDbLine
 10
146.7519616366
 20
115.9828642111
 30
0.0
 11
146.7519616366
 21
133.7798049074
 31
0.0
  0
LINE
  5
1A0
330
199
100
AcDbEntity
  8
DIM
100
AcDbLine
 10
134.0519616366
 20
132.2798049074
 30
0.0
 11
146.7519616366
 21
132.2798049074
 31
0.0
  0
MTEXT
  5
1A1
330
199
100
AcDbEntity
  8
DIM
100
AcDbMText
 10
135.3889409275
 20
137.1138086696
 30
0.0
 40
3.75
 41
0.0
 71
     1
 72
     1
  1
12.7
  7
SLDTEXTSTYLE1
 73
     1
 44
1.0
  0
ENDBLK
  5
19B
330
199
100
AcDbEntity
  8
0
100
AcDbBlockEnd
  0
BLOCK
  5
1A4
330
1A3
100
AcDbEntity
  8
0
100
AcDbBlockBegin
  2
_D_2
 70
     0
 10
0.0
 20
0.0
 30
0.0
  3
_D_2
  1

  0
SOLID
  5
1A6
330
1A3
100
AcDbEntity
  8
DIM
100
AcDbTrace
 10
146.7519616366
 20
132.2798049074
 30
0.0
 11
149.7519616366
 21
131.9048049074
 31
0.0
 12
149.7519616366
 22
132.6548049074
 32
0.0
 13
149.7519616366
 23
132.6548049074
 33
0.0
  0
SOLID
  5
1A7
330
1A3
100
AcDbEntity
  8
DIM
100
AcDbTrace
 10
159.4519616366
 20
132.2798049074
 30
0.0
 11
156.4519616366
 21
132.6548049074
 31
0.0
 12
156.4519616366
 22
131.9048049074
 32
0.0
 13
156.4519616366
 23
131.9048049074
 33
0.0
  0
LINE
  5
1A8
330
1A3
100
AcDbEntity
  8
DIM
100
AcDbLine
 10
146.7519616366
 20
115.9828642111
 30
0.0
 11
146.7519616366
 21
133.7798049074
 31
0.0
  0
LINE
  5
1A9
330
1A3
100
AcDbEntity
  8
DIM
100
AcDbLine
 10
159.4519616366
 20
115.9828642111
 30
0.0
 11
159.4519616366
 21
133.7798049074
 31
0.0
  0
LINE
  5
1AA
330
1A3
100
AcDbEntity
  8
DIM
100
AcDbLine
 10
146.7519616366
 20
132.2798049074
 30
0.0
 11
159.4519616366
 21
132.2798049074
 31
0.0
  0
MTEXT
  5
1AB
330
1A3
100
AcDbEntity
  8
DIM
100
AcDbMText
 10
148.0889409275
 20
137.1138086696
 30
0.0
 40
3.75
 41
0.0
 71
     1
 72
     1
  1
12.7
  7
SLDTEXTSTYLE1
 73
     1
 44
1.0
  0
ENDBLK
  5
1A5
330
1A3
100
AcDbEntity
  8
0
100
AcDbBlockEnd
  0
BLOCK
  5
1AE
330
1AD
100
AcDbEntity
  8
0
100
AcDbBlockBegin
  2
_D_3
 70
     0
 10
0.0
 20
0.0
 30
0.0
  3
_D_3
  1

  0
SOLID
  5
1B0
330
1AD
100
AcDbEntity
  8
DIM
100
AcDbTrace
 10
121.7519616366
 20
142.6724175479
 30
0.0
 11
124.7519616366
 21
142.2974175479
 31
0.0
 12
124.7519616366
 22
143.0474175479
 32
0.0
 13
124.7519616366
 23
143.0474175479
 33
0.0
  0
SOLID
  5
1B1
330
1AD
100
AcDbEntity
  8
DIM
100
AcDbTrace
 10
171.7519616366
 20
142.6724175479
 30
0.0
 11
168.7519616366
 21
143.0474175479
 31
0.0
 12
168.7519616366
 22
142.2974175479
 32
0.0
 13
168.7519616366
 23
142.2974175479
 33
0.0
  0
LINE
  5
1B2
330
1AD
100
AcDbEntity
  8
DIM
100
AcDbLine
 10
121.7519616366
 20
125.0301642111
 30
0.0
 11
121.7519616366
 21
144.1724175479
 31
0.0
  0
LINE
  5
1B3
330
1AD
100
AcDbEntity
  8
DIM
100
AcDbLine
 10
171.7519616366
 20
125.0301642111
 30
0.0
 11
171.7519616366
 21
144.1724175479
 31
0.0
  0
LINE
  5
1B4
330
1AD
100
AcDbEntity
  8
DIM
100
AcDbLine
 10
121.7519616366
 20
142.6724175479
 30
0.0
 11
171.7519616366
 21
142.6724175479
 31
0.0
  0
MTEXT
  5
1B5
330
1AD
100
AcDbEntity
  8
DIM
100
AcDbMText
 10
143.8873782994
 20
147.5064213101
 30
0.0
 40
3.75
 41
0.0
 71
     1
 72
     1
  1
50
  7
SLDTEXTSTYLE1
 73
     1
 44
1.0
  0
ENDBLK
  5
1AF
330
1AD
100
AcDbEntity
  8
0
100
AcDbBlockEnd
  0
BLOCK
  5
1B8
330
1B7
100
AcDbEntity
  8
0
100
AcDbBlockBegin
  2
_D_4
 70
     0
 10
0.0
 20
0.0
 30
0.0
  3
_D_4
  1

  0
SOLID
  5
1BA
330
1B7
100
AcDbEntity
  8
DIM
100
AcDbTrace
 10
94.2519616366
 20
85.5301642111
 30
0.0
 11
93.8769616366
 21
82.5301642111
 31
0.0
 12
94.6269616366
 22
82.5301642111
 32
0.0
 13
94.6269616366
 23
82.5301642111
 33
0.0
  0
SOLID
  5
1BB
330
1B7
100
AcDbEntity
  8
DIM
100
AcDbTrace
 10
94.2519616366
 20
72.8301642111
 30
0.0
 11
94.6269616366
 21
75.8301642111
 31
0.0
 12
93.8769616366
 22
75.8301642111
 32
0.0
 13
93.8769616366
 23
75.8301642111
 33
0.0
  0
LINE
  5
1BC
330
1B7
100
AcDbEntity
  8
DIM
100
AcDbLine
 10
145.2519616366
 20
85.5301642111
 30
0.0
 11
92.7519616366
 21
85.5301642111
 31
0.0
  0
LINE
  5
1BD
330
1B7
100
AcDbEntity
  8
DIM
100
AcDbLine
 10
128.9992616366
 20
72.8301642111
 30
0.0
 11
92.7519616366
 21
72.8301642111
 31
0.0
  0
LINE
  5
1BE
330
1B7
100
AcDbEntity
  8
DIM
100
AcDbLine
 10
94.2519616366
 20
85.5301642111
 30
0.0
 11
94.2519616366
 21
72.8301642111
 31
0.0
  0
MTEXT
  5
1BF
330
1B7
100
AcDbEntity
  8
DIM
100
AcDbMText
 10
89.4179578744
 20
74.167143502
 30
0.0
 40
3.75
 41
0.0
 71
     1
 72
     1
  1
12.7
  7
SLDTEXTSTYLE1
 11
-7.044195017643634E-15
 21
1.0
 31
0.0
 73
     1
 44
1.0
  0
ENDBLK
  5
1B9
330
1B7
100
AcDbEntity
  8
0
100
AcDbBlockEnd
  0
BLOCK
  5
1C2
330
1C1
100
AcDbEntity
  8
0
100
AcDbBlockBegin
  2
_D_5
 70
     0
 10
0.0
 20
0.0
 30
0.0
  3
_D_5
  1

  0
SOLID
  5
1C4
330
1C1
100
AcDbEntity
  8
DIM
100
AcDbTrace
 10
83.8736533282
 20
85.5301642111
 30
0.0
 11
83.4986533282
 21
82.5301642111
 31
0.0
 12
84.2486533282
 22
82.5301642111
 32
0.0
 13
84.2486533282
 23
82.5301642111
 33
0.0
  0
SOLID
  5
1C5
330
1C1
100
AcDbEntity
  8
DIM
100
AcDbTrace
 10
83.8736533282
 20
60.1301642111
 30
0.0
 11
84.2486533282
 21
63.1301642111
 31
0.0
 12
83.4986533282
 22
63.1301642111
 32
0.0
 13
83.4986533282
 23
63.1301642111
 33
0.0
  0
LINE
  5
1C6
330
1C1
100
AcDbEntity
  8
DIM
100
AcDbLine
 10
145.2519616366
 20
85.5301642111
 30
0.0
 11
82.3736533282
 21
85.5301642111
 31
0.0
  0
LINE
  5
1C7
330
1C1
100
AcDbEntity
  8
DIM
100
AcDbLine
 10
128.9992616366
 20
60.1301642111
 30
0.0
 11
82.3736533282
 21
60.1301642111
 31
0.0
  0
LINE
  5
1C8
330
1C1
100
AcDbEntity
  8
DIM
100
AcDbLine
 10
83.8736533282
 20
85.5301642111
 30
0.0
 11
83.8736533282
 21
60.1301642111
 31
0.0
  0
MTEXT
  5
1C9
330
1C1
100
AcDbEntity
  8
DIM
100
AcDbMText
 10
79.0396495659
 20
67.817143502
 30
0.0
 40
3.75
 41
0.0
 71
     1
 72
     1
  1
25.4
  7
SLDTEXTSTYLE1
 11
-7.044195017643634E-15
 21
1.0
 31
0.0
 73
     1
 44
1.0
  0
ENDBLK
  5
1C3
330
1C1
100
AcDbEntity
  8
0
100
AcDbBlockEnd
  0
BLOCK
  5
1CC
330
1CB
100
AcDbEntity
  8
0
100
AcDbBlockBegin
  2
_D_6
 70
     0
 10
0.0
 20
0.0
 30
0.0
  3
_D_6
  1

  0
SOLID
  5
1CE
330
1CB
100
AcDbEntity
  8
DIM
100
AcDbTrace
 10
83.8736533282
 20
110.9301642111
 30
0.0
 11
83.4986533282
 21
107.9301642111
 31
0.0
 12
84.2486533282
 22
107.9301642111
 32
0.0
 13
84.2486533282
 23
107.9301642111
 33
0.0
  0
SOLID
  5
1CF
330
1CB
100
AcDbEntity
  8
DIM
100
AcDbTrace
 10
83.8736533282
 20
85.5301642111
 30
0.0
 11
84.2486533282
 21
88.5301642111
 31
0.0
 12
83.4986533282
 22
88.5301642111
 32
0.0
 13
83.4986533282
 23
88.5301642111
 33
0.0
  0
LINE
  5
1D0
330
1CB
100
AcDbEntity
  8
DIM
100
AcDbLine
 10
128.9992616366
 20
110.9301642111
 30
0.0
 11
82.3736533282
 21
110.9301642111
 31
0.0
  0
LINE
  5
1D1
330
1CB
100
AcDbEntity
  8
DIM
100
AcDbLine
 10
145.2519616366
 20
85.5301642111
 30
0.0
 11
82.3736533282
 21
85.5301642111
 31
0.0
  0
LINE
  5
1D2
330
1CB
100
AcDbEntity
  8
DIM
100
AcDbLine
 10
83.8736533282
 20
110.9301642111
 30
0.0
 11
83.8736533282
 21
85.5301642111
 31
0.0
  0
MTEXT
  5
1D3
330
1CB
100
AcDbEntity
  8
DIM
100
AcDbMText
 10
79.0396495659
 20
93.217143502
 30
0.0
 40
3.75
 41
0.0
 71
     1
 72
     1
  1
25.4
  7
SLDTEXTSTYLE1
 11
-7.044195017643634E-15
 21
1.0
 31
0.0
 73
     1
 44
1.0
  0
ENDBLK
  5
1CD
330
1CB
100
AcDbEntity
  8
0
100
AcDbBlockEnd
  0
BLOCK
  5
1D6
330
1D5
100
AcDbEntity
  8
0
100
AcDbBlockBegin
  2
_D_7
 70
     0
 10
0.0
 20
0.0
 30
0.0
  3
_D_7
  1

  0
SOLID
  5
1D8
330
1D5
100
AcDbEntity
  8
DIM
100
AcDbTrace
 10
73.9521503056
 20
123.5301642111
 30
0.0
 11
73.5771503056
 21
120.5301642111
 31
0.0
 12
74.3271503056
 22
120.5301642111
 32
0.0
 13
74.3271503056
 23
120.5301642111
 33
0.0
  0
SOLID
  5
1D9
330
1D5
100
AcDbEntity
  8
DIM
100
AcDbTrace
 10
73.9521503056
 20
47.5301642111
 30
0.0
 11
74.3271503056
 21
50.5301642111
 31
0.0
 12
73.5771503056
 22
50.5301642111
 32
0.0
 13
73.5771503056
 23
50.5301642111
 33
0.0
  0
LINE
  5
1DA
330
1D5
100
AcDbEntity
  8
DIM
100
AcDbLine
 10
120.2519616366
 20
123.5301642111
 30
0.0
 11
72.4521503056
 21
123.5301642111
 31
0.0
  0
LINE
  5
1DB
330
1D5
100
AcDbEntity
  8
DIM
100
AcDbLine
 10
120.2519616366
 20
47.5301642111
 30
0.0
 11
72.4521503056
 21
47.5301642111
 31
0.0
  0
LINE
  5
1DC
330
1D5
100
AcDbEntity
  8
DIM
100
AcDbLine
 10
73.9521503056
 20
123.5301642111
 30
0.0
 11
73.9521503056
 21
47.5301642111
 31
0.0
  0
MTEXT
  5
1DD
330
1D5
100
AcDbEntity
  8
DIM
100
AcDbMText
 10
69.1181465434
 20
82.6655808739
 30
0.0
 40
3.75
 41
0.0
 71
     1
 72
     1
  1
76
  7
SLDTEXTSTYLE1
 11
-7.044195017643634E-15
 21
1.0
 31
0.0
 73
     1
 44
1.0
  0
ENDBLK
  5
1D7
330
1D5
100
AcDbEntity
  8
0
100
AcDbBlockEnd
  0
BLOCK
  5
1DF
330
1DE
100
AcDbEntity
  8
0
100
AcDbBlockBegin
  2
SW_CENTERMARKSYMBOL_0
 70
     0
 10
0.0
 20
0.0
 30
0.0
  3
SW_CENTERMARKSYMBOL_0
  1

  0
LINE
  5
1E1
330
1DE
100
AcDbEntity
  8
DIM
 62
     0
100
AcDbLine
 10
0.0
 20
0.0
 30
0.0
 11
0.0
 21
1.0
 31
0.0
  0
LINE
  5
1E2
330
1DE
100
AcDbEntity
  8
DIM
 62
     0
100
AcDbLine
 10
0.0
 20
0.0
 30
0.0
 11
-1.0
 21
0.0
 31
0.0
  0
LINE
  5
1E3
330
1DE
100
AcDbEntity
  8
DIM
 62
     0
100
AcDbLine
 10
0.0
 20
0.0
 30
0.0
 11
0.0
 21
-1.0
 31
0.0
  0
LINE
  5
1E4
330
1DE
100
AcDbEntity
  8
DIM
 62
     0
100
AcDbLine
 10
0.0
 20
0.0
 30
0.0
 11
1.0
 21
0.0
 31
0.0
  0
LINE
  5
1E5
330
1DE
100
AcDbEntity
  8
DIM
 62
     0
100
AcDbLine
 10
0.0
 20
2.0
 30
0.0
 11
0.0
 21
3.5527
 31
0.0
  0
LINE
  5
1E6
330
1DE
100
AcDbEntity
  8
DIM
 62
     0
100
AcDbLine
 10
-2.0
 20
0.0
 30
0.0
 11
-3.5527
 21
0.0
 31
0.0
  0
LINE
  5
1E7
330
1DE
100
AcDbEntity
  8
DIM
 62
     0
100
AcDbLine
 10
0.0
 20
-2.0
 30
0.0
 11
0.0
 21
-3.5527
 31
0.0
  0
LINE
  5
1E8
330
1DE
100
AcDbEntity
  8
DIM
 62
     0
100
AcDbLine
 10
2.0
 20
0.0
 30
0.0
 11
3.5527
 21
0.0
 31
0.0
  0
ENDBLK
  5
1E0
330
1DE
100
AcDbEntity
  8
0
100
AcDbBlockEnd
  0
BLOCK
  5
1EB
330
1EA
100
AcDbEntity
  8
0
100
AcDbBlockBegin
  2
SW_CENTERMARKSYMBOL_1
 70
     0
 10
0.0
 20
0.0
 30
0.0
  3
SW_CENTERMARKSYMBOL_1
  1

  0
LINE
  5
1ED
330
1EA
100
AcDbEntity
  8
DIM
 62
     0
100
AcDbLine
 10
0.0
 20
0.0
 30
0.0
 11
0.0
 21
1.0
 31
0.0
  0
LINE
  5
1EE
330
1EA
100
AcDbEntity
  8
DIM
 62
     0
100
AcDbLine
 10
0.0
 20
0.0
 30
0.0
 11
-1.0
 21
0.0
 31
0.0
  0
LINE
  5
1EF
330
1EA
100
AcDbEntity
  8
DIM
 62
     0
100
AcDbLine
 10
0.0
 20
0.0
 30
0.0
 11
0.0
 21
-1.0
 31
0.0
  0
LINE
  5
1F0
330
1EA
100
AcDbEntity
  8
DIM
 62
     0
100
AcDbLine
 10
0.0
 20
0.0
 30
0.0
 11
1.0
 21
0.0
 31
0.0
  0
LINE
  5
1F1
330
1EA
100
AcDbEntity
  8
DIM
 62
     0
100
AcDbLine
 10
0.0
 20
2.0
 30
0.0
 11
0.0
 21
3.5527
 31
0.0
  0
LINE
  5
1F2
330
1EA
100
AcDbEntity
  8
DIM
 62
     0
100
AcDbLine
 10
-2.0
 20
0.0
 30
0.0
 11
-3.5527
 21
0.0
 31
0.0
  0
LINE
  5
1F3
330
1EA
100
AcDbEntity
  8
DIM
 62
     0
100
AcDbLine
 10
0.0
 20
-2.0
 30
0.0
 11
0.0
 21
-3.5527
 31
0.0
  0
LINE
  5
1F4
330
1EA
100
AcDbEntity
  8
DIM
 62
     0
100
AcDbLine
 10
2.0
 20
0.0
 30
0.0
 11
3.5527
 21
0.0
 31
0.0
  0
ENDBLK
  5
1EC
330
1EA
100
AcDbEntity
  8
0
100
AcDbBlockEnd
  0
BLOCK
  5
1F7
330
1F6
100
AcDbEntity
  8
0
100
AcDbBlockBegin
  2
SW_CENTERMARKSYMBOL_2
 70
     0
 10
0.0
 20
0.0
 30
0.0
  3
SW_CENTERMARKSYMBOL_2
  1

  0
LINE
  5
1F9
330
1F6
100
AcDbEntity
  8
DIM
 62
     0
100
AcDbLine
 10
0.0
 20
0.0
 30
0.0
 11
0.0
 21
1.0
 31
0.0
  0
LINE
  5
1FA
330
1F6
100
AcDbEntity
  8
DIM
 62
     0
100
AcDbLine
 10
0.0
 20
0.0
 30
0.0
 11
-1.0
 21
0.0
 31
0.0
  0
LINE
  5
1FB
330
1F6
100
AcDbEntity
  8
DIM
 62
     0
100
AcDbLine
 10
0.0
 20
0.0
 30
0.0
 11
0.0
 21
-1.0
 31
0.0
  0
LINE
  5
1FC
330
1F6
100
AcDbEntity
  8
DIM
 62
     0
100
AcDbLine
 10
0.0
 20
0.0
 30
0.0
 11
1.0
 21
0.0
 31
0.0
  0
LINE
  5
1FD
330
1F6
100
AcDbEntity
  8
DIM
 62
     0
100
AcDbLine
 10
0.0
 20
2.0
 30
0.0
 11
0.0
 21
3.5527
 31
0.0
  0
LINE
  5
1FE
330
1F6
100
AcDbEntity
  8
DIM
 62
     0
100
AcDbLine
 10
-2.0
 20
0.0
 30
0.0
 11
-3.5527
 21
0.0
 31
0.0
  0
LINE
  5
1FF
330
1F6
100
AcDbEntity
  8
DIM
 62
     0
100
AcDbLine
 10
0.0
 20
-2.0
 30
0.0
 11
0.0
 21
-3.5527
 31
0.0
  0
LINE
  5
200
330
1F6
100
AcDbEntity
  8
DIM
 62
     0
100
AcDbLine
 10
2.0
 20
0.0
 30
0.0
 11
3.5527
 21
0.0
 31
0.0
  0
ENDBLK
  5
1F8
330
1F6
100
AcDbEntity
  8
0
100
AcDbBlockEnd
  0
BLOCK
  5
203
330
202
100
AcDbEntity
  8
0
100
AcDbBlockBegin
  2
SW_CENTERMARKSYMBOL_3
 70
     0
 10
0.0
 20
0.0
 30
0.0
  3
SW_CENTERMARKSYMBOL_3
  1

  0
LINE
  5
205
330
202
100
AcDbEntity
  8
DIM
 62
     0
100
AcDbLine
 10
0.0
 20
0.0
 30
0.0
 11
0.0
 21
1.0
 31
0.0
  0
LINE
  5
206
330
202
100
AcDbEntity
  8
DIM
 62
     0
100
AcDbLine
 10
0.0
 20
0.0
 30
0.0
 11
-1.0
 21
0.0
 31
0.0
  0
LINE
  5
207
330
202
100
AcDbEntity
  8
DIM
 62
     0
100
AcDbLine
 10
0.0
 20
0.0
 30
0.0
 11
0.0
 21
-1.0
 31
0.0
  0
LINE
  5
208
330
202
100
AcDbEntity
  8
DIM
 62
     0
100
AcDbLine
 10
0.0
 20
0.0
 30
0.0
 11
1.0
 21
0.0
 31
0.0
  0
LINE
  5
209
330
202
100
AcDbEntity
  8
DIM
 62
     0
100
AcDbLine
 10
0.0
 20
2.0
 30
0.0
 11
0.0
 21
3.5527
 31
0.0
  0
LINE
  5
20A
330
202
100
AcDbEntity
  8
DIM
 62
     0
100
AcDbLine
 10
-2.0
 20
0.0
 30
0.0
 11
-3.5527
 21
0.0
 31
0.0
  0
LINE
  5
20B
330
202
100
AcDbEntity
  8
DIM
 62
     0
100
AcDbLine
 10
0.0
 20
-2.0
 30
0.0
 11
0.0
 21
-3.5527
 31
0.0
  0
LINE
  5
20C
330
202
100
AcDbEntity
  8
DIM
 62
     0
100
AcDbLine
 10
2.0
 20
0.0
 30
0.0
 11
3.5527
 21
0.0
 31
0.0
  0
ENDBLK
  5
204
330
202
100
AcDbEntity
  8
0
100
AcDbBlockEnd
  0
BLOCK
  5
20F
330
20E
100
AcDbEntity
  8
0
100
AcDbBlockBegin
  2
SW_CENTERMARKSYMBOL_4
 70
     0
 10
0.0
 20
0.0
 30
0.0
  3
SW_CENTERMARKSYMBOL_4
  1

  0
LINE
  5
211
330
20E
100
AcDbEntity
  8
DIM
 62
     0
100
AcDbLine
 10
0.0
 20
0.0
 30
0.0
 11
0.0
 21
1.0
 31
0.0
  0
LINE
  5
212
330
20E
100
AcDbEntity
  8
DIM
 62
     0
100
AcDbLine
 10
0.0
 20
0.0
 30
0.0
 11
-1.0
 21
0.0
 31
0.0
  0
LINE
  5
213
330
20E
100
AcDbEntity
  8
DIM
 62
     0
100
AcDbLine
 10
0.0
 20
0.0
 30
0.0
 11
0.0
 21
-1.0
 31
0.0
  0
LINE
  5
214
330
20E
100
AcDbEntity
  8
DIM
 62
     0
100
AcDbLine
 10
0.0
 20
0.0
 30
0.0
 11
1.0
 21
0.0
 31
0.0
  0
LINE
  5
215
330
20E
100
AcDbEntity
  8
DIM
 62
     0
100
AcDbLine
 10
0.0
 20
2.0
 30
0.0
 11
0.0
 21
3.5527
 31
0.0
  0
LINE
  5
216
330
20E
100
AcDbEntity
  8
DIM
 62
     0
100
AcDbLine
 10
-2.0
 20
0.0
 30
0.0
 11
-3.5527
 21
0.0
 31
0.0
  0
LINE
  5
217
330
20E
100
AcDbEntity
  8
DIM
 62
     0
100
AcDbLine
 10
0.0
 20
-2.0
 30
0.0
 11
0.0
 21
-3.5527
 31
0.0
  0
LINE
  5
218
330
20E
100
AcDbEntity
  8
DIM
 62
     0
100
AcDbLine
 10
2.0
 20
0.0
 30
0.0
 11
3.5527
 21
0.0
 31
0.0
  0
ENDBLK
  5
210
330
20E
100
AcDbEntity
  8
0
100
AcDbBlockEnd
  0
BLOCK
  5
21B
330
21A
100
AcDbEntity
  8
0
100
AcDbBlockBegin
  2
SW_CENTERMARKSYMBOL_5
 70
     0
 10
0.0
 20
0.0
 30
0.0
  3
SW_CENTERMARKSYMBOL_5
  1

  0
LINE
  5
21D
330
21A
100
AcDbEntity
  8
DIM
 62
     0
100
AcDbLine
 10
0.0
 20
0.0
 30
0.0
 11
0.0
 21
1.0
 31
0.0
  0
LINE
  5
21E
330
21A
100
AcDbEntity
  8
DIM
 62
     0
100
AcDbLine
 10
0.0
 20
0.0
 30
0.0
 11
-1.0
 21
0.0
 31
0.0
  0
LINE
  5
21F
330
21A
100
AcDbEntity
  8
DIM
 62
     0
100
AcDbLine
 10
0.0
 20
0.0
 30
0.0
 11
0.0
 21
-1.0
 31
0.0
  0
LINE
  5
220
330
21A
100
AcDbEntity
  8
DIM
 62
     0
100
AcDbLine
 10
0.0
 20
0.0
 30
0.0
 11
1.0
 21
0.0
 31
0.0
  0
LINE
  5
221
330
21A
100
AcDbEntity
  8
DIM
 62
     0
100
AcDbLine
 10
0.0
 20
2.0
 30
0.0
 11
0.0
 21
3.5527
 31
0.0
  0
LINE
  5
222
330
21A
100
AcDbEntity
  8
DIM
 62
     0
100
AcDbLine
 10
-2.0
 20
0.0
 30
0.0
 11
-3.5527
 21
0.0
 31
0.0
  0
LINE
  5
223
330
21A
100
AcDbEntity
  8
DIM
 62
     0
100
AcDbLine
 10
0.0
 20
-2.0
 30
0.0
 11
0.0
 21
-3.5527
 31
0.0
  0
LINE
  5
224
330
21A
100
AcDbEntity
  8
DIM
 62
     0
100
AcDbLine
 10
2.0
 20
0.0
 30
0.0
 11
3.5527
 21
0.0
 31
0.0
  0
ENDBLK
  5
21C
330
21A
100
AcDbEntity
  8
0
100
AcDbBlockEnd
  0
BLOCK
  5
227
330
226
100
AcDbEntity
  8
0
100
AcDbBlockBegin
  2
SW_CENTERMARKSYMBOL_6
 70
     0
 10
0.0
 20
0.0
 30
0.0
  3
SW_CENTERMARKSYMBOL_6
  1

  0
LINE
  5
229
330
226
100
AcDbEntity
  8
DIM
 62
     0
100
AcDbLine
 10
0.0
 20
0.0
 30
0.0
 11
0.0
 21
1.0
 31
0.0
  0
LINE
  5
22A
330
226
100
AcDbEntity
  8
DIM
 62
     0
100
AcDbLine
 10
0.0
 20
0.0
 30
0.0
 11
-1.0
 21
0.0
 31
0.0
  0
LINE
  5
22B
330
226
100
AcDbEntity
  8
DIM
 62
     0
100
AcDbLine
 10
0.0
 20
0.0
 30
0.0
 11
0.0
 21
-1.0
 31
0.0
  0
LINE
  5
22C
330
226
100
AcDbEntity
  8
DIM
 62
     0
100
AcDbLine
 10
0.0
 20
0.0
 30
0.0
 11
1.0
 21
0.0
 31
0.0
  0
LINE
  5
22D
330
226
100
AcDbEntity
  8
DIM
 62
     0
100
AcDbLine
 10
0.0
 20
2.0
 30
0.0
 11
0.0
 21
3.5527
 31
0.0
  0
LINE
  5
22E
330
226
100
AcDbEntity
  8
DIM
 62
     0
100
AcDbLine
 10
-2.0
 20
0.0
 30
0.0
 11
-3.5527
 21
0.0
 31
0.0
  0
LINE
  5
22F
330
226
100
AcDbEntity
  8
DIM
 62
     0
100
AcDbLine
 10
0.0
 20
-2.0
 30
0.0
 11
0.0
 21
-3.5527
 31
0.0
  0
LINE
  5
230
330
226
100
AcDbEntity
  8
DIM
 62
     0
100
AcDbLine
 10
2.0
 20
0.0
 30
0.0
 11
3.5527
 21
0.0
 31
0.0
  0
ENDBLK
  5
228
330
226
100
AcDbEntity
  8
0
100
AcDbBlockEnd
  0
BLOCK
  5
233
330
232
100
AcDbEntity
  8
0
100
AcDbBlockBegin
  2
SW_CENTERMARKSYMBOL_7
 70
     0
 10
0.0
 20
0.0
 30
0.0
  3
SW_CENTERMARKSYMBOL_7
  1

  0
LINE
  5
235
330
232
100
AcDbEntity
  8
DIM
 62
     0
100
AcDbLine
 10
0.0
 20
0.0
 30
0.0
 11
0.0
 21
1.0
 31
0.0
  0
LINE
  5
236
330
232
100
AcDbEntity
  8
DIM
 62
     0
100
AcDbLine
 10
0.0
 20
0.0
 30
0.0
 11
-1.0
 21
0.0
 31
0.0
  0
LINE
  5
237
330
232
100
AcDbEntity
  8
DIM
 62
     0
100
AcDbLine
 10
0.0
 20
0.0
 30
0.0
 11
0.0
 21
-1.0
 31
0.0
  0
LINE
  5
238
330
232
100
AcDbEntity
  8
DIM
 62
     0
100
AcDbLine
 10
0.0
 20
0.0
 30
0.0
 11
1.0
 21
0.0
 31
0.0
  0
LINE
  5
239
330
232
100
AcDbEntity
  8
DIM
 62
     0
100
AcDbLine
 10
0.0
 20
2.0
 30
0.0
 11
0.0
 21
3.5527
 31
0.0
  0
LINE
  5
23A
330
232
100
AcDbEntity
  8
DIM
 62
     0
100
AcDbLine
 10
-2.0
 20
0.0
 30
0.0
 11
-3.5527
 21
0.0
 31
0.0
  0
LINE
  5
23B
330
232
100
AcDbEntity
  8
DIM
 62
     0
100
AcDbLine
 10
0.0
 20
-2.0
 30
0.0
 11
0.0
 21
-3.5527
 31
0.0
  0
LINE
  5
23C
330
232
100
AcDbEntity
  8
DIM
 62
     0
100
AcDbLine
 10
2.0
 20
0.0
 30
0.0
 11
3.5527
 21
0.0
 31
0.0
  0
ENDBLK
  5
234
330
232
100
AcDbEntity
  8
0
100
AcDbBlockEnd
  0
BLOCK
  5
2D5
330
2D4
100
AcDbEntity
  8
0
100
AcDbBlockBegin
  2
_D_8
 70
     0
 10
0.0
 20
0.0
 30
0.0
  3
_D_8
  1

  0
SOLID
  5
2D7
330
2D4
100
AcDbEntity
  8
DIM
100
AcDbTrace
 10
165.7519616366
 20
160.39582735
 30
0.0
 11
162.7519616366
 21
160.77082735
 31
0.0
 12
162.7519616366
 22
160.02082735
 32
0.0
 13
162.7519616366
 23
160.02082735
 33
0.0
  0
SOLID
  5
2D8
330
2D4
100
AcDbEntity
  8
DIM
100
AcDbTrace
 10
127.7519616366
 20
160.39582735
 30
0.0
 11
130.7519616366
 21
160.02082735
 31
0.0
 12
130.7519616366
 22
160.77082735
 32
0.0
 13
130.7519616366
 23
160.77082735
 33
0.0
  0
LINE
  5
2D9
330
2D4
100
AcDbEntity
  8
DIM
100
AcDbLine
 10
165.7519616366
 20
170.89582735
 30
0.0
 11
165.7519616366
 21
158.89582735
 31
0.0
  0
LINE
  5
2DA
330
2D4
100
AcDbEntity
  8
DIM
100
AcDbLine
 10
127.7519616366
 20
170.89582735
 30
0.0
 11
127.7519616366
 21
158.89582735
 31
0.0
  0
LINE
  5
2DB
330
2D4
100
AcDbEntity
  8
DIM
100
AcDbLine
 10
165.7519616366
 20
160.39582735
 30
0.0
 11
127.7519616366
 21
160.39582735
 31
0.0
  0
MTEXT
  5
2DC
330
2D4
100
AcDbEntity
  8
DIM
100
AcDbMText
 10
143.8879234809
 20
165.2298311122
 30
0.0
 40
3.75
 41
0.0
 71
     1
 72
     1
  1
38
  7
SLDTEXTSTYLE1
 73
     1
 44
1.0
  0
ENDBLK
  5
2D6
330
2D4
100
AcDbEntity
  8
0
100
AcDbBlockEnd
  0
BLOCK
  5
2DF
330
2DE
100
AcDbEntity
  8
0
100
AcDbBlockBegin
  2
_D_9
 70
     0
 10
0.0
 20
0.0
 30
0.0
  3
_D_9
  1

  0
SOLID
  5
2E1
330
2DE
100
AcDbEntity
  8
DIM
100
AcDbTrace
 10
192.0397180808
 20
200.89582735
 30
0.0
 11
191.6647180808
 21
197.89582735
 31
0.0
 12
192.4147180808
 22
197.89582735
 32
0.0
 13
192.4147180808
 23
197.89582735
 33
0.0
  0
SOLID
  5
2E2
330
2DE
100
AcDbEntity
  8
DIM
100
AcDbTrace
 10
192.0397180808
 20
172.39582735
 30
0.0
 11
192.4147180808
 21
175.39582735
 31
0.0
 12
191.6647180808
 22
175.39582735
 32
0.0
 13
191.6647180808
 23
175.39582735
 33
0.0
  0
LINE
  5
2E3
330
2DE
100
AcDbEntity
  8
DIM
100
AcDbLine
 10
168.3019616366
 20
200.89582735
 30
0.0
 11
193.5397180808
 21
200.89582735
 31
0.0
  0
LINE
  5
2E4
330
2DE
100
AcDbEntity
  8
DIM
100
AcDbLine
 10
141.7519616366
 20
172.39582735
 30
0.0
 11
193.5397180808
 21
172.39582735
 31
0.0
  0
LINE
  5
2E5
330
2DE
100
AcDbEntity
  8
DIM
100
AcDbLine
 10
192.0397180808
 20
200.89582735
 30
0.0
 11
192.0397180808
 21
172.39582735
 31
0.0
  0
MTEXT
  5
2E6
330
2DE
100
AcDbEntity
  8
DIM
100
AcDbMText
 10
187.2057143186
 20
181.6332567003
 30
0.0
 40
3.75
 41
0.0
 71
     1
 72
     1
  1
28.5
  7
SLDTEXTSTYLE1
 11
-7.044195017643634E-15
 21
1.0
 31
0.0
 73
     1
 44
1.0
  0
ENDBLK
  5
2E0
330
2DE
100
AcDbEntity
  8
0
100
AcDbBlockEnd
  0
BLOCK
  5
2E9
330
2E8
100
AcDbEntity
  8
0
100
AcDbBlockBegin
  2
_D_10
 70
     0
 10
0.0
 20
0.0
 30
0.0
  3
_D_10
  1

  0
SOLID
  5
2EB
330
2E8
100
AcDbEntity
  8
DIM
100
AcDbTrace
 10
187.2519616366
 20
260.0418690462
 30
0.0
 11
184.2519616366
 21
260.4168690462
 31
0.0
 12
184.2519616366
 22
259.6668690462
 32
0.0
 13
184.2519616366
 23
259.6668690462
 33
0.0
  0
SOLID
  5
2EC
330
2E8
100
AcDbEntity
  8
DIM
100
AcDbTrace
 10
106.2519616366
 20
260.0418690462
 30
0.0
 11
109.2519616366
 21
259.6668690462
 31
0.0
 12
109.2519616366
 22
260.4168690462
 32
0.0
 13
109.2519616366
 23
260.4168690462
 33
0.0
  0
LINE
  5
2ED
330
2E8
100
AcDbEntity
  8
DIM
100
AcDbLine
 10
187.2519616366
 20
248.49582735
 30
0.0
 11
187.2519616366
 21
261.5418690462
 31
0.0
  0
LINE
  5
2EE
330
2E8
100
AcDbEntity
  8
DIM
100
AcDbLine
 10
106.2519616366
 20
248.49582735
 30
0.0
 11
106.2519616366
 21
261.5418690462
 31
0.0
  0
LINE
  5
2EF
330
2E8
100
AcDbEntity
  8
DIM
100
AcDbLine
 10
187.2519616366
 20
260.0418690462
 30
0.0
 11
106.2519616366
 21
260.0418690462
 31
0.0
  0
MTEXT
  5
2F0
330
2E8
100
AcDbEntity
  8
DIM
100
AcDbMText
 10
143.8879234809
 20
264.8758728084
 30
0.0
 40
3.75
 41
0.0
 71
     1
 72
     1
  1
81
  7
SLDTEXTSTYLE1
 73
     1
 44
1.0
  0
ENDBLK
  5
2EA
330
2E8
100
AcDbEntity
  8
0
100
AcDbBlockEnd
  0
BLOCK
  5
2F4
330
2F3
100
AcDbEntity
  8
0
100
AcDbBlockBegin
  2
_D_11
 70
     0
 10
0.0
 20
0.0
 30
0.0
  3
_D_11
  1

  0
SOLID
  5
2F6
330
2F3
100
AcDbEntity
  8
DIM
100
AcDbTrace
 10
214.6438688512
 20
172.39582735
 30
0.0
 11
215.0188688512
 21
175.39582735
 31
0.0
 12
214.2688688512
 22
175.39582735
 32
0.0
 13
214.2688688512
 23
175.39582735
 33
0.0
  0
SOLID
  5
2F7
330
2F3
100
AcDbEntity
  8
DIM
100
AcDbTrace
 10
214.6438688512
 20
251.4304555734
 30
0.0
 11
214.2688688512
 21
248.4304555734
 31
0.0
 12
215.0188688512
 22
248.4304555734
 32
0.0
 13
215.0188688512
 23
248.4304555734
 33
0.0
  0
LINE
  5
2F8
330
2F3
100
AcDbEntity
  8
DIM
100
AcDbLine
 10
141.7519616366
 20
172.39582735
 30
0.0
 11
216.1438688512
 21
172.39582735
 31
0.0
  0
LINE
  5
2F9
330
2F3
100
AcDbEntity
  8
DIM
100
AcDbLine
 10
121.2519616366
 20
251.4304555734
 30
0.0
 11
216.1438688512
 21
251.4304555734
 31
0.0
  0
LINE
  5
2FA
330
2F3
100
AcDbEntity
  8
DIM
100
AcDbLine
 10
214.6438688512
 20
172.39582735
 30
0.0
 11
214.6438688512
 21
251.4304555734
 31
0.0
  0
MTEXT
  5
2FB
330
2F3
100
AcDbEntity
  8
DIM
100
AcDbMText
 10
209.809865089
 20
209.049103306
 30
0.0
 40
3.75
 41
0.0
 71
     1
 72
     1
  1
80
  7
SLDTEXTSTYLE1
 11
-3.828568698926949E-16
 21
1.0
 31
0.0
 73
     1
 44
1.0
  0
ENDBLK
  5
2F5
330
2F3
100
AcDbEntity
  8
0
100
AcDbBlockEnd
  0
BLOCK
  5
2FF
330
2FE
100
AcDbEntity
  8
0
100
AcDbBlockBegin
  2
_D_12
 70
     0
 10
0.0
 20
0.0
 30
0.0
  3
_D_12
  1

  0
ARC
  5
301
330
2FE
100
AcDbEntity
  8
DIM
100
AcDbCircle
 10
146.7519616366
 20
200.89582735
 30
0.0
 40
19.04999999999999
100
AcDbArc
 50
47.3931962358
 51
154.4978632606
  0
SOLID
  5
302
330
2FE
100
AcDbEntity
  8
DIM
100
AcDbTrace
 10
130.2548969456
 20
210.4220730207
 30
0.0
 11
127.8444585232
 21
212.2470145573
 31
0.0
 12
127.469409481
 22
211.5975238214
 32
0.0
 13
127.469409481
 23
211.5975238214
 33
0.0
  0
LINE
  5
303
330
2FE
100
AcDbEntity
  8
DIM
100
AcDbLine
 10
130.2548969456
 20
210.4220730207
 30
0.0
 11
102.3442011328
 21
226.5391308206
 31
0.0
  0
LINE
  5
304
330
2FE
100
AcDbEntity
  8
DIM
100
AcDbLine
 10
102.3442011328
 20
226.5391308206
 30
0.0
 11
80.2154996798
 21
226.5391308206
 31
0.0
  0
MTEXT
  5
305
330
2FE
100
AcDbEntity
  8
DIM
100
AcDbMText
 10
82.5967496798
 20
231.3731348447
 30
0.0
 40
3.75
 41
0.0
 71
     1
 72
     1
  1
%%c
  7
SLDTEXTSTYLE1
 73
     1
 44
1.0
  0
MTEXT
  5
306
330
2FE
100
AcDbEntity
  8
DIM
100
AcDbMText
 10
88.0628098334
 20
231.3731345828
 30
0.0
 40
3.75
 41
0.0
 71
     1
 72
     1
  1
38.1
  7
SLDTEXTSTYLE1
 73
     1
 44
1.0
  0
ENDBLK
  5
300
330
2FE
100
AcDbEntity
  8
0
100
AcDbBlockEnd
  0
BLOCK
  5
309
330
308
100
AcDbEntity
  8
0
100
AcDbBlockBegin
  2
_D_13
 70
     0
 10
0.0
 20
0.0
 30
0.0
  3
_D_13
  1

  0
SOLID
  5
30B
330
308
100
AcDbEntity
  8
DIM
 62
     7
100
AcDbTrace
 10
203.7519616366
 20
239.39582735
 30
0.0
 11
203.3769616366
 21
236.39582735
 31
0.0
 12
204.1269616366
 22
236.39582735
 32
0.0
 13
204.1269616366
 23
236.39582735
 33
0.0
  0
SOLID
  5
30C
330
308
100
AcDbEntity
  8
DIM
 62
     7
100
AcDbTrace
 10
203.7519616366
 20
172.39582735
 30
0.0
 11
204.1269616366
 21
175.39582735
 31
0.0
 12
203.3769616366
 22
175.39582735
 32
0.0
 13
203.3769616366
 23
175.39582735
 33
0.0
  0
LINE
  5
30D
330
308
100
AcDbEntity
  8
DIM
 62
     7
100
AcDbLine
 10
143.2519616366
 20
239.39582735
 30
0.0
 11
205.2519616366
 21
239.39582735
 31
0.0
  0
LINE
  5
30E
330
308
100
AcDbEntity
  8
DIM
 62
     7
100
AcDbLine
 10
141.7519616366
 20
172.39582735
 30
0.0
 11
205.2519616366
 21
172.39582735
 31
0.0
  0
LINE
  5
30F
330
308
100
AcDbEntity
  8
DIM
 62
     7
100
AcDbLine
 10
203.7519616366
 20
239.39582735
 30
0.0
 11
203.7519616366
 21
172.39582735
 31
0.0
  0
MTEXT
  5
310
330
308
100
AcDbEntity
  8
DIM
 62
     7
100
AcDbMText
 10
198.9179578744
 20
203.0312440128
 30
0.0
 40
3.75
 41
0.0
 71
     1
 72
     1
  1
67
  7
SLDTEXTSTYLE1
 11
-7.044195017643634E-15
 21
1.0
 31
0.0
 73
     1
 44
1.0
  0
ENDBLK
  5
30A
330
308
100
AcDbEntity
  8
0
100
AcDbBlockEnd
  0
BLOCK
  5
312
330
311
100
AcDbEntity
  8
0
100
AcDbBlockBegin
  2
SW_CENTERMARKSYMBOL_8
 70
     0
 10
0.0
 20
0.0
 30
0.0
  3
SW_CENTERMARKSYMBOL_8
  1

  0
LINE
  5
314
330
311
100
AcDbEntity
  8
DIM
 62
     0
100
AcDbLine
 10
0.0
 20
0.0
 30
0.0
 11
0.0
 21
1.0
 31
0.0
  0
LINE
  5
315
330
311
100
AcDbEntity
  8
DIM
 62
     0
100
AcDbLine
 10
0.0
 20
0.0
 30
0.0
 11
-1.0
 21
0.0
 31
0.0
  0
LINE
  5
316
330
311
100
AcDbEntity
  8
DIM
 62
     0
100
AcDbLine
 10
0.0
 20
0.0
 30
0.0
 11
0.0
 21
-1.0
 31
0.0
  0
LINE
  5
317
330
311
100
AcDbEntity
  8
DIM
 62
     0
100
AcDbLine
 10
0.0
 20
0.0
 30
0.0
 11
1.0
 21
0.0
 31
0.0
  0
LINE
  5
318
330
311
100
AcDbEntity
  8
DIM
 62
     0
100
AcDbLine
 10
0.0
 20
2.0
 30
0.0
 11
0.0
 21
20.05
 31
0.0
  0
LINE
  5
319
330
311
100
AcDbEntity
  8
DIM
 62
     0
100
AcDbLine
 10
-2.0
 20
0.0
 30
0.0
 11
-20.05
 21
0.0
 31
0.0
  0
LINE
  5
31A
330
311
100
AcDbEntity
  8
DIM
 62
     0
100
AcDbLine
 10
0.0
 20
-2.0
 30
0.0
 11
0.0
 21
-20.05
 31
0.0
  0
LINE
  5
31B
330
311
100
AcDbEntity
  8
DIM
 62
     0
100
AcDbLine
 10
2.0
 20
0.0
 30
0.0
 11
20.05
 21
0.0
 31
0.0
  0
ENDBLK
  5
313
330
311
100
AcDbEntity
  8
0
100
AcDbBlockEnd
  0
ENDSEC
  0
SECTION
  2
ENTITIES
  0
HATCH
  5
7B
330
1F
100
AcDbEntity
  8
DIM
 62
     7
100
AcDbHatch
 10
0.0
 20
0.0
 30
0.0
210
0.0
220
0.0
230
1.0
  2
SOLID
 70
     1
 71
     0
 91
        1
 92
        0
 93
       10
 72
     2
 10
288.3225605267567
 20
53.13021510614322
 40
4.568627093596871
 50
249.211220914341
 51
308.9221353953368
 73
     1
 72
     1
 10
291.1928629686086
 20
49.57582100691241
 11
292.6400924604342
 21
48.30489083144889
 72
     1
 10
292.6400924604342
 20
48.30489083144889
 11
287.8248825007006
 21
43.62933126230528
 72
     1
 10
287.8248825007006
 20
43.62933126230528
 11
286.4136818174596
 21
44.84432686747028
 72
     1
 10
286.4136818174596
 20
44.84432686747028
 11
287.3602596980823
 21
45.76817745317682
 72
     1
 10
287.3602596980823
 20
45.76817745317682
 11
281.3464562327889
 21
50.99508321358884
 72
     2
 10
282.8688683770999
 20
52.71642377722961
 40
2.297988701708712
 50
131.4906380929584
 51
229.7089352075136
 73
     0
 72
     1
 10
281.3828261058267
 20
54.46925874982968
 11
283.3427684881492
 21
56.36163936459095
 72
     1
 10
283.3427684881492
 20
56.36163936459095
 11
284.8655592592529
 21
55.01834151336427
 72
     2
 10
287.8254647143119
 20
52.54725248227209
 40
3.855816554566925
 50
140.1430462780654
 51
253.0452525074006
 73
     1
 97
        0
 75
     0
 76
     1
 98
        1
 10
0.0
 20
0.0
  0
HATCH
  5
7C
330
1F
100
AcDbEntity
  8
DIM
 62
     1
100
AcDbHatch
 10
0.0
 20
0.0
 30
0.0
210
0.0
220
0.0
230
1.0
  2
SOLID
 70
     1
 71
     0
 91
        1
 92
        0
 93
       10
 72
     2
 10
288.5223086852026
 20
51.99891564809016
 40
4.772455056791806
 50
234.1674444878509
 51
314.4407074583988
 73
     0
 72
     2
 10
288.9987931212893
 20
52.81014835630742
 40
3.866351232519375
 50
317.8184992995779
 51
398.0564711573086
 73
     0
 72
     1
 10
292.0431718858604
 20
50.42678313229496
 11
293.5213452253347
 21
49.13873772246072
 72
     1
 10
293.5213452253347
 20
49.13873772246072
 11
295.3838671975253
 21
50.94538713607155
 72
     2
 10
294.0437787090322
 20
52.78730723380295
 40
2.277829406127398
 50
306.0377529468133
 51
403.4396461533867
 73
     1
 72
     1
 10
295.6977085060406
 20
54.35352019186015
 11
289.5075747185256
 21
59.73728459481109
 72
     1
 10
289.5075747185256
 20
59.73728459481109
 11
290.4439516714165
 21
60.65087224106706
 72
     1
 10
290.4439516714165
 20
60.65087224106706
 11
289.0481919061405
 21
61.89616057083387
 72
     1
 10
289.0481919061405
 20
61.89616057083387
 11
284.1948137335257
 21
57.20578020091271
 72
     1
 10
284.1948137335257
 20
57.20578020091271
 11
285.7284255495485
 21
55.86809441023151
 97
        0
 75
     0
 76
     1
 98
        1
 10
0.0
 20
0.0
  0
LINE
  5
7D
330
1F
100
AcDbEntity
  8
0
  6
Continuous
 62
     7
370
     0
100
AcDbLine
 10
251.7890662777
 20
26.6617788769
 30
0.0
 11
253.2890662777
 21
26.6617788769
 31
0.0
  0
LINE
  5
7E
330
1F
100
AcDbEntity
  8
0
  6
Continuous
 62
     7
370
     0
100
AcDbLine
 10
247.2890662777
 20
26.6617788769
 30
0.0
 11
251.0390662777
 21
26.6617788769
 31
0.0
  0
LINE
  5
7F
330
1F
100
AcDbEntity
  8
0
  6
Continuous
 62
     7
370
     0
100
AcDbLine
 10
272.0390662777
 20
22.9117788769
 30
0.0
 11
272.0390662777
 21
30.4117788769
 31
0.0
  0
LINE
  5
80
330
1F
100
AcDbEntity
  8
0
  6
Continuous
 62
     7
370
     0
100
AcDbLine
 10
261.5390662777
 20
24.4117788769
 30
0.0
 11
272.0390662777
 21
22.9117788769
 31
0.0
  0
LINE
  5
81
330
1F
100
AcDbEntity
  8
0
  6
Continuous
 62
     7
370
     0
100
AcDbLine
 10
252.5390662777
 20
25.1617788769
 30
0.0
 11
252.5390662777
 21
21.4117788769
 31
0.0
  0
LINE
  5
82
330
1F
100
AcDbEntity
  8
0
  6
Continuous
 62
     7
370
     0
100
AcDbLine
 10
272.0390662777
 20
30.4117788769
 30
0.0
 11
261.5390662777
 21
28.9117788769
 31
0.0
  0
LINE
  5
83
330
1F
100
AcDbEntity
  8
0
  6
Continuous
 62
     7
370
     0
100
AcDbLine
 10
260.0390662777
 20
26.6617788769
 30
0.0
 11
273.5390662777
 21
26.6617788769
 31
0.0
  0
LINE
  5
84
330
1F
100
AcDbEntity
  8
0
  6
Continuous
 62
     7
370
     0
100
AcDbLine
 10
252.5390662777
 20
27.4117788769
 30
0.0
 11
252.5390662777
 21
25.9117788769
 31
0.0
  0
LINE
  5
85
330
1F
100
AcDbEntity
  8
0
  6
Continuous
 62
     7
370
     0
100
AcDbLine
 10
254.0390662777
 20
26.6617788769
 30
0.0
 11
257.7890662777
 21
26.6617788769
 31
0.0
  0
LINE
  5
86
330
1F
100
AcDbEntity
  8
0
  6
Continuous
 62
     7
370
     0
100
AcDbLine
 10
252.5390662777
 20
31.9117788769
 30
0.0
 11
252.5390662777
 21
28.1617788769
 31
0.0
  0
LINE
  5
87
330
1F
100
AcDbEntity
  8
0
  6
Continuous
 62
     7
370
     0
100
AcDbLine
 10
261.5390662777
 20
28.9117788769
 30
0.0
 11
261.5390662777
 21
24.4117788769
 31
0.0
  0
LINE
  5
88
330
1F
100
AcDbEntity
  8
0
370
     0
100
AcDbLine
 10
292.6400924604
 20
48.3048908314
 30
0.0
 11
287.8248825007
 21
43.6293312623
 31
0.0
  0
LINE
  5
89
330
1F
100
AcDbEntity
  8
0
370
     0
100
AcDbLine
 10
287.8248825007
 20
43.6293312623
 30
0.0
 11
286.4136818175
 21
44.8443268675
 31
0.0
  0
LINE
  5
8A
330
1F
100
AcDbEntity
  8
0
370
     0
100
AcDbLine
 10
286.4136818175
 20
44.8443268675
 30
0.0
 11
287.3602596981
 21
45.7681774532
 31
0.0
  0
LINE
  5
8B
330
1F
100
AcDbEntity
  8
0
370
     0
100
AcDbLine
 10
281.3464562328
 20
50.9950832136
 30
0.0
 11
287.3602596981
 21
45.7681774532
 31
0.0
  0
LINE
  5
8C
330
1F
100
AcDbEntity
  8
0
370
     0
100
AcDbLine
 10
283.3427684881
 20
56.3616393646
 30
0.0
 11
281.3828261058
 21
54.4692587498
 31
0.0
  0
LINE
  5
8D
330
1F
100
AcDbEntity
  8
0
370
     0
100
AcDbLine
 10
283.3427684881
 20
56.3616393646
 30
0.0
 11
284.8655592593
 21
55.0183415134
 31
0.0
  0
LINE
  5
8E
330
1F
100
AcDbEntity
  8
0
370
     0
100
AcDbLine
 10
291.1928629686
 20
49.5758210069
 30
0.0
 11
292.6400924604
 21
48.3048908314
 31
0.0
  0
LINE
  5
8F
330
1F
100
AcDbEntity
  8
0
 62
     1
370
     0
100
AcDbLine
 10
285.7284255495
 20
55.8680944102
 30
0.0
 11
284.1948137335
 21
57.2057802009
 31
0.0
  0
LINE
  5
90
330
1F
100
AcDbEntity
  8
0
 62
     1
370
     0
100
AcDbLine
 10
284.1948137335
 20
57.2057802009
 30
0.0
 11
289.0481919061
 21
61.8961605708
 31
0.0
  0
LINE
  5
91
330
1F
100
AcDbEntity
  8
0
 62
     1
370
     0
100
AcDbLine
 10
289.0481919061
 20
61.8961605708
 30
0.0
 11
290.4439516714
 21
60.6508722411
 31
0.0
  0
LINE
  5
92
330
1F
100
AcDbEntity
  8
0
 62
     1
370
     0
100
AcDbLine
 10
290.4439516714
 20
60.6508722411
 30
0.0
 11
289.5075747185
 21
59.7372845948
 31
0.0
  0
LINE
  5
93
330
1F
100
AcDbEntity
  8
0
 62
     1
370
     0
100
AcDbLine
 10
289.5075747185
 20
59.7372845948
 30
0.0
 11
295.697708506
 21
54.3535201919
 31
0.0
  0
LINE
  5
94
330
1F
100
AcDbEntity
  8
0
 62
     1
370
     0
100
AcDbLine
 10
292.0431718859
 20
50.4267831323
 30
0.0
 11
293.5213452253
 21
49.1387377225
 31
0.0
  0
LINE
  5
95
330
1F
100
AcDbEntity
  8
0
 62
     1
370
     0
100
AcDbLine
 10
293.5213452253
 20
49.1387377225
 30
0.0
 11
295.3838671975
 21
50.9453871361
 31
0.0
  0
LINE
  5
96
330
1F
100
AcDbEntity
  8
0
  6
Continuous
 62
     7
370
     0
100
AcDbLine
 10
278.5361947814
 20
19.6728696119
 30
0.0
 11
428.5361947814
 21
19.6728696119
 31
0.0
  0
LINE
  5
97
330
1F
100
AcDbEntity
  8
0
  6
Continuous
 62
     7
370
     0
100
AcDbLine
 10
278.5361947814
 20
27.1728696119
 30
0.0
 11
353.5361947814
 21
27.1728696119
 31
0.0
  0
LINE
  5
98
330
1F
100
AcDbEntity
  8
0
  6
Continuous
 62
     7
370
     0
100
AcDbLine
 10
278.5361947814
 20
34.6728696119
 30
0.0
 11
353.5361947814
 21
34.6728696119
 31
0.0
  0
LINE
  5
99
330
1F
100
AcDbEntity
  8
0
  6
Continuous
 62
     7
370
     0
100
AcDbLine
 10
278.5361947814
 20
42.1728696119
 30
0.0
 11
428.5361947814
 21
42.1728696119
 31
0.0
  0
LINE
  5
9A
330
1F
100
AcDbEntity
  8
0
  6
Continuous
 62
     7
370
     0
100
AcDbLine
 10
353.5361947814
 20
49.6728696119
 30
0.0
 11
428.5361947814
 21
49.6728696119
 31
0.0
  0
LINE
  5
9B
330
1F
100
AcDbEntity
  8
0
  6
Continuous
 62
     7
370
    15
100
AcDbLine
 10
353.5361947814
 20
27.1728696119
 30
0.0
 11
428.5361947814
 21
27.1728696119
 31
0.0
  0
LINE
  5
9C
330
1F
100
AcDbEntity
  8
0
  6
Continuous
 62
     7
370
     0
100
AcDbLine
 10
278.5801967253
 20
64.6728696119
 30
0.0
 11
428.5361947814
 21
64.6728696119
 31
0.0
  0
LINE
  5
9D
330
1F
100
AcDbEntity
  8
0
  6
Continuous
 62
     7
370
     0
100
AcDbLine
 10
376.8558265126
 20
12.1728696119
 30
0.0
 11
376.8558265126
 21
27.1728696119
 31
0.0
  0
LINE
  5
9E
330
1F
100
AcDbEntity
  8
0
  6
Continuous
 62
     7
370
     0
100
AcDbLine
 10
353.5361947814
 20
12.1728696119
 30
0.0
 11
353.5361947814
 21
64.6728696119
 31
0.0
  0
LINE
  5
9F
330
1F
100
AcDbEntity
  8
0
  6
Continuous
 62
     7
370
     0
100
AcDbLine
 10
376.8558265126
 20
42.1728696119
 30
0.0
 11
376.8558265126
 21
49.6728696119
 31
0.0
  0
LINE
  5
A0
330
1F
100
AcDbEntity
  8
0
  6
Continuous
 62
     7
370
     0
100
AcDbLine
 10
321.624612953
 20
12.1728696119
 30
0.0
 11
321.624612953
 21
42.1728696119
 31
0.0
  0
LINE
  5
A1
330
1F
100
AcDbEntity
  8
0
  6
Continuous
 62
     7
370
     0
100
AcDbLine
 10
299.6678831259
 20
12.1728696119
 30
0.0
 11
299.6678831259
 21
42.1728696119
 31
0.0
  0
LINE
  5
A2
330
1F
100
AcDbEntity
  8
0
  6
Continuous
 62
     7
370
     0
100
AcDbLine
 10
278.5801967253
 20
12.1728696119
 30
0.0
 11
278.5801967253
 21
64.6728696119
 31
0.0
  0
LINE
  5
A3
330
1F
100
AcDbEntity
  8
0
  6
Continuous
 62
     7
370
    15
100
AcDbLine
 10
13.0361947814
 20
157.1154554872
 30
0.0
 11
22.0361947814
 21
157.1154554872
 31
0.0
  0
LINE
  5
A4
330
1F
100
AcDbEntity
  8
0
  6
Continuous
 62
     7
370
    15
100
AcDbLine
 10
428.5361947814
 20
157.1154554872
 30
0.0
 11
419.5361947814
 21
157.1154554872
 31
0.0
  0
LINE
  5
A5
330
1F
100
AcDbEntity
  8
0
  6
Continuous
 62
     7
370
    15
100
AcDbLine
 10
220.7861947814
 20
12.1728696119
 30
0.0
 11
220.7861947814
 21
21.1728696119
 31
0.0
  0
LINE
  5
A6
330
1F
100
AcDbEntity
  8
0
  6
Continuous
 62
     7
370
    15
100
AcDbLine
 10
220.7861947814
 20
302.0580413626
 30
0.0
 11
220.7861947814
 21
293.0580413626
 31
0.0
  0
LINE
  5
A7
330
1F
100
AcDbEntity
  8
0
  6
Continuous
 62
     7
370
    15
100
AcDbLine
 10
64.9811947814
 20
302.0580413626
 30
0.0
 11
64.9811947814
 21
304.3080413626
 31
0.0
  0
LINE
  5
A8
330
1F
100
AcDbEntity
  8
0
  6
Continuous
 62
     7
370
    15
100
AcDbLine
 10
116.9261947814
 20
302.0580413626
 30
0.0
 11
116.9261947814
 21
304.3080413626
 31
0.0
  0
LINE
  5
A9
330
1F
100
AcDbEntity
  8
0
  6
Continuous
 62
     7
370
    15
100
AcDbLine
 10
168.8711947814
 20
302.0580413626
 30
0.0
 11
168.8711947814
 21
304.3080413626
 31
0.0
  0
LINE
  5
AA
330
1F
100
AcDbEntity
  8
0
  6
Continuous
 62
     7
370
    15
100
AcDbLine
 10
220.8161947814
 20
302.0580413626
 30
0.0
 11
220.8161947814
 21
304.3080413626
 31
0.0
  0
LINE
  5
AB
330
1F
100
AcDbEntity
  8
0
  6
Continuous
 62
     7
370
    15
100
AcDbLine
 10
272.7611947814
 20
302.0580413626
 30
0.0
 11
272.7611947814
 21
304.3080413626
 31
0.0
  0
LINE
  5
AC
330
1F
100
AcDbEntity
  8
0
  6
Continuous
 62
     7
370
    15
100
AcDbLine
 10
324.7061947814
 20
302.0580413626
 30
0.0
 11
324.7061947814
 21
304.3080413626
 31
0.0
  0
LINE
  5
AD
330
1F
100
AcDbEntity
  8
0
  6
Continuous
 62
     7
370
    15
100
AcDbLine
 10
376.6511947814
 20
302.0580413626
 30
0.0
 11
376.6511947814
 21
304.3080413626
 31
0.0
  0
LINE
  5
AE
330
1F
100
AcDbEntity
  8
0
  6
Continuous
 62
     7
370
    15
100
AcDbLine
 10
64.9736947814
 20
12.1728696119
 30
0.0
 11
64.9736947814
 21
9.9228696119
 31
0.0
  0
LINE
  5
AF
330
1F
100
AcDbEntity
  8
0
  6
Continuous
 62
     7
370
    15
100
AcDbLine
 10
116.9111947814
 20
12.1728696119
 30
0.0
 11
116.9111947814
 21
9.9228696119
 31
0.0
  0
LINE
  5
B0
330
1F
100
AcDbEntity
  8
0
  6
Continuous
 62
     7
370
    15
100
AcDbLine
 10
168.8486947814
 20
12.1728696119
 30
0.0
 11
168.8486947814
 21
9.9228696119
 31
0.0
  0
LINE
  5
B1
330
1F
100
AcDbEntity
  8
0
  6
Continuous
 62
     7
370
    15
100
AcDbLine
 10
220.7861947814
 20
12.1728696119
 30
0.0
 11
220.7861947814
 21
9.9228696119
 31
0.0
  0
LINE
  5
B2
330
1F
100
AcDbEntity
  8
0
  6
Continuous
 62
     7
370
    15
100
AcDbLine
 10
272.7236947814
 20
12.1728696119
 30
0.0
 11
272.7236947814
 21
9.9228696119
 31
0.0
  0
LINE
  5
B3
330
1F
100
AcDbEntity
  8
0
  6
Continuous
 62
     7
370
    15
100
AcDbLine
 10
324.6611947814
 20
12.1728696119
 30
0.0
 11
324.6611947814
 21
9.9228696119
 31
0.0
  0
LINE
  5
B4
330
1F
100
AcDbEntity
  8
0
  6
Continuous
 62
     7
370
     0
100
AcDbLine
 10
428.5361947814
 20
302.0580413626
 30
0.0
 11
13.0361947814
 21
302.0580413626
 31
0.0
  0
LINE
  5
B5
330
1F
100
AcDbEntity
  8
0
  6
Continuous
 62
     7
370
     0
100
AcDbLine
 10
428.5361947814
 20
12.1728696119
 30
0.0
 11
428.5361947814
 21
302.0580413626
 31
0.0
  0
LINE
  5
B6
330
1F
100
AcDbEntity
  8
0
  6
Continuous
 62
     7
370
     0
100
AcDbLine
 10
13.0361947814
 20
302.0580413626
 30
0.0
 11
13.0361947814
 21
12.1728696119
 31
0.0
  0
LINE
  5
B7
330
1F
100
AcDbEntity
  8
0
  6
Continuous
 62
     7
370
     0
100
AcDbLine
 10
13.0361947814
 20
12.1728696119
 30
0.0
 11
428.5361947814
 21
12.1728696119
 31
0.0
  0
LINE
  5
B8
330
1F
100
AcDbEntity
  8
0
  6
Continuous
 62
     7
370
    15
100
AcDbLine
 10
376.5986947814
 20
12.1728696119
 30
0.0
 11
376.5986947814
 21
9.9228696119
 31
0.0
  0
LINE
  5
B9
330
1F
100
AcDbEntity
  8
0
  6
Continuous
 62
     7
370
    15
100
AcDbLine
 10
13.0361947814
 20
60.4878696119
 30
0.0
 11
10.7861947814
 21
60.4878696119
 31
0.0
  0
LINE
  5
BA
330
1F
100
AcDbEntity
  8
0
  6
Continuous
 62
     7
370
    15
100
AcDbLine
 10
13.0361947814
 20
108.8028696119
 30
0.0
 11
10.7861947814
 21
108.8028696119
 31
0.0
  0
LINE
  5
BB
330
1F
100
AcDbEntity
  8
0
  6
Continuous
 62
     7
370
    15
100
AcDbLine
 10
13.0361947814
 20
157.1178696119
 30
0.0
 11
10.7861947814
 21
157.1178696119
 31
0.0
  0
LINE
  5
BC
330
1F
100
AcDbEntity
  8
0
  6
Continuous
 62
     7
370
    15
100
AcDbLine
 10
13.0361947814
 20
205.4328696119
 30
0.0
 11
10.7861947814
 21
205.4328696119
 31
0.0
  0
LINE
  5
BD
330
1F
100
AcDbEntity
  8
0
  6
Continuous
 62
     7
370
    15
100
AcDbLine
 10
13.0361947814
 20
253.7478696119
 30
0.0
 11
10.7861947814
 21
253.7478696119
 31
0.0
  0
LINE
  5
BE
330
1F
100
AcDbEntity
  8
0
  6
Continuous
 62
     7
370
    15
100
AcDbLine
 10
428.5361947814
 20
60.4878696119
 30
0.0
 11
430.7861947814
 21
60.4878696119
 31
0.0
  0
LINE
  5
BF
330
1F
100
AcDbEntity
  8
0
  6
Continuous
 62
     7
370
    15
100
AcDbLine
 10
428.5361947814
 20
108.8028696119
 30
0.0
 11
430.7861947814
 21
108.8028696119
 31
0.0
  0
LINE
  5
C0
330
1F
100
AcDbEntity
  8
0
  6
Continuous
 62
     7
370
    15
100
AcDbLine
 10
428.5361947814
 20
157.1178696119
 30
0.0
 11
430.7861947814
 21
157.1178696119
 31
0.0
  0
LINE
  5
C1
330
1F
100
AcDbEntity
  8
0
  6
Continuous
 62
     7
370
    15
100
AcDbLine
 10
428.5361947814
 20
205.4328696119
 30
0.0
 11
430.7861947814
 21
205.4328696119
 31
0.0
  0
LINE
  5
C2
330
1F
100
AcDbEntity
  8
0
  6
Continuous
 62
     7
370
    15
100
AcDbLine
 10
428.5361947814
 20
253.7478696119
 30
0.0
 11
430.7861947814
 21
253.7478696119
 31
0.0
  0
CIRCLE
  5
C3
330
1F
100
AcDbEntity
  8
0
  6
Continuous
 62
     7
370
     0
100
AcDbCircle
 10
252.5390662777
 20
26.6617788769
 30
0.0
 40
2.249999999999943
  0
CIRCLE
  5
C4
330
1F
100
AcDbEntity
  8
0
  6
Continuous
 62
     7
370
     0
100
AcDbCircle
 10
252.5390662777
 20
26.6617788769
 30
0.0
 40
3.749999999999943
  0
ARC
  5
C5
330
1F
100
AcDbEntity
  8
0
370
     0
100
AcDbCircle
 10
282.8688683771
 20
52.7164237772
 30
0.0
 40
2.297988701708751
100
AcDbArc
 50
130.2910647925
 51
228.509361907
  0
ARC
  5
C6
330
1F
100
AcDbEntity
  8
0
370
     0
100
AcDbCircle
 10
287.8254647143
 20
52.5472524823
 30
0.0
 40
3.855816554566914
100
AcDbArc
 50
140.1430462781
 51
253.0452525074
  0
ARC
  5
C7
330
1F
100
AcDbEntity
  8
0
370
     0
100
AcDbCircle
 10
288.3225605268
 20
53.1302151061
 30
0.0
 40
4.568627093596874
100
AcDbArc
 50
249.2112209143
 51
308.9221353953
  0
ARC
  5
C8
330
1F
100
AcDbEntity
  8
0
 62
     1
370
     0
100
AcDbCircle
 10
294.043778709
 20
52.7873072338
 30
0.0
 40
2.277829406127405
100
AcDbArc
 50
306.0377529468
 51
43.4396461534
  0
ARC
  5
C9
330
1F
100
AcDbEntity
  8
0
 62
     1
370
     0
100
AcDbCircle
 10
288.5223086852
 20
51.9989156481
 30
0.0
 40
4.772455056791805
100
AcDbArc
 50
45.5592925416
 51
125.8325555121
  0
ARC
  5
CA
330
1F
100
AcDbEntity
  8
0
 62
     1
370
     0
100
AcDbCircle
 10
288.9987931213
 20
52.8101483563
 30
0.0
 40
3.866351232519347
100
AcDbArc
 50
321.9435288427
 51
42.1815007004
  0
MTEXT
  5
CC
330
1F
100
AcDbEntity
  8
0
  6
Continuous
 62
     7
370
     0
100
AcDbMText
 10
248.3140276206
 20
19.8312660554
 30
0.0
 40
3.96875
 41
0.0
 71
     1
 72
     1
  1
UNIT:m/m
  7
SLDTEXTSTYLE1
 73
     1
 44
1.0
  0
INSERT
  5
D3
330
1F
100
AcDbEntity
  8
0
  6
Continuous
 62
     7
370
     0
100
AcDbBlockReference
  2
SW_NOTE_0
 10
18.347261408
 20
290.8356456377
 30
0.0
  0
MTEXT
  5
D5
330
1F
100
AcDbEntity
  8
0
  6
Continuous
 62
     7
370
     0
100
AcDbMText
 10
298.0877840902
 20
60.6610161208
 30
0.0
 40
3.571875
 41
0.0
 71
     1
 72
     1
  1
Unice E-O Services Inc.
  7
SLDTEXTSTYLE2
 73
     1
 44
1.0
  0
MTEXT
  5
D6
330
1F
100
AcDbEntity
  8
0
  6
Continuous
 62
     7
370
     0
100
AcDbMText
 10
326.3385807224
 20
32.3800722766
 30
0.0
 40
2.778125
 41
0.0
 71
     1
 72
     1
  1
2010/12/30
  7
SLDTEXTSTYLE1
 73
     1
 44
1.0
  0
MTEXT
  5
D7
330
1F
100
AcDbEntity
  8
0
  6
Continuous
 62
     7
370
     0
100
AcDbMText
 10
378.913347376
 20
25.30676661
 30
0.0
 40
3.75
 41
0.0
 71
     1
 72
     1
  1
1:1.5
  7
SLDTEXTSTYLE1
 73
     1
 44
1.0
  0
MTEXT
  5
D8
330
1F
100
AcDbEntity
  8
0
  6
Continuous
 62
     7
370
     0
100
AcDbMText
 10
378.4613399977
 20
48.2278793156
 30
0.0
 40
3.75
 41
0.0
 71
     1
 72
     1
  1
07RCP-1
  7
SLDTEXTSTYLE1
 73
     1
 44
1.0
  0
MTEXT
  5
D9
330
1F
100
AcDbEntity
  8
0
  6
Continuous
 62
     7
370
     0
100
AcDbMText
 10
378.4613399977
 20
57.1623176818
 30
0.0
 40
3.75
 41
0.0
 71
     1
 72
     1
  1
07RCP-1
  7
SLDTEXTSTYLE1
 73
     1
 44
1.0
  0
MTEXT
  5
DA
330
1F
100
AcDbEntity
  8
0
  6
Continuous
 62
     7
370
     0
100
AcDbMText
 10
354.588280018
 20
24.7597193593
 30
0.0
 40
3.175
 41
0.0
 71
     1
 72
     1
  1
SCALE:
  7
SLDTEXTSTYLE1
 73
     1
 44
1.0
  0
MTEXT
  5
DB
330
1F
100
AcDbEntity
  8
0
  6
Continuous
 62
     7
370
     0
100
AcDbMText
 10
279.5004130184
 20
32.3800722766
 30
0.0
 40
2.778125
 41
0.0
 71
     1
 72
     1
  1
DRAWN
  7
SLDTEXTSTYLE1
 73
     1
 44
1.0
  0
MTEXT
  5
DC
330
1F
100
AcDbEntity
  8
0
  6
Continuous
 62
     7
370
     0
100
AcDbMText
 10
304.8342551905
 20
40.024812462
 30
0.0
 40
2.778125
 41
0.0
 71
     1
 72
     1
  1
NAME
  7
SLDTEXTSTYLE1
 73
     1
 44
1.0
  0
MTEXT
  5
DD
330
1F
100
AcDbEntity
  8
0
  6
Continuous
 62
     7
370
     0
100
AcDbMText
 10
331.3065233636
 20
40.024812462
 30
0.0
 40
2.778125
 41
0.0
 71
     1
 72
     1
  1
DATE
  7
SLDTEXTSTYLE1
 73
     1
 44
1.0
  0
MTEXT
  5
DE
330
1F
100
AcDbEntity
  8
0
  6
Continuous
 62
     7
370
     0
100
AcDbMText
 10
354.4134474968
 20
47.6808320649
 30
0.0
 40
3.175
 41
0.0
 71
     1
 72
     1
  1
DWG. NO.
  7
SLDTEXTSTYLE1
 73
     1
 44
1.0
  0
MTEXT
  5
DF
330
1F
100
AcDbEntity
  8
0
  6
Continuous
 62
     7
370
     0
100
AcDbMText
 10
354.5444860632
 20
62.8260987365
 30
0.0
 40
3.175
 41
0.0
 71
     1
 72
     1
  1
TITLE:
  7
SLDTEXTSTYLE1
 73
     1
 44
1.0
  0
MTEXT
  5
E0
330
1F
100
AcDbEntity
  8
0
  6
Continuous
 62
     7
370
     0
100
AcDbMText
 10
304.5471314703
 20
24.3605684586
 30
0.0
 40
2.778125
 41
0.0
 71
     1
 72
     1
  1
Johnny
  7
SLDTEXTSTYLE1
 73
     1
 44
1.0
  0
MTEXT
  5
E1
330
1F
100
AcDbEntity
  8
0
  6
Continuous
 62
     7
370
     0
100
AcDbMText
 10
326.3385807224
 20
24.3605684586
 30
0.0
 40
2.778125
 41
0.0
 71
     1
 72
     1
  1
2010/12/30
  7
SLDTEXTSTYLE1
 73
     1
 44
1.0
  0
MTEXT
  5
E2
330
1F
100
AcDbEntity
  8
0
  6
Continuous
 62
     7
370
     0
100
AcDbMText
 10
279.5004130184
 20
24.3605684586
 30
0.0
 40
2.778125
 41
0.0
 71
     1
 72
     1
  1
ENG APPR.
  7
SLDTEXTSTYLE1
 73
     1
 44
1.0
  0
MTEXT
  5
E3
330
1F
100
AcDbEntity
  8
0
  6
Continuous
 62
     7
370
     0
100
AcDbMText
 10
354.588280018
 20
17.5280083932
 30
0.0
 40
3.175
 41
0.0
 71
     1
 72
     1
  1
REV
  7
SLDTEXTSTYLE1
 73
     1
 44
1.0
  0
MTEXT
  5
E4
330
1F
100
AcDbEntity
  8
0
  6
Continuous
 62
     7
370
     0
100
AcDbMText
 10
354.5444860632
 20
40.4239633627
 30
0.0
 40
3.175
 41
0.0
 71
     1
 72
     1
  1
MATERIAL:
  7
SLDTEXTSTYLE1
 73
     1
 44
1.0
  0
MTEXT
  5
E5
330
1F
100
AcDbEntity
  8
0
  6
Continuous
 62
     7
370
     0
100
AcDbMText
 10
378.913347376
 20
33.326270428
 30
0.0
 40
3.75
 41
0.0
 71
     1
 72
     1
  1
N/A
  7
SLDTEXTSTYLE1
 73
     1
 44
1.0
  0
MTEXT
  5
E6
330
1F
100
AcDbEntity
  8
0
  6
Continuous
 62
     7
370
     0
100
AcDbMText
 10
39.90448973
 20
306.6800274854
 30
0.0
 40
3.175
 41
0.0
 71
     1
 72
     1
  1
1
  7
SLDTEXTSTYLE1
 73
     1
 44
1.0
  0
MTEXT
  5
E7
330
1F
100
AcDbEntity
  8
0
  6
Continuous
 62
     7
370
     0
100
AcDbMText
 10
91.0756493586
 20
306.6800274854
 30
0.0
 40
3.175
 41
0.0
 71
     1
 72
     1
  1
2
  7
SLDTEXTSTYLE1
 73
     1
 44
1.0
  0
MTEXT
  5
E8
330
1F
100
AcDbEntity
  8
0
  6
Continuous
 62
     7
370
     0
100
AcDbMText
 10
142.3514915859
 20
306.6800274854
 30
0.0
 40
3.175
 41
0.0
 71
     1
 72
     1
  1
3
  7
SLDTEXTSTYLE1
 73
     1
 44
1.0
  0
MTEXT
  5
E9
330
1F
100
AcDbEntity
  8
0
  6
Continuous
 62
     7
370
     0
100
AcDbMText
 10
193.8800044277
 20
306.4488876546
 30
0.0
 40
3.175
 41
0.0
 71
     1
 72
     1
  1
4
  7
SLDTEXTSTYLE1
 73
     1
 44
1.0
  0
MTEXT
  5
EA
330
1F
100
AcDbEntity
  8
0
  6
Continuous
 62
     7
370
     0
100
AcDbMText
 10
245.5534851959
 20
306.6800274854
 30
0.0
 40
3.175
 41
0.0
 71
     1
 72
     1
  1
5
  7
SLDTEXTSTYLE1
 73
     1
 44
1.0
  0
MTEXT
  5
EB
330
1F
100
AcDbEntity
  8
0
  6
Continuous
 62
     7
370
     0
100
AcDbMText
 10
297.9573255623
 20
306.6800274854
 30
0.0
 40
3.175
 41
0.0
 71
     1
 72
     1
  1
6
  7
SLDTEXTSTYLE1
 73
     1
 44
1.0
  0
MTEXT
  5
EC
330
1F
100
AcDbEntity
  8
0
  6
Continuous
 62
     7
370
     0
100
AcDbMText
 10
351.544598611
 20
306.6800274854
 30
0.0
 40
3.175
 41
0.0
 71
     1
 72
     1
  1
7
  7
SLDTEXTSTYLE1
 73
     1
 44
1.0
  0
MTEXT
  5
ED
330
1F
100
AcDbEntity
  8
0
  6
Continuous
 62
     7
370
     0
100
AcDbMText
 10
399.4181730741
 20
306.6800274854
 30
0.0
 40
3.175
 41
0.0
 71
     1
 72
     1
  1
8
  7
SLDTEXTSTYLE1
 73
     1
 44
1.0
  0
MTEXT
  5
EE
330
1F
100
AcDbEntity
  8
0
  6
Continuous
 62
     7
370
     0
100
AcDbMText
 10
8.0352354832
 20
278.7169534319
 30
0.0
 40
3.175
 41
0.0
 71
     1
 72
     1
  1
A
  7
SLDTEXTSTYLE1
 73
     1
 44
1.0
  0
MTEXT
  5
EF
330
1F
100
AcDbEntity
  8
0
  6
Continuous
 62
     7
370
     0
100
AcDbMText
 10
8.3865647747
 20
231.4489572357
 30
0.0
 40
3.175
 41
0.0
 71
     1
 72
     1
  1
B
  7
SLDTEXTSTYLE1
 73
     1
 44
1.0
  0
MTEXT
  5
F0
330
1F
100
AcDbEntity
  8
0
  6
Continuous
 62
     7
370
     0
100
AcDbMText
 10
8.3865647747
 20
181.9115271345
 30
0.0
 40
3.175
 41
0.0
 71
     1
 72
     1
  1
C
  7
SLDTEXTSTYLE1
 73
     1
 44
1.0
  0
MTEXT
  5
F1
330
1F
100
AcDbEntity
  8
0
  6
Continuous
 62
     7
370
     0
100
AcDbMText
 10
8.3865647747
 20
133.1179830331
 30
0.0
 40
3.175
 41
0.0
 71
     1
 72
     1
  1
D
  7
SLDTEXTSTYLE1
 73
     1
 44
1.0
  0
MTEXT
  5
F2
330
1F
100
AcDbEntity
  8
0
  6
Continuous
 62
     7
370
     0
100
AcDbMText
 10
8.3865647747
 20
86.3338273796
 30
0.0
 40
3.175
 41
0.0
 71
     1
 72
     1
  1
E
  7
SLDTEXTSTYLE1
 73
     1
 44
1.0
  0
MTEXT
  5
F3
330
1F
100
AcDbEntity
  8
0
  6
Continuous
 62
     7
370
     0
100
AcDbMText
 10
8.3865647747
 20
38.3541318378
 30
0.0
 40
3.175
 41
0.0
 71
     1
 72
     1
  1
F
  7
SLDTEXTSTYLE1
 73
     1
 44
1.0
  0
MTEXT
  5
F4
330
1F
100
AcDbEntity
  8
0
  6
Continuous
 62
     7
370
     0
100
AcDbMText
 10
399.2787925446
 20
9.9354335945
 30
0.0
 40
3.175
 41
0.0
 71
     1
 72
     1
  1
8
  7
SLDTEXTSTYLE1
 73
     1
 44
1.0
  0
MTEXT
  5
F5
330
1F
100
AcDbEntity
  8
0
  6
Continuous
 62
     7
370
     0
100
AcDbMText
 10
351.4052180815
 20
9.9354335945
 30
0.0
 40
3.175
 41
0.0
 71
     1
 72
     1
  1
7
  7
SLDTEXTSTYLE1
 73
     1
 44
1.0
  0
MTEXT
  5
F6
330
1F
100
AcDbEntity
  8
0
  6
Continuous
 62
     7
370
     0
100
AcDbMText
 10
297.8179450327
 20
9.9354335945
 30
0.0
 40
3.175
 41
0.0
 71
     1
 72
     1
  1
6
  7
SLDTEXTSTYLE1
 73
     1
 44
1.0
  0
MTEXT
  5
F7
330
1F
100
AcDbEntity
  8
0
  6
Continuous
 62
     7
370
     0
100
AcDbMText
 10
245.4141046664
 20
9.9354335945
 30
0.0
 40
3.175
 41
0.0
 71
     1
 72
     1
  1
5
  7
SLDTEXTSTYLE1
 73
     1
 44
1.0
  0
MTEXT
  5
F8
330
1F
100
AcDbEntity
  8
0
  6
Continuous
 62
     7
370
     0
100
AcDbMText
 10
193.7406238981
 20
9.7042937637
 30
0.0
 40
3.175
 41
0.0
 71
     1
 72
     1
  1
4
  7
SLDTEXTSTYLE1
 73
     1
 44
1.0
  0
MTEXT
  5
F9
330
1F
100
AcDbEntity
  8
0
  6
Continuous
 62
     7
370
     0
100
AcDbMText
 10
142.2121110564
 20
9.9354335945
 30
0.0
 40
3.175
 41
0.0
 71
     1
 72
     1
  1
3
  7
SLDTEXTSTYLE1
 73
     1
 44
1.0
  0
MTEXT
  5
FA
330
1F
100
AcDbEntity
  8
0
  6
Continuous
 62
     7
370
     0
100
AcDbMText
 10
90.9362688291
 20
9.9354335945
 30
0.0
 40
3.175
 41
0.0
 71
     1
 72
     1
  1
2
  7
SLDTEXTSTYLE1
 73
     1
 44
1.0
  0
MTEXT
  5
FB
330
1F
100
AcDbEntity
  8
0
  6
Continuous
 62
     7
370
     0
100
AcDbMText
 10
39.7651092004
 20
9.9354335945
 30
0.0
 40
3.175
 41
0.0
 71
     1
 72
     1
  1
1
  7
SLDTEXTSTYLE1
 73
     1
 44
1.0
  0
MTEXT
  5
FC
330
1F
100
AcDbEntity
  8
0
  6
Continuous
 62
     7
370
     0
100
AcDbMText
 10
430.6535769217
 20
279.9637363637
 30
0.0
 40
3.175
 41
0.0
 71
     1
 72
     1
  1
A
  7
SLDTEXTSTYLE1
 73
     1
 44
1.0
  0
MTEXT
  5
FD
330
1F
100
AcDbEntity
  8
0
  6
Continuous
 62
     7
370
     0
100
AcDbMText
 10
431.0049062132
 20
232.6957401676
 30
0.0
 40
3.175
 41
0.0
 71
     1
 72
     1
  1
B
  7
SLDTEXTSTYLE1
 73
     1
 44
1.0
  0
MTEXT
  5
FE
330
1F
100
AcDbEntity
  8
0
  6
Continuous
 62
     7
370
     0
100
AcDbMText
 10
431.0049062132
 20
183.1583100664
 30
0.0
 40
3.175
 41
0.0
 71
     1
 72
     1
  1
C
  7
SLDTEXTSTYLE1
 73
     1
 44
1.0
  0
MTEXT
  5
FF
330
1F
100
AcDbEntity
  8
0
  6
Continuous
 62
     7
370
     0
100
AcDbMText
 10
431.0049062132
 20
134.364765965
 30
0.0
 40
3.175
 41
0.0
 71
     1
 72
     1
  1
D
  7
SLDTEXTSTYLE1
 73
     1
 44
1.0
  0
MTEXT
  5
100
330
1F
100
AcDbEntity
  8
0
  6
Continuous
 62
     7
370
     0
100
AcDbMText
 10
431.0049062132
 20
87.5806103114
 30
0.0
 40
3.175
 41
0.0
 71
     1
 72
     1
  1
E
  7
SLDTEXTSTYLE1
 73
     1
 44
1.0
  0
MTEXT
  5
101
330
1F
100
AcDbEntity
  8
0
  6
Continuous
 62
     7
370
     0
100
AcDbMText
 10
431.0049062132
 20
39.6009147696
 30
0.0
 40
3.175
 41
0.0
 71
     1
 72
     1
  1
F
  7
SLDTEXTSTYLE1
 73
     1
 44
1.0
  0
MTEXT
  5
102
330
1F
100
AcDbEntity
  8
0
  6
Continuous
 62
     7
370
     0
100
AcDbMText
 10
304.7329693203
 20
32.3800722766
 30
0.0
 40
2.778125
 41
0.0
 71
     1
 72
     1
  1
Eric
  7
SLDTEXTSTYLE1
 73
     1
 44
1.0
  0
MTEXT
  5
104
330
1F
100
AcDbEntity
  8
0
  6
Continuous
 62
     7
370
     0
100
AcDbMText
 10
379.2723359468
 20
18.315372684
 30
0.0
 40
3.96875
 41
0.0
 71
     1
 72
     1
  1
0
  7
SLDTEXTSTYLE3
 73
     1
 44
1.0
  0
INSERT
  5
10A
330
1F
100
AcDbEntity
  8
DIM
 62
     7
100
AcDbBlockReference
  2
SW_NOTE_1
 10
298.0877840902
 20
50.4927202993
 30
0.0
  0
LINE
  5
10B
330
1F
100
AcDbEntity
  8
0
  6
Continuous
 62
     7
370
    15
100
AcDbLine
 10
107.7575702064
 20
102.5413813507
 30
0.0
 11
106.2519616366
 21
99.5301642111
 31
0.0
  0
LINE
  5
10C
330
1F
100
AcDbEntity
  8
0
  6
Continuous
 62
     7
370
    15
100
AcDbLine
 10
106.2519616366
 20
71.5301642111
 30
0.0
 11
107.7557577831
 21
68.5225719181
 31
0.0
  0
LINE
  5
10D
330
1F
100
AcDbEntity
  8
0
  6
Continuous
 62
     7
370
    15
100
AcDbLine
 10
109.0928941435
 20
67.0955359877
 30
0.0
 11
119.7519616366
 21
67.0955359877
 31
0.0
  0
LINE
  5
10E
330
1F
100
AcDbEntity
  8
0
  6
Continuous
 62
     7
370
    15
100
AcDbLine
 10
119.7519616366
 20
67.0955359877
 30
0.0
 11
121.2519616366
 21
68.5955359877
 31
0.0
  0
LINE
  5
10F
330
1F
100
AcDbEntity
  8
0
  6
Continuous
 62
     7
370
    15
100
AcDbLine
 10
121.7519616366
 20
93.0301642111
 30
0.0
 11
121.2519616366
 21
93.0301642111
 31
0.0
  0
LINE
  5
110
330
1F
100
AcDbEntity
  8
0
  6
Continuous
 62
     7
370
    15
100
AcDbLine
 10
121.2519616366
 20
78.0301642111
 30
0.0
 11
121.7519616366
 21
78.0301642111
 31
0.0
  0
LINE
  5
111
330
1F
100
AcDbEntity
  8
0
  6
Continuous
 62
     7
370
    15
100
AcDbLine
 10
119.7519616366
 20
104.6172773549
 30
0.0
 11
109.1597346799
 21
104.6172773549
 31
0.0
  0
LINE
  5
112
330
1F
100
AcDbEntity
  8
0
  6
Continuous
 62
     7
370
    15
100
AcDbLine
 10
121.2519616366
 20
103.1172773549
 30
0.0
 11
119.7519616366
 21
104.6172773549
 31
0.0
  0
LINE
  5
113
330
1F
100
AcDbEntity
  8
0
  6
Continuous
 62
     7
370
    15
100
AcDbLine
 10
109.1602822537
 20
66.4426897266
 30
0.0
 11
119.7519616366
 21
66.4426897266
 31
0.0
  0
LINE
  5
114
330
1F
100
AcDbEntity
  8
0
  6
Continuous
 62
     7
370
    15
100
AcDbLine
 10
119.7519616366
 20
66.4426897266
 30
0.0
 11
121.2519616366
 21
67.9426897266
 31
0.0
  0
LINE
  5
115
330
1F
100
AcDbEntity
  8
0
  6
Continuous
 62
     7
370
    15
100
AcDbLine
 10
184.3356070915
 20
65.6974551208
 30
0.0
 11
187.2519616366
 21
71.5301642111
 31
0.0
  0
LINE
  5
116
330
1F
100
AcDbEntity
  8
0
  6
Continuous
 62
     7
370
    15
100
AcDbLine
 10
187.2519616366
 20
99.5301642111
 30
0.0
 11
184.3363687064
 21
105.3613500716
 31
0.0
  0
LINE
  5
117
330
1F
100
AcDbEntity
  8
0
  6
Continuous
 62
     7
370
    15
100
AcDbLine
 10
184.8135425431
 20
100.0998748135
 30
0.0
 11
173.7519616366
 21
100.0998748135
 31
0.0
  0
LINE
  5
118
330
1F
100
AcDbEntity
  8
0
  6
Continuous
 62
     7
370
    15
100
AcDbLine
 10
173.7519616366
 20
100.0998748135
 30
0.0
 11
172.2519616366
 21
98.5998748135
 31
0.0
  0
LINE
  5
119
330
1F
100
AcDbEntity
  8
0
  6
Continuous
 62
     7
370
    15
100
AcDbLine
 10
172.2519616366
 20
71.0184525187
 30
0.0
 11
173.7519616366
 21
69.5184525187
 31
0.0
  0
LINE
  5
11A
330
1F
100
AcDbEntity
  8
0
  6
Continuous
 62
     7
370
    15
100
AcDbLine
 10
173.7519616366
 20
69.5184525187
 30
0.0
 11
184.6594659302
 21
69.5184525187
 31
0.0
  0
LINE
  5
11B
330
1F
100
AcDbEntity
  8
0
  6
Continuous
 62
     7
370
    15
100
AcDbLine
 10
171.7519616366
 20
78.0301642111
 30
0.0
 11
172.2519616366
 21
78.0301642111
 31
0.0
  0
LINE
  5
11C
330
1F
100
AcDbEntity
  8
0
  6
Continuous
 62
     7
370
    15
100
AcDbLine
 10
172.2519616366
 20
93.0301642111
 30
0.0
 11
171.7519616366
 21
93.0301642111
 31
0.0
  0
LINE
  5
11D
330
1F
100
AcDbEntity
  8
0
  6
Continuous
 62
     7
370
    15
100
AcDbLine
 10
184.2563110568
 20
105.4972797039
 30
0.0
 11
173.7519616366
 21
105.4972797039
 31
0.0
  0
LINE
  5
11E
330
1F
100
AcDbEntity
  8
0
  6
Continuous
 62
     7
370
    15
100
AcDbLine
 10
173.7519616366
 20
105.4972797039
 30
0.0
 11
172.2519616366
 21
103.9972797039
 31
0.0
  0
LINE
  5
11F
330
1F
100
AcDbEntity
  8
0
  6
Continuous
 62
     7
370
    15
100
AcDbLine
 10
173.7519616366
 20
65.5626873776
 30
0.0
 11
184.2558803143
 21
65.5626873776
 31
0.0
  0
LINE
  5
120
330
1F
100
AcDbEntity
  8
0
  6
Continuous
 62
     7
370
    15
100
AcDbLine
 10
172.2519616366
 20
67.0626873776
 30
0.0
 11
173.7519616366
 21
65.5626873776
 31
0.0
  0
LINE
  5
121
330
1F
100
AcDbEntity
  8
0
  6
Continuous
 62
     7
370
    15
100
AcDbLine
 10
171.7519616366
 20
47.5301642111
 30
0.0
 11
171.7519616366
 21
123.5301642111
 31
0.0
  0
LINE
  5
122
330
1F
100
AcDbEntity
  8
0
  6
Continuous
 62
     7
370
    15
100
AcDbLine
 10
121.7519616366
 20
123.5301642111
 30
0.0
 11
121.7519616366
 21
47.5301642111
 31
0.0
  0
LINE
  5
123
330
1F
100
AcDbEntity
  8
0
  6
Continuous
 62
     7
370
    15
100
AcDbLine
 10
106.2519616366
 20
99.5301642111
 30
0.0
 11
106.2519616366
 21
71.5301642111
 31
0.0
  0
SPLINE
  5
124
330
1F
100
AcDbEntity
  8
0
  6
Continuous
 62
     7
370
    15
100
AcDbSpline
210
0.0
220
0.0
230
1.0
 70
     8
 71
     3
 72
    24
 73
    20
 74
     0
 42
0.000000001
 43
0.00000001
 40
0.0
 40
0.0
 40
0.0
 40
0.0
 40
0.0621047215319147
 40
0.1245611723854003
 40
0.1882018258584951
 40
0.2522909353488814
 40
0.3144179581560779
 40
0.377031406895233
 40
0.4412631719092802
 40
0.50608703429924
 40
0.5630880948606074
 40
0.6205042086038669
 40
0.6791934897595285
 40
0.73830312332714
 40
0.7952132039346533
 40
0.8524588652726863
 40
0.9106857616676262
 40
0.9692208807176024
 40
1.0
 40
1.0
 40
1.0
 40
1.0
 10
108.5271017137961
 20
67.21757056248467
 30
0.0
 10
108.4681309504863
 20
67.31584436199307
 30
0.0
 10
108.3498554436787
 20
67.51294853345684
 30
0.0
 10
108.190959607912
 20
67.77596481955777
 30
0.0
 10
108.0483384558953
 20
68.01263471333323
 30
0.0
 10
107.9280135991511
 20
68.21453622377852
 30
0.0
 10
107.8321863053696
 20
68.37976611613568
 30
0.0
 10
107.7621278834148
 20
68.50763810059507
 30
0.0
 10
107.7195108830335
 20
68.59687840921244
 30
0.0
 10
107.7074228802642
 20
68.642230631518
 30
0.0
 10
107.7227186567252
 20
68.64786447405996
 30
0.0
 10
107.7615752124645
 20
68.61891543229248
 30
0.0
 10
107.8247505296667
 20
68.55489709268758
 30
0.0
 10
107.9104591035647
 20
68.45703121829638
 30
0.0
 10
108.0159309464542
 20
68.32811167747359
 30
0.0
 10
108.1390411633135
 20
68.17028834510465
 30
0.0
 10
108.2801337414097
 20
67.982052354265
 30
0.0
 10
108.4118655201378
 20
67.80045850323866
 30
0.0
 10
108.4975674529453
 20
67.67876171960884
 30
0.0
 10
108.5271017137963
 20
67.63682305574557
 30
0.0
  0
SPLINE
  5
125
330
1F
100
AcDbEntity
  8
0
  6
Continuous
 62
     7
370
    15
100
AcDbSpline
210
0.0
220
0.0
230
1.0
 70
     8
 71
     3
 72
    13
 73
     9
 74
     0
 42
0.000000001
 43
0.00000001
 40
0.0
 40
0.0
 40
0.0
 40
0.0
 40
0.1185291322906954
 40
0.3597182020639421
 40
0.482421467348301
 40
0.6097101614328256
 40
0.8683916922563364
 40
1.0
 40
1.0
 40
1.0
 40
1.0
 10
109.1602822536538
 20
66.44270698653345
 30
0.0
 10
109.1456314459869
 20
66.44506961512724
 30
0.0
 10
109.1011684343129
 20
66.45223983980938
 30
0.0
 10
109.0199974150922
 20
66.51895612719885
 30
0.0
 10
108.9218457795731
 20
66.62987956411706
 30
0.0
 10
108.8084415308438
 20
66.77730323540567
 30
0.0
 10
108.6769160139419
 20
66.9721049439107
 30
0.0
 10
108.5648807453129
 20
67.15567090850404
 30
0.0
 10
108.5271017137961
 20
67.21757056248467
 30
0.0
  0
SPLINE
  5
126
330
1F
100
AcDbEntity
  8
0
  6
Continuous
 62
     7
370
    15
100
AcDbSpline
210
0.0
220
0.0
230
1.0
 70
     8
 71
     3
 72
    11
 73
     7
 74
     0
 42
0.000000001
 43
0.00000001
 40
0.0
 40
0.0
 40
0.0
 40
0.0
 40
0.3200692289658067
 40
0.6482284612537623
 40
0.9686697960189066
 40
1.0
 40
1.0
 40
1.0
 40
1.0
 10
108.5116257776974
 20
103.816912787885
 30
0.0
 10
108.3965610336637
 20
103.6259246968906
 30
0.0
 10
108.1635231930359
 20
103.2391211396002
 30
0.0
 10
107.9171305716421
 20
102.827781344434
 30
0.0
 10
107.7767199232147
 20
102.5887059269431
 30
0.0
 10
107.7602396402904
 20
102.5446998908494
 30
0.0
 10
107.7587718392638
 20
102.5407805342916
 30
0.0
  0
SPLINE
  5
127
330
1F
100
AcDbEntity
  8
0
  6
Continuous
 62
     7
370
    15
100
AcDbSpline
210
0.0
220
0.0
230
1.0
 70
     8
 71
     3
 72
    27
 73
    23
 74
     0
 42
0.000000001
 43
0.00000001
 40
0.0
 40
0.0
 40
0.0
 40
0.0
 40
0.0317264737289996
 40
0.1390829142630477
 40
0.171904602840026
 40
0.2072804436883562
 40
0.2428391253172105
 40
0.344347943830263
 40
0.3778973973839475
 40
0.4116205145262081
 40
0.4732565055720448
 40
0.5079730683777443
 40
0.5401729729848942
 40
0.631498276608768
 40
0.6647275512286968
 40
0.6969605412398768
 40
0.7883041316409966
 40
0.8214916053772547
 40
0.8543440048307258
 40
0.8873365170591183
 40
0.9319665273008197
 40
1.0
 40
1.0
 40
1.0
 40
1.0
 10
108.5116257776973
 20
101.60091962056
 30
0.0
 10
108.5399817713762
 20
101.6781948684243
 30
0.0
 10
108.6642891328362
 20
102.0169550711866
 30
0.0
 10
108.8005274129776
 20
102.4238158956914
 30
0.0
 10
108.9200524189098
 20
102.8124854486596
 30
0.0
 10
108.9847052260951
 20
103.0337799692015
 30
0.0
 10
109.0812812073051
 20
103.3844222334583
 30
0.0
 10
109.1554016659772
 20
103.6959723554282
 30
0.0
 10
109.2051231897155
 20
103.9563798873814
 30
0.0
 10
109.234112743435
 20
104.1365762481194
 30
0.0
 10
109.2502388706171
 20
104.2900630398457
 30
0.0
 10
109.2528174893281
 20
104.4108442143884
 30
0.0
 10
109.244616256974
 20
104.5324898119588
 30
0.0
 10
109.21554323605
 20
104.6024606621578
 30
0.0
 10
109.1662794257216
 20
104.6199196214225
 30
0.0
 10
109.1066644664204
 20
104.6103029564489
 30
0.0
 10
109.0276883403127
 20
104.5496100513506
 30
0.0
 10
108.9311182814124
 20
104.4406996829531
 30
0.0
 10
108.8647814658913
 20
104.3567982390475
 30
0.0
 10
108.7847539385429
 20
104.246373782503
 30
0.0
 10
108.67119873727
 20
104.0782644244601
 30
0.0
 10
108.5717059409196
 20
103.9153132250636
 30
0.0
 10
108.5116257776974
 20
103.816912787885
 30
0.0
  0
SPLINE
  5
128
330
1F
100
AcDbEntity
  8
0
  6
Continuous
 62
     7
370
    15
100
AcDbSpline
210
0.0
220
0.0
230
1.0
 70
     8
 71
     3
 72
    15
 73
    11
 74
     0
 42
0.000000001
 43
0.00000001
 40
0.0
 40
0.0
 40
0.0
 40
0.0
 40
0.1255505115575933
 40
0.2542743051988524
 40
0.3799729809583507
 40
0.5099861143893002
 40
0.6254721503975538
 40
0.7443559600027047
 40
0.870468838476726
 40
1.0
 40
1.0
 40
1.0
 40
1.0
 10
108.5116257776973
 20
96.39199017618462
 30
0.0
 10
108.3971878518267
 20
96.4529428269362
 30
0.0
 10
108.165419587977
 20
96.57638870324209
 30
0.0
 10
107.9094236794174
 20
96.95241176945942
 30
0.0
 10
107.7432951856621
 20
97.47635784047948
 30
0.0
 10
107.693811239937
 20
98.1258602319654
 30
0.0
 10
107.7534582951266
 20
98.87443210740986
 30
0.0
 10
107.9105676840492
 20
99.69804892284361
 30
0.0
 10
108.1609642760532
 20
100.614834970098
 30
0.0
 10
108.3937012814418
 20
101.2693076953104
 30
0.0
 10
108.5116257776973
 20
101.60091962056
 30
0.0
  0
SPLINE
  5
129
330
1F
100
AcDbEntity
  8
0
  6
Continuous
 62
     7
370
    15
100
AcDbSpline
210
0.0
220
0.0
230
1.0
 70
     8
 71
     3
 72
    19
 73
    15
 74
     0
 42
0.000000001
 43
0.00000001
 40
0.0
 40
0.0
 40
0.0
 40
0.0
 40
0.0848173163342505
 40
0.1719666277871803
 40
0.2568445119593705
 40
0.3444496558075555
 40
0.4249502760439848
 40
0.5079899722588874
 40
0.5852601899258981
 40
0.6647755594794336
 40
0.7421311118706748
 40
0.8215724484076499
 40
0.909442287543456
 40
1.0
 40
1.0
 40
1.0
 40
1.0
 10
108.5116257776973
 20
90.38635716021226
 30
0.0
 10
108.5859384868842
 20
90.57608811286929
 30
0.0
 10
108.7366070832618
 20
90.96076654323488
 30
0.0
 10
108.9218532218521
 20
91.60153775489847
 30
0.0
 10
109.0732465155002
 20
92.27743371997424
 30
0.0
 10
109.1791035675141
 20
92.9500071413032
 30
0.0
 10
109.2411518129923
 20
93.60746428424582
 30
0.0
 10
109.2586056426276
 20
94.20972870265624
 30
0.0
 10
109.2344484035535
 20
94.7626884821145
 30
0.0
 10
109.1718247622119
 20
95.24311601522528
 30
0.0
 10
109.0711573499466
 20
95.65575418351288
 30
0.0
 10
108.9302286885427
 20
95.99670099242994
 30
0.0
 10
108.7468183208726
 20
96.26247409421633
 30
0.0
 10
108.5908066903473
 20
96.34838674626866
 30
0.0
 10
108.5116257776973
 20
96.39199017618462
 30
0.0
  0
SPLINE
  5
12A
330
1F
100
AcDbEntity
  8
0
  6
Continuous
 62
     7
370
    15
100
AcDbSpline
210
0.0
220
0.0
230
1.0
 70
     8
 71
     3
 72
    15
 73
    11
 74
     0
 42
0.000000001
 43
0.00000001
 40
0.0
 40
0.0
 40
0.0
 40
0.0
 40
0.1271869315281149
 40
0.2542845485533972
 40
0.3821652845417385
 40
0.5099865994422597
 40
0.6271477819411206
 40
0.7443539910132987
 40
0.8721313499224589
 40
1.0
 40
1.0
 40
1.0
 40
1.0
 10
108.5116257776973
 20
82.60435722627928
 30
0.0
 10
108.3959021907717
 20
82.8845406060742
 30
0.0
 10
108.1645362815167
 20
83.4447106124366
 30
0.0
 10
107.9067852903779
 20
84.40657935850581
 30
0.0
 10
107.7440704169072
 20
85.43786036628416
 30
0.0
 10
107.693348100947
 20
86.48596269882847
 30
0.0
 10
107.7550099868473
 20
87.50918161040079
 30
0.0
 10
107.9120427922935
 20
88.50615284209832
 30
0.0
 10
108.1627456656638
 20
89.48446154126405
 30
0.0
 10
108.395304724746
 20
90.08565372533667
 30
0.0
 10
108.5116257776973
 20
90.38635716021224
 30
0.0
  0
SPLINE
  5
12B
330
1F
100
AcDbEntity
  8
0
  6
Continuous
 62
     7
370
    15
100
AcDbSpline
210
0.0
220
0.0
230
1.0
 70
     8
 71
     3
 72
    19
 73
    15
 74
     0
 42
0.000000001
 43
0.00000001
 40
0.0
 40
0.0
 40
0.0
 40
0.0
 40
0.0848194393149624
 40
0.1719710587643858
 40
0.2568487638895608
 40
0.3444537197813753
 40
0.4249542201458757
 40
0.507993787778876
 40
0.585263967649728
 40
0.6647792938728964
 40
0.7421348862892215
 40
0.8215762606479824
 40
0.9094442829817759
 40
1.0
 40
1.0
 40
1.0
 40
1.0
 10
108.5116257776973
 20
76.32710273178033
 30
0.0
 10
108.5859402855837
 20
76.38957441775715
 30
0.0
 10
108.7366126397751
 20
76.51623550001604
 30
0.0
 10
108.9218605102427
 20
76.8372261664078
 30
0.0
 10
109.0732529038305
 20
77.25441243443963
 30
0.0
 10
109.1791076676103
 20
77.75220388994644
 30
0.0
 10
109.2411536897555
 20
78.3181677179995
 30
0.0
 10
109.2586054750521
 20
78.91342350105167
 30
0.0
 10
109.2344462920627
 20
79.53876876904557
 30
0.0
 10
109.1718208225911
 20
80.16318270708436
 30
0.0
 10
109.071151647202
 20
80.78944747527778
 30
0.0
 10
108.9302223095352
 20
81.41522552529743
 30
0.0
 10
108.7468134224182
 20
82.03885836771221
 30
0.0
 10
108.5908050060627
 20
82.41397408214785
 30
0.0
 10
108.5116257776973
 20
82.60435722627928
 30
0.0
  0
SPLINE
  5
12C
330
1F
100
AcDbEntity
  8
0
  6
Continuous
 62
     7
370
    15
100
AcDbSpline
210
0.0
220
0.0
230
1.0
 70
     8
 71
     3
 72
    15
 73
    11
 74
     0
 42
0.000000001
 43
0.00000001
 40
0.0
 40
0.0
 40
0.0
 40
0.0
 40
0.1268822801305651
 40
0.253675217740594
 40
0.3812607910574388
 40
0.5087848133226833
 40
0.6254951534289743
 40
0.7422495045387827
 40
0.8710767568061322
 40
1.0
 40
1.0
 40
1.0
 40
1.0
 10
108.5271017137964
 20
70.4881441845112
 30
0.0
 10
108.41017241272
 20
70.82326244736026
 30
0.0
 10
108.1763961448259
 20
71.49326300385727
 30
0.0
 10
107.9145608928553
 20
72.48017980747645
 30
0.0
 10
107.7476470584138
 20
73.41859368208326
 30
0.0
 10
107.6931255462689
 20
74.25463172067705
 30
0.0
 10
107.751652830667
 20
74.96053061955556
 30
0.0
 10
107.9067519484286
 20
75.55085735399354
 30
0.0
 10
108.1582182276145
 20
76.028536518696
 30
0.0
 10
108.3937940167809
 20
76.2275559546115
 30
0.0
 10
108.5116257776973
 20
76.32710273178033
 30
0.0
  0
SPLINE
  5
12D
330
1F
100
AcDbEntity
  8
0
  6
Continuous
 62
     7
370
    15
100
AcDbSpline
210
0.0
220
0.0
230
1.0
 70
     8
 71
     3
 72
    27
 73
    23
 74
     0
 42
0.000000001
 43
0.00000001
 40
0.0
 40
0.0
 40
0.0
 40
0.0
 40
0.0426595515913611
 40
0.0855912291094207
 40
0.129408817294702
 40
0.1735461665116147
 40
0.2162189802957617
 40
0.2592096562954147
 40
0.3032354101214044
 40
0.3476326405611012
 40
0.3881347241804731
 40
0.4706245875036468
 40
0.5127285464348471
 40
0.5516576810990713
 40
0.6308426793933765
 40
0.6711869720193778
 40
0.7102109458126652
 40
0.7895022093598761
 40
0.8298410906384395
 40
0.8716884353548323
 40
0.956732468843841
 40
1.0
 40
1.0
 40
1.0
 40
1.0
 10
108.5271017137963
 20
67.63682305574557
 30
0.0
 10
108.5643945763634
 20
67.58534038847847
 30
0.0
 10
108.6392181932335
 20
67.48204664522886
 30
0.0
 10
108.7430798588229
 20
67.35416497760319
 30
0.0
 10
108.8403780199755
 20
67.24794186875364
 30
0.0
 10
108.9283806650482
 20
67.16865883330884
 30
0.0
 10
109.0064695059197
 20
67.11675367990901
 30
0.0
 10
109.0746932587648
 20
67.0924517314976
 30
0.0
 10
109.1332433183429
 20
67.09686698480469
 30
0.0
 10
109.1796743811167
 20
67.13062803424135
 30
0.0
 10
109.2257405876651
 20
67.21116910492242
 30
0.0
 10
109.250390759
 20
67.34324543782776
 30
0.0
 10
109.2532613655081
 20
67.52383732930323
 30
0.0
 10
109.2424296245025
 20
67.73111011407285
 30
0.0
 10
109.2120054898627
 20
67.9783086546966
 30
0.0
 10
109.162368446395
 20
68.26158879588704
 30
0.0
 10
109.1003092559917
 20
68.56687373740954
 30
0.0
 10
109.020150045037
 20
68.9019296575804
 30
0.0
 10
108.9218247482908
 20
69.26465769156592
 30
0.0
 10
108.8084648833706
 20
69.65340670907158
 30
0.0
 10
108.676917123672
 20
70.06551201125403
 30
0.0
 10
108.564881041658
 20
70.38156796880963
 30
0.0
 10
108.5271017137964
 20
70.4881441845112
 30
0.0
  0
LINE
  5
12E
330
1F
100
AcDbEntity
  8
0
  6
Continuous
 62
     7
370
    15
100
AcDbLine
 10
108.5116257777
 20
90.3863571602
 30
0.0
 11
119.7519616366
 21
90.3863571602
 31
0.0
  0
LINE
  5
12F
330
1F
100
AcDbEntity
  8
0
  6
Continuous
 62
     7
370
    15
100
AcDbLine
 10
119.7519616366
 20
82.6043572263
 30
0.0
 11
119.7519616366
 21
90.3863571602
 31
0.0
  0
LINE
  5
130
330
1F
100
AcDbEntity
  8
0
  6
Continuous
 62
     7
370
    15
100
AcDbLine
 10
108.5116257777
 20
82.6043572263
 30
0.0
 11
119.7519616366
 21
82.6043572263
 31
0.0
  0
LINE
  5
131
330
1F
100
AcDbEntity
  8
0
  6
Continuous
 62
     7
370
    15
100
AcDbLine
 10
119.7519616366
 20
90.3863571602
 30
0.0
 11
121.2519616366
 21
91.1537101787
 31
0.0
  0
LINE
  5
132
330
1F
100
AcDbEntity
  8
0
  6
Continuous
 62
     7
370
    15
100
AcDbLine
 10
119.7519616366
 20
82.6043572263
 30
0.0
 11
121.2519616366
 21
81.7041388304
 31
0.0
  0
LINE
  5
133
330
1F
100
AcDbEntity
  8
0
  6
Continuous
 62
     7
370
    15
100
AcDbLine
 10
121.2519616366
 20
91.1537101787
 30
0.0
 11
121.2519616366
 21
81.7041388304
 31
0.0
  0
LINE
  5
134
330
1F
100
AcDbEntity
  8
0
  6
Continuous
 62
     7
370
    15
100
AcDbLine
 10
119.7519616366
 20
76.3271027318
 30
0.0
 11
119.7519616366
 21
82.6043572263
 31
0.0
  0
LINE
  5
135
330
1F
100
AcDbEntity
  8
0
  6
Continuous
 62
     7
370
    15
100
AcDbLine
 10
108.5116257777
 20
76.3271027318
 30
0.0
 11
119.7519616366
 21
76.3271027318
 31
0.0
  0
LINE
  5
136
330
1F
100
AcDbEntity
  8
0
  6
Continuous
 62
     7
370
    15
100
AcDbLine
 10
119.7519616366
 20
76.3271027318
 30
0.0
 11
121.2519616366
 21
77.7810674369
 31
0.0
  0
LINE
  5
137
330
1F
100
AcDbEntity
  8
0
  6
Continuous
 62
     7
370
    15
100
AcDbLine
 10
121.2519616366
 20
81.7041388304
 30
0.0
 11
121.2519616366
 21
77.7810674369
 31
0.0
  0
LINE
  5
138
330
1F
100
AcDbEntity
  8
0
  6
Continuous
 62
     7
370
    15
100
AcDbLine
 10
108.5116257777
 20
96.3919901762
 30
0.0
 11
119.7519616366
 21
96.3919901762
 31
0.0
  0
LINE
  5
139
330
1F
100
AcDbEntity
  8
0
  6
Continuous
 62
     7
370
    15
100
AcDbLine
 10
119.7519616366
 20
90.3863571602
 30
0.0
 11
119.7519616366
 21
96.3919901762
 31
0.0
  0
LINE
  5
13A
330
1F
100
AcDbEntity
  8
0
  6
Continuous
 62
     7
370
    15
100
AcDbLine
 10
119.7519616366
 20
96.3919901762
 30
0.0
 11
121.2519616366
 21
94.9070273503
 31
0.0
  0
LINE
  5
13B
330
1F
100
AcDbEntity
  8
0
  6
Continuous
 62
     7
370
    15
100
AcDbLine
 10
121.2519616366
 20
94.9070273503
 30
0.0
 11
121.2519616366
 21
91.1537101787
 31
0.0
  0
LINE
  5
13C
330
1F
100
AcDbEntity
  8
0
  6
Continuous
 62
     7
370
    15
100
AcDbLine
 10
121.2519616366
 20
70.7054836002
 30
0.0
 11
119.7519616366
 21
70.4881441845
 31
0.0
  0
LINE
  5
13D
330
1F
100
AcDbEntity
  8
0
  6
Continuous
 62
     7
370
    15
100
AcDbLine
 10
119.7519616366
 20
70.4881441845
 30
0.0
 11
119.7519616366
 21
76.3271027318
 31
0.0
  0
LINE
  5
13E
330
1F
100
AcDbEntity
  8
0
  6
Continuous
 62
     7
370
    15
100
AcDbLine
 10
121.2519616366
 20
77.7810674369
 30
0.0
 11
121.2519616366
 21
70.7054836002
 31
0.0
  0
LINE
  5
13F
330
1F
100
AcDbEntity
  8
0
  6
Continuous
 62
     7
370
    15
100
AcDbLine
 10
108.5271017138
 20
70.4881441845
 30
0.0
 11
119.7519616366
 21
70.4881441845
 31
0.0
  0
LINE
  5
140
330
1F
100
AcDbEntity
  8
0
  6
Continuous
 62
     7
370
    15
100
AcDbLine
 10
119.7519616366
 20
96.3919901762
 30
0.0
 11
119.7519616366
 21
101.6009196206
 31
0.0
  0
LINE
  5
141
330
1F
100
AcDbEntity
  8
0
  6
Continuous
 62
     7
370
    15
100
AcDbLine
 10
119.7519616366
 20
101.6009196206
 30
0.0
 11
121.2519616366
 21
101.2321559614
 31
0.0
  0
LINE
  5
142
330
1F
100
AcDbEntity
  8
0
  6
Continuous
 62
     7
370
    15
100
AcDbLine
 10
121.2519616366
 20
101.2321559614
 30
0.0
 11
121.2519616366
 21
94.9070273503
 31
0.0
  0
LINE
  5
143
330
1F
100
AcDbEntity
  8
0
  6
Continuous
 62
     7
370
    15
100
AcDbLine
 10
108.5116257777
 20
101.6009196206
 30
0.0
 11
119.7519616366
 21
101.6009196206
 31
0.0
  0
LINE
  5
144
330
1F
100
AcDbEntity
  8
0
  6
Continuous
 62
     7
370
    15
100
AcDbLine
 10
119.7519616366
 20
67.0955359877
 30
0.0
 11
119.7519616366
 21
70.4881441845
 31
0.0
  0
LINE
  5
145
330
1F
100
AcDbEntity
  8
0
  6
Continuous
 62
     7
370
    15
100
AcDbLine
 10
121.2519616366
 20
70.7054836002
 30
0.0
 11
121.2519616366
 21
68.5955359877
 31
0.0
  0
LINE
  5
146
330
1F
100
AcDbEntity
  8
0
  6
Continuous
 62
     7
370
    15
100
AcDbLine
 10
119.7519616366
 20
101.6009196206
 30
0.0
 11
119.7519616366
 21
104.6172773549
 31
0.0
  0
LINE
  5
147
330
1F
100
AcDbEntity
  8
0
  6
Continuous
 62
     7
370
    15
100
AcDbLine
 10
121.2519616366
 20
103.1172773549
 30
0.0
 11
121.2519616366
 21
101.2321559614
 31
0.0
  0
LINE
  5
148
330
1F
100
AcDbEntity
  8
0
  6
Continuous
 62
     7
370
    15
100
AcDbLine
 10
121.2519616366
 20
68.5955359877
 30
0.0
 11
121.2519616366
 21
68.4207626096
 31
0.0
  0
LINE
  5
149
330
1F
100
AcDbEntity
  8
0
  6
Continuous
 62
     7
370
    15
100
AcDbLine
 10
119.7519616366
 20
66.4426897266
 30
0.0
 11
119.7519616366
 21
67.0955359877
 31
0.0
  0
LINE
  5
14A
330
1F
100
AcDbEntity
  8
0
  6
Continuous
 62
     7
370
    15
100
AcDbLine
 10
121.2519616366
 20
68.4207626096
 30
0.0
 11
121.2519616366
 21
67.9426897266
 31
0.0
  0
LINE
  5
14B
330
1F
100
AcDbEntity
  8
0
  6
Continuous
 62
     7
370
    15
100
AcDbLine
 10
187.2519616366
 20
75.0199164803
 30
0.0
 11
187.2519616366
 21
99.5301642111
 31
0.0
  0
LINE
  5
14C
330
1F
100
AcDbEntity
  8
0
  6
Continuous
 62
     7
370
    15
100
AcDbLine
 10
187.2519616366
 20
71.5301642111
 30
0.0
 11
187.2519616366
 21
75.0199164803
 31
0.0
  0
SPLINE
  5
14D
330
1F
100
AcDbEntity
  8
0
  6
Continuous
 62
     7
370
    15
100
AcDbSpline
210
0.0
220
0.0
230
1.0
 70
     8
 71
     3
 72
    17
 73
    13
 74
     0
 42
0.000000001
 43
0.00000001
 40
0.0
 40
0.0
 40
0.0
 40
0.0
 40
0.0911609238455475
 40
0.1829033962354099
 40
0.2765391167912442
 40
0.3708581894177526
 40
0.4620448397926041
 40
0.5539107228057835
 40
0.6479884393856207
 40
0.7428599551627655
 40
0.8294080750137725
 40
0.9999999999999999
 40
0.9999999999999999
 40
0.9999999999999999
 40
0.9999999999999999
 10
184.9768215594297
 20
67.1031326176635
 30
0.0
 10
184.9395277212587
 20
67.0204815752325
 30
0.0
 10
184.8647021340182
 20
66.85465222944133
 30
0.0
 10
184.7608380589147
 20
66.62360603144475
 30
0.0
 10
184.66353741406
 20
66.4072539267204
 30
0.0
 10
184.575535330904
 20
66.21221673033064
 30
0.0
 10
184.4974421804188
 20
66.04047924132261
 30
0.0
 10
184.4292374204927
 20
65.8925273736332
 30
0.0
 10
184.3706204810295
 20
65.76827303388131
 30
0.0
 10
184.3244406925424
 20
65.67443192532596
 30
0.0
 10
184.2779827513174
 20
65.5858251021239
 30
0.0
 10
184.2646954077185
 20
65.57291950739187
 30
0.0
 10
184.2558803142782
 20
65.5643576738983
 30
0.0
  0
SPLINE
  5
14E
330
1F
100
AcDbEntity
  8
0
  6
Continuous
 62
     7
370
    15
100
AcDbSpline
210
0.0
220
0.0
230
1.0
 70
     8
 71
     3
 72
    16
 73
    12
 74
     0
 42
0.000000001
 43
0.00000001
 40
0.0
 40
0.0
 40
0.0
 40
0.0
 40
0.1245749872500851
 40
0.2522965301459562
 40
0.3770193056407211
 40
0.5060351398636126
 40
0.6204452207885403
 40
0.7382392163821594
 40
0.8524079450193872
 40
0.9691919620652654
 40
1.0
 40
1.0
 40
1.0
 40
1.0
 10
184.9768215594304
 20
69.64349241901635
 30
0.0
 10
185.09244855636
 20
69.71894013184111
 30
0.0
 10
185.3266230946078
 20
69.87174124042097
 30
0.0
 10
185.5866892810716
 20
69.91515127901468
 30
0.0
 10
185.7570162966351
 20
69.80684779942953
 30
0.0
 10
185.8103460514994
 20
69.53821864010125
 30
0.0
 10
185.7536508152427
 20
69.13023118715141
 30
0.0
 10
185.604601962142
 20
68.61975756239754
 30
0.0
 10
185.3716828587965
 20
68.00442061467312
 30
0.0
 10
185.1477729060306
 20
67.48210599874068
 30
0.0
 10
185.0063432681071
 20
67.16857779826674
 30
0.0
 10
184.9768215594297
 20
67.1031326176635
 30
0.0
  0
SPLINE
  5
14F
330
1F
100
AcDbEntity
  8
0
  6
Continuous
 62
     7
370
    15
100
AcDbSpline
210
0.0
220
0.0
230
1.0
 70
     8
 71
     3
 72
    27
 73
    23
 74
     0
 42
0.000000001
 43
0.00000001
 40
0.0
 40
0.0
 40
0.0
 40
0.0
 40
0.0426595515912202
 40
0.0855912291091369
 40
0.1294088172942645
 40
0.1735461665110214
 40
0.2162189802952011
 40
0.2592096562948874
 40
0.3032354101209108
 40
0.3476326405606403
 40
0.388134724180047
 40
0.4706245875032903
 40
0.5127285464345256
 40
0.5516576810987803
 40
0.6308426793931464
 40
0.6711869720191788
 40
0.7102109458124983
 40
0.7895022093597751
 40
0.8298410906383697
 40
0.8716884353547804
 40
0.9567324688438239
 40
1.0
 40
1.0
 40
1.0
 40
1.0
 10
184.9768215594284
 20
74.00982164303254
 30
0.0
 10
184.9395286968615
 20
73.90360908412244
 30
0.0
 10
184.8647050799919
 20
73.69050643477783
 30
0.0
 10
184.760843414403
 20
73.36319720822452
 30
0.0
 10
184.6635452532509
 20
73.03106648929077
 30
0.0
 10
184.5755426081783
 20
72.70041017818299
 30
0.0
 10
184.4974537673072
 20
72.37534137285064
 30
0.0
 10
184.429230014462
 20
72.05645713572292
 30
0.0
 10
184.370679954884
 20
71.74210196741575
 30
0.0
 10
184.32424889211
 20
71.4451501725074
 30
0.0
 10
184.2781826855619
 20
71.07750082876795
 30
0.0
 10
184.2535325142268
 20
70.74384540913385
 30
0.0
 10
184.2506619077188
 20
70.45200214168467
 30
0.0
 10
184.2614936487245
 20
70.19233026066283
 30
0.0
 10
184.2919177833642
 20
69.97577617316483
 30
0.0
 10
184.341554826832
 20
69.80478907447173
 30
0.0
 10
184.4036140172352
 20
69.66446690366753
 30
0.0
 10
184.48377322819
 20
69.57097854735902
 30
0.0
 10
184.5820985249361
 20
69.52451300678015
 30
0.0
 10
184.6954583898564
 20
69.51105492864686
 30
0.0
 10
184.8270061495549
 20
69.5471333675077
 30
0.0
 10
184.9390422315689
 20
69.61919331518989
 30
0.0
 10
184.9768215594304
 20
69.64349241901635
 30
0.0
  0
SPLINE
  5
150
330
1F
100
AcDbEntity
  8
0
  6
Continuous
 62
     7
370
    15
100
AcDbSpline
210
0.0
220
0.0
230
1.0
 70
     8
 71
     3
 72
    16
 73
    12
 74
     0
 42
0.000000001
 43
0.00000001
 40
0.0
 40
0.0
 40
0.0
 40
0.0
 40
0.1245767853925542
 40
0.252300273537972
 40
0.3770227427746114
 40
0.5060382503003583
 40
0.620448196691206
 40
0.7382420391626463
 40
0.8524108796984989
 40
0.969195006120578
 40
1.0
 40
1.0
 40
1.0
 40
1.0
 10
184.9768215594314
 20
81.06883395513442
 30
0.0
 10
185.092450151888
 20
80.89059398724928
 30
0.0
 10
185.3266280158752
 20
80.52961186276181
 30
0.0
 10
185.5866947272626
 20
79.81905692925682
 30
0.0
 10
185.7570192891034
 20
78.98434129039168
 30
0.0
 10
185.8103459480317
 20
78.07363683181647
 30
0.0
 10
185.7536481120851
 20
77.11500563138034
 30
0.0
 10
185.6045971029571
 20
76.16250984064968
 30
0.0
 10
185.3716761173241
 20
75.1981159234214
 30
0.0
 10
185.1477673658843
 20
74.48424058958682
 30
0.0
 10
185.0063403837784
 20
74.0917440361114
 30
0.0
 10
184.9768215594284
 20
74.00982164303254
 30
0.0
  0
SPLINE
  5
151
330
1F
100
AcDbEntity
  8
0
  6
Continuous
 62
     7
370
    15
100
AcDbSpline
210
0.0
220
0.0
230
1.0
 70
     8
 71
     3
 72
    27
 73
    23
 74
     0
 42
0.000000001
 43
0.00000001
 40
0.0
 40
0.0
 40
0.0
 40
0.0
 40
0.0426606797130141
 40
0.0855935073501614
 40
0.1294123204536539
 40
0.1735509225916188
 40
0.2162236415773917
 40
0.2592142218222643
 40
0.3032398763005393
 40
0.347637005878935
 40
0.3881390265361944
 40
0.4706287588869424
 40
0.5127326489496016
 40
0.5516617646075198
 40
0.6308467217350711
 40
0.6711909916320602
 40
0.7102149879120525
 40
0.7895062952710808
 40
0.8298451975719399
 40
0.8716915672084696
 40
0.9567335501971305
 40
1.0
 40
1.0
 40
1.0
 40
1.0
 10
184.9768215594305
 20
87.66497110160314
 30
0.0
 10
184.9395277271397
 20
87.59741089288747
 30
0.0
 10
184.864702151697
 20
87.4618594844199
 30
0.0
 10
184.7608379870653
 20
87.23000804283014
 30
0.0
 10
184.6635376905079
 20
86.97664242975117
 30
0.0
 10
184.5755343057786
 20
86.70405596594303
 30
0.0
 10
184.4974458756702
 20
86.41606188798484
 30
0.0
 10
184.4292233580129
 20
86.11308990862992
 30
0.0
 10
184.3706745549933
 20
85.79261080725524
 30
0.0
 10
184.3242447087802
 20
85.46712739799588
 30
0.0
 10
184.2781800543259
 20
85.03437155089507
 30
0.0
 10
184.2535313895332
 20
84.59628847320171
 30
0.0
 10
184.250662214696
 20
84.16308554323825
 30
0.0
 10
184.2614953280372
 20
83.74182295132735
 30
0.0
 10
184.2919207861887
 20
83.3333606522519
 30
0.0
 10
184.3415590979142
 20
82.94312419407068
 30
0.0
 10
184.4036195494902
 20
82.5669031683601
 30
0.0
 10
184.4837799927796
 20
82.21503696374224
 30
0.0
 10
184.5821058658132
 20
81.88933177040386
 30
0.0
 10
184.6954646632148
 20
81.57692120662955
 30
0.0
 10
184.8270097594325
 20
81.29652301366673
 30
0.0
 10
184.9390431583827
 20
81.12625085131812
 30
0.0
 10
184.9768215594314
 20
81.06883395513444
 30
0.0
  0
SPLINE
  5
152
330
1F
100
AcDbEntity
  8
0
  6
Continuous
 62
     7
370
    15
100
AcDbSpline
210
0.0
220
0.0
230
1.0
 70
     8
 71
     3
 72
    16
 73
    12
 74
     0
 42
0.000000001
 43
0.00000001
 40
0.0
 40
0.0
 40
0.0
 40
0.0
 40
0.124574987250131
 40
0.2522965301460541
 40
0.3770193056408664
 40
0.5060351398638149
 40
0.6204452207887875
 40
0.7382392163824583
 40
0.8524079450197322
 40
0.9691919620656615
 40
1.0
 40
1.0
 40
1.0
 40
1.0
 10
184.9768215594303
 20
95.10756224897906
 30
0.0
 10
185.09244855636
 20
94.78004906302725
 30
0.0
 10
185.3266230946081
 20
94.11675025628678
 30
0.0
 10
185.5866892810712
 20
93.06847732990582
 30
0.0
 10
185.7570162966355
 20
91.99632336811445
 30
0.0
 10
185.8103460514989
 20
90.97702241121652
 30
0.0
 10
185.753650815243
 20
90.02930009660444
 30
0.0
 10
185.6046019621416
 20
89.19274119487241
 30
0.0
 10
185.3716828587967
 20
88.44421928097877
 30
0.0
 10
185.1477729060306
 20
87.95695011877763
 30
0.0
 10
185.0063432681075
 20
87.71539316411544
 30
0.0
 10
184.9768215594305
 20
87.66497110160314
 30
0.0
  0
SPLINE
  5
153
330
1F
100
AcDbEntity
  8
0
  6
Continuous
 62
     7
370
    15
100
AcDbSpline
210
0.0
220
0.0
230
1.0
 70
     8
 71
     3
 72
    19
 73
    15
 74
     0
 42
0.000000001
 43
0.00000001
 40
0.0
 40
0.0
 40
0.0
 40
0.0
 40
0.0855747042399669
 40
0.1735025911132356
 40
0.2591381948407604
 40
0.347521618300744
 40
0.4288008516343794
 40
0.512637825933336
 40
0.5907479265425518
 40
0.6711223008798143
 40
0.7494115176306021
 40
0.8298077970746404
 40
0.9137650347532585
 40
1.0
 40
1.0
 40
1.0
 40
1.0
 10
184.9768215594304
 20
100.0695796367636
 30
0.0
 10
184.9033136844042
 20
100.0860981336598
 30
0.0
 10
184.7542765723564
 20
100.1195893626185
 30
0.0
 10
184.5716761368632
 20
100.0333415622079
 30
0.0
 10
184.4230428447745
 20
99.84092053979089
 30
0.0
 10
184.3198777636555
 20
99.54274101768824
 30
0.0
 10
184.2604458224541
 20
99.14878561395332
 30
0.0
 10
184.2454013910503
 20
98.68849511326302
 30
0.0
 10
184.2718527830695
 20
98.16388406653496
 30
0.0
 10
184.3366387357278
 20
97.60280799862272
 30
0.0
 10
184.4393943038552
 20
97.00429367599448
 30
0.0
 10
184.5795298116999
 20
96.38192413275654
 30
0.0
 10
184.7565729971411
 20
95.7379461097044
 30
0.0
 10
184.9027532489231
 20
95.31955667495684
 30
0.0
 10
184.9768215594303
 20
95.10756224897906
 30
0.0
  0
SPLINE
  5
154
330
1F
100
AcDbEntity
  8
0
  6
Continuous
 62
     7
370
    15
100
AcDbSpline
210
0.0
220
0.0
230
1.0
 70
     8
 71
     3
 72
    16
 73
    12
 74
     0
 42
0.000000001
 43
0.00000001
 40
0.0
 40
0.0
 40
0.0
 40
0.0
 40
0.124871069626844
 40
0.2528983544618343
 40
0.3779145965856648
 40
0.5072218623673403
 40
0.6220810633072332
 40
0.740319580297956
 40
0.8552389276217855
 40
0.9727845549775285
 40
1.0
 40
1.0
 40
1.0
 40
1.0
 10
184.9922974955294
 20
103.4987796616185
 30
0.0
 10
185.1067367572702
 20
103.2155225404645
 30
0.0
 10
185.3385078237514
 20
102.6418487500221
 30
0.0
 10
185.5945089031877
 20
101.8756283188916
 30
0.0
 10
185.7606172096074
 20
101.2002242523002
 30
0.0
 10
185.8101631136013
 20
100.6751714240945
 30
0.0
 10
185.7502924412533
 20
100.2987526403129
 30
0.0
 10
185.598604401785
 20
100.0725389222801
 30
0.0
 10
185.3633791781118
 20
99.98236919158572
 30
0.0
 10
185.1409644310323
 20
100.010024708561
 30
0.0
 10
185.002797322665
 20
100.060155013572
 30
0.0
 10
184.9768215594304
 20
100.0695796367636
 30
0.0
  0
SPLINE
  5
155
330
1F
100
AcDbEntity
  8
0
  6
Continuous
 62
     7
370
    15
100
AcDbSpline
210
0.0
220
0.0
230
1.0
 70
     8
 71
     3
 72
    22
 73
    18
 74
     0
 42
0.000000001
 43
0.00000001
 40
0.0
 40
0.0
 40
0.0
 40
0.0
 40
0.0075372220025599
 40
0.0583211455194035
 40
0.1093679442090375
 40
0.2026665563652101
 40
0.2552171371808166
 40
0.3039582438042844
 40
0.4421976707733726
 40
0.4924969383342706
 40
0.5412881264478913
 40
0.6795552341747478
 40
0.7297912275939107
 40
0.7795200179159415
 40
0.829460897428456
 40
0.8970174978077682
 40
0.9999999999999999
 40
0.9999999999999999
 40
0.9999999999999999
 40
0.9999999999999999
 10
184.3360960973304
 20
105.3612137670241
 30
0.0
 10
184.3339089551589
 20
105.3658246946649
 30
0.0
 10
184.31698539409
 20
105.4015029036689
 30
0.0
 10
184.300078119036
 20
105.4316649465128
 30
0.0
 10
184.2691330477559
 20
105.4871363389909
 30
0.0
 10
184.2538045972356
 20
105.5032818620796
 30
0.0
 10
184.2510841936434
 20
105.4881061787478
 30
0.0
 10
184.2593249699424
 20
105.4405629577752
 30
0.0
 10
184.2883778037917
 20
105.3415992617056
 30
0.0
 10
184.337644170373
 20
105.1940896993944
 30
0.0
 10
184.3972585337373
 20
105.0220951111922
 30
0.0
 10
184.4762349669122
 20
104.8049608796495
 30
0.0
 10
184.5728049866464
 20
104.5495083093517
 30
0.0
 10
184.6391418087055
 20
104.3769971051304
 30
0.0
 10
184.7191693341771
 20
104.172352164002
 30
0.0
 10
184.8327245361875
 20
103.8865840666239
 30
0.0
 10
184.9322173323941
 20
103.6447903141339
 30
0.0
 10
184.9922974955294
 20
103.4987796616185
 30
0.0
  0
LINE
  5
156
330
1F
100
AcDbEntity
  8
0
  6
Continuous
 62
     7
370
    15
100
AcDbLine
 10
184.9768215594
 20
81.0688339551
 30
0.0
 11
173.7519616366
 21
81.0688339551
 31
0.0
  0
LINE
  5
157
330
1F
100
AcDbEntity
  8
0
  6
Continuous
 62
     7
370
    15
100
AcDbLine
 10
173.7519616366
 20
87.6649711016
 30
0.0
 11
173.7519616366
 21
81.0688339551
 31
0.0
  0
LINE
  5
158
330
1F
100
AcDbEntity
  8
0
  6
Continuous
 62
     7
370
    15
100
AcDbLine
 10
184.9768215594
 20
87.6649711016
 30
0.0
 11
173.7519616366
 21
87.6649711016
 31
0.0
  0
LINE
  5
159
330
1F
100
AcDbEntity
  8
0
  6
Continuous
 62
     7
370
    15
100
AcDbLine
 10
172.2519616366
 20
86.4755404551
 30
0.0
 11
173.7519616366
 21
87.6649711016
 31
0.0
  0
LINE
  5
15A
330
1F
100
AcDbEntity
  8
0
  6
Continuous
 62
     7
370
    15
100
AcDbLine
 10
172.2519616366
 20
82.3648640705
 30
0.0
 11
173.7519616366
 21
81.0688339551
 31
0.0
  0
LINE
  5
15B
330
1F
100
AcDbEntity
  8
0
  6
Continuous
 62
     7
370
    15
100
AcDbLine
 10
172.2519616366
 20
82.3648640705
 30
0.0
 11
172.2519616366
 21
86.4755404551
 31
0.0
  0
LINE
  5
15C
330
1F
100
AcDbEntity
  8
0
  6
Continuous
 62
     7
370
    15
100
AcDbLine
 10
173.7519616366
 20
95.107562249
 30
0.0
 11
173.7519616366
 21
87.6649711016
 31
0.0
  0
LINE
  5
15D
330
1F
100
AcDbEntity
  8
0
  6
Continuous
 62
     7
370
    15
100
AcDbLine
 10
184.9768215594
 20
95.107562249
 30
0.0
 11
173.7519616366
 21
95.107562249
 31
0.0
  0
LINE
  5
15E
330
1F
100
AcDbEntity
  8
0
  6
Continuous
 62
     7
370
    15
100
AcDbLine
 10
173.7519616366
 20
95.107562249
 30
0.0
 11
172.2519616366
 21
95.4899132705
 31
0.0
  0
LINE
  5
15F
330
1F
100
AcDbEntity
  8
0
  6
Continuous
 62
     7
370
    15
100
AcDbLine
 10
172.2519616366
 20
86.4755404551
 30
0.0
 11
172.2519616366
 21
95.4899132705
 31
0.0
  0
LINE
  5
160
330
1F
100
AcDbEntity
  8
0
  6
Continuous
 62
     7
370
    15
100
AcDbLine
 10
184.9768215594
 20
74.009821643
 30
0.0
 11
173.7519616366
 21
74.009821643
 31
0.0
  0
LINE
  5
161
330
1F
100
AcDbEntity
  8
0
  6
Continuous
 62
     7
370
    15
100
AcDbLine
 10
173.7519616366
 20
81.0688339551
 30
0.0
 11
173.7519616366
 21
74.009821643
 31
0.0
  0
LINE
  5
162
330
1F
100
AcDbEntity
  8
0
  6
Continuous
 62
     7
370
    15
100
AcDbLine
 10
172.2519616366
 20
73.8150771173
 30
0.0
 11
173.7519616366
 21
74.009821643
 31
0.0
  0
LINE
  5
163
330
1F
100
AcDbEntity
  8
0
  6
Continuous
 62
     7
370
    15
100
AcDbLine
 10
172.2519616366
 20
73.8150771173
 30
0.0
 11
172.2519616366
 21
82.3648640705
 31
0.0
  0
LINE
  5
164
330
1F
100
AcDbEntity
  8
0
  6
Continuous
 62
     7
370
    15
100
AcDbLine
 10
173.7519616366
 20
100.0998748135
 30
0.0
 11
173.7519616366
 21
95.107562249
 31
0.0
  0
LINE
  5
165
330
1F
100
AcDbEntity
  8
0
  6
Continuous
 62
     7
370
    15
100
AcDbLine
 10
172.2519616366
 20
95.4899132705
 30
0.0
 11
172.2519616366
 21
98.5998748135
 31
0.0
  0
LINE
  5
166
330
1F
100
AcDbEntity
  8
0
  6
Continuous
 62
     7
370
    15
100
AcDbLine
 10
173.7519616366
 20
74.009821643
 30
0.0
 11
173.7519616366
 21
69.5184525187
 31
0.0
  0
LINE
  5
167
330
1F
100
AcDbEntity
  8
0
  6
Continuous
 62
     7
370
    15
100
AcDbLine
 10
172.2519616366
 20
71.0184525187
 30
0.0
 11
172.2519616366
 21
73.8150771173
 31
0.0
  0
LINE
  5
168
330
1F
100
AcDbEntity
  8
0
  6
Continuous
 62
     7
370
    15
100
AcDbLine
 10
173.7519616366
 20
103.4987796616
 30
0.0
 11
173.7519616366
 21
100.0998748135
 31
0.0
  0
LINE
  5
169
330
1F
100
AcDbEntity
  8
0
  6
Continuous
 62
     7
370
    15
100
AcDbLine
 10
173.7519616366
 20
103.4987796616
 30
0.0
 11
172.2519616366
 21
102.7482848842
 31
0.0
  0
LINE
  5
16A
330
1F
100
AcDbEntity
  8
0
  6
Continuous
 62
     7
370
    15
100
AcDbLine
 10
172.2519616366
 20
98.5998748135
 30
0.0
 11
172.2519616366
 21
102.7482848842
 31
0.0
  0
LINE
  5
16B
330
1F
100
AcDbEntity
  8
0
  6
Continuous
 62
     7
370
    15
100
AcDbLine
 10
184.9922974955
 20
103.4987796616
 30
0.0
 11
173.7519616366
 21
103.4987796616
 31
0.0
  0
LINE
  5
16C
330
1F
100
AcDbEntity
  8
0
  6
Continuous
 62
     7
370
    15
100
AcDbLine
 10
173.7519616366
 20
69.5184525187
 30
0.0
 11
173.7519616366
 21
67.1031326177
 31
0.0
  0
LINE
  5
16D
330
1F
100
AcDbEntity
  8
0
  6
Continuous
 62
     7
370
    15
100
AcDbLine
 10
172.2519616366
 20
68.0171529147
 30
0.0
 11
173.7519616366
 21
67.1031326177
 31
0.0
  0
LINE
  5
16E
330
1F
100
AcDbEntity
  8
0
  6
Continuous
 62
     7
370
    15
100
AcDbLine
 10
172.2519616366
 20
68.0171529147
 30
0.0
 11
172.2519616366
 21
71.0184525187
 31
0.0
  0
LINE
  5
16F
330
1F
100
AcDbEntity
  8
0
  6
Continuous
 62
     7
370
    15
100
AcDbLine
 10
184.9768215594
 20
67.1031326177
 30
0.0
 11
173.7519616366
 21
67.1031326177
 31
0.0
  0
LINE
  5
170
330
1F
100
AcDbEntity
  8
0
  6
Continuous
 62
     7
370
    15
100
AcDbLine
 10
173.7519616366
 20
105.4972797039
 30
0.0
 11
173.7519616366
 21
103.4987796616
 31
0.0
  0
LINE
  5
171
330
1F
100
AcDbEntity
  8
0
  6
Continuous
 62
     7
370
    15
100
AcDbLine
 10
172.2519616366
 20
102.7482848842
 30
0.0
 11
172.2519616366
 21
103.9972797039
 31
0.0
  0
LINE
  5
172
330
1F
100
AcDbEntity
  8
0
  6
Continuous
 62
     7
370
    15
100
AcDbLine
 10
173.7519616366
 20
67.1031326177
 30
0.0
 11
173.7519616366
 21
65.5626873776
 31
0.0
  0
LINE
  5
173
330
1F
100
AcDbEntity
  8
0
  6
Continuous
 62
     7
370
    15
100
AcDbLine
 10
172.2519616366
 20
67.0626873776
 30
0.0
 11
172.2519616366
 21
68.0171529147
 31
0.0
  0
LINE
  5
174
330
1F
100
AcDbEntity
  8
0
  6
Continuous
 62
     7
370
    15
100
AcDbLine
 10
153.2519616366
 20
123.5301642111
 30
0.0
 11
153.2519616366
 21
47.5301642111
 31
0.0
  0
CIRCLE
  5
175
330
1F
100
AcDbEntity
  8
0
  6
Continuous
 62
     7
370
    15
100
AcDbCircle
 10
159.4519616366
 20
72.8301642111
 30
0.0
 40
2.552700000000002
  0
CIRCLE
  5
176
330
1F
100
AcDbEntity
  8
0
  6
Continuous
 62
     7
370
    15
100
AcDbCircle
 10
159.4519616366
 20
60.1301642111
 30
0.0
 40
2.552700000000009
  0
CIRCLE
  5
177
330
1F
100
AcDbEntity
  8
0
  6
Continuous
 62
     7
370
    15
100
AcDbCircle
 10
159.4519616366
 20
110.9301642111
 30
0.0
 40
2.552700000000016
  0
LINE
  5
178
330
1F
100
AcDbEntity
  8
0
  6
Continuous
 62
     7
370
    15
100
AcDbLine
 10
165.7519616366
 20
123.5301642111
 30
0.0
 11
165.7519616366
 21
47.5301642111
 31
0.0
  0
LINE
  5
179
330
1F
100
AcDbEntity
  8
0
  6
Continuous
 62
     7
370
    15
100
AcDbLine
 10
153.2519616366
 20
123.5301642111
 30
0.0
 11
165.7519616366
 21
123.5301642111
 31
0.0
  0
LINE
  5
17A
330
1F
100
AcDbEntity
  8
0
  6
Continuous
 62
     7
370
    15
100
AcDbLine
 10
153.2519616366
 20
47.5301642111
 30
0.0
 11
165.7519616366
 21
47.5301642111
 31
0.0
  0
LINE
  5
17B
330
1F
100
AcDbEntity
  8
0
  6
Continuous
 62
     7
370
    15
100
AcDbLine
 10
140.2519616366
 20
123.5301642111
 30
0.0
 11
140.2519616366
 21
47.5301642111
 31
0.0
  0
CIRCLE
  5
17C
330
1F
100
AcDbEntity
  8
0
  6
Continuous
 62
     7
370
    15
100
AcDbCircle
 10
134.0519616366
 20
60.1301642111
 30
0.0
 40
2.552700000000009
  0
CIRCLE
  5
17D
330
1F
100
AcDbEntity
  8
0
  6
Continuous
 62
     7
370
    15
100
AcDbCircle
 10
134.0519616366
 20
72.8301642111
 30
0.0
 40
2.552700000000002
  0
CIRCLE
  5
17E
330
1F
100
AcDbEntity
  8
0
  6
Continuous
 62
     7
370
    15
100
AcDbCircle
 10
134.0519616366
 20
110.9301642111
 30
0.0
 40
2.552700000000016
  0
LINE
  5
17F
330
1F
100
AcDbEntity
  8
0
  6
Continuous
 62
     7
370
    15
100
AcDbLine
 10
127.7519616366
 20
123.5301642111
 30
0.0
 11
127.7519616366
 21
47.5301642111
 31
0.0
  0
LINE
  5
180
330
1F
100
AcDbEntity
  8
0
  6
Continuous
 62
     7
370
    15
100
AcDbLine
 10
127.7519616366
 20
123.5301642111
 30
0.0
 11
140.2519616366
 21
123.5301642111
 31
0.0
  0
LINE
  5
181
330
1F
100
AcDbEntity
  8
0
  6
Continuous
 62
     7
370
    15
100
AcDbLine
 10
127.7519616366
 20
47.5301642111
 30
0.0
 11
140.2519616366
 21
47.5301642111
 31
0.0
  0
CIRCLE
  5
182
330
1F
100
AcDbEntity
  8
0
  6
Continuous
 62
     7
370
    15
100
AcDbCircle
 10
146.7519616366
 20
60.1301642111
 30
0.0
 40
2.552700000000002
  0
CIRCLE
  5
183
330
1F
100
AcDbEntity
  8
0
  6
Continuous
 62
     7
370
    15
100
AcDbCircle
 10
146.7519616366
 20
110.9301642111
 30
0.0
 40
2.552699999999973
  0
CIRCLE
  5
184
330
1F
100
AcDbEntity
  8
0
  6
Continuous
 62
     7
370
    15
100
AcDbCircle
 10
146.7519616366
 20
85.5301642111
 30
0.0
 40
2.552700000000002
  0
LINE
  5
185
330
1F
100
AcDbEntity
  8
0
  6
Continuous
 62
     7
370
    15
100
AcDbLine
 10
140.2519616366
 20
123.5301642111
 30
0.0
 11
153.2519616366
 21
123.5301642111
 31
0.0
  0
LINE
  5
186
330
1F
100
AcDbEntity
  8
0
  6
Continuous
 62
     7
370
    15
100
AcDbLine
 10
140.2519616366
 20
47.5301642111
 30
0.0
 11
153.2519616366
 21
47.5301642111
 31
0.0
  0
LINE
  5
187
330
1F
100
AcDbEntity
  8
0
  6
Continuous
 62
     7
370
    15
100
AcDbLine
 10
165.7519616366
 20
123.5301642111
 30
0.0
 11
171.7519616366
 21
123.5301642111
 31
0.0
  0
LINE
  5
188
330
1F
100
AcDbEntity
  8
0
  6
Continuous
 62
     7
370
    15
100
AcDbLine
 10
165.7519616366
 20
47.5301642111
 30
0.0
 11
171.7519616366
 21
47.5301642111
 31
0.0
  0
LINE
  5
189
330
1F
100
AcDbEntity
  8
0
  6
Continuous
 62
     7
370
    15
100
AcDbLine
 10
121.7519616366
 20
123.5301642111
 30
0.0
 11
127.7519616366
 21
123.5301642111
 31
0.0
  0
LINE
  5
18A
330
1F
100
AcDbEntity
  8
0
  6
Continuous
 62
     7
370
    15
100
AcDbLine
 10
121.7519616366
 20
47.5301642111
 30
0.0
 11
127.7519616366
 21
47.5301642111
 31
0.0
  0
LINE
  5
18B
330
1F
100
AcDbEntity
  8
0
  6
Continuous
 62
     8
370
    15
100
AcDbLine
 10
121.2519616366
 20
68.4207626096
 30
0.0
 11
120.3686966681
 21
67.7122710192
 31
0.0
  0
LINE
  5
18C
330
1F
100
AcDbEntity
  8
0
  6
Continuous
 62
     8
370
    15
100
AcDbLine
 10
108.5271017138
 20
67.2175705625
 30
0.0
 11
108.8775998533
 21
67.2175705625
 31
0.0
  0
DIMENSION
  5
18D
330
1F
100
AcDbEntity
  8
DIM
100
AcDbDimension
  2
_D
 10
157.2412585884
 20
109.6538142111
 30
0.0
 11
198.552375408
 21
131.4823169936
 31
0.0
 70
   163
  1
9 HOLES,\P 1/4"-20
 71
     1
 42
-1.0
  3
SLDDIMSTYLE0
100
AcDbDiametricDimension
 15
161.6626646849
 25
112.2065142111
 35
0.0
 40
0.0
  0
DIMENSION
  5
197
330
1F
100
AcDbEntity
  8
DIM
100
AcDbDimension
  2
_D_1
 10
146.7519616366
 20
132.2798049074
 30
0.0
 11
140.4019616366
 21
132.2798049074
 31
0.0
 70
   160
  1
<>
 71
     2
 42
-1.0
  3
SLDDIMSTYLE1
100
AcDbAlignedDimension
 13
134.0519616366
 23
114.4828642111
 33
0.0
 14
146.7519616366
 24
114.4828642111
 34
0.0
100
AcDbRotatedDimension
  0
DIMENSION
  5
1A2
330
1F
100
AcDbEntity
  8
DIM
100
AcDbDimension
  2
_D_2
 10
159.4519616366
 20
132.2798049074
 30
0.0
 11
153.1019616366
 21
132.2798049074
 31
0.0
 70
   160
  1
<>
 71
     2
 42
-1.0
  3
SLDDIMSTYLE1
100
AcDbAlignedDimension
 13
146.7519616366
 23
114.4828642111
 33
0.0
 14
159.4519616366
 24
114.4828642111
 34
0.0
100
AcDbRotatedDimension
  0
DIMENSION
  5
1AC
330
1F
100
AcDbEntity
  8
DIM
100
AcDbDimension
  2
_D_3
 10
171.7519616366
 20
142.6724175479
 30
0.0
 11
146.7519616366
 21
142.6724175479
 31
0.0
 70
   160
  1
<>
 71
     2
 42
-1.0
  3
SLDDIMSTYLE1
100
AcDbAlignedDimension
 13
121.7519616366
 23
123.5301642111
 33
0.0
 14
171.7519616366
 24
123.5301642111
 34
0.0
100
AcDbRotatedDimension
  0
DIMENSION
  5
1B6
330
1F
100
AcDbEntity
  8
DIM
100
AcDbDimension
  2
_D_4
 10
94.2519616366
 20
72.8301642111
 30
0.0
 11
94.2519616366
 21
79.1801642111
 31
0.0
 70
   160
  1
<>
 71
     2
 42
-1.0
  3
SLDDIMSTYLE1
100
AcDbAlignedDimension
 13
146.7519616366
 23
85.5301642111
 33
0.0
 14
130.4992616366
 24
72.8301642111
 34
0.0
 50
90.0
100
AcDbRotatedDimension
  0
DIMENSION
  5
1C0
330
1F
100
AcDbEntity
  8
DIM
100
AcDbDimension
  2
_D_5
 10
83.8736533282
 20
60.1301642111
 30
0.0
 11
83.8736533282
 21
72.8301642111
 31
0.0
 70
   160
  1
<>
 71
     2
 42
-1.0
  3
SLDDIMSTYLE1
100
AcDbAlignedDimension
 13
146.7519616366
 23
85.5301642111
 33
0.0
 14
130.4992616366
 24
60.1301642111
 34
0.0
 50
90.0
100
AcDbRotatedDimension
  0
DIMENSION
  5
1CA
330
1F
100
AcDbEntity
  8
DIM
100
AcDbDimension
  2
_D_6
 10
83.8736533282
 20
85.5301642111
 30
0.0
 11
83.8736533282
 21
98.2301642111
 31
0.0
 70
   160
  1
<>
 71
     2
 42
-1.0
  3
SLDDIMSTYLE1
100
AcDbAlignedDimension
 13
130.4992616366
 23
110.9301642111
 33
0.0
 14
146.7519616366
 24
85.5301642111
 34
0.0
 50
90.0
100
AcDbRotatedDimension
  0
DIMENSION
  5
1D4
330
1F
100
AcDbEntity
  8
DIM
100
AcDbDimension
  2
_D_7
 10
73.9521503056
 20
47.5301642111
 30
0.0
 11
73.9521503056
 21
85.5301642111
 31
0.0
 70
   160
  1
<>
 71
     2
 42
-1.0
  3
SLDDIMSTYLE1
100
AcDbAlignedDimension
 13
121.7519616366
 23
123.5301642111
 33
0.0
 14
121.7519616366
 24
47.5301642111
 34
0.0
 50
90.0
100
AcDbRotatedDimension
  0
INSERT
  5
1E9
330
1F
100
AcDbEntity
  8
DIM
100
AcDbBlockReference
  2
SW_CENTERMARKSYMBOL_0
 10
134.0519616366
 20
110.9301642111
 30
0.0
  0
INSERT
  5
1F5
330
1F
100
AcDbEntity
  8
DIM
100
AcDbBlockReference
  2
SW_CENTERMARKSYMBOL_1
 10
146.7519616366
 20
110.9301642111
 30
0.0
  0
INSERT
  5
201
330
1F
100
AcDbEntity
  8
DIM
100
AcDbBlockReference
  2
SW_CENTERMARKSYMBOL_2
 10
159.4519616366
 20
110.9301642111
 30
0.0
  0
INSERT
  5
20D
330
1F
100
AcDbEntity
  8
DIM
100
AcDbBlockReference
  2
SW_CENTERMARKSYMBOL_3
 10
146.7519616366
 20
60.1301642111
 30
0.0
  0
INSERT
  5
219
330
1F
100
AcDbEntity
  8
DIM
100
AcDbBlockReference
  2
SW_CENTERMARKSYMBOL_4
 10
134.0519616366
 20
60.1301642111
 30
0.0
  0
INSERT
  5
225
330
1F
100
AcDbEntity
  8
DIM
100
AcDbBlockReference
  2
SW_CENTERMARKSYMBOL_5
 10
134.0519616366
 20
72.8301642111
 30
0.0
  0
INSERT
  5
231
330
1F
100
AcDbEntity
  8
DIM
100
AcDbBlockReference
  2
SW_CENTERMARKSYMBOL_6
 10
159.4519616366
 20
72.8301642111
 30
0.0
  0
INSERT
  5
23D
330
1F
100
AcDbEntity
  8
DIM
100
AcDbBlockReference
  2
SW_CENTERMARKSYMBOL_7
 10
159.4519616366
 20
60.1301642111
 30
0.0
  0
LINE
  5
23E
330
1F
100
AcDbEntity
  8
DIM
  6
CENTERX2
370
     0
100
AcDbLine
 10
124.7519616366
 20
85.5301642111
 30
0.0
 11
174.7519616366
 21
85.5301642111
 31
0.0
  0
LINE
  5
23F
330
1F
100
AcDbEntity
  8
DIM
  6
CENTERX2
370
     0
100
AcDbLine
 10
146.7519616366
 20
126.5301642111
 30
0.0
 11
146.7519616366
 21
44.5301642111
 31
0.0
  0
LINE
  5
240
330
1F
100
AcDbEntity
  8
0
  6
Continuous
 62
     7
370
    15
100
AcDbLine
 10
107.7587764057
 20
250.0094568881
 30
0.0
 11
106.2519616366
 21
246.99582735
 31
0.0
  0
LINE
  5
241
330
1F
100
AcDbEntity
  8
0
  6
Continuous
 62
     7
370
    15
100
AcDbLine
 10
106.2519616366
 20
218.99582735
 30
0.0
 11
107.7575702064
 21
215.9846102104
 31
0.0
  0
LINE
  5
242
330
1F
100
AcDbEntity
  8
0
  6
Continuous
 62
     7
370
    15
100
AcDbLine
 10
109.0898927136
 20
214.5615604673
 30
0.0
 11
119.7519616366
 21
214.5615604673
 31
0.0
  0
LINE
  5
243
330
1F
100
AcDbEntity
  8
0
  6
Continuous
 62
     7
370
    15
100
AcDbLine
 10
119.7519616366
 20
214.5615604673
 30
0.0
 11
121.2519616366
 21
216.0615604673
 31
0.0
  0
LINE
  5
244
330
1F
100
AcDbEntity
  8
0
  6
Continuous
 62
     7
370
    15
100
AcDbLine
 10
131.2519616366
 20
240.49582735
 30
0.0
 11
121.2519616366
 21
240.49582735
 31
0.0
  0
LINE
  5
245
330
1F
100
AcDbEntity
  8
0
  6
Continuous
 62
     7
370
    15
100
AcDbLine
 10
121.2519616366
 20
225.49582735
 30
0.0
 11
131.2519616366
 21
225.49582735
 31
0.0
  0
LINE
  5
246
330
1F
100
AcDbEntity
  8
0
  6
Continuous
 62
     7
370
    15
100
AcDbLine
 10
119.7519616366
 20
252.0833018345
 30
0.0
 11
109.1602822537
 21
252.0833018345
 31
0.0
  0
LINE
  5
247
330
1F
100
AcDbEntity
  8
0
  6
Continuous
 62
     7
370
    15
100
AcDbLine
 10
121.2519616366
 20
250.5833018345
 30
0.0
 11
119.7519616366
 21
252.0833018345
 31
0.0
  0
LINE
  5
248
330
1F
100
AcDbEntity
  8
0
  6
Continuous
 62
     7
370
    15
100
AcDbLine
 10
109.1591313538
 20
213.9087142062
 30
0.0
 11
119.7519616366
 21
213.9087142062
 31
0.0
  0
LINE
  5
249
330
1F
100
AcDbEntity
  8
0
  6
Continuous
 62
     7
370
    15
100
AcDbLine
 10
119.7519616366
 20
213.9087142062
 30
0.0
 11
121.2519616366
 21
215.4087142062
 31
0.0
  0
LINE
  5
24A
330
1F
100
AcDbEntity
  8
0
  6
Continuous
 62
     7
370
    15
100
AcDbLine
 10
184.3356070915
 20
213.1631182597
 30
0.0
 11
187.2519616366
 21
218.99582735
 31
0.0
  0
LINE
  5
24B
330
1F
100
AcDbEntity
  8
0
  6
Continuous
 62
     7
370
    15
100
AcDbLine
 10
187.2519616366
 20
246.99582735
 30
0.0
 11
184.3360897595
 21
252.8275711042
 31
0.0
  0
LINE
  5
24C
330
1F
100
AcDbEntity
  8
0
  6
Continuous
 62
     7
370
    15
100
AcDbLine
 10
184.813041802
 20
247.5651766117
 30
0.0
 11
173.7519616366
 21
247.5651766117
 31
0.0
  0
LINE
  5
24D
330
1F
100
AcDbEntity
  8
0
  6
Continuous
 62
     7
370
    15
100
AcDbLine
 10
173.7519616366
 20
247.5651766117
 30
0.0
 11
172.2519616366
 21
246.0651766117
 31
0.0
  0
LINE
  5
24E
330
1F
100
AcDbEntity
  8
0
  6
Continuous
 62
     7
370
    15
100
AcDbLine
 10
173.7519616366
 20
216.9841156576
 30
0.0
 11
184.6634726597
 21
216.9841156576
 31
0.0
  0
LINE
  5
24F
330
1F
100
AcDbEntity
  8
0
  6
Continuous
 62
     7
370
    15
100
AcDbLine
 10
172.2519616366
 20
218.4841156576
 30
0.0
 11
173.7519616366
 21
216.9841156576
 31
0.0
  0
LINE
  5
250
330
1F
100
AcDbEntity
  8
0
  6
Continuous
 62
     7
370
    15
100
AcDbLine
 10
162.2519616366
 20
225.49582735
 30
0.0
 11
172.2519616366
 21
225.49582735
 31
0.0
  0
LINE
  5
251
330
1F
100
AcDbEntity
  8
0
  6
Continuous
 62
     7
370
    15
100
AcDbLine
 10
172.2519616366
 20
240.49582735
 30
0.0
 11
162.2519616366
 21
240.49582735
 31
0.0
  0
LINE
  5
252
330
1F
100
AcDbEntity
  8
0
  6
Continuous
 62
     7
370
    15
100
AcDbLine
 10
184.2609477719
 20
252.9629428428
 30
0.0
 11
173.7519616366
 21
252.9629428428
 31
0.0
  0
LINE
  5
253
330
1F
100
AcDbEntity
  8
0
  6
Continuous
 62
     7
370
    15
100
AcDbLine
 10
173.7519616366
 20
252.9629428428
 30
0.0
 11
172.2519616366
 21
251.4629428428
 31
0.0
  0
LINE
  5
254
330
1F
100
AcDbEntity
  8
0
  6
Continuous
 62
     7
370
    15
100
AcDbLine
 10
173.7519616366
 20
213.0283505165
 30
0.0
 11
184.2558803143
 21
213.0283505165
 31
0.0
  0
LINE
  5
255
330
1F
100
AcDbEntity
  8
0
  6
Continuous
 62
     7
370
    15
100
AcDbLine
 10
172.2519616366
 20
214.5283505165
 30
0.0
 11
173.7519616366
 21
213.0283505165
 31
0.0
  0
LINE
  5
256
330
1F
100
AcDbEntity
  8
0
  6
Continuous
 62
     7
370
    15
100
AcDbLine
 10
131.2519616366
 20
226.64582735
 30
0.0
 11
135.2519616366
 21
226.64582735
 31
0.0
  0
LINE
  5
257
330
1F
100
AcDbEntity
  8
0
  6
Continuous
 62
     7
370
    15
100
AcDbLine
 10
135.2519616366
 20
239.34582735
 30
0.0
 11
131.2519616366
 21
239.34582735
 31
0.0
  0
LINE
  5
258
330
1F
100
AcDbEntity
  8
0
  6
Continuous
 62
     7
370
    15
100
AcDbLine
 10
158.2519616366
 20
226.64582735
 30
0.0
 11
162.2519616366
 21
226.64582735
 31
0.0
  0
LINE
  5
259
330
1F
100
AcDbEntity
  8
0
  6
Continuous
 62
     7
370
    15
100
AcDbLine
 10
162.2519616366
 20
239.34582735
 30
0.0
 11
158.2519616366
 21
239.34582735
 31
0.0
  0
LINE
  5
25A
330
1F
100
AcDbEntity
  8
0
  6
Continuous
 62
     7
370
    15
100
AcDbLine
 10
143.7519616366
 20
236.49582735
 30
0.0
 11
141.7519616366
 21
236.49582735
 31
0.0
  0
LINE
  5
25B
330
1F
100
AcDbEntity
  8
0
  6
Continuous
 62
     7
370
    15
100
AcDbLine
 10
141.7519616366
 20
229.49582735
 30
0.0
 11
142.4391310902
 21
229.49582735
 31
0.0
  0
LINE
  5
25C
330
1F
100
AcDbEntity
  8
0
  6
Continuous
 62
     7
370
    15
100
AcDbLine
 10
106.2519616366
 20
246.99582735
 30
0.0
 11
106.2519616366
 21
218.99582735
 31
0.0
  0
SPLINE
  5
25D
330
1F
100
AcDbEntity
  8
0
  6
Continuous
 62
     7
370
    15
100
AcDbSpline
210
0.0
220
0.0
230
1.0
 70
     8
 71
     3
 72
    11
 73
     7
 74
     0
 42
0.000000001
 43
0.00000001
 40
0.0
 40
0.0
 40
0.0
 40
0.0
 40
0.3167206564888755
 40
0.6414414051178884
 40
0.9585324442795304
 40
1.0
 40
1.0
 40
1.0
 40
1.0
 10
108.5271017137955
 20
251.3084209986306
 30
0.0
 10
108.4108795352135
 20
251.1154050905763
 30
0.0
 10
108.1754995054993
 20
250.7244978581747
 30
0.0
 10
107.9245511542177
 20
250.306115372745
 30
0.0
 10
107.7802934908362
 20
250.0607586795361
 30
0.0
 10
107.7624027206768
 20
250.0140770359577
 30
0.0
 10
107.7603336404231
 20
250.00867827078
 30
0.0
  0
SPLINE
  5
25E
330
1F
100
AcDbEntity
  8
0
  6
Continuous
 62
     7
370
    15
100
AcDbSpline
210
0.0
220
0.0
230
1.0
 70
     8
 71
     3
 72
    27
 73
    23
 74
     0
 42
0.000000001
 43
0.00000001
 40
0.0
 40
0.0
 40
0.0
 40
0.0
 40
0.0426606797130137
 40
0.0855935073501617
 40
0.1294123204536539
 40
0.1735509225916197
 40
0.2162236415773918
 40
0.2592142218222658
 40
0.3032398763005391
 40
0.3476370058789348
 40
0.3881390265361945
 40
0.4706287588869421
 40
0.5127326489496012
 40
0.5516617646075205
 40
0.630846721735071
 40
0.6711909916320601
 40
0.7102149879120525
 40
0.789506295271082
 40
0.8298451975719393
 40
0.87169156720847
 40
0.9567335501971309
 40
1.0
 40
1.0
 40
1.0
 40
1.0
 10
108.5271017137964
 20
249.1081883160842
 30
0.0
 10
108.5643955460872
 20
249.210717769845
 30
0.0
 10
108.6392211215299
 20
249.41643074988
 30
0.0
 10
108.7430852861616
 20
249.7199115380996
 30
0.0
 10
108.840385582719
 20
250.018315223713
 30
0.0
 10
108.9283889674482
 20
250.3046568733982
 30
0.0
 10
109.0064773975567
 20
250.5755971866393
 30
0.0
 10
109.074699915214
 20
250.8305862592741
 30
0.0
 10
109.1332487182336
 20
251.0704477654894
 30
0.0
 10
109.1796785644467
 20
251.2850300713382
 30
0.0
 10
109.225743218901
 20
251.5349881624657
 30
0.0
 10
109.2503918836937
 20
251.7379147909199
 30
0.0
 10
109.253261058531
 20
251.8890245504334
 30
0.0
 10
109.2424279451897
 20
252.0045833333215
 30
0.0
 10
109.2120024870382
 20
252.0708049930833
 30
0.0
 10
109.1623641753127
 20
252.0873657340505
 30
0.0
 10
109.1003037237367
 20
252.0714297849586
 30
0.0
 10
109.0201432804473
 20
252.0074181917224
 30
0.0
 10
108.9218174074137
 20
251.8960375470685
 30
0.0
 10
108.8084586100121
 20
251.7487331422818
 30
0.0
 10
108.6769135137944
 20
251.5538800566974
 30
0.0
 10
108.5648801148442
 20
251.3703189982324
 30
0.0
 10
108.5271017137955
 20
251.3084209986306
 30
0.0
  0
SPLINE
  5
25F
330
1F
100
AcDbEntity
  8
0
  6
Continuous
 62
     7
370
    15
100
AcDbSpline
210
0.0
220
0.0
230
1.0
 70
     8
 71
     3
 72
    16
 73
    12
 74
     0
 42
0.000000001
 43
0.00000001
 40
0.0
 40
0.0
 40
0.0
 40
0.0
 40
0.1245749872501313
 40
0.2522965301460549
 40
0.3770193056408673
 40
0.5060351398638153
 40
0.6204452207887889
 40
0.7382392163824588
 40
0.852407945019732
 40
0.9691919620656618
 40
1.0
 40
1.0
 40
1.0
 40
1.0
 10
108.5271017137966
 20
243.8517256235224
 30
0.0
 10
108.4114747168669
 20
243.9108103521991
 30
0.0
 10
108.1773001786188
 20
244.0304721908942
 30
0.0
 10
107.9172339921557
 20
244.4017822394848
 30
0.0
 10
107.7469069765915
 20
244.9220124700826
 30
0.0
 10
107.693577221728
 20
245.5689816988199
 30
0.0
 10
107.7502724579839
 20
246.3160572484705
 30
0.0
 10
107.8993213110853
 20
247.1137935979368
 30
0.0
 10
108.1322404144302
 20
247.973449893215
 30
0.0
 10
108.3561503671963
 20
248.6450507489639
 30
0.0
 10
108.4975800051193
 20
249.0282087628028
 30
0.0
 10
108.5271017137964
 20
249.1081883160842
 30
0.0
  0
SPLINE
  5
260
330
1F
100
AcDbEntity
  8
0
  6
Continuous
 62
     7
370
    15
100
AcDbSpline
210
0.0
220
0.0
230
1.0
 70
     8
 71
     3
 72
    19
 73
    15
 74
     0
 42
0.000000001
 43
0.00000001
 40
0.0
 40
0.0
 40
0.0
 40
0.0
 40
0.0855747042399677
 40
0.1735025911132362
 40
0.2591381948407604
 40
0.3475216183007441
 40
0.4288008516343785
 40
0.5126378259333352
 40
0.5907479265425508
 40
0.6711223008798146
 40
0.749411517630601
 40
0.8298077970746399
 40
0.9137650347532589
 40
1.0
 40
1.0
 40
1.0
 40
1.0
 10
108.5271017137965
 20
237.8888055947212
 30
0.0
 10
108.6006095888227
 20
238.0793427471511
 30
0.0
 10
108.7496467008705
 20
238.4656565526564
 30
0.0
 10
108.9322471363637
 20
239.1073812319792
 30
0.0
 10
109.0808804284524
 20
239.7830085031587
 30
0.0
 10
109.1840455095713
 20
240.4541586164306
 30
0.0
 10
109.2434774507728
 20
241.1091666562372
 30
0.0
 10
109.2585218821766
 20
241.7084581522123
 30
0.0
 10
109.2320704901574
 20
242.2578083686559
 30
0.0
 10
109.167284537499
 20
242.7344110460276
 30
0.0
 10
109.0645289693717
 20
243.1427361321136
 30
0.0
 10
108.924393461527
 20
243.4721637842844
 30
0.0
 10
108.7473502760858
 20
243.7245793811165
 30
0.0
 10
108.6011700243038
 20
243.8089670816983
 30
0.0
 10
108.5271017137966
 20
243.8517256235224
 30
0.0
  0
SPLINE
  5
261
330
1F
100
AcDbEntity
  8
0
  6
Continuous
 62
     7
370
    15
100
AcDbSpline
210
0.0
220
0.0
230
1.0
 70
     8
 71
     3
 72
    16
 73
    12
 74
     0
 42
0.000000001
 43
0.00000001
 40
0.0
 40
0.0
 40
0.0
 40
0.0
 40
0.1248710696268434
 40
0.2528983544618346
 40
0.3779145965856652
 40
0.5072218623673399
 40
0.6220810633072325
 40
0.7403195802979557
 40
0.8552389276217867
 40
0.972784554977529
 40
1.0
 40
1.0
 40
1.0
 40
1.0
 10
108.5116257776974
 20
230.0700203651777
 30
0.0
 10
108.3971865159567
 20
230.3463239064502
 30
0.0
 10
108.1654154494755
 20
230.9059147798896
 30
0.0
 10
107.9094143700391
 20
231.8626553306555
 30
0.0
 10
107.7433060636195
 20
232.8968364402871
 30
0.0
 10
107.6937601596256
 20
233.9408887816399
 30
0.0
 10
107.7536308319736
 20
234.969934006541
 30
0.0
 10
107.9053188714418
 20
235.9347775018859
 30
0.0
 10
108.1405440951151
 20
236.8573214253918
 30
0.0
 10
108.3629588421946
 20
237.4938749651789
 30
0.0
 10
108.5011259505619
 20
237.8263074525419
 30
0.0
 10
108.5271017137965
 20
237.8888055947212
 30
0.0
  0
SPLINE
  5
262
330
1F
100
AcDbEntity
  8
0
  6
Continuous
 62
     7
370
    15
100
AcDbSpline
210
0.0
220
0.0
230
1.0
 70
     8
 71
     3
 72
    27
 73
    23
 74
     0
 42
0.000000001
 43
0.00000001
 40
0.0
 40
0.0
 40
0.0
 40
0.0
 40
0.0317264737290004
 40
0.1390829142630488
 40
0.1719046028400261
 40
0.2072804436883562
 40
0.2428391253172124
 40
0.3443479438302638
 40
0.3778973973839475
 40
0.4116205145262085
 40
0.4732565055720464
 40
0.5079730683777451
 40
0.540172972984895
 40
0.6314982766087691
 40
0.6647275512286975
 40
0.6969605412398776
 40
0.7883041316409971
 40
0.8214916053772556
 40
0.8543440048307254
 40
0.8873365170591189
 40
0.9319665273008203
 40
1.0
 40
1.0
 40
1.0
 40
1.0
 10
108.5116257776973
 20
223.792765870679
 30
0.0
 10
108.5399817713762
 20
223.8138964966762
 30
0.0
 10
108.6642891328362
 20
223.9065292004869
 30
0.0
 10
108.8005274129776
 20
224.0862079695537
 30
0.0
 10
108.9200524189098
 20
224.3224784929904
 30
0.0
 10
108.9847052260951
 20
224.4782552003643
 30
0.0
 10
109.0812812073051
 20
224.7632821963576
 30
0.0
 10
109.1554016659772
 20
225.0954657325092
 30
0.0
 10
109.2051231897155
 20
225.4619425041838
 30
0.0
 10
109.234112743435
 20
225.7553858783128
 30
0.0
 10
109.2502388706171
 20
226.0690809120243
 30
0.0
 10
109.2528174893281
 20
226.3918558056722
 30
0.0
 10
109.2446162569741
 20
226.798020348978
 30
0.0
 10
109.21554323605
 20
227.2144727988459
 30
0.0
 10
109.1662794257216
 20
227.6314025568305
 30
0.0
 10
109.1066644664205
 20
228.0472813041447
 30
0.0
 10
109.0276883403127
 20
228.4584586622545
 30
0.0
 10
108.9311182814124
 20
228.8542576509049
 30
0.0
 10
108.8647814658913
 20
229.0972731318597
 30
0.0
 10
108.7847539385429
 20
229.3600104556515
 30
0.0
 10
108.67119873727
 20
229.694280542603
 30
0.0
 10
108.5717059409196
 20
229.9285520993146
 30
0.0
 10
108.5116257776974
 20
230.0700203651777
 30
0.0
  0
SPLINE
  5
263
330
1F
100
AcDbEntity
  8
0
  6
Continuous
 62
     7
370
    15
100
AcDbSpline
210
0.0
220
0.0
230
1.0
 70
     8
 71
     3
 72
    15
 73
    11
 74
     0
 42
0.000000001
 43
0.00000001
 40
0.0
 40
0.0
 40
0.0
 40
0.0
 40
0.1255505115575923
 40
0.2542743051988532
 40
0.3799729809583501
 40
0.5099861143893004
 40
0.625472150397553
 40
0.7443559600027043
 40
0.870468838476726
 40
1.0
 40
1.0
 40
1.0
 40
1.0
 10
108.5116257776973
 20
217.9962854660997
 30
0.0
 10
108.3971878518267
 20
218.3260797246707
 30
0.0
 10
108.165419587977
 20
218.9940037730587
 30
0.0
 10
107.9094236794174
 20
219.970988426724
 30
0.0
 10
107.7432951856621
 20
220.9096322702971
 30
0.0
 10
107.693811239937
 20
221.7364798474394
 30
0.0
 10
107.7534582951266
 20
222.4437609306594
 30
0.0
 10
107.9105676840493
 20
223.0237074306588
 30
0.0
 10
108.1609642760532
 20
223.4978871274371
 30
0.0
 10
108.3937012814418
 20
223.6936006441279
 30
0.0
 10
108.5116257776973
 20
223.792765870679
 30
0.0
  0
SPLINE
  5
264
330
1F
100
AcDbEntity
  8
0
  6
Continuous
 62
     7
370
    15
100
AcDbSpline
210
0.0
220
0.0
230
1.0
 70
     8
 71
     3
 72
    19
 73
    15
 74
     0
 42
0.000000001
 43
0.00000001
 40
0.0
 40
0.0
 40
0.0
 40
0.0
 40
0.0848173163342508
 40
0.1719666277871807
 40
0.2568445119593709
 40
0.3444496558075568
 40
0.4249502760439849
 40
0.5079899722588883
 40
0.5852601899258985
 40
0.6647755594794337
 40
0.7421311118706746
 40
0.8215724484076476
 40
0.9094422875434539
 40
1.0
 40
1.0
 40
1.0
 40
1.0
 10
108.5116257776973
 20
215.1245400414845
 30
0.0
 10
108.5859384868842
 20
215.0231548285628
 30
0.0
 10
108.7366070832618
 20
214.8175968844172
 30
0.0
 10
108.9218532218521
 20
214.6307616365483
 30
0.0
 10
109.0732465155002
 20
214.5448448690178
 30
0.0
 10
109.1791035675141
 20
214.5762505668835
 30
0.0
 10
109.2411518129923
 20
214.7191841686445
 30
0.0
 10
109.2586056426276
 20
214.9587366522542
 30
0.0
 10
109.2344484035535
 20
215.2901478146416
 30
0.0
 10
109.1718247622119
 20
215.6927747766477
 30
0.0
 10
109.0711573499466
 20
216.1658094690663
 30
0.0
 10
108.9302286885427
 20
216.7098547485042
 30
0.0
 10
108.7468183208726
 20
217.326047377212
 30
0.0
 10
108.5908066903473
 20
217.7706402868162
 30
0.0
 10
108.5116257776973
 20
217.9962854660997
 30
0.0
  0
SPLINE
  5
265
330
1F
100
AcDbEntity
  8
0
  6
Continuous
 62
     7
370
    15
100
AcDbSpline
210
0.0
220
0.0
230
1.0
 70
     8
 71
     3
 72
    10
 73
     6
 74
     0
 42
0.000000001
 43
0.00000001
 40
0.0
 40
0.0
 40
0.0
 40
0.0
 40
0.3304213987896063
 40
0.669194460194676
 40
1.0
 40
1.0
 40
1.0
 40
1.0
 10
108.5116257776973
 20
214.7090787732315
 30
0.0
 10
108.397596422459
 20
214.8985978782527
 30
0.0
 10
108.1666555296943
 20
215.2824263338122
 30
0.0
 10
107.9043575982557
 20
215.7163322195723
 30
0.0
 10
107.8101594022912
 20
215.8880055910712
 30
0.0
 10
107.7636207509538
 20
215.9728208797114
 30
0.0
  0
SPLINE
  5
266
330
1F
100
AcDbEntity
  8
0
  6
Continuous
 62
     7
370
    15
100
AcDbSpline
210
0.0
220
0.0
230
1.0
 70
     8
 71
     3
 72
    12
 73
     8
 74
     0
 42
0.000000001
 43
0.00000001
 40
0.0
 40
0.0
 40
0.0
 40
0.0
 40
0.193708235495587
 40
0.383735398804496
 40
0.5793534232530266
 40
0.7868644963256237
 40
1.0
 40
1.0
 40
1.0
 40
1.0
 10
107.7587718392639
 20
215.9852110268249
 30
0.0
 10
107.7357756515207
 20
216.0353699834048
 30
0.0
 10
107.6902202766961
 20
216.1347347169566
 30
0.0
 10
107.7549956379602
 20
216.096386298414
 30
0.0
 10
107.910130218556
 20
215.9268883815614
 30
0.0
 10
108.1610849766811
 20
215.6131253088886
 30
0.0
 10
108.393741898536
 20
215.2888470963429
 30
0.0
 10
108.5116257776973
 20
215.1245400414845
 30
0.0
  0
SPLINE
  5
267
330
1F
100
AcDbEntity
  8
0
  6
Continuous
 62
     7
370
    15
100
AcDbSpline
210
0.0
220
0.0
230
1.0
 70
     8
 71
     3
 72
    11
 73
     7
 74
     0
 42
0.000000001
 43
0.00000001
 40
0.0
 40
0.0
 40
0.0
 40
0.0
 40
0.2203120452439392
 40
0.4605131403260184
 40
0.7261932768749881
 40
1.0
 40
1.0
 40
1.0
 40
1.0
 10
109.1591313537526
 20
213.9112889841609
 30
0.0
 10
109.1304256144775
 20
213.9183425463416
 30
0.0
 10
109.0704226758078
 20
213.9330864431935
 30
0.0
 10
108.9296483236441
 20
214.0804644272524
 30
0.0
 10
108.7469682174974
 20
214.3263311026269
 30
0.0
 10
108.5908571200032
 20
214.5802213868111
 30
0.0
 10
108.5116257776973
 20
214.7090787732315
 30
0.0
  0
LINE
  5
268
330
1F
100
AcDbEntity
  8
0
  6
Continuous
 62
     7
370
    15
100
AcDbLine
 10
108.5271017138
 20
237.8888055947
 30
0.0
 11
119.7519616366
 21
237.8888055947
 31
0.0
  0
LINE
  5
269
330
1F
100
AcDbEntity
  8
0
  6
Continuous
 62
     7
370
    15
100
AcDbLine
 10
119.7519616366
 20
230.0700203652
 30
0.0
 11
119.7519616366
 21
237.8888055947
 31
0.0
  0
LINE
  5
26A
330
1F
100
AcDbEntity
  8
0
  6
Continuous
 62
     7
370
    15
100
AcDbLine
 10
108.5116257777
 20
230.0700203652
 30
0.0
 11
119.7519616366
 21
230.0700203652
 31
0.0
  0
LINE
  5
26B
330
1F
100
AcDbEntity
  8
0
  6
Continuous
 62
     7
370
    15
100
AcDbLine
 10
119.7519616366
 20
237.8888055947
 30
0.0
 11
121.2519616366
 21
238.6514355679
 31
0.0
  0
LINE
  5
26C
330
1F
100
AcDbEntity
  8
0
  6
Continuous
 62
     7
370
    15
100
AcDbLine
 10
119.7519616366
 20
230.0700203652
 30
0.0
 11
121.2519616366
 21
229.1698019693
 31
0.0
  0
LINE
  5
26D
330
1F
100
AcDbEntity
  8
0
  6
Continuous
 62
     7
370
    15
100
AcDbLine
 10
121.2519616366
 20
238.6514355679
 30
0.0
 11
121.2519616366
 21
229.1698019693
 31
0.0
  0
LINE
  5
26E
330
1F
100
AcDbEntity
  8
0
  6
Continuous
 62
     7
370
    15
100
AcDbLine
 10
119.7519616366
 20
223.7927658707
 30
0.0
 11
119.7519616366
 21
230.0700203652
 31
0.0
  0
LINE
  5
26F
330
1F
100
AcDbEntity
  8
0
  6
Continuous
 62
     7
370
    15
100
AcDbLine
 10
108.5116257777
 20
223.7927658707
 30
0.0
 11
119.7519616366
 21
223.7927658707
 31
0.0
  0
LINE
  5
270
330
1F
100
AcDbEntity
  8
0
  6
Continuous
 62
     7
370
    15
100
AcDbLine
 10
119.7519616366
 20
223.7927658707
 30
0.0
 11
121.2519616366
 21
225.2467305758
 31
0.0
  0
LINE
  5
271
330
1F
100
AcDbEntity
  8
0
  6
Continuous
 62
     7
370
    15
100
AcDbLine
 10
121.2519616366
 20
229.1698019693
 30
0.0
 11
121.2519616366
 21
225.2467305758
 31
0.0
  0
LINE
  5
272
330
1F
100
AcDbEntity
  8
0
  6
Continuous
 62
     7
370
    15
100
AcDbLine
 10
108.5271017138
 20
243.8517256235
 30
0.0
 11
119.7519616366
 21
243.8517256235
 31
0.0
  0
LINE
  5
273
330
1F
100
AcDbEntity
  8
0
  6
Continuous
 62
     7
370
    15
100
AcDbLine
 10
119.7519616366
 20
237.8888055947
 30
0.0
 11
119.7519616366
 21
243.8517256235
 31
0.0
  0
LINE
  5
274
330
1F
100
AcDbEntity
  8
0
  6
Continuous
 62
     7
370
    15
100
AcDbLine
 10
119.7519616366
 20
243.8517256235
 30
0.0
 11
121.2519616366
 21
242.3674945281
 31
0.0
  0
LINE
  5
275
330
1F
100
AcDbEntity
  8
0
  6
Continuous
 62
     7
370
    15
100
AcDbLine
 10
121.2519616366
 20
242.3674945281
 30
0.0
 11
121.2519616366
 21
238.6514355679
 31
0.0
  0
LINE
  5
276
330
1F
100
AcDbEntity
  8
0
  6
Continuous
 62
     7
370
    15
100
AcDbLine
 10
119.7519616366
 20
217.9962854661
 30
0.0
 11
119.7519616366
 21
223.7927658707
 31
0.0
  0
LINE
  5
277
330
1F
100
AcDbEntity
  8
0
  6
Continuous
 62
     7
370
    15
100
AcDbLine
 10
119.7519616366
 20
217.9962854661
 30
0.0
 11
121.2519616366
 21
218.2081472274
 31
0.0
  0
LINE
  5
278
330
1F
100
AcDbEntity
  8
0
  6
Continuous
 62
     7
370
    15
100
AcDbLine
 10
121.2519616366
 20
225.2467305758
 30
0.0
 11
121.2519616366
 21
218.2081472274
 31
0.0
  0
LINE
  5
279
330
1F
100
AcDbEntity
  8
0
  6
Continuous
 62
     7
370
    15
100
AcDbLine
 10
108.5116257777
 20
217.9962854661
 30
0.0
 11
119.7519616366
 21
217.9962854661
 31
0.0
  0
LINE
  5
27A
330
1F
100
AcDbEntity
  8
0
  6
Continuous
 62
     7
370
    15
100
AcDbLine
 10
119.7519616366
 20
243.8517256235
 30
0.0
 11
119.7519616366
 21
249.1081883161
 31
0.0
  0
LINE
  5
27B
330
1F
100
AcDbEntity
  8
0
  6
Continuous
 62
     7
370
    15
100
AcDbLine
 10
121.2519616366
 20
248.7340560472
 30
0.0
 11
119.7519616366
 21
249.1081883161
 31
0.0
  0
LINE
  5
27C
330
1F
100
AcDbEntity
  8
0
  6
Continuous
 62
     7
370
    15
100
AcDbLine
 10
121.2519616366
 20
248.7340560472
 30
0.0
 11
121.2519616366
 21
242.3674945281
 31
0.0
  0
LINE
  5
27D
330
1F
100
AcDbEntity
  8
0
  6
Continuous
 62
     7
370
    15
100
AcDbLine
 10
108.5271017138
 20
249.1081883161
 30
0.0
 11
119.7519616366
 21
249.1081883161
 31
0.0
  0
LINE
  5
27E
330
1F
100
AcDbEntity
  8
0
  6
Continuous
 62
     7
370
    15
100
AcDbLine
 10
119.7519616366
 20
214.5615604673
 30
0.0
 11
119.7519616366
 21
217.9962854661
 31
0.0
  0
LINE
  5
27F
330
1F
100
AcDbEntity
  8
0
  6
Continuous
 62
     7
370
    15
100
AcDbLine
 10
121.2519616366
 20
218.2081472274
 30
0.0
 11
121.2519616366
 21
216.0615604673
 31
0.0
  0
LINE
  5
280
330
1F
100
AcDbEntity
  8
0
  6
Continuous
 62
     7
370
    15
100
AcDbLine
 10
131.2519616366
 20
240.49582735
 30
0.0
 11
131.2519616366
 21
225.49582735
 31
0.0
  0
SPLINE
  5
281
330
1F
100
AcDbEntity
  8
0
  6
Continuous
 62
     7
370
    15
100
AcDbSpline
210
0.0
220
0.0
230
1.0
 70
    11
 71
     3
 72
    26
 73
    22
 74
     0
 42
0.000000001
 43
0.00000001
 40
0.0
 40
0.0
 40
0.0
 40
0.0
 40
0.0528161907816166
 40
0.1056030208354754
 40
0.1591576820789753
 40
0.2133001656835947
 40
0.2665833579797218
 40
0.3188926412161891
 40
0.3716328642162759
 40
0.4255238010782922
 40
0.4795193886672856
 40
0.5324287538311309
 40
0.5847606932190305
 40
0.6378540884598601
 40
0.6919309100643306
 40
0.7456854107666909
 40
0.7982562387819669
 40
0.8506515624256571
 40
0.9041239276727928
 40
0.9582726905468668
 40
1.0
 40
1.0
 40
1.0
 40
1.0
 10
124.6019616366135
 20
226.2295953702842
 30
0.0
 10
124.6197609040217
 20
226.3122018615769
 30
0.0
 10
124.6553495441555
 20
226.4773689228894
 30
0.0
 10
124.9322514907913
 20
226.7389594034153
 30
0.0
 10
125.3433903966809
 20
226.9597480997037
 30
0.0
 10
125.8636080514785
 20
227.0982767392645
 30
0.0
 10
126.4244166564425
 20
227.1211381138244
 30
0.0
 10
126.9599265538393
 20
227.0269666613081
 30
0.0
 10
127.4181782902507
 20
226.8374323995826
 30
0.0
 10
127.7524879172386
 20
226.5868528064505
 30
0.0
 10
127.9190701242802
 20
226.3210647310397
 30
0.0
 10
127.8977430758205
 20
226.0839640455993
 30
0.0
 10
127.6972123076942
 20
225.899523362411
 30
0.0
 10
127.3384934921787
 20
225.7731300873915
 30
0.0
 10
126.8543529170318
 20
225.7013591126391
 30
0.0
 10
126.3011097854625
 20
225.6767878893537
 30
0.0
 10
125.748726680681
 20
225.6939382206316
 30
0.0
 10
125.2538588913696
 20
225.7548000340971
 30
0.0
 10
124.8674327470741
 20
225.869736490454
 30
0.0
 10
124.6388484344444
 20
226.031681493885
 30
0.0
 10
124.6131473124879
 20
226.1695793048451
 30
0.0
 10
124.6019616366135
 20
226.2295953702842
 30
0.0
  0
LINE
  5
282
330
1F
100
AcDbEntity
  8
0
  6
Continuous
 62
     7
370
    15
100
AcDbLine
 10
119.7519616366
 20
249.1081883161
 30
0.0
 11
119.7519616366
 21
252.0833018345
 31
0.0
  0
LINE
  5
283
330
1F
100
AcDbEntity
  8
0
  6
Continuous
 62
     7
370
    15
100
AcDbLine
 10
121.2519616366
 20
250.5833018345
 30
0.0
 11
121.2519616366
 21
248.7340560472
 31
0.0
  0
LINE
  5
284
330
1F
100
AcDbEntity
  8
0
  6
Continuous
 62
     7
370
    15
100
AcDbLine
 10
121.2519616366
 20
216.0615604673
 30
0.0
 11
121.2519616366
 21
215.9089149452
 31
0.0
  0
LINE
  5
285
330
1F
100
AcDbEntity
  8
0
  6
Continuous
 62
     7
370
    15
100
AcDbLine
 10
119.7519616366
 20
213.9087142062
 30
0.0
 11
119.7519616366
 21
214.5615604673
 31
0.0
  0
LINE
  5
286
330
1F
100
AcDbEntity
  8
0
  6
Continuous
 62
     7
370
    15
100
AcDbLine
 10
121.2519616366
 20
215.9089149452
 30
0.0
 11
121.2519616366
 21
215.4087142062
 31
0.0
  0
LINE
  5
287
330
1F
100
AcDbEntity
  8
0
  6
Continuous
 62
     7
370
    15
100
AcDbLine
 10
187.2519616366
 20
218.99582735
 30
0.0
 11
187.2519616366
 21
246.99582735
 31
0.0
  0
SPLINE
  5
288
330
1F
100
AcDbEntity
  8
0
  6
Continuous
 62
     7
370
    15
100
AcDbSpline
210
0.0
220
0.0
230
1.0
 70
     8
 71
     3
 72
    17
 73
    13
 74
     0
 42
0.000000001
 43
0.00000001
 40
0.0
 40
0.0
 40
0.0
 40
0.0
 40
0.0911609238454795
 40
0.1829033962352754
 40
0.2765391167910394
 40
0.3708581894174803
 40
0.4620448397922703
 40
0.5539107228053914
 40
0.6479884393851618
 40
0.7428599551622386
 40
0.8294080750131781
 40
1.0
 40
1.0
 40
1.0
 40
1.0
 10
184.9768215594305
 20
214.5687957565646
 30
0.0
 10
184.9395277212596
 20
214.4861447141335
 30
0.0
 10
184.8647021340193
 20
214.3203153683421
 30
0.0
 10
184.7608380589156
 20
214.0892691703454
 30
0.0
 10
184.663537414061
 20
213.8729170656209
 30
0.0
 10
184.5755353309046
 20
213.677879869231
 30
0.0
 10
184.4974421804195
 20
213.5061423802226
 30
0.0
 10
184.4292374204933
 20
213.358190512533
 30
0.0
 10
184.37062048103
 20
213.2339361727808
 30
0.0
 10
184.3244406925425
 20
213.1400950642252
 30
0.0
 10
184.2779827513177
 20
213.0514882410227
 30
0.0
 10
184.2646954077186
 20
213.0385826462905
 30
0.0
 10
184.2558803142781
 20
213.0300208127967
 30
0.0
  0
SPLINE
  5
289
330
1F
100
AcDbEntity
  8
0
  6
Continuous
 62
     7
370
    15
100
AcDbSpline
210
0.0
220
0.0
230
1.0
 70
     8
 71
     3
 72
    16
 73
    12
 74
     0
 42
0.000000001
 43
0.00000001
 40
0.0
 40
0.0
 40
0.0
 40
0.0
 40
0.124574987250131
 40
0.252296530146054
 40
0.3770193056408669
 40
0.5060351398638149
 40
0.620445220788789
 40
0.7382392163824583
 40
0.8524079450197322
 40
0.9691919620656615
 40
1.0
 40
1.0
 40
1.0
 40
1.0
 10
184.9768215594303
 20
217.109155557915
 30
0.0
 10
185.09244855636
 20
217.1846032707398
 30
0.0
 10
185.3266230946081
 20
217.3374043793196
 30
0.0
 10
185.5866892810712
 20
217.3808144179132
 30
0.0
 10
185.7570162966355
 20
217.2725109383282
 30
0.0
 10
185.8103460514989
 20
217.0038817789998
 30
0.0
 10
185.753650815243
 20
216.5958943260499
 30
0.0
 10
185.6046019621416
 20
216.0854207012961
 30
0.0
 10
185.3716828587967
 20
215.4700837535715
 30
0.0
 10
185.1477729060306
 20
214.94776913764
 30
0.0
 10
185.0063432681075
 20
214.6342409371669
 30
0.0
 10
184.9768215594305
 20
214.5687957565646
 30
0.0
  0
SPLINE
  5
28A
330
1F
100
AcDbEntity
  8
0
  6
Continuous
 62
     7
370
    15
100
AcDbSpline
210
0.0
220
0.0
230
1.0
 70
     8
 71
     3
 72
    19
 73
    15
 74
     0
 42
0.000000001
 43
0.00000001
 40
0.0
 40
0.0
 40
0.0
 40
0.0
 40
0.0855747042399673
 40
0.173502591113236
 40
0.2591381948407603
 40
0.3475216183007442
 40
0.4288008516343783
 40
0.5126378259333354
 40
0.5907479265425515
 40
0.6711223008798144
 40
0.7494115176306012
 40
0.8298077970746404
 40
0.9137650347532584
 40
1.0
 40
1.0
 40
1.0
 40
1.0
 10
184.9768215594304
 20
221.475484781937
 30
0.0
 10
184.9033136844042
 20
221.2612973042396
 30
0.0
 10
184.7542765723564
 20
220.827032497898
 30
0.0
 10
184.5716761368632
 20
220.1661654580556
 30
0.0
 10
184.4230428447745
 20
219.5137232192273
 30
0.0
 10
184.3198777636556
 20
218.9112534526153
 30
0.0
 10
184.2604458224541
 20
218.367180167299
 30
0.0
 10
184.2454013910503
 20
217.9119704983171
 30
0.0
 10
184.2718527830695
 20
217.5384866774125
 30
0.0
 10
184.3366387357278
 20
217.2596423786621
 30
0.0
 10
184.4393943038552
 20
217.0709931742006
 30
0.0
 10
184.5795298116999
 20
216.9782913742048
 30
0.0
 10
184.7565729971412
 20
216.9785290728021
 30
0.0
 10
184.9027532489231
 20
217.06522663071
 30
0.0
 10
184.9768215594303
 20
217.109155557915
 30
0.0
  0
SPLINE
  5
28B
330
1F
100
AcDbEntity
  8
0
  6
Continuous
 62
     7
370
    15
100
AcDbSpline
210
0.0
220
0.0
230
1.0
 70
     8
 71
     3
 72
    16
 73
    12
 74
     0
 42
0.000000001
 43
0.00000001
 40
0.0
 40
0.0
 40
0.0
 40
0.0
 40
0.1248710696268438
 40
0.2528983544618345
 40
0.3779145965856658
 40
0.5072218623673398
 40
0.6220810633072327
 40
0.7403195802979555
 40
0.8552389276217862
 40
0.9727845549775295
 40
1.0
 40
1.0
 40
1.0
 40
1.0
 10
184.9922974955294
 20
228.5131519419045
 30
0.0
 10
185.1067367572702
 20
228.3335753644163
 30
0.0
 10
185.3385078237514
 20
227.9698832691827
 30
0.0
 10
185.5945089031877
 20
227.2565494402429
 30
0.0
 10
185.7606172096075
 20
226.4202936717912
 30
0.0
 10
185.8101631136012
 20
225.5091828274305
 30
0.0
 10
185.7502924412533
 20
224.5509957737028
 30
0.0
 10
185.5986044017851
 20
223.5985444090176
 30
0.0
 10
185.3633791781118
 20
222.6340573849298
 30
0.0
 10
185.1409644310323
 20
221.9302333221936
 30
0.0
 10
185.002797322665
 20
221.5474491645368
 30
0.0
 10
184.9768215594304
 20
221.475484781937
 30
0.0
  0
SPLINE
  5
28C
330
1F
100
AcDbEntity
  8
0
  6
Continuous
 62
     7
370
    15
100
AcDbSpline
210
0.0
220
0.0
230
1.0
 70
     8
 71
     3
 72
    27
 73
    23
 74
     0
 42
0.000000001
 43
0.00000001
 40
0.0
 40
0.0
 40
0.0
 40
0.0
 40
0.0317264737290001
 40
0.1390829142630488
 40
0.171904602840026
 40
0.2072804436883563
 40
0.2428391253172119
 40
0.3443479438302631
 40
0.3778973973839478
 40
0.4116205145262086
 40
0.4732565055720465
 40
0.5079730683777448
 40
0.5401729729848951
 40
0.6314982766087686
 40
0.6647275512286974
 40
0.6969605412398778
 40
0.7883041316409967
 40
0.8214916053772556
 40
0.8543440048307251
 40
0.8873365170591188
 40
0.9319665273008205
 40
1.0
 40
1.0
 40
1.0
 40
1.0
 10
184.9922974955296
 20
235.1565378725168
 30
0.0
 10
184.9639415018507
 20
235.1067858780291
 30
0.0
 10
184.8396341403907
 20
234.8886824593242
 30
0.0
 10
184.7033958602493
 20
234.563794866678
 30
0.0
 10
184.5838708543171
 20
234.1939886109789
 30
0.0
 10
184.5192180471318
 20
233.9638851405917
 30
0.0
 10
184.4226420659218
 20
233.5641491186382
 30
0.0
 10
184.3485216072496
 20
233.1363727510176
 30
0.0
 10
184.2988000835114
 20
232.6971155930827
 30
0.0
 10
184.2698105297919
 20
232.356504249506
 30
0.0
 10
184.2536844026097
 20
232.0077429286478
 30
0.0
 10
184.2511057838988
 20
231.6634601217196
 30
0.0
 10
184.2593070162528
 20
231.2421333786779
 30
0.0
 10
184.2883800371769
 20
230.8316155832497
 30
0.0
 10
184.3376438475053
 20
230.441259292876
 30
0.0
 10
184.3972588068065
 20
230.0624915974656
 30
0.0
 10
184.4762349329142
 20
229.7080857509972
 30
0.0
 10
184.5728049918145
 20
229.386741321179
 30
0.0
 10
184.6391418073356
 20
229.1961216310288
 30
0.0
 10
184.719169334684
 20
228.9977661216869
 30
0.0
 10
184.8327245359569
 20
228.7562421211072
 30
0.0
 10
184.9322173323073
 20
228.6046768323579
 30
0.0
 10
184.9922974955294
 20
228.5131519419045
 30
0.0
  0
SPLINE
  5
28D
330
1F
100
AcDbEntity
  8
0
  6
Continuous
 62
     7
370
    15
100
AcDbSpline
210
0.0
220
0.0
230
1.0
 70
     8
 71
     3
 72
    15
 73
    11
 74
     0
 42
0.000000001
 43
0.00000001
 40
0.0
 40
0.0
 40
0.0
 40
0.0
 40
0.1255505115575921
 40
0.2542743051988532
 40
0.3799729809583501
 40
0.5099861143893004
 40
0.6254721503975529
 40
0.744355960002704
 40
0.870468838476726
 40
1.0
 40
1.0
 40
1.0
 40
1.0
 10
184.9922974955296
 20
242.5318270046683
 30
0.0
 10
185.1067354214002
 20
242.2045584158984
 30
0.0
 10
185.3385036852499
 20
241.5417495432742
 30
0.0
 10
185.5944995938095
 20
240.4955688459879
 30
0.0
 10
185.7606280875648
 20
239.4266248382169
 30
0.0
 10
185.8101120332899
 20
238.4112590177826
 30
0.0
 10
185.7504649781003
 20
237.4670095757521
 30
0.0
 10
185.5933555891776
 20
236.6104467726869
 30
0.0
 10
185.3429589971736
 20
235.8146215767374
 30
0.0
 10
185.1102219917851
 20
235.3778458545746
 30
0.0
 10
184.9922974955296
 20
235.1565378725168
 30
0.0
  0
SPLINE
  5
28E
330
1F
100
AcDbEntity
  8
0
  6
Continuous
 62
     7
370
    15
100
AcDbSpline
210
0.0
220
0.0
230
1.0
 70
     8
 71
     3
 72
    19
 73
    15
 74
     0
 42
0.000000001
 43
0.00000001
 40
0.0
 40
0.0
 40
0.0
 40
0.0
 40
0.0848173163342505
 40
0.1719666277871809
 40
0.2568445119593707
 40
0.3444496558075564
 40
0.4249502760439849
 40
0.5079899722588885
 40
0.5852601899258988
 40
0.664775559479433
 40
0.7421311118706745
 40
0.8215724484076478
 40
0.9094422875434534
 40
1.0
 40
1.0
 40
1.0
 40
1.0
 10
184.9922974955296
 20
247.5293878148038
 30
0.0
 10
184.9179847863427
 20
247.54821366411
 30
0.0
 10
184.7673161899651
 20
247.5863829667987
 30
0.0
 10
184.5820700513748
 20
247.5068645960777
 30
0.0
 10
184.4306767577267
 20
247.320738219724
 30
0.0
 10
184.3248197057128
 20
247.0279978319222
 30
0.0
 10
184.2627714602346
 20
246.6386001928017
 30
0.0
 10
184.2453176305993
 20
246.1819812542172
 30
0.0
 10
184.2694748696734
 20
245.6602097122315
 30
0.0
 10
184.332098511015
 20
245.1013858852625
 30
0.0
 10
184.4327659232803
 20
244.5043924199765
 30
0.0
 10
184.5736945846842
 20
243.8702055495588
 30
0.0
 10
184.7571049523543
 20
243.1991457729245
 30
0.0
 10
184.9131165828796
 20
242.7564893531664
 30
0.0
 10
184.9922974955296
 20
242.5318270046683
 30
0.0
  0
SPLINE
  5
28F
330
1F
100
AcDbEntity
  8
0
  6
Continuous
 62
     7
370
    15
100
AcDbSpline
210
0.0
220
0.0
230
1.0
 70
     8
 71
     3
 72
    15
 73
    11
 74
     0
 42
0.000000001
 43
0.00000001
 40
0.0
 40
0.0
 40
0.0
 40
0.0
 40
0.125552393856284
 40
0.2542782239303582
 40
0.3799765823769456
 40
0.5099893772574147
 40
0.6254752754523935
 40
0.744358927995484
 40
0.8704703861780991
 40
1.0
 40
1.0
 40
1.0
 40
1.0
 10
184.9922974955296
 20
250.9644428005171
 30
0.0
 10
185.106737061174
 20
250.6811848902358
 30
0.0
 10
185.338508743144
 20
250.1075095015927
 30
0.0
 10
185.5945051541084
 20
249.3413011927832
 30
0.0
 10
185.7606310865783
 20
248.6658513577642
 30
0.0
 10
185.8101118318147
 20
248.1409677230975
 30
0.0
 10
185.7504620842885
 20
247.7639752780951
 30
0.0
 10
185.5933510682822
 20
247.5331204765499
 30
0.0
 10
185.3429550751547
 20
247.4351516016413
 30
0.0
 10
185.1102206463402
 20
247.4976969807187
 30
0.0
 10
184.9922974955296
 20
247.5293878148038
 30
0.0
  0
SPLINE
  5
290
330
1F
100
AcDbEntity
  8
0
  6
Continuous
 62
     7
370
    15
100
AcDbSpline
210
0.0
220
0.0
230
1.0
 70
     8
 71
     3
 72
    16
 73
    12
 74
     0
 42
0.000000001
 43
0.00000001
 40
0.0
 40
0.0
 40
0.0
 40
0.0
 40
0.0074983323643893
 40
0.1293766547165859
 40
0.255099142727663
 40
0.3720867371881904
 40
0.4924734989783204
 40
0.6095904086319583
 40
0.7298652067805197
 40
0.8628980090855666
 40
1.0
 40
1.0
 40
1.0
 40
1.0
 10
184.3358556062963
 20
252.8274540275372
 30
0.0
 10
184.3337705357699
 20
252.8318184676034
 30
0.0
 10
184.2977946098641
 20
252.9071227656829
 30
0.0
 10
184.2658062689809
 20
252.9587962339302
 30
0.0
 10
184.2445576241767
 20
252.9705967630927
 30
0.0
 10
184.2696810180824
 20
252.8669783075707
 30
0.0
 10
184.3320488510949
 20
252.6732564685792
 30
0.0
 10
184.4327861936494
 20
252.3881146982978
 30
0.0
 10
184.5736965721232
 20
252.0105642472653
 30
0.0
 10
184.7571110351465
 20
251.5379771413472
 30
0.0
 10
184.9131186658882
 20
251.1575312027665
 30
0.0
 10
184.9922974955296
 20
250.9644428005171
 30
0.0
  0
LINE
  5
291
330
1F
100
AcDbEntity
  8
0
  6
Continuous
 62
     7
370
    15
100
AcDbLine
 10
184.9922974955
 20
228.5131519419
 30
0.0
 11
173.7519616366
 21
228.5131519419
 31
0.0
  0
LINE
  5
292
330
1F
100
AcDbEntity
  8
0
  6
Continuous
 62
     7
370
    15
100
AcDbLine
 10
173.7519616366
 20
235.1565378725
 30
0.0
 11
173.7519616366
 21
228.5131519419
 31
0.0
  0
LINE
  5
293
330
1F
100
AcDbEntity
  8
0
  6
Continuous
 62
     7
370
    15
100
AcDbLine
 10
184.9922974955
 20
235.1565378725
 30
0.0
 11
173.7519616366
 21
235.1565378725
 31
0.0
  0
LINE
  5
294
330
1F
100
AcDbEntity
  8
0
  6
Continuous
 62
     7
370
    15
100
AcDbLine
 10
173.7519616366
 20
228.5131519419
 30
0.0
 11
172.2519616366
 21
229.811904262
 31
0.0
  0
LINE
  5
295
330
1F
100
AcDbEntity
  8
0
  6
Continuous
 62
     7
370
    15
100
AcDbLine
 10
173.7519616366
 20
235.1565378725
 30
0.0
 11
172.2519616366
 21
233.963795399
 31
0.0
  0
LINE
  5
296
330
1F
100
AcDbEntity
  8
0
  6
Continuous
 62
     7
370
    15
100
AcDbLine
 10
172.2519616366
 20
229.811904262
 30
0.0
 11
172.2519616366
 21
233.963795399
 31
0.0
  0
LINE
  5
297
330
1F
100
AcDbEntity
  8
0
  6
Continuous
 62
     7
370
    15
100
AcDbLine
 10
173.7519616366
 20
242.5318270047
 30
0.0
 11
173.7519616366
 21
235.1565378725
 31
0.0
  0
LINE
  5
298
330
1F
100
AcDbEntity
  8
0
  6
Continuous
 62
     7
370
    15
100
AcDbLine
 10
184.9922974955
 20
242.5318270047
 30
0.0
 11
173.7519616366
 21
242.5318270047
 31
0.0
  0
LINE
  5
299
330
1F
100
AcDbEntity
  8
0
  6
Continuous
 62
     7
370
    15
100
AcDbLine
 10
173.7519616366
 20
242.5318270047
 30
0.0
 11
172.2519616366
 21
242.9195036309
 31
0.0
  0
LINE
  5
29A
330
1F
100
AcDbEntity
  8
0
  6
Continuous
 62
     7
370
    15
100
AcDbLine
 10
172.2519616366
 20
233.963795399
 30
0.0
 11
172.2519616366
 21
242.9195036309
 31
0.0
  0
LINE
  5
29B
330
1F
100
AcDbEntity
  8
0
  6
Continuous
 62
     7
370
    15
100
AcDbLine
 10
184.9768215594
 20
221.4754847819
 30
0.0
 11
173.7519616366
 21
221.4754847819
 31
0.0
  0
LINE
  5
29C
330
1F
100
AcDbEntity
  8
0
  6
Continuous
 62
     7
370
    15
100
AcDbLine
 10
173.7519616366
 20
228.5131519419
 30
0.0
 11
173.7519616366
 21
221.4754847819
 31
0.0
  0
LINE
  5
29D
330
1F
100
AcDbEntity
  8
0
  6
Continuous
 62
     7
370
    15
100
AcDbLine
 10
173.7519616366
 20
221.4754847819
 30
0.0
 11
172.2519616366
 21
221.2807402562
 31
0.0
  0
LINE
  5
29E
330
1F
100
AcDbEntity
  8
0
  6
Continuous
 62
     7
370
    15
100
AcDbLine
 10
172.2519616366
 20
221.2807402562
 30
0.0
 11
172.2519616366
 21
229.811904262
 31
0.0
  0
LINE
  5
29F
330
1F
100
AcDbEntity
  8
0
  6
Continuous
 62
     7
370
    15
100
AcDbLine
 10
173.7519616366
 20
247.5651766117
 30
0.0
 11
173.7519616366
 21
242.5318270047
 31
0.0
  0
LINE
  5
2A0
330
1F
100
AcDbEntity
  8
0
  6
Continuous
 62
     7
370
    15
100
AcDbLine
 10
172.2519616366
 20
242.9195036309
 30
0.0
 11
172.2519616366
 21
246.0651766117
 31
0.0
  0
LINE
  5
2A1
330
1F
100
AcDbEntity
  8
0
  6
Continuous
 62
     7
370
    15
100
AcDbLine
 10
173.7519616366
 20
221.4754847819
 30
0.0
 11
173.7519616366
 21
216.9841156576
 31
0.0
  0
LINE
  5
2A2
330
1F
100
AcDbEntity
  8
0
  6
Continuous
 62
     7
370
    15
100
AcDbLine
 10
172.2519616366
 20
218.4841156576
 30
0.0
 11
172.2519616366
 21
221.2807402562
 31
0.0
  0
LINE
  5
2A3
330
1F
100
AcDbEntity
  8
0
  6
Continuous
 62
     7
370
    15
100
AcDbLine
 10
173.7519616366
 20
250.9644428005
 30
0.0
 11
173.7519616366
 21
247.5651766117
 31
0.0
  0
LINE
  5
2A4
330
1F
100
AcDbEntity
  8
0
  6
Continuous
 62
     7
370
    15
100
AcDbLine
 10
173.7519616366
 20
250.9644428005
 30
0.0
 11
172.2519616366
 21
250.2139480231
 31
0.0
  0
LINE
  5
2A5
330
1F
100
AcDbEntity
  8
0
  6
Continuous
 62
     7
370
    15
100
AcDbLine
 10
172.2519616366
 20
246.0651766117
 30
0.0
 11
172.2519616366
 21
250.2139480231
 31
0.0
  0
LINE
  5
2A6
330
1F
100
AcDbEntity
  8
0
  6
Continuous
 62
     7
370
    15
100
AcDbLine
 10
184.9922974955
 20
250.9644428005
 30
0.0
 11
173.7519616366
 21
250.9644428005
 31
0.0
  0
LINE
  5
2A7
330
1F
100
AcDbEntity
  8
0
  6
Continuous
 62
     7
370
    15
100
AcDbLine
 10
162.2519616366
 20
225.49582735
 30
0.0
 11
162.2519616366
 21
240.49582735
 31
0.0
  0
SPLINE
  5
2A8
330
1F
100
AcDbEntity
  8
0
  6
Continuous
 62
     7
370
    15
100
AcDbSpline
210
0.0
220
0.0
230
1.0
 70
    11
 71
     3
 72
    26
 73
    22
 74
     0
 42
0.000000001
 43
0.00000001
 40
0.0
 40
0.0
 40
0.0
 40
0.0
 40
0.0528161907816165
 40
0.1056030208354754
 40
0.159157682078975
 40
0.2133001656835944
 40
0.2665833579797215
 40
0.3188926412161891
 40
0.3716328642162759
 40
0.4255238010782916
 40
0.4795193886672848
 40
0.5324287538311308
 40
0.58476069321903
 40
0.63785408845986
 40
0.6919309100643302
 40
0.7456854107666905
 40
0.7982562387819664
 40
0.8506515624256568
 40
0.9041239276727928
 40
0.9582726905468664
 40
1.0
 40
1.0
 40
1.0
 40
1.0
 10
168.9019616366134
 20
237.9503791948891
 30
0.0
 10
168.8841623692052
 20
237.8102782806152
 30
0.0
 10
168.8485737290714
 20
237.5301543347155
 30
0.0
 10
168.5716717824356
 20
237.1260491908312
 30
0.0
 10
168.160532876546
 20
236.8002323800009
 30
0.0
 10
167.6403152217484
 20
236.6027466726886
 30
0.0
 10
167.0795066167845
 20
236.5705294129698
 30
0.0
 10
166.5439967193876
 20
236.7039179363767
 30
0.0
 10
166.0857449829762
 20
236.9789082873385
 30
0.0
 10
165.7514353559883
 20
237.358464024289
 30
0.0
 10
165.5848531489467
 20
237.7877478454067
 30
0.0
 10
165.6061801974064
 20
238.2048040202676
 30
0.0
 10
165.8067109655327
 20
238.5647919919097
 30
0.0
 10
166.1654297810481
 20
238.8425093614206
 30
0.0
 10
166.6495703561951
 20
239.0200335611918
 30
0.0
 10
167.2028134877644
 20
239.0859388313661
 30
0.0
 10
167.7551965925459
 20
239.0397071974966
 30
0.0
 10
168.2500643818573
 20
238.8860981708176
 30
0.0
 10
168.6364905261528
 20
238.6276476247133
 30
0.0
 10
168.8650748387825
 20
238.3022849809507
 30
0.0
 10
168.890775960739
 20
238.0570922817577
 30
0.0
 10
168.9019616366134
 20
237.9503791948891
 30
0.0
  0
LINE
  5
2A9
330
1F
100
AcDbEntity
  8
0
  6
Continuous
 62
     7
370
    15
100
AcDbLine
 10
173.7519616366
 20
216.9841156576
 30
0.0
 11
173.7519616366
 21
214.5687957566
 31
0.0
  0
LINE
  5
2AA
330
1F
100
AcDbEntity
  8
0
  6
Continuous
 62
     7
370
    15
100
AcDbLine
 10
172.2519616366
 20
215.4828160536
 30
0.0
 11
173.7519616366
 21
214.5687957566
 31
0.0
  0
LINE
  5
2AB
330
1F
100
AcDbEntity
  8
0
  6
Continuous
 62
     7
370
    15
100
AcDbLine
 10
172.2519616366
 20
215.4828160536
 30
0.0
 11
172.2519616366
 21
218.4841156576
 31
0.0
  0
LINE
  5
2AC
330
1F
100
AcDbEntity
  8
0
  6
Continuous
 62
     7
370
    15
100
AcDbLine
 10
184.9768215594
 20
214.5687957566
 30
0.0
 11
173.7519616366
 21
214.5687957566
 31
0.0
  0
LINE
  5
2AD
330
1F
100
AcDbEntity
  8
0
  6
Continuous
 62
     7
370
    15
100
AcDbLine
 10
173.7519616366
 20
252.9629428428
 30
0.0
 11
173.7519616366
 21
250.9644428005
 31
0.0
  0
LINE
  5
2AE
330
1F
100
AcDbEntity
  8
0
  6
Continuous
 62
     7
370
    15
100
AcDbLine
 10
172.2519616366
 20
250.2139480231
 30
0.0
 11
172.2519616366
 21
251.4629428428
 31
0.0
  0
LINE
  5
2AF
330
1F
100
AcDbEntity
  8
0
  6
Continuous
 62
     7
370
    15
100
AcDbLine
 10
173.7519616366
 20
214.5687957566
 30
0.0
 11
173.7519616366
 21
213.0283505165
 31
0.0
  0
LINE
  5
2B0
330
1F
100
AcDbEntity
  8
0
  6
Continuous
 62
     7
370
    15
100
AcDbLine
 10
172.2519616366
 20
214.5283505165
 30
0.0
 11
172.2519616366
 21
215.4828160536
 31
0.0
  0
SPLINE
  5
2B1
330
1F
100
AcDbEntity
  8
0
  6
Continuous
 62
     7
370
    15
100
AcDbSpline
210
0.0
220
0.0
230
1.0
 70
     8
 71
     3
 72
    38
 73
    34
 74
     0
 42
0.000000001
 43
0.00000001
 40
0.0
 40
0.0
 40
0.0
 40
0.0
 40
0.0033694080477948
 40
0.0282158711457907
 40
0.0787337779215064
 40
0.1044495881700779
 40
0.129897154994044
 40
0.1815348462532086
 40
0.2077628900056621
 40
0.2354631667020032
 40
0.2917512886686677
 40
0.3204079833936506
 40
0.3487259832725335
 40
0.3772588941511482
 40
0.4064996262792981
 40
0.4359987331329279
 40
0.4624403914515898
 40
0.5163225398687727
 40
0.5438402393080584
 40
0.5689437513037909
 40
0.6199668259444314
 40
0.6459316765065529
 40
0.6718601129049784
 40
0.7244918379287671
 40
0.7512370745580584
 40
0.7790889783292855
 40
0.835697325553776
 40
0.8645260393766322
 40
0.892770848251047
 40
0.9212344815645386
 40
0.9504253585224238
 40
0.9798846790374389
 40
1.0
 40
1.0
 40
1.0
 40
1.0
 10
143.7519616366135
 20
229.6500303285105
 30
0.0
 10
143.7468314512823
 20
229.6499809810225
 30
0.0
 10
143.7038705969701
 20
229.6495677385947
 30
0.0
 10
143.5849589445697
 20
229.6442696506378
 30
0.0
 10
143.4349605390014
 20
229.6336902524038
 30
0.0
 10
143.2906725825294
 20
229.6183735140356
 30
0.0
 10
143.1497750510895
 20
229.6008201589703
 30
0.0
 10
143.0166861761923
 20
229.580798980312
 30
0.0
 10
142.8918610539174
 20
229.5601866635393
 30
0.0
 10
142.7700395836209
 20
229.5393297382211
 30
0.0
 10
142.6599079239854
 20
229.5203924645978
 30
0.0
 10
142.566293908864
 20
229.5064509937982
 30
0.0
 10
142.5046835199383
 20
229.4990840464654
 30
0.0
 10
142.4523243023779
 20
229.4953934974033
 30
0.0
 10
142.409720577551
 20
229.4959720438627
 30
0.0
 10
142.3790120921898
 20
229.5012168009252
 30
0.0
 10
142.3532379792699
 20
229.5140118582034
 30
0.0
 10
142.3478740365708
 20
229.535382652372
 30
0.0
 10
142.3627612499769
 20
229.5648411187944
 30
0.0
 10
142.3896925528577
 20
229.5983866715682
 30
0.0
 10
142.4337336616282
 20
229.6378917987683
 30
0.0
 10
142.4946176749931
 20
229.682450392017
 30
0.0
 10
142.5672509209077
 20
229.7302732733496
 30
0.0
 10
142.6562772797632
 20
229.7813430481484
 30
0.0
 10
142.7611984122259
 20
229.8335958715466
 30
0.0
 10
142.8796519793944
 20
229.8870579552534
 30
0.0
 10
143.0148214130737
 20
229.9388546111553
 30
0.0
 10
143.162393182805
 20
229.9845037080692
 30
0.0
 10
143.2789352698645
 20
230.0148491318327
 30
0.0
 10
143.4006842901776
 20
230.0405647890869
 30
0.0
 10
143.5281914139391
 20
230.0606958592875
 30
0.0
 10
143.6461105141227
 20
230.073725624461
 30
0.0
 10
143.7214087531193
 20
230.0771266804992
 30
0.0
 10
143.7519616366135
 20
230.0785066871272
 30
0.0
  0
LINE
  5
2B2
330
1F
100
AcDbEntity
  8
0
  6
Continuous
 62
     7
370
    15
100
AcDbLine
 10
143.7519616366
 20
239.39582735
 30
0.0
 11
143.7519616366
 21
220.39582735
 31
0.0
  0
LINE
  5
2B3
330
1F
100
AcDbEntity
  8
0
  6
Continuous
 62
     7
370
    15
100
AcDbLine
 10
151.7519616366
 20
239.39582735
 30
0.0
 11
143.7519616366
 21
239.39582735
 31
0.0
  0
LINE
  5
2B4
330
1F
100
AcDbEntity
  8
0
  6
Continuous
 62
     7
370
    15
100
AcDbLine
 10
143.7519616366
 20
220.39582735
 30
0.0
 11
151.7519616366
 21
220.39582735
 31
0.0
  0
LINE
  5
2B5
330
1F
100
AcDbEntity
  8
0
  6
Continuous
 62
     7
370
    15
100
AcDbLine
 10
135.2519616366
 20
239.39582735
 30
0.0
 11
135.2519616366
 21
223.0938002304
 31
0.0
  0
LINE
  5
2B6
330
1F
100
AcDbEntity
  8
0
  6
Continuous
 62
     7
370
    15
100
AcDbLine
 10
141.7519616366
 20
239.39582735
 30
0.0
 11
135.2519616366
 21
239.39582735
 31
0.0
  0
LINE
  5
2B7
330
1F
100
AcDbEntity
  8
0
  6
Continuous
 62
     7
370
    15
100
AcDbLine
 10
141.7519616366
 20
220.260744081
 30
0.0
 11
141.7519616366
 21
239.39582735
 31
0.0
  0
ARC
  5
2B8
330
1F
100
AcDbEntity
  8
0
  6
Continuous
 62
     7
370
    15
100
AcDbCircle
 10
146.7519616366
 20
200.89582735
 30
0.0
 40
20.00000000000002
100
AcDbArc
 50
104.4775121859
 51
137.731101004
  0
LINE
  5
2B9
330
1F
100
AcDbEntity
  8
0
  6
Continuous
 62
     7
370
    15
100
AcDbLine
 10
132.7949841463
 20
213.8613693492
 30
0.0
 11
131.952035492
 21
214.3480459817
 31
0.0
  0
ARC
  5
2BA
330
1F
100
AcDbEntity
  8
0
  6
Continuous
 62
     7
370
    15
100
AcDbCircle
 10
146.7519616366
 20
200.89582735
 30
0.0
 40
19.05000000000001
100
AcDbArc
 50
137.1089932563
 51
162.8910067437
  0
LINE
  5
2BB
330
1F
100
AcDbEntity
  8
0
  6
Continuous
 62
     7
370
    15
100
AcDbLine
 10
127.702035492
 20
206.9868300495
 30
0.0
 11
128.5449841463
 21
206.5001534171
 31
0.0
  0
ARC
  5
2BC
330
1F
100
AcDbEntity
  8
0
  6
Continuous
 62
     7
370
    15
100
AcDbCircle
 10
146.7519616366
 20
200.89582735
 30
0.0
 40
20.00000000000002
100
AcDbArc
 50
162.268898996
 51
257.731101004
  0
LINE
  5
2BD
330
1F
100
AcDbEntity
  8
0
  6
Continuous
 62
     7
370
    15
100
AcDbLine
 10
142.5019616366
 20
182.3259592837
 30
0.0
 11
142.5019616366
 21
181.3526060188
 31
0.0
  0
ARC
  5
2BE
330
1F
100
AcDbEntity
  8
0
  6
Continuous
 62
     7
370
    15
100
AcDbCircle
 10
146.7519616366
 20
200.89582735
 30
0.0
 40
19.05000000000001
100
AcDbArc
 50
257.1089932563
 51
282.8910067437
  0
LINE
  5
2BF
330
1F
100
AcDbEntity
  8
0
  6
Continuous
 62
     7
370
    15
100
AcDbLine
 10
151.0019616366
 20
181.3526060188
 30
0.0
 11
151.0019616366
 21
182.3259592837
 31
0.0
  0
ARC
  5
2C0
330
1F
100
AcDbEntity
  8
0
  6
Continuous
 62
     7
370
    15
100
AcDbCircle
 10
146.7519616366
 20
200.89582735
 30
0.0
 40
19.99999999999999
100
AcDbArc
 50
282.268898996
 51
17.731101004
  0
LINE
  5
2C1
330
1F
100
AcDbEntity
  8
0
  6
Continuous
 62
     7
370
    15
100
AcDbLine
 10
164.958939127
 20
206.5001534171
 30
0.0
 11
165.8018877812
 21
206.9868300495
 31
0.0
  0
ARC
  5
2C2
330
1F
100
AcDbEntity
  8
0
  6
Continuous
 62
     7
370
    15
100
AcDbCircle
 10
146.7519616366
 20
200.89582735
 30
0.0
 40
19.04999999999999
100
AcDbArc
 50
17.1089932563
 51
42.8910067437
  0
LINE
  5
2C3
330
1F
100
AcDbEntity
  8
0
  6
Continuous
 62
     7
370
    15
100
AcDbLine
 10
161.5518877812
 20
214.3480459817
 30
0.0
 11
160.708939127
 21
213.8613693492
 31
0.0
  0
ARC
  5
2C4
330
1F
100
AcDbEntity
  8
0
  6
Continuous
 62
     7
370
    15
100
AcDbCircle
 10
146.7519616366
 20
200.89582735
 30
0.0
 40
19.99999999999999
100
AcDbArc
 50
42.268898996
 51
75.5224878141
  0
LINE
  5
2C5
330
1F
100
AcDbEntity
  8
0
  6
Continuous
 62
     7
370
    15
100
AcDbLine
 10
151.7519616366
 20
239.39582735
 30
0.0
 11
151.7519616366
 21
220.260744081
 31
0.0
  0
ARC
  5
2C6
330
1F
100
AcDbEntity
  8
0
  6
Continuous
 62
     7
370
    15
100
AcDbCircle
 10
146.7519616366
 20
200.89582735
 30
0.0
 40
25.00000000000001
100
AcDbArc
 50
319.4641978887
 51
62.6128924973
  0
LINE
  5
2C7
330
1F
100
AcDbEntity
  8
0
  6
Continuous
 62
     7
370
    15
100
AcDbLine
 10
165.7519616366
 20
172.39582735
 30
0.0
 11
165.7519616366
 21
184.6477505407
 31
0.0
  0
LINE
  5
2C8
330
1F
100
AcDbEntity
  8
0
  6
Continuous
 62
     7
370
    15
100
AcDbLine
 10
153.2519616366
 20
172.39582735
 30
0.0
 11
165.7519616366
 21
172.39582735
 31
0.0
  0
LINE
  5
2C9
330
1F
100
AcDbEntity
  8
0
  6
Continuous
 62
     7
370
    15
100
AcDbLine
 10
153.2519616366
 20
172.89582735
 30
0.0
 11
153.2519616366
 21
172.39582735
 31
0.0
  0
LINE
  5
2CA
330
1F
100
AcDbEntity
  8
0
  6
Continuous
 62
     7
370
    15
100
AcDbLine
 10
140.2519616366
 20
172.89582735
 30
0.0
 11
153.2519616366
 21
172.89582735
 31
0.0
  0
LINE
  5
2CB
330
1F
100
AcDbEntity
  8
0
  6
Continuous
 62
     7
370
    15
100
AcDbLine
 10
140.2519616366
 20
172.39582735
 30
0.0
 11
140.2519616366
 21
172.89582735
 31
0.0
  0
LINE
  5
2CC
330
1F
100
AcDbEntity
  8
0
  6
Continuous
 62
     7
370
    15
100
AcDbLine
 10
127.7519616366
 20
172.39582735
 30
0.0
 11
140.2519616366
 21
172.39582735
 31
0.0
  0
LINE
  5
2CD
330
1F
100
AcDbEntity
  8
0
  6
Continuous
 62
     7
370
    15
100
AcDbLine
 10
127.7519616366
 20
184.6477505407
 30
0.0
 11
127.7519616366
 21
172.39582735
 31
0.0
  0
ARC
  5
2CE
330
1F
100
AcDbEntity
  8
0
  6
Continuous
 62
     7
370
    15
100
AcDbCircle
 10
146.7519616366
 20
200.89582735
 30
0.0
 40
25.00000000000001
100
AcDbArc
 50
117.3871075027
 51
220.5358021113
  0
LINE
  5
2CF
330
1F
100
AcDbEntity
  8
0
  6
Continuous
 62
     7
370
    15
100
AcDbLine
 10
158.2519616366
 20
223.0938002304
 30
0.0
 11
158.2519616366
 21
239.39582735
 31
0.0
  0
LINE
  5
2D0
330
1F
100
AcDbEntity
  8
0
  6
Continuous
 62
     7
370
    15
100
AcDbLine
 10
158.2519616366
 20
239.39582735
 30
0.0
 11
151.7519616366
 21
239.39582735
 31
0.0
  0
LINE
  5
2D1
330
1F
100
AcDbEntity
  8
0
  6
Continuous
 62
     8
370
    15
100
AcDbLine
 10
120.4891505922
 20
215.2987494229
 30
0.0
 11
121.2519616366
 21
215.9089149452
 31
0.0
  0
LINE
  5
2D2
330
1F
100
AcDbEntity
  8
0
  6
Continuous
 62
     8
370
    15
100
AcDbLine
 10
108.5116257777
 20
214.7090787732
 30
0.0
 11
108.8562326349
 21
214.7090787732
 31
0.0
  0
DIMENSION
  5
2D3
330
1F
100
AcDbEntity
  8
DIM
100
AcDbDimension
  2
_D_8
 10
127.7519616366
 20
160.39582735
 30
0.0
 11
146.7519616366
 21
160.39582735
 31
0.0
 70
   160
  1
<>
 71
     2
 42
-1.0
  3
SLDDIMSTYLE1
100
AcDbAlignedDimension
 13
165.7519616366
 23
172.39582735
 33
0.0
 14
127.7519616366
 24
172.39582735
 34
0.0
100
AcDbRotatedDimension
  0
DIMENSION
  5
2DD
330
1F
100
AcDbEntity
  8
DIM
100
AcDbDimension
  2
_D_9
 10
192.0397180808
 20
172.39582735
 30
0.0
 11
192.0397180808
 21
186.64582735
 31
0.0
 70
   160
  1
<>
 71
     2
 42
-1.0
  3
SLDDIMSTYLE1
100
AcDbAlignedDimension
 13
166.8019616366
 23
200.89582735
 33
0.0
 14
140.2519616366
 24
172.39582735
 34
0.0
 50
90.0
100
AcDbRotatedDimension
  0
DIMENSION
  5
2E7
330
1F
100
AcDbEntity
  8
DIM
100
AcDbDimension
  2
_D_10
 10
106.2519616366
 20
260.0418690462
 30
0.0
 11
146.7519616366
 21
260.0418690462
 31
0.0
 70
   160
  1
<>
 71
     2
 42
-1.0
  3
SLDDIMSTYLE1
100
AcDbAlignedDimension
 13
187.2519616366
 23
246.99582735
 33
0.0
 14
106.2519616366
 24
246.99582735
 34
0.0
100
AcDbRotatedDimension
  0
DIMENSION
  5
2F1
330
1F
100
AcDbEntity
  8
DIM
100
AcDbDimension
  2
_D_11
 10
214.6438688512
 20
251.4304555734
 30
0.0
 11
214.6438688512
 21
211.9131414617
 31
0.0
 70
   160
  1
<>
 71
     2
 42
-1.0
  3
SLDDIMSTYLE2
100
AcDbAlignedDimension
 13
140.2519616366
 23
172.39582735
 33
0.0
 14
119.7519616366
 24
251.4304555734
 34
0.0
 50
90.0
100
AcDbRotatedDimension
  0
DIMENSION
  5
2FC
330
1F
100
AcDbEntity
  8
DIM
100
AcDbDimension
  2
_D_12
 10
163.2490263277
 20
191.3695816793
 30
0.0
 11
90.3423504063
 21
229.4152620297
 31
0.0
 70
   163
  1
<>
 71
     1
 42
-1.0
  3
SLDDIMSTYLE3
100
AcDbDiametricDimension
 15
130.2548969456
 25
210.4220730207
 35
0.0
 40
0.0
  0
DIMENSION
  5
307
330
1F
100
AcDbEntity
  8
DIM
 62
     7
100
AcDbDimension
  2
_D_13
 10
203.7519616366
 20
172.39582735
 30
0.0
 11
203.7519616366
 21
205.89582735
 31
0.0
 70
   160
  1
<>
 71
     2
 42
-1.0
  3
SLDDIMSTYLE1
100
AcDbAlignedDimension
 13
141.7519616366
 23
239.39582735
 33
0.0
 14
140.2519616366
 24
172.39582735
 34
0.0
 50
90.0
100
AcDbRotatedDimension
  0
INSERT
  5
31C
330
1F
100
AcDbEntity
  8
DIM
100
AcDbBlockReference
  2
SW_CENTERMARKSYMBOL_8
 10
146.7519616366
 20
200.89582735
 30
0.0
  0
LINE
  5
31D
330
1F
100
AcDbEntity
  8
0
  6
Continuous
 62
     7
370
    15
100
AcDbLine
 10
344.3565271257
 20
266.7495280075
 30
0.0
 11
342.5386267657
 21
267.7989795471
 31
0.0
  0
LINE
  5
31E
330
1F
100
AcDbEntity
  8
0
  6
Continuous
 62
     7
370
    15
100
AcDbLine
 10
378.4603019238
 20
243.149603153
 30
0.0
 11
372.5921392577
 21
246.5372213526
 31
0.0
  0
LINE
  5
31F
330
1F
100
AcDbEntity
  8
0
  6
Continuous
 62
     7
370
    15
100
AcDbLine
 10
361.6652355998
 20
226.3618288579
 30
0.0
 11
367.4498589435
 21
223.0224368825
 31
0.0
  0
LINE
  5
320
330
1F
100
AcDbEntity
  8
0
  6
Continuous
 62
     7
370
    15
100
AcDbLine
 10
365.2626301916
 20
239.7178570162
 30
0.0
 11
364.4672643531
 21
239.2585528156
 31
0.0
  0
LINE
  5
321
330
1F
100
AcDbEntity
  8
0
  6
Continuous
 62
     7
370
    15
100
AcDbLine
 10
363.1416546222
 20
236.9622806049
 30
0.0
 11
363.1416546222
 21
236.0438214791
 31
0.0
  0
LINE
  5
322
330
1F
100
AcDbEntity
  8
0
  6
Continuous
 62
     7
370
    15
100
AcDbLine
 10
371.0920519075
 20
246.3885115698
 30
0.0
 11
370.296686069
 21
245.9292073692
 31
0.0
  0
LINE
  5
323
330
1F
100
AcDbEntity
  8
0
  6
Continuous
 62
     7
370
    15
100
AcDbLine
 10
361.0437933552
 20
228.6538224031
 30
0.0
 11
361.0437933552
 21
227.7353632773
 31
0.0
  0
LINE
  5
324
330
1F
100
AcDbEntity
  8
0
  6
Continuous
 62
     7
370
    15
100
AcDbLine
 10
384.3115520574
 20
244.4454508297
 30
0.0
 11
378.7383251981
 21
247.6628062122
 31
0.0
  0
LINE
  5
325
330
1F
100
AcDbEntity
  8
0
  6
Continuous
 62
     7
370
    15
100
AcDbLine
 10
364.5278334287
 20
221.2827704093
 30
0.0
 11
370.0983673461
 21
218.066969629
 31
0.0
  0
LINE
  5
326
330
1F
100
AcDbEntity
  8
0
  6
Continuous
 62
     7
370
    15
100
AcDbLine
 10
362.722079636
 20
233.1221407941
 30
0.0
 11
362.9494638088
 21
232.9908747052
 31
0.0
  0
LINE
  5
327
330
1F
100
AcDbEntity
  8
0
  6
Continuous
 62
     7
370
    15
100
AcDbLine
 10
368.3469627797
 20
242.8649940607
 30
0.0
 11
368.3466225071
 21
242.8651904959
 31
0.0
  0
LINE
  5
328
330
1F
100
AcDbEntity
  8
0
  6
Continuous
 62
     7
370
    15
100
AcDbLine
 10
377.2382378478
 20
247.5140964294
 30
0.0
 11
376.4428720093
 21
247.0547922288
 31
0.0
  0
LINE
  5
329
330
1F
100
AcDbEntity
  8
0
  6
Continuous
 62
     7
370
    15
100
AcDbLine
 10
363.9063911841
 20
223.5747639545
 30
0.0
 11
363.9063911841
 21
222.6563048287
 31
0.0
  0
LINE
  5
32A
330
1F
100
AcDbEntity
  8
0
  6
Continuous
 62
     7
370
    15
100
AcDbLine
 10
387.3880615356
 20
239.2429038144
 30
0.0
 11
386.0806054702
 21
239.9976821351
 31
0.0
  0
LINE
  5
32B
330
1F
100
AcDbEntity
  8
0
  6
Continuous
 62
     7
370
    15
100
AcDbLine
 10
361.0319742459
 20
235.0937201057
 30
0.0
 11
361.6565752708
 21
234.733145609
 31
0.0
  0
LINE
  5
32C
330
1F
100
AcDbEntity
  8
0
  6
Continuous
 62
     7
370
    15
100
AcDbLine
 10
366.418688235
 20
242.9822610232
 30
0.0
 11
365.7940872101
 21
243.3428355198
 31
0.0
  0
LINE
  5
32D
330
1F
100
AcDbEntity
  8
0
  6
Continuous
 62
     7
370
    15
100
AcDbLine
 10
359.0406389832
 20
209.6401120102
 30
0.0
 11
359.0406389832
 21
256.1829382877
 31
0.0
  0
SPLINE
  5
32E
330
1F
100
AcDbEntity
  8
0
  6
Continuous
 62
     7
370
    15
100
AcDbSpline
210
0.0
220
0.0
230
1.0
 70
     8
 71
     3
 72
    16
 73
    12
 74
     0
 42
0.000000001
 43
0.00000001
 40
0.0
 40
0.0
 40
0.0
 40
0.0
 40
0.1275060373172571
 40
0.2585183092785135
 40
0.3861150866386599
 40
0.5178061066661931
 40
0.6389119059862218
 40
0.7638287312147711
 40
0.8802125328485481
 40
0.9999700951400926
 40
1.0
 40
1.0
 40
1.0
 40
1.0
 10
339.6373350670394
 20
266.8976775973244
 30
0.0
 10
339.7773655081496
 20
266.9942692454549
 30
0.0
 10
340.0612770283017
 20
267.1901086746341
 30
0.0
 10
340.4984503790202
 20
267.4408660429867
 30
0.0
 10
340.935546888668
 20
267.6505339071979
 30
0.0
 10
341.3463150168707
 20
267.8013020281086
 30
0.0
 10
341.7247643220682
 20
267.8920682769941
 30
0.0
 10
342.0521875004111
 20
267.9223550615729
 30
0.0
 10
342.3237436705119
 20
267.8880885644087
 30
0.0
 10
342.4843723280444
 20
267.8442421100679
 30
0.0
 10
342.5386083541625
 20
267.7989832108055
 30
0.0
 10
342.5386218941496
 20
267.798971911952
 30
0.0
  0
LWPOLYLINE
  5
32F
330
1F
100
AcDbEntity
  8
0
  6
Continuous
 62
     7
370
    15
100
AcDbPolyline
 90
       49
 70
   128
 43
0.0
 10
373.8878471286
 20
221.0718495136
 10
373.2022679782
 20
221.4704168737
 10
372.6123410136
 20
222.0207425156
 10
372.1281600488
 20
222.7134102151
 10
371.7580095544
 20
223.5365682357
 10
371.508222908
 20
224.4761321156
 10
371.3830740283
 20
225.5160256562
 10
371.3847042474
 20
226.6384559907
 10
371.5130856717
 20
227.8242180249
 10
371.7660216595
 20
229.0530230417
 10
372.1391844059
 20
230.3038458465
 10
372.6261889929
 20
231.5552845144
 10
373.218702637
 20
232.7859265827
 10
373.9065872654
 20
233.9747154245
 10
374.6780729814
 20
235.1013105332
 10
375.5199594505
 20
236.1464355539
 10
376.4178417619
 20
237.092208108
 10
377.3563569001
 20
237.9224457647
 10
378.3194466112
 20
238.6229429276
 10
379.2906321629
 20
239.181713896
 10
380.2532963013
 20
239.5891979437
 10
381.1909675761
 20
239.8384229056
 10
382.0876021719
 20
239.9251244737
 10
382.9278584219
 20
239.8478191599
 10
383.697359309
 20
239.6078296797
 10
384.3829384594
 20
239.2092623197
 10
384.972865424
 20
238.6589366777
 10
385.4570463888
 20
237.9662689783
 10
385.8271968832
 20
237.1431109576
 10
386.0769835296
 20
236.2035470778
 10
386.2021324093
 20
235.1636535372
 10
386.2005021902
 20
234.0412232026
 10
386.0721207659
 20
232.8554611684
 10
385.8191847781
 20
231.6266561516
 10
385.4460220317
 20
230.3758333468
 10
384.9590174447
 20
229.1243946789
 10
384.3665038006
 20
227.8937526106
 10
383.6786191722
 20
226.7049637688
 10
382.9071334562
 20
225.5783686602
 10
382.0652469871
 20
224.5332436394
 10
381.1673646758
 20
223.5874710853
 10
380.2288495375
 20
222.7572334286
 10
379.2657598265
 20
222.0567362657
 10
378.2945742747
 20
221.4979652974
 10
377.3319101363
 20
221.0904812497
 10
376.3942388615
 20
220.8412562877
 10
375.4976042658
 20
220.7545547197
 10
374.6573480157
 20
220.8318600334
 10
373.8878471286
 20
221.0718495136
  0
SPLINE
  5
330
330
1F
100
AcDbEntity
  8
0
  6
Continuous
 62
     7
370
    15
100
AcDbSpline
210
0.0
220
0.0
230
1.0
 70
     8
 71
     3
 72
    24
 73
    20
 74
     0
 42
0.000000001
 43
0.00000001
 40
0.0
 40
0.0
 40
0.0
 40
0.0
 40
0.0621047215319141
 40
0.1245611723854009
 40
0.1882018258584953
 40
0.2522909353488812
 40
0.3144179581560789
 40
0.377031406895232
 40
0.4412631719092808
 40
0.5060870342992397
 40
0.5630880948606062
 40
0.6205042086038675
 40
0.6791934897595281
 40
0.7383031233271419
 40
0.7952132039346527
 40
0.8524588652726856
 40
0.9106857616676257
 40
0.9692208807176023
 40
1.0
 40
1.0
 40
1.0
 40
1.0
 10
379.9520056440913
 20
221.3753674919315
 30
0.0
 10
380.0286859701581
 20
221.4713168514849
 30
0.0
 10
380.1824809003687
 20
221.6637589786019
 30
0.0
 10
380.426960928124
 20
221.961615854721
 30
0.0
 10
380.681119932698
 20
222.266502142021
 30
0.0
 10
380.9410762611814
 20
222.5739179713273
 30
0.0
 10
381.2033056619051
 20
222.8807488125144
 30
0.0
 10
381.4671506153211
 20
223.1869448235946
 30
0.0
 10
381.733667426537
 20
223.4942489373292
 30
0.0
 10
381.9887212277469
 20
223.786737265871
 30
0.0
 10
382.2288054596171
 20
224.0606873164348
 30
0.0
 10
382.4540219945127
 20
224.3162878041709
 30
0.0
 10
382.6737546881234
 20
224.5639156825791
 30
0.0
 10
382.8834188028868
 20
224.797920066998
 30
0.0
 10
383.0813300899159
 20
225.0159397042924
 30
0.0
 10
383.2680080079849
 20
225.2181055614104
 30
0.0
 10
383.445534148242
 20
225.4059403942093
 30
0.0
 10
383.5872159597513
 20
225.5516751125245
 30
0.0
 10
383.6678310102565
 20
225.6317529195588
 30
0.0
 10
383.6956122498638
 20
225.6593490164477
 30
0.0
  0
SPLINE
  5
331
330
1F
100
AcDbEntity
  8
0
  6
Continuous
 62
     7
370
    15
100
AcDbSpline
210
0.0
220
0.0
230
1.0
 70
     8
 71
     3
 72
    27
 73
    23
 74
     0
 42
0.000000001
 43
0.00000001
 40
0.0
 40
0.0
 40
0.0
 40
0.0
 40
0.0426606797130389
 40
0.0855935073502115
 40
0.129412320453727
 40
0.1735509225917201
 40
0.2162236415775126
 40
0.2592142218224076
 40
0.303239876300705
 40
0.3476370058791256
 40
0.388139026536409
 40
0.4706287588872075
 40
0.5127326489498937
 40
0.5516617646078341
 40
0.6308467217354371
 40
0.6711909916324516
 40
0.7102149879124725
 40
0.7895062952715608
 40
0.8298451975724501
 40
0.8716915672088591
 40
0.9567335501972661
 40
1.0
 40
1.0
 40
1.0
 40
1.0
 10
376.4538756646641
 20
219.0979855251911
 30
0.0
 10
376.4699268346729
 20
219.0794709558526
 30
0.0
 10
376.5021315709167
 20
219.0423237060333
 30
0.0
 10
376.570007074499
 20
219.0036099352617
 30
0.0
 10
376.6527732072143
 20
218.978472661795
 30
0.0
 10
376.7506631673963
 20
218.9694244721526
 30
0.0
 10
376.8619824476492
 20
218.9763359816197
 30
0.0
 10
376.9864771498339
 20
218.9993445252308
 30
0.0
 10
377.1253866674578
 20
219.0393954872617
 30
0.0
 10
377.2733771675163
 20
219.0954056376295
 30
0.0
 10
377.4784511409252
 20
219.1886114437353
 30
0.0
 10
377.6977078486289
 20
219.3095954812651
 30
0.0
 10
377.9259267859464
 20
219.4556414321601
 30
0.0
 10
378.1550801384253
 20
219.6143871814965
 30
0.0
 10
378.3878355204116
 20
219.7927200809747
 30
0.0
 10
378.6211143449171
 20
219.9878937636519
 30
0.0
 10
378.8535481984104
 20
220.1929484109948
 30
0.0
 10
379.0826649277016
 20
220.4106518990534
 30
0.0
 10
379.3075413595506
 20
220.6394890386151
 30
0.0
 10
379.5333396614315
 20
220.8800984465227
 30
0.0
 10
379.7518055813636
 20
221.1286350054427
 30
0.0
 10
379.901520713934
 20
221.3131483688292
 30
0.0
 10
379.9520056440913
 20
221.3753674919315
 30
0.0
  0
SPLINE
  5
332
330
1F
100
AcDbEntity
  8
0
  6
Continuous
 62
     7
370
    15
100
AcDbSpline
210
0.0
220
0.0
230
1.0
 70
     8
 71
     3
 72
    16
 73
    12
 74
     0
 42
0.000000001
 43
0.00000001
 40
0.0
 40
0.0
 40
0.0
 40
0.0
 40
0.1245749872500847
 40
0.252296530145956
 40
0.3770193056407216
 40
0.5060351398636137
 40
0.6204452207885401
 40
0.738239216382161
 40
0.852407945019389
 40
0.9691919620652664
 40
1.0
 40
1.0
 40
1.0
 40
1.0
 10
372.506845662232
 20
218.3751441965626
 30
0.0
 10
372.7418562334807
 20
218.4862184003891
 30
0.0
 10
373.2178133496123
 20
218.7111723564983
 30
0.0
 10
373.9116649437003
 20
218.9790687987144
 30
0.0
 10
374.5705899871376
 20
219.1888402032368
 30
0.0
 10
375.1394383246345
 20
219.320065221269
 30
0.0
 10
375.611976791629
 20
219.3777169052857
 30
0.0
 10
375.9765840547699
 20
219.3668468065789
 30
0.0
 10
376.2500237375729
 20
219.2904821613263
 30
0.0
 10
376.3896910497331
 20
219.1883434103184
 30
0.0
 10
376.4427915782193
 20
219.1135894921354
 30
0.0
 10
376.4538756646641
 20
219.0979855251911
 30
0.0
  0
SPLINE
  5
333
330
1F
100
AcDbEntity
  8
0
  6
Continuous
 62
     7
370
    15
100
AcDbSpline
210
0.0
220
0.0
230
1.0
 70
     8
 71
     3
 72
    27
 73
    23
 74
     0
 42
0.000000001
 43
0.00000001
 40
0.0
 40
0.0
 40
0.0
 40
0.0
 40
0.042659551591221
 40
0.0855912291091374
 40
0.1294088172942651
 40
0.1735461665110212
 40
0.2162189802952008
 40
0.2592096562948875
 40
0.3032354101209125
 40
0.34763264056064
 40
0.3881347241800473
 40
0.4706245875032918
 40
0.5127285464345253
 40
0.5516576810987804
 40
0.6308426793931463
 40
0.6711869720191795
 40
0.7102109458124987
 40
0.7895022093597746
 40
0.8298410906383683
 40
0.87168843535478
 40
0.9567324688438231
 40
1.0
 40
1.0
 40
1.0
 40
1.0
 10
369.8753385547795
 20
219.5299719863198
 30
0.0
 10
369.8499020865102
 20
219.4730773055699
 30
0.0
 10
369.7988668903545
 20
219.3589250120384
 30
0.0
 10
369.7440872208766
 20
219.1904505055067
 30
0.0
 10
369.7063661142078
 20
219.0248521149952
 30
0.0
 10
369.6887734713841
 20
218.866084873899
 30
0.0
 10
369.6909593007366
 20
218.7160870390038
 30
0.0
 10
369.7128926317633
 20
218.5752362050106
 30
0.0
 10
369.7554886782715
 20
218.4431640686711
 30
0.0
 10
369.8174947449289
 20
218.3255344864651
 30
0.0
 10
369.9226557230382
 20
218.1892987252288
 30
0.0
 10
370.061198046914
 20
218.0800385058543
 30
0.0
 10
370.2298051640926
 20
218.0004045586912
 30
0.0
 10
370.4137853044107
 20
217.9409571756329
 30
0.0
 10
370.6214225667033
 20
217.9095757951721
 30
0.0
 10
370.8497453948006
 20
217.9062772362291
 30
0.0
 10
371.0904070562638
 20
217.9212749518627
 30
0.0
 10
371.3472391741278
 20
217.9632062112573
 30
0.0
 10
371.6190239390917
 20
218.0314432813356
 30
0.0
 10
371.9063186691229
 20
218.1196422612386
 30
0.0
 10
372.2055207754072
 20
218.2339151053634
 30
0.0
 10
372.4308598093638
 20
218.3395301022285
 30
0.0
 10
372.506845662232
 20
218.3751441965626
 30
0.0
  0
SPLINE
  5
334
330
1F
100
AcDbEntity
  8
0
  6
Continuous
 62
     7
370
    15
100
AcDbSpline
210
0.0
220
0.0
230
1.0
 70
     8
 71
     3
 72
    16
 73
    12
 74
     0
 42
0.000000001
 43
0.00000001
 40
0.0
 40
0.0
 40
0.0
 40
0.0
 40
0.1245767853925544
 40
0.2523002735379722
 40
0.3770227427746113
 40
0.5060382503003586
 40
0.6204481966912064
 40
0.7382420391626481
 40
0.8524108796985006
 40
0.9691950061205775
 40
1.0
 40
1.0
 40
1.0
 40
1.0
 10
368.0370018000234
 20
222.7917015004484
 30
0.0
 10
368.249435603052
 20
222.7343816778727
 30
0.0
 10
368.679669104775
 20
222.6182941831646
 30
0.0
 10
369.2269741608155
 20
222.3398584104651
 30
0.0
 10
369.6787457916738
 20
221.9851853170919
 30
0.0
 10
369.9885259512519
 20
221.5736448404754
 30
0.0
 10
370.1608556844106
 20
221.1207739837197
 30
0.0
 10
370.2040895381792
 20
220.6536834312313
 30
0.0
 10
370.1305071597837
 20
220.1632239208074
 30
0.0
 10
369.9986183081568
 20
219.787005539634
 30
0.0
 10
369.8966264322731
 20
219.5743563936922
 30
0.0
 10
369.8753385547795
 20
219.5299719863198
 30
0.0
  0
SPLINE
  5
335
330
1F
100
AcDbEntity
  8
0
  6
Continuous
 62
     7
370
    15
100
AcDbSpline
210
0.0
220
0.0
230
1.0
 70
     8
 71
     3
 72
    27
 73
    23
 74
     0
 42
0.000000001
 43
0.00000001
 40
0.0
 40
0.0
 40
0.0
 40
0.0
 40
0.0426606797130139
 40
0.0855935073501611
 40
0.1294123204536541
 40
0.17355092259162
 40
0.2162236415773916
 40
0.2592142218222662
 40
0.3032398763005393
 40
0.347637005878935
 40
0.3881390265361945
 40
0.4706287588869425
 40
0.5127326489496016
 40
0.55166176460752
 40
0.6308467217350707
 40
0.6711909916320605
 40
0.710214987912054
 40
0.7895062952710818
 40
0.8298451975719389
 40
0.8716915672084701
 40
0.9567335501971309
 40
1.0
 40
1.0
 40
1.0
 40
1.0
 10
367.8136187386109
 20
226.7022565896729
 30
0.0
 10
367.7500083707049
 20
226.6469960955651
 30
0.0
 10
367.6223818413216
 20
226.5361225806466
 30
0.0
 10
367.444768681071
 20
226.3551982223645
 30
0.0
 10
367.2784298386175
 20
226.1635878935622
 30
0.0
 10
367.1283231747353
 20
225.9638846895213
 30
0.0
 10
366.9958392411579
 20
225.7588481747777
 30
0.0
 10
366.8811718826611
 20
225.5488834408575
 30
0.0
 10
366.7843163456497
 20
225.3325565185638
 30
0.0
 10
366.7095944194902
 20
225.1185218806389
 30
0.0
 10
366.6389333458687
 20
224.840913671233
 30
0.0
 10
366.6079506500237
 20
224.5698357350962
 30
0.0
 10
366.6172894060285
 20
224.3116877932848
 30
0.0
 10
366.6516910730677
 20
224.0669306976237
 30
0.0
 10
366.7220332000091
 20
223.8387640470345
 30
0.0
 10
366.8270740569509
 20
223.6300260069586
 30
0.0
 10
366.9542686319887
 20
223.4350540137676
 30
0.0
 10
367.1132715039431
 20
223.2622768535262
 30
0.0
 10
367.3033014650229
 20
223.1123095974727
 30
0.0
 10
367.5190086256952
 20
222.9761024278894
 30
0.0
 10
367.7645340392256
 20
222.8655779433084
 30
0.0
 10
367.968292951052
 20
222.8103311002959
 30
0.0
 10
368.0370018000234
 20
222.7917015004484
 30
0.0
  0
SPLINE
  5
336
330
1F
100
AcDbEntity
  8
0
  6
Continuous
 62
     7
370
    15
100
AcDbSpline
210
0.0
220
0.0
230
1.0
 70
     8
 71
     3
 72
    16
 73
    12
 74
     0
 42
0.000000001
 43
0.00000001
 40
0.0
 40
0.0
 40
0.0
 40
0.0
 40
0.124574987250131
 40
0.2522965301460532
 40
0.3770193056408669
 40
0.5060351398638148
 40
0.6204452207887892
 40
0.7382392163824583
 40
0.8524079450197322
 40
0.9691919620656615
 40
1.0
 40
1.0
 40
1.0
 40
1.0
 10
369.1608479702522
 20
232.037880033971
 30
0.0
 10
369.2621806374876
 20
231.8250081118493
 30
0.0
 10
369.4674054655072
 20
231.3938874791898
 30
0.0
 10
369.6283480380071
 20
230.6855893206772
 30
0.0
 10
369.6612409851701
 20
229.9436926471911
 30
0.0
 10
369.5470612335082
 20
229.2208983230576
 30
0.0
 10
369.3006260230302
 20
228.5329586811475
 30
0.0
 10
368.9508614107029
 20
227.9099940242681
 30
0.0
 10
368.5010057062826
 20
227.3345166194579
 30
0.0
 10
368.105260366672
 20
226.9447527561197
 30
0.0
 10
367.8639825371591
 20
226.7441334237752
 30
0.0
 10
367.8136187386109
 20
226.7022565896729
 30
0.0
  0
SPLINE
  5
337
330
1F
100
AcDbEntity
  8
0
  6
Continuous
 62
     7
370
    15
100
AcDbSpline
210
0.0
220
0.0
230
1.0
 70
     8
 71
     3
 72
    19
 73
    15
 74
     0
 42
0.000000001
 43
0.00000001
 40
0.0
 40
0.0
 40
0.0
 40
0.0
 40
0.0855747042399669
 40
0.1735025911132362
 40
0.2591381948407595
 40
0.3475216183007442
 40
0.428800851634377
 40
0.5126378259333346
 40
0.5907479265425514
 40
0.6711223008798143
 40
0.7494115176306012
 40
0.8298077970746404
 40
0.9137650347532584
 40
1.0
 40
1.0
 40
1.0
 40
1.0
 10
371.4764437226514
 20
236.4134122877982
 30
0.0
 10
371.3238702215314
 20
236.3804588196524
 30
0.0
 10
371.0145276650522
 20
236.3136457098645
 30
0.0
 10
370.5672114864122
 20
236.1144042973597
 30
0.0
 10
370.1423770312966
 20
235.8423219423609
 30
0.0
 10
369.7681576418926
 20
235.5068514822466
 30
0.0
 10
369.4481006632784
 20
235.1172165615896
 30
0.0
 10
369.1987107658308
 20
234.700574150799
 30
0.0
 10
369.0146690280134
 20
234.2568580212713
 30
0.0
 10
368.9011474469449
 20
233.8080484434851
 30
0.0
 10
368.8555954674105
 20
233.3523004577301
 30
0.0
 10
368.880750989768
 20
232.8998740085627
 30
0.0
 10
368.9747683762268
 20
232.4513687176002
 30
0.0
 10
369.0982704850416
 20
232.1769338733784
 30
0.0
 10
369.1608479702522
 20
232.037880033971
 30
0.0
  0
SPLINE
  5
338
330
1F
100
AcDbEntity
  8
0
  6
Continuous
 62
     7
370
    15
100
AcDbSpline
210
0.0
220
0.0
230
1.0
 70
     8
 71
     3
 72
    16
 73
    12
 74
     0
 42
0.000000001
 43
0.00000001
 40
0.0
 40
0.0
 40
0.0
 40
0.0
 40
0.1248710696268427
 40
0.2528983544618347
 40
0.377914596585666
 40
0.5072218623673389
 40
0.6220810633072329
 40
0.7403195802979554
 40
0.855238927621786
 40
0.9727845549775294
 40
1.0
 40
1.0
 40
1.0
 40
1.0
 10
375.2169377065823
 20
240.6633388213345
 30
0.0
 10
375.1823934283273
 20
240.3998567280184
 30
0.0
 10
375.1124317378183
 20
239.866232822746
 30
0.0
 10
374.8698944214939
 20
239.1002303022051
 30
0.0
 10
374.5144950603956
 20
238.3797322528943
 30
0.0
 10
374.057581251571
 20
237.7640789701622
 30
0.0
 10
373.5176746102605
 20
237.2585357028955
 30
0.0
 10
372.9321162652213
 20
236.8748450252749
 30
0.0
 10
372.2958727658231
 20
236.5963588578805
 30
0.0
 10
371.8046604582589
 20
236.4659103251902
 30
0.0
 10
371.5283843286039
 20
236.4217201514067
 30
0.0
 10
371.4764437226514
 20
236.4134122877982
 30
0.0
  0
SPLINE
  5
339
330
1F
100
AcDbEntity
  8
0
  6
Continuous
 62
     7
370
    15
100
AcDbSpline
210
0.0
220
0.0
230
1.0
 70
     8
 71
     3
 72
    27
 73
    23
 74
     0
 42
0.000000001
 43
0.00000001
 40
0.0
 40
0.0
 40
0.0
 40
0.0
 40
0.0317264737290001
 40
0.139082914263048
 40
0.1719046028400261
 40
0.2072804436883556
 40
0.242839125317212
 40
0.3443479438302623
 40
0.3778973973839473
 40
0.4116205145262087
 40
0.4732565055720466
 40
0.5079730683777439
 40
0.5401729729848954
 40
0.6314982766087686
 40
0.6647275512286974
 40
0.6969605412398778
 40
0.7883041316409961
 40
0.8214916053772556
 40
0.8543440048307248
 40
0.8873365170591176
 40
0.9319665273008205
 40
1.0
 40
1.0
 40
1.0
 40
1.0
 10
378.7401251377638
 20
242.9570339008208
 30
0.0
 10
378.6987021216908
 20
242.9889369943458
 30
0.0
 10
378.5171113832363
 20
243.1287941766907
 30
0.0
 10
378.2725624595147
 20
243.2570610334389
 30
0.0
 10
378.0130553695051
 20
243.3426156349888
 30
0.0
 10
377.8567372475036
 20
243.3791953722042
 30
0.0
 10
377.5935280602377
 20
243.4154260504005
 30
0.0
 10
377.327357073242
 20
243.4028468796205
 30
0.0
 10
377.0680369669919
 20
243.3422348513436
 30
0.0
 10
376.8720264913838
 20
243.2778385485527
 30
0.0
 10
376.6785156997244
 20
243.1870976576151
 30
0.0
 10
376.4945646500734
 20
243.0729753505766
 30
0.0
 10
376.2754717625071
 20
242.9124182428955
 30
0.0
 10
376.073180122482
 20
242.7171996637915
 30
0.0
 10
375.8922885182432
 20
242.4922768230114
 30
0.0
 10
375.7230322202904
 20
242.2527332861571
 30
0.0
 10
375.5769635530348
 20
241.9870783209704
 30
0.0
 10
375.4577589416001
 20
241.7026918827681
 30
0.0
 10
375.3918479940235
 20
241.5183770477539
 30
0.0
 10
375.3290951051696
 20
241.3078235216215
 30
0.0
 10
375.2612294008421
 20
241.0241089592815
 30
0.0
 10
375.2336137914756
 20
240.7991709123831
 30
0.0
 10
375.2169377065823
 20
240.6633388213345
 30
0.0
  0
SPLINE
  5
33A
330
1F
100
AcDbEntity
  8
0
  6
Continuous
 62
     7
370
    15
100
AcDbSpline
210
0.0
220
0.0
230
1.0
 70
     8
 71
     3
 72
    15
 73
    11
 74
     0
 42
0.000000001
 43
0.00000001
 40
0.0
 40
0.0
 40
0.0
 40
0.0
 40
0.1255505115575923
 40
0.2542743051988534
 40
0.3799729809583489
 40
0.5099861143893006
 40
0.625472150397552
 40
0.7443559600027041
 40
0.8704688384767248
 40
1.0
 40
1.0
 40
1.0
 40
1.0
 10
382.6514628566806
 20
243.6733387051208
 30
0.0
 10
382.5385923529453
 20
243.4932118140154
 30
0.0
 10
382.3099985498718
 20
243.1284053348125
 30
0.0
 10
381.8909397829976
 20
242.7068397332666
 30
0.0
 10
381.4121495539068
 20
242.3983565034782
 30
0.0
 10
380.8999133363328
 20
242.2395738355804
 30
0.0
 10
380.3675168207374
 20
242.2205072130143
 30
0.0
 10
379.8299359600963
 20
242.3309902090706
 30
0.0
 10
379.275093069431
 20
242.5665220909735
 30
0.0
 10
378.9200303271243
 20
242.8257080830672
 30
0.0
 10
378.7401251377638
 20
242.9570339008208
 30
0.0
  0
SPLINE
  5
33B
330
1F
100
AcDbEntity
  8
0
  6
Continuous
 62
     7
370
    15
100
AcDbSpline
210
0.0
220
0.0
230
1.0
 70
     8
 71
     3
 72
    19
 73
    15
 74
     0
 42
0.000000001
 43
0.00000001
 40
0.0
 40
0.0
 40
0.0
 40
0.0
 40
0.0848173163342497
 40
0.1719666277871809
 40
0.2568445119593707
 40
0.3444496558075567
 40
0.4249502760439852
 40
0.5079899722588886
 40
0.5852601899258991
 40
0.6647755594794318
 40
0.7421311118706746
 40
0.8215724484076478
 40
0.9094422875434518
 40
1.0
 40
1.0
 40
1.0
 40
1.0
 10
385.3018197103598
 20
242.5102387694437
 30
0.0
 10
385.2723933591935
 20
242.6699889340902
 30
0.0
 10
385.2127315991089
 20
242.9938814868141
 30
0.0
 10
385.0723190141453
 20
243.4320918823771
 30
0.0
 10
384.8933221785637
 20
243.8228404932884
 30
0.0
 10
384.6819339640708
 20
244.136949686764
 30
0.0
 10
384.4425186293169
 20
244.3727451858248
 30
0.0
 10
384.1911035774289
 20
244.5200046695211
 30
0.0
 10
383.9272037414257
 20
244.5847353013021
 30
0.0
 10
383.6640538543633
 20
244.5683778349102
 30
0.0
 10
383.4008372160354
 20
244.4735854425276
 30
0.0
 10
383.1392475476832
 20
244.2976352342101
 30
0.0
 10
382.8806323947431
 20
244.0377107754791
 30
0.0
 10
382.7286160390493
 20
243.7960097417346
 30
0.0
 10
382.6514628566806
 20
243.6733387051208
 30
0.0
  0
SPLINE
  5
33C
330
1F
100
AcDbEntity
  8
0
  6
Continuous
 62
     7
370
    15
100
AcDbSpline
210
0.0
220
0.0
230
1.0
 70
     8
 71
     3
 72
    15
 73
    11
 74
     0
 42
0.000000001
 43
0.00000001
 40
0.0
 40
0.0
 40
0.0
 40
0.0
 40
0.125552393856285
 40
0.2542782239303578
 40
0.3799765823769455
 40
0.5099893772574147
 40
0.6254752754523927
 40
0.7443589279954841
 40
0.8704703861781007
 40
1.0
 40
1.0
 40
1.0
 40
1.0
 10
387.1235327159697
 20
239.2780044895812
 30
0.0
 10
387.0340032687587
 20
239.2662220575742
 30
0.0
 10
386.8526814466327
 20
239.242359383257
 30
0.0
 10
386.5821007270264
 20
239.3662555290009
 30
0.0
 10
386.3119909380417
 20
239.6207413612056
 30
0.0
 10
386.0598704828579
 20
240.0028337459672
 30
0.0
 10
385.8283059913911
 20
240.4925913783173
 30
0.0
 10
385.6225560460466
 20
241.070477568438
 30
0.0
 10
385.4378076756599
 20
241.746381407011
 30
0.0
 10
385.3475513022954
 20
242.2533600587531
 30
0.0
 10
385.3018197103598
 20
242.5102387694437
 30
0.0
  0
SPLINE
  5
33D
330
1F
100
AcDbEntity
  8
0
  6
Continuous
 62
     7
370
    15
100
AcDbSpline
210
0.0
220
0.0
230
1.0
 70
     8
 71
     3
 72
    19
 73
    15
 74
     0
 42
0.000000001
 43
0.00000001
 40
0.0
 40
0.0
 40
0.0
 40
0.0
 40
0.0848194393149627
 40
0.1719710587643849
 40
0.2568487638895599
 40
0.3444537197813751
 40
0.4249542201458771
 40
0.5079937877788768
 40
0.5852639676497284
 40
0.6647792938728985
 40
0.7421348862892222
 40
0.8215762606479846
 40
0.9094442829817784
 40
1.0
 40
1.0
 40
1.0
 40
1.0
 10
387.3485158923899
 20
235.3394377066651
 30
0.0
 10
387.3965271456502
 20
235.497304738501
 30
0.0
 10
387.4938697610041
 20
235.8173794858475
 30
0.0
 10
387.6143225711465
 20
236.3217587297028
 30
0.0
 10
387.7100180743244
 20
236.834125295421
 30
0.0
 10
387.7714758217709
 20
237.3237531408579
 30
0.0
 10
387.7982987943555
 20
237.7834502314959
 30
0.0
 10
387.7903116317191
 20
238.1864571661837
 30
0.0
 10
387.7494392307382
 20
238.5379700083402
 30
0.0
 10
387.6795762757267
 20
238.8242491475335
 30
0.0
 10
387.581834499285
 20
239.0487053166333
 30
0.0
 10
387.4563222862474
 20
239.2079621216757
 30
0.0
 10
387.3029697049279
 20
239.2989019500283
 30
0.0
 10
387.1839427019738
 20
239.2850399135507
 30
0.0
 10
387.1235327159697
 20
239.2780044895812
 30
0.0
  0
SPLINE
  5
33E
330
1F
100
AcDbEntity
  8
0
  6
Continuous
 62
     7
370
    15
100
AcDbSpline
210
0.0
220
0.0
230
1.0
 70
     8
 71
     3
 72
    11
 73
     7
 74
     0
 42
0.000000001
 43
0.00000001
 40
0.0
 40
0.0
 40
0.0
 40
0.0
 40
0.2537719365525894
 40
0.5087159351989549
 40
0.7421854335094594
 40
1.0
 40
1.0
 40
1.0
 40
1.0
 10
386.0112080022629
 20
230.0348812702749
 30
0.0
 10
386.062739887145
 20
230.3414320249278
 30
0.0
 10
386.1660416602507
 20
230.9559493587105
 30
0.0
 10
386.4986087079263
 20
232.3067615134118
 30
0.0
 10
386.8956615234662
 20
233.8423457660023
 30
0.0
 10
387.1926586421823
 20
234.8241889883315
 30
0.0
 10
387.3485158923899
 20
235.3394377066651
 30
0.0
  0
SPLINE
  5
33F
330
1F
100
AcDbEntity
  8
0
  6
Continuous
 62
     7
370
    15
100
AcDbSpline
210
0.0
220
0.0
230
1.0
 70
     8
 71
     3
 72
    27
 73
    23
 74
     0
 42
0.000000001
 43
0.00000001
 40
0.0
 40
0.0
 40
0.0
 40
0.0
 40
0.0426595515913616
 40
0.0855912291094192
 40
0.1294088172947018
 40
0.1735461665116159
 40
0.2162189802957609
 40
0.2592096562954138
 40
0.303235410121404
 40
0.3476326405611005
 40
0.388134724180472
 40
0.4706245875036466
 40
0.5127285464348462
 40
0.5516576810990705
 40
0.6308426793933759
 40
0.6711869720193766
 40
0.710210945812664
 40
0.7895022093598744
 40
0.8298410906384389
 40
0.8716884353548321
 40
0.9567324688438404
 40
1.0
 40
1.0
 40
1.0
 40
1.0
 10
383.6956122498638
 20
225.6593490164477
 30
0.0
 10
383.732162438345
 20
225.6967489012677
 30
0.0
 10
383.8054959695144
 20
225.7717872453403
 30
0.0
 10
383.9239969337131
 20
225.9041394517036
 30
0.0
 10
384.0485357042516
 20
226.0516374075529
 30
0.0
 10
384.177222243802
 20
226.2133890993669
 30
0.0
 10
384.3082031495679
 20
226.3871631983324
 30
0.0
 10
384.4411359457267
 20
226.5727858970421
 30
0.0
 10
384.5767970910101
 20
226.7719966941046
 30
0.0
 10
384.7096557724003
 20
226.9771613609593
 30
0.0
 10
384.8802009851676
 20
227.2534688545175
 30
0.0
 10
385.0440757650385
 20
227.5382446663908
 30
0.0
 10
385.1973266611353
 20
227.8249314666259
 30
0.0
 10
385.3407828702386
 20
228.1069346889068
 30
0.0
 10
385.4717628519979
 20
228.3850588761568
 30
0.0
 10
385.5887664722595
 20
228.6554713354557
 30
0.0
 10
385.6960953969311
 20
228.9193335926207
 30
0.0
 10
385.7881859261926
 20
229.1709046507609
 30
0.0
 10
385.8649728633871
 20
229.4086596805441
 30
0.0
 10
385.9322282340191
 20
229.6404095778285
 30
0.0
 10
385.9828584871388
 20
229.8540372702594
 30
0.0
 10
386.0040590338926
 20
229.9892773849733
 30
0.0
 10
386.0112080022629
 20
230.0348812702749
 30
0.0
  0
LINE
  5
340
330
1F
100
AcDbEntity
  8
0
  6
Continuous
 62
     7
370
    15
100
AcDbLine
 10
369.1608479703
 20
232.037880034
 30
0.0
 11
363.2079670433
 21
235.4744050446
 31
0.0
  0
ARC
  5
341
330
1F
100
AcDbEntity
  8
0
  6
Continuous
 62
     7
370
    15
100
AcDbCircle
 10
367.4874869742
 20
236.0101101397
 30
0.0
 40
4.312919056465073
100
AcDbArc
 50
117.0880005287
 51
187.1351020238
  0
LINE
  5
342
330
1F
100
AcDbEntity
  8
0
  6
Continuous
 62
     7
370
    15
100
AcDbLine
 10
371.4764437227
 20
236.4134122878
 30
0.0
 11
365.5235627957
 21
239.8499372984
 31
0.0
  0
ARC
  5
343
330
1F
100
AcDbEntity
  8
0
  6
Continuous
 62
     7
370
    15
100
AcDbCircle
 10
362.0689885726
 20
246.6447216654
 30
0.0
 40
7.622544040911425
100
AcDbArc
 50
296.9494929613
 51
340.5345847768
  0
LINE
  5
344
330
1F
100
AcDbEntity
  8
0
  6
Continuous
 62
     7
370
    15
100
AcDbLine
 10
375.2169377066
 20
240.6633388213
 30
0.0
 11
369.2558494251
 21
244.1046018369
 31
0.0
  0
LINE
  5
345
330
1F
100
AcDbEntity
  8
0
  6
Continuous
 62
     7
370
    15
100
AcDbLine
 10
367.8136187386
 20
226.7022565897
 30
0.0
 11
361.8607378116
 21
230.1387816003
 31
0.0
  0
ARC
  5
346
330
1F
100
AcDbEntity
  8
0
  6
Continuous
 62
     7
370
    15
100
AcDbCircle
 10
356.3700872714
 20
234.3630521499
 30
0.0
 40
6.927604566652175
100
AcDbArc
 50
322.4268636172
 51
9.2314979908
  0
LWPOLYLINE
  5
347
330
1F
100
AcDbEntity
  8
0
  6
Continuous
 62
     7
370
    15
100
AcDbPolyline
 90
        9
 70
   128
 43
0.0
 10
372.5921392577
 20
246.5372213526
 10
372.4154199937
 20
246.6176133753
 10
371.972295714
 20
246.6759764944
 10
371.4762936811
 20
246.5698789273
 10
370.9572212606
 20
246.3056966339
 10
370.4462722387
 20
245.8993057148
 10
369.9741522242
 20
245.3751283334
 10
369.5692333869
 20
244.76466506
 10
369.2558494251
 20
244.1046018369
  0
LWPOLYLINE
  5
348
330
1F
100
AcDbEntity
  8
0
  6
Continuous
 62
     7
370
    15
100
AcDbPolyline
 90
        8
 70
   128
 43
0.0
 10
361.8607378116
 20
230.1387816003
 10
361.4964275932
 20
229.5091327655
 10
361.2302325214
 20
228.8471946638
 10
361.0778042928
 20
228.191887829
 10
361.0481053586
 20
227.5817428906
 10
361.1428819522
 20
227.052635056
 10
361.3565614141
 20
226.6356747256
 10
361.6652355998
 20
226.3618288579
  0
ARC
  5
349
330
1F
100
AcDbEntity
  8
0
  6
Continuous
 62
     7
370
    15
100
AcDbCircle
 10
373.9913632241
 20
249.6377183035
 30
0.0
 40
3.694696139551378
100
AcDbArc
 50
263.6392606294
 51
316.9291406395
  0
LINE
  5
34A
330
1F
100
AcDbEntity
  8
0
  6
Continuous
 62
     7
370
    15
100
AcDbLine
 10
382.6514628567
 20
243.6733387051
 30
0.0
 11
376.6903745752
 21
247.1146017207
 31
0.0
  0
ARC
  5
34B
330
1F
100
AcDbEntity
  8
0
  6
Continuous
 62
     7
370
    15
100
AcDbCircle
 10
365.9822921071
 20
236.8531807001
 30
0.0
 40
2.842731804017729
100
AcDbArc
 50
122.2048452344
 51
177.8005312982
  0
ARC
  5
34C
330
1F
100
AcDbEntity
  8
0
  6
Continuous
 62
     7
370
    15
100
AcDbCircle
 10
359.6958739361
 20
248.0605659914
 30
0.0
 40
10.10091165107886
100
AcDbArc
 50
306.2163291145
 51
339.3708894131
  0
LINE
  5
34D
330
1F
100
AcDbEntity
  8
0
  6
Continuous
 62
     7
370
    15
100
AcDbLine
 10
369.2558494251
 20
244.1046018369
 30
0.0
 11
369.1491217257
 21
244.5018411621
 31
0.0
  0
LINE
  5
34E
330
1F
100
AcDbEntity
  8
0
  6
Continuous
 62
     7
370
    15
100
AcDbLine
 10
369.8753385548
 20
219.5299719863
 30
0.0
 11
363.9224576278
 21
222.966496997
 31
0.0
  0
ARC
  5
34F
330
1F
100
AcDbEntity
  8
0
  6
Continuous
 62
     7
370
    15
100
AcDbCircle
 10
360.2426796539
 20
223.5842224593
 30
0.0
 40
3.731266632703833
100
AcDbArc
 50
350.4705912215
 51
26.650783277
  0
LINE
  5
350
330
1F
100
AcDbEntity
  8
0
  6
Continuous
 62
     7
370
    15
100
AcDbLine
 10
361.5499751454
 20
230.1494272582
 30
0.0
 11
361.8607378116
 21
230.1387816003
 31
0.0
  0
ARC
  5
351
330
1F
100
AcDbEntity
  8
0
  6
Continuous
 62
     7
370
    15
100
AcDbCircle
 10
353.5768895324
 20
235.8382039933
 30
0.0
 40
9.794502281078639
100
AcDbArc
 50
324.4922371015
 51
354.1688097211
  0
ARC
  5
352
330
1F
100
AcDbEntity
  8
0
  6
Continuous
 62
     7
370
    15
100
AcDbCircle
 10
371.7731563112
 20
243.567176033
 30
0.0
 40
2.785526235623044
100
AcDbArc
 50
122.0088831829
 51
160.3944107577
  0
ARC
  5
353
330
1F
100
AcDbEntity
  8
0
  6
Continuous
 62
     7
370
    15
100
AcDbCircle
 10
363.8167143628
 20
228.548797887
 30
0.0
 40
2.774909199195178
100
AcDbArc
 50
144.772654305
 51
177.8309563854
  0
ARC
  5
354
330
1F
100
AcDbEntity
  8
0
  6
Continuous
 62
     7
370
    15
100
AcDbCircle
 10
378.0993490771
 20
245.950446265
 30
0.0
 40
1.827694468985646
100
AcDbArc
 50
69.5366757688
 51
140.4350149939
  0
LINE
  5
355
330
1F
100
AcDbEntity
  8
0
  6
Continuous
 62
     7
370
    15
100
AcDbLine
 10
376.6903745752
 20
247.1146017207
 30
0.0
 11
376.1004760248
 21
246.8051215702
 31
0.0
  0
LWPOLYLINE
  5
356
330
1F
100
AcDbEntity
  8
0
  6
Continuous
 62
     7
370
    15
100
AcDbPolyline
 90
        3
 70
   128
 43
0.0
 10
375.3531748368
 20
246.2192558002
 10
375.4474533625
 20
246.2849700366
 10
376.1004760248
 20
246.8051215702
  0
ARC
  5
357
330
1F
100
AcDbEntity
  8
0
  6
Continuous
 62
     7
370
    15
100
AcDbCircle
 10
365.5210490835
 20
222.590569597
 30
0.0
 40
1.642198542251741
100
AcDbArc
 50
166.7666721276
 51
232.784936285
  0
LINE
  5
358
330
1F
100
AcDbEntity
  8
0
  6
Continuous
 62
     7
370
    15
100
AcDbLine
 10
363.9157566028
 20
223.7618250635
 30
0.0
 11
363.9224576278
 21
222.966496997
 31
0.0
  0
LINE
  5
359
330
1F
100
AcDbEntity
  8
0
  6
Continuous
 62
     7
370
    15
100
AcDbLine
 10
363.9157566028
 20
223.7618250635
 30
0.0
 11
363.9394499475
 21
224.0114220953
 31
0.0
  0
LWPOLYLINE
  5
35A
330
1F
100
AcDbEntity
  8
0
  6
Continuous
 62
     7
370
    15
100
AcDbPolyline
 90
       19
 70
   128
 43
0.0
 10
362.722079636
 20
233.1221407941
 10
362.4158548099
 20
233.3424420881
 10
362.0251374894
 20
233.8057073707
 10
361.7472091809
 20
234.4035770781
 10
361.5910027288
 20
235.1168351859
 10
361.561538737
 20
235.9225569918
 10
361.6597642025
 20
236.7948459339
 10
361.882522078
 20
237.7056659279
 10
362.2226527421
 20
238.6257424698
 10
362.6692241153
 20
239.5255035425
 10
363.2078830264
 20
240.3760300847
 10
363.8213165347
 20
241.1499854737
 10
364.4898083824
 20
241.8224941463
 10
365.1918726917
 20
242.3719411205
 10
365.9049445379
 20
242.7806667185
 10
366.6061052051
 20
243.0355341632
 10
367.2728188127
 20
243.1283518053
 10
367.8836566366
 20
243.0561364093
 10
368.3466225071
 20
242.8651904959
  0
LWPOLYLINE
  5
35B
330
1F
100
AcDbEntity
  8
0
  6
Continuous
 62
     7
370
    15
100
AcDbPolyline
 90
        3
 70
   128
 43
0.0
 10
376.1004760248
 20
246.8051215702
 10
376.4223327005
 20
247.0427475287
 10
376.4428720093
 20
247.0547922288
  0
LINE
  5
35C
330
1F
100
AcDbEntity
  8
0
  6
Continuous
 62
     7
370
    15
100
AcDbLine
 10
363.9063911841
 20
223.5747639545
 30
0.0
 11
363.9157566028
 21
223.7618250635
 31
0.0
  0
LWPOLYLINE
  5
35D
330
1F
100
AcDbEntity
  8
0
  6
Continuous
 62
     7
370
    15
100
AcDbPolyline
 90
       13
 70
   128
 43
0.0
 10
363.3482319875
 20
243.0689259396
 10
362.6926133153
 20
242.6011393761
 10
362.0646798803
 20
242.0033513398
 10
361.4885628123
 20
241.2985344897
 10
360.9864019669
 20
240.5137745422
 10
360.577495104
 20
239.6792293818
 10
360.2775562849
 20
238.8269701112
 10
360.0981119903
 20
237.9897485761
 10
360.0460581638
 20
237.1997387306
 10
360.1233952046
 20
236.48730021
 10
360.3271510938
 20
235.8798116272
 10
360.6494956068
 20
235.4006184276
 10
361.0319742459
 20
235.0937201057
  0
ARC
  5
35E
330
1F
100
AcDbEntity
  8
0
  6
Continuous
 62
     7
370
    15
100
AcDbCircle
 10
364.7994194276
 20
241.1676515669
 30
0.0
 40
2.391817139093551
100
AcDbArc
 50
65.4263368716
 51
127.3534412395
  0
LINE
  5
35F
330
1F
100
AcDbEntity
  8
0
  6
Continuous
 62
     7
370
    15
100
AcDbLine
 10
359.1173570323
 20
268.5820867234
 30
0.0
 11
349.0410854004
 21
262.7651789267
 31
0.0
  0
LINE
  5
360
330
1F
100
AcDbEntity
  8
0
  6
Continuous
 62
     7
370
    15
100
AcDbLine
 10
363.0947895762
 20
266.2859637902
 30
0.0
 11
359.1173570323
 21
268.5820867234
 31
0.0
  0
LINE
  5
361
330
1F
100
AcDbEntity
  8
0
  6
Continuous
 62
     7
370
    15
100
AcDbLine
 10
349.0410854004
 20
262.7651789267
 30
0.0
 11
353.2120873659
 21
260.3573107449
 31
0.0
  0
LINE
  5
362
330
1F
100
AcDbEntity
  8
0
  6
Continuous
 62
     7
370
    15
100
AcDbLine
 10
349.0410854004
 20
262.7651789267
 30
0.0
 11
349.0410854004
 21
249.1497426197
 31
0.0
  0
LINE
  5
363
330
1F
100
AcDbEntity
  8
0
  6
Continuous
 62
     7
370
    15
100
AcDbLine
 10
354.6095513022
 20
271.4905903843
 30
0.0
 11
345.9640958597
 21
266.499675192
 31
0.0
  0
LINE
  5
364
330
1F
100
AcDbEntity
  8
0
  6
Continuous
 62
     7
370
    15
100
AcDbLine
 10
358.0566968605
 20
269.5005956118
 30
0.0
 11
354.6095513022
 21
271.4905903843
 31
0.0
  0
LINE
  5
365
330
1F
100
AcDbEntity
  8
0
  6
Continuous
 62
     7
370
    15
100
AcDbLine
 10
347.908786507
 20
263.6423316613
 30
0.0
 11
358.0566968605
 21
269.5005956118
 31
0.0
  0
ARC
  5
366
330
1F
100
AcDbEntity
  8
0
  6
Continuous
 62
     7
370
    15
100
AcDbCircle
 10
340.386393257
 20
240.7392903117
 30
0.0
 40
24.10675638218174
100
AcDbArc
 50
71.817483876
 51
91.9266827621
  0
LINE
  5
367
330
1F
100
AcDbEntity
  8
0
  6
Continuous
 62
     7
370
    15
100
AcDbLine
 10
339.764850914
 20
264.4253495259
 30
0.0
 11
339.5759091421
 21
264.8324183521
 31
0.0
  0
ARC
  5
368
330
1F
100
AcDbEntity
  8
0
  6
Continuous
 62
     7
370
    15
100
AcDbCircle
 10
340.1520519345
 20
241.5415121783
 30
0.0
 40
22.88711288875527
100
AcDbArc
 50
90.9693683435
 51
106.6167095222
  0
LINE
  5
369
330
1F
100
AcDbEntity
  8
0
  6
Continuous
 62
     7
370
    15
100
AcDbLine
 10
333.4181319995
 20
263.8799101303
 30
0.0
 11
333.6070737714
 21
263.4728413042
 31
0.0
  0
LWPOLYLINE
  5
36A
330
1F
100
AcDbEntity
  8
0
  6
Continuous
 62
     7
370
    15
100
AcDbPolyline
 90
       16
 70
   128
 43
0.0
 10
327.672377871
 20
251.5008720561
 10
326.8511181114
 20
252.3371760276
 10
326.1955010651
 20
253.220879196
 10
325.7136072423
 20
254.1410898789
 10
325.4113760068
 20
255.0864664375
 10
325.2925323723
 20
256.0453570622
 10
325.3585410921
 20
257.0059433817
 10
325.6085886057
 20
257.9563861256
 10
326.0395930661
 20
258.8849710433
 10
326.6462423232
 20
259.7802532828
 10
327.4210593973
 20
260.6311984495
 10
328.3544946321
 20
261.427318605
 10
329.4350433954
 20
262.1588015316
 10
330.649387874
 20
262.8166316687
 10
331.9825612163
 20
263.3927012296
 10
333.4181319995
 20
263.8799101303
  0
LINE
  5
36B
330
1F
100
AcDbEntity
  8
0
  6
Continuous
 62
     7
370
    15
100
AcDbLine
 10
328.1885763916
 20
251.7988671191
 30
0.0
 11
327.672377871
 21
251.5008720561
 31
0.0
  0
ARC
  5
36C
330
1F
100
AcDbEntity
  8
0
  6
Continuous
 62
     7
370
    15
100
AcDbCircle
 10
337.0075634041
 20
261.8700082017
 30
0.0
 40
13.38665061289043
100
AcDbArc
 50
228.7923693783
 51
251.2130071544
  0
LINE
  5
36D
330
1F
100
AcDbEntity
  8
0
  6
Continuous
 62
     7
370
    15
100
AcDbLine
 10
332.1801836011
 20
248.8985711997
 30
0.0
 11
332.6963821217
 21
249.1965662626
 31
0.0
  0
LWPOLYLINE
  5
36E
330
1F
100
AcDbEntity
  8
0
  6
Continuous
 62
     7
370
    15
100
AcDbPolyline
 90
       16
 70
   128
 43
0.0
 10
353.6236299364
 20
252.2155244548
 10
352.7796679214
 20
251.3867870818
 10
351.7817780499
 20
250.6171624932
 10
350.6422593605
 20
249.9161363475
 10
349.3751564734
 20
249.2923488241
 10
347.9960864901
 20
248.753488133
 10
346.5220465117
 20
248.306195757
 10
344.9712041486
 20
247.9559845953
 10
343.3626736044
 20
247.7071710165
 10
341.7162800922
 20
247.5628216595
 10
340.0523154876
 20
247.5247156366
 10
338.3912882311
 20
247.5933226065
 10
336.75367056
 20
247.767796985
 10
335.1596461876
 20
248.0459883674
 10
333.6288615375
 20
248.424468032
 10
332.1801836011
 20
248.8985711997
  0
LINE
  5
36F
330
1F
100
AcDbEntity
  8
0
  6
Continuous
 62
     7
370
    15
100
AcDbLine
 10
352.9184896439
 20
252.324598218
 30
0.0
 11
353.6236299364
 21
252.2155244548
 31
0.0
  0
ARC
  5
370
330
1F
100
AcDbEntity
  8
0
  6
Continuous
 62
     7
370
    15
100
AcDbCircle
 10
348.7429543635
 20
256.4230041089
 30
0.0
 40
5.850814107814714
100
AcDbArc
 50
315.5340937776
 51
354.6689833334
  0
LINE
  5
371
330
1F
100
AcDbEntity
  8
0
  6
Continuous
 62
     7
370
    15
100
AcDbLine
 10
355.273601349
 20
255.7703335329
 30
0.0
 11
354.5684610565
 21
255.8794072962
 31
0.0
  0
ARC
  5
372
330
1F
100
AcDbEntity
  8
0
  6
Continuous
 62
     7
370
    15
100
AcDbCircle
 10
349.2060671895
 20
256.0170690481
 30
0.0
 40
6.072548821616066
100
AcDbArc
 50
357.6713573234
 51
48.7235086165
  0
LINE
  5
373
330
1F
100
AcDbEntity
  8
0
  6
Continuous
 62
     7
370
    15
100
AcDbLine
 10
363.3599977194
 20
266.4390651924
 30
0.0
 11
353.2120873659
 21
260.580801242
 31
0.0
  0
LINE
  5
374
330
1F
100
AcDbEntity
  8
0
  6
Continuous
 62
     7
370
    15
100
AcDbLine
 10
366.8071432777
 20
264.4490704199
 30
0.0
 11
363.3599977194
 21
266.4390651924
 31
0.0
  0
LINE
  5
375
330
1F
100
AcDbEntity
  8
0
  6
Continuous
 62
     7
370
    15
100
AcDbLine
 10
358.1616878352
 20
259.4581552275
 30
0.0
 11
366.8071432777
 21
264.4490704199
 31
0.0
  0
LWPOLYLINE
  5
376
330
1F
100
AcDbEntity
  8
0
  6
Continuous
 62
     7
370
    15
100
AcDbPolyline
 90
       19
 70
   128
 43
0.0
 10
341.7500666453
 20
245.3916323502
 10
343.609264696
 20
245.5296848106
 10
345.4352936675
 20
245.7742146619
 10
347.2099027222
 20
246.1227778716
 10
348.9153549552
 20
246.5718906116
 10
350.534604672
 20
247.1170640793
 10
352.0514677572
 20
247.752849362
 10
353.4507834315
 20
248.4728918978
 10
354.7185657813
 20
249.2699949885
 10
355.8421435454
 20
250.1361917291
 10
356.8102867623
 20
251.062824636
 10
357.6133190109
 20
252.0406321764
 10
358.2432141256
 20
253.0598413364
 10
358.6936764156
 20
254.1102653
 10
358.9602035898
 20
255.1814052648
 10
359.040131756
 20
256.2625553757
 10
358.9326620462
 20
257.3429097279
 10
358.6388686014
 20
258.4116703699
 10
358.1616878352
 20
259.4581552275
  0
LINE
  5
377
330
1F
100
AcDbEntity
  8
0
  6
Continuous
 62
     7
370
    15
100
AcDbLine
 10
335.2525031672
 20
241.6406687958
 30
0.0
 11
341.7500666453
 21
245.3916323502
 31
0.0
  0
LINE
  5
378
330
1F
100
AcDbEntity
  8
0
  6
Continuous
 62
     7
370
    15
100
AcDbLine
 10
328.6233770936
 20
245.46758182
 30
0.0
 11
335.2525031672
 21
241.6406687958
 31
0.0
  0
LINE
  5
379
330
1F
100
AcDbEntity
  8
0
  6
Continuous
 62
     7
370
    15
100
AcDbLine
 10
328.8885421366
 20
245.6206583409
 30
0.0
 11
328.6233770936
 21
245.46758182
 31
0.0
  0
LINE
  5
37A
330
1F
100
AcDbEntity
  8
0
  6
Continuous
 62
     7
370
    15
100
AcDbLine
 10
321.99425102
 20
249.6006478861
 30
0.0
 11
328.8885421366
 21
245.6206583409
 31
0.0
  0
LINE
  5
37B
330
1F
100
AcDbEntity
  8
0
  6
Continuous
 62
     7
370
    15
100
AcDbLine
 10
321.729085977
 20
249.4475713651
 30
0.0
 11
321.99425102
 21
249.6006478861
 31
0.0
  0
LINE
  5
37C
330
1F
100
AcDbEntity
  8
0
  6
Continuous
 62
     7
370
    15
100
AcDbLine
 10
315.0999599034
 20
253.2744843893
 30
0.0
 11
321.729085977
 21
249.4475713651
 31
0.0
  0
LINE
  5
37D
330
1F
100
AcDbEntity
  8
0
  6
Continuous
 62
     7
370
    15
100
AcDbLine
 10
321.5975233815
 20
257.0254479437
 30
0.0
 11
315.0999599034
 21
253.2744843893
 31
0.0
  0
LWPOLYLINE
  5
37E
330
1F
100
AcDbEntity
  8
0
  6
Continuous
 62
     7
370
    15
100
AcDbPolyline
 90
       19
 70
   128
 43
0.0
 10
345.9640958597
 20
266.499675192
 10
344.1513345005
 20
266.7751457848
 10
342.2999861699
 20
266.9447491304
 10
340.4285547683
 20
267.0067900732
 10
338.5557449228
 20
266.960648525
 10
336.7002750377
 20
266.8067856624
 10
334.8806902074
 20
266.5467393176
 10
333.1151768617
 20
266.1831086081
 10
331.4213809953
 20
265.7195279585
 10
329.8162317995
 20
265.1606307759
 10
328.3157724574
 20
264.512003139
 10
326.9349997959
 20
263.7801279669
 10
325.6877143943
 20
262.9723202228
 10
324.5863826504
 20
262.0966538029
 10
323.6420121809
 20
261.1618808385
 10
322.8640418021
 20
260.1773442208
 10
322.260247191
 20
259.1528842198
 10
321.8366631683
 20
258.0987401327
 10
321.5975233815
 20
257.0254479437
  0
LINE
  5
37F
330
1F
100
AcDbEntity
  8
0
  6
Continuous
 62
     7
370
    15
100
AcDbLine
 10
335.2525031672
 20
241.6406687958
 30
0.0
 11
335.2525031672
 21
195.0978425183
 31
0.0
  0
LINE
  5
380
330
1F
100
AcDbEntity
  8
0
  6
Continuous
 62
     7
370
    15
100
AcDbLine
 10
341.7500666453
 20
245.3916323502
 30
0.0
 11
341.7500666453
 21
198.8488060727
 31
0.0
  0
LINE
  5
381
330
1F
100
AcDbEntity
  8
0
  6
Continuous
 62
     7
370
    15
100
AcDbLine
 10
335.2525031672
 20
195.0978425183
 30
0.0
 11
341.7500666453
 21
198.8488060727
 31
0.0
  0
LINE
  5
382
330
1F
100
AcDbEntity
  8
0
  6
Continuous
 62
     7
370
    15
100
AcDbLine
 10
328.6233770936
 20
245.46758182
 30
0.0
 11
328.6233770936
 21
198.9247555425
 31
0.0
  0
LINE
  5
383
330
1F
100
AcDbEntity
  8
0
  6
Continuous
 62
     7
370
    15
100
AcDbLine
 10
328.6233770936
 20
198.9247555425
 30
0.0
 11
335.2525031672
 21
195.0978425183
 31
0.0
  0
LWPOLYLINE
  5
384
330
1F
100
AcDbEntity
  8
0
  6
Continuous
 62
     7
370
    15
100
AcDbPolyline
 90
       21
 70
   128
 43
0.0
 10
331.9114236261
 20
210.9571807902
 10
332.3297626782
 20
210.7921915468
 10
332.7071517892
 20
210.7963781018
 10
333.0066494834
 20
210.969330646
 10
333.1989388398
 20
211.2941193795
 10
333.2651972364
 20
211.7389517179
 10
333.1989388398
 20
212.2602843727
 10
333.0066494834
 20
212.8070856714
 10
332.7071517892
 20
213.3258308929
 10
332.3297626782
 20
213.7657416408
 10
331.9114236261
 20
214.0837563859
 10
331.493084574
 20
214.2487456293
 10
331.1156954631
 20
214.2445590743
 10
330.8161977689
 20
214.0716065301
 10
330.6239084125
 20
213.7468177966
 10
330.5576500159
 20
213.3019854582
 10
330.6239084125
 20
212.7806528033
 10
330.8161977689
 20
212.2338515047
 10
331.1156954631
 20
211.7151062831
 10
331.493084574
 20
211.2751955353
 10
331.9114236261
 20
210.9571807902
  0
LWPOLYLINE
  5
385
330
1F
100
AcDbEntity
  8
0
  6
Continuous
 62
     7
370
    15
100
AcDbPolyline
 90
       21
 70
   128
 43
0.0
 10
331.9114236261
 20
203.179629557
 10
332.3297626782
 20
203.0146403135
 10
332.7071517892
 20
203.0188268686
 10
333.0066494834
 20
203.1917794128
 10
333.1989388398
 20
203.5165681462
 10
333.2651972364
 20
203.9614004847
 10
333.1989388398
 20
204.4827331395
 10
333.0066494834
 20
205.0295344382
 10
332.7071517892
 20
205.5482796597
 10
332.3297626782
 20
205.9881904076
 10
331.9114236261
 20
206.3062051527
 10
331.493084574
 20
206.4711943961
 10
331.1156954631
 20
206.4670078411
 10
330.8161977689
 20
206.2940552968
 10
330.6239084125
 20
205.9692665634
 10
330.5576500159
 20
205.524434225
 10
330.6239084125
 20
205.0031015701
 10
330.8161977689
 20
204.4563002715
 10
331.1156954631
 20
203.9375550499
 10
331.493084574
 20
203.4976443021
 10
331.9114236261
 20
203.179629557
  0
LWPOLYLINE
  5
386
330
1F
100
AcDbEntity
  8
0
  6
Continuous
 62
     7
370
    15
100
AcDbPolyline
 90
       21
 70
   128
 43
0.0
 10
331.9114236261
 20
234.2898344898
 10
332.3297626782
 20
234.1248452464
 10
332.7071517892
 20
234.1290318014
 10
333.0066494834
 20
234.3019843457
 10
333.1989388398
 20
234.6267730791
 10
333.2651972364
 20
235.0716054175
 10
333.1989388398
 20
235.5929380724
 10
333.0066494834
 20
236.139739371
 10
332.7071517892
 20
236.6584845926
 10
332.3297626782
 20
237.0983953404
 10
331.9114236261
 20
237.4164100855
 10
331.493084574
 20
237.581399329
 10
331.1156954631
 20
237.5772127739
 10
330.8161977689
 20
237.4042602297
 10
330.6239084125
 20
237.0794714963
 10
330.5576500159
 20
236.6346391578
 10
330.6239084125
 20
236.113306503
 10
330.8161977689
 20
235.5665052043
 10
331.1156954631
 20
235.0477599828
 10
331.493084574
 20
234.6078492349
 10
331.9114236261
 20
234.2898344898
  0
LWPOLYLINE
  5
387
330
1F
100
AcDbEntity
  8
0
  6
Continuous
 62
     7
370
    15
100
AcDbPolyline
 90
       16
 70
   128
 43
0.0
 10
341.7500666453
 20
198.8488060727
 10
343.609264696
 20
198.9868585331
 10
345.4352936675
 20
199.2313883845
 10
347.2099027222
 20
199.5799515941
 10
348.9153549552
 20
200.0290643341
 10
350.534604672
 20
200.5742378018
 10
352.0514677572
 20
201.2100230845
 10
353.4507834315
 20
201.9300656203
 10
354.7185657813
 20
202.727168711
 10
355.8421435454
 20
203.5933654516
 10
356.8102867623
 20
204.5199983585
 10
357.6133190109
 20
205.4978058989
 10
358.2432141256
 20
206.5170150589
 10
358.6936764156
 20
207.5674390225
 10
358.9602035898
 20
208.6385789873
 10
359.0406389832
 20
209.6401120102
  0
LINE
  5
388
330
1F
100
AcDbEntity
  8
0
  6
Continuous
 62
     7
370
    15
100
AcDbLine
 10
321.99425102
 20
249.6006478861
 30
0.0
 11
321.99425102
 21
203.0578216086
 31
0.0
  0
LINE
  5
389
330
1F
100
AcDbEntity
  8
0
  6
Continuous
 62
     7
370
    15
100
AcDbLine
 10
321.99425102
 20
203.0578216086
 30
0.0
 11
328.6233770936
 21
199.2309085844
 31
0.0
  0
LWPOLYLINE
  5
38A
330
1F
100
AcDbEntity
  8
0
  6
Continuous
 62
     7
370
    15
100
AcDbPolyline
 90
       21
 70
   128
 43
0.0
 10
325.4413965783
 20
210.3474253062
 10
325.8597356304
 20
210.0294105611
 10
326.2371247413
 20
209.5894998132
 10
326.5366224355
 20
209.0707545917
 10
326.7289117919
 20
208.523953293
 10
326.7951701885
 20
208.0026206382
 10
326.7289117919
 20
207.5577882998
 10
326.5366224355
 20
207.2329995663
 10
326.2371247413
 20
207.0600470221
 10
325.8597356304
 20
207.0558604671
 10
325.4413965783
 20
207.2208497105
 10
325.0230575262
 20
207.5388644556
 10
324.6456684152
 20
207.9787752035
 10
324.346170721
 20
208.497520425
 10
324.1538813647
 20
209.0443217237
 10
324.087622968
 20
209.5656543785
 10
324.1538813647
 20
210.0104867169
 10
324.346170721
 20
210.3352754504
 10
324.6456684152
 20
210.5082279946
 10
325.0230575262
 20
210.5124145496
 10
325.4413965783
 20
210.3474253062
  0
LWPOLYLINE
  5
38B
330
1F
100
AcDbEntity
  8
0
  6
Continuous
 62
     7
370
    15
100
AcDbPolyline
 90
       21
 70
   128
 43
0.0
 10
325.4413965783
 20
241.4576302391
 10
325.8597356304
 20
241.1396154939
 10
326.2371247413
 20
240.6997047461
 10
326.5366224355
 20
240.1809595245
 10
326.7289117919
 20
239.6341582259
 10
326.7951701885
 20
239.1128255711
 10
326.7289117919
 20
238.6679932326
 10
326.5366224355
 20
238.3432044992
 10
326.2371247413
 20
238.1702519549
 10
325.8597356304
 20
238.1660653999
 10
325.4413965783
 20
238.3310546433
 10
325.0230575262
 20
238.6490693884
 10
324.6456684152
 20
239.0889801363
 10
324.346170721
 20
239.6077253579
 10
324.1538813647
 20
240.1545266565
 10
324.087622968
 20
240.6758593113
 10
324.1538813647
 20
241.1206916498
 10
324.346170721
 20
241.4454803832
 10
324.6456684152
 20
241.6184329275
 10
325.0230575262
 20
241.6226194825
 10
325.4413965783
 20
241.4576302391
  0
LWPOLYLINE
  5
38C
330
1F
100
AcDbEntity
  8
0
  6
Continuous
 62
     7
370
    15
100
AcDbPolyline
 90
       21
 70
   128
 43
0.0
 10
325.4413965783
 20
225.9025277726
 10
325.8597356304
 20
225.5845130275
 10
326.2371247413
 20
225.1446022797
 10
326.5366224355
 20
224.6258570581
 10
326.7289117919
 20
224.0790557595
 10
326.7951701885
 20
223.5577231046
 10
326.7289117919
 20
223.1128907662
 10
326.5366224355
 20
222.7881020328
 10
326.2371247413
 20
222.6151494885
 10
325.8597356304
 20
222.6109629335
 10
325.4413965783
 20
222.7759521769
 10
325.0230575262
 20
223.093966922
 10
324.6456684152
 20
223.5338776699
 10
324.346170721
 20
224.0526228914
 10
324.1538813647
 20
224.5994241901
 10
324.087622968
 20
225.1207568449
 10
324.1538813647
 20
225.5655891834
 10
324.346170721
 20
225.8903779168
 10
324.6456684152
 20
226.063330461
 10
325.0230575262
 20
226.0675170161
 10
325.4413965783
 20
225.9025277726
  0
LINE
  5
38D
330
1F
100
AcDbEntity
  8
0
  6
Continuous
 62
     7
370
    15
100
AcDbLine
 10
332.6963821217
 20
249.1965662626
 30
0.0
 11
332.6963821217
 21
248.7154308014
 31
0.0
  0
LINE
  5
38E
330
1F
100
AcDbEntity
  8
0
  6
Continuous
 62
     7
370
    15
100
AcDbLine
 10
315.0999599034
 20
253.2744843893
 30
0.0
 11
315.0999599034
 21
206.7316581118
 31
0.0
  0
LINE
  5
38F
330
1F
100
AcDbEntity
  8
0
  6
Continuous
 62
     7
370
    15
100
AcDbLine
 10
321.729085977
 20
249.4475713651
 30
0.0
 11
321.729085977
 21
202.9047450876
 31
0.0
  0
LINE
  5
390
330
1F
100
AcDbEntity
  8
0
  6
Continuous
 62
     7
370
    15
100
AcDbLine
 10
315.0999599034
 20
206.7316581118
 30
0.0
 11
321.729085977
 21
202.9047450876
 31
0.0
  0
LWPOLYLINE
  5
391
330
1F
100
AcDbEntity
  8
0
  6
Continuous
 62
     7
370
    15
100
AcDbPolyline
 90
       21
 70
   128
 43
0.0
 10
318.4410394445
 20
210.9559168221
 10
318.8593784966
 20
210.7909275787
 10
319.2367676076
 20
210.7951141337
 10
319.5362653018
 20
210.9680666779
 10
319.7285546581
 20
211.2928554113
 10
319.7948130548
 20
211.7376877498
 10
319.7285546581
 20
212.2590204046
 10
319.5362653018
 20
212.8058217033
 10
319.2367676076
 20
213.3245669248
 10
318.8593784966
 20
213.7644776727
 10
318.4410394445
 20
214.0824924178
 10
318.0227003924
 20
214.2474816612
 10
317.6453112815
 20
214.2432951062
 10
317.3458135873
 20
214.070342562
 10
317.1535242309
 20
213.7455538285
 10
317.0872658343
 20
213.3007214901
 10
317.1535242309
 20
212.7793888352
 10
317.3458135873
 20
212.2325875366
 10
317.6453112815
 20
211.713842315
 10
318.0227003924
 20
211.2739315672
 10
318.4410394445
 20
210.9559168221
  0
LWPOLYLINE
  5
392
330
1F
100
AcDbEntity
  8
0
  6
Continuous
 62
     7
370
    15
100
AcDbPolyline
 90
       21
 70
   128
 43
0.0
 10
318.4410394445
 20
218.7334680553
 10
318.8593784966
 20
218.5684788119
 10
319.2367676076
 20
218.5726653669
 10
319.5362653018
 20
218.7456179111
 10
319.7285546581
 20
219.0704066446
 10
319.7948130548
 20
219.515238983
 10
319.7285546581
 20
220.0365716378
 10
319.5362653018
 20
220.5833729365
 10
319.2367676076
 20
221.102118158
 10
318.8593784966
 20
221.5420289059
 10
318.4410394445
 20
221.860043651
 10
318.0227003924
 20
222.0250328944
 10
317.6453112815
 20
222.0208463394
 10
317.3458135873
 20
221.8478937952
 10
317.1535242309
 20
221.5231050617
 10
317.0872658343
 20
221.0782727233
 10
317.1535242309
 20
220.5569400685
 10
317.3458135873
 20
220.0101387698
 10
317.6453112815
 20
219.4913935483
 10
318.0227003924
 20
219.0514828004
 10
318.4410394445
 20
218.7334680553
  0
LWPOLYLINE
  5
393
330
1F
100
AcDbEntity
  8
0
  6
Continuous
 62
     7
370
    15
100
AcDbPolyline
 90
       21
 70
   128
 43
0.0
 10
318.4410394445
 20
242.0661217549
 10
318.8593784966
 20
241.9011325115
 10
319.2367676076
 20
241.9053190665
 10
319.5362653018
 20
242.0782716108
 10
319.7285546581
 20
242.4030603442
 10
319.7948130548
 20
242.8478926826
 10
319.7285546581
 20
243.3692253375
 10
319.5362653018
 20
243.9160266361
 10
319.2367676076
 20
244.4347718577
 10
318.8593784966
 20
244.8746826055
 10
318.4410394445
 20
245.1926973507
 10
318.0227003924
 20
245.3576865941
 10
317.6453112815
 20
245.3535000391
 10
317.3458135873
 20
245.1805474948
 10
317.1535242309
 20
244.8557587614
 10
317.0872658343
 20
244.4109264229
 10
317.1535242309
 20
243.8895937681
 10
317.3458135873
 20
243.3427924694
 10
317.6453112815
 20
242.8240472479
 10
318.0227003924
 20
242.3841365
 10
318.4410394445
 20
242.0661217549
  0
LINE
  5
394
330
1F
100
AcDbEntity
  8
0
  6
Continuous
 62
     7
370
    15
100
AcDbLine
 10
321.729085977
 20
202.9047450876
 30
0.0
 11
321.99425102
 21
203.0578216086
 31
0.0
  0
LINE
  5
395
330
1F
100
AcDbEntity
  8
0
  6
Continuous
 62
     7
370
    15
100
AcDbLine
 10
333.4181319995
 20
263.8799101303
 30
0.0
 11
333.4181319995
 21
248.485966445
 31
0.0
  0
LINE
  5
396
330
1F
100
AcDbEntity
  8
0
  6
Continuous
 62
     7
370
    15
100
AcDbLine
 10
352.9184896439
 20
252.324598218
 30
0.0
 11
352.9184896439
 21
251.509496079
 31
0.0
  0
LINE
  5
397
330
1F
100
AcDbEntity
  8
0
  6
Continuous
 62
     7
370
    15
100
AcDbLine
 10
353.2120873659
 20
260.580801242
 30
0.0
 11
353.2120873659
 21
252.6634319899
 31
0.0
  0
LINE
  5
398
330
1F
100
AcDbEntity
  8
0
  6
Continuous
 62
     7
370
    15
100
AcDbLine
 10
366.8071432777
 20
264.4490704199
 30
0.0
 11
366.8071432777
 21
243.0799615736
 31
0.0
  0
LINE
  5
399
330
1F
100
AcDbEntity
  8
0
  6
Continuous
 62
     7
370
    15
100
AcDbLine
 10
366.8071432777
 20
219.9669528414
 30
0.0
 11
366.8071432777
 21
217.9062441424
 31
0.0
  0
LINE
  5
39A
330
1F
100
AcDbEntity
  8
0
  6
Continuous
 62
     7
370
    15
100
AcDbLine
 10
359.0406389832
 20
213.4227366473
 30
0.0
 11
366.8071432777
 21
217.9062441424
 31
0.0
  0
LWPOLYLINE
  5
39B
330
1F
100
AcDbEntity
  8
0
  6
Continuous
 62
     7
370
    15
100
AcDbPolyline
 90
       26
 70
   128
 43
0.0
 10
362.5645025906
 20
259.5502236487
 10
362.0369516737
 20
259.1687155936
 10
361.5425487211
 20
258.6572603059
 10
361.1123588886
 20
258.0479944024
 10
360.7734125856
 20
257.3792003006
 10
360.5470070547
 20
256.6929007934
 10
360.4473681881
 20
256.0322186031
 10
360.4807566624
 20
255.4386668214
 10
360.6450745568
 20
254.9495404897
 10
360.9299971737
 20
254.5955732143
 10
361.3176217772
 20
254.3990060609
 10
361.783592488
 20
254.3721900666
 10
362.2986306525
 20
254.5168101791
 10
362.8303745287
 20
254.8237793848
 10
363.3454126931
 20
255.2738096796
 10
363.8113834039
 20
255.8386240048
 10
364.1990080075
 20
256.4827329993
 10
364.4839306244
 20
257.165664926
 10
364.6482485188
 20
257.8445086603
 10
364.681636993
 20
258.4766099538
 10
364.5819981265
 20
259.0222515576
 10
364.3555925956
 20
259.4471488028
 10
364.0166462925
 20
259.724603833
 10
363.58645646
 20
259.8371831282
 10
363.0920535075
 20
259.7778129172
 10
362.5645025906
 20
259.5502236487
  0
LWPOLYLINE
  5
39C
330
1F
100
AcDbEntity
  8
0
  6
Continuous
 62
     7
370
    15
100
AcDbPolyline
 90
       26
 70
   128
 43
0.0
 10
362.5645025906
 20
253.4261675596
 10
362.0369516737
 20
253.0446595044
 10
361.5425487211
 20
252.5332042167
 10
361.1123588886
 20
251.9239383132
 10
360.7734125856
 20
251.2551442114
 10
360.5470070547
 20
250.5688447043
 10
360.4473681881
 20
249.908162514
 10
360.4807566624
 20
249.3146107322
 10
360.6450745568
 20
248.8254844005
 10
360.9299971737
 20
248.4715171251
 10
361.3176217772
 20
248.2749499717
 10
361.783592488
 20
248.2481339775
 10
362.2986306525
 20
248.39275409
 10
362.8303745287
 20
248.6997232957
 10
363.3454126931
 20
249.1497535904
 10
363.8113834039
 20
249.7145679157
 10
364.1990080075
 20
250.3586769101
 10
364.4839306244
 20
251.0416088368
 10
364.6482485188
 20
251.7204525712
 10
364.681636993
 20
252.3525538647
 10
364.5819981265
 20
252.8981954684
 10
364.3555925956
 20
253.3230927137
 10
364.0166462925
 20
253.6005477439
 10
363.58645646
 20
253.713127039
 10
363.0920535075
 20
253.653756828
 10
362.5645025906
 20
253.4261675596
  0
LWPOLYLINE
  5
39D
330
1F
100
AcDbEntity
  8
0
  6
Continuous
 62
     7
370
    15
100
AcDbPolyline
 90
       13
 70
   128
 43
0.0
 10
361.0712717621
 20
227.3582232664
 10
360.7734125856
 20
226.7589198548
 10
360.5470070547
 20
226.0726203477
 10
360.4473681881
 20
225.4119381574
 10
360.4807566624
 20
224.8183863757
 10
360.6450745568
 20
224.329260044
 10
360.9299971737
 20
223.9752927685
 10
361.3176217772
 20
223.7787256151
 10
361.783592488
 20
223.7519096209
 10
362.2986306525
 20
223.8965297334
 10
362.8303745287
 20
224.2034989391
 10
363.3454126931
 20
224.6535292338
 10
363.6839342254
 20
225.045777924
  0
LWPOLYLINE
  5
39E
330
1F
100
AcDbEntity
  8
0
  6
Continuous
 62
     7
370
    15
100
AcDbPolyline
 90
       20
 70
   128
 43
0.0
 10
362.5645025906
 20
222.8058871139
 10
362.0369516737
 20
222.4243790587
 10
361.5425487211
 20
221.912923771
 10
361.1123588886
 20
221.3036578675
 10
360.7734125856
 20
220.6348637657
 10
360.5470070547
 20
219.9485642586
 10
360.4473681881
 20
219.2878820682
 10
360.4807566624
 20
218.6943302865
 10
360.6450745568
 20
218.2052039548
 10
360.9299971737
 20
217.8512366794
 10
361.3176217772
 20
217.654669526
 10
361.783592488
 20
217.6278535318
 10
362.2986306525
 20
217.7724736443
 10
362.8303745287
 20
218.07944285
 10
363.3454126931
 20
218.5294731447
 10
363.8113834039
 20
219.0942874699
 10
364.1990080075
 20
219.7383964644
 10
364.4839306244
 20
220.4213283911
 10
364.6482485188
 20
221.1001721254
 10
364.6624846695
 20
221.2050379026
  0
ARC
  5
39F
330
1F
100
AcDbEntity
  8
0
  6
Continuous
 62
     7
370
    15
100
AcDbCircle
 10
363.4704880352
 20
221.4980250432
 30
0.0
 40
1.591010000514466
100
AcDbArc
 50
74.0988282659
 51
124.7112155802
  0
LINE
  5
3A0
330
1F
100
AcDbEntity
  8
0
  6
Continuous
 62
     7
370
    15
100
AcDbLine
 10
347.908786507
 20
263.6423316613
 30
0.0
 11
347.908786507
 21
248.723544914
 31
0.0
  0
ARC
  5
3A1
330
1F
100
AcDbEntity
  8
0
  6
Continuous
 62
     7
370
    15
100
AcDbCircle
 10
358.0125966663
 20
259.7283605697
 30
0.0
 40
4.555390220054067
100
AcDbArc
 50
302.2464793196
 51
357.7588972131
  0
LINE
  5
3A2
330
1F
100
AcDbEntity
  8
0
  6
Continuous
 62
     7
370
    15
100
AcDbLine
 10
333.6070737714
 20
263.4728413042
 30
0.0
 11
333.6070737714
 21
248.4307153823
 31
0.0
  0
LINE
  5
3A3
330
1F
100
AcDbEntity
  8
0
  6
Continuous
 62
     7
370
    15
100
AcDbLine
 10
339.764850914
 20
264.4253495259
 30
0.0
 11
339.764850914
 21
247.5289440072
 31
0.0
  0
ARC
  5
3A4
330
1F
100
AcDbEntity
  8
0
  6
Continuous
 62
     7
370
    15
100
AcDbCircle
 10
358.932710596
 20
259.1971901044
 30
0.0
 40
2.720653541992375
100
AcDbArc
 50
309.6097371577
 51
350.395639375
  0
LINE
  5
3A5
330
1F
100
AcDbEntity
  8
0
  6
Continuous
 62
     7
370
    15
100
AcDbLine
 10
358.0566968605
 20
269.5005956118
 30
0.0
 11
358.0566968605
 21
267.9697806396
 31
0.0
  0
ARC
  5
3A6
330
1F
100
AcDbEntity
  8
0
  6
Continuous
 62
     7
370
    15
100
AcDbCircle
 10
358.0125966663
 20
253.6043044806
 30
0.0
 40
4.555390220053666
100
AcDbArc
 50
302.2464793196
 51
357.7588972131
  0
ARC
  5
3A7
330
1F
100
AcDbEntity
  8
0
  6
Continuous
 62
     7
370
    15
100
AcDbCircle
 10
358.932710596
 20
253.0731340152
 30
0.0
 40
2.720653541990667
100
AcDbArc
 50
309.6097371575
 51
350.3956393752
  0
ARC
  5
3A8
330
1F
100
AcDbEntity
  8
0
  6
Continuous
 62
     7
370
    15
100
AcDbCircle
 10
358.3846692945
 20
228.6587487619
 30
0.0
 40
3.977545422434448
100
AcDbArc
 50
301.1669481127
 51
324.9729389026
  0
LWPOLYLINE
  5
3A9
330
1F
100
AcDbEntity
  8
0
  6
Continuous
 62
     7
370
    15
100
AcDbPolyline
 90
        3
 70
   128
 43
0.0
 10
360.667276663
 20
226.4809048269
 10
361.0111029961
 20
226.8209486242
 10
361.1566085153
 20
227.0122791066
  0
ARC
  5
3AA
330
1F
100
AcDbEntity
  8
0
  6
Continuous
 62
     7
370
    15
100
AcDbCircle
 10
358.0125966663
 20
222.9840240349
 30
0.0
 40
4.555390220053896
100
AcDbArc
 50
302.2464793196
 51
357.7588972131
  0
ARC
  5
3AB
330
1F
100
AcDbEntity
  8
0
  6
Continuous
 62
     7
370
    15
100
AcDbCircle
 10
358.932710596
 20
222.4528535695
 30
0.0
 40
2.720653541989193
100
AcDbArc
 50
309.6097371575
 51
350.3956393752
  0
LINE
  5
3AC
330
1F
100
AcDbEntity
  8
0
  6
Continuous
 62
     8
370
    15
100
AcDbLine
 10
387.123532716
 20
239.2780044896
 30
0.0
 11
386.2061598602
 21
239.8075925666
 31
0.0
  0
LINE
  5
3AD
330
1F
100
AcDbEntity
  8
0
  6
Continuous
 62
     8
370
    15
100
AcDbLine
 10
376.4538756647
 20
219.0979855252
 30
0.0
 11
376.0473087573
 21
219.332691605
 31
0.0
  0
LINE
  5
3AE
330
1F
100
AcDbEntity
  8
0
  6
Continuous
 62
     7
370
    15
100
AcDbLine
 10
371.9005446576
 20
150.0549280878
 30
0.0
 11
371.1051788191
 21
149.5956238871
 31
0.0
  0
LINE
  5
3AF
330
1F
100
AcDbEntity
  8
0
  6
Continuous
 62
     7
370
    15
100
AcDbLine
 10
365.4387156869
 20
139.2153609846
 30
0.0
 11
365.4387156869
 21
138.2969018588
 31
0.0
  0
LINE
  5
3B0
330
1F
100
AcDbEntity
  8
0
  6
Continuous
 62
     7
370
    15
100
AcDbLine
 10
385.5416315934
 20
151.081931054
 30
0.0
 11
379.8857498052
 21
154.3470021114
 31
0.0
  0
LINE
  5
3B1
330
1F
100
AcDbEntity
  8
0
  6
Continuous
 62
     7
370
    15
100
AcDbLine
 10
366.4063819452
 20
129.6344636749
 30
0.0
 11
372.0234941276
 21
126.3917738346
 31
0.0
  0
LINE
  5
3B2
330
1F
100
AcDbEntity
  8
0
  6
Continuous
 62
     7
370
    15
100
AcDbLine
 10
378.3856624549
 20
154.1982923286
 30
0.0
 11
377.5902966164
 21
153.7389881279
 31
0.0
  0
LINE
  5
3B3
330
1F
100
AcDbEntity
  8
0
  6
Continuous
 62
     7
370
    15
100
AcDbLine
 10
365.7849397006
 20
131.9264572201
 30
0.0
 11
365.7849397006
 21
131.0079980943
 31
0.0
  0
LINE
  5
3B4
330
1F
100
AcDbEntity
  8
0
  6
Continuous
 62
     7
370
    15
100
AcDbLine
 10
390.3339625265
 20
148.8798828492
 30
0.0
 11
384.7162379024
 21
152.1229262445
 31
0.0
  0
LINE
  5
3B5
330
1F
100
AcDbEntity
  8
0
  6
Continuous
 62
     7
370
    15
100
AcDbLine
 10
373.3823373905
 20
126.1718358713
 30
0.0
 11
376.8896647601
 21
124.1470988785
 31
0.0
  0
LINE
  5
3B6
330
1F
100
AcDbEntity
  8
0
  6
Continuous
 62
     7
370
    15
100
AcDbLine
 10
331.0896956151
 20
153.93552844
 30
0.0
 11
336.9557770639
 21
150.5491117016
 31
0.0
  0
LINE
  5
3B7
330
1F
100
AcDbEntity
  8
0
  6
Continuous
 62
     7
370
    15
100
AcDbLine
 10
351.7495568132
 20
161.1200984882
 30
0.0
 11
350.531319596
 21
161.8233718641
 31
0.0
  0
LINE
  5
3B8
330
1F
100
AcDbEntity
  8
0
  6
Continuous
 62
     7
370
    15
100
AcDbLine
 10
344.9067767249
 20
152.0803221623
 30
0.0
 11
350.2100775838
 21
149.018791743
 31
0.0
  0
LINE
  5
3B9
330
1F
100
AcDbEntity
  8
0
  6
Continuous
 62
     7
370
    15
100
AcDbLine
 10
348.9640460476
 20
170.0997293985
 30
0.0
 11
343.1793465689
 21
173.4391653257
 31
0.0
  0
LINE
  5
3BA
330
1F
100
AcDbEntity
  8
0
  6
Continuous
 62
     7
370
    15
100
AcDbLine
 10
340.5537257123
 20
144.8112810758
 30
0.0
 11
341.3490915508
 21
145.2705852764
 31
0.0
  0
LINE
  5
3BB
330
1F
100
AcDbEntity
  8
0
  6
Continuous
 62
     7
370
    15
100
AcDbLine
 10
333.4829496382
 20
147.8783697704
 30
0.0
 11
339.0535028392
 21
144.662557858
 31
0.0
  0
LINE
  5
3BC
330
1F
100
AcDbEntity
  8
0
  6
Continuous
 62
     7
370
    15
100
AcDbLine
 10
351.7495568132
 20
171.9168858823
 30
0.0
 11
349.2204802854
 21
173.3768906847
 31
0.0
  0
LINE
  5
3BD
330
1F
100
AcDbEntity
  8
0
  6
Continuous
 62
     7
370
    15
100
AcDbLine
 10
346.3831473971
 20
144.8709122674
 30
0.0
 11
347.1785132356
 21
145.330216468
 31
0.0
  0
LINE
  5
3BE
330
1F
100
AcDbEntity
  8
0
  6
Continuous
 62
     7
370
    15
100
AcDbLine
 10
342.96947849
 20
145.8267979328
 30
0.0
 11
344.8829245239
 21
144.7221890497
 31
0.0
  0
LINE
  5
3BF
330
1F
100
AcDbEntity
  8
0
  6
Continuous
 62
     7
370
    15
100
AcDbLine
 10
370.3469188454
 20
149.3881676721
 30
0.0
 11
369.7223178205
 21
149.7487421688
 31
0.0
  0
LINE
  5
3C0
330
1F
100
AcDbEntity
  8
0
  6
Continuous
 62
     7
370
    15
100
AcDbLine
 10
364.9602048563
 20
141.4996267546
 30
0.0
 11
365.5848058812
 21
141.1390522579
 31
0.0
  0
LINE
  5
3C1
330
1F
100
AcDbEntity
  8
0
  6
Continuous
 62
     7
370
    15
100
AcDbLine
 10
350.6412925373
 20
149.7657588868
 30
0.0
 11
351.7495568132
 21
149.1259715385
 31
0.0
  0
LINE
  5
3C2
330
1F
100
AcDbEntity
  8
0
  6
Continuous
 62
     7
370
    15
100
AcDbLine
 10
357.2784215846
 20
148.4023313898
 30
0.0
 11
360.5000032304
 21
146.5425518922
 31
0.0
  0
LINE
  5
3C3
330
1F
100
AcDbEntity
  8
0
  6
Continuous
 62
     7
370
    15
100
AcDbLine
 10
360.5000032304
 20
152.604565513
 30
0.0
 11
359.9032082578
 21
152.9490879173
 31
0.0
  0
LINE
  5
3C4
330
1F
100
AcDbEntity
  8
0
  6
Continuous
 62
     7
370
    15
100
AcDbLine
 10
359.5160611077
 20
182.2438702287
 30
0.0
 11
359.5160611077
 21
178.4612455916
 31
0.0
  0
LWPOLYLINE
  5
3C5
330
1F
100
AcDbEntity
  8
0
  6
Continuous
 62
     7
370
    15
100
AcDbPolyline
 90
       49
 70
   128
 43
0.0
 10
376.0226059069
 20
129.1803194521
 10
375.6618442829
 20
130.0133010799
 10
375.4218639271
 20
130.9614767111
 10
375.30677097
 20
132.0086227977
 10
375.318534684
 20
133.1368223799
 10
375.4569537887
 20
134.32677165
 10
375.7196598949
 20
135.5581102461
 10
376.1021580281
 20
136.8097696234
 10
376.5979035393
 20
138.060333543
 10
377.1984140854
 20
139.2884045095
 10
377.8934147644
 20
140.4729698881
 10
378.671013922
 20
141.5937614368
 10
379.517906621
 20
142.6316021014
 10
380.4196022926
 20
143.5687341405
 10
381.3606726739
 20
144.3891229651
 10
382.3250157895
 20
145.0787314948
 10
383.2961314616
 20
145.6257603365
 10
384.2574036317
 20
146.0208496752
 10
385.1923846665
 20
146.2572394226
 10
386.0850767812
 20
146.3308848847
 10
386.9202057662
 20
146.2405259672
 10
387.6834823331
 20
145.9877087362
 10
388.3618466082
 20
145.5767589646
 10
388.9436915906
 20
145.0147081169
 10
389.4190617515
 20
144.3111730391
 10
389.7798233755
 20
143.4781914113
 10
390.0198037313
 20
142.5300157801
 10
390.1348966883
 20
141.4828696935
 10
390.1231329743
 20
140.3546701113
 10
389.9847138696
 20
139.1647208412
 10
389.7220077635
 20
137.9333822451
 10
389.3395096303
 20
136.6817228678
 10
388.8437641191
 20
135.4311589482
 10
388.243253573
 20
134.2030879818
 10
387.548252894
 20
133.0185226031
 10
386.7706537364
 20
131.8977310544
 10
385.9237610373
 20
130.8598903898
 10
385.0220653657
 20
129.9227583507
 10
384.0809949845
 20
129.1023695262
 10
383.1166518688
 20
128.4127609965
 10
382.1455361967
 20
127.8657321547
 10
381.1842640267
 20
127.4706428161
 10
380.2492829919
 20
127.2342530686
 10
379.3565908772
 20
127.1606076065
 10
378.5214618922
 20
127.2509665241
 10
377.7581853253
 20
127.5037837551
 10
377.0798210502
 20
127.9147335267
 10
376.4979760677
 20
128.4767843743
 10
376.0226059069
 20
129.1803194521
  0
SPLINE
  5
3C6
330
1F
100
AcDbEntity
  8
0
  6
Continuous
 62
     7
370
    15
100
AcDbSpline
210
0.0
220
0.0
230
1.0
 70
     8
 71
     3
 72
    24
 73
    20
 74
     0
 42
0.000000001
 43
0.00000001
 40
0.0
 40
0.0
 40
0.0
 40
0.0
 40
0.0621047215319143
 40
0.1245611723854011
 40
0.1882018258584955
 40
0.252290935348881
 40
0.3144179581560787
 40
0.3770314068952321
 40
0.4412631719092815
 40
0.5060870342992401
 40
0.5630880948606062
 40
0.6205042086038673
 40
0.6791934897595278
 40
0.7383031233271421
 40
0.795213203934652
 40
0.852458865272686
 40
0.9106857616676252
 40
0.9692208807176026
 40
1.0
 40
1.0
 40
1.0
 40
1.0
 10
379.9444629392364
 20
125.321328493375
 30
0.0
 10
380.0473281387416
 20
125.4047865779339
 30
0.0
 10
380.253641113536
 20
125.5721754108806
 30
0.0
 10
380.5715730898493
 20
125.8194933959883
 30
0.0
 10
380.894820690041
 20
126.0637104348814
 30
0.0
 10
381.2175373857043
 20
126.2999807933927
 30
0.0
 10
381.5355630489631
 20
126.5260851787768
 30
0.0
 10
381.848086389132
 20
126.7419133853132
 30
0.0
 10
382.1560449681173
 20
126.9482507057215
 30
0.0
 10
382.4430258638078
 20
127.1342936480862
 30
0.0
 10
382.7060146635613
 20
127.2989297443569
 30
0.0
 10
382.9461069790316
 20
127.4435956377703
 30
0.0
 10
383.1734294843391
 20
127.5743035675905
 30
0.0
 10
383.3831916989307
 20
127.6879429873729
 30
0.0
 10
383.5740664885456
 20
127.783762659144
 30
0.0
 10
383.7470066355432
 20
127.8623281217408
 30
0.0
 10
383.9039497626885
 20
127.924044527905
 30
0.0
 10
384.0229944144847
 20
127.9622186192175
 30
0.0
 10
384.0870705167036
 20
127.9771569876423
 30
0.0
 10
384.1091521694186
 20
127.9823049890385
 30
0.0
  0
SPLINE
  5
3C7
330
1F
100
AcDbEntity
  8
0
  6
Continuous
 62
     7
370
    15
100
AcDbSpline
210
0.0
220
0.0
230
1.0
 70
     8
 71
     3
 72
    27
 73
    23
 74
     0
 42
0.000000001
 43
0.00000001
 40
0.0
 40
0.0
 40
0.0
 40
0.0
 40
0.0426606797130389
 40
0.0855935073502116
 40
0.1294123204537266
 40
0.1735509225917203
 40
0.2162236415775123
 40
0.2592142218224077
 40
0.3032398763007042
 40
0.3476370058791256
 40
0.3881390265364091
 40
0.4706287588872079
 40
0.512732648949895
 40
0.5516617646078339
 40
0.6308467217354374
 40
0.6711909916324521
 40
0.7102149879124726
 40
0.789506295271562
 40
0.8298451975724501
 40
0.8716915672088584
 40
0.9567335501972662
 40
1.0
 40
1.0
 40
1.0
 40
1.0
 10
376.6391225051482
 20
124.7606309122241
 30
0.0
 10
376.6351059355335
 20
124.7183578237812
 30
0.0
 10
376.6270471731519
 20
124.6335419715565
 30
0.0
 10
376.6369967398633
 20
124.5170290571557
 30
0.0
 10
376.6639796302584
 20
124.4094394209712
 30
0.0
 10
376.7097029114175
 20
124.3143626848781
 30
0.0
 10
376.773051122382
 20
124.232821481976
 30
0.0
 10
376.8538748825255
 20
124.1650963698762
 30
0.0
 10
376.9533441818206
 20
124.1114760306123
 30
0.0
 10
377.0678434394862
 20
124.0745929147392
 30
0.0
 10
377.2363827742436
 20
124.0470185328716
 30
0.0
 10
377.4299887016853
 20
124.049603977719
 30
0.0
 10
377.6440513194979
 20
124.0823960455198
 30
0.0
 10
377.8665374607044
 20
124.1334325329419
 30
0.0
 10
378.1031931641628
 20
124.2108667535431
 30
0.0
 10
378.350762319877
 20
124.3132496541098
 30
0.0
 10
378.6041888826249
 20
124.4313089672401
 30
0.0
 10
378.8640465002359
 20
124.5714399084007
 30
0.0
 10
379.1291687022971
 20
124.7324962991022
 30
0.0
 10
379.4027236062828
 20
124.9112159461545
 30
0.0
 10
379.6782211991892
 20
125.1090405810574
 30
0.0
 10
379.8773241208558
 20
125.2677953411842
 30
0.0
 10
379.9444629392364
 20
125.321328493375
 30
0.0
  0
SPLINE
  5
3C8
330
1F
100
AcDbEntity
  8
0
  6
Continuous
 62
     7
370
    15
100
AcDbSpline
210
0.0
220
0.0
230
1.0
 70
     8
 71
     3
 72
    16
 73
    12
 74
     0
 42
0.000000001
 43
0.00000001
 40
0.0
 40
0.0
 40
0.0
 40
0.0
 40
0.1245749872500851
 40
0.2522965301459563
 40
0.3770193056407217
 40
0.5060351398636147
 40
0.6204452207885399
 40
0.7382392163821616
 40
0.8524079450193899
 40
0.9691919620652665
 40
1.0
 40
1.0
 40
1.0
 40
1.0
 10
373.5370228239785
 20
126.1889141205954
 30
0.0
 10
373.7738066280364
 20
126.2186235681769
 30
0.0
 10
374.2533549986787
 20
126.2787928742536
 30
0.0
 10
374.9116725452743
 20
126.2721990399705
 30
0.0
 10
375.5024843040904
 20
126.1903832294693
 30
0.0
 10
375.9721105750623
 20
126.0326309871458
 30
0.0
 10
376.3194765433078
 20
125.8103626734081
 30
0.0
 10
376.5423149929791
 20
125.5417298768824
 30
0.0
 10
376.655911801888
 20
125.2234673658582
 30
0.0
 10
376.6661962296955
 20
124.9552137349613
 30
0.0
 10
376.6437978857451
 20
124.7942335571912
 30
0.0
 10
376.6391225051482
 20
124.7606309122241
 30
0.0
  0
SPLINE
  5
3C9
330
1F
100
AcDbEntity
  8
0
  6
Continuous
 62
     7
370
    15
100
AcDbSpline
210
0.0
220
0.0
230
1.0
 70
     8
 71
     3
 72
    27
 73
    23
 74
     0
 42
0.000000001
 43
0.00000001
 40
0.0
 40
0.0
 40
0.0
 40
0.0
 40
0.042659551591221
 40
0.0855912291091372
 40
0.1294088172942652
 40
0.1735461665110214
 40
0.2162189802952006
 40
0.2592096562948876
 40
0.3032354101209129
 40
0.3476326405606401
 40
0.3881347241800474
 40
0.4706245875032918
 40
0.5127285464345255
 40
0.5516576810987801
 40
0.6308426793931462
 40
0.6711869720191792
 40
0.710210945812499
 40
0.7895022093597744
 40
0.8298410906383686
 40
0.8716884353547789
 40
0.9567324688438222
 40
1.0
 40
1.0
 40
1.0
 40
1.0
 10
372.024881444858
 20
128.9676991546365
 30
0.0
 10
371.9778011104963
 20
128.9060875959193
 30
0.0
 10
371.8833401156061
 20
128.7824714574172
 30
0.0
 10
371.7604396537985
 20
128.5906036703125
 30
0.0
 10
371.6525062011985
 20
128.3944903309995
 30
0.0
 10
371.5637895718817
 20
128.1977241843618
 30
0.0
 10
371.4948498457348
 20
128.0028740317325
 30
0.0
 10
371.4457806826405
 20
127.81036243014
 30
0.0
 10
371.4170713661812
 20
127.6191958758003
 30
0.0
 10
371.4103520769198
 20
127.4372254108091
 30
0.0
 10
371.4286351345765
 20
127.2101780183913
 30
0.0
 10
371.4856064600689
 20
127.0015237980028
 30
0.0
 10
371.5798574043902
 20
126.8162208614413
 30
0.0
 10
371.6955247962777
 20
126.6493416339484
 30
0.0
 10
371.8427564534951
 20
126.5069663066657
 30
0.0
 10
372.0193124526292
 20
126.3906688169135
 30
0.0
 10
372.2141260976645
 20
126.2919737381133
 30
0.0
 10
372.4343271738172
 20
126.2202568638135
 30
0.0
 10
372.6788376263038
 20
126.1755294207316
 30
0.0
 10
372.9451210730469
 20
126.1493447890947
 30
0.0
 10
373.2334366480484
 20
126.1516224054669
 30
0.0
 10
373.4604667361621
 20
126.1795101752101
 30
0.0
 10
373.5370228239785
 20
126.1889141205954
 30
0.0
  0
SPLINE
  5
3CA
330
1F
100
AcDbEntity
  8
0
  6
Continuous
 62
     7
370
    15
100
AcDbSpline
210
0.0
220
0.0
230
1.0
 70
     8
 71
     3
 72
    16
 73
    12
 74
     0
 42
0.000000001
 43
0.00000001
 40
0.0
 40
0.0
 40
0.0
 40
0.0
 40
0.1245767853925542
 40
0.2523002735379729
 40
0.3770227427746119
 40
0.506038250300359
 40
0.6204481966912063
 40
0.7382420391626483
 40
0.8524108796985009
 40
0.9691950061205779
 40
1.0
 40
1.0
 40
1.0
 40
1.0
 10
371.8025392341012
 20
133.6485731344895
 30
0.0
 10
371.9657764898452
 20
133.5031465850892
 30
0.0
 10
372.296374234409
 20
133.2086201363791
 30
0.0
 10
372.6630306806123
 20
132.6753235747888
 30
0.0
 10
372.9121651724847
 20
132.0809091974319
 30
0.0
 10
373.0099073393756
 20
131.4641468769447
 30
0.0
 10
372.9665689725809
 20
130.8421455340299
 30
0.0
 10
372.8018337757701
 20
130.2463627336563
 30
0.0
 10
372.5236057869591
 20
129.6624837342485
 30
0.0
 10
372.2442488878351
 20
129.2421340946351
 30
0.0
 10
372.0627616897824
 20
129.0150884235358
 30
0.0
 10
372.024881444858
 20
128.9676991546365
 30
0.0
  0
SPLINE
  5
3CB
330
1F
100
AcDbEntity
  8
0
  6
Continuous
 62
     7
370
    15
100
AcDbSpline
210
0.0
220
0.0
230
1.0
 70
     8
 71
     3
 72
    27
 73
    23
 74
     0
 42
0.000000001
 43
0.00000001
 40
0.0
 40
0.0
 40
0.0
 40
0.0
 40
0.0426606797130137
 40
0.085593507350161
 40
0.1294123204536539
 40
0.1735509225916202
 40
0.2162236415773912
 40
0.259214221822267
 40
0.303239876300539
 40
0.3476370058789347
 40
0.3881390265361945
 40
0.470628758886942
 40
0.5127326489496012
 40
0.5516617646075205
 40
0.6308467217350703
 40
0.6711909916320602
 40
0.7102149879120535
 40
0.7895062952710822
 40
0.8298451975719386
 40
0.8716915672084701
 40
0.956733550197131
 40
1.0
 40
1.0
 40
1.0
 40
1.0
 10
372.9693888216134
 20
138.1390661977054
 30
0.0
 10
372.8952363263123
 20
138.1008933480183
 30
0.0
 10
372.7464582900903
 20
138.0243041302128
 30
0.0
 10
372.5304310062579
 20
137.8880945042917
 30
0.0
 10
372.3205772794062
 20
137.7357799967278
 30
0.0
 10
372.1220508451528
 20
137.5683648097138
 30
0.0
 10
371.9369504017141
 20
137.3883486505958
 30
0.0
 10
371.7655415712739
 20
137.1960573541496
 30
0.0
 10
371.6072856063469
 20
136.9898288277068
 30
0.0
 10
371.4688630093257
 20
136.7776950258087
 30
0.0
 10
371.3118732412359
 20
136.492439174122
 30
0.0
 10
371.1911832164218
 20
136.1991948735738
 30
0.0
 10
371.1095235549424
 20
135.9048618587898
 30
0.0
 10
371.0539843816167
 20
135.6158820706648
 30
0.0
 10
371.0350005789422
 20
135.3316447112609
 30
0.0
 10
371.0525426098835
 20
135.0558927270836
 30
0.0
 10
371.0939064477487
 20
134.7871300981891
 30
0.0
 10
371.1703652162623
 20
134.5312027981287
 30
0.0
 10
371.2815788917992
 20
134.2892615389331
 30
0.0
 10
371.419816430204
 20
134.0531845469212
 30
0.0
 10
371.5929152059934
 20
133.8349909834099
 30
0.0
 10
371.7496778399831
 20
133.6955825707235
 30
0.0
 10
371.8025392341012
 20
133.6485731344895
 30
0.0
  0
SPLINE
  5
3CC
330
1F
100
AcDbEntity
  8
0
  6
Continuous
 62
     7
370
    15
100
AcDbSpline
210
0.0
220
0.0
230
1.0
 70
     8
 71
     3
 72
    16
 73
    12
 74
     0
 42
0.000000001
 43
0.00000001
 40
0.0
 40
0.0
 40
0.0
 40
0.0
 40
0.1245749872501314
 40
0.2522965301460535
 40
0.3770193056408673
 40
0.5060351398638153
 40
0.6204452207887889
 40
0.7382392163824588
 40
0.852407945019732
 40
0.9691919620656619
 40
1.0
 40
1.0
 40
1.0
 40
1.0
 10
375.7570491328368
 20
143.3305384553994
 30
0.0
 10
375.7870351988157
 20
143.0744313532747
 30
0.0
 10
375.8477647286052
 20
142.5557483123356
 30
0.0
 10
375.7887687616483
 20
141.7615157440774
 30
0.0
 10
375.6032045595664
 20
140.9721611497613
 30
0.0
 10
375.2883796863993
 20
140.2481148426693
 30
0.0
 10
374.8621158564737
 20
139.6009069299593
 30
0.0
 10
374.3600071786767
 20
139.0537053092396
 30
0.0
 10
373.7805815736837
 20
138.588009444009
 30
0.0
 10
373.3056652496886
 20
138.3019477236116
 30
0.0
 10
373.0274606352729
 20
138.1671943233523
 30
0.0
 10
372.9693888216134
 20
138.1390661977054
 30
0.0
  0
SPLINE
  5
3CD
330
1F
100
AcDbEntity
  8
0
  6
Continuous
 62
     7
370
    15
100
AcDbSpline
210
0.0
220
0.0
230
1.0
 70
     8
 71
     3
 72
    19
 73
    15
 74
     0
 42
0.000000001
 43
0.00000001
 40
0.0
 40
0.0
 40
0.0
 40
0.0
 40
0.0855747042399666
 40
0.1735025911132364
 40
0.2591381948407598
 40
0.3475216183007442
 40
0.4288008516343772
 40
0.5126378259333343
 40
0.5907479265425506
 40
0.6711223008798144
 40
0.7494115176306013
 40
0.8298077970746398
 40
0.9137650347532588
 40
1.0
 40
1.0
 40
1.0
 40
1.0
 10
378.9193650238656
 20
146.9022696130952
 30
0.0
 10
378.779334001776
 20
146.927204003256
 30
0.0
 10
378.4954213036888
 20
146.9777584438367
 30
0.0
 10
378.0582568947473
 20
146.9473838479748
 30
0.0
 10
377.6211267194336
 20
146.8343979402216
 30
0.0
 10
377.2104840758864
 20
146.6372815718952
 30
0.0
 10
376.8315950593952
 20
146.3637366729626
 30
0.0
 10
376.5057942342631
 20
146.0349434459077
 30
0.0
 10
376.2284852557944
 20
145.6528687337228
 30
0.0
 10
376.0100864568063
 20
145.238051459608
 30
0.0
 10
375.848033748102
 20
144.7897543958
 30
0.0
 10
375.7476464289431
 20
144.3176788855581
 30
0.0
 10
375.7076741715365
 20
143.8233805612503
 30
0.0
 10
375.7404446205218
 20
143.4962783891714
 30
0.0
 10
375.7570491328368
 20
143.3305384553994
 30
0.0
  0
SPLINE
  5
3CE
330
1F
100
AcDbEntity
  8
0
  6
Continuous
 62
     7
370
    15
100
AcDbSpline
210
0.0
220
0.0
230
1.0
 70
     8
 71
     3
 72
    16
 73
    12
 74
     0
 42
0.000000001
 43
0.00000001
 40
0.0
 40
0.0
 40
0.0
 40
0.0
 40
0.1248710696268425
 40
0.2528983544618347
 40
0.3779145965856653
 40
0.5072218623673368
 40
0.6220810633072328
 40
0.7403195802979552
 40
0.8552389276217861
 40
0.972784554977529
 40
1.0
 40
1.0
 40
1.0
 40
1.0
 10
383.0741094207249
 20
149.5322014018928
 30
0.0
 10
382.9882679234583
 20
149.2961548913902
 30
0.0
 10
382.8144152170777
 20
148.8180956078349
 30
0.0
 10
382.4427919930611
 20
148.1865664830146
 30
0.0
 10
381.982426868775
 20
147.6395394550465
 30
0.0
 10
381.4550101844324
 20
147.2278548451737
 30
0.0
 10
380.8775253231174
 20
146.9493003760327
 30
0.0
 10
380.2853950583611
 20
146.8017460842884
 30
0.0
 10
379.6713952470969
 20
146.7722439731664
 30
0.0
 10
379.2158585217462
 20
146.8301253658058
 30
0.0
 10
378.9662853977227
 20
146.8908527183617
 30
0.0
 10
378.9193650238656
 20
146.9022696130952
 30
0.0
  0
SPLINE
  5
3CF
330
1F
100
AcDbEntity
  8
0
  6
Continuous
 62
     7
370
    15
100
AcDbSpline
210
0.0
220
0.0
230
1.0
 70
     8
 71
     3
 72
    27
 73
    23
 74
     0
 42
0.000000001
 43
0.00000001
 40
0.0
 40
0.0
 40
0.0
 40
0.0
 40
0.0317264737290003
 40
0.1390829142630481
 40
0.1719046028400261
 40
0.2072804436883545
 40
0.2428391253172126
 40
0.3443479438302621
 40
0.3778973973839484
 40
0.4116205145262088
 40
0.4732565055720466
 40
0.5079730683777437
 40
0.5401729729848953
 40
0.6314982766087693
 40
0.6647275512286976
 40
0.6969605412398777
 40
0.7883041316409956
 40
0.8214916053772559
 40
0.8543440048307247
 40
0.8873365170591176
 40
0.9319665273008204
 40
1.0
 40
1.0
 40
1.0
 40
1.0
 10
386.4031263359453
 20
150.0969153153887
 30
0.0
 10
386.376882092682
 20
150.1464511789059
 30
0.0
 10
386.2618322492341
 20
150.363607119946
 30
0.0
 10
386.0942919333935
 20
150.5994715330928
 30
0.0
 10
385.905602859744
 20
150.8017529520286
 30
0.0
 10
385.7887024563551
 20
150.9093770983948
 30
0.0
 10
385.5863269166791
 20
151.0664175363167
 30
0.0
 10
385.3708516842067
 20
151.178205782288
 30
0.0
 10
385.1501292064532
 20
151.2407052327556
 30
0.0
 10
384.9791333241336
 20
151.2700951532081
 30
0.0
 10
384.8042192395486
 20
151.2729896994368
 30
0.0
 10
384.6316744833946
 20
151.2489277045903
 30
0.0
 10
384.4206225665166
 20
151.1965648081507
 30
0.0
 10
384.2151836006928
 20
151.1030163711313
 30
0.0
 10
384.0201992870935
 20
150.9709817566419
 30
0.0
 10
383.8312618817971
 20
150.8195186123725
 30
0.0
 10
383.6550855738967
 20
150.6322879566614
 30
0.0
 10
383.4963954698816
 20
150.4148503545244
 30
0.0
 10
383.4026974580672
 20
150.2687594930854
 30
0.0
 10
383.3058009560265
 20
150.0961964346917
 30
0.0
 10
383.1887492117474
 20
149.8561422466706
 30
0.0
 10
383.1172719801888
 20
149.654167046202
 30
0.0
 10
383.0741094207249
 20
149.5322014018928
 30
0.0
  0
SPLINE
  5
3D0
330
1F
100
AcDbEntity
  8
0
  6
Continuous
 62
     7
370
    15
100
AcDbSpline
210
0.0
220
0.0
230
1.0
 70
     8
 71
     3
 72
    15
 73
    11
 74
     0
 42
0.000000001
 43
0.00000001
 40
0.0
 40
0.0
 40
0.0
 40
0.0
 40
0.1255505115575923
 40
0.2542743051988537
 40
0.3799729809583487
 40
0.5099861143893006
 40
0.6254721503975524
 40
0.7443559600027047
 40
0.8704688384767251
 40
1.0
 40
1.0
 40
1.0
 40
1.0
 10
389.477174286765
 20
148.6815478155843
 30
0.0
 10
389.3629643443471
 20
148.5828725261912
 30
0.0
 10
389.1316578096715
 20
148.3830279350425
 30
0.0
 10
388.7492957865539
 20
148.2358258201051
 30
0.0
 10
388.3396076547339
 20
148.2184639210493
 30
0.0
 10
387.9273483333166
 20
148.3479312671305
 30
0.0
 10
387.5206232678025
 20
148.6080857545871
 30
0.0
 10
387.1297403549248
 20
148.9830204441563
 30
0.0
 10
386.7454757494611
 20
149.4759534834093
 30
0.0
 10
386.5182555472871
 20
149.8880911048986
 30
0.0
 10
386.4031263359453
 20
150.0969153153887
 30
0.0
  0
SPLINE
  5
3D1
330
1F
100
AcDbEntity
  8
0
  6
Continuous
 62
     7
370
    15
100
AcDbSpline
210
0.0
220
0.0
230
1.0
 70
     8
 71
     3
 72
    19
 73
    15
 74
     0
 42
0.000000001
 43
0.00000001
 40
0.0
 40
0.0
 40
0.0
 40
0.0
 40
0.0848173163342501
 40
0.1719666277871813
 40
0.2568445119593697
 40
0.3444496558075573
 40
0.4249502760439853
 40
0.507989972258889
 40
0.5852601899258992
 40
0.6647755594794323
 40
0.7421311118706749
 40
0.8215724484076479
 40
0.9094422875434499
 40
1.0
 40
1.0
 40
1.0
 40
1.0
 10
391.0001472844552
 20
145.8828580689265
 30
0.0
 10
391.0145046476861
 20
146.0528408218332
 30
0.0
 10
391.0436141202024
 20
146.3974798892161
 30
0.0
 10
391.0444568726626
 20
146.903805621581
 30
0.0
 10
391.0097327009429
 20
147.3903812987473
 30
0.0
 10
390.9369381350098
 20
147.8250625429243
 30
0.0
 10
390.8282300943575
 20
148.2029296870093
 30
0.0
 10
390.6919319141801
 20
148.5037636163698
 30
0.0
 10
390.5289859146393
 20
148.7335409390911
 30
0.0
 10
390.3486719243884
 20
148.8853195675687
 30
0.0
 10
390.1511943527221
 20
148.9623808517676
 30
0.0
 10
389.9374094820565
 20
148.9614717342559
 30
0.0
 10
389.7078920283888
 20
148.8794317828082
 30
0.0
 10
389.5548486938686
 20
148.748168265842
 30
0.0
 10
389.477174286765
 20
148.6815478155843
 30
0.0
  0
SPLINE
  5
3D2
330
1F
100
AcDbEntity
  8
0
  6
Continuous
 62
     7
370
    15
100
AcDbSpline
210
0.0
220
0.0
230
1.0
 70
     8
 71
     3
 72
    15
 73
    11
 74
     0
 42
0.000000001
 43
0.00000001
 40
0.0
 40
0.0
 40
0.0
 40
0.0
 40
0.1255523938562841
 40
0.2542782239303566
 40
0.3799765823769441
 40
0.5099893772574147
 40
0.6254752754523929
 40
0.7443589279954842
 40
0.8704703861781002
 40
1.0
 40
1.0
 40
1.0
 40
1.0
 10
391.2204788945317
 20
141.2443123918963
 30
0.0
 10
391.18035259998
 20
141.3202861050347
 30
0.0
 10
391.0990857869936
 20
141.4741538270978
 30
0.0
 10
391.0094872672092
 20
141.8515896952412
 30
0.0
 10
390.9420790380796
 20
142.3443135033258
 30
0.0
 10
390.9018181662659
 20
142.9300859860797
 30
0.0
 10
390.8856702444716
 20
143.587723585945
 30
0.0
 10
390.8937273662939
 20
144.2963650570883
 30
0.0
 10
390.9269121642139
 20
145.071173814481
 30
0.0
 10
390.9755189386539
 20
145.6098955827028
 30
0.0
 10
391.0001472844552
 20
145.8828580689265
 30
0.0
  0
SPLINE
  5
3D3
330
1F
100
AcDbEntity
  8
0
  6
Continuous
 62
     7
370
    15
100
AcDbSpline
210
0.0
220
0.0
230
1.0
 70
     8
 71
     3
 72
    19
 73
    15
 74
     0
 42
0.000000001
 43
0.00000001
 40
0.0
 40
0.0
 40
0.0
 40
0.0
 40
0.084819439314963
 40
0.1719710587643847
 40
0.2568487638895594
 40
0.3444537197813753
 40
0.4249542201458761
 40
0.5079937877788768
 40
0.5852639676497273
 40
0.6647792938728982
 40
0.7421348862892219
 40
0.8215762606479848
 40
0.9094442829817782
 40
1.0
 40
1.0
 40
1.0
 40
1.0
 10
390.0452710477727
 20
136.7216534818021
 30
0.0
 10
390.1150311083288
 20
136.8456863437445
 30
0.0
 10
390.2564693395904
 20
137.0971624530193
 30
0.0
 10
390.4685835823709
 20
137.529618281553
 30
0.0
 10
390.6739758328127
 20
137.9963743980404
 30
0.0
 10
390.8582732294269
 20
138.4724328157658
 30
0.0
 10
391.0183119874052
 20
138.9494118037857
 30
0.0
 10
391.1450711315318
 20
139.3978121146757
 30
0.0
 10
391.2409615815751
 20
139.8213406280939
 30
0.0
 10
391.3033464537276
 20
140.2014032901842
 30
0.0
 10
391.3340831720103
 20
140.5410349281171
 30
0.0
 10
391.3326584161769
 20
140.8371505310006
 30
0.0
 10
391.2985184642145
 20
141.0870558294224
 30
0.0
 10
391.2467520132441
 20
141.1913697584223
 30
0.0
 10
391.2204788945317
 20
141.2443123918963
 30
0.0
  0
SPLINE
  5
3D4
330
1F
100
AcDbEntity
  8
0
  6
Continuous
 62
     7
370
    15
100
AcDbSpline
210
0.0
220
0.0
230
1.0
 70
     8
 71
     3
 72
    11
 73
     7
 74
     0
 42
0.000000001
 43
0.00000001
 40
0.0
 40
0.0
 40
0.0
 40
0.0
 40
0.2537719365525883
 40
0.5087159351989551
 40
0.7421854335094595
 40
1.0
 40
1.0
 40
1.0
 40
1.0
 10
387.2714680604474
 20
131.5540361467343
 30
0.0
 10
387.4689894985706
 20
131.9421246958795
 30
0.0
 10
387.8649446403473
 20
132.7200942062217
 30
0.0
 10
388.6178580486336
 20
134.1107009173145
 30
0.0
 10
389.3728679994965
 20
135.5271141368514
 30
0.0
 10
389.8138525226856
 20
136.3105331960216
 30
0.0
 10
390.0452710477727
 20
136.7216534818021
 30
0.0
  0
SPLINE
  5
3D5
330
1F
100
AcDbEntity
  8
0
  6
Continuous
 62
     7
370
    15
100
AcDbSpline
210
0.0
220
0.0
230
1.0
 70
     8
 71
     3
 72
    27
 73
    23
 74
     0
 42
0.000000001
 43
0.00000001
 40
0.0
 40
0.0
 40
0.0
 40
0.0
 40
0.0426595515913608
 40
0.085591229109419
 40
0.1294088172947014
 40
0.1735461665116161
 40
0.2162189802957605
 40
0.2592096562954139
 40
0.3032354101214034
 40
0.3476326405611002
 40
0.3881347241804721
 40
0.4706245875036461
 40
0.5127285464348458
 40
0.5516576810990705
 40
0.6308426793933755
 40
0.6711869720193757
 40
0.7102109458126638
 40
0.7895022093598744
 40
0.8298410906384388
 40
0.8716884353548321
 40
0.95673246884384
 40
1.0
 40
1.0
 40
1.0
 40
1.0
 10
384.1091521694186
 20
127.9823049890385
 30
0.0
 10
384.1389668984498
 20
127.9908230381858
 30
0.0
 10
384.198786545121
 20
128.0079134732451
 30
0.0
 10
384.3034907263179
 20
128.0536375896436
 30
0.0
 10
384.4193543185237
 20
128.1150488460692
 30
0.0
 10
384.5453908791122
 20
128.1931393831467
 30
0.0
 10
384.6796559290984
 20
128.2866762119404
 30
0.0
 10
384.8218303613161
 20
128.395642934049
 30
0.0
 10
384.9730191142121
 20
128.521476826882
 30
0.0
 10
385.1272385227588
 20
128.6596112746557
 30
0.0
 10
385.3329927542337
 20
128.855921086159
 30
0.0
 10
385.5421617303077
 20
129.0726495027489
 30
0.0
 10
385.7497476540926
 20
129.3048394828452
 30
0.0
 10
385.9520867065706
 20
129.5419500065673
 30
0.0
 10
386.1489871649226
 20
129.7883751117351
 30
0.0
 10
386.3379662208784
 20
130.0405596822384
 30
0.0
 10
386.5208303775397
 20
130.2950839035216
 30
0.0
 10
386.6930252019614
 20
130.550598012012
 30
0.0
 10
386.8540020379497
 20
130.8054594664859
 30
0.0
 10
387.0098072217274
 20
131.0640650283834
 30
0.0
 10
387.1519805522927
 20
131.3179680500424
 30
0.0
 10
387.241336595669
 20
131.4945062623921
 30
0.0
 10
387.2714680604474
 20
131.5540361467343
 30
0.0
  0
LINE
  5
3D6
330
1F
100
AcDbEntity
  8
0
  6
Continuous
 62
     7
370
    15
100
AcDbLine
 10
372.9693888216
 20
138.1390661977
 30
0.0
 11
367.0165078946
 21
141.5755912084
 31
0.0
  0
ARC
  5
3D7
330
1F
100
AcDbEntity
  8
0
  6
Continuous
 62
     7
370
    15
100
AcDbCircle
 10
361.421536575
 20
147.9240979442
 30
0.0
 40
8.46210622969031
100
AcDbArc
 50
311.3898917054
 51
352.1412575875
  0
LINE
  5
3D8
330
1F
100
AcDbEntity
  8
0
  6
Continuous
 62
     7
370
    15
100
AcDbLine
 10
375.7570491328
 20
143.3305384554
 30
0.0
 11
369.8041682059
 21
146.767063466
 31
0.0
  0
LWPOLYLINE
  5
3D9
330
1F
100
AcDbEntity
  8
0
  6
Continuous
 62
     7
370
    15
100
AcDbPolyline
 90
        9
 70
   128
 43
0.0
 10
372.9664840969
 20
150.3387946237
 10
372.4936617034
 20
150.2997452637
 10
371.985985578
 20
150.1022803663
 10
371.4733059825
 20
149.7580104419
 10
370.9857673723
 20
149.28717782
 10
370.552035967
 20
148.7174664442
 10
370.1976142382
 20
148.0823741154
 10
369.94334142
 20
147.4192428938
 10
369.8041682059
 20
146.767063466
  0
LINE
  5
3DA
330
1F
100
AcDbEntity
  8
0
  6
Continuous
 62
     7
370
    15
100
AcDbLine
 10
378.9193650239
 20
146.9022696131
 30
0.0
 11
372.9664840969
 21
150.3387946237
 31
0.0
  0
LINE
  5
3DB
330
1F
100
AcDbEntity
  8
0
  6
Continuous
 62
     7
370
    15
100
AcDbLine
 10
371.8025392341
 20
133.6485731345
 30
0.0
 11
365.8496583071
 21
137.0850981451
 31
0.0
  0
LWPOLYLINE
  5
3DC
330
1F
100
AcDbEntity
  8
0
  6
Continuous
 62
     7
370
    15
100
AcDbPolyline
 90
        9
 70
   128
 43
0.0
 10
367.0165078946
 20
141.5755912084
 10
366.5389426373
 20
141.079215824
 10
366.1214154707
 20
140.4912509311
 10
365.7884760926
 20
139.8462675982
 10
365.5597006206
 20
139.1821894553
 10
365.4485405596
 20
138.5380628658
 10
365.4615318816
 20
137.951761085
 10
365.5979107248
 20
137.457757394
 10
365.8496583071
 20
137.0850981451
  0
ARC
  5
3DD
330
1F
100
AcDbEntity
  8
0
  6
Continuous
 62
     7
370
    15
100
AcDbCircle
 10
372.6523198612
 20
155.4135561196
 30
0.0
 40
5.084476709218121
100
AcDbArc
 50
273.5424999107
 51
331.3204696374
  0
LINE
  5
3DE
330
1F
100
AcDbEntity
  8
0
  6
Continuous
 62
     7
370
    15
100
AcDbLine
 10
383.0741094207
 20
149.5322014019
 30
0.0
 11
377.1130211392
 21
152.9734644175
 31
0.0
  0
LINE
  5
3DF
330
1F
100
AcDbEntity
  8
0
  6
Continuous
 62
     7
370
    15
100
AcDbLine
 10
372.0248814449
 20
128.9676991546
 30
0.0
 11
366.0720005179
 21
132.4042241653
 31
0.0
  0
LWPOLYLINE
  5
3E0
330
1F
100
AcDbEntity
  8
0
  6
Continuous
 62
     7
370
    15
100
AcDbPolyline
 90
        9
 70
   128
 43
0.0
 10
365.8496583071
 20
137.0850981451
 10
366.1505485696
 20
136.7229318435
 10
366.3791576451
 20
136.273364904
 10
366.5304115301
 20
135.7463755135
 10
366.6009531285
 20
135.1536602589
 10
366.5892167616
 20
134.5083745196
 10
366.4954629195
 20
133.8248404827
 10
366.3217724789
 20
133.1182292603
 10
366.0720005179
 20
132.4042241653
  0
LINE
  5
3E1
330
1F
100
AcDbEntity
  8
0
  6
Continuous
 62
     7
370
    15
100
AcDbLine
 10
369.8041682059
 20
146.767063466
 30
0.0
 11
369.7958054813
 21
147.5475950165
 31
0.0
  0
LINE
  5
3E2
330
1F
100
AcDbEntity
  8
0
  6
Continuous
 62
     7
370
    15
100
AcDbLine
 10
366.4194263641
 20
141.259749095
 30
0.0
 11
367.0165078946
 21
141.5755912084
 31
0.0
  0
ARC
  5
3E3
330
1F
100
AcDbEntity
  8
0
  6
Continuous
 62
     7
370
    15
100
AcDbCircle
 10
359.6143753305
 20
148.9642800177
 30
0.0
 40
10.27951926446051
100
AcDbArc
 50
311.4526521287
 51
352.0784971642
  0
ARC
  5
3E4
330
1F
100
AcDbEntity
  8
0
  6
Continuous
 62
     7
370
    15
100
AcDbCircle
 10
372.6619943117
 20
147.1577221731
 30
0.0
 40
2.892583489778814
100
AcDbArc
 50
122.5618248414
 51
172.2538927376
  0
ARC
  5
3E5
330
1F
100
AcDbEntity
  8
0
  6
Continuous
 62
     7
370
    15
100
AcDbCircle
 10
368.3157510529
 20
139.0926439663
 30
0.0
 40
2.879651361539918
100
AcDbArc
 50
131.1875378676
 51
177.5575872742
  0
LWPOLYLINE
  5
3E6
330
1F
100
AcDbEntity
  8
0
  6
Continuous
 62
     7
370
    15
100
AcDbPolyline
 90
        7
 70
   128
 43
0.0
 10
379.8857498052
 20
154.3470021114
 10
379.5575117153
 20
154.4673135511
 10
379.0921007892
 20
154.4664142153
 10
378.584256993
 20
154.302216618
 10
378.0644993261
 20
153.9845882548
 10
377.5640627547
 20
153.5326170812
 10
377.1130211392
 20
152.9734644175
  0
LWPOLYLINE
  5
3E7
330
1F
100
AcDbEntity
  8
0
  6
Continuous
 62
     7
370
    15
100
AcDbPolyline
 90
        7
 70
   128
 43
0.0
 10
366.0720005179
 20
132.4042241653
 10
365.8694436474
 20
131.7412927247
 10
365.7866471913
 20
131.1072496964
 10
365.8284794027
 20
130.539375444
 10
365.9924806378
 20
130.0710597496
 10
366.2690079773
 20
129.7298385667
 10
366.4063819452
 20
129.6344636749
  0
LINE
  5
3E8
330
1F
100
AcDbEntity
  8
0
  6
Continuous
 62
     7
370
    15
100
AcDbLine
 10
377.1130211392
 20
152.9734644175
 30
0.0
 11
376.7949389096
 21
152.9735121791
 31
0.0
  0
ARC
  5
3E9
330
1F
100
AcDbEntity
  8
0
  6
Continuous
 62
     7
370
    15
100
AcDbCircle
 10
369.2542083171
 20
158.0576338889
 30
0.0
 40
9.094553943297884
100
AcDbArc
 50
305.2828617579
 51
326.0113092328
  0
LINE
  5
3EA
330
1F
100
AcDbEntity
  8
0
  6
Continuous
 62
     7
370
    15
100
AcDbLine
 10
365.9615502099
 20
132.7918828124
 30
0.0
 11
366.0720005179
 21
132.4042241653
 31
0.0
  0
ARC
  5
3EB
330
1F
100
AcDbEntity
  8
0
  6
Continuous
 62
     7
370
    15
100
AcDbCircle
 10
358.0372279252
 20
136.0834201468
 30
0.0
 40
8.58074016015531
100
AcDbArc
 50
337.4433960918
 51
355.1230173354
  0
ARC
  5
3EC
330
1F
100
AcDbEntity
  8
0
  6
Continuous
 62
     7
370
    15
100
AcDbCircle
 10
378.9080817787
 20
151.5738198528
 30
0.0
 40
2.534661987982359
100
AcDbArc
 50
121.3259248536
 51
146.4805172553
  0
ARC
  5
3ED
330
1F
100
AcDbEntity
  8
0
  6
Continuous
 62
     7
370
    15
100
AcDbCircle
 10
368.1356582839
 20
131.8974712014
 30
0.0
 40
2.350897285568633
100
AcDbArc
 50
157.6381048142
 51
179.2935384178
  0
LWPOLYLINE
  5
3EE
330
1F
100
AcDbEntity
  8
0
  6
Continuous
 62
     7
370
    15
100
AcDbPolyline
 90
       15
 70
   128
 43
0.0
 10
365.8050178281
 20
140.4833697089
 10
365.6255337995
 20
140.9748113327
 10
365.5001481801
 20
141.7130322175
 10
365.5021184338
 20
142.5376007108
 10
365.631381235
 20
143.4220145028
 10
365.8837819708
 20
144.3378478066
 10
366.251208274
 20
145.2556649862
 10
366.7218507608
 20
146.1459666422
 10
367.2805825946
 20
146.980137747
 10
367.9094456743
 20
147.7313673548
 10
368.5882278233
 20
148.3755103279
 10
369.2951124247
 20
148.8918633813
 10
370.0073796258
 20
149.2638305028
 10
370.7021365728
 20
149.4794563631
 10
370.988082511
 20
149.5220206546
  0
ARC
  5
3EF
330
1F
100
AcDbEntity
  8
0
  6
Continuous
 62
     7
370
    15
100
AcDbCircle
 10
384.1286893262
 20
150.9866228948
 30
0.0
 40
1.2792179767652
100
AcDbArc
 50
62.657863435
 51
111.9236385708
  0
ARC
  5
3F0
330
1F
100
AcDbEntity
  8
0
  6
Continuous
 62
     7
370
    15
100
AcDbCircle
 10
343.5038995596
 20
160.2428889692
 30
0.0
 40
4.295341444033831
100
AcDbArc
 50
112.4107730338
 51
183.3660949302
  0
LINE
  5
3F1
330
1F
100
AcDbEntity
  8
0
  6
Continuous
 62
     7
370
    15
100
AcDbLine
 10
341.8663255157
 20
164.2138220297
 30
0.0
 11
342.4562240661
 21
162.7485059967
 31
0.0
  0
ARC
  5
3F2
330
1F
100
AcDbEntity
  8
0
  6
Continuous
 62
     7
370
    15
100
AcDbCircle
 10
343.4796523645
 20
160.2668073641
 30
0.0
 40
2.68444288170639
100
AcDbArc
 50
112.4107730338
 51
183.3660949302
  0
LINE
  5
3F3
330
1F
100
AcDbEntity
  8
0
  6
Continuous
 62
     7
370
    15
100
AcDbLine
 10
339.215968662
 20
159.9906852055
 30
0.0
 11
340.7998408233
 21
160.1091885561
 31
0.0
  0
LWPOLYLINE
  5
3F4
330
1F
100
AcDbEntity
  8
0
  6
Continuous
 62
     7
370
    15
100
AcDbPolyline
 90
       19
 70
   128
 43
0.0
 10
350.531319596
 20
161.8233718641
 10
350.0455162056
 20
162.020294283
 10
349.4320826973
 20
162.0859944189
 10
348.7635908496
 20
161.9866788328
 10
348.0615265403
 20
161.7255396094
 10
347.3484546941
 20
161.3109699781
 10
346.6472940269
 20
160.756294548
 10
345.9805804193
 20
160.0793410439
 10
345.3697425954
 20
159.3018673083
 10
344.8344133854
 20
158.4488619868
 10
344.3917987105
 20
157.5477413723
 10
344.0561245706
 20
156.6274682228
 10
343.8381798087
 20
155.7176208745
 10
343.7449693488
 20
154.8474425698
 10
343.7794890519
 20
154.0449015555
 10
343.9406294262
 20
153.33579216
 10
344.2232112874
 20
152.7429057428
 10
344.6181522222
 20
152.2852981612
 10
344.9067767249
 20
152.0803221623
  0
ARC
  5
3F5
330
1F
100
AcDbEntity
  8
0
  6
Continuous
 62
     7
370
    15
100
AcDbCircle
 10
357.9111747028
 20
141.9393401051
 30
0.0
 40
10.71721373356233
100
AcDbArc
 50
137.714598782
 51
154.7190110041
  0
LWPOLYLINE
  5
3F6
330
1F
100
AcDbEntity
  8
0
  6
Continuous
 62
     7
370
    15
100
AcDbPolyline
 90
        9
 70
   128
 43
0.0
 10
346.040394265
 20
145.418470234
 10
346.2366373458
 20
145.2397323941
 10
346.4877704334
 20
145.1555054964
 10
346.7791548142
 20
145.1706991824
 10
347.0938055003
 20
145.2844278021
 10
347.4133812956
 20
145.4900620392
 10
347.7192539159
 20
145.7756153382
 10
347.9935938443
 20
146.1244426088
 10
348.2204096251
 20
146.5162104792
  0
LWPOLYLINE
  5
3F7
330
1F
100
AcDbEntity
  8
0
  6
Continuous
 62
     7
370
    15
100
AcDbPolyline
 90
        9
 70
   128
 43
0.0
 10
341.5061850158
 20
145.3720882229
 10
342.1744452576
 20
145.8072667683
 10
342.8416696291
 20
146.1269865993
 10
343.4931347036
 20
146.3241925609
 10
344.1144648099
 20
146.3945329723
 10
344.6919492555
 20
146.3364556539
 10
345.2128448759
 20
146.1512421796
 10
345.6656572342
 20
145.8429795957
 10
346.040394265
 20
145.418470234
  0
LWPOLYLINE
  5
3F8
330
1F
100
AcDbEntity
  8
0
  6
Continuous
 62
     7
370
    15
100
AcDbPolyline
 90
        9
 70
   128
 43
0.0
 10
340.0631184809
 20
146.4327666973
 10
340.0230639658
 20
146.0429092732
 10
340.0602919134
 20
145.6972691393
 10
340.172632282
 20
145.4159938871
 10
340.3535366773
 20
145.2154792368
 10
340.5924600628
 20
145.1074133197
 10
340.8754754366
 20
145.0980953695
 10
341.1860856456
 20
145.1880685357
 10
341.5061850158
 20
145.3720882229
  0
LWPOLYLINE
  5
3F9
330
1F
100
AcDbEntity
  8
0
  6
Continuous
 62
     7
370
    15
100
AcDbPolyline
 90
        9
 70
   128
 43
0.0
 10
338.4471538819
 20
151.006507316
 10
338.9462600913
 20
150.7834090723
 10
339.3745582093
 20
150.4399669817
 10
339.7226667147
 20
149.9837038632
 10
339.9829605742
 20
149.4246137887
 10
340.149738263
 20
148.7749431707
 10
340.2193466517
 20
148.0489225146
 10
340.1902610254
 20
147.2624547114
 10
340.0631184809
 20
146.4327666973
  0
LWPOLYLINE
  5
3FA
330
1F
100
AcDbEntity
  8
0
  6
Continuous
 62
     7
370
    15
100
AcDbPolyline
 90
        9
 70
   128
 43
0.0
 10
338.5877607451
 20
153.6303193502
 10
338.3284410284
 20
153.2544518793
 10
338.1245636121
 20
152.8445309634
 10
337.9883805604
 20
152.425190902
 10
337.9280758276
 20
152.0216320404
 10
337.9472734417
 20
151.6581063489
 10
338.0448197172
 20
151.3564599944
 10
338.2148525865
 20
151.1348204897
 10
338.4471538819
 20
151.006507316
  0
ARC
  5
3FB
330
1F
100
AcDbEntity
  8
0
  6
Continuous
 62
     7
370
    15
100
AcDbCircle
 10
331.5293782652
 20
159.657332438
 30
0.0
 40
9.28146809467604
100
AcDbArc
 50
319.5066424145
 51
2.7904730096
  0
ARC
  5
3FC
330
1F
100
AcDbEntity
  8
0
  6
Continuous
 62
     7
370
    15
100
AcDbCircle
 10
339.4352703442
 20
170.6097504564
 30
0.0
 40
8.421717511650309
100
AcDbArc
 50
291.0209896965
 51
337.3190484082
  0
LWPOLYLINE
  5
3FD
330
1F
100
AcDbEntity
  8
0
  6
Continuous
 62
     7
370
    15
100
AcDbPolyline
 90
        9
 70
   128
 43
0.0
 10
349.4075783652
 20
168.471088427
 10
349.2117240061
 20
168.6574769496
 10
348.9586634509
 20
168.7468183159
 10
348.6636044367
 20
168.7337435343
 10
348.3442786084
 20
168.6190383371
 10
348.019875931
 20
168.4095959615
 10
347.7098914644
 20
168.1180028994
 10
347.4329538021
 20
167.7617825084
 10
347.2057055819
 20
167.3623419414
  0
ARC
  5
3FE
330
1F
100
AcDbEntity
  8
0
  6
Continuous
 62
     7
370
    15
100
AcDbCircle
 10
351.2970204903
 20
169.8228762897
 30
0.0
 40
2.323213715910097
100
AcDbArc
 50
215.5815545288
 51
281.2323939645
  0
SPLINE
  5
3FF
330
1F
100
AcDbEntity
  8
0
  6
Continuous
 62
     7
370
    15
100
AcDbSpline
210
0.0
220
0.0
230
1.0
 70
     8
 71
     3
 72
    19
 73
    15
 74
     0
 42
0.000000001
 43
0.00000001
 40
0.0
 40
0.0
 40
0.0
 40
0.0
 40
0.0848173163342513
 40
0.1719666277871808
 40
0.2568445119593697
 40
0.3444496558075567
 40
0.4249502760439852
 40
0.5079899722588886
 40
0.5852601899258993
 40
0.6647755594794322
 40
0.7421311118706747
 40
0.8215724484076479
 40
0.90944228754345
 40
1.0
 40
1.0
 40
1.0
 40
1.0
 10
333.2548803805454
 20
163.4319482210767
 30
0.0
 10
333.2843067317118
 20
163.5346690797152
 30
0.0
 10
333.3439684917963
 20
163.7429350379762
 30
0.0
 10
333.4843810767599
 20
164.1164076780392
 30
0.0
 10
333.6633779123416
 20
164.5284235668026
 30
0.0
 10
333.8747661268345
 20
164.9569625637545
 30
0.0
 10
334.1141814615884
 20
165.3931960880927
 30
0.0
 10
334.3655965134764
 20
165.8093590398206
 30
0.0
 10
334.6294963494796
 20
166.2083651856027
 30
0.0
 10
334.892646236542
 20
166.5725237848611
 30
0.0
 10
335.1558628748699
 20
166.9049133922792
 30
0.0
 10
335.4174525432221
 20
167.2035711397959
 30
0.0
 10
335.6760676961622
 20
167.4668439489053
 30
0.0
 10
335.828084051856
 20
167.591711004566
 30
0.0
 10
335.9052372342247
 20
167.6550850452952
 30
0.0
  0
LINE
  5
400
330
1F
100
AcDbEntity
  8
0
  6
Continuous
 62
     7
370
    15
100
AcDbLine
 10
335.9052372342
 20
167.6550850453
 30
0.0
 11
341.8663255157
 21
164.2138220297
 31
0.0
  0
LINE
  5
401
330
1F
100
AcDbEntity
  8
0
  6
Continuous
 62
     7
370
    15
100
AcDbLine
 10
333.2548803805
 20
163.4319482211
 30
0.0
 11
339.215968662
 21
159.9906852055
 31
0.0
  0
ARC
  5
402
330
1F
100
AcDbEntity
  8
0
  6
Continuous
 62
     7
370
    15
100
AcDbCircle
 10
331.5814700848
 20
159.6185684024
 30
0.0
 40
7.643561960320521
100
AcDbArc
 50
319.5066424145
 51
2.7904730096
  0
LINE
  5
403
330
1F
100
AcDbEntity
  8
0
  6
Continuous
 62
     7
370
    15
100
AcDbLine
 10
337.3942556564
 20
154.6551458595
 30
0.0
 11
338.5877607451
 21
153.6303193502
 31
0.0
  0
SPLINE
  5
404
330
1F
100
AcDbEntity
  8
0
  6
Continuous
 62
     7
370
    15
100
AcDbSpline
210
0.0
220
0.0
230
1.0
 70
     8
 71
     3
 72
    15
 73
    11
 74
     0
 42
0.000000001
 43
0.00000001
 40
0.0
 40
0.0
 40
0.0
 40
0.0
 40
0.1255523938562851
 40
0.2542782239303562
 40
0.3799765823769444
 40
0.5099893772574148
 40
0.6254752754523933
 40
0.7443589279954842
 40
0.8704703861781008
 40
1.0
 40
1.0
 40
1.0
 40
1.0
 10
331.4331673749355
 20
158.0964088750442
 30
0.0
 10
331.5226968221466
 20
158.3281390270851
 30
0.0
 10
331.7040186442727
 20
158.7974564943371
 30
0.0
 10
331.9745993638788
 20
159.5472548089562
 30
0.0
 10
332.2447091528635
 20
160.3170426036294
 30
0.0
 10
332.4968296080474
 20
161.0508217925623
 30
0.0
 10
332.7283940995142
 20
161.7348902892477
 30
0.0
 10
332.9341440448587
 20
162.3579302479014
 30
0.0
 10
333.1188924152453
 20
162.9405020346425
 30
0.0
 10
333.2091487886099
 20
163.2666790635693
 30
0.0
 10
333.2548803805454
 20
163.4319482210767
 30
0.0
  0
LINE
  5
405
330
1F
100
AcDbEntity
  8
0
  6
Continuous
 62
     7
370
    15
100
AcDbLine
 10
331.4331673749
 20
158.096408875
 30
0.0
 11
337.3942556564
 21
154.6551458595
 31
0.0
  0
ARC
  5
406
330
1F
100
AcDbEntity
  8
0
  6
Continuous
 62
     7
370
    15
100
AcDbCircle
 10
339.3784812742
 20
170.6877880554
 30
0.0
 40
6.935532068417375
100
AcDbArc
 50
291.0209896965
 51
337.3190484082
  0
LINE
  5
407
330
1F
100
AcDbEntity
  8
0
  6
Continuous
 62
     7
370
    15
100
AcDbLine
 10
345.7776632346
 20
168.0134516313
 30
0.0
 11
347.2057055819
 21
167.3623419414
 31
0.0
  0
SPLINE
  5
408
330
1F
100
AcDbEntity
  8
0
  6
Continuous
 62
     7
370
    15
100
AcDbSpline
210
0.0
220
0.0
230
1.0
 70
     8
 71
     3
 72
    15
 73
    11
 74
     0
 42
0.000000001
 43
0.00000001
 40
0.0
 40
0.0
 40
0.0
 40
0.0
 40
0.1255505115575924
 40
0.2542743051988535
 40
0.3799729809583484
 40
0.5099861143893006
 40
0.625472150397552
 40
0.7443559600027042
 40
0.8704688384767255
 40
1.0
 40
1.0
 40
1.0
 40
1.0
 10
335.9052372342247
 20
167.6550850452952
 30
0.0
 10
336.0181077379601
 20
167.7454177403879
 30
0.0
 10
336.2467015410335
 20
167.9283662843363
 30
0.0
 10
336.6657603079078
 20
168.3041313408192
 30
0.0
 10
337.1445505369985
 20
168.7518905177322
 30
0.0
 10
337.6567867545726
 20
169.2451218400582
 30
0.0
 10
338.1891832701679
 20
169.7677026407582
 30
0.0
 10
338.726764130809
 20
170.3064652176754
 30
0.0
 10
339.2816070214743
 20
170.8759663520893
 30
0.0
 10
339.636669763781
 20
171.2600864918083
 30
0.0
 10
339.8165749531415
 20
171.4547146468899
 30
0.0
  0
LINE
  5
409
330
1F
100
AcDbEntity
  8
0
  6
Continuous
 62
     7
370
    15
100
AcDbLine
 10
339.8165749531
 20
171.4547146469
 30
0.0
 11
345.7776632346
 21
168.0134516313
 31
0.0
  0
LWPOLYLINE
  5
40A
330
1F
100
AcDbEntity
  8
0
  6
Continuous
 62
     7
370
    15
100
AcDbPolyline
 90
        9
 70
   128
 43
0.0
 10
337.16927248
 20
150.4568190302
 10
336.7975702588
 20
150.6621312373
 10
336.5255029203
 20
151.0167736686
 10
336.3694204189
 20
151.4994339988
 10
336.3387025713
 20
152.0811066353
 10
336.4351953742
 20
152.7268358163
 10
336.6531000687
 20
153.3978162857
 10
336.9793216178
 20
154.0537253054
 10
337.3942556564
 20
154.6551458595
  0
LINE
  5
40B
330
1F
100
AcDbEntity
  8
0
  6
Continuous
 62
     7
370
    15
100
AcDbLine
 10
337.16927248
 20
150.4568190302
 30
0.0
 11
338.4471538819
 21
151.006507316
 31
0.0
  0
SPLINE
  5
40C
330
1F
100
AcDbEntity
  8
0
  6
Continuous
 62
     7
370
    15
100
AcDbSpline
210
0.0
220
0.0
230
1.0
 70
     8
 71
     3
 72
    19
 73
    15
 74
     0
 42
0.000000001
 43
0.00000001
 40
0.0
 40
0.0
 40
0.0
 40
0.0
 40
0.0157259715211478
 40
0.1094572844980408
 40
0.2007430092396828
 40
0.2949618842404873
 40
0.3815399380062074
 40
0.4708487512267327
 40
0.5539526047065725
 40
0.6394711065516162
 40
0.7226668209754354
 40
0.8081057878056169
 40
0.9026075899988537
 40
0.9999999999999999
 40
0.9999999999999999
 40
0.9999999999999999
 40
0.9999999999999999
 10
331.092341522269
 20
153.9404537862276
 30
0.0
 10
331.0842265944814
 20
153.9430974967703
 30
0.0
 10
331.0277443632672
 20
153.961498482466
 30
0.0
 10
330.9432471840246
 20
154.074752719221
 30
0.0
 10
330.8464426940498
 20
154.2866159630497
 30
0.0
 10
330.7852833627842
 20
154.5768980076178
 30
0.0
 10
330.7583854574072
 20
154.9293315615469
 30
0.0
 10
330.7663924242013
 20
155.320271089125
 30
0.0
 10
330.8072597959244
 20
155.7485388847147
 30
0.0
 10
330.8771240947501
 20
156.1921775834299
 30
0.0
 10
330.9748655156365
 20
156.6527632218143
 30
0.0
 10
331.100377827564
 20
157.1295175370145
 30
0.0
 10
331.2537303798
 20
157.6221191206996
 30
0.0
 10
331.3727573868518
 20
157.9367325586494
 30
0.0
 10
331.4331673749355
 20
158.0964088750442
 30
0.0
  0
LWPOLYLINE
  5
40D
330
1F
100
AcDbEntity
  8
0
  6
Continuous
 62
     7
370
    15
100
AcDbPolyline
 90
       16
 70
   128
 43
0.0
 10
351.7495568132
 20
157.5070779212
 10
351.2838812782
 20
157.0178106245
 10
350.6730434543
 20
156.2403368889
 10
350.1377142443
 20
155.3873315674
 10
349.6950995694
 20
154.4862109529
 10
349.3594254295
 20
153.5659378034
 10
349.1414806676
 20
152.6560904552
 10
349.0482702077
 20
151.7859121505
 10
349.0827899108
 20
150.9833711362
 10
349.2439302851
 20
150.2742617407
 10
349.5265121463
 20
149.6813753235
 10
349.9214530811
 20
149.2237677419
 10
350.4160593628
 20
148.91614688
 10
350.9944339384
 20
148.7683999255
 10
351.6379873734
 20
148.785275587
 10
351.7495568132
 20
148.8040206653
  0
SPLINE
  5
40E
330
1F
100
AcDbEntity
  8
0
  6
Continuous
 62
     7
370
    15
100
AcDbSpline
210
0.0
220
0.0
230
1.0
 70
    11
 71
     3
 72
    26
 73
    22
 74
     0
 42
0.000000001
 43
0.00000001
 40
0.0
 40
0.0
 40
0.0
 40
0.0
 40
0.0528161907816166
 40
0.105603020835475
 40
0.1591576820789749
 40
0.2133001656835944
 40
0.2665833579797215
 40
0.318892641216189
 40
0.3716328642162759
 40
0.4255238010782919
 40
0.4795193886672846
 40
0.5324287538311302
 40
0.5847606932190302
 40
0.6378540884598604
 40
0.6919309100643303
 40
0.7456854107666905
 40
0.7982562387819664
 40
0.8506515624256568
 40
0.9041239276727927
 40
0.9582726905468664
 40
0.9999999999999999
 40
0.9999999999999999
 40
0.9999999999999999
 40
0.9999999999999999
 10
346.8681060427414
 20
157.8575267726529
 30
0.0
 10
346.951845259655
 20
157.9671894787506
 30
0.0
 10
347.1192771425227
 20
158.1864539290172
 30
0.0
 10
347.4804356913298
 20
158.3973009780034
 30
0.0
 10
347.871265479875
 20
158.4943612279801
 30
0.0
 10
348.2518851655462
 20
158.4628776803608
 30
0.0
 10
348.5663846232983
 20
158.3116212084952
 30
0.0
 10
348.7796416861046
 20
158.0623081868068
 30
0.0
 10
348.8768307123904
 20
157.7388345924448
 30
0.0
 10
348.8528353390077
 20
157.366441387189
 30
0.0
 10
348.7135167694513
 20
156.9825100388582
 30
0.0
 10
348.481028956975
 20
156.6326264914102
 30
0.0
 10
348.1837690055707
 20
156.3548182378821
 30
0.0
 10
347.8462477489022
 20
156.1781455081262
 30
0.0
 10
347.4953470119896
 20
156.1291459014373
 30
0.0
 10
347.1669939869143
 20
156.2220685662184
 30
0.0
 10
346.8985666338722
 20
156.4449483536602
 30
0.0
 10
346.7175868449747
 20
156.7690423010035
 30
0.0
 10
346.6497175349942
 20
157.1581640394831
 30
0.0
 10
346.7010419956561
 20
157.5421445056449
 30
0.0
 10
346.8174449826641
 20
157.761889199788
 30
0.0
 10
346.8681060427414
 20
157.8575267726529
 30
0.0
  0
LWPOLYLINE
  5
40F
330
1F
100
AcDbEntity
  8
0
  6
Continuous
 62
     7
370
    15
100
AcDbPolyline
 90
        9
 70
   128
 43
0.0
 10
345.7776632346
 20
168.0134516313
 10
346.1412800972
 20
168.6525911836
 10
346.5844043769
 20
169.2225747058
 10
347.0804064098
 20
169.6891488963
 10
347.5994788303
 20
170.024274863
 10
348.1104278522
 20
170.2078131275
 10
348.5825478667
 20
170.2287339121
 10
348.987466704
 20
170.0857799771
 10
349.3008506658
 20
169.7875421746
  0
LINE
  5
410
330
1F
100
AcDbEntity
  8
0
  6
Continuous
 62
     7
370
    15
100
AcDbLine
 10
349.3008506658
 20
169.7875421746
 30
0.0
 11
349.4075783652
 21
168.471088427
 31
0.0
  0
SPLINE
  5
411
330
1F
100
AcDbEntity
  8
0
  6
Continuous
 62
     7
370
    15
100
AcDbSpline
210
0.0
220
0.0
230
1.0
 70
     8
 71
     3
 72
    25
 73
    21
 74
     0
 42
0.000000001
 43
0.00000001
 40
0.0
 40
0.0
 40
0.0
 40
0.0
 40
0.036743851870886
 40
0.1610781596185176
 40
0.1990904289153249
 40
0.2400607764882063
 40
0.2812428801677731
 40
0.3988047946399405
 40
0.4376599211899488
 40
0.4767161753291259
 40
0.548099580375915
 40
0.5883063884849686
 40
0.6255985418849344
 40
0.7313664711254287
 40
0.7698507840951242
 40
0.8071812551850762
 40
0.9129703631622935
 40
0.9514062646542213
 40
0.9894541015941973
 40
1.0
 40
1.0
 40
1.0
 40
1.0
 10
339.8165749531415
 20
171.4547146468899
 30
0.0
 10
339.8579979692147
 20
171.4997186418807
 30
0.0
 10
340.0395887076697
 20
171.6970077207199
 30
0.0
 10
340.2841376313837
 20
171.9407856992252
 30
0.0
 10
340.5436447214073
 20
172.1795890326981
 30
0.0
 10
340.6999628433718
 20
172.3174752175378
 30
0.0
 10
340.963172030868
 20
172.5393326332783
 30
0.0
 10
341.2293430160149
 20
172.7432991254444
 30
0.0
 10
341.488663125712
 20
172.9212021390361
 30
0.0
 10
341.6846735901227
 20
173.0476137437526
 30
0.0
 10
341.8781844465501
 20
173.1605474651177
 30
0.0
 10
342.0621353359809
 20
173.2556525642025
 30
0.0
 10
342.2812289750809
 20
173.3580987395306
 30
0.0
 10
342.4835145266797
 20
173.4320386978545
 30
0.0
 10
342.664418066387
 20
173.4763088852226
 30
0.0
 10
342.8336252283299
 20
173.5051445704337
 30
0.0
 10
342.9800945031428
 20
173.5052200881406
 30
0.0
 10
343.0985113501279
 20
173.4760014630318
 30
0.0
 10
343.1500925155593
 20
173.4569705559629
 30
0.0
 10
343.1736210924783
 20
173.4414755358193
 30
0.0
 10
343.1787273058627
 20
173.4381127791375
 30
0.0
  0
SPLINE
  5
412
330
1F
100
AcDbEntity
  8
0
  6
Continuous
 62
     7
370
    15
100
AcDbSpline
210
0.0
220
0.0
230
1.0
 70
     8
 71
     3
 72
     9
 73
     5
 74
     0
 42
0.000000001
 43
0.00000001
 40
0.0
 40
0.0
 40
0.0
 40
0.0
 40
0.7925440815928563
 40
0.9999999999999999
 40
0.9999999999999999
 40
0.9999999999999999
 40
0.9999999999999999
 10
348.3833253348797
 20
156.7438147932074
 30
0.0
 10
348.4593866234584
 20
156.8525701507077
 30
0.0
 10
348.5553576745902
 20
156.9897932528999
 30
0.0
 10
348.7007154911628
 20
157.0649749000858
 30
0.0
 10
348.7308708304976
 20
157.0805717777501
 30
0.0
  0
SPLINE
  5
413
330
1F
100
AcDbEntity
  8
0
  6
Continuous
 62
     7
370
    15
100
AcDbSpline
210
0.0
220
0.0
230
1.0
 70
     8
 71
     3
 72
     9
 73
     5
 74
     0
 42
0.000000001
 43
0.00000001
 40
0.0
 40
0.0
 40
0.0
 40
0.0
 40
0.3713392929791711
 40
0.9999999999999999
 40
0.9999999999999999
 40
0.9999999999999999
 40
0.9999999999999999
 10
348.273385423596
 20
156.4608676186342
 30
0.0
 10
348.2788902832401
 20
156.4985922812009
 30
0.0
 10
348.2937146224581
 20
156.6001830993015
 30
0.0
 10
348.348735727858
 20
156.68837316448
 30
0.0
 10
348.3833253348797
 20
156.7438147932074
 30
0.0
  0
LINE
  5
414
330
1F
100
AcDbEntity
  8
0
  6
Continuous
 62
     7
370
    15
100
AcDbLine
 10
340.0631184809
 20
146.4327666973
 30
0.0
 11
338.4983730156
 21
146.6820714036
 31
0.0
  0
LWPOLYLINE
  5
415
330
1F
100
AcDbEntity
  8
0
  6
Continuous
 62
     7
370
    15
100
AcDbPolyline
 90
        9
 70
   128
 43
0.0
 10
338.4983730156
 20
146.6820714036
 10
338.6041079472
 20
147.3666489998
 10
338.6288690241
 20
148.015679693
 10
338.5721122922
 20
148.6149055004
 10
338.4350845901
 20
149.1511625588
 10
338.2207961583
 20
149.6126703098
 10
337.9339545106
 20
149.9892902968
 10
337.580861018
 20
150.2727488876
 10
337.16927248
 20
150.4568190302
  0
LINE
  5
416
330
1F
100
AcDbEntity
  8
0
  6
Continuous
 62
     7
370
    15
100
AcDbLine
 10
332.5454920886
 20
150.1185964142
 30
0.0
 11
338.4983730156
 21
146.6820714036
 31
0.0
  0
SPLINE
  5
417
330
1F
100
AcDbEntity
  8
0
  6
Continuous
 62
     7
370
    15
100
AcDbSpline
210
0.0
220
0.0
230
1.0
 70
     8
 71
     3
 72
    10
 73
     6
 74
     0
 42
0.000000001
 43
0.00000001
 40
0.0
 40
0.0
 40
0.0
 40
0.0
 40
0.3420308904978522
 40
0.6856414727736816
 40
0.9999999999999999
 40
0.9999999999999999
 40
0.9999999999999999
 40
0.9999999999999999
 10
332.5454920886423
 20
150.1185964142279
 30
0.0
 10
332.493756769345
 20
150.6373839941616
 30
0.0
 10
332.3900471878338
 20
151.6773552080034
 30
0.0
 10
332.0605650219006
 20
152.9397784694704
 30
0.0
 10
331.793780139814
 20
153.3883411582013
 30
0.0
 10
331.6663180729664
 20
153.6026513806141
 30
0.0
  0
ARC
  5
418
330
1F
100
AcDbEntity
  8
0
  6
Continuous
 62
     7
370
    15
100
AcDbCircle
 10
350.9363349106
 20
171.0516965319
 30
0.0
 40
2.067098196459371
100
AcDbArc
 50
217.7023792352
 51
293.1669914201
  0
SPLINE
  5
419
330
1F
100
AcDbEntity
  8
0
  6
Continuous
 62
     7
370
    15
100
AcDbSpline
210
0.0
220
0.0
230
1.0
 70
     8
 71
     3
 72
    13
 73
     9
 74
     0
 42
0.000000001
 43
0.00000001
 40
0.0
 40
0.0
 40
0.0
 40
0.0
 40
0.0260269711630624
 40
0.2530454918438908
 40
0.4867432103991071
 40
0.7138806100464739
 40
0.946208836400449
 40
1.0
 40
1.0
 40
1.0
 40
1.0
 10
344.4856795195311
 20
172.6850353653801
 30
0.0
 10
344.5017142540103
 20
172.6839363517109
 30
0.0
 10
344.6576108909046
 20
172.6732512645856
 30
0.0
 10
345.0454478788903
 20
172.7189033413958
 30
0.0
 10
345.6228927262793
 20
172.8195569974581
 30
0.0
 10
346.261303718561
 20
172.9891965769687
 30
0.0
 10
346.7520175621319
 20
173.1531512495058
 30
0.0
 10
347.0283122696219
 20
173.2587552482354
 30
0.0
 10
347.080256368254
 20
173.2786090651101
 30
0.0
  0
LWPOLYLINE
  5
41A
330
1F
100
AcDbEntity
  8
0
  6
Continuous
 62
     7
370
    15
100
AcDbPolyline
 90
        9
 70
   128
 43
0.0
 10
340.5537257123
 20
144.8112810758
 10
340.2995860184
 20
144.6821641477
 10
339.8001258631
 20
144.5358718098
 10
339.3449554827
 20
144.5497937582
 10
338.9608379147
 20
144.7231114124
 10
338.6703584442
 20
145.0456340679
 10
338.4905966381
 20
145.4983980876
 10
338.432122103
 20
146.0547819229
 10
338.4983730156
 20
146.6820714036
  0
SPLINE
  5
41B
330
1F
100
AcDbEntity
  8
0
  6
Continuous
 62
     7
370
    15
100
AcDbSpline
210
0.0
220
0.0
230
1.0
 70
     8
 71
     3
 72
    18
 73
    14
 74
     0
 42
0.000000001
 43
0.00000001
 40
0.0
 40
0.0
 40
0.0
 40
0.0
 40
0.0050638313575551
 40
0.0841962402205661
 40
0.1573617163214346
 40
0.3061861931617474
 40
0.3820113920364279
 40
0.4553551138160348
 40
0.6043793111969877
 40
0.6801943396988894
 40
0.7588444542247034
 40
0.9186807119126944
 40
1.0
 40
1.0
 40
1.0
 40
1.0
 10
333.4835356142783
 20
147.8794972660729
 30
0.0
 10
333.4808745529501
 20
147.8805389087579
 30
0.0
 10
333.4366291302638
 20
147.8978582844519
 30
0.0
 10
333.3598557904732
 20
147.9617834424022
 30
0.0
 10
333.2156389765157
 20
148.0871417676691
 30
0.0
 10
333.0849828887497
 20
148.2531194255463
 30
0.0
 10
332.9679254207762
 20
148.4489256028289
 30
0.0
 10
332.860609504875
 20
148.6649401380753
 30
0.0
 10
332.7685133798192
 20
148.9083182018798
 30
0.0
 10
332.6917273801914
 20
149.1778325498865
 30
0.0
 10
332.6244717649806
 20
149.4707515432013
 30
0.0
 10
332.5738416172201
 20
149.7870183694939
 30
0.0
 10
332.5526410604053
 20
150.0349815466112
 30
0.0
 10
332.5454920886423
 20
150.1185964142279
 30
0.0
  0
SPLINE
  5
41C
330
1F
100
AcDbEntity
  8
0
  6
Continuous
 62
     7
370
    15
100
AcDbSpline
210
0.0
220
0.0
230
1.0
 70
     8
 71
     3
 72
    13
 73
     9
 74
     0
 42
0.000000001
 43
0.00000001
 40
0.0
 40
0.0
 40
0.0
 40
0.0
 40
0.1829171248304629
 40
0.3708642103871445
 40
0.553911508722342
 40
0.7428323100918569
 40
0.916567805900545
 40
1.0
 40
1.0
 40
1.0
 40
1.0
 10
347.080256368254
 20
173.2786090651101
 30
0.0
 10
347.2328437089429
 20
173.3318070984179
 30
0.0
 10
347.5422143251286
 20
173.4396660352732
 30
0.0
 10
347.9893175008227
 20
173.533077405855
 30
0.0
 10
348.4149539090625
 20
173.570206104644
 30
0.0
 10
348.7861841162052
 20
173.5377577199751
 30
0.0
 10
349.0582959507901
 20
173.4690926812536
 30
0.0
 10
349.1768204722541
 20
173.3927172913368
 30
0.0
 10
349.2152730511293
 20
173.3679390372792
 30
0.0
  0
LINE
  5
41D
330
1F
100
AcDbEntity
  8
0
  6
Continuous
 62
     7
370
    15
100
AcDbLine
 10
346.040394265
 20
145.418470234
 30
0.0
 11
344.5575753738
 21
145.0183637581
 31
0.0
  0
ARC
  5
41E
330
1F
100
AcDbEntity
  8
0
  6
Continuous
 62
     7
370
    15
100
AcDbCircle
 10
342.8368851647
 20
143.5722717082
 30
0.0
 40
2.247655892766454
100
AcDbArc
 50
40.0441620466
 51
120.0972058811
  0
ARC
  5
41F
330
1F
100
AcDbEntity
  8
0
  6
Continuous
 62
     7
370
    15
100
AcDbCircle
 10
345.5511584163
 20
145.9449724174
 30
0.0
 40
1.358606223273697
100
AcDbArc
 50
223.0023898033
 51
307.7620962863
  0
ARC
  5
420
330
1F
100
AcDbEntity
  8
0
  6
Continuous
 62
     7
370
    15
100
AcDbCircle
 10
368.7390536704
 20
147.6148259518
 30
0.0
 40
2.34955459819403
100
AcDbArc
 50
65.2607340784
 51
124.5648630038
  0
LWPOLYLINE
  5
421
330
1F
100
AcDbEntity
  8
0
  6
Continuous
 62
     7
370
    15
100
AcDbPolyline
 90
       14
 70
   128
 43
0.0
 10
364.9602048563
 20
141.4996267546
 10
364.9146325773
 20
141.5269618011
 10
364.5057257144
 20
141.8893931468
 10
364.2057868953
 20
142.3953504281
 10
364.0263426007
 20
143.0253899907
 10
363.9742887742
 20
143.7552997673
 10
364.051625815
 20
144.5570297346
 10
364.2553817042
 20
145.3997698597
 10
364.5777262171
 20
146.251134112
 10
365.006271835
 20
147.0784050409
 10
365.52454979
 20
147.8497910885
 10
366.1126429509
 20
148.5356483215
 10
366.7479512275
 20
149.1096196312
 10
367.4060600789
 20
149.5496476219
  0
LWPOLYLINE
  5
422
330
1F
100
AcDbEntity
  8
0
  6
Continuous
 62
     7
370
    15
100
AcDbPolyline
 90
       12
 70
   128
 43
0.0
 10
350.6412925373
 20
149.7657588868
 10
350.5957202583
 20
149.7930939333
 10
350.1868133954
 20
150.155525279
 10
349.8868745763
 20
150.6614825603
 10
349.7074302817
 20
151.2915221229
 10
349.6553764551
 20
152.0214318995
 10
349.732713496
 20
152.8231618668
 10
349.9364693852
 20
153.6659019919
 10
350.2588138981
 20
154.5172662442
 10
350.687359516
 20
155.3445371731
 10
351.2056374709
 20
156.1159232207
 10
351.7495568132
 20
156.7558745242
  0
LINE
  5
423
330
1F
100
AcDbEntity
  8
0
  6
Continuous
 62
     7
370
    15
100
AcDbLine
 10
359.4393430586
 20
169.232316184
 30
0.0
 11
359.4393430586
 21
153.9221759612
 31
0.0
  0
LINE
  5
424
330
1F
100
AcDbEntity
  8
0
  6
Continuous
 62
     7
370
    15
100
AcDbLine
 10
359.4393430586
 20
169.232316184
 30
0.0
 11
369.5156146905
 21
175.0492239808
 31
0.0
  0
LINE
  5
425
330
1F
100
AcDbEntity
  8
0
  6
Continuous
 62
     7
370
    15
100
AcDbLine
 10
369.5156146905
 20
175.0492239808
 30
0.0
 11
369.5156146905
 21
174.1308146175
 31
0.0
  0
LINE
  5
426
330
1F
100
AcDbEntity
  8
0
  6
Continuous
 62
     7
370
    15
100
AcDbLine
 10
359.4393430586
 20
153.9221759612
 30
0.0
 11
360.5000032304
 21
154.534482045
 31
0.0
  0
LINE
  5
427
330
1F
100
AcDbEntity
  8
0
  6
Continuous
 62
     7
370
    15
100
AcDbLine
 10
355.1967023715
 20
171.6815405195
 30
0.0
 11
355.1967023715
 21
156.3714002966
 31
0.0
  0
LINE
  5
428
330
1F
100
AcDbEntity
  8
0
  6
Continuous
 62
     7
370
    15
100
AcDbLine
 10
355.1967023715
 20
171.6815405195
 30
0.0
 11
359.4393430586
 21
169.232316184
 31
0.0
  0
LINE
  5
429
330
1F
100
AcDbEntity
  8
0
  6
Continuous
 62
     7
370
    15
100
AcDbLine
 10
355.1967023715
 20
156.3714002966
 30
0.0
 11
359.4393430586
 21
153.9221759612
 31
0.0
  0
LINE
  5
42A
330
1F
100
AcDbEntity
  8
0
  6
Continuous
 62
     7
370
    15
100
AcDbLine
 10
365.2729740034
 20
177.4984483162
 30
0.0
 11
355.1967023715
 21
171.6815405195
 31
0.0
  0
LINE
  5
42B
330
1F
100
AcDbEntity
  8
0
  6
Continuous
 62
     7
370
    15
100
AcDbLine
 10
369.5156146905
 20
175.0492239808
 30
0.0
 11
365.2729740034
 21
177.4984483162
 31
0.0
  0
LINE
  5
42C
330
1F
100
AcDbEntity
  8
0
  6
Continuous
 62
     7
370
    15
100
AcDbLine
 10
359.4393430586
 20
138.6120357383
 30
0.0
 11
359.4393430586
 21
123.3018955155
 31
0.0
  0
LINE
  5
42D
330
1F
100
AcDbEntity
  8
0
  6
Continuous
 62
     7
370
    15
100
AcDbLine
 10
359.4393430586
 20
138.6120357383
 30
0.0
 11
360.5000032304
 21
139.2243418222
 31
0.0
  0
LINE
  5
42E
330
1F
100
AcDbEntity
  8
0
  6
Continuous
 62
     7
370
    15
100
AcDbLine
 10
359.4393430586
 20
123.3018955155
 30
0.0
 11
360.5000032304
 21
123.9142015993
 31
0.0
  0
LINE
  5
42F
330
1F
100
AcDbEntity
  8
0
  6
Continuous
 62
     7
370
    15
100
AcDbLine
 10
355.1967023715
 20
141.0612600738
 30
0.0
 11
355.1967023715
 21
125.7511198509
 31
0.0
  0
LINE
  5
430
330
1F
100
AcDbEntity
  8
0
  6
Continuous
 62
     7
370
    15
100
AcDbLine
 10
355.1967023715
 20
141.0612600738
 30
0.0
 11
359.4393430586
 21
138.6120357383
 31
0.0
  0
LINE
  5
431
330
1F
100
AcDbEntity
  8
0
  6
Continuous
 62
     7
370
    15
100
AcDbLine
 10
355.1967023715
 20
125.7511198509
 30
0.0
 11
359.4393430586
 21
123.3018955155
 31
0.0
  0
LINE
  5
432
330
1F
100
AcDbEntity
  8
0
  6
Continuous
 62
     7
370
    15
100
AcDbLine
 10
360.5000032304
 20
144.1227904931
 30
0.0
 11
355.1967023715
 21
141.0612600738
 31
0.0
  0
LINE
  5
433
330
1F
100
AcDbEntity
  8
0
  6
Continuous
 62
     7
370
    15
100
AcDbLine
 10
363.9471487887
 20
166.9362181321
 30
0.0
 11
372.5926042312
 21
171.9271333244
 31
0.0
  0
LINE
  5
434
330
1F
100
AcDbEntity
  8
0
  6
Continuous
 62
     7
370
    15
100
AcDbLine
 10
360.5000032304
 20
168.9262129046
 30
0.0
 11
363.9471487887
 21
166.9362181321
 31
0.0
  0
LINE
  5
435
330
1F
100
AcDbEntity
  8
0
  6
Continuous
 62
     7
370
    15
100
AcDbLine
 10
370.6479135839
 20
174.7844768551
 30
0.0
 11
360.5000032304
 21
168.9262129046
 31
0.0
  0
ARC
  5
436
330
1F
100
AcDbEntity
  8
0
  6
Continuous
 62
     7
370
    15
100
AcDbCircle
 10
378.1703068339
 20
197.6875182047
 30
0.0
 40
24.1067563821801
100
AcDbArc
 50
251.817483876
 51
271.9266827621
  0
LINE
  5
437
330
1F
100
AcDbEntity
  8
0
  6
Continuous
 62
     7
370
    15
100
AcDbLine
 10
378.7918491769
 20
174.0014589905
 30
0.0
 11
378.9807909488
 21
173.5943901643
 31
0.0
  0
ARC
  5
438
330
1F
100
AcDbEntity
  8
0
  6
Continuous
 62
     7
370
    15
100
AcDbCircle
 10
378.4046481564
 20
196.8852963381
 30
0.0
 40
22.88711288875463
100
AcDbArc
 50
270.9693683435
 51
286.6167095222
  0
LINE
  5
439
330
1F
100
AcDbEntity
  8
0
  6
Continuous
 62
     7
370
    15
100
AcDbLine
 10
385.1385680914
 20
174.5468983861
 30
0.0
 11
384.9496263195
 21
174.9539672122
 31
0.0
  0
LWPOLYLINE
  5
43A
330
1F
100
AcDbEntity
  8
0
  6
Continuous
 62
     7
370
    15
100
AcDbPolyline
 90
       16
 70
   128
 43
0.0
 10
390.8843222199
 20
186.9259364602
 10
391.7055819795
 20
186.0896324888
 10
392.3611990259
 20
185.2059293204
 10
392.8430928486
 20
184.2857186375
 10
393.1453240841
 20
183.3403420789
 10
393.2641677186
 20
182.3814514542
 10
393.1981589988
 20
181.4208651347
 10
392.9481114852
 20
180.4704223908
 10
392.5171070248
 20
179.5418374731
 10
391.9104577677
 20
178.6465552335
 10
391.1356406936
 20
177.7956100669
 10
390.2022054588
 20
176.9994899114
 10
389.1216566955
 20
176.2680069848
 10
387.9073122169
 20
175.6101768477
 10
386.5741388746
 20
175.0341072868
 10
385.1385680914
 20
174.5468983861
  0
LINE
  5
43B
330
1F
100
AcDbEntity
  8
0
  6
Continuous
 62
     7
370
    15
100
AcDbLine
 10
390.3681236993
 20
186.6279413973
 30
0.0
 11
390.8843222199
 21
186.9259364602
 31
0.0
  0
ARC
  5
43C
330
1F
100
AcDbEntity
  8
0
  6
Continuous
 62
     7
370
    15
100
AcDbCircle
 10
381.5491366868
 20
176.5568003147
 30
0.0
 40
13.38665061289081
100
AcDbArc
 50
48.7923693783
 51
71.2130071544
  0
LINE
  5
43D
330
1F
100
AcDbEntity
  8
0
  6
Continuous
 62
     7
370
    15
100
AcDbLine
 10
386.3765164898
 20
189.5282373167
 30
0.0
 11
385.8603179692
 21
189.2302422538
 31
0.0
  0
LWPOLYLINE
  5
43E
330
1F
100
AcDbEntity
  8
0
  6
Continuous
 62
     7
370
    15
100
AcDbPolyline
 90
       16
 70
   128
 43
0.0
 10
364.9330701545
 20
186.2112840616
 10
365.7770321695
 20
187.0400214346
 10
366.774922041
 20
187.8096460232
 10
367.9144407305
 20
188.5106721689
 10
369.1815436175
 20
189.1344596923
 10
370.5606136008
 20
189.6733203834
 10
372.0346535792
 20
190.1206127593
 10
373.5854959423
 20
190.4708239211
 10
375.1940264865
 20
190.7196374998
 10
376.8404199987
 20
190.8639868569
 10
378.5043846033
 20
190.9020928797
 10
380.1654118598
 20
190.8334859099
 10
381.8030295309
 20
190.6590115314
 10
383.3970539033
 20
190.380820149
 10
384.9278385534
 20
190.0023404844
 10
386.3765164898
 20
189.5282373167
  0
LINE
  5
43F
330
1F
100
AcDbEntity
  8
0
  6
Continuous
 62
     7
370
    15
100
AcDbLine
 10
365.638210447
 20
186.1022102984
 30
0.0
 11
364.9330701545
 21
186.2112840616
 31
0.0
  0
ARC
  5
440
330
1F
100
AcDbEntity
  8
0
  6
Continuous
 62
     7
370
    15
100
AcDbCircle
 10
369.8137457274
 20
182.0038044075
 30
0.0
 40
5.85081410781397
100
AcDbArc
 50
135.5340937776
 51
174.6689833334
  0
LINE
  5
441
330
1F
100
AcDbEntity
  8
0
  6
Continuous
 62
     7
370
    15
100
AcDbLine
 10
363.2830987419
 20
182.6564749834
 30
0.0
 11
363.9882390344
 21
182.5474012202
 31
0.0
  0
ARC
  5
442
330
1F
100
AcDbEntity
  8
0
  6
Continuous
 62
     7
370
    15
100
AcDbCircle
 10
369.3506329014
 20
182.4097394683
 30
0.0
 40
6.072548821615869
100
AcDbArc
 50
177.6713573234
 51
228.7235086165
  0
LINE
  5
443
330
1F
100
AcDbEntity
  8
0
  6
Continuous
 62
     7
370
    15
100
AcDbLine
 10
355.1967023715
 20
171.987743324
 30
0.0
 11
365.344612725
 21
177.8460072744
 31
0.0
  0
LINE
  5
444
330
1F
100
AcDbEntity
  8
0
  6
Continuous
 62
     7
370
    15
100
AcDbLine
 10
351.7495568132
 20
173.9777380965
 30
0.0
 11
355.1967023715
 21
171.987743324
 31
0.0
  0
LINE
  5
445
330
1F
100
AcDbEntity
  8
0
  6
Continuous
 62
     7
370
    15
100
AcDbLine
 10
360.3950122557
 20
178.9686532889
 30
0.0
 11
351.7495568132
 21
173.9777380965
 31
0.0
  0
LWPOLYLINE
  5
446
330
1F
100
AcDbEntity
  8
0
  6
Continuous
 62
     7
370
    15
100
AcDbPolyline
 90
       19
 70
   128
 43
0.0
 10
376.8066334456
 20
193.0351761662
 10
374.9474353949
 20
192.8971237058
 10
373.1214064234
 20
192.6525938544
 10
371.3467973687
 20
192.3040306448
 10
369.6413451357
 20
191.8549179048
 10
368.0220954189
 20
191.3097444371
 10
366.5052323337
 20
190.6739591544
 10
365.1059166594
 20
189.9539166186
 10
363.8381343096
 20
189.1568135279
 10
362.7145565455
 20
188.2906167873
 10
361.7464133286
 20
187.3639838804
 10
360.94338108
 20
186.38617634
 10
360.3134859653
 20
185.36696718
 10
359.8630236753
 20
184.3165432164
 10
359.5964965011
 20
183.2454032516
 10
359.5165683349
 20
182.1642531407
 10
359.6240380447
 20
181.0838987885
 10
359.9178314895
 20
180.0151381465
 10
360.3950122557
 20
178.9686532889
  0
LINE
  5
447
330
1F
100
AcDbEntity
  8
0
  6
Continuous
 62
     7
370
    15
100
AcDbLine
 10
383.3041969237
 20
196.7861397206
 30
0.0
 11
376.8066334456
 21
193.0351761662
 31
0.0
  0
LINE
  5
448
330
1F
100
AcDbEntity
  8
0
  6
Continuous
 62
     7
370
    15
100
AcDbLine
 10
389.9333229973
 20
192.9592266964
 30
0.0
 11
383.3041969237
 21
196.7861397206
 31
0.0
  0
LINE
  5
449
330
1F
100
AcDbEntity
  8
0
  6
Continuous
 62
     7
370
    15
100
AcDbLine
 10
389.6681579543
 20
192.8061501754
 30
0.0
 11
389.9333229973
 21
192.9592266964
 31
0.0
  0
LINE
  5
44A
330
1F
100
AcDbEntity
  8
0
  6
Continuous
 62
     7
370
    15
100
AcDbLine
 10
396.5624490709
 20
188.8261606303
 30
0.0
 11
389.6681579543
 21
192.8061501754
 31
0.0
  0
LINE
  5
44B
330
1F
100
AcDbEntity
  8
0
  6
Continuous
 62
     7
370
    15
100
AcDbLine
 10
396.8276141139
 20
188.9792371513
 30
0.0
 11
396.5624490709
 21
188.8261606303
 31
0.0
  0
LINE
  5
44C
330
1F
100
AcDbEntity
  8
0
  6
Continuous
 62
     7
370
    15
100
AcDbLine
 10
403.4567401875
 20
185.1523241271
 30
0.0
 11
396.8276141139
 21
188.9792371513
 31
0.0
  0
LINE
  5
44D
330
1F
100
AcDbEntity
  8
0
  6
Continuous
 62
     7
370
    15
100
AcDbLine
 10
396.9591767094
 20
181.4013605727
 30
0.0
 11
403.4567401875
 21
185.1523241271
 31
0.0
  0
LWPOLYLINE
  5
44E
330
1F
100
AcDbEntity
  8
0
  6
Continuous
 62
     7
370
    15
100
AcDbPolyline
 90
       19
 70
   128
 43
0.0
 10
372.5926042312
 20
171.9271333244
 10
374.4053655904
 20
171.6516627316
 10
376.256713921
 20
171.482059386
 10
378.1281453226
 20
171.4200184432
 10
380.0009551681
 20
171.4661599914
 10
381.8564250532
 20
171.620022854
 10
383.6760098835
 20
171.8800691987
 10
385.4415232292
 20
172.2436999083
 10
387.1353190956
 20
172.7072805579
 10
388.7404682914
 20
173.2661777405
 10
390.2409276335
 20
173.9148053773
 10
391.621700295
 20
174.6466805495
 10
392.8689856966
 20
175.4544882935
 10
393.9703174405
 20
176.3301547135
 10
394.91468791
 20
177.2649276779
 10
395.6926582888
 20
178.2494642955
 10
396.2964528999
 20
179.2739242965
 10
396.7200369227
 20
180.3280683837
 10
396.9591767094
 20
181.4013605727
  0
LINE
  5
44F
330
1F
100
AcDbEntity
  8
0
  6
Continuous
 62
     7
370
    15
100
AcDbLine
 10
363.9471487887
 20
166.9362181321
 30
0.0
 11
363.9471487887
 21
120.3933918546
 31
0.0
  0
LINE
  5
450
330
1F
100
AcDbEntity
  8
0
  6
Continuous
 62
     7
370
    15
100
AcDbLine
 10
372.5926042312
 20
171.9271333244
 30
0.0
 11
372.5926042312
 21
150.3205567073
 31
0.0
  0
LINE
  5
451
330
1F
100
AcDbEntity
  8
0
  6
Continuous
 62
     7
370
    15
100
AcDbLine
 10
372.5926042312
 20
126.1939839136
 30
0.0
 11
372.5926042312
 21
125.3843070469
 31
0.0
  0
LINE
  5
452
330
1F
100
AcDbEntity
  8
0
  6
Continuous
 62
     7
370
    15
100
AcDbLine
 10
363.9471487887
 20
120.3933918546
 30
0.0
 11
372.5926042312
 21
125.3843070469
 31
0.0
  0
LINE
  5
453
330
1F
100
AcDbEntity
  8
0
  6
Continuous
 62
     7
370
    15
100
AcDbLine
 10
360.5000032304
 20
168.9262129046
 30
0.0
 11
360.5000032304
 21
122.3833866271
 31
0.0
  0
LINE
  5
454
330
1F
100
AcDbEntity
  8
0
  6
Continuous
 62
     7
370
    15
100
AcDbLine
 10
360.5000032304
 20
122.3833866271
 30
0.0
 11
363.9471487887
 21
120.3933918546
 31
0.0
  0
LINE
  5
455
330
1F
100
AcDbEntity
  8
0
  6
Continuous
 62
     7
370
    15
100
AcDbLine
 10
396.9591767094
 20
181.4013605727
 30
0.0
 11
396.9591767094
 21
134.8585342952
 31
0.0
  0
LWPOLYLINE
  5
456
330
1F
100
AcDbEntity
  8
0
  6
Continuous
 62
     7
370
    15
100
AcDbPolyline
 90
        3
 70
   128
 43
0.0
 10
372.5926042312
 20
125.3843070469
 10
374.4053655904
 20
125.1088364541
 10
375.4060715162
 20
125.003559028
  0
LWPOLYLINE
  5
457
330
1F
100
AcDbEntity
  8
0
  6
Continuous
 62
     7
370
    15
100
AcDbPolyline
 90
       16
 70
   128
 43
0.0
 10
379.3995853477
 20
124.8966972906
 10
380.0009551681
 20
124.9233337139
 10
381.8564250532
 20
125.0771965765
 10
383.6760098835
 20
125.3372429212
 10
385.4415232292
 20
125.7008736308
 10
387.1353190956
 20
126.1644542804
 10
388.7404682914
 20
126.723351463
 10
390.2409276335
 20
127.3719790998
 10
391.621700295
 20
128.103854272
 10
392.8689856966
 20
128.9116620161
 10
393.9703174405
 20
129.787328436
 10
394.91468791
 20
130.7221014004
 10
395.6926582888
 20
131.7066380181
 10
396.2964528999
 20
132.7310980191
 10
396.7200369227
 20
133.7852421062
 10
396.9591767094
 20
134.8585342952
  0
LINE
  5
458
330
1F
100
AcDbEntity
  8
0
  6
Continuous
 62
     7
370
    15
100
AcDbLine
 10
355.1967023715
 20
171.987743324
 30
0.0
 11
355.1967023715
 21
125.4449170465
 31
0.0
  0
LINE
  5
459
330
1F
100
AcDbEntity
  8
0
  6
Continuous
 62
     7
370
    15
100
AcDbLine
 10
365.344612725
 20
177.8460072744
 30
0.0
 11
365.344612725
 21
177.4570921625
 31
0.0
  0
LINE
  5
45A
330
1F
100
AcDbEntity
  8
0
  6
Continuous
 62
     7
370
    15
100
AcDbLine
 10
355.1967023715
 20
125.4449170465
 30
0.0
 11
355.4619105147
 21
125.5980184487
 31
0.0
  0
LWPOLYLINE
  5
45B
330
1F
100
AcDbEntity
  8
0
  6
Continuous
 62
     7
370
    15
100
AcDbPolyline
 90
       10
 70
   128
 43
0.0
 10
356.7346596206
 20
149.6041740068
 10
356.7979065787
 20
150.1954435208
 10
356.9833372775
 20
150.819442378
 10
357.2783149212
 20
151.4336460876
 10
357.6627372709
 20
151.9961976818
 10
358.1104065787
 20
152.468760199
 10
358.5908149212
 20
152.8191292848
 10
359.0712232637
 20
153.0234278648
 10
359.5188925715
 20
153.0677333286
 10
359.9032082578
 20
152.9490879173
  0
ARC
  5
45C
330
1F
100
AcDbEntity
  8
0
  6
Continuous
 62
     7
370
    15
100
AcDbCircle
 10
357.9787800418
 20
149.4431329451
 30
0.0
 40
1.254499838968715
100
AcDbArc
 50
172.6245467584
 51
236.0632728482
  0
LINE
  5
45D
330
1F
100
AcDbEntity
  8
0
  6
Continuous
 62
     7
370
    15
100
AcDbLine
 10
351.7495568132
 20
173.9777380965
 30
0.0
 11
351.7495568132
 21
127.434911819
 31
0.0
  0
LINE
  5
45E
330
1F
100
AcDbEntity
  8
0
  6
Continuous
 62
     7
370
    15
100
AcDbLine
 10
351.7495568132
 20
127.434911819
 30
0.0
 11
355.1967023715
 21
125.4449170465
 31
0.0
  0
LINE
  5
45F
330
1F
100
AcDbEntity
  8
0
  6
Continuous
 62
     7
370
    15
100
AcDbLine
 10
378.7918491769
 20
174.0014589905
 30
0.0
 11
378.7918491769
 21
173.5898759483
 31
0.0
  0
LINE
  5
460
330
1F
100
AcDbEntity
  8
0
  6
Continuous
 62
     7
370
    15
100
AcDbLine
 10
390.8843222199
 20
186.9259364602
 30
0.0
 11
390.8843222199
 21
177.5618039972
 31
0.0
  0
LINE
  5
461
330
1F
100
AcDbEntity
  8
0
  6
Continuous
 62
     7
370
    15
100
AcDbLine
 10
363.2830987419
 20
182.6564749834
 30
0.0
 11
363.2830987419
 21
181.831265474
 31
0.0
  0
LINE
  5
462
330
1F
100
AcDbEntity
  8
0
  6
Continuous
 62
     7
370
    15
100
AcDbLine
 10
403.4567401875
 20
185.1523241271
 30
0.0
 11
403.4567401875
 21
138.6094978496
 31
0.0
  0
LINE
  5
463
330
1F
100
AcDbEntity
  8
0
  6
Continuous
 62
     7
370
    15
100
AcDbLine
 10
396.9591767094
 20
134.8585342952
 30
0.0
 11
403.4567401875
 21
138.6094978496
 31
0.0
  0
LINE
  5
464
330
1F
100
AcDbEntity
  8
0
  6
Continuous
 62
     7
370
    15
100
AcDbLine
 10
363.9882390344
 20
182.5474012202
 30
0.0
 11
363.9882390344
 21
179.5893636743
 31
0.0
  0
LINE
  5
465
330
1F
100
AcDbEntity
  8
0
  6
Continuous
 62
     7
370
    15
100
AcDbLine
 10
365.638210447
 20
186.1022102984
 30
0.0
 11
365.638210447
 21
177.2876018054
 31
0.0
  0
LINE
  5
466
330
1F
100
AcDbEntity
  8
0
  6
Continuous
 62
     7
370
    15
100
AcDbLine
 10
390.3681236993
 20
186.6279413973
 30
0.0
 11
390.3681236993
 21
177.127782466
 31
0.0
  0
LINE
  5
467
330
1F
100
AcDbEntity
  8
0
  6
Continuous
 62
     7
370
    15
100
AcDbLine
 10
385.8603179692
 20
189.2302422538
 30
0.0
 11
385.8603179692
 21
174.7763627425
 31
0.0
  0
LINE
  5
468
330
1F
100
AcDbEntity
  8
0
  6
Continuous
 62
     7
370
    15
100
AcDbLine
 10
389.9333229973
 20
192.9592266964
 30
0.0
 11
389.9333229973
 21
192.6530736545
 31
0.0
  0
LINE
  5
469
330
1F
100
AcDbEntity
  8
0
  6
Continuous
 62
     8
370
    15
100
AcDbLine
 10
389.4771742868
 20
148.6815478156
 30
0.0
 11
386.0164172416
 21
150.6794003323
 31
0.0
  0
LINE
  5
46A
330
1F
100
AcDbEntity
  8
0
  6
Continuous
 62
     8
370
    15
100
AcDbLine
 10
376.6391225051
 20
124.7606309122
 30
0.0
 11
374.0685821852
 21
126.2445722524
 31
0.0
  0
LINE
  5
46B
330
1F
100
AcDbEntity
  8
0
  6
Continuous
 62
     8
370
    15
100
AcDbLine
 10
347.0802563683
 20
173.2786090651
 30
0.0
 11
351.7495568132
 21
170.5830792942
 31
0.0
  0
LINE
  5
46C
330
1F
100
AcDbEntity
  8
0
  6
Continuous
 62
     8
370
    15
100
AcDbLine
 10
343.1691341247
 20
145.8198938301
 30
0.0
 11
344.5575753738
 21
145.0183637581
 31
0.0
  0
ENDSEC
  0
SECTION
  2
OBJECTS
  0
DICTIONARY
  5
C
330
0
100
AcDbDictionary
281
     1
  3
ACAD_GROUP
350
D
  3
ACAD_LAYOUT
350
1A
  3
ACAD_MLINESTYLE
350
17
  3
ACAD_PLOTSETTINGS
350
19
  3
ACAD_PLOTSTYLENAME
350
E
  3
ACAD_SCALELIST
350
47
  0
DICTIONARY
  5
D
102
{ACAD_REACTORS
330
C
102
}
330
C
100
AcDbDictionary
281
     1
  0
DICTIONARY
  5
1A
102
{ACAD_REACTORS
330
C
102
}
330
C
100
AcDbDictionary
281
     1
  3
Layout1
350
1E
  3
Layout2
350
26
  3
Model
350
22
  0
DICTIONARY
  5
17
102
{ACAD_REACTORS
330
C
102
}
330
C
100
AcDbDictionary
281
     1
  3
Standard
350
18
  0
DICTIONARY
  5
19
102
{ACAD_REACTORS
330
C
102
}
330
C
100
AcDbDictionary
281
     1
  0
ACDBDICTIONARYWDFLT
  5
E
102
{ACAD_REACTORS
330
C
102
}
330
C
100
AcDbDictionary
281
     1
  3
Normal
350
F
100
AcDbDictionaryWithDefault
340
F
  0
DICTIONARY
  5
47
102
{ACAD_REACTORS
330
C
102
}
330
C
100
AcDbDictionary
281
     1
  3
A0
350
48
  3
A1
350
49
  3
A2
350
4A
  3
A3
350
4B
  3
A4
350
4C
  3
A5
350
4D
  3
A6
350
4E
  3
A7
350
4F
  3
A8
350
50
  3
A9
350
51
  3
B0
350
52
  3
B1
350
53
  3
B2
350
54
  3
B3
350
55
  3
B4
350
56
  3
B5
350
57
  3
B6
350
58
  3
B7
350
59
  3
B8
350
5A
  3
B9
350
5B
  3
C0
350
5C
  3
C1
350
5D
  3
C2
350
5E
  3
C3
350
5F
  3
C4
350
60
  3
C5
350
61
  3
C6
350
62
  3
C7
350
63
  3
C8
350
64
  3
C9
350
65
  3
D0
350
66
  3
D1
350
67
  3
D2
350
68
  0
LAYOUT
  5
1E
102
{ACAD_REACTORS
330
1A
102
}
330
1A
100
AcDbPlotSettings
  1

  2
none_device
  4

  6

 40
0.0
 41
0.0
 42
0.0
 43
0.0
 44
0.0
 45
0.0
 46
0.0
 47
0.0
 48
0.0
 49
0.0
140
0.0
141
0.0
142
1.0
143
1.0
 70
   688
 72
     1
 73
     0
 74
     5
  7

 75
    16
147
1.0
148
0.0
149
0.0
100
AcDbLayout
  1
Layout1
 70
     1
 71
     1
 10
0.0
 20
0.0
 11
420.0
 21
297.0
 12
0.0
 22
0.0
 32
0.0
 14
1.0000000000E+20
 24
1.0000000000E+20
 34
1.0000000000E+20
 15
-1.0000000000E+20
 25
-1.0000000000E+20
 35
-1.0000000000E+20
146
0.0
 13
0.0
 23
0.0
 33
0.0
 16
1.0
 26
0.0
 36
0.0
 17
0.0
 27
1.0
 37
0.0
 76
     0
330
1B
  0
LAYOUT
  5
26
102
{ACAD_REACTORS
330
1A
102
}
330
1A
100
AcDbPlotSettings
  1

  2
none_device
  4

  6

 40
0.0
 41
0.0
 42
0.0
 43
0.0
 44
0.0
 45
0.0
 46
0.0
 47
0.0
 48
0.0
 49
0.0
140
0.0
141
0.0
142
1.0
143
1.0
 70
   688
 72
     1
 73
     0
 74
     5
  7

 75
    16
147
1.0
148
0.0
149
0.0
100
AcDbLayout
  1
Layout2
 70
     1
 71
     2
 10
0.0
 20
0.0
 11
0.0
 21
0.0
 12
0.0
 22
0.0
 32
0.0
 14
0.0
 24
0.0
 34
0.0
 15
0.0
 25
0.0
 35
0.0
146
0.0
 13
0.0
 23
0.0
 33
0.0
 16
1.0
 26
0.0
 36
0.0
 17
0.0
 27
1.0
 37
0.0
 76
     0
330
23
  0
LAYOUT
  5
22
102
{ACAD_REACTORS
330
1A
102
}
330
1A
100
AcDbPlotSettings
  1

  2
none_device
  4
Letter_(8.50_x_11.00_Inches)
  6

 40
6.35
 41
6.35
 42
6.35000508
 43
6.35000508
 44
215.9
 45
279.4
 46
0.0
 47
0.0
 48
0.0
 49
0.0
140
0.0
141
0.0
142
1.0
143
1.0
 70
  1712
 72
     1
 73
     0
 74
     0
  7

 75
     0
147
1.0
148
0.0
149
0.0
100
AcDbLayout
  1
Model
 70
     1
 71
     0
 10
0.0
 20
0.0
 11
445.5
 21
315.0
 12
0.0
 22
0.0
 32
0.0
 14
0.0
 24
0.0
 34
0.0
 15
445.5
 25
315.0
 35
0.0
146
0.0
 13
0.0
 23
0.0
 33
0.0
 16
1.0
 26
0.0
 36
0.0
 17
0.0
 27
1.0
 37
0.0
 76
     0
330
1F
331
29
  0
MLINESTYLE
  5
18
102
{ACAD_REACTORS
330
17
102
}
330
17
100
AcDbMlineStyle
  2
Standard
 70
     0
  3

 62
   256
 51
90.0
 52
90.0
 71
     2
 49
0.5
 62
   256
  6
BYLAYER
 49
-0.5
 62
   256
  6
BYLAYER
  0
ACDBPLACEHOLDER
  5
F
102
{ACAD_REACTORS
330
E
102
}
330
E
  0
SCALE
  5
48
102
{ACAD_REACTORS
330
47
102
}
330
47
100
AcDbScale
 70
     0
300
1:1
140
1.0
141
1.0
290
     1
  0
SCALE
  5
49
102
{ACAD_REACTORS
330
47
102
}
330
47
100
AcDbScale
 70
     0
300
1:2
140
1.0
141
2.0
290
     0
  0
SCALE
  5
4A
102
{ACAD_REACTORS
330
47
102
}
330
47
100
AcDbScale
 70
     0
300
1:4
140
1.0
141
4.0
290
     0
  0
SCALE
  5
4B
102
{ACAD_REACTORS
330
47
102
}
330
47
100
AcDbScale
 70
     0
300
1:5
140
1.0
141
5.0
290
     0
  0
SCALE
  5
4C
102
{ACAD_REACTORS
330
47
102
}
330
47
100
AcDbScale
 70
     0
300
1:8
140
1.0
141
8.0
290
     0
  0
SCALE
  5
4D
102
{ACAD_REACTORS
330
47
102
}
330
47
100
AcDbScale
 70
     0
300
1:10
140
1.0
141
10.0
290
     0
  0
SCALE
  5
4E
102
{ACAD_REACTORS
330
47
102
}
330
47
100
AcDbScale
 70
     0
300
1:16
140
1.0
141
16.0
290
     0
  0
SCALE
  5
4F
102
{ACAD_REACTORS
330
47
102
}
330
47
100
AcDbScale
 70
     0
300
1:20
140
1.0
141
20.0
290
     0
  0
SCALE
  5
50
102
{ACAD_REACTORS
330
47
102
}
330
47
100
AcDbScale
 70
     0
300
1:30
140
1.0
141
30.0
290
     0
  0
SCALE
  5
51
102
{ACAD_REACTORS
330
47
102
}
330
47
100
AcDbScale
 70
     0
300
1:40
140
1.0
141
40.0
290
     0
  0
SCALE
  5
52
102
{ACAD_REACTORS
330
47
102
}
330
47
100
AcDbScale
 70
     0
300
1:50
140
1.0
141
50.0
290
     0
  0
SCALE
  5
53
102
{ACAD_REACTORS
330
47
102
}
330
47
100
AcDbScale
 70
     0
300
1:100
140
1.0
141
100.0
290
     0
  0
SCALE
  5
54
102
{ACAD_REACTORS
330
47
102
}
330
47
100
AcDbScale
 70
     0
300
2:1
140
2.0
141
1.0
290
     0
  0
SCALE
  5
55
102
{ACAD_REACTORS
330
47
102
}
330
47
100
AcDbScale
 70
     0
300
4:1
140
4.0
141
1.0
290
     0
  0
SCALE
  5
56
102
{ACAD_REACTORS
330
47
102
}
330
47
100
AcDbScale
 70
     0
300
8:1
140
8.0
141
1.0
290
     0
  0
SCALE
  5
57
102
{ACAD_REACTORS
330
47
102
}
330
47
100
AcDbScale
 70
     0
300
10:1
140
10.0
141
1.0
290
     0
  0
SCALE
  5
58
102
{ACAD_REACTORS
330
47
102
}
330
47
100
AcDbScale
 70
     0
300
100:1
140
100.0
141
1.0
290
     0
  0
SCALE
  5
59
102
{ACAD_REACTORS
330
47
102
}
330
47
100
AcDbScale
 70
     0
300
1/128" = 1'-0"
140
0.0078125
141
12.0
290
     0
  0
SCALE
  5
5A
102
{ACAD_REACTORS
330
47
102
}
330
47
100
AcDbScale
 70
     0
300
1/64" = 1'-0"
140
0.015625
141
12.0
290
     0
  0
SCALE
  5
5B
102
{ACAD_REACTORS
330
47
102
}
330
47
100
AcDbScale
 70
     0
300
1/32" = 1'-0"
140
0.03125
141
12.0
290
     0
  0
SCALE
  5
5C
102
{ACAD_REACTORS
330
47
102
}
330
47
100
AcDbScale
 70
     0
300
1/16" = 1'-0"
140
0.0625
141
12.0
290
     0
  0
SCALE
  5
5D
102
{ACAD_REACTORS
330
47
102
}
330
47
100
AcDbScale
 70
     0
300
3/32" = 1'-0"
140
0.09375
141
12.0
290
     0
  0
SCALE
  5
5E
102
{ACAD_REACTORS
330
47
102
}
330
47
100
AcDbScale
 70
     0
300
1/8" = 1'-0"
140
0.125
141
12.0
290
     0
  0
SCALE
  5
5F
102
{ACAD_REACTORS
330
47
102
}
330
47
100
AcDbScale
 70
     0
300
3/16" = 1'-0"
140
0.1875
141
12.0
290
     0
  0
SCALE
  5
60
102
{ACAD_REACTORS
330
47
102
}
330
47
100
AcDbScale
 70
     0
300
1/4" = 1'-0"
140
0.25
141
12.0
290
     0
  0
SCALE
  5
61
102
{ACAD_REACTORS
330
47
102
}
330
47
100
AcDbScale
 70
     0
300
3/8" = 1'-0"
140
0.375
141
12.0
290
     0
  0
SCALE
  5
62
102
{ACAD_REACTORS
330
47
102
}
330
47
100
AcDbScale
 70
     0
300
1/2" = 1'-0"
140
0.5
141
12.0
290
     0
  0
SCALE
  5
63
102
{ACAD_REACTORS
330
47
102
}
330
47
100
AcDbScale
 70
     0
300
3/4" = 1'-0"
140
0.75
141
12.0
290
     0
  0
SCALE
  5
64
102
{ACAD_REACTORS
330
47
102
}
330
47
100
AcDbScale
 70
     0
300
1" = 1'-0"
140
1.0
141
12.0
290
     0
  0
SCALE
  5
65
102
{ACAD_REACTORS
330
47
102
}
330
47
100
AcDbScale
 70
     0
300
1-1/2" = 1'-0"
140
1.5
141
12.0
290
     0
  0
SCALE
  5
66
102
{ACAD_REACTORS
330
47
102
}
330
47
100
AcDbScale
 70
     0
300
3" = 1'-0"
140
3.0
141
12.0
290
     0
  0
SCALE
  5
67
102
{ACAD_REACTORS
330
47
102
}
330
47
100
AcDbScale
 70
     0
300
6" = 1'-0"
140
6.0
141
12.0
290
     0
  0
SCALE
  5
68
102
{ACAD_REACTORS
330
47
102
}
330
47
100
AcDbScale
 70
     0
300
1'-0" = 1'-0"
140
12.0
141
12.0
290
     0
  0
ENDSEC
  0
EOF
