  0
SECTION
  2
HEADER
  9
$ACADVER
  1
AC1015
  9
$ACADMAINTVER
 70
     6
  9
$DWGCODEPAGE
  3
ANSI_950
  9
$INSBASE
 10
0.0
 20
0.0
 30
0.0
  9
$EXTMIN
 10
0.0
 20
0.0
 30
0.0
  9
$EXTMAX
 10
148.5
 20
105.0
 30
0.0
  9
$LIMMIN
 10
0.0
 20
0.0
  9
$LIMMAX
 10
148.5
 20
105.0
  9
$ORTHOMODE
 70
     0
  9
$REGENMODE
 70
     1
  9
$FILLMODE
 70
     1
  9
$QTEXTMODE
 70
     0
  9
$MIRRTEXT
 70
     1
  9
$LTSCALE
 40
0.5
  9
$ATTMODE
 70
     1
  9
$TEXTSIZE
 40
1.5875
  9
$TRACEWID
 40
1.0
  9
$TEXTSTYLE
  7
Standard
  9
$CLAYER
  8
0
  9
$CELTYPE
  6
ByLayer
  9
$CECOLOR
 62
   256
  9
$CELTSCALE
 40
1.0
  9
$DISPSILH
 70
     0
  9
$DIMSCALE
 40
1.0
  9
$DIMASZ
 40
1.0
  9
$DIMEXO
 40
0.5
  9
$DIMDLI
 40
3.75
  9
$DIMRND
 40
0.0
  9
$DIMDLE
 40
0.0
  9
$DIMEXE
 40
0.5
  9
$DIMTP
 40
0.0
  9
$DIMTM
 40
0.0
  9
$DIMTXT
 40
1.5875
  9
$DIMCEN
 40
2.5
  9
$DIMTSZ
 40
0.0
  9
$DIMTOL
 70
     0
  9
$DIMLIM
 70
     0
  9
$DIMTIH
 70
     1
  9
$DIMTOH
 70
     1
  9
$DIMSE1
 70
     0
  9
$DIMSE2
 70
     0
  9
$DIMTAD
 70
     1
  9
$DIMZIN
 70
     0
  9
$DIMBLK
  1

  9
$DIMASO
 70
     1
  9
$DIMSHO
 70
     1
  9
$DIMPOST
  1

  9
$DIMAPOST
  1

  9
$DIMALT
 70
     0
  9
$DIMALTD
 70
     3
  9
$DIMALTF
 40
0.0393700787
  9
$DIMLFAC
 40
1.0
  9
$DIMTOFL
 70
     1
  9
$DIMTVP
 40
0.0
  9
$DIMTIX
 70
     0
  9
$DIMSOXD
 70
     0
  9
$DIMSAH
 70
     0
  9
$DIMBLK1
  1

  9
$DIMBLK2
  1

  9
$DIMSTYLE
  2
ISO-25
  9
$DIMCLRD
 70
     0
  9
$DIMCLRE
 70
     0
  9
$DIMCLRT
 70
     0
  9
$DIMTFAC
 40
1.0
  9
$DIMGAP
 40
0.5
  9
$DIMJUST
 70
     0
  9
$DIMSD1
 70
     0
  9
$DIMSD2
 70
     0
  9
$DIMTOLJ
 70
     0
  9
$DIMTZIN
 70
     0
  9
$DIMALTZ
 70
     0
  9
$DIMALTTZ
 70
     0
  9
$DIMUPT
 70
     0
  9
$DIMDEC
 70
     2
  9
$DIMTDEC
 70
     2
  9
$DIMALTU
 70
     2
  9
$DIMALTTD
 70
     3
  9
$DIMTXSTY
  7
Standard
  9
$DIMAUNIT
 70
     0
  9
$DIMADEC
 70
     2
  9
$DIMALTRND
 40
0.0
  9
$DIMAZIN
 70
     0
  9
$DIMDSEP
 70
    44
  9
$DIMATFIT
 70
     3
  9
$DIMFRAC
 70
     0
  9
$DIMLDRBLK
  1

  9
$DIMLUNIT
 70
     2
  9
$DIMLWD
 70
    -2
  9
$DIMLWE
 70
    -2
  9
$DIMTMOVE
 70
     0
  9
$LUNITS
 70
     2
  9
$LUPREC
 70
     2
  9
$SKETCHINC
 40
1.0
  9
$FILLETRAD
 40
10.0
  9
$AUNITS
 70
     0
  9
$AUPREC
 70
     2
  9
$MENU
  1
.
  9
$ELEVATION
 40
0.0
  9
$PELEVATION
 40
0.0
  9
$THICKNESS
 40
0.0
  9
$LIMCHECK
 70
     0
  9
$CHAMFERA
 40
0.0
  9
$CHAMFERB
 40
0.0
  9
$CHAMFERC
 40
0.0
  9
$CHAMFERD
 40
0.0
  9
$SKPOLY
 70
     0
  9
$TDCREATE
 40
2458136.482594375
  9
$TDUCREATE
 40
2458136.149261042
  9
$TDUPDATE
 40
2458136.482604479
  9
$TDUUPDATE
 40
2458136.149271146
  9
$TDINDWG
 40
0.0000000116
  9
$TDUSRTIMER
 40
0.0000000116
  9
$USRTIMER
 70
     1
  9
$ANGBASE
 50
0.0
  9
$ANGDIR
 70
     0
  9
$PDMODE
 70
     0
  9
$PDSIZE
 40
-1.0
  9
$PLINEWID
 40
0.0
  9
$SPLFRAME
 70
     0
  9
$SPLINETYPE
 70
     6
  9
$SPLINESEGS
 70
     8
  9
$HANDSEED
  5
3F6
  9
$SURFTAB1
 70
     6
  9
$SURFTAB2
 70
     6
  9
$SURFTYPE
 70
     6
  9
$SURFU
 70
     6
  9
$SURFV
 70
     6
  9
$UCSBASE
  2

  9
$UCSNAME
  2

  9
$UCSORG
 10
0.0
 20
0.0
 30
0.0
  9
$UCSXDIR
 10
1.0
 20
0.0
 30
0.0
  9
$UCSYDIR
 10
0.0
 20
1.0
 30
0.0
  9
$UCSORTHOREF
  2

  9
$UCSORTHOVIEW
 70
     0
  9
$UCSORGTOP
 10
0.0
 20
0.0
 30
0.0
  9
$UCSORGBOTTOM
 10
0.0
 20
0.0
 30
0.0
  9
$UCSORGLEFT
 10
0.0
 20
0.0
 30
0.0
  9
$UCSORGRIGHT
 10
0.0
 20
0.0
 30
0.0
  9
$UCSORGFRONT
 10
0.0
 20
0.0
 30
0.0
  9
$UCSORGBACK
 10
0.0
 20
0.0
 30
0.0
  9
$PUCSBASE
  2

  9
$PUCSNAME
  2

  9
$PUCSORG
 10
0.0
 20
0.0
 30
0.0
  9
$PUCSXDIR
 10
1.0
 20
0.0
 30
0.0
  9
$PUCSYDIR
 10
0.0
 20
1.0
 30
0.0
  9
$PUCSORTHOREF
  2

  9
$PUCSORTHOVIEW
 70
     0
  9
$PUCSORGTOP
 10
0.0
 20
0.0
 30
0.0
  9
$PUCSORGBOTTOM
 10
0.0
 20
0.0
 30
0.0
  9
$PUCSORGLEFT
 10
0.0
 20
0.0
 30
0.0
  9
$PUCSORGRIGHT
 10
0.0
 20
0.0
 30
0.0
  9
$PUCSORGFRONT
 10
0.0
 20
0.0
 30
0.0
  9
$PUCSORGBACK
 10
0.0
 20
0.0
 30
0.0
  9
$USERI1
 70
     0
  9
$USERI2
 70
     0
  9
$USERI3
 70
     0
  9
$USERI4
 70
     0
  9
$USERI5
 70
     0
  9
$USERR1
 40
0.0
  9
$USERR2
 40
0.0
  9
$USERR3
 40
0.0
  9
$USERR4
 40
0.0
  9
$USERR5
 40
0.0
  9
$WORLDVIEW
 70
     1
  9
$SHADEDGE
 70
     3
  9
$SHADEDIF
 70
    70
  9
$TILEMODE
 70
     1
  9
$MAXACTVP
 70
    64
  9
$PINSBASE
 10
0.0
 20
0.0
 30
0.0
  9
$PLIMCHECK
 70
     0
  9
$PEXTMIN
 10
1.0000000000E+20
 20
1.0000000000E+20
 30
1.0000000000E+20
  9
$PEXTMAX
 10
-1.0000000000E+20
 20
-1.0000000000E+20
 30
-1.0000000000E+20
  9
$PLIMMIN
 10
0.0
 20
0.0
  9
$PLIMMAX
 10
420.0
 20
297.0
  9
$UNITMODE
 70
     0
  9
$VISRETAIN
 70
     1
  9
$PLINEGEN
 70
     0
  9
$PSLTSCALE
 70
     1
  9
$TREEDEPTH
 70
  3020
  9
$CMLSTYLE
  2
Standard
  9
$CMLJUST
 70
     0
  9
$CMLSCALE
 40
20.0
  9
$PROXYGRAPHICS
 70
     1
  9
$MEASUREMENT
 70
     1
  9
$CELWEIGHT
370
    -1
  9
$ENDCAPS
280
     0
  9
$JOINSTYLE
280
     0
  9
$LWDISPLAY
290
     1
  9
$INSUNITS
 70
     4
  9
$HYPERLINKBASE
  1

  9
$STYLESHEET
  1

  9
$XEDIT
290
     1
  9
$CEPSNTYPE
380
     0
  9
$PSTYLEMODE
290
     1
  9
$FINGERPRINTGUID
  2
{C86D62E3-0862-456A-B833-EB550820FB0A}
  9
$VERSIONGUID
  2
{FAEB1C32-E019-11D5-929B-00C0DF256EC4}
  9
$EXTNAMES
290
     1
  9
$PSVPSCALE
 40
0.0
  9
$OLESTARTUP
290
     0
  0
ENDSEC
  0
SECTION
  2
CLASSES
  0
CLASS
  1
ACDBDICTIONARYWDFLT
  2
AcDbDictionaryWithDefault
  3
ObjectDBX Classes
 90
        0
280
     0
281
     0
  0
CLASS
  1
VISUALSTYLE
  2
AcDbVisualStyle
  3
ObjectDBX Classes
 90
     4095
280
     0
281
     0
  0
CLASS
  1
MATERIAL
  2
AcDbMaterial
  3
ObjectDBX Classes
 90
     1153
280
     0
281
     0
  0
CLASS
  1
SCALE
  2
AcDbScale
  3
ObjectDBX Classes
 90
     1153
280
     0
281
     0
  0
CLASS
  1
TABLESTYLE
  2
AcDbTableStyle
  3
ObjectDBX Classes
 90
     4095
280
     0
281
     0
  0
CLASS
  1
MLEADERSTYLE
  2
AcDbMLeaderStyle
  3
ACDB_MLEADERSTYLE_CLASS
 90
     4095
280
     0
281
     0
  0
CLASS
  1
SUN
  2
AcDbSun
  3
SCENEOE
 90
     1153
280
     0
281
     0
  0
CLASS
  1
ACDBPLACEHOLDER
  2
AcDbPlaceHolder
  3
ObjectDBX Classes
 90
        0
280
     0
281
     0
  0
CLASS
  1
LAYOUT
  2
AcDbLayout
  3
ObjectDBX Classes
 90
        0
280
     0
281
     0
  0
ENDSEC
  0
SECTION
  2
TABLES
  0
TABLE
  2
VPORT
  5
8
330
0
100
AcDbSymbolTable
 70
     1
  0
VPORT
  5
29
330
8
100
AcDbSymbolTableRecord
100
AcDbViewportTableRecord
  2
*Active
 70
     0
 10
0.0
 20
0.0
 11
1.0
 21
1.0
 12
74.25
 22
52.5
 13
0.0
 23
0.0
 14
10.0
 24
10.0
 15
10.0
 25
10.0
 16
0.0
 26
0.0
 36
1.0
 17
0.0
 27
0.0
 37
0.0
 40
105.0
 41
1.4142857143
 42
50.0
 43
0.0
 44
0.0
 50
0.0
 51
0.0
 71
     0
 72
  2000
 73
     1
 74
     3
 75
     0
 76
     0
 77
     0
 78
     0
281
     0
 65
     1
110
0.0
120
0.0
130
0.0
111
1.0
121
0.0
131
0.0
112
0.0
122
1.0
132
0.0
 79
     0
146
0.0
  0
ENDTAB
  0
TABLE
  2
LTYPE
  5
5
330
0
100
AcDbSymbolTable
 70
     6
  0
LTYPE
  5
14
330
5
100
AcDbSymbolTableRecord
100
AcDbLinetypeTableRecord
  2
ByBlock
 70
     0
  3

 72
    65
 73
     0
 40
0.0
  0
LTYPE
  5
15
330
5
100
AcDbSymbolTableRecord
100
AcDbLinetypeTableRecord
  2
ByLayer
 70
     0
  3

 72
    65
 73
     0
 40
0.0
  0
LTYPE
  5
16
330
5
100
AcDbSymbolTableRecord
100
AcDbLinetypeTableRecord
  2
Continuous
 70
     0
  3
Solid line
 72
    65
 73
     0
 40
0.0
  0
LTYPE
  5
6E
330
5
100
AcDbSymbolTableRecord
100
AcDbLinetypeTableRecord
  2
HIDDEN
 70
     0
  3
Hidden __ __ __ __ __ __ __ __ __ __ __ __ __ __
 72
    65
 73
     2
 40
1.905
 49
1.27
 74
     0
 49
-0.635
 74
     0
  0
LTYPE
  5
6F
330
5
100
AcDbSymbolTableRecord
100
AcDbLinetypeTableRecord
  2
PHANTOM
 70
     0
  3
Phantom ______  __  __  ______  __  __  ______
 72
    65
 73
     6
 40
12.7
 49
6.35
 74
     0
 49
-1.27
 74
     0
 49
1.27
 74
     0
 49
-1.27
 74
     0
 49
1.27
 74
     0
 49
-1.27
 74
     0
  0
LTYPE
  5
70
330
5
100
AcDbSymbolTableRecord
100
AcDbLinetypeTableRecord
  2
CENTER
 70
     0
  3
Center ____ _ ____ _ ____ _ ____ _ ____ _ ____
 72
    65
 73
     4
 40
10.16
 49
6.35
 74
     0
 49
-1.27
 74
     0
 49
1.27
 74
     0
 49
-1.27
 74
     0
  0
LTYPE
  5
71
330
5
100
AcDbSymbolTableRecord
100
AcDbLinetypeTableRecord
  2
CENTERX2
 70
     0
  3
Center (2x) ________  __  ________  __  _____
 72
    65
 73
     4
 40
20.32
 49
12.7
 74
     0
 49
-2.54
 74
     0
 49
2.54
 74
     0
 49
-2.54
 74
     0
  0
LTYPE
  5
72
330
5
100
AcDbSymbolTableRecord
100
AcDbLinetypeTableRecord
  2
DOT2
 70
     0
  3
Dot (.5x) ........................................
 72
    65
 73
     2
 40
0.635
 49
0.0
 74
     0
 49
-0.635
 74
     0
  0
ENDTAB
  0
TABLE
  2
LAYER
  5
2
330
0
100
AcDbSymbolTable
 70
    10
  0
LAYER
  5
10
330
2
100
AcDbSymbolTableRecord
100
AcDbLayerTableRecord
  2
0
 70
     0
 62
     7
  6
Continuous
370
    -3
390
F
  0
LAYER
  5
73
330
2
100
AcDbSymbolTableRecord
100
AcDbLayerTableRecord
  2
SLD-0
 70
     0
 62
     7
  6
Continuous
370
    15
390
F
  0
LAYER
  5
74
330
2
100
AcDbSymbolTableRecord
100
AcDbLayerTableRecord
  2
輪廓線
 70
     0
 62
   219
  6
Continuous
370
    15
390
F
  0
LAYER
  5
75
330
2
100
AcDbSymbolTableRecord
100
AcDbLayerTableRecord
  2
DIM
 70
     0
 62
     7
  6
Continuous
370
    -3
390
F
  0
LAYER
  5
76
330
2
100
AcDbSymbolTableRecord
100
AcDbLayerTableRecord
  2
中心線
 70
     0
 62
     7
  6
CENTERX2
370
    -3
390
F
  0
LAYER
  5
77
330
2
100
AcDbSymbolTableRecord
100
AcDbLayerTableRecord
  2
虛線
 70
     0
 62
     7
  6
HIDDEN
370
    -3
390
F
  0
LAYER
  5
78
330
2
100
AcDbSymbolTableRecord
100
AcDbLayerTableRecord
  2
SECTION
 70
     0
 62
     7
  6
PHANTOM
370
    15
390
F
  0
LAYER
  5
79
330
2
100
AcDbSymbolTableRecord
100
AcDbLayerTableRecord
  2
假想線
 70
     0
 62
     7
  6
PHANTOM
370
    -3
390
F
  0
LAYER
  5
7A
330
2
100
AcDbSymbolTableRecord
100
AcDbLayerTableRecord
  2
圖層_1
 70
     0
 62
   179
  6
Continuous
370
    -3
390
F
  0
LAYER
  5
7B
330
2
100
AcDbSymbolTableRecord
100
AcDbLayerTableRecord
  2
工作區域參考線
 70
     0
 62
   179
  6
Continuous
370
    -3
390
F
  0
ENDTAB
  0
TABLE
  2
STYLE
  5
3
330
0
100
AcDbSymbolTable
 70
     3
  0
STYLE
  5
11
330
3
100
AcDbSymbolTableRecord
100
AcDbTextStyleTableRecord
  2
Standard
 70
     0
 40
0.0
 41
1.0
 50
0.0
 71
     0
 42
1.5875
  3
txt
  4

  0
STYLE
  5
CC
330
3
100
AcDbSymbolTableRecord
100
AcDbTextStyleTableRecord
  2
SLDTEXTSTYLE0
 70
     0
 40
0.0
 41
0.605
 50
0.0
 71
     0
 42
1.5875
  3
TXT
  4

  0
STYLE
  5
103
330
3
100
AcDbSymbolTableRecord
100
AcDbTextStyleTableRecord
  2
SLDTEXTSTYLE1
 70
     0
 40
0.0
 41
0.7
 50
0.0
 71
     0
 42
1.5875
  3
TXT
  4

  0
ENDTAB
  0
TABLE
  2
VIEW
  5
6
330
0
100
AcDbSymbolTable
 70
     0
  0
ENDTAB
  0
TABLE
  2
UCS
  5
7
330
0
100
AcDbSymbolTable
 70
     0
  0
ENDTAB
  0
TABLE
  2
APPID
  5
9
330
0
100
AcDbSymbolTable
 70
     1
  0
APPID
  5
12
330
9
100
AcDbSymbolTableRecord
100
AcDbRegAppTableRecord
  2
ACAD
 70
     0
  0
ENDTAB
  0
TABLE
  2
DIMSTYLE
  5
A
330
0
100
AcDbSymbolTable
 70
     2
100
AcDbDimStyleTable
  0
DIMSTYLE
105
27
330
A
100
AcDbSymbolTableRecord
100
AcDbDimStyleTableRecord
  2
ISO-25
 70
     0
 41
2.5
 42
0.625
 43
3.75
 44
1.25
 73
     0
 74
     0
 77
     1
 78
     8
140
2.5
141
2.5
143
0.0393700787
147
0.625
171
     3
172
     1
178
     0
271
     2
272
     2
274
     3
278
    44
283
     0
284
     8
340
11
  0
DIMSTYLE
105
260
102
{ACAD_REACTORS
330
25F
330
26B
330
276
330
280
330
28A
330
294
330
29E
102
}
330
A
100
AcDbSymbolTableRecord
100
AcDbDimStyleTableRecord
  2
SLDDIMSTYLE0
 70
     0
 41
1.0
 44
0.0
 45
0.000000001
 73
     0
 74
     0
 77
     1
 78
    12
 79
     3
140
1.2712402344
147
0.3178100586
173
     1
178
     0
271
     2
272
     2
276
     2
284
    12
340
103
  0
ENDTAB
  0
TABLE
  2
BLOCK_RECORD
  5
1
330
0
100
AcDbSymbolTable
 70
    11
  0
BLOCK_RECORD
  5
1F
330
1
100
AcDbSymbolTableRecord
100
AcDbBlockTableRecord
  2
*Model_Space
340
22
  0
BLOCK_RECORD
  5
1B
330
1
100
AcDbSymbolTableRecord
100
AcDbBlockTableRecord
  2
*Paper_Space
340
1E
  0
BLOCK_RECORD
  5
23
330
1
100
AcDbSymbolTableRecord
100
AcDbBlockTableRecord
  2
*Paper_Space0
340
26
  0
BLOCK_RECORD
  5
7C
330
1
100
AcDbSymbolTableRecord
100
AcDbBlockTableRecord
  2
圖塊6
340
0
102
{BLKREFS
331
CB
102
}
  0
BLOCK_RECORD
  5
CE
330
1
100
AcDbSymbolTableRecord
100
AcDbBlockTableRecord
  2
SW_NOTE_0
340
0
102
{BLKREFS
331
D4
102
}
  0
BLOCK_RECORD
  5
105
330
1
100
AcDbSymbolTableRecord
100
AcDbBlockTableRecord
  2
SW_NOTE_1
340
0
102
{BLKREFS
331
10A
102
}
  0
BLOCK_RECORD
  5
261
330
1
100
AcDbSymbolTableRecord
100
AcDbBlockTableRecord
  2
_D
340
0
  0
BLOCK_RECORD
  5
26C
330
1
100
AcDbSymbolTableRecord
100
AcDbBlockTableRecord
  2
_D_1
340
0
  0
BLOCK_RECORD
  5
277
330
1
100
AcDbSymbolTableRecord
100
AcDbBlockTableRecord
  2
_D_2
340
0
  0
BLOCK_RECORD
  5
281
330
1
100
AcDbSymbolTableRecord
100
AcDbBlockTableRecord
  2
_D_3
340
0
  0
BLOCK_RECORD
  5
28B
330
1
100
AcDbSymbolTableRecord
100
AcDbBlockTableRecord
  2
_D_4
340
0
  0
BLOCK_RECORD
  5
295
330
1
100
AcDbSymbolTableRecord
100
AcDbBlockTableRecord
  2
_D_5
340
0
  0
BLOCK_RECORD
  5
29F
330
1
100
AcDbSymbolTableRecord
100
AcDbBlockTableRecord
  2
_D_6
340
0
  0
ENDTAB
  0
ENDSEC
  0
SECTION
  2
BLOCKS
  0
BLOCK
  5
20
330
1F
100
AcDbEntity
  8
0
100
AcDbBlockBegin
  2
*Model_Space
 70
     0
 10
0.0
 20
0.0
 30
0.0
  3
*Model_Space
  1

  0
ENDBLK
  5
21
330
1F
100
AcDbEntity
  8
0
100
AcDbBlockEnd
  0
BLOCK
  5
1C
330
1B
100
AcDbEntity
 67
     1
  8
0
100
AcDbBlockBegin
  2
*Paper_Space
 70
     0
 10
0.0
 20
0.0
 30
0.0
  3
*Paper_Space
  1

  0
ENDBLK
  5
1D
330
1B
100
AcDbEntity
 67
     1
  8
0
100
AcDbBlockEnd
  0
BLOCK
  5
24
330
23
100
AcDbEntity
  8
0
100
AcDbBlockBegin
  2
*Paper_Space0
 70
     0
 10
0.0
 20
0.0
 30
0.0
  3
*Paper_Space0
  1

  0
ENDBLK
  5
25
330
23
100
AcDbEntity
  8
0
100
AcDbBlockEnd
  0
BLOCK
  5
7D
330
7C
100
AcDbEntity
  8
0
100
AcDbBlockBegin
  2
圖塊6
 70
     0
 10
0.0
 20
0.0
 30
0.0
  3
圖塊6
  1

  0
ARC
  5
7F
330
7C
100
AcDbEntity
  8
圖層_1
 62
     7
370
    30
100
AcDbCircle
 10
0.765077217
 20
3.0510341446
 30
0.0
 40
0.765077216971835
100
AcDbArc
 50
130.2115225915
 51
228.588904108
  0
ARC
  5
80
330
7C
100
AcDbEntity
  8
圖層_1
 62
     7
370
    30
100
AcDbCircle
 10
2.4254567991
 20
2.9974727207
 30
0.0
 40
1.288667713408811
100
AcDbArc
 50
140.4331765613
 51
251.0865666567
  0
ARC
  5
81
330
7C
100
AcDbEntity
  8
圖層_1
 62
     7
370
    30
100
AcDbCircle
 10
2.5882520991
 20
3.1558779856
 30
0.0
 40
1.494818328884931
100
AcDbArc
 50
247.1485306747
 51
309.6030773927
  0
LINE
  5
82
330
7C
100
AcDbEntity
  8
圖層_1
 62
     7
370
    30
100
AcDbLine
 10
0.9244488634
 20
4.2660912992
 30
0.0
 11
0.271134736
 21
3.6352977609
 31
0.0
  0
LINE
  5
83
330
7C
100
AcDbEntity
  8
圖層_1
 62
     7
370
    30
100
AcDbLine
 10
0.259011445
 20
2.4772392488
 30
0.0
 11
2.2636126001
 21
0.7349373287
 31
0.0
  0
LINE
  5
84
330
7C
100
AcDbEntity
  8
圖層_1
 62
     7
370
    30
100
AcDbLine
 10
2.2636126001
 20
0.7349373287
 30
0.0
 11
1.9480866399
 21
0.4269871335
 31
0.0
  0
LINE
  5
85
330
7C
100
AcDbEntity
  8
圖層_1
 62
     7
370
    30
100
AcDbLine
 10
1.9480866399
 20
0.4269871335
 30
0.0
 11
2.4440263222
 21
0.0
 31
0.0
  0
LINE
  5
86
330
7C
100
AcDbEntity
  8
圖層_1
 62
     7
370
    30
100
AcDbLine
 10
4.0488585394
 20
1.5582889828
 30
0.0
 11
3.5411470236
 21
2.0041518466
 31
0.0
  0
LINE
  5
87
330
7C
100
AcDbEntity
  8
圖層_1
 62
     7
370
    30
100
AcDbLine
 10
1.4320457871
 20
3.8183253488
 30
0.0
 11
0.9244488634
 21
4.2660912992
 31
0.0
  0
LINE
  5
88
330
7C
100
AcDbEntity
  8
圖層_1
 62
     7
370
    30
100
AcDbLine
 10
2.4440263222
 20
0.0
 30
0.0
 11
4.0488585394
 21
1.5582889828
 31
0.0
  0
ENDBLK
  5
7E
330
7C
100
AcDbEntity
  8
0
100
AcDbBlockEnd
  0
BLOCK
  5
CF
330
CE
100
AcDbEntity
  8
0
100
AcDbBlockBegin
  2
SW_NOTE_0
 70
     0
 10
0.0
 20
0.0
 30
0.0
  3
SW_NOTE_0
  1

  0
MTEXT
  5
D1
330
CE
100
AcDbEntity
  8
0
  6
Continuous
 62
     0
370
     0
100
AcDbMText
 10
0.0
 20
1.7053291974
 30
0.0
 40
1.3229166667
 41
0.0
 71
     1
 72
     1
  1
PROPRIETARY AND CONFIDENTIAL
  7
SLDTEXTSTYLE0
 73
     1
 44
1.0
  0
MTEXT
  5
D2
330
CE
100
AcDbEntity
  8
0
  6
Continuous
 62
     0
370
     0
100
AcDbMText
 10
0.0
 20
-0.04099174
 30
0.0
 40
0.9260416667
 41
0.0
 71
     1
 72
     1
  1
THE INFORMATION CONTAINED IN THIS DRAWING IS THE SOLE PROPERTY OF UNICE E-O SERVICES INC. ANY REPRODUCTION IN PART OR AS A WHOLE WITHOUT THE WRITTEN PERMISSION OF UNICE E-O SERVICES INC IS
  7
SLDTEXTSTYLE0
 73
     1
 44
1.0
  0
MTEXT
  5
D3
330
CE
100
AcDbEntity
  8
0
  6
Continuous
 62
     0
370
     0
100
AcDbMText
 10
0.0
 20
-1.2757139473
 30
0.0
 40
0.9260416667
 41
0.0
 71
     1
 72
     1
  1
PROHIBITED.
  7
SLDTEXTSTYLE0
 73
     1
 44
1.0
  0
ENDBLK
  5
D0
330
CE
100
AcDbEntity
  8
0
100
AcDbBlockEnd
  0
BLOCK
  5
106
330
105
100
AcDbEntity
  8
0
100
AcDbBlockBegin
  2
SW_NOTE_1
 70
     0
 10
0.0
 20
0.0
 30
0.0
  3
SW_NOTE_1
  1

  0
MTEXT
  5
108
330
105
100
AcDbEntity
  8
SLD-0
 62
     0
100
AcDbMText
 10
0.0
 20
1.0231975184
 30
0.0
 40
0.79375
 41
0.0
 71
     1
 72
     1
  1
No.5, Andong Rd., Chung Li District,
  7
SLDTEXTSTYLE0
 73
     1
 44
1.0
  0
MTEXT
  5
109
330
105
100
AcDbEntity
  8
SLD-0
 62
     0
100
AcDbMText
 10
0.0
 20
-0.0351358021
 30
0.0
 40
0.79375
 41
0.0
 71
     1
 72
     1
  1
Taoyuan City 32063, Taiwan, R.O.C.
  7
SLDTEXTSTYLE0
 73
     1
 44
1.0
  0
ENDBLK
  5
107
330
105
100
AcDbEntity
  8
0
100
AcDbBlockEnd
  0
BLOCK
  5
262
330
261
100
AcDbEntity
  8
0
100
AcDbBlockBegin
  2
_D
 70
     0
 10
0.0
 20
0.0
 30
0.0
  3
_D
  1

  0
SOLID
  5
264
330
261
100
AcDbEntity
  8
DIM
100
AcDbTrace
 10
44.5976545398
 20
51.9513992448
 30
0.0
 11
44.4726545398
 21
50.9513992448
 31
0.0
 12
44.7226545398
 22
50.9513992448
 32
0.0
 13
44.7226545398
 23
50.9513992448
 33
0.0
  0
SOLID
  5
265
330
261
100
AcDbEntity
  8
DIM
100
AcDbTrace
 10
44.5976545398
 20
48.4513992448
 30
0.0
 11
44.7226545398
 21
49.4513992448
 31
0.0
 12
44.4726545398
 22
49.4513992448
 32
0.0
 13
44.4726545398
 23
49.4513992448
 33
0.0
  0
LINE
  5
266
330
261
100
AcDbEntity
  8
DIM
100
AcDbLine
 10
48.1609559536
 20
51.9513992448
 30
0.0
 11
44.0976545398
 21
51.9513992448
 31
0.0
  0
LINE
  5
267
330
261
100
AcDbEntity
  8
DIM
100
AcDbLine
 10
48.1609559536
 20
48.4513992448
 30
0.0
 11
44.0976545398
 21
48.4513992448
 31
0.0
  0
LINE
  5
268
330
261
100
AcDbEntity
  8
DIM
100
AcDbLine
 10
44.5976545398
 20
51.9513992448
 30
0.0
 11
44.5976545398
 21
48.4513992448
 31
0.0
  0
MTEXT
  5
269
330
261
100
AcDbEntity
  8
DIM
100
AcDbMText
 10
43.0628582039
 20
48.5157829173
 30
0.0
 40
1.190625
 41
0.0
 71
     1
 72
     1
  1
%%c
  7
SLDTEXTSTYLE1
 11
-1.770233605404514E-14
 21
1.0
 31
0.0
 73
     1
 44
1.0
  0
MTEXT
  5
26A
330
261
100
AcDbEntity
  8
DIM
100
AcDbMText
 10
43.0628582039
 20
50.0239079049
 30
0.0
 40
1.190625
 41
0.0
 71
     1
 72
     1
  1
3.5
  7
SLDTEXTSTYLE1
 11
-1.770233605404514E-14
 21
1.0
 31
0.0
 73
     1
 44
1.0
  0
ENDBLK
  5
263
330
261
100
AcDbEntity
  8
0
100
AcDbBlockEnd
  0
BLOCK
  5
26D
330
26C
100
AcDbEntity
  8
0
100
AcDbBlockBegin
  2
_D_1
 70
     0
 10
0.0
 20
0.0
 30
0.0
  3
_D_1
  1

  0
SOLID
  5
26F
330
26C
100
AcDbEntity
  8
DIM
100
AcDbTrace
 10
42.0976545398
 20
53.2013992448
 30
0.0
 11
41.9726545398
 21
52.2013992448
 31
0.0
 12
42.2226545398
 22
52.2013992448
 32
0.0
 13
42.2226545398
 23
52.2013992448
 33
0.0
  0
SOLID
  5
270
330
26C
100
AcDbEntity
  8
DIM
100
AcDbTrace
 10
42.0976545398
 20
47.2013992448
 30
0.0
 11
42.2226545398
 21
48.2013992448
 31
0.0
 12
41.9726545398
 22
48.2013992448
 32
0.0
 13
41.9726545398
 23
48.2013992448
 33
0.0
  0
LINE
  5
271
330
26C
100
AcDbEntity
  8
DIM
100
AcDbLine
 10
57.0001846098
 20
53.2013992448
 30
0.0
 11
41.5976545398
 21
53.2013992448
 31
0.0
  0
LINE
  5
272
330
26C
100
AcDbEntity
  8
DIM
100
AcDbLine
 10
57.0001846098
 20
47.2013992448
 30
0.0
 11
41.5976545398
 21
47.2013992448
 31
0.0
  0
LINE
  5
273
330
26C
100
AcDbEntity
  8
DIM
100
AcDbLine
 10
42.0976545398
 20
53.2013992448
 30
0.0
 11
42.0976545398
 21
47.2013992448
 31
0.0
  0
MTEXT
  5
274
330
26C
100
AcDbEntity
  8
DIM
100
AcDbMText
 10
40.5628582039
 20
49.0747152292
 30
0.0
 40
1.190625
 41
0.0
 71
     1
 72
     1
  1
%%c
  7
SLDTEXTSTYLE1
 11
-1.770233605404514E-14
 21
1.0
 31
0.0
 73
     1
 44
1.0
  0
MTEXT
  5
275
330
26C
100
AcDbEntity
  8
DIM
100
AcDbMText
 10
40.5628582039
 20
50.5828402168
 30
0.0
 40
1.190625
 41
0.0
 71
     1
 72
     1
  1
6
  7
SLDTEXTSTYLE1
 11
-1.770233605404514E-14
 21
1.0
 31
0.0
 73
     1
 44
1.0
  0
ENDBLK
  5
26E
330
26C
100
AcDbEntity
  8
0
100
AcDbBlockEnd
  0
BLOCK
  5
278
330
277
100
AcDbEntity
  8
0
100
AcDbBlockBegin
  2
_D_2
 70
     0
 10
0.0
 20
0.0
 30
0.0
  3
_D_2
  1

  0
SOLID
  5
27A
330
277
100
AcDbEntity
  8
DIM
100
AcDbTrace
 10
48.0976545398
 20
42.0013992448
 30
0.0
 11
49.0976545398
 21
41.8763992448
 31
0.0
 12
49.0976545398
 22
42.1263992448
 32
0.0
 13
49.0976545398
 23
42.1263992448
 33
0.0
  0
SOLID
  5
27B
330
277
100
AcDbEntity
  8
DIM
100
AcDbTrace
 10
57.3001846098
 20
42.0013992448
 30
0.0
 11
56.3001846098
 21
42.1263992448
 31
0.0
 12
56.3001846098
 22
41.8763992448
 32
0.0
 13
56.3001846098
 23
41.8763992448
 33
0.0
  0
LINE
  5
27C
330
277
100
AcDbEntity
  8
DIM
100
AcDbLine
 10
48.0976545398
 20
49.7013992448
 30
0.0
 11
48.0976545398
 21
41.5013992448
 31
0.0
  0
LINE
  5
27D
330
277
100
AcDbEntity
  8
DIM
100
AcDbLine
 10
57.3001846098
 20
46.9013992448
 30
0.0
 11
57.3001846098
 21
41.5013992448
 31
0.0
  0
LINE
  5
27E
330
277
100
AcDbEntity
  8
DIM
100
AcDbLine
 10
48.0976545398
 20
42.0013992448
 30
0.0
 11
57.3001846098
 21
42.0013992448
 31
0.0
  0
MTEXT
  5
27F
330
277
100
AcDbEntity
  8
DIM
100
AcDbMText
 10
51.7673657411
 20
43.5361954642
 30
0.0
 40
1.190625
 41
0.0
 71
     1
 72
     1
  1
9.2
  7
SLDTEXTSTYLE1
 73
     1
 44
1.0
  0
ENDBLK
  5
279
330
277
100
AcDbEntity
  8
0
100
AcDbBlockEnd
  0
BLOCK
  5
282
330
281
100
AcDbEntity
  8
0
100
AcDbBlockBegin
  2
_D_3
 70
     0
 10
0.0
 20
0.0
 30
0.0
  3
_D_3
  1

  0
SOLID
  5
284
330
281
100
AcDbEntity
  8
DIM
100
AcDbTrace
 10
57.3001846098
 20
42.0013992448
 30
0.0
 11
58.3001846098
 21
41.8763992448
 31
0.0
 12
58.3001846098
 22
42.1263992448
 32
0.0
 13
58.3001846098
 23
42.1263992448
 33
0.0
  0
SOLID
  5
285
330
281
100
AcDbEntity
  8
DIM
100
AcDbTrace
 10
62.3001846098
 20
42.0013992448
 30
0.0
 11
61.3001846098
 21
42.1263992448
 31
0.0
 12
61.3001846098
 22
41.8763992448
 32
0.0
 13
61.3001846098
 23
41.8763992448
 33
0.0
  0
LINE
  5
286
330
281
100
AcDbEntity
  8
DIM
100
AcDbLine
 10
57.3001846098
 20
46.9013992448
 30
0.0
 11
57.3001846098
 21
41.5013992448
 31
0.0
  0
LINE
  5
287
330
281
100
AcDbEntity
  8
DIM
100
AcDbLine
 10
62.3001846098
 20
46.7013992448
 30
0.0
 11
62.3001846098
 21
41.5013992448
 31
0.0
  0
LINE
  5
288
330
281
100
AcDbEntity
  8
DIM
100
AcDbLine
 10
57.3001846098
 20
42.0013992448
 30
0.0
 11
62.3001846098
 21
42.0013992448
 31
0.0
  0
MTEXT
  5
289
330
281
100
AcDbEntity
  8
DIM
100
AcDbMText
 10
59.427563088
 20
43.5361954642
 30
0.0
 40
1.190625
 41
0.0
 71
     1
 72
     1
  1
5
  7
SLDTEXTSTYLE1
 73
     1
 44
1.0
  0
ENDBLK
  5
283
330
281
100
AcDbEntity
  8
0
100
AcDbBlockEnd
  0
BLOCK
  5
28C
330
28B
100
AcDbEntity
  8
0
100
AcDbBlockBegin
  2
_D_4
 70
     0
 10
0.0
 20
0.0
 30
0.0
  3
_D_4
  1

  0
SOLID
  5
28E
330
28B
100
AcDbEntity
  8
DIM
100
AcDbTrace
 10
62.3001846098
 20
42.0013992448
 30
0.0
 11
63.3001846098
 21
41.8763992448
 31
0.0
 12
63.3001846098
 22
42.1263992448
 32
0.0
 13
63.3001846098
 23
42.1263992448
 33
0.0
  0
SOLID
  5
28F
330
28B
100
AcDbEntity
  8
DIM
100
AcDbTrace
 10
85.0974951413
 20
42.0013992448
 30
0.0
 11
84.0974951413
 21
42.1263992448
 31
0.0
 12
84.0974951413
 22
41.8763992448
 32
0.0
 13
84.0974951413
 23
41.8763992448
 33
0.0
  0
LINE
  5
290
330
28B
100
AcDbEntity
  8
DIM
100
AcDbLine
 10
62.3001846098
 20
46.7013992448
 30
0.0
 11
62.3001846098
 21
41.5013992448
 31
0.0
  0
LINE
  5
291
330
28B
100
AcDbEntity
  8
DIM
100
AcDbLine
 10
85.0974951413
 20
49.7013992448
 30
0.0
 11
85.0974951413
 21
41.5013992448
 31
0.0
  0
LINE
  5
292
330
28B
100
AcDbEntity
  8
DIM
100
AcDbLine
 10
62.3001846098
 20
42.0013992448
 30
0.0
 11
85.0974951413
 21
42.0013992448
 31
0.0
  0
MTEXT
  5
293
330
28B
100
AcDbEntity
  8
DIM
100
AcDbMText
 10
72.3946646365
 20
43.5361954642
 30
0.0
 40
1.190625
 41
0.0
 71
     1
 72
     1
  1
22.8
  7
SLDTEXTSTYLE1
 73
     1
 44
1.0
  0
ENDBLK
  5
28D
330
28B
100
AcDbEntity
  8
0
100
AcDbBlockEnd
  0
BLOCK
  5
296
330
295
100
AcDbEntity
  8
0
100
AcDbBlockBegin
  2
_D_5
 70
     0
 10
0.0
 20
0.0
 30
0.0
  3
_D_5
  1

  0
SOLID
  5
298
330
295
100
AcDbEntity
  8
DIM
100
AcDbTrace
 10
48.0976545398
 20
39.5013992448
 30
0.0
 11
49.0976545398
 21
39.3763992448
 31
0.0
 12
49.0976545398
 22
39.6263992448
 32
0.0
 13
49.0976545398
 23
39.6263992448
 33
0.0
  0
SOLID
  5
299
330
295
100
AcDbEntity
  8
DIM
100
AcDbTrace
 10
85.0974951413
 20
39.5013992448
 30
0.0
 11
84.0974951413
 21
39.6263992448
 31
0.0
 12
84.0974951413
 22
39.3763992448
 32
0.0
 13
84.0974951413
 23
39.3763992448
 33
0.0
  0
LINE
  5
29A
330
295
100
AcDbEntity
  8
DIM
100
AcDbLine
 10
48.0976545398
 20
49.7013992448
 30
0.0
 11
48.0976545398
 21
39.0013992448
 31
0.0
  0
LINE
  5
29B
330
295
100
AcDbEntity
  8
DIM
100
AcDbLine
 10
85.0974951413
 20
49.7013992448
 30
0.0
 11
85.0974951413
 21
39.0013992448
 31
0.0
  0
LINE
  5
29C
330
295
100
AcDbEntity
  8
DIM
100
AcDbLine
 10
48.0976545398
 20
39.5013992448
 30
0.0
 11
85.0974951413
 21
39.5013992448
 31
0.0
  0
MTEXT
  5
29D
330
295
100
AcDbEntity
  8
DIM
100
AcDbMText
 10
65.8523317969
 20
41.0361954642
 30
0.0
 40
1.190625
 41
0.0
 71
     1
 72
     1
  1
37
  7
SLDTEXTSTYLE1
 73
     1
 44
1.0
  0
ENDBLK
  5
297
330
295
100
AcDbEntity
  8
0
100
AcDbBlockEnd
  0
BLOCK
  5
2A0
330
29F
100
AcDbEntity
  8
0
100
AcDbBlockBegin
  2
_D_6
 70
     0
 10
0.0
 20
0.0
 30
0.0
  3
_D_6
  1

  0
SOLID
  5
2A2
330
29F
100
AcDbEntity
  8
DIM
100
AcDbTrace
 10
88.5975058398
 20
54.9013992448
 30
0.0
 11
88.4725058398
 21
53.9013992448
 31
0.0
 12
88.7225058398
 22
53.9013992448
 32
0.0
 13
88.7225058398
 23
53.9013992448
 33
0.0
  0
SOLID
  5
2A3
330
29F
100
AcDbEntity
  8
DIM
100
AcDbTrace
 10
88.5975058398
 20
45.5013992448
 30
0.0
 11
88.7225058398
 21
46.5013992448
 31
0.0
 12
88.4725058398
 22
46.5013992448
 32
0.0
 13
88.4725058398
 23
46.5013992448
 33
0.0
  0
LINE
  5
2A4
330
29F
100
AcDbEntity
  8
DIM
100
AcDbLine
 10
83.0976545398
 20
54.9013992448
 30
0.0
 11
89.0975058398
 21
54.9013992448
 31
0.0
  0
LINE
  5
2A5
330
29F
100
AcDbEntity
  8
DIM
100
AcDbLine
 10
83.0976545398
 20
45.5013992448
 30
0.0
 11
89.0975058398
 21
45.5013992448
 31
0.0
  0
LINE
  5
2A6
330
29F
100
AcDbEntity
  8
DIM
100
AcDbLine
 10
88.5975058398
 20
54.9013992448
 30
0.0
 11
88.5975058398
 21
45.5013992448
 31
0.0
  0
MTEXT
  5
2A7
330
29F
100
AcDbEntity
  8
DIM
100
AcDbMText
 10
87.0627095039
 20
48.5157829173
 30
0.0
 40
1.190625
 41
0.0
 71
     1
 72
     1
  1
%%c
  7
SLDTEXTSTYLE1
 11
-1.770233605404514E-14
 21
1.0
 31
0.0
 73
     1
 44
1.0
  0
MTEXT
  5
2A8
330
29F
100
AcDbEntity
  8
DIM
100
AcDbMText
 10
87.0627095039
 20
50.0239079049
 30
0.0
 40
1.190625
 41
0.0
 71
     1
 72
     1
  1
9.4
  7
SLDTEXTSTYLE1
 11
-1.770233605404514E-14
 21
1.0
 31
0.0
 73
     1
 44
1.0
  0
ENDBLK
  5
2A1
330
29F
100
AcDbEntity
  8
0
100
AcDbBlockEnd
  0
ENDSEC
  0
SECTION
  2
ENTITIES
  0
HATCH
  5
89
330
1F
100
AcDbEntity
  8
0
  6
Continuous
 62
     7
100
AcDbHatch
 10
0.0
 20
0.0
 30
0.0
210
0.0
220
0.0
230
1.0
  2
SOLID
 70
     1
 71
     0
 91
        1
 92
        0
 93
       10
 72
     2
 10
96.07029828146834
 20
17.87790440494428
 40
1.494818328884929
 50
50.39692260731407
 51
112.8514693252983
 73
     0
 72
     2
 10
95.907502981406
 20
17.71949914003102
 40
1.288667713408809
 50
108.9134333432861
 51
219.5668234386827
 73
     0
 72
     1
 10
94.91409196948017
 20
18.54035176807505
 11
94.40649504577894
 21
18.98811771848393
 72
     1
 10
94.40649504577894
 20
18.98811771848393
 11
93.75318091833812
 21
18.35732418023018
 72
     2
 10
94.24712339931945
 20
17.77306056386223
 40
0.7650772169718307
 50
130.2115225915088
 51
228.5889041080191
 73
     1
 72
     1
 10
93.7410576273255
 20
17.19926566814989
 11
95.7456587824233
 21
15.45696374801255
 72
     1
 10
95.7456587824233
 20
15.45696374801255
 11
95.43013282221574
 21
15.14901355277703
 72
     1
 10
95.43013282221574
 20
15.14901355277703
 11
95.92607250457851
 21
14.72202641930012
 72
     1
 10
95.92607250457851
 20
14.72202641930012
 11
97.53090472176115
 21
16.28031540205786
 72
     1
 10
97.53090472176115
 20
16.28031540205786
 11
97.02319320593206
 21
16.72617826592441
 97
        0
 75
     0
 76
     1
 98
        1
 10
0.0
 20
0.0
  0
HATCH
  5
8A
330
1F
100
AcDbEntity
  8
0
  6
Continuous
 62
     1
100
AcDbHatch
 10
0.0
 20
0.0
 30
0.0
210
0.0
220
0.0
230
1.0
  2
SOLID
 70
     1
 71
     0
 91
        1
 92
        0
 93
       10
 72
     2
 10
96.29462278138442
 20
17.83153457815805
 40
1.288783744173125
 50
317.8184992995785
 51
398.0564711573078
 73
     0
 72
     1
 10
97.30941570290815
 20
17.03707950348723
 11
97.80214014939956
 21
16.60773103354249
 72
     1
 10
97.80214014939956
 20
16.60773103354249
 11
98.42298080679645
 21
17.2099475047461
 72
     2
 10
97.97628464396539
 20
17.82392087065656
 40
0.7592764687091326
 50
306.0377529468138
 51
403.4396461533871
 73
     1
 72
     1
 10
98.52759457630154
 20
18.34599185667563
 11
96.46421664712989
 21
20.14057999099261
 72
     1
 10
96.46421664712989
 20
20.14057999099261
 11
96.77634229809352
 21
20.44510920641128
 72
     1
 10
96.77634229809352
 20
20.44510920641128
 11
96.3110890430015
 21
20.86020531633353
 72
     1
 10
96.3110890430015
 20
20.86020531633353
 11
94.69329631879657
 21
19.29674519302649
 72
     1
 10
94.69329631879657
 20
19.29674519302649
 11
95.20450025747084
 21
18.85084992946609
 72
     2
 10
96.13579463602218
 20
17.56112367541896
 40
1.590818352263938
 50
234.1674444878512
 51
314.4407074583994
 73
     0
 97
        0
 75
     0
 76
     1
 98
        1
 10
0.0
 20
0.0
  0
LINE
  5
8B
330
1F
100
AcDbEntity
  8
0
  6
Continuous
 62
     7
370
     0
100
AcDbLine
 10
83.9296887592
 20
8.8872596256
 30
0.0
 11
84.4296887592
 21
8.8872596256
 31
0.0
  0
LINE
  5
8C
330
1F
100
AcDbEntity
  8
0
  6
Continuous
 62
     7
370
     0
100
AcDbLine
 10
82.4296887592
 20
8.8872596256
 30
0.0
 11
83.6796887592
 21
8.8872596256
 31
0.0
  0
LINE
  5
8D
330
1F
100
AcDbEntity
  8
0
  6
Continuous
 62
     7
370
     0
100
AcDbLine
 10
90.6796887592
 20
7.6372596256
 30
0.0
 11
90.6796887592
 21
10.1372596256
 31
0.0
  0
LINE
  5
8E
330
1F
100
AcDbEntity
  8
0
  6
Continuous
 62
     7
370
     0
100
AcDbLine
 10
87.1796887592
 20
8.1372596256
 30
0.0
 11
90.6796887592
 21
7.6372596256
 31
0.0
  0
LINE
  5
8F
330
1F
100
AcDbEntity
  8
0
  6
Continuous
 62
     7
370
     0
100
AcDbLine
 10
84.1796887592
 20
8.3872596256
 30
0.0
 11
84.1796887592
 21
7.1372596256
 31
0.0
  0
LINE
  5
90
330
1F
100
AcDbEntity
  8
0
  6
Continuous
 62
     7
370
     0
100
AcDbLine
 10
90.6796887592
 20
10.1372596256
 30
0.0
 11
87.1796887592
 21
9.6372596256
 31
0.0
  0
LINE
  5
91
330
1F
100
AcDbEntity
  8
0
  6
Continuous
 62
     7
370
     0
100
AcDbLine
 10
86.6796887592
 20
8.8872596256
 30
0.0
 11
91.1796887592
 21
8.8872596256
 31
0.0
  0
LINE
  5
92
330
1F
100
AcDbEntity
  8
0
  6
Continuous
 62
     7
370
     0
100
AcDbLine
 10
84.1796887592
 20
9.1372596256
 30
0.0
 11
84.1796887592
 21
8.6372596256
 31
0.0
  0
LINE
  5
93
330
1F
100
AcDbEntity
  8
0
  6
Continuous
 62
     7
370
     0
100
AcDbLine
 10
84.6796887592
 20
8.8872596256
 30
0.0
 11
85.9296887592
 21
8.8872596256
 31
0.0
  0
LINE
  5
94
330
1F
100
AcDbEntity
  8
0
  6
Continuous
 62
     7
370
     0
100
AcDbLine
 10
84.1796887592
 20
10.6372596256
 30
0.0
 11
84.1796887592
 21
9.3872596256
 31
0.0
  0
LINE
  5
95
330
1F
100
AcDbEntity
  8
0
  6
Continuous
 62
     7
370
     0
100
AcDbLine
 10
87.1796887592
 20
9.6372596256
 30
0.0
 11
87.1796887592
 21
8.1372596256
 31
0.0
  0
LINE
  5
96
330
1F
100
AcDbEntity
  8
工作區域參考線
 62
     1
370
    30
100
AcDbLine
 10
95.2045002575
 20
18.8508499295
 30
0.0
 11
94.6932963188
 21
19.296745193
 31
0.0
  0
LINE
  5
97
330
1F
100
AcDbEntity
  8
工作區域參考線
 62
     1
370
    30
100
AcDbLine
 10
94.6932963188
 20
19.296745193
 30
0.0
 11
96.311089043
 21
20.8602053163
 31
0.0
  0
LINE
  5
98
330
1F
100
AcDbEntity
  8
工作區域參考線
 62
     1
370
    30
100
AcDbLine
 10
96.311089043
 20
20.8602053163
 30
0.0
 11
96.7763422981
 21
20.4451092064
 31
0.0
  0
LINE
  5
99
330
1F
100
AcDbEntity
  8
工作區域參考線
 62
     1
370
    30
100
AcDbLine
 10
96.7763422981
 20
20.4451092064
 30
0.0
 11
96.4642166471
 21
20.140579991
 31
0.0
  0
LINE
  5
9A
330
1F
100
AcDbEntity
  8
工作區域參考線
 62
     1
370
    30
100
AcDbLine
 10
96.4642166471
 20
20.140579991
 30
0.0
 11
98.5275945763
 21
18.3459918567
 31
0.0
  0
LINE
  5
9B
330
1F
100
AcDbEntity
  8
工作區域參考線
 62
     1
370
    30
100
AcDbLine
 10
97.3094157029
 20
17.0370795035
 30
0.0
 11
97.8021401494
 21
16.6077310335
 31
0.0
  0
LINE
  5
9C
330
1F
100
AcDbEntity
  8
工作區域參考線
 62
     1
370
    30
100
AcDbLine
 10
97.8021401494
 20
16.6077310335
 30
0.0
 11
98.4229808068
 21
17.2099475047
 31
0.0
  0
LINE
  5
9D
330
1F
100
AcDbEntity
  8
0
  6
Continuous
 62
     7
370
     0
100
AcDbLine
 10
92.8453982605
 20
6.557623204
 30
0.0
 11
142.8453982605
 21
6.557623204
 31
0.0
  0
LINE
  5
9E
330
1F
100
AcDbEntity
  8
0
  6
Continuous
 62
     7
370
     0
100
AcDbLine
 10
92.8453982605
 20
9.057623204
 30
0.0
 11
117.8453982605
 21
9.057623204
 31
0.0
  0
LINE
  5
9F
330
1F
100
AcDbEntity
  8
0
  6
Continuous
 62
     7
370
     0
100
AcDbLine
 10
92.8453982605
 20
11.557623204
 30
0.0
 11
117.8453982605
 21
11.557623204
 31
0.0
  0
LINE
  5
A0
330
1F
100
AcDbEntity
  8
0
  6
Continuous
 62
     7
370
     0
100
AcDbLine
 10
92.8453982605
 20
14.057623204
 30
0.0
 11
142.8453982605
 21
14.057623204
 31
0.0
  0
LINE
  5
A1
330
1F
100
AcDbEntity
  8
0
  6
Continuous
 62
     7
370
     0
100
AcDbLine
 10
117.8453982605
 20
16.557623204
 30
0.0
 11
142.8453982605
 21
16.557623204
 31
0.0
  0
LINE
  5
A2
330
1F
100
AcDbEntity
  8
0
  6
Continuous
 62
     7
370
    15
100
AcDbLine
 10
117.8453982605
 20
9.057623204
 30
0.0
 11
142.8453982605
 21
9.057623204
 31
0.0
  0
LINE
  5
A3
330
1F
100
AcDbEntity
  8
0
  6
Continuous
 62
     7
370
     0
100
AcDbLine
 10
92.8453982605
 20
21.557623204
 30
0.0
 11
142.8453982605
 21
21.557623204
 31
0.0
  0
LINE
  5
A4
330
1F
100
AcDbEntity
  8
0
  6
Continuous
 62
     7
370
     0
100
AcDbLine
 10
125.6186088375
 20
4.057623204
 30
0.0
 11
125.6186088375
 21
9.057623204
 31
0.0
  0
LINE
  5
A5
330
1F
100
AcDbEntity
  8
0
  6
Continuous
 62
     7
370
     0
100
AcDbLine
 10
117.8453982605
 20
4.057623204
 30
0.0
 11
117.8453982605
 21
21.557623204
 31
0.0
  0
LINE
  5
A6
330
1F
100
AcDbEntity
  8
0
  6
Continuous
 62
     7
370
     0
100
AcDbLine
 10
125.6186088375
 20
14.057623204
 30
0.0
 11
125.6186088375
 21
16.557623204
 31
0.0
  0
LINE
  5
A7
330
1F
100
AcDbEntity
  8
0
  6
Continuous
 62
     7
370
     0
100
AcDbLine
 10
107.2082043177
 20
4.057623204
 30
0.0
 11
107.2082043177
 21
14.057623204
 31
0.0
  0
LINE
  5
A8
330
1F
100
AcDbEntity
  8
0
  6
Continuous
 62
     7
370
     0
100
AcDbLine
 10
99.8892943753
 20
4.057623204
 30
0.0
 11
99.8892943753
 21
14.057623204
 31
0.0
  0
LINE
  5
A9
330
1F
100
AcDbEntity
  8
0
  6
Continuous
 62
     7
370
     0
100
AcDbLine
 10
92.8453982605
 20
4.057623204
 30
0.0
 11
92.8453982605
 21
21.557623204
 31
0.0
  0
LINE
  5
AA
330
1F
100
AcDbEntity
  8
0
  6
Continuous
 62
     7
370
    15
100
AcDbLine
 10
21.6603982605
 20
100.6860137875
 30
0.0
 11
21.6603982605
 21
101.4360137875
 31
0.0
  0
LINE
  5
AB
330
1F
100
AcDbEntity
  8
0
  6
Continuous
 62
     7
370
    15
100
AcDbLine
 10
38.9753982605
 20
100.6860137875
 30
0.0
 11
38.9753982605
 21
101.4360137875
 31
0.0
  0
LINE
  5
AC
330
1F
100
AcDbEntity
  8
0
  6
Continuous
 62
     7
370
    15
100
AcDbLine
 10
56.2903982605
 20
100.6860137875
 30
0.0
 11
56.2903982605
 21
101.4360137875
 31
0.0
  0
LINE
  5
AD
330
1F
100
AcDbEntity
  8
0
  6
Continuous
 62
     7
370
    15
100
AcDbLine
 10
73.6053982605
 20
100.6860137875
 30
0.0
 11
73.6053982605
 21
101.4360137875
 31
0.0
  0
LINE
  5
AE
330
1F
100
AcDbEntity
  8
0
  6
Continuous
 62
     7
370
    15
100
AcDbLine
 10
90.9203982605
 20
100.6860137875
 30
0.0
 11
90.9203982605
 21
101.4360137875
 31
0.0
  0
LINE
  5
AF
330
1F
100
AcDbEntity
  8
0
  6
Continuous
 62
     7
370
    15
100
AcDbLine
 10
108.2353982605
 20
100.6860137875
 30
0.0
 11
108.2353982605
 21
101.4360137875
 31
0.0
  0
LINE
  5
B0
330
1F
100
AcDbEntity
  8
0
  6
Continuous
 62
     7
370
    15
100
AcDbLine
 10
125.5503982605
 20
100.6860137875
 30
0.0
 11
125.5503982605
 21
101.4360137875
 31
0.0
  0
LINE
  5
B1
330
1F
100
AcDbEntity
  8
0
  6
Continuous
 62
     7
370
    15
100
AcDbLine
 10
21.6578982605
 20
4.057623204
 30
0.0
 11
21.6578982605
 21
3.307623204
 31
0.0
  0
LINE
  5
B2
330
1F
100
AcDbEntity
  8
0
  6
Continuous
 62
     7
370
    15
100
AcDbLine
 10
38.9703982605
 20
4.057623204
 30
0.0
 11
38.9703982605
 21
3.307623204
 31
0.0
  0
LINE
  5
B3
330
1F
100
AcDbEntity
  8
0
  6
Continuous
 62
     7
370
    15
100
AcDbLine
 10
56.2828982605
 20
4.057623204
 30
0.0
 11
56.2828982605
 21
3.307623204
 31
0.0
  0
LINE
  5
B4
330
1F
100
AcDbEntity
  8
0
  6
Continuous
 62
     7
370
    15
100
AcDbLine
 10
73.5953982605
 20
4.057623204
 30
0.0
 11
73.5953982605
 21
3.307623204
 31
0.0
  0
LINE
  5
B5
330
1F
100
AcDbEntity
  8
0
  6
Continuous
 62
     7
370
    15
100
AcDbLine
 10
90.9078982605
 20
4.057623204
 30
0.0
 11
90.9078982605
 21
3.307623204
 31
0.0
  0
LINE
  5
B6
330
1F
100
AcDbEntity
  8
0
  6
Continuous
 62
     7
370
    15
100
AcDbLine
 10
108.2203982605
 20
4.057623204
 30
0.0
 11
108.2203982605
 21
3.307623204
 31
0.0
  0
LINE
  5
B7
330
1F
100
AcDbEntity
  8
0
  6
Continuous
 62
     7
370
     0
100
AcDbLine
 10
142.8453982605
 20
100.6860137875
 30
0.0
 11
4.3453982605
 21
100.6860137875
 31
0.0
  0
LINE
  5
B8
330
1F
100
AcDbEntity
  8
0
  6
Continuous
 62
     7
370
     0
100
AcDbLine
 10
142.8453982605
 20
4.057623204
 30
0.0
 11
142.8453982605
 21
100.6860137875
 31
0.0
  0
LINE
  5
B9
330
1F
100
AcDbEntity
  8
0
  6
Continuous
 62
     7
370
     0
100
AcDbLine
 10
4.3453982605
 20
100.6860137875
 30
0.0
 11
4.3453982605
 21
4.057623204
 31
0.0
  0
LINE
  5
BA
330
1F
100
AcDbEntity
  8
0
  6
Continuous
 62
     7
370
     0
100
AcDbLine
 10
4.3453982605
 20
4.057623204
 30
0.0
 11
142.8453982605
 21
4.057623204
 31
0.0
  0
LINE
  5
BB
330
1F
100
AcDbEntity
  8
0
  6
Continuous
 62
     7
370
    15
100
AcDbLine
 10
125.5328982605
 20
4.057623204
 30
0.0
 11
125.5328982605
 21
3.307623204
 31
0.0
  0
LINE
  5
BC
330
1F
100
AcDbEntity
  8
0
  6
Continuous
 62
     7
370
    15
100
AcDbLine
 10
4.3453982605
 20
20.162623204
 30
0.0
 11
3.5953982605
 21
20.162623204
 31
0.0
  0
LINE
  5
BD
330
1F
100
AcDbEntity
  8
0
  6
Continuous
 62
     7
370
    15
100
AcDbLine
 10
4.3453982605
 20
36.267623204
 30
0.0
 11
3.5953982605
 21
36.267623204
 31
0.0
  0
LINE
  5
BE
330
1F
100
AcDbEntity
  8
0
  6
Continuous
 62
     7
370
    15
100
AcDbLine
 10
4.3453982605
 20
52.372623204
 30
0.0
 11
3.5953982605
 21
52.372623204
 31
0.0
  0
LINE
  5
BF
330
1F
100
AcDbEntity
  8
0
  6
Continuous
 62
     7
370
    15
100
AcDbLine
 10
4.3453982605
 20
68.477623204
 30
0.0
 11
3.5953982605
 21
68.477623204
 31
0.0
  0
LINE
  5
C0
330
1F
100
AcDbEntity
  8
0
  6
Continuous
 62
     7
370
    15
100
AcDbLine
 10
4.3453982605
 20
84.582623204
 30
0.0
 11
3.5953982605
 21
84.582623204
 31
0.0
  0
LINE
  5
C1
330
1F
100
AcDbEntity
  8
0
  6
Continuous
 62
     7
370
    15
100
AcDbLine
 10
142.8453982605
 20
20.162623204
 30
0.0
 11
143.5953982605
 21
20.162623204
 31
0.0
  0
LINE
  5
C2
330
1F
100
AcDbEntity
  8
0
  6
Continuous
 62
     7
370
    15
100
AcDbLine
 10
142.8453982605
 20
36.267623204
 30
0.0
 11
143.5953982605
 21
36.267623204
 31
0.0
  0
LINE
  5
C3
330
1F
100
AcDbEntity
  8
0
  6
Continuous
 62
     7
370
    15
100
AcDbLine
 10
142.8453982605
 20
52.372623204
 30
0.0
 11
143.5953982605
 21
52.372623204
 31
0.0
  0
LINE
  5
C4
330
1F
100
AcDbEntity
  8
0
  6
Continuous
 62
     7
370
    15
100
AcDbLine
 10
142.8453982605
 20
68.477623204
 30
0.0
 11
143.5953982605
 21
68.477623204
 31
0.0
  0
LINE
  5
C5
330
1F
100
AcDbEntity
  8
0
  6
Continuous
 62
     7
370
    15
100
AcDbLine
 10
142.8453982605
 20
84.582623204
 30
0.0
 11
143.5953982605
 21
84.582623204
 31
0.0
  0
CIRCLE
  5
C6
330
1F
100
AcDbEntity
  8
0
  6
Continuous
 62
     7
370
     0
100
AcDbCircle
 10
84.1796887592
 20
8.8872596256
 30
0.0
 40
0.75
  0
CIRCLE
  5
C7
330
1F
100
AcDbEntity
  8
0
  6
Continuous
 62
     7
370
     0
100
AcDbCircle
 10
84.1796887592
 20
8.8872596256
 30
0.0
 40
1.25
  0
ARC
  5
C8
330
1F
100
AcDbEntity
  8
工作區域參考線
 62
     1
370
    30
100
AcDbCircle
 10
97.976284644
 20
17.8239208707
 30
0.0
 40
0.7592764687091375
100
AcDbArc
 50
306.0377529468
 51
43.4396461534
  0
ARC
  5
C9
330
1F
100
AcDbEntity
  8
工作區域參考線
 62
     1
370
    30
100
AcDbCircle
 10
96.135794636
 20
17.5611236754
 30
0.0
 40
1.590818352263945
100
AcDbArc
 50
45.5592925416
 51
125.8325555121
  0
ARC
  5
CA
330
1F
100
AcDbEntity
  8
工作區域參考線
 62
     1
370
    30
100
AcDbCircle
 10
96.2946227814
 20
17.8315345782
 30
0.0
 40
1.288783744173133
100
AcDbArc
 50
321.9435288427
 51
42.1815007004
  0
INSERT
  5
CB
330
1F
100
AcDbEntity
  8
0
  6
Continuous
 62
     7
100
AcDbBlockReference
  2
圖塊6
 10
93.4820461823
 20
14.7220264193
 30
0.0
  0
MTEXT
  5
CD
330
1F
100
AcDbEntity
  8
0
  6
Continuous
 62
     7
370
     0
100
AcDbMText
 10
82.7713425402
 20
6.6104220185
 30
0.0
 40
1.3229166667
 41
0.0
 71
     1
 72
     1
  1
UNIT:m/m
  7
SLDTEXTSTYLE0
 73
     1
 44
1.0
  0
INSERT
  5
D4
330
1F
100
AcDbEntity
  8
0
  6
Continuous
 62
     7
370
     0
100
AcDbBlockReference
  2
SW_NOTE_0
 10
6.1157538027
 20
96.9452152126
 30
0.0
  0
MTEXT
  5
D5
330
1F
100
AcDbEntity
  8
0
  6
Continuous
 62
     7
370
     0
100
AcDbMText
 10
99.3625946967
 20
20.2203387069
 30
0.0
 40
1.190625
 41
0.0
 71
     1
 72
     1
  1
Unice E-O Services Inc.
  7
SLDTEXTSTYLE0
 73
     1
 44
1.0
  0
MTEXT
  5
D6
330
1F
100
AcDbEntity
  8
0
  6
Continuous
 62
     7
370
     0
100
AcDbMText
 10
108.7795269075
 20
10.7933574255
 30
0.0
 40
0.9260416667
 41
0.0
 71
     1
 72
     1
  1
2018/1/17
  7
SLDTEXTSTYLE0
 73
     1
 44
1.0
  0
MTEXT
  5
D7
330
1F
100
AcDbEntity
  8
0
  6
Continuous
 62
     7
370
     0
100
AcDbMText
 10
126.3044491253
 20
8.43558887
 30
0.0
 40
1.25
 41
0.0
 71
     1
 72
     1
  1
2:1
  7
SLDTEXTSTYLE0
 73
     1
 44
1.0
  0
MTEXT
  5
D8
330
1F
100
AcDbEntity
  8
0
  6
Continuous
 62
     7
370
     0
100
AcDbMText
 10
126.1537799992
 20
16.0759597719
 30
0.0
 40
1.25
 41
0.0
 71
     1
 72
     1
  1
07MT6.5-3
  7
SLDTEXTSTYLE0
 73
     1
 44
1.0
  0
MTEXT
  5
D9
330
1F
100
AcDbEntity
  8
0
  6
Continuous
 62
     7
370
     0
100
AcDbMText
 10
126.1537799992
 20
19.0541058939
 30
0.0
 40
1.25
 41
0.0
 71
     1
 72
     1
  1
07MT6.5-3
  7
SLDTEXTSTYLE0
 73
     1
 44
1.0
  0
MTEXT
  5
DA
330
1F
100
AcDbEntity
  8
0
  6
Continuous
 62
     7
370
     0
100
AcDbMText
 10
118.1960933393
 20
8.2532397864
 30
0.0
 40
1.0583333333
 41
0.0
 71
     1
 72
     1
  1
SCALE:
  7
SLDTEXTSTYLE0
 73
     1
 44
1.0
  0
MTEXT
  5
DB
330
1F
100
AcDbEntity
  8
0
  6
Continuous
 62
     7
370
     0
100
AcDbMText
 10
93.1668043395
 20
10.7933574255
 30
0.0
 40
0.9260416667
 41
0.0
 71
     1
 72
     1
  1
DRAWN
  7
SLDTEXTSTYLE0
 73
     1
 44
1.0
  0
MTEXT
  5
DC
330
1F
100
AcDbEntity
  8
0
  6
Continuous
 62
     7
370
     0
100
AcDbMText
 10
101.6114183968
 20
13.341604154
 30
0.0
 40
0.9260416667
 41
0.0
 71
     1
 72
     1
  1
NAME
  7
SLDTEXTSTYLE0
 73
     1
 44
1.0
  0
MTEXT
  5
DD
330
1F
100
AcDbEntity
  8
0
  6
Continuous
 62
     7
370
     0
100
AcDbMText
 10
110.4355077879
 20
13.341604154
 30
0.0
 40
0.9260416667
 41
0.0
 71
     1
 72
     1
  1
DATE
  7
SLDTEXTSTYLE0
 73
     1
 44
1.0
  0
MTEXT
  5
DE
330
1F
100
AcDbEntity
  8
0
  6
Continuous
 62
     7
370
     0
100
AcDbMText
 10
118.1378158323
 20
15.8936106883
 30
0.0
 40
1.0583333333
 41
0.0
 71
     1
 72
     1
  1
DWG. NO.
  7
SLDTEXTSTYLE0
 73
     1
 44
1.0
  0
MTEXT
  5
DF
330
1F
100
AcDbEntity
  8
0
  6
Continuous
 62
     7
370
     0
100
AcDbMText
 10
118.1814953544
 20
20.9420329122
 30
0.0
 40
1.0583333333
 41
0.0
 71
     1
 72
     1
  1
TITLE:
  7
SLDTEXTSTYLE0
 73
     1
 44
1.0
  0
MTEXT
  5
E0
330
1F
100
AcDbEntity
  8
0
  6
Continuous
 62
     7
370
     0
100
AcDbMText
 10
101.5157104901
 20
8.1201894862
 30
0.0
 40
0.9260416667
 41
0.0
 71
     1
 72
     1
  1
Johnny
  7
SLDTEXTSTYLE0
 73
     1
 44
1.0
  0
MTEXT
  5
E1
330
1F
100
AcDbEntity
  8
0
  6
Continuous
 62
     7
370
     0
100
AcDbMText
 10
108.7795269075
 20
8.1201894862
 30
0.0
 40
0.9260416667
 41
0.0
 71
     1
 72
     1
  1
2018/1/17
  7
SLDTEXTSTYLE0
 73
     1
 44
1.0
  0
MTEXT
  5
E2
330
1F
100
AcDbEntity
  8
0
  6
Continuous
 62
     7
370
     0
100
AcDbMText
 10
93.1668043395
 20
8.1201894862
 30
0.0
 40
0.9260416667
 41
0.0
 71
     1
 72
     1
  1
ENG APPR.
  7
SLDTEXTSTYLE0
 73
     1
 44
1.0
  0
MTEXT
  5
E3
330
1F
100
AcDbEntity
  8
0
  6
Continuous
 62
     7
370
     0
100
AcDbMText
 10
118.1960933393
 20
5.8426694644
 30
0.0
 40
1.0583333333
 41
0.0
 71
     1
 72
     1
  1
REV
  7
SLDTEXTSTYLE0
 73
     1
 44
1.0
  0
MTEXT
  5
E4
330
1F
100
AcDbEntity
  8
0
  6
Continuous
 62
     7
370
     0
100
AcDbMText
 10
118.1814953544
 20
13.4746544542
 30
0.0
 40
1.0583333333
 41
0.0
 71
     1
 72
     1
  1
MATERIAL:
  7
SLDTEXTSTYLE0
 73
     1
 44
1.0
  0
MTEXT
  5
E5
330
1F
100
AcDbEntity
  8
0
  6
Continuous
 62
     7
370
     0
100
AcDbMText
 10
126.3044491253
 20
11.1087568093
 30
0.0
 40
1.25
 41
0.0
 71
     1
 72
     1
  1
N/A
  7
SLDTEXTSTYLE0
 73
     1
 44
1.0
  0
MTEXT
  5
E6
330
1F
100
AcDbEntity
  8
0
  6
Continuous
 62
     7
370
     0
100
AcDbMText
 10
13.3014965767
 20
102.2266758285
 30
0.0
 40
1.0583333333
 41
0.0
 71
     1
 72
     1
  1
1
  7
SLDTEXTSTYLE0
 73
     1
 44
1.0
  0
MTEXT
  5
E7
330
1F
100
AcDbEntity
  8
0
  6
Continuous
 62
     7
370
     0
100
AcDbMText
 10
30.3585497862
 20
102.2266758285
 30
0.0
 40
1.0583333333
 41
0.0
 71
     1
 72
     1
  1
2
  7
SLDTEXTSTYLE0
 73
     1
 44
1.0
  0
MTEXT
  5
E8
330
1F
100
AcDbEntity
  8
0
  6
Continuous
 62
     7
370
     0
100
AcDbMText
 10
47.4504971953
 20
102.2266758285
 30
0.0
 40
1.0583333333
 41
0.0
 71
     1
 72
     1
  1
3
  7
SLDTEXTSTYLE0
 73
     1
 44
1.0
  0
MTEXT
  5
E9
330
1F
100
AcDbEntity
  8
0
  6
Continuous
 62
     7
370
     0
100
AcDbMText
 10
64.6266681426
 20
102.1496292182
 30
0.0
 40
1.0583333333
 41
0.0
 71
     1
 72
     1
  1
4
  7
SLDTEXTSTYLE0
 73
     1
 44
1.0
  0
MTEXT
  5
EA
330
1F
100
AcDbEntity
  8
0
  6
Continuous
 62
     7
370
     0
100
AcDbMText
 10
81.851161732
 20
102.2266758285
 30
0.0
 40
1.0583333333
 41
0.0
 71
     1
 72
     1
  1
5
  7
SLDTEXTSTYLE0
 73
     1
 44
1.0
  0
MTEXT
  5
EB
330
1F
100
AcDbEntity
  8
0
  6
Continuous
 62
     7
370
     0
100
AcDbMText
 10
99.3191085208
 20
102.2266758285
 30
0.0
 40
1.0583333333
 41
0.0
 71
     1
 72
     1
  1
6
  7
SLDTEXTSTYLE0
 73
     1
 44
1.0
  0
MTEXT
  5
EC
330
1F
100
AcDbEntity
  8
0
  6
Continuous
 62
     7
370
     0
100
AcDbMText
 10
117.1815328703
 20
102.2266758285
 30
0.0
 40
1.0583333333
 41
0.0
 71
     1
 72
     1
  1
7
  7
SLDTEXTSTYLE0
 73
     1
 44
1.0
  0
MTEXT
  5
ED
330
1F
100
AcDbEntity
  8
0
  6
Continuous
 62
     7
370
     0
100
AcDbMText
 10
133.1393910247
 20
102.2266758285
 30
0.0
 40
1.0583333333
 41
0.0
 71
     1
 72
     1
  1
8
  7
SLDTEXTSTYLE0
 73
     1
 44
1.0
  0
MTEXT
  5
EE
330
1F
100
AcDbEntity
  8
0
  6
Continuous
 62
     7
370
     0
100
AcDbMText
 10
2.6784118277
 20
92.905651144
 30
0.0
 40
1.0583333333
 41
0.0
 71
     1
 72
     1
  1
A
  7
SLDTEXTSTYLE0
 73
     1
 44
1.0
  0
MTEXT
  5
EF
330
1F
100
AcDbEntity
  8
0
  6
Continuous
 62
     7
370
     0
100
AcDbMText
 10
2.7955215916
 20
77.1496524119
 30
0.0
 40
1.0583333333
 41
0.0
 71
     1
 72
     1
  1
B
  7
SLDTEXTSTYLE0
 73
     1
 44
1.0
  0
MTEXT
  5
F0
330
1F
100
AcDbEntity
  8
0
  6
Continuous
 62
     7
370
     0
100
AcDbMText
 10
2.7955215916
 20
60.6371757115
 30
0.0
 40
1.0583333333
 41
0.0
 71
     1
 72
     1
  1
C
  7
SLDTEXTSTYLE0
 73
     1
 44
1.0
  0
MTEXT
  5
F1
330
1F
100
AcDbEntity
  8
0
  6
Continuous
 62
     7
370
     0
100
AcDbMText
 10
2.7955215916
 20
44.372661011
 30
0.0
 40
1.0583333333
 41
0.0
 71
     1
 72
     1
  1
D
  7
SLDTEXTSTYLE0
 73
     1
 44
1.0
  0
MTEXT
  5
F2
330
1F
100
AcDbEntity
  8
0
  6
Continuous
 62
     7
370
     0
100
AcDbMText
 10
2.7955215916
 20
28.7779424599
 30
0.0
 40
1.0583333333
 41
0.0
 71
     1
 72
     1
  1
E
  7
SLDTEXTSTYLE0
 73
     1
 44
1.0
  0
MTEXT
  5
F3
330
1F
100
AcDbEntity
  8
0
  6
Continuous
 62
     7
370
     0
100
AcDbMText
 10
2.7955215916
 20
12.7847106126
 30
0.0
 40
1.0583333333
 41
0.0
 71
     1
 72
     1
  1
F
  7
SLDTEXTSTYLE0
 73
     1
 44
1.0
  0
MTEXT
  5
F4
330
1F
100
AcDbEntity
  8
0
  6
Continuous
 62
     7
370
     0
100
AcDbMText
 10
133.0929308482
 20
3.3118111982
 30
0.0
 40
1.0583333333
 41
0.0
 71
     1
 72
     1
  1
8
  7
SLDTEXTSTYLE0
 73
     1
 44
1.0
  0
MTEXT
  5
F5
330
1F
100
AcDbEntity
  8
0
  6
Continuous
 62
     7
370
     0
100
AcDbMText
 10
117.1350726938
 20
3.3118111982
 30
0.0
 40
1.0583333333
 41
0.0
 71
     1
 72
     1
  1
7
  7
SLDTEXTSTYLE0
 73
     1
 44
1.0
  0
MTEXT
  5
F6
330
1F
100
AcDbEntity
  8
0
  6
Continuous
 62
     7
370
     0
100
AcDbMText
 10
99.2726483442
 20
3.3118111982
 30
0.0
 40
1.0583333333
 41
0.0
 71
     1
 72
     1
  1
6
  7
SLDTEXTSTYLE0
 73
     1
 44
1.0
  0
MTEXT
  5
F7
330
1F
100
AcDbEntity
  8
0
  6
Continuous
 62
     7
370
     0
100
AcDbMText
 10
81.8047015555
 20
3.3118111982
 30
0.0
 40
1.0583333333
 41
0.0
 71
     1
 72
     1
  1
5
  7
SLDTEXTSTYLE0
 73
     1
 44
1.0
  0
MTEXT
  5
F8
330
1F
100
AcDbEntity
  8
0
  6
Continuous
 62
     7
370
     0
100
AcDbMText
 10
64.580207966
 20
3.2347645879
 30
0.0
 40
1.0583333333
 41
0.0
 71
     1
 72
     1
  1
4
  7
SLDTEXTSTYLE0
 73
     1
 44
1.0
  0
MTEXT
  5
F9
330
1F
100
AcDbEntity
  8
0
  6
Continuous
 62
     7
370
     0
100
AcDbMText
 10
47.4040370188
 20
3.3118111982
 30
0.0
 40
1.0583333333
 41
0.0
 71
     1
 72
     1
  1
3
  7
SLDTEXTSTYLE0
 73
     1
 44
1.0
  0
MTEXT
  5
FA
330
1F
100
AcDbEntity
  8
0
  6
Continuous
 62
     7
370
     0
100
AcDbMText
 10
30.3120896097
 20
3.3118111982
 30
0.0
 40
1.0583333333
 41
0.0
 71
     1
 72
     1
  1
2
  7
SLDTEXTSTYLE0
 73
     1
 44
1.0
  0
MTEXT
  5
FB
330
1F
100
AcDbEntity
  8
0
  6
Continuous
 62
     7
370
     0
100
AcDbMText
 10
13.2550364001
 20
3.3118111982
 30
0.0
 40
1.0583333333
 41
0.0
 71
     1
 72
     1
  1
1
  7
SLDTEXTSTYLE0
 73
     1
 44
1.0
  0
MTEXT
  5
FC
330
1F
100
AcDbEntity
  8
0
  6
Continuous
 62
     7
370
     0
100
AcDbMText
 10
143.5511923072
 20
93.3212454546
 30
0.0
 40
1.0583333333
 41
0.0
 71
     1
 72
     1
  1
A
  7
SLDTEXTSTYLE0
 73
     1
 44
1.0
  0
MTEXT
  5
FD
330
1F
100
AcDbEntity
  8
0
  6
Continuous
 62
     7
370
     0
100
AcDbMText
 10
143.6683020711
 20
77.5652467225
 30
0.0
 40
1.0583333333
 41
0.0
 71
     1
 72
     1
  1
B
  7
SLDTEXTSTYLE0
 73
     1
 44
1.0
  0
MTEXT
  5
FE
330
1F
100
AcDbEntity
  8
0
  6
Continuous
 62
     7
370
     0
100
AcDbMText
 10
143.6683020711
 20
61.0527700221
 30
0.0
 40
1.0583333333
 41
0.0
 71
     1
 72
     1
  1
C
  7
SLDTEXTSTYLE0
 73
     1
 44
1.0
  0
MTEXT
  5
FF
330
1F
100
AcDbEntity
  8
0
  6
Continuous
 62
     7
370
     0
100
AcDbMText
 10
143.6683020711
 20
44.7882553217
 30
0.0
 40
1.0583333333
 41
0.0
 71
     1
 72
     1
  1
D
  7
SLDTEXTSTYLE0
 73
     1
 44
1.0
  0
MTEXT
  5
100
330
1F
100
AcDbEntity
  8
0
  6
Continuous
 62
     7
370
     0
100
AcDbMText
 10
143.6683020711
 20
29.1935367705
 30
0.0
 40
1.0583333333
 41
0.0
 71
     1
 72
     1
  1
E
  7
SLDTEXTSTYLE0
 73
     1
 44
1.0
  0
MTEXT
  5
101
330
1F
100
AcDbEntity
  8
0
  6
Continuous
 62
     7
370
     0
100
AcDbMText
 10
143.6683020711
 20
13.2003049232
 30
0.0
 40
1.0583333333
 41
0.0
 71
     1
 72
     1
  1
F
  7
SLDTEXTSTYLE0
 73
     1
 44
1.0
  0
MTEXT
  5
102
330
1F
100
AcDbEntity
  8
0
  6
Continuous
 62
     7
370
     0
100
AcDbMText
 10
101.5776564401
 20
10.7933574255
 30
0.0
 40
0.9260416667
 41
0.0
 71
     1
 72
     1
  1
Sky
  7
SLDTEXTSTYLE0
 73
     1
 44
1.0
  0
MTEXT
  5
104
330
1F
100
AcDbEntity
  8
0
  6
Continuous
 62
     7
370
     0
100
AcDbMText
 10
126.4241119823
 20
6.1109801659
 30
0.0
 40
1.190625
 41
0.0
 71
     1
 72
     1
  1
0
  7
SLDTEXTSTYLE1
 73
     1
 44
1.0
  0
INSERT
  5
10A
330
1F
100
AcDbEntity
  8
SLD-0
 62
     7
100
AcDbBlockReference
  2
SW_NOTE_1
 10
99.3625946967
 20
16.7739872606
 30
0.0
  0
LINE
  5
10B
330
1F
100
AcDbEntity
  8
0
  6
Continuous
 62
     7
370
    30
100
AcDbLine
 10
82.5976551334
 20
54.9013991835
 30
0.0
 11
75.0976548354
 21
54.9013991835
 31
0.0
  0
LINE
  5
10C
330
1F
100
AcDbEntity
  8
0
  6
Continuous
 62
     7
370
    30
100
AcDbLine
 10
75.0976548354
 20
45.5013990863
 30
0.0
 11
82.5976551334
 21
45.5013990863
 31
0.0
  0
LINE
  5
10D
330
1F
100
AcDbEntity
  8
0
  6
Continuous
 62
     7
370
    30
100
AcDbLine
 10
82.5976551334
 20
45.5013990863
 30
0.0
 11
83.0976542841
 21
46.2013992942
 31
0.0
  0
LINE
  5
10E
330
1F
100
AcDbEntity
  8
0
  6
Continuous
 62
     7
370
    30
100
AcDbLine
 10
83.0976542841
 20
54.2013992085
 30
0.0
 11
82.5976551334
 21
54.9013991835
 31
0.0
  0
LINE
  5
10F
330
1F
100
AcDbEntity
  8
0
  6
Continuous
 62
     7
370
    30
100
AcDbLine
 10
72.5424009199
 20
54.5013991645
 30
0.0
 11
66.1476545413
 21
54.5013991645
 31
0.0
  0
LINE
  5
110
330
1F
100
AcDbEntity
  8
0
  6
Continuous
 62
     7
370
    30
100
AcDbLine
 10
75.0976548354
 20
54.5013991645
 30
0.0
 11
72.6380612525
 21
54.5013991645
 31
0.0
  0
LINE
  5
111
330
1F
100
AcDbEntity
  8
0
  6
Continuous
 62
     7
370
    30
100
AcDbLine
 10
71.9883818003
 20
45.9013993381
 30
0.0
 11
75.0976548354
 21
45.9013993381
 31
0.0
  0
LINE
  5
112
330
1F
100
AcDbEntity
  8
0
  6
Continuous
 62
     7
370
    30
100
AcDbLine
 10
66.1476545413
 20
45.9013993381
 30
0.0
 11
71.0215600031
 21
45.9013993381
 31
0.0
  0
LINE
  5
113
330
1F
100
AcDbEntity
  8
0
  6
Continuous
 62
     7
370
    30
100
AcDbLine
 10
70.3549062657
 20
50.207468797
 30
0.0
 11
70.3549062657
 21
50.2074403916
 31
0.0
  0
LINE
  5
114
330
1F
100
AcDbEntity
  8
0
  6
Continuous
 62
     7
370
    30
100
AcDbLine
 10
71.8095524992
 20
50.210964167
 30
0.0
 11
71.8095520335
 21
50.2110132943
 31
0.0
  0
LWPOLYLINE
  5
115
330
1F
100
AcDbEntity
  8
0
  6
Continuous
 62
     7
370
    30
100
AcDbPolyline
 90
        3
 70
   128
 43
0.0
 10
70.5127184103
 20
50.1970197069
 10
70.5127184103
 20
50.1970301843
 10
70.512718876
 20
50.1970407781
  0
LINE
  5
116
330
1F
100
AcDbEntity
  8
0
  6
Continuous
 62
     7
370
    30
100
AcDbLine
 10
66.1476545413
 20
54.5013991645
 30
0.0
 11
65.0976545351
 21
53.7513992744
 31
0.0
  0
LINE
  5
117
330
1F
100
AcDbEntity
  8
0
  6
Continuous
 62
     7
370
    30
100
AcDbLine
 10
65.0976545351
 20
46.6513994611
 30
0.0
 11
66.1476545413
 21
45.9013993381
 31
0.0
  0
LINE
  5
118
330
1F
100
AcDbEntity
  8
0
  6
Continuous
 62
     7
370
    30
100
AcDbLine
 10
84.5976554613
 20
52.8013992584
 30
0.0
 11
83.0976542841
 21
52.8013992584
 31
0.0
  0
LINE
  5
119
330
1F
100
AcDbEntity
  8
0
  6
Continuous
 62
     7
370
    30
100
AcDbLine
 10
83.0976542841
 20
47.6013992443
 30
0.0
 11
84.5976554613
 21
47.6013992443
 31
0.0
  0
ARC
  5
11A
330
1F
100
AcDbEntity
  8
0
  6
Continuous
 62
     7
370
    30
100
AcDbCircle
 10
78.1488453398
 20
50.2135927129
 30
0.0
 40
6.948660500000003
100
AcDbArc
 50
0.0
 51
21.8648216434
  0
ARC
  5
11B
330
1F
100
AcDbEntity
  8
0
  6
Continuous
 62
     7
370
    30
100
AcDbCircle
 10
78.1488453398
 20
50.1892057766
 30
0.0
 40
6.948660500000003
100
AcDbArc
 50
338.1351783566
 51
0.0
  0
LINE
  5
11C
330
1F
100
AcDbEntity
  8
0
  6
Continuous
 62
     7
370
    30
100
AcDbLine
 10
85.0975056003
 20
50.1892057941
 30
0.0
 11
85.0975056003
 21
50.2135927086
 31
0.0
  0
LINE
  5
11D
330
1F
100
AcDbEntity
  8
0
  6
Continuous
 62
     7
370
    30
100
AcDbLine
 10
57.3001847426
 20
51.9513992471
 30
0.0
 11
48.6609552811
 21
51.9513992471
 31
0.0
  0
LINE
  5
11E
330
1F
100
AcDbEntity
  8
0
  6
Continuous
 62
     7
370
    30
100
AcDbLine
 10
48.6609552811
 20
48.4513991973
 30
0.0
 11
57.3001847426
 21
48.4513991973
 31
0.0
  0
ARC
  5
11F
330
1F
100
AcDbEntity
  8
0
  6
Continuous
 62
     7
370
    30
100
AcDbCircle
 10
51.0976545398
 20
50.2013992448
 30
0.0
 40
3.000000000000006
100
AcDbArc
 50
144.3146652873
 51
215.6853347127
  0
LINE
  5
120
330
1F
100
AcDbEntity
  8
0
  6
Continuous
 62
     7
370
    30
100
AcDbLine
 10
72.6380612525
 20
54.4813992451
 30
0.0
 11
72.5424009199
 21
54.4813992451
 31
0.0
  0
LINE
  5
121
330
1F
100
AcDbEntity
  8
0
  6
Continuous
 62
     7
370
    30
100
AcDbLine
 10
65.0976545351
 20
53.7013993594
 30
0.0
 11
63.300184562
 21
53.7013993594
 31
0.0
  0
LINE
  5
122
330
1F
100
AcDbEntity
  8
0
  6
Continuous
 62
     7
370
    30
100
AcDbLine
 10
63.300184562
 20
46.7013993761
 30
0.0
 11
65.0976545351
 21
46.7013993761
 31
0.0
  0
LINE
  5
123
330
1F
100
AcDbEntity
  8
0
  6
Continuous
 62
     7
370
    30
100
AcDbLine
 10
62.3001846309
 20
53.2013992774
 30
0.0
 11
57.5001844029
 21
53.2013992774
 31
0.0
  0
LINE
  5
124
330
1F
100
AcDbEntity
  8
0
  6
Continuous
 62
     7
370
    30
100
AcDbLine
 10
57.5001844029
 20
47.2013994581
 30
0.0
 11
62.3001846309
 21
47.2013994581
 31
0.0
  0
LINE
  5
125
330
1F
100
AcDbEntity
  8
0
  6
Continuous
 62
     7
370
    30
100
AcDbLine
 10
57.5001844029
 20
53.2013992774
 30
0.0
 11
57.3001847426
 21
53.0013992679
 31
0.0
  0
LINE
  5
126
330
1F
100
AcDbEntity
  8
0
  6
Continuous
 62
     7
370
    30
100
AcDbLine
 10
57.3001847426
 20
47.4013991183
 30
0.0
 11
57.5001844029
 21
47.2013994581
 31
0.0
  0
LINE
  5
127
330
1F
100
AcDbEntity
  8
0
  6
Continuous
 62
     7
370
    30
100
AcDbLine
 10
63.300184562
 20
53.0513992994
 30
0.0
 11
62.3001846309
 21
53.0513992994
 31
0.0
  0
LINE
  5
128
330
1F
100
AcDbEntity
  8
0
  6
Continuous
 62
     7
370
    30
100
AcDbLine
 10
62.3001846309
 20
47.3513992033
 30
0.0
 11
63.300184562
 21
47.3513992033
 31
0.0
  0
LINE
  5
129
330
1F
100
AcDbEntity
  8
0
  6
Continuous
 62
     7
370
    30
100
AcDbLine
 10
82.5976551334
 20
54.9013991835
 30
0.0
 11
82.5976551334
 21
45.5013990863
 31
0.0
  0
LINE
  5
12A
330
1F
100
AcDbEntity
  8
0
  6
Continuous
 62
     7
370
    30
100
AcDbLine
 10
75.0976548354
 20
54.9013991835
 30
0.0
 11
75.0976548354
 21
45.5013990863
 31
0.0
  0
LINE
  5
12B
330
1F
100
AcDbEntity
  8
0
  6
Continuous
 62
     7
370
    30
100
AcDbLine
 10
83.0976542841
 20
54.2013992085
 30
0.0
 11
83.0976542841
 21
46.2013992942
 31
0.0
  0
LINE
  5
12C
330
1F
100
AcDbEntity
  8
0
  6
Continuous
 62
     7
370
    30
100
AcDbLine
 10
66.1476545413
 20
54.5013991645
 30
0.0
 11
66.1476545413
 21
45.9013993381
 31
0.0
  0
LINE
  5
12D
330
1F
100
AcDbEntity
  8
0
  6
Continuous
 62
     7
370
    30
100
AcDbLine
 10
72.6380612525
 20
54.4649339276
 30
0.0
 11
72.5424009199
 21
54.4649339276
 31
0.0
  0
LINE
  5
12E
330
1F
100
AcDbEntity
  8
0
  6
Continuous
 62
     7
370
    30
100
AcDbLine
 10
72.6380612525
 20
54.5013991645
 30
0.0
 11
72.6380612525
 21
54.4649339276
 31
0.0
  0
LINE
  5
12F
330
1F
100
AcDbEntity
  8
0
  6
Continuous
 62
     7
370
    30
100
AcDbLine
 10
72.5424009199
 20
54.5012359503
 30
0.0
 11
72.6380612525
 21
54.5012359503
 31
0.0
  0
LINE
  5
130
330
1F
100
AcDbEntity
  8
0
  6
Continuous
 62
     7
370
    30
100
AcDbLine
 10
72.5424009199
 20
54.5013991645
 30
0.0
 11
72.5424009199
 21
54.5013414225
 31
0.0
  0
SPLINE
  5
131
330
1F
100
AcDbEntity
  8
0
  6
Continuous
 62
     7
370
    30
100
AcDbSpline
210
0.0
220
0.0
230
1.0
 70
     8
 71
     3
 72
    12
 73
     8
 74
     0
 42
0.000000001
 43
0.00000001
 40
0.0
 40
0.0
 40
0.0
 40
0.0
 40
0.2493780364510718
 40
0.3746134492580985
 40
0.4996913855410142
 40
0.7492501882437399
 40
1.0
 40
1.0
 40
1.0
 40
1.0
 10
72.44674012166452
 20
54.4990587509055
 30
0.0
 10
72.46147771889112
 20
54.4990985069225
 30
0.0
 10
72.4836164052382
 20
54.49915822805458
 30
0.0
 10
72.50887710802095
 20
54.49963578035435
 30
0.0
 10
72.52844346624035
 20
54.50022872798172
 30
0.0
 10
72.54094229048671
 20
54.50098861361595
 30
0.0
 10
72.54191393908738
 20
54.50122363307082
 30
0.0
 10
72.54240091991615
 20
54.50134142253589
 30
0.0
  0
LINE
  5
132
330
1F
100
AcDbEntity
  8
0
  6
Continuous
 62
     7
370
    30
100
AcDbLine
 10
70.8413244049
 20
54.4990587509
 30
0.0
 11
72.4467401217
 21
54.4990587509
 31
0.0
  0
SPLINE
  5
133
330
1F
100
AcDbEntity
  8
0
  6
Continuous
 62
     7
370
    30
100
AcDbSpline
210
0.0
220
0.0
230
1.0
 70
     8
 71
     3
 72
    13
 73
     9
 74
     0
 42
0.000000001
 43
0.00000001
 40
0.0
 40
0.0
 40
0.0
 40
0.0
 40
0.2497330988565757
 40
0.3790622602500728
 40
0.4998761581833636
 40
0.6209209778741219
 40
0.7500292058184791
 40
1.0
 40
1.0
 40
1.0
 40
1.0
 10
70.35416353595447
 20
54.45501720484385
 30
0.0
 10
70.357768774221
 20
54.46386776897403
 30
0.0
 10
70.36324105551772
 20
54.47730177055027
 30
0.0
 10
70.4133204282298
 20
54.48810007673143
 30
0.0
 10
70.47211672218431
 20
54.49361503092631
 30
0.0
 10
70.55088636829724
 20
54.49674851139949
 30
0.0
 10
70.67424466657117
 20
54.49881576712845
 30
0.0
 10
70.77493052988399
 20
54.49896219440687
 30
0.0
 10
70.84132440489721
 20
54.49905875090549
 30
0.0
  0
SPLINE
  5
134
330
1F
100
AcDbEntity
  8
0
  6
Continuous
 62
     7
370
    30
100
AcDbSpline
210
0.0
220
0.0
230
1.0
 70
     8
 71
     3
 72
    10
 73
     6
 74
     0
 42
0.000000001
 43
0.00000001
 40
0.0
 40
0.0
 40
0.0
 40
0.0
 40
0.2502377536861665
 40
0.5005143532031491
 40
1.0
 40
1.0
 40
1.0
 40
1.0
 10
70.48879692432475
 20
54.38221082974264
 30
0.0
 10
70.46657983423876
 20
54.38831171305738
 30
0.0
 10
70.42214220518144
 20
54.40051442676168
 30
0.0
 10
70.36585731796347
 20
54.42715352551097
 30
0.0
 10
70.35883905015984
 20
54.44387649532537
 30
0.0
 10
70.35416353595447
 20
54.45501720484385
 30
0.0
  0
SPLINE
  5
135
330
1F
100
AcDbEntity
  8
0
  6
Continuous
 62
     7
370
    30
100
AcDbSpline
210
0.0
220
0.0
230
1.0
 70
     8
 71
     3
 72
    10
 73
     6
 74
     0
 42
0.000000001
 43
0.00000001
 40
0.0
 40
0.0
 40
0.0
 40
0.0
 40
0.4993750649820258
 40
0.7497467371490981
 40
1.0
 40
1.0
 40
1.0
 40
1.0
 10
70.86833974448037
 20
54.34633954379747
 30
0.0
 10
70.79855007398805
 20
54.34770501719137
 30
0.0
 10
70.6937699569828
 20
54.34975509796936
 30
0.0
 10
70.56615476480802
 20
54.36540245736956
 30
0.0
 10
70.51457880485208
 20
54.37660892248056
 30
0.0
 10
70.48879692432475
 20
54.38221082974264
 30
0.0
  0
LINE
  5
136
330
1F
100
AcDbEntity
  8
0
  6
Continuous
 62
     7
370
    30
100
AcDbLine
 10
72.4228251549
 20
54.3463395438
 30
0.0
 11
70.8683397445
 21
54.3463395438
 31
0.0
  0
SPLINE
  5
137
330
1F
100
AcDbEntity
  8
0
  6
Continuous
 62
     7
370
    30
100
AcDbSpline
210
0.0
220
0.0
230
1.0
 70
     8
 71
     3
 72
    13
 73
     9
 74
     0
 42
0.000000001
 43
0.00000001
 40
0.0
 40
0.0
 40
0.0
 40
0.0
 40
0.2499515372469648
 40
0.3804130224547592
 40
0.5000007825509171
 40
0.6195941578871702
 40
0.7500481316314543
 40
0.9999999999999999
 40
0.9999999999999999
 40
0.9999999999999999
 40
0.9999999999999999
 10
72.54240091991615
 20
54.31291949886869
 30
0.0
 10
72.5415220791289
 20
54.31762606895892
 30
0.0
 10
72.5401845299231
 20
54.3247892197566
 30
0.0
 10
72.52767025134877
 20
54.33319288730696
 30
0.0
 10
72.5133239239907
 20
54.33851737187496
 30
0.0
 10
72.49393124969464
 20
54.34240141813341
 30
0.0
 10
72.46379224041641
 20
54.3457528866882
 30
0.0
 10
72.43906958153022
 20
54.3461069202599
 30
0.0
 10
72.42282515493226
 20
54.34633954379748
 30
0.0
  0
LINE
  5
138
330
1F
100
AcDbEntity
  8
0
  6
Continuous
 62
     7
370
    30
100
AcDbLine
 10
72.5424009199
 20
54.3129194989
 30
0.0
 11
72.5424009199
 21
54.2986597861
 31
0.0
  0
LINE
  5
139
330
1F
100
AcDbEntity
  8
0
  6
Continuous
 62
     7
370
    30
100
AcDbLine
 10
72.6380612525
 20
54.2986597861
 30
0.0
 11
72.5424009199
 21
54.2986597861
 31
0.0
  0
LINE
  5
13A
330
1F
100
AcDbEntity
  8
0
  6
Continuous
 62
     7
370
    30
100
AcDbLine
 10
72.6380612525
 20
54.4085490978
 30
0.0
 11
72.6380612525
 21
54.2986597861
 31
0.0
  0
LINE
  5
13B
330
1F
100
AcDbEntity
  8
0
  6
Continuous
 62
     7
370
    30
100
AcDbLine
 10
72.5424009199
 20
54.4085490978
 30
0.0
 11
72.6380612525
 21
54.4085490978
 31
0.0
  0
LINE
  5
13C
330
1F
100
AcDbEntity
  8
0
  6
Continuous
 62
     7
370
    30
100
AcDbLine
 10
72.5424009199
 20
54.4085490978
 30
0.0
 11
72.5424009199
 21
54.3984032697
 31
0.0
  0
SPLINE
  5
13D
330
1F
100
AcDbEntity
  8
0
  6
Continuous
 62
     7
370
    30
100
AcDbSpline
210
0.0
220
0.0
230
1.0
 70
     8
 71
     3
 72
    12
 73
     8
 74
     0
 42
0.000000001
 43
0.00000001
 40
0.0
 40
0.0
 40
0.0
 40
0.0
 40
0.2505197994249017
 40
0.5000389089382061
 40
0.6224619595230243
 40
0.7504245775441015
 40
1.0
 40
1.0
 40
1.0
 40
1.0
 10
72.3989097225387
 20
54.37076929908287
 30
0.0
 10
72.41671043181393
 20
54.37094168892914
 30
0.0
 10
72.45224074624316
 20
54.37128578001828
 30
0.0
 10
72.49509990427052
 20
54.37523687055763
 30
0.0
 10
72.5212422187918
 20
54.38108010859463
 30
0.0
 10
72.5391770903112
 20
54.38842244108196
 30
0.0
 10
72.54111791662704
 20
54.39443115034482
 30
0.0
 10
72.54240091991615
 20
54.39840326968621
 30
0.0
  0
LINE
  5
13E
330
1F
100
AcDbEntity
  8
0
  6
Continuous
 62
     7
370
    30
100
AcDbLine
 10
70.8683397445
 20
54.3707692991
 30
0.0
 11
72.3989097225
 21
54.3707692991
 31
0.0
  0
SPLINE
  5
13F
330
1F
100
AcDbEntity
  8
0
  6
Continuous
 62
     7
370
    30
100
AcDbSpline
210
0.0
220
0.0
230
1.0
 70
     8
 71
     3
 72
    13
 73
     9
 74
     0
 42
0.000000001
 43
0.00000001
 40
0.0
 40
0.0
 40
0.0
 40
0.0
 40
0.2500130459648918
 40
0.3813221288886204
 40
0.5000634422268836
 40
0.6210253143253299
 40
0.7501460803486237
 40
1.0
 40
1.0
 40
1.0
 40
1.0
 10
70.5096119838674
 20
54.4458485669274
 30
0.0
 10
70.51202322149098
 20
54.43742518770873
 30
0.0
 10
70.515700862633
 20
54.42457777455192
 30
0.0
 10
70.55261534298224
 20
54.40572350059833
 30
0.0
 10
70.59470983570561
 20
54.39255177274763
 30
0.0
 10
70.65226711512348
 20
54.38204383316307
 30
0.0
 10
70.74351429981006
 20
54.37245759773642
 30
0.0
 10
70.81874256273808
 20
54.37144011467961
 30
0.0
 10
70.86833974448037
 20
54.37076929908285
 30
0.0
  0
SPLINE
  5
140
330
1F
100
AcDbEntity
  8
0
  6
Continuous
 62
     7
370
    30
100
AcDbSpline
210
0.0
220
0.0
230
1.0
 70
     8
 71
     3
 72
    13
 73
     9
 74
     0
 42
0.000000001
 43
0.00000001
 40
0.0
 40
0.0
 40
0.0
 40
0.0
 40
0.2499143828261924
 40
0.3781451791938
 40
0.499906774406253
 40
0.6209341645164085
 40
0.750004910483721
 40
1.0
 40
1.0
 40
1.0
 40
1.0
 10
70.81740897250366
 20
54.4845280232657
 30
0.0
 10
70.77539594859947
 20
54.48433010117395
 30
0.0
 10
70.71182608810139
 20
54.4840306254735
 30
0.0
 10
70.63380345037
 20
54.48100773781518
 30
0.0
 10
70.5841265146588
 20
54.47715999621502
 30
0.0
 10
70.54680950149213
 20
54.4715371093315
 30
0.0
 10
70.51474553319187
 20
54.46193181815926
 30
0.0
 10
70.5116521076009
 20
54.45224021147506
 30
0.0
 10
70.5096119838674
 20
54.4458485669274
 30
0.0
  0
LINE
  5
141
330
1F
100
AcDbEntity
  8
0
  6
Continuous
 62
     7
370
    30
100
AcDbLine
 10
72.4467401217
 20
54.4845280233
 30
0.0
 11
70.8174089725
 21
54.4845280233
 31
0.0
  0
SPLINE
  5
142
330
1F
100
AcDbEntity
  8
0
  6
Continuous
 62
     7
370
    30
100
AcDbSpline
210
0.0
220
0.0
230
1.0
 70
     8
 71
     3
 72
    13
 73
     9
 74
     0
 42
0.000000001
 43
0.00000001
 40
0.0
 40
0.0
 40
0.0
 40
0.0
 40
0.2501677967142726
 40
0.3808038673788175
 40
0.500339179448967
 40
0.6260314224634211
 40
0.7502394827380888
 40
1.0
 40
1.0
 40
1.0
 40
1.0
 10
72.54240091991615
 20
54.47366391260218
 30
0.0
 10
72.54188832647739
 20
54.47519321326815
 30
0.0
 10
72.54110805992657
 20
54.47752110524959
 30
0.0
 10
72.53212460987552
 20
54.48017152003875
 30
0.0
 10
72.52119194644904
 20
54.48189120685767
 30
0.0
 10
72.50626656002576
 20
54.48320656180618
 30
0.0
 10
72.48140484544777
 20
54.48435059224706
 30
0.0
 10
72.46062095456945
 20
54.48445697437066
 30
0.0
 10
72.44674012166452
 20
54.48452802326571
 30
0.0
  0
LINE
  5
143
330
1F
100
AcDbEntity
  8
0
  6
Continuous
 62
     7
370
    30
100
AcDbLine
 10
72.5424009199
 20
54.4736639126
 30
0.0
 11
72.5424009199
 21
54.4649339276
 31
0.0
  0
LINE
  5
144
330
1F
100
AcDbEntity
  8
0
  6
Continuous
 62
     7
370
    30
100
AcDbLine
 10
71.9206066626
 20
54.113753838
 30
0.0
 11
71.7204277228
 21
54.113753838
 31
0.0
  0
SPLINE
  5
145
330
1F
100
AcDbEntity
  8
0
  6
Continuous
 62
     7
370
    30
100
AcDbSpline
210
0.0
220
0.0
230
1.0
 70
     8
 71
     3
 72
     9
 73
     5
 74
     0
 42
0.000000001
 43
0.00000001
 40
0.0
 40
0.0
 40
0.0
 40
0.0
 40
0.4999565961223145
 40
1.0
 40
1.0
 40
1.0
 40
1.0
 10
71.81298814815473
 20
54.25284639883827
 30
0.0
 10
71.81759039293908
 20
54.23006071825396
 30
0.0
 10
71.82679568159826
 20
54.18448540079433
 30
0.0
 10
71.8893345259826
 20
54.13733239000094
 30
0.0
 10
71.92060666260313
 20
54.11375383798074
 30
0.0
  0
LINE
  5
146
330
1F
100
AcDbEntity
  8
0
  6
Continuous
 62
     7
370
    30
100
AcDbLine
 10
71.7142274427
 20
54.2528463988
 30
0.0
 11
71.8129881482
 21
54.2528463988
 31
0.0
  0
LINE
  5
147
330
1F
100
AcDbEntity
  8
0
  6
Continuous
 62
     7
370
    30
100
AcDbLine
 10
71.7142274427
 20
54.2528463988
 30
0.0
 11
71.7142274427
 21
54.236569907
 31
0.0
  0
SPLINE
  5
148
330
1F
100
AcDbEntity
  8
0
  6
Continuous
 62
     7
370
    30
100
AcDbSpline
210
0.0
220
0.0
230
1.0
 70
     8
 71
     3
 72
    13
 73
     9
 74
     0
 42
0.000000001
 43
0.00000001
 40
0.0
 40
0.0
 40
0.0
 40
0.0
 40
0.2500356463922935
 40
0.3778229029684027
 40
0.5000030088498488
 40
0.6221977428046219
 40
0.7499729455454974
 40
1.0
 40
1.0
 40
1.0
 40
1.0
 10
71.60660939392638
 20
54.19812607530545
 30
0.0
 10
71.62123239333712
 20
54.19840877837014
 30
0.0
 10
71.64332885904986
 20
54.19883596422992
 30
0.0
 10
71.67051232799662
 20
54.20294537310204
 30
0.0
 10
71.68789597888616
 20
54.20777398651511
 30
0.0
 10
71.70112543780061
 20
54.21405827148546
 30
0.0
 10
71.71230988851747
 20
54.2237827826735
 30
0.0
 10
71.71346379498553
 20
54.23147755632642
 30
0.0
 10
71.7142274427135
 20
54.23656990703235
 30
0.0
  0
LINE
  5
149
330
1F
100
AcDbEntity
  8
0
  6
Continuous
 62
     7
370
    30
100
AcDbLine
 10
70.5933150659
 20
54.1981260753
 30
0.0
 11
71.6066093939
 21
54.1981260753
 31
0.0
  0
SPLINE
  5
14A
330
1F
100
AcDbEntity
  8
0
  6
Continuous
 62
     7
370
    30
100
AcDbSpline
210
0.0
220
0.0
230
1.0
 70
     8
 71
     3
 72
    12
 73
     8
 74
     0
 42
0.000000001
 43
0.00000001
 40
0.0
 40
0.0
 40
0.0
 40
0.0
 40
0.2509367303090519
 40
0.5007263180466562
 40
0.6301657160361857
 40
0.7507620953109722
 40
1.0
 40
1.0
 40
1.0
 40
1.0
 10
70.47373930093836
 20
54.25284639883825
 30
0.0
 10
70.47438473369402
 20
54.24653219060151
 30
0.0
 10
70.47567264864728
 20
54.2339326391613
 30
0.0
 10
70.49110940493915
 20
54.21775282658609
 30
0.0
 10
70.5148894290507
 20
54.20725822998129
 30
0.0
 10
70.5464819802441
 20
54.19957717407554
 30
0.0
 10
70.57446010787618
 20
54.19871028636125
 30
0.0
 10
70.59331506592225
 20
54.19812607530544
 30
0.0
  0
LINE
  5
14B
330
1F
100
AcDbEntity
  8
0
  6
Continuous
 62
     7
370
    30
100
AcDbLine
 10
70.3780789683
 20
54.2528463988
 30
0.0
 11
70.4737393009
 21
54.2528463988
 31
0.0
  0
LINE
  5
14C
330
1F
100
AcDbEntity
  8
0
  6
Continuous
 62
     7
370
    30
100
AcDbLine
 10
70.3780789683
 20
54.2528463988
 30
0.0
 11
70.3780789683
 21
54.0413437406
 31
0.0
  0
LINE
  5
14D
330
1F
100
AcDbEntity
  8
0
  6
Continuous
 62
     7
370
    30
100
AcDbLine
 10
70.4737393009
 20
54.0413437406
 30
0.0
 11
70.3780789683
 21
54.0413437406
 31
0.0
  0
SPLINE
  5
14E
330
1F
100
AcDbEntity
  8
0
  6
Continuous
 62
     7
370
    30
100
AcDbSpline
210
0.0
220
0.0
230
1.0
 70
     8
 71
     3
 72
    13
 73
     9
 74
     0
 42
0.000000001
 43
0.00000001
 40
0.0
 40
0.0
 40
0.0
 40
0.0
 40
0.1252633803133414
 40
0.2503209356250291
 40
0.3681562770846755
 40
0.4999262209791983
 40
0.7495291011045488
 40
1.0
 40
1.0
 40
1.0
 40
1.0
 10
70.59331506592225
 20
54.11375383798072
 30
0.0
 10
70.5835511060002
 20
54.11354722635199
 30
0.0
 10
70.56403922968822
 20
54.11313434258592
 30
0.0
 10
70.5365726656388
 20
54.10910589517658
 30
0.0
 10
70.51280560433796
 20
54.10173736040787
 30
0.0
 10
70.49000736601238
 20
54.08815911975267
 30
0.0
 10
70.47561713918277
 20
54.06742889757002
 30
0.0
 10
70.47436597093802
 20
54.05004884893513
 30
0.0
 10
70.47373930093836
 20
54.04134374063501
 30
0.0
  0
LINE
  5
14F
330
1F
100
AcDbEntity
  8
0
  6
Continuous
 62
     7
370
    30
100
AcDbLine
 10
71.5468212786
 20
54.113753838
 30
0.0
 11
70.5933150659
 21
54.113753838
 31
0.0
  0
SPLINE
  5
150
330
1F
100
AcDbEntity
  8
0
  6
Continuous
 62
     7
370
    30
100
AcDbSpline
210
0.0
220
0.0
230
1.0
 70
     8
 71
     3
 72
    10
 73
     6
 74
     0
 42
0.000000001
 43
0.00000001
 40
0.0
 40
0.0
 40
0.0
 40
0.0
 40
0.2501055717120255
 40
0.5003782991772164
 40
1.0
 40
1.0
 40
1.0
 40
1.0
 10
71.80103089761924
 20
53.94560494411777
 30
0.0
 10
71.79719314304842
 20
53.96463241427737
 30
0.0
 10
71.78951506897887
 20
54.00270007143083
 30
0.0
 10
71.70977914150917
 20
54.06636422846266
 30
0.0
 10
71.61198032915976
 20
54.09480500110129
 30
0.0
 10
71.54682127860379
 20
54.11375383798073
 30
0.0
  0
SPLINE
  5
151
330
1F
100
AcDbEntity
  8
0
  6
Continuous
 62
     7
370
    30
100
AcDbSpline
210
0.0
220
0.0
230
1.0
 70
     8
 71
     3
 72
    10
 73
     6
 74
     0
 42
0.000000001
 43
0.00000001
 40
0.0
 40
0.0
 40
0.0
 40
0.0
 40
0.2506160256455873
 40
0.5008210771995186
 40
1.0
 40
1.0
 40
1.0
 40
1.0
 10
71.71732781556439
 20
53.84456156704615
 30
0.0
 10
71.7308606073918
 20
53.8512884744885
 30
0.0
 10
71.75790399922228
 20
53.86473125821641
 30
0.0
 10
71.79360644270174
 20
53.89926525583318
 30
0.0
 10
71.79806257987045
 20
53.92707820771264
 30
0.0
 10
71.80103089761924
 20
53.94560494411777
 30
0.0
  0
SPLINE
  5
152
330
1F
100
AcDbEntity
  8
0
  6
Continuous
 62
     7
370
    30
100
AcDbSpline
210
0.0
220
0.0
230
1.0
 70
     8
 71
     3
 72
    10
 73
     6
 74
     0
 42
0.000000001
 43
0.00000001
 40
0.0
 40
0.0
 40
0.0
 40
0.0
 40
0.2508068667371435
 40
0.5014066417956634
 40
0.9999999999999999
 40
0.9999999999999999
 40
0.9999999999999999
 40
0.9999999999999999
 10
71.50209125232887
 20
53.80932218346785
 30
0.0
 10
71.52117977669597
 20
53.80965414946639
 30
0.0
 10
71.55934106400144
 20
53.81031780735855
 30
0.0
 10
71.63503424401635
 20
53.8179804589487
 30
0.0
 10
71.68444476347386
 20
53.83394022754479
 30
0.0
 10
71.71732781556439
 20
53.84456156704615
 30
0.0
  0
LINE
  5
153
330
1F
100
AcDbEntity
  8
0
  6
Continuous
 62
     7
370
    30
100
AcDbLine
 10
70.5933150659
 20
53.8093221835
 30
0.0
 11
71.5020912523
 21
53.8093221835
 31
0.0
  0
SPLINE
  5
154
330
1F
100
AcDbEntity
  8
0
  6
Continuous
 62
     7
370
    30
100
AcDbSpline
210
0.0
220
0.0
230
1.0
 70
     8
 71
     3
 72
    12
 73
     8
 74
     0
 42
0.000000001
 43
0.00000001
 40
0.0
 40
0.0
 40
0.0
 40
0.0
 40
0.2509431382386075
 40
0.5007284369769309
 40
0.6301670495470993
 40
0.7507619819726549
 40
1.0
 40
1.0
 40
1.0
 40
1.0
 10
70.47373930093836
 20
53.89151838559696
 30
0.0
 10
70.47438464204724
 20
53.88188453619752
 30
0.0
 10
70.47567234669232
 20
53.86266128751372
 30
0.0
 10
70.49110959467073
 20
53.83842238871465
 30
0.0
 10
70.51488933242727
 20
53.82282094113262
 30
0.0
 10
70.54648228087491
 20
53.81145714689694
 30
0.0
 10
70.57446018317343
 20
53.81018171990344
 30
0.0
 10
70.59331506592225
 20
53.80932218346784
 30
0.0
  0
LINE
  5
155
330
1F
100
AcDbEntity
  8
0
  6
Continuous
 62
     7
370
    30
100
AcDbLine
 10
70.3780789683
 20
53.8915183856
 30
0.0
 11
70.4737393009
 21
53.8915183856
 31
0.0
  0
LINE
  5
156
330
1F
100
AcDbEntity
  8
0
  6
Continuous
 62
     7
370
    30
100
AcDbLine
 10
70.3780789683
 20
53.8915183856
 30
0.0
 11
70.3780789683
 21
53.5871440074
 31
0.0
  0
LINE
  5
157
330
1F
100
AcDbEntity
  8
0
  6
Continuous
 62
     7
370
    30
100
AcDbLine
 10
70.4737393009
 20
53.5871440074
 30
0.0
 11
70.3780789683
 21
53.5871440074
 31
0.0
  0
SPLINE
  5
158
330
1F
100
AcDbEntity
  8
0
  6
Continuous
 62
     7
370
    30
100
AcDbSpline
210
0.0
220
0.0
230
1.0
 70
     8
 71
     3
 72
    13
 73
     9
 74
     0
 42
0.000000001
 43
0.00000001
 40
0.0
 40
0.0
 40
0.0
 40
0.0
 40
0.1252636249161062
 40
0.2503198360986057
 40
0.3681595727778874
 40
0.499928216872402
 40
0.7495278572514557
 40
1.0
 40
1.0
 40
1.0
 40
1.0
 10
70.59331506592225
 20
53.6877524568517
 30
0.0
 10
70.58355117015397
 20
53.68746090519461
 30
0.0
 10
70.56403954584933
 20
53.68687828463685
 30
0.0
 10
70.53657183992249
 20
53.68119912360083
 30
0.0
 10
70.5128063136647
 20
53.67083813450984
 30
0.0
 10
70.49000714952268
 20
53.65182251230441
 30
0.0
 10
70.47561711048633
 20
53.62297423415957
 30
0.0
 10
70.47436596510143
 20
53.59910130046899
 30
0.0
 10
70.47373930093836
 20
53.58714400742242
 30
0.0
  0
LINE
  5
159
330
1F
100
AcDbEntity
  8
0
  6
Continuous
 62
     7
370
    30
100
AcDbLine
 10
71.5020912523
 20
53.6877524569
 30
0.0
 11
70.5933150659
 21
53.6877524569
 31
0.0
  0
SPLINE
  5
15A
330
1F
100
AcDbEntity
  8
0
  6
Continuous
 62
     7
370
    30
100
AcDbSpline
210
0.0
220
0.0
230
1.0
 70
     8
 71
     3
 72
    10
 73
     6
 74
     0
 42
0.000000001
 43
0.00000001
 40
0.0
 40
0.0
 40
0.0
 40
0.0
 40
0.2501561602072516
 40
0.5003740891634804
 40
1.0
 40
1.0
 40
1.0
 40
1.0
 10
71.80723117765974
 20
53.7478963373978
 30
0.0
 10
71.78582595692606
 20
53.73799950769278
 30
0.0
 10
71.74301023006537
 20
53.71820340455003
 30
0.0
 10
71.64024461335366
 20
53.69289719404774
 30
0.0
 10
71.55733468563518
 20
53.6898096847328
 30
0.0
 10
71.50209125232887
 20
53.6877524568517
 30
0.0
  0
SPLINE
  5
15B
330
1F
100
AcDbEntity
  8
0
  6
Continuous
 62
     7
370
    30
100
AcDbSpline
210
0.0
220
0.0
230
1.0
 70
     8
 71
     3
 72
    10
 73
     6
 74
     0
 42
0.000000001
 43
0.00000001
 40
0.0
 40
0.0
 40
0.0
 40
0.0
 40
0.4994158158567973
 40
0.7497297228161425
 40
1.0
 40
1.0
 40
1.0
 40
1.0
 10
71.92060666260313
 20
53.90980583567213
 30
0.0
 10
71.91670884342821
 20
53.88117547406913
 30
0.0
 10
71.91085738499055
 20
53.83819519113213
 30
0.0
 10
71.86317588034099
 20
53.78247398059428
 30
0.0
 10
71.82587832829698
 20
53.75942154873084
 30
0.0
 10
71.80723117765974
 20
53.7478963373978
 30
0.0
  0
SPLINE
  5
15C
330
1F
100
AcDbEntity
  8
0
  6
Continuous
 62
     7
370
    30
100
AcDbSpline
210
0.0
220
0.0
230
1.0
 70
     8
 71
     3
 72
    11
 73
     7
 74
     0
 42
0.000000001
 43
0.00000001
 40
0.0
 40
0.0
 40
0.0
 40
0.0
 40
0.1255240148781584
 40
0.2509849613440246
 40
0.5015448795646641
 40
1.0
 40
1.0
 40
1.0
 40
1.0
 10
71.720427722754
 20
54.11375383798073
 30
0.0
 10
71.73615470303363
 20
54.10796694350723
 30
0.0
 10
71.76760076171311
 20
54.0963960621333
 30
0.0
 10
71.82231345207026
 20
54.06917521723318
 30
0.0
 10
71.90021243664363
 20
54.01343810445133
 30
0.0
 10
71.91245768502421
 20
53.95121446948904
 30
0.0
 10
71.92060666260313
 20
53.90980583567213
 30
0.0
  0
LINE
  5
15D
330
1F
100
AcDbEntity
  8
0
  6
Continuous
 62
     7
370
    30
100
AcDbLine
 10
71.9206066626
 20
52.9465508875
 30
0.0
 11
70.6531031812
 21
52.9465508875
 31
0.0
  0
SPLINE
  5
15E
330
1F
100
AcDbEntity
  8
0
  6
Continuous
 62
     7
370
    30
100
AcDbSpline
210
0.0
220
0.0
230
1.0
 70
     8
 71
     3
 72
    10
 73
     6
 74
     0
 42
0.000000001
 43
0.00000001
 40
0.0
 40
0.0
 40
0.0
 40
0.0
 40
0.3270838036174968
 40
0.6529403612174618
 40
0.9999999999999999
 40
0.9999999999999999
 40
0.9999999999999999
 40
0.9999999999999999
 10
71.8249458643515
 20
53.28032968051772
 30
0.0
 10
71.82766671015969
 20
53.24443023303262
 30
0.0
 10
71.8330981929331
 20
53.17276603581714
 30
0.0
 10
71.8676685746778
 20
53.06067500919407
 30
0.0
 10
71.90259381069059
 20
52.98538305891341
 30
0.0
 10
71.92060666260315
 20
52.94655088752549
 30
0.0
  0
LINE
  5
15F
330
1F
100
AcDbEntity
  8
0
  6
Continuous
 62
     7
370
    30
100
AcDbLine
 10
71.7261851589
 20
53.2803296805
 30
0.0
 11
71.8249458644
 21
53.2803296805
 31
0.0
  0
LINE
  5
160
330
1F
100
AcDbEntity
  8
0
  6
Continuous
 62
     7
370
    30
100
AcDbLine
 10
71.7142274427
 20
53.1675841189
 30
0.0
 11
71.7261851589
 21
53.2803296805
 31
0.0
  0
SPLINE
  5
161
330
1F
100
AcDbEntity
  8
0
  6
Continuous
 62
     7
370
    30
100
AcDbSpline
210
0.0
220
0.0
230
1.0
 70
     8
 71
     3
 72
    12
 73
     8
 74
     0
 42
0.000000001
 43
0.00000001
 40
0.0
 40
0.0
 40
0.0
 40
0.0
 40
0.2503312354464112
 40
0.4996262474094757
 40
0.6262246505178884
 40
0.7499041378105876
 40
1.0
 40
1.0
 40
1.0
 40
1.0
 10
71.59465167772962
 20
53.10871067874174
 30
0.0
 10
71.60767835408565
 20
53.10916302589833
 30
0.0
 10
71.6336777840504
 20
53.11006584776142
 30
0.0
 10
71.66467083180373
 20
53.11915176065308
 30
0.0
 10
71.68516670295291
 20
53.13093704974445
 30
0.0
 10
71.70209795570571
 20
53.14558243540407
 30
0.0
 10
71.70936500563614
 20
53.15876414146268
 30
0.0
 10
71.7142274427135
 20
53.16758411888073
 30
0.0
  0
LINE
  5
162
330
1F
100
AcDbEntity
  8
0
  6
Continuous
 62
     7
370
    30
100
AcDbLine
 10
70.6531031812
 20
53.1087106787
 30
0.0
 11
71.5946516777
 21
53.1087106787
 31
0.0
  0
SPLINE
  5
163
330
1F
100
AcDbEntity
  8
0
  6
Continuous
 62
     7
370
    30
100
AcDbSpline
210
0.0
220
0.0
230
1.0
 70
     8
 71
     3
 72
    10
 73
     6
 74
     0
 42
0.000000001
 43
0.00000001
 40
0.0
 40
0.0
 40
0.0
 40
0.0
 40
0.2547098405260818
 40
0.5008519880050928
 40
0.9999999999999999
 40
0.9999999999999999
 40
0.9999999999999999
 40
0.9999999999999999
 10
70.50075464052152
 20
53.16758411888072
 30
0.0
 10
70.50898642855901
 20
53.15805216945451
 30
0.0
 10
70.52517311139347
 20
53.13930889746383
 30
0.0
 10
70.5765771808045
 20
53.11325544469938
 30
0.0
 10
70.62240836501255
 20
53.11053359846949
 30
0.0
 10
70.65310318124486
 20
53.10871067874173
 30
0.0
  0
LINE
  5
164
330
1F
100
AcDbEntity
  8
0
  6
Continuous
 62
     7
370
    30
100
AcDbLine
 10
70.4737393009
 20
53.296976373
 30
0.0
 11
70.5007546405
 21
53.1675841189
 31
0.0
  0
LINE
  5
165
330
1F
100
AcDbEntity
  8
0
  6
Continuous
 62
     7
370
    30
100
AcDbLine
 10
70.3780789683
 20
53.296976373
 30
0.0
 11
70.4737393009
 21
53.296976373
 31
0.0
  0
LINE
  5
166
330
1F
100
AcDbEntity
  8
0
  6
Continuous
 62
     7
370
    30
100
AcDbLine
 10
70.3780789683
 20
53.296976373
 30
0.0
 11
70.3780789683
 21
52.7293963819
 31
0.0
  0
LINE
  5
167
330
1F
100
AcDbEntity
  8
0
  6
Continuous
 62
     7
370
    30
100
AcDbLine
 10
70.4737393009
 20
52.7293963819
 30
0.0
 11
70.3780789683
 21
52.7293963819
 31
0.0
  0
LINE
  5
168
330
1F
100
AcDbEntity
  8
0
  6
Continuous
 62
     7
370
    30
100
AcDbLine
 10
70.4976547333
 20
52.8840322508
 30
0.0
 11
70.4737393009
 21
52.7293963819
 31
0.0
  0
SPLINE
  5
169
330
1F
100
AcDbEntity
  8
0
  6
Continuous
 62
     7
370
    30
100
AcDbSpline
210
0.0
220
0.0
230
1.0
 70
     8
 71
     3
 72
    10
 73
     6
 74
     0
 42
0.000000001
 43
0.00000001
 40
0.0
 40
0.0
 40
0.0
 40
0.0
 40
0.4995352021180595
 40
0.7498002810106071
 40
0.9999999999999999
 40
0.9999999999999999
 40
0.9999999999999999
 40
0.9999999999999999
 10
70.65310318124486
 20
52.94655088752548
 30
0.0
 10
70.62192287663588
 20
52.94477589870325
 30
0.0
 10
70.57512136783596
 20
52.9421116477915
 30
0.0
 10
70.5205573273076
 20
52.91596777843219
 30
0.0
 10
70.50528826661883
 20
52.89467649982803
 30
0.0
 10
70.49765473333193
 20
52.88403225082943
 30
0.0
  0
SPLINE
  5
16A
330
1F
100
AcDbEntity
  8
0
  6
Continuous
 62
     7
370
    30
100
AcDbSpline
210
0.0
220
0.0
230
1.0
 70
     8
 71
     3
 72
    13
 73
     9
 74
     0
 42
0.000000001
 43
0.00000001
 40
0.0
 40
0.0
 40
0.0
 40
0.0
 40
0.2499883387425435
 40
0.3792591889139598
 40
0.4999956407620069
 40
0.6207333533934368
 40
0.7500053630871287
 40
1.0
 40
1.0
 40
1.0
 40
1.0
 10
72.66197668490005
 20
53.02851612165612
 30
0.0
 10
72.66091262477732
 20
53.01253233811403
 30
0.0
 10
72.65929833116212
 20
52.98828321988538
 30
0.0
 10
72.64289228683283
 20
52.95830283026429
 30
0.0
 10
72.62402687014207
 20
52.93895126679534
 30
0.0
 10
72.5988796823157
 20
52.92436818526491
 30
0.0
 10
72.55972876171447
 20
52.91165226683213
 30
0.0
 10
72.52766360571441
 20
52.91039538258717
 30
0.0
 10
72.50652777132584
 20
52.90956690393429
 30
0.0
  0
SPLINE
  5
16B
330
1F
100
AcDbEntity
  8
0
  6
Continuous
 62
     7
370
    30
100
AcDbSpline
210
0.0
220
0.0
230
1.0
 70
     8
 71
     3
 72
    10
 73
     6
 74
     0
 42
0.000000001
 43
0.00000001
 40
0.0
 40
0.0
 40
0.0
 40
0.0
 40
0.2506976246072996
 40
0.5010655143023381
 40
1.0
 40
1.0
 40
1.0
 40
1.0
 10
72.61724619296385
 20
53.11099404886406
 30
0.0
 10
72.62427352901177
 20
53.10547518909843
 30
0.0
 10
72.63831895826762
 20
53.0944447283545
 30
0.0
 10
72.65778439453298
 20
53.06718213772118
 30
0.0
 10
72.66030097870727
 20
53.04397136852533
 30
0.0
 10
72.66197668490005
 20
53.02851612165612
 30
0.0
  0
SPLINE
  5
16C
330
1F
100
AcDbEntity
  8
0
  6
Continuous
 62
     7
370
    30
100
AcDbSpline
210
0.0
220
0.0
230
1.0
 70
     8
 71
     3
 72
    10
 73
     6
 74
     0
 42
0.000000001
 43
0.00000001
 40
0.0
 40
0.0
 40
0.0
 40
0.0
 40
0.250834962737959
 40
0.501335268997238
 40
1.0
 40
1.0
 40
1.0
 40
1.0
 10
72.50652777132584
 20
53.1437711319704
 30
0.0
 10
72.51675482940068
 20
53.14346388281552
 30
0.0
 10
72.53719530091642
 20
53.14284979442837
 30
0.0
 10
72.57713133054989
 20
53.1348012078277
 30
0.0
 10
72.6012152666439
 20
53.12050799926217
 30
0.0
 10
72.61724619296385
 20
53.11099404886406
 30
0.0
  0
SPLINE
  5
16D
330
1F
100
AcDbEntity
  8
0
  6
Continuous
 62
     7
370
    30
100
AcDbSpline
210
0.0
220
0.0
230
1.0
 70
     8
 71
     3
 72
    10
 73
     6
 74
     0
 42
0.000000001
 43
0.00000001
 40
0.0
 40
0.0
 40
0.0
 40
0.0
 40
0.2507775772586476
 40
0.5012429629599837
 40
1.0
 40
1.0
 40
1.0
 40
1.0
 10
72.39580981534911
 20
53.11099404886406
 30
0.0
 10
72.4034839237914
 20
53.11596388627416
 30
0.0
 10
72.41882258722269
 20
53.12589737417247
 30
0.0
 10
72.45520599684158
 20
53.1403291210077
 30
0.0
 10
72.48601694001624
 20
53.14239552664633
 30
0.0
 10
72.50652777132584
 20
53.1437711319704
 30
0.0
  0
SPLINE
  5
16E
330
1F
100
AcDbEntity
  8
0
  6
Continuous
 62
     7
370
    30
100
AcDbSpline
210
0.0
220
0.0
230
1.0
 70
     8
 71
     3
 72
    10
 73
     6
 74
     0
 42
0.000000001
 43
0.00000001
 40
0.0
 40
0.0
 40
0.0
 40
0.0
 40
0.2507983285406084
 40
0.5012373199274773
 40
1.0
 40
1.0
 40
1.0
 40
1.0
 10
72.3479794162233
 20
53.02851612165611
 30
0.0
 10
72.3485771576981
 20
53.03628574247243
 30
0.0
 10
72.3497717842197
 20
53.05181385199964
 30
0.0
 10
72.3617255164053
 20
53.08180114383536
 30
0.0
 10
72.38218765036599
 20
53.09932678326201
 30
0.0
 10
72.39580981534911
 20
53.11099404886406
 30
0.0
  0
SPLINE
  5
16F
330
1F
100
AcDbEntity
  8
0
  6
Continuous
 62
     7
370
    30
100
AcDbSpline
210
0.0
220
0.0
230
1.0
 70
     8
 71
     3
 72
    10
 73
     6
 74
     0
 42
0.000000001
 43
0.00000001
 40
0.0
 40
0.0
 40
0.0
 40
0.0
 40
0.2508371840081181
 40
0.5013281751484273
 40
1.0
 40
1.0
 40
1.0
 40
1.0
 10
72.39580981534911
 20
52.94416402418207
 30
0.0
 10
72.38889357637588
 20
52.95005618184258
 30
0.0
 10
72.37507064387464
 20
52.96183236510389
 30
0.0
 10
72.3536071341869
 20
52.9892860913581
 30
0.0
 10
72.35022841965277
 20
53.01283863510672
 30
0.0
 10
72.3479794162233
 20
53.02851612165611
 30
0.0
  0
SPLINE
  5
170
330
1F
100
AcDbEntity
  8
0
  6
Continuous
 62
     7
370
    30
100
AcDbSpline
210
0.0
220
0.0
230
1.0
 70
     8
 71
     3
 72
    10
 73
     6
 74
     0
 42
0.000000001
 43
0.00000001
 40
0.0
 40
0.0
 40
0.0
 40
0.0
 40
0.2507491525150636
 40
0.5011720338828788
 40
1.0
 40
1.0
 40
1.0
 40
1.0
 10
72.50652777132584
 20
52.90956690393429
 30
0.0
 10
72.49630892541296
 20
52.90990829169775
 30
0.0
 10
72.47588453020076
 20
52.91059062301586
 30
0.0
 10
72.43603104503143
 20
52.91929531982442
 30
0.0
 10
72.41188530191172
 20
52.93422458359588
 30
0.0
 10
72.39580981534911
 20
52.94416402418207
 30
0.0
  0
SPLINE
  5
171
330
1F
100
AcDbEntity
  8
0
  6
Continuous
 62
     7
370
    30
100
AcDbSpline
210
0.0
220
0.0
230
1.0
 70
     8
 71
     3
 72
     9
 73
     5
 74
     0
 42
0.000000001
 43
0.00000001
 40
0.0
 40
0.0
 40
0.0
 40
0.0
 40
0.5006693609179456
 40
1.0
 40
1.0
 40
1.0
 40
1.0
 10
71.92060666260316
 20
51.63239988857455
 30
0.0
 10
71.91829384471586
 20
51.56686348389897
 30
0.0
 10
71.913674393102
 20
51.43596590998826
 30
0.0
 10
71.8544956326354
 20
51.31512974526125
 30
0.0
 10
71.82494586435153
 20
51.25479254590388
 30
0.0
  0
SPLINE
  5
172
330
1F
100
AcDbEntity
  8
0
  6
Continuous
 62
     7
370
    30
100
AcDbSpline
210
0.0
220
0.0
230
1.0
 70
     8
 71
     3
 72
    11
 73
     7
 74
     0
 42
0.000000001
 43
0.00000001
 40
0.0
 40
0.0
 40
0.0
 40
0.0
 40
0.125415566794846
 40
0.250782055959988
 40
0.501120258636922
 40
0.9999999999999999
 40
0.9999999999999999
 40
0.9999999999999999
 40
0.9999999999999999
 10
71.71422744271351
 20
52.10589518489356
 30
0.0
 10
71.73087749412768
 20
52.09063749864962
 30
0.0
 10
71.76417108145657
 20
52.06012809680075
 30
0.0
 10
71.82143095333271
 20
51.99147999134274
 30
0.0
 10
71.90113117449809
 20
51.85641754321287
 30
0.0
 10
71.91282207443957
 20
51.7219424547645
 30
0.0
 10
71.92060666260316
 20
51.63239988857455
 30
0.0
  0
SPLINE
  5
173
330
1F
100
AcDbEntity
  8
0
  6
Continuous
 62
     7
370
    30
100
AcDbSpline
210
0.0
220
0.0
230
1.0
 70
     8
 71
     3
 72
     9
 73
     5
 74
     0
 42
0.000000001
 43
0.00000001
 40
0.0
 40
0.0
 40
0.0
 40
0.0
 40
0.5003844018806408
 40
1.0
 40
1.0
 40
1.0
 40
1.0
 10
71.16727892410947
 20
52.29640338754321
 30
0.0
 10
71.2694993071691
 20
52.28957443987918
 30
0.0
 10
71.47378301920219
 20
52.27592703672597
 30
0.0
 10
71.63412039086788
 20
52.16254341225205
 30
0.0
 10
71.71422744271351
 20
52.10589518489356
 30
0.0
  0
SPLINE
  5
174
330
1F
100
AcDbEntity
  8
0
  6
Continuous
 62
     7
370
    30
100
AcDbSpline
210
0.0
220
0.0
230
1.0
 70
     8
 71
     3
 72
    10
 73
     6
 74
     0
 42
0.000000001
 43
0.00000001
 40
0.0
 40
0.0
 40
0.0
 40
0.0
 40
0.2499226842726383
 40
0.5001178124434904
 40
1.0
 40
1.0
 40
1.0
 40
1.0
 10
70.55744238299323
 20
52.12730722220653
 30
0.0
 10
70.60054901071179
 20
52.15720255131789
 30
0.0
 10
70.68680925723227
 20
52.21702579881924
 30
0.0
 10
70.89427959005691
 20
52.28367343346714
 30
0.0
 10
71.05810138359784
 20
52.29131244077708
 30
0.0
 10
71.16727892410947
 20
52.29640338754321
 30
0.0
  0
SPLINE
  5
175
330
1F
100
AcDbEntity
  8
0
  6
Continuous
 62
     7
370
    30
100
AcDbSpline
210
0.0
220
0.0
230
1.0
 70
     8
 71
     3
 72
     9
 73
     5
 74
     0
 42
0.000000001
 43
0.00000001
 40
0.0
 40
0.0
 40
0.0
 40
0.0
 40
0.5000891687958267
 40
1.0
 40
1.0
 40
1.0
 40
1.0
 10
70.3541635359545
 20
51.68863978130316
 30
0.0
 10
70.36258844048422
 20
51.77301040784639
 30
0.0
 10
70.37943524512511
 20
51.94172157338988
 30
0.0
 10
70.4981137253153
 20
52.06545269457104
 30
0.0
 10
70.55744238299323
 20
52.12730722220653
 30
0.0
  0
SPLINE
  5
176
330
1F
100
AcDbEntity
  8
0
  6
Continuous
 62
     7
370
    30
100
AcDbSpline
210
0.0
220
0.0
230
1.0
 70
     8
 71
     3
 72
     9
 73
     5
 74
     0
 42
0.000000001
 43
0.00000001
 40
0.0
 40
0.0
 40
0.0
 40
0.0
 40
0.4996399971951869
 40
1.0
 40
1.0
 40
1.0
 40
1.0
 10
70.45868167755201
 20
51.31265497718045
 30
0.0
 10
70.42725453775269
 20
51.37241478612989
 30
0.0
 10
70.36435497011252
 20
51.49202052082869
 30
0.0
 10
70.35756231092475
 20
51.62306857603338
 30
0.0
 10
70.3541635359545
 20
51.68863978130316
 30
0.0
  0
SPLINE
  5
177
330
1F
100
AcDbEntity
  8
0
  6
Continuous
 62
     7
370
    30
100
AcDbSpline
210
0.0
220
0.0
230
1.0
 70
     8
 71
     3
 72
     9
 73
     5
 74
     0
 42
0.000000001
 43
0.00000001
 40
0.0
 40
0.0
 40
0.0
 40
0.0
 40
0.50129397585827
 40
1.0
 40
1.0
 40
1.0
 40
1.0
 10
70.81740897250369
 20
51.05660424985031
 30
0.0
 10
70.74803401376971
 20
51.08709823497277
 30
0.0
 10
70.60964224751082
 20
51.14792877870761
 30
0.0
 10
70.50891497509909
 20
51.25784106024874
 30
0.0
 10
70.45868167755201
 20
51.31265497718045
 30
0.0
  0
LINE
  5
178
330
1F
100
AcDbEntity
  8
0
  6
Continuous
 62
     7
370
    30
100
AcDbLine
 10
70.8563820283
 20
51.1034251826
 30
0.0
 11
70.8174089725
 21
51.0566042499
 31
0.0
  0
SPLINE
  5
179
330
1F
100
AcDbEntity
  8
0
  6
Continuous
 62
     7
370
    30
100
AcDbSpline
210
0.0
220
0.0
230
1.0
 70
     8
 71
     3
 72
     9
 73
     5
 74
     0
 42
0.000000001
 43
0.00000001
 40
0.0
 40
0.0
 40
0.0
 40
0.0
 40
0.4986658078987549
 40
0.9999999999999999
 40
0.9999999999999999
 40
0.9999999999999999
 40
0.9999999999999999
 10
70.56054275584414
 20
51.37882402001919
 30
0.0
 10
70.5991266097141
 20
51.32262010679512
 30
0.0
 10
70.67650078147167
 20
51.20991153056266
 30
0.0
 10
70.79631504251917
 20
51.13898371948224
 30
0.0
 10
70.85638202828362
 20
51.10342518261673
 30
0.0
  0
SPLINE
  5
17A
330
1F
100
AcDbEntity
  8
0
  6
Continuous
 62
     7
370
    30
100
AcDbSpline
210
0.0
220
0.0
230
1.0
 70
     8
 71
     3
 72
    10
 73
     6
 74
     0
 42
0.000000001
 43
0.00000001
 40
0.0
 40
0.0
 40
0.0
 40
0.0
 40
0.3312738213404394
 40
0.6732899145976761
 40
0.9999999999999999
 40
0.9999999999999999
 40
0.9999999999999999
 40
0.9999999999999999
 10
70.50961198386743
 20
51.65492965122025
 30
0.0
 10
70.51044330595187
 20
51.62407223914139
 30
0.0
 10
70.51213290754178
 20
51.56135679649272
 30
0.0
 10
70.52721067692235
 20
51.46779494726286
 30
0.0
 10
70.54960290289289
 20
51.40802498474947
 30
0.0
 10
70.56054275584414
 20
51.37882402001919
 30
0.0
  0
SPLINE
  5
17B
330
1F
100
AcDbEntity
  8
0
  6
Continuous
 62
     7
370
    30
100
AcDbSpline
210
0.0
220
0.0
230
1.0
 70
     8
 71
     3
 72
    11
 73
     7
 74
     0
 42
0.000000001
 43
0.00000001
 40
0.0
 40
0.0
 40
0.0
 40
0.0
 40
0.2502272769986935
 40
0.5002162335253251
 40
0.7499227364060009
 40
1.0
 40
1.0
 40
1.0
 40
1.0
 10
70.72794845429254
 20
52.00319399543146
 30
0.0
 10
70.69648501567626
 20
51.98354705908689
 30
0.0
 10
70.63358810472724
 20
51.94427189845504
 30
0.0
 10
70.56147409334828
 20
51.86132519954565
 30
0.0
 10
70.51680066603383
 20
51.76220118638523
 30
0.0
 10
70.51200939604506
 20
51.69070450936047
 30
0.0
 10
70.50961198386743
 20
51.65492965122025
 30
0.0
  0
SPLINE
  5
17C
330
1F
100
AcDbEntity
  8
0
  6
Continuous
 62
     7
370
    30
100
AcDbSpline
210
0.0
220
0.0
230
1.0
 70
     8
 71
     3
 72
     9
 73
     5
 74
     0
 42
0.000000001
 43
0.00000001
 40
0.0
 40
0.0
 40
0.0
 40
0.0
 40
0.500379922889751
 40
0.9999999999999999
 40
0.9999999999999999
 40
0.9999999999999999
 40
0.9999999999999999
 10
71.16727892410947
 20
52.10589518489355
 30
0.0
 10
71.08999644136168
 20
52.10276668917802
 30
0.0
 10
70.93554883223004
 20
52.09651444848565
 30
0.0
 10
70.7971135171084
 20
52.03428505153465
 30
0.0
 10
70.72794845429254
 20
52.00319399543146
 30
0.0
  0
SPLINE
  5
17D
330
1F
100
AcDbEntity
  8
0
  6
Continuous
 62
     7
370
    30
100
AcDbSpline
210
0.0
220
0.0
230
1.0
 70
     8
 71
     3
 72
     9
 73
     5
 74
     0
 42
0.000000001
 43
0.00000001
 40
0.0
 40
0.0
 40
0.0
 40
0.0
 40
0.4993513066966863
 40
1.0
 40
1.0
 40
1.0
 40
1.0
 10
71.64248207685544
 20
51.95965463596436
 30
0.0
 10
71.57083019790964
 20
52.00390011996561
 30
0.0
 10
71.42734027811795
 20
52.09250604410735
 30
0.0
 10
71.25404098750516
 20
52.10142827943528
 30
0.0
 10
71.16727892410947
 20
52.10589518489355
 30
0.0
  0
SPLINE
  5
17E
330
1F
100
AcDbEntity
  8
0
  6
Continuous
 62
     7
370
    30
100
AcDbSpline
210
0.0
220
0.0
230
1.0
 70
     8
 71
     3
 72
    11
 73
     7
 74
     0
 42
0.000000001
 43
0.00000001
 40
0.0
 40
0.0
 40
0.0
 40
0.0
 40
0.1254633571944754
 40
0.2508744356653858
 40
0.5012653658148564
 40
1.0
 40
1.0
 40
1.0
 40
1.0
 10
71.81298814815476
 20
51.63239988857455
 30
0.0
 10
71.81249298220266
 20
51.64830207779833
 30
0.0
 10
71.8115028566268
 20
51.68009983003907
 30
0.0
 10
71.80012772159904
 20
51.74239798883992
 30
0.0
 10
71.7618327140058
 20
51.84789399970517
 30
0.0
 10
71.69018317063947
 20
51.91498705212192
 30
0.0
 10
71.64248207685543
 20
51.95965463596436
 30
0.0
  0
SPLINE
  5
17F
330
1F
100
AcDbEntity
  8
0
  6
Continuous
 62
     7
370
    30
100
AcDbSpline
210
0.0
220
0.0
230
1.0
 70
     8
 71
     3
 72
    13
 73
     9
 74
     0
 42
0.000000001
 43
0.00000001
 40
0.0
 40
0.0
 40
0.0
 40
0.0
 40
0.0626171449971062
 40
0.1250198953115076
 40
0.1852575438333552
 40
0.250160710131746
 40
0.4995965420506879
 40
1.0
 40
1.0
 40
1.0
 40
1.0
 10
71.70537009936764
 20
51.37030259308445
 30
0.0
 10
71.7120879616367
 20
51.37087449172473
 30
0.0
 10
71.72550068490334
 20
51.372016330883
 30
0.0
 10
71.74402678792205
 20
51.37989040670905
 30
0.0
 10
71.759537196327
 20
51.39244311826972
 30
0.0
 10
71.78417335933891
 20
51.4232122015611
 30
0.0
 10
71.8098717575513
 20
51.50561960996428
 30
0.0
 10
71.81174082827467
 20
51.58165671095797
 30
0.0
 10
71.81298814815476
 20
51.63239988857455
 30
0.0
  0
SPLINE
  5
180
330
1F
100
AcDbEntity
  8
0
  6
Continuous
 62
     7
370
    30
100
AcDbSpline
210
0.0
220
0.0
230
1.0
 70
     8
 71
     3
 72
    10
 73
     6
 74
     0
 42
0.000000001
 43
0.00000001
 40
0.0
 40
0.0
 40
0.0
 40
0.0
 40
0.5014312425463812
 40
0.7348979103143574
 40
1.0
 40
1.0
 40
1.0
 40
1.0
 10
71.66373998028233
 20
51.40180683471768
 30
0.0
 10
71.66887517862573
 20
51.39443430021306
 30
0.0
 10
71.676401328198
 20
51.38362910950804
 30
0.0
 10
71.69158538828775
 20
51.37313454544048
 30
0.0
 10
71.70058484964038
 20
51.37128568218663
 30
0.0
 10
71.70537009936764
 20
51.37030259308445
 30
0.0
  0
SPLINE
  5
181
330
1F
100
AcDbEntity
  8
0
  6
Continuous
 62
     7
370
    30
100
AcDbSpline
210
0.0
220
0.0
230
1.0
 70
     8
 71
     3
 72
     9
 73
     5
 74
     0
 42
0.000000001
 43
0.00000001
 40
0.0
 40
0.0
 40
0.0
 40
0.0
 40
0.5008287789315246
 40
1.0
 40
1.0
 40
1.0
 40
1.0
 10
71.57383661818697
 20
51.42772421774495
 30
0.0
 10
71.58994692201316
 20
51.42691301329231
 30
0.0
 10
71.62211421052352
 20
51.4252932891735
 30
0.0
 10
71.64988006486611
 20
51.40962699694099
 30
0.0
 10
71.66373998028233
 20
51.40180683471768
 30
0.0
  0
SPLINE
  5
182
330
1F
100
AcDbEntity
  8
0
  6
Continuous
 62
     7
370
    30
100
AcDbSpline
210
0.0
220
0.0
230
1.0
 70
     8
 71
     3
 72
    10
 73
     6
 74
     0
 42
0.000000001
 43
0.00000001
 40
0.0
 40
0.0
 40
0.0
 40
0.0
 40
0.2510375574960945
 40
0.5017591447543716
 40
1.0
 40
1.0
 40
1.0
 40
1.0
 10
71.48437656563713
 20
51.38734045564703
 30
0.0
 10
71.49031163334256
 20
51.3931869673583
 30
0.0
 10
71.50217429853748
 20
51.40487263202657
 30
0.0
 10
71.53140973669866
 20
51.42229901946252
 30
0.0
 10
71.55688765264439
 20
51.42555692437987
 30
0.0
 10
71.57383661818697
 20
51.42772421774495
 30
0.0
  0
SPLINE
  5
183
330
1F
100
AcDbEntity
  8
0
  6
Continuous
 62
     7
370
    30
100
AcDbSpline
210
0.0
220
0.0
230
1.0
 70
     8
 71
     3
 72
    10
 73
     6
 74
     0
 42
0.000000001
 43
0.00000001
 40
0.0
 40
0.0
 40
0.0
 40
0.0
 40
0.250827773964442
 40
0.5013428220561637
 40
1.0
 40
1.0
 40
1.0
 40
1.0
 10
71.4423031370063
 20
51.28953517075202
 30
0.0
 10
71.44278670443634
 20
51.29862187227545
 30
0.0
 10
71.44375323639653
 20
51.3167839462473
 30
0.0
 10
71.4543034128928
 20
51.35209239393153
 30
0.0
 10
71.47235874218183
 20
51.37325463676267
 30
0.0
 10
71.48437656563713
 20
51.38734045564703
 30
0.0
  0
SPLINE
  5
184
330
1F
100
AcDbEntity
  8
0
  6
Continuous
 62
     7
370
    30
100
AcDbSpline
210
0.0
220
0.0
230
1.0
 70
     8
 71
     3
 72
     9
 73
     5
 74
     0
 42
0.000000001
 43
0.00000001
 40
0.0
 40
0.0
 40
0.0
 40
0.0
 40
0.4997193341958592
 40
1.0
 40
1.0
 40
1.0
 40
1.0
 10
71.46931847658946
 20
51.18508980328257
 30
0.0
 10
71.46125519402494
 20
51.20165973123993
 30
0.0
 10
71.4451195714609
 20
51.23481820005126
 30
0.0
 10
71.44324229974849
 20
51.27128935638083
 30
0.0
 10
71.4423031370063
 20
51.28953517075202
 30
0.0
  0
SPLINE
  5
185
330
1F
100
AcDbEntity
  8
0
  6
Continuous
 62
     7
370
    30
100
AcDbSpline
210
0.0
220
0.0
230
1.0
 70
     8
 71
     3
 72
    10
 73
     6
 74
     0
 42
0.000000001
 43
0.00000001
 40
0.0
 40
0.0
 40
0.0
 40
0.0
 40
0.2507521992699825
 40
0.5011807849040282
 40
1.0
 40
1.0
 40
1.0
 40
1.0
 10
71.59465167772963
 20
51.1384679698203
 30
0.0
 10
71.58321242617801
 20
51.13903450039199
 30
0.0
 10
71.5603486862465
 20
51.14016683038715
 30
0.0
 10
71.5153555416408
 20
51.15100195850577
 30
0.0
 10
71.4877182679172
 20
51.17146579771214
 30
0.0
 10
71.46931847658946
 20
51.18508980328257
 30
0.0
  0
SPLINE
  5
186
330
1F
100
AcDbEntity
  8
0
  6
Continuous
 62
     7
370
    30
100
AcDbSpline
210
0.0
220
0.0
230
1.0
 70
     8
 71
     3
 72
    10
 73
     6
 74
     0
 42
0.000000001
 43
0.00000001
 40
0.0
 40
0.0
 40
0.0
 40
0.0
 40
0.499236602611826
 40
0.7516224190293983
 40
1.0
 40
1.0
 40
1.0
 40
1.0
 10
71.82494586435153
 20
51.25479254590388
 30
0.0
 10
71.79360326030377
 20
51.22317790833115
 30
0.0
 10
71.74641560669458
 20
51.17558069641832
 30
0.0
 10
71.66152284879341
 20
51.14315949007062
 30
0.0
 10
71.61682280464072
 20
51.14002344266789
 30
0.0
 10
71.59465167772963
 20
51.1384679698203
 30
0.0
  0
SPLINE
  5
187
330
1F
100
AcDbEntity
  8
0
  6
Continuous
 62
     7
370
    30
100
AcDbSpline
210
0.0
220
0.0
230
1.0
 70
     8
 71
     3
 72
    14
 73
    10
 74
     0
 42
0.000000001
 43
0.00000001
 40
0.0
 40
0.0
 40
0.0
 40
0.0
 40
0.0626404775344687
 40
0.1252646675948509
 40
0.2502402646175292
 40
0.3738363673032047
 40
0.500200724800867
 40
0.7497246227992448
 40
1.0
 40
1.0
 40
1.0
 40
1.0
 10
71.92060666260318
 20
50.1655269176517
 30
0.0
 10
71.92015523339946
 20
50.14392016582966
 30
0.0
 10
71.91925249237043
 20
50.10071228026871
 30
0.0
 10
71.90669937792264
 20
50.0152618266068
 30
0.0
 10
71.8756562843729
 20
49.91164097616477
 30
0.0
 10
71.80601933095194
 20
49.80114932827354
 30
0.0
 10
71.6787623381363
 20
49.68355132594096
 30
0.0
 10
71.47901920384393
 20
49.59040991457499
 30
0.0
 10
71.3090693557138
 20
49.56101366999912
 30
0.0
 10
71.22396666658119
 20
49.5462934481729
 30
0.0
  0
SPLINE
  5
188
330
1F
100
AcDbEntity
  8
0
  6
Continuous
 62
     7
370
    30
100
AcDbSpline
210
0.0
220
0.0
230
1.0
 70
     8
 71
     3
 72
     9
 73
     5
 74
     0
 42
0.000000001
 43
0.00000001
 40
0.0
 40
0.0
 40
0.0
 40
0.0
 40
0.4999064542623023
 40
1.0
 40
1.0
 40
1.0
 40
1.0
 10
71.7890731814225
 20
50.55971071075688
 30
0.0
 10
71.82759530174302
 20
50.49964365735056
 30
0.0
 10
71.904653959402
 20
50.37948707026475
 30
0.0
 10
71.91528843166309
 20
50.23685586355035
 30
0.0
 10
71.92060666260318
 20
50.1655269176517
 30
0.0
  0
SPLINE
  5
189
330
1F
100
AcDbEntity
  8
0
  6
Continuous
 62
     7
370
    30
100
AcDbSpline
210
0.0
220
0.0
230
1.0
 70
     8
 71
     3
 72
     9
 73
     5
 74
     0
 42
0.000000001
 43
0.00000001
 40
0.0
 40
0.0
 40
0.0
 40
0.0
 40
0.5009003559431621
 40
1.0
 40
1.0
 40
1.0
 40
1.0
 10
71.47507591274574
 20
50.77058752018998
 30
0.0
 10
71.53361842573668
 20
50.74444260044077
 30
0.0
 10
71.65049299429374
 20
50.69224675062949
 30
0.0
 10
71.74293527301629
 20
50.60383632347875
 30
0.0
 10
71.7890731814225
 20
50.55971071075688
 30
0.0
  0
SPLINE
  5
18A
330
1F
100
AcDbEntity
  8
0
  6
Continuous
 62
     7
370
    30
100
AcDbSpline
210
0.0
220
0.0
230
1.0
 70
     8
 71
     3
 72
    11
 73
     7
 74
     0
 42
0.000000001
 43
0.00000001
 40
0.0
 40
0.0
 40
0.0
 40
0.0
 40
0.2500583261392718
 40
0.5000258183469213
 40
0.7499644830033205
 40
0.9999999999999999
 40
0.9999999999999999
 40
0.9999999999999999
 40
0.9999999999999999
 10
71.10749127444818
 20
50.84468459196428
 30
0.0
 10
71.13898447720716
 20
50.84375388178579
 30
0.0
 10
71.20195944278842
 20
50.84189279951018
 30
0.0
 10
71.29565177682755
 20
50.82877079679392
 30
0.0
 10
71.38751028358345
 20
50.80589605788891
 30
0.0
 10
71.44588360043544
 20
50.78235855260976
 30
0.0
 10
71.47507591274574
 20
50.77058752018998
 30
0.0
  0
SPLINE
  5
18B
330
1F
100
AcDbEntity
  8
0
  6
Continuous
 62
     7
370
    30
100
AcDbSpline
210
0.0
220
0.0
230
1.0
 70
     8
 71
     3
 72
     9
 73
     5
 74
     0
 42
0.000000001
 43
0.00000001
 40
0.0
 40
0.0
 40
0.0
 40
0.0
 40
0.4997056861155359
 40
1.0
 40
1.0
 40
1.0
 40
1.0
 10
70.69783320751979
 20
50.74994906269053
 30
0.0
 10
70.76306351510337
 20
50.77848613565352
 30
0.0
 10
70.89360096824029
 20
50.83559389679351
 30
0.0
 10
71.03616653302878
 20
50.84165317135493
 30
0.0
 10
71.10749127444818
 20
50.84468459196428
 30
0.0
  0
SPLINE
  5
18C
330
1F
100
AcDbEntity
  8
0
  6
Continuous
 62
     7
370
    30
100
AcDbSpline
210
0.0
220
0.0
230
1.0
 70
     8
 71
     3
 72
    10
 73
     6
 74
     0
 42
0.000000001
 43
0.00000001
 40
0.0
 40
0.0
 40
0.0
 40
0.0
 40
0.250302497359943
 40
0.5004910601260683
 40
1.0
 40
1.0
 40
1.0
 40
1.0
 10
70.44982433420613
 20
50.52704189389983
 30
0.0
 10
70.46626455547843
 20
50.54982035665469
 30
0.0
 10
70.49913751463811
 20
50.59536691369055
 30
0.0
 10
70.57797517162152
 20
50.67606081925564
 30
0.0
 10
70.64990665318147
 20
50.72040403563076
 30
0.0
 10
70.69783320751979
 20
50.74994906269053
 30
0.0
  0
SPLINE
  5
18D
330
1F
100
AcDbEntity
  8
0
  6
Continuous
 62
     7
370
    30
100
AcDbSpline
210
0.0
220
0.0
230
1.0
 70
     8
 71
     3
 72
     9
 73
     5
 74
     0
 42
0.000000001
 43
0.00000001
 40
0.0
 40
0.0
 40
0.0
 40
0.0
 40
0.5003155726060695
 40
1.0
 40
1.0
 40
1.0
 40
1.0
 10
70.35416353595451
 20
50.17748416818717
 30
0.0
 10
70.3574141069526
 20
50.23931626741894
 30
0.0
 10
70.36391114837222
 20
50.36290246504554
 30
0.0
 10
70.4211986578406
 20
50.47235177708482
 30
0.0
 10
70.44982433420613
 20
50.52704189389983
 30
0.0
  0
SPLINE
  5
18E
330
1F
100
AcDbEntity
  8
0
  6
Continuous
 62
     7
370
    30
100
AcDbSpline
210
0.0
220
0.0
230
1.0
 70
     8
 71
     3
 72
     9
 73
     5
 74
     0
 42
0.000000001
 43
0.00000001
 40
0.0
 40
0.0
 40
0.0
 40
0.0
 40
0.4997915701795115
 40
0.9999999999999999
 40
0.9999999999999999
 40
0.9999999999999999
 40
0.9999999999999999
 10
70.45292424139575
 20
49.85191521652082
 30
0.0
 10
70.42361957950118
 20
49.90219514138114
 30
0.0
 10
70.36498581366145
 20
50.0027969279264
 30
0.0
 10
70.35777196424439
 20
50.1192389081129
 30
0.0
 10
70.35416353595451
 20
50.17748416818717
 30
0.0
  0
SPLINE
  5
18F
330
1F
100
AcDbEntity
  8
0
  6
Continuous
 62
     7
370
    30
100
AcDbSpline
210
0.0
220
0.0
230
1.0
 70
     8
 71
     3
 72
    11
 73
     7
 74
     0
 42
0.000000001
 43
0.00000001
 40
0.0
 40
0.0
 40
0.0
 40
0.0
 40
0.2500444579665106
 40
0.4999913262899778
 40
0.7499449001162276
 40
0.9999999999999999
 40
0.9999999999999999
 40
0.9999999999999999
 40
0.9999999999999999
 10
70.77267894622878
 20
49.56993949551175
 30
0.0
 10
70.74162963872982
 20
49.58791492515867
 30
0.0
 10
70.67954314194024
 20
49.62385876883705
 30
0.0
 10
70.59533756868028
 20
49.69108210752454
 30
0.0
 10
70.51853630502013
 20
49.76659751890844
 30
0.0
 10
70.47479788961178
 20
49.82347213454647
 30
0.0
 10
70.45292424139575
 20
49.85191521652082
 30
0.0
  0
LINE
  5
190
330
1F
100
AcDbEntity
  8
0
  6
Continuous
 62
     7
370
    30
100
AcDbLine
 10
70.8174089725
 20
49.6260658833
 30
0.0
 11
70.7726789462
 21
49.5699394955
 31
0.0
  0
SPLINE
  5
191
330
1F
100
AcDbEntity
  8
0
  6
Continuous
 62
     7
370
    30
100
AcDbSpline
210
0.0
220
0.0
230
1.0
 70
     8
 71
     3
 72
    10
 73
     6
 74
     0
 42
0.000000001
 43
0.00000001
 40
0.0
 40
0.0
 40
0.0
 40
0.0
 40
0.2503052070800379
 40
0.5004915416203036
 40
1.0
 40
1.0
 40
1.0
 40
1.0
 10
70.5995153459628
 20
49.84308779191265
 30
0.0
 10
70.61383481162464
 20
49.82152267577364
 30
0.0
 10
70.6424669424855
 20
49.77840268499303
 30
0.0
 10
70.710620832068
 20
49.69992595584453
 30
0.0
 10
70.77470849173984
 20
49.65559969289852
 30
0.0
 10
70.8174089725037
 20
49.62606588330159
 30
0.0
  0
SPLINE
  5
192
330
1F
100
AcDbEntity
  8
0
  6
Continuous
 62
     7
370
    30
100
AcDbSpline
210
0.0
220
0.0
230
1.0
 70
     8
 71
     3
 72
    10
 73
     6
 74
     0
 42
0.000000001
 43
0.00000001
 40
0.0
 40
0.0
 40
0.0
 40
0.0
 40
0.2503547635316155
 40
0.5005527712952413
 40
1.0
 40
1.0
 40
1.0
 40
1.0
 10
70.50961198386744
 20
50.12965714510569
 30
0.0
 10
70.51084592661073
 20
50.10425662540735
 30
0.0
 10
70.51331303948307
 20
50.05347149015373
 30
0.0
 10
70.53700854670015
 20
49.95396523047989
 30
0.0
 10
70.57452212205234
 20
49.88742192326185
 30
0.0
 10
70.5995153459628
 20
49.84308779191265
 30
0.0
  0
LINE
  5
193
330
1F
100
AcDbEntity
  8
0
  6
Continuous
 62
     7
370
    30
100
AcDbLine
 10
70.5543424758
 20
50.3568139388
 30
0.0
 11
70.5096119839
 21
50.1296571451
 31
0.0
  0
SPLINE
  5
194
330
1F
100
AcDbEntity
  8
0
  6
Continuous
 62
     7
370
    30
100
AcDbSpline
210
0.0
220
0.0
230
1.0
 70
     8
 71
     3
 72
    12
 73
     8
 74
     0
 42
0.000000001
 43
0.00000001
 40
0.0
 40
0.0
 40
0.0
 40
0.0
 40
0.125289779719097
 40
0.2505314127730147
 40
0.5004781429250749
 40
0.7502099906757874
 40
1.0
 40
1.0
 40
1.0
 40
1.0
 10
71.10749127444818
 20
50.63115345498586
 30
0.0
 10
71.08051089417022
 20
50.63045964694091
 30
0.0
 10
71.02656050170131
 20
50.62907229746925
 30
0.0
 10
70.91954357360478
 20
50.61497612371346
 30
0.0
 10
70.78961089448448
 20
50.5760984961256
 30
0.0
 10
70.65063345889223
 20
50.48750249252902
 30
0.0
 10
70.58644196153463
 20
50.40038017139364
 30
0.0
 10
70.55434247580365
 20
50.35681393880436
 30
0.0
  0
SPLINE
  5
195
330
1F
100
AcDbEntity
  8
0
  6
Continuous
 62
     7
370
    30
100
AcDbSpline
210
0.0
220
0.0
230
1.0
 70
     8
 71
     3
 72
     9
 73
     5
 74
     0
 42
0.000000001
 43
0.00000001
 40
0.0
 40
0.0
 40
0.0
 40
0.0
 40
0.499997046124219
 40
1.0
 40
1.0
 40
1.0
 40
1.0
 10
71.22396666658118
 20
50.6223394181397
 30
0.0
 10
71.20463984163833
 20
50.62492895078319
 30
0.0
 10
71.1659859633951
 20
50.63010804666697
 30
0.0
 10
71.12698958089081
 20
50.63080498417379
 30
0.0
 10
71.10749127444818
 20
50.63115345498586
 30
0.0
  0
LINE
  5
196
330
1F
100
AcDbEntity
  8
0
  6
Continuous
 62
     7
370
    30
100
AcDbLine
 10
71.2239666666
 20
50.6223394181
 30
0.0
 11
71.2239666666
 21
49.5462934482
 31
0.0
  0
LINE
  5
197
330
1F
100
AcDbEntity
  8
0
  6
Continuous
 62
     7
370
    30
100
AcDbLine
 10
72.6380612525
 20
46.9999748743
 30
0.0
 11
72.0521401438
 21
46.9682419202
 31
0.0
  0
LINE
  5
198
330
1F
100
AcDbEntity
  8
0
  6
Continuous
 62
     7
370
    30
100
AcDbLine
 10
72.6380612525
 20
47.9414456053
 30
0.0
 11
72.6380612525
 21
46.9999748743
 31
0.0
  0
LINE
  5
199
330
1F
100
AcDbEntity
  8
0
  6
Continuous
 62
     7
370
    30
100
AcDbLine
 10
72.5424009199
 20
47.9414456053
 30
0.0
 11
72.6380612525
 21
47.9414456053
 31
0.0
  0
LINE
  5
19A
330
1F
100
AcDbEntity
  8
0
  6
Continuous
 62
     7
370
    30
100
AcDbLine
 10
72.5424009199
 20
47.9414456053
 30
0.0
 11
72.5424009199
 21
47.880725469
 31
0.0
  0
SPLINE
  5
19B
330
1F
100
AcDbEntity
  8
0
  6
Continuous
 62
     7
370
    30
100
AcDbSpline
210
0.0
220
0.0
230
1.0
 70
     8
 71
     3
 72
    13
 73
     9
 74
     0
 42
0.000000001
 43
0.00000001
 40
0.0
 40
0.0
 40
0.0
 40
0.0
 40
0.2500360560722905
 40
0.377824542195775
 40
0.5000063323097071
 40
0.62220255751293
 40
0.7499707584777252
 40
1.0
 40
1.0
 40
1.0
 40
1.0
 10
72.43478240546781
 20
47.79086192090105
 30
0.0
 10
72.44940543955397
 20
47.79149385664451
 30
0.0
 10
72.47150201732721
 20
47.79244876225579
 30
0.0
 10
72.49868537185993
 20
47.80172148067453
 30
0.0
 10
72.51606900602012
 20
47.81270872515459
 30
0.0
 10
72.52929801702008
 20
47.82718115153747
 30
0.0
 10
72.54048333286934
 20
47.84987169049297
 30
0.0
 10
72.54163724922957
 20
47.86843808611045
 30
0.0
 10
72.5424009199162
 20
47.88072546895634
 30
0.0
  0
LINE
  5
19C
330
1F
100
AcDbEntity
  8
0
  6
Continuous
 62
     7
370
    30
100
AcDbLine
 10
70.6291877489
 20
47.7908619209
 30
0.0
 11
72.4347824055
 21
47.7908619209
 31
0.0
  0
SPLINE
  5
19D
330
1F
100
AcDbEntity
  8
0
  6
Continuous
 62
     7
370
    30
100
AcDbSpline
210
0.0
220
0.0
230
1.0
 70
     8
 71
     3
 72
    13
 73
     9
 74
     0
 42
0.000000001
 43
0.00000001
 40
0.0
 40
0.0
 40
0.0
 40
0.0
 40
0.1251897024368015
 40
0.2501784968298736
 40
0.368811919259671
 40
0.4998900011253726
 40
0.749444557134527
 40
1.0
 40
1.0
 40
1.0
 40
1.0
 10
70.47373930093842
 20
47.88072546895632
 30
0.0
 10
70.47408094971426
 20
47.87317067662074
 30
0.0
 10
70.47476369897811
 20
47.85807321609811
 30
0.0
 10
70.4846141233066
 20
47.83715687403788
 30
0.0
 10
70.50132086327771
 20
47.81934692350123
 30
0.0
 10
70.53122370803945
 20
47.8024623776809
 30
0.0
 10
70.57556323123583
 20
47.79225958609547
 30
0.0
 10
70.61128907653675
 20
47.79132843048346
 30
0.0
 10
70.62918774885136
 20
47.79086192090104
 30
0.0
  0
LINE
  5
19E
330
1F
100
AcDbEntity
  8
0
  6
Continuous
 62
     7
370
    30
100
AcDbLine
 10
70.4737393009
 20
47.9516272894
 30
0.0
 11
70.4737393009
 21
47.880725469
 31
0.0
  0
LINE
  5
19F
330
1F
100
AcDbEntity
  8
0
  6
Continuous
 62
     7
370
    30
100
AcDbLine
 10
70.3780789683
 20
47.9516272894
 30
0.0
 11
70.4737393009
 21
47.9516272894
 31
0.0
  0
LINE
  5
1A0
330
1F
100
AcDbEntity
  8
0
  6
Continuous
 62
     7
370
    30
100
AcDbLine
 10
70.3780789683
 20
47.9516272894
 30
0.0
 11
70.3780789683
 21
46.9920046157
 31
0.0
  0
LINE
  5
1A1
330
1F
100
AcDbEntity
  8
0
  6
Continuous
 62
     7
370
    30
100
AcDbLine
 10
70.99987276
 20
46.9136743336
 30
0.0
 11
70.3780789683
 21
46.9920046157
 31
0.0
  0
LINE
  5
1A2
330
1F
100
AcDbEntity
  8
0
  6
Continuous
 62
     7
370
    30
100
AcDbLine
 10
70.99987276
 20
46.9682419202
 30
0.0
 11
70.99987276
 21
46.9136743336
 31
0.0
  0
SPLINE
  5
1A3
330
1F
100
AcDbEntity
  8
0
  6
Continuous
 62
     7
370
    30
100
AcDbSpline
210
0.0
220
0.0
230
1.0
 70
     8
 71
     3
 72
     9
 73
     5
 74
     0
 42
0.000000001
 43
0.00000001
 40
0.0
 40
0.0
 40
0.0
 40
0.0
 40
0.4986142302504449
 40
1.0
 40
1.0
 40
1.0
 40
1.0
 10
70.59641543877322
 20
47.12246893856714
 30
0.0
 10
70.65643382828993
 20
47.08783221256742
 30
0.0
 10
70.77680421861467
 20
47.01836623286137
 30
0.0
 10
70.92537931895171
 20
46.98498086738071
 30
0.0
 10
70.99987275999982
 20
46.96824192021082
 30
0.0
  0
SPLINE
  5
1A4
330
1F
100
AcDbEntity
  8
0
  6
Continuous
 62
     7
370
    30
100
AcDbSpline
210
0.0
220
0.0
230
1.0
 70
     8
 71
     3
 72
    10
 73
     6
 74
     0
 42
0.000000001
 43
0.00000001
 40
0.0
 40
0.0
 40
0.0
 40
0.0
 40
0.5000121286580995
 40
0.7501658101789229
 40
1.0
 40
1.0
 40
1.0
 40
1.0
 10
70.47373930093843
 20
47.44705441359469
 30
0.0
 10
70.47722415458463
 20
47.387855784299
 30
0.0
 10
70.48245246387758
 20
47.29904036330856
 30
0.0
 10
70.52976687356362
 20
47.19032632142787
 30
0.0
 10
70.57420871646626
 20
47.14507842840275
 30
0.0
 10
70.59641543877322
 20
47.12246893856713
 30
0.0
  0
SPLINE
  5
1A5
330
1F
100
AcDbEntity
  8
0
  6
Continuous
 62
     7
370
    30
100
AcDbSpline
210
0.0
220
0.0
230
1.0
 70
     8
 71
     3
 72
    12
 73
     8
 74
     0
 42
0.000000001
 43
0.00000001
 40
0.0
 40
0.0
 40
0.0
 40
0.0
 40
0.2496290481544439
 40
0.3738590265714217
 40
0.4999515749562569
 40
0.7493924061910544
 40
1.0
 40
1.0
 40
1.0
 40
1.0
 10
70.62918774885136
 20
47.59665136177132
 30
0.0
 10
70.60544782028433
 20
47.59526395810862
 30
0.0
 10
70.56989351820864
 20
47.59318610143838
 30
0.0
 10
70.52900223632444
 20
47.57358967946728
 30
0.0
 10
70.49715768423239
 20
47.54594847983552
 30
0.0
 10
70.47642554719997
 20
47.50124231260226
 30
0.0
 10
70.4746361081245
 20
47.46514512177899
 30
0.0
 10
70.47373930093843
 20
47.44705441359469
 30
0.0
  0
LINE
  5
1A6
330
1F
100
AcDbEntity
  8
0
  6
Continuous
 62
     7
370
    30
100
AcDbLine
 10
71.5140489685
 20
47.5966513618
 30
0.0
 11
70.6291877489
 21
47.5966513618
 31
0.0
  0
LINE
  5
1A7
330
1F
100
AcDbEntity
  8
0
  6
Continuous
 62
     7
370
    30
100
AcDbLine
 10
71.5140489685
 20
47.5966513618
 30
0.0
 11
71.5140489685
 21
47.4014098286
 31
0.0
  0
SPLINE
  5
1A8
330
1F
100
AcDbEntity
  8
0
  6
Continuous
 62
     7
370
    30
100
AcDbSpline
210
0.0
220
0.0
230
1.0
 70
     8
 71
     3
 72
    10
 73
     6
 74
     0
 42
0.000000001
 43
0.00000001
 40
0.0
 40
0.0
 40
0.0
 40
0.0
 40
0.250433647172388
 40
0.5003357684534723
 40
1.0
 40
1.0
 40
1.0
 40
1.0
 10
71.44850341704685
 20
47.30520001564215
 30
0.0
 10
71.45989637187402
 20
47.30976327606049
 30
0.0
 10
71.48265810087001
 20
47.31888011173268
 30
0.0
 10
71.51035090274843
 20
47.35266107438942
 30
0.0
 10
71.51256982510903
 20
47.3819114196173
 30
0.0
 10
71.51404896852571
 20
47.40140982855151
 30
0.0
  0
LINE
  5
1A9
330
1F
100
AcDbEntity
  8
0
  6
Continuous
 62
     7
370
    30
100
AcDbLine
 10
71.2239666666
 20
47.2852888047
 30
0.0
 11
71.448503417
 21
47.3052000156
 31
0.0
  0
LINE
  5
1AA
330
1F
100
AcDbEntity
  8
0
  6
Continuous
 62
     7
370
    30
100
AcDbLine
 10
71.119448525
 20
47.2852888047
 30
0.0
 11
71.2239666666
 21
47.2852888047
 31
0.0
  0
LINE
  5
1AB
330
1F
100
AcDbEntity
  8
0
  6
Continuous
 62
     7
370
    30
100
AcDbLine
 10
71.119448525
 20
47.2852888047
 30
0.0
 11
71.119448525
 21
47.2157143517
 31
0.0
  0
LINE
  5
1AC
330
1F
100
AcDbEntity
  8
0
  6
Continuous
 62
     7
370
    30
100
AcDbLine
 10
71.9653366889
 20
47.2157143517
 30
0.0
 11
71.119448525
 21
47.2157143517
 31
0.0
  0
LINE
  5
1AD
330
1F
100
AcDbEntity
  8
0
  6
Continuous
 62
     7
370
    30
100
AcDbLine
 10
71.9653366889
 20
47.2852888047
 30
0.0
 11
71.9653366889
 21
47.2157143517
 31
0.0
  0
LINE
  5
1AE
330
1F
100
AcDbEntity
  8
0
  6
Continuous
 62
     7
370
    30
100
AcDbLine
 10
71.8249458644
 20
47.2852888047
 30
0.0
 11
71.9653366889
 21
47.2852888047
 31
0.0
  0
SPLINE
  5
1AF
330
1F
100
AcDbEntity
  8
0
  6
Continuous
 62
     7
370
    30
100
AcDbSpline
210
0.0
220
0.0
230
1.0
 70
     8
 71
     3
 72
     9
 73
     5
 74
     0
 42
0.000000001
 43
0.00000001
 40
0.0
 40
0.0
 40
0.0
 40
0.0
 40
0.4987792260676873
 40
1.0
 40
1.0
 40
1.0
 40
1.0
 10
71.67259732362825
 20
47.30290942776988
 30
0.0
 10
71.69728922724309
 20
47.2969892798492
 30
0.0
 10
71.74679390250692
 20
47.28512000460418
 30
0.0
 10
71.7988528422723
 20
47.28523244646277
 30
0.0
 10
71.82494586435158
 20
47.28528880465816
 30
0.0
  0
SPLINE
  5
1B0
330
1F
100
AcDbEntity
  8
0
  6
Continuous
 62
     7
370
    30
100
AcDbSpline
210
0.0
220
0.0
230
1.0
 70
     8
 71
     3
 72
    11
 73
     7
 74
     0
 42
0.000000001
 43
0.00000001
 40
0.0
 40
0.0
 40
0.0
 40
0.0
 40
0.2504974437768023
 40
0.5003836938750953
 40
0.749909706097114
 40
1.0
 40
1.0
 40
1.0
 40
1.0
 10
71.60660939392645
 20
47.40140982855151
 30
0.0
 10
71.60707583315813
 20
47.39160111752648
 30
0.0
 10
71.60800757354717
 20
47.37200762794489
 30
0.0
 10
71.61894423296906
 20
47.34388860737254
 30
0.0
 10
71.64004351174158
 20
47.31886342823595
 30
0.0
 10
71.6617378855733
 20
47.30823143062452
 30
0.0
 10
71.67259732362825
 20
47.30290942776988
 30
0.0
  0
LINE
  5
1B1
330
1F
100
AcDbEntity
  8
0
  6
Continuous
 62
     7
370
    30
100
AcDbLine
 10
71.6066093939
 20
47.5966513618
 30
0.0
 11
71.6066093939
 21
47.4014098286
 31
0.0
  0
LINE
  5
1B2
330
1F
100
AcDbEntity
  8
0
  6
Continuous
 62
     7
370
    30
100
AcDbLine
 10
72.4347824055
 20
47.5966513618
 30
0.0
 11
71.6066093939
 21
47.5966513618
 31
0.0
  0
SPLINE
  5
1B3
330
1F
100
AcDbEntity
  8
0
  6
Continuous
 62
     7
370
    30
100
AcDbSpline
210
0.0
220
0.0
230
1.0
 70
     8
 71
     3
 72
    12
 73
     8
 74
     0
 42
0.000000001
 43
0.00000001
 40
0.0
 40
0.0
 40
0.0
 40
0.0
 40
0.4998677254205899
 40
0.634983185647452
 40
0.750249776182892
 40
0.8750212934916592
 40
1.0
 40
1.0
 40
1.0
 40
1.0
 10
72.54240091991622
 20
47.4378827488799
 30
0.0
 10
72.5412431107549
 20
47.47127794599874
 30
0.0
 10
72.53977234296529
 20
47.51369994600684
 30
0.0
 10
72.51408203774821
 20
47.56049607058582
 30
0.0
 10
72.49419410288166
 20
47.58060678986152
 30
0.0
 10
72.46709359522237
 20
47.59468240773918
 30
0.0
 10
72.44555875705018
 20
47.59599468087963
 30
0.0
 10
72.43478240546781
 20
47.59665136177134
 30
0.0
  0
SPLINE
  5
1B4
330
1F
100
AcDbEntity
  8
0
  6
Continuous
 62
     7
370
    30
100
AcDbSpline
210
0.0
220
0.0
230
1.0
 70
     8
 71
     3
 72
     9
 73
     5
 74
     0
 42
0.000000001
 43
0.00000001
 40
0.0
 40
0.0
 40
0.0
 40
0.0
 40
0.4992009133988846
 40
0.9999999999999999
 40
0.9999999999999999
 40
0.9999999999999999
 40
0.9999999999999999
 10
72.4316824982782
 20
47.1645013890047
 30
0.0
 10
72.46572983736436
 20
47.20520188175297
 30
0.0
 10
72.53393351682949
 20
47.28673316836692
 30
0.0
 10
72.53957544662697
 20
47.38744590324424
 30
0.0
 10
72.54240091991622
 20
47.4378827488799
 30
0.0
  0
SPLINE
  5
1B5
330
1F
100
AcDbEntity
  8
0
  6
Continuous
 62
     7
370
    30
100
AcDbSpline
210
0.0
220
0.0
230
1.0
 70
     8
 71
     3
 72
    10
 73
     6
 74
     0
 42
0.000000001
 43
0.00000001
 40
0.0
 40
0.0
 40
0.0
 40
0.0
 40
0.5003160998594215
 40
0.7504811710951583
 40
1.0
 40
1.0
 40
1.0
 40
1.0
 10
72.05214014378387
 20
47.02403512734961
 30
0.0
 10
72.12099935858046
 20
47.03969870910684
 30
0.0
 10
72.22428914712766
 20
47.0631943015613
 30
0.0
 10
72.35407843382731
 20
47.11026958710315
 30
0.0
 10
72.40583678986131
 20
47.14643971467375
 30
0.0
 10
72.4316824982782
 20
47.1645013890047
 30
0.0
  0
LINE
  5
1B6
330
1F
100
AcDbEntity
  8
0
  6
Continuous
 62
     7
370
    30
100
AcDbLine
 10
72.0521401438
 20
47.0240351273
 30
0.0
 11
72.0521401438
 21
46.9682419202
 31
0.0
  0
LINE
  5
1B7
330
1F
100
AcDbEntity
  8
0
  6
Continuous
 62
     7
370
    30
100
AcDbLine
 10
71.4750759127
 20
46.174553921
 30
0.0
 11
71.3586005206
 21
46.174553921
 31
0.0
  0
LINE
  5
1B8
330
1F
100
AcDbEntity
  8
0
  6
Continuous
 62
     7
370
    30
100
AcDbLine
 10
71.4750759127
 20
46.771899098
 30
0.0
 11
71.4750759127
 21
46.174553921
 31
0.0
  0
LINE
  5
1B9
330
1F
100
AcDbEntity
  8
0
  6
Continuous
 62
     7
370
    30
100
AcDbLine
 10
71.3586005206
 20
46.771899098
 30
0.0
 11
71.4750759127
 21
46.771899098
 31
0.0
  0
LINE
  5
1BA
330
1F
100
AcDbEntity
  8
0
  6
Continuous
 62
     7
370
    30
100
AcDbLine
 10
71.3586005206
 20
46.771899098
 30
0.0
 11
71.3586005206
 21
46.174553921
 31
0.0
  0
SPLINE
  5
1BB
330
1F
100
AcDbEntity
  8
0
  6
Continuous
 62
     7
370
    30
100
AcDbSpline
210
0.0
220
0.0
230
1.0
 70
     8
 71
     3
 72
    12
 73
     8
 74
     0
 42
0.000000001
 43
0.00000001
 40
0.0
 40
0.0
 40
0.0
 40
0.0
 40
0.1252735979286566
 40
0.2504465698836857
 40
0.4999038902704822
 40
0.7497502155260275
 40
1.0
 40
1.0
 40
1.0
 40
1.0
 10
72.66197668490013
 20
45.94604601103854
 30
0.0
 10
72.66087930390893
 20
45.94220186843562
 30
0.0
 10
72.65868542339743
 20
45.93451667103599
 30
0.0
 10
72.63421523720956
 20
45.92212147143601
 30
0.0
 10
72.57053477683166
 20
45.91125952014735
 30
0.0
 10
72.44965150316767
 20
45.90489825002734
 30
0.0
 10
72.35207602402117
 20
45.90338685417384
 30
0.0
 10
72.30324892428716
 20
45.90263054657768
 30
0.0
  0
SPLINE
  5
1BC
330
1F
100
AcDbEntity
  8
0
  6
Continuous
 62
     7
370
    30
100
AcDbSpline
210
0.0
220
0.0
230
1.0
 70
     8
 71
     3
 72
     9
 73
     5
 74
     0
 42
0.000000001
 43
0.00000001
 40
0.0
 40
0.0
 40
0.0
 40
0.0
 40
0.4999104228527197
 40
0.9999999999999999
 40
0.9999999999999999
 40
0.9999999999999999
 40
0.9999999999999999
 10
72.54240091991623
 20
46.00966325912665
 30
0.0
 10
72.5775883835801
 20
45.99831691035138
 30
0.0
 10
72.64797592113749
 20
45.97562014657812
 30
0.0
 10
72.65730920627988
 20
45.95590523355551
 30
0.0
 10
72.66197668490013
 20
45.94604601103854
 30
0.0
  0
SPLINE
  5
1BD
330
1F
100
AcDbEntity
  8
0
  6
Continuous
 62
     7
370
    30
100
AcDbSpline
210
0.0
220
0.0
230
1.0
 70
     8
 71
     3
 72
     9
 73
     5
 74
     0
 42
0.000000001
 43
0.00000001
 40
0.0
 40
0.0
 40
0.0
 40
0.0
 40
0.5008331235972363
 40
1.0
 40
1.0
 40
1.0
 40
1.0
 10
72.06409739431938
 20
46.0829397192974
 30
0.0
 10
72.15451570830632
 20
46.07411325599719
 30
0.0
 10
72.33505151899215
 20
46.05648969460648
 30
0.0
 10
72.47336127235437
 20
46.02525472255842
 30
0.0
 10
72.54240091991623
 20
46.00966325912665
 30
0.0
  0
SPLINE
  5
1BE
330
1F
100
AcDbEntity
  8
0
  6
Continuous
 62
     7
370
    30
100
AcDbSpline
210
0.0
220
0.0
230
1.0
 70
     8
 71
     3
 72
    11
 73
     7
 74
     0
 42
0.000000001
 43
0.00000001
 40
0.0
 40
0.0
 40
0.0
 40
0.0
 40
0.2500221086204374
 40
0.5000120375701137
 40
0.7499933209154527
 40
0.9999999999999999
 40
0.9999999999999999
 40
0.9999999999999999
 40
0.9999999999999999
 10
71.50209125232895
 20
46.10413848374079
 30
0.0
 10
71.54946088581433
 20
46.10393019454878
 30
0.0
 10
71.6441940559674
 20
46.1035136429731
 30
0.0
 10
71.78568421692061
 20
46.09937988094102
 30
0.0
 10
71.92638145882675
 20
46.09315108828991
 30
0.0
 10
72.01819052807828
 20
46.08634362421807
 30
0.0
 10
72.06409739431938
 20
46.0829397192974
 30
0.0
  0
SPLINE
  5
1BF
330
1F
100
AcDbEntity
  8
0
  6
Continuous
 62
     7
370
    30
100
AcDbSpline
210
0.0
220
0.0
230
1.0
 70
     8
 71
     3
 72
    11
 73
     7
 74
     0
 42
0.000000001
 43
0.00000001
 40
0.0
 40
0.0
 40
0.0
 40
0.0
 40
0.2499446846687233
 40
0.4999291388150562
 40
0.7499452022823263
 40
1.0
 40
1.0
 40
1.0
 40
1.0
 10
70.82936668870052
 20
46.07276967678258
 30
0.0
 10
70.88346855937795
 20
46.07796750885297
 30
0.0
 10
70.99168090905005
 20
46.08836400003699
 30
0.0
 10
71.1604419481666
 20
46.09768933592819
 30
0.0
 10
71.33080267411479
 20
46.10328334905721
 30
0.0
 10
71.44499211131391
 20
46.10385342412739
 30
0.0
 10
71.50209125232895
 20
46.10413848374079
 30
0.0
  0
SPLINE
  5
1C0
330
1F
100
AcDbEntity
  8
0
  6
Continuous
 62
     7
370
    30
100
AcDbSpline
210
0.0
220
0.0
230
1.0
 70
     8
 71
     3
 72
    11
 73
     7
 74
     0
 42
0.000000001
 43
0.00000001
 40
0.0
 40
0.0
 40
0.0
 40
0.0
 40
0.2500229278198408
 40
0.4999783364187512
 40
0.7499482008894832
 40
0.9999999999999999
 40
0.9999999999999999
 40
0.9999999999999999
 40
0.9999999999999999
 10
70.50385454771121
 20
46.01852525908539
 30
0.0
 10
70.52750761268854
 20
46.02384317083551
 30
0.0
 10
70.57480735508292
 20
46.03447755822243
 30
0.0
 10
70.65498169619059
 20
46.04888304458028
 30
0.0
 10
70.73957224549358
 20
46.0619749854193
 30
0.0
 10
70.79943193805163
 20
46.06917105327371
 30
0.0
 10
70.82936668870052
 20
46.07276967678258
 30
0.0
  0
SPLINE
  5
1C1
330
1F
100
AcDbEntity
  8
0
  6
Continuous
 62
     7
370
    30
100
AcDbSpline
210
0.0
220
0.0
230
1.0
 70
     8
 71
     3
 72
     9
 73
     5
 74
     0
 42
0.000000001
 43
0.00000001
 40
0.0
 40
0.0
 40
0.0
 40
0.0
 40
0.4993073767043398
 40
1.0
 40
1.0
 40
1.0
 40
1.0
 10
70.35416353595456
 20
45.95135035876223
 30
0.0
 10
70.36194000011703
 20
45.96220579878415
 30
0.0
 10
70.37751450296895
 20
45.98394679546954
 30
0.0
 10
70.46170232583223
 20
46.00698846508201
 30
0.0
 10
70.50385454771121
 20
46.01852525908539
 30
0.0
  0
SPLINE
  5
1C2
330
1F
100
AcDbEntity
  8
0
  6
Continuous
 62
     7
370
    30
100
AcDbSpline
210
0.0
220
0.0
230
1.0
 70
     8
 71
     3
 72
     9
 73
     5
 74
     0
 42
0.000000001
 43
0.00000001
 40
0.0
 40
0.0
 40
0.0
 40
0.0
 40
0.5005457935179248
 40
1.0
 40
1.0
 40
1.0
 40
1.0
 10
70.497654733332
 20
45.91167508576104
 30
0.0
 10
70.45696249943137
 20
45.91570376934965
 30
0.0
 10
70.37566677299115
 20
45.92375235079971
 30
0.0
 10
70.36132606358926
 20
45.94215771979545
 30
0.0
 10
70.35416353595456
 20
45.95135035876223
 30
0.0
  0
SPLINE
  5
1C3
330
1F
100
AcDbEntity
  8
0
  6
Continuous
 62
     7
370
    30
100
AcDbSpline
210
0.0
220
0.0
230
1.0
 70
     8
 71
     3
 72
    10
 73
     6
 74
     0
 42
0.000000001
 43
0.00000001
 40
0.0
 40
0.0
 40
0.0
 40
0.0
 40
0.2502379195038898
 40
0.5003746370667305
 40
1.0
 40
1.0
 40
1.0
 40
1.0
 10
70.84132440489729
 20
45.90175184372852
 30
0.0
 10
70.80890406442754
 20
45.90197536263948
 30
0.0
 10
70.74407649501563
 20
45.90242231006525
 30
0.0
 10
70.62359562533399
 20
45.90440203063108
 30
0.0
 10
70.54801802472376
 20
45.90876661823317
 30
0.0
 10
70.497654733332
 20
45.91167508576104
 30
0.0
  0
SPLINE
  5
1C4
330
1F
100
AcDbEntity
  8
0
  6
Continuous
 62
     7
370
    30
100
AcDbSpline
210
0.0
220
0.0
230
1.0
 70
     8
 71
     3
 72
    10
 73
     6
 74
     0
 42
0.000000001
 43
0.00000001
 40
0.0
 40
0.0
 40
0.0
 40
0.0
 40
0.3324479915264598
 40
0.6666210858965852
 40
1.0
 40
1.0
 40
1.0
 40
1.0
 10
71.50209125232895
 20
45.90183752540539
 30
0.0
 10
71.42736024560855
 20
45.90180889557293
 30
0.0
 10
71.27751044618174
 20
45.90175148734518
 30
0.0
 10
71.05493598788495
 20
45.90124251241906
 30
0.0
 10
70.91247176978537
 20
45.90158220133359
 30
0.0
 10
70.84132440489729
 20
45.90175184372852
 30
0.0
  0
SPLINE
  5
1C5
330
1F
100
AcDbEntity
  8
0
  6
Continuous
 62
     7
370
    30
100
AcDbSpline
210
0.0
220
0.0
230
1.0
 70
     8
 71
     3
 72
     9
 73
     5
 74
     0
 42
0.000000001
 43
0.00000001
 40
0.0
 40
0.0
 40
0.0
 40
0.0
 40
0.4996420299148949
 40
1.0
 40
1.0
 40
1.0
 40
1.0
 10
72.30324892428716
 20
45.90263054657768
 30
0.0
 10
72.17450117091975
 20
45.90211701808124
 30
0.0
 10
71.9168211807289
 20
45.90108922525019
 30
0.0
 10
71.6404005286785
 20
45.90158797299581
 30
0.0
 10
71.50209125232895
 20
45.90183752540539
 30
0.0
  0
LINE
  5
1C6
330
1F
100
AcDbEntity
  8
0
  6
Continuous
 62
     7
370
    30
100
AcDbLine
 10
70.4498243342
 20
50.5270418939
 30
0.0
 11
70.4498243342
 21
50.5255273306
 31
0.0
  0
SPLINE
  5
1C7
330
1F
100
AcDbEntity
  8
0
  6
Continuous
 62
     7
370
    30
100
AcDbSpline
210
0.0
220
0.0
230
1.0
 70
     8
 71
     3
 72
     9
 73
     5
 74
     0
 42
0.000000001
 43
0.00000001
 40
0.0
 40
0.0
 40
0.0
 40
0.0
 40
0.4559682996506628
 40
1.0
 40
1.0
 40
1.0
 40
1.0
 10
70.357811060818
 20
50.20700104020575
 30
0.0
 10
70.36085167006138
 20
50.25847308015489
 30
0.0
 10
70.36752013636861
 20
50.37135820832847
 30
0.0
 10
70.42082486956735
 20
50.4712066260776
 30
0.0
 10
70.44982433420613
 20
50.52552733056286
 30
0.0
  0
LINE
  5
1C8
330
1F
100
AcDbEntity
  8
0
  6
Continuous
 62
     7
370
    30
100
AcDbLine
 10
70.354163536
 20
50.1774841682
 30
0.0
 11
70.354163536
 21
50.1775954612
 31
0.0
  0
SPLINE
  5
1C9
330
1F
100
AcDbEntity
  8
0
  6
Continuous
 62
     7
370
    30
100
AcDbSpline
210
0.0
220
0.0
230
1.0
 70
     8
 71
     3
 72
     9
 73
     5
 74
     0
 42
0.000000001
 43
0.00000001
 40
0.0
 40
0.0
 40
0.0
 40
0.0
 40
0.4999914861945404
 40
1.0
 40
1.0
 40
1.0
 40
1.0
 10
70.45292424139575
 20
49.85354072365948
 30
0.0
 10
70.42361944496201
 20
49.90357497200935
 30
0.0
 10
70.3650088540962
 20
50.00364517266552
 30
0.0
 10
70.35777868303926
 20
50.11961137350262
 30
0.0
 10
70.35416353595451
 20
50.17759546123484
 30
0.0
  0
LINE
  5
1CA
330
1F
100
AcDbEntity
  8
0
  6
Continuous
 62
     7
370
    30
100
AcDbLine
 10
70.4529242414
 20
49.8519152165
 30
0.0
 11
70.4529242414
 21
49.8535407237
 31
0.0
  0
SPLINE
  5
1CB
330
1F
100
AcDbEntity
  8
0
  6
Continuous
 62
     7
370
    30
100
AcDbSpline
210
0.0
220
0.0
230
1.0
 70
     8
 71
     3
 72
    13
 73
     9
 74
     0
 42
0.000000001
 43
0.00000001
 40
0.0
 40
0.0
 40
0.0
 40
0.0
 40
0.1248087593460234
 40
0.2495345846230059
 40
0.3729791674018764
 40
0.49936502237132
 40
0.7492170353239136
 40
1.0
 40
1.0
 40
1.0
 40
1.0
 10
71.92060666260318
 20
50.16569374080788
 30
0.0
 10
71.91848905429751
 20
50.12269873446874
 30
0.0
 10
71.91425524481397
 20
50.03673729150658
 30
0.0
 10
71.87528453067758
 20
49.91295895125046
 30
0.0
 10
71.80606823246865
 20
49.80295039486059
 30
0.0
 10
71.67860749668456
 20
49.68589064742924
 30
0.0
 10
71.47894861813795
 20
49.59323419282639
 30
0.0
 10
71.3090659517462
 20
49.56398985983403
 30
0.0
 10
71.22396666658119
 20
49.5493405028064
 30
0.0
  0
LINE
  5
1CC
330
1F
100
AcDbEntity
  8
0
  6
Continuous
 62
     7
370
    30
100
AcDbLine
 10
71.9206066626
 20
50.1655269177
 30
0.0
 11
71.9206066626
 21
50.1656937408
 31
0.0
  0
SPLINE
  5
1CD
330
1F
100
AcDbEntity
  8
0
  6
Continuous
 62
     7
370
    30
100
AcDbSpline
210
0.0
220
0.0
230
1.0
 70
     8
 71
     3
 72
    10
 73
     6
 74
     0
 42
0.000000001
 43
0.00000001
 40
0.0
 40
0.0
 40
0.0
 40
0.0
 40
0.2502796137538471
 40
0.5005813359648814
 40
1.0
 40
1.0
 40
1.0
 40
1.0
 10
71.81298814815477
 20
50.1655269176517
 30
0.0
 10
71.81139898033541
 20
50.18949159925936
 30
0.0
 10
71.80822050431749
 20
50.23742307939553
 30
0.0
 10
71.7761684708618
 20
50.32916023474391
 30
0.0
 10
71.73022046397807
 20
50.38505924796015
 30
0.0
 10
71.69961266321138
 20
50.4222958111022
 30
0.0
  0
LINE
  5
1CE
330
1F
100
AcDbEntity
  8
0
  6
Continuous
 62
     7
370
    30
100
AcDbLine
 10
71.8129881482
 20
50.1656937408
 30
0.0
 11
71.8129881482
 21
50.1655269177
 31
0.0
  0
SPLINE
  5
1CF
330
1F
100
AcDbEntity
  8
0
  6
Continuous
 62
     7
370
    30
100
AcDbSpline
210
0.0
220
0.0
230
1.0
 70
     8
 71
     3
 72
     9
 73
     5
 74
     0
 42
0.000000001
 43
0.00000001
 40
0.0
 40
0.0
 40
0.0
 40
0.0
 40
0.5001359752921828
 40
1.0
 40
1.0
 40
1.0
 40
1.0
 10
71.7890731814225
 20
50.55804410900961
 30
0.0
 10
71.82759534973607
 20
50.49827322248663
 30
0.0
 10
71.90461873980728
 20
50.37876395005713
 30
0.0
 10
71.91527832129768
 20
50.23670426615295
 30
0.0
 10
71.92060666260318
 20
50.16569374080788
 30
0.0
  0
LINE
  5
1D0
330
1F
100
AcDbEntity
  8
0
  6
Continuous
 62
     7
370
    30
100
AcDbLine
 10
71.7890731814
 20
50.5597107108
 30
0.0
 11
71.7890731814
 21
50.558044109
 31
0.0
  0
LINE
  5
1D1
330
1F
100
AcDbEntity
  8
0
  6
Continuous
 62
     7
370
    30
100
AcDbLine
 10
71.4303458865
 20
50.5835370272
 30
0.0
 11
71.322727372
 21
50.6104376977
 31
0.0
  0
SPLINE
  5
1D2
330
1F
100
AcDbEntity
  8
0
  6
Continuous
 62
     7
370
    30
100
AcDbSpline
210
0.0
220
0.0
230
1.0
 70
     8
 71
     3
 72
    10
 73
     6
 74
     0
 42
0.000000001
 43
0.00000001
 40
0.0
 40
0.0
 40
0.0
 40
0.0
 40
0.4993826805835682
 40
0.7496194225252183
 40
1.0
 40
1.0
 40
1.0
 40
1.0
 10
71.69961266321138
 20
50.4222958111022
 30
0.0
 10
71.66027022713007
 20
50.45798035251103
 30
0.0
 10
71.60121360509913
 20
50.51154613755727
 30
0.0
 10
71.50590306377548
 20
50.55900416746316
 30
0.0
 10
71.45553643595734
 20
50.57535784107625
 30
0.0
 10
71.43034588647082
 20
50.58353702722157
 30
0.0
  0
LINE
  5
1D3
330
1F
100
AcDbEntity
  8
0
  6
Continuous
 62
     7
370
    30
100
AcDbLine
 10
71.322727372
 20
50.6104376977
 30
0.0
 11
71.322727372
 21
49.7716449895
 31
0.0
  0
SPLINE
  5
1D4
330
1F
100
AcDbEntity
  8
0
  6
Continuous
 62
     7
370
    30
100
AcDbSpline
210
0.0
220
0.0
230
1.0
 70
     8
 71
     3
 72
    13
 73
     9
 74
     0
 42
0.000000001
 43
0.00000001
 40
0.0
 40
0.0
 40
0.0
 40
0.0
 40
0.2503533833190323
 40
0.4999652911454999
 40
0.6278881416686402
 40
0.7498974621878977
 40
0.8748960281456879
 40
1.0
 40
1.0
 40
1.0
 40
1.0
 10
71.32272737202243
 20
49.77164498947601
 30
0.0
 10
71.38110774348597
 20
49.77833340606438
 30
0.0
 10
71.49769558036274
 20
49.79169043005412
 30
0.0
 10
71.63813703527813
 20
49.84551650184038
 30
0.0
 10
71.72978097425184
 20
49.92033289429302
 30
0.0
 10
71.7803256882332
 20
49.99349705539174
 30
0.0
 10
71.80885304163247
 20
50.07733303257394
 30
0.0
 10
71.81160939209204
 20
50.13612069725777
 30
0.0
 10
71.81298814815477
 20
50.1655269176517
 30
0.0
  0
LINE
  5
1D5
330
1F
100
AcDbEntity
  8
0
  6
Continuous
 62
     7
370
    30
100
AcDbLine
 10
70.5096119839
 20
50.1296571451
 30
0.0
 11
70.5096119839
 21
50.1299907914
 31
0.0
  0
LINE
  5
1D6
330
1F
100
AcDbEntity
  8
0
  6
Continuous
 62
     7
370
    30
100
AcDbLine
 10
70.5224819305
 20
50.1950434404
 30
0.0
 11
70.5096119839
 21
50.1299907914
 31
0.0
  0
LINE
  5
1D7
330
1F
100
AcDbEntity
  8
0
  6
Continuous
 62
     7
370
    30
100
AcDbLine
 10
65.0976545351
 20
46.6513994611
 30
0.0
 11
65.0976545351
 21
53.7513992744
 31
0.0
  0
LINE
  5
1D8
330
1F
100
AcDbEntity
  8
0
  6
Continuous
 62
     7
370
    30
100
AcDbLine
 10
70.6978332075
 20
50.7499490627
 30
0.0
 11
70.6978332075
 21
50.7473977045
 31
0.0
  0
SPLINE
  5
1D9
330
1F
100
AcDbEntity
  8
0
  6
Continuous
 62
     7
370
    30
100
AcDbSpline
210
0.0
220
0.0
230
1.0
 70
     8
 71
     3
 72
    10
 73
     6
 74
     0
 42
0.000000001
 43
0.00000001
 40
0.0
 40
0.0
 40
0.0
 40
0.0
 40
0.4992182508873471
 40
0.7494835708637054
 40
1.0
 40
1.0
 40
1.0
 40
1.0
 10
70.44982433420613
 20
50.52552733056286
 30
0.0
 10
70.48429483453094
 20
50.56984166850575
 30
0.0
 10
70.53604589456728
 20
50.63637142414442
 30
0.0
 10
70.62467870241115
 20
50.70579316819468
 30
0.0
 10
70.67344022225026
 20
50.73352489051729
 30
0.0
 10
70.69783320751979
 20
50.74739770449737
 30
0.0
  0
SPLINE
  5
1DA
330
1F
100
AcDbEntity
  8
0
  6
Continuous
 62
     7
370
    30
100
AcDbSpline
210
0.0
220
0.0
230
1.0
 70
     8
 71
     3
 72
    11
 73
     7
 74
     0
 42
0.000000001
 43
0.00000001
 40
0.0
 40
0.0
 40
0.0
 40
0.0
 40
0.2502378288328118
 40
0.5002509708020594
 40
0.7501374914991681
 40
1.0
 40
1.0
 40
1.0
 40
1.0
 10
70.77267894622878
 20
49.5728764212508
 30
0.0
 10
70.741632651457
 20
49.59076594041785
 30
0.0
 10
70.67956793817271
 20
49.62652891587303
 30
0.0
 10
70.59535843190055
 20
49.69343704067793
 30
0.0
 10
70.51855536379902
 20
49.76859772980971
 30
0.0
 10
70.47480058141281
 20
49.82522729936505
 30
0.0
 10
70.45292424139575
 20
49.85354072365948
 30
0.0
  0
LINE
  5
1DB
330
1F
100
AcDbEntity
  8
0
  6
Continuous
 62
     7
370
    30
100
AcDbLine
 10
70.7726789462
 20
49.5699394955
 30
0.0
 11
70.7726789462
 21
49.5728764213
 31
0.0
  0
SPLINE
  5
1DC
330
1F
100
AcDbEntity
  8
0
  6
Continuous
 62
     7
370
    30
100
AcDbSpline
210
0.0
220
0.0
230
1.0
 70
     8
 71
     3
 72
     9
 73
     5
 74
     0
 42
0.000000001
 43
0.00000001
 40
0.0
 40
0.0
 40
0.0
 40
0.0
 40
0.5011456416250548
 40
1.0
 40
1.0
 40
1.0
 40
1.0
 10
71.47507591274574
 20
50.76794017756398
 30
0.0
 10
71.53360753609512
 20
50.74192843414207
 30
0.0
 10
71.65040317091209
 20
50.69002387534445
 30
0.0
 10
71.74292050572558
 20
50.60197011241719
 30
0.0
 10
71.7890731814225
 20
50.55804410900961
 30
0.0
  0
LINE
  5
1DD
330
1F
100
AcDbEntity
  8
0
  6
Continuous
 62
     7
370
    30
100
AcDbLine
 10
71.4750759127
 20
50.7705875202
 30
0.0
 11
71.4750759127
 21
50.7679401776
 31
0.0
  0
LINE
  5
1DE
330
1F
100
AcDbEntity
  8
0
  6
Continuous
 62
     7
370
    30
100
AcDbLine
 10
70.8174089725
 20
49.6287418059
 30
0.0
 11
70.7726789462
 21
49.5728764213
 31
0.0
  0
SPLINE
  5
1DF
330
1F
100
AcDbEntity
  8
0
  6
Continuous
 62
     7
370
    30
100
AcDbSpline
210
0.0
220
0.0
230
1.0
 70
     8
 71
     3
 72
     9
 73
     5
 74
     0
 42
0.000000001
 43
0.00000001
 40
0.0
 40
0.0
 40
0.0
 40
0.0
 40
0.4995783658786963
 40
1.0
 40
1.0
 40
1.0
 40
1.0
 10
70.69783320751979
 20
50.74739770449737
 30
0.0
 10
70.76307270315876
 20
50.77580187593333
 30
0.0
 10
70.89366181608841
 20
50.83265816390728
 30
0.0
 10
71.03617472945693
 20
50.83867939117941
 30
0.0
 10
71.10749127444818
 20
50.84169254357035
 30
0.0
  0
SPLINE
  5
1E0
330
1F
100
AcDbEntity
  8
0
  6
Continuous
 62
     7
370
    30
100
AcDbSpline
210
0.0
220
0.0
230
1.0
 70
     8
 71
     3
 72
    11
 73
     7
 74
     0
 42
0.000000001
 43
0.00000001
 40
0.0
 40
0.0
 40
0.0
 40
0.0
 40
0.2501166628314769
 40
0.500122573651738
 40
0.7500499028422113
 40
0.9999999999999999
 40
0.9999999999999999
 40
0.9999999999999999
 40
0.9999999999999999
 10
71.10749127444818
 20
50.84169254357035
 30
0.0
 10
71.138984093153
 20
50.84076621878817
 30
0.0
 10
71.20195578549809
 20
50.83891397940172
 30
0.0
 10
71.29564272309989
 20
50.82585421623751
 30
0.0
 10
71.38749551590662
 20
50.80308945044406
 30
0.0
 10
71.44588156069436
 20
50.77965695761804
 30
0.0
 10
71.47507591274574
 20
50.76794017756398
 30
0.0
  0
LINE
  5
1E1
330
1F
100
AcDbEntity
  8
0
  6
Continuous
 62
     7
370
    30
100
AcDbLine
 10
71.1074912744
 20
50.844684592
 30
0.0
 11
71.1074912744
 21
50.8416925436
 31
0.0
  0
SPLINE
  5
1E2
330
1F
100
AcDbEntity
  8
0
  6
Continuous
 62
     7
370
    30
100
AcDbSpline
210
0.0
220
0.0
230
1.0
 70
     8
 71
     3
 72
     9
 73
     5
 74
     0
 42
0.000000001
 43
0.00000001
 40
0.0
 40
0.0
 40
0.0
 40
0.0
 40
0.4983258825714066
 40
1.0
 40
1.0
 40
1.0
 40
1.0
 10
70.56054275584414
 20
51.37334762500172
 30
0.0
 10
70.5991480383799
 20
51.31739437607835
 30
0.0
 10
70.67661799104731
 20
51.20511193023256
 30
0.0
 10
70.79632707782584
 20
51.13460248409745
 30
0.0
 10
70.85638202828362
 20
51.09922971993724
 30
0.0
  0
LINE
  5
1E3
330
1F
100
AcDbEntity
  8
0
  6
Continuous
 62
     7
370
    30
100
AcDbLine
 10
70.5605427558
 20
51.37882402
 30
0.0
 11
70.5605427558
 21
51.373347625
 31
0.0
  0
SPLINE
  5
1E4
330
1F
100
AcDbEntity
  8
0
  6
Continuous
 62
     7
370
    30
100
AcDbSpline
210
0.0
220
0.0
230
1.0
 70
     8
 71
     3
 72
    10
 73
     6
 74
     0
 42
0.000000001
 43
0.00000001
 40
0.0
 40
0.0
 40
0.0
 40
0.0
 40
0.4984568568007246
 40
0.7489595848137507
 40
1.0
 40
1.0
 40
1.0
 40
1.0
 10
71.4423031370063
 20
51.28447405829134
 30
0.0
 10
71.44422013934776
 20
51.30260071377456
 30
0.0
 10
71.44710054365586
 20
51.32983703759987
 30
0.0
 10
71.46531438850998
 20
51.36191245344824
 30
0.0
 10
71.47801796690476
 20
51.37518237595094
 30
0.0
 10
71.48437656563713
 20
51.38182445031631
 30
0.0
  0
SPLINE
  5
1E5
330
1F
100
AcDbEntity
  8
0
  6
Continuous
 62
     7
370
    30
100
AcDbSpline
210
0.0
220
0.0
230
1.0
 70
     8
 71
     3
 72
    10
 73
     6
 74
     0
 42
0.000000001
 43
0.00000001
 40
0.0
 40
0.0
 40
0.0
 40
0.0
 40
0.4983481822865339
 40
0.7489883390763411
 40
0.9999999999999999
 40
0.9999999999999999
 40
0.9999999999999999
 40
0.9999999999999999
 10
71.48437656563713
 20
51.38182445031631
 30
0.0
 10
71.49699097831132
 20
51.39284091110654
 30
0.0
 10
71.51594970703368
 20
51.40939801106808
 30
0.0
 10
71.54836439245081
 20
51.42052889676891
 30
0.0
 10
71.56534168536382
 20
51.42152297106016
 30
0.0
 10
71.57383661818697
 20
51.42202037629246
 30
0.0
  0
SPLINE
  5
1E6
330
1F
100
AcDbEntity
  8
0
  6
Continuous
 62
     7
370
    30
100
AcDbSpline
210
0.0
220
0.0
230
1.0
 70
     8
 71
     3
 72
     9
 73
     5
 74
     0
 42
0.000000001
 43
0.00000001
 40
0.0
 40
0.0
 40
0.0
 40
0.0
 40
0.5005348863892517
 40
1.0
 40
1.0
 40
1.0
 40
1.0
 10
71.57383661818697
 20
51.42202037629246
 30
0.0
 10
71.58989311951527
 20
51.42110557186106
 30
0.0
 10
71.62197180526707
 20
51.41927791817242
 30
0.0
 10
71.64982718825406
 20
51.40390286070674
 30
0.0
 10
71.66373998028233
 20
51.39622355588286
 30
0.0
  0
SPLINE
  5
1E7
330
1F
100
AcDbEntity
  8
0
  6
Continuous
 62
     7
370
    30
100
AcDbSpline
210
0.0
220
0.0
230
1.0
 70
     8
 71
     3
 72
    10
 73
     6
 74
     0
 42
0.000000001
 43
0.00000001
 40
0.0
 40
0.0
 40
0.0
 40
0.0
 40
0.5009355220109047
 40
0.7345721862583943
 40
1.0
 40
1.0
 40
1.0
 40
1.0
 10
71.66373998028233
 20
51.39622355588286
 30
0.0
 10
71.6688784862428
 20
51.38888369427298
 30
0.0
 10
71.67641359483787
 20
51.37812051627362
 30
0.0
 10
71.69159293756908
 20
51.36767764667736
 30
0.0
 10
71.7005867392536
 20
51.3658420737556
 30
0.0
 10
71.70537009936764
 20
51.36486582293215
 30
0.0
  0
SPLINE
  5
1E8
330
1F
100
AcDbEntity
  8
0
  6
Continuous
 62
     7
370
    30
100
AcDbSpline
210
0.0
220
0.0
230
1.0
 70
     8
 71
     3
 72
    13
 73
     9
 74
     0
 42
0.000000001
 43
0.00000001
 40
0.0
 40
0.0
 40
0.0
 40
0.0
 40
0.0628425656401018
 40
0.1254299604703492
 40
0.1857547765209447
 40
0.2507335872067855
 40
0.500068890251798
 40
1.0
 40
1.0
 40
1.0
 40
1.0
 10
71.70537009936764
 20
51.36486582293215
 30
0.0
 10
71.71208726000937
 20
51.36543486064939
 30
0.0
 10
71.72549430641469
 20
51.36657062551915
 30
0.0
 10
71.74401427498738
 20
51.37440200311577
 30
0.0
 10
71.75952921933916
 20
51.38689441065522
 30
0.0
 10
71.78415412273033
 20
51.4174998889749
 30
0.0
 10
71.80987615456489
 20
51.49953082602369
 30
0.0
 10
71.81174272268693
 20
51.57523330452332
 30
0.0
 10
71.81298814815476
 20
51.62574407537974
 30
0.0
  0
SPLINE
  5
1E9
330
1F
100
AcDbEntity
  8
0
  6
Continuous
 62
     7
370
    30
100
AcDbSpline
210
0.0
220
0.0
230
1.0
 70
     8
 71
     3
 72
    10
 73
     6
 74
     0
 42
0.000000001
 43
0.00000001
 40
0.0
 40
0.0
 40
0.0
 40
0.0
 40
0.331190383090812
 40
0.6731813307431055
 40
1.0
 40
1.0
 40
1.0
 40
1.0
 10
70.50961198386743
 20
51.64816904968388
 30
0.0
 10
70.51044316170695
 20
51.61745685983976
 30
0.0
 10
70.51213262321505
 20
51.55503091426621
 30
0.0
 10
70.5272146928189
 20
51.46189229991274
 30
0.0
 10
70.5496026958256
 20
51.40241274220087
 30
0.0
 10
70.56054275584414
 20
51.37334762500172
 30
0.0
  0
SPLINE
  5
1EA
330
1F
100
AcDbEntity
  8
0
  6
Continuous
 62
     7
370
    30
100
AcDbSpline
210
0.0
220
0.0
230
1.0
 70
     8
 71
     3
 72
     9
 73
     5
 74
     0
 42
0.000000001
 43
0.00000001
 40
0.0
 40
0.0
 40
0.0
 40
0.0
 40
0.4997468541677441
 40
1.0
 40
1.0
 40
1.0
 40
1.0
 10
70.3541635359545
 20
51.6817223828802
 30
0.0
 10
70.36261164198247
 20
51.76572038085281
 30
0.0
 10
70.37951641278298
 20
51.93380147485487
 30
0.0
 10
70.49811371131526
 20
52.05681271219397
 30
0.0
 10
70.55744238299323
 20
52.11834947064558
 30
0.0
  0
SPLINE
  5
1EB
330
1F
100
AcDbEntity
  8
0
  6
Continuous
 62
     7
370
    30
100
AcDbSpline
210
0.0
220
0.0
230
1.0
 70
     8
 71
     3
 72
    10
 73
     6
 74
     0
 42
0.000000001
 43
0.00000001
 40
0.0
 40
0.0
 40
0.0
 40
0.0
 40
0.2496835860014612
 40
0.4998680299951327
 40
1.0
 40
1.0
 40
1.0
 40
1.0
 10
70.55744238299323
 20
52.11834947064558
 30
0.0
 10
70.60056029581757
 20
52.14810938248472
 30
0.0
 10
70.68688261474196
 20
52.20768890367828
 30
0.0
 10
70.89434139184206
 20
52.27399352079807
 30
0.0
 10
71.05811425370209
 20
52.28159340362851
 30
0.0
 10
71.16727892410947
 20
52.28665919227565
 30
0.0
  0
SPLINE
  5
1EC
330
1F
100
AcDbEntity
  8
0
  6
Continuous
 62
     7
370
    30
100
AcDbSpline
210
0.0
220
0.0
230
1.0
 70
     8
 71
     3
 72
     9
 73
     5
 74
     0
 42
0.000000001
 43
0.00000001
 40
0.0
 40
0.0
 40
0.0
 40
0.0
 40
0.5006945192432622
 40
0.9999999999999999
 40
0.9999999999999999
 40
0.9999999999999999
 40
0.9999999999999999
 10
71.16727892410947
 20
52.28665919227565
 30
0.0
 10
71.26947551147653
 20
52.27988210450062
 30
0.0
 10
71.4735851700394
 20
52.26634673010649
 30
0.0
 10
71.63408766653708
 20
52.15342134736665
 30
0.0
 10
71.71422744271351
 20
52.09703708484809
 30
0.0
  0
SPLINE
  5
1ED
330
1F
100
AcDbEntity
  8
0
  6
Continuous
 62
     7
370
    30
100
AcDbSpline
210
0.0
220
0.0
230
1.0
 70
     8
 71
     3
 72
    10
 73
     6
 74
     0
 42
0.000000001
 43
0.00000001
 40
0.0
 40
0.0
 40
0.0
 40
0.0
 40
0.2508163605129656
 40
0.5012879179317763
 40
1.0
 40
1.0
 40
1.0
 40
1.0
 10
71.71422744271351
 20
52.09703708484809
 30
0.0
 10
71.74652526322939
 20
52.06578681699465
 30
0.0
 10
71.8110765036948
 20
52.00332924175902
 30
0.0
 10
71.90050320266245
 20
51.8483089465765
 30
0.0
 10
71.91257246696435
 20
51.71469044196512
 30
0.0
 10
71.92060666260316
 20
51.62574407537974
 30
0.0
  0
LINE
  5
1EE
330
1F
100
AcDbEntity
  8
0
  6
Continuous
 62
     7
370
    30
100
AcDbLine
 10
71.4843765656
 20
51.3873404556
 30
0.0
 11
71.4843765656
 21
51.3818244503
 31
0.0
  0
LINE
  5
1EF
330
1F
100
AcDbEntity
  8
0
  6
Continuous
 62
     7
370
    30
100
AcDbLine
 10
71.442303137
 20
51.2895351708
 30
0.0
 11
71.442303137
 21
51.2844740583
 31
0.0
  0
LINE
  5
1F0
330
1F
100
AcDbEntity
  8
0
  6
Continuous
 62
     7
370
    30
100
AcDbLine
 10
71.7053700994
 20
51.3703025931
 30
0.0
 11
71.7053700994
 21
51.3648658229
 31
0.0
  0
LINE
  5
1F1
330
1F
100
AcDbEntity
  8
0
  6
Continuous
 62
     7
370
    30
100
AcDbLine
 10
71.6637399803
 20
51.4018068347
 30
0.0
 11
71.6637399803
 21
51.3962235559
 31
0.0
  0
LINE
  5
1F2
330
1F
100
AcDbEntity
  8
0
  6
Continuous
 62
     7
370
    30
100
AcDbLine
 10
71.8129881482
 20
51.6323998886
 30
0.0
 11
71.8129881482
 21
51.6257440754
 31
0.0
  0
LINE
  5
1F3
330
1F
100
AcDbEntity
  8
0
  6
Continuous
 62
     7
370
    30
100
AcDbLine
 10
70.5096119839
 20
51.6549296512
 30
0.0
 11
70.5096119839
 21
51.6481690497
 31
0.0
  0
LINE
  5
1F4
330
1F
100
AcDbEntity
  8
0
  6
Continuous
 62
     7
370
    30
100
AcDbLine
 10
71.5738366182
 20
51.4277242177
 30
0.0
 11
71.5738366182
 21
51.4220203763
 31
0.0
  0
LINE
  5
1F5
330
1F
100
AcDbEntity
  8
0
  6
Continuous
 62
     7
370
    30
100
AcDbLine
 10
71.7142274427
 20
52.1058951849
 30
0.0
 11
71.7142274427
 21
52.0970370848
 31
0.0
  0
LINE
  5
1F6
330
1F
100
AcDbEntity
  8
0
  6
Continuous
 62
     7
370
    30
100
AcDbLine
 10
71.9206066626
 20
51.6323998886
 30
0.0
 11
71.9206066626
 21
51.6257440754
 31
0.0
  0
LINE
  5
1F7
330
1F
100
AcDbEntity
  8
0
  6
Continuous
 62
     7
370
    30
100
AcDbLine
 10
70.557442383
 20
52.1273072222
 30
0.0
 11
70.557442383
 21
52.1183494706
 31
0.0
  0
LINE
  5
1F8
330
1F
100
AcDbEntity
  8
0
  6
Continuous
 62
     7
370
    30
100
AcDbLine
 10
70.354163536
 20
51.6886397813
 30
0.0
 11
70.354163536
 21
51.6817223829
 31
0.0
  0
LINE
  5
1F9
330
1F
100
AcDbEntity
  8
0
  6
Continuous
 62
     7
370
    30
100
AcDbLine
 10
71.1672789241
 20
52.2964033875
 30
0.0
 11
71.1672789241
 21
52.2866591923
 31
0.0
  0
LINE
  5
1FA
330
1F
100
AcDbEntity
  8
0
  6
Continuous
 62
     7
370
    30
100
AcDbLine
 10
72.6380612525
 20
47.0148653253
 30
0.0
 11
72.0521401438
 21
46.9832799858
 31
0.0
  0
SPLINE
  5
1FB
330
1F
100
AcDbEntity
  8
0
  6
Continuous
 62
     7
370
    30
100
AcDbSpline
210
0.0
220
0.0
230
1.0
 70
     8
 71
     3
 72
    12
 73
     8
 74
     0
 42
0.000000001
 43
0.00000001
 40
0.0
 40
0.0
 40
0.0
 40
0.0
 40
0.4992304276628428
 40
0.6342479224602954
 40
0.7495958182388863
 40
0.8746216542236426
 40
1.0
 40
1.0
 40
1.0
 40
1.0
 10
72.54240091991622
 20
47.45073639739346
 30
0.0
 10
72.5412397857471
 20
47.48398330061879
 30
0.0
 10
72.53976462138681
 20
47.52622187048645
 30
0.0
 10
72.51407517094997
 20
47.57278929951543
 30
0.0
 10
72.49417756473669
 20
47.59280952134519
 30
0.0
 10
72.4670745941546
 20
47.60681000842268
 30
0.0
 10
72.44555656579288
 20
47.60811370536419
 30
0.0
 10
72.43478240546781
 20
47.60876647148322
 30
0.0
  0
LINE
  5
1FC
330
1F
100
AcDbEntity
  8
0
  6
Continuous
 62
     7
370
    30
100
AcDbLine
 10
72.4347824055
 20
47.6087664715
 30
0.0
 11
71.6066093939
 21
47.6087664715
 31
0.0
  0
LINE
  5
1FD
330
1F
100
AcDbEntity
  8
0
  6
Continuous
 62
     7
370
    30
100
AcDbLine
 10
71.9653366889
 20
47.2296013026
 30
0.0
 11
71.119448525
 21
47.2296013026
 31
0.0
  0
LINE
  5
1FE
330
1F
100
AcDbEntity
  8
0
  6
Continuous
 62
     7
370
    30
100
AcDbLine
 10
71.5140489685
 20
47.6087664715
 30
0.0
 11
70.6291877489
 21
47.6087664715
 31
0.0
  0
SPLINE
  5
1FF
330
1F
100
AcDbEntity
  8
0
  6
Continuous
 62
     7
370
    30
100
AcDbSpline
210
0.0
220
0.0
230
1.0
 70
     8
 71
     3
 72
    12
 73
     8
 74
     0
 42
0.000000001
 43
0.00000001
 40
0.0
 40
0.0
 40
0.0
 40
0.0
 40
0.2502576445609868
 40
0.3746422126195424
 40
0.5007757245179445
 40
0.7498799205625337
 40
1.0
 40
1.0
 40
1.0
 40
1.0
 10
70.62918774885136
 20
47.60876647148321
 30
0.0
 10
70.60545368172784
 20
47.60738819288866
 30
0.0
 10
70.56992316501888
 20
47.60532487393122
 30
0.0
 10
70.52902360161684
 20
47.58582550383264
 30
0.0
 10
70.49718085272727
 20
47.558328491599
 30
0.0
 10
70.47642522668032
 20
47.51381575613769
 30
0.0
 10
70.47463582328561
 20
47.47787311307317
 30
0.0
 10
70.47373930093843
 20
47.45986522126982
 30
0.0
  0
LINE
  5
200
330
1F
100
AcDbEntity
  8
0
  6
Continuous
 62
     7
370
    30
100
AcDbLine
 10
70.99987276
 20
46.9289661846
 30
0.0
 11
70.3780789683
 21
47.0069318539
 31
0.0
  0
LINE
  5
201
330
1F
100
AcDbEntity
  8
0
  6
Continuous
 62
     7
370
    30
100
AcDbLine
 10
70.3780789683
 20
53.2825783589
 30
0.0
 11
70.4737393009
 21
53.2825783589
 31
0.0
  0
LINE
  5
202
330
1F
100
AcDbEntity
  8
0
  6
Continuous
 62
     7
370
    30
100
AcDbLine
 10
70.4737393009
 20
53.2825783589
 30
0.0
 11
70.5007546405
 21
53.1537878555
 31
0.0
  0
SPLINE
  5
203
330
1F
100
AcDbEntity
  8
0
  6
Continuous
 62
     7
370
    30
100
AcDbSpline
210
0.0
220
0.0
230
1.0
 70
     8
 71
     3
 72
    10
 73
     6
 74
     0
 42
0.000000001
 43
0.00000001
 40
0.0
 40
0.0
 40
0.0
 40
0.0
 40
0.2542517805323113
 40
0.5003194535448018
 40
1.0
 40
1.0
 40
1.0
 40
1.0
 10
70.50075464052152
 20
53.15378785550633
 30
0.0
 10
70.50899085996005
 20
53.14429774286162
 30
0.0
 10
70.52519818326817
 20
53.1256229946945
 30
0.0
 10
70.57662348001689
 20
53.09970083326935
 30
0.0
 10
70.62241863312138
 20
53.09699873559222
 30
0.0
 10
70.65310318124486
 20
53.09518822420428
 30
0.0
  0
LINE
  5
204
330
1F
100
AcDbEntity
  8
0
  6
Continuous
 62
     7
370
    30
100
AcDbLine
 10
70.6531031812
 20
53.0951882242
 30
0.0
 11
71.5946516777
 21
53.0951882242
 31
0.0
  0
SPLINE
  5
205
330
1F
100
AcDbEntity
  8
0
  6
Continuous
 62
     7
370
    30
100
AcDbSpline
210
0.0
220
0.0
230
1.0
 70
     8
 71
     3
 72
    12
 73
     8
 74
     0
 42
0.000000001
 43
0.00000001
 40
0.0
 40
0.0
 40
0.0
 40
0.0
 40
0.250739757875142
 40
0.5002848897644026
 40
0.6268493927201565
 40
0.750425711433162
 40
0.9999999999999999
 40
0.9999999999999999
 40
0.9999999999999999
 40
0.9999999999999999
 10
71.59465167772962
 20
53.09518822420429
 30
0.0
 10
71.60767708179273
 20
53.09563834083697
 30
0.0
 10
71.63366583160678
 20
53.09653642956398
 30
0.0
 10
71.66465560978598
 20
53.1055739605241
 30
0.0
 10
71.6851586722654
 20
53.11730571161819
 30
0.0
 10
71.70208880441257
 20
53.13187753288837
 30
0.0
 10
71.7093625464514
 20
53.14500668549673
 30
0.0
 10
71.7142274427135
 20
53.15378785550634
 30
0.0
  0
LINE
  5
206
330
1F
100
AcDbEntity
  8
0
  6
Continuous
 62
     7
370
    30
100
AcDbLine
 10
71.7142274427
 20
53.1537878555
 30
0.0
 11
71.7261851589
 21
53.2660089661
 31
0.0
  0
LINE
  5
207
330
1F
100
AcDbEntity
  8
0
  6
Continuous
 62
     7
370
    30
100
AcDbLine
 10
71.7261851589
 20
53.2660089661
 30
0.0
 11
71.8249458644
 21
53.2660089661
 31
0.0
  0
SPLINE
  5
208
330
1F
100
AcDbEntity
  8
0
  6
Continuous
 62
     7
370
    30
100
AcDbSpline
210
0.0
220
0.0
230
1.0
 70
     8
 71
     3
 72
    10
 73
     6
 74
     0
 42
0.000000001
 43
0.00000001
 40
0.0
 40
0.0
 40
0.0
 40
0.0
 40
0.3272252608946102
 40
0.6528842428858314
 40
1.0
 40
1.0
 40
1.0
 40
1.0
 10
71.8249458643515
 20
53.2660089661185
 30
0.0
 10
71.82758352792065
 20
53.23024375676034
 30
0.0
 10
71.8328462297598
 20
53.1588845298791
 30
0.0
 10
71.86775254255137
 20
53.04734831131088
 30
0.0
 10
71.90261796875181
 20
52.97243438216685
 30
0.0
 10
71.92060666260315
 20
52.93378280427348
 30
0.0
  0
LINE
  5
209
330
1F
100
AcDbEntity
  8
0
  6
Continuous
 62
     7
370
    30
100
AcDbLine
 10
72.4347824055
 20
47.5966513618
 30
0.0
 11
72.4347824055
 21
47.6087664715
 31
0.0
  0
LINE
  5
20A
330
1F
100
AcDbEntity
  8
0
  6
Continuous
 62
     7
370
    30
100
AcDbLine
 10
72.5424009199
 20
47.4378827489
 30
0.0
 11
72.5424009199
 21
47.4507363974
 31
0.0
  0
LINE
  5
20B
330
1F
100
AcDbEntity
  8
0
  6
Continuous
 62
     7
370
    30
100
AcDbLine
 10
70.6291877489
 20
47.5966513618
 30
0.0
 11
70.6291877489
 21
47.6087664715
 31
0.0
  0
LINE
  5
20C
330
1F
100
AcDbEntity
  8
0
  6
Continuous
 62
     7
370
    30
100
AcDbLine
 10
71.5140489685
 20
47.5966513618
 30
0.0
 11
71.5140489685
 21
47.6087664715
 31
0.0
  0
LINE
  5
20D
330
1F
100
AcDbEntity
  8
0
  6
Continuous
 62
     7
370
    30
100
AcDbLine
 10
71.6066093939
 20
47.5966513618
 30
0.0
 11
71.6066093939
 21
47.6087664715
 31
0.0
  0
LINE
  5
20E
330
1F
100
AcDbEntity
  8
0
  6
Continuous
 62
     7
370
    30
100
AcDbLine
 10
70.4737393009
 20
47.4470544136
 30
0.0
 11
70.4737393009
 21
47.4598652213
 31
0.0
  0
SPLINE
  5
20F
330
1F
100
AcDbEntity
  8
0
  6
Continuous
 62
     7
370
    30
100
AcDbSpline
210
0.0
220
0.0
230
1.0
 70
     8
 71
     3
 72
    10
 73
     6
 74
     0
 42
0.000000001
 43
0.00000001
 40
0.0
 40
0.0
 40
0.0
 40
0.0
 40
0.4983845597016068
 40
0.748900456175154
 40
1.0
 40
1.0
 40
1.0
 40
1.0
 10
72.3479794162233
 20
53.01536677822511
 30
0.0
 10
72.35014611605989
 20
53.03087869730385
 30
0.0
 10
72.35340192016625
 20
53.05418777269167
 30
0.0
 10
72.3745230754622
 20
53.08090990979603
 30
0.0
 10
72.38870873354809
 20
53.09193969243916
 30
0.0
 10
72.39580981534911
 20
53.09746100053232
 30
0.0
  0
SPLINE
  5
210
330
1F
100
AcDbEntity
  8
0
  6
Continuous
 62
     7
370
    30
100
AcDbSpline
210
0.0
220
0.0
230
1.0
 70
     8
 71
     3
 72
    10
 73
     6
 74
     0
 42
0.000000001
 43
0.00000001
 40
0.0
 40
0.0
 40
0.0
 40
0.0
 40
0.4985229235759118
 40
0.7490558670738332
 40
1.0
 40
1.0
 40
1.0
 40
1.0
 10
72.39580981534911
 20
53.09746100053232
 30
0.0
 10
72.41189203516782
 20
53.10687015570348
 30
0.0
 10
72.43605638256506
 20
53.12100788649149
 30
0.0
 10
72.47588956052248
 20
53.12912686314815
 30
0.0
 10
72.49630945324958
 20
53.12976591037399
 30
0.0
 10
72.50652777132584
 20
53.13008569598239
 30
0.0
  0
SPLINE
  5
211
330
1F
100
AcDbEntity
  8
0
  6
Continuous
 62
     7
370
    30
100
AcDbSpline
210
0.0
220
0.0
230
1.0
 70
     8
 71
     3
 72
    10
 73
     6
 74
     0
 42
0.000000001
 43
0.00000001
 40
0.0
 40
0.0
 40
0.0
 40
0.0
 40
0.4991191007341667
 40
0.7495191759703764
 40
1.0
 40
1.0
 40
1.0
 40
1.0
 10
72.50652777132584
 20
53.13008569598239
 30
0.0
 10
72.5270450828723
 20
53.12874370140817
 30
0.0
 10
72.557855601686
 20
53.12672844960564
 30
0.0
 10
72.59441525227075
 20
53.11250509923302
 30
0.0
 10
72.6096350615196
 20
53.10247623902865
 30
0.0
 10
72.61724619296385
 20
53.09746100053233
 30
0.0
  0
SPLINE
  5
212
330
1F
100
AcDbEntity
  8
0
  6
Continuous
 62
     7
370
    30
100
AcDbSpline
210
0.0
220
0.0
230
1.0
 70
     8
 71
     3
 72
    10
 73
     6
 74
     0
 42
0.000000001
 43
0.00000001
 40
0.0
 40
0.0
 40
0.0
 40
0.0
 40
0.4986989623389673
 40
0.7492053476411441
 40
1.0
 40
1.0
 40
1.0
 40
1.0
 10
72.61724619296385
 20
53.09746100053233
 30
0.0
 10
72.63048525826517
 20
53.08578771336155
 30
0.0
 10
72.65037456879232
 20
53.06825070239228
 30
0.0
 10
72.66076014074558
 20
53.03835926500842
 30
0.0
 10
72.66157101475414
 20
53.02303387804527
 30
0.0
 10
72.66197668490005
 20
53.01536677822512
 30
0.0
  0
LINE
  5
213
330
1F
100
AcDbEntity
  8
0
  6
Continuous
 62
     7
370
    30
100
AcDbLine
 10
71.8249458644
 20
53.2803296805
 30
0.0
 11
71.8249458644
 21
53.2660089661
 31
0.0
  0
LINE
  5
214
330
1F
100
AcDbEntity
  8
0
  6
Continuous
 62
     7
370
    30
100
AcDbLine
 10
72.3958098153
 20
53.1109940489
 30
0.0
 11
72.3958098153
 21
53.0974610005
 31
0.0
  0
LINE
  5
215
330
1F
100
AcDbEntity
  8
0
  6
Continuous
 62
     7
370
    30
100
AcDbLine
 10
72.3479794162
 20
53.0285161217
 30
0.0
 11
72.3479794162
 21
53.0153667782
 31
0.0
  0
LINE
  5
216
330
1F
100
AcDbEntity
  8
0
  6
Continuous
 62
     7
370
    30
100
AcDbLine
 10
72.617246193
 20
53.1109940489
 30
0.0
 11
72.617246193
 21
53.0974610005
 31
0.0
  0
LINE
  5
217
330
1F
100
AcDbEntity
  8
0
  6
Continuous
 62
     7
370
    30
100
AcDbLine
 10
72.6619766849
 20
53.0285161217
 30
0.0
 11
72.6619766849
 21
53.0153667782
 31
0.0
  0
LINE
  5
218
330
1F
100
AcDbEntity
  8
0
  6
Continuous
 62
     7
370
    30
100
AcDbLine
 10
72.5065277713
 20
53.143771132
 30
0.0
 11
72.5065277713
 21
53.130085696
 31
0.0
  0
LINE
  5
219
330
1F
100
AcDbEntity
  8
0
  6
Continuous
 62
     7
370
    30
100
AcDbLine
 10
70.6531031812
 20
53.1087106787
 30
0.0
 11
70.6531031812
 21
53.0951882242
 31
0.0
  0
LINE
  5
21A
330
1F
100
AcDbEntity
  8
0
  6
Continuous
 62
     7
370
    30
100
AcDbLine
 10
70.5007546405
 20
53.1675841189
 30
0.0
 11
70.5007546405
 21
53.1537878555
 31
0.0
  0
LINE
  5
21B
330
1F
100
AcDbEntity
  8
0
  6
Continuous
 62
     7
370
    30
100
AcDbLine
 10
71.7142274427
 20
53.1675841189
 30
0.0
 11
71.7142274427
 21
53.1537878555
 31
0.0
  0
LINE
  5
21C
330
1F
100
AcDbEntity
  8
0
  6
Continuous
 62
     7
370
    30
100
AcDbLine
 10
71.5946516777
 20
53.1087106787
 30
0.0
 11
71.5946516777
 21
53.0951882242
 31
0.0
  0
LINE
  5
21D
330
1F
100
AcDbEntity
  8
0
  6
Continuous
 62
     7
370
    30
100
AcDbLine
 10
70.4737393009
 20
53.296976373
 30
0.0
 11
70.4737393009
 21
53.2825783589
 31
0.0
  0
LINE
  5
21E
330
1F
100
AcDbEntity
  8
0
  6
Continuous
 62
     7
370
    30
100
AcDbLine
 10
71.7261851589
 20
53.2803296805
 30
0.0
 11
71.7261851589
 21
53.2660089661
 31
0.0
  0
SPLINE
  5
21F
330
1F
100
AcDbEntity
  8
0
  6
Continuous
 62
     7
370
    30
100
AcDbSpline
210
0.0
220
0.0
230
1.0
 70
     8
 71
     3
 72
    10
 73
     6
 74
     0
 42
0.000000001
 43
0.00000001
 40
0.0
 40
0.0
 40
0.0
 40
0.0
 40
0.2510328856447042
 40
0.5017489684799535
 40
1.0
 40
1.0
 40
1.0
 40
1.0
 10
71.720427722754
 20
54.09555672619532
 30
0.0
 10
71.7509932558637
 20
54.08357436378069
 30
0.0
 10
71.81208574846463
 20
54.05962476065974
 30
0.0
 10
71.8996459219752
 20
53.99548919342024
 30
0.0
 10
71.91223305877622
 20
53.93367753563331
 30
0.0
 10
71.92060666260313
 20
53.89255727592897
 30
0.0
  0
LINE
  5
220
330
1F
100
AcDbEntity
  8
0
  6
Continuous
 62
     7
370
    30
100
AcDbLine
 10
70.3780789683
 20
53.8743550419
 30
0.0
 11
70.4737393009
 21
53.8743550419
 31
0.0
  0
SPLINE
  5
221
330
1F
100
AcDbEntity
  8
0
  6
Continuous
 62
     7
370
    30
100
AcDbSpline
210
0.0
220
0.0
230
1.0
 70
     8
 71
     3
 72
    13
 73
     9
 74
     0
 42
0.000000001
 43
0.00000001
 40
0.0
 40
0.0
 40
0.0
 40
0.0
 40
0.2500576007477129
 40
0.4990984219001462
 40
0.628297992741473
 40
0.7488798331411088
 40
0.8743264644791541
 40
1.0
 40
1.0
 40
1.0
 40
1.0
 10
70.47373930093836
 20
53.87435504186937
 30
0.0
 10
70.47438483420324
 20
53.86476198549772
 30
0.0
 10
70.47567327587755
 20
53.84561487986295
 30
0.0
 10
70.49112063063573
 20
53.82152477438265
 30
0.0
 10
70.51490788723744
 20
53.80591523297823
 30
0.0
 10
70.53863871232141
 20
53.79766635974796
 30
0.0
 10
70.56527531240151
 20
53.79303743759133
 30
0.0
 10
70.58396285292658
 20
53.7927066772567
 30
0.0
 10
70.59331506592225
 20
53.79254114765713
 30
0.0
  0
LINE
  5
222
330
1F
100
AcDbEntity
  8
0
  6
Continuous
 62
     7
370
    30
100
AcDbLine
 10
70.5933150659
 20
53.7925411477
 30
0.0
 11
71.5020912523
 21
53.7925411477
 31
0.0
  0
SPLINE
  5
223
330
1F
100
AcDbEntity
  8
0
  6
Continuous
 62
     7
370
    30
100
AcDbSpline
210
0.0
220
0.0
230
1.0
 70
     8
 71
     3
 72
     9
 73
     5
 74
     0
 42
0.000000001
 43
0.00000001
 40
0.0
 40
0.0
 40
0.0
 40
0.0
 40
0.5010020593681752
 40
1.0
 40
1.0
 40
1.0
 40
1.0
 10
71.50209125232887
 20
53.79254114765714
 30
0.0
 10
71.54080011902293
 20
53.79353811197436
 30
0.0
 10
71.61806300840682
 20
53.79552805253162
 30
0.0
 10
71.68428378461131
 20
53.81693473032677
 30
0.0
 10
71.71732781556439
 20
53.82761661846231
 30
0.0
  0
SPLINE
  5
224
330
1F
100
AcDbEntity
  8
0
  6
Continuous
 62
     7
370
    30
100
AcDbSpline
210
0.0
220
0.0
230
1.0
 70
     8
 71
     3
 72
    11
 73
     7
 74
     0
 42
0.000000001
 43
0.00000001
 40
0.0
 40
0.0
 40
0.0
 40
0.0
 40
0.2504221650265278
 40
0.5001489454536195
 40
0.749909028279984
 40
1.0
 40
1.0
 40
1.0
 40
1.0
 10
71.71732781556439
 20
53.82761661846231
 30
0.0
 10
71.73090164238006
 20
53.83431408406614
 30
0.0
 10
71.7580116035407
 20
53.84769041742148
 30
0.0
 10
71.78420033793094
 20
53.87345698755728
 30
0.0
 10
71.79856552048079
 20
53.90081271969481
 30
0.0
 10
71.8002087426491
 20
53.91906030894576
 30
0.0
 10
71.80103089761924
 20
53.92819014329503
 30
0.0
  0
LINE
  5
225
330
1F
100
AcDbEntity
  8
0
  6
Continuous
 62
     7
370
    30
100
AcDbLine
 10
70.3780789683
 20
54.2340022507
 30
0.0
 11
70.4737393009
 21
54.2340022507
 31
0.0
  0
SPLINE
  5
226
330
1F
100
AcDbEntity
  8
0
  6
Continuous
 62
     7
370
    30
100
AcDbSpline
210
0.0
220
0.0
230
1.0
 70
     8
 71
     3
 72
    13
 73
     9
 74
     0
 42
0.000000001
 43
0.00000001
 40
0.0
 40
0.0
 40
0.0
 40
0.0
 40
0.2500568101765872
 40
0.4990967998490295
 40
0.6282965627794924
 40
0.7488806817298139
 40
0.8743270760154224
 40
1.0
 40
1.0
 40
1.0
 40
1.0
 10
70.47373930093836
 20
54.23400225069413
 30
0.0
 10
70.47438483812
 20
54.22771480497205
 30
0.0
 10
70.47567328749803
 20
54.21516548053294
 30
0.0
 10
70.49112060562793
 20
54.19908511889875
 30
0.0
 10
70.51490815018168
 20
54.18858442322497
 30
0.0
 10
70.53863837663496
 20
54.18300994913361
 30
0.0
 10
70.5652753043079
 20
54.17987333187477
 30
0.0
 10
70.5839628594946
 20
54.17964894068816
 30
0.0
 10
70.59331506592225
 20
54.17953664388547
 30
0.0
  0
LINE
  5
227
330
1F
100
AcDbEntity
  8
0
  6
Continuous
 62
     7
370
    30
100
AcDbLine
 10
70.5933150659
 20
54.1795366439
 30
0.0
 11
71.6066093939
 21
54.1795366439
 31
0.0
  0
SPLINE
  5
228
330
1F
100
AcDbEntity
  8
0
  6
Continuous
 62
     7
370
    30
100
AcDbSpline
210
0.0
220
0.0
230
1.0
 70
     8
 71
     3
 72
    13
 73
     9
 74
     0
 42
0.000000001
 43
0.00000001
 40
0.0
 40
0.0
 40
0.0
 40
0.0
 40
0.2505997203817928
 40
0.3785755760659238
 40
0.5008488479556462
 40
0.6229457613796052
 40
0.7505374827897855
 40
1.0
 40
1.0
 40
1.0
 40
1.0
 10
71.60660939392638
 20
54.17953664388548
 30
0.0
 10
71.6212306348291
 20
54.17981786118533
 30
0.0
 10
71.64331862714255
 20
54.18024269007632
 30
0.0
 10
71.67049974595194
 20
54.1843312220662
 30
0.0
 10
71.68788524919145
 20
54.18913587360613
 30
0.0
 10
71.70111870644457
 20
54.19539053416339
 30
0.0
 10
71.7123081189877
 20
54.20507038995257
 30
0.0
 10
71.71346321841538
 20
54.21273240365364
 30
0.0
 10
71.7142274427135
 20
54.21780166167806
 30
0.0
  0
LINE
  5
229
330
1F
100
AcDbEntity
  8
0
  6
Continuous
 62
     7
370
    30
100
AcDbLine
 10
71.7142274427
 20
54.2340022507
 30
0.0
 11
71.8129881482
 21
54.2340022507
 31
0.0
  0
SPLINE
  5
22A
330
1F
100
AcDbEntity
  8
0
  6
Continuous
 62
     7
370
    30
100
AcDbSpline
210
0.0
220
0.0
230
1.0
 70
     8
 71
     3
 72
     9
 73
     5
 74
     0
 42
0.000000001
 43
0.00000001
 40
0.0
 40
0.0
 40
0.0
 40
0.0
 40
0.5744635215772514
 40
1.0
 40
1.0
 40
1.0
 40
1.0
 10
71.81298814815473
 20
54.23400225069414
 30
0.0
 10
71.81693370883116
 20
54.21133729105625
 30
0.0
 10
71.82380196160652
 20
54.1718831590068
 30
0.0
 10
71.8770360928402
 20
54.13110600464707
 30
0.0
 10
71.89968915757727
 20
54.11375383798074
 30
0.0
  0
LINE
  5
22B
330
1F
100
AcDbEntity
  8
0
  6
Continuous
 62
     7
370
    30
100
AcDbLine
 10
84.5976554613
 20
52.8013992584
 30
0.0
 11
84.5976554613
 21
47.6013992443
 31
0.0
  0
LINE
  5
22C
330
1F
100
AcDbEntity
  8
0
  6
Continuous
 62
     7
370
    30
100
AcDbLine
 10
71.4750759127
 20
46.1932837493
 30
0.0
 11
71.3586005206
 21
46.1932837493
 31
0.0
  0
LINE
  5
22D
330
1F
100
AcDbEntity
  8
0
  6
Continuous
 62
     7
370
    30
100
AcDbLine
 10
70.5933150659
 20
53.8093221835
 30
0.0
 11
70.5933150659
 21
53.7925411477
 31
0.0
  0
LINE
  5
22E
330
1F
100
AcDbEntity
  8
0
  6
Continuous
 62
     7
370
    30
100
AcDbLine
 10
70.4737393009
 20
53.8915183856
 30
0.0
 11
70.4737393009
 21
53.8743550419
 31
0.0
  0
LINE
  5
22F
330
1F
100
AcDbEntity
  8
0
  6
Continuous
 62
     7
370
    30
100
AcDbLine
 10
71.7173278156
 20
53.844561567
 30
0.0
 11
71.7173278156
 21
53.8276166185
 31
0.0
  0
LINE
  5
230
330
1F
100
AcDbEntity
  8
0
  6
Continuous
 62
     7
370
    30
100
AcDbLine
 10
71.5020912523
 20
53.8093221835
 30
0.0
 11
71.5020912523
 21
53.7925411477
 31
0.0
  0
LINE
  5
231
330
1F
100
AcDbEntity
  8
0
  6
Continuous
 62
     7
370
    30
100
AcDbLine
 10
71.8010308976
 20
53.9456049441
 30
0.0
 11
71.8010308976
 21
53.9281901433
 31
0.0
  0
LINE
  5
232
330
1F
100
AcDbEntity
  8
0
  6
Continuous
 62
     7
370
    30
100
AcDbLine
 10
71.7204277228
 20
54.113753838
 30
0.0
 11
71.7204277228
 21
54.0955567262
 31
0.0
  0
LINE
  5
233
330
1F
100
AcDbEntity
  8
0
  6
Continuous
 62
     7
370
    30
100
AcDbLine
 10
71.9206066626
 20
53.9098058357
 30
0.0
 11
71.9206066626
 21
53.8925572759
 31
0.0
  0
LINE
  5
234
330
1F
100
AcDbEntity
  8
0
  6
Continuous
 62
     7
370
    30
100
AcDbLine
 10
71.8129881482
 20
54.2528463988
 30
0.0
 11
71.8129881482
 21
54.2340022507
 31
0.0
  0
LINE
  5
235
330
1F
100
AcDbEntity
  8
0
  6
Continuous
 62
     7
370
    30
100
AcDbLine
 10
48.6609552811
 20
51.9513992471
 30
0.0
 11
48.6609552811
 21
48.4513991973
 31
0.0
  0
LINE
  5
236
330
1F
100
AcDbEntity
  8
0
  6
Continuous
 62
     7
370
    30
100
AcDbLine
 10
70.5933150659
 20
54.1981260753
 30
0.0
 11
70.5933150659
 21
54.1795366439
 31
0.0
  0
LINE
  5
237
330
1F
100
AcDbEntity
  8
0
  6
Continuous
 62
     7
370
    30
100
AcDbLine
 10
70.4737393009
 20
54.2528463988
 30
0.0
 11
70.4737393009
 21
54.2340022507
 31
0.0
  0
LINE
  5
238
330
1F
100
AcDbEntity
  8
0
  6
Continuous
 62
     7
370
    30
100
AcDbLine
 10
71.6066093939
 20
54.1981260753
 30
0.0
 11
71.6066093939
 21
54.1795366439
 31
0.0
  0
LINE
  5
239
330
1F
100
AcDbEntity
  8
0
  6
Continuous
 62
     7
370
    30
100
AcDbLine
 10
71.7142274427
 20
54.236569907
 30
0.0
 11
71.7142274427
 21
54.2178016617
 31
0.0
  0
SPLINE
  5
23A
330
1F
100
AcDbEntity
  8
0
  6
Continuous
 62
     7
370
    30
100
AcDbSpline
210
0.0
220
0.0
230
1.0
 70
     8
 71
     3
 72
    10
 73
     6
 74
     0
 42
0.000000001
 43
0.00000001
 40
0.0
 40
0.0
 40
0.0
 40
0.0
 40
0.4361719000763652
 40
0.8722259101946509
 40
1.0
 40
1.0
 40
1.0
 40
1.0
 10
72.66197668490013
 20
45.96583847839427
 30
0.0
 10
72.65720417735446
 20
45.95857287286926
 30
0.0
 10
72.64766045219196
 20
45.94404362559072
 30
0.0
 10
72.59280664010176
 20
45.9336163434263
 30
0.0
 10
72.54062442793919
 20
45.9309538116458
 30
0.0
 10
72.52879895371397
 20
45.93035043168854
 30
0.0
  0
SPLINE
  5
23B
330
1F
100
AcDbEntity
  8
0
  6
Continuous
 62
     7
370
    30
100
AcDbSpline
210
0.0
220
0.0
230
1.0
 70
     8
 71
     3
 72
     9
 73
     5
 74
     0
 42
0.000000001
 43
0.00000001
 40
0.0
 40
0.0
 40
0.0
 40
0.0
 40
0.5008378066467407
 40
1.0
 40
1.0
 40
1.0
 40
1.0
 10
70.497654733332
 20
45.93162727493831
 30
0.0
 10
70.45696297111357
 20
45.93563422903521
 30
0.0
 10
70.37571558587544
 20
45.94363473148073
 30
0.0
 10
70.36133952302085
 20
45.96196693666145
 30
0.0
 10
70.35416353595456
 20
45.97111768040845
 30
0.0
  0
SPLINE
  5
23C
330
1F
100
AcDbEntity
  8
0
  6
Continuous
 62
     7
370
    30
100
AcDbSpline
210
0.0
220
0.0
230
1.0
 70
     8
 71
     3
 72
    10
 73
     6
 74
     0
 42
0.000000001
 43
0.00000001
 40
0.0
 40
0.0
 40
0.0
 40
0.0
 40
0.249914818322567
 40
0.5000171628843799
 40
0.9999999999999999
 40
0.9999999999999999
 40
0.9999999999999999
 40
0.9999999999999999
 10
72.55435817045172
 20
45.96583847839426
 30
0.0
 10
72.55132993355812
 20
45.97086660915302
 30
0.0
 10
72.54527118750117
 20
45.98092664358187
 30
0.0
 10
72.47760853232562
 20
46.00236390815027
 30
0.0
 10
72.39451174116437
 20
46.01449302630505
 30
0.0
 10
72.33912207287749
 20
46.02257790926885
 30
0.0
  0
SPLINE
  5
23D
330
1F
100
AcDbEntity
  8
0
  6
Continuous
 62
     7
370
    30
100
AcDbSpline
210
0.0
220
0.0
230
1.0
 70
     8
 71
     3
 72
    13
 73
     9
 74
     0
 42
0.000000001
 43
0.00000001
 40
0.0
 40
0.0
 40
0.0
 40
0.0
 40
0.1637174463956326
 40
0.3263195605626398
 40
0.4997266479854974
 40
0.663438088824294
 40
0.817605342684465
 40
1.0
 40
1.0
 40
1.0
 40
1.0
 10
72.33912207287749
 20
46.02257790926885
 30
0.0
 10
72.29730614608059
 20
46.02733007756081
 30
0.0
 10
72.21395916530794
 20
46.03680203979143
 30
0.0
 10
72.07461533228093
 20
46.04537043536863
 30
0.0
 10
71.93371417929232
 20
46.0512927496914
 30
0.0
 10
71.79372060232565
 20
46.0549519286943
 30
0.0
 10
71.65067732580296
 20
46.0569447224439
 30
0.0
 10
71.5543139383852
 20
46.057180833754
 30
0.0
 10
71.50209125232895
 20
46.0573087907214
 30
0.0
  0
SPLINE
  5
23E
330
1F
100
AcDbEntity
  8
0
  6
Continuous
 62
     7
370
    30
100
AcDbSpline
210
0.0
220
0.0
230
1.0
 70
     8
 71
     3
 72
    19
 73
    15
 74
     0
 42
0.000000001
 43
0.00000001
 40
0.0
 40
0.0
 40
0.0
 40
0.0
 40
0.1395046532527155
 40
0.2504147192712962
 40
0.3826786698760866
 40
0.5007777258144032
 40
0.5944280857417523
 40
0.6773595452428789
 40
0.7508507540074305
 40
0.8154503646516117
 40
0.8754937673249807
 40
0.9067685049772378
 40
0.9378158283653852
 40
1.0
 40
1.0
 40
1.0
 40
1.0
 10
71.50209125232895
 20
46.0573087907214
 30
0.0
 10
71.44464198277565
 20
46.05711238028616
 30
0.0
 10
71.34151895159283
 20
46.05675981811092
 30
0.0
 10
71.18408229345111
 20
46.05474294933359
 30
0.0
 10
71.03605101150565
 20
46.05080496541341
 30
0.0
 10
70.89645576325721
 20
46.04475202486064
 30
0.0
 10
70.77918357466424
 20
46.03724264597413
 30
0.0
 10
70.68311489120126
 20
46.02865510333278
 30
0.0
 10
70.60337116323456
 20
46.01891979881611
 30
0.0
 10
70.54011088804342
 20
46.00807376971178
 30
0.0
 10
70.50097946749162
 20
45.99801421509766
 30
0.0
 10
70.47898989561548
 20
45.98974571458716
 30
0.0
 10
70.46234967743216
 20
45.98121656592905
 30
0.0
 10
70.46014930008333
 20
45.97515839807893
 30
0.0
 10
70.45868167755206
 20
45.97111768040845
 30
0.0
  0
SPLINE
  5
23F
330
1F
100
AcDbEntity
  8
0
  6
Continuous
 62
     7
370
    30
100
AcDbSpline
210
0.0
220
0.0
230
1.0
 70
     8
 71
     3
 72
    13
 73
     9
 74
     0
 42
0.000000001
 43
0.00000001
 40
0.0
 40
0.0
 40
0.0
 40
0.0
 40
0.2494597358550127
 40
0.3805318131670915
 40
0.4992122240380716
 40
0.6202174397397552
 40
0.7495715817943676
 40
1.0
 40
1.0
 40
1.0
 40
1.0
 10
70.5096119838674
 20
54.426106856652
 30
0.0
 10
70.51202567536002
 20
54.41772144841525
 30
0.0
 10
70.5157075777599
 20
54.40493014728788
 30
0.0
 10
70.5526279210657
 20
54.38616306604525
 30
0.0
 10
70.59473561140467
 20
54.37305210380983
 30
0.0
 10
70.65229750461452
 20
54.36259480417613
 30
0.0
 10
70.74354619943439
 20
54.35305559142535
 30
0.0
 10
70.81875024008264
 20
54.35204392625083
 30
0.0
 10
70.86833974448037
 20
54.35137683477292
 30
0.0
  0
LINE
  5
240
330
1F
100
AcDbEntity
  8
0
  6
Continuous
 62
     7
370
    30
100
AcDbLine
 10
70.8683397445
 20
54.3513768348
 30
0.0
 11
72.3989097225
 21
54.3513768348
 31
0.0
  0
SPLINE
  5
241
330
1F
100
AcDbEntity
  8
0
  6
Continuous
 62
     7
370
    30
100
AcDbSpline
210
0.0
220
0.0
230
1.0
 70
     8
 71
     3
 72
    12
 73
     8
 74
     0
 42
0.000000001
 43
0.00000001
 40
0.0
 40
0.0
 40
0.0
 40
0.0
 40
0.251018282220783
 40
0.5008744800350896
 40
0.6232424181123485
 40
0.7510511064564315
 40
1.0
 40
1.0
 40
1.0
 40
1.0
 10
72.3989097225387
 20
54.35137683477294
 30
0.0
 10
72.41670911058605
 20
54.35154857115832
 30
0.0
 10
72.45222548474926
 20
54.35189124887872
 30
0.0
 10
72.49506995448093
 20
54.35581872323552
 30
0.0
 10
72.52123064466032
 20
54.36163654484347
 30
0.0
 10
72.53917008390428
 20
54.36894227030763
 30
0.0
 10
72.54111547205528
 20
54.37492746502846
 30
0.0
 10
72.54240091991615
 20
54.37888228286099
 30
0.0
  0
LINE
  5
242
330
1F
100
AcDbEntity
  8
0
  6
Continuous
 62
     7
370
    30
100
AcDbLine
 10
72.5424009199
 20
54.3889810792
 30
0.0
 11
72.6380612525
 21
54.3889810792
 31
0.0
  0
SPLINE
  5
243
330
1F
100
AcDbEntity
  8
0
  6
Continuous
 62
     7
370
    30
100
AcDbSpline
210
0.0
220
0.0
230
1.0
 70
     8
 71
     3
 72
    12
 73
     8
 74
     0
 42
0.000000001
 43
0.00000001
 40
0.0
 40
0.0
 40
0.0
 40
0.0
 40
0.3704011097464998
 40
0.5621025999910166
 40
0.741411723687753
 40
0.9213341534195044
 40
1.0
 40
1.0
 40
1.0
 40
1.0
 10
70.35416353595447
 20
54.43523288656065
 30
0.0
 10
70.35779707306301
 20
54.44404570383107
 30
0.0
 10
70.36331115118571
 20
54.45741960409919
 30
0.0
 10
70.41329496585219
 20
54.4681851050788
 30
0.0
 10
70.47254078982175
 20
54.47360832271103
 30
0.0
 10
70.53381220196978
 20
54.47626900036524
 30
0.0
 10
70.57670904481783
 20
54.47694796110787
 30
0.0
 10
70.58975881067109
 20
54.47715450961182
 30
0.0
  0
SPLINE
  5
244
330
1F
100
AcDbEntity
  8
0
  6
Continuous
 62
     7
370
    30
100
AcDbSpline
210
0.0
220
0.0
230
1.0
 70
     8
 71
     3
 72
    19
 73
    15
 74
     0
 42
0.000000001
 43
0.00000001
 40
0.0
 40
0.0
 40
0.0
 40
0.0
 40
0.139359536215284
 40
0.2501561170982614
 40
0.3822900538337929
 40
0.5002844438366616
 40
0.5938695387527115
 40
0.6767684637658834
 40
0.7502687010480936
 40
0.8149268186706119
 40
0.8750876093309021
 40
0.9064483596655214
 40
0.9375940461948442
 40
1.0
 40
1.0
 40
1.0
 40
1.0
 10
71.50209125232895
 20
46.03794380042742
 30
0.0
 10
71.44464206707062
 20
46.03774641656663
 30
0.0
 10
71.34151840933625
 20
46.037392104393
 30
0.0
 10
71.1840791361553
 20
46.03536624728596
 30
0.0
 10
71.03604406836054
 20
46.03140958506797
 30
0.0
 10
70.896443769696
 20
46.02532796892287
 30
0.0
 10
70.77916819531873
 20
46.01778309339294
 30
0.0
 10
70.68309244547069
 20
46.00915389294889
 30
0.0
 10
70.6033433435002
 20
45.99937164200603
 30
0.0
 10
70.54008162210435
 20
45.98847321731494
 30
0.0
 10
70.50096827096961
 20
45.9783684340491
 30
0.0
 10
70.47898682493987
 20
45.97006306213027
 30
0.0
 10
70.46234712238598
 20
45.96149494180746
 30
0.0
 10
70.46014839408
 20
45.95540968260848
 30
0.0
 10
70.45868167755206
 20
45.95135035876223
 30
0.0
  0
SPLINE
  5
245
330
1F
100
AcDbEntity
  8
0
  6
Continuous
 62
     7
370
    30
100
AcDbSpline
210
0.0
220
0.0
230
1.0
 70
     8
 71
     3
 72
    13
 73
     9
 74
     0
 42
0.000000001
 43
0.00000001
 40
0.0
 40
0.0
 40
0.0
 40
0.0
 40
0.1638167561758151
 40
0.3264381669671345
 40
0.4998299594120477
 40
0.6635127099393253
 40
0.8176469860966105
 40
1.0
 40
1.0
 40
1.0
 40
1.0
 10
72.33912207287749
 20
46.00305086884688
 30
0.0
 10
72.29731156306973
 20
46.00782489520186
 30
0.0
 10
72.21399562823973
 20
46.01733811258419
 30
0.0
 10
72.07462804366928
 20
46.02594907950361
 30
0.0
 10
71.93372048420386
 20
46.03189965077834
 30
0.0
 10
71.79372313819059
 20
46.03557552946959
 30
0.0
 10
71.65067832319977
 20
46.03757890391958
 30
0.0
 10
71.55431406538598
 20
46.0378155529157
 30
0.0
 10
71.50209125232895
 20
46.03794380042742
 30
0.0
  0
SPLINE
  5
246
330
1F
100
AcDbEntity
  8
0
  6
Continuous
 62
     7
370
    30
100
AcDbSpline
210
0.0
220
0.0
230
1.0
 70
     8
 71
     3
 72
    10
 73
     6
 74
     0
 42
0.000000001
 43
0.00000001
 40
0.0
 40
0.0
 40
0.0
 40
0.0
 40
0.2502962454278658
 40
0.5005477740059877
 40
1.0
 40
1.0
 40
1.0
 40
1.0
 10
72.55435817045172
 20
45.94604601103853
 30
0.0
 10
72.55133223067646
 20
45.95109656092087
 30
0.0
 10
72.54528089172732
 20
45.96119675837605
 30
0.0
 10
72.47770121717207
 20
45.982722183823
 30
0.0
 10
72.39453041512702
 20
45.99492281506924
 30
0.0
 10
72.33912207287749
 20
46.00305086884688
 30
0.0
  0
SPLINE
  5
247
330
1F
100
AcDbEntity
  8
0
  6
Continuous
 62
     7
370
    30
100
AcDbSpline
210
0.0
220
0.0
230
1.0
 70
     8
 71
     3
 72
    11
 73
     7
 74
     0
 42
0.000000001
 43
0.00000001
 40
0.0
 40
0.0
 40
0.0
 40
0.0
 40
0.2503544720639645
 40
0.5001024212045363
 40
0.7498622286236285
 40
1.0
 40
1.0
 40
1.0
 40
1.0
 10
72.35993713242014
 20
45.91362620655488
 30
0.0
 10
72.38733771391163
 20
45.91481307905092
 30
0.0
 10
72.442072494694
 20
45.91718394865844
 30
0.0
 10
72.50718393120292
 20
45.92363819798886
 30
0.0
 10
72.5484645414795
 20
45.93311990807013
 30
0.0
 10
72.5523926374724
 20
45.94173513877317
 30
0.0
 10
72.55435817045172
 20
45.94604601103853
 30
0.0
  0
SPLINE
  5
248
330
1F
100
AcDbEntity
  8
0
  6
Continuous
 62
     7
370
    30
100
AcDbSpline
210
0.0
220
0.0
230
1.0
 70
     8
 71
     3
 72
    14
 73
    10
 74
     0
 42
0.000000001
 43
0.00000001
 40
0.0
 40
0.0
 40
0.0
 40
0.0
 40
0.1807062447473925
 40
0.3376491556797666
 40
0.5000449996972758
 40
0.6313811894604501
 40
0.7500477701604482
 40
0.8750314474990976
 40
1.0
 40
1.0
 40
1.0
 40
1.0
 10
71.50209125232895
 20
45.9050729400296
 30
0.0
 10
71.55495881204384
 20
45.90509610758811
 30
0.0
 10
71.6537417120235
 20
45.90513939611187
 30
0.0
 10
71.79981939414596
 20
45.9055134792509
 30
0.0
 10
71.93095099668085
 20
45.90614912992733
 30
0.0
 10
72.05011806583573
 20
45.90709616642287
 30
0.0
 10
72.15698989047775
 20
45.90844744421106
 30
0.0
 10
72.26062482432624
 20
45.9102604591698
 30
0.0
 10
72.32683436518877
 20
45.91250433601954
 30
0.0
 10
72.35993713242014
 20
45.91362620655488
 30
0.0
  0
SPLINE
  5
249
330
1F
100
AcDbEntity
  8
0
  6
Continuous
 62
     7
370
    30
100
AcDbSpline
210
0.0
220
0.0
230
1.0
 70
     8
 71
     3
 72
    13
 73
     9
 74
     0
 42
0.000000001
 43
0.00000001
 40
0.0
 40
0.0
 40
0.0
 40
0.0
 40
0.1639874163725856
 40
0.3280478172428435
 40
0.4999232847252831
 40
0.6625929519614617
 40
0.8199940539280637
 40
1.0
 40
1.0
 40
1.0
 40
1.0
 10
70.68587549132307
 20
45.91362620655487
 30
0.0
 10
70.7276101575013
 20
45.91229239861892
 30
0.0
 10
70.81109806435397
 20
45.90962418912036
 30
0.0
 10
70.94593446455598
 20
45.90758845692622
 30
0.0
 10
71.08252840906971
 20
45.90627857717312
 30
0.0
 10
71.21876509949232
 20
45.90555135210332
 30
0.0
 10
71.35787308094513
 20
45.90514544454182
 30
0.0
 10
71.45191831760137
 20
45.9050981640643
 30
0.0
 10
71.50209125232895
 20
45.9050729400296
 30
0.0
  0
SPLINE
  5
24A
330
1F
100
AcDbEntity
  8
0
  6
Continuous
 62
     7
370
    30
100
AcDbSpline
210
0.0
220
0.0
230
1.0
 70
     8
 71
     3
 72
    12
 73
     8
 74
     0
 42
0.000000001
 43
0.00000001
 40
0.0
 40
0.0
 40
0.0
 40
0.0
 40
0.2499192952712925
 40
0.4994637403879566
 40
0.7493261598995853
 40
0.8746341463588625
 40
1.0
 40
1.0
 40
1.0
 40
1.0
 10
70.45868167755206
 20
45.95135035876223
 30
0.0
 10
70.46125381633377
 20
45.9461942471187
 30
0.0
 10
70.46639423598529
 20
45.93588975740516
 30
0.0
 10
70.51577915435452
 20
45.92485288889944
 30
0.0
 10
70.57967492130307
 20
45.91888452830516
 30
0.0
 10
70.63845891171604
 20
45.91550916276008
 30
0.0
 10
70.67006753254077
 20
45.91425395521003
 30
0.0
 10
70.68587549132307
 20
45.91362620655487
 30
0.0
  0
LINE
  5
24B
330
1F
100
AcDbEntity
  8
0
  6
Continuous
 62
     7
370
    30
100
AcDbLine
 10
70.4586816776
 20
45.9711176804
 30
0.0
 11
70.4586816776
 21
45.9513503588
 31
0.0
  0
LINE
  5
24C
330
1F
100
AcDbEntity
  8
0
  6
Continuous
 62
     7
370
    30
100
AcDbLine
 10
71.5020912523
 20
46.0573087907
 30
0.0
 11
71.5020912523
 21
46.0379438004
 31
0.0
  0
LINE
  5
24D
330
1F
100
AcDbEntity
  8
0
  6
Continuous
 62
     7
370
    30
100
AcDbLine
 10
72.3391220729
 20
46.0225779093
 30
0.0
 11
72.3391220729
 21
46.0030508688
 31
0.0
  0
LINE
  5
24E
330
1F
100
AcDbEntity
  8
0
  6
Continuous
 62
     7
370
    30
100
AcDbLine
 10
70.8683397445
 20
54.3707692991
 30
0.0
 11
70.8683397445
 21
54.3513768348
 31
0.0
  0
LINE
  5
24F
330
1F
100
AcDbEntity
  8
0
  6
Continuous
 62
     7
370
    30
100
AcDbLine
 10
70.5096119839
 20
54.4458485669
 30
0.0
 11
70.5096119839
 21
54.4261068567
 31
0.0
  0
LINE
  5
250
330
1F
100
AcDbEntity
  8
0
  6
Continuous
 62
     7
370
    30
100
AcDbLine
 10
72.5424009199
 20
54.3984032697
 30
0.0
 11
72.5424009199
 21
54.3788822829
 31
0.0
  0
LINE
  5
251
330
1F
100
AcDbEntity
  8
0
  6
Continuous
 62
     7
370
    30
100
AcDbLine
 10
72.3989097225
 20
54.3707692991
 30
0.0
 11
72.3989097225
 21
54.3513768348
 31
0.0
  0
LINE
  5
252
330
1F
100
AcDbEntity
  8
0
  6
Continuous
 62
     7
370
    30
100
AcDbLine
 10
72.5543581705
 20
45.9658384784
 30
0.0
 11
72.5543581705
 21
45.946046011
 31
0.0
  0
LINE
  5
253
330
1F
100
AcDbEntity
  8
0
  6
Continuous
 62
     7
370
    30
100
AcDbLine
 10
65.0976545351
 20
50.2513992828
 30
0.0
 11
63.300184562
 21
50.2513992828
 31
0.0
  0
LINE
  5
254
330
1F
100
AcDbEntity
  8
0
  6
Continuous
 62
     7
370
    30
100
AcDbLine
 10
63.300184562
 20
50.1513992199
 30
0.0
 11
63.300184562
 21
46.7013993761
 31
0.0
  0
LINE
  5
255
330
1F
100
AcDbEntity
  8
0
  6
Continuous
 62
     7
370
    30
100
AcDbLine
 10
63.300184562
 20
53.7013993594
 30
0.0
 11
63.300184562
 21
50.2513992828
 31
0.0
  0
LINE
  5
256
330
1F
100
AcDbEntity
  8
0
  6
Continuous
 62
     7
370
    30
100
AcDbLine
 10
63.300184562
 20
50.1513992199
 30
0.0
 11
65.0976545351
 21
50.1513992199
 31
0.0
  0
SPLINE
  5
257
330
1F
100
AcDbEntity
  8
0
  6
Continuous
 62
     7
370
    30
100
AcDbSpline
210
0.0
220
0.0
230
1.0
 70
     8
 71
     3
 72
    13
 73
     9
 74
     0
 42
0.000000001
 43
0.00000001
 40
0.0
 40
0.0
 40
0.0
 40
0.0
 40
0.3632180738216483
 40
0.5474217791165306
 40
0.7310449908689672
 40
0.8578118412070602
 40
0.98548806918087
 40
1.0
 40
1.0
 40
1.0
 40
1.0
 10
64.84088977434678
 20
52.43014189133454
 30
0.0
 10
64.84299970340379
 20
52.50844650816968
 30
0.0
 10
64.84617966938413
 20
52.62646280678034
 30
0.0
 10
64.88670410494566
 20
52.76817097169306
 30
0.0
 10
64.93526477055312
 20
52.85717638791303
 30
0.0
 10
65.00193601012559
 20
52.92363829713367
 30
0.0
 10
65.05593525526997
 20
52.96078641387139
 30
0.0
 10
65.09379092971949
 20
52.96960736792515
 30
0.0
 10
65.09765453505335
 20
52.97050764735822
 30
0.0
  0
SPLINE
  5
258
330
1F
100
AcDbEntity
  8
0
  6
Continuous
 62
     7
370
    30
100
AcDbSpline
210
0.0
220
0.0
230
1.0
 70
     8
 71
     3
 72
    17
 73
    13
 74
     0
 42
0.000000001
 43
0.00000001
 40
0.0
 40
0.0
 40
0.0
 40
0.0
 40
0.0619640436823614
 40
0.1282879734142321
 40
0.1924618807062938
 40
0.2581290245926
 40
0.3702010506855428
 40
0.4852728072613472
 40
0.6116029034902282
 40
0.7393676920183468
 40
0.8694859485727449
 40
1.0
 40
1.0
 40
1.0
 40
1.0
 10
65.09765453505335
 20
51.88943532945622
 30
0.0
 10
65.08342302158556
 20
51.89472802155449
 30
0.0
 10
65.05395864332834
 20
51.90568580776147
 30
0.0
 10
65.0146293248842
 20
51.93004571213578
 30
0.0
 10
64.97895206357903
 20
51.95914438928764
 30
0.0
 10
64.94215450832662
 20
52.00048954906545
 30
0.0
 10
64.90735306399475
 20
52.0555501972819
 30
0.0
 10
64.87726564084973
 20
52.12545721069193
 30
0.0
 10
64.85843708321697
 20
52.20020765438013
 30
0.0
 10
64.84741683520463
 20
52.27749663454659
 30
0.0
 10
64.84157613106187
 20
52.35455829088667
 30
0.0
 10
64.84111879142301
 20
52.40492186389822
 30
0.0
 10
64.84088977434678
 20
52.43014189133454
 30
0.0
  0
LINE
  5
259
330
1F
100
AcDbEntity
  8
0
  6
Continuous
 62
     7
370
    30
100
AcDbLine
 10
63.300184562
 20
50.2513992828
 30
0.0
 11
63.300184562
 21
50.1513992199
 31
0.0
  0
SPLINE
  5
25A
330
1F
100
AcDbEntity
  8
0
  6
Continuous
 62
     7
370
    30
100
AcDbSpline
210
0.0
220
0.0
230
1.0
 70
     8
 71
     3
 72
    12
 73
     8
 74
     0
 42
0.000000001
 43
0.00000001
 40
0.0
 40
0.0
 40
0.0
 40
0.0
 40
0.0227209410500977
 40
0.1790164118673966
 40
0.4429399777920105
 40
0.7209778109948435
 40
1.0
 40
1.0
 40
1.0
 40
1.0
 10
65.09765453505335
 20
52.85203817717765
 30
0.0
 10
65.09365204173366
 20
52.85033223217823
 30
0.0
 10
65.06211672851602
 20
52.83689123288318
 30
0.0
 10
65.00855872157078
 20
52.78356918998114
 30
0.0
 10
64.9590169898128
 20
52.68851467253589
 30
0.0
 10
64.93744491203195
 20
52.56438561031926
 30
0.0
 10
64.93639450859261
 20
52.47522501010302
 30
0.0
 10
64.9358683788125
 20
52.4305659341443
 30
0.0
  0
SPLINE
  5
25B
330
1F
100
AcDbEntity
  8
0
  6
Continuous
 62
     7
370
    30
100
AcDbSpline
210
0.0
220
0.0
230
1.0
 70
     8
 71
     3
 72
    15
 73
    11
 74
     0
 42
0.000000001
 43
0.00000001
 40
0.0
 40
0.0
 40
0.0
 40
0.0
 40
0.1992995690602556
 40
0.3993777453485512
 40
0.5429660099631818
 40
0.6891510320123994
 40
0.773537855191148
 40
0.8597386776699957
 40
0.9443242807339834
 40
1.0
 40
1.0
 40
1.0
 40
1.0
 10
64.9358683788125
 20
52.4305659341443
 30
0.0
 10
64.93629590502508
 20
52.40137801163843
 30
0.0
 10
64.93715262767459
 20
52.34288813764238
 30
0.0
 10
64.94473885771569
 20
52.26094223529536
 30
0.0
 10
64.95935848564957
 20
52.18629600180643
 30
0.0
 10
64.98147635149083
 20
52.13038545555721
 30
0.0
 10
65.00777147230973
 20
52.08520272165313
 30
0.0
 10
65.03573961993621
 20
52.05194892776439
 30
0.0
 10
65.06593921443734
 20
52.02568184748703
 30
0.0
 10
65.08864259288731
 20
52.01396413387788
 30
0.0
 10
65.09765453505335
 20
52.00931287205812
 30
0.0
  0
LINE
  5
25C
330
1F
100
AcDbEntity
  8
0
  6
Continuous
 62
     7
370
    30
100
AcDbLine
 10
62.3001846309
 20
53.2013992774
 30
0.0
 11
62.3001846309
 21
47.2013994581
 31
0.0
  0
LINE
  5
25D
330
1F
100
AcDbEntity
  8
0
  6
Continuous
 62
     7
370
    30
100
AcDbLine
 10
57.5001844029
 20
53.2013992774
 30
0.0
 11
57.5001844029
 21
47.2013994581
 31
0.0
  0
LINE
  5
25E
330
1F
100
AcDbEntity
  8
0
  6
Continuous
 62
     7
370
    30
100
AcDbLine
 10
57.3001847426
 20
47.4013991183
 30
0.0
 11
57.3001847426
 21
53.0013992679
 31
0.0
  0
DIMENSION
  5
25F
330
1F
100
AcDbEntity
  8
DIM
100
AcDbDimension
  2
_D
 10
44.5976545398
 20
48.4513992448
 30
0.0
 11
44.5976545398
 21
50.2013992448
 31
0.0
 70
   160
  1
%%c<>
 71
     2
 42
-1.0
  3
SLDDIMSTYLE0
100
AcDbAlignedDimension
 13
48.6609559536
 23
51.9513992448
 33
0.0
 14
48.6609559536
 24
48.4513992448
 34
0.0
 50
90.0
100
AcDbRotatedDimension
  0
DIMENSION
  5
26B
330
1F
100
AcDbEntity
  8
DIM
100
AcDbDimension
  2
_D_1
 10
42.0976545398
 20
47.2013992448
 30
0.0
 11
42.0976545398
 21
50.2013992448
 31
0.0
 70
   160
  1
%%c<>
 71
     2
 42
-1.0
  3
SLDDIMSTYLE0
100
AcDbAlignedDimension
 13
57.5001846098
 23
53.2013992448
 33
0.0
 14
57.5001846098
 24
47.2013992448
 34
0.0
 50
90.0
100
AcDbRotatedDimension
  0
DIMENSION
  5
276
330
1F
100
AcDbEntity
  8
DIM
100
AcDbDimension
  2
_D_2
 10
57.3001846098
 20
42.0013992448
 30
0.0
 11
52.6989195748
 21
42.0013992448
 31
0.0
 70
   160
  1
<>
 71
     2
 42
-1.0
  3
SLDDIMSTYLE0
100
AcDbAlignedDimension
 13
48.0976545398
 23
50.2013992448
 33
0.0
 14
57.3001846098
 24
47.4013992448
 34
0.0
 50
0.0
100
AcDbRotatedDimension
  0
DIMENSION
  5
280
330
1F
100
AcDbEntity
  8
DIM
100
AcDbDimension
  2
_D_3
 10
62.3001846098
 20
42.0013992448
 30
0.0
 11
59.8001846098
 21
42.0013992448
 31
0.0
 70
   160
  1
<>
 71
     2
 42
-1.0
  3
SLDDIMSTYLE0
100
AcDbAlignedDimension
 13
57.3001846098
 23
47.4013992448
 33
0.0
 14
62.3001846098
 24
47.2013992448
 34
0.0
 50
0.0
100
AcDbRotatedDimension
  0
DIMENSION
  5
28A
330
1F
100
AcDbEntity
  8
DIM
100
AcDbDimension
  2
_D_4
 10
85.0974951413
 20
42.0013992448
 30
0.0
 11
73.6988398755
 21
42.0013992448
 31
0.0
 70
   160
  1
<>
 71
     2
 42
-1.0
  3
SLDDIMSTYLE0
100
AcDbAlignedDimension
 13
62.3001846098
 23
47.2013992448
 33
0.0
 14
85.0974951413
 24
50.2013992448
 34
0.0
 50
0.0
100
AcDbRotatedDimension
  0
DIMENSION
  5
294
330
1F
100
AcDbEntity
  8
DIM
100
AcDbDimension
  2
_D_5
 10
85.0974951413
 20
39.5013992448
 30
0.0
 11
66.5975748405
 21
39.5013992448
 31
0.0
 70
   160
  1
<>
 71
     2
 42
-1.0
  3
SLDDIMSTYLE0
100
AcDbAlignedDimension
 13
48.0976545398
 23
50.2013992448
 33
0.0
 14
85.0974951413
 24
50.2013992448
 34
0.0
 50
0.0
100
AcDbRotatedDimension
  0
DIMENSION
  5
29E
330
1F
100
AcDbEntity
  8
DIM
100
AcDbDimension
  2
_D_6
 10
88.5975058398
 20
45.5013992448
 30
0.0
 11
88.5975058398
 21
50.2013992448
 31
0.0
 70
   160
  1
%%c<>
 71
     2
 42
-1.0
  3
SLDDIMSTYLE0
100
AcDbAlignedDimension
 13
82.5976545398
 23
54.9013992448
 33
0.0
 14
82.5976545398
 24
45.5013992448
 34
0.0
 50
90.0
100
AcDbRotatedDimension
  0
LINE
  5
2A9
330
1F
100
AcDbEntity
  8
0
  6
Continuous
 62
     7
370
    30
100
AcDbLine
 10
126.7146952487
 20
66.5833271731
 30
0.0
 11
121.4113943898
 21
69.6448575925
 31
0.0
  0
LINE
  5
2AA
330
1F
100
AcDbEntity
  8
0
  6
Continuous
 62
     7
370
    30
100
AcDbLine
 10
116.7117763464
 20
61.5039982861
 30
0.0
 11
122.0150772053
 21
58.4424678667
 31
0.0
  0
LINE
  5
2AB
330
1F
100
AcDbEntity
  8
0
  6
Continuous
 62
     7
370
    30
100
AcDbLine
 10
127.0789941418
 20
63.9482164503
 30
0.0
 11
126.01833397
 21
64.5605225342
 31
0.0
  0
LINE
  5
2AC
330
1F
100
AcDbEntity
  8
0
  6
Continuous
 62
     7
370
    30
100
AcDbLine
 10
123.4185452651
 20
60.0570684498
 30
0.0
 11
124.4792054369
 21
59.4447623659
 31
0.0
  0
LINE
  5
2AD
330
1F
100
AcDbEntity
  8
0
  6
Continuous
 62
     7
370
    30
100
AcDbLine
 10
120.2626502545
 20
69.8461457617
 30
0.0
 11
114.8828049516
 21
72.9518643479
 31
0.0
  0
LINE
  5
2AE
330
1F
100
AcDbEntity
  8
0
  6
Continuous
 62
     7
370
    30
100
AcDbLine
 10
115.172565089
 20
62.8544337357
 30
0.0
 11
115.9629997041
 21
62.3981255452
 31
0.0
  0
LINE
  5
2AF
330
1F
100
AcDbEntity
  8
0
  6
Continuous
 62
     7
370
    30
100
AcDbLine
 10
113.7051558585
 20
63.701551053
 30
0.0
 11
115.0247091629
 21
62.939789145
 31
0.0
  0
LINE
  5
2B0
330
1F
100
AcDbEntity
  8
0
  6
Continuous
 62
     7
370
    30
100
AcDbLine
 10
110.5831544013
 20
65.5038441314
 30
0.0
 11
113.5745160397
 21
63.7769678152
 31
0.0
  0
LINE
  5
2B1
330
1F
100
AcDbEntity
  8
0
  6
Continuous
 62
     7
370
    30
100
AcDbLine
 10
106.2588391261
 20
74.9859672326
 30
0.0
 11
101.2429454166
 21
77.8815810362
 31
0.0
  0
LINE
  5
2B2
330
1F
100
AcDbEntity
  8
0
  6
Continuous
 62
     7
370
    30
100
AcDbLine
 10
99.4930876345
 20
74.8504100179
 30
0.0
 11
104.508981344
 21
71.9547962143
 31
0.0
  0
LINE
  5
2B3
330
1F
100
AcDbEntity
  8
0
  6
Continuous
 62
     7
370
    30
100
AcDbLine
 10
113.5022973921
 20
73.0688504292
 30
0.0
 11
112.6256519494
 21
72.8275234921
 31
0.0
  0
LINE
  5
2B4
330
1F
100
AcDbEntity
  8
0
  6
Continuous
 62
     7
370
    30
100
AcDbLine
 10
109.5620709802
 20
67.5206705918
 30
0.0
 11
109.7914810069
 21
66.6408314232
 31
0.0
  0
ARC
  5
2B5
330
1F
100
AcDbEntity
  8
0
  6
Continuous
 62
     7
370
    30
100
AcDbCircle
 10
102.0910226196
 20
75.3713252811
 30
0.0
 40
3.000000000000013
100
AcDbArc
 50
144.1599086879
 51
155.8454678448
  0
LINE
  5
2B6
330
1F
100
AcDbEntity
  8
0
  6
Continuous
 62
     7
370
    30
100
AcDbLine
 10
113.2163727222
 20
72.9901397881
 30
0.0
 11
112.4693721618
 21
73.4213740325
 31
0.0
  0
LINE
  5
2B7
330
1F
100
AcDbEntity
  8
0
  6
Continuous
 62
     7
370
    30
100
AcDbLine
 10
108.9696565976
 20
67.3590319959
 30
0.0
 11
109.7166571579
 21
66.9277977514
 31
0.0
  0
LINE
  5
2B8
330
1F
100
AcDbEntity
  8
0
  6
Continuous
 62
     7
370
    30
100
AcDbLine
 10
110.3348097112
 20
70.8794150932
 30
0.0
 11
110.2960794272
 21
70.8570565761
 31
0.0
  0
LINE
  5
2B9
330
1F
100
AcDbEntity
  8
0
  6
Continuous
 62
     7
370
    30
100
AcDbLine
 10
111.3179314123
 20
73.5087519978
 30
0.0
 11
108.1181731478
 21
75.3559331256
 31
0.0
  0
LINE
  5
2BA
330
1F
100
AcDbEntity
  8
0
  6
Continuous
 62
     7
370
    30
100
AcDbLine
 10
105.1184169499
 20
70.1596399513
 30
0.0
 11
108.3181752144
 21
68.3124588236
 31
0.0
  0
LINE
  5
2BB
330
1F
100
AcDbEntity
  8
0
  6
Continuous
 62
     7
370
    30
100
AcDbLine
 10
106.6179502746
 20
75.2072099079
 30
0.0
 11
106.4765519033
 21
75.1255558277
 31
0.0
  0
LINE
  5
2BC
330
1F
100
AcDbEntity
  8
0
  6
Continuous
 62
     7
370
    30
100
AcDbLine
 10
104.4969747053
 20
71.6964559931
 30
0.0
 11
104.4969747053
 21
71.5331743707
 31
0.0
  0
LWPOLYLINE
  5
2BD
330
1F
100
AcDbEntity
  8
0
  6
Continuous
 62
     7
370
    30
100
AcDbPolyline
 90
       33
 70
   128
 43
0.0
 10
124.7184396176
 20
65.5749587395
 10
124.4227884767
 20
65.3863905849
 10
124.1303765517
 20
65.1641036543
 10
123.8444075687
 20
64.91053337
 10
123.5680146637
 20
64.6284579011
 10
123.3042260552
 20
64.3209677254
 10
123.0559318664
 20
63.9914317697
 10
122.8258524605
 20
63.6434604988
 10
122.6165086356
 20
63.2808663587
 10
122.4301940063
 20
62.9076220068
 10
122.2689498748
 20
62.5278167864
 10
122.1345428655
 20
62.1456119227
 10
122.0284455697
 20
61.7651949325
 10
121.9518204116
 20
61.3907337437
 10
121.9055069125
 20
61.0263310315
 10
121.8900124928
 20
60.6759792683
 10
121.9055069125
 20
60.3435169814
 10
121.9518204116
 20
60.0325866971
 10
122.0284455697
 20
59.7465950327
 10
122.1345428655
 20
59.4886753727
 10
122.2689498748
 20
59.2616535388
 10
122.4301940063
 20
59.0680168299
 10
122.6165086356
 20
58.9098867701
 10
122.8258524605
 20
58.7889958656
 10
123.0559318664
 20
58.7066686224
 10
123.3042260552
 20
58.6638070349
 10
123.5680146637
 20
58.6608807037
 10
123.8444075687
 20
58.6979216903
 10
124.1303765517
 20
58.7745241659
 10
124.4227884767
 20
58.8898488578
 10
124.7184396176
 20
59.0426322444
 10
125.0140907584
 20
59.2312003991
 10
125.1641879969
 20
59.3407722784
  0
LWPOLYLINE
  5
2BE
330
1F
100
AcDbEntity
  8
0
  6
Continuous
 62
     7
370
    30
100
AcDbPolyline
 90
       18
 70
   128
 43
0.0
 10
127.5115942643
 20
63.407039788
 10
127.5313723226
 20
63.5912599525
 10
127.5468667423
 20
63.9416117156
 10
127.5313723226
 20
64.2740740026
 10
127.4850588235
 20
64.5850042869
 10
127.4084336654
 20
64.8709959513
 10
127.3023363696
 20
65.1289156113
 10
127.1679293603
 20
65.3559374451
 10
127.0066852288
 20
65.5495741541
 10
126.8203705996
 20
65.7077042138
 10
126.6110267746
 20
65.8285951184
 10
126.3809473687
 20
65.9109223616
 10
126.1326531799
 20
65.9537839491
 10
125.8688645715
 20
65.9567102803
 10
125.5924716665
 20
65.9196692936
 10
125.3065026834
 20
65.843066818
 10
125.0140907584
 20
65.7277421262
 10
124.7184396176
 20
65.5749587395
  0
LWPOLYLINE
  5
2BF
330
1F
100
AcDbEntity
  8
0
  6
Continuous
 62
     7
370
    30
100
AcDbPolyline
 90
       37
 70
   128
 43
0.0
 10
124.364886227
 20
66.3506393358
 10
124.0441316816
 20
66.1475556975
 10
123.7263719349
 20
65.9105362351
 10
123.4145738242
 20
65.6417939354
 10
123.1116485243
 20
65.343837973
 10
122.8204243672
 20
65.0194502823
 10
122.5436204344
 20
64.6716595838
 10
122.2838211695
 20
64.3037131056
 10
122.0434522484
 20
63.9190462647
 10
121.8247579308
 20
63.5212505919
 10
121.6297801068
 20
63.1140401981
 10
121.4603392316
 20
62.7012170972
 10
121.3180173292
 20
62.286635707
 10
121.2041432207
 20
61.8741668625
 10
121.1197801181
 20
61.467661674
 10
121.0657156969
 20
61.070915571
 10
121.0424547419
 20
60.6876328649
 10
121.0502144346
 20
60.3213921631
 10
121.0889223247
 20
59.9756129564
 10
121.1582170071
 20
59.653523692
 10
121.2574514961
 20
59.3581316306
 10
121.3856992658
 20
59.0921947683
 10
121.5417629015
 20
58.8581960859
 10
121.7241852791
 20
58.6583203662
 10
121.9312631699
 20
58.4944337947
 10
122.1610631435
 20
58.3680665364
 10
122.4114396194
 20
58.2803984481
 10
122.6800549
 20
58.2322480633
 10
122.9644009967
 20
58.2240649492
 10
123.2618230467
 20
58.2559255092
 10
123.5695441004
 20
58.3275322698
 10
123.8846910492
 20
58.4382166582
 10
124.204321451
 20
58.5869452438
 10
124.5254510029
 20
58.7723293881
 10
124.8450814047
 20
58.9926382092
 10
125.1602283536
 20
59.245814743
 10
125.3003439655
 20
59.3703504664
  0
LWPOLYLINE
  5
2C0
330
1F
100
AcDbEntity
  8
0
  6
Continuous
 62
     7
370
    30
100
AcDbPolyline
 90
       21
 70
   128
 43
0.0
 10
127.5540692388
 20
63.2743401515
 10
127.5715554468
 20
63.3558651666
 10
127.6408501292
 20
63.7579603684
 10
127.6795580193
 20
64.1484307537
 10
127.687317712
 20
64.523630606
 10
127.6640567571
 20
64.8800567852
 10
127.6099923358
 20
65.2143814361
 10
127.5256292332
 20
65.5234830596
 10
127.4117551247
 20
65.8044756571
 10
127.2694332223
 20
66.0547356763
 10
127.0999923472
 20
66.271926507
 10
126.9050145231
 20
66.4540202969
 10
126.6863202055
 20
66.5993168852
 10
126.4459512844
 20
66.706459677
 10
126.1861520196
 20
66.7744483088
 10
125.9093480867
 20
66.8026479891
 10
125.6181239296
 20
66.7907954251
 10
125.3151986297
 20
66.7390012809
 10
125.003400519
 20
66.6477491446
 10
124.6856407724
 20
66.5178910128
 10
124.364886227
 20
66.3506393358
  0
LWPOLYLINE
  5
2C1
330
1F
100
AcDbEntity
  8
0
  6
Continuous
 62
     7
370
    30
100
AcDbPolyline
 90
       26
 70
   128
 43
0.0
 10
119.0615853681
 20
69.4121697551
 10
118.7408308227
 20
69.2090861168
 10
118.423071076
 20
68.9720666544
 10
118.1112729653
 20
68.7033243548
 10
117.8083476654
 20
68.4053683923
 10
117.5171235083
 20
68.0809807016
 10
117.2403195755
 20
67.7331900031
 10
116.9805203106
 20
67.3652435249
 10
116.7401513895
 20
66.980576684
 10
116.5214570719
 20
66.5827810112
 10
116.3264792479
 20
66.1755706175
 10
116.1570383727
 20
65.7627475165
 10
116.0147164703
 20
65.3481661264
 10
115.9008423618
 20
64.9356972818
 10
115.8164792592
 20
64.5291920933
 10
115.762414838
 20
64.1324459903
 10
115.739153883
 20
63.7491632842
 10
115.7469135757
 20
63.3829225824
 10
115.7856214658
 20
63.0371433757
 10
115.8549161482
 20
62.7150541113
 10
115.9541506372
 20
62.4196620499
 10
116.0823984069
 20
62.1537251876
 10
116.2384620426
 20
61.9197265053
 10
116.4208844202
 20
61.7198507855
 10
116.627962311
 20
61.555964214
 10
116.7117763464
 20
61.5039982861
  0
ARC
  5
2C2
330
1F
100
AcDbEntity
  8
0
  6
Continuous
 62
     7
370
    30
100
AcDbCircle
 10
120.4360505581
 20
67.5132408093
 30
0.0
 40
2.344159913468536
100
AcDbArc
 50
65.4130347033
 51
125.8974237258
  0
LWPOLYLINE
  5
2C3
330
1F
100
AcDbEntity
  8
0
  6
Continuous
 62
     7
370
    30
100
AcDbPolyline
 90
       20
 70
   128
 43
0.0
 10
124.7184396176
 20
64.4318016029
 10
124.4784701329
 20
64.2751075565
 10
124.2426065926
 20
64.0847693656
 10
124.0148846874
 20
63.8640437693
 10
123.799200802
 20
63.6167074437
 10
123.5992453477
 20
63.3469923821
 10
123.4184396176
 20
63.0595134838
 10
123.2598772479
 20
62.7591895925
 10
123.1262712847
 20
62.4511593333
 10
123.0199077632
 20
62.1406931893
 10
122.9426065926
 20
61.8331033223
 10
122.8956904175
 20
61.5336526803
 10
122.8799619865
 20
61.2474649466
 10
122.8956904175
 20
60.9794368728
 10
122.9426065926
 20
60.7341544936
 10
123.0199077632
 20
60.5158146584
 10
123.1262712847
 20
60.3281532224
 10
123.2598772479
 20
60.1743811248
 10
123.4184396176
 20
60.0571294487
 10
123.4185452651
 20
60.0570684498
  0
ARC
  5
2C4
330
1F
100
AcDbEntity
  8
0
  6
Continuous
 62
     7
370
    30
100
AcDbCircle
 10
125.480712003
 20
63.3618406831
 30
0.0
 40
1.313725831138844
100
AcDbArc
 50
65.8432420499
 51
125.4672163792
  0
LWPOLYLINE
  5
2C5
330
1F
100
AcDbEntity
  8
0
  6
Continuous
 62
     7
370
    30
100
AcDbPolyline
 90
       49
 70
   128
 43
0.0
 10
125.7790997893
 20
63.819495519
 10
125.5391303047
 20
63.6628014727
 10
125.3032667644
 20
63.4724632817
 10
125.0755448591
 20
63.2517376854
 10
124.8598609738
 20
63.0044013599
 10
124.6599055194
 20
62.7346862982
 10
124.4790997893
 20
62.4472073999
 10
124.3205374197
 20
62.1468835087
 10
124.1869314565
 20
61.8388532495
 10
124.080567935
 20
61.5283871055
 10
124.0032667644
 20
61.2207972385
 10
123.9563505892
 20
60.9213465964
 10
123.9406221582
 20
60.6351588627
 10
123.9563505892
 20
60.367130789
 10
124.0032667644
 20
60.1218484097
 10
124.080567935
 20
59.9035085746
 10
124.1869314565
 20
59.7158471386
 10
124.3205374197
 20
59.5620750409
 10
124.4790997893
 20
59.4448233649
 10
124.6599055194
 20
59.3660983191
 10
124.8598609738
 20
59.327246911
 10
125.0755448591
 20
59.3289338989
 10
125.3032667644
 20
59.3711304179
 10
125.5391303047
 20
59.453114474
 10
125.7790997893
 20
59.5734832972
 10
126.019069274
 20
59.7301773436
 10
126.2549328143
 20
59.9205155345
 10
126.4826547195
 20
60.1412411308
 10
126.6983386049
 20
60.3885774564
 10
126.8982940592
 20
60.658292518
 10
127.0790997893
 20
60.9457714163
 10
127.237662159
 20
61.2460953076
 10
127.3712681221
 20
61.5541255668
 10
127.4776316437
 20
61.8645917108
 10
127.5549328143
 20
62.1721815777
 10
127.6018489894
 20
62.4716322198
 10
127.6175774204
 20
62.7578199535
 10
127.6018489894
 20
63.0258480273
 10
127.5549328143
 20
63.2711304065
 10
127.4776316437
 20
63.4894702417
 10
127.3712681221
 20
63.6771316777
 10
127.237662159
 20
63.8309037753
 10
127.0790997893
 20
63.9481554513
 10
126.8982940592
 20
64.0268804971
 10
126.6983386049
 20
64.0657319052
 10
126.4826547195
 20
64.0640449173
 10
126.2549328143
 20
64.0218483983
 10
126.019069274
 20
63.9398643422
 10
125.7790997893
 20
63.819495519
  0
LWPOLYLINE
  5
2C6
330
1F
100
AcDbEntity
  8
0
  6
Continuous
 62
     7
370
    30
100
AcDbPolyline
 90
       25
 70
   128
 43
0.0
 10
112.7329796764
 20
72.7389797308
 10
112.4253714084
 20
72.5433868081
 10
112.1209196175
 20
72.3137720346
 10
111.822748391
 20
72.0524915686
 10
111.5339173692
 20
71.7622265013
 10
111.2573903493
 20
71.4459553451
 10
110.9960048727
 20
71.1069234699
 10
110.7524431081
 20
70.7486098016
 10
110.5292043288
 20
70.3746911234
 10
110.3285792667
 20
69.9890043468
 10
110.1526266065
 20
69.5955071401
 10
110.0031518606
 20
69.1982373171
 10
109.8816888421
 20
68.8012714039
 10
109.789483926
 20
68.4086828078
 10
109.7274832594
 20
68.0245000191
 10
109.6963230532
 20
67.6526652731
 10
109.6963230532
 20
67.2969940975
 10
109.7274832594
 20
66.9611361598
 10
109.789483926
 20
66.6485378169
 10
109.8816888421
 20
66.362406751
 10
110.0031518606
 20
66.1056790538
 10
110.1526266065
 20
65.880989099
 10
110.3285792667
 20
65.6906425096
 10
110.5292043288
 20
65.5365924992
 10
110.5831544013
 20
65.5038441314
  0
ARC
  5
2C7
330
1F
100
AcDbEntity
  8
0
  6
Continuous
 62
     7
370
    30
100
AcDbCircle
 10
113.9912213398
 20
70.9940652871
 30
0.0
 40
2.151255098625436
100
AcDbArc
 50
65.51543379
 51
125.7950246391
  0
LINE
  5
2C8
330
1F
100
AcDbEntity
  8
0
  6
Continuous
 62
     7
370
    30
100
AcDbLine
 10
116.9272501123
 20
69.831684339
 30
0.0
 11
116.8596078245
 21
69.8707334005
 31
0.0
  0
ARC
  5
2C9
330
1F
100
AcDbEntity
  8
0
  6
Continuous
 62
     7
370
    30
100
AcDbCircle
 10
119.5393676413
 20
66.2601537731
 30
0.0
 40
4.424815088570898
100
AcDbArc
 50
119.6725948088
 51
126.1806931987
  0
LINE
  5
2CA
330
1F
100
AcDbEntity
  8
0
  6
Continuous
 62
     7
370
    30
100
AcDbLine
 10
117.2812510162
 20
70.1437848335
 30
0.0
 11
117.348893304
 21
70.1047357719
 31
0.0
  0
ARC
  5
2CB
330
1F
100
AcDbEntity
  8
0
  6
Continuous
 62
     7
370
    30
100
AcDbCircle
 10
119.2759449623
 20
66.6273548853
 30
0.0
 40
4.042781656091652
100
AcDbArc
 50
119.5640631273
 51
120.2552793105
  0
SPLINE
  5
2CC
330
1F
100
AcDbEntity
  8
0
  6
Continuous
 62
     7
370
    30
100
AcDbSpline
210
0.0
220
0.0
230
1.0
 70
     8
 71
     3
 72
    12
 73
     8
 74
     0
 42
0.000000001
 43
0.00000001
 40
0.0
 40
0.0
 40
0.0
 40
0.0
 40
0.2493766306240597
 40
0.3746083838113395
 40
0.4996904166852983
 40
0.7492471249236091
 40
1.0
 40
1.0
 40
1.0
 40
1.0
 10
117.0867979780297
 20
70.10784983124672
 30
0.0
 10
117.0980236003023
 20
70.1023309128872
 30
0.0
 10
117.1148864964217
 20
70.09404050860243
 30
0.0
 10
117.1437692788003
 20
70.09048043558349
 30
0.0
 10
117.1731165115963
 20
70.09193303976548
 30
0.0
 10
117.2070462140826
 20
70.10193568904769
 30
0.0
 10
117.2283151161943
 20
70.11361295368646
 30
0.0
 10
117.2389749926629
 20
70.11946554531941
 30
0.0
  0
LINE
  5
2CD
330
1F
100
AcDbEntity
  8
0
  6
Continuous
 62
     7
370
    30
100
AcDbLine
 10
115.9515975462
 20
70.7631870913
 30
0.0
 11
117.086797978
 21
70.1078498312
 31
0.0
  0
SPLINE
  5
2CE
330
1F
100
AcDbEntity
  8
0
  6
Continuous
 62
     7
370
    30
100
AcDbSpline
210
0.0
220
0.0
230
1.0
 70
     8
 71
     3
 72
    13
 73
     9
 74
     0
 42
0.000000001
 43
0.00000001
 40
0.0
 40
0.0
 40
0.0
 40
0.0
 40
0.2497336784861083
 40
0.3790620128449686
 40
0.4998770852022231
 40
0.6209209281930541
 40
0.7500294432801203
 40
1.0
 40
1.0
 40
1.0
 40
1.0
 10
115.2620463291451
 20
70.72687787314906
 30
0.0
 10
115.3110677223048
 20
70.759460975712
 30
0.0
 10
115.3854755798122
 20
70.80891772706858
 30
0.0
 10
115.5079707752068
 20
70.84756373206525
 30
0.0
 10
115.6057252552364
 20
70.8604989102941
 30
0.0
 10
115.7037417941177
 20
70.8553319874297
 30
0.0
 10
115.8270568774059
 20
70.82749840086795
 30
0.0
 10
115.9021078097574
 20
70.78874299839022
 30
0.0
 10
115.9515975461675
 20
70.76318709131499
 30
0.0
  0
SPLINE
  5
2CF
330
1F
100
AcDbEntity
  8
0
  6
Continuous
 62
     7
370
    30
100
AcDbSpline
210
0.0
220
0.0
230
1.0
 70
     8
 71
     3
 72
    10
 73
     6
 74
     0
 42
0.000000001
 43
0.00000001
 40
0.0
 40
0.0
 40
0.0
 40
0.0
 40
0.2502361040123137
 40
0.5005157565835465
 40
1.0
 40
1.0
 40
1.0
 40
1.0
 10
115.0917112866567
 20
70.45918040103994
 30
0.0
 10
115.0943674752175
 20
70.48383362691594
 30
0.0
 10
115.0996803145952
 20
70.5331443690658
 30
0.0
 10
115.1489542788245
 20
70.62929204851564
 30
0.0
 10
115.2168289736742
 20
70.6878603391238
 30
0.0
 10
115.2620463291451
 20
70.72687787314906
 30
0.0
  0
SPLINE
  5
2D0
330
1F
100
AcDbEntity
  8
0
  6
Continuous
 62
     7
370
    30
100
AcDbSpline
210
0.0
220
0.0
230
1.0
 70
     8
 71
     3
 72
    10
 73
     6
 74
     0
 42
0.000000001
 43
0.00000001
 40
0.0
 40
0.0
 40
0.0
 40
0.0
 40
0.4993753334940551
 40
0.7497468614270395
 40
0.9999999999999999
 40
0.9999999999999999
 40
0.9999999999999999
 40
0.9999999999999999
 10
115.2618513757654
 20
70.21824828955127
 30
0.0
 10
115.2159599623569
 20
70.24984734932703
 30
0.0
 10
115.1470599970167
 20
70.29728921179382
 30
0.0
 10
115.098128548194
 20
70.38600476262576
 30
0.0
 10
115.0938500365703
 20
70.43479236738605
 30
0.0
 10
115.0917112866567
 20
70.45918040103994
 30
0.0
  0
LINE
  5
2D1
330
1F
100
AcDbEntity
  8
0
  6
Continuous
 62
     7
370
    30
100
AcDbLine
 10
116.3610385525
 20
69.5837010391
 30
0.0
 11
115.2618513758
 21
70.2182482896
 31
0.0
  0
SPLINE
  5
2D2
330
1F
100
AcDbEntity
  8
0
  6
Continuous
 62
     7
370
    30
100
AcDbSpline
210
0.0
220
0.0
230
1.0
 70
     8
 71
     3
 72
    13
 73
     9
 74
     0
 42
0.000000001
 43
0.00000001
 40
0.0
 40
0.0
 40
0.0
 40
0.0
 40
0.2499522506105649
 40
0.3804143916583557
 40
0.4999977579953369
 40
0.619591090141244
 40
0.7500461130879598
 40
0.9999999999999999
 40
0.9999999999999999
 40
0.9999999999999999
 40
0.9999999999999999
 10
116.3644109055679
 20
69.4607363475667
 30
0.0
 10
116.3747834211262
 20
69.47128501602624
 30
0.0
 10
116.3905698530805
 20
69.48733954358116
 30
0.0
 10
116.4021871454673
 20
69.5111234614639
 30
0.0
 10
116.4052283318767
 20
69.52894054590278
 30
0.0
 10
116.40128370144
 20
69.54566650510907
 30
0.0
 10
116.388494370687
 20
69.56562582862058
 30
0.0
 10
116.3719254394286
 20
69.57653378694874
 30
0.0
 10
116.3610385525479
 20
69.58370103911275
 30
0.0
  0
ARC
  5
2D3
330
1F
100
AcDbEntity
  8
0
  6
Continuous
 62
     7
370
    30
100
AcDbCircle
 10
120.3857241558
 20
65.1411052841
 30
0.0
 40
5.901709310120526
100
AcDbArc
 50
132.9516624745
 51
133.3813688334
  0
LINE
  5
2D4
330
1F
100
AcDbEntity
  8
0
  6
Continuous
 62
     7
370
    30
100
AcDbLine
 10
116.3997702604
 20
69.3914070784
 30
0.0
 11
116.3321279726
 21
69.43045614
 31
0.0
  0
ARC
  5
2D5
330
1F
100
AcDbEntity
  8
0
  6
Continuous
 62
     7
370
    30
100
AcDbCircle
 10
120.2770961744
 20
65.2933660681
 30
0.0
 40
5.641595196832521
100
AcDbArc
 50
129.4297018715
 51
133.4147667894
  0
LINE
  5
2D6
330
1F
100
AcDbEntity
  8
0
  6
Continuous
 62
     7
370
    30
100
AcDbLine
 10
116.6263018342
 20
69.6900082422
 30
0.0
 11
116.693944122
 21
69.6509591807
 31
0.0
  0
ARC
  5
2D7
330
1F
100
AcDbEntity
  8
0
  6
Continuous
 62
     7
370
    30
100
AcDbCircle
 10
120.0389728714
 20
65.5345214014
 30
0.0
 40
5.377210660987044
100
AcDbArc
 50
129.3943653789
 51
129.8515788831
  0
SPLINE
  5
2D8
330
1F
100
AcDbEntity
  8
0
  6
Continuous
 62
     7
370
    30
100
AcDbSpline
210
0.0
220
0.0
230
1.0
 70
     8
 71
     3
 72
    12
 73
     8
 74
     0
 42
0.000000001
 43
0.00000001
 40
0.0
 40
0.0
 40
0.0
 40
0.0
 40
0.2505208744325411
 40
0.500040850035134
 40
0.6224584665204214
 40
0.7504259124382964
 40
1.0
 40
1.0
 40
1.0
 40
1.0
 10
116.4095259074587
 20
69.65116445208233
 30
0.0
 10
116.4225963254385
 20
69.64431789410733
 30
0.0
 10
116.4486849415337
 20
69.63065213201311
 30
0.0
 10
116.4901065205817
 20
69.62280107011154
 30
0.0
 10
116.5255064611354
 20
69.6266644082354
 30
0.0
 10
116.5598429793696
 20
69.63783992866584
 30
0.0
 10
116.5799552931199
 20
69.65277239707233
 30
0.0
 10
116.5932505518076
 20
69.66264351547153
 30
0.0
  0
LINE
  5
2D9
330
1F
100
AcDbEntity
  8
0
  6
Continuous
 62
     7
370
    30
100
AcDbLine
 10
115.3272493026
 20
70.2759494371
 30
0.0
 11
116.4095259075
 21
69.6511644521
 31
0.0
  0
SPLINE
  5
2DA
330
1F
100
AcDbEntity
  8
0
  6
Continuous
 62
     7
370
    30
100
AcDbSpline
210
0.0
220
0.0
230
1.0
 70
     8
 71
     3
 72
    13
 73
     9
 74
     0
 42
0.000000001
 43
0.00000001
 40
0.0
 40
0.0
 40
0.0
 40
0.0
 40
0.2500125253842024
 40
0.3813212666259279
 40
0.5000625980295245
 40
0.6210262652871738
 40
0.7501465010896061
 40
0.9999999999999999
 40
0.9999999999999999
 40
0.9999999999999999
 40
0.9999999999999999
 10
115.3301890318157
 20
70.63181977078517
 30
0.0
 10
115.2973526696985
 20
70.604017299338
 30
0.0
 10
115.2472703661233
 20
70.56161272936183
 30
0.0
 10
115.2094260075841
 20
70.49423310641043
 30
0.0
 10
115.1973792823022
 20
70.44215667541872
 30
0.0
 10
115.2066403640222
 20
70.391933514341
 30
0.0
 10
115.2436139719598
 20
70.33095468391704
 30
0.0
 10
115.2940182673243
 20
70.29780480953298
 30
0.0
 10
115.3272493026268
 20
70.27594943712947
 30
0.0
  0
SPLINE
  5
2DB
330
1F
100
AcDbEntity
  8
0
  6
Continuous
 62
     7
370
    30
100
AcDbSpline
210
0.0
220
0.0
230
1.0
 70
     8
 71
     3
 72
    13
 73
     9
 74
     0
 42
0.000000001
 43
0.00000001
 40
0.0
 40
0.0
 40
0.0
 40
0.0
 40
0.2499149787172287
 40
0.3781464828133994
 40
0.4999081423722791
 40
0.6209345379053378
 40
0.750004149774804
 40
1.0
 40
1.0
 40
1.0
 40
1.0
 10
115.7659155173146
 20
70.66365484167406
 30
0.0
 10
115.7345615936002
 20
70.6796928832802
 30
0.0
 10
115.6871199555044
 20
70.70396005228189
 30
0.0
 10
115.6091273552888
 20
70.72016548341328
 30
0.0
 10
115.5471314753667
 20
70.72179094774462
 30
0.0
 10
115.4853114981301
 20
70.7119779244019
 30
0.0
 10
115.4077803826047
 20
70.68555413326087
 30
0.0
 10
115.3610246838113
 20
70.65317439452427
 30
0.0
 10
115.3301890318157
 20
70.63181977078517
 30
0.0
  0
LINE
  5
2DC
330
1F
100
AcDbEntity
  8
0
  6
Continuous
 62
     7
370
    30
100
AcDbLine
 10
116.9180265211
 20
69.9985553162
 30
0.0
 11
115.7659155173
 21
70.6636548417
 31
0.0
  0
SPLINE
  5
2DD
330
1F
100
AcDbEntity
  8
0
  6
Continuous
 62
     7
370
    30
100
AcDbSpline
210
0.0
220
0.0
230
1.0
 70
     8
 71
     3
 72
    13
 73
     9
 74
     0
 42
0.000000001
 43
0.00000001
 40
0.0
 40
0.0
 40
0.0
 40
0.0
 40
0.2501646989916159
 40
0.3808009706334308
 40
0.5003358373023934
 40
0.6260332888293313
 40
0.7502402247538967
 40
1.0
 40
1.0
 40
1.0
 40
1.0
 10
116.9099619866339
 20
69.9069305655975
 30
0.0
 10
116.9193084243183
 20
69.91399352224795
 30
0.0
 10
116.9335355816932
 20
69.92474476236644
 30
0.0
 10
116.9456439435995
 20
69.94123215082995
 30
0.0
 10
116.9503762897638
 20
69.95429501110553
 30
0.0
 10
116.9497555392885
 20
69.96719414868575
 30
0.0
 10
116.9410979892268
 20
69.98342938981476
 30
0.0
 10
116.9272650652851
 20
69.99249841778179
 30
0.0
 10
116.9180265211274
 20
69.99855531621444
 30
0.0
  0
ARC
  5
2DE
330
1F
100
AcDbEntity
  8
0
  6
Continuous
 62
     7
370
    30
100
AcDbCircle
 10
119.6920398432
 20
65.9836374776
 30
0.0
 40
4.809593106945021
100
AcDbArc
 50
125.3411408256
 51
126.0799109416
  0
LINE
  5
2DF
330
1F
100
AcDbEntity
  8
0
  6
Continuous
 62
     7
370
    30
100
AcDbLine
 10
115.553431116
 20
69.3375785275
 30
0.0
 11
115.4118833656
 21
69.4192923044
 31
0.0
  0
SPLINE
  5
2E0
330
1F
100
AcDbEntity
  8
0
  6
Continuous
 62
     7
370
    30
100
AcDbSpline
210
0.0
220
0.0
230
1.0
 70
     8
 71
     3
 72
     9
 73
     5
 74
     0
 42
0.000000001
 43
0.00000001
 40
0.0
 40
0.0
 40
0.0
 40
0.0
 40
0.4999554828266823
 40
1.0
 40
1.0
 40
1.0
 40
1.0
 10
115.7202075545711
 20
69.63529157200209
 30
0.0
 10
115.6799197396606
 20
69.58967121796533
 30
0.0
 10
115.5993369352023
 20
69.49842238561166
 30
0.0
 10
115.5687339639717
 20
69.39119632911142
 30
0.0
 10
115.5534311159987
 20
69.33757852746037
 30
0.0
  0
LINE
  5
2E1
330
1F
100
AcDbEntity
  8
0
  6
Continuous
 62
     7
370
    30
100
AcDbLine
 10
115.6503731556
 20
69.6756061124
 30
0.0
 11
115.7202075546
 21
69.635291572
 31
0.0
  0
ARC
  5
2E2
330
1F
100
AcDbEntity
  8
0
  6
Continuous
 62
     7
370
    30
100
AcDbCircle
 10
119.9708381591
 20
65.3024471102
 30
0.0
 40
6.147433407983605
100
AcDbArc
 50
134.6527217237
 51
135.0708996095
  0
SPLINE
  5
2E3
330
1F
100
AcDbEntity
  8
0
  6
Continuous
 62
     7
370
    30
100
AcDbSpline
210
0.0
220
0.0
230
1.0
 70
     8
 71
     3
 72
    13
 73
     9
 74
     0
 42
0.000000001
 43
0.00000001
 40
0.0
 40
0.0
 40
0.0
 40
0.0
 40
0.250034781329582
 40
0.3778245736612397
 40
0.5000042238674527
 40
0.6221996455280429
 40
0.74997105307718
 40
0.9999999999999999
 40
0.9999999999999999
 40
0.9999999999999999
 40
0.9999999999999999
 10
115.4713986857928
 20
69.61546541970398
 30
0.0
 10
115.4822404189333
 20
69.61001669835704
 30
0.0
 10
115.4986232324755
 20
69.60178320056542
 30
0.0
 10
115.5252006644913
 20
69.59828932789058
 30
0.0
 10
115.5462030814225
 20
69.60016391523254
 30
0.0
 10
115.5670183615256
 20
69.60651141604193
 30
0.0
 10
115.592876308204
 20
69.62024791159381
 30
0.0
 10
115.6083380495189
 20
69.63451479975348
 30
0.0
 10
115.6185706574367
 20
69.64395665172688
 30
0.0
  0
LINE
  5
2E4
330
1F
100
AcDbEntity
  8
0
  6
Continuous
 62
     7
370
    30
100
AcDbLine
 10
114.7548914891
 20
70.02909622
 30
0.0
 11
115.4713986858
 21
69.6154654197
 31
0.0
  0
SPLINE
  5
2E5
330
1F
100
AcDbEntity
  8
0
  6
Continuous
 62
     7
370
    30
100
AcDbSpline
210
0.0
220
0.0
230
1.0
 70
     8
 71
     3
 72
    12
 73
     8
 74
     0
 42
0.000000001
 43
0.00000001
 40
0.0
 40
0.0
 40
0.0
 40
0.0
 40
0.2509411129384366
 40
0.5007283885314028
 40
0.6301640675761765
 40
0.7507610279764898
 40
1.0
 40
1.0
 40
1.0
 40
1.0
 10
114.7732155253431
 20
70.18197843391835
 30
0.0
 10
114.7612625902531
 20
70.16939546758202
 30
0.0
 10
114.7374116801503
 20
70.14428739189542
 30
0.0
 10
114.7181458046617
 20
70.10735170501411
 30
0.0
 10
114.715816291403
 20
70.07802239438998
 30
0.0
 10
114.724342174324
 20
70.05088070218068
 30
0.0
 10
114.7425923637999
 20
70.03786663195179
 30
0.0
 10
114.7548914890753
 20
70.02909621998982
 30
0.0
  0
LINE
  5
2E6
330
1F
100
AcDbEntity
  8
0
  6
Continuous
 62
     7
370
    30
100
AcDbLine
 10
114.7055732375
 20
70.2210274955
 30
0.0
 11
114.7732155253
 21
70.1819784339
 31
0.0
  0
ARC
  5
2E7
330
1F
100
AcDbEntity
  8
0
  6
Continuous
 62
     7
370
    30
100
AcDbCircle
 10
119.2317734171
 20
65.6456108435
 30
0.0
 40
6.435909073652974
100
AcDbArc
 50
134.6901793696
 51
139.2523759529
  0
LINE
  5
2E8
330
1F
100
AcDbEntity
  8
0
  6
Continuous
 62
     7
370
    30
100
AcDbLine
 10
114.4236221401
 20
69.807462009
 30
0.0
 11
114.3559798523
 21
69.8465110706
 31
0.0
  0
SPLINE
  5
2E9
330
1F
100
AcDbEntity
  8
0
  6
Continuous
 62
     7
370
    30
100
AcDbSpline
210
0.0
220
0.0
230
1.0
 70
     8
 71
     3
 72
    13
 73
     9
 74
     0
 42
0.000000001
 43
0.00000001
 40
0.0
 40
0.0
 40
0.0
 40
0.0
 40
0.1252639131172835
 40
0.2503211837039503
 40
0.3681603719738202
 40
0.4999284077751605
 40
0.7495288887936556
 40
1.0
 40
1.0
 40
1.0
 40
1.0
 10
114.614894372746
 20
69.87938425668094
 30
0.0
 10
114.6076695959068
 20
69.88301614587076
 30
0.0
 10
114.5932319606344
 20
69.8902739328778
 30
0.0
 10
114.5675774931133
 20
69.89459902207402
 30
0.0
 10
114.5394687563051
 20
69.89175834961975
 30
0.0
 10
114.502795051444
 20
69.87811349406984
 30
0.0
 10
114.4619069794728
 20
69.84932953151134
 30
0.0
 10
114.4363985566822
 20
69.82143403862204
 30
0.0
 10
114.4236221400634
 20
69.80746200899613
 30
0.0
  0
LINE
  5
2EA
330
1F
100
AcDbEntity
  8
0
  6
Continuous
 62
     7
370
    30
100
AcDbLine
 10
115.2891251396
 20
69.4901591199
 30
0.0
 11
114.6148943727
 21
69.8793842567
 31
0.0
  0
SPLINE
  5
2EB
330
1F
100
AcDbEntity
  8
0
  6
Continuous
 62
     7
370
    30
100
AcDbSpline
210
0.0
220
0.0
230
1.0
 70
     8
 71
     3
 72
    10
 73
     6
 74
     0
 42
0.000000001
 43
0.00000001
 40
0.0
 40
0.0
 40
0.0
 40
0.0
 40
0.2501049397782273
 40
0.5003784983099755
 40
1.0
 40
1.0
 40
1.0
 40
1.0
 10
115.2353742586258
 20
69.11429043424828
 30
0.0
 10
115.2569494155061
 20
69.14541552537986
 30
0.0
 10
115.3001142750653
 20
69.20768669193099
 30
0.0
 10
115.3320677884088
 20
69.34321316838135
 30
0.0
 10
115.3062958369151
 20
69.43140251016563
 30
0.0
 10
115.2891251395872
 20
69.49015911987351
 30
0.0
  0
SPLINE
  5
2EC
330
1F
100
AcDbEntity
  8
0
  6
Continuous
 62
     7
370
    30
100
AcDbSpline
210
0.0
220
0.0
230
1.0
 70
     8
 71
     3
 72
    10
 73
     6
 74
     0
 42
0.000000001
 43
0.00000001
 40
0.0
 40
0.0
 40
0.0
 40
0.0
 40
0.2506156936724309
 40
0.5008182640567541
 40
1.0
 40
1.0
 40
1.0
 40
1.0
 10
115.0561911784133
 20
68.99668004109225
 30
0.0
 10
115.0733884608848
 20
69.00105225659333
 30
0.0
 10
115.1077546772526
 20
69.00978948028926
 30
0.0
 10
115.1731097313824
 20
69.0465688176028
 30
0.0
 10
115.2104806496818
 20
69.08721505896698
 30
0.0
 10
115.2353742586258
 20
69.11429043424828
 30
0.0
  0
SPLINE
  5
2ED
330
1F
100
AcDbEntity
  8
0
  6
Continuous
 62
     7
370
    30
100
AcDbSpline
210
0.0
220
0.0
230
1.0
 70
     8
 71
     3
 72
    10
 73
     6
 74
     0
 42
0.000000001
 43
0.00000001
 40
0.0
 40
0.0
 40
0.0
 40
0.0
 40
0.2508071467525149
 40
0.5014082083117279
 40
1.0
 40
1.0
 40
1.0
 40
1.0
 10
114.8649174112488
 20
69.03320635894976
 30
0.0
 10
114.8787791765486
 20
69.02589561192494
 30
0.0
 10
114.9064913171037
 20
69.01128012502751
 30
0.0
 10
114.9683416724833
 20
68.99144616914093
 30
0.0
 10
115.0210881317952
 20
68.99458868213519
 30
0.0
 10
115.0561911784133
 20
68.99668004109225
 30
0.0
  0
LINE
  5
2EE
330
1F
100
AcDbEntity
  8
0
  6
Continuous
 62
     7
370
    30
100
AcDbLine
 10
114.2223156771
 20
69.4041724438
 30
0.0
 11
114.8649174112
 21
69.0332063589
 31
0.0
  0
SPLINE
  5
2EF
330
1F
100
AcDbEntity
  8
0
  6
Continuous
 62
     7
370
    30
100
AcDbSpline
210
0.0
220
0.0
230
1.0
 70
     8
 71
     3
 72
    12
 73
     8
 74
     0
 42
0.000000001
 43
0.00000001
 40
0.0
 40
0.0
 40
0.0
 40
0.0
 40
0.2509411129393594
 40
0.5007283885332557
 40
0.6301640675560578
 40
0.7507610279755307
 40
0.9999999999999999
 40
0.9999999999999999
 40
0.9999999999999999
 40
0.9999999999999999
 10
114.2310510486471
 20
69.57395454166088
 30
0.0
 10
114.2202150085969
 20
69.55930559429743
 30
0.0
 10
114.1985927530452
 20
69.53007505602059
 30
0.0
 10
114.1821574382097
 20
69.48819357217378
 30
0.0
 10
114.1816555795726
 20
69.45574912350929
 30
0.0
 10
114.1915151879995
 20
69.42637034960927
 30
0.0
 10
114.209915429287
 20
69.41310929973297
 30
0.0
 10
114.2223156771298
 20
69.40417244382151
 30
0.0
  0
LINE
  5
2F0
330
1F
100
AcDbEntity
  8
0
  6
Continuous
 62
     7
370
    30
100
AcDbLine
 10
114.1634087608
 20
69.6130036032
 30
0.0
 11
114.2310510486
 21
69.5739545417
 31
0.0
  0
ARC
  5
2F1
330
1F
100
AcDbEntity
  8
0
  6
Continuous
 62
     7
370
    30
100
AcDbCircle
 10
119.8141113824
 20
65.1597122722
 30
0.0
 40
7.194598237320583
100
AcDbArc
 50
141.7585269316
 51
145.9939532953
  0
LINE
  5
2F2
330
1F
100
AcDbEntity
  8
0
  6
Continuous
 62
     7
370
    30
100
AcDbLine
 10
113.9175860299
 20
69.1444609385
 30
0.0
 11
113.8499437421
 21
69.1835100001
 31
0.0
  0
SPLINE
  5
2F3
330
1F
100
AcDbEntity
  8
0
  6
Continuous
 62
     7
370
    30
100
AcDbSpline
210
0.0
220
0.0
230
1.0
 70
     8
 71
     3
 72
    13
 73
     9
 74
     0
 42
0.000000001
 43
0.00000001
 40
0.0
 40
0.0
 40
0.0
 40
0.0
 40
0.1252639131173005
 40
0.2503211837040678
 40
0.3681603719494649
 40
0.4999284077750069
 40
0.749528888793573
 40
1.0
 40
1.0
 40
1.0
 40
1.0
 10
114.0967412736501
 20
69.23241326062761
 30
0.0
 10
114.0895513812522
 20
69.23599593643665
 30
0.0
 10
114.0751834573149
 20
69.24315537786734
 30
0.0
 10
114.0502088597271
 20
69.24652519295088
 30
0.0
 10
114.0233417562114
 20
69.24195771269856
 30
0.0
 10
113.9889507003833
 20
69.22519059269108
 30
0.0
 10
113.9515347711697
 20
69.19178285512317
 30
0.0
 10
113.9289154038591
 20
69.16025320853784
 30
0.0
 10
113.9175860299191
 20
69.14446093851299
 30
0.0
  0
LINE
  5
2F4
330
1F
100
AcDbEntity
  8
0
  6
Continuous
 62
     7
370
    30
100
AcDbLine
 10
114.7393430078
 20
68.8614471758
 30
0.0
 11
114.0967412737
 21
69.2324132606
 31
0.0
  0
SPLINE
  5
2F5
330
1F
100
AcDbEntity
  8
0
  6
Continuous
 62
     7
370
    30
100
AcDbSpline
210
0.0
220
0.0
230
1.0
 70
     8
 71
     3
 72
    10
 73
     6
 74
     0
 42
0.000000001
 43
0.00000001
 40
0.0
 40
0.0
 40
0.0
 40
0.0
 40
0.2501572254034004
 40
0.5003744507902641
 40
1.0
 40
1.0
 40
1.0
 40
1.0
 10
115.0155502679399
 20
68.8208896744663
 30
0.0
 10
114.9902949629085
 20
68.81570427928801
 30
0.0
 10
114.9397782953836
 20
68.80533224521913
 30
0.0
 10
114.8420498302766
 20
68.81215046538772
 30
0.0
 10
114.7804124383622
 20
68.84173487451329
 30
0.0
 10
114.7393430077691
 20
68.86144717575587
 30
0.0
  0
SPLINE
  5
2F6
330
1F
100
AcDbEntity
  8
0
  6
Continuous
 62
     7
370
    30
100
AcDbSpline
210
0.0
220
0.0
230
1.0
 70
     8
 71
     3
 72
    10
 73
     6
 74
     0
 42
0.000000001
 43
0.00000001
 40
0.0
 40
0.0
 40
0.0
 40
0.0
 40
0.4994149275714097
 40
0.7497298879596933
 40
1.0
 40
1.0
 40
1.0
 40
1.0
 10
115.2759628653773
 20
69.01086756767427
 30
0.0
 10
115.2395798688984
 20
68.9696686754425
 30
0.0
 10
115.1849611172996
 20
68.90782022207893
 30
0.0
 10
115.0910804656071
 20
68.84705220601614
 30
0.0
 10
115.0407254966972
 20
68.82960999742293
 30
0.0
 10
115.0155502679399
 20
68.82088967446629
 30
0.0
  0
SPLINE
  5
2F7
330
1F
100
AcDbEntity
  8
0
  6
Continuous
 62
     7
370
    30
100
AcDbSpline
210
0.0
220
0.0
230
1.0
 70
     8
 71
     3
 72
    11
 73
     7
 74
     0
 42
0.000000001
 43
0.00000001
 40
0.0
 40
0.0
 40
0.0
 40
0.0
 40
0.1255244586649777
 40
0.2509858387061015
 40
0.5015455366419587
 40
1.0
 40
1.0
 40
1.0
 40
1.0
 10
115.4118833655982
 20
69.4192923044399
 30
0.0
 10
115.4140902348108
 20
69.40300135814792
 30
0.0
 10
115.4185028642386
 20
69.37042765209972
 30
0.0
 10
115.4166850921802
 20
69.3024845040386
 30
0.0
 10
115.391469245283
 20
69.17881764209085
 30
0.0
 10
115.3221160667265
 20
69.0779758400267
 30
0.0
 10
115.2759628653773
 20
69.01086756767425
 30
0.0
  0
LINE
  5
2F8
330
1F
100
AcDbEntity
  8
0
  6
Continuous
 62
     7
370
    30
100
AcDbLine
 10
114.4747588659
 20
67.761805452
 30
0.0
 11
113.5784985525
 21
68.2792055178
 31
0.0
  0
SPLINE
  5
2F9
330
1F
100
AcDbEntity
  8
0
  6
Continuous
 62
     7
370
    30
100
AcDbSpline
210
0.0
220
0.0
230
1.0
 70
     8
 71
     3
 72
    10
 73
     6
 74
     0
 42
0.000000001
 43
0.00000001
 40
0.0
 40
0.0
 40
0.0
 40
0.0
 40
0.3270832298564584
 40
0.6529393248872082
 40
1.0
 40
1.0
 40
1.0
 40
1.0
 10
114.6249102826811
 20
68.19912810099682
 30
0.0
 10
114.6013460201307
 20
68.15399016246894
 30
0.0
 10
114.5543059022749
 20
68.06388363171793
 30
0.0
 10
114.5056954733487
 20
67.91607027397743
 30
0.0
 10
114.485285451471
 20
67.8142960767063
 30
0.0
 10
114.4747588658869
 20
67.76180545203894
 30
0.0
  0
LINE
  5
2FA
330
1F
100
AcDbEntity
  8
0
  6
Continuous
 62
     7
370
    30
100
AcDbLine
 10
114.5550758837
 20
68.2394426414
 30
0.0
 11
114.6249102827
 21
68.199128101
 31
0.0
  0
LINE
  5
2FB
330
1F
100
AcDbEntity
  8
0
  6
Continuous
 62
     7
370
    30
100
AcDbLine
 10
114.4678066828
 20
68.1067641169
 30
0.0
 11
114.5550758837
 21
68.2394426414
 31
0.0
  0
SPLINE
  5
2FC
330
1F
100
AcDbEntity
  8
0
  6
Continuous
 62
     7
370
    30
100
AcDbSpline
210
0.0
220
0.0
230
1.0
 70
     8
 71
     3
 72
    12
 73
     8
 74
     0
 42
0.000000001
 43
0.00000001
 40
0.0
 40
0.0
 40
0.0
 40
0.0
 40
0.2503283208913347
 40
0.4996217631519667
 40
0.6262239262894935
 40
0.7498983434460459
 40
1.0
 40
1.0
 40
1.0
 40
1.0
 10
114.3443271860723
 20
68.08503103023699
 30
0.0
 10
114.3538315581144
 20
68.08025222564207
 30
0.0
 10
114.3728010103138
 20
68.07071437243799
 30
0.0
 10
114.4006252807076
 20
68.06889248189128
 30
0.0
 10
114.4228491749546
 20
68.07461243293946
 30
0.0
 10
114.444482327411
 20
68.08523705500835
 30
0.0
 10
114.4584563571708
 20
68.09813429479448
 30
0.0
 10
114.4678066827735
 20
68.10676411693227
 30
0.0
  0
LINE
  5
2FD
330
1F
100
AcDbEntity
  8
0
  6
Continuous
 62
     7
370
    30
100
AcDbLine
 10
113.6785517052
 20
68.4693750343
 30
0.0
 11
114.3443271861
 21
68.0850310302
 31
0.0
  0
SPLINE
  5
2FE
330
1F
100
AcDbEntity
  8
0
  6
Continuous
 62
     7
370
    30
100
AcDbSpline
210
0.0
220
0.0
230
1.0
 70
     8
 71
     3
 72
    10
 73
     6
 74
     0
 42
0.000000001
 43
0.00000001
 40
0.0
 40
0.0
 40
0.0
 40
0.0
 40
0.2547104667674946
 40
0.5008521735564909
 40
1.0
 40
1.0
 40
1.0
 40
1.0
 10
113.6097517356555
 20
68.60210869419765
 30
0.0
 10
113.6091882332929
 20
68.58727969427366
 30
0.0
 10
113.6080801854505
 20
68.55812055944166
 30
0.0
 10
113.6273717497436
 20
68.50601686869383
 30
0.0
 10
113.6580232605015
 20
68.48407219192606
 30
0.0
 10
113.6785517052063
 20
68.46937503434876
 30
0.0
  0
LINE
  5
2FF
330
1F
100
AcDbEntity
  8
0
  6
Continuous
 62
     7
370
    30
100
AcDbLine
 10
113.6816042143
 20
68.7712978237
 30
0.0
 11
113.6097517357
 21
68.6021086942
 31
0.0
  0
LINE
  5
300
330
1F
100
AcDbEntity
  8
0
  6
Continuous
 62
     7
370
    30
100
AcDbLine
 10
113.6139619265
 20
68.8103468853
 30
0.0
 11
113.6816042143
 21
68.7712978237
 31
0.0
  0
ARC
  5
301
330
1F
100
AcDbEntity
  8
0
  6
Continuous
 62
     7
370
    30
100
AcDbCircle
 10
119.983250209
 20
65.041632038
 30
0.0
 40
7.400746234364532
100
AcDbArc
 50
149.3871505321
 51
155.2050710335
  0
LINE
  5
302
330
1F
100
AcDbEntity
  8
0
  6
Continuous
 62
     7
370
    30
100
AcDbLine
 10
113.332387021
 20
68.1062467787
 30
0.0
 11
113.2647447332
 21
68.1452958403
 31
0.0
  0
LINE
  5
303
330
1F
100
AcDbEntity
  8
0
  6
Continuous
 62
     7
370
    30
100
AcDbLine
 10
113.4326071542
 20
68.2708446546
 30
0.0
 11
113.332387021
 21
68.1062467787
 31
0.0
  0
SPLINE
  5
304
330
1F
100
AcDbEntity
  8
0
  6
Continuous
 62
     7
370
    30
100
AcDbSpline
210
0.0
220
0.0
230
1.0
 70
     8
 71
     3
 72
    10
 73
     6
 74
     0
 42
0.000000001
 43
0.00000001
 40
0.0
 40
0.0
 40
0.0
 40
0.0
 40
0.4995350228205685
 40
0.7498003033655605
 40
1.0
 40
1.0
 40
1.0
 40
1.0
 10
113.5784985525104
 20
68.27920551778112
 30
0.0
 10
113.5554057027344
 20
68.28988072234537
 30
0.0
 10
113.5207434168552
 20
68.30590416665879
 30
0.0
 10
113.4669454368991
 20
68.29804603278316
 30
0.0
 10
113.4440522484437
 20
68.27991098847771
 30
0.0
 10
113.4326071542459
 20
68.2708446545871
 30
0.0
  0
SPLINE
  5
305
330
1F
100
AcDbEntity
  8
0
  6
Continuous
 62
     7
370
    30
100
AcDbSpline
210
0.0
220
0.0
230
1.0
 70
     8
 71
     3
 72
    13
 73
     9
 74
     0
 42
0.000000001
 43
0.00000001
 40
0.0
 40
0.0
 40
0.0
 40
0.0
 40
0.2499888763176364
 40
0.3792580749392771
 40
0.4999960723749839
 40
0.6207346214656926
 40
0.7500061678876668
 40
1.0
 40
1.0
 40
1.0
 40
1.0
 10
115.0482956954703
 20
67.55456873481342
 30
0.0
 10
115.0377645817629
 20
67.53630665588699
 30
0.0
 10
115.0217878312352
 20
67.50860125955079
 30
0.0
 10
114.9923852189958
 20
67.4805404264323
 30
0.0
 10
114.9676879532665
 20
67.46588395351851
 30
0.0
 10
114.9414400758626
 20
67.45935417128142
 30
0.0
 10
114.906430036009
 20
67.46072335222424
 30
0.0
 10
114.8830394240813
 20
67.47237199928965
 30
0.0
 10
114.8676214369878
 20
67.48005023749337
 30
0.0
  0
SPLINE
  5
306
330
1F
100
AcDbEntity
  8
0
  6
Continuous
 62
     7
370
    30
100
AcDbSpline
210
0.0
220
0.0
230
1.0
 70
     8
 71
     3
 72
    10
 73
     6
 74
     0
 42
0.000000001
 43
0.00000001
 40
0.0
 40
0.0
 40
0.0
 40
0.0
 40
0.2506982866238839
 40
0.5010614843981762
 40
1.0
 40
1.0
 40
1.0
 40
1.0
 10
115.0688934262869
 20
67.67032422028326
 30
0.0
 10
115.0702869098279
 20
67.66088526827791
 30
0.0
 10
115.073072014349
 20
67.64201998057821
 30
0.0
 10
115.0693908526355
 20
67.6017409229942
 30
0.0
 10
115.0567277153316
 20
67.57342409694822
 30
0.0
 10
115.0482956954703
 20
67.55456873481342
 30
0.0
  0
SPLINE
  5
307
330
1F
100
AcDbEntity
  8
0
  6
Continuous
 62
     7
370
    30
100
AcDbSpline
210
0.0
220
0.0
230
1.0
 70
     8
 71
     3
 72
    10
 73
     6
 74
     0
 42
0.000000001
 43
0.00000001
 40
0.0
 40
0.0
 40
0.0
 40
0.0
 40
0.2508330841493229
 40
0.5013352991307302
 40
1.0
 40
1.0
 40
1.0
 40
1.0
 10
115.012126266147
 20
67.75470838431289
 30
0.0
 10
115.0191545322808
 20
67.75016549507147
 30
0.0
 10
115.0332017936958
 20
67.74108570902773
 30
0.0
 10
115.0560945762523
 20
67.71512515632638
 30
0.0
 10
115.0637786859338
 20
67.68822779402772
 30
0.0
 10
115.0688934262869
 20
67.67032422028326
 30
0.0
  0
SPLINE
  5
308
330
1F
100
AcDbEntity
  8
0
  6
Continuous
 62
     7
370
    30
100
AcDbSpline
210
0.0
220
0.0
230
1.0
 70
     8
 71
     3
 72
    10
 73
     6
 74
     0
 42
0.000000001
 43
0.00000001
 40
0.0
 40
0.0
 40
0.0
 40
0.0
 40
0.2507747668794302
 40
0.5012392389022639
 40
1.0
 40
1.0
 40
1.0
 40
1.0
 10
114.9123140563749
 20
67.7607155664996
 30
0.0
 10
114.9209796936376
 20
67.76351091692494
 30
0.0
 10
114.9383002457818
 20
67.76909815896329
 30
0.0
 10
114.9735468900522
 20
67.77152634172663
 30
0.0
 10
114.9967079208508
 20
67.76142972355761
 30
0.0
 10
115.012126266147
 20
67.75470838431289
 30
0.0
  0
SPLINE
  5
309
330
1F
100
AcDbEntity
  8
0
  6
Continuous
 62
     7
370
    30
100
AcDbSpline
210
0.0
220
0.0
230
1.0
 70
     8
 71
     3
 72
    10
 73
     6
 74
     0
 42
0.000000001
 43
0.00000001
 40
0.0
 40
0.0
 40
0.0
 40
0.0
 40
0.2507970506179224
 40
0.5012350025849458
 40
1.0
 40
1.0
 40
1.0
 40
1.0
 10
114.826266148935
 20
67.68274366374814
 30
0.0
 10
114.8315032809818
 20
67.6916231806574
 30
0.0
 10
114.8419700463945
 20
67.70936950052042
 30
0.0
 10
114.8693439508255
 20
67.73989909072435
 30
0.0
 10
114.8951405507266
 20
67.75239601829895
 30
0.0
 10
114.9123140563749
 20
67.7607155664996
 30
0.0
  0
SPLINE
  5
30A
330
1F
100
AcDbEntity
  8
0
  6
Continuous
 62
     7
370
    30
100
AcDbSpline
210
0.0
220
0.0
230
1.0
 70
     8
 71
     3
 72
    10
 73
     6
 74
     0
 42
0.000000001
 43
0.00000001
 40
0.0
 40
0.0
 40
0.0
 40
0.0
 40
0.2508377383579396
 40
0.5013276370152858
 40
1.0
 40
1.0
 40
1.0
 40
1.0
 10
114.8093793421502
 20
67.56506910944461
 30
0.0
 10
114.8079507036012
 20
67.57470192392303
 30
0.0
 10
114.8050954076134
 20
67.5939541949405
 30
0.0
 10
114.8062492219143
 20
67.63456103301979
 30
0.0
 10
114.8182667809898
 20
67.66348843084633
 30
0.0
 10
114.826266148935
 20
67.68274366374814
 30
0.0
  0
SPLINE
  5
30B
330
1F
100
AcDbEntity
  8
0
  6
Continuous
 62
     7
370
    30
100
AcDbSpline
210
0.0
220
0.0
230
1.0
 70
     8
 71
     3
 72
    10
 73
     6
 74
     0
 42
0.000000001
 43
0.00000001
 40
0.0
 40
0.0
 40
0.0
 40
0.0
 40
0.2507511826668242
 40
0.501172962028977
 40
1.0
 40
1.0
 40
1.0
 40
1.0
 10
114.8676214369878
 20
67.48005023749337
 30
0.0
 10
114.8605918073136
 20
67.48461370554149
 30
0.0
 10
114.8465417825508
 20
67.49373464676486
 30
0.0
 10
114.8233466900338
 20
67.5199890952528
 30
0.0
 10
114.8149617678846
 20
67.54705167095686
 30
0.0
 10
114.8093793421502
 20
67.56506910944461
 30
0.0
  0
SPLINE
  5
30C
330
1F
100
AcDbEntity
  8
0
  6
Continuous
 62
     7
370
    30
100
AcDbSpline
210
0.0
220
0.0
230
1.0
 70
     8
 71
     3
 72
     9
 73
     5
 74
     0
 42
0.000000001
 43
0.00000001
 40
0.0
 40
0.0
 40
0.0
 40
0.0
 40
0.5006685797427799
 40
1.0
 40
1.0
 40
1.0
 40
1.0
 10
113.9478239005852
 20
66.38455444259463
 30
0.0
 10
113.9305181406152
 20
66.3229390000474
 30
0.0
 10
113.8959528399947
 20
66.19987267425782
 30
0.0
 10
113.8316353304828
 20
66.11238956385624
 30
0.0
 10
113.7995195771108
 20
66.06870649809092
 30
0.0
  0
SPLINE
  5
30D
330
1F
100
AcDbEntity
  8
0
  6
Continuous
 62
     7
370
    30
100
AcDbSpline
210
0.0
220
0.0
230
1.0
 70
     8
 71
     3
 72
    11
 73
     7
 74
     0
 42
0.000000001
 43
0.00000001
 40
0.0
 40
0.0
 40
0.0
 40
0.0
 40
0.1254160340381763
 40
0.2507821022334422
 40
0.5011206397014593
 40
1.0
 40
1.0
 40
1.0
 40
1.0
 10
113.9430730775488
 20
66.93692956145514
 30
0.0
 10
113.949558528515
 20
66.9146218493873
 30
0.0
 10
113.9625268466387
 20
66.870015312661
 30
0.0
 10
113.9801801877674
 20
66.77740453184254
 30
0.0
 10
113.9934158064701
 20
66.60969366667531
 30
0.0
 10
113.9660475291492
 20
66.47454527573018
 30
0.0
 10
113.9478239005852
 20
66.38455444259463
 30
0.0
  0
SPLINE
  5
30E
330
1F
100
AcDbEntity
  8
0
  6
Continuous
 62
     7
370
    30
100
AcDbSpline
210
0.0
220
0.0
230
1.0
 70
     8
 71
     3
 72
     9
 73
     5
 74
     0
 42
0.000000001
 43
0.00000001
 40
0.0
 40
0.0
 40
0.0
 40
0.0
 40
0.5003840210486663
 40
1.0
 40
1.0
 40
1.0
 40
1.0
 10
113.6271164093724
 20
67.35662261405298
 30
0.0
 10
113.6964655868499
 20
67.30762742020383
 30
0.0
 10
113.8350574973833
 20
67.20971223548936
 30
0.0
 10
113.9070863245508
 20
67.02781055008256
 30
0.0
 10
113.9430730775488
 20
66.93692956145514
 30
0.0
  0
SPLINE
  5
30F
330
1F
100
AcDbEntity
  8
0
  6
Continuous
 62
     7
370
    30
100
AcDbSpline
210
0.0
220
0.0
230
1.0
 70
     8
 71
     3
 72
    10
 73
     6
 74
     0
 42
0.000000001
 43
0.00000001
 40
0.0
 40
0.0
 40
0.0
 40
0.0
 40
0.2499230372800489
 40
0.5001179048306869
 40
1.0
 40
1.0
 40
1.0
 40
1.0
 10
113.1326343663114
 20
67.43096581140748
 30
0.0
 10
113.1739160271644
 20
67.4440153769034
 30
0.0
 10
113.2565242491131
 20
67.47012870133237
 30
0.0
 10
113.4290342623261
 20
67.45475642951325
 30
0.0
 10
113.5478996397861
 20
67.39586816931306
 30
0.0
 10
113.6271164093724
 20
67.35662261405298
 30
0.0
  0
SPLINE
  5
310
330
1F
100
AcDbEntity
  8
0
  6
Continuous
 62
     7
370
    30
100
AcDbSpline
210
0.0
220
0.0
230
1.0
 70
     8
 71
     3
 72
     9
 73
     5
 74
     0
 42
0.000000001
 43
0.00000001
 40
0.0
 40
0.0
 40
0.0
 40
0.0
 40
0.5000899221138716
 40
1.0
 40
1.0
 40
1.0
 40
1.0
 10
112.8545273455312
 20
67.07818670809718
 30
0.0
 10
112.8837870640265
 20
67.15709183453681
 30
0.0
 10
112.9422959785268
 20
67.31487371125634
 30
0.0
 10
113.0691958444527
 20
67.39227308463394
 30
0.0
 10
113.1326343663114
 20
67.43096581140748
 30
0.0
  0
SPLINE
  5
311
330
1F
100
AcDbEntity
  8
0
  6
Continuous
 62
     7
370
    30
100
AcDbSpline
210
0.0
220
0.0
230
1.0
 70
     8
 71
     3
 72
     9
 73
     5
 74
     0
 42
0.000000001
 43
0.00000001
 40
0.0
 40
0.0
 40
0.0
 40
0.0
 40
0.4996398621120334
 40
1.0
 40
1.0
 40
1.0
 40
1.0
 10
112.8440661563634
 20
66.67981123007786
 30
0.0
 10
112.8335778606596
 20
66.74821012043522
 30
0.0
 10
112.8125861494308
 20
66.88510650429903
 30
0.0
 10
112.8405402352807
 20
67.0137957429174
 30
0.0
 10
112.8545273455312
 20
67.07818670809718
 30
0.0
  0
SPLINE
  5
312
330
1F
100
AcDbEntity
  8
0
  6
Continuous
 62
     7
370
    30
100
AcDbSpline
210
0.0
220
0.0
230
1.0
 70
     8
 71
     3
 72
     9
 73
     5
 74
     0
 42
0.000000001
 43
0.00000001
 40
0.0
 40
0.0
 40
0.0
 40
0.0
 40
0.5012938417107288
 40
1.0
 40
1.0
 40
1.0
 40
1.0
 10
113.0551773088341
 20
66.29973927797313
 30
0.0
 10
113.0104841549857
 20
66.35547639968995
 30
0.0
 10
112.9213285537601
 20
66.46666292758866
 30
0.0
 10
112.8697758214454
 20
66.60888447069121
 30
0.0
 10
112.8440661563634
 20
66.67981123007786
 30
0.0
  0
LINE
  5
313
330
1F
100
AcDbEntity
  8
0
  6
Continuous
 62
     7
370
    30
100
AcDbLine
 10
113.0896459959
 20
66.3260510775
 30
0.0
 11
113.0551773088
 21
66.299739278
 31
0.0
  0
SPLINE
  5
314
330
1F
100
AcDbEntity
  8
0
  6
Continuous
 62
     7
370
    30
100
AcDbSpline
210
0.0
220
0.0
230
1.0
 70
     8
 71
     3
 72
     9
 73
     5
 74
     0
 42
0.000000001
 43
0.00000001
 40
0.0
 40
0.0
 40
0.0
 40
0.0
 40
0.498666374300249
 40
1.0
 40
1.0
 40
1.0
 40
1.0
 10
112.9290105742966
 20
66.69971828084947
 30
0.0
 10
112.9455523111899
 20
66.63187463620942
 30
0.0
 10
112.978724262911
 20
66.49582446692487
 30
0.0
 10
113.0526063974752
 20
66.38274274645666
 30
0.0
 10
113.0896459958707
 20
66.32605107753395
 30
0.0
  0
LINE
  5
315
330
1F
100
AcDbEntity
  8
0
  6
Continuous
 62
     7
370
    30
100
AcDbLine
 10
112.955772155
 20
66.9821989479
 30
0.0
 11
112.9290105743
 21
66.6997182808
 31
0.0
  0
SPLINE
  5
316
330
1F
100
AcDbEntity
  8
0
  6
Continuous
 62
     7
370
    30
100
AcDbSpline
210
0.0
220
0.0
230
1.0
 70
     8
 71
     3
 72
    11
 73
     7
 74
     0
 42
0.000000001
 43
0.00000001
 40
0.0
 40
0.0
 40
0.0
 40
0.0
 40
0.250227868767176
 40
0.5002163982726454
 40
0.7499233892995328
 40
1.0
 40
1.0
 40
1.0
 40
1.0
 10
113.2109817791236
 20
67.23564864120574
 30
0.0
 10
113.1823790982016
 20
67.22878126573853
 30
0.0
 10
113.1252010943995
 20
67.21505308334734
 30
0.0
 10
113.048882473583
 20
67.16213985145815
 30
0.0
 10
112.9887708343475
 20
67.08297155293681
 30
0.0
 10
112.966777136665
 20
67.0158063738032
 30
0.0
 10
112.9557721550005
 20
66.98219894791573
 30
0.0
  0
SPLINE
  5
317
330
1F
100
AcDbEntity
  8
0
  6
Continuous
 62
     7
370
    30
100
AcDbSpline
210
0.0
220
0.0
230
1.0
 70
     8
 71
     3
 72
     9
 73
     5
 74
     0
 42
0.000000001
 43
0.00000001
 40
0.0
 40
0.0
 40
0.0
 40
0.0
 40
0.5003803254794976
 40
1.0
 40
1.0
 40
1.0
 40
1.0
 10
113.5563220338661
 20
67.16019618660943
 30
0.0
 10
113.5005141555934
 20
67.188518528159
 30
0.0
 10
113.3889832351498
 20
67.24512015717471
 30
0.0
 10
113.2702855019508
 20
67.23880421178542
 30
0.0
 10
113.2109817791236
 20
67.23564864120574
 30
0.0
  0
SPLINE
  5
318
330
1F
100
AcDbEntity
  8
0
  6
Continuous
 62
     7
370
    30
100
AcDbSpline
210
0.0
220
0.0
230
1.0
 70
     8
 71
     3
 72
     9
 73
     5
 74
     0
 42
0.000000001
 43
0.00000001
 40
0.0
 40
0.0
 40
0.0
 40
0.0
 40
0.4993510652250748
 40
1.0
 40
1.0
 40
1.0
 40
1.0
 10
113.8436538548049
 20
66.81869827539107
 30
0.0
 10
113.8075089411366
 20
66.89245763631487
 30
0.0
 10
113.7351251691065
 20
67.04016806703271
 30
0.0
 10
113.6159746262333
 20
67.12015221042246
 30
0.0
 10
113.5563220338661
 20
67.16019618660943
 30
0.0
  0
SPLINE
  5
319
330
1F
100
AcDbEntity
  8
0
  6
Continuous
 62
     7
370
    30
100
AcDbSpline
210
0.0
220
0.0
230
1.0
 70
     8
 71
     3
 72
    11
 73
     7
 74
     0
 42
0.000000001
 43
0.00000001
 40
0.0
 40
0.0
 40
0.0
 40
0.0
 40
0.1254639649720397
 40
0.2508752700856643
 40
0.5012650281750773
 40
1.0
 40
1.0
 40
1.0
 40
1.0
 10
113.871726326808
 20
66.42848463685577
 30
0.0
 10
113.8753878666001
 20
66.44398752762892
 30
0.0
 10
113.8827094093594
 20
66.47498680228671
 30
0.0
 10
113.8911224030745
 20
66.53999884092867
 30
0.0
 10
113.8933321041228
 20
66.65868168119177
 30
0.0
 10
113.8635088755571
 20
66.75474407325738
 30
0.0
 10
113.8436538548049
 20
66.81869827539107
 30
0.0
  0
SPLINE
  5
31A
330
1F
100
AcDbEntity
  8
0
  6
Continuous
 62
     7
370
    30
100
AcDbSpline
210
0.0
220
0.0
230
1.0
 70
     8
 71
     3
 72
    13
 73
     9
 74
     0
 42
0.000000001
 43
0.00000001
 40
0.0
 40
0.0
 40
0.0
 40
0.0
 40
0.06261700942829
 40
0.1250204092518831
 40
0.1852576690577069
 40
0.2501606446837204
 40
0.4995970396967639
 40
1.0
 40
1.0
 40
1.0
 40
1.0
 10
113.7368171413537
 20
66.22445046603025
 30
0.0
 10
113.7416814960644
 20
66.2222411074099
 30
0.0
 10
113.7513936113864
 20
66.21782992710249
 30
0.0
 10
113.7660719274472
 20
66.21760798115831
 30
0.0
 10
113.7795804368391
 20
66.22299326214143
 30
0.0
 10
113.8033135776102
 20
66.24170579112754
 30
0.0
 10
113.8389053936218
 20
66.30856015919197
 30
0.0
 10
113.8585899196323
 20
66.38048549070142
 30
0.0
 10
113.871726326808
 20
66.42848463685577
 30
0.0
  0
SPLINE
  5
31B
330
1F
100
AcDbEntity
  8
0
  6
Continuous
 62
     7
370
    30
100
AcDbSpline
210
0.0
220
0.0
230
1.0
 70
     8
 71
     3
 72
    10
 73
     6
 74
     0
 42
0.000000001
 43
0.00000001
 40
0.0
 40
0.0
 40
0.0
 40
0.0
 40
0.5014292134313789
 40
0.7348937056436358
 40
1.0
 40
1.0
 40
1.0
 40
1.0
 10
113.7137646474187
 20
66.27085420019726
 30
0.0
 10
113.7158894213934
 20
66.26186853563946
 30
0.0
 10
113.7190034861071
 20
66.2486991626798
 30
0.0
 10
113.7276357051366
 20
66.23271648551317
 30
0.0
 10
113.7336298563177
 20
66.22731996918667
 30
0.0
 10
113.7368171413537
 20
66.22445046603025
 30
0.0
  0
SPLINE
  5
31C
330
1F
100
AcDbEntity
  8
0
  6
Continuous
 62
     7
370
    30
100
AcDbSpline
210
0.0
220
0.0
230
1.0
 70
     8
 71
     3
 72
     9
 73
     5
 74
     0
 42
0.000000001
 43
0.00000001
 40
0.0
 40
0.0
 40
0.0
 40
0.0
 40
0.5008270476534625
 40
1.0
 40
1.0
 40
1.0
 40
1.0
 10
113.655583801808
 20
66.33182747917093
 30
0.0
 10
113.6668011682942
 20
66.32448823412926
 30
0.0
 10
113.6891988533608
 20
66.30983398357299
 30
0.0
 10
113.7055850841952
 20
66.28383312535665
 30
0.0
 10
113.7137646474187
 20
66.27085420019726
 30
0.0
  0
SPLINE
  5
31D
330
1F
100
AcDbEntity
  8
0
  6
Continuous
 62
     7
370
    30
100
AcDbSpline
210
0.0
220
0.0
230
1.0
 70
     8
 71
     3
 72
    10
 73
     6
 74
     0
 42
0.000000001
 43
0.00000001
 40
0.0
 40
0.0
 40
0.0
 40
0.0
 40
0.2510411299389751
 40
0.5017609019994151
 40
1.0
 40
1.0
 40
1.0
 40
1.0
 10
113.58398088924
 20
66.33055322309511
 30
0.0
 10
113.5893698562738
 20
66.33359253861803
 30
0.0
 10
113.6001408919218
 20
66.33966727903454
 30
0.0
 10
113.6244393100486
 20
66.34405597084373
 30
0.0
 10
113.6431419891373
 20
66.33671259991117
 30
0.0
 10
113.655583801808
 20
66.33182747917093
 30
0.0
  0
SPLINE
  5
31E
330
1F
100
AcDbEntity
  8
0
  6
Continuous
 62
     7
370
    30
100
AcDbSpline
210
0.0
220
0.0
230
1.0
 70
     8
 71
     3
 72
    10
 73
     6
 74
     0
 42
0.000000001
 43
0.00000001
 40
0.0
 40
0.0
 40
0.0
 40
0.0
 40
0.2508263970720779
 40
0.5013431949955992
 40
1.0
 40
1.0
 40
1.0
 40
1.0
 10
113.535266942309
 20
66.25691795444745
 30
0.0
 10
113.5373026673455
 20
66.26511820689055
 30
0.0
 10
113.5413716046896
 20
66.28150859007023
 30
0.0
 10
113.5556320918556
 20
66.30995796141578
 30
0.0
 10
113.5726521696965
 20
66.32232296414169
 30
0.0
 10
113.58398088924
 20
66.33055322309511
 30
0.0
  0
SPLINE
  5
31F
330
1F
100
AcDbEntity
  8
0
  6
Continuous
 62
     7
370
    30
100
AcDbSpline
210
0.0
220
0.0
230
1.0
 70
     8
 71
     3
 72
     9
 73
     5
 74
     0
 42
0.000000001
 43
0.00000001
 40
0.0
 40
0.0
 40
0.0
 40
0.0
 40
0.4997207161890923
 40
1.0
 40
1.0
 40
1.0
 40
1.0
 10
113.5360359977132
 20
66.15002253352277
 30
0.0
 10
113.5331204848632
 20
66.1684523958201
 30
0.0
 10
113.5272862003208
 20
66.20533272057006
 30
0.0
 10
113.5326057045453
 20
66.23971647460442
 30
0.0
 10
113.535266942309
 20
66.25691795444745
 30
0.0
  0
SPLINE
  5
320
330
1F
100
AcDbEntity
  8
0
  6
Continuous
 62
     7
370
    30
100
AcDbSpline
210
0.0
220
0.0
230
1.0
 70
     8
 71
     3
 72
    10
 73
     6
 74
     0
 42
0.000000001
 43
0.00000001
 40
0.0
 40
0.0
 40
0.0
 40
0.0
 40
0.2507542211221886
 40
0.501183185349746
 40
1.0
 40
1.0
 40
1.0
 40
1.0
 10
113.6171060901451
 20
66.0564316690678
 30
0.0
 10
113.6091072541318
 20
66.0616158080726
 30
0.0
 10
113.59311995751
 20
66.07197736166117
 30
0.0
 10
113.5630102782909
 20
66.1001753462465
 30
0.0
 10
113.5468168870572
 20
66.1300999628878
 30
0.0
 10
113.5360359977132
 20
66.15002253352277
 30
0.0
  0
SPLINE
  5
321
330
1F
100
AcDbEntity
  8
0
  6
Continuous
 62
     7
370
    30
100
AcDbSpline
210
0.0
220
0.0
230
1.0
 70
     8
 71
     3
 72
    10
 73
     6
 74
     0
 42
0.000000001
 43
0.00000001
 40
0.0
 40
0.0
 40
0.0
 40
0.0
 40
0.4992370922288998
 40
0.7516229236437236
 40
1.0
 40
1.0
 40
1.0
 40
1.0
 10
113.7995195771108
 20
66.0687064980909
 30
0.0
 10
113.7718882754551
 20
66.05252906434336
 30
0.0
 10
113.7302881618863
 20
66.02817324174993
 30
0.0
 10
113.6651380233112
 20
66.03339662499678
 30
0.0
 10
113.6330310592888
 20
66.04879440898115
 30
0.0
 10
113.6171060901452
 20
66.0564316690678
 30
0.0
  0
SPLINE
  5
322
330
1F
100
AcDbEntity
  8
0
  6
Continuous
 62
     7
370
    30
100
AcDbSpline
210
0.0
220
0.0
230
1.0
 70
     8
 71
     3
 72
    14
 73
    10
 74
     0
 42
0.000000001
 43
0.00000001
 40
0.0
 40
0.0
 40
0.0
 40
0.0
 40
0.0626404218980764
 40
0.1252646857340204
 40
0.2502401533113049
 40
0.3738362618234504
 40
0.5002007211435756
 40
0.749724520184616
 40
1.0
 40
1.0
 40
1.0
 40
1.0
 10
113.7746198532499
 20
65.08680422943878
 30
0.0
 10
113.774495187024
 20
65.06945806607145
 30
0.0
 10
113.7742458867298
 20
65.03477021376999
 30
0.0
 10
113.767284692664
 20
64.97122631808455
 30
0.0
 10
113.7492473060899
 20
64.90154639106103
 30
0.0
 10
113.7064122799972
 20
64.84344945163195
 30
0.0
 10
113.6252286213838
 20
64.80445329573888
 30
0.0
 10
113.4929855718701
 20
64.81512900303487
 30
0.0
 10
113.3759932339124
 20
64.86233599605409
 30
0.0
 10
113.317409088725
 20
64.88597499140349
 30
0.0
  0
SPLINE
  5
323
330
1F
100
AcDbEntity
  8
0
  6
Continuous
 62
     7
370
    30
100
AcDbSpline
210
0.0
220
0.0
230
1.0
 70
     8
 71
     3
 72
     9
 73
     5
 74
     0
 42
0.000000001
 43
0.00000001
 40
0.0
 40
0.0
 40
0.0
 40
0.0
 40
0.4999064569909525
 40
1.0
 40
1.0
 40
1.0
 40
1.0
 10
113.6920804962962
 20
65.46840732331674
 30
0.0
 10
113.7161286526391
 20
65.40179299414491
 30
0.0
 10
113.7642339651563
 20
65.268539405918
 30
0.0
 10
113.771157458789
 20
65.14739017670749
 30
0.0
 10
113.7746198532499
 20
65.08680422943878
 30
0.0
  0
SPLINE
  5
324
330
1F
100
AcDbEntity
  8
0
  6
Continuous
 62
     7
370
    30
100
AcDbSpline
210
0.0
220
0.0
230
1.0
 70
     8
 71
     3
 72
     9
 73
     5
 74
     0
 42
0.000000001
 43
0.00000001
 40
0.0
 40
0.0
 40
0.0
 40
0.0
 40
0.5009002665811441
 40
0.9999999999999999
 40
0.9999999999999999
 40
0.9999999999999999
 40
0.9999999999999999
 10
113.4862318802539
 20
65.77811286742318
 30
0.0
 10
113.5251690042608
 20
65.73144782473496
 30
0.0
 10
113.6029032891169
 20
65.63828548124746
 30
0.0
 10
113.6623904634465
 20
65.52496536375048
 30
0.0
 10
113.6920804962962
 20
65.46840732331674
 30
0.0
  0
LINE
  5
325
330
1F
100
AcDbEntity
  8
0
  6
Continuous
 62
     7
370
    30
100
AcDbLine
 10
113.2337717965
 20
65.992973274
 30
0.0
 11
113.4862318803
 21
65.7781128674
 31
0.0
  0
SPLINE
  5
326
330
1F
100
AcDbEntity
  8
0
  6
Continuous
 62
     7
370
    30
100
AcDbSpline
210
0.0
220
0.0
230
1.0
 70
     8
 71
     3
 72
     9
 73
     5
 74
     0
 42
0.000000001
 43
0.00000001
 40
0.0
 40
0.0
 40
0.0
 40
0.0
 40
0.4997057900309204
 40
1.0
 40
1.0
 40
1.0
 40
1.0
 10
112.934725336405
 20
66.07743001217564
 30
0.0
 10
112.9836065423365
 20
66.07569568429031
 30
0.0
 10
113.0814265134207
 20
66.07222498629172
 30
0.0
 10
113.1829701186979
 20
66.01940087238046
 30
0.0
 10
113.2337717964775
 20
65.9929732740439
 30
0.0
  0
SPLINE
  5
327
330
1F
100
AcDbEntity
  8
0
  6
Continuous
 62
     7
370
    30
100
AcDbSpline
210
0.0
220
0.0
230
1.0
 70
     8
 71
     3
 72
    10
 73
     6
 74
     0
 42
0.000000001
 43
0.00000001
 40
0.0
 40
0.0
 40
0.0
 40
0.0
 40
0.2503029160706133
 40
0.5004912402197161
 40
1.0
 40
1.0
 40
1.0
 40
1.0
 10
112.7432454604659
 20
65.9873548812145
 30
0.0
 10
112.756172574364
 20
65.99999504703355
 30
0.0
 10
112.7820208839597
 20
66.0252695918398
 30
0.0
 10
112.843510179385
 20
66.06229295690699
 30
0.0
 10
112.8982519479834
 20
66.0713772933687
 30
0.0
 10
112.934725336405
 20
66.07743001217564
 30
0.0
  0
SPLINE
  5
328
330
1F
100
AcDbEntity
  8
0
  6
Continuous
 62
     7
370
    30
100
AcDbSpline
210
0.0
220
0.0
230
1.0
 70
     8
 71
     3
 72
     9
 73
     5
 74
     0
 42
0.000000001
 43
0.00000001
 40
0.0
 40
0.0
 40
0.0
 40
0.0
 40
0.5003157296570651
 40
1.0
 40
1.0
 40
1.0
 40
1.0
 10
112.6669186091478
 20
65.7359622918927
 30
0.0
 10
112.6694961583698
 20
65.78528487191595
 30
0.0
 10
112.6746480036331
 20
65.88386778086637
 30
0.0
 10
112.7203892694377
 20
65.95287370590982
 30
0.0
 10
112.7432454604659
 20
65.9873548812145
 30
0.0
  0
SPLINE
  5
329
330
1F
100
AcDbEntity
  8
0
  6
Continuous
 62
     7
370
    30
100
AcDbSpline
210
0.0
220
0.0
230
1.0
 70
     8
 71
     3
 72
     9
 73
     5
 74
     0
 42
0.000000001
 43
0.00000001
 40
0.0
 40
0.0
 40
0.0
 40
0.0
 40
0.49979163093159
 40
1.0
 40
1.0
 40
1.0
 40
1.0
 10
112.7467651075163
 20
65.43558724793813
 30
0.0
 10
112.7234072938003
 20
65.48708327985618
 30
0.0
 10
112.6766721900682
 20
65.59011828230723
 30
0.0
 10
112.6701707059267
 20
65.68733411751552
 30
0.0
 10
112.6669186091478
 20
65.7359622918927
 30
0.0
  0
SPLINE
  5
32A
330
1F
100
AcDbEntity
  8
0
  6
Continuous
 62
     7
370
    30
100
AcDbSpline
210
0.0
220
0.0
230
1.0
 70
     8
 71
     3
 72
    10
 73
     6
 74
     0
 42
0.000000001
 43
0.00000001
 40
0.0
 40
0.0
 40
0.0
 40
0.0
 40
0.3299050304917557
 40
0.6693627007865292
 40
1.0
 40
1.0
 40
1.0
 40
1.0
 10
112.9957704936139
 20
65.08804003261777
 30
0.0
 10
112.9645435490698
 20
65.12296756754458
 30
0.0
 10
112.9011854611189
 20
65.1938339895436
 30
0.0
 10
112.8166005157565
 20
65.31134972474717
 30
0.0
 10
112.7698384024341
 20
65.39453974661063
 30
0.0
 10
112.7467651075163
 20
65.43558724793813
 30
0.0
  0
LINE
  5
32B
330
1F
100
AcDbEntity
  8
0
  6
Continuous
 62
     7
370
    30
100
AcDbLine
 10
113.0217746212
 20
65.1123633376
 30
0.0
 11
112.9957704936
 21
65.0880400326
 31
0.0
  0
SPLINE
  5
32C
330
1F
100
AcDbEntity
  8
0
  6
Continuous
 62
     7
370
    30
100
AcDbSpline
210
0.0
220
0.0
230
1.0
 70
     8
 71
     3
 72
    10
 73
     6
 74
     0
 42
0.000000001
 43
0.00000001
 40
0.0
 40
0.0
 40
0.0
 40
0.0
 40
0.2503046455351169
 40
0.5004912589046514
 40
1.0
 40
1.0
 40
1.0
 40
1.0
 10
112.8509361211288
 20
65.36883780642218
 30
0.0
 10
112.862406609989
 20
65.34616030869358
 30
0.0
 10
112.885342178754
 20
65.30081600690195
 30
0.0
 10
112.9394746124472
 20
65.212345151076
 30
0.0
 10
112.9888660084968
 20
65.15234222491482
 30
0.0
 10
113.021774621195
 20
65.11236333758372
 30
0.0
  0
SPLINE
  5
32D
330
1F
100
AcDbEntity
  8
0
  6
Continuous
 62
     7
370
    30
100
AcDbSpline
210
0.0
220
0.0
230
1.0
 70
     8
 71
     3
 72
    10
 73
     6
 74
     0
 42
0.000000001
 43
0.00000001
 40
0.0
 40
0.0
 40
0.0
 40
0.0
 40
0.2503545357083538
 40
0.5005525660740404
 40
1.0
 40
1.0
 40
1.0
 40
1.0
 10
112.7772135208844
 20
65.633671947844
 30
0.0
 10
112.7784812252
 20
65.61265579690395
 30
0.0
 10
112.7810158413452
 20
65.57063663295203
 30
0.0
 10
112.8008309679825
 20
65.48148009281519
 30
0.0
 10
112.8309016703677
 20
65.41387761168471
 30
0.0
 10
112.8509361211288
 20
65.36883780642218
 30
0.0
  0
LINE
  5
32E
330
1F
100
AcDbEntity
  8
0
  6
Continuous
 62
     7
370
    30
100
AcDbLine
 10
112.8104059439
 20
65.8017982496
 30
0.0
 11
112.7772135209
 21
65.6336719478
 31
0.0
  0
SPLINE
  5
32F
330
1F
100
AcDbEntity
  8
0
  6
Continuous
 62
     7
370
    30
100
AcDbSpline
210
0.0
220
0.0
230
1.0
 70
     8
 71
     3
 72
    12
 73
     8
 74
     0
 42
0.000000001
 43
0.00000001
 40
0.0
 40
0.0
 40
0.0
 40
0.0
 40
0.1252898704662923
 40
0.2505313579366192
 40
0.5004779921192131
 40
0.7502097627434678
 40
1.0
 40
1.0
 40
1.0
 40
1.0
 10
113.2147781317738
 20
65.80765159790612
 30
0.0
 10
113.1956508889568
 20
65.81807017455434
 30
0.0
 10
113.1574037896608
 20
65.83890330452508
 30
0.0
 10
113.0807372726961
 20
65.87050393991657
 30
0.0
 10
112.9862744030609
 20
65.89030468592121
 30
0.0
 10
112.8827537651534
 20
65.87166319549104
 30
0.0
 10
112.8345237660236
 20
65.82508838202062
 30
0.0
 10
112.8104059439147
 20
65.80179824960722
 30
0.0
  0
SPLINE
  5
330
330
1F
100
AcDbEntity
  8
0
  6
Continuous
 62
     7
370
    30
100
AcDbSpline
210
0.0
220
0.0
230
1.0
 70
     8
 71
     3
 72
     9
 73
     5
 74
     0
 42
0.000000001
 43
0.00000001
 40
0.0
 40
0.0
 40
0.0
 40
0.0
 40
0.4999987397596261
 40
1.0
 40
1.0
 40
1.0
 40
1.0
 10
113.2965193396983
 20
65.75255108586181
 30
0.0
 10
113.2830345474283
 20
65.76265961143018
 30
0.0
 10
113.2560648949118
 20
65.78287671352375
 30
0.0
 10
113.2285404092781
 20
65.79939328923543
 30
0.0
 10
113.2147781317738
 20
65.80765159790612
 30
0.0
  0
ARC
  5
331
330
1F
100
AcDbEntity
  8
0
  6
Continuous
 62
     7
370
    30
100
AcDbCircle
 10
117.1633892595
 20
65.4122263131
 30
0.0
 40
3.88181709091046
100
AcDbArc
 50
174.9703350576
 51
187.7914828673
  0
ARC
  5
332
330
1F
100
AcDbEntity
  8
0
  6
Continuous
 62
     7
370
    30
100
AcDbCircle
 10
115.9237114937
 20
64.1464743261
 30
0.0
 40
1.494519925802091
100
AcDbArc
 50
217.3489500958
 51
239.8278051895
  0
LINE
  5
333
330
1F
100
AcDbEntity
  8
0
  6
Continuous
 62
     7
370
    30
100
AcDbLine
 10
114.6679924154
 20
63.278846296
 30
0.0
 11
114.7356347032
 21
63.2397972344
 31
0.0
  0
ARC
  5
334
330
1F
100
AcDbEntity
  8
0
  6
Continuous
 62
     7
370
    30
100
AcDbCircle
 10
115.9731214265
 20
64.2889591661
 30
0.0
 40
1.650360489650851
100
AcDbArc
 50
217.7383066284
 51
219.2456061524
  0
SPLINE
  5
335
330
1F
100
AcDbEntity
  8
0
  6
Continuous
 62
     7
370
    30
100
AcDbSpline
210
0.0
220
0.0
230
1.0
 70
     8
 71
     3
 72
    13
 73
     9
 74
     0
 42
0.000000001
 43
0.00000001
 40
0.0
 40
0.0
 40
0.0
 40
0.0
 40
0.2500347813307455
 40
0.3778245736633367
 40
0.5000042238703888
 40
0.6221996454627287
 40
0.7499710530760691
 40
1.0
 40
1.0
 40
1.0
 40
1.0
 10
114.6607833228095
 20
63.23958729057887
 30
0.0
 10
114.670820017683
 20
63.2339588955186
 30
0.0
 10
114.6859863475088
 20
63.22545389492333
 30
0.0
 10
114.7007841447251
 20
63.21937593710084
 30
0.0
 10
114.7078649452949
 20
63.21824242312613
 30
0.0
 10
114.7104093624147
 20
63.22072892574357
 30
0.0
 10
114.7077344771372
 20
63.22857978773911
 30
0.0
 10
114.7000800466266
 20
63.23837970131048
 30
0.0
 10
114.6950143308938
 20
63.24486530155084
 30
0.0
  0
LINE
  5
336
330
1F
100
AcDbEntity
  8
0
  6
Continuous
 62
     7
370
    30
100
AcDbLine
 10
113.3840351405
 20
63.9766383276
 30
0.0
 11
114.6607833228
 21
63.2395872906
 31
0.0
  0
SPLINE
  5
337
330
1F
100
AcDbEntity
  8
0
  6
Continuous
 62
     7
370
    30
100
AcDbSpline
210
0.0
220
0.0
230
1.0
 70
     8
 71
     3
 72
    13
 73
     9
 74
     0
 42
0.000000001
 43
0.00000001
 40
0.0
 40
0.0
 40
0.0
 40
0.0
 40
0.1251898092709447
 40
0.2501807205146377
 40
0.3688130157431389
 40
0.4998901941413574
 40
0.7494438216835065
 40
0.9999999999999999
 40
0.9999999999999999
 40
0.9999999999999999
 40
0.9999999999999999
 10
113.2322498571756
 20
64.08930125790363
 30
0.0
 10
113.2359298959874
 20
64.08497795756318
 30
0.0
 10
113.2432841268694
 20
64.0763382256196
 30
0.0
 10
113.2599368013366
 20
64.06083122227413
 30
0.0
 10
113.2800893153973
 20
64.04428222166513
 30
0.0
 10
113.3092186317889
 20
64.02289838611135
 30
0.0
 10
113.3454477274114
 20
63.99928317576054
 30
0.0
 10
113.3711554910487
 20
63.98419669143507
 30
0.0
 10
113.3840351405467
 20
63.97663832762668
 30
0.0
  0
ARC
  5
338
330
1F
100
AcDbEntity
  8
0
  6
Continuous
 62
     7
370
    30
100
AcDbCircle
 10
114.5124925503
 20
65.1351061561
 30
0.0
 40
1.653096863032064
100
AcDbArc
 50
217.4881256377
 51
219.2447056156
  0
LINE
  5
339
330
1F
100
AcDbEntity
  8
0
  6
Continuous
 62
     7
370
    30
100
AcDbLine
 10
113.1331518116
 20
64.1680854327
 30
0.0
 11
113.2007940994
 21
64.1290363711
 31
0.0
  0
ARC
  5
33A
330
1F
100
AcDbEntity
  8
0
  6
Continuous
 62
     7
370
    30
100
AcDbCircle
 10
114.3547243649
 20
65.0976504549
 30
0.0
 40
1.535034407929935
100
AcDbArc
 50
217.2695994469
 51
232.4727338863
  0
ARC
  5
33B
330
1F
100
AcDbEntity
  8
0
  6
Continuous
 62
     7
370
    30
100
AcDbCircle
 10
114.2940466964
 20
65.0230821617
 30
0.0
 40
1.438932010433761
100
AcDbArc
 50
233.7708946796
 51
239.9970273971
  0
SPLINE
  5
33C
330
1F
100
AcDbEntity
  8
0
  6
Continuous
 62
     7
370
    30
100
AcDbSpline
210
0.0
220
0.0
230
1.0
 70
     8
 71
     3
 72
    10
 73
     6
 74
     0
 42
0.000000001
 43
0.00000001
 40
0.0
 40
0.0
 40
0.0
 40
0.0
 40
0.5791082110064636
 40
0.868835698190936
 40
0.9999999999999999
 40
0.9999999999999999
 40
0.9999999999999999
 40
0.9999999999999999
 10
113.4570762215808
 20
63.86498061733238
 30
0.0
 10
113.4957899873073
 20
63.83593477887169
 30
0.0
 10
113.5538722265768
 20
63.79235732502298
 30
0.0
 10
113.6450442343419
 20
63.73627191788469
 30
0.0
 10
113.6909818931918
 20
63.70998798309726
 30
0.0
 10
113.7052976415798
 20
63.70179700849206
 30
0.0
  0
SPLINE
  5
33D
330
1F
100
AcDbEntity
  8
0
  6
Continuous
 62
     7
370
    30
100
AcDbSpline
210
0.0
220
0.0
230
1.0
 70
     8
 71
     3
 72
    12
 73
     8
 74
     0
 42
0.000000001
 43
0.00000001
 40
0.0
 40
0.0
 40
0.0
 40
0.0
 40
0.2496289669655722
 40
0.3738592293992731
 40
0.4999516044359192
 40
0.7493915236667351
 40
1.0
 40
1.0
 40
1.0
 40
1.0
 10
113.4826784048905
 20
63.87500298412969
 30
0.0
 10
113.4666336281714
 20
63.88398939405697
 30
0.0
 10
113.4426040136078
 20
63.89744797753516
 30
0.0
 10
113.4243203329861
 20
63.9042747469368
 30
0.0
 10
113.4169759058982
 20
63.90346349368471
 30
0.0
 10
113.4273157333827
 20
63.88985355441784
 30
0.0
 10
113.4471406160046
 20
63.8732845030334
 30
0.0
 10
113.4570762215808
 20
63.86498061733238
 30
0.0
  0
LINE
  5
33E
330
1F
100
AcDbEntity
  8
0
  6
Continuous
 62
     7
370
    30
100
AcDbLine
 10
114.1083695671
 20
63.5137991646
 30
0.0
 11
113.4826784049
 21
63.8750029841
 31
0.0
  0
ARC
  5
33F
330
1F
100
AcDbEntity
  8
0
  6
Continuous
 62
     7
370
    30
100
AcDbCircle
 10
115.1235583127
 20
64.5937158869
 30
0.0
 40
1.482170137435362
100
AcDbArc
 50
226.7695818438
 51
232.4376338409
  0
SPLINE
  5
340
330
1F
100
AcDbEntity
  8
0
  6
Continuous
 62
     7
370
    30
100
AcDbSpline
210
0.0
220
0.0
230
1.0
 70
     8
 71
     3
 72
    10
 73
     6
 74
     0
 42
0.000000001
 43
0.00000001
 40
0.0
 40
0.0
 40
0.0
 40
0.0
 40
0.2504333706103305
 40
0.5003401900569076
 40
1.0
 40
1.0
 40
1.0
 40
1.0
 10
114.233799645466
 20
63.40173814354032
 30
0.0
 10
114.2389203950842
 20
63.39911918277909
 30
0.0
 10
114.2491511276377
 20
63.3938867677785
 30
0.0
 10
114.247262137952
 20
63.3977705521029
 30
0.0
 10
114.2308987188995
 20
63.4103971929413
 30
0.0
 10
114.2199908922524
 20
63.41881408973761
 30
0.0
  0
LINE
  5
341
330
1F
100
AcDbEntity
  8
0
  6
Continuous
 62
     7
370
    30
100
AcDbLine
 10
114.0879387544
 20
63.4845897851
 30
0.0
 11
114.2337996455
 21
63.4017381435
 31
0.0
  0
LINE
  5
342
330
1F
100
AcDbEntity
  8
0
  6
Continuous
 62
     7
370
    30
100
AcDbLine
 10
114.0140332918
 20
63.5272545006
 30
0.0
 11
114.0879387544
 21
63.4845897851
 31
0.0
  0
ARC
  5
343
330
1F
100
AcDbEntity
  8
0
  6
Continuous
 62
     7
370
    30
100
AcDbCircle
 10
114.8174027434
 20
64.7189893578
 30
0.0
 40
1.437231521261443
100
AcDbArc
 50
236.0153966072
 51
238.2192211377
  0
LINE
  5
344
330
1F
100
AcDbEntity
  8
0
  6
Continuous
 62
     7
370
    30
100
AcDbLine
 10
114.6585882762
 20
63.1519478436
 30
0.0
 11
114.0604550831
 21
63.4972427862
 31
0.0
  0
ARC
  5
345
330
1F
100
AcDbEntity
  8
0
  6
Continuous
 62
     7
370
    30
100
AcDbCircle
 10
115.4155359365
 20
64.3736944153
 30
0.0
 40
1.437231521321851
100
AcDbArc
 50
236.0153966072
 51
238.2192211377
  0
LINE
  5
346
330
1F
100
AcDbEntity
  8
0
  6
Continuous
 62
     7
370
    30
100
AcDbLine
 10
114.5128951643
 20
63.2392676715
 30
0.0
 11
114.6121664849
 21
63.181959558
 31
0.0
  0
SPLINE
  5
347
330
1F
100
AcDbEntity
  8
0
  6
Continuous
 62
     7
370
    30
100
AcDbSpline
210
0.0
220
0.0
230
1.0
 70
     8
 71
     3
 72
     9
 73
     5
 74
     0
 42
0.000000001
 43
0.00000001
 40
0.0
 40
0.0
 40
0.0
 40
0.0
 40
0.4987799534838614
 40
1.0
 40
1.0
 40
1.0
 40
1.0
 10
114.3937350147215
 20
63.30924432132018
 30
0.0
 10
114.4150319558768
 20
63.29654607709893
 30
0.0
 10
114.4577300254494
 20
63.27108746728
 30
0.0
 10
114.4944768961128
 20
63.24989151013249
 30
0.0
 10
114.5128951643361
 20
63.23926767150508
 30
0.0
  0
SPLINE
  5
348
330
1F
100
AcDbEntity
  8
0
  6
Continuous
 62
     7
370
    30
100
AcDbSpline
210
0.0
220
0.0
230
1.0
 70
     8
 71
     3
 72
    11
 73
     7
 74
     0
 42
0.000000001
 43
0.00000001
 40
0.0
 40
0.0
 40
0.0
 40
0.0
 40
0.2504954819843058
 40
0.5003848874322172
 40
0.7499093269330737
 40
1.0
 40
1.0
 40
1.0
 40
1.0
 10
114.2854410688757
 20
63.38103050701921
 30
0.0
 10
114.2917536516366
 20
63.37628450758847
 30
0.0
 10
114.304363543796
 20
63.36680399172408
 30
0.0
 10
114.3296476745678
 20
63.34951235629045
 30
0.0
 10
114.3604408286005
 20
63.32962822696474
 30
0.0
 10
114.3826285705993
 20
63.31604408834887
 30
0.0
 10
114.3937350147215
 20
63.30924432132018
 30
0.0
  0
ARC
  5
349
330
1F
100
AcDbEntity
  8
0
  6
Continuous
 62
     7
370
    30
100
AcDbCircle
 10
115.1890084893
 20
64.5559323042
 30
0.0
 40
1.482170137439491
100
AcDbArc
 50
226.7695818438
 51
232.4376338409
  0
LINE
  5
34A
330
1F
100
AcDbEntity
  8
0
  6
Continuous
 62
     7
370
    30
100
AcDbLine
 10
114.7594265872
 20
63.1379519471
 30
0.0
 11
114.1738197437
 21
63.4760155819
 31
0.0
  0
SPLINE
  5
34B
330
1F
100
AcDbEntity
  8
0
  6
Continuous
 62
     7
370
    30
100
AcDbSpline
210
0.0
220
0.0
230
1.0
 70
     8
 71
     3
 72
    12
 73
     8
 74
     0
 42
0.000000001
 43
0.00000001
 40
0.0
 40
0.0
 40
0.0
 40
0.0
 40
0.4998673913583569
 40
0.6349833133526891
 40
0.7502499100468183
 40
0.8750221198134815
 40
1.0
 40
1.0
 40
1.0
 40
1.0
 10
114.9252657098949
 20
63.01618729964913
 30
0.0
 10
114.9049728258898
 20
63.03268651725115
 30
0.0
 10
114.8791947036401
 20
63.05364553166533
 30
0.0
 10
114.8351564534342
 20
63.08740663161741
 30
0.0
 10
114.8100987209775
 20
63.10559951262203
 30
0.0
 10
114.7833319441292
 20
63.12376502612523
 30
0.0
 10
114.7673994129843
 20
63.13322037792018
 30
0.0
 10
114.7594265871532
 20
63.13795194708187
 30
0.0
  0
SPLINE
  5
34C
330
1F
100
AcDbEntity
  8
0
  6
Continuous
 62
     7
370
    30
100
AcDbSpline
210
0.0
220
0.0
230
1.0
 70
     8
 71
     3
 72
     9
 73
     5
 74
     0
 42
0.000000001
 43
0.00000001
 40
0.0
 40
0.0
 40
0.0
 40
0.0
 40
0.4992011850898613
 40
0.9999999999999999
 40
0.9999999999999999
 40
0.9999999999999999
 40
0.9999999999999999
 10
115.0238726915487
 20
62.94027612656099
 30
0.0
 10
115.019705025231
 20
62.94330724275397
 30
0.0
 10
115.0113563545104
 20
62.94937917584133
 30
0.0
 10
114.9539931398275
 20
62.9938942188598
 30
0.0
 10
114.9252657098949
 20
63.01618729964913
 30
0.0
  0
ARC
  5
34D
330
1F
100
AcDbEntity
  8
0
  6
Continuous
 62
     7
370
    30
100
AcDbCircle
 10
114.4805220814
 20
68.2190194829
 30
0.0
 40
4.967781437365432
100
AcDbArc
 50
111.9242210284
 51
188.0811555043
  0
LINE
  5
34E
330
1F
100
AcDbEntity
  8
0
  6
Continuous
 62
     7
370
    30
100
AcDbLine
 10
114.9151873098
 20
67.4619255282
 30
0.0
 11
114.8786063709
 21
67.4761064518
 31
0.0
  0
SPLINE
  5
34F
330
1F
100
AcDbEntity
  8
0
  6
Continuous
 62
     7
370
    30
100
AcDbSpline
210
0.0
220
0.0
230
1.0
 70
     8
 71
     3
 72
    10
 73
     6
 74
     0
 42
0.000000001
 43
0.00000001
 40
0.0
 40
0.0
 40
0.0
 40
0.0
 40
0.4990832515304396
 40
0.7494907367237587
 40
1.0
 40
1.0
 40
1.0
 40
1.0
 10
114.878606370855
 20
67.47610645175428
 30
0.0
 10
114.8649409564245
 20
67.48615125257632
 30
0.0
 10
114.8444191266543
 20
67.50123588053219
 30
0.0
 10
114.8274650043252
 20
67.53358784580884
 30
0.0
 10
114.8226693471829
 20
67.55182144669644
 30
0.0
 10
114.8202710314123
 20
67.56094009952484
 30
0.0
  0
SPLINE
  5
350
330
1F
100
AcDbEntity
  8
0
  6
Continuous
 62
     7
370
    30
100
AcDbSpline
210
0.0
220
0.0
230
1.0
 70
     8
 71
     3
 72
    10
 73
     6
 74
     0
 42
0.000000001
 43
0.00000001
 40
0.0
 40
0.0
 40
0.0
 40
0.0
 40
0.4993994353777011
 40
0.7495663620347554
 40
1.0
 40
1.0
 40
1.0
 40
1.0
 10
114.8202710314123
 20
67.56094009952484
 30
0.0
 10
114.8179278000797
 20
67.5804889363951
 30
0.0
 10
114.8144107608905
 20
67.60983048045144
 30
0.0
 10
114.8240054706393
 20
67.65015411919886
 30
0.0
 10
114.8326149527279
 20
67.6688201528139
 30
0.0
 10
114.8369219872636
 20
67.67815814209106
 30
0.0
  0
SPLINE
  5
351
330
1F
100
AcDbEntity
  8
0
  6
Continuous
 62
     7
370
    30
100
AcDbSpline
210
0.0
220
0.0
230
1.0
 70
     8
 71
     3
 72
    10
 73
     6
 74
     0
 42
0.000000001
 43
0.00000001
 40
0.0
 40
0.0
 40
0.0
 40
0.0
 40
0.498383683094111
 40
0.748902820374953
 40
1.0
 40
1.0
 40
1.0
 40
1.0
 10
114.8369219872636
 20
67.67815814209108
 30
0.0
 10
114.8481079993603
 20
67.69551305760727
 30
0.0
 10
114.8649168080995
 20
67.72159165050331
 30
0.0
 10
114.8969527463829
 20
67.74466093928885
 30
0.0
 10
114.9141289707485
 20
67.75200187533618
 30
0.0
 10
114.9227269795242
 20
67.75567657305864
 30
0.0
  0
SPLINE
  5
352
330
1F
100
AcDbEntity
  8
0
  6
Continuous
 62
     7
370
    30
100
AcDbSpline
210
0.0
220
0.0
230
1.0
 70
     8
 71
     3
 72
    10
 73
     6
 74
     0
 42
0.000000001
 43
0.00000001
 40
0.0
 40
0.0
 40
0.0
 40
0.0
 40
0.4985180574179089
 40
0.7490539515953301
 40
1.0
 40
1.0
 40
1.0
 40
1.0
 10
114.9227269795242
 20
67.75567657305864
 30
0.0
 10
114.9402509095322
 20
67.76034616986456
 30
0.0
 10
114.9665816889787
 20
67.76736252541637
 30
0.0
 10
115.0001397014269
 20
67.76084467859614
 30
0.0
 10
115.0150019049743
 20
67.75327503577692
 30
0.0
 10
115.0224390845298
 20
67.74948711882116
 30
0.0
  0
LINE
  5
353
330
1F
100
AcDbEntity
  8
0
  6
Continuous
 62
     7
370
    30
100
AcDbLine
 10
114.867621437
 20
67.4800502375
 30
0.0
 11
114.8786063709
 21
67.4761064518
 31
0.0
  0
LINE
  5
354
330
1F
100
AcDbEntity
  8
0
  6
Continuous
 62
     7
370
    30
100
AcDbLine
 10
114.9123140564
 20
67.7607155665
 30
0.0
 11
114.9227269795
 21
67.7556765731
 31
0.0
  0
LINE
  5
355
330
1F
100
AcDbEntity
  8
0
  6
Continuous
 62
     7
370
    30
100
AcDbLine
 10
115.0121262661
 20
67.7547083843
 30
0.0
 11
115.0224390845
 21
67.7494871188
 31
0.0
  0
LINE
  5
356
330
1F
100
AcDbEntity
  8
0
  6
Continuous
 62
     7
370
    30
100
AcDbLine
 10
114.8093793422
 20
67.5650691094
 30
0.0
 11
114.8202710314
 21
67.5609400995
 31
0.0
  0
ARC
  5
357
330
1F
100
AcDbEntity
  8
0
  6
Continuous
 62
     7
370
    30
100
AcDbCircle
 10
119.795089196
 20
65.1706018799
 30
0.0
 40
7.161134989682485
100
AcDbArc
 50
141.7585269316
 51
145.9939532953
  0
LINE
  5
358
330
1F
100
AcDbEntity
  8
0
  6
Continuous
 62
     7
370
    30
100
AcDbLine
 10
114.1706689123
 20
69.603180228
 30
0.0
 11
114.2383112001
 21
69.5641311664
 31
0.0
  0
SPLINE
  5
359
330
1F
100
AcDbEntity
  8
0
  6
Continuous
 62
     7
370
    30
100
AcDbSpline
210
0.0
220
0.0
230
1.0
 70
     8
 71
     3
 72
     9
 73
     5
 74
     0
 42
0.000000001
 43
0.00000001
 40
0.0
 40
0.0
 40
0.0
 40
0.0
 40
0.499545991037833
 40
1.0
 40
1.0
 40
1.0
 40
1.0
 10
114.1978191154004
 20
69.4255440780883
 30
0.0
 10
114.2020298155249
 20
69.41933582368264
 30
0.0
 10
114.2104588695062
 20
69.40690803021212
 30
0.0
 10
114.2234888308851
 20
69.39891291218412
 30
0.0
 10
114.2300097272939
 20
69.39491172331488
 30
0.0
  0
LINE
  5
35A
330
1F
100
AcDbEntity
  8
0
  6
Continuous
 62
     7
370
    30
100
AcDbLine
 10
114.2300097273
 20
69.3949117233
 30
0.0
 11
114.8726114614
 21
69.0239456384
 31
0.0
  0
SPLINE
  5
35B
330
1F
100
AcDbEntity
  8
0
  6
Continuous
 62
     7
370
    30
100
AcDbSpline
210
0.0
220
0.0
230
1.0
 70
     8
 71
     3
 72
     9
 73
     5
 74
     0
 42
0.000000001
 43
0.00000001
 40
0.0
 40
0.0
 40
0.0
 40
0.0
 40
0.5010041266247396
 40
1.0
 40
1.0
 40
1.0
 40
1.0
 10
114.8726114614128
 20
69.02394563844312
 30
0.0
 10
114.9010318481302
 20
69.00956420537305
 30
0.0
 10
114.9577586996809
 20
68.98085898658182
 30
0.0
 10
115.0284358574749
 20
68.98507619024242
 30
0.0
 10
115.0637034675559
 20
68.98718055746625
 30
0.0
  0
SPLINE
  5
35C
330
1F
100
AcDbEntity
  8
0
  6
Continuous
 62
     7
370
    30
100
AcDbSpline
210
0.0
220
0.0
230
1.0
 70
     8
 71
     3
 72
    11
 73
     7
 74
     0
 42
0.000000001
 43
0.00000001
 40
0.0
 40
0.0
 40
0.0
 40
0.0
 40
0.2504264158874782
 40
0.5001528044369372
 40
0.7499083341805187
 40
1.0
 40
1.0
 40
1.0
 40
1.0
 10
115.0637034675559
 20
68.98718055746625
 30
0.0
 10
115.0808901017331
 20
68.99148905985585
 30
0.0
 10
115.1152153275768
 20
69.00009402089978
 30
0.0
 10
115.1637529273979
 20
69.02777276429285
 30
0.0
 10
115.206605238565
 20
69.06312043891718
 30
0.0
 10
115.2304153599125
 20
69.09042402924644
 30
0.0
 10
115.2423284264736
 20
69.10408500493844
 30
0.0
  0
SPLINE
  5
35D
330
1F
100
AcDbEntity
  8
0
  6
Continuous
 62
     7
370
    30
100
AcDbSpline
210
0.0
220
0.0
230
1.0
 70
     8
 71
     3
 72
    10
 73
     6
 74
     0
 42
0.000000001
 43
0.00000001
 40
0.0
 40
0.0
 40
0.0
 40
0.0
 40
0.2497238794745294
 40
0.4998500318424717
 40
1.0
 40
1.0
 40
1.0
 40
1.0
 10
115.2423284264736
 20
69.10408500493844
 30
0.0
 10
115.2637930479158
 20
69.13507889987514
 30
0.0
 10
115.3067568675311
 20
69.19711661690735
 30
0.0
 10
115.338273378988
 20
69.33224946358463
 30
0.0
 10
115.312304588572
 20
69.42011504950075
 30
0.0
 10
115.2949932423298
 20
69.47868811186521
 30
0.0
  0
ARC
  5
35E
330
1F
100
AcDbEntity
  8
0
  6
Continuous
 62
     7
370
    30
100
AcDbCircle
 10
119.2154597794
 20
65.6542404579
 30
0.0
 40
6.405974612838578
100
AcDbArc
 50
134.6901793696
 51
139.2523759529
  0
LINE
  5
35F
330
1F
100
AcDbEntity
  8
0
  6
Continuous
 62
     7
370
    30
100
AcDbLine
 10
114.7103116937
 20
70.2083761021
 30
0.0
 11
114.7779539815
 21
70.1693270406
 31
0.0
  0
SPLINE
  5
360
330
1F
100
AcDbEntity
  8
0
  6
Continuous
 62
     7
370
    30
100
AcDbSpline
210
0.0
220
0.0
230
1.0
 70
     8
 71
     3
 72
    10
 73
     6
 74
     0
 42
0.000000001
 43
0.00000001
 40
0.0
 40
0.0
 40
0.0
 40
0.0
 40
0.3244026239079379
 40
0.661894584690358
 40
1.0
 40
1.0
 40
1.0
 40
1.0
 10
114.7223700036459
 20
70.06554868103849
 30
0.0
 10
114.7239839418447
 20
70.05897879857326
 30
0.0
 10
114.7272769391112
 20
70.04557394514333
 30
0.0
 10
114.7409740722596
 20
70.0290182659927
 30
0.0
 10
114.7537264592476
 20
70.02096111218991
 30
0.0
 10
114.7601084424397
 20
70.01692887726846
 30
0.0
  0
LINE
  5
361
330
1F
100
AcDbEntity
  8
0
  6
Continuous
 62
     7
370
    30
100
AcDbLine
 10
114.7601084424
 20
70.0169288773
 30
0.0
 11
115.4766156392
 21
69.603298077
 31
0.0
  0
SPLINE
  5
362
330
1F
100
AcDbEntity
  8
0
  6
Continuous
 62
     7
370
    30
100
AcDbSpline
210
0.0
220
0.0
230
1.0
 70
     8
 71
     3
 72
    13
 73
     9
 74
     0
 42
0.000000001
 43
0.00000001
 40
0.0
 40
0.0
 40
0.0
 40
0.0
 40
0.2505988596879325
 40
0.3785728617725219
 40
0.5008518522825042
 40
0.6229489151119321
 40
0.7505355858786218
 40
1.0
 40
1.0
 40
1.0
 40
1.0
 10
115.4766156391571
 20
69.60329807698263
 30
0.0
 10
115.4874531814039
 20
69.59784732002333
 30
0.0
 10
115.5038251608616
 20
69.58961301016465
 30
0.0
 10
115.5303653022628
 20
69.58608100874865
 30
0.0
 10
115.5513238187259
 20
69.58791037102856
 30
0.0
 10
115.5720894228321
 20
69.59420105995875
 30
0.0
 10
115.5978671003755
 20
69.60785098767691
 30
0.0
 10
115.6132676955312
 20
69.62205488639117
 30
0.0
 10
115.6234570322064
 20
69.63145246516235
 30
0.0
  0
ARC
  5
363
330
1F
100
AcDbEntity
  8
0
  6
Continuous
 62
     7
370
    30
100
AcDbCircle
 10
119.9554814278
 20
65.3101359927
 30
0.0
 40
6.118840692411744
100
AcDbArc
 50
134.6527217236
 51
135.0708996095
  0
LINE
  5
364
330
1F
100
AcDbEntity
  8
0
  6
Continuous
 62
     7
370
    30
100
AcDbLine
 10
115.6551116118
 20
69.6629547191
 30
0.0
 11
115.7249460107
 21
69.6226401786
 31
0.0
  0
LINE
  5
365
330
1F
100
AcDbEntity
  8
0
  6
Continuous
 62
     7
370
    30
100
AcDbLine
 10
114.8262661489
 20
67.6827436637
 30
0.0
 11
114.8369219873
 21
67.6781581421
 31
0.0
  0
LINE
  5
366
330
1F
100
AcDbEntity
  8
0
  6
Continuous
 62
     7
370
    30
100
AcDbLine
 10
114.4856440489
 20
67.7576636211
 30
0.0
 11
113.5893837355
 21
68.2750636869
 31
0.0
  0
LINE
  5
367
330
1F
100
AcDbEntity
  8
0
  6
Continuous
 62
     7
370
    30
100
AcDbLine
 10
113.5893837355
 20
68.2750636869
 30
0.0
 11
113.5561423124
 21
68.2854244872
 31
0.0
  0
LINE
  5
368
330
1F
100
AcDbEntity
  8
0
  6
Continuous
 62
     7
370
    30
100
AcDbLine
 10
113.3438270051
 20
68.1032499512
 30
0.0
 11
113.2761847173
 21
68.1422990127
 31
0.0
  0
ARC
  5
369
330
1F
100
AcDbEntity
  8
0
  6
Continuous
 62
     7
370
    30
100
AcDbCircle
 10
119.9634413304
 20
65.0530708561
 30
0.0
 40
7.366324158850559
100
AcDbArc
 50
149.3871505321
 51
155.2050710335
  0
LINE
  5
36A
330
1F
100
AcDbEntity
  8
0
  6
Continuous
 62
     7
370
    30
100
AcDbLine
 10
113.6237776446
 20
68.8042567971
 30
0.0
 11
113.6914199324
 21
68.7652077356
 31
0.0
  0
SPLINE
  5
36B
330
1F
100
AcDbEntity
  8
0
  6
Continuous
 62
     7
370
    30
100
AcDbSpline
210
0.0
220
0.0
230
1.0
 70
     8
 71
     3
 72
    12
 73
     8
 74
     0
 42
0.000000001
 43
0.00000001
 40
0.0
 40
0.0
 40
0.0
 40
0.0
 40
0.2507371997549027
 40
0.5002847310464961
 40
0.626848846132094
 40
0.7504202618679177
 40
1.0
 40
1.0
 40
1.0
 40
1.0
 10
114.354747005547
 20
68.08000468994429
 30
0.0
 10
114.3642490963293
 20
68.07522370469829
 30
0.0
 10
114.3832081934876
 20
68.06568441846444
 30
0.0
 10
114.410997552523
 20
68.06380621130259
 30
0.0
 10
114.4331923708844
 20
68.06945946806798
 30
0.0
 10
114.4547758784192
 20
68.07999630876077
 30
0.0
 10
114.4687194082753
 20
68.09282756216078
 30
0.0
 10
114.4780454481229
 20
68.1014096630877
 30
0.0
  0
LINE
  5
36C
330
1F
100
AcDbEntity
  8
0
  6
Continuous
 62
     7
370
    30
100
AcDbLine
 10
114.4780454481
 20
68.1014096631
 30
0.0
 11
114.5649480727
 21
68.2334483752
 31
0.0
  0
LINE
  5
36D
330
1F
100
AcDbEntity
  8
0
  6
Continuous
 62
     7
370
    30
100
AcDbLine
 10
114.5649480727
 20
68.2334483752
 30
0.0
 11
114.6347824717
 21
68.1931338348
 31
0.0
  0
ARC
  5
36E
330
1F
100
AcDbEntity
  8
0
  6
Continuous
 62
     7
370
    30
100
AcDbCircle
 10
119.6807036022
 20
65.9865856428
 30
0.0
 40
4.787222905956508
100
AcDbArc
 50
125.3411408256
 51
126.0799109416
  0
SPLINE
  5
36F
330
1F
100
AcDbEntity
  8
0
  6
Continuous
 62
     7
370
    30
100
AcDbSpline
210
0.0
220
0.0
230
1.0
 70
     8
 71
     3
 72
    10
 73
     6
 74
     0
 42
0.000000001
 43
0.00000001
 40
0.0
 40
0.0
 40
0.0
 40
0.0
 40
0.4997816405153341
 40
0.7608387835163815
 40
1.0
 40
1.0
 40
1.0
 40
1.0
 10
116.9115656428653
 20
69.89163085555055
 30
0.0
 10
116.9208157763908
 20
69.89866327409905
 30
0.0
 10
116.9348976468885
 20
69.90936902304992
 30
0.0
 10
116.947289673392
 20
69.92579440667353
 30
0.0
 10
116.9496752255618
 20
69.93446625139924
 30
0.0
 10
116.9508157905732
 20
69.93861237857439
 30
0.0
  0
SPLINE
  5
370
330
1F
100
AcDbEntity
  8
0
  6
Continuous
 62
     7
370
    30
100
AcDbSpline
210
0.0
220
0.0
230
1.0
 70
     8
 71
     3
 72
    10
 73
     6
 74
     0
 42
0.000000001
 43
0.00000001
 40
0.0
 40
0.0
 40
0.0
 40
0.0
 40
0.1023398530488614
 40
0.4080823767540885
 40
1.0
 40
1.0
 40
1.0
 40
1.0
 10
115.2095126471751
 20
70.39733701057926
 30
0.0
 10
115.210302166332
 20
70.39147063173112
 30
0.0
 10
115.2134503910403
 20
70.36807831923535
 30
0.0
 10
115.248708797484
 20
70.3173850824213
 30
0.0
 10
115.2981241399884
 20
70.2840758798103
 30
0.0
 10
115.3307086455906
 20
70.26211177222606
 30
0.0
  0
LINE
  5
371
330
1F
100
AcDbEntity
  8
0
  6
Continuous
 62
     7
370
    30
100
AcDbLine
 10
115.3307086456
 20
70.2621117722
 30
0.0
 11
116.4129852504
 21
69.6373267872
 31
0.0
  0
SPLINE
  5
372
330
1F
100
AcDbEntity
  8
0
  6
Continuous
 62
     7
370
    30
100
AcDbSpline
210
0.0
220
0.0
230
1.0
 70
     8
 71
     3
 72
    12
 73
     8
 74
     0
 42
0.000000001
 43
0.00000001
 40
0.0
 40
0.0
 40
0.0
 40
0.0
 40
0.2510200052862585
 40
0.5008749809728659
 40
0.6232442505278711
 40
0.7510487128551668
 40
1.0
 40
1.0
 40
1.0
 40
1.0
 10
116.4129852504225
 20
69.6373267871789
 30
0.0
 10
116.4260525215247
 20
69.6304789864098
 30
0.0
 10
116.4521264161421
 20
69.61681516676313
 30
0.0
 10
116.493474400596
 20
69.6089132662866
 30
0.0
 10
116.5288086347191
 20
69.61270413870166
 30
0.0
 10
116.5630452991598
 20
69.62378764224906
 30
0.0
 10
116.5830853156362
 20
69.63865561775076
 30
0.0
 10
116.59632728448
 20
69.64848002426235
 30
0.0
  0
ARC
  5
373
330
1F
100
AcDbEntity
  8
0
  6
Continuous
 62
     7
370
    30
100
AcDbCircle
 10
120.0260229884
 20
65.5395584784
 30
0.0
 40
5.352200378474744
100
AcDbArc
 50
129.3943653789
 51
129.8515788831
  0
LINE
  5
374
330
1F
100
AcDbEntity
  8
0
  6
Continuous
 62
     7
370
    30
100
AcDbLine
 10
116.62922484
 20
69.6757174732
 30
0.0
 11
116.684943939
 21
69.643551522
 31
0.0
  0
ARC
  5
375
330
1F
100
AcDbEntity
  8
0
  6
Continuous
 62
     7
370
    30
100
AcDbCircle
 10
120.3711614758
 20
65.1479722039
 30
0.0
 40
5.874259498471711
100
AcDbArc
 50
132.9516624744
 51
133.3813688335
  0
SPLINE
  5
376
330
1F
100
AcDbEntity
  8
0
  6
Continuous
 62
     7
370
    30
100
AcDbSpline
210
0.0
220
0.0
230
1.0
 70
     8
 71
     3
 72
    11
 73
     7
 74
     0
 42
0.000000001
 43
0.00000001
 40
0.0
 40
0.0
 40
0.0
 40
0.0
 40
0.4030340440952455
 40
0.6134887096291807
 40
0.8066634901412589
 40
0.9999999999999999
 40
0.9999999999999999
 40
0.9999999999999999
 40
0.9999999999999999
 10
116.3685520086879
 20
69.44751195946407
 30
0.0
 10
116.3788884409948
 20
69.45802002288917
 30
0.0
 10
116.3946223091656
 20
69.47401514381211
 30
0.0
 10
116.4060419628739
 20
69.49767721310687
 30
0.0
 10
116.4093095511734
 20
69.51554358078019
 30
0.0
 10
116.4060118948408
 20
69.52607385755161
 30
0.0
 10
116.4043623767492
 20
69.53134119904864
 30
0.0
  0
LINE
  5
377
330
1F
100
AcDbEntity
  8
0
  6
Continuous
 62
     7
370
    30
100
AcDbLine
 10
115.1038142564
 20
70.3910684074
 30
0.0
 11
115.09501789
 21
70.4452111073
 31
0.0
  0
SPLINE
  5
378
330
1F
100
AcDbEntity
  8
0
  6
Continuous
 62
     7
370
    30
100
AcDbSpline
210
0.0
220
0.0
230
1.0
 70
     8
 71
     3
 72
    10
 73
     6
 74
     0
 42
0.000000001
 43
0.00000001
 40
0.0
 40
0.0
 40
0.0
 40
0.0
 40
0.2504942300926901
 40
0.5008019188012653
 40
0.9999999999999999
 40
0.9999999999999999
 40
0.9999999999999999
 40
0.9999999999999999
 10
115.0950178899737
 20
70.44521110731563
 30
0.0
 10
115.097586206925
 20
70.46978666419109
 30
0.0
 10
115.1027209282192
 20
70.51891947668857
 30
0.0
 10
115.1515613903046
 20
70.6147326495108
 30
0.0
 10
115.2191208374935
 20
70.67306657733022
 30
0.0
 10
115.2641178845579
 20
70.7119190932219
 30
0.0
  0
SPLINE
  5
379
330
1F
100
AcDbEntity
  8
0
  6
Continuous
 62
     7
370
    30
100
AcDbSpline
210
0.0
220
0.0
230
1.0
 70
     8
 71
     3
 72
    13
 73
     9
 74
     0
 42
0.000000001
 43
0.00000001
 40
0.0
 40
0.0
 40
0.0
 40
0.0
 40
0.2493420359511521
 40
0.3783900257522114
 40
0.4990929931591617
 40
0.6202112542997
 40
0.7495290564789144
 40
1.0
 40
1.0
 40
1.0
 40
1.0
 10
115.2641178845579
 20
70.7119190932219
 30
0.0
 10
115.3129672278648
 20
70.74436786121304
 30
0.0
 10
115.3870987484541
 20
70.7936106217005
 30
0.0
 10
115.5092291535493
 20
70.83196259752162
 30
0.0
 10
115.6067122848422
 20
70.84469785097684
 30
0.0
 10
115.7045089187257
 20
70.83938761950019
 30
0.0
 10
115.8276192724769
 20
70.81143570722375
 30
0.0
 10
115.9026085880405
 20
70.77268838362325
 30
0.0
 10
115.9520640941235
 20
70.74713449659788
 30
0.0
  0
LINE
  5
37A
330
1F
100
AcDbEntity
  8
0
  6
Continuous
 62
     7
370
    30
100
AcDbLine
 10
115.9520640941
 20
70.7471344966
 30
0.0
 11
117.087264526
 21
70.0917972365
 31
0.0
  0
SPLINE
  5
37B
330
1F
100
AcDbEntity
  8
0
  6
Continuous
 62
     7
370
    30
100
AcDbSpline
210
0.0
220
0.0
230
1.0
 70
     8
 71
     3
 72
    12
 73
     8
 74
     0
 42
0.000000001
 43
0.00000001
 40
0.0
 40
0.0
 40
0.0
 40
0.0
 40
0.2500091526383988
 40
0.3753952630190054
 40
0.5005150546894875
 40
0.7497341537209881
 40
1.0
 40
1.0
 40
1.0
 40
1.0
 10
117.0872645259857
 20
70.09179723652962
 30
0.0
 10
117.0984821974896
 20
70.08627666131704
 30
0.0
 10
117.1153258238137
 20
70.07798737365673
 30
0.0
 10
117.1441586345669
 20
70.07439123265246
 30
0.0
 10
117.1734241596293
 20
70.0757953869274
 30
0.0
 10
117.207255323618
 20
70.08572676701137
 30
0.0
 10
117.2284358827322
 20
70.09735233493944
 30
0.0
 10
117.239048355843
 20
70.10317730048305
 30
0.0
  0
ARC
  5
37C
330
1F
100
AcDbEntity
  8
0
  6
Continuous
 62
     7
370
    30
100
AcDbCircle
 10
119.2665440466
 20
66.6273090156
 30
0.0
 40
4.023978020551583
100
AcDbArc
 50
119.5640631273
 51
120.2552793105
  0
LINE
  5
37D
330
1F
100
AcDbEntity
  8
0
  6
Continuous
 62
     7
370
    30
100
AcDbLine
 10
117.2811277467
 20
70.1273834757
 30
0.0
 11
117.3345348682
 21
70.0965522007
 31
0.0
  0
SPLINE
  5
37E
330
1F
100
AcDbEntity
  8
0
  6
Continuous
 62
     7
370
    30
100
AcDbSpline
210
0.0
220
0.0
230
1.0
 70
     8
 71
     3
 72
    10
 73
     6
 74
     0
 42
0.000000001
 43
0.00000001
 40
0.0
 40
0.0
 40
0.0
 40
0.0
 40
0.4988289610652145
 40
0.7513528450231555
 40
1.0
 40
1.0
 40
1.0
 40
1.0
 10
113.8132307926492
 20
66.07262116957534
 30
0.0
 10
113.7856109303828
 20
66.05657942428967
 30
0.0
 10
113.7440089711687
 20
66.03241681165028
 30
0.0
 10
113.6789235885484
 20
66.03779206540037
 30
0.0
 10
113.6468306685019
 20
66.05319752706151
 30
0.0
 10
113.6309083333219
 20
66.060840674641
 30
0.0
  0
SPLINE
  5
37F
330
1F
100
AcDbEntity
  8
0
  6
Continuous
 62
     7
370
    30
100
AcDbSpline
210
0.0
220
0.0
230
1.0
 70
     8
 71
     3
 72
    10
 73
     6
 74
     0
 42
0.000000001
 43
0.00000001
 40
0.0
 40
0.0
 40
0.0
 40
0.0
 40
0.4994128575164521
 40
0.7496429094997638
 40
1.0
 40
1.0
 40
1.0
 40
1.0
 10
113.6309083333219
 20
66.060840674641
 30
0.0
 10
113.6149370471536
 20
66.07193341041327
 30
0.0
 10
113.5909633723643
 20
66.08858414455734
 30
0.0
 10
113.5649940257667
 20
66.12401098178276
 30
0.0
 10
113.5548676030752
 20
66.1441580851061
 30
0.0
 10
113.5498031067926
 20
66.15423419322389
 30
0.0
  0
SPLINE
  5
380
330
1F
100
AcDbEntity
  8
0
  6
Continuous
 62
     7
370
    30
100
AcDbSpline
210
0.0
220
0.0
230
1.0
 70
     8
 71
     3
 72
     9
 73
     5
 74
     0
 42
0.000000001
 43
0.00000001
 40
0.0
 40
0.0
 40
0.0
 40
0.0
 40
0.4998646763088966
 40
1.0
 40
1.0
 40
1.0
 40
1.0
 10
113.5498031067926
 20
66.15423419322389
 30
0.0
 10
113.5468741212322
 20
66.17259121216847
 30
0.0
 10
113.5410145642378
 20
66.2093151893059
 30
0.0
 10
113.5463035633955
 20
66.24355778586421
 30
0.0
 10
113.5489487787012
 20
66.26068371797793
 30
0.0
  0
SPLINE
  5
381
330
1F
100
AcDbEntity
  8
0
  6
Continuous
 62
     7
370
    30
100
AcDbSpline
210
0.0
220
0.0
230
1.0
 70
     8
 71
     3
 72
    10
 73
     6
 74
     0
 42
0.000000001
 43
0.00000001
 40
0.0
 40
0.0
 40
0.0
 40
0.0
 40
0.4984585542766121
 40
0.7489604469948714
 40
1.0
 40
1.0
 40
1.0
 40
1.0
 10
113.5489487787012
 20
66.26068371797793
 30
0.0
 10
113.5537095866268
 20
66.27666834650765
 30
0.0
 10
113.5608629533437
 20
66.30068609969084
 30
0.0
 10
113.5800772399671
 20
66.32309885337855
 30
0.0
 10
113.5917379275767
 20
66.33029479059333
 30
0.0
 10
113.5975745216014
 20
66.33389661627942
 30
0.0
  0
SPLINE
  5
382
330
1F
100
AcDbEntity
  8
0
  6
Continuous
 62
     7
370
    30
100
AcDbSpline
210
0.0
220
0.0
230
1.0
 70
     8
 71
     3
 72
    10
 73
     6
 74
     0
 42
0.000000001
 43
0.00000001
 40
0.0
 40
0.0
 40
0.0
 40
0.0
 40
0.4983487537941927
 40
0.7489881127483939
 40
1.0
 40
1.0
 40
1.0
 40
1.0
 10
113.5975745216014
 20
66.33389661627942
 30
0.0
 10
113.6087521518199
 20
66.3390460649119
 30
0.0
 10
113.6255514557183
 20
66.3467853755524
 30
0.0
 10
113.650813988715
 20
66.34399443307612
 30
0.0
 10
113.6630273869496
 20
66.33799635838169
 30
0.0
 10
113.6691386209269
 20
66.33499509393688
 30
0.0
  0
SPLINE
  5
383
330
1F
100
AcDbEntity
  8
0
  6
Continuous
 62
     7
370
    30
100
AcDbSpline
210
0.0
220
0.0
230
1.0
 70
     8
 71
     3
 72
    10
 73
     6
 74
     0
 42
0.000000001
 43
0.00000001
 40
0.0
 40
0.0
 40
0.0
 40
0.0
 40
0.0798014775162097
 40
0.3860180236905881
 40
1.0
 40
1.0
 40
1.0
 40
1.0
 10
113.7925773171084
 20
66.22679315596896
 30
0.0
 10
113.796793885942
 20
66.22974849772616
 30
0.0
 10
113.8171903951115
 20
66.2440441626681
 30
0.0
 10
113.8521182717248
 20
66.31201332165085
 30
0.0
 10
113.871878078776
 20
66.38323052876446
 30
0.0
 10
113.8850623700874
 20
66.43074862459103
 30
0.0
  0
SPLINE
  5
384
330
1F
100
AcDbEntity
  8
0
  6
Continuous
 62
     7
370
    30
100
AcDbSpline
210
0.0
220
0.0
230
1.0
 70
     8
 71
     3
 72
    10
 73
     6
 74
     0
 42
0.000000001
 43
0.00000001
 40
0.0
 40
0.0
 40
0.0
 40
0.0
 40
0.2503306381110701
 40
0.5006840487927001
 40
1.0
 40
1.0
 40
1.0
 40
1.0
 10
113.8850623700874
 20
66.43074862459103
 30
0.0
 10
113.8916387518319
 20
66.46200440376859
 30
0.0
 10
113.9047921135741
 20
66.524518805461
 30
0.0
 10
113.9059679142211
 20
66.66028771078969
 30
0.0
 10
113.8763119785457
 20
66.75583316350085
 30
0.0
 10
113.8565596950944
 20
66.81947104311726
 30
0.0
  0
SPLINE
  5
385
330
1F
100
AcDbEntity
  8
0
  6
Continuous
 62
     7
370
    30
100
AcDbSpline
210
0.0
220
0.0
230
1.0
 70
     8
 71
     3
 72
     9
 73
     5
 74
     0
 42
0.000000001
 43
0.00000001
 40
0.0
 40
0.0
 40
0.0
 40
0.0
 40
0.4990984514245251
 40
1.0
 40
1.0
 40
1.0
 40
1.0
 10
113.8565596950944
 20
66.81947104311726
 30
0.0
 10
113.8203312647874
 20
66.89303202039058
 30
0.0
 10
113.7477435214201
 20
67.04041972929522
 30
0.0
 10
113.6286536977374
 20
67.12028046002678
 30
0.0
 10
113.5690014206351
 20
67.16028282372056
 30
0.0
  0
SPLINE
  5
386
330
1F
100
AcDbEntity
  8
0
  6
Continuous
 62
     7
370
    30
100
AcDbSpline
210
0.0
220
0.0
230
1.0
 70
     8
 71
     3
 72
     9
 73
     5
 74
     0
 42
0.000000001
 43
0.00000001
 40
0.0
 40
0.0
 40
0.0
 40
0.0
 40
0.5005358525737151
 40
1.0
 40
1.0
 40
1.0
 40
1.0
 10
113.5690014206351
 20
67.16028282372056
 30
0.0
 10
113.5132082762096
 20
67.18862144546375
 30
0.0
 10
113.4017414469331
 20
67.24523801268363
 30
0.0
 10
113.2830864277632
 20
67.23922282846124
 30
0.0
 10
113.2238224997756
 20
67.23621845960197
 30
0.0
  0
SPLINE
  5
387
330
1F
100
AcDbEntity
  8
0
  6
Continuous
 62
     7
370
    30
100
AcDbSpline
210
0.0
220
0.0
230
1.0
 70
     8
 71
     3
 72
     9
 73
     5
 74
     0
 42
0.000000001
 43
0.00000001
 40
0.0
 40
0.0
 40
0.0
 40
0.0
 40
0.5016052663103693
 40
1.0
 40
1.0
 40
1.0
 40
1.0
 10
113.0690369250012
 20
66.30449231152919
 30
0.0
 10
113.0243305984629
 20
66.36007889241613
 30
0.0
 10
112.9352040889526
 20
66.4708962713799
 30
0.0
 10
112.8834979465801
 20
66.61276896969903
 30
0.0
 10
112.8577278775222
 20
66.68347757539563
 30
0.0
  0
SPLINE
  5
388
330
1F
100
AcDbEntity
  8
0
  6
Continuous
 62
     7
370
    30
100
AcDbSpline
210
0.0
220
0.0
230
1.0
 70
     8
 71
     3
 72
     9
 73
     5
 74
     0
 42
0.000000001
 43
0.00000001
 40
0.0
 40
0.0
 40
0.0
 40
0.0
 40
0.4998013918276021
 40
1.0
 40
1.0
 40
1.0
 40
1.0
 10
112.8577278775222
 20
66.68347757539563
 30
0.0
 10
112.8471821040434
 20
66.75160777277227
 30
0.0
 10
112.8260821758493
 20
66.88792231388933
 30
0.0
 10
112.8538881527259
 20
67.01608952442724
 30
0.0
 10
112.8677966636585
 20
67.08019858475164
 30
0.0
  0
SPLINE
  5
389
330
1F
100
AcDbEntity
  8
0
  6
Continuous
 62
     7
370
    30
100
AcDbSpline
210
0.0
220
0.0
230
1.0
 70
     8
 71
     3
 72
     9
 73
     5
 74
     0
 42
0.000000001
 43
0.00000001
 40
0.0
 40
0.0
 40
0.0
 40
0.0
 40
0.4997470038718957
 40
1.0
 40
1.0
 40
1.0
 40
1.0
 10
112.8677966636585
 20
67.08019858475164
 30
0.0
 10
112.8969716586974
 20
67.15873157653823
 30
0.0
 10
112.9553511883652
 20
67.31587707451651
 30
0.0
 10
113.0819481910258
 20
67.39258002447008
 30
0.0
 10
113.1452787209075
 20
67.43095090499621
 30
0.0
  0
SPLINE
  5
38A
330
1F
100
AcDbEntity
  8
0
  6
Continuous
 62
     7
370
    30
100
AcDbSpline
210
0.0
220
0.0
230
1.0
 70
     8
 71
     3
 72
     9
 73
     5
 74
     0
 42
0.000000001
 43
0.00000001
 40
0.0
 40
0.0
 40
0.0
 40
0.0
 40
0.7129256437467462
 40
1.0
 40
1.0
 40
1.0
 40
1.0
 10
113.1452787209075
 20
67.43095090499621
 30
0.0
 10
113.1865304193656
 20
67.44567569230966
 30
0.0
 10
113.2443929732237
 20
67.46632972186048
 30
0.0
 10
113.3039575559849
 20
67.45970760948035
 30
0.0
 10
113.3210570202365
 20
67.45780657083179
 30
0.0
  0
LWPOLYLINE
  5
38B
330
1F
100
AcDbEntity
  8
0
  6
Continuous
 62
     7
370
    30
100
AcDbPolyline
 90
       16
 70
   128
 43
0.0
 10
100.3680165256
 20
77.7949419479
 10
100.1695176927
 20
77.66184653
 10
99.9761598754
 20
77.4951892517
 10
99.7929509395
 20
77.2992864492
 10
99.6246359002
 20
77.079211902
 10
99.4755740286
 20
76.8406654254
 10
99.3496259489
 20
76.5898252477
 10
99.2500536502
 20
76.3331879978
 10
99.1794360027
 20
76.0774004457
 10
99.1396019665
 20
75.8290873546
 10
99.1315832221
 20
75.5946799031
 10
99.1555874507
 20
75.3802491212
 10
99.2109929556
 20
75.1913486534
 10
99.2963647631
 20
75.0328709226
 10
99.4094917884
 20
74.9089204187
 10
99.4930876345
 20
74.8504100179
  0
ARC
  5
38C
330
1F
100
AcDbEntity
  8
0
  6
Continuous
 62
     7
370
    30
100
AcDbCircle
 10
100.881753265
 20
77.0680221607
 30
0.0
 40
0.8901335935633482
100
AcDbArc
 50
66.0604255312
 51
125.2500328979
  0
LINE
  5
38D
330
1F
100
AcDbEntity
  8
0
  6
Continuous
 62
     7
370
    30
100
AcDbLine
 10
113.5784985525
 20
68.2792055178
 30
0.0
 11
113.5893837355
 21
68.2750636869
 31
0.0
  0
LINE
  5
38E
330
1F
100
AcDbEntity
  8
0
  6
Continuous
 62
     7
370
    30
100
AcDbLine
 10
116.3644109056
 20
69.4607363476
 30
0.0
 11
116.3685520087
 21
69.4475119595
 31
0.0
  0
LINE
  5
38F
330
1F
100
AcDbEntity
  8
0
  6
Continuous
 62
     7
370
    30
100
AcDbLine
 10
114.5550758837
 20
68.2394426414
 30
0.0
 11
114.5649480727
 21
68.2334483752
 31
0.0
  0
LINE
  5
390
330
1F
100
AcDbEntity
  8
0
  6
Continuous
 62
     7
370
    30
100
AcDbLine
 10
114.4678066828
 20
68.1067641169
 30
0.0
 11
114.4780454481
 21
68.1014096631
 31
0.0
  0
LINE
  5
391
330
1F
100
AcDbEntity
  8
0
  6
Continuous
 62
     7
370
    30
100
AcDbLine
 10
114.3443271861
 20
68.0850310302
 30
0.0
 11
114.3547470055
 21
68.0800046899
 31
0.0
  0
LINE
  5
392
330
1F
100
AcDbEntity
  8
0
  6
Continuous
 62
     7
370
    30
100
AcDbLine
 10
115.2353742586
 20
69.1142904342
 30
0.0
 11
115.2423284265
 21
69.1040850049
 31
0.0
  0
LINE
  5
393
330
1F
100
AcDbEntity
  8
0
  6
Continuous
 62
     7
370
    30
100
AcDbLine
 10
115.0561911784
 20
68.9966800411
 30
0.0
 11
115.0637034676
 21
68.9871805575
 31
0.0
  0
LINE
  5
394
330
1F
100
AcDbEntity
  8
0
  6
Continuous
 62
     7
370
    30
100
AcDbLine
 10
115.2891251396
 20
69.4901591199
 30
0.0
 11
115.2949932423
 21
69.4786881119
 31
0.0
  0
LINE
  5
395
330
1F
100
AcDbEntity
  8
0
  6
Continuous
 62
     7
370
    30
100
AcDbLine
 10
116.5932505518
 20
69.6626435155
 30
0.0
 11
116.5963272845
 21
69.6484800243
 31
0.0
  0
LINE
  5
396
330
1F
100
AcDbEntity
  8
0
  6
Continuous
 62
     7
370
    30
100
AcDbLine
 10
116.4095259075
 20
69.6511644521
 30
0.0
 11
116.4129852504
 21
69.6373267872
 31
0.0
  0
LINE
  5
397
330
1F
100
AcDbEntity
  8
0
  6
Continuous
 62
     7
370
    30
100
AcDbLine
 10
116.6263018342
 20
69.6900082422
 30
0.0
 11
116.62922484
 21
69.6757174732
 31
0.0
  0
LINE
  5
398
330
1F
100
AcDbEntity
  8
0
  6
Continuous
 62
     7
370
    30
100
AcDbLine
 10
114.8649174112
 20
69.0332063589
 30
0.0
 11
114.8726114614
 21
69.0239456384
 31
0.0
  0
LINE
  5
399
330
1F
100
AcDbEntity
  8
0
  6
Continuous
 62
     7
370
    30
100
AcDbLine
 10
113.8436538548
 20
66.8186982754
 30
0.0
 11
113.8565596951
 21
66.8194710431
 31
0.0
  0
LINE
  5
39A
330
1F
100
AcDbEntity
  8
0
  6
Continuous
 62
     7
370
    30
100
AcDbLine
 10
113.8717263268
 20
66.4284846369
 30
0.0
 11
113.8850623701
 21
66.4307486246
 31
0.0
  0
LINE
  5
39B
330
1F
100
AcDbEntity
  8
0
  6
Continuous
 62
     7
370
    30
100
AcDbLine
 10
115.3272493026
 20
70.2759494371
 30
0.0
 11
115.3307086456
 21
70.2621117722
 31
0.0
  0
LINE
  5
39C
330
1F
100
AcDbEntity
  8
0
  6
Continuous
 62
     7
370
    30
100
AcDbLine
 10
113.5563220339
 20
67.1601961866
 30
0.0
 11
113.5690014206
 21
67.1602828237
 31
0.0
  0
LINE
  5
39D
330
1F
100
AcDbEntity
  8
0
  6
Continuous
 62
     7
370
    30
100
AcDbLine
 10
114.2223156771
 20
69.4041724438
 30
0.0
 11
114.2300097273
 21
69.3949117233
 31
0.0
  0
LINE
  5
39E
330
1F
100
AcDbEntity
  8
0
  6
Continuous
 62
     7
370
    30
100
AcDbLine
 10
113.7368171414
 20
66.224450466
 30
0.0
 11
113.750426727
 21
66.2278677764
 31
0.0
  0
LINE
  5
39F
330
1F
100
AcDbEntity
  8
0
  6
Continuous
 62
     7
370
    30
100
AcDbLine
 10
116.9099619866
 20
69.9069305656
 30
0.0
 11
116.9115656429
 21
69.8916308556
 31
0.0
  0
LINE
  5
3A0
330
1F
100
AcDbEntity
  8
0
  6
Continuous
 62
     7
370
    30
100
AcDbLine
 10
115.6185706574
 20
69.6439566517
 30
0.0
 11
115.6234570322
 21
69.6314524652
 31
0.0
  0
LINE
  5
3A1
330
1F
100
AcDbEntity
  8
0
  6
Continuous
 62
     7
370
    30
100
AcDbLine
 10
115.4713986858
 20
69.6154654197
 30
0.0
 11
115.4766156392
 21
69.603298077
 31
0.0
  0
LINE
  5
3A2
330
1F
100
AcDbEntity
  8
0
  6
Continuous
 62
     7
370
    30
100
AcDbLine
 10
115.6503731556
 20
69.6756061124
 30
0.0
 11
115.6551116118
 21
69.6629547191
 31
0.0
  0
LINE
  5
3A3
330
1F
100
AcDbEntity
  8
0
  6
Continuous
 62
     7
370
    30
100
AcDbLine
 10
114.7548914891
 20
70.02909622
 30
0.0
 11
114.7601084424
 21
70.0169288773
 31
0.0
  0
LINE
  5
3A4
330
1F
100
AcDbEntity
  8
0
  6
Continuous
 62
     7
370
    30
100
AcDbLine
 10
113.1326343663
 20
67.4309658114
 30
0.0
 11
113.1452787209
 21
67.430950905
 31
0.0
  0
LINE
  5
3A5
330
1F
100
AcDbEntity
  8
0
  6
Continuous
 62
     7
370
    30
100
AcDbLine
 10
113.6171060901
 20
66.0564316691
 30
0.0
 11
113.6309083333
 21
66.0608406746
 31
0.0
  0
LINE
  5
3A6
330
1F
100
AcDbEntity
  8
0
  6
Continuous
 62
     7
370
    30
100
AcDbLine
 10
113.7995195771
 20
66.0687064981
 30
0.0
 11
113.8132307926
 21
66.0726211696
 31
0.0
  0
LINE
  5
3A7
330
1F
100
AcDbEntity
  8
0
  6
Continuous
 62
     7
370
    30
100
AcDbLine
 10
117.2389749927
 20
70.1194655453
 30
0.0
 11
117.2390483558
 21
70.1031773005
 31
0.0
  0
LINE
  5
3A8
330
1F
100
AcDbEntity
  8
0
  6
Continuous
 62
     7
370
    30
100
AcDbLine
 10
117.086797978
 20
70.1078498312
 30
0.0
 11
117.087264526
 21
70.0917972365
 31
0.0
  0
LINE
  5
3A9
330
1F
100
AcDbEntity
  8
0
  6
Continuous
 62
     7
370
    30
100
AcDbLine
 10
113.2109817791
 20
67.2356486412
 30
0.0
 11
113.2238224998
 21
67.2362184596
 31
0.0
  0
LINE
  5
3AA
330
1F
100
AcDbEntity
  8
0
  6
Continuous
 62
     7
370
    30
100
AcDbLine
 10
113.6139619265
 20
68.8103468853
 30
0.0
 11
113.6237776446
 21
68.8042567971
 31
0.0
  0
LINE
  5
3AB
330
1F
100
AcDbEntity
  8
0
  6
Continuous
 62
     7
370
    30
100
AcDbLine
 10
113.2647447332
 20
68.1452958403
 30
0.0
 11
113.2761847173
 21
68.1422990127
 31
0.0
  0
LINE
  5
3AC
330
1F
100
AcDbEntity
  8
0
  6
Continuous
 62
     7
370
    30
100
AcDbLine
 10
113.5839808892
 20
66.3305532231
 30
0.0
 11
113.5975745216
 21
66.3338966163
 31
0.0
  0
LINE
  5
3AD
330
1F
100
AcDbEntity
  8
0
  6
Continuous
 62
     7
370
    30
100
AcDbLine
 10
113.6555838018
 20
66.3318274792
 30
0.0
 11
113.6691386209
 21
66.3349950939
 31
0.0
  0
LINE
  5
3AE
330
1F
100
AcDbEntity
  8
0
  6
Continuous
 62
     7
370
    30
100
AcDbLine
 10
117.2812510162
 20
70.1437848335
 30
0.0
 11
117.2811277467
 21
70.1273834757
 31
0.0
  0
LINE
  5
3AF
330
1F
100
AcDbEntity
  8
0
  6
Continuous
 62
     7
370
    30
100
AcDbLine
 10
115.9515975462
 20
70.7631870913
 30
0.0
 11
115.9520640941
 21
70.7471344966
 31
0.0
  0
SPLINE
  5
3B0
330
1F
100
AcDbEntity
  8
0
  6
Continuous
 62
     7
370
    30
100
AcDbSpline
210
0.0
220
0.0
230
1.0
 70
     8
 71
     3
 72
    10
 73
     6
 74
     0
 42
0.000000001
 43
0.00000001
 40
0.0
 40
0.0
 40
0.0
 40
0.0
 40
0.1663358477001015
 40
0.5823926502061474
 40
1.0
 40
1.0
 40
1.0
 40
1.0
 10
113.7051538381163
 20
64.85189342317493
 30
0.0
 10
113.6897695468302
 20
64.84283977818515
 30
0.0
 10
113.6359044401946
 20
64.81114019945613
 30
0.0
 10
113.5061581832238
 20
64.82683943171013
 30
0.0
 10
113.3897156770517
 20
64.87327220534675
 30
0.0
 10
113.3313861371864
 20
64.89653177274984
 30
0.0
  0
ARC
  5
3B1
330
1F
100
AcDbEntity
  8
0
  6
Continuous
 62
     7
370
    30
100
AcDbCircle
 10
117.1594780281
 20
65.4203354139
 30
0.0
 40
3.86376212769775
100
AcDbArc
 50
174.9703350576
 51
187.7914828673
  0
SPLINE
  5
3B2
330
1F
100
AcDbEntity
  8
0
  6
Continuous
 62
     7
370
    30
100
AcDbSpline
210
0.0
220
0.0
230
1.0
 70
     8
 71
     3
 72
     9
 73
     5
 74
     0
 42
0.000000001
 43
0.00000001
 40
0.0
 40
0.0
 40
0.0
 40
0.0
 40
0.4999851924241475
 40
1.0
 40
1.0
 40
1.0
 40
1.0
 10
113.3105935497831
 20
65.75907728072234
 30
0.0
 10
113.2971077266498
 20
65.76917559217078
 30
0.0
 10
113.2701352815903
 20
65.78937281321149
 30
0.0
 10
113.2426116724181
 20
65.80588587792143
 30
0.0
 10
113.2288494602741
 20
65.81414265479485
 30
0.0
  0
SPLINE
  5
3B3
330
1F
100
AcDbEntity
  8
0
  6
Continuous
 62
     7
370
    30
100
AcDbSpline
210
0.0
220
0.0
230
1.0
 70
     8
 71
     3
 72
    10
 73
     6
 74
     0
 42
0.000000001
 43
0.00000001
 40
0.0
 40
0.0
 40
0.0
 40
0.0
 40
0.3339256087919407
 40
0.6672719064253172
 40
0.9999999999999999
 40
0.9999999999999999
 40
0.9999999999999999
 40
0.9999999999999999
 10
113.2288494602741
 20
65.81414265479485
 30
0.0
 10
113.1906006857307
 20
65.8339226352217
 30
0.0
 10
113.1141694925667
 20
65.87344828075764
 30
0.0
 10
112.9990158557037
 20
65.89904893185347
 30
0.0
 10
112.9343616879886
 20
65.87982102704657
 30
0.0
 10
112.9020646078884
 20
65.87021599764705
 30
0.0
  0
SPLINE
  5
3B4
330
1F
100
AcDbEntity
  8
0
  6
Continuous
 62
     7
370
    30
100
AcDbSpline
210
0.0
220
0.0
230
1.0
 70
     8
 71
     3
 72
    10
 73
     6
 74
     0
 42
0.000000001
 43
0.00000001
 40
0.0
 40
0.0
 40
0.0
 40
0.0
 40
0.3301129241812937
 40
0.6695706293119192
 40
1.0
 40
1.0
 40
1.0
 40
1.0
 10
113.0097593087694
 20
65.0985138024403
 30
0.0
 10
112.9785498751847
 20
65.13334838960489
 30
0.0
 10
112.915247536636
 20
65.204003655549
 30
0.0
 10
112.8306938562879
 20
65.32117243538812
 30
0.0
 10
112.7839281631587
 20
65.40413124313477
 30
0.0
 10
112.7608604565134
 20
65.44505161259143
 30
0.0
  0
SPLINE
  5
3B5
330
1F
100
AcDbEntity
  8
0
  6
Continuous
 62
     7
370
    30
100
AcDbSpline
210
0.0
220
0.0
230
1.0
 70
     8
 71
     3
 72
     9
 73
     5
 74
     0
 42
0.000000001
 43
0.00000001
 40
0.0
 40
0.0
 40
0.0
 40
0.0
 40
0.4999915703075174
 40
1.0
 40
1.0
 40
1.0
 40
1.0
 10
112.7608604565134
 20
65.44505161259143
 30
0.0
 10
112.7375148845392
 20
65.4963541901973
 30
0.0
 10
112.6908229533935
 20
65.59896107529798
 30
0.0
 10
112.6843147050722
 20
65.69579786276883
 30
0.0
 10
112.6810605260489
 20
65.74421707280858
 30
0.0
  0
SPLINE
  5
3B6
330
1F
100
AcDbEntity
  8
0
  6
Continuous
 62
     7
370
    30
100
AcDbSpline
210
0.0
220
0.0
230
1.0
 70
     8
 71
     3
 72
     9
 73
     5
 74
     0
 42
0.000000001
 43
0.00000001
 40
0.0
 40
0.0
 40
0.0
 40
0.0
 40
0.5001463830347087
 40
1.0
 40
1.0
 40
1.0
 40
1.0
 10
112.6810605260489
 20
65.74421707280858
 30
0.0
 10
112.6836412240423
 20
65.79330946639811
 30
0.0
 10
112.6888011093898
 20
65.8914655168161
 30
0.0
 10
112.7345028191321
 20
65.96000104105133
 30
0.0
 10
112.7573469840484
 20
65.99425877073092
 30
0.0
  0
LINE
  5
3B7
330
1F
100
AcDbEntity
  8
0
  6
Continuous
 62
     7
370
    30
100
AcDbLine
 10
112.757346984
 20
65.9942587707
 30
0.0
 11
112.8432057751
 21
66.0573820474
 31
0.0
  0
SPLINE
  5
3B8
330
1F
100
AcDbEntity
  8
0
  6
Continuous
 62
     7
370
    30
100
AcDbSpline
210
0.0
220
0.0
230
1.0
 70
     8
 71
     3
 72
    11
 73
     7
 74
     0
 42
0.000000001
 43
0.00000001
 40
0.0
 40
0.0
 40
0.0
 40
0.0
 40
0.0160841914148193
 40
0.338964651512644
 40
0.6694163392191949
 40
1.0
 40
1.0
 40
1.0
 40
1.0
 10
113.6563559274715
 20
64.98047635356359
 30
0.0
 10
113.6570855527359
 20
64.98073895294964
 30
0.0
 10
113.6724619659541
 20
64.98627307692776
 30
0.0
 10
113.6920374698457
 20
65.01583790897304
 30
0.0
 10
113.7108288078232
 20
65.0691839731621
 30
0.0
 10
113.7120521365116
 20
65.11574786491435
 30
0.0
 10
113.7126639229722
 20
65.13903445893823
 30
0.0
  0
SPLINE
  5
3B9
330
1F
100
AcDbEntity
  8
0
  6
Continuous
 62
     7
370
    30
100
AcDbSpline
210
0.0
220
0.0
230
1.0
 70
     8
 71
     3
 72
    10
 73
     6
 74
     0
 42
0.000000001
 43
0.00000001
 40
0.0
 40
0.0
 40
0.0
 40
0.0
 40
0.250067876994074
 40
0.500266322724308
 40
1.0
 40
1.0
 40
1.0
 40
1.0
 10
113.7126639229722
 20
65.13903445893823
 30
0.0
 10
113.7114833856303
 20
65.15912917091127
 30
0.0
 10
113.7091216945487
 20
65.19932908697326
 30
0.0
 10
113.6875534707855
 20
65.28766055872205
 30
0.0
 10
113.6568475451116
 20
65.35282451730068
 30
0.0
 10
113.6363859797506
 20
65.39624794676494
 30
0.0
  0
SPLINE
  5
3BA
330
1F
100
AcDbEntity
  8
0
  6
Continuous
 62
     7
370
    30
100
AcDbSpline
210
0.0
220
0.0
230
1.0
 70
     8
 71
     3
 72
    10
 73
     6
 74
     0
 42
0.000000001
 43
0.00000001
 40
0.0
 40
0.0
 40
0.0
 40
0.0
 40
0.499109290358271
 40
0.7494288553291731
 40
1.0
 40
1.0
 40
1.0
 40
1.0
 10
113.6363859797506
 20
65.39624794676494
 30
0.0
 10
113.6100506661994
 20
65.44218233449756
 30
0.0
 10
113.5705073351682
 20
65.51115431374878
 30
0.0
 10
113.5058717912106
 20
65.59017686401256
 30
0.0
 10
113.4712724425816
 20
65.62459816565992
 30
0.0
 10
113.4539640792521
 20
65.64181746078522
 30
0.0
  0
LINE
  5
3BB
330
1F
100
AcDbEntity
  8
0
  6
Continuous
 62
     7
370
    30
100
AcDbLine
 10
113.4539640793
 20
65.6418174608
 30
0.0
 11
113.3796157313
 21
65.7086207862
 31
0.0
  0
LINE
  5
3BC
330
1F
100
AcDbEntity
  8
0
  6
Continuous
 62
     7
370
    30
100
AcDbLine
 10
113.5352669423
 20
66.2569179544
 30
0.0
 11
113.5489487787
 21
66.260683718
 31
0.0
  0
LINE
  5
3BD
330
1F
100
AcDbEntity
  8
0
  6
Continuous
 62
     7
370
    30
100
AcDbLine
 10
113.5360359977
 20
66.1500225335
 30
0.0
 11
113.5498031068
 21
66.1542341932
 31
0.0
  0
LINE
  5
3BE
330
1F
100
AcDbEntity
  8
0
  6
Continuous
 62
     7
370
    30
100
AcDbLine
 10
114.1634087608
 20
69.6130036032
 30
0.0
 11
114.1706689123
 21
69.603180228
 31
0.0
  0
LINE
  5
3BF
330
1F
100
AcDbEntity
  8
0
  6
Continuous
 62
     7
370
    30
100
AcDbLine
 10
113.4398778998
 20
65.6351369898
 30
0.0
 11
113.3655377258
 21
65.702047199
 31
0.0
  0
SPLINE
  5
3C0
330
1F
100
AcDbEntity
  8
0
  6
Continuous
 62
     7
370
    30
100
AcDbSpline
210
0.0
220
0.0
230
1.0
 70
     8
 71
     3
 72
    10
 73
     6
 74
     0
 42
0.000000001
 43
0.00000001
 40
0.0
 40
0.0
 40
0.0
 40
0.0
 40
0.4993822249258011
 40
0.749619582322614
 40
1.0
 40
1.0
 40
1.0
 40
1.0
 10
113.6222625170649
 20
65.38893358030498
 30
0.0
 10
113.5959427838795
 20
65.4349968855142
 30
0.0
 10
113.5564343944884
 20
65.50414222927662
 30
0.0
 10
113.4917900654546
 20
65.58338761373756
 30
0.0
 10
113.4571852513326
 20
65.61788391182267
 30
0.0
 10
113.4398778998062
 20
65.63513698982534
 30
0.0
  0
SPLINE
  5
3C1
330
1F
100
AcDbEntity
  8
0
  6
Continuous
 62
     7
370
    30
100
AcDbSpline
210
0.0
220
0.0
230
1.0
 70
     8
 71
     3
 72
    10
 73
     6
 74
     0
 42
0.000000001
 43
0.00000001
 40
0.0
 40
0.0
 40
0.0
 40
0.0
 40
0.2502795561773851
 40
0.50058105959651
 40
1.0
 40
1.0
 40
1.0
 40
1.0
 10
113.6985222794726
 20
65.13073442369992
 30
0.0
 10
113.6973416279994
 20
65.1509184523399
 30
0.0
 10
113.6949802215207
 20
65.19128827957566
 30
0.0
 10
113.6734360982648
 20
65.27992559532952
 30
0.0
 10
113.6427222479982
 20
65.34535105217445
 30
0.0
 10
113.6222625170649
 20
65.38893358030498
 30
0.0
  0
SPLINE
  5
3C2
330
1F
100
AcDbEntity
  8
0
  6
Continuous
 62
     7
370
    30
100
AcDbSpline
210
0.0
220
0.0
230
1.0
 70
     8
 71
     3
 72
    13
 73
     9
 74
     0
 42
0.000000001
 43
0.00000001
 40
0.0
 40
0.0
 40
0.0
 40
0.0
 40
0.2503531402286123
 40
0.4999650662646886
 40
0.6278877747054902
 40
0.7498975327823283
 40
0.8748959985740961
 40
1.0
 40
1.0
 40
1.0
 40
1.0
 10
113.3669732793283
 20
65.01796750607541
 30
0.0
 10
113.4077806152721
 20
64.99932428092919
 30
0.0
 10
113.4892744699152
 20
64.96209302716056
 30
0.0
 10
113.5850575624085
 20
64.94668115776085
 30
0.0
 10
113.6459604088807
 20
64.96811163236936
 30
0.0
 10
113.6787205396716
 20
65.00549936537544
 30
0.0
 10
113.6964910195398
 20
65.06092430887576
 30
0.0
 10
113.6978450023818
 20
65.10745784018025
 30
0.0
 10
113.6985222794726
 20
65.13073442369992
 30
0.0
  0
ARC
  5
3C3
330
1F
100
AcDbEntity
  8
0
  6
Continuous
 62
     7
370
    30
100
AcDbCircle
 10
117.3867572899
 20
65.368444448
 30
0.0
 40
4.035033776655694
100
AcDbArc
 50
175.2575682466
 51
184.9829038517
  0
LINE
  5
3C4
330
1F
100
AcDbEntity
  8
0
  6
Continuous
 62
     7
370
    30
100
AcDbLine
 10
112.8545273455
 20
67.0781867081
 30
0.0
 11
112.8677966637
 21
67.0801985848
 31
0.0
  0
LINE
  5
3C5
330
1F
100
AcDbEntity
  8
0
  6
Continuous
 62
     7
370
    30
100
AcDbLine
 10
113.4539640793
 20
65.6418174608
 30
0.0
 11
113.4398778998
 21
65.6351369898
 31
0.0
  0
LINE
  5
3C6
330
1F
100
AcDbEntity
  8
0
  6
Continuous
 62
     7
370
    30
100
AcDbLine
 10
113.6363859798
 20
65.3962479468
 30
0.0
 11
113.6222625171
 21
65.3889335803
 31
0.0
  0
LINE
  5
3C7
330
1F
100
AcDbEntity
  8
0
  6
Continuous
 62
     7
370
    30
100
AcDbLine
 10
114.7055732375
 20
70.2210274955
 30
0.0
 11
114.7103116937
 21
70.2083761021
 31
0.0
  0
LINE
  5
3C8
330
1F
100
AcDbEntity
  8
0
  6
Continuous
 62
     7
370
    30
100
AcDbLine
 10
113.712663923
 20
65.1390344589
 30
0.0
 11
113.6985222795
 21
65.1307344237
 31
0.0
  0
LINE
  5
3C9
330
1F
100
AcDbEntity
  8
0
  6
Continuous
 62
     7
370
    30
100
AcDbLine
 10
115.0917112867
 20
70.459180401
 30
0.0
 11
115.09501789
 21
70.4452111073
 31
0.0
  0
LINE
  5
3CA
330
1F
100
AcDbEntity
  8
0
  6
Continuous
 62
     7
370
    30
100
AcDbLine
 10
113.3174090887
 20
64.8859749914
 30
0.0
 11
113.3313861372
 21
64.8965317727
 31
0.0
  0
LINE
  5
3CB
330
1F
100
AcDbEntity
  8
0
  6
Continuous
 62
     7
370
    30
100
AcDbLine
 10
112.8440661564
 20
66.6798112301
 30
0.0
 11
112.8577278775
 21
66.6834775754
 31
0.0
  0
LINE
  5
3CC
330
1F
100
AcDbEntity
  8
0
  6
Continuous
 62
     7
370
    30
100
AcDbLine
 10
113.3796157313
 20
65.7086207862
 30
0.0
 11
113.3655377258
 21
65.702047199
 31
0.0
  0
LINE
  5
3CD
330
1F
100
AcDbEntity
  8
0
  6
Continuous
 62
     7
370
    30
100
AcDbLine
 10
113.2965193397
 20
65.7525510859
 30
0.0
 11
113.3105935498
 21
65.7590772807
 31
0.0
  0
LINE
  5
3CE
330
1F
100
AcDbEntity
  8
0
  6
Continuous
 62
     7
370
    30
100
AcDbLine
 10
113.2147781318
 20
65.8076515979
 30
0.0
 11
113.2288494603
 21
65.8141426548
 31
0.0
  0
LINE
  5
3CF
330
1F
100
AcDbEntity
  8
0
  6
Continuous
 62
     7
370
    30
100
AcDbLine
 10
115.2620463291
 20
70.7268778731
 30
0.0
 11
115.2641178846
 21
70.7119190932
 31
0.0
  0
LINE
  5
3D0
330
1F
100
AcDbEntity
  8
0
  6
Continuous
 62
     7
370
    30
100
AcDbLine
 10
112.7432454605
 20
65.9873548812
 30
0.0
 11
112.757346984
 21
65.9942587707
 31
0.0
  0
LINE
  5
3D1
330
1F
100
AcDbEntity
  8
0
  6
Continuous
 62
     7
370
    30
100
AcDbLine
 10
112.6669186091
 20
65.7359622919
 30
0.0
 11
112.681060526
 21
65.7442170728
 31
0.0
  0
LINE
  5
3D2
330
1F
100
AcDbEntity
  8
0
  6
Continuous
 62
     7
370
    30
100
AcDbLine
 10
112.7467651075
 20
65.4355872479
 30
0.0
 11
112.7608604565
 21
65.4450516126
 31
0.0
  0
SPLINE
  5
3D3
330
1F
100
AcDbEntity
  8
0
  6
Continuous
 62
     7
370
    30
100
AcDbSpline
210
0.0
220
0.0
230
1.0
 70
     8
 71
     3
 72
    12
 73
     8
 74
     0
 42
0.000000001
 43
0.00000001
 40
0.0
 40
0.0
 40
0.0
 40
0.0
 40
0.4992307781453126
 40
0.6342476657004597
 40
0.7495964554543657
 40
0.8746220210574654
 40
1.0
 40
1.0
 40
1.0
 40
1.0
 10
114.9361005115995
 20
63.03293755828099
 30
0.0
 10
114.9158920791903
 20
63.04936699513109
 30
0.0
 10
114.8902182793284
 20
63.07023977066323
 30
0.0
 10
114.8463069561305
 20
63.10388712109019
 30
0.0
 10
114.821291849045
 20
63.12203878675321
 30
0.0
 10
114.7945636912331
 20
63.1401675875324
 30
0.0
 10
114.7786478912197
 20
63.14961155542282
 30
0.0
 10
114.7706787914111
 20
63.15434018500131
 30
0.0
  0
LINE
  5
3D4
330
1F
100
AcDbEntity
  8
0
  6
Continuous
 62
     7
370
    30
100
AcDbLine
 10
114.7706787914
 20
63.154340185
 30
0.0
 11
114.1850719479
 21
63.4924038199
 31
0.0
  0
LINE
  5
3D5
330
1F
100
AcDbEntity
  8
0
  6
Continuous
 62
     7
370
    30
100
AcDbLine
 10
114.2428835681
 20
63.4150187202
 30
0.0
 11
114.2421938994
 21
63.4154168575
 31
0.0
  0
ARC
  5
3D6
330
1F
100
AcDbEntity
  8
0
  6
Continuous
 62
     7
370
    30
100
AcDbCircle
 10
115.1378639857
 20
64.6137754797
 30
0.0
 40
1.486936558181415
100
AcDbArc
 50
226.7807510633
 51
229.707842643
  0
LINE
  5
3D7
330
1F
100
AcDbEntity
  8
0
  6
Continuous
 62
     7
370
    30
100
AcDbLine
 10
114.1196217713
 20
63.5301874026
 30
0.0
 11
113.4939306091
 21
63.891391222
 31
0.0
  0
SPLINE
  5
3D8
330
1F
100
AcDbEntity
  8
0
  6
Continuous
 62
     7
370
    30
100
AcDbSpline
210
0.0
220
0.0
230
1.0
 70
     8
 71
     3
 72
    10
 73
     6
 74
     0
 42
0.000000001
 43
0.00000001
 40
0.0
 40
0.0
 40
0.0
 40
0.0
 40
0.4997404381165377
 40
0.7481228082612684
 40
1.0
 40
1.0
 40
1.0
 40
1.0
 10
113.4939306091483
 20
63.89139122204912
 30
0.0
 10
113.4779608848631
 20
63.90033097393677
 30
0.0
 10
113.4540538441913
 20
63.91371398595106
 30
0.0
 10
113.4351823729426
 20
63.92093422692759
 30
0.0
 10
113.4325662471801
 20
63.91985017651944
 30
0.0
 10
113.4312490461499
 20
63.91930436471829
 30
0.0
  0
ARC
  5
3D9
330
1F
100
AcDbEntity
  8
0
  6
Continuous
 62
     7
370
    30
100
AcDbCircle
 10
114.356667139
 20
65.1032267693
 30
0.0
 40
1.520785978433896
100
AcDbArc
 50
219.1938054181
 51
231.858146485
  0
SPLINE
  5
3DA
330
1F
100
AcDbEntity
  8
0
  6
Continuous
 62
     7
370
    30
100
AcDbSpline
210
0.0
220
0.0
230
1.0
 70
     8
 71
     3
 72
    11
 73
     7
 74
     0
 42
0.000000001
 43
0.00000001
 40
0.0
 40
0.0
 40
0.0
 40
0.0
 40
0.4022783467571102
 40
0.6077109255350742
 40
0.8040014841152734
 40
1.0
 40
1.0
 40
1.0
 40
1.0
 10
114.672494332948
 20
63.25550280597042
 30
0.0
 10
114.6825430354926
 20
63.24986464295156
 30
0.0
 10
114.6977233363292
 20
63.24134722387063
 30
0.0
 10
114.7124600564314
 20
63.23530568685387
 30
0.0
 10
114.7198153700783
 20
63.23395820421965
 30
0.0
 10
114.7208951056713
 20
63.2360219140468
 30
0.0
 10
114.721434571559
 20
63.23705300078786
 30
0.0
  0
LINE
  5
3DB
330
1F
100
AcDbEntity
  8
0
  6
Continuous
 62
     7
370
    30
100
AcDbLine
 10
114.7594265872
 20
63.1379519471
 30
0.0
 11
114.7706787914
 21
63.154340185
 31
0.0
  0
LINE
  5
3DC
330
1F
100
AcDbEntity
  8
0
  6
Continuous
 62
     7
370
    30
100
AcDbLine
 10
114.9252657099
 20
63.0161872996
 30
0.0
 11
114.9361005116
 21
63.0329375583
 31
0.0
  0
LINE
  5
3DD
330
1F
100
AcDbEntity
  8
0
  6
Continuous
 62
     7
370
    30
100
AcDbLine
 10
114.1738197437
 20
63.4760155819
 30
0.0
 11
114.1850719479
 21
63.4924038199
 31
0.0
  0
LINE
  5
3DE
330
1F
100
AcDbEntity
  8
0
  6
Continuous
 62
     7
370
    30
100
AcDbLine
 10
115.0238726915
 20
62.9402761266
 30
0.0
 11
115.0338847181
 21
62.9575896728
 31
0.0
  0
LINE
  5
3DF
330
1F
100
AcDbEntity
  8
0
  6
Continuous
 62
     7
370
    30
100
AcDbLine
 10
113.4826784049
 20
63.8750029841
 30
0.0
 11
113.4939306091
 21
63.891391222
 31
0.0
  0
LINE
  5
3E0
330
1F
100
AcDbEntity
  8
0
  6
Continuous
 62
     7
370
    30
100
AcDbLine
 10
114.1083695671
 20
63.5137991646
 30
0.0
 11
114.1196217713
 21
63.5301874026
 31
0.0
  0
LINE
  5
3E1
330
1F
100
AcDbEntity
  8
0
  6
Continuous
 62
     7
370
    30
100
AcDbLine
 10
114.2199908923
 20
63.4188140897
 30
0.0
 11
114.2307239276
 21
63.4356441187
 31
0.0
  0
LINE
  5
3E2
330
1F
100
AcDbEntity
  8
0
  6
Continuous
 62
     7
370
    30
100
AcDbLine
 10
114.0604550831
 20
63.4972427862
 30
0.0
 11
114.0618712768
 21
63.4996382196
 31
0.0
  0
LINE
  5
3E3
330
1F
100
AcDbEntity
  8
0
  6
Continuous
 62
     7
370
    30
100
AcDbLine
 10
109.4812641747
 20
68.2887198804
 30
0.0
 11
108.2448931966
 21
69.0024616537
 31
0.0
  0
ARC
  5
3E4
330
1F
100
AcDbEntity
  8
0
  6
Continuous
 62
     7
370
    30
100
AcDbCircle
 10
109.9290568849
 20
68.753310865
 30
0.0
 40
1.692472297017557
100
AcDbArc
 50
174.3203859276
 51
235.468223436
  0
LWPOLYLINE
  5
3E5
330
1F
100
AcDbEntity
  8
0
  6
Continuous
 62
     7
370
    30
100
AcDbPolyline
 90
       22
 70
   128
 43
0.0
 10
112.4693721618
 20
73.4213740325
 10
112.3474871509
 20
73.4825547223
 10
112.1254475033
 20
73.5537950771
 10
111.8852455044
 20
73.5841670083
 10
111.6299841703
 20
73.5732781604
 10
111.3629610589
 20
73.5212691994
 10
111.0876256712
 20
73.4288119958
 10
110.807534889
 20
73.2971009452
 10
110.5263070262
 20
73.1278375384
 10
110.2475750856
 20
72.9232083812
 10
109.9749398271
 20
72.6858569468
 10
109.7119232513
 20
72.4188494268
 10
109.4619231012
 20
72.1256351205
 10
109.2281689689
 20
71.8100018762
 10
109.0136805747
 20
71.4760271579
 10
108.821228757
 20
71.1280253717
 10
108.6532996777
 20
70.77049213
 10
108.5120627054
 20
70.4080461764
 10
108.3993423903
 20
70.0453697184
 10
108.3165948939
 20
69.6871479413
 10
108.2648891783
 20
69.3380084832
 10
108.2448931966
 20
69.0024616537
  0
LINE
  5
3E6
330
1F
100
AcDbEntity
  8
0
  6
Continuous
 62
     7
370
    30
100
AcDbLine
 10
108.2448931966
 20
68.9208075725
 30
0.0
 11
109.4802884951
 21
68.2076290471
 31
0.0
  0
SPLINE
  5
3E7
330
1F
100
AcDbEntity
  8
0
  6
Continuous
 62
     7
370
    30
100
AcDbSpline
210
0.0
220
0.0
230
1.0
 70
     8
 71
     3
 72
    11
 73
     7
 74
     0
 42
0.000000001
 43
0.00000001
 40
0.0
 40
0.0
 40
0.0
 40
0.0
 40
0.3786651476934239
 40
0.7607693630448403
 40
0.8929263540358279
 40
0.9999999999999999
 40
0.9999999999999999
 40
0.9999999999999999
 40
0.9999999999999999
 10
109.9007244481004
 20
70.47954082022167
 30
0.0
 10
109.9501976400027
 20
70.57028349266048
 30
0.0
 10
110.0495933433583
 20
70.75259296986685
 30
0.0
 10
110.2192493417392
 20
70.93112026400746
 30
0.0
 10
110.361387298577
 20
71.02085847345836
 30
0.0
 10
110.4205969117342
 20
71.03369013520539
 30
0.0
 10
110.4470976527663
 20
71.03943326587009
 30
0.0
  0
SPLINE
  5
3E8
330
1F
100
AcDbEntity
  8
0
  6
Continuous
 62
     7
370
    30
100
AcDbSpline
210
0.0
220
0.0
230
1.0
 70
     8
 71
     3
 72
    12
 73
     8
 74
     0
 42
0.000000001
 43
0.00000001
 40
0.0
 40
0.0
 40
0.0
 40
0.0
 40
0.0975011115869142
 40
0.2317530582782792
 40
0.4665655297874998
 40
0.7325547398124402
 40
1.0
 40
1.0
 40
1.0
 40
1.0
 10
109.8114715818955
 20
69.8037479612855
 30
0.0
 10
109.8001610138317
 20
69.8219835326096
 30
0.0
 10
109.7732766153159
 20
69.86532816073773
 30
0.0
 10
109.75269232848
 20
69.97585724783823
 30
0.0
 10
109.7628487979208
 20
70.12948633445376
 30
0.0
 10
109.817344579895
 20
70.30699578388322
 30
0.0
 10
109.8728806287351
 20
70.42192124216773
 30
0.0
 10
109.9007244481004
 20
70.47954082022167
 30
0.0
  0
LINE
  5
3E9
330
1F
100
AcDbEntity
  8
0
  6
Continuous
 62
     7
370
    30
100
AcDbLine
 10
108.3153513237
 20
68.9614821835
 30
0.0
 11
109.4812570244
 21
68.288419149
 31
0.0
  0
LINE
  5
3EA
330
1F
100
AcDbEntity
  8
0
  6
Continuous
 62
     7
370
    30
100
AcDbLine
 10
108.3153513237
 20
68.9617870427
 30
0.0
 11
108.3153513237
 21
68.9614821835
 31
0.0
  0
SPLINE
  5
3EB
330
1F
100
AcDbEntity
  8
0
  6
Continuous
 62
     7
370
    30
100
AcDbSpline
210
0.0
220
0.0
230
1.0
 70
     8
 71
     3
 72
    11
 73
     7
 74
     0
 42
0.000000001
 43
0.00000001
 40
0.0
 40
0.0
 40
0.0
 40
0.0
 40
0.4208509232944102
 40
0.7255348493042927
 40
0.9048687266969972
 40
1.0
 40
1.0
 40
1.0
 40
1.0
 10
109.9681321375202
 20
70.44125934791872
 30
0.0
 10
109.935386737763
 20
70.3734701435816
 30
0.0
 10
109.878934613357
 20
70.25660351116895
 30
0.0
 10
109.8413836845411
 20
70.09888844805337
 30
0.0
 10
109.8392738240011
 20
69.99213539598993
 30
0.0
 10
109.8573807470629
 20
69.94961476252011
 30
0.0
 10
109.8636567155861
 20
69.93487685501754
 30
0.0
  0
SPLINE
  5
3EC
330
1F
100
AcDbEntity
  8
0
  6
Continuous
 62
     7
370
    30
100
AcDbSpline
210
0.0
220
0.0
230
1.0
 70
     8
 71
     3
 72
    10
 73
     6
 74
     0
 42
0.000000001
 43
0.00000001
 40
0.0
 40
0.0
 40
0.0
 40
0.0
 40
0.0426805919276567
 40
0.350835527403301
 40
1.0
 40
1.0
 40
1.0
 40
1.0
 10
110.2971356428121
 20
70.85498527339324
 30
0.0
 10
110.2905228663304
 20
70.85195118270289
 30
0.0
 10
110.2361656791458
 20
70.82701088174967
 30
0.0
 10
110.1083216684776
 20
70.69187924401105
 30
0.0
 10
110.0247813601
 20
70.54253240432878
 30
0.0
 10
109.9681321375194
 20
70.44125934791855
 30
0.0
  0
SPLINE
  5
3ED
330
1F
100
AcDbEntity
  8
0
  6
Continuous
 62
     7
370
    30
100
AcDbSpline
210
0.0
220
0.0
230
1.0
 70
     8
 71
     3
 72
     9
 73
     5
 74
     0
 42
0.000000001
 43
0.00000001
 40
0.0
 40
0.0
 40
0.0
 40
0.0
 40
0.7256204875848713
 40
0.9999999999999999
 40
0.9999999999999999
 40
0.9999999999999999
 40
0.9999999999999999
 10
110.3862724156867
 20
70.95740122455393
 30
0.0
 10
110.3898587274813
 20
70.9788497000784
 30
0.0
 10
110.3948011345053
 20
71.008408506495
 30
0.0
 10
110.41079030338
 20
71.0258767813801
 30
0.0
 10
110.4151774037397
 20
71.0306697181258
 30
0.0
  0
LINE
  5
3EE
330
1F
100
AcDbEntity
  8
0
  6
Continuous
 62
     7
370
    30
100
AcDbLine
 10
108.3153513237
 20
68.9614821835
 30
0.0
 11
108.2448931966
 21
68.9208075725
 31
0.0
  0
ARC
  5
3EF
330
1F
100
AcDbEntity
  8
0
  6
Continuous
 62
     7
370
    30
100
AcDbCircle
 10
111.7771468853
 20
69.8510929337
 30
0.0
 40
3.719726232695522
100
AcDbArc
 50
118.3220613751
 51
199.084105839
  0
ARC
  5
3F0
330
1F
100
AcDbEntity
  8
0
  6
Continuous
 62
     7
370
    30
100
AcDbCircle
 10
110.9431444941
 20
71.6693740094
 30
0.0
 40
1.728211496873148
100
AcDbArc
 50
87.765218799
 51
122.5853236577
  0
LWPOLYLINE
  5
3F1
330
1F
100
AcDbEntity
  8
0
  6
Continuous
 62
     7
370
    30
100
AcDbPolyline
 90
       20
 70
   128
 43
0.0
 10
110.0124075985
 20
73.2480295058
 10
109.7567106866
 20
73.0825583149
 10
109.5047424113
 20
72.8837790554
 10
109.2601770377
 20
72.6545903765
 10
109.0265808795
 20
72.3983343652
 10
108.8073602948
 20
72.1187478113
 10
108.6057120133
 20
71.8199077162
 10
108.4245765211
 20
71.5061718414
 10
108.2665951814
 20
71.1821151626
 10
108.134071718
 20
70.8524631557
 10
108.0289386214
 20
70.5220228894
 10
107.9527289688
 20
70.1956129268
 10
107.9065540687
 20
69.8779930601
 10
107.891087255
 20
69.5737949024
 10
107.9065540687
 20
69.2874543476
 10
107.9527289688
 20
69.0231468859
 10
108.0289386214
 20
68.7847267152
 10
108.134071718
 20
68.5756705385
 10
108.2665951814
 20
68.3990268656
 10
108.3078404734
 20
68.3562439408
  0
ARC
  5
3F2
330
1F
100
AcDbEntity
  8
0
  6
Continuous
 62
     7
370
    30
100
AcDbCircle
 10
110.936192591
 20
71.881272127
 30
0.0
 40
1.64966798017232
100
AcDbArc
 50
78.1537618006
 51
124.0545788236
  0
LWPOLYLINE
  5
3F3
330
1F
100
AcDbEntity
  8
0
  6
Continuous
 62
     7
370
    30
100
AcDbPolyline
 90
       28
 70
   128
 43
0.0
 10
108.1181731478
 20
75.3559331256
 10
108.024990634
 20
75.4034233365
 10
107.8233423525
 20
75.4694452815
 10
107.6041217678
 20
75.4959251358
 10
107.3705256096
 20
75.4824767637
 10
107.125960236
 20
75.4292962726
 10
106.8739919608
 20
75.3371591538
 10
106.6182950488
 20
75.2074089741
 10
106.3625981369
 20
75.0419377832
 10
106.1106298616
 20
74.8431585237
 10
105.866064488
 20
74.6139698448
 10
105.6324683299
 20
74.3577138336
 10
105.4132477451
 20
74.0781272796
 10
105.2115994636
 20
73.7792871845
 10
105.0304639714
 20
73.4655513098
 10
104.8724826317
 20
73.1414946309
 10
104.7399591683
 20
72.8118426241
 10
104.6348260717
 20
72.4814023577
 10
104.5586164191
 20
72.1549923951
 10
104.512441519
 20
71.8373725285
 10
104.4969747053
 20
71.5331743707
 10
104.512441519
 20
71.246833816
 10
104.5586164191
 20
70.9825263542
 10
104.6348260717
 20
70.7441061836
 10
104.7399591683
 20
70.5350500069
 10
104.8724826317
 20
70.358406334
 10
105.0304639714
 20
70.2167510274
 10
105.1184169499
 20
70.1596399513
  0
ARC
  5
3F4
330
1F
100
AcDbEntity
  8
0
  6
Continuous
 62
     7
370
    30
100
AcDbCircle
 10
108.7772425922
 20
71.5114526507
 30
0.0
 40
4.284264163211608
100
AcDbArc
 50
122.4802957577
 51
177.525080775
  0
LINE
  5
3F5
330
1F
100
AcDbEntity
  8
0
  6
Continuous
 62
     8
370
    30
100
AcDbLine
 10
110.0459909528
 20
70.5634013884
 30
0.0
 11
109.9007244481
 21
70.4795408202
 31
0.0
  0
ENDSEC
  0
SECTION
  2
OBJECTS
  0
DICTIONARY
  5
C
330
0
100
AcDbDictionary
281
     1
  3
ACAD_GROUP
350
D
  3
ACAD_LAYOUT
350
1A
  3
ACAD_MLINESTYLE
350
17
  3
ACAD_PLOTSETTINGS
350
19
  3
ACAD_PLOTSTYLENAME
350
E
  3
ACAD_SCALELIST
350
47
  0
DICTIONARY
  5
D
102
{ACAD_REACTORS
330
C
102
}
330
C
100
AcDbDictionary
281
     1
  0
DICTIONARY
  5
1A
102
{ACAD_REACTORS
330
C
102
}
330
C
100
AcDbDictionary
281
     1
  3
Layout1
350
1E
  3
Layout2
350
26
  3
Model
350
22
  0
DICTIONARY
  5
17
102
{ACAD_REACTORS
330
C
102
}
330
C
100
AcDbDictionary
281
     1
  3
Standard
350
18
  0
DICTIONARY
  5
19
102
{ACAD_REACTORS
330
C
102
}
330
C
100
AcDbDictionary
281
     1
  0
ACDBDICTIONARYWDFLT
  5
E
102
{ACAD_REACTORS
330
C
102
}
330
C
100
AcDbDictionary
281
     1
  3
Normal
350
F
100
AcDbDictionaryWithDefault
340
F
  0
DICTIONARY
  5
47
102
{ACAD_REACTORS
330
C
102
}
330
C
100
AcDbDictionary
281
     1
  3
A0
350
48
  3
A1
350
49
  3
A2
350
4A
  3
A3
350
4B
  3
A4
350
4C
  3
A5
350
4D
  3
A6
350
4E
  3
A7
350
4F
  3
A8
350
50
  3
A9
350
51
  3
B0
350
52
  3
B1
350
53
  3
B2
350
54
  3
B3
350
55
  3
B4
350
56
  3
B5
350
57
  3
B6
350
58
  3
B7
350
59
  3
B8
350
5A
  3
B9
350
5B
  3
C0
350
5C
  3
C1
350
5D
  3
C2
350
5E
  3
C3
350
5F
  3
C4
350
60
  3
C5
350
61
  3
C6
350
62
  3
C7
350
63
  3
C8
350
64
  3
C9
350
65
  3
D0
350
66
  3
D1
350
67
  3
D2
350
68
  0
LAYOUT
  5
1E
102
{ACAD_REACTORS
330
1A
102
}
330
1A
100
AcDbPlotSettings
  1

  2
none_device
  4

  6

 40
0.0
 41
0.0
 42
0.0
 43
0.0
 44
0.0
 45
0.0
 46
0.0
 47
0.0
 48
0.0
 49
0.0
140
0.0
141
0.0
142
1.0
143
1.0
 70
   688
 72
     1
 73
     0
 74
     5
  7

 75
    16
147
1.0
148
0.0
149
0.0
100
AcDbLayout
  1
Layout1
 70
     1
 71
     1
 10
0.0
 20
0.0
 11
420.0
 21
297.0
 12
0.0
 22
0.0
 32
0.0
 14
1.0000000000E+20
 24
1.0000000000E+20
 34
1.0000000000E+20
 15
-1.0000000000E+20
 25
-1.0000000000E+20
 35
-1.0000000000E+20
146
0.0
 13
0.0
 23
0.0
 33
0.0
 16
1.0
 26
0.0
 36
0.0
 17
0.0
 27
1.0
 37
0.0
 76
     0
330
1B
  0
LAYOUT
  5
26
102
{ACAD_REACTORS
330
1A
102
}
330
1A
100
AcDbPlotSettings
  1

  2
none_device
  4

  6

 40
0.0
 41
0.0
 42
0.0
 43
0.0
 44
0.0
 45
0.0
 46
0.0
 47
0.0
 48
0.0
 49
0.0
140
0.0
141
0.0
142
1.0
143
1.0
 70
   688
 72
     1
 73
     0
 74
     5
  7

 75
    16
147
1.0
148
0.0
149
0.0
100
AcDbLayout
  1
Layout2
 70
     1
 71
     2
 10
0.0
 20
0.0
 11
0.0
 21
0.0
 12
0.0
 22
0.0
 32
0.0
 14
0.0
 24
0.0
 34
0.0
 15
0.0
 25
0.0
 35
0.0
146
0.0
 13
0.0
 23
0.0
 33
0.0
 16
1.0
 26
0.0
 36
0.0
 17
0.0
 27
1.0
 37
0.0
 76
     0
330
23
  0
LAYOUT
  5
22
102
{ACAD_REACTORS
330
1A
102
}
330
1A
100
AcDbPlotSettings
  1

  2
none_device
  4
Letter_(8.50_x_11.00_Inches)
  6

 40
6.35
 41
6.35
 42
6.35000508
 43
6.35000508
 44
215.9
 45
279.4
 46
0.0
 47
0.0
 48
0.0
 49
0.0
140
0.0
141
0.0
142
1.0
143
1.0
 70
  1712
 72
     1
 73
     0
 74
     0
  7

 75
     0
147
1.0
148
0.0
149
0.0
100
AcDbLayout
  1
Model
 70
     1
 71
     0
 10
0.0
 20
0.0
 11
148.5
 21
105.0
 12
0.0
 22
0.0
 32
0.0
 14
0.0
 24
0.0
 34
0.0
 15
148.5
 25
105.0
 35
0.0
146
0.0
 13
0.0
 23
0.0
 33
0.0
 16
1.0
 26
0.0
 36
0.0
 17
0.0
 27
1.0
 37
0.0
 76
     0
330
1F
331
29
  0
MLINESTYLE
  5
18
102
{ACAD_REACTORS
330
17
102
}
330
17
100
AcDbMlineStyle
  2
Standard
 70
     0
  3

 62
   256
 51
90.0
 52
90.0
 71
     2
 49
0.5
 62
   256
  6
BYLAYER
 49
-0.5
 62
   256
  6
BYLAYER
  0
ACDBPLACEHOLDER
  5
F
102
{ACAD_REACTORS
330
E
102
}
330
E
  0
SCALE
  5
48
102
{ACAD_REACTORS
330
47
102
}
330
47
100
AcDbScale
 70
     0
300
1:1
140
1.0
141
1.0
290
     1
  0
SCALE
  5
49
102
{ACAD_REACTORS
330
47
102
}
330
47
100
AcDbScale
 70
     0
300
1:2
140
1.0
141
2.0
290
     0
  0
SCALE
  5
4A
102
{ACAD_REACTORS
330
47
102
}
330
47
100
AcDbScale
 70
     0
300
1:4
140
1.0
141
4.0
290
     0
  0
SCALE
  5
4B
102
{ACAD_REACTORS
330
47
102
}
330
47
100
AcDbScale
 70
     0
300
1:5
140
1.0
141
5.0
290
     0
  0
SCALE
  5
4C
102
{ACAD_REACTORS
330
47
102
}
330
47
100
AcDbScale
 70
     0
300
1:8
140
1.0
141
8.0
290
     0
  0
SCALE
  5
4D
102
{ACAD_REACTORS
330
47
102
}
330
47
100
AcDbScale
 70
     0
300
1:10
140
1.0
141
10.0
290
     0
  0
SCALE
  5
4E
102
{ACAD_REACTORS
330
47
102
}
330
47
100
AcDbScale
 70
     0
300
1:16
140
1.0
141
16.0
290
     0
  0
SCALE
  5
4F
102
{ACAD_REACTORS
330
47
102
}
330
47
100
AcDbScale
 70
     0
300
1:20
140
1.0
141
20.0
290
     0
  0
SCALE
  5
50
102
{ACAD_REACTORS
330
47
102
}
330
47
100
AcDbScale
 70
     0
300
1:30
140
1.0
141
30.0
290
     0
  0
SCALE
  5
51
102
{ACAD_REACTORS
330
47
102
}
330
47
100
AcDbScale
 70
     0
300
1:40
140
1.0
141
40.0
290
     0
  0
SCALE
  5
52
102
{ACAD_REACTORS
330
47
102
}
330
47
100
AcDbScale
 70
     0
300
1:50
140
1.0
141
50.0
290
     0
  0
SCALE
  5
53
102
{ACAD_REACTORS
330
47
102
}
330
47
100
AcDbScale
 70
     0
300
1:100
140
1.0
141
100.0
290
     0
  0
SCALE
  5
54
102
{ACAD_REACTORS
330
47
102
}
330
47
100
AcDbScale
 70
     0
300
2:1
140
2.0
141
1.0
290
     0
  0
SCALE
  5
55
102
{ACAD_REACTORS
330
47
102
}
330
47
100
AcDbScale
 70
     0
300
4:1
140
4.0
141
1.0
290
     0
  0
SCALE
  5
56
102
{ACAD_REACTORS
330
47
102
}
330
47
100
AcDbScale
 70
     0
300
8:1
140
8.0
141
1.0
290
     0
  0
SCALE
  5
57
102
{ACAD_REACTORS
330
47
102
}
330
47
100
AcDbScale
 70
     0
300
10:1
140
10.0
141
1.0
290
     0
  0
SCALE
  5
58
102
{ACAD_REACTORS
330
47
102
}
330
47
100
AcDbScale
 70
     0
300
100:1
140
100.0
141
1.0
290
     0
  0
SCALE
  5
59
102
{ACAD_REACTORS
330
47
102
}
330
47
100
AcDbScale
 70
     0
300
1/128" = 1'-0"
140
0.0078125
141
12.0
290
     0
  0
SCALE
  5
5A
102
{ACAD_REACTORS
330
47
102
}
330
47
100
AcDbScale
 70
     0
300
1/64" = 1'-0"
140
0.015625
141
12.0
290
     0
  0
SCALE
  5
5B
102
{ACAD_REACTORS
330
47
102
}
330
47
100
AcDbScale
 70
     0
300
1/32" = 1'-0"
140
0.03125
141
12.0
290
     0
  0
SCALE
  5
5C
102
{ACAD_REACTORS
330
47
102
}
330
47
100
AcDbScale
 70
     0
300
1/16" = 1'-0"
140
0.0625
141
12.0
290
     0
  0
SCALE
  5
5D
102
{ACAD_REACTORS
330
47
102
}
330
47
100
AcDbScale
 70
     0
300
3/32" = 1'-0"
140
0.09375
141
12.0
290
     0
  0
SCALE
  5
5E
102
{ACAD_REACTORS
330
47
102
}
330
47
100
AcDbScale
 70
     0
300
1/8" = 1'-0"
140
0.125
141
12.0
290
     0
  0
SCALE
  5
5F
102
{ACAD_REACTORS
330
47
102
}
330
47
100
AcDbScale
 70
     0
300
3/16" = 1'-0"
140
0.1875
141
12.0
290
     0
  0
SCALE
  5
60
102
{ACAD_REACTORS
330
47
102
}
330
47
100
AcDbScale
 70
     0
300
1/4" = 1'-0"
140
0.25
141
12.0
290
     0
  0
SCALE
  5
61
102
{ACAD_REACTORS
330
47
102
}
330
47
100
AcDbScale
 70
     0
300
3/8" = 1'-0"
140
0.375
141
12.0
290
     0
  0
SCALE
  5
62
102
{ACAD_REACTORS
330
47
102
}
330
47
100
AcDbScale
 70
     0
300
1/2" = 1'-0"
140
0.5
141
12.0
290
     0
  0
SCALE
  5
63
102
{ACAD_REACTORS
330
47
102
}
330
47
100
AcDbScale
 70
     0
300
3/4" = 1'-0"
140
0.75
141
12.0
290
     0
  0
SCALE
  5
64
102
{ACAD_REACTORS
330
47
102
}
330
47
100
AcDbScale
 70
     0
300
1" = 1'-0"
140
1.0
141
12.0
290
     0
  0
SCALE
  5
65
102
{ACAD_REACTORS
330
47
102
}
330
47
100
AcDbScale
 70
     0
300
1-1/2" = 1'-0"
140
1.5
141
12.0
290
     0
  0
SCALE
  5
66
102
{ACAD_REACTORS
330
47
102
}
330
47
100
AcDbScale
 70
     0
300
3" = 1'-0"
140
3.0
141
12.0
290
     0
  0
SCALE
  5
67
102
{ACAD_REACTORS
330
47
102
}
330
47
100
AcDbScale
 70
     0
300
6" = 1'-0"
140
6.0
141
12.0
290
     0
  0
SCALE
  5
68
102
{ACAD_REACTORS
330
47
102
}
330
47
100
AcDbScale
 70
     0
300
1'-0" = 1'-0"
140
12.0
141
12.0
290
     0
  0
ENDSEC
  0
EOF
