  0
SECTION
  2
HEADER
  9
$ACADVER
  1
AC1015
  9
$ACADMAINTVER
 70
     6
  9
$DWGCODEPAGE
  3
ANSI_950
  9
$INSBASE
 10
0.0
 20
0.0
 30
0.0
  9
$EXTMIN
 10
0.0
 20
0.0
 30
0.0
  9
$EXTMAX
 10
297.0
 20
210.0
 30
0.0
  9
$LIMMIN
 10
0.0
 20
0.0
  9
$LIMMAX
 10
297.0
 20
210.0
  9
$ORTHOMODE
 70
     0
  9
$REGENMODE
 70
     1
  9
$FILLMODE
 70
     1
  9
$QTEXTMODE
 70
     0
  9
$MIRRTEXT
 70
     1
  9
$LTSCALE
 40
1.0
  9
$ATTMODE
 70
     1
  9
$TEXTSIZE
 40
3.175
  9
$TRACEWID
 40
1.0
  9
$TEXTSTYLE
  7
Standard
  9
$CLAYER
  8
0
  9
$CELTYPE
  6
ByLayer
  9
$CECOLOR
 62
   256
  9
$CELTSCALE
 40
1.0
  9
$DISPSILH
 70
     0
  9
$DIMSCALE
 40
1.0
  9
$DIMASZ
 40
2.0
  9
$DIMEXO
 40
1.0
  9
$DIMDLI
 40
3.75
  9
$DIMRND
 40
0.0
  9
$DIMDLE
 40
0.0
  9
$DIMEXE
 40
1.0
  9
$DIMTP
 40
0.0
  9
$DIMTM
 40
0.0
  9
$DIMTXT
 40
3.175
  9
$DIMCEN
 40
2.5
  9
$DIMTSZ
 40
0.0
  9
$DIMTOL
 70
     0
  9
$DIMLIM
 70
     0
  9
$DIMTIH
 70
     1
  9
$DIMTOH
 70
     1
  9
$DIMSE1
 70
     0
  9
$DIMSE2
 70
     0
  9
$DIMTAD
 70
     1
  9
$DIMZIN
 70
     0
  9
$DIMBLK
  1

  9
$DIMASO
 70
     1
  9
$DIMSHO
 70
     1
  9
$DIMPOST
  1

  9
$DIMAPOST
  1

  9
$DIMALT
 70
     0
  9
$DIMALTD
 70
     3
  9
$DIMALTF
 40
0.0393700787
  9
$DIMLFAC
 40
1.0
  9
$DIMTOFL
 70
     1
  9
$DIMTVP
 40
0.0
  9
$DIMTIX
 70
     0
  9
$DIMSOXD
 70
     0
  9
$DIMSAH
 70
     0
  9
$DIMBLK1
  1

  9
$DIMBLK2
  1

  9
$DIMSTYLE
  2
ISO-25
  9
$DIMCLRD
 70
     0
  9
$DIMCLRE
 70
     0
  9
$DIMCLRT
 70
     0
  9
$DIMTFAC
 40
1.0
  9
$DIMGAP
 40
1.0
  9
$DIMJUST
 70
     0
  9
$DIMSD1
 70
     0
  9
$DIMSD2
 70
     0
  9
$DIMTOLJ
 70
     0
  9
$DIMTZIN
 70
     0
  9
$DIMALTZ
 70
     0
  9
$DIMALTTZ
 70
     0
  9
$DIMUPT
 70
     0
  9
$DIMDEC
 70
     2
  9
$DIMTDEC
 70
     2
  9
$DIMALTU
 70
     2
  9
$DIMALTTD
 70
     3
  9
$DIMTXSTY
  7
Standard
  9
$DIMAUNIT
 70
     0
  9
$DIMADEC
 70
     2
  9
$DIMALTRND
 40
0.0
  9
$DIMAZIN
 70
     0
  9
$DIMDSEP
 70
    44
  9
$DIMATFIT
 70
     3
  9
$DIMFRAC
 70
     0
  9
$DIMLDRBLK
  1

  9
$DIMLUNIT
 70
     2
  9
$DIMLWD
 70
    -2
  9
$DIMLWE
 70
    -2
  9
$DIMTMOVE
 70
     0
  9
$LUNITS
 70
     2
  9
$LUPREC
 70
     2
  9
$SKETCHINC
 40
1.0
  9
$FILLETRAD
 40
10.0
  9
$AUNITS
 70
     0
  9
$AUPREC
 70
     2
  9
$MENU
  1
.
  9
$ELEVATION
 40
0.0
  9
$PELEVATION
 40
0.0
  9
$THICKNESS
 40
0.0
  9
$LIMCHECK
 70
     0
  9
$CHAMFERA
 40
0.0
  9
$CHAMFERB
 40
0.0
  9
$CHAMFERC
 40
0.0
  9
$CHAMFERD
 40
0.0
  9
$SKPOLY
 70
     0
  9
$TDCREATE
 40
2458136.594351863
  9
$TDUCREATE
 40
2458136.26101853
  9
$TDUPDATE
 40
2458136.59435728
  9
$TDUUPDATE
 40
2458136.261023947
  9
$TDINDWG
 40
0.0000000116
  9
$TDUSRTIMER
 40
0.0000000116
  9
$USRTIMER
 70
     1
  9
$ANGBASE
 50
0.0
  9
$ANGDIR
 70
     0
  9
$PDMODE
 70
     0
  9
$PDSIZE
 40
-1.0
  9
$PLINEWID
 40
0.0
  9
$SPLFRAME
 70
     0
  9
$SPLINETYPE
 70
     6
  9
$SPLINESEGS
 70
     8
  9
$HANDSEED
  5
2F8
  9
$SURFTAB1
 70
     6
  9
$SURFTAB2
 70
     6
  9
$SURFTYPE
 70
     6
  9
$SURFU
 70
     6
  9
$SURFV
 70
     6
  9
$UCSBASE
  2

  9
$UCSNAME
  2

  9
$UCSORG
 10
0.0
 20
0.0
 30
0.0
  9
$UCSXDIR
 10
1.0
 20
0.0
 30
0.0
  9
$UCSYDIR
 10
0.0
 20
1.0
 30
0.0
  9
$UCSORTHOREF
  2

  9
$UCSORTHOVIEW
 70
     0
  9
$UCSORGTOP
 10
0.0
 20
0.0
 30
0.0
  9
$UCSORGBOTTOM
 10
0.0
 20
0.0
 30
0.0
  9
$UCSORGLEFT
 10
0.0
 20
0.0
 30
0.0
  9
$UCSORGRIGHT
 10
0.0
 20
0.0
 30
0.0
  9
$UCSORGFRONT
 10
0.0
 20
0.0
 30
0.0
  9
$UCSORGBACK
 10
0.0
 20
0.0
 30
0.0
  9
$PUCSBASE
  2

  9
$PUCSNAME
  2

  9
$PUCSORG
 10
0.0
 20
0.0
 30
0.0
  9
$PUCSXDIR
 10
1.0
 20
0.0
 30
0.0
  9
$PUCSYDIR
 10
0.0
 20
1.0
 30
0.0
  9
$PUCSORTHOREF
  2

  9
$PUCSORTHOVIEW
 70
     0
  9
$PUCSORGTOP
 10
0.0
 20
0.0
 30
0.0
  9
$PUCSORGBOTTOM
 10
0.0
 20
0.0
 30
0.0
  9
$PUCSORGLEFT
 10
0.0
 20
0.0
 30
0.0
  9
$PUCSORGRIGHT
 10
0.0
 20
0.0
 30
0.0
  9
$PUCSORGFRONT
 10
0.0
 20
0.0
 30
0.0
  9
$PUCSORGBACK
 10
0.0
 20
0.0
 30
0.0
  9
$USERI1
 70
     0
  9
$USERI2
 70
     0
  9
$USERI3
 70
     0
  9
$USERI4
 70
     0
  9
$USERI5
 70
     0
  9
$USERR1
 40
0.0
  9
$USERR2
 40
0.0
  9
$USERR3
 40
0.0
  9
$USERR4
 40
0.0
  9
$USERR5
 40
0.0
  9
$WORLDVIEW
 70
     1
  9
$SHADEDGE
 70
     3
  9
$SHADEDIF
 70
    70
  9
$TILEMODE
 70
     1
  9
$MAXACTVP
 70
    64
  9
$PINSBASE
 10
0.0
 20
0.0
 30
0.0
  9
$PLIMCHECK
 70
     0
  9
$PEXTMIN
 10
1.0000000000E+20
 20
1.0000000000E+20
 30
1.0000000000E+20
  9
$PEXTMAX
 10
-1.0000000000E+20
 20
-1.0000000000E+20
 30
-1.0000000000E+20
  9
$PLIMMIN
 10
0.0
 20
0.0
  9
$PLIMMAX
 10
420.0
 20
297.0
  9
$UNITMODE
 70
     0
  9
$VISRETAIN
 70
     1
  9
$PLINEGEN
 70
     0
  9
$PSLTSCALE
 70
     1
  9
$TREEDEPTH
 70
  3020
  9
$CMLSTYLE
  2
Standard
  9
$CMLJUST
 70
     0
  9
$CMLSCALE
 40
20.0
  9
$PROXYGRAPHICS
 70
     1
  9
$MEASUREMENT
 70
     1
  9
$CELWEIGHT
370
    -1
  9
$ENDCAPS
280
     0
  9
$JOINSTYLE
280
     0
  9
$LWDISPLAY
290
     1
  9
$INSUNITS
 70
     4
  9
$HYPERLINKBASE
  1

  9
$STYLESHEET
  1

  9
$XEDIT
290
     1
  9
$CEPSNTYPE
380
     0
  9
$PSTYLEMODE
290
     1
  9
$FINGERPRINTGUID
  2
{0A1583B9-1056-42D8-8844-C0611BE4BEC2}
  9
$VERSIONGUID
  2
{FAEB1C32-E019-11D5-929B-00C0DF256EC4}
  9
$EXTNAMES
290
     1
  9
$PSVPSCALE
 40
0.0
  9
$OLESTARTUP
290
     0
  0
ENDSEC
  0
SECTION
  2
CLASSES
  0
CLASS
  1
ACDBDICTIONARYWDFLT
  2
AcDbDictionaryWithDefault
  3
ObjectDBX Classes
 90
        0
280
     0
281
     0
  0
CLASS
  1
VISUALSTYLE
  2
AcDbVisualStyle
  3
ObjectDBX Classes
 90
     4095
280
     0
281
     0
  0
CLASS
  1
MATERIAL
  2
AcDbMaterial
  3
ObjectDBX Classes
 90
     1153
280
     0
281
     0
  0
CLASS
  1
SCALE
  2
AcDbScale
  3
ObjectDBX Classes
 90
     1153
280
     0
281
     0
  0
CLASS
  1
TABLESTYLE
  2
AcDbTableStyle
  3
ObjectDBX Classes
 90
     4095
280
     0
281
     0
  0
CLASS
  1
MLEADERSTYLE
  2
AcDbMLeaderStyle
  3
ACDB_MLEADERSTYLE_CLASS
 90
     4095
280
     0
281
     0
  0
CLASS
  1
SUN
  2
AcDbSun
  3
SCENEOE
 90
     1153
280
     0
281
     0
  0
CLASS
  1
ACDBPLACEHOLDER
  2
AcDbPlaceHolder
  3
ObjectDBX Classes
 90
        0
280
     0
281
     0
  0
CLASS
  1
LAYOUT
  2
AcDbLayout
  3
ObjectDBX Classes
 90
        0
280
     0
281
     0
  0
ENDSEC
  0
SECTION
  2
TABLES
  0
TABLE
  2
VPORT
  5
8
330
0
100
AcDbSymbolTable
 70
     1
  0
VPORT
  5
29
330
8
100
AcDbSymbolTableRecord
100
AcDbViewportTableRecord
  2
*Active
 70
     0
 10
0.0
 20
0.0
 11
1.0
 21
1.0
 12
148.5
 22
105.0
 13
0.0
 23
0.0
 14
10.0
 24
10.0
 15
10.0
 25
10.0
 16
0.0
 26
0.0
 36
1.0
 17
0.0
 27
0.0
 37
0.0
 40
210.0
 41
1.4142857143
 42
50.0
 43
0.0
 44
0.0
 50
0.0
 51
0.0
 71
     0
 72
  2000
 73
     1
 74
     3
 75
     0
 76
     0
 77
     0
 78
     0
281
     0
 65
     1
110
0.0
120
0.0
130
0.0
111
1.0
121
0.0
131
0.0
112
0.0
122
1.0
132
0.0
 79
     0
146
0.0
  0
ENDTAB
  0
TABLE
  2
LTYPE
  5
5
330
0
100
AcDbSymbolTable
 70
     6
  0
LTYPE
  5
14
330
5
100
AcDbSymbolTableRecord
100
AcDbLinetypeTableRecord
  2
ByBlock
 70
     0
  3

 72
    65
 73
     0
 40
0.0
  0
LTYPE
  5
15
330
5
100
AcDbSymbolTableRecord
100
AcDbLinetypeTableRecord
  2
ByLayer
 70
     0
  3

 72
    65
 73
     0
 40
0.0
  0
LTYPE
  5
16
330
5
100
AcDbSymbolTableRecord
100
AcDbLinetypeTableRecord
  2
Continuous
 70
     0
  3
Solid line
 72
    65
 73
     0
 40
0.0
  0
LTYPE
  5
6E
330
5
100
AcDbSymbolTableRecord
100
AcDbLinetypeTableRecord
  2
HIDDEN
 70
     0
  3
Hidden __ __ __ __ __ __ __ __ __ __ __ __ __ __
 72
    65
 73
     2
 40
1.905
 49
1.27
 74
     0
 49
-0.635
 74
     0
  0
LTYPE
  5
6F
330
5
100
AcDbSymbolTableRecord
100
AcDbLinetypeTableRecord
  2
PHANTOM
 70
     0
  3
Phantom ______  __  __  ______  __  __  ______
 72
    65
 73
     6
 40
12.7
 49
6.35
 74
     0
 49
-1.27
 74
     0
 49
1.27
 74
     0
 49
-1.27
 74
     0
 49
1.27
 74
     0
 49
-1.27
 74
     0
  0
LTYPE
  5
70
330
5
100
AcDbSymbolTableRecord
100
AcDbLinetypeTableRecord
  2
CENTER
 70
     0
  3
Center ____ _ ____ _ ____ _ ____ _ ____ _ ____
 72
    65
 73
     4
 40
10.16
 49
6.35
 74
     0
 49
-1.27
 74
     0
 49
1.27
 74
     0
 49
-1.27
 74
     0
  0
LTYPE
  5
71
330
5
100
AcDbSymbolTableRecord
100
AcDbLinetypeTableRecord
  2
CENTERX2
 70
     0
  3
Center (2x) ________  __  ________  __  _____
 72
    65
 73
     4
 40
20.32
 49
12.7
 74
     0
 49
-2.54
 74
     0
 49
2.54
 74
     0
 49
-2.54
 74
     0
  0
LTYPE
  5
72
330
5
100
AcDbSymbolTableRecord
100
AcDbLinetypeTableRecord
  2
DOT2
 70
     0
  3
Dot (.5x) ........................................
 72
    65
 73
     2
 40
0.635
 49
0.0
 74
     0
 49
-0.635
 74
     0
  0
ENDTAB
  0
TABLE
  2
LAYER
  5
2
330
0
100
AcDbSymbolTable
 70
    10
  0
LAYER
  5
10
330
2
100
AcDbSymbolTableRecord
100
AcDbLayerTableRecord
  2
0
 70
     0
 62
     7
  6
Continuous
370
    -3
390
F
  0
LAYER
  5
73
330
2
100
AcDbSymbolTableRecord
100
AcDbLayerTableRecord
  2
SLD-0
 70
     0
 62
     7
  6
Continuous
370
    15
390
F
  0
LAYER
  5
74
330
2
100
AcDbSymbolTableRecord
100
AcDbLayerTableRecord
  2
輪廓線
 70
     0
 62
   219
  6
Continuous
370
    15
390
F
  0
LAYER
  5
75
330
2
100
AcDbSymbolTableRecord
100
AcDbLayerTableRecord
  2
DIM
 70
     0
 62
     7
  6
Continuous
370
    -3
390
F
  0
LAYER
  5
76
330
2
100
AcDbSymbolTableRecord
100
AcDbLayerTableRecord
  2
中心線
 70
     0
 62
     7
  6
CENTERX2
370
    -3
390
F
  0
LAYER
  5
77
330
2
100
AcDbSymbolTableRecord
100
AcDbLayerTableRecord
  2
虛線
 70
     0
 62
     7
  6
HIDDEN
370
    -3
390
F
  0
LAYER
  5
78
330
2
100
AcDbSymbolTableRecord
100
AcDbLayerTableRecord
  2
SECTION
 70
     0
 62
     7
  6
PHANTOM
370
    15
390
F
  0
LAYER
  5
79
330
2
100
AcDbSymbolTableRecord
100
AcDbLayerTableRecord
  2
假想線
 70
     0
 62
     7
  6
PHANTOM
370
    -3
390
F
  0
LAYER
  5
7A
330
2
100
AcDbSymbolTableRecord
100
AcDbLayerTableRecord
  2
圖層_1
 70
     0
 62
   179
  6
Continuous
370
    -3
390
F
  0
LAYER
  5
7B
330
2
100
AcDbSymbolTableRecord
100
AcDbLayerTableRecord
  2
工作區域參考線
 70
     0
 62
   179
  6
Continuous
370
    -3
390
F
  0
ENDTAB
  0
TABLE
  2
STYLE
  5
3
330
0
100
AcDbSymbolTable
 70
     3
  0
STYLE
  5
11
330
3
100
AcDbSymbolTableRecord
100
AcDbTextStyleTableRecord
  2
Standard
 70
     0
 40
0.0
 41
1.0
 50
0.0
 71
     0
 42
3.175
  3
txt
  4

  0
STYLE
  5
CC
330
3
100
AcDbSymbolTableRecord
100
AcDbTextStyleTableRecord
  2
SLDTEXTSTYLE0
 70
     0
 40
0.0
 41
0.605
 50
0.0
 71
     0
 42
3.175
  3
TXT
  4

  0
STYLE
  5
103
330
3
100
AcDbSymbolTableRecord
100
AcDbTextStyleTableRecord
  2
SLDTEXTSTYLE1
 70
     0
 40
0.0
 41
0.7
 50
0.0
 71
     0
 42
3.175
  3
TXT
  4

  0
ENDTAB
  0
TABLE
  2
VIEW
  5
6
330
0
100
AcDbSymbolTable
 70
     0
  0
ENDTAB
  0
TABLE
  2
UCS
  5
7
330
0
100
AcDbSymbolTable
 70
     0
  0
ENDTAB
  0
TABLE
  2
APPID
  5
9
330
0
100
AcDbSymbolTable
 70
     1
  0
APPID
  5
12
330
9
100
AcDbSymbolTableRecord
100
AcDbRegAppTableRecord
  2
ACAD
 70
     0
  0
ENDTAB
  0
TABLE
  2
DIMSTYLE
  5
A
330
0
100
AcDbSymbolTable
 70
     3
100
AcDbDimStyleTable
  0
DIMSTYLE
105
27
330
A
100
AcDbSymbolTableRecord
100
AcDbDimStyleTableRecord
  2
ISO-25
 70
     0
 41
2.5
 42
0.625
 43
3.75
 44
1.25
 73
     0
 74
     0
 77
     1
 78
     8
140
2.5
141
2.5
143
0.0393700787
147
0.625
171
     3
172
     1
178
     0
271
     2
272
     2
274
     3
278
    44
283
     0
284
     8
340
11
  0
DIMSTYLE
105
1DB
102
{ACAD_REACTORS
330
1DA
330
1E5
330
1EF
330
206
330
210
330
21C
330
227
102
}
330
A
100
AcDbSymbolTableRecord
100
AcDbDimStyleTableRecord
  2
SLDDIMSTYLE0
 70
     0
 41
2.0
 44
0.0
 45
0.000000001
 73
     0
 74
     0
 77
     1
 78
    12
 79
     3
140
2.5424804688
147
0.6356201172
173
     1
178
     0
271
     2
272
     2
276
     2
284
    12
340
103
  0
DIMSTYLE
105
1FA
102
{ACAD_REACTORS
330
1F9
102
}
330
A
100
AcDbSymbolTableRecord
100
AcDbDimStyleTableRecord
  2
SLDDIMSTYLE1
 70
     0
 41
2.0
 44
0.0
 45
0.000000001
 73
     0
 74
     0
 77
     1
 78
    12
 79
     3
140
2.5424804688
147
0.6356201172
172
     1
173
     1
178
     0
271
     2
272
     2
276
     2
284
    12
289
     0
340
103
  0
ENDTAB
  0
TABLE
  2
BLOCK_RECORD
  5
1
330
0
100
AcDbSymbolTable
 70
    12
  0
BLOCK_RECORD
  5
1F
330
1
100
AcDbSymbolTableRecord
100
AcDbBlockTableRecord
  2
*Model_Space
340
22
  0
BLOCK_RECORD
  5
1B
330
1
100
AcDbSymbolTableRecord
100
AcDbBlockTableRecord
  2
*Paper_Space
340
1E
  0
BLOCK_RECORD
  5
23
330
1
100
AcDbSymbolTableRecord
100
AcDbBlockTableRecord
  2
*Paper_Space0
340
26
  0
BLOCK_RECORD
  5
7C
330
1
100
AcDbSymbolTableRecord
100
AcDbBlockTableRecord
  2
圖塊6
340
0
102
{BLKREFS
331
CB
102
}
  0
BLOCK_RECORD
  5
CE
330
1
100
AcDbSymbolTableRecord
100
AcDbBlockTableRecord
  2
SW_NOTE_0
340
0
102
{BLKREFS
331
D4
102
}
  0
BLOCK_RECORD
  5
105
330
1
100
AcDbSymbolTableRecord
100
AcDbBlockTableRecord
  2
SW_NOTE_1
340
0
102
{BLKREFS
331
10A
102
}
  0
BLOCK_RECORD
  5
1DC
330
1
100
AcDbSymbolTableRecord
100
AcDbBlockTableRecord
  2
_D
340
0
  0
BLOCK_RECORD
  5
1E6
330
1
100
AcDbSymbolTableRecord
100
AcDbBlockTableRecord
  2
_D_1
340
0
  0
BLOCK_RECORD
  5
1F0
330
1
100
AcDbSymbolTableRecord
100
AcDbBlockTableRecord
  2
_D_2
340
0
  0
BLOCK_RECORD
  5
1FB
330
1
100
AcDbSymbolTableRecord
100
AcDbBlockTableRecord
  2
_D_3
340
0
  0
BLOCK_RECORD
  5
207
330
1
100
AcDbSymbolTableRecord
100
AcDbBlockTableRecord
  2
_D_4
340
0
  0
BLOCK_RECORD
  5
211
330
1
100
AcDbSymbolTableRecord
100
AcDbBlockTableRecord
  2
_D_5
340
0
  0
BLOCK_RECORD
  5
21D
330
1
100
AcDbSymbolTableRecord
100
AcDbBlockTableRecord
  2
_D_6
340
0
  0
BLOCK_RECORD
  5
228
330
1
100
AcDbSymbolTableRecord
100
AcDbBlockTableRecord
  2
_D_7
340
0
  0
ENDTAB
  0
ENDSEC
  0
SECTION
  2
BLOCKS
  0
BLOCK
  5
20
330
1F
100
AcDbEntity
  8
0
100
AcDbBlockBegin
  2
*Model_Space
 70
     0
 10
0.0
 20
0.0
 30
0.0
  3
*Model_Space
  1

  0
ENDBLK
  5
21
330
1F
100
AcDbEntity
  8
0
100
AcDbBlockEnd
  0
BLOCK
  5
1C
330
1B
100
AcDbEntity
 67
     1
  8
0
100
AcDbBlockBegin
  2
*Paper_Space
 70
     0
 10
0.0
 20
0.0
 30
0.0
  3
*Paper_Space
  1

  0
ENDBLK
  5
1D
330
1B
100
AcDbEntity
 67
     1
  8
0
100
AcDbBlockEnd
  0
BLOCK
  5
24
330
23
100
AcDbEntity
  8
0
100
AcDbBlockBegin
  2
*Paper_Space0
 70
     0
 10
0.0
 20
0.0
 30
0.0
  3
*Paper_Space0
  1

  0
ENDBLK
  5
25
330
23
100
AcDbEntity
  8
0
100
AcDbBlockEnd
  0
BLOCK
  5
7D
330
7C
100
AcDbEntity
  8
0
100
AcDbBlockBegin
  2
圖塊6
 70
     0
 10
0.0
 20
0.0
 30
0.0
  3
圖塊6
  1

  0
ARC
  5
7F
330
7C
100
AcDbEntity
  8
圖層_1
 62
     7
370
    30
100
AcDbCircle
 10
1.5301544339
 20
6.1020682891
 30
0.0
 40
1.53015443394367
100
AcDbArc
 50
130.2115225915
 51
228.588904108
  0
ARC
  5
80
330
7C
100
AcDbEntity
  8
圖層_1
 62
     7
370
    30
100
AcDbCircle
 10
4.8509135981
 20
5.9949454415
 30
0.0
 40
2.577335426817622
100
AcDbArc
 50
140.4331765613
 51
251.0865666567
  0
ARC
  5
81
330
7C
100
AcDbEntity
  8
圖層_1
 62
     7
370
    30
100
AcDbCircle
 10
5.1765041982
 20
6.3117559713
 30
0.0
 40
2.989636657769863
100
AcDbArc
 50
247.1485306747
 51
309.6030773927
  0
LINE
  5
82
330
7C
100
AcDbEntity
  8
圖層_1
 62
     7
370
    30
100
AcDbLine
 10
1.8488977269
 20
8.5321825984
 30
0.0
 11
0.542269472
 21
7.2705955219
 31
0.0
  0
LINE
  5
83
330
7C
100
AcDbEntity
  8
圖層_1
 62
     7
370
    30
100
AcDbLine
 10
0.51802289
 20
4.9544784977
 30
0.0
 11
4.5272252002
 21
1.4698746574
 31
0.0
  0
LINE
  5
84
330
7C
100
AcDbEntity
  8
圖層_1
 62
     7
370
    30
100
AcDbLine
 10
4.5272252002
 20
1.4698746574
 30
0.0
 11
3.8961732797
 21
0.853974267
 31
0.0
  0
LINE
  5
85
330
7C
100
AcDbEntity
  8
圖層_1
 62
     7
370
    30
100
AcDbLine
 10
3.8961732797
 20
0.853974267
 30
0.0
 11
4.8880526445
 21
0.0
 31
0.0
  0
LINE
  5
86
330
7C
100
AcDbEntity
  8
圖層_1
 62
     7
370
    30
100
AcDbLine
 10
8.0977170788
 20
3.1165779655
 30
0.0
 11
7.0822940472
 21
4.0083036932
 31
0.0
  0
LINE
  5
87
330
7C
100
AcDbEntity
  8
圖層_1
 62
     7
370
    30
100
AcDbLine
 10
2.8640915743
 20
7.6366506975
 30
0.0
 11
1.8488977269
 21
8.5321825984
 31
0.0
  0
LINE
  5
88
330
7C
100
AcDbEntity
  8
圖層_1
 62
     7
370
    30
100
AcDbLine
 10
4.8880526445
 20
0.0
 30
0.0
 11
8.0977170788
 21
3.1165779655
 31
0.0
  0
ENDBLK
  5
7E
330
7C
100
AcDbEntity
  8
0
100
AcDbBlockEnd
  0
BLOCK
  5
CF
330
CE
100
AcDbEntity
  8
0
100
AcDbBlockBegin
  2
SW_NOTE_0
 70
     0
 10
0.0
 20
0.0
 30
0.0
  3
SW_NOTE_0
  1

  0
MTEXT
  5
D1
330
CE
100
AcDbEntity
  8
0
  6
Continuous
 62
     0
370
     0
100
AcDbMText
 10
0.0
 20
3.4106583948
 30
0.0
 40
2.6458333333
 41
0.0
 71
     1
 72
     1
  1
PROPRIETARY AND CONFIDENTIAL
  7
SLDTEXTSTYLE0
 73
     1
 44
1.0
  0
MTEXT
  5
D2
330
CE
100
AcDbEntity
  8
0
  6
Continuous
 62
     0
370
     0
100
AcDbMText
 10
0.0
 20
-0.08198348
 30
0.0
 40
1.8520833333
 41
0.0
 71
     1
 72
     1
  1
THE INFORMATION CONTAINED IN THIS DRAWING IS THE SOLE PROPERTY OF UNICE E-O SERVICES INC. ANY REPRODUCTION IN PART OR AS A WHOLE WITHOUT THE WRITTEN PERMISSION OF UNICE E-O SERVICES INC IS
  7
SLDTEXTSTYLE0
 73
     1
 44
1.0
  0
MTEXT
  5
D3
330
CE
100
AcDbEntity
  8
0
  6
Continuous
 62
     0
370
     0
100
AcDbMText
 10
0.0
 20
-2.5514278946
 30
0.0
 40
1.8520833333
 41
0.0
 71
     1
 72
     1
  1
PROHIBITED.
  7
SLDTEXTSTYLE0
 73
     1
 44
1.0
  0
ENDBLK
  5
D0
330
CE
100
AcDbEntity
  8
0
100
AcDbBlockEnd
  0
BLOCK
  5
106
330
105
100
AcDbEntity
  8
0
100
AcDbBlockBegin
  2
SW_NOTE_1
 70
     0
 10
0.0
 20
0.0
 30
0.0
  3
SW_NOTE_1
  1

  0
MTEXT
  5
108
330
105
100
AcDbEntity
  8
SLD-0
 62
     0
100
AcDbMText
 10
0.0
 20
2.0463950369
 30
0.0
 40
1.5875
 41
0.0
 71
     1
 72
     1
  1
No.5, Andong Rd., Chung Li District,
  7
SLDTEXTSTYLE0
 73
     1
 44
1.0
  0
MTEXT
  5
109
330
105
100
AcDbEntity
  8
SLD-0
 62
     0
100
AcDbMText
 10
0.0
 20
-0.0702716042
 30
0.0
 40
1.5875
 41
0.0
 71
     1
 72
     1
  1
Taoyuan City 32063, Taiwan, R.O.C.
  7
SLDTEXTSTYLE0
 73
     1
 44
1.0
  0
ENDBLK
  5
107
330
105
100
AcDbEntity
  8
0
100
AcDbBlockEnd
  0
BLOCK
  5
1DD
330
1DC
100
AcDbEntity
  8
0
100
AcDbBlockBegin
  2
_D
 70
     0
 10
0.0
 20
0.0
 30
0.0
  3
_D
  1

  0
SOLID
  5
1DF
330
1DC
100
AcDbEntity
  8
DIM
100
AcDbTrace
 10
83.1722057991
 20
84.9888321656
 30
0.0
 11
85.1722057991
 21
84.7388321656
 31
0.0
 12
85.1722057991
 22
85.2388321656
 32
0.0
 13
85.1722057991
 23
85.2388321656
 33
0.0
  0
SOLID
  5
1E0
330
1DC
100
AcDbEntity
  8
DIM
100
AcDbTrace
 10
110.1722057991
 20
84.9888321656
 30
0.0
 11
108.1722057991
 21
85.2388321656
 31
0.0
 12
108.1722057991
 22
84.7388321656
 32
0.0
 13
108.1722057991
 23
84.7388321656
 33
0.0
  0
LINE
  5
1E1
330
1DC
100
AcDbEntity
  8
DIM
100
AcDbLine
 10
83.1722057991
 20
99.9888321656
 30
0.0
 11
83.1722057991
 21
83.9888321656
 31
0.0
  0
LINE
  5
1E2
330
1DC
100
AcDbEntity
  8
DIM
100
AcDbLine
 10
110.1722057991
 20
95.4888321656
 30
0.0
 11
110.1722057991
 21
83.9888321656
 31
0.0
  0
LINE
  5
1E3
330
1DC
100
AcDbEntity
  8
DIM
100
AcDbLine
 10
83.1722057991
 20
84.9888321656
 30
0.0
 11
110.1722057991
 21
84.9888321656
 31
0.0
  0
MTEXT
  5
1E4
330
1DC
100
AcDbEntity
  8
DIM
100
AcDbMText
 10
95.1817197118
 20
88.0584246045
 30
0.0
 40
2.38125
 41
0.0
 71
     1
 72
     1
  1
27
  7
SLDTEXTSTYLE1
 73
     1
 44
1.0
  0
ENDBLK
  5
1DE
330
1DC
100
AcDbEntity
  8
0
100
AcDbBlockEnd
  0
BLOCK
  5
1E7
330
1E6
100
AcDbEntity
  8
0
100
AcDbBlockBegin
  2
_D_1
 70
     0
 10
0.0
 20
0.0
 30
0.0
  3
_D_1
  1

  0
SOLID
  5
1E9
330
1E6
100
AcDbEntity
  8
DIM
100
AcDbTrace
 10
110.1722057991
 20
84.9888321656
 30
0.0
 11
112.1722057991
 21
84.7388321656
 31
0.0
 12
112.1722057991
 22
85.2388321656
 32
0.0
 13
112.1722057991
 23
85.2388321656
 33
0.0
  0
SOLID
  5
1EA
330
1E6
100
AcDbEntity
  8
DIM
100
AcDbTrace
 10
125.1722057991
 20
84.9888321656
 30
0.0
 11
123.1722057991
 21
85.2388321656
 31
0.0
 12
123.1722057991
 22
84.7388321656
 32
0.0
 13
123.1722057991
 23
84.7388321656
 33
0.0
  0
LINE
  5
1EB
330
1E6
100
AcDbEntity
  8
DIM
100
AcDbLine
 10
110.1722057991
 20
95.4888321656
 30
0.0
 11
110.1722057991
 21
83.9888321656
 31
0.0
  0
LINE
  5
1EC
330
1E6
100
AcDbEntity
  8
DIM
100
AcDbLine
 10
125.1722057991
 20
92.6888321656
 30
0.0
 11
125.1722057991
 21
83.9888321656
 31
0.0
  0
LINE
  5
1ED
330
1E6
100
AcDbEntity
  8
DIM
100
AcDbLine
 10
110.1722057991
 20
84.9888321656
 30
0.0
 11
125.1722057991
 21
84.9888321656
 31
0.0
  0
MTEXT
  5
1EE
330
1E6
100
AcDbEntity
  8
DIM
100
AcDbMText
 10
116.1817197118
 20
88.0584246045
 30
0.0
 40
2.38125
 41
0.0
 71
     1
 72
     1
  1
15
  7
SLDTEXTSTYLE1
 73
     1
 44
1.0
  0
ENDBLK
  5
1E8
330
1E6
100
AcDbEntity
  8
0
100
AcDbBlockEnd
  0
BLOCK
  5
1F1
330
1F0
100
AcDbEntity
  8
0
100
AcDbBlockBegin
  2
_D_2
 70
     0
 10
0.0
 20
0.0
 30
0.0
  3
_D_2
  1

  0
SOLID
  5
1F3
330
1F0
100
AcDbEntity
  8
DIM
100
AcDbTrace
 10
125.1722057991
 20
84.9888321656
 30
0.0
 11
127.1722057991
 21
84.7388321656
 31
0.0
 12
127.1722057991
 22
85.2388321656
 32
0.0
 13
127.1722057991
 23
85.2388321656
 33
0.0
  0
SOLID
  5
1F4
330
1F0
100
AcDbEntity
  8
DIM
100
AcDbTrace
 10
175.1722057991
 20
84.9888321656
 30
0.0
 11
173.1722057991
 21
85.2388321656
 31
0.0
 12
173.1722057991
 22
84.7388321656
 32
0.0
 13
173.1722057991
 23
84.7388321656
 33
0.0
  0
LINE
  5
1F5
330
1F0
100
AcDbEntity
  8
DIM
100
AcDbLine
 10
125.1722057991
 20
92.6888321656
 30
0.0
 11
125.1722057991
 21
83.9888321656
 31
0.0
  0
LINE
  5
1F6
330
1F0
100
AcDbEntity
  8
DIM
100
AcDbLine
 10
175.1722057991
 20
95.7388321656
 30
0.0
 11
175.1722057991
 21
83.9888321656
 31
0.0
  0
LINE
  5
1F7
330
1F0
100
AcDbEntity
  8
DIM
100
AcDbLine
 10
125.1722057991
 20
84.9888321656
 30
0.0
 11
175.1722057991
 21
84.9888321656
 31
0.0
  0
MTEXT
  5
1F8
330
1F0
100
AcDbEntity
  8
DIM
100
AcDbMText
 10
148.6817197118
 20
88.0584246045
 30
0.0
 40
2.38125
 41
0.0
 71
     1
 72
     1
  1
50
  7
SLDTEXTSTYLE1
 73
     1
 44
1.0
  0
ENDBLK
  5
1F2
330
1F0
100
AcDbEntity
  8
0
100
AcDbBlockEnd
  0
BLOCK
  5
1FC
330
1FB
100
AcDbEntity
  8
0
100
AcDbBlockBegin
  2
_D_3
 70
     0
 10
0.0
 20
0.0
 30
0.0
  3
_D_3
  1

  0
SOLID
  5
1FE
330
1FB
100
AcDbEntity
  8
DIM
100
AcDbTrace
 10
178.6722057991
 20
84.9888321656
 30
0.0
 11
180.6722057991
 21
84.7388321656
 31
0.0
 12
180.6722057991
 22
85.2388321656
 32
0.0
 13
180.6722057991
 23
85.2388321656
 33
0.0
  0
SOLID
  5
1FF
330
1FB
100
AcDbEntity
  8
DIM
100
AcDbTrace
 10
175.1722057991
 20
84.9888321656
 30
0.0
 11
173.1722057991
 21
85.2388321656
 31
0.0
 12
173.1722057991
 22
84.7388321656
 32
0.0
 13
173.1722057991
 23
84.7388321656
 33
0.0
  0
LINE
  5
200
330
1FB
100
AcDbEntity
  8
DIM
100
AcDbLine
 10
178.6722057991
 20
95.7388321656
 30
0.0
 11
178.6722057991
 21
83.9888321656
 31
0.0
  0
LINE
  5
201
330
1FB
100
AcDbEntity
  8
DIM
100
AcDbLine
 10
175.1722057991
 20
95.7388321656
 30
0.0
 11
175.1722057991
 21
83.9888321656
 31
0.0
  0
LINE
  5
202
330
1FB
100
AcDbEntity
  8
DIM
100
AcDbLine
 10
178.6722057991
 20
84.9888321656
 30
0.0
 11
186.2230391706
 21
84.9888321656
 31
0.0
  0
LINE
  5
203
330
1FB
100
AcDbEntity
  8
DIM
100
AcDbLine
 10
178.6722057991
 20
84.9888321656
 30
0.0
 11
175.1722057991
 21
84.9888321656
 31
0.0
  0
LINE
  5
204
330
1FB
100
AcDbEntity
  8
DIM
100
AcDbLine
 10
175.1722057991
 20
84.9888321656
 30
0.0
 11
172.1722057991
 21
84.9888321656
 31
0.0
  0
MTEXT
  5
205
330
1FB
100
AcDbEntity
  8
DIM
100
AcDbMText
 10
182.496823836
 20
88.0584246045
 30
0.0
 40
2.38125
 41
0.0
 71
     1
 72
     1
  1
3.5
  7
SLDTEXTSTYLE1
 73
     1
 44
1.0
  0
ENDBLK
  5
1FD
330
1FB
100
AcDbEntity
  8
0
100
AcDbBlockEnd
  0
BLOCK
  5
208
330
207
100
AcDbEntity
  8
0
100
AcDbBlockBegin
  2
_D_4
 70
     0
 10
0.0
 20
0.0
 30
0.0
  3
_D_4
  1

  0
SOLID
  5
20A
330
207
100
AcDbEntity
  8
DIM
100
AcDbTrace
 10
178.6722057991
 20
79.9888321656
 30
0.0
 11
176.6722057991
 21
80.2388321656
 31
0.0
 12
176.6722057991
 22
79.7388321656
 32
0.0
 13
176.6722057991
 23
79.7388321656
 33
0.0
  0
SOLID
  5
20B
330
207
100
AcDbEntity
  8
DIM
100
AcDbTrace
 10
83.1722057991
 20
79.9888321656
 30
0.0
 11
85.1722057991
 21
79.7388321656
 31
0.0
 12
85.1722057991
 22
80.2388321656
 32
0.0
 13
85.1722057991
 23
80.2388321656
 33
0.0
  0
LINE
  5
20C
330
207
100
AcDbEntity
  8
DIM
100
AcDbLine
 10
178.6722057991
 20
95.7388321656
 30
0.0
 11
178.6722057991
 21
78.9888321656
 31
0.0
  0
LINE
  5
20D
330
207
100
AcDbEntity
  8
DIM
100
AcDbLine
 10
83.1722057991
 20
99.9888321656
 30
0.0
 11
83.1722057991
 21
78.9888321656
 31
0.0
  0
LINE
  5
20E
330
207
100
AcDbEntity
  8
DIM
100
AcDbLine
 10
178.6722057991
 20
79.9888321656
 30
0.0
 11
83.1722057991
 21
79.9888321656
 31
0.0
  0
MTEXT
  5
20F
330
207
100
AcDbEntity
  8
DIM
100
AcDbMText
 10
128.313855321
 20
83.0584246045
 30
0.0
 40
2.38125
 41
0.0
 71
     1
 72
     1
  1
95.5
  7
SLDTEXTSTYLE1
 73
     1
 44
1.0
  0
ENDBLK
  5
209
330
207
100
AcDbEntity
  8
0
100
AcDbBlockEnd
  0
BLOCK
  5
212
330
211
100
AcDbEntity
  8
0
100
AcDbBlockBegin
  2
_D_5
 70
     0
 10
0.0
 20
0.0
 30
0.0
  3
_D_5
  1

  0
SOLID
  5
214
330
211
100
AcDbEntity
  8
DIM
100
AcDbTrace
 10
76.1722057991
 20
104.1638321656
 30
0.0
 11
75.9222057991
 21
102.1638321656
 31
0.0
 12
76.4222057991
 22
102.1638321656
 32
0.0
 13
76.4222057991
 23
102.1638321656
 33
0.0
  0
SOLID
  5
215
330
211
100
AcDbEntity
  8
DIM
100
AcDbTrace
 10
76.1722057991
 20
97.8138321656
 30
0.0
 11
76.4222057991
 21
99.8138321656
 31
0.0
 12
75.9222057991
 22
99.8138321656
 32
0.0
 13
75.9222057991
 23
99.8138321656
 33
0.0
  0
LINE
  5
216
330
211
100
AcDbEntity
  8
DIM
100
AcDbLine
 10
83.5969845688
 20
104.1638321656
 30
0.0
 11
75.1722057991
 21
104.1638321656
 31
0.0
  0
LINE
  5
217
330
211
100
AcDbEntity
  8
DIM
100
AcDbLine
 10
83.5969845688
 20
97.8138321656
 30
0.0
 11
75.1722057991
 21
97.8138321656
 31
0.0
  0
LINE
  5
218
330
211
100
AcDbEntity
  8
DIM
100
AcDbLine
 10
76.1722057991
 20
104.1638321656
 30
0.0
 11
76.1722057991
 21
97.8138321656
 31
0.0
  0
LINE
  5
219
330
211
100
AcDbEntity
  8
DIM
100
AcDbLine
 10
76.1722057991
 20
97.8138321656
 30
0.0
 11
76.1722057991
 21
85.756262848
 31
0.0
  0
MTEXT
  5
21A
330
211
100
AcDbEntity
  8
DIM
100
AcDbMText
 10
73.1026131274
 20
85.756262848
 30
0.0
 40
2.38125
 41
0.0
 71
     1
 72
     1
  1
%%c
  7
SLDTEXTSTYLE1
 11
-1.770233605404514E-14
 21
1.0
 31
0.0
 73
     1
 44
1.0
  0
MTEXT
  5
21B
330
211
100
AcDbEntity
  8
DIM
100
AcDbMText
 10
73.1026131274
 20
88.7725128232
 30
0.0
 40
2.38125
 41
0.0
 71
     1
 72
     1
  1
6.35
  7
SLDTEXTSTYLE1
 11
-1.770233605404514E-14
 21
1.0
 31
0.0
 73
     1
 44
1.0
  0
ENDBLK
  5
213
330
211
100
AcDbEntity
  8
0
100
AcDbBlockEnd
  0
BLOCK
  5
21E
330
21D
100
AcDbEntity
  8
0
100
AcDbBlockBegin
  2
_D_6
 70
     0
 10
0.0
 20
0.0
 30
0.0
  3
_D_6
  1

  0
SOLID
  5
220
330
21D
100
AcDbEntity
  8
DIM
100
AcDbTrace
 10
71.1722057991
 20
105.9888321656
 30
0.0
 11
70.9222057991
 21
103.9888321656
 31
0.0
 12
71.4222057991
 22
103.9888321656
 32
0.0
 13
71.4222057991
 23
103.9888321656
 33
0.0
  0
SOLID
  5
221
330
21D
100
AcDbEntity
  8
DIM
100
AcDbTrace
 10
71.1722057991
 20
95.9888321656
 30
0.0
 11
71.4222057991
 21
97.9888321656
 31
0.0
 12
70.9222057991
 22
97.9888321656
 32
0.0
 13
70.9222057991
 23
97.9888321656
 33
0.0
  0
LINE
  5
222
330
21D
100
AcDbEntity
  8
DIM
100
AcDbLine
 10
109.6722057991
 20
105.9888321656
 30
0.0
 11
70.1722057991
 21
105.9888321656
 31
0.0
  0
LINE
  5
223
330
21D
100
AcDbEntity
  8
DIM
100
AcDbLine
 10
109.6722057991
 20
95.9888321656
 30
0.0
 11
70.1722057991
 21
95.9888321656
 31
0.0
  0
LINE
  5
224
330
21D
100
AcDbEntity
  8
DIM
100
AcDbLine
 10
71.1722057991
 20
105.9888321656
 30
0.0
 11
71.1722057991
 21
95.9888321656
 31
0.0
  0
MTEXT
  5
225
330
21D
100
AcDbEntity
  8
DIM
100
AcDbMText
 10
68.1026131274
 20
97.9902212071
 30
0.0
 40
2.38125
 41
0.0
 71
     1
 72
     1
  1
%%c
  7
SLDTEXTSTYLE1
 11
-1.770233605404514E-14
 21
1.0
 31
0.0
 73
     1
 44
1.0
  0
MTEXT
  5
226
330
21D
100
AcDbEntity
  8
DIM
100
AcDbMText
 10
68.1026131274
 20
101.0064711823
 30
0.0
 40
2.38125
 41
0.0
 71
     1
 72
     1
  1
10
  7
SLDTEXTSTYLE1
 11
-1.770233605404514E-14
 21
1.0
 31
0.0
 73
     1
 44
1.0
  0
ENDBLK
  5
21F
330
21D
100
AcDbEntity
  8
0
100
AcDbBlockEnd
  0
BLOCK
  5
229
330
228
100
AcDbEntity
  8
0
100
AcDbBlockBegin
  2
_D_7
 70
     0
 10
0.0
 20
0.0
 30
0.0
  3
_D_7
  1

  0
SOLID
  5
22B
330
228
100
AcDbEntity
  8
DIM
100
AcDbTrace
 10
185.6722057991
 20
109.9888321656
 30
0.0
 11
185.4222057991
 21
107.9888321656
 31
0.0
 12
185.9222057991
 22
107.9888321656
 32
0.0
 13
185.9222057991
 23
107.9888321656
 33
0.0
  0
SOLID
  5
22C
330
228
100
AcDbEntity
  8
DIM
100
AcDbTrace
 10
185.6722057991
 20
91.9888321656
 30
0.0
 11
185.9222057991
 21
93.9888321656
 31
0.0
 12
185.4222057991
 22
93.9888321656
 32
0.0
 13
185.4222057991
 23
93.9888321656
 33
0.0
  0
LINE
  5
22D
330
228
100
AcDbEntity
  8
DIM
100
AcDbLine
 10
175.1507004228
 20
109.9888321656
 30
0.0
 11
186.6722057991
 21
109.9888321656
 31
0.0
  0
LINE
  5
22E
330
228
100
AcDbEntity
  8
DIM
100
AcDbLine
 10
175.1507004228
 20
91.9888321656
 30
0.0
 11
186.6722057991
 21
91.9888321656
 31
0.0
  0
LINE
  5
22F
330
228
100
AcDbEntity
  8
DIM
100
AcDbLine
 10
185.6722057991
 20
109.9888321656
 30
0.0
 11
185.6722057991
 21
91.9888321656
 31
0.0
  0
MTEXT
  5
230
330
228
100
AcDbEntity
  8
DIM
100
AcDbMText
 10
182.6026131274
 20
97.9902212071
 30
0.0
 40
2.38125
 41
0.0
 71
     1
 72
     1
  1
%%c
  7
SLDTEXTSTYLE1
 11
-1.681415763434501E-14
 21
1.0
 31
0.0
 73
     1
 44
1.0
  0
MTEXT
  5
231
330
228
100
AcDbEntity
  8
DIM
100
AcDbMText
 10
182.6026131274
 20
101.0064711823
 30
0.0
 40
2.38125
 41
0.0
 71
     1
 72
     1
  1
18
  7
SLDTEXTSTYLE1
 11
-1.681415763434501E-14
 21
1.0
 31
0.0
 73
     1
 44
1.0
  0
ENDBLK
  5
22A
330
228
100
AcDbEntity
  8
0
100
AcDbBlockEnd
  0
ENDSEC
  0
SECTION
  2
ENTITIES
  0
HATCH
  5
89
330
1F
100
AcDbEntity
  8
0
  6
Continuous
 62
     7
100
AcDbHatch
 10
0.0
 20
0.0
 30
0.0
210
0.0
220
0.0
230
1.0
  2
SOLID
 70
     1
 71
     0
 91
        1
 92
        0
 93
       10
 72
     2
 10
192.1405965629367
 20
35.75580880988856
 40
2.989636657769859
 50
50.39692260731407
 51
112.8514693252983
 73
     0
 72
     2
 10
191.815005962812
 20
35.43899828006204
 40
2.577335426817619
 50
108.9134333432861
 51
219.5668234386827
 73
     0
 72
     1
 10
189.8281839389603
 20
37.0807035361501
 11
188.8129900915579
 21
37.97623543696786
 72
     1
 10
188.8129900915579
 20
37.97623543696786
 11
187.5063618366762
 21
36.71464836046036
 72
     2
 10
188.4942467986389
 20
35.54612112772446
 40
1.530154433943661
 50
130.2115225915088
 51
228.5889041080191
 73
     1
 72
     1
 10
187.482115254651
 20
34.39853133629978
 11
191.4913175648466
 21
30.9139274960251
 72
     1
 10
191.4913175648466
 20
30.9139274960251
 11
190.8602656444315
 21
30.29802710555407
 72
     1
 10
190.8602656444315
 20
30.29802710555407
 11
191.852145009157
 21
29.44405283860024
 72
     1
 10
191.852145009157
 20
29.44405283860024
 11
195.0618094435223
 21
32.56063080411572
 72
     1
 10
195.0618094435223
 20
32.56063080411572
 11
194.0463864118641
 21
33.45235653184883
 97
        0
 75
     0
 76
     1
 98
        1
 10
0.0
 20
0.0
  0
HATCH
  5
8A
330
1F
100
AcDbEntity
  8
0
  6
Continuous
 62
     1
100
AcDbHatch
 10
0.0
 20
0.0
 30
0.0
210
0.0
220
0.0
230
1.0
  2
SOLID
 70
     1
 71
     0
 91
        1
 92
        0
 93
       10
 72
     2
 10
192.5892455627688
 20
35.6630691563161
 40
2.57756748834625
 50
317.8184992995785
 51
398.0564711573078
 73
     0
 72
     1
 10
194.6188314058163
 20
34.07415900697447
 11
195.6042802987991
 21
33.21546206708498
 72
     1
 10
195.6042802987991
 20
33.21546206708498
 11
196.8459616135929
 21
34.41989500949219
 72
     2
 10
195.9525692879308
 20
35.64784174131312
 40
1.518552937418265
 50
306.0377529468138
 51
403.4396461533871
 73
     1
 72
     1
 10
197.0551891526031
 20
36.69198371335126
 11
192.9284332942598
 21
40.28115998198521
 72
     1
 10
192.9284332942598
 20
40.28115998198521
 11
193.552684596187
 21
40.89021841282256
 72
     1
 10
193.552684596187
 20
40.89021841282256
 11
192.622178086003
 21
41.72041063266705
 72
     1
 10
192.622178086003
 20
41.72041063266705
 11
189.3865926375931
 21
38.59349038605298
 72
     1
 10
189.3865926375931
 20
38.59349038605298
 11
190.4090005149417
 21
37.70169985893218
 72
     2
 10
192.2715892720444
 20
35.12224735083792
 40
3.181636704527876
 50
234.1674444878512
 51
314.4407074583994
 73
     0
 97
        0
 75
     0
 76
     1
 98
        1
 10
0.0
 20
0.0
  0
LINE
  5
8B
330
1F
100
AcDbEntity
  8
0
  6
Continuous
 62
     7
370
     0
100
AcDbLine
 10
167.8593775185
 20
17.7745192513
 30
0.0
 11
168.8593775185
 21
17.7745192513
 31
0.0
  0
LINE
  5
8C
330
1F
100
AcDbEntity
  8
0
  6
Continuous
 62
     7
370
     0
100
AcDbLine
 10
164.8593775185
 20
17.7745192513
 30
0.0
 11
167.3593775185
 21
17.7745192513
 31
0.0
  0
LINE
  5
8D
330
1F
100
AcDbEntity
  8
0
  6
Continuous
 62
     7
370
     0
100
AcDbLine
 10
181.3593775185
 20
15.2745192513
 30
0.0
 11
181.3593775185
 21
20.2745192513
 31
0.0
  0
LINE
  5
8E
330
1F
100
AcDbEntity
  8
0
  6
Continuous
 62
     7
370
     0
100
AcDbLine
 10
174.3593775185
 20
16.2745192513
 30
0.0
 11
181.3593775185
 21
15.2745192513
 31
0.0
  0
LINE
  5
8F
330
1F
100
AcDbEntity
  8
0
  6
Continuous
 62
     7
370
     0
100
AcDbLine
 10
168.3593775185
 20
16.7745192513
 30
0.0
 11
168.3593775185
 21
14.2745192513
 31
0.0
  0
LINE
  5
90
330
1F
100
AcDbEntity
  8
0
  6
Continuous
 62
     7
370
     0
100
AcDbLine
 10
181.3593775185
 20
20.2745192513
 30
0.0
 11
174.3593775185
 21
19.2745192513
 31
0.0
  0
LINE
  5
91
330
1F
100
AcDbEntity
  8
0
  6
Continuous
 62
     7
370
     0
100
AcDbLine
 10
173.3593775185
 20
17.7745192513
 30
0.0
 11
182.3593775185
 21
17.7745192513
 31
0.0
  0
LINE
  5
92
330
1F
100
AcDbEntity
  8
0
  6
Continuous
 62
     7
370
     0
100
AcDbLine
 10
168.3593775185
 20
18.2745192513
 30
0.0
 11
168.3593775185
 21
17.2745192513
 31
0.0
  0
LINE
  5
93
330
1F
100
AcDbEntity
  8
0
  6
Continuous
 62
     7
370
     0
100
AcDbLine
 10
169.3593775185
 20
17.7745192513
 30
0.0
 11
171.8593775185
 21
17.7745192513
 31
0.0
  0
LINE
  5
94
330
1F
100
AcDbEntity
  8
0
  6
Continuous
 62
     7
370
     0
100
AcDbLine
 10
168.3593775185
 20
21.2745192513
 30
0.0
 11
168.3593775185
 21
18.7745192513
 31
0.0
  0
LINE
  5
95
330
1F
100
AcDbEntity
  8
0
  6
Continuous
 62
     7
370
     0
100
AcDbLine
 10
174.3593775185
 20
19.2745192513
 30
0.0
 11
174.3593775185
 21
16.2745192513
 31
0.0
  0
LINE
  5
96
330
1F
100
AcDbEntity
  8
工作區域參考線
 62
     1
370
    30
100
AcDbLine
 10
190.4090005149
 20
37.7016998589
 30
0.0
 11
189.3865926376
 21
38.5934903861
 31
0.0
  0
LINE
  5
97
330
1F
100
AcDbEntity
  8
工作區域參考線
 62
     1
370
    30
100
AcDbLine
 10
189.3865926376
 20
38.5934903861
 30
0.0
 11
192.622178086
 21
41.7204106327
 31
0.0
  0
LINE
  5
98
330
1F
100
AcDbEntity
  8
工作區域參考線
 62
     1
370
    30
100
AcDbLine
 10
192.622178086
 20
41.7204106327
 30
0.0
 11
193.5526845962
 21
40.8902184128
 31
0.0
  0
LINE
  5
99
330
1F
100
AcDbEntity
  8
工作區域參考線
 62
     1
370
    30
100
AcDbLine
 10
193.5526845962
 20
40.8902184128
 30
0.0
 11
192.9284332943
 21
40.281159982
 31
0.0
  0
LINE
  5
9A
330
1F
100
AcDbEntity
  8
工作區域參考線
 62
     1
370
    30
100
AcDbLine
 10
192.9284332943
 20
40.281159982
 30
0.0
 11
197.0551891526
 21
36.6919837134
 31
0.0
  0
LINE
  5
9B
330
1F
100
AcDbEntity
  8
工作區域參考線
 62
     1
370
    30
100
AcDbLine
 10
194.6188314058
 20
34.074159007
 30
0.0
 11
195.6042802988
 21
33.2154620671
 31
0.0
  0
LINE
  5
9C
330
1F
100
AcDbEntity
  8
工作區域參考線
 62
     1
370
    30
100
AcDbLine
 10
195.6042802988
 20
33.2154620671
 30
0.0
 11
196.8459616136
 21
34.4198950095
 31
0.0
  0
LINE
  5
9D
330
1F
100
AcDbEntity
  8
0
  6
Continuous
 62
     7
370
     0
100
AcDbLine
 10
185.6907965209
 20
13.1152464079
 30
0.0
 11
285.6907965209
 21
13.1152464079
 31
0.0
  0
LINE
  5
9E
330
1F
100
AcDbEntity
  8
0
  6
Continuous
 62
     7
370
     0
100
AcDbLine
 10
185.6907965209
 20
18.1152464079
 30
0.0
 11
235.6907965209
 21
18.1152464079
 31
0.0
  0
LINE
  5
9F
330
1F
100
AcDbEntity
  8
0
  6
Continuous
 62
     7
370
     0
100
AcDbLine
 10
185.6907965209
 20
23.1152464079
 30
0.0
 11
235.6907965209
 21
23.1152464079
 31
0.0
  0
LINE
  5
A0
330
1F
100
AcDbEntity
  8
0
  6
Continuous
 62
     7
370
     0
100
AcDbLine
 10
185.6907965209
 20
28.1152464079
 30
0.0
 11
285.6907965209
 21
28.1152464079
 31
0.0
  0
LINE
  5
A1
330
1F
100
AcDbEntity
  8
0
  6
Continuous
 62
     7
370
     0
100
AcDbLine
 10
235.6907965209
 20
33.1152464079
 30
0.0
 11
285.6907965209
 21
33.1152464079
 31
0.0
  0
LINE
  5
A2
330
1F
100
AcDbEntity
  8
0
  6
Continuous
 62
     7
370
    15
100
AcDbLine
 10
235.6907965209
 20
18.1152464079
 30
0.0
 11
285.6907965209
 21
18.1152464079
 31
0.0
  0
LINE
  5
A3
330
1F
100
AcDbEntity
  8
0
  6
Continuous
 62
     7
370
     0
100
AcDbLine
 10
185.6907965209
 20
43.1152464079
 30
0.0
 11
285.6907965209
 21
43.1152464079
 31
0.0
  0
LINE
  5
A4
330
1F
100
AcDbEntity
  8
0
  6
Continuous
 62
     7
370
     0
100
AcDbLine
 10
251.237217675
 20
8.1152464079
 30
0.0
 11
251.237217675
 21
18.1152464079
 31
0.0
  0
LINE
  5
A5
330
1F
100
AcDbEntity
  8
0
  6
Continuous
 62
     7
370
     0
100
AcDbLine
 10
235.6907965209
 20
8.1152464079
 30
0.0
 11
235.6907965209
 21
43.1152464079
 31
0.0
  0
LINE
  5
A6
330
1F
100
AcDbEntity
  8
0
  6
Continuous
 62
     7
370
     0
100
AcDbLine
 10
251.237217675
 20
28.1152464079
 30
0.0
 11
251.237217675
 21
33.1152464079
 31
0.0
  0
LINE
  5
A7
330
1F
100
AcDbEntity
  8
0
  6
Continuous
 62
     7
370
     0
100
AcDbLine
 10
214.4164086353
 20
8.1152464079
 30
0.0
 11
214.4164086353
 21
28.1152464079
 31
0.0
  0
LINE
  5
A8
330
1F
100
AcDbEntity
  8
0
  6
Continuous
 62
     7
370
     0
100
AcDbLine
 10
199.7785887506
 20
8.1152464079
 30
0.0
 11
199.7785887506
 21
28.1152464079
 31
0.0
  0
LINE
  5
A9
330
1F
100
AcDbEntity
  8
0
  6
Continuous
 62
     7
370
     0
100
AcDbLine
 10
185.6907965209
 20
8.1152464079
 30
0.0
 11
185.6907965209
 21
43.1152464079
 31
0.0
  0
LINE
  5
AA
330
1F
100
AcDbEntity
  8
0
  6
Continuous
 62
     7
370
    15
100
AcDbLine
 10
43.3207965209
 20
201.3720275751
 30
0.0
 11
43.3207965209
 21
202.8720275751
 31
0.0
  0
LINE
  5
AB
330
1F
100
AcDbEntity
  8
0
  6
Continuous
 62
     7
370
    15
100
AcDbLine
 10
77.9507965209
 20
201.3720275751
 30
0.0
 11
77.9507965209
 21
202.8720275751
 31
0.0
  0
LINE
  5
AC
330
1F
100
AcDbEntity
  8
0
  6
Continuous
 62
     7
370
    15
100
AcDbLine
 10
112.5807965209
 20
201.3720275751
 30
0.0
 11
112.5807965209
 21
202.8720275751
 31
0.0
  0
LINE
  5
AD
330
1F
100
AcDbEntity
  8
0
  6
Continuous
 62
     7
370
    15
100
AcDbLine
 10
147.2107965209
 20
201.3720275751
 30
0.0
 11
147.2107965209
 21
202.8720275751
 31
0.0
  0
LINE
  5
AE
330
1F
100
AcDbEntity
  8
0
  6
Continuous
 62
     7
370
    15
100
AcDbLine
 10
181.8407965209
 20
201.3720275751
 30
0.0
 11
181.8407965209
 21
202.8720275751
 31
0.0
  0
LINE
  5
AF
330
1F
100
AcDbEntity
  8
0
  6
Continuous
 62
     7
370
    15
100
AcDbLine
 10
216.4707965209
 20
201.3720275751
 30
0.0
 11
216.4707965209
 21
202.8720275751
 31
0.0
  0
LINE
  5
B0
330
1F
100
AcDbEntity
  8
0
  6
Continuous
 62
     7
370
    15
100
AcDbLine
 10
251.1007965209
 20
201.3720275751
 30
0.0
 11
251.1007965209
 21
202.8720275751
 31
0.0
  0
LINE
  5
B1
330
1F
100
AcDbEntity
  8
0
  6
Continuous
 62
     7
370
    15
100
AcDbLine
 10
43.3157965209
 20
8.1152464079
 30
0.0
 11
43.3157965209
 21
6.6152464079
 31
0.0
  0
LINE
  5
B2
330
1F
100
AcDbEntity
  8
0
  6
Continuous
 62
     7
370
    15
100
AcDbLine
 10
77.9407965209
 20
8.1152464079
 30
0.0
 11
77.9407965209
 21
6.6152464079
 31
0.0
  0
LINE
  5
B3
330
1F
100
AcDbEntity
  8
0
  6
Continuous
 62
     7
370
    15
100
AcDbLine
 10
112.5657965209
 20
8.1152464079
 30
0.0
 11
112.5657965209
 21
6.6152464079
 31
0.0
  0
LINE
  5
B4
330
1F
100
AcDbEntity
  8
0
  6
Continuous
 62
     7
370
    15
100
AcDbLine
 10
147.1907965209
 20
8.1152464079
 30
0.0
 11
147.1907965209
 21
6.6152464079
 31
0.0
  0
LINE
  5
B5
330
1F
100
AcDbEntity
  8
0
  6
Continuous
 62
     7
370
    15
100
AcDbLine
 10
181.8157965209
 20
8.1152464079
 30
0.0
 11
181.8157965209
 21
6.6152464079
 31
0.0
  0
LINE
  5
B6
330
1F
100
AcDbEntity
  8
0
  6
Continuous
 62
     7
370
    15
100
AcDbLine
 10
216.4407965209
 20
8.1152464079
 30
0.0
 11
216.4407965209
 21
6.6152464079
 31
0.0
  0
LINE
  5
B7
330
1F
100
AcDbEntity
  8
0
  6
Continuous
 62
     7
370
     0
100
AcDbLine
 10
285.6907965209
 20
201.3720275751
 30
0.0
 11
8.6907965209
 21
201.3720275751
 31
0.0
  0
LINE
  5
B8
330
1F
100
AcDbEntity
  8
0
  6
Continuous
 62
     7
370
     0
100
AcDbLine
 10
285.6907965209
 20
8.1152464079
 30
0.0
 11
285.6907965209
 21
201.3720275751
 31
0.0
  0
LINE
  5
B9
330
1F
100
AcDbEntity
  8
0
  6
Continuous
 62
     7
370
     0
100
AcDbLine
 10
8.6907965209
 20
201.3720275751
 30
0.0
 11
8.6907965209
 21
8.1152464079
 31
0.0
  0
LINE
  5
BA
330
1F
100
AcDbEntity
  8
0
  6
Continuous
 62
     7
370
     0
100
AcDbLine
 10
8.6907965209
 20
8.1152464079
 30
0.0
 11
285.6907965209
 21
8.1152464079
 31
0.0
  0
LINE
  5
BB
330
1F
100
AcDbEntity
  8
0
  6
Continuous
 62
     7
370
    15
100
AcDbLine
 10
251.0657965209
 20
8.1152464079
 30
0.0
 11
251.0657965209
 21
6.6152464079
 31
0.0
  0
LINE
  5
BC
330
1F
100
AcDbEntity
  8
0
  6
Continuous
 62
     7
370
    15
100
AcDbLine
 10
8.6907965209
 20
40.3252464079
 30
0.0
 11
7.1907965209
 21
40.3252464079
 31
0.0
  0
LINE
  5
BD
330
1F
100
AcDbEntity
  8
0
  6
Continuous
 62
     7
370
    15
100
AcDbLine
 10
8.6907965209
 20
72.5352464079
 30
0.0
 11
7.1907965209
 21
72.5352464079
 31
0.0
  0
LINE
  5
BE
330
1F
100
AcDbEntity
  8
0
  6
Continuous
 62
     7
370
    15
100
AcDbLine
 10
8.6907965209
 20
104.7452464079
 30
0.0
 11
7.1907965209
 21
104.7452464079
 31
0.0
  0
LINE
  5
BF
330
1F
100
AcDbEntity
  8
0
  6
Continuous
 62
     7
370
    15
100
AcDbLine
 10
8.6907965209
 20
136.9552464079
 30
0.0
 11
7.1907965209
 21
136.9552464079
 31
0.0
  0
LINE
  5
C0
330
1F
100
AcDbEntity
  8
0
  6
Continuous
 62
     7
370
    15
100
AcDbLine
 10
8.6907965209
 20
169.1652464079
 30
0.0
 11
7.1907965209
 21
169.1652464079
 31
0.0
  0
LINE
  5
C1
330
1F
100
AcDbEntity
  8
0
  6
Continuous
 62
     7
370
    15
100
AcDbLine
 10
285.6907965209
 20
40.3252464079
 30
0.0
 11
287.1907965209
 21
40.3252464079
 31
0.0
  0
LINE
  5
C2
330
1F
100
AcDbEntity
  8
0
  6
Continuous
 62
     7
370
    15
100
AcDbLine
 10
285.6907965209
 20
72.5352464079
 30
0.0
 11
287.1907965209
 21
72.5352464079
 31
0.0
  0
LINE
  5
C3
330
1F
100
AcDbEntity
  8
0
  6
Continuous
 62
     7
370
    15
100
AcDbLine
 10
285.6907965209
 20
104.7452464079
 30
0.0
 11
287.1907965209
 21
104.7452464079
 31
0.0
  0
LINE
  5
C4
330
1F
100
AcDbEntity
  8
0
  6
Continuous
 62
     7
370
    15
100
AcDbLine
 10
285.6907965209
 20
136.9552464079
 30
0.0
 11
287.1907965209
 21
136.9552464079
 31
0.0
  0
LINE
  5
C5
330
1F
100
AcDbEntity
  8
0
  6
Continuous
 62
     7
370
    15
100
AcDbLine
 10
285.6907965209
 20
169.1652464079
 30
0.0
 11
287.1907965209
 21
169.1652464079
 31
0.0
  0
CIRCLE
  5
C6
330
1F
100
AcDbEntity
  8
0
  6
Continuous
 62
     7
370
     0
100
AcDbCircle
 10
168.3593775185
 20
17.7745192513
 30
0.0
 40
1.5
  0
CIRCLE
  5
C7
330
1F
100
AcDbEntity
  8
0
  6
Continuous
 62
     7
370
     0
100
AcDbCircle
 10
168.3593775185
 20
17.7745192513
 30
0.0
 40
2.5
  0
ARC
  5
C8
330
1F
100
AcDbEntity
  8
工作區域參考線
 62
     1
370
    30
100
AcDbCircle
 10
195.9525692879
 20
35.6478417413
 30
0.0
 40
1.518552937418275
100
AcDbArc
 50
306.0377529468
 51
43.4396461534
  0
ARC
  5
C9
330
1F
100
AcDbEntity
  8
工作區域參考線
 62
     1
370
    30
100
AcDbCircle
 10
192.271589272
 20
35.1222473508
 30
0.0
 40
3.181636704527891
100
AcDbArc
 50
45.5592925416
 51
125.8325555121
  0
ARC
  5
CA
330
1F
100
AcDbEntity
  8
工作區域參考線
 62
     1
370
    30
100
AcDbCircle
 10
192.5892455628
 20
35.6630691563
 30
0.0
 40
2.577567488346266
100
AcDbArc
 50
321.9435288427
 51
42.1815007004
  0
INSERT
  5
CB
330
1F
100
AcDbEntity
  8
0
  6
Continuous
 62
     7
100
AcDbBlockReference
  2
圖塊6
 10
186.9640923647
 20
29.4440528386
 30
0.0
  0
MTEXT
  5
CD
330
1F
100
AcDbEntity
  8
0
  6
Continuous
 62
     7
370
     0
100
AcDbMText
 10
165.5426850804
 20
13.2208440369
 30
0.0
 40
2.6458333333
 41
0.0
 71
     1
 72
     1
  1
UNIT:m/m
  7
SLDTEXTSTYLE0
 73
     1
 44
1.0
  0
INSERT
  5
D4
330
1F
100
AcDbEntity
  8
0
  6
Continuous
 62
     7
370
     0
100
AcDbBlockReference
  2
SW_NOTE_0
 10
12.2315076053
 20
193.8904304251
 30
0.0
  0
MTEXT
  5
D5
330
1F
100
AcDbEntity
  8
0
  6
Continuous
 62
     7
370
     0
100
AcDbMText
 10
198.7251893935
 20
40.4406774139
 30
0.0
 40
2.38125
 41
0.0
 71
     1
 72
     1
  1
Unice E-O Services Inc.
  7
SLDTEXTSTYLE0
 73
     1
 44
1.0
  0
MTEXT
  5
D6
330
1F
100
AcDbEntity
  8
0
  6
Continuous
 62
     7
370
     0
100
AcDbMText
 10
217.5590538149
 20
21.5867148511
 30
0.0
 40
1.8520833333
 41
0.0
 71
     1
 72
     1
  1
2018/1/17
  7
SLDTEXTSTYLE0
 73
     1
 44
1.0
  0
MTEXT
  5
D7
330
1F
100
AcDbEntity
  8
0
  6
Continuous
 62
     7
370
     0
100
AcDbMText
 10
252.6088982507
 20
16.87117774
 30
0.0
 40
2.5
 41
0.0
 71
     1
 72
     1
  1
1:1
  7
SLDTEXTSTYLE0
 73
     1
 44
1.0
  0
MTEXT
  5
D8
330
1F
100
AcDbEntity
  8
0
  6
Continuous
 62
     7
370
     0
100
AcDbMText
 10
252.3075599985
 20
32.1519195438
 30
0.0
 40
2.5
 41
0.0
 71
     1
 72
     1
  1
07MT25-3
  7
SLDTEXTSTYLE0
 73
     1
 44
1.0
  0
MTEXT
  5
D9
330
1F
100
AcDbEntity
  8
0
  6
Continuous
 62
     7
370
     0
100
AcDbMText
 10
252.3075599985
 20
38.1082117879
 30
0.0
 40
2.5
 41
0.0
 71
     1
 72
     1
  1
07MT25-3
  7
SLDTEXTSTYLE0
 73
     1
 44
1.0
  0
MTEXT
  5
DA
330
1F
100
AcDbEntity
  8
0
  6
Continuous
 62
     7
370
     0
100
AcDbMText
 10
236.3921866786
 20
16.5064795728
 30
0.0
 40
2.1166666667
 41
0.0
 71
     1
 72
     1
  1
SCALE:
  7
SLDTEXTSTYLE0
 73
     1
 44
1.0
  0
MTEXT
  5
DB
330
1F
100
AcDbEntity
  8
0
  6
Continuous
 62
     7
370
     0
100
AcDbMText
 10
186.3336086789
 20
21.5867148511
 30
0.0
 40
1.8520833333
 41
0.0
 71
     1
 72
     1
  1
DRAWN
  7
SLDTEXTSTYLE0
 73
     1
 44
1.0
  0
MTEXT
  5
DC
330
1F
100
AcDbEntity
  8
0
  6
Continuous
 62
     7
370
     0
100
AcDbMText
 10
203.2228367937
 20
26.683208308
 30
0.0
 40
1.8520833333
 41
0.0
 71
     1
 72
     1
  1
NAME
  7
SLDTEXTSTYLE0
 73
     1
 44
1.0
  0
MTEXT
  5
DD
330
1F
100
AcDbEntity
  8
0
  6
Continuous
 62
     7
370
     0
100
AcDbMText
 10
220.8710155758
 20
26.683208308
 30
0.0
 40
1.8520833333
 41
0.0
 71
     1
 72
     1
  1
DATE
  7
SLDTEXTSTYLE0
 73
     1
 44
1.0
  0
MTEXT
  5
DE
330
1F
100
AcDbEntity
  8
0
  6
Continuous
 62
     7
370
     0
100
AcDbMText
 10
236.2756316645
 20
31.7872213766
 30
0.0
 40
2.1166666667
 41
0.0
 71
     1
 72
     1
  1
DWG. NO.
  7
SLDTEXTSTYLE0
 73
     1
 44
1.0
  0
MTEXT
  5
DF
330
1F
100
AcDbEntity
  8
0
  6
Continuous
 62
     7
370
     0
100
AcDbMText
 10
236.3629907088
 20
41.8840658243
 30
0.0
 40
2.1166666667
 41
0.0
 71
     1
 72
     1
  1
TITLE:
  7
SLDTEXTSTYLE0
 73
     1
 44
1.0
  0
MTEXT
  5
E0
330
1F
100
AcDbEntity
  8
0
  6
Continuous
 62
     7
370
     0
100
AcDbMText
 10
203.0314209802
 20
16.2403789724
 30
0.0
 40
1.8520833333
 41
0.0
 71
     1
 72
     1
  1
Johnny
  7
SLDTEXTSTYLE0
 73
     1
 44
1.0
  0
MTEXT
  5
E1
330
1F
100
AcDbEntity
  8
0
  6
Continuous
 62
     7
370
     0
100
AcDbMText
 10
217.5590538149
 20
16.2403789724
 30
0.0
 40
1.8520833333
 41
0.0
 71
     1
 72
     1
  1
2018/1/17
  7
SLDTEXTSTYLE0
 73
     1
 44
1.0
  0
MTEXT
  5
E2
330
1F
100
AcDbEntity
  8
0
  6
Continuous
 62
     7
370
     0
100
AcDbMText
 10
186.3336086789
 20
16.2403789724
 30
0.0
 40
1.8520833333
 41
0.0
 71
     1
 72
     1
  1
ENG APPR.
  7
SLDTEXTSTYLE0
 73
     1
 44
1.0
  0
MTEXT
  5
E3
330
1F
100
AcDbEntity
  8
0
  6
Continuous
 62
     7
370
     0
100
AcDbMText
 10
236.3921866786
 20
11.6853389288
 30
0.0
 40
2.1166666667
 41
0.0
 71
     1
 72
     1
  1
REV
  7
SLDTEXTSTYLE0
 73
     1
 44
1.0
  0
MTEXT
  5
E4
330
1F
100
AcDbEntity
  8
0
  6
Continuous
 62
     7
370
     0
100
AcDbMText
 10
236.3629907088
 20
26.9493089085
 30
0.0
 40
2.1166666667
 41
0.0
 71
     1
 72
     1
  1
MATERIAL:
  7
SLDTEXTSTYLE0
 73
     1
 44
1.0
  0
MTEXT
  5
E5
330
1F
100
AcDbEntity
  8
0
  6
Continuous
 62
     7
370
     0
100
AcDbMText
 10
252.6088982507
 20
22.2175136187
 30
0.0
 40
2.5
 41
0.0
 71
     1
 72
     1
  1
N/A
  7
SLDTEXTSTYLE0
 73
     1
 44
1.0
  0
MTEXT
  5
E6
330
1F
100
AcDbEntity
  8
0
  6
Continuous
 62
     7
370
     0
100
AcDbMText
 10
26.6029931533
 20
204.453351657
 30
0.0
 40
2.1166666667
 41
0.0
 71
     1
 72
     1
  1
1
  7
SLDTEXTSTYLE0
 73
     1
 44
1.0
  0
MTEXT
  5
E7
330
1F
100
AcDbEntity
  8
0
  6
Continuous
 62
     7
370
     0
100
AcDbMText
 10
60.7170995724
 20
204.453351657
 30
0.0
 40
2.1166666667
 41
0.0
 71
     1
 72
     1
  1
2
  7
SLDTEXTSTYLE0
 73
     1
 44
1.0
  0
MTEXT
  5
E8
330
1F
100
AcDbEntity
  8
0
  6
Continuous
 62
     7
370
     0
100
AcDbMText
 10
94.9009943906
 20
204.453351657
 30
0.0
 40
2.1166666667
 41
0.0
 71
     1
 72
     1
  1
3
  7
SLDTEXTSTYLE0
 73
     1
 44
1.0
  0
MTEXT
  5
E9
330
1F
100
AcDbEntity
  8
0
  6
Continuous
 62
     7
370
     0
100
AcDbMText
 10
129.2533362851
 20
204.2992584364
 30
0.0
 40
2.1166666667
 41
0.0
 71
     1
 72
     1
  1
4
  7
SLDTEXTSTYLE0
 73
     1
 44
1.0
  0
MTEXT
  5
EA
330
1F
100
AcDbEntity
  8
0
  6
Continuous
 62
     7
370
     0
100
AcDbMText
 10
163.702323464
 20
204.453351657
 30
0.0
 40
2.1166666667
 41
0.0
 71
     1
 72
     1
  1
5
  7
SLDTEXTSTYLE0
 73
     1
 44
1.0
  0
MTEXT
  5
EB
330
1F
100
AcDbEntity
  8
0
  6
Continuous
 62
     7
370
     0
100
AcDbMText
 10
198.6382170415
 20
204.453351657
 30
0.0
 40
2.1166666667
 41
0.0
 71
     1
 72
     1
  1
6
  7
SLDTEXTSTYLE0
 73
     1
 44
1.0
  0
MTEXT
  5
EC
330
1F
100
AcDbEntity
  8
0
  6
Continuous
 62
     7
370
     0
100
AcDbMText
 10
234.3630657407
 20
204.453351657
 30
0.0
 40
2.1166666667
 41
0.0
 71
     1
 72
     1
  1
7
  7
SLDTEXTSTYLE0
 73
     1
 44
1.0
  0
MTEXT
  5
ED
330
1F
100
AcDbEntity
  8
0
  6
Continuous
 62
     7
370
     0
100
AcDbMText
 10
266.2787820494
 20
204.453351657
 30
0.0
 40
2.1166666667
 41
0.0
 71
     1
 72
     1
  1
8
  7
SLDTEXTSTYLE0
 73
     1
 44
1.0
  0
MTEXT
  5
EE
330
1F
100
AcDbEntity
  8
0
  6
Continuous
 62
     7
370
     0
100
AcDbMText
 10
5.3568236555
 20
185.8113022879
 30
0.0
 40
2.1166666667
 41
0.0
 71
     1
 72
     1
  1
A
  7
SLDTEXTSTYLE0
 73
     1
 44
1.0
  0
MTEXT
  5
EF
330
1F
100
AcDbEntity
  8
0
  6
Continuous
 62
     7
370
     0
100
AcDbMText
 10
5.5910431831
 20
154.2993048238
 30
0.0
 40
2.1166666667
 41
0.0
 71
     1
 72
     1
  1
B
  7
SLDTEXTSTYLE0
 73
     1
 44
1.0
  0
MTEXT
  5
F0
330
1F
100
AcDbEntity
  8
0
  6
Continuous
 62
     7
370
     0
100
AcDbMText
 10
5.5910431831
 20
121.274351423
 30
0.0
 40
2.1166666667
 41
0.0
 71
     1
 72
     1
  1
C
  7
SLDTEXTSTYLE0
 73
     1
 44
1.0
  0
MTEXT
  5
F1
330
1F
100
AcDbEntity
  8
0
  6
Continuous
 62
     7
370
     0
100
AcDbMText
 10
5.5910431831
 20
88.7453220221
 30
0.0
 40
2.1166666667
 41
0.0
 71
     1
 72
     1
  1
D
  7
SLDTEXTSTYLE0
 73
     1
 44
1.0
  0
MTEXT
  5
F2
330
1F
100
AcDbEntity
  8
0
  6
Continuous
 62
     7
370
     0
100
AcDbMText
 10
5.5910431831
 20
57.5558849197
 30
0.0
 40
2.1166666667
 41
0.0
 71
     1
 72
     1
  1
E
  7
SLDTEXTSTYLE0
 73
     1
 44
1.0
  0
MTEXT
  5
F3
330
1F
100
AcDbEntity
  8
0
  6
Continuous
 62
     7
370
     0
100
AcDbMText
 10
5.5910431831
 20
25.5694212252
 30
0.0
 40
2.1166666667
 41
0.0
 71
     1
 72
     1
  1
F
  7
SLDTEXTSTYLE0
 73
     1
 44
1.0
  0
MTEXT
  5
F4
330
1F
100
AcDbEntity
  8
0
  6
Continuous
 62
     7
370
     0
100
AcDbMText
 10
266.1858616964
 20
6.6236223963
 30
0.0
 40
2.1166666667
 41
0.0
 71
     1
 72
     1
  1
8
  7
SLDTEXTSTYLE0
 73
     1
 44
1.0
  0
MTEXT
  5
F5
330
1F
100
AcDbEntity
  8
0
  6
Continuous
 62
     7
370
     0
100
AcDbMText
 10
234.2701453876
 20
6.6236223963
 30
0.0
 40
2.1166666667
 41
0.0
 71
     1
 72
     1
  1
7
  7
SLDTEXTSTYLE0
 73
     1
 44
1.0
  0
MTEXT
  5
F6
330
1F
100
AcDbEntity
  8
0
  6
Continuous
 62
     7
370
     0
100
AcDbMText
 10
198.5452966885
 20
6.6236223963
 30
0.0
 40
2.1166666667
 41
0.0
 71
     1
 72
     1
  1
6
  7
SLDTEXTSTYLE0
 73
     1
 44
1.0
  0
MTEXT
  5
F7
330
1F
100
AcDbEntity
  8
0
  6
Continuous
 62
     7
370
     0
100
AcDbMText
 10
163.6094031109
 20
6.6236223963
 30
0.0
 40
2.1166666667
 41
0.0
 71
     1
 72
     1
  1
5
  7
SLDTEXTSTYLE0
 73
     1
 44
1.0
  0
MTEXT
  5
F8
330
1F
100
AcDbEntity
  8
0
  6
Continuous
 62
     7
370
     0
100
AcDbMText
 10
129.1604159321
 20
6.4695291758
 30
0.0
 40
2.1166666667
 41
0.0
 71
     1
 72
     1
  1
4
  7
SLDTEXTSTYLE0
 73
     1
 44
1.0
  0
MTEXT
  5
F9
330
1F
100
AcDbEntity
  8
0
  6
Continuous
 62
     7
370
     0
100
AcDbMText
 10
94.8080740376
 20
6.6236223963
 30
0.0
 40
2.1166666667
 41
0.0
 71
     1
 72
     1
  1
3
  7
SLDTEXTSTYLE0
 73
     1
 44
1.0
  0
MTEXT
  5
FA
330
1F
100
AcDbEntity
  8
0
  6
Continuous
 62
     7
370
     0
100
AcDbMText
 10
60.6241792194
 20
6.6236223963
 30
0.0
 40
2.1166666667
 41
0.0
 71
     1
 72
     1
  1
2
  7
SLDTEXTSTYLE0
 73
     1
 44
1.0
  0
MTEXT
  5
FB
330
1F
100
AcDbEntity
  8
0
  6
Continuous
 62
     7
370
     0
100
AcDbMText
 10
26.5100728003
 20
6.6236223963
 30
0.0
 40
2.1166666667
 41
0.0
 71
     1
 72
     1
  1
1
  7
SLDTEXTSTYLE0
 73
     1
 44
1.0
  0
MTEXT
  5
FC
330
1F
100
AcDbEntity
  8
0
  6
Continuous
 62
     7
370
     0
100
AcDbMText
 10
287.1023846145
 20
186.6424909092
 30
0.0
 40
2.1166666667
 41
0.0
 71
     1
 72
     1
  1
A
  7
SLDTEXTSTYLE0
 73
     1
 44
1.0
  0
MTEXT
  5
FD
330
1F
100
AcDbEntity
  8
0
  6
Continuous
 62
     7
370
     0
100
AcDbMText
 10
287.3366041421
 20
155.1304934451
 30
0.0
 40
2.1166666667
 41
0.0
 71
     1
 72
     1
  1
B
  7
SLDTEXTSTYLE0
 73
     1
 44
1.0
  0
MTEXT
  5
FE
330
1F
100
AcDbEntity
  8
0
  6
Continuous
 62
     7
370
     0
100
AcDbMText
 10
287.3366041421
 20
122.1055400442
 30
0.0
 40
2.1166666667
 41
0.0
 71
     1
 72
     1
  1
C
  7
SLDTEXTSTYLE0
 73
     1
 44
1.0
  0
MTEXT
  5
FF
330
1F
100
AcDbEntity
  8
0
  6
Continuous
 62
     7
370
     0
100
AcDbMText
 10
287.3366041421
 20
89.5765106433
 30
0.0
 40
2.1166666667
 41
0.0
 71
     1
 72
     1
  1
D
  7
SLDTEXTSTYLE0
 73
     1
 44
1.0
  0
MTEXT
  5
100
330
1F
100
AcDbEntity
  8
0
  6
Continuous
 62
     7
370
     0
100
AcDbMText
 10
287.3366041421
 20
58.3870735409
 30
0.0
 40
2.1166666667
 41
0.0
 71
     1
 72
     1
  1
E
  7
SLDTEXTSTYLE0
 73
     1
 44
1.0
  0
MTEXT
  5
101
330
1F
100
AcDbEntity
  8
0
  6
Continuous
 62
     7
370
     0
100
AcDbMText
 10
287.3366041421
 20
26.4006098464
 30
0.0
 40
2.1166666667
 41
0.0
 71
     1
 72
     1
  1
F
  7
SLDTEXTSTYLE0
 73
     1
 44
1.0
  0
MTEXT
  5
102
330
1F
100
AcDbEntity
  8
0
  6
Continuous
 62
     7
370
     0
100
AcDbMText
 10
203.1553128802
 20
21.5867148511
 30
0.0
 40
1.8520833333
 41
0.0
 71
     1
 72
     1
  1
Sky
  7
SLDTEXTSTYLE0
 73
     1
 44
1.0
  0
MTEXT
  5
104
330
1F
100
AcDbEntity
  8
0
  6
Continuous
 62
     7
370
     0
100
AcDbMText
 10
252.8482239645
 20
12.2219603318
 30
0.0
 40
2.38125
 41
0.0
 71
     1
 72
     1
  1
0
  7
SLDTEXTSTYLE1
 73
     1
 44
1.0
  0
INSERT
  5
10A
330
1F
100
AcDbEntity
  8
SLD-0
 62
     7
100
AcDbBlockReference
  2
SW_NOTE_1
 10
198.7251893935
 20
33.5479745212
 30
0.0
  0
LINE
  5
10B
330
1F
100
AcDbEntity
  8
0
  6
Continuous
 62
     7
370
    30
100
AcDbLine
 10
174.1507004228
 20
109.9888321656
 30
0.0
 11
155.1722057991
 21
109.9888321656
 31
0.0
  0
LINE
  5
10C
330
1F
100
AcDbEntity
  8
0
  6
Continuous
 62
     7
370
    30
100
AcDbLine
 10
155.1722057991
 20
91.9888321656
 30
0.0
 11
174.1507004228
 21
91.9888321656
 31
0.0
  0
LINE
  5
10D
330
1F
100
AcDbEntity
  8
0
  6
Continuous
 62
     7
370
    30
100
AcDbLine
 10
174.1507004228
 20
91.9888321656
 30
0.0
 11
175.1722057991
 21
96.7388321656
 31
0.0
  0
LINE
  5
10E
330
1F
100
AcDbEntity
  8
0
  6
Continuous
 62
     7
370
    30
100
AcDbLine
 10
175.1722057991
 20
105.2388321656
 30
0.0
 11
174.1507004228
 21
109.9888321656
 31
0.0
  0
LINE
  5
10F
330
1F
100
AcDbEntity
  8
0
  6
Continuous
 62
     7
370
    30
100
AcDbLine
 10
146.2247697513
 20
100.9854575436
 30
0.0
 11
146.2247705936
 21
100.9854956889
 31
0.0
  0
LINE
  5
110
330
1F
100
AcDbEntity
  8
0
  6
Continuous
 62
     7
370
    30
100
AcDbLine
 10
155.1722057991
 20
109.5888321656
 30
0.0
 11
134.1722057991
 21
109.5888321656
 31
0.0
  0
LINE
  5
111
330
1F
100
AcDbEntity
  8
0
  6
Continuous
 62
     7
370
    30
100
AcDbLine
 10
134.1722057991
 20
92.3888321656
 30
0.0
 11
155.1722057991
 21
92.3888321656
 31
0.0
  0
LINE
  5
112
330
1F
100
AcDbEntity
  8
0
  6
Continuous
 62
     7
370
    30
100
AcDbLine
 10
146.5091048129
 20
100.985255409
 30
0.0
 11
146.5091049099
 21
100.9852783684
 31
0.0
  0
LINE
  5
113
330
1F
100
AcDbEntity
  8
0
  6
Continuous
 62
     7
370
    30
100
AcDbLine
 10
144.400576999
 20
100.9887908402
 30
0.0
 11
144.4005770211
 21
100.9887903901
 31
0.0
  0
LINE
  5
114
330
1F
100
AcDbEntity
  8
0
  6
Continuous
 62
     7
370
    30
100
AcDbLine
 10
134.1722057991
 20
109.5888321656
 30
0.0
 11
127.6722057991
 21
108.4888321656
 31
0.0
  0
LINE
  5
115
330
1F
100
AcDbEntity
  8
0
  6
Continuous
 62
     7
370
    30
100
AcDbLine
 10
127.6722057991
 20
93.4888321656
 30
0.0
 11
134.1722057991
 21
92.3888321656
 31
0.0
  0
LINE
  5
116
330
1F
100
AcDbEntity
  8
0
  6
Continuous
 62
     7
370
    30
100
AcDbLine
 10
178.6722057991
 20
105.2388321656
 30
0.0
 11
175.1722057991
 21
105.2388321656
 31
0.0
  0
LINE
  5
117
330
1F
100
AcDbEntity
  8
0
  6
Continuous
 62
     7
370
    30
100
AcDbLine
 10
175.1722057991
 20
96.7388321656
 30
0.0
 11
178.6722057991
 21
96.7388321656
 31
0.0
  0
LINE
  5
118
330
1F
100
AcDbEntity
  8
0
  6
Continuous
 62
     7
370
    30
100
AcDbLine
 10
110.1722057991
 20
104.1638321656
 30
0.0
 11
84.5969845688
 21
104.1638321656
 31
0.0
  0
LINE
  5
119
330
1F
100
AcDbEntity
  8
0
  6
Continuous
 62
     7
370
    30
100
AcDbLine
 10
84.5969845688
 20
97.8138321656
 30
0.0
 11
110.1722057991
 21
97.8138321656
 31
0.0
  0
ARC
  5
11A
330
1F
100
AcDbEntity
  8
0
  6
Continuous
 62
     7
370
    30
100
AcDbCircle
 10
87.4222057991
 20
100.9888321656
 30
0.0
 40
4.25000000000002
100
AcDbArc
 50
179.9927104829
 51
228.336242375
  0
ARC
  5
11B
330
1F
100
AcDbEntity
  8
0
  6
Continuous
 62
     7
370
    30
100
AcDbCircle
 10
87.4222057991
 20
100.9888321656
 30
0.0
 40
4.25000000000002
100
AcDbArc
 50
131.663757625
 51
179.9927104829
  0
LINE
  5
11C
330
1F
100
AcDbEntity
  8
0
  6
Continuous
 62
     7
370
    30
100
AcDbLine
 10
127.6722057991
 20
108.2888321656
 30
0.0
 11
125.1722057991
 21
108.2888321656
 31
0.0
  0
LINE
  5
11D
330
1F
100
AcDbEntity
  8
0
  6
Continuous
 62
     7
370
    30
100
AcDbLine
 10
125.1722057991
 20
93.6888321656
 30
0.0
 11
127.6722057991
 21
93.6888321656
 31
0.0
  0
LINE
  5
11E
330
1F
100
AcDbEntity
  8
0
  6
Continuous
 62
     7
370
    30
100
AcDbLine
 10
110.6722057991
 20
105.9888321656
 30
0.0
 11
110.1722057991
 21
105.4888321656
 31
0.0
  0
LINE
  5
11F
330
1F
100
AcDbEntity
  8
0
  6
Continuous
 62
     7
370
    30
100
AcDbLine
 10
110.1722057991
 20
96.4888321656
 30
0.0
 11
110.6722057991
 21
95.9888321656
 31
0.0
  0
LINE
  5
120
330
1F
100
AcDbEntity
  8
0
  6
Continuous
 62
     7
370
    30
100
AcDbLine
 10
124.1722057991
 20
105.9888321656
 30
0.0
 11
110.6722057991
 21
105.9888321656
 31
0.0
  0
LINE
  5
121
330
1F
100
AcDbEntity
  8
0
  6
Continuous
 62
     7
370
    30
100
AcDbLine
 10
110.6722057991
 20
95.9888321656
 30
0.0
 11
124.1722057991
 21
95.9888321656
 31
0.0
  0
LINE
  5
122
330
1F
100
AcDbEntity
  8
0
  6
Continuous
 62
     7
370
    30
100
AcDbLine
 10
125.1722057991
 20
105.8638321656
 30
0.0
 11
124.1722057991
 21
105.8638321656
 31
0.0
  0
LINE
  5
123
330
1F
100
AcDbEntity
  8
0
  6
Continuous
 62
     7
370
    30
100
AcDbLine
 10
124.1722057991
 20
96.1138321656
 30
0.0
 11
125.1722057991
 21
96.1138321656
 31
0.0
  0
LINE
  5
124
330
1F
100
AcDbEntity
  8
0
  6
Continuous
 62
     7
370
    30
100
AcDbLine
 10
174.1507004228
 20
109.9888321656
 30
0.0
 11
174.1507004228
 21
91.9888321656
 31
0.0
  0
LINE
  5
125
330
1F
100
AcDbEntity
  8
0
  6
Continuous
 62
     7
370
    30
100
AcDbLine
 10
155.1722057991
 20
109.9888321656
 30
0.0
 11
155.1722057991
 21
91.9888321656
 31
0.0
  0
LINE
  5
126
330
1F
100
AcDbEntity
  8
0
  6
Continuous
 62
     7
370
    30
100
AcDbLine
 10
175.1722057991
 20
105.2388321656
 30
0.0
 11
175.1722057991
 21
96.7388321656
 31
0.0
  0
SPLINE
  5
127
330
1F
100
AcDbEntity
  8
0
  6
Continuous
 62
     7
370
    30
100
AcDbSpline
210
0.0
220
0.0
230
1.0
 70
     8
 71
     3
 72
    12
 73
     8
 74
     0
 42
0.000000001
 43
0.00000001
 40
0.0
 40
0.0
 40
0.0
 40
0.0
 40
0.2500193341513191
 40
0.3743335232753409
 40
0.5003841924904899
 40
0.7502021125589475
 40
1.0
 40
1.0
 40
1.0
 40
1.0
 10
145.5346747817441
 20
100.158080950483
 30
0.0
 10
145.6323863441318
 20
100.1884801512815
 30
0.0
 10
145.7786818837847
 20
100.2339943911233
 30
0.0
 10
145.9444235018809
 20
100.3549980474108
 30
0.0
 10
146.0791163238183
 20
100.5073629698886
 30
0.0
 10
146.1996069845673
 20
100.7388003532295
 30
0.0
 10
146.2176438767461
 20
100.9422879710732
 30
0.0
 10
146.2266619612312
 20
101.0440277004688
 30
0.0
  0
LINE
  5
128
330
1F
100
AcDbEntity
  8
0
  6
Continuous
 62
     7
370
    30
100
AcDbLine
 10
146.2266619612
 20
101.0437067962
 30
0.0
 11
146.2266619612
 21
101.0440277005
 31
0.0
  0
LINE
  5
129
330
1F
100
AcDbEntity
  8
0
  6
Continuous
 62
     7
370
    30
100
AcDbLine
 10
146.2177756822
 20
100.9867241222
 30
0.0
 11
146.2266619612
 21
101.0437067962
 31
0.0
  0
LINE
  5
12A
330
1F
100
AcDbEntity
  8
0
  6
Continuous
 62
     7
370
    30
100
AcDbLine
 10
145.5346747817
 20
101.9161101101
 30
0.0
 11
145.5346747817
 21
100.1580809505
 31
0.0
  0
SPLINE
  5
12B
330
1F
100
AcDbEntity
  8
0
  6
Continuous
 62
     7
370
    30
100
AcDbSpline
210
0.0
220
0.0
230
1.0
 70
     8
 71
     3
 72
     9
 73
     5
 74
     0
 42
0.000000001
 43
0.00000001
 40
0.0
 40
0.0
 40
0.0
 40
0.0
 40
0.4991324330921323
 40
0.9999999999999999
 40
0.9999999999999999
 40
0.9999999999999999
 40
0.9999999999999999
 10
146.0091439323851
 20
101.6412572118184
 30
0.0
 10
145.9400018893875
 20
101.7037976893758
 30
0.0
 10
145.8014774449444
 20
101.82909605392
 30
0.0
 10
145.6237118185274
 20
101.8870718927729
 30
0.0
 10
145.5346747817441
 20
101.9161101101186
 30
0.0
  0
SPLINE
  5
12C
330
1F
100
AcDbEntity
  8
0
  6
Continuous
 62
     7
370
    30
100
AcDbSpline
210
0.0
220
0.0
230
1.0
 70
     8
 71
     3
 72
     9
 73
     5
 74
     0
 42
0.000000001
 43
0.00000001
 40
0.0
 40
0.0
 40
0.0
 40
0.0
 40
0.5001661762310557
 40
1.0
 40
1.0
 40
1.0
 40
1.0
 10
146.2266619612312
 20
101.0440277004688
 30
0.0
 10
146.2184355005023
 20
101.1539021499892
 30
0.0
 10
146.2019880453966
 20
101.3735780392074
 30
0.0
 10
146.0734110590963
 20
101.552050592879
 30
0.0
 10
146.0091439323851
 20
101.6412572118184
 30
0.0
  0
SPLINE
  5
12D
330
1F
100
AcDbEntity
  8
0
  6
Continuous
 62
     7
370
    30
100
AcDbSpline
210
0.0
220
0.0
230
1.0
 70
     8
 71
     3
 72
    12
 73
     8
 74
     0
 42
0.000000001
 43
0.00000001
 40
0.0
 40
0.0
 40
0.0
 40
0.0
 40
0.125187895676692
 40
0.2503139570201131
 40
0.5000988041059946
 40
0.7499486098187303
 40
1.0
 40
1.0
 40
1.0
 40
1.0
 10
146.0791058714877
 20
101.9635188313068
 30
0.0
 10
146.1124554970385
 20
101.9357845874402
 30
0.0
 10
146.1791382756861
 20
101.8803297985433
 30
0.0
 10
146.2980299666611
 20
101.7537769449167
 30
0.0
 10
146.4149178578829
 20
101.5692316199641
 30
0.0
 10
146.4989900240894
 20
101.3196331147369
 30
0.0
 10
146.5073941174949
 20
101.1456715666478
 30
0.0
 10
146.5115978586671
 20
101.0586557177259
 30
0.0
  0
LINE
  5
12E
330
1F
100
AcDbEntity
  8
0
  6
Continuous
 62
     7
370
    30
100
AcDbLine
 10
146.5115978587
 20
101.0586557177
 30
0.0
 11
146.5115978587
 21
101.0582497668
 31
0.0
  0
SPLINE
  5
12F
330
1F
100
AcDbEntity
  8
0
  6
Continuous
 62
     7
370
    30
100
AcDbSpline
210
0.0
220
0.0
230
1.0
 70
     8
 71
     3
 72
    11
 73
     7
 74
     0
 42
0.000000001
 43
0.00000001
 40
0.0
 40
0.0
 40
0.0
 40
0.0
 40
0.2504887667065465
 40
0.500442689557963
 40
0.7501859783990023
 40
1.0
 40
1.0
 40
1.0
 40
1.0
 10
146.0791058714877
 20
101.9578520483665
 30
0.0
 10
146.1447144052431
 20
101.901131792547
 30
0.0
 10
146.2757913853497
 20
101.7878123900528
 30
0.0
 10
146.414527811882
 20
101.5655454991696
 30
0.0
 10
146.4990650424712
 20
101.3178880686372
 30
0.0
 10
146.5074198589465
 20
101.1448040364801
 30
0.0
 10
146.5115978586671
 20
101.0582497668413
 30
0.0
  0
LINE
  5
130
330
1F
100
AcDbEntity
  8
0
  6
Continuous
 62
     7
370
    30
100
AcDbLine
 10
146.0791058715
 20
101.9635188313
 30
0.0
 11
146.0791058715
 21
101.9578520484
 31
0.0
  0
LINE
  5
131
330
1F
100
AcDbEntity
  8
0
  6
Continuous
 62
     7
370
    30
100
AcDbLine
 10
134.1722057991
 20
109.5888321656
 30
0.0
 11
134.1722057991
 21
92.3888321656
 31
0.0
  0
LINE
  5
132
330
1F
100
AcDbEntity
  8
0
  6
Continuous
 62
     7
370
    30
100
AcDbLine
 10
147.3257004228
 20
109.0339171188
 30
0.0
 11
147.3257004228
 21
108.9288259392
 31
0.0
  0
LINE
  5
133
330
1F
100
AcDbEntity
  8
0
  6
Continuous
 62
     7
370
    30
100
AcDbLine
 10
145.4081072737
 20
109.0339171188
 30
0.0
 11
147.3257004228
 21
109.0339171188
 31
0.0
  0
SPLINE
  5
134
330
1F
100
AcDbEntity
  8
0
  6
Continuous
 62
     7
370
    30
100
AcDbSpline
210
0.0
220
0.0
230
1.0
 70
     8
 71
     3
 72
     9
 73
     5
 74
     0
 42
0.000000001
 43
0.00000001
 40
0.0
 40
0.0
 40
0.0
 40
0.0
 40
0.4896786900762302
 40
1.0
 40
1.0
 40
1.0
 40
1.0
 10
144.7390167288594
 20
109.0137389884878
 30
0.0
 10
144.8474147374719
 20
109.0204313114303
 30
0.0
 10
145.06878032027
 20
109.0340980751228
 30
0.0
 10
145.293452349481
 20
109.0339782619692
 30
0.0
 10
145.4081072737312
 20
109.0339171187637
 30
0.0
  0
SPLINE
  5
135
330
1F
100
AcDbEntity
  8
0
  6
Continuous
 62
     7
370
    30
100
AcDbSpline
210
0.0
220
0.0
230
1.0
 70
     8
 71
     3
 72
    11
 73
     7
 74
     0
 42
0.000000001
 43
0.00000001
 40
0.0
 40
0.0
 40
0.0
 40
0.0
 40
0.2504306482802715
 40
0.5004375762315731
 40
0.750241308985696
 40
1.0
 40
1.0
 40
1.0
 40
1.0
 10
144.0692901663594
 20
108.6044481534978
 30
0.0
 10
144.075831471815
 20
108.6533880545815
 30
0.0
 10
144.0889030150548
 20
108.7511850520638
 30
0.0
 10
144.2222323400747
 20
108.8739894510062
 30
0.0
 10
144.4387256497246
 20
108.9695822242883
 30
0.0
 10
144.6389257193197
 20
108.9990209518432
 30
0.0
 10
144.7390167288594
 20
109.0137389884878
 30
0.0
  0
SPLINE
  5
136
330
1F
100
AcDbEntity
  8
0
  6
Continuous
 62
     7
370
    30
100
AcDbSpline
210
0.0
220
0.0
230
1.0
 70
     8
 71
     3
 72
    14
 73
    10
 74
     0
 42
0.000000001
 43
0.00000001
 40
0.0
 40
0.0
 40
0.0
 40
0.0
 40
0.2502654571895483
 40
0.3753833322106924
 40
0.5002491132958464
 40
0.6252245425457317
 40
0.7501513982184373
 40
0.875004662204737
 40
1.0
 40
1.0
 40
1.0
 40
1.0
 10
145.4081072737312
 20
108.0971264558612
 30
0.0
 10
145.2505208716948
 20
108.0997633944148
 30
0.0
 10
145.0141506215939
 20
108.1037186457395
 30
0.0
 10
144.7044413697858
 20
108.1395338629351
 30
0.0
 10
144.4886975038671
 20
108.1961863461204
 30
0.0
 10
144.3102436370506
 20
108.2810900993031
 30
0.0
 10
144.1679138517331
 20
108.3802674419105
 30
0.0
 10
144.0826372169733
 20
108.4929748388692
 30
0.0
 10
144.0737408695025
 20
108.5672762983709
 30
0.0
 10
144.0692901663594
 20
108.6044481534978
 30
0.0
  0
LINE
  5
137
330
1F
100
AcDbEntity
  8
0
  6
Continuous
 62
     7
370
    30
100
AcDbLine
 10
147.3257004228
 20
108.0971264559
 30
0.0
 11
145.4081072737
 21
108.0971264559
 31
0.0
  0
LINE
  5
138
330
1F
100
AcDbEntity
  8
0
  6
Continuous
 62
     7
370
    30
100
AcDbLine
 10
147.3257004228
 20
108.2535776583
 30
0.0
 11
147.3257004228
 21
108.0971264559
 31
0.0
  0
LINE
  5
139
330
1F
100
AcDbEntity
  8
0
  6
Continuous
 62
     7
370
    30
100
AcDbLine
 10
145.4233716968
 20
108.2535776583
 30
0.0
 11
147.3257004228
 21
108.2535776583
 31
0.0
  0
LINE
  5
13A
330
1F
100
AcDbEntity
  8
0
  6
Continuous
 62
     7
370
    30
100
AcDbLine
 10
144.9304580349
 20
108.270885533
 30
0.0
 11
145.4233716968
 21
108.2535776583
 31
0.0
  0
SPLINE
  5
13B
330
1F
100
AcDbEntity
  8
0
  6
Continuous
 62
     7
370
    30
100
AcDbSpline
210
0.0
220
0.0
230
1.0
 70
     8
 71
     3
 72
    11
 73
     7
 74
     0
 42
0.000000001
 43
0.00000001
 40
0.0
 40
0.0
 40
0.0
 40
0.0
 40
0.2499982028559019
 40
0.4999447842352888
 40
0.7498010159290741
 40
1.0
 40
1.0
 40
1.0
 40
1.0
 10
144.3949311920004
 20
108.6118219900643
 30
0.0
 10
144.4025575861407
 20
108.5750823416485
 30
0.0
 10
144.4178087996672
 20
108.501610631091
 30
0.0
 10
144.5325648190813
 20
108.396639720752
 30
0.0
 10
144.7078568742216
 20
108.3121235604201
 30
0.0
 10
144.8562237497172
 20
108.284637821961
 30
0.0
 10
144.9304580349491
 20
108.2708855329696
 30
0.0
  0
SPLINE
  5
13C
330
1F
100
AcDbEntity
  8
0
  6
Continuous
 62
     7
370
    30
100
AcDbSpline
210
0.0
220
0.0
230
1.0
 70
     8
 71
     3
 72
    12
 73
     8
 74
     0
 42
0.000000001
 43
0.00000001
 40
0.0
 40
0.0
 40
0.0
 40
0.0
 40
0.2497068776670043
 40
0.3736041887613087
 40
0.5000118599150318
 40
0.7516319720863186
 40
1.0
 40
1.0
 40
1.0
 40
1.0
 10
145.0010559916799
 20
108.9239302550686
 30
0.0
 10
144.9147937936821
 20
108.9171914351923
 30
0.0
 10
144.7857307946776
 20
108.907109008322
 30
0.0
 10
144.6390136978642
 20
108.8679754444382
 30
0.0
 10
144.5240862722372
 20
108.8141291201515
 30
0.0
 10
144.4221243701701
 20
108.7304798442267
 30
0.0
 10
144.4039561941632
 20
108.6512027267978
 30
0.0
 10
144.3949311920004
 20
108.6118219900643
 30
0.0
  0
SPLINE
  5
13D
330
1F
100
AcDbEntity
  8
0
  6
Continuous
 62
     7
370
    30
100
AcDbSpline
210
0.0
220
0.0
230
1.0
 70
     8
 71
     3
 72
     9
 73
     5
 74
     0
 42
0.000000001
 43
0.00000001
 40
0.0
 40
0.0
 40
0.0
 40
0.0
 40
0.6365762138126239
 40
1.0
 40
1.0
 40
1.0
 40
1.0
 10
145.4233716968081
 20
108.9288259392318
 30
0.0
 10
145.3336393070651
 20
108.9290286136556
 30
0.0
 10
145.1926783540859
 20
108.9293469956803
 30
0.0
 10
145.0521333787471
 20
108.9253740998965
 30
0.0
 10
145.0010559916799
 20
108.9239302550686
 30
0.0
  0
LINE
  5
13E
330
1F
100
AcDbEntity
  8
0
  6
Continuous
 62
     7
370
    30
100
AcDbLine
 10
147.3257004228
 20
108.9288259392
 30
0.0
 11
145.4233716968
 21
108.9288259392
 31
0.0
  0
LINE
  5
13F
330
1F
100
AcDbEntity
  8
0
  6
Continuous
 62
     7
370
    30
100
AcDbLine
 10
146.4708927305
 20
107.659432962
 30
0.0
 11
146.4708927305
 21
107.4759642886
 31
0.0
  0
LINE
  5
140
330
1F
100
AcDbEntity
  8
0
  6
Continuous
 62
     7
370
    30
100
AcDbLine
 10
144.1507004228
 20
107.659432962
 30
0.0
 11
146.4708927305
 21
107.659432962
 31
0.0
  0
LINE
  5
141
330
1F
100
AcDbEntity
  8
0
  6
Continuous
 62
     7
370
    30
100
AcDbLine
 10
144.1507004228
 20
107.659432962
 30
0.0
 11
144.1507004228
 21
107.4759642886
 31
0.0
  0
LINE
  5
142
330
1F
100
AcDbEntity
  8
0
  6
Continuous
 62
     7
370
    30
100
AcDbLine
 10
144.9896076744
 20
107.4759642886
 30
0.0
 11
144.1507004228
 21
107.4759642886
 31
0.0
  0
LINE
  5
143
330
1F
100
AcDbEntity
  8
0
  6
Continuous
 62
     7
370
    30
100
AcDbLine
 10
145.6122689324
 20
107.4470688868
 30
0.0
 11
144.9896076744
 21
107.4759642886
 31
0.0
  0
SPLINE
  5
144
330
1F
100
AcDbEntity
  8
0
  6
Continuous
 62
     7
370
    30
100
AcDbSpline
210
0.0
220
0.0
230
1.0
 70
     8
 71
     3
 72
    11
 73
     7
 74
     0
 42
0.000000001
 43
0.00000001
 40
0.0
 40
0.0
 40
0.0
 40
0.0
 40
0.2498824963084877
 40
0.4998557392403399
 40
0.7500036827190945
 40
1.0
 40
1.0
 40
1.0
 40
1.0
 10
146.2266619612312
 20
106.8994063457725
 30
0.0
 10
146.2185939524416
 20
106.9640910424202
 30
0.0
 10
146.2024550049071
 20
107.0934839264279
 30
0.0
 10
146.0605856981427
 20
107.2557795122839
 30
0.0
 10
145.8658268775958
 20
107.385002974489
 30
0.0
 10
145.6967711635343
 20
107.4263844311852
 30
0.0
 10
145.612268932385
 20
107.4470688868301
 30
0.0
  0
SPLINE
  5
145
330
1F
100
AcDbEntity
  8
0
  6
Continuous
 62
     7
370
    30
100
AcDbSpline
210
0.0
220
0.0
230
1.0
 70
     8
 71
     3
 72
    13
 73
     9
 74
     0
 42
0.000000001
 43
0.00000001
 40
0.0
 40
0.0
 40
0.0
 40
0.0
 40
0.1253187799524975
 40
0.2505074758412654
 40
0.3775785020344015
 40
0.5007845545470265
 40
0.7499620183510513
 40
1.0
 40
1.0
 40
1.0
 40
1.0
 10
145.7700013041799
 20
106.4507074812767
 30
0.0
 10
145.8032482914871
 20
106.457547511924
 30
0.0
 10
145.8697077548875
 20
106.4712204730937
 30
0.0
 10
145.9640919852385
 20
106.5050750467669
 30
0.0
 10
146.0485281135684
 20
106.5510605534831
 30
0.0
 10
146.1419036456184
 20
106.6280464281019
 30
0.0
 10
146.2153709111611
 20
106.7486279702814
 30
0.0
 10
146.2228939552827
 20
106.8490891642683
 30
0.0
 10
146.2266619612312
 20
106.8994063457725
 30
0.0
  0
SPLINE
  5
146
330
1F
100
AcDbEntity
  8
0
  6
Continuous
 62
     7
370
    30
100
AcDbSpline
210
0.0
220
0.0
230
1.0
 70
     8
 71
     3
 72
     9
 73
     5
 74
     0
 42
0.000000001
 43
0.00000001
 40
0.0
 40
0.0
 40
0.0
 40
0.0
 40
0.5003064839534147
 40
1.0
 40
1.0
 40
1.0
 40
1.0
 10
145.2421066727697
 20
106.4246278507031
 30
0.0
 10
145.3305322948055
 20
106.4242655326256
 30
0.0
 10
145.5072752011479
 20
106.4235413403773
 30
0.0
 10
145.6824617310761
 20
106.4416558021715
 30
0.0
 10
145.7700013041799
 20
106.4507074812767
 30
0.0
  0
LINE
  5
147
330
1F
100
AcDbEntity
  8
0
  6
Continuous
 62
     7
370
    30
100
AcDbLine
 10
144.1507004228
 20
106.4246278507
 30
0.0
 11
145.2421066728
 21
106.4246278507
 31
0.0
  0
LINE
  5
148
330
1F
100
AcDbEntity
  8
0
  6
Continuous
 62
     7
370
    30
100
AcDbLine
 10
144.1507004228
 20
106.4246278507
 30
0.0
 11
144.1507004228
 21
106.2008847711
 31
0.0
  0
LINE
  5
149
330
1F
100
AcDbEntity
  8
0
  6
Continuous
 62
     7
370
    30
100
AcDbLine
 10
145.3356012641
 20
106.2008847711
 30
0.0
 11
144.1507004228
 21
106.2008847711
 31
0.0
  0
SPLINE
  5
14A
330
1F
100
AcDbEntity
  8
0
  6
Continuous
 62
     7
370
    30
100
AcDbSpline
210
0.0
220
0.0
230
1.0
 70
     8
 71
     3
 72
    14
 73
    10
 74
     0
 42
0.000000001
 43
0.00000001
 40
0.0
 40
0.0
 40
0.0
 40
0.0
 40
0.1249698545254697
 40
0.2500169049854593
 40
0.376055729187766
 40
0.4997230104158701
 40
0.6246101612686746
 40
0.7497231575069839
 40
0.9999999999999999
 40
0.9999999999999999
 40
0.9999999999999999
 40
0.9999999999999999
 10
146.5115978586671
 20
106.8632721386708
 30
0.0
 10
146.5078850608355
 20
106.8121171981316
 30
0.0
 10
146.5004571717159
 20
106.7097757178053
 30
0.0
 10
146.4257066027402
 20
106.5599663756664
 30
0.0
 10
146.3073446341123
 20
106.4267396872887
 30
0.0
 10
146.1471343144284
 20
106.320186354128
 30
0.0
 10
145.9570901204202
 20
106.2501253308318
 30
0.0
 10
145.6832408063609
 20
106.2070586606264
 30
0.0
 10
145.4746627317787
 20
106.2033544272748
 30
0.0
 10
145.3356012641158
 20
106.2008847711162
 30
0.0
  0
SPLINE
  5
14B
330
1F
100
AcDbEntity
  8
0
  6
Continuous
 62
     7
370
    30
100
AcDbSpline
210
0.0
220
0.0
230
1.0
 70
     8
 71
     3
 72
    11
 73
     7
 74
     0
 42
0.000000001
 43
0.00000001
 40
0.0
 40
0.0
 40
0.0
 40
0.0
 40
0.2502298008222138
 40
0.5001010818605558
 40
0.7499844207790932
 40
1.0
 40
1.0
 40
1.0
 40
1.0
 10
146.052393131103
 20
107.475964288609
 30
0.0
 10
146.1191371712495
 20
107.439674003931
 30
0.0
 10
146.2525296232089
 20
107.3671454299208
 30
0.0
 10
146.4021426467543
 20
107.2214886056215
 30
0.0
 10
146.4956243615543
 20
107.0508265124968
 30
0.0
 10
146.5062724207046
 20
106.9258012877572
 30
0.0
 10
146.5115978586671
 20
106.8632721386708
 30
0.0
  0
LINE
  5
14C
330
1F
100
AcDbEntity
  8
0
  6
Continuous
 62
     7
370
    30
100
AcDbLine
 10
146.4708927305
 20
107.4759642886
 30
0.0
 11
146.0523931311
 21
107.4759642886
 31
0.0
  0
SPLINE
  5
14D
330
1F
100
AcDbEntity
  8
0
  6
Continuous
 62
     7
370
    30
100
AcDbSpline
210
0.0
220
0.0
230
1.0
 70
     8
 71
     3
 72
    13
 73
     9
 74
     0
 42
0.000000001
 43
0.00000001
 40
0.0
 40
0.0
 40
0.0
 40
0.0
 40
0.1254585529564003
 40
0.2507518492609438
 40
0.5003872894255531
 40
0.628888717394631
 40
0.7508529200242231
 40
1.0
 40
1.0
 40
1.0
 40
1.0
 10
147.4478158073851
 20
105.583766314484
 30
0.0
 10
147.4470505490561
 20
105.5695760887489
 30
0.0
 10
147.4455210404128
 20
105.5412143289434
 30
0.0
 10
147.4286189572542
 20
105.4858117615282
 30
0.0
 10
147.3919458340863
 20
105.4358217121103
 30
0.0
 10
147.3434208683977
 20
105.3963270247489
 30
0.0
 10
147.2860131953447
 20
105.3653506702417
 30
0.0
 10
147.2359339257255
 20
105.3602823073909
 30
0.0
 10
147.2023130028979
 20
105.3568796412265
 30
0.0
  0
SPLINE
  5
14E
330
1F
100
AcDbEntity
  8
0
  6
Continuous
 62
     7
370
    30
100
AcDbSpline
210
0.0
220
0.0
230
1.0
 70
     8
 71
     3
 72
    13
 73
     9
 74
     0
 42
0.000000001
 43
0.00000001
 40
0.0
 40
0.0
 40
0.0
 40
0.0
 40
0.1253391219460551
 40
0.250502964298701
 40
0.3736947096990628
 40
0.5009167439044339
 40
0.750444024022931
 40
1.0
 40
1.0
 40
1.0
 40
1.0
 10
147.2023130028979
 20
105.8041545697592
 30
0.0
 10
147.2189985572546
 20
105.8033342780048
 30
0.0
 10
147.2523463321745
 20
105.8016948416272
 30
0.0
 10
147.2998150074802
 20
105.7880963780266
 30
0.0
 10
147.3429719957856
 20
105.766703269837
 30
0.0
 10
147.3914906753786
 20
105.7287493003692
 30
0.0
 10
147.4385806204007
 20
105.6683409469517
 30
0.0
 10
147.4447372937266
 20
105.6119589392413
 30
0.0
 10
147.4478158073851
 20
105.583766314484
 30
0.0
  0
SPLINE
  5
14F
330
1F
100
AcDbEntity
  8
0
  6
Continuous
 62
     7
370
    30
100
AcDbSpline
210
0.0
220
0.0
230
1.0
 70
     8
 71
     3
 72
    12
 73
     8
 74
     0
 42
0.000000001
 43
0.00000001
 40
0.0
 40
0.0
 40
0.0
 40
0.0
 40
0.1255976294695668
 40
0.251032624150941
 40
0.5010054477531136
 40
0.7506350573263375
 40
1.0
 40
1.0
 40
1.0
 40
1.0
 10
146.9593542689235
 20
105.583766314484
 30
0.0
 10
146.9600844228214
 20
105.597762840596
 30
0.0
 10
146.9615437851502
 20
105.6257377688948
 30
0.0
 10
146.9790855562577
 20
105.6797797669638
 30
0.0
 10
147.023208542325
 20
105.7391731673665
 30
0.0
 10
147.1027079971767
 20
105.7935340642013
 30
0.0
 10
147.1691230765186
 20
105.8006156532657
 30
0.0
 10
147.2023130028979
 20
105.8041545697592
 30
0.0
  0
SPLINE
  5
150
330
1F
100
AcDbEntity
  8
0
  6
Continuous
 62
     7
370
    30
100
AcDbSpline
210
0.0
220
0.0
230
1.0
 70
     8
 71
     3
 72
    13
 73
     9
 74
     0
 42
0.000000001
 43
0.00000001
 40
0.0
 40
0.0
 40
0.0
 40
0.0
 40
0.1253195859664344
 40
0.2504681748771607
 40
0.3720757009964892
 40
0.5008391159823613
 40
0.7503288696171131
 40
0.9999999999999999
 40
0.9999999999999999
 40
0.9999999999999999
 40
0.9999999999999999
 10
147.2023130028979
 20
105.3568796412265
 30
0.0
 10
147.1856352342328
 20
105.3577883368475
 30
0.0
 10
147.1523024535159
 20
105.3596044881855
 30
0.0
 10
147.1052069089395
 20
105.3741501673178
 30
0.0
 10
147.0625364827201
 20
105.3969468383886
 30
0.0
 10
147.0147859436947
 20
105.4366666830041
 30
0.0
 10
146.9678587031497
 20
105.4987201226651
 30
0.0
 10
146.96218976696
 20
105.5554107174504
 30
0.0
 10
146.9593542689235
 20
105.583766314484
 30
0.0
  0
LINE
  5
151
330
1F
100
AcDbEntity
  8
0
  6
Continuous
 62
     7
370
    30
100
AcDbLine
 10
146.4708927305
 20
105.7024943377
 30
0.0
 11
146.4708927305
 21
105.4616270115
 31
0.0
  0
LINE
  5
152
330
1F
100
AcDbEntity
  8
0
  6
Continuous
 62
     7
370
    30
100
AcDbLine
 10
144.1507004228
 20
105.7024943377
 30
0.0
 11
146.4708927305
 21
105.7024943377
 31
0.0
  0
LINE
  5
153
330
1F
100
AcDbEntity
  8
0
  6
Continuous
 62
     7
370
    30
100
AcDbLine
 10
144.1507004228
 20
105.7024943377
 30
0.0
 11
144.1507004228
 21
105.4616270115
 31
0.0
  0
LINE
  5
154
330
1F
100
AcDbEntity
  8
0
  6
Continuous
 62
     7
370
    30
100
AcDbLine
 10
146.4708927305
 20
105.4616270115
 30
0.0
 11
144.1507004228
 21
105.4616270115
 31
0.0
  0
LINE
  5
155
330
1F
100
AcDbEntity
  8
0
  6
Continuous
 62
     7
370
    30
100
AcDbLine
 10
145.9678027866
 20
102.7095143728
 30
0.0
 11
145.8196106792
 21
102.9425066757
 31
0.0
  0
SPLINE
  5
156
330
1F
100
AcDbEntity
  8
0
  6
Continuous
 62
     7
370
    30
100
AcDbSpline
210
0.0
220
0.0
230
1.0
 70
     8
 71
     3
 72
    11
 73
     7
 74
     0
 42
0.000000001
 43
0.00000001
 40
0.0
 40
0.0
 40
0.0
 40
0.0
 40
0.2502324713346171
 40
0.5004723371637239
 40
0.7502867040613309
 40
1.0
 40
1.0
 40
1.0
 40
1.0
 10
146.5115978586671
 20
103.7344364849583
 30
0.0
 10
146.5052514298667
 20
103.6353510614096
 30
0.0
 10
146.4925583847256
 20
103.4371772862884
 30
0.0
 10
146.3878558545328
 20
103.1517314948019
 30
0.0
 10
146.2248047858448
 20
102.8865654372023
 30
0.0
 10
146.0534585633145
 20
102.7685234330187
 30
0.0
 10
145.9678027865518
 20
102.7095143728267
 30
0.0
  0
SPLINE
  5
157
330
1F
100
AcDbEntity
  8
0
  6
Continuous
 62
     7
370
    30
100
AcDbSpline
210
0.0
220
0.0
230
1.0
 70
     8
 71
     3
 72
    14
 73
    10
 74
     0
 42
0.000000001
 43
0.00000001
 40
0.0
 40
0.0
 40
0.0
 40
0.0
 40
0.1250716595813564
 40
0.2500688213695787
 40
0.3759532206566657
 40
0.5003047173934375
 40
0.6255024720093455
 40
0.7506352674499317
 40
1.0
 40
1.0
 40
1.0
 40
1.0
 10
145.2917160477697
 20
104.9292970737778
 30
0.0
 10
145.3746030263868
 20
104.9253543941952
 30
0.0
 10
145.5403276127483
 20
104.917471383451
 30
0.0
 10
145.7784848142551
 20
104.8459537754123
 30
0.0
 10
145.9956289135607
 20
104.7362311972531
 30
0.0
 10
146.1835426413307
 20
104.586708376715
 30
0.0
 10
146.3302493010109
 20
104.4031421219138
 30
0.0
 10
146.4768769310507
 20
104.1264899673365
 30
0.0
 10
146.4977195150381
 20
103.8911446527097
 30
0.0
 10
146.5115978586671
 20
103.7344364849583
 30
0.0
  0
SPLINE
  5
158
330
1F
100
AcDbEntity
  8
0
  6
Continuous
 62
     7
370
    30
100
AcDbSpline
210
0.0
220
0.0
230
1.0
 70
     8
 71
     3
 72
    13
 73
     9
 74
     0
 42
0.000000001
 43
0.00000001
 40
0.0
 40
0.0
 40
0.0
 40
0.0
 40
0.2497847366209675
 40
0.3744674679924722
 40
0.5003452520172366
 40
0.6250935565557769
 40
0.7508945853258724
 40
1.0
 40
1.0
 40
1.0
 40
1.0
 10
144.1099952945646
 20
103.7567273290896
 30
0.0
 10
144.1226326384298
 20
103.9095938120863
 30
0.0
 10
144.1415780480789
 20
104.1387652402651
 30
0.0
 10
144.2821498052689
 20
104.4098977249714
 30
0.0
 10
144.4273010768129
 20
104.5879235734718
 30
0.0
 10
144.6068538699577
 20
104.7364154811562
 30
0.0
 10
144.8848490336256
 20
104.8906040743702
 30
0.0
 10
145.12929481337
 20
104.9138508357985
 30
0.0
 10
145.2917160477697
 20
104.9292970737778
 30
0.0
  0
SPLINE
  5
159
330
1F
100
AcDbEntity
  8
0
  6
Continuous
 62
     7
370
    30
100
AcDbSpline
210
0.0
220
0.0
230
1.0
 70
     8
 71
     3
 72
    11
 73
     7
 74
     0
 42
0.000000001
 43
0.00000001
 40
0.0
 40
0.0
 40
0.0
 40
0.0
 40
0.249815155174357
 40
0.4997379591708757
 40
0.7497554827813767
 40
1.0
 40
1.0
 40
1.0
 40
1.0
 10
144.6455221375133
 20
102.7095143728267
 30
0.0
 10
144.5620463298137
 20
102.7730027803856
 30
0.0
 10
144.3950587435288
 20
102.9000069535405
 30
0.0
 10
144.2271814542582
 20
103.1653197447208
 30
0.0
 10
144.1252545899573
 20
103.4561561684575
 30
0.0
 10
144.1150832647731
 20
103.6565066392427
 30
0.0
 10
144.1099952945646
 20
103.7567273290896
 30
0.0
  0
LINE
  5
15A
330
1F
100
AcDbEntity
  8
0
  6
Continuous
 62
     7
370
    30
100
AcDbLine
 10
144.8019824741
 20
102.9425066757
 30
0.0
 11
144.6455221375
 21
102.7095143728
 31
0.0
  0
SPLINE
  5
15B
330
1F
100
AcDbEntity
  8
0
  6
Continuous
 62
     7
370
    30
100
AcDbSpline
210
0.0
220
0.0
230
1.0
 70
     8
 71
     3
 72
    12
 73
     8
 74
     0
 42
0.000000001
 43
0.00000001
 40
0.0
 40
0.0
 40
0.0
 40
0.0
 40
0.125196005895849
 40
0.2503371137440882
 40
0.5001741257503195
 40
0.7499903408821162
 40
1.0
 40
1.0
 40
1.0
 40
1.0
 10
144.3949311920005
 20
103.7525117268613
 30
0.0
 10
144.3960504018135
 20
103.714153462241
 30
0.0
 10
144.3982883306696
 20
103.6374537529765
 30
0.0
 10
144.4231901182461
 20
103.4848306389141
 30
0.0
 10
144.4882689967532
 20
103.2996872594534
 30
0.0
 10
144.6208390823082
 20
103.1000645356885
 30
0.0
 10
144.7415857662326
 20
102.995039511381
 30
0.0
 10
144.8019824740518
 20
102.9425066756902
 30
0.0
  0
SPLINE
  5
15C
330
1F
100
AcDbEntity
  8
0
  6
Continuous
 62
     7
370
    30
100
AcDbSpline
210
0.0
220
0.0
230
1.0
 70
     8
 71
     3
 72
    13
 73
     9
 74
     0
 42
0.000000001
 43
0.00000001
 40
0.0
 40
0.0
 40
0.0
 40
0.0
 40
0.2486610267263354
 40
0.3748641208920597
 40
0.499678437033633
 40
0.6237951399258189
 40
0.7502256786009065
 40
0.9999999999999999
 40
0.9999999999999999
 40
0.9999999999999999
 40
0.9999999999999999
 10
145.3171567528979
 20
104.6739148499011
 30
0.0
 10
145.1912284659472
 20
104.6601249372002
 30
0.0
 10
145.0013877128357
 20
104.6393362210517
 30
0.0
 10
144.7827336062135
 20
104.5210081834043
 30
0.0
 10
144.6407963445644
 20
104.4061592394721
 30
0.0
 10
144.5299420427037
 20
104.2643299528026
 30
0.0
 10
144.4208553028316
 20
104.0514923227653
 30
0.0
 10
144.4052752695391
 20
103.8718091055339
 30
0.0
 10
144.3949311920005
 20
103.7525117268613
 30
0.0
  0
SPLINE
  5
15D
330
1F
100
AcDbEntity
  8
0
  6
Continuous
 62
     7
370
    30
100
AcDbSpline
210
0.0
220
0.0
230
1.0
 70
     8
 71
     3
 72
    14
 73
    10
 74
     0
 42
0.000000001
 43
0.00000001
 40
0.0
 40
0.0
 40
0.0
 40
0.0
 40
0.2494953450786475
 40
0.3745959285995273
 40
0.4997060529979673
 40
0.6248290204651218
 40
0.7498687678745077
 40
0.8748864702349245
 40
1.0
 40
1.0
 40
1.0
 40
1.0
 10
146.2266619612312
 20
103.7543185042909
 30
0.0
 10
146.217105332141
 20
103.8728737620413
 30
0.0
 10
146.202756870661
 20
104.0508743449916
 30
0.0
 10
146.0943189022477
 20
104.2623560158856
 30
0.0
 10
145.9838135130048
 20
104.4027944939789
 30
0.0
 10
145.8457227091883
 20
104.5204572978816
 30
0.0
 10
145.684945724124
 20
104.6101057733667
 30
0.0
 10
145.5049552578331
 20
104.6646344075754
 30
0.0
 10
145.3797722407695
 20
104.6708205791342
 30
0.0
 10
145.3171567528979
 20
104.6739148499011
 30
0.0
  0
SPLINE
  5
15E
330
1F
100
AcDbEntity
  8
0
  6
Continuous
 62
     7
370
    30
100
AcDbSpline
210
0.0
220
0.0
230
1.0
 70
     8
 71
     3
 72
    12
 73
     8
 74
     0
 42
0.000000001
 43
0.00000001
 40
0.0
 40
0.0
 40
0.0
 40
0.0
 40
0.1251990186331934
 40
0.2503412287105506
 40
0.5001113717669909
 40
0.7499496931164991
 40
0.9999999999999999
 40
0.9999999999999999
 40
0.9999999999999999
 40
0.9999999999999999
 10
145.81961067918
 20
102.9425066756902
 30
0.0
 10
145.8512786194343
 20
102.9673059521954
 30
0.0
 10
145.9146001307413
 20
103.0168932526329
 30
0.0
 10
146.0255495100768
 20
103.1323360511508
 30
0.0
 10
146.1371339707972
 20
103.2980856974467
 30
0.0
 10
146.2143528950903
 20
103.5229384466502
 30
0.0
 10
146.2225577793814
 20
103.67717001698
 30
0.0
 10
146.2266619612312
 20
103.7543185042909
 30
0.0
  0
LINE
  5
15F
330
1F
100
AcDbEntity
  8
0
  6
Continuous
 62
     7
370
    30
100
AcDbLine
 10
144.8833927305
 20
100.2480172445
 30
0.0
 11
144.7504650462
 21
99.9961804526
 31
0.0
  0
SPLINE
  5
160
330
1F
100
AcDbEntity
  8
0
  6
Continuous
 62
     7
370
    30
100
AcDbSpline
210
0.0
220
0.0
230
1.0
 70
     8
 71
     3
 72
    11
 73
     7
 74
     0
 42
0.000000001
 43
0.00000001
 40
0.0
 40
0.0
 40
0.0
 40
0.0
 40
0.2495648371536478
 40
0.5000801423849847
 40
0.7495323266983067
 40
1.0
 40
1.0
 40
1.0
 40
1.0
 10
144.3949311920005
 20
101.1012664627659
 30
0.0
 10
144.4012659743679
 20
101.0154800702607
 30
0.0
 10
144.4139596651313
 20
100.8435805676386
 30
0.0
 10
144.5081616037249
 20
100.5996226059023
 30
0.0
 10
144.6699609744017
 20
100.3937634616458
 30
0.0
 10
144.8121525337015
 20
100.2966650623477
 30
0.0
 10
144.883392730462
 20
100.2480172445364
 30
0.0
  0
SPLINE
  5
161
330
1F
100
AcDbEntity
  8
0
  6
Continuous
 62
     7
370
    30
100
AcDbSpline
210
0.0
220
0.0
230
1.0
 70
     8
 71
     3
 72
    13
 73
     9
 74
     0
 42
0.000000001
 43
0.00000001
 40
0.0
 40
0.0
 40
0.0
 40
0.0
 40
0.2496078234343629
 40
0.374840678335399
 40
0.500104283554576
 40
0.6270421650868868
 40
0.7506055388493479
 40
1.0
 40
1.0
 40
1.0
 40
1.0
 10
145.2497388843082
 20
101.9458230050819
 30
0.0
 10
145.1377215080644
 20
101.934301405563
 30
0.0
 10
144.9695029453653
 20
101.9169992067787
 30
0.0
 10
144.7688396166025
 20
101.8141284199631
 30
0.0
 10
144.6374367438367
 20
101.7079617704925
 30
0.0
 10
144.5291537301609
 20
101.5794659277881
 30
0.0
 10
144.4207121324679
 20
101.3816126639312
 30
0.0
 10
144.4052623561924
 20
101.213609247098
 30
0.0
 10
144.3949311920005
 20
101.1012664627659
 30
0.0
  0
LINE
  5
162
330
1F
100
AcDbEntity
  8
0
  6
Continuous
 62
     7
370
    30
100
AcDbLine
 10
145.2497388843
 20
101.9458230051
 30
0.0
 11
145.2497388843
 21
99.8749854036
 31
0.0
  0
SPLINE
  5
163
330
1F
100
AcDbEntity
  8
0
  6
Continuous
 62
     7
370
    30
100
AcDbSpline
210
0.0
220
0.0
230
1.0
 70
     8
 71
     3
 72
     9
 73
     5
 74
     0
 42
0.000000001
 43
0.00000001
 40
0.0
 40
0.0
 40
0.0
 40
0.0
 40
0.4993867952804607
 40
1.0
 40
1.0
 40
1.0
 40
1.0
 10
146.0549372016159
 20
100.1258017320482
 30
0.0
 10
145.9313417425295
 20
100.0509635048096
 30
0.0
 10
145.68384729483
 20
99.90110326031392
 30
0.0
 10
145.3945599493925
 20
99.88369847097248
 30
0.0
 10
145.2497388843082
 20
99.8749854036028
 30
0.0
  0
SPLINE
  5
164
330
1F
100
AcDbEntity
  8
0
  6
Continuous
 62
     7
370
    30
100
AcDbSpline
210
0.0
220
0.0
230
1.0
 70
     8
 71
     3
 72
    12
 73
     8
 74
     0
 42
0.000000001
 43
0.00000001
 40
0.0
 40
0.0
 40
0.0
 40
0.0
 40
0.125211961457487
 40
0.2503701830504173
 40
0.5002111660921652
 40
0.7499909910701859
 40
1.0
 40
1.0
 40
1.0
 40
1.0
 10
146.5115978586671
 20
101.0586557177259
 30
0.0
 10
146.5104573667104
 20
101.013603898199
 30
0.0
 10
146.508176872286
 20
100.9235195949871
 30
0.0
 10
146.480620336515
 20
100.7453402363879
 30
0.0
 10
146.409440210194
 20
100.5302387880702
 30
0.0
 10
146.2603179023967
 20
100.3012754256836
 30
0.0
 10
146.1234183608323
 20
100.1843108417477
 30
0.0
 10
146.0549372016159
 20
100.1258017320482
 30
0.0
  0
SPLINE
  5
165
330
1F
100
AcDbEntity
  8
0
  6
Continuous
 62
     7
370
    30
100
AcDbSpline
210
0.0
220
0.0
230
1.0
 70
     8
 71
     3
 72
     9
 73
     5
 74
     0
 42
0.000000001
 43
0.00000001
 40
0.0
 40
0.0
 40
0.0
 40
0.0
 40
0.5000224920518813
 40
1.0
 40
1.0
 40
1.0
 40
1.0
 10
145.3044364003338
 20
102.2284122387667
 30
0.0
 10
145.4450947128452
 20
102.2175019703225
 30
0.0
 10
145.7263986836609
 20
102.1956824149672
 30
0.0
 10
145.9615403347575
 20
102.0409043716764
 30
0.0
 10
146.0791058714877
 20
101.9635188313068
 30
0.0
  0
SPLINE
  5
166
330
1F
100
AcDbEntity
  8
0
  6
Continuous
 62
     7
370
    30
100
AcDbSpline
210
0.0
220
0.0
230
1.0
 70
     8
 71
     3
 72
    12
 73
     8
 74
     0
 42
0.000000001
 43
0.00000001
 40
0.0
 40
0.0
 40
0.0
 40
0.0
 40
0.2498436464876772
 40
0.3746959420979865
 40
0.5004738422814038
 40
0.7502750116692197
 40
0.9999999999999999
 40
0.9999999999999999
 40
0.9999999999999999
 40
0.9999999999999999
 10
144.1099952945646
 20
101.0656516571669
 30
0.0
 10
144.1225350031352
 20
101.2221721289405
 30
0.0
 10
144.1413410763837
 20
101.4569092793675
 30
0.0
 10
144.2903528792606
 20
101.7342620922734
 30
0.0
 10
144.4998498854519
 20
101.9629893137977
 30
0.0
 10
144.8374799438756
 20
102.1794461760219
 30
0.0
 10
145.1488000743103
 20
102.2120918774139
 30
0.0
 10
145.3044364003338
 20
102.2284122387667
 30
0.0
  0
SPLINE
  5
167
330
1F
100
AcDbEntity
  8
0
  6
Continuous
 62
     7
370
    30
100
AcDbSpline
210
0.0
220
0.0
230
1.0
 70
     8
 71
     3
 72
    11
 73
     7
 74
     0
 42
0.000000001
 43
0.00000001
 40
0.0
 40
0.0
 40
0.0
 40
0.0
 40
0.2502198274574245
 40
0.5000266077159294
 40
0.7498333285897446
 40
1.0
 40
1.0
 40
1.0
 40
1.0
 10
144.7504650461671
 20
99.99618045258795
 30
0.0
 10
144.6558757057527
 20
100.0528682641265
 30
0.0
 10
144.4668531670749
 20
100.1661503105196
 30
0.0
 10
144.2577556060943
 20
100.4269794139555
 30
0.0
 10
144.1276951876247
 20
100.7350562964563
 30
0.0
 10
144.115898089983
 20
100.9554003254818
 30
0.0
 10
144.1099952945646
 20
101.0656516571669
 30
0.0
  0
LINE
  5
168
330
1F
100
AcDbEntity
  8
0
  6
Continuous
 62
     7
370
    30
100
AcDbLine
 10
147.3257004228
 20
98.0592512929
 30
0.0
 11
147.3257004228
 21
96.4507930282
 31
0.0
  0
LINE
  5
169
330
1F
100
AcDbEntity
  8
0
  6
Continuous
 62
     7
370
    30
100
AcDbLine
 10
144.1507004228
 20
98.0592512929
 30
0.0
 11
147.3257004228
 21
98.0592512929
 31
0.0
  0
LINE
  5
16A
330
1F
100
AcDbEntity
  8
0
  6
Continuous
 62
     7
370
    30
100
AcDbLine
 10
144.1507004228
 20
98.0592512929
 30
0.0
 11
144.1507004228
 21
96.4507930282
 31
0.0
  0
LINE
  5
16B
330
1F
100
AcDbEntity
  8
0
  6
Continuous
 62
     7
370
    30
100
AcDbLine
 10
144.4763414484
 20
96.4507930282
 30
0.0
 11
144.1507004228
 21
96.4507930282
 31
0.0
  0
LINE
  5
16C
330
1F
100
AcDbEntity
  8
0
  6
Continuous
 62
     7
370
    30
100
AcDbLine
 10
144.4763414484
 20
97.7930140646
 30
0.0
 11
144.4763414484
 21
96.4507930282
 31
0.0
  0
LINE
  5
16D
330
1F
100
AcDbEntity
  8
0
  6
Continuous
 62
     7
370
    30
100
AcDbLine
 10
145.6974952946
 20
97.7930140646
 30
0.0
 11
144.4763414484
 21
97.7930140646
 31
0.0
  0
LINE
  5
16E
330
1F
100
AcDbEntity
  8
0
  6
Continuous
 62
     7
370
    30
100
AcDbLine
 10
145.6974952946
 20
97.7930140646
 30
0.0
 11
145.6974952946
 21
96.4507930282
 31
0.0
  0
LINE
  5
16F
330
1F
100
AcDbEntity
  8
0
  6
Continuous
 62
     7
370
    30
100
AcDbLine
 10
146.0231363202
 20
96.4507930282
 30
0.0
 11
145.6974952946
 21
96.4507930282
 31
0.0
  0
LINE
  5
170
330
1F
100
AcDbEntity
  8
0
  6
Continuous
 62
     7
370
    30
100
AcDbLine
 10
146.0231363202
 20
97.7930140646
 30
0.0
 11
146.0231363202
 21
96.4507930282
 31
0.0
  0
LINE
  5
171
330
1F
100
AcDbEntity
  8
0
  6
Continuous
 62
     7
370
    30
100
AcDbLine
 10
147.0000593971
 20
97.7930140646
 30
0.0
 11
146.0231363202
 21
97.7930140646
 31
0.0
  0
LINE
  5
172
330
1F
100
AcDbEntity
  8
0
  6
Continuous
 62
     7
370
    30
100
AcDbLine
 10
147.0000593971
 20
97.7930140646
 30
0.0
 11
147.0000593971
 21
96.4507930282
 31
0.0
  0
LINE
  5
173
330
1F
100
AcDbEntity
  8
0
  6
Continuous
 62
     7
370
    30
100
AcDbLine
 10
147.3257004228
 20
96.4507930282
 30
0.0
 11
147.0000593971
 21
96.4507930282
 31
0.0
  0
LINE
  5
174
330
1F
100
AcDbEntity
  8
0
  6
Continuous
 62
     7
370
    30
100
AcDbLine
 10
145.5346747817
 20
96.2112908075
 30
0.0
 11
145.5346747817
 21
95.2473954284
 31
0.0
  0
LINE
  5
175
330
1F
100
AcDbEntity
  8
0
  6
Continuous
 62
     7
370
    30
100
AcDbLine
 10
145.2090337561
 20
96.2112908075
 30
0.0
 11
145.5346747817
 21
96.2112908075
 31
0.0
  0
LINE
  5
176
330
1F
100
AcDbEntity
  8
0
  6
Continuous
 62
     7
370
    30
100
AcDbLine
 10
145.2090337561
 20
96.2112908075
 30
0.0
 11
145.2090337561
 21
95.2473954284
 31
0.0
  0
LINE
  5
177
330
1F
100
AcDbEntity
  8
0
  6
Continuous
 62
     7
370
    30
100
AcDbLine
 10
145.5346747817
 20
95.2473954284
 30
0.0
 11
145.2090337561
 21
95.2473954284
 31
0.0
  0
SPLINE
  5
178
330
1F
100
AcDbEntity
  8
0
  6
Continuous
 62
     7
370
    30
100
AcDbSpline
210
0.0
220
0.0
230
1.0
 70
     8
 71
     3
 72
    13
 73
     9
 74
     0
 42
0.000000001
 43
0.00000001
 40
0.0
 40
0.0
 40
0.0
 40
0.0
 40
0.249497161299294
 40
0.3743297907693554
 40
0.5000372170402769
 40
0.6253404658098233
 40
0.7505965411301105
 40
1.0
 40
1.0
 40
1.0
 40
1.0
 10
147.40711067918
 20
93.91782256079318
 30
0.0
 10
147.3875424333689
 20
93.7956696573518
 30
0.0
 10
147.3581834726414
 20
93.6123991521927
 30
0.0
 10
147.1485194897731
 20
93.4210038774168
 30
0.0
 10
146.9379298174166
 20
93.30240937856452
 30
0.0
 10
146.6843598993276
 20
93.20866910792381
 30
0.0
 10
146.2943335872919
 20
93.11884213412905
 30
0.0
 10
145.9612197597733
 20
93.10660900732464
 30
0.0
 10
145.7394724580262
 20
93.09846565620343
 30
0.0
  0
SPLINE
  5
179
330
1F
100
AcDbEntity
  8
0
  6
Continuous
 62
     7
370
    30
100
AcDbSpline
210
0.0
220
0.0
230
1.0
 70
     8
 71
     3
 72
    12
 73
     8
 74
     0
 42
0.000000001
 43
0.00000001
 40
0.0
 40
0.0
 40
0.0
 40
0.0
 40
0.249810496295105
 40
0.4995562574432961
 40
0.6252698532091451
 40
0.7504467829412359
 40
0.9999999999999999
 40
0.9999999999999999
 40
0.9999999999999999
 40
0.9999999999999999
 10
145.7242080349493
 20
94.9799372349226
 30
0.0
 10
145.9426137600929
 20
94.96332313941149
 30
0.0
 10
146.379368613372
 20
94.9300992537164
 30
0.0
 10
146.8511020881053
 20
94.70992750247892
 30
0.0
 10
147.1310760645191
 20
94.48774009017352
 30
0.0
 10
147.3470837334134
 20
94.23927027735706
 30
0.0
 10
147.3831152977656
 20
94.04631919618332
 30
0.0
 10
147.40711067918
 20
93.91782256079318
 30
0.0
  0
SPLINE
  5
17A
330
1F
100
AcDbEntity
  8
0
  6
Continuous
 62
     7
370
    30
100
AcDbSpline
210
0.0
220
0.0
230
1.0
 70
     8
 71
     3
 72
    12
 73
     8
 74
     0
 42
0.000000001
 43
0.00000001
 40
0.0
 40
0.0
 40
0.0
 40
0.0
 40
0.2497738533863889
 40
0.3728411406594751
 40
0.5006763422439142
 40
0.7503245775931395
 40
1.0
 40
1.0
 40
1.0
 40
1.0
 10
144.0692901663595
 20
93.90337308797123
 30
0.0
 10
144.0894346704623
 20
94.03175338674701
 30
0.0
 10
144.1195046709282
 20
94.22338856546897
 30
0.0
 10
144.3304943586019
 20
94.47315560704334
 30
0.0
 10
144.6065857973758
 20
94.69615971645037
 30
0.0
 10
145.0666854113096
 20
94.93129609782166
 30
0.0
 10
145.5050258715165
 20
94.96372293403269
 30
0.0
 10
145.7242080349493
 20
94.9799372349226
 30
0.0
  0
SPLINE
  5
17B
330
1F
100
AcDbEntity
  8
0
  6
Continuous
 62
     7
370
    30
100
AcDbSpline
210
0.0
220
0.0
230
1.0
 70
     8
 71
     3
 72
    12
 73
     8
 74
     0
 42
0.000000001
 43
0.00000001
 40
0.0
 40
0.0
 40
0.0
 40
0.0
 40
0.249784647525799
 40
0.4994352319928609
 40
0.6270829267978997
 40
0.7503307272245213
 40
0.9999999999999999
 40
0.9999999999999999
 40
0.9999999999999999
 40
0.9999999999999999
 10
145.7394724580262
 20
93.09846565620343
 30
0.0
 10
145.5197747556861
 20
93.10675552333058
 30
0.0
 10
145.0804972659628
 20
93.12333080829241
 30
0.0
 10
144.6168261026099
 20
93.26169917417417
 30
0.0
 10
144.3365463465013
 20
93.41545742200364
 30
0.0
 10
144.12171172734
 20
93.60295323274781
 30
0.0
 10
144.0903122351734
 20
93.78289886416992
 30
0.0
 10
144.0692901663595
 20
93.90337308797123
 30
0.0
  0
LINE
  5
17C
330
1F
100
AcDbEntity
  8
0
  6
Continuous
 62
     7
370
    30
100
AcDbLine
 10
146.0549372016
 20
100.125801732
 30
0.0
 11
146.0549372016
 21
100.1308193508
 31
0.0
  0
SPLINE
  5
17D
330
1F
100
AcDbEntity
  8
0
  6
Continuous
 62
     7
370
    30
100
AcDbSpline
210
0.0
220
0.0
230
1.0
 70
     8
 71
     3
 72
    12
 73
     8
 74
     0
 42
0.000000001
 43
0.00000001
 40
0.0
 40
0.0
 40
0.0
 40
0.0
 40
0.2496906642008709
 40
0.4993338422730475
 40
0.74920607107361
 40
0.8745374007154588
 40
1.0
 40
1.0
 40
1.0
 40
1.0
 10
146.5115978586671
 20
101.0582497668413
 30
0.0
 10
146.5068541686723
 20
100.968661395094
 30
0.0
 10
146.4973676908369
 20
100.7895016895011
 30
0.0
 10
146.4091146841155
 20
100.5322169888217
 30
0.0
 10
146.2837863083137
 20
100.344752152048
 30
0.0
 10
146.1598858486154
 20
100.215053492851
 30
0.0
 10
146.0899322888947
 20
100.1589071941457
 30
0.0
 10
146.0549372016159
 20
100.1308193508478
 30
0.0
  0
LINE
  5
17E
330
1F
100
AcDbEntity
  8
0
  6
Continuous
 62
     7
370
    30
100
AcDbLine
 10
144.1099952946
 20
101.0656516572
 30
0.0
 11
144.1099952946
 21
101.0652050322
 31
0.0
  0
SPLINE
  5
17F
330
1F
100
AcDbEntity
  8
0
  6
Continuous
 62
     7
370
    30
100
AcDbSpline
210
0.0
220
0.0
230
1.0
 70
     8
 71
     3
 72
    11
 73
     7
 74
     0
 42
0.000000001
 43
0.00000001
 40
0.0
 40
0.0
 40
0.0
 40
0.0
 40
0.250761184934348
 40
0.5007027724522981
 40
0.7502676002891638
 40
1.0
 40
1.0
 40
1.0
 40
1.0
 10
144.7504650461671
 20
100.0019516834774
 30
0.0
 10
144.6559007875162
 20
100.0582808967741
 30
0.0
 10
144.4670813476422
 20
100.1707552148195
 30
0.0
 10
144.2578797777687
 20
100.4300180769756
 30
0.0
 10
144.1277136408503
 20
100.7364078744401
 30
0.0
 10
144.1159027313011
 20
100.9555814602752
 30
0.0
 10
144.1099952945646
 20
101.0652050322158
 30
0.0
  0
LINE
  5
180
330
1F
100
AcDbEntity
  8
0
  6
Continuous
 62
     7
370
    30
100
AcDbLine
 10
144.7504650462
 20
99.9961804526
 30
0.0
 11
144.7504650462
 21
100.0019516835
 31
0.0
  0
LINE
  5
181
330
1F
100
AcDbEntity
  8
0
  6
Continuous
 62
     7
370
    30
100
AcDbLine
 10
145.3044364003
 20
102.2284122388
 30
0.0
 11
145.3044364003
 21
102.2212053779
 31
0.0
  0
SPLINE
  5
182
330
1F
100
AcDbEntity
  8
0
  6
Continuous
 62
     7
370
    30
100
AcDbSpline
210
0.0
220
0.0
230
1.0
 70
     8
 71
     3
 72
    12
 73
     8
 74
     0
 42
0.000000001
 43
0.00000001
 40
0.0
 40
0.0
 40
0.0
 40
0.0
 40
0.2490584624645442
 40
0.3737156752904821
 40
0.4994489741551443
 40
0.7496316234891085
 40
1.0
 40
1.0
 40
1.0
 40
1.0
 10
144.1099952945646
 20
101.0652050322158
 30
0.0
 10
144.1225473451674
 20
101.2208055071287
 30
0.0
 10
144.1413818710891
 20
101.4542861766156
 30
0.0
 10
144.2903695290589
 20
101.7299537637567
 30
0.0
 10
144.5000100821688
 20
101.9574969840314
 30
0.0
 10
144.8377918047315
 20
102.1726084673018
 30
0.0
 10
145.1488497295912
 20
102.2050024011441
 30
0.0
 10
145.3044364003338
 20
102.221205377876
 30
0.0
  0
LINE
  5
183
330
1F
100
AcDbEntity
  8
0
  6
Continuous
 62
     7
370
    30
100
AcDbLine
 10
144.394931192
 20
101.100612775
 30
0.0
 11
144.4086908109
 21
100.9898220066
 31
0.0
  0
LINE
  5
184
330
1F
100
AcDbEntity
  8
0
  6
Continuous
 62
     7
370
    30
100
AcDbLine
 10
144.394931192
 20
101.1012664628
 30
0.0
 11
144.394931192
 21
101.100612775
 31
0.0
  0
LINE
  5
185
330
1F
100
AcDbEntity
  8
0
  6
Continuous
 62
     7
370
    30
100
AcDbLine
 10
127.6722057991
 20
108.4888321656
 30
0.0
 11
127.6722057991
 21
93.4888321656
 31
0.0
  0
LINE
  5
186
330
1F
100
AcDbEntity
  8
0
  6
Continuous
 62
     7
370
    30
100
AcDbLine
 10
144.8833927305
 20
100.252324308
 30
0.0
 11
144.7504650462
 21
100.0019516835
 31
0.0
  0
SPLINE
  5
187
330
1F
100
AcDbEntity
  8
0
  6
Continuous
 62
     7
370
    30
100
AcDbSpline
210
0.0
220
0.0
230
1.0
 70
     8
 71
     3
 72
     9
 73
     5
 74
     0
 42
0.000000001
 43
0.00000001
 40
0.0
 40
0.0
 40
0.0
 40
0.0
 40
0.4991198126882569
 40
1.0
 40
1.0
 40
1.0
 40
1.0
 10
146.0549372016159
 20
100.1308193508478
 30
0.0
 10
145.9313023312276
 20
100.0564168571584
 30
0.0
 10
145.6835965354542
 20
99.90734945530819
 30
0.0
 10
145.39452772449
 20
99.89010077772753
 30
0.0
 10
145.2497388843082
 20
99.88146125687004
 30
0.0
  0
SPLINE
  5
188
330
1F
100
AcDbEntity
  8
0
  6
Continuous
 62
     7
370
    30
100
AcDbSpline
210
0.0
220
0.0
230
1.0
 70
     8
 71
     3
 72
     9
 73
     5
 74
     0
 42
0.000000001
 43
0.00000001
 40
0.0
 40
0.0
 40
0.0
 40
0.0
 40
0.5003227237092446
 40
1.0
 40
1.0
 40
1.0
 40
1.0
 10
145.3044364003338
 20
102.221205377876
 30
0.0
 10
145.4450605223785
 20
102.2103849739757
 30
0.0
 10
145.7261273526079
 20
102.1887581251689
 30
0.0
 10
145.9614970047725
 20
102.034787614011
 30
0.0
 10
146.0791058714877
 20
101.9578520483665
 30
0.0
  0
SPLINE
  5
189
330
1F
100
AcDbEntity
  8
0
  6
Continuous
 62
     7
370
    30
100
AcDbSpline
210
0.0
220
0.0
230
1.0
 70
     8
 71
     3
 72
    12
 73
     8
 74
     0
 42
0.000000001
 43
0.00000001
 40
0.0
 40
0.0
 40
0.0
 40
0.0
 40
0.2503849153197174
 40
0.5002694321463746
 40
0.7499357848285841
 40
0.8749487624548121
 40
1.0
 40
1.0
 40
1.0
 40
1.0
 10
145.81961067918
 20
102.9311481029569
 30
0.0
 10
145.8813642086779
 20
102.9823903205783
 30
0.0
 10
146.0047478521994
 20
103.0847723473815
 30
0.0
 10
146.1371856142731
 20
103.2851032271084
 30
0.0
 10
146.1998024735568
 20
103.4708304981592
 30
0.0
 10
146.2235267018814
 20
103.6233704354691
 30
0.0
 10
146.2256167681876
 20
103.6999463033407
 30
0.0
 10
146.2266619612312
 20
103.7382400953448
 30
0.0
  0
SPLINE
  5
18A
330
1F
100
AcDbEntity
  8
0
  6
Continuous
 62
     7
370
    30
100
AcDbSpline
210
0.0
220
0.0
230
1.0
 70
     8
 71
     3
 72
    12
 73
     8
 74
     0
 42
0.000000001
 43
0.00000001
 40
0.0
 40
0.0
 40
0.0
 40
0.0
 40
0.2496752773004481
 40
0.4993301699981306
 40
0.7492438049916919
 40
0.8745596773621783
 40
1.0
 40
1.0
 40
1.0
 40
1.0
 10
144.3949311920005
 20
103.7364438224352
 30
0.0
 10
144.3992943975686
 20
103.6600407399818
 30
0.0
 10
144.4080204524734
 20
103.5072408129634
 30
0.0
 10
144.4885228202195
 20
103.2856398860939
 30
0.0
 10
144.6000168323466
 20
103.1221610731724
 30
0.0
 10
144.7093208702454
 20
103.0069642830224
 30
0.0
 10
144.7710850549307
 20
102.9564285232758
 30
0.0
 10
144.8019824740518
 20
102.9311481029569
 30
0.0
  0
SPLINE
  5
18B
330
1F
100
AcDbEntity
  8
0
  6
Continuous
 62
     7
370
    30
100
AcDbSpline
210
0.0
220
0.0
230
1.0
 70
     8
 71
     3
 72
    13
 73
     9
 74
     0
 42
0.000000001
 43
0.00000001
 40
0.0
 40
0.0
 40
0.0
 40
0.0
 40
0.2491316661239012
 40
0.3735919994162619
 40
0.4993927975082383
 40
0.6241930375063379
 40
0.7501892615598267
 40
1.0
 40
1.0
 40
1.0
 40
1.0
 10
144.1099952945646
 20
103.7406349153482
 30
0.0
 10
144.1226488485327
 20
103.8926457688863
 30
0.0
 10
144.1416238210854
 20
104.1205976771676
 30
0.0
 10
144.2822140816698
 20
104.390103926345
 30
0.0
 10
144.4273859356502
 20
104.5670832046566
 30
0.0
 10
144.6069642943172
 20
104.7147069816392
 30
0.0
 10
144.8850808635804
 20
104.8679976912223
 30
0.0
 10
145.1293455849672
 20
104.8910582881333
 30
0.0
 10
145.2917160477697
 20
104.9063873940789
 30
0.0
  0
SPLINE
  5
18C
330
1F
100
AcDbEntity
  8
0
  6
Continuous
 62
     7
370
    30
100
AcDbSpline
210
0.0
220
0.0
230
1.0
 70
     8
 71
     3
 72
    14
 73
    10
 74
     0
 42
0.000000001
 43
0.00000001
 40
0.0
 40
0.0
 40
0.0
 40
0.0
 40
0.1254952299932062
 40
0.2509101912459706
 40
0.3762066984226168
 40
0.5013687930921734
 40
0.6256111095884879
 40
0.7512584278862017
 40
1.0
 40
1.0
 40
1.0
 40
1.0
 10
145.2917160477697
 20
104.9063873940789
 30
0.0
 10
145.3746309644844
 20
104.9024690054837
 30
0.0
 10
145.5404077642173
 20
104.8946347345567
 30
0.0
 10
145.7780860436511
 20
104.8235983691328
 30
0.0
 10
145.9953825024288
 20
104.7147734176394
 30
0.0
 10
146.1828305344681
 20
104.5664310273109
 30
0.0
 10
146.3299423115282
 20
104.3837664977123
 30
0.0
 10
146.4767622517174
 20
104.1088964570695
 30
0.0
 10
146.4976921612902
 20
103.8743228594814
 30
0.0
 10
146.5115978586671
 20
103.7184736691479
 30
0.0
  0
LINE
  5
18D
330
1F
100
AcDbEntity
  8
0
  6
Continuous
 62
     7
370
    30
100
AcDbLine
 10
146.2266619612
 20
103.7543185043
 30
0.0
 11
146.2266619612
 21
103.7382400953
 31
0.0
  0
LINE
  5
18E
330
1F
100
AcDbEntity
  8
0
  6
Continuous
 62
     7
370
    30
100
AcDbLine
 10
144.394931192
 20
103.7525117269
 30
0.0
 11
144.394931192
 21
103.7364438224
 31
0.0
  0
LINE
  5
18F
330
1F
100
AcDbEntity
  8
0
  6
Continuous
 62
     7
370
    30
100
AcDbLine
 10
145.2917160478
 20
104.9292970738
 30
0.0
 11
145.2917160478
 21
104.9063873941
 31
0.0
  0
LINE
  5
190
330
1F
100
AcDbEntity
  8
0
  6
Continuous
 62
     7
370
    30
100
AcDbLine
 10
146.5115978587
 20
103.734436485
 30
0.0
 11
146.5115978587
 21
103.7184736691
 31
0.0
  0
LINE
  5
191
330
1F
100
AcDbEntity
  8
0
  6
Continuous
 62
     7
370
    30
100
AcDbLine
 10
144.1099952946
 20
103.7567273291
 30
0.0
 11
144.1099952946
 21
103.7406349153
 31
0.0
  0
LINE
  5
192
330
1F
100
AcDbEntity
  8
0
  6
Continuous
 62
     7
370
    30
100
AcDbLine
 10
147.3257004228
 20
96.4771769766
 30
0.0
 11
147.0000593971
 21
96.4771769766
 31
0.0
  0
LINE
  5
193
330
1F
100
AcDbEntity
  8
0
  6
Continuous
 62
     7
370
    30
100
AcDbLine
 10
147.0000593971
 20
97.8115944024
 30
0.0
 11
146.0231363202
 21
97.8115944024
 31
0.0
  0
LINE
  5
194
330
1F
100
AcDbEntity
  8
0
  6
Continuous
 62
     7
370
    30
100
AcDbLine
 10
146.0231363202
 20
96.4771769766
 30
0.0
 11
145.6974952946
 21
96.4771769766
 31
0.0
  0
LINE
  5
195
330
1F
100
AcDbEntity
  8
0
  6
Continuous
 62
     7
370
    30
100
AcDbLine
 10
145.6974952946
 20
97.8115944024
 30
0.0
 11
144.4763414484
 21
97.8115944024
 31
0.0
  0
LINE
  5
196
330
1F
100
AcDbEntity
  8
0
  6
Continuous
 62
     7
370
    30
100
AcDbLine
 10
144.4763414484
 20
96.4771769766
 30
0.0
 11
144.1507004228
 21
96.4771769766
 31
0.0
  0
LINE
  5
197
330
1F
100
AcDbEntity
  8
0
  6
Continuous
 62
     7
370
    30
100
AcDbLine
 10
144.4763414484
 20
97.7930140646
 30
0.0
 11
144.4763414484
 21
97.8115944024
 31
0.0
  0
LINE
  5
198
330
1F
100
AcDbEntity
  8
0
  6
Continuous
 62
     7
370
    30
100
AcDbLine
 10
145.6974952946
 20
97.7930140646
 30
0.0
 11
145.6974952946
 21
97.8115944024
 31
0.0
  0
LINE
  5
199
330
1F
100
AcDbEntity
  8
0
  6
Continuous
 62
     7
370
    30
100
AcDbLine
 10
146.0231363202
 20
97.7930140646
 30
0.0
 11
146.0231363202
 21
97.8115944024
 31
0.0
  0
LINE
  5
19A
330
1F
100
AcDbEntity
  8
0
  6
Continuous
 62
     7
370
    30
100
AcDbLine
 10
147.0000593971
 20
97.7930140646
 30
0.0
 11
147.0000593971
 21
97.8115944024
 31
0.0
  0
SPLINE
  5
19B
330
1F
100
AcDbEntity
  8
0
  6
Continuous
 62
     7
370
    30
100
AcDbSpline
210
0.0
220
0.0
230
1.0
 70
     8
 71
     3
 72
    12
 73
     8
 74
     0
 42
0.000000001
 43
0.00000001
 40
0.0
 40
0.0
 40
0.0
 40
0.0
 40
0.2492361082991964
 40
0.4987901705447711
 40
0.7485257865860937
 40
0.8741389114470569
 40
1.0
 40
1.0
 40
1.0
 40
1.0
 10
146.9593542689235
 20
105.5570515810601
 30
0.0
 10
146.9624297615185
 20
105.5849195557105
 30
0.0
 10
146.9685846701567
 20
105.6406910565717
 30
0.0
 10
147.0237138142786
 20
105.7121295427279
 30
0.0
 10
147.0896728190604
 20
105.7551589245604
 30
0.0
 10
147.1526142577731
 20
105.7735747985851
 30
0.0
 10
147.1857358681094
 20
105.775296706418
 30
0.0
 10
147.2023130028979
 20
105.7761585092697
 30
0.0
  0
SPLINE
  5
19C
330
1F
100
AcDbEntity
  8
0
  6
Continuous
 62
     7
370
    30
100
AcDbSpline
210
0.0
220
0.0
230
1.0
 70
     8
 71
     3
 72
    13
 73
     9
 74
     0
 42
0.000000001
 43
0.00000001
 40
0.0
 40
0.0
 40
0.0
 40
0.0
 40
0.2498327403098383
 40
0.3732418829082412
 40
0.5005921725827899
 40
0.7499359704580528
 40
0.874909085596533
 40
1.0
 40
1.0
 40
1.0
 40
1.0
 10
147.2023130028979
 20
105.7761585092697
 30
0.0
 10
147.2357193667522
 20
105.7729283794862
 30
0.0
 10
147.2856273737277
 20
105.7681026720111
 30
0.0
 10
147.3428923764268
 20
105.7387726773016
 30
0.0
 10
147.3916802147651
 20
105.70133862194
 30
0.0
 10
147.4278361685048
 20
105.6530146675459
 30
0.0
 10
147.4456012773666
 20
105.5990569311414
 30
0.0
 10
147.4470773989235
 20
105.5710577610034
 30
0.0
 10
147.4478158073851
 20
105.5570515810601
 30
0.0
  0
LINE
  5
19D
330
1F
100
AcDbEntity
  8
0
  6
Continuous
 62
     7
370
    30
100
AcDbLine
 10
144.1507004228
 20
105.675089325
 30
0.0
 11
146.4708927305
 21
105.675089325
 31
0.0
  0
LINE
  5
19E
330
1F
100
AcDbEntity
  8
0
  6
Continuous
 62
     7
370
    30
100
AcDbLine
 10
147.2023130029
 20
105.8041545698
 30
0.0
 11
147.2023130029
 21
105.7761585093
 31
0.0
  0
LINE
  5
19F
330
1F
100
AcDbEntity
  8
0
  6
Continuous
 62
     7
370
    30
100
AcDbLine
 10
147.4478158074
 20
105.5837663145
 30
0.0
 11
147.4478158074
 21
105.5570515811
 31
0.0
  0
LINE
  5
1A0
330
1F
100
AcDbEntity
  8
0
  6
Continuous
 62
     7
370
    30
100
AcDbLine
 10
146.9593542689
 20
105.5837663145
 30
0.0
 11
146.9593542689
 21
105.5570515811
 31
0.0
  0
LINE
  5
1A1
330
1F
100
AcDbEntity
  8
0
  6
Continuous
 62
     7
370
    30
100
AcDbLine
 10
145.5346747817
 20
95.2807758745
 30
0.0
 11
145.2090337561
 21
95.2807758745
 31
0.0
  0
SPLINE
  5
1A2
330
1F
100
AcDbEntity
  8
0
  6
Continuous
 62
     7
370
    30
100
AcDbSpline
210
0.0
220
0.0
230
1.0
 70
     8
 71
     3
 72
    12
 73
     8
 74
     0
 42
0.000000001
 43
0.00000001
 40
0.0
 40
0.0
 40
0.0
 40
0.0
 40
0.2505608268710807
 40
0.5004426684110248
 40
0.750029567721118
 40
0.8749937158239703
 40
1.0
 40
1.0
 40
1.0
 40
1.0
 10
146.052393131103
 20
107.4382484041728
 30
0.0
 10
146.1190615832488
 20
107.4021740590984
 30
0.0
 10
146.2522178252173
 20
107.3301231254565
 30
0.0
 10
146.4028038558796
 20
107.1854451971708
 30
0.0
 10
146.4778812428141
 20
107.043601411477
 30
0.0
 10
146.5073965528264
 20
106.9226983629237
 30
0.0
 10
146.5101972660202
 20
106.8603152380936
 30
0.0
 10
146.5115978586671
 20
106.8291184178969
 30
0.0
  0
LINE
  5
1A3
330
1F
100
AcDbEntity
  8
0
  6
Continuous
 62
     7
370
    30
100
AcDbLine
 10
144.1507004228
 20
106.3930243874
 30
0.0
 11
145.2421066728
 21
106.3930243874
 31
0.0
  0
LINE
  5
1A4
330
1F
100
AcDbEntity
  8
0
  6
Continuous
 62
     7
370
    30
100
AcDbLine
 10
145.2421066728
 20
106.3930243874
 30
0.0
 11
145.7700013042
 21
106.4189523922
 31
0.0
  0
SPLINE
  5
1A5
330
1F
100
AcDbEntity
  8
0
  6
Continuous
 62
     7
370
    30
100
AcDbSpline
210
0.0
220
0.0
230
1.0
 70
     8
 71
     3
 72
    13
 73
     9
 74
     0
 42
0.000000001
 43
0.00000001
 40
0.0
 40
0.0
 40
0.0
 40
0.0
 40
0.25054588664232
 40
0.3778019982808719
 40
0.5010870033754036
 40
0.7499736347705361
 40
0.8749471572159193
 40
0.9999999999999999
 40
0.9999999999999999
 40
0.9999999999999999
 40
0.9999999999999999
 10
145.7700013041799
 20
106.4189523922319
 30
0.0
 10
145.8362698338181
 20
106.4340917229926
 30
0.0
 10
145.936197169509
 20
106.4569205528356
 30
0.0
 10
146.0483939872159
 20
106.518842090395
 30
0.0
 10
146.1420861553011
 20
106.5950961370087
 30
0.0
 10
146.1990713936389
 20
106.6909839031724
 30
0.0
 10
146.2237036288004
 20
106.7902828145756
 30
0.0
 10
146.2256756418819
 20
106.8401173631561
 30
0.0
 10
146.2266619612312
 20
106.8650425423992
 30
0.0
  0
LINE
  5
1A6
330
1F
100
AcDbEntity
  8
0
  6
Continuous
 62
     7
370
    30
100
AcDbLine
 10
144.1507004228
 20
107.6206503992
 30
0.0
 11
146.4708927305
 21
107.6206503992
 31
0.0
  0
LINE
  5
1A7
330
1F
100
AcDbEntity
  8
0
  6
Continuous
 62
     7
370
    30
100
AcDbLine
 10
145.2421066728
 20
106.4246278507
 30
0.0
 11
145.2421066728
 21
106.3930243874
 31
0.0
  0
LINE
  5
1A8
330
1F
100
AcDbEntity
  8
0
  6
Continuous
 62
     7
370
    30
100
AcDbLine
 10
145.7700013042
 20
106.4507074813
 30
0.0
 11
145.7700013042
 21
106.4189523922
 31
0.0
  0
LINE
  5
1A9
330
1F
100
AcDbEntity
  8
0
  6
Continuous
 62
     7
370
    30
100
AcDbLine
 10
146.2266619612
 20
106.8994063458
 30
0.0
 11
146.2266619612
 21
106.8650425424
 31
0.0
  0
LINE
  5
1AA
330
1F
100
AcDbEntity
  8
0
  6
Continuous
 62
     7
370
    30
100
AcDbLine
 10
146.0523931311
 20
107.4759642886
 30
0.0
 11
146.0523931311
 21
107.4382484042
 31
0.0
  0
LINE
  5
1AB
330
1F
100
AcDbEntity
  8
0
  6
Continuous
 62
     7
370
    30
100
AcDbLine
 10
146.5115978587
 20
106.8632721387
 30
0.0
 11
146.5115978587
 21
106.8291184179
 31
0.0
  0
SPLINE
  5
1AC
330
1F
100
AcDbEntity
  8
0
  6
Continuous
 62
     7
370
    30
100
AcDbSpline
210
0.0
220
0.0
230
1.0
 70
     8
 71
     3
 72
    13
 73
     9
 74
     0
 42
0.000000001
 43
0.00000001
 40
0.0
 40
0.0
 40
0.0
 40
0.0
 40
0.2488205173099622
 40
0.3734466328204656
 40
0.4990834563601861
 40
0.624452001552528
 40
0.7499122678447059
 40
1.0
 40
1.0
 40
1.0
 40
1.0
 10
147.40711067918
 20
93.95893308175118
 30
0.0
 10
147.3875132023009
 20
93.83746230899159
 30
0.0
 10
147.3580999857727
 20
93.65515077148817
 30
0.0
 10
147.1484118680365
 20
93.46493067220183
 30
0.0
 10
146.9378060883394
 20
93.3470416606452
 30
0.0
 10
146.6842053077365
 20
93.25385554300345
 30
0.0
 10
146.294058222831
 20
93.16456071069193
 30
0.0
 10
145.9611591191637
 20
93.15242282903631
 30
0.0
 10
145.7394724580262
 20
93.1443398800951
 30
0.0
  0
SPLINE
  5
1AD
330
1F
100
AcDbEntity
  8
0
  6
Continuous
 62
     7
370
    30
100
AcDbSpline
210
0.0
220
0.0
230
1.0
 70
     8
 71
     3
 72
    12
 73
     8
 74
     0
 42
0.000000001
 43
0.00000001
 40
0.0
 40
0.0
 40
0.0
 40
0.0
 40
0.2504605136025255
 40
0.5003842113600387
 40
0.6279567948704642
 40
0.7510122779191958
 40
1.0
 40
1.0
 40
1.0
 40
1.0
 10
145.7394724580262
 20
93.1443398800951
 30
0.0
 10
145.5198370165009
 20
93.15256629130027
 30
0.0
 10
145.0810368814474
 20
93.16900148191786
 30
0.0
 10
144.6171225087927
 20
93.30648260453769
 30
0.0
 10
144.3366563169067
 20
93.459417885171
 30
0.0
 10
144.1218065024582
 20
93.64575091383139
 30
0.0
 10
144.0903453543128
 20
93.82476409869092
 30
0.0
 10
144.0692901663595
 20
93.94456761749214
 30
0.0
  0
SPLINE
  5
1AE
330
1F
100
AcDbEntity
  8
0
  6
Continuous
 62
     7
370
    30
100
AcDbSpline
210
0.0
220
0.0
230
1.0
 70
     8
 71
     3
 72
    12
 73
     8
 74
     0
 42
0.000000001
 43
0.00000001
 40
0.0
 40
0.0
 40
0.0
 40
0.0
 40
0.2502666036706818
 40
0.3733446902514182
 40
0.5013867984370051
 40
0.7508482542708791
 40
1.0
 40
1.0
 40
1.0
 40
1.0
 10
145.7254800702057
 20
94.81552857466474
 30
0.0
 10
145.5470975487393
 20
94.803033729818
 30
0.0
 10
145.2809886622706
 20
94.7843940715071
 30
0.0
 10
144.9705774858033
 20
94.66161700043726
 30
0.0
 10
144.7054426121167
 20
94.50682869174862
 30
0.0
 10
144.445811394016
 20
94.26131201719733
 30
0.0
 10
144.4118842347997
 20
94.0544108042294
 30
0.0
 10
144.3949311920006
 20
93.95102445536654
 30
0.0
  0
SPLINE
  5
1AF
330
1F
100
AcDbEntity
  8
0
  6
Continuous
 62
     7
370
    30
100
AcDbSpline
210
0.0
220
0.0
230
1.0
 70
     8
 71
     3
 72
    12
 73
     8
 74
     0
 42
0.000000001
 43
0.00000001
 40
0.0
 40
0.0
 40
0.0
 40
0.0
 40
0.2489911221697256
 40
0.4985215247214137
 40
0.6241718949720511
 40
0.750821179968819
 40
1.0
 40
1.0
 40
1.0
 40
1.0
 10
147.081469653539
 20
93.95102445536655
 30
0.0
 10
147.0608949223711
 20
94.05474629991636
 30
0.0
 10
147.019700898009
 20
94.26241463620603
 30
0.0
 10
146.7624681476304
 20
94.51060111113286
 30
0.0
 10
146.4897660914951
 20
94.66399128279035
 30
0.0
 10
146.1742016915146
 20
94.78456701968163
 30
0.0
 10
145.9043771666013
 20
94.80318476945604
 30
0.0
 10
145.7254800702057
 20
94.81552857466474
 30
0.0
  0
SPLINE
  5
1B0
330
1F
100
AcDbEntity
  8
0
  6
Continuous
 62
     7
370
    30
100
AcDbSpline
210
0.0
220
0.0
230
1.0
 70
     8
 71
     3
 72
    12
 73
     8
 74
     0
 42
0.000000001
 43
0.00000001
 40
0.0
 40
0.0
 40
0.0
 40
0.0
 40
0.2495366717954112
 40
0.3747520239848676
 40
0.5003972900659001
 40
0.7502910797958752
 40
1.0
 40
1.0
 40
1.0
 40
1.0
 10
145.7401084756544
 20
93.21611469325286
 30
0.0
 10
145.9198328891261
 20
93.22390529183866
 30
0.0
 10
146.1897414649815
 20
93.23560514568005
 30
0.0
 10
146.5036042658626
 20
93.31558479698975
 30
0.0
 10
146.7719235068883
 20
93.42434963379092
 30
0.0
 10
147.021283224175
 20
93.61355269592616
 30
0.0
 10
147.0614124601325
 20
93.81112039092343
 30
0.0
 10
147.081469653539
 20
93.90986768513146
 30
0.0
  0
SPLINE
  5
1B1
330
1F
100
AcDbEntity
  8
0
  6
Continuous
 62
     7
370
    30
100
AcDbSpline
210
0.0
220
0.0
230
1.0
 70
     8
 71
     3
 72
    12
 73
     8
 74
     0
 42
0.000000001
 43
0.00000001
 40
0.0
 40
0.0
 40
0.0
 40
0.0
 40
0.2498539408223129
 40
0.4995721133341244
 40
0.6249578401452129
 40
0.7503851202236544
 40
1.0
 40
1.0
 40
1.0
 40
1.0
 10
144.3949311920005
 20
93.90986768513143
 30
0.0
 10
144.41291762807
 20
93.8105242160601
 30
0.0
 10
144.4488807265468
 20
93.61189126023575
 30
0.0
 10
144.6997209504526
 20
93.42178607134998
 30
0.0
 10
144.972156981884
 20
93.31441499027947
 30
0.0
 10
145.2886682795629
 20
93.23544504121185
 30
0.0
 10
145.5597115808397
 20
93.22383915992127
 30
0.0
 10
145.7401084756544
 20
93.21611469325286
 30
0.0
  0
SPLINE
  5
1B2
330
1F
100
AcDbEntity
  8
0
  6
Continuous
 62
     7
370
    30
100
AcDbSpline
210
0.0
220
0.0
230
1.0
 70
     8
 71
     3
 72
    12
 73
     8
 74
     0
 42
0.000000001
 43
0.00000001
 40
0.0
 40
0.0
 40
0.0
 40
0.0
 40
0.2495741531102389
 40
0.3724573549697069
 40
0.5004396940830984
 40
0.7501851722712952
 40
1.0
 40
1.0
 40
1.0
 40
1.0
 10
145.7254800702057
 20
94.77942738407467
 30
0.0
 10
145.5470442267356
 20
94.76683878413341
 30
0.0
 10
145.2807516581246
 20
94.74805191626889
 30
0.0
 10
144.9704573824826
 20
94.62455386512764
 30
0.0
 10
144.7051971784715
 20
94.46876274331075
 30
0.0
 10
144.4457016627329
 20
94.22171930109936
 30
0.0
 10
144.4118562483979
 20
94.0138278436984
 30
0.0
 10
144.3949311920005
 20
93.90986768513143
 30
0.0
  0
SPLINE
  5
1B3
330
1F
100
AcDbEntity
  8
0
  6
Continuous
 62
     7
370
    30
100
AcDbSpline
210
0.0
220
0.0
230
1.0
 70
     8
 71
     3
 72
    12
 73
     8
 74
     0
 42
0.000000001
 43
0.00000001
 40
0.0
 40
0.0
 40
0.0
 40
0.0
 40
0.2496543630111746
 40
0.499475161946498
 40
0.6250607096527353
 40
0.7515048590754396
 40
1.0
 40
1.0
 40
1.0
 40
1.0
 10
147.081469653539
 20
93.90986768513146
 30
0.0
 10
147.0609202366
 20
94.0141658245522
 30
0.0
 10
147.0198077031367
 20
94.22283163535377
 30
0.0
 10
146.7627297814962
 20
94.47254876038866
 30
0.0
 10
146.489888047647
 20
94.62694435589621
 30
0.0
 10
146.1744298187066
 20
94.74823037948063
 30
0.0
 10
145.9044272464054
 20
94.76699254944866
 30
0.0
 10
145.7254800702057
 20
94.77942738407467
 30
0.0
  0
LINE
  5
1B4
330
1F
100
AcDbEntity
  8
0
  6
Continuous
 62
     7
370
    30
100
AcDbLine
 10
147.0814696535
 20
93.9510244554
 30
0.0
 11
147.0814696535
 21
93.9098676851
 31
0.0
  0
LINE
  5
1B5
330
1F
100
AcDbEntity
  8
0
  6
Continuous
 62
     7
370
    30
100
AcDbLine
 10
145.7254800702
 20
94.8155285747
 30
0.0
 11
145.7254800702
 21
94.7794273841
 31
0.0
  0
LINE
  5
1B6
330
1F
100
AcDbEntity
  8
0
  6
Continuous
 62
     7
370
    30
100
AcDbLine
 10
144.394931192
 20
93.9510244554
 30
0.0
 11
144.394931192
 21
93.9098676851
 31
0.0
  0
LINE
  5
1B7
330
1F
100
AcDbEntity
  8
0
  6
Continuous
 62
     7
370
    30
100
AcDbLine
 10
145.739472458
 20
93.0984656562
 30
0.0
 11
145.739472458
 21
93.1443398801
 31
0.0
  0
LINE
  5
1B8
330
1F
100
AcDbEntity
  8
0
  6
Continuous
 62
     7
370
    30
100
AcDbLine
 10
147.4071106792
 20
93.9178225608
 30
0.0
 11
147.4071106792
 21
93.9589330818
 31
0.0
  0
LINE
  5
1B9
330
1F
100
AcDbEntity
  8
0
  6
Continuous
 62
     7
370
    30
100
AcDbLine
 10
144.0692901664
 20
93.903373088
 30
0.0
 11
144.0692901664
 21
93.9445676175
 31
0.0
  0
SPLINE
  5
1BA
330
1F
100
AcDbEntity
  8
0
  6
Continuous
 62
     7
370
    30
100
AcDbSpline
210
0.0
220
0.0
230
1.0
 70
     8
 71
     3
 72
    11
 73
     7
 74
     0
 42
0.000000001
 43
0.00000001
 40
0.0
 40
0.0
 40
0.0
 40
0.0
 40
0.2494380164281929
 40
0.4991071930976288
 40
0.7491665214980169
 40
0.9999999999999999
 40
0.9999999999999999
 40
0.9999999999999999
 40
0.9999999999999999
 10
144.3949311920004
 20
108.5675022817824
 30
0.0
 10
144.4025640227308
 20
108.5309691423738
 30
0.0
 10
144.4178367577202
 20
108.4578690074129
 30
0.0
 10
144.5327085957947
 20
108.3534720597863
 30
0.0
 10
144.7080485520323
 20
108.2694948753584
 30
0.0
 10
144.8562451926752
 20
108.2422110234796
 30
0.0
 10
144.9304580349491
 20
108.2285480133916
 30
0.0
  0
SPLINE
  5
1BB
330
1F
100
AcDbEntity
  8
0
  6
Continuous
 62
     7
370
    30
100
AcDbSpline
210
0.0
220
0.0
230
1.0
 70
     8
 71
     3
 72
     9
 73
     5
 74
     0
 42
0.000000001
 43
0.00000001
 40
0.0
 40
0.0
 40
0.0
 40
0.0
 40
0.499616773044153
 40
1.0
 40
1.0
 40
1.0
 40
1.0
 10
144.9304580349491
 20
108.2285480133916
 30
0.0
 10
145.0121692347108
 20
108.2226033528408
 30
0.0
 10
145.1757169860481
 20
108.2107049121326
 30
0.0
 10
145.3407779560127
 20
108.2111287063548
 30
0.0
 10
145.4233716968081
 20
108.2113407658753
 30
0.0
  0
LINE
  5
1BC
330
1F
100
AcDbEntity
  8
0
  6
Continuous
 62
     7
370
    30
100
AcDbLine
 10
145.4233716968
 20
108.2113407659
 30
0.0
 11
147.3257004228
 21
108.2113407659
 31
0.0
  0
SPLINE
  5
1BD
330
1F
100
AcDbEntity
  8
0
  6
Continuous
 62
     7
370
    30
100
AcDbSpline
210
0.0
220
0.0
230
1.0
 70
     8
 71
     3
 72
    11
 73
     7
 74
     0
 42
0.000000001
 43
0.00000001
 40
0.0
 40
0.0
 40
0.0
 40
0.0
 40
0.2499289216070125
 40
0.4996478870844466
 40
0.7495973681885664
 40
1.0
 40
1.0
 40
1.0
 40
1.0
 10
144.0692901663594
 20
108.5601713163587
 30
0.0
 10
144.0758367950549
 20
108.6088324352863
 30
0.0
 10
144.0889245528631
 20
108.7061137947186
 30
0.0
 10
144.2223756188214
 20
108.8282479863039
 30
0.0
 10
144.4390212727598
 20
108.9232513230864
 30
0.0
 10
144.638957885054
 20
108.9524633245937
 30
0.0
 10
144.7390167288594
 20
108.9670825534708
 30
0.0
  0
SPLINE
  5
1BE
330
1F
100
AcDbEntity
  8
0
  6
Continuous
 62
     7
370
    30
100
AcDbSpline
210
0.0
220
0.0
230
1.0
 70
     8
 71
     3
 72
    10
 73
     6
 74
     0
 42
0.000000001
 43
0.00000001
 40
0.0
 40
0.0
 40
0.0
 40
0.0
 40
0.3257249517039074
 40
0.6643833027735315
 40
1.0
 40
1.0
 40
1.0
 40
1.0
 10
144.7390167288594
 20
108.9670825534708
 30
0.0
 10
144.8107257976935
 20
108.9722955026261
 30
0.0
 10
144.9569912518492
 20
108.9829283889273
 30
0.0
 10
145.1817196864668
 20
108.9860764899789
 30
0.0
 10
145.3328720273124
 20
108.9867888137808
 30
0.0
 10
145.4081072737312
 20
108.9871433690359
 30
0.0
  0
LINE
  5
1BF
330
1F
100
AcDbEntity
  8
0
  6
Continuous
 62
     7
370
    30
100
AcDbLine
 10
145.4081072737
 20
108.987143369
 30
0.0
 11
147.3257004228
 21
108.987143369
 31
0.0
  0
LINE
  5
1C0
330
1F
100
AcDbEntity
  8
0
  6
Continuous
 62
     7
370
    30
100
AcDbLine
 10
145.4233716968
 20
108.2535776583
 30
0.0
 11
145.4233716968
 21
108.2113407659
 31
0.0
  0
LINE
  5
1C1
330
1F
100
AcDbEntity
  8
0
  6
Continuous
 62
     7
370
    30
100
AcDbLine
 10
144.9304580349
 20
108.270885533
 30
0.0
 11
144.9304580349
 21
108.2285480134
 31
0.0
  0
LINE
  5
1C2
330
1F
100
AcDbEntity
  8
0
  6
Continuous
 62
     7
370
    30
100
AcDbLine
 10
144.394931192
 20
108.6118219901
 30
0.0
 11
144.394931192
 21
108.5675022818
 31
0.0
  0
LINE
  5
1C3
330
1F
100
AcDbEntity
  8
0
  6
Continuous
 62
     7
370
    30
100
AcDbLine
 10
178.6722057991
 20
105.2388321656
 30
0.0
 11
178.6722057991
 21
96.7388321656
 31
0.0
  0
LINE
  5
1C4
330
1F
100
AcDbEntity
  8
0
  6
Continuous
 62
     7
370
    30
100
AcDbLine
 10
144.7390167289
 20
109.0137389885
 30
0.0
 11
144.7390167289
 21
108.9670825535
 31
0.0
  0
LINE
  5
1C5
330
1F
100
AcDbEntity
  8
0
  6
Continuous
 62
     7
370
    30
100
AcDbLine
 10
144.0692901664
 20
108.6044481535
 30
0.0
 11
144.0692901664
 21
108.5601713164
 31
0.0
  0
LINE
  5
1C6
330
1F
100
AcDbEntity
  8
0
  6
Continuous
 62
     7
370
    30
100
AcDbLine
 10
84.5969845688
 20
100.9888321656
 30
0.0
 11
84.5969845688
 21
104.1638321656
 31
0.0
  0
LINE
  5
1C7
330
1F
100
AcDbEntity
  8
0
  6
Continuous
 62
     7
370
    30
100
AcDbLine
 10
84.5969845688
 20
97.8138321656
 30
0.0
 11
84.5969845688
 21
100.9888321656
 31
0.0
  0
LINE
  5
1C8
330
1F
100
AcDbEntity
  8
0
  6
Continuous
 62
     7
370
    30
100
AcDbLine
 10
145.4081072737
 20
109.0339171188
 30
0.0
 11
145.4081072737
 21
108.987143369
 31
0.0
  0
SPLINE
  5
1C9
330
1F
100
AcDbEntity
  8
0
  6
Continuous
 62
     7
370
    30
100
AcDbSpline
210
0.0
220
0.0
230
1.0
 70
     8
 71
     3
 72
    13
 73
     9
 74
     0
 42
0.000000001
 43
0.00000001
 40
0.0
 40
0.0
 40
0.0
 40
0.0
 40
0.3401012517487149
 40
0.6187550246245677
 40
0.749254638402705
 40
0.8810354519156139
 40
0.9716744554406729
 40
0.9999999999999999
 40
0.9999999999999999
 40
0.9999999999999999
 40
0.9999999999999999
 10
127.3058596452676
 20
105.6175748204829
 30
0.0
 10
127.3077876789757
 20
105.6967443995711
 30
0.0
 10
127.3112954006861
 20
105.8407796673226
 30
0.0
 10
127.3698664137813
 20
106.0048130775759
 30
0.0
 10
127.4562763680747
 20
106.1064532107563
 30
0.0
 10
127.5405745490851
 20
106.1564054869088
 30
0.0
 10
127.6149383788089
 20
106.1734703976781
 30
0.0
 10
127.6510897781999
 20
106.1741422762635
 30
0.0
 10
127.6596974524257
 20
106.1743022510385
 30
0.0
  0
SPLINE
  5
1CA
330
1F
100
AcDbEntity
  8
0
  6
Continuous
 62
     7
370
    30
100
AcDbSpline
210
0.0
220
0.0
230
1.0
 70
     8
 71
     3
 72
    12
 73
     8
 74
     0
 42
0.000000001
 43
0.00000001
 40
0.0
 40
0.0
 40
0.0
 40
0.0
 40
0.1084815634690564
 40
0.2173069700278307
 40
0.3285829458095513
 40
0.5302645347320899
 40
0.9999999999999999
 40
0.9999999999999999
 40
0.9999999999999999
 40
0.9999999999999999
 10
127.6596974524257
 20
105.0616954134317
 30
0.0
 10
127.6283913222371
 20
105.0642929302713
 30
0.0
 10
127.5656798339709
 20
105.0694961970381
 30
0.0
 10
127.4829254870289
 20
105.1115260911111
 30
0.0
 10
127.4013239383431
 20
105.1861126279834
 30
0.0
 10
127.3116696515048
 20
105.3585891117651
 30
0.0
 10
127.3082512326641
 20
105.5109678855571
 30
0.0
 10
127.3058596452676
 20
105.6175748204829
 30
0.0
  0
LINE
  5
1CB
330
1F
100
AcDbEntity
  8
0
  6
Continuous
 62
     7
370
    30
100
AcDbLine
 10
127.5722057991
 20
104.0888321656
 30
0.0
 11
127.6722057991
 21
104.0888321656
 31
0.0
  0
LINE
  5
1CC
330
1F
100
AcDbEntity
  8
0
  6
Continuous
 62
     7
370
    30
100
AcDbLine
 10
127.5722057991
 20
101.0888321656
 30
0.0
 11
127.5722057991
 21
104.0888321656
 31
0.0
  0
LINE
  5
1CD
330
1F
100
AcDbEntity
  8
0
  6
Continuous
 62
     7
370
    30
100
AcDbLine
 10
125.1722057991
 20
100.8888321656
 30
0.0
 11
127.6722057991
 21
100.8888321656
 31
0.0
  0
LINE
  5
1CE
330
1F
100
AcDbEntity
  8
0
  6
Continuous
 62
     7
370
    30
100
AcDbLine
 10
125.1722057991
 20
100.8888321656
 30
0.0
 11
125.1722057991
 21
93.6888321656
 31
0.0
  0
LINE
  5
1CF
330
1F
100
AcDbEntity
  8
0
  6
Continuous
 62
     7
370
    30
100
AcDbLine
 10
125.1722057991
 20
108.2888321656
 30
0.0
 11
125.1722057991
 21
101.0888321656
 31
0.0
  0
LINE
  5
1D0
330
1F
100
AcDbEntity
  8
0
  6
Continuous
 62
     7
370
    30
100
AcDbLine
 10
127.5722057991
 20
101.0888321656
 30
0.0
 11
125.1722057991
 21
101.0888321656
 31
0.0
  0
LINE
  5
1D1
330
1F
100
AcDbEntity
  8
0
  6
Continuous
 62
     7
370
    30
100
AcDbLine
 10
127.6722057991
 20
101.0888321656
 30
0.0
 11
127.5722057991
 21
101.0888321656
 31
0.0
  0
LINE
  5
1D2
330
1F
100
AcDbEntity
  8
0
  6
Continuous
 62
     7
370
    30
100
AcDbLine
 10
125.1722057991
 20
101.0888321656
 30
0.0
 11
125.1722057991
 21
100.8888321656
 31
0.0
  0
SPLINE
  5
1D3
330
1F
100
AcDbEntity
  8
0
  6
Continuous
 62
     7
370
    30
100
AcDbSpline
210
0.0
220
0.0
230
1.0
 70
     8
 71
     3
 72
    12
 73
     8
 74
     0
 42
0.000000001
 43
0.00000001
 40
0.0
 40
0.0
 40
0.0
 40
0.0
 40
0.0919373599674108
 40
0.1842787618015637
 40
0.3200047975761163
 40
0.5439766820772912
 40
0.9999999999999999
 40
0.9999999999999999
 40
0.9999999999999999
 40
0.9999999999999999
 10
127.6628775405667
 20
106.0657552424915
 30
0.0
 10
127.6408500435127
 20
106.0637202198556
 30
0.0
 10
127.5966982440249
 20
106.0596412311647
 30
0.0
 10
127.5330216459652
 20
106.0265971621241
 30
0.0
 10
127.4659310624445
 20
105.9644503338369
 30
0.0
 10
127.4041248878665
 20
105.8259243632277
 30
0.0
 10
127.4021575967757
 20
105.7014648046869
 30
0.0
 10
127.4008382777462
 20
105.6179988322351
 30
0.0
  0
SPLINE
  5
1D4
330
1F
100
AcDbEntity
  8
0
  6
Continuous
 62
     7
370
    30
100
AcDbSpline
210
0.0
220
0.0
230
1.0
 70
     8
 71
     3
 72
    13
 73
     9
 74
     0
 42
0.000000001
 43
0.00000001
 40
0.0
 40
0.0
 40
0.0
 40
0.0
 40
0.4129211539201654
 40
0.5895760171323746
 40
0.7680710227458349
 40
0.8785867771219783
 40
0.9804203300241757
 40
1.0
 40
1.0
 40
1.0
 40
1.0
 10
127.4008382777462
 20
105.6179988322351
 30
0.0
 10
127.4017828464484
 20
105.5443682072528
 30
0.0
 10
127.4031315180969
 20
105.4392371181724
 30
0.0
 10
127.4492506139641
 20
105.3029803398269
 30
0.0
 10
127.5063137397501
 20
105.228028183373
 30
0.0
 10
127.5787927908847
 20
105.1837021380431
 30
0.0
 10
127.6308773840575
 20
105.1716934069875
 30
0.0
 10
127.6584336817952
 20
105.1704439201325
 30
0.0
 10
127.6628775405667
 20
105.1702424219787
 30
0.0
  0
LINE
  5
1D5
330
1F
100
AcDbEntity
  8
0
  6
Continuous
 62
     7
370
    30
100
AcDbLine
 10
110.6722057991
 20
100.9888321656
 30
0.0
 11
110.6722057991
 21
95.9888321656
 31
0.0
  0
LINE
  5
1D6
330
1F
100
AcDbEntity
  8
0
  6
Continuous
 62
     7
370
    30
100
AcDbLine
 10
110.6722057991
 20
105.9888321656
 30
0.0
 11
110.6722057991
 21
100.9888321656
 31
0.0
  0
LINE
  5
1D7
330
1F
100
AcDbEntity
  8
0
  6
Continuous
 62
     7
370
    30
100
AcDbLine
 10
110.1722057991
 20
100.9888321656
 30
0.0
 11
110.1722057991
 21
105.4888321656
 31
0.0
  0
LINE
  5
1D8
330
1F
100
AcDbEntity
  8
0
  6
Continuous
 62
     7
370
    30
100
AcDbLine
 10
110.1722057991
 20
96.4888321656
 30
0.0
 11
110.1722057991
 21
100.9888321656
 31
0.0
  0
LINE
  5
1D9
330
1F
100
AcDbEntity
  8
0
  6
Continuous
 62
     7
370
    30
100
AcDbLine
 10
124.1722057991
 20
105.9888321656
 30
0.0
 11
124.1722057991
 21
95.9888321656
 31
0.0
  0
DIMENSION
  5
1DA
330
1F
100
AcDbEntity
  8
DIM
100
AcDbDimension
  2
_D
 10
110.1722057991
 20
84.9888321656
 30
0.0
 11
96.6722057991
 21
84.9888321656
 31
0.0
 70
   160
  1
<>
 71
     2
 42
-1.0
  3
SLDDIMSTYLE0
100
AcDbAlignedDimension
 13
83.1722057991
 23
100.9888321656
 33
0.0
 14
110.1722057991
 24
96.4888321656
 34
0.0
 50
0.0
100
AcDbRotatedDimension
  0
DIMENSION
  5
1E5
330
1F
100
AcDbEntity
  8
DIM
100
AcDbDimension
  2
_D_1
 10
125.1722057991
 20
84.9888321656
 30
0.0
 11
117.6722057991
 21
84.9888321656
 31
0.0
 70
   160
  1
<>
 71
     2
 42
-1.0
  3
SLDDIMSTYLE0
100
AcDbAlignedDimension
 13
110.1722057991
 23
96.4888321656
 33
0.0
 14
125.1722057991
 24
93.6888321656
 34
0.0
 50
0.0
100
AcDbRotatedDimension
  0
DIMENSION
  5
1EF
330
1F
100
AcDbEntity
  8
DIM
100
AcDbDimension
  2
_D_2
 10
175.1722057991
 20
84.9888321656
 30
0.0
 11
150.1722057991
 21
84.9888321656
 31
0.0
 70
   160
  1
<>
 71
     2
 42
-1.0
  3
SLDDIMSTYLE0
100
AcDbAlignedDimension
 13
125.1722057991
 23
93.6888321656
 33
0.0
 14
175.1722057991
 24
96.7388321656
 34
0.0
 50
0.0
100
AcDbRotatedDimension
  0
DIMENSION
  5
1F9
330
1F
100
AcDbEntity
  8
DIM
100
AcDbDimension
  2
_D_3
 10
175.1722057991
 20
84.9888321656
 30
0.0
 11
184.3599315033
 21
84.9888321656
 31
0.0
 70
   160
  1
<>
 71
     2
 42
-1.0
  3
SLDDIMSTYLE1
100
AcDbAlignedDimension
 13
178.6722057991
 23
96.7388321656
 33
0.0
 14
175.1722057991
 24
96.7388321656
 34
0.0
 50
0.0
100
AcDbRotatedDimension
  0
DIMENSION
  5
206
330
1F
100
AcDbEntity
  8
DIM
100
AcDbDimension
  2
_D_4
 10
83.1722057991
 20
79.9888321656
 30
0.0
 11
130.9222057991
 21
79.9888321656
 31
0.0
 70
   160
  1
<>
 71
     2
 42
-1.0
  3
SLDDIMSTYLE0
100
AcDbAlignedDimension
 13
178.6722057991
 23
96.7388321656
 33
0.0
 14
83.1722057991
 24
100.9888321656
 34
0.0
 50
0.0
100
AcDbRotatedDimension
  0
DIMENSION
  5
210
330
1F
100
AcDbEntity
  8
DIM
100
AcDbDimension
  2
_D_5
 10
76.1722057991
 20
97.8138321656
 30
0.0
 11
76.1722057991
 21
89.8727384302
 31
0.0
 70
   160
  1
%%c<>
 71
     2
 42
-1.0
  3
SLDDIMSTYLE0
100
AcDbAlignedDimension
 13
84.5969845688
 23
104.1638321656
 33
0.0
 14
84.5969845688
 24
97.8138321656
 34
0.0
 50
90.0
100
AcDbRotatedDimension
  0
DIMENSION
  5
21C
330
1F
100
AcDbEntity
  8
DIM
100
AcDbDimension
  2
_D_6
 10
71.1722057991
 20
95.9888321656
 30
0.0
 11
71.1722057991
 21
100.9888321656
 31
0.0
 70
   160
  1
%%c<>
 71
     2
 42
-1.0
  3
SLDDIMSTYLE0
100
AcDbAlignedDimension
 13
110.6722057991
 23
105.9888321656
 33
0.0
 14
110.6722057991
 24
95.9888321656
 34
0.0
 50
90.0
100
AcDbRotatedDimension
  0
DIMENSION
  5
227
330
1F
100
AcDbEntity
  8
DIM
100
AcDbDimension
  2
_D_7
 10
185.6722057991
 20
91.9888321656
 30
0.0
 11
185.6722057991
 21
100.9888321656
 31
0.0
 70
   160
  1
%%c<>
 71
     2
 42
-1.0
  3
SLDDIMSTYLE0
100
AcDbAlignedDimension
 13
174.1507004228
 23
109.9888321656
 33
0.0
 14
174.1507004228
 24
91.9888321656
 34
0.0
 50
90.0
100
AcDbRotatedDimension
  0
LINE
  5
232
330
1F
100
AcDbEntity
  8
0
  6
Continuous
 62
     7
370
    30
100
AcDbLine
 10
256.0251012996
 20
133.1330933916
 30
0.0
 11
242.6052790545
 21
140.880191872
 31
0.0
  0
LINE
  5
233
330
1F
100
AcDbEntity
  8
0
  6
Continuous
 62
     7
370
    30
100
AcDbLine
 10
233.6060104608
 20
125.2913123492
 30
0.0
 11
247.0258327059
 21
117.5442138687
 31
0.0
  0
LINE
  5
234
330
1F
100
AcDbEntity
  8
0
  6
Continuous
 62
     7
370
    30
100
AcDbLine
 10
256.8474814224
 20
127.1736644618
 30
0.0
 11
254.3726076882
 21
128.6023786575
 31
0.0
  0
LINE
  5
235
330
1F
100
AcDbEntity
  8
0
  6
Continuous
 62
     7
370
    30
100
AcDbLine
 10
250.1229530745
 20
121.2409633273
 30
0.0
 11
252.5978268087
 21
119.8122491316
 31
0.0
  0
LINE
  5
236
330
1F
100
AcDbEntity
  8
0
  6
Continuous
 62
     7
370
    30
100
AcDbLine
 10
241.0785375873
 20
141.2996932562
 30
0.0
 11
227.5560529031
 21
149.1060575012
 31
0.0
  0
LINE
  5
237
330
1F
100
AcDbEntity
  8
0
  6
Continuous
 62
     7
370
    30
100
AcDbLine
 10
227.5097908887
 20
129.2724527028
 30
0.0
 11
232.4792364866
 21
126.4036528232
 31
0.0
  0
LINE
  5
238
330
1F
100
AcDbEntity
  8
0
  6
Continuous
 62
     7
370
    30
100
AcDbLine
 10
218.9567518024
 20
134.2100170683
 30
0.0
 11
226.7491988254
 21
129.7115331548
 31
0.0
  0
LINE
  5
239
330
1F
100
AcDbEntity
  8
0
  6
Continuous
 62
     7
370
    30
100
AcDbLine
 10
206.278608149
 20
155.1251841609
 30
0.0
 11
189.78879823
 21
164.6445488017
 31
0.0
  0
LINE
  5
23A
330
1F
100
AcDbEntity
  8
0
  6
Continuous
 62
     7
370
    30
100
AcDbLine
 10
186.6140562539
 20
159.1451385256
 30
0.0
 11
203.1038661728
 21
149.6257738848
 31
0.0
  0
LWPOLYLINE
  5
23B
330
1F
100
AcDbEntity
  8
0
  6
Continuous
 62
     7
370
    30
100
AcDbPolyline
 90
        3
 70
   128
 43
0.0
 10
227.2470791333
 20
140.018580877
 10
227.2351890327
 20
140.0274336178
 10
227.2232989242
 20
140.0362865698
  0
LINE
  5
23C
330
1F
100
AcDbEntity
  8
0
  6
Continuous
 62
     7
370
    30
100
AcDbLine
 10
227.010512587
 20
149.3496256594
 30
0.0
 11
221.9341416189
 21
151.0191442075
 31
0.0
  0
LINE
  5
23D
330
1F
100
AcDbEntity
  8
0
  6
Continuous
 62
     7
370
    30
100
AcDbLine
 10
214.4886473813
 20
138.1217724434
 30
0.0
 11
218.473012528
 21
134.56063937
 31
0.0
  0
ARC
  5
23E
330
1F
100
AcDbEntity
  8
0
  6
Continuous
 62
     7
370
    30
100
AcDbCircle
 10
190.1991603323
 20
160.7415768986
 30
0.0
 40
4.249999999999994
100
AcDbArc
 50
114.5091424152
 51
185.4962341175
  0
LINE
  5
23F
330
1F
100
AcDbEntity
  8
0
  6
Continuous
 62
     7
370
    30
100
AcDbLine
 10
221.4496092193
 20
151.130162365
 30
0.0
 11
220.5421446962
 21
151.6540304833
 31
0.0
  0
LINE
  5
240
330
1F
100
AcDbEntity
  8
0
  6
Continuous
 62
     7
370
    30
100
AcDbLine
 10
213.2427379479
 20
139.0097170926
 30
0.0
 11
214.1502024711
 21
138.4858489742
 31
0.0
  0
LINE
  5
241
330
1F
100
AcDbEntity
  8
0
  6
Continuous
 62
     7
370
    30
100
AcDbLine
 10
214.8235528892
 20
146.3244370802
 30
0.0
 11
214.7829188824
 21
146.3009795674
 31
0.0
  0
LINE
  5
242
330
1F
100
AcDbEntity
  8
0
  6
Continuous
 62
     7
370
    30
100
AcDbLine
 10
216.732604818
 20
151.1974917432
 30
0.0
 11
209.1391898264
 21
155.5810769106
 31
0.0
  0
LINE
  5
243
330
1F
100
AcDbEntity
  8
0
  6
Continuous
 62
     7
370
    30
100
AcDbLine
 10
204.1395961633
 20
146.9205882868
 30
0.0
 11
211.7330111548
 21
142.5370031194
 31
0.0
  0
LINE
  5
244
330
1F
100
AcDbEntity
  8
0
  6
Continuous
 62
     7
370
    30
100
AcDbLine
 10
206.6388183712
 20
155.333204881
 30
0.0
 11
206.2853224429
 21
155.1290696807
 31
0.0
  0
LINE
  5
245
330
1F
100
AcDbEntity
  8
0
  6
Continuous
 62
     7
370
    30
100
AcDbLine
 10
203.1038590889
 20
149.618016375
 30
0.0
 11
203.1038590889
 21
149.2098123191
 31
0.0
  0
LWPOLYLINE
  5
246
330
1F
100
AcDbEntity
  8
0
  6
Continuous
 62
     7
370
    30
100
AcDbPolyline
 90
       22
 70
   128
 43
0.0
 10
254.3726076882
 20
128.6023786575
 10
254.0141948669
 20
128.7489307914
 10
253.6121143655
 20
128.8013427969
 10
253.1764394333
 20
128.7582244066
 10
252.7178978333
 20
128.6206373386
 10
252.2477803814
 20
128.3919694429
 10
251.7776629295
 20
128.0778512821
 10
251.3191213294
 20
127.6860174878
 10
250.8834463973
 20
127.2261163085
 10
250.4813658958
 20
126.7094720374
 10
250.1227803814
 20
126.1488061713
 10
249.8165194194
 20
125.5579241644
 10
249.5701241712
 20
124.9513754929
 10
249.3896617055
 20
124.3440953979
 10
249.2795756072
 20
123.7510371309
 10
249.2425765613
 20
123.1868037548
 10
249.2795756072
 20
122.6652885677
 10
249.3896617055
 20
122.1993330044
 10
249.5701241712
 20
121.8004104373
 10
249.8165194194
 20
121.4783436639
 10
250.1227803814
 20
121.2410630371
 10
250.1229530745
 20
121.2409633273
  0
LWPOLYLINE
  5
247
330
1F
100
AcDbEntity
  8
0
  6
Continuous
 62
     7
370
    30
100
AcDbPolyline
 90
       48
 70
   128
 43
0.0
 10
257.8894280334
 20
129.0124901333
 10
257.8521222212
 20
129.7855062661
 10
257.7406421611
 20
130.5063871175
 10
257.5562948548
 20
131.1666810187
 10
257.3012416059
 20
131.7586466274
 10
256.9784726807
 20
132.275343688
 10
256.5917722497
 20
132.7107143999
 10
256.1456740218
 20
133.0596544397
 10
255.6454080909
 20
133.3180728044
 10
255.0968396176
 20
133.4829397749
 10
254.5064000658
 20
133.5523224367
 10
253.8810117993
 20
133.5254073417
 10
253.2280069238
 20
133.4025100445
 10
252.5550413243
 20
133.1850714038
 10
251.8700049072
 20
132.8756406887
 10
251.1809290983
 20
132.4778456915
 10
250.4958926812
 20
131.9963501948
 10
249.8229270818
 20
131.4367992931
 10
249.1699222062
 20
130.805753209
 10
248.5445339397
 20
130.110610381
 10
247.9540943879
 20
129.3595207232
 10
247.4055259146
 20
128.561290075
 10
246.9052599837
 20
127.7252769609
 10
246.4591617558
 20
126.8612828705
 10
246.0724613248
 20
125.9794373443
 10
245.7496923996
 20
125.090079215
 10
245.4946391507
 20
124.2036353934
 10
245.3102918445
 20
123.3304986228
 10
245.1988117843
 20
122.4809056337
 10
245.1615059721
 20
121.6648171269
 10
245.1988117843
 20
120.8918009942
 10
245.3102918445
 20
120.1709201428
 10
245.4946391507
 20
119.5106262416
 10
245.7496923996
 20
118.9186606329
 10
246.0724613248
 20
118.4019635723
 10
246.4591617558
 20
117.9665928604
 10
246.9052599837
 20
117.6176528206
 10
247.4055259146
 20
117.3592344559
 10
247.9540943879
 20
117.1943674854
 10
248.5445339397
 20
117.1249848236
 10
249.1699222062
 20
117.1518999186
 10
249.8229270818
 20
117.2747972158
 10
250.4958926812
 20
117.4922358565
 10
251.1809290983
 20
117.8016665716
 10
251.8700049072
 20
118.1994615688
 10
252.5550413243
 20
118.6809570655
 10
253.2280069238
 20
119.2405079672
 10
253.6431396007
 20
119.6310936304
  0
ARC
  5
248
330
1F
100
AcDbEntity
  8
0
  6
Continuous
 62
     7
370
    30
100
AcDbCircle
 10
247.0549940438
 20
129.1404670769
 30
0.0
 40
10.83518979873314
100
AcDbArc
 50
345.1254653182
 51
359.3232505036
  0
LWPOLYLINE
  5
249
330
1F
100
AcDbEntity
  8
0
  6
Continuous
 62
     7
370
    30
100
AcDbPolyline
 90
       31
 70
   128
 43
0.0
 10
242.6052790545
 20
140.880191872
 10
242.2255858458
 20
141.0651712849
 10
241.6770173725
 20
141.2300382554
 10
241.0865778207
 20
141.2994209172
 10
240.4611895542
 20
141.2725058221
 10
239.8081846787
 20
141.149608525
 10
239.1352190792
 20
140.9321698843
 10
238.4501826621
 20
140.6227391692
 10
237.7611068532
 20
140.224944172
 10
237.0760704361
 20
139.7434486753
 10
236.4031048367
 20
139.1838977735
 10
235.7500999611
 20
138.5528516895
 10
235.1247116946
 20
137.8577088615
 10
234.5342721428
 20
137.1066192037
 10
233.9857036695
 20
136.3083885555
 10
233.4854377386
 20
135.4723754414
 10
233.0393395107
 20
134.6083813509
 10
232.6526390797
 20
133.7265358248
 10
232.3298701545
 20
132.8371776954
 10
232.0748169056
 20
131.9507338738
 10
231.8904695994
 20
131.0775971033
 10
231.7789895392
 20
130.2280041142
 10
231.741683727
 20
129.4119156074
 10
231.7789895392
 20
128.6388994746
 10
231.8904695994
 20
127.9180186232
 10
232.0748169056
 20
127.2577247221
 10
232.3298701545
 20
126.6657591134
 10
232.6526390797
 20
126.1490620528
 10
233.0393395107
 20
125.7136913408
 10
233.4854377386
 20
125.364751301
 10
233.6060104608
 20
125.2913123492
  0
LWPOLYLINE
  5
24A
330
1F
100
AcDbEntity
  8
0
  6
Continuous
 62
     7
370
    30
100
AcDbPolyline
 90
       41
 70
   128
 43
0.0
 10
257.7278579356
 20
125.2278240343
 10
257.6908588897
 20
125.7493392214
 10
257.5807727914
 20
126.2152947847
 10
257.4003103257
 20
126.6142173518
 10
257.1539150775
 20
126.9362841252
 10
256.8476541155
 20
127.173564752
 10
256.4890686011
 20
127.3202165957
 10
256.0869880996
 20
127.3726286012
 10
255.6513131675
 20
127.329510211
 10
255.1927715675
 20
127.1919231429
 10
254.7226541155
 20
126.9632552472
 10
254.2525366636
 20
126.6491370864
 10
253.7939950636
 20
126.2573032921
 10
253.3583201315
 20
125.7974021128
 10
252.95623963
 20
125.2807578418
 10
252.5976541155
 20
124.7200919756
 10
252.2913931536
 20
124.1292099687
 10
252.0449979054
 20
123.5226612972
 10
251.8645354397
 20
122.9153812022
 10
251.7544493414
 20
122.3223229353
 10
251.7174502955
 20
121.7580895591
 10
251.7544493414
 20
121.236574372
 10
251.8645354397
 20
120.7706188087
 10
252.0449979054
 20
120.3716962416
 10
252.2913931536
 20
120.0496294682
 10
252.5976541155
 20
119.8123488414
 10
252.95623963
 20
119.6656969977
 10
253.3583201315
 20
119.6132849922
 10
253.7939950636
 20
119.6564033824
 10
254.2525366636
 20
119.7939904505
 10
254.7226541155
 20
120.0226583462
 10
255.1927715675
 20
120.336776507
 10
255.6513131675
 20
120.7286103013
 10
256.0869880996
 20
121.1885114806
 10
256.4890686011
 20
121.7051557516
 10
256.8476541155
 20
122.2658216178
 10
257.1539150775
 20
122.8567036247
 10
257.4003103257
 20
123.4632522962
 10
257.5807727914
 20
124.0705323912
 10
257.6908588897
 20
124.6635906581
 10
257.7278579356
 20
125.2278240343
  0
LWPOLYLINE
  5
24B
330
1F
100
AcDbEntity
  8
0
  6
Continuous
 62
     7
370
    30
100
AcDbPolyline
 90
       30
 70
   128
 43
0.0
 10
227.5560529031
 20
149.1060575012
 10
227.1223136833
 20
149.310372852
 10
226.5824588162
 20
149.4569219351
 10
226.0022301292
 20
149.5088031232
 10
225.3886708127
 20
149.4653866489
 10
224.7492286454
 20
149.3271995295
 10
224.0916655893
 20
149.0959191693
 10
223.4239635689
 20
148.7743529987
 10
222.7542275823
 20
148.3664043953
 10
222.0905873172
 20
147.8770253026
 10
221.4410984673
 20
147.3121561199
 10
220.8136449475
 20
146.6786535937
 10
220.2158431936
 20
145.9842075867
 10
219.6549497091
 20
145.2372477326
 10
219.1377729809
 20
144.4468411121
 10
218.6705908341
 20
143.6225821911
 10
218.2590742271
 20
142.7744763561
 10
217.9082184139
 20
141.9128184631
 10
217.6222823089
 20
141.0480678718
 10
217.404736789
 20
140.1907214829
 10
217.2582225622
 20
139.3511863201
 10
217.1845181128
 20
138.5396532031
 10
217.1845181128
 20
137.7659730445
 10
217.2582225622
 20
137.0395372736
 10
217.404736789
 20
136.3691638363
 10
217.6222823089
 20
135.7629901582
 10
217.9082184139
 20
135.2283743666
 10
218.2590742271
 20
134.771805973
 10
218.6705908341
 20
134.3988270992
 10
218.9567518024
 20
134.2100170683
  0
ARC
  5
24C
330
1F
100
AcDbEntity
  8
0
  6
Continuous
 62
     7
370
    30
100
AcDbCircle
 10
239.3885524605
 20
132.7576729891
 30
0.0
 40
12.61495919223191
100
AcDbArc
 50
135.3875127662
 51
136.6119310982
  0
LINE
  5
24D
330
1F
100
AcDbEntity
  8
0
  6
Continuous
 62
     7
370
    30
100
AcDbLine
 10
229.0523605025
 20
142.4000317962
 30
0.0
 11
230.4083036218
 21
141.6172624952
 31
0.0
  0
LINE
  5
24E
330
1F
100
AcDbEntity
  8
0
  6
Continuous
 62
     7
370
    30
100
AcDbLine
 10
228.5418453706
 20
142.6350923652
 30
0.0
 11
229.0523605025
 21
142.4000317962
 31
0.0
  0
SPLINE
  5
24F
330
1F
100
AcDbEntity
  8
0
  6
Continuous
 62
     7
370
    30
100
AcDbSpline
210
0.0
220
0.0
230
1.0
 70
     8
 71
     3
 72
    11
 73
     7
 74
     0
 42
0.000000001
 43
0.00000001
 40
0.0
 40
0.0
 40
0.0
 40
0.0
 40
0.2504306482802715
 40
0.5004375762315731
 40
0.750241308985696
 40
1.0
 40
1.0
 40
1.0
 40
1.0
 10
227.4295966631534
 20
142.2055723812813
 30
0.0
 10
227.5020135999383
 20
142.2819988407627
 30
0.0
 10
227.6467249464592
 20
142.4347224486976
 30
0.0
 10
227.9330096746793
 20
142.5914147655824
 30
0.0
 10
228.2487445691697
 20
142.6749931470009
 30
0.0
 10
228.4441509762049
 20
142.6483918263388
 30
0.0
 10
228.5418453705686
 20
142.6350923652271
 30
0.0
  0
SPLINE
  5
250
330
1F
100
AcDbEntity
  8
0
  6
Continuous
 62
     7
370
    30
100
AcDbSpline
210
0.0
220
0.0
230
1.0
 70
     8
 71
     3
 72
    14
 73
    10
 74
     0
 42
0.000000001
 43
0.00000001
 40
0.0
 40
0.0
 40
0.0
 40
0.0
 40
0.2502654571895483
 40
0.3753833322106924
 40
0.5002491132958464
 40
0.6252245425457317
 40
0.7501513982184373
 40
0.875004662204737
 40
1.0
 40
1.0
 40
1.0
 40
1.0
 10
227.7785090581177
 20
140.8997252019077
 30
0.0
 10
227.6698007000875
 20
140.9677771874987
 30
0.0
 10
227.5067446150216
 20
141.0698511269133
 30
0.0
 10
227.3252755537908
 20
141.2471849997505
 30
0.0
 10
227.2331535013655
 20
141.4163981777007
 30
0.0
 10
227.2006809353477
 20
141.6126707283699
 30
0.0
 10
227.2147872528
 20
141.8179956712383
 30
0.0
 10
227.2916710579425
 20
142.0240304729905
 30
0.0
 10
227.3836040358392
 20
142.1450354757722
 30
0.0
 10
227.4295966631534
 20
142.2055723812813
 30
0.0
  0
LINE
  5
251
330
1F
100
AcDbEntity
  8
0
  6
Continuous
 62
     7
370
    30
100
AcDbLine
 10
229.1344521774
 20
140.1169559009
 30
0.0
 11
227.7785090581
 21
140.8997252019
 31
0.0
  0
ARC
  5
252
330
1F
100
AcDbEntity
  8
0
  6
Continuous
 62
     7
370
    30
100
AcDbCircle
 10
240.6549358617
 20
131.6691937248
 30
0.0
 40
14.28587519558107
100
AcDbArc
 50
142.6211021684
 51
143.7480786186
  0
LINE
  5
253
330
1F
100
AcDbEntity
  8
0
  6
Continuous
 62
     7
370
    30
100
AcDbLine
 10
227.9576832461
 20
141.1184470519
 30
0.0
 11
229.3028327882
 21
140.3419087503
 31
0.0
  0
LINE
  5
254
330
1F
100
AcDbEntity
  8
0
  6
Continuous
 62
     7
370
    30
100
AcDbLine
 10
227.6285389604
 20
141.3449873984
 30
0.0
 11
227.9576832461
 21
141.1184470519
 31
0.0
  0
SPLINE
  5
255
330
1F
100
AcDbEntity
  8
0
  6
Continuous
 62
     7
370
    30
100
AcDbSpline
210
0.0
220
0.0
230
1.0
 70
     8
 71
     3
 72
    11
 73
     7
 74
     0
 42
0.000000001
 43
0.00000001
 40
0.0
 40
0.0
 40
0.0
 40
0.0
 40
0.2499982028559019
 40
0.4999447842352888
 40
0.7498010159290741
 40
1.0
 40
1.0
 40
1.0
 40
1.0
 10
227.6698208272149
 20
142.0844159029611
 30
0.0
 10
227.6264453820045
 20
142.023150119049
 30
0.0
 10
227.5397034480663
 20
141.9006312018365
 30
0.0
 10
227.4923666448679
 20
141.6939034695379
 30
0.0
 10
227.5176148298231
 20
141.4963581865355
 30
0.0
 10
227.5915473583912
 20
141.3954673789242
 30
0.0
 10
227.628538960427
 20
141.3449873983728
 30
0.0
  0
SPLINE
  5
256
330
1F
100
AcDbEntity
  8
0
  6
Continuous
 62
     7
370
    30
100
AcDbSpline
210
0.0
220
0.0
230
1.0
 70
     8
 71
     3
 72
    12
 73
     8
 74
     0
 42
0.000000001
 43
0.00000001
 40
0.0
 40
0.0
 40
0.0
 40
0.0
 40
0.2497068776670043
 40
0.3736041887613087
 40
0.5000118599150318
 40
0.7516319720863186
 40
1.0
 40
1.0
 40
1.0
 40
1.0
 10
228.5689642876753
 20
142.3634843069545
 30
0.0
 10
228.4965348180791
 20
142.3865943008999
 30
0.0
 10
228.3881679461543
 20
142.4211708036415
 30
0.0
 10
228.220149409309
 20
142.412002642874
 30
0.0
 10
228.053122217809
 20
142.3654398588396
 30
0.0
 10
227.8532611361488
 20
142.2650019885403
 30
0.0
 10
227.7307018751945
 20
142.1443496776287
 30
0.0
 10
227.6698208272149
 20
142.0844159029611
 30
0.0
  0
SPLINE
  5
257
330
1F
100
AcDbEntity
  8
0
  6
Continuous
 62
     7
370
    30
100
AcDbSpline
210
0.0
220
0.0
230
1.0
 70
     8
 71
     3
 72
     9
 73
     5
 74
     0
 42
0.000000001
 43
0.00000001
 40
0.0
 40
0.0
 40
0.0
 40
0.0
 40
0.6365762138126239
 40
1.0
 40
1.0
 40
1.0
 40
1.0
 10
228.8758883820544
 20
142.1998833736872
 30
0.0
 10
228.8127797617921
 20
142.236875285501
 30
0.0
 10
228.713642189742
 20
142.29498602073
 30
0.0
 10
228.607528519486
 20
142.3452259292005
 30
0.0
 10
228.5689642876753
 20
142.3634843069545
 30
0.0
  0
LINE
  5
258
330
1F
100
AcDbEntity
  8
0
  6
Continuous
 62
     7
370
    30
100
AcDbLine
 10
230.2210379242
 20
141.4233450721
 30
0.0
 11
228.8758883821
 21
142.1998833737
 31
0.0
  0
ARC
  5
259
330
1F
100
AcDbEntity
  8
0
  6
Continuous
 62
     7
370
    30
100
AcDbCircle
 10
240.4586082534
 20
131.7315577108
 30
0.0
 40
14.78463985219899
100
AcDbArc
 50
146.6067951717
 51
147.7082803363
  0
LINE
  5
25A
330
1F
100
AcDbEntity
  8
0
  6
Continuous
 62
     7
370
    30
100
AcDbLine
 10
226.4740944063
 20
140.8158652041
 30
0.0
 11
228.1147181207
 21
139.8687532936
 31
0.0
  0
ARC
  5
25B
330
1F
100
AcDbEntity
  8
0
  6
Continuous
 62
     7
370
    30
100
AcDbCircle
 10
238.8179845386
 20
132.6786696215
 30
0.0
 40
14.78463985182026
100
AcDbArc
 50
146.6067951716
 51
147.7082803363
  0
LINE
  5
25C
330
1F
100
AcDbEntity
  8
0
  6
Continuous
 62
     7
370
    30
100
AcDbLine
 10
226.9131481598
 20
140.2346251961
 30
0.0
 11
226.3199511534
 21
140.5770705388
 31
0.0
  0
LINE
  5
25D
330
1F
100
AcDbEntity
  8
0
  6
Continuous
 62
     7
370
    30
100
AcDbLine
 10
227.3300806039
 20
139.9433751961
 30
0.0
 11
226.9131481598
 21
140.2346251961
 31
0.0
  0
SPLINE
  5
25E
330
1F
100
AcDbEntity
  8
0
  6
Continuous
 62
     7
370
    30
100
AcDbSpline
210
0.0
220
0.0
230
1.0
 70
     8
 71
     3
 72
    11
 73
     7
 74
     0
 42
0.000000001
 43
0.00000001
 40
0.0
 40
0.0
 40
0.0
 40
0.0
 40
0.2498824963084877
 40
0.4998557392403399
 40
0.7500036827190945
 40
1.0
 40
1.0
 40
1.0
 40
1.0
 10
227.3628881083715
 20
139.0135302967847
 30
0.0
 10
227.4012944572589
 20
139.0951062926028
 30
0.0
 10
227.478121102575
 20
139.2582879091478
 30
0.0
 10
227.4974702563532
 20
139.5178021601647
 30
0.0
 10
227.4595460492991
 20
139.760427893129
 30
0.0
 10
227.3732270293791
 20
139.8824050881674
 30
0.0
 10
227.3300806038687
 20
139.9433751960829
 30
0.0
  0
SPLINE
  5
25F
330
1F
100
AcDbEntity
  8
0
  6
Continuous
 62
     7
370
    30
100
AcDbSpline
210
0.0
220
0.0
230
1.0
 70
     8
 71
     3
 72
    13
 73
     9
 74
     0
 42
0.000000001
 43
0.00000001
 40
0.0
 40
0.0
 40
0.0
 40
0.0
 40
0.1253187799524975
 40
0.2505074758412654
 40
0.3775785020344015
 40
0.5007845545470265
 40
0.7499620183510513
 40
1.0
 40
1.0
 40
1.0
 40
1.0
 10
226.7600533353724
 20
138.6719617195737
 30
0.0
 10
226.7875441843649
 20
138.6662739029388
 30
0.0
 10
226.8424973461535
 20
138.6549041737664
 30
0.0
 10
226.929123767424
 20
138.6555001320943
 30
0.0
 10
227.0161692179044
 20
138.6743651039392
 30
0.0
 10
227.1287414329556
 20
138.725981227164
 30
0.0
 10
227.2554284728517
 20
138.8375965773837
 30
0.0
 10
227.3270270907209
 20
138.9548183703366
 30
0.0
 10
227.3628881083715
 20
139.0135302967847
 30
0.0
  0
SPLINE
  5
260
330
1F
100
AcDbEntity
  8
0
  6
Continuous
 62
     7
370
    30
100
AcDbSpline
210
0.0
220
0.0
230
1.0
 70
     8
 71
     3
 72
     9
 73
     5
 74
     0
 42
0.000000001
 43
0.00000001
 40
0.0
 40
0.0
 40
0.0
 40
0.0
 40
0.5003064839534147
 40
1.0
 40
1.0
 40
1.0
 40
1.0
 10
226.3716734144445
 20
138.85743714015
 30
0.0
 10
226.4339863490515
 20
138.8209223889825
 30
0.0
 10
226.5585358734043
 20
138.747937623966
 30
0.0
 10
226.6929083033787
 20
138.6972766698581
 30
0.0
 10
226.7600533353724
 20
138.6719617195737
 30
0.0
  0
LINE
  5
261
330
1F
100
AcDbEntity
  8
0
  6
Continuous
 62
     7
370
    30
100
AcDbLine
 10
225.599932654
 20
139.302953598
 30
0.0
 11
226.3716734144
 21
138.8574371402
 31
0.0
  0
ARC
  5
262
330
1F
100
AcDbEntity
  8
0
  6
Continuous
 62
     7
370
    30
100
AcDbCircle
 10
238.7291243484
 20
132.7151607583
 30
0.0
 40
14.6892712224156
100
AcDbArc
 50
153.3540207492
 51
154.4602684139
  0
LINE
  5
263
330
1F
100
AcDbEntity
  8
0
  6
Continuous
 62
     7
370
    30
100
AcDbLine
 10
226.313044198
 20
138.5645661153
 30
0.0
 11
225.4751927781
 21
139.0482474446
 31
0.0
  0
SPLINE
  5
264
330
1F
100
AcDbEntity
  8
0
  6
Continuous
 62
     7
370
    30
100
AcDbSpline
210
0.0
220
0.0
230
1.0
 70
     8
 71
     3
 72
    14
 73
    10
 74
     0
 42
0.000000001
 43
0.00000001
 40
0.0
 40
0.0
 40
0.0
 40
0.0
 40
0.1249698545254697
 40
0.2500169049854593
 40
0.376055729187766
 40
0.4997230104158701
 40
0.6246101612686746
 40
0.7497231575069839
 40
0.9999999999999999
 40
0.9999999999999999
 40
0.9999999999999999
 40
0.9999999999999999
 10
227.5403327987353
 20
138.8538379032867
 30
0.0
 10
227.5043569045279
 20
138.7943305232169
 30
0.0
 10
227.4323828932115
 20
138.6752790043901
 30
0.0
 10
227.2877285416967
 20
138.5304733537779
 30
0.0
 10
227.1256841010498
 20
138.424773732407
 30
0.0
 10
226.9521232368421
 20
138.3683710376204
 30
0.0
 10
226.7791665873312
 20
138.3664712258836
 30
0.0
 10
226.5621692301602
 20
138.4296084255941
 30
0.0
 10
226.4126982603298
 20
138.5105808457265
 30
0.0
 10
226.3130441980357
 20
138.5645661153018
 30
0.0
  0
SPLINE
  5
265
330
1F
100
AcDbEntity
  8
0
  6
Continuous
 62
     7
370
    30
100
AcDbSpline
210
0.0
220
0.0
230
1.0
 70
     8
 71
     3
 72
    11
 73
     7
 74
     0
 42
0.000000001
 43
0.00000001
 40
0.0
 40
0.0
 40
0.0
 40
0.0
 40
0.2502298008222138
 40
0.5001010818605558
 40
0.7499844207790932
 40
1.0
 40
1.0
 40
1.0
 40
1.0
 10
227.6646509631888
 20
139.8007918621319
 30
0.0
 10
227.6826333579554
 20
139.7270500033587
 30
0.0
 10
227.7185723829943
 20
139.5796719403551
 30
0.0
 10
227.7132166866151
 20
139.3355001350189
 30
0.0
 10
227.6552873848537
 20
139.0863864665943
 30
0.0
 10
227.5786577511581
 20
138.9313677602997
 30
0.0
 10
227.5403327987353
 20
138.8538379032867
 30
0.0
  0
LINE
  5
266
330
1F
100
AcDbEntity
  8
0
  6
Continuous
 62
     7
370
    30
100
AcDbLine
 10
227.9605748678
 20
139.6299586283
 30
0.0
 11
227.6646509632
 21
139.8007918621
 31
0.0
  0
SPLINE
  5
267
330
1F
100
AcDbEntity
  8
0
  6
Continuous
 62
     7
370
    30
100
AcDbSpline
210
0.0
220
0.0
230
1.0
 70
     8
 71
     3
 72
    13
 73
     9
 74
     0
 42
0.000000001
 43
0.00000001
 40
0.0
 40
0.0
 40
0.0
 40
0.0
 40
0.1254585529564003
 40
0.2507518492609438
 40
0.5003872894255531
 40
0.628888717394631
 40
0.7508529200242231
 40
1.0
 40
1.0
 40
1.0
 40
1.0
 10
227.503317268963
 20
137.0233646405314
 30
0.0
 10
227.496457828663
 20
137.0084426345992
 30
0.0
 10
227.4827479834625
 20
136.9786182783158
 30
0.0
 10
227.4465298958817
 20
136.9262705618197
 30
0.0
 10
227.3991062990974
 20
136.8880148218356
 30
0.0
 10
227.3480611776364
 20
136.865914251985
 30
0.0
 10
227.2944570723339
 20
136.8565438929793
 30
0.0
 10
227.2569392336437
 20
136.8716319025536
 30
0.0
 10
227.231751478933
 20
136.8817612995951
 30
0.0
  0
SPLINE
  5
268
330
1F
100
AcDbEntity
  8
0
  6
Continuous
 62
     7
370
    30
100
AcDbSpline
210
0.0
220
0.0
230
1.0
 70
     8
 71
     3
 72
    13
 73
     9
 74
     0
 42
0.000000001
 43
0.00000001
 40
0.0
 40
0.0
 40
0.0
 40
0.0
 40
0.1253391219460551
 40
0.250502964298701
 40
0.3736947096990628
 40
0.5009167439044339
 40
0.750444024022931
 40
1.0
 40
1.0
 40
1.0
 40
1.0
 10
227.4315941214968
 20
137.3623462347781
 30
0.0
 10
227.4430003138329
 20
137.3546388658332
 30
0.0
 10
227.4657967475974
 20
137.3392349062582
 30
0.0
 10
227.4928765843716
 20
137.3050102511872
 30
0.0
 10
227.5132439409276
 20
137.2640660145905
 30
0.0
 10
227.5296920094036
 20
137.2029592737712
 30
0.0
 10
227.5348827478342
 20
137.1181853242381
 30
0.0
 10
227.5138394985623
 20
137.0549727466144
 30
0.0
 10
227.503317268963
 20
137.0233646405314
 30
0.0
  0
SPLINE
  5
269
330
1F
100
AcDbEntity
  8
0
  6
Continuous
 62
     7
370
    30
100
AcDbSpline
210
0.0
220
0.0
230
1.0
 70
     8
 71
     3
 72
    12
 73
     8
 74
     0
 42
0.000000001
 43
0.00000001
 40
0.0
 40
0.0
 40
0.0
 40
0.0
 40
0.1255976294695668
 40
0.251032624150941
 40
0.5010054477531136
 40
0.7506350573263375
 40
1.0
 40
1.0
 40
1.0
 40
1.0
 10
227.1579228027681
 20
137.2227566216881
 30
0.0
 10
227.1647181455283
 20
137.2375121207929
 30
0.0
 10
227.1783000318449
 20
137.2670040122927
 30
0.0
 10
227.2153426755125
 20
137.3181945280565
 30
0.0
 10
227.2740974939709
 20
137.3645877344206
 30
0.0
 10
227.356072186719
 20
137.391394608256
 30
0.0
 10
227.4064290463367
 20
137.3720256014946
 30
0.0
 10
227.4315941214968
 20
137.3623462347781
 30
0.0
  0
SPLINE
  5
26A
330
1F
100
AcDbEntity
  8
0
  6
Continuous
 62
     7
370
    30
100
AcDbSpline
210
0.0
220
0.0
230
1.0
 70
     8
 71
     3
 72
    13
 73
     9
 74
     0
 42
0.000000001
 43
0.00000001
 40
0.0
 40
0.0
 40
0.0
 40
0.0
 40
0.1253195859664344
 40
0.2504681748771607
 40
0.3720757009964892
 40
0.5008391159823613
 40
0.7503288696171131
 40
0.9999999999999999
 40
0.9999999999999999
 40
0.9999999999999999
 40
0.9999999999999999
 10
227.231751478933
 20
136.8817612995951
 30
0.0
 10
227.2203370821773
 20
136.8895297612926
 30
0.0
 10
227.197523863472
 20
136.9050560847158
 30
0.0
 10
227.1702997600611
 20
136.9396662696151
 30
0.0
 10
227.1497074049071
 20
136.9812294504266
 30
0.0
 10
227.1327811081956
 20
137.0428749088986
 30
0.0
 10
227.1262215980691
 20
137.1280691301528
 30
0.0
 10
227.1473531750552
 20
137.1911864796668
 30
0.0
 10
227.1579228027681
 20
137.2227566216881
 30
0.0
  0
ARC
  5
26B
330
1F
100
AcDbEntity
  8
0
  6
Continuous
 62
     7
370
    30
100
AcDbCircle
 10
239.9044821086
 20
131.9769245787
 30
0.0
 40
14.1792002176307
100
AcDbArc
 50
156.8545797754
 51
157.9872017298
  0
LINE
  5
26C
330
1F
100
AcDbEntity
  8
0
  6
Continuous
 62
     7
370
    30
100
AcDbLine
 10
225.2259393085
 20
138.4974003503
 30
0.0
 11
226.866563023
 21
137.5502884398
 31
0.0
  0
ARC
  5
26D
330
1F
100
AcDbEntity
  8
0
  6
Continuous
 62
     7
370
    30
100
AcDbCircle
 10
238.2638583942
 20
132.9240364893
 30
0.0
 40
14.17920021759839
100
AcDbArc
 50
156.8545797754
 51
157.9872017298
  0
LINE
  5
26E
330
1F
100
AcDbEntity
  8
0
  6
Continuous
 62
     7
370
    30
100
AcDbLine
 10
226.7589433915
 20
137.2914829469
 30
0.0
 11
225.1183196771
 21
138.2385948574
 31
0.0
  0
LINE
  5
26F
330
1F
100
AcDbEntity
  8
0
  6
Continuous
 62
     7
370
    30
100
AcDbLine
 10
225.6389926811
 20
134.8084635864
 30
0.0
 11
225.570235192
 21
135.0800036956
 31
0.0
  0
SPLINE
  5
270
330
1F
100
AcDbEntity
  8
0
  6
Continuous
 62
     7
370
    30
100
AcDbSpline
210
0.0
220
0.0
230
1.0
 70
     8
 71
     3
 72
    11
 73
     7
 74
     0
 42
0.000000001
 43
0.00000001
 40
0.0
 40
0.0
 40
0.0
 40
0.0
 40
0.2808577076391618
 40
0.5617237147638399
 40
0.8421121473600544
 40
1.0
 40
1.0
 40
1.0
 40
1.0
 10
226.2187864606268
 20
135.5361034364055
 30
0.0
 10
226.1915838450712
 20
135.4445051721354
 30
0.0
 10
226.1371778101091
 20
135.2613059368206
 30
0.0
 10
226.0067898662546
 20
135.0409627826104
 30
0.0
 10
225.8721411475316
 20
134.8837692195117
 30
0.0
 10
225.7649157725572
 20
134.8524596698987
 30
0.0
 10
225.7262881196964
 20
134.8411804888842
 30
0.0
  0
SPLINE
  5
271
330
1F
100
AcDbEntity
  8
0
  6
Continuous
 62
     7
370
    30
100
AcDbSpline
210
0.0
220
0.0
230
1.0
 70
     8
 71
     3
 72
    14
 73
    10
 74
     0
 42
0.000000001
 43
0.00000001
 40
0.0
 40
0.0
 40
0.0
 40
0.0
 40
0.1250716595813564
 40
0.2500688213695787
 40
0.3759532206566657
 40
0.5003047173934375
 40
0.6255024720093455
 40
0.7506352674499317
 40
1.0
 40
1.0
 40
1.0
 40
1.0
 10
225.713866699419
 20
137.2161933038377
 30
0.0
 10
225.7710330097778
 20
137.1783057518581
 30
0.0
 10
225.8853315799041
 20
137.1025532152738
 30
0.0
 10
226.0279295942193
 20
136.9320427797746
 30
0.0
 10
226.1430841915148
 20
136.7316489466237
 30
0.0
 10
226.2257897203554
 20
136.503888055193
 30
0.0
 10
226.2715145307105
 20
136.2606225805969
 30
0.0
 10
226.2928300733615
 20
135.9273220199554
 30
0.0
 10
226.2483825218962
 20
135.6924778857446
 30
0.0
 10
226.2187864606268
 20
135.5361034364055
 30
0.0
  0
SPLINE
  5
272
330
1F
100
AcDbEntity
  8
0
  6
Continuous
 62
     7
370
    30
100
AcDbSpline
210
0.0
220
0.0
230
1.0
 70
     8
 71
     3
 72
    13
 73
     9
 74
     0
 42
0.000000001
 43
0.00000001
 40
0.0
 40
0.0
 40
0.0
 40
0.0
 40
0.2497847366209675
 40
0.3744674679924722
 40
0.5003452520172366
 40
0.6250935565557769
 40
0.7508945853258724
 40
1.0
 40
1.0
 40
1.0
 40
1.0
 10
224.5259310267685
 20
136.537727994774
 30
0.0
 10
224.5735891908606
 20
136.6797449593777
 30
0.0
 10
224.6450364389118
 20
136.8926512156468
 30
0.0
 10
224.8253858112008
 20
137.1033915084792
 30
0.0
 10
224.9843676109969
 20
137.2220324432879
 30
0.0
 10
225.1610934987815
 20
137.2987154727487
 30
0.0
 10
225.4118057612903
 20
137.3423923535848
 30
0.0
 10
225.5932840305635
 20
137.2665719404128
 30
0.0
 10
225.713866699419
 20
137.2161933038377
 30
0.0
  0
SPLINE
  5
273
330
1F
100
AcDbEntity
  8
0
  6
Continuous
 62
     7
370
    30
100
AcDbSpline
210
0.0
220
0.0
230
1.0
 70
     8
 71
     3
 72
    11
 73
     7
 74
     0
 42
0.000000001
 43
0.00000001
 40
0.0
 40
0.0
 40
0.0
 40
0.0
 40
0.249815155174357
 40
0.4997379591708757
 40
0.7497554827813767
 40
1.0
 40
1.0
 40
1.0
 40
1.0
 10
224.7039990675735
 20
135.3482239104395
 30
0.0
 10
224.6543702958846
 20
135.439565032778
 30
0.0
 10
224.5550913667794
 20
135.6222866376139
 30
0.0
 10
224.4821029080395
 20
135.9338463999248
 30
0.0
 10
224.4670219374783
 20
136.2458340693253
 30
0.0
 10
224.5062887245779
 20
136.4404005914759
 30
0.0
 10
224.5259310267685
 20
136.537727994774
 30
0.0
  0
LINE
  5
274
330
1F
100
AcDbEntity
  8
0
  6
Continuous
 62
     7
370
    30
100
AcDbLine
 10
224.8506633875
 20
135.4954036563
 30
0.0
 11
224.7039990676
 21
135.3482239104
 31
0.0
  0
SPLINE
  5
275
330
1F
100
AcDbEntity
  8
0
  6
Continuous
 62
     7
370
    30
100
AcDbSpline
210
0.0
220
0.0
230
1.0
 70
     8
 71
     3
 72
    12
 73
     8
 74
     0
 42
0.000000001
 43
0.00000001
 40
0.0
 40
0.0
 40
0.0
 40
0.0
 40
0.125196005895849
 40
0.2503371137440882
 40
0.5001741257503195
 40
0.7499903408821162
 40
1.0
 40
1.0
 40
1.0
 40
1.0
 10
224.7263986844809
 20
136.4173893209597
 30
0.0
 10
224.7181096283473
 20
136.3803693302032
 30
0.0
 10
224.7015351508046
 20
136.3063455818375
 30
0.0
 10
224.6851317035994
 20
136.1519230504847
 30
0.0
 10
224.6927971418976
 20
135.9520401641204
 30
0.0
 10
224.7491195011456
 20
135.7133229758639
 30
0.0
 10
224.8168066932034
 20
135.5680621692566
 30
0.0
 10
224.8506633874741
 20
135.4954036563342
 30
0.0
  0
SPLINE
  5
276
330
1F
100
AcDbEntity
  8
0
  6
Continuous
 62
     7
370
    30
100
AcDbSpline
210
0.0
220
0.0
230
1.0
 70
     8
 71
     3
 72
    13
 73
     9
 74
     0
 42
0.000000001
 43
0.00000001
 40
0.0
 40
0.0
 40
0.0
 40
0.0
 40
0.2486610267263354
 40
0.3748641208920597
 40
0.499678437033633
 40
0.6237951399258189
 40
0.7502256786009065
 40
0.9999999999999999
 40
0.9999999999999999
 40
0.9999999999999999
 40
0.9999999999999999
 10
225.6425224658422
 20
136.945707148003
 30
0.0
 10
225.5488005641972
 20
136.9831514942919
 30
0.0
 10
225.4075119242723
 20
137.0395999942388
 30
0.0
 10
225.2144483168686
 20
137.010038060434
 30
0.0
 10
225.0781044367561
 20
136.9534282956845
 30
0.0
 10
224.9573094920408
 20
136.8583878088016
 30
0.0
 10
224.819487160676
 20
136.6940933585471
 30
0.0
 10
224.7635422695391
 20
136.5277980458219
 30
0.0
 10
224.7263986844809
 20
136.4173893209597
 30
0.0
  0
SPLINE
  5
277
330
1F
100
AcDbEntity
  8
0
  6
Continuous
 62
     7
370
    30
100
AcDbSpline
210
0.0
220
0.0
230
1.0
 70
     8
 71
     3
 72
    14
 73
    10
 74
     0
 42
0.000000001
 43
0.00000001
 40
0.0
 40
0.0
 40
0.0
 40
0.0
 40
0.2494953450786475
 40
0.3745959285995273
 40
0.4997060529979673
 40
0.6248290204651218
 40
0.7498687678745077
 40
0.8748864702349245
 40
1.0
 40
1.0
 40
1.0
 40
1.0
 10
226.0220616498524
 20
135.6713950787069
 30
0.0
 10
226.0449597700239
 20
135.7892211980396
 30
0.0
 10
226.0793393396551
 20
135.9661270419974
 30
0.0
 10
226.0629257192072
 20
136.2178647128948
 30
0.0
 10
226.0267220833149
 20
136.4018560438617
 30
0.0
 10
225.9659230357283
 20
136.5755724346149
 30
0.0
 10
225.8813198936771
 20
136.7311933540627
 30
0.0
 10
225.7721953224001
 20
136.8596676119563
 30
0.0
 10
225.6857577896798
 20
136.9170199785941
 30
0.0
 10
225.6425224658422
 20
136.945707148003
 30
0.0
  0
SPLINE
  5
278
330
1F
100
AcDbEntity
  8
0
  6
Continuous
 62
     7
370
    30
100
AcDbSpline
210
0.0
220
0.0
230
1.0
 70
     8
 71
     3
 72
    12
 73
     8
 74
     0
 42
0.000000001
 43
0.00000001
 40
0.0
 40
0.0
 40
0.0
 40
0.0
 40
0.1251990186331934
 40
0.2503412287105506
 40
0.5001113717669909
 40
0.7499496931164991
 40
0.9999999999999999
 40
0.9999999999999999
 40
0.9999999999999999
 40
0.9999999999999999
 10
225.5702351920469
 20
135.0800036955911
 30
0.0
 10
225.5967626277113
 20
135.0897133162967
 30
0.0
 10
225.649805462322
 20
135.1091281520062
 30
0.0
 10
225.7484991852351
 20
135.1697866086408
 30
0.0
 10
225.858454173719
 20
135.2775051642458
 30
0.0
 10
225.9592970665825
 20
135.4562798173574
 30
0.0
 10
226.0011342081993
 20
135.5996697226852
 30
0.0
 10
226.0220616498524
 20
135.6713950787069
 30
0.0
  0
LINE
  5
279
330
1F
100
AcDbEntity
  8
0
  6
Continuous
 62
     7
370
    30
100
AcDbLine
 10
224.7718408754
 20
133.1832758072
 30
0.0
 11
224.6958876015
 21
133.0423171367
 31
0.0
  0
SPLINE
  5
27A
330
1F
100
AcDbEntity
  8
0
  6
Continuous
 62
     7
370
    30
100
AcDbSpline
210
0.0
220
0.0
230
1.0
 70
     8
 71
     3
 72
    11
 73
     7
 74
     0
 42
0.000000001
 43
0.00000001
 40
0.0
 40
0.0
 40
0.0
 40
0.0
 40
0.2495648371536478
 40
0.5000801423849847
 40
0.7495323266983067
 40
1.0
 40
1.0
 40
1.0
 40
1.0
 10
224.4043622060056
 20
134.0666316586399
 30
0.0
 10
224.4085790381062
 20
133.9938461256992
 30
0.0
 10
224.4170287621191
 20
133.8479978560002
 30
0.0
 10
224.4894982043432
 20
133.6137247155386
 30
0.0
 10
224.612401894359
 20
133.384488794061
 30
0.0
 10
224.7186226262131
 20
133.2504375690883
 30
0.0
 10
224.7718408754157
 20
133.1832758072365
 30
0.0
  0
SPLINE
  5
27B
330
1F
100
AcDbEntity
  8
0
  6
Continuous
 62
     7
370
    30
100
AcDbSpline
210
0.0
220
0.0
230
1.0
 70
     8
 71
     3
 72
    13
 73
     9
 74
     0
 42
0.000000001
 43
0.00000001
 40
0.0
 40
0.0
 40
0.0
 40
0.0
 40
0.2496078234343629
 40
0.374840678335399
 40
0.500104283554576
 40
0.6270421650868868
 40
0.7506055388493479
 40
1.0
 40
1.0
 40
1.0
 40
1.0
 10
225.046050698776
 20
134.4288134912006
 30
0.0
 10
224.9659002124315
 20
134.4645876387214
 30
0.0
 10
224.8455367468281
 20
134.5183103367485
 30
0.0
 10
224.6961818070334
 20
134.5119145388273
 30
0.0
 10
224.5964151663893
 20
134.4749094521963
 30
0.0
 10
224.5128840741371
 20
134.4101690100737
 30
0.0
 10
224.4274469968362
 20
134.287824570503
 30
0.0
 10
224.4136129455086
 20
134.1552700189598
 30
0.0
 10
224.4043622060056
 20
134.0666316586399
 30
0.0
  0
ARC
  5
27C
330
1F
100
AcDbEntity
  8
0
  6
Continuous
 62
     7
370
    30
100
AcDbCircle
 10
232.9914737212
 20
133.6506825736
 30
0.0
 40
7.983435020733661
100
AcDbArc
 50
174.406604182
 51
186.5092185356
  0
SPLINE
  5
27D
330
1F
100
AcDbEntity
  8
0
  6
Continuous
 62
     7
370
    30
100
AcDbSpline
210
0.0
220
0.0
230
1.0
 70
     8
 71
     3
 72
     9
 73
     5
 74
     0
 42
0.000000001
 43
0.00000001
 40
0.0
 40
0.0
 40
0.0
 40
0.0
 40
0.4993867952804607
 40
1.0
 40
1.0
 40
1.0
 40
1.0
 10
225.6083417231174
 20
132.6099251043606
 30
0.0
 10
225.5268316855231
 20
132.6026662297988
 30
0.0
 10
225.3636114354792
 20
132.5881306541081
 30
0.0
 10
225.1609552473169
 20
132.6931045415471
 30
0.0
 10
225.0595028835047
 20
132.7456558557499
 30
0.0
  0
SPLINE
  5
27E
330
1F
100
AcDbEntity
  8
0
  6
Continuous
 62
     7
370
    30
100
AcDbSpline
210
0.0
220
0.0
230
1.0
 70
     8
 71
     3
 72
    12
 73
     8
 74
     0
 42
0.000000001
 43
0.00000001
 40
0.0
 40
0.0
 40
0.0
 40
0.0
 40
0.125211961457487
 40
0.2503701830504173
 40
0.5002111660921652
 40
0.7499909910701859
 40
1.0
 40
1.0
 40
1.0
 40
1.0
 10
225.9007522678086
 20
133.1676220047643
 30
0.0
 10
225.8998329772852
 20
133.1312357672328
 30
0.0
 10
225.8979947907896
 20
133.0584789088206
 30
0.0
 10
225.8805537332001
 20
132.9254170617937
 30
0.0
 10
225.8361354121125
 20
132.7822478321203
 30
0.0
 10
225.7416858063858
 20
132.6625099672471
 30
0.0
 10
225.6528033369018
 20
132.6274587497032
 30
0.0
 10
225.6083417231174
 20
132.6099251043606
 30
0.0
  0
SPLINE
  5
27F
330
1F
100
AcDbEntity
  8
0
  6
Continuous
 62
     7
370
    30
100
AcDbSpline
210
0.0
220
0.0
230
1.0
 70
     8
 71
     3
 72
    12
 73
     8
 74
     0
 42
0.000000001
 43
0.00000001
 40
0.0
 40
0.0
 40
0.0
 40
0.0
 40
0.125187895676692
 40
0.2503139570201131
 40
0.5000988041059946
 40
0.7499486098187303
 40
1.0
 40
1.0
 40
1.0
 40
1.0
 10
225.6339159445254
 20
134.1055283022352
 30
0.0
 10
225.6553137410453
 20
134.0680079404021
 30
0.0
 10
225.6980987650243
 20
133.9929857492507
 30
0.0
 10
225.7733261637551
 20
133.8360138913632
 30
0.0
 10
225.8453372098459
 20
133.631467971372
 30
0.0
 10
225.8949730518576
 20
133.3876775684712
 30
0.0
 10
225.898825344681
 20
133.2409935760392
 30
0.0
 10
225.9007522678086
 20
133.1676220047643
 30
0.0
  0
SPLINE
  5
280
330
1F
100
AcDbEntity
  8
0
  6
Continuous
 62
     7
370
    30
100
AcDbSpline
210
0.0
220
0.0
230
1.0
 70
     8
 71
     3
 72
     9
 73
     5
 74
     0
 42
0.000000001
 43
0.00000001
 40
0.0
 40
0.0
 40
0.0
 40
0.0
 40
0.5000224920518813
 40
1.0
 40
1.0
 40
1.0
 40
1.0
 10
225.1104605802567
 20
134.6520866708396
 30
0.0
 10
225.2086424878039
 20
134.5850226128328
 30
0.0
 10
225.4049974700454
 20
134.4509005301809
 30
0.0
 10
225.5576120747758
 20
134.2206489256631
 30
0.0
 10
225.6339159445254
 20
134.1055283022352
 30
0.0
  0
SPLINE
  5
281
330
1F
100
AcDbEntity
  8
0
  6
Continuous
 62
     7
370
    30
100
AcDbSpline
210
0.0
220
0.0
230
1.0
 70
     8
 71
     3
 72
    12
 73
     8
 74
     0
 42
0.000000001
 43
0.00000001
 40
0.0
 40
0.0
 40
0.0
 40
0.0
 40
0.2498436464876772
 40
0.3746959420979865
 40
0.5004738422814038
 40
0.7502750116692197
 40
0.9999999999999999
 40
0.9999999999999999
 40
0.9999999999999999
 40
0.9999999999999999
 10
224.2026049864244
 20
134.1537027306883
 30
0.0
 10
224.2142094264756
 20
134.2779696646372
 30
0.0
 10
224.2316128572157
 20
134.4643354839895
 30
0.0
 10
224.3523594541596
 20
134.6388564570843
 30
0.0
 10
224.5162685810994
 20
134.749209237872
 30
0.0
 10
224.7750476636404
 20
134.7997011658941
 30
0.0
 10
224.998667642562
 20
134.701286499561
 30
0.0
 10
225.1104605802567
 20
134.6520866708396
 30
0.0
  0
SPLINE
  5
282
330
1F
100
AcDbEntity
  8
0
  6
Continuous
 62
     7
370
    30
100
AcDbSpline
210
0.0
220
0.0
230
1.0
 70
     8
 71
     3
 72
    11
 73
     7
 74
     0
 42
0.000000001
 43
0.00000001
 40
0.0
 40
0.0
 40
0.0
 40
0.0
 40
0.2502198274574245
 40
0.5000266077159294
 40
0.7498333285897446
 40
1.0
 40
1.0
 40
1.0
 40
1.0
 10
224.6958876014608
 20
133.0423171366734
 30
0.0
 10
224.6245030215205
 20
133.1246191123056
 30
0.0
 10
224.4818516988277
 20
133.28908720463
 30
0.0
 10
224.3188001886637
 20
133.5786461242052
 30
0.0
 10
224.2156848227431
 20
133.8768586189582
 30
0.0
 10
224.2069670239595
 20
134.0613770794093
 30
0.0
 10
224.2026049864244
 20
134.1537027306883
 30
0.0
  0
ARC
  5
283
330
1F
100
AcDbEntity
  8
0
  6
Continuous
 62
     7
370
    30
100
AcDbCircle
 10
230.4437650211
 20
131.9447003422
 30
0.0
 40
3.847943642337095
100
AcDbArc
 50
200.5176077078
 51
217.5188977069
  0
LINE
  5
284
330
1F
100
AcDbEntity
  8
0
  6
Continuous
 62
     7
370
    30
100
AcDbLine
 10
224.5948534931
 20
131.8920623825
 30
0.0
 11
226.8399175233
 21
130.596014505
 31
0.0
  0
ARC
  5
285
330
1F
100
AcDbEntity
  8
0
  6
Continuous
 62
     7
370
    30
100
AcDbCircle
 10
228.1987009908
 20
133.2407482197
 30
0.0
 40
3.847943642336149
100
AcDbArc
 50
200.5176077078
 51
217.5188977069
  0
LINE
  5
286
330
1F
100
AcDbEntity
  8
0
  6
Continuous
 62
     7
370
    30
100
AcDbLine
 10
225.376957806
 20
130.7643337997
 30
0.0
 11
225.1466948285
 21
130.8972617871
 31
0.0
  0
ARC
  5
287
330
1F
100
AcDbEntity
  8
0
  6
Continuous
 62
     7
370
    30
100
AcDbCircle
 10
228.3464770518
 20
133.0555171326
 30
0.0
 40
3.750675354705242
100
AcDbArc
 50
203.1136425639
 51
217.6525959869
  0
LINE
  5
288
330
1F
100
AcDbEntity
  8
0
  6
Continuous
 62
     7
370
    30
100
AcDbLine
 10
225.7603618767
 20
131.0846866075
 30
0.0
 11
224.8968757112
 21
131.5831665604
 31
0.0
  0
ARC
  5
289
330
1F
100
AcDbEntity
  8
0
  6
Continuous
 62
     7
370
    30
100
AcDbCircle
 10
229.2099632173
 20
132.5570371797
 30
0.0
 40
3.750675354704622
100
AcDbArc
 50
203.1136425639
 51
217.6525959869
  0
LINE
  5
28A
330
1F
100
AcDbEntity
  8
0
  6
Continuous
 62
     7
370
    30
100
AcDbLine
 10
226.4707069489
 20
130.1329258593
 30
0.0
 11
226.2404439715
 21
130.2658538468
 31
0.0
  0
ARC
  5
28B
330
1F
100
AcDbEntity
  8
0
  6
Continuous
 62
     7
370
    30
100
AcDbCircle
 10
229.4402261947
 20
132.4241091923
 30
0.0
 40
3.750675354703044
100
AcDbArc
 50
203.1136425639
 51
217.6525959869
  0
LINE
  5
28C
330
1F
100
AcDbEntity
  8
0
  6
Continuous
 62
     7
370
    30
100
AcDbLine
 10
226.6814137866
 20
130.5529746578
 30
0.0
 11
225.9906248542
 21
130.9517586201
 31
0.0
  0
ARC
  5
28D
330
1F
100
AcDbEntity
  8
0
  6
Continuous
 62
     7
370
    30
100
AcDbCircle
 10
230.1310151271
 20
132.02532523
 30
0.0
 40
3.75067535470691
100
AcDbArc
 50
203.1136425639
 51
217.6525959869
  0
LINE
  5
28E
330
1F
100
AcDbEntity
  8
0
  6
Continuous
 62
     7
370
    30
100
AcDbLine
 10
227.3917588588
 20
129.6012139096
 30
0.0
 11
227.1614958813
 21
129.734141897
 31
0.0
  0
ARC
  5
28F
330
1F
100
AcDbEntity
  8
0
  6
Continuous
 62
     7
370
    30
100
AcDbCircle
 10
228.511565581
 20
132.1690848393
 30
0.0
 40
3.010571057133363
100
AcDbArc
 50
220.854337451
 51
234.5022614855
  0
LINE
  5
290
330
1F
100
AcDbEntity
  8
0
  6
Continuous
 62
     7
370
    30
100
AcDbLine
 10
226.0041818223
 20
130.3326832358
 30
0.0
 11
226.2344447998
 21
130.1997552484
 31
0.0
  0
ARC
  5
291
330
1F
100
AcDbEntity
  8
0
  6
Continuous
 62
     7
370
    30
100
AcDbCircle
 10
228.2813026035
 20
132.3020128268
 30
0.0
 40
3.010571057129878
100
AcDbArc
 50
220.854337451
 51
234.5022614855
  0
LINE
  5
292
330
1F
100
AcDbEntity
  8
0
  6
Continuous
 62
     7
370
    30
100
AcDbLine
 10
226.7634148111
 20
129.7180632205
 30
0.0
 11
226.5331518336
 21
129.850991208
 31
0.0
  0
LINE
  5
293
330
1F
100
AcDbEntity
  8
0
  6
Continuous
 62
     7
370
    30
100
AcDbLine
 10
227.074431282
 20
129.5244821917
 30
0.0
 11
227.5098450273
 21
129.2725458752
 31
0.0
  0
LINE
  5
294
330
1F
100
AcDbEntity
  8
0
  6
Continuous
 62
     7
370
    30
100
AcDbLine
 10
226.7492606618
 20
129.7116395963
 30
0.0
 11
227.074431282
 21
129.5244821917
 31
0.0
  0
LWPOLYLINE
  5
295
330
1F
100
AcDbEntity
  8
0
  6
Continuous
 62
     7
370
    30
100
AcDbPolyline
 90
       14
 70
   128
 43
0.0
 10
185.9563632117
 20
160.5987957861
 10
185.9945896932
 20
161.0972372271
 10
186.1079673805
 20
161.6228401987
 10
186.2926353326
 20
162.157705922
 10
186.5423049039
 20
162.6836201864
 10
186.8484738965
 20
163.1826736123
 10
187.2007160925
 20
163.6378715339
 10
187.5870363066
 20
164.0337127319
 10
187.994278867
 20
164.3567173091
 10
188.408575617
 20
164.595885732
 10
188.8158181774
 20
164.7430734068
 10
189.2021383915
 20
164.7932680338
 10
189.5543805875
 20
164.7447602951
 10
189.78879823
 20
164.6445488017
  0
ARC
  5
296
330
1F
100
AcDbEntity
  8
0
  6
Continuous
 62
     7
370
    30
100
AcDbCircle
 10
187.5285017269
 20
160.4344824861
 30
0.0
 40
1.580701860380214
100
AcDbArc
 50
174.033349043
 51
234.6544705636
  0
SPLINE
  5
297
330
1F
100
AcDbEntity
  8
0
  6
Continuous
 62
     7
370
    30
100
AcDbSpline
210
0.0
220
0.0
230
1.0
 70
     8
 71
     3
 72
     9
 73
     5
 74
     0
 42
0.000000001
 43
0.00000001
 40
0.0
 40
0.0
 40
0.0
 40
0.0
 40
0.499616773044153
 40
1.0
 40
1.0
 40
1.0
 40
1.0
 10
227.6473476610199
 20
141.321275117496
 30
0.0
 10
227.6984586460624
 20
141.2792171168488
 30
0.0
 10
227.8007590246727
 20
141.1950365950641
 30
0.0
 10
227.9179595502924
 20
141.128283948808
 30
0.0
 10
227.9766047275029
 20
141.0948820442667
 30
0.0
  0
LINE
  5
298
330
1F
100
AcDbEntity
  8
0
  6
Continuous
 62
     7
370
    30
100
AcDbLine
 10
227.9766047275
 20
141.0948820443
 30
0.0
 11
229.2961341404
 21
140.3331339285
 31
0.0
  0
SPLINE
  5
299
330
1F
100
AcDbEntity
  8
0
  6
Continuous
 62
     7
370
    30
100
AcDbSpline
210
0.0
220
0.0
230
1.0
 70
     8
 71
     3
 72
    13
 73
     9
 74
     0
 42
0.000000001
 43
0.00000001
 40
0.0
 40
0.0
 40
0.0
 40
0.0
 40
0.0393509663337618
 40
0.2318821770923399
 40
0.4243180500912583
 40
0.6164240287409577
 40
0.80816583900018
 40
1.0
 40
1.0
 40
1.0
 40
1.0
 10
227.3790289480368
 20
141.2030836231097
 30
0.0
 10
227.3698661516272
 20
141.2121163665462
 30
0.0
 10
227.3158728351304
 20
141.2653433240597
 30
0.0
 10
227.2543074976169
 20
141.3948144981929
 30
0.0
 10
227.2189479925715
 20
141.588308125708
 30
0.0
 10
227.2329647174544
 20
141.7933165544335
 30
0.0
 10
227.3088792524518
 20
141.9982929153222
 30
0.0
 10
227.4003001938337
 20
142.1186883037387
 30
0.0
 10
227.4460216698955
 20
142.1789004912991
 30
0.0
  0
SPLINE
  5
29A
330
1F
100
AcDbEntity
  8
0
  6
Continuous
 62
     7
370
    30
100
AcDbSpline
210
0.0
220
0.0
230
1.0
 70
     8
 71
     3
 72
    11
 73
     7
 74
     0
 42
0.000000001
 43
0.00000001
 40
0.0
 40
0.0
 40
0.0
 40
0.0
 40
0.2499289216070125
 40
0.4996478870844466
 40
0.7495973681885664
 40
1.0
 40
1.0
 40
1.0
 40
1.0
 10
227.4460216698955
 20
142.1789004912991
 30
0.0
 10
227.518056929489
 20
142.2548746302836
 30
0.0
 10
227.6620669344939
 20
142.4067590851623
 30
0.0
 10
227.9474054270899
 20
142.5622585098993
 30
0.0
 10
228.2622569537687
 20
142.6447212598642
 30
0.0
 10
228.4570649201007
 20
142.6178044243443
 30
0.0
 10
228.5545571185111
 20
142.6043338177849
 30
0.0
  0
LINE
  5
29B
330
1F
100
AcDbEntity
  8
0
  6
Continuous
 62
     7
370
    30
100
AcDbLine
 10
228.5545571185
 20
142.6043338178
 30
0.0
 11
229.064854828
 21
142.3690519412
 31
0.0
  0
LINE
  5
29C
330
1F
100
AcDbEntity
  8
0
  6
Continuous
 62
     7
370
    30
100
AcDbLine
 10
229.064854828
 20
142.3690519412
 30
0.0
 11
230.3933796518
 21
141.6021108852
 31
0.0
  0
SPLINE
  5
29D
330
1F
100
AcDbEntity
  8
0
  6
Continuous
 62
     7
370
    30
100
AcDbSpline
210
0.0
220
0.0
230
1.0
 70
     8
 71
     3
 72
     9
 73
     5
 74
     0
 42
0.000000001
 43
0.00000001
 40
0.0
 40
0.0
 40
0.0
 40
0.0
 40
0.12115739624507
 40
0.9999999999999999
 40
0.9999999999999999
 40
0.9999999999999999
 40
0.9999999999999999
 10
226.690973800827
 20
138.397010649114
 30
0.0
 10
226.6759238569697
 20
138.4008054406707
 30
0.0
 10
226.5517057380293
 20
138.4321266119258
 30
0.0
 10
226.4396479025378
 20
138.4980879352382
 30
0.0
 10
226.3411667026233
 20
138.5560575563651
 30
0.0
  0
LINE
  5
29E
330
1F
100
AcDbEntity
  8
0
  6
Continuous
 62
     7
370
    30
100
AcDbLine
 10
226.3411667026
 20
138.5560575564
 30
0.0
 11
225.5033152827
 21
139.0397388857
 31
0.0
  0
ARC
  5
29F
330
1F
100
AcDbEntity
  8
0
  6
Continuous
 62
     7
370
    30
100
AcDbCircle
 10
238.6801891116
 20
132.7434724707
 30
0.0
 40
14.60386848304473
100
AcDbArc
 50
153.3540207492
 51
154.4602684139
  0
LINE
  5
2A0
330
1F
100
AcDbEntity
  8
0
  6
Continuous
 62
     7
370
    30
100
AcDbLine
 10
226.7345654749
 20
138.6870412323
 30
0.0
 11
226.7873628055
 21
138.6617978149
 31
0.0
  0
SPLINE
  5
2A1
330
1F
100
AcDbEntity
  8
0
  6
Continuous
 62
     7
370
    30
100
AcDbSpline
210
0.0
220
0.0
230
1.0
 70
     8
 71
     3
 72
    13
 73
     9
 74
     0
 42
0.000000001
 43
0.00000001
 40
0.0
 40
0.0
 40
0.0
 40
0.0
 40
0.25054588664232
 40
0.3778019982808719
 40
0.5010870033754036
 40
0.7499736347705361
 40
0.8749471572159193
 40
0.9999999999999999
 40
0.9999999999999999
 40
0.9999999999999999
 40
0.9999999999999999
 10
226.7873628055224
 20
138.6617978149247
 30
0.0
 10
226.8430299408963
 20
138.6521934844186
 30
0.0
 10
226.9269712710241
 20
138.6377109666411
 30
0.0
 10
227.0431145803762
 20
138.6637221424263
 30
0.0
 10
227.1554373236398
 20
138.7143381769927
 30
0.0
 10
227.2553843902807
 20
138.8038094540235
 30
0.0
 10
227.3368130382151
 20
138.9117888690263
 30
0.0
 10
227.3713140952061
 20
138.9707878805625
 30
0.0
 10
227.3885700963955
 20
139.0002967449869
 30
0.0
  0
SPLINE
  5
2A2
330
1F
100
AcDbEntity
  8
0
  6
Continuous
 62
     7
370
    30
100
AcDbSpline
210
0.0
220
0.0
230
1.0
 70
     8
 71
     3
 72
    11
 73
     7
 74
     0
 42
0.000000001
 43
0.00000001
 40
0.0
 40
0.0
 40
0.0
 40
0.0
 40
0.2493258462680892
 40
0.4990539966945593
 40
0.7493880339208321
 40
1.0
 40
1.0
 40
1.0
 40
1.0
 10
227.3885700963955
 20
139.0002967449869
 30
0.0
 10
227.4267215246358
 20
139.0814384279189
 30
0.0
 10
227.5030859410326
 20
139.2438527213901
 30
0.0
 10
227.5216824915362
 20
139.5022552425125
 30
0.0
 10
227.4830940274608
 20
139.7438991810268
 30
0.0
 10
227.3966656666405
 20
139.8654063863554
 30
0.0
 10
227.353427510657
 20
139.9261936956049
 30
0.0
  0
LINE
  5
2A3
330
1F
100
AcDbEntity
  8
0
  6
Continuous
 62
     7
370
    30
100
AcDbLine
 10
227.3534275107
 20
139.9261936956
 30
0.0
 11
227.2383070044
 21
140.0065259504
 31
0.0
  0
ARC
  5
2A4
330
1F
100
AcDbEntity
  8
0
  6
Continuous
 62
     7
370
    30
100
AcDbCircle
 10
238.7685326726
 20
132.7071934917
 30
0.0
 40
14.69868264348525
100
AcDbArc
 50
146.6067951716
 51
147.7082803363
  0
LINE
  5
2A5
330
1F
100
AcDbEntity
  8
0
  6
Continuous
 62
     7
370
    30
100
AcDbLine
 10
226.4964093433
 20
140.7970797978
 30
0.0
 11
228.1119000644
 21
139.8644768555
 31
0.0
  0
SPLINE
  5
2A6
330
1F
100
AcDbEntity
  8
0
  6
Continuous
 62
     7
370
    30
100
AcDbSpline
210
0.0
220
0.0
230
1.0
 70
     8
 71
     3
 72
     9
 73
     5
 74
     0
 42
0.000000001
 43
0.00000001
 40
0.0
 40
0.0
 40
0.0
 40
0.0
 40
0.49953133943943
 40
1.0
 40
1.0
 40
1.0
 40
1.0
 10
227.3387619453852
 20
136.8580430742419
 30
0.0
 10
227.325463928171
 20
136.8588107470459
 30
0.0
 10
227.2988429413295
 20
136.8603475331159
 30
0.0
 10
227.2744265254493
 20
136.8725162164381
 30
0.0
 10
227.262206874498
 20
136.8786062610812
 30
0.0
  0
SPLINE
  5
2A7
330
1F
100
AcDbEntity
  8
0
  6
Continuous
 62
     7
370
    30
100
AcDbSpline
210
0.0
220
0.0
230
1.0
 70
     8
 71
     3
 72
    13
 73
     9
 74
     0
 42
0.000000001
 43
0.00000001
 40
0.0
 40
0.0
 40
0.0
 40
0.0
 40
0.2497637253594875
 40
0.3716048035012427
 40
0.500518561273654
 40
0.7498768884907893
 40
0.8748767165650833
 40
1.0
 40
1.0
 40
1.0
 40
1.0
 10
227.262206874498
 20
136.8786062610812
 30
0.0
 10
227.2400552558838
 20
136.8959579130856
 30
0.0
 10
227.2070975160418
 20
136.9217741408993
 30
0.0
 10
227.1801839820999
 20
136.9779686815975
 30
0.0
 10
227.162868986951
 20
137.0391452229252
 30
0.0
 10
227.1584783110809
 20
137.1067000440085
 30
0.0
 10
227.1706937828872
 20
137.1721168788109
 30
0.0
 10
227.1821017911056
 20
137.2028310137852
 30
0.0
 10
227.1878086105879
 20
137.218195661189
 30
0.0
  0
SPLINE
  5
2A8
330
1F
100
AcDbEntity
  8
0
  6
Continuous
 62
     7
370
    30
100
AcDbSpline
210
0.0
220
0.0
230
1.0
 70
     8
 71
     3
 72
    12
 73
     8
 74
     0
 42
0.000000001
 43
0.00000001
 40
0.0
 40
0.0
 40
0.0
 40
0.0
 40
0.2492361082991964
 40
0.4987901705447711
 40
0.7485257865860937
 40
0.8741389114470569
 40
1.0
 40
1.0
 40
1.0
 40
1.0
 10
227.1878086105879
 20
137.218195661189
 30
0.0
 10
227.2025359309318
 20
137.2469420437998
 30
0.0
 10
227.2320093594655
 20
137.3044714811788
 30
0.0
 10
227.3042186705233
 20
137.3594815881775
 30
0.0
 10
227.3712185381728
 20
137.3794455683078
 30
0.0
 10
227.4245102004517
 20
137.3738616016909
 30
0.0
 10
227.4487538592316
 20
137.3622224246652
 30
0.0
 10
227.460887641233
 20
137.3563970978039
 30
0.0
  0
LINE
  5
2A9
330
1F
100
AcDbEntity
  8
0
  6
Continuous
 62
     7
370
    30
100
AcDbLine
 10
227.2317514789
 20
136.8817612996
 30
0.0
 11
227.2622068745
 21
136.8786062611
 31
0.0
  0
LINE
  5
2AA
330
1F
100
AcDbEntity
  8
0
  6
Continuous
 62
     7
370
    30
100
AcDbLine
 10
227.1579228028
 20
137.2227566217
 30
0.0
 11
227.1878086106
 21
137.2181956612
 31
0.0
  0
LINE
  5
2AB
330
1F
100
AcDbEntity
  8
0
  6
Continuous
 62
     7
370
    30
100
AcDbLine
 10
227.4315941215
 20
137.3623462348
 30
0.0
 11
227.4608876412
 21
137.3563970978
 31
0.0
  0
LINE
  5
2AC
330
1F
100
AcDbEntity
  8
0
  6
Continuous
 62
     7
370
    30
100
AcDbLine
 10
226.313044198
 20
138.5645661153
 30
0.0
 11
226.3411667026
 21
138.5560575564
 31
0.0
  0
LINE
  5
2AD
330
1F
100
AcDbEntity
  8
0
  6
Continuous
 62
     7
370
    30
100
AcDbLine
 10
227.9576832461
 20
141.1184470519
 30
0.0
 11
227.9766047275
 21
141.0948820443
 31
0.0
  0
LINE
  5
2AE
330
1F
100
AcDbEntity
  8
0
  6
Continuous
 62
     7
370
    30
100
AcDbLine
 10
227.3300806039
 20
139.9433751961
 30
0.0
 11
227.3534275107
 21
139.9261936956
 31
0.0
  0
LINE
  5
2AF
330
1F
100
AcDbEntity
  8
0
  6
Continuous
 62
     7
370
    30
100
AcDbLine
 10
227.3628881084
 20
139.0135302968
 30
0.0
 11
227.3885700964
 21
139.000296745
 31
0.0
  0
LINE
  5
2B0
330
1F
100
AcDbEntity
  8
0
  6
Continuous
 62
     7
370
    30
100
AcDbLine
 10
225.6736331247
 20
134.8202924421
 30
0.0
 11
225.6046661579
 21
135.0906055309
 31
0.0
  0
SPLINE
  5
2B1
330
1F
100
AcDbEntity
  8
0
  6
Continuous
 62
     7
370
    30
100
AcDbSpline
210
0.0
220
0.0
230
1.0
 70
     8
 71
     3
 72
    12
 73
     8
 74
     0
 42
0.000000001
 43
0.00000001
 40
0.0
 40
0.0
 40
0.0
 40
0.0
 40
0.2503849153197174
 40
0.5002694321463746
 40
0.7499357848285841
 40
0.8749487624548121
 40
1.0
 40
1.0
 40
1.0
 40
1.0
 10
225.6046661579458
 20
135.0906055309183
 30
0.0
 10
225.6569572557515
 20
135.1122178186966
 30
0.0
 10
225.7614349467185
 20
135.1553992017301
 30
0.0
 10
225.8925718080268
 20
135.2865579762741
 30
0.0
 10
225.9753268208729
 20
135.4348644131409
 30
0.0
 10
226.026110784707
 20
135.5693678032384
 30
0.0
 10
226.0457286880816
 20
135.6415139520294
 30
0.0
 10
226.0555391405422
 20
135.6775925456189
 30
0.0
  0
SPLINE
  5
2B2
330
1F
100
AcDbEntity
  8
0
  6
Continuous
 62
     7
370
    30
100
AcDbSpline
210
0.0
220
0.0
230
1.0
 70
     8
 71
     3
 72
    15
 73
    11
 74
     0
 42
0.000000001
 43
0.00000001
 40
0.0
 40
0.0
 40
0.0
 40
0.0
 40
0.2488108393315874
 40
0.3736796421679435
 40
0.4986815326400338
 40
0.6238352538912051
 40
0.7490473495278328
 40
0.8743627802287416
 40
0.9371685783147454
 40
1.0
 40
1.0
 40
1.0
 40
1.0
 10
226.0555391405422
 20
135.6775925456189
 30
0.0
 10
226.0782639387269
 20
135.7947885228207
 30
0.0
 10
226.1123934584729
 20
135.9708007534047
 30
0.0
 10
226.0956055819321
 20
136.2212847675539
 30
0.0
 10
226.0591592861836
 20
136.4045148556007
 30
0.0
 10
225.9980746213491
 20
136.5773913675851
 30
0.0
 10
225.9135050304937
 20
136.7330354200833
 30
0.0
 10
225.8218357954398
 20
136.8380230315196
 30
0.0
 10
225.7401045668167
 20
136.9060031207826
 30
0.0
 10
225.6963495139557
 20
136.9331020871807
 30
0.0
 10
225.6744675256231
 20
136.9466543337848
 30
0.0
  0
LINE
  5
2B3
330
1F
100
AcDbEntity
  8
0
  6
Continuous
 62
     7
370
    30
100
AcDbLine
 10
225.6744675256
 20
136.9466543338
 30
0.0
 11
225.3918772149
 21
137.0248083442
 31
0.0
  0
SPLINE
  5
2B4
330
1F
100
AcDbEntity
  8
0
  6
Continuous
 62
     7
370
    30
100
AcDbSpline
210
0.0
220
0.0
230
1.0
 70
     8
 71
     3
 72
    11
 73
     7
 74
     0
 42
0.000000001
 43
0.00000001
 40
0.0
 40
0.0
 40
0.0
 40
0.0
 40
0.2502881014520265
 40
0.5002876820666834
 40
0.7500954941480051
 40
0.9999999999999999
 40
0.9999999999999999
 40
0.9999999999999999
 40
0.9999999999999999
 10
224.7386395111175
 20
135.3600527660566
 30
0.0
 10
224.6889651338678
 20
135.4510242293523
 30
0.0
 10
224.5896736417506
 20
135.6328622881427
 30
0.0
 10
224.5163294361462
 20
135.9430839651627
 30
0.0
 10
224.5008922706805
 20
136.2536029963348
 30
0.0
 10
224.5398983428475
 20
136.4471299055601
 30
0.0
 10
224.5594051527465
 20
136.5439120837922
 30
0.0
  0
SPLINE
  5
2B5
330
1F
100
AcDbEntity
  8
0
  6
Continuous
 62
     7
370
    30
100
AcDbSpline
210
0.0
220
0.0
230
1.0
 70
     8
 71
     3
 72
    12
 73
     8
 74
     0
 42
0.000000001
 43
0.00000001
 40
0.0
 40
0.0
 40
0.0
 40
0.0
 40
0.332091751894576
 40
0.4979969969704351
 40
0.6656890775400847
 40
0.8320474172190737
 40
1.0
 40
1.0
 40
1.0
 40
1.0
 10
224.5594051527465
 20
136.5439120837923
 30
0.0
 10
224.6068564002921
 20
136.6850499463272
 30
0.0
 10
224.6780131774339
 20
136.8966969724887
 30
0.0
 10
224.8579159512746
 20
137.1061714205508
 30
0.0
 10
225.01651419604
 20
137.2226702704538
 30
0.0
 10
225.193224358303
 20
137.3025493288631
 30
0.0
 10
225.3180733191783
 20
137.3137257341988
 30
0.0
 10
225.3807954859632
 20
137.3193405855728
 30
0.0
  0
LINE
  5
2B6
330
1F
100
AcDbEntity
  8
0
  6
Continuous
 62
     7
370
    30
100
AcDbLine
 10
226.7600533354
 20
138.6719617196
 30
0.0
 11
226.7873628055
 21
138.6617978149
 31
0.0
  0
LINE
  5
2B7
330
1F
100
AcDbEntity
  8
0
  6
Continuous
 62
     7
370
    30
100
AcDbLine
 10
226.4740944063
 20
140.8158652041
 30
0.0
 11
226.4964093433
 21
140.7970797978
 31
0.0
  0
LINE
  5
2B8
330
1F
100
AcDbEntity
  8
0
  6
Continuous
 62
     7
370
    30
100
AcDbLine
 10
226.7634156737
 20
137.3025324349
 30
0.0
 11
225.1485170253
 21
138.2347935809
 31
0.0
  0
ARC
  5
2B9
330
1F
100
AcDbEntity
  8
0
  6
Continuous
 62
     7
370
    30
100
AcDbCircle
 10
238.2176281916
 20
132.951133808
 30
0.0
 40
14.096763006945
100
AcDbArc
 50
156.8545797754
 51
157.9872017298
  0
LINE
  5
2BA
330
1F
100
AcDbEntity
  8
0
  6
Continuous
 62
     7
370
    30
100
AcDbLine
 10
229.0523605025
 20
142.4000317962
 30
0.0
 11
229.064854828
 21
142.3690519412
 31
0.0
  0
LINE
  5
2BB
330
1F
100
AcDbEntity
  8
0
  6
Continuous
 62
     7
370
    30
100
AcDbLine
 10
225.1183196771
 20
138.2385948574
 30
0.0
 11
225.1485170253
 21
138.2347935809
 31
0.0
  0
LINE
  5
2BC
330
1F
100
AcDbEntity
  8
0
  6
Continuous
 62
     7
370
    30
100
AcDbLine
 10
225.6425224658
 20
136.945707148
 30
0.0
 11
225.6744675256
 21
136.9466543338
 31
0.0
  0
LINE
  5
2BD
330
1F
100
AcDbEntity
  8
0
  6
Continuous
 62
     7
370
    30
100
AcDbLine
 10
226.0220616499
 20
135.6713950787
 30
0.0
 11
226.0555391405
 21
135.6775925456
 31
0.0
  0
LINE
  5
2BE
330
1F
100
AcDbEntity
  8
0
  6
Continuous
 62
     7
370
    30
100
AcDbLine
 10
227.4295966632
 20
142.2055723813
 30
0.0
 11
227.4460216699
 21
142.1789004913
 31
0.0
  0
LINE
  5
2BF
330
1F
100
AcDbEntity
  8
0
  6
Continuous
 62
     7
370
    30
100
AcDbLine
 10
225.6389926811
 20
134.8084635864
 30
0.0
 11
225.6736331247
 21
134.8202924421
 31
0.0
  0
LINE
  5
2C0
330
1F
100
AcDbEntity
  8
0
  6
Continuous
 62
     7
370
    30
100
AcDbLine
 10
225.4751927781
 20
139.0482474446
 30
0.0
 11
225.5033152827
 21
139.0397388857
 31
0.0
  0
LINE
  5
2C1
330
1F
100
AcDbEntity
  8
0
  6
Continuous
 62
     7
370
    30
100
AcDbLine
 10
224.5259310268
 20
136.5377279948
 30
0.0
 11
224.5594051527
 21
136.5439120838
 31
0.0
  0
LINE
  5
2C2
330
1F
100
AcDbEntity
  8
0
  6
Continuous
 62
     7
370
    30
100
AcDbLine
 10
225.570235192
 20
135.0800036956
 30
0.0
 11
225.6046661579
 21
135.0906055309
 31
0.0
  0
LINE
  5
2C3
330
1F
100
AcDbEntity
  8
0
  6
Continuous
 62
     7
370
    30
100
AcDbLine
 10
227.6285389604
 20
141.3449873984
 30
0.0
 11
227.647347661
 21
141.3212751175
 31
0.0
  0
LINE
  5
2C4
330
1F
100
AcDbEntity
  8
0
  6
Continuous
 62
     7
370
    30
100
AcDbLine
 10
228.5418453706
 20
142.6350923652
 30
0.0
 11
228.5545571185
 21
142.6043338178
 31
0.0
  0
SPLINE
  5
2C5
330
1F
100
AcDbEntity
  8
0
  6
Continuous
 62
     7
370
    30
100
AcDbSpline
210
0.0
220
0.0
230
1.0
 70
     8
 71
     3
 72
    11
 73
     7
 74
     0
 42
0.000000001
 43
0.00000001
 40
0.0
 40
0.0
 40
0.0
 40
0.0
 40
0.250761184934348
 40
0.5007027724522981
 40
0.7502676002891638
 40
1.0
 40
1.0
 40
1.0
 40
1.0
 10
224.7310066340074
 20
133.067303368179
 30
0.0
 10
224.6596677718654
 20
133.1493184490796
 30
0.0
 10
224.5172232142381
 20
133.3130805496639
 30
0.0
 10
224.3541845947185
 20
133.6014529246274
 30
0.0
 10
224.2510498325331
 20
133.898362957769
 30
0.0
 10
224.24232353038
 20
134.0819320708497
 30
0.0
 10
224.2379589149625
 20
134.1737474317071
 30
0.0
  0
SPLINE
  5
2C6
330
1F
100
AcDbEntity
  8
0
  6
Continuous
 62
     7
370
    30
100
AcDbSpline
210
0.0
220
0.0
230
1.0
 70
     8
 71
     3
 72
    10
 73
     6
 74
     0
 42
0.000000001
 43
0.00000001
 40
0.0
 40
0.0
 40
0.0
 40
0.0
 40
0.4989499473923602
 40
0.7486813123341732
 40
0.9999999999999999
 40
0.9999999999999999
 40
0.9999999999999999
 40
0.9999999999999999
 10
224.2379589149625
 20
134.1737474317071
 30
0.0
 10
224.2497645518771
 20
134.2969113224005
 30
0.0
 10
224.2674790737131
 20
134.4817204476412
 30
0.0
 10
224.3865914438066
 20
134.6570963450744
 30
0.0
 10
224.4715083617817
 20
134.7067900891776
 30
0.0
 10
224.5141013288417
 20
134.7317156759292
 30
0.0
  0
ARC
  5
2C7
330
1F
100
AcDbEntity
  8
0
  6
Continuous
 62
     7
370
    30
100
AcDbCircle
 10
232.9804151596
 20
133.6709468805
 30
0.0
 40
7.93701970084717
100
AcDbArc
 50
174.406604182
 51
186.5092185356
  0
SPLINE
  5
2C8
330
1F
100
AcDbEntity
  8
0
  6
Continuous
 62
     7
370
    30
100
AcDbSpline
210
0.0
220
0.0
230
1.0
 70
     8
 71
     3
 72
    10
 73
     6
 74
     0
 42
0.000000001
 43
0.00000001
 40
0.0
 40
0.0
 40
0.0
 40
0.0
 40
0.499496833813056
 40
0.7498557508204597
 40
1.0
 40
1.0
 40
1.0
 40
1.0
 10
225.0811864570162
 20
134.4445537810767
 30
0.0
 10
225.0012121099428
 20
134.4801186418021
 30
0.0
 10
224.8811528422729
 20
134.5335094013361
 30
0.0
 10
224.7307556685886
 20
134.5295310706077
 30
0.0
 10
224.6667130396035
 20
134.5014366274448
 30
0.0
 10
224.6347054591819
 20
134.4873954307734
 30
0.0
  0
SPLINE
  5
2C9
330
1F
100
AcDbEntity
  8
0
  6
Continuous
 62
     7
370
    30
100
AcDbSpline
210
0.0
220
0.0
230
1.0
 70
     8
 71
     3
 72
     9
 73
     5
 74
     0
 42
0.000000001
 43
0.00000001
 40
0.0
 40
0.0
 40
0.0
 40
0.0
 40
0.499825239614914
 40
1.0
 40
1.0
 40
1.0
 40
1.0
 10
225.7345515886179
 20
133.2920939684207
 30
0.0
 10
225.7300816281994
 20
133.3854692421866
 30
0.0
 10
225.7211385815818
 20
133.572285085736
 30
0.0
 10
225.639083183843
 20
133.7745372476384
 30
0.0
 10
225.5980411449407
 20
133.8756986742554
 30
0.0
  0
SPLINE
  5
2CA
330
1F
100
AcDbEntity
  8
0
  6
Continuous
 62
     7
370
    30
100
AcDbSpline
210
0.0
220
0.0
230
1.0
 70
     8
 71
     3
 72
     9
 73
     5
 74
     0
 42
0.000000001
 43
0.00000001
 40
0.0
 40
0.0
 40
0.0
 40
0.0
 40
0.4987802899469986
 40
1.0
 40
1.0
 40
1.0
 40
1.0
 10
225.5980411449407
 20
133.8756986742554
 30
0.0
 10
225.5528163145798
 20
133.9568420239162
 30
0.0
 10
225.4621454695758
 20
134.1195255767676
 30
0.0
 10
225.3410565571078
 20
134.2416039600675
 30
0.0
 10
225.28036440751
 20
134.3027920519488
 30
0.0
  0
SPLINE
  5
2CB
330
1F
100
AcDbEntity
  8
0
  6
Continuous
 62
     7
370
    30
100
AcDbSpline
210
0.0
220
0.0
230
1.0
 70
     8
 71
     3
 72
    10
 73
     6
 74
     0
 42
0.000000001
 43
0.00000001
 40
0.0
 40
0.0
 40
0.0
 40
0.0
 40
0.1326266542380744
 40
0.5665605014607705
 40
1.0
 40
1.0
 40
1.0
 40
1.0
 10
225.5745350076967
 20
132.8806718417214
 30
0.0
 10
225.5884615717801
 20
132.8896232664487
 30
0.0
 10
225.6479536940542
 20
132.9278623648514
 30
0.0
 10
225.7153206714943
 20
133.057349561996
 30
0.0
 10
225.7281437190224
 20
133.2138755696315
 30
0.0
 10
225.7345515886179
 20
133.2920939684207
 30
0.0
  0
ARC
  5
2CC
330
1F
100
AcDbEntity
  8
0
  6
Continuous
 62
     7
370
    30
100
AcDbCircle
 10
233.3767268658
 20
133.5274950457
 30
0.0
 40
8.166895526016008
100
AcDbArc
 50
174.6645804196
 51
184.777155392
  0
SPLINE
  5
2CD
330
1F
100
AcDbEntity
  8
0
  6
Continuous
 62
     7
370
    30
100
AcDbSpline
210
0.0
220
0.0
230
1.0
 70
     8
 71
     3
 72
     9
 73
     5
 74
     0
 42
0.000000001
 43
0.00000001
 40
0.0
 40
0.0
 40
0.0
 40
0.0
 40
0.4991324330921323
 40
0.9999999999999999
 40
0.9999999999999999
 40
0.9999999999999999
 40
0.9999999999999999
 10
225.5627876921318
 20
133.8584445663318
 30
0.0
 10
225.5176065653315
 20
133.9398770341035
 30
0.0
 10
225.4270872486035
 20
134.103025053292
 30
0.0
 10
225.3059092937744
 20
134.2255394469303
 30
0.0
 10
225.2452151863763
 20
134.2869029331831
 30
0.0
  0
SPLINE
  5
2CE
330
1F
100
AcDbEntity
  8
0
  6
Continuous
 62
     7
370
    30
100
AcDbSpline
210
0.0
220
0.0
230
1.0
 70
     8
 71
     3
 72
     9
 73
     5
 74
     0
 42
0.000000001
 43
0.00000001
 40
0.0
 40
0.0
 40
0.0
 40
0.0
 40
0.5001661762310557
 40
1.0
 40
1.0
 40
1.0
 40
1.0
 10
225.6991969777415
 20
133.2719462174315
 30
0.0
 10
225.6947510594569
 20
133.3658127649244
 30
0.0
 10
225.6858621771296
 20
133.5534834870838
 30
0.0
 10
225.6038034296555
 20
133.7568133989814
 30
0.0
 10
225.5627876921318
 20
133.8584445663318
 30
0.0
  0
SPLINE
  5
2CF
330
1F
100
AcDbEntity
  8
0
  6
Continuous
 62
     7
370
    30
100
AcDbSpline
210
0.0
220
0.0
230
1.0
 70
     8
 71
     3
 72
    12
 73
     8
 74
     0
 42
0.000000001
 43
0.00000001
 40
0.0
 40
0.0
 40
0.0
 40
0.0
 40
0.2500193341513191
 40
0.3743335232753409
 40
0.5003841924904899
 40
0.7502021125589475
 40
1.0
 40
1.0
 40
1.0
 40
1.0
 10
225.238201962627
 20
132.8473517279628
 30
0.0
 10
225.3052280004178
 20
132.8310947119177
 30
0.0
 10
225.4055806109972
 20
132.8067544099376
 30
0.0
 10
225.5158807608934
 20
132.8339209533796
 30
0.0
 10
225.6038462898623
 20
132.8991502374094
 30
0.0
 10
225.6809460622898
 20
133.0342675046959
 30
0.0
 10
225.6931135018797
 20
133.1927220976548
 30
0.0
 10
225.6991969777415
 20
133.2719462174315
 30
0.0
  0
LINE
  5
2D0
330
1F
100
AcDbEntity
  8
0
  6
Continuous
 62
     7
370
    30
100
AcDbLine
 10
225.2803644075
 20
134.3027920519
 30
0.0
 11
225.2452151864
 21
134.2869029332
 31
0.0
  0
LINE
  5
2D1
330
1F
100
AcDbEntity
  8
0
  6
Continuous
 62
     7
370
    30
100
AcDbLine
 10
225.5980411449
 20
133.8756986743
 30
0.0
 11
225.5627876921
 21
133.8584445663
 31
0.0
  0
LINE
  5
2D2
330
1F
100
AcDbEntity
  8
0
  6
Continuous
 62
     7
370
    30
100
AcDbLine
 10
225.7345515886
 20
133.2920939684
 30
0.0
 11
225.6991969777
 21
133.2719462174
 31
0.0
  0
LINE
  5
2D3
330
1F
100
AcDbEntity
  8
0
  6
Continuous
 62
     7
370
    30
100
AcDbLine
 10
225.6083417231
 20
132.6099251044
 30
0.0
 11
225.643518587
 21
132.6343293661
 31
0.0
  0
LINE
  5
2D4
330
1F
100
AcDbEntity
  8
0
  6
Continuous
 62
     7
370
    30
100
AcDbLine
 10
224.2026049864
 20
134.1537027307
 30
0.0
 11
224.237958915
 21
134.1737474317
 31
0.0
  0
LINE
  5
2D5
330
1F
100
AcDbEntity
  8
0
  6
Continuous
 62
     7
370
    30
100
AcDbLine
 10
225.0460506988
 20
134.4288134912
 30
0.0
 11
225.081186457
 21
134.4445537811
 31
0.0
  0
LINE
  5
2D6
330
1F
100
AcDbEntity
  8
0
  6
Continuous
 62
     7
370
    30
100
AcDbLine
 10
225.0595028835
 20
132.7456558557
 30
0.0
 11
225.0945604314
 21
132.7711819458
 31
0.0
  0
LINE
  5
2D7
330
1F
100
AcDbEntity
  8
0
  6
Continuous
 62
     7
370
    30
100
AcDbLine
 10
227.3172369426
 20
129.7004527105
 30
0.0
 11
227.1915282577
 21
129.7730227896
 31
0.0
  0
ARC
  5
2D8
330
1F
100
AcDbEntity
  8
0
  6
Continuous
 62
     7
370
    30
100
AcDbCircle
 10
230.1437828567
 20
132.0508852892
 30
0.0
 40
3.728869102644636
100
AcDbArc
 50
203.1136425639
 51
217.6525959869
  0
LINE
  5
2D9
330
1F
100
AcDbEntity
  8
0
  6
Continuous
 62
     7
370
    30
100
AcDbLine
 10
226.7142373379
 20
130.5870948947
 30
0.0
 11
226.0234484055
 21
130.985878857
 31
0.0
  0
LINE
  5
2DA
330
1F
100
AcDbEntity
  8
0
  6
Continuous
 62
     7
370
    30
100
AcDbLine
 10
226.3961850327
 20
130.2321646602
 30
0.0
 11
226.2704763478
 21
130.3047347393
 31
0.0
  0
ARC
  5
2DB
330
1F
100
AcDbEntity
  8
0
  6
Continuous
 62
     7
370
    30
100
AcDbCircle
 10
229.2227309469
 20
132.5825972389
 30
0.0
 40
3.728869102641271
100
AcDbArc
 50
203.1136425639
 51
217.6525959869
  0
LINE
  5
2DC
330
1F
100
AcDbEntity
  8
0
  6
Continuous
 62
     7
370
    30
100
AcDbLine
 10
225.7931854281
 20
131.1188068445
 30
0.0
 11
224.9296992626
 21
131.6172867974
 31
0.0
  0
LINE
  5
2DD
330
1F
100
AcDbEntity
  8
0
  6
Continuous
 62
     7
370
    30
100
AcDbLine
 10
225.3024358898
 20
130.8635726006
 30
0.0
 11
225.1767272049
 21
130.9361426797
 31
0.0
  0
ARC
  5
2DE
330
1F
100
AcDbEntity
  8
0
  6
Continuous
 62
     7
370
    30
100
AcDbCircle
 10
228.1898001966
 20
133.2520651703
 30
0.0
 40
3.800277073580042
100
AcDbArc
 50
201.5275997338
 51
217.5467714172
  0
LINE
  5
2DF
330
1F
100
AcDbEntity
  8
0
  6
Continuous
 62
     7
370
    30
100
AcDbLine
 10
225.9906248542
 20
130.9517586201
 30
0.0
 11
226.0234484055
 21
130.985878857
 31
0.0
  0
LINE
  5
2E0
330
1F
100
AcDbEntity
  8
0
  6
Continuous
 62
     7
370
    30
100
AcDbLine
 10
226.6814137866
 20
130.5529746578
 30
0.0
 11
226.7142373379
 21
130.5870948947
 31
0.0
  0
LINE
  5
2E1
330
1F
100
AcDbEntity
  8
0
  6
Continuous
 62
     7
370
    30
100
AcDbLine
 10
227.1614958813
 20
129.734141897
 30
0.0
 11
227.1915282577
 21
129.7730227896
 31
0.0
  0
LWPOLYLINE
  5
2E2
330
1F
100
AcDbEntity
  8
0
  6
Continuous
 62
     7
370
    30
100
AcDbPolyline
 90
       27
 70
   128
 43
0.0
 10
221.9341416189
 20
151.0191442075
 10
221.7519238473
 20
151.0718882699
 10
221.2206005784
 20
151.1524965683
 10
220.6533350141
 20
151.1370703564
 10
220.0580903192
 20
151.0258261844
 10
219.4432224247
 20
150.8203256768
 10
218.8173627279
 20
150.52345361
 10
218.1892969271
 20
150.1393774173
 10
217.5678416893
 20
149.6734886864
 10
216.961720884
 20
149.1323274739
 10
216.3794431184
 20
148.523490497
 10
215.8291822962
 20
147.8555244922
 10
215.318662873
 20
147.137806238
 10
214.8550514225
 20
146.3804109256
 10
214.4448560332
 20
145.5939707247
 10
214.0938349492
 20
144.7895255321
 10
213.8069157371
 20
143.9783679947
 10
213.5881261137
 20
143.1718849863
 10
213.4405374056
 20
142.3813977606
 10
213.366221435
 20
141.6180030254
 10
213.366221435
 20
140.8924171695
 10
213.4405374056
 20
140.2148258277
 10
213.5881261137
 20
139.5947408971
 10
213.8069157371
 20
139.0408670111
 10
214.0938349492
 20
138.5609793447
 10
214.4448560332
 20
138.161814469
 10
214.4886473813
 20
138.1217724434
  0
LINE
  5
2E3
330
1F
100
AcDbEntity
  8
0
  6
Continuous
 62
     7
370
    30
100
AcDbLine
 10
224.8968757112
 20
131.5831665604
 30
0.0
 11
224.9296992626
 21
131.6172867974
 31
0.0
  0
LINE
  5
2E4
330
1F
100
AcDbEntity
  8
0
  6
Continuous
 62
     7
370
    30
100
AcDbLine
 10
225.7603618767
 20
131.0846866075
 30
0.0
 11
225.7931854281
 21
131.1188068445
 31
0.0
  0
LINE
  5
2E5
330
1F
100
AcDbEntity
  8
0
  6
Continuous
 62
     7
370
    30
100
AcDbLine
 10
226.2404439715
 20
130.2658538468
 30
0.0
 11
226.2704763478
 21
130.3047347393
 31
0.0
  0
LINE
  5
2E6
330
1F
100
AcDbEntity
  8
0
  6
Continuous
 62
     7
370
    30
100
AcDbLine
 10
225.1466948285
 20
130.8972617871
 30
0.0
 11
225.1767272049
 21
130.9361426797
 31
0.0
  0
ARC
  5
2E7
330
1F
100
AcDbEntity
  8
0
  6
Continuous
 62
     7
370
    30
100
AcDbCircle
 10
228.2938988513
 20
132.3232994726
 30
0.0
 40
2.985560187235219
100
AcDbArc
 50
223.9215506277
 51
231.8562031082
  0
LINE
  5
2E8
330
1F
100
AcDbEntity
  8
0
  6
Continuous
 62
     7
370
    30
100
AcDbLine
 10
226.5331518336
 20
129.850991208
 30
0.0
 11
226.5528299272
 21
129.8827274736
 31
0.0
  0
SPLINE
  5
2E9
330
1F
100
AcDbEntity
  8
0
  6
Continuous
 62
     7
370
    30
100
AcDbSpline
210
0.0
220
0.0
230
1.0
 70
     8
 71
     3
 72
    11
 73
     7
 74
     0
 42
0.000000001
 43
0.00000001
 40
0.0
 40
0.0
 40
0.0
 40
0.0
 40
0.4000784916835863
 40
0.7278731721820917
 40
0.8813865402664391
 40
1.0
 40
1.0
 40
1.0
 40
1.0
 10
214.4096250376947
 20
145.9361994332574
 30
0.0
 10
214.4580262425804
 20
146.0275105878696
 30
0.0
 10
214.5460838094577
 20
146.1936353387491
 30
0.0
 10
214.695480283057
 20
146.3630696005369
 30
0.0
 10
214.8187981877628
 20
146.4511755089085
 30
0.0
 10
214.880238297346
 20
146.4627586030178
 30
0.0
 10
214.9070185454476
 20
146.4678073917673
 30
0.0
  0
SPLINE
  5
2EA
330
1F
100
AcDbEntity
  8
0
  6
Continuous
 62
     7
370
    30
100
AcDbSpline
210
0.0
220
0.0
230
1.0
 70
     8
 71
     3
 72
    12
 73
     8
 74
     0
 42
0.000000001
 43
0.00000001
 40
0.0
 40
0.0
 40
0.0
 40
0.0
 40
0.1084815634690564
 40
0.2173069700278307
 40
0.3285829458095513
 40
0.5302645347320899
 40
0.9999999999999999
 40
0.9999999999999999
 40
0.9999999999999999
 40
0.9999999999999999
 10
214.3675693692913
 20
145.1691469342869
 30
0.0
 10
214.3466643267911
 20
145.1847582672758
 30
0.0
 10
214.3047879811823
 20
145.216030414924
 30
0.0
 10
214.2663914242562
 20
145.2957449983861
 30
0.0
 10
214.2451310121846
 20
145.4109947414011
 30
0.0
 10
214.2682835901962
 20
145.6383890153231
 30
0.0
 10
214.3514443042079
 20
145.8136109861877
 30
0.0
 10
214.4096250376947
 20
145.9361994332574
 30
0.0
  0
LINE
  5
2EB
330
1F
100
AcDbEntity
  8
0
  6
Continuous
 62
     7
370
    30
100
AcDbLine
 10
213.3610073692
 20
141.4929612897
 30
0.0
 11
211.7310461618
 21
142.4339178659
 31
0.0
  0
ARC
  5
2EC
330
1F
100
AcDbEntity
  8
0
  6
Continuous
 62
     7
370
    30
100
AcDbCircle
 10
215.2083352745
 20
141.901776046
 30
0.0
 40
3.496795367228231
100
AcDbArc
 50
173.945314943
 51
235.7978846642
  0
LWPOLYLINE
  5
2ED
330
1F
100
AcDbEntity
  8
0
  6
Continuous
 62
     7
370
    30
100
AcDbPolyline
 90
       21
 70
   128
 43
0.0
 10
220.5421446962
 20
151.6540304833
 10
220.3296274778
 20
151.7631942914
 10
219.8426033209
 20
151.9262492002
 10
219.3129330706
 20
151.9939790558
 10
218.74827338
 20
151.9654047888
 10
218.1567866924
 20
151.8409394546
 10
217.5470232489
 20
151.622382263
 10
216.9277974905
 20
151.3128925695
 10
216.3080606407
 20
150.9169442051
 10
215.696771311
 20
150.440260805
 10
215.102766
 20
149.8897330704
 10
214.5346313567
 20
149.2733191598
 10
214.0005800566
 20
148.5999296502
 10
213.5083320831
 20
147.8792987297
 10
213.0650031312
 20
147.1218434849
 10
212.6770017465
 20
146.3385133171
 10
212.3499366865
 20
145.5406316624
 10
212.0885358433
 20
144.7397323065
 10
211.8965778989
 20
143.9473926571
 10
211.7768377033
 20
143.1750663871
 10
211.7310461618
 20
142.4339178659
  0
LINE
  5
2EE
330
1F
100
AcDbEntity
  8
0
  6
Continuous
 62
     7
370
    30
100
AcDbLine
 10
211.7310461618
 20
142.2706097036
 30
0.0
 11
213.3573787091
 21
141.3317479082
 31
0.0
  0
LINE
  5
2EF
330
1F
100
AcDbEntity
  8
0
  6
Continuous
 62
     7
370
    30
100
AcDbLine
 10
211.8012724975
 20
142.3933770653
 30
0.0
 11
211.8012724975
 21
142.3111505042
 31
0.0
  0
LINE
  5
2F0
330
1F
100
AcDbEntity
  8
0
  6
Continuous
 62
     7
370
    30
100
AcDbLine
 10
211.8012724975
 20
142.3111505042
 30
0.0
 11
213.3587438004
 21
141.4120414591
 31
0.0
  0
LINE
  5
2F1
330
1F
100
AcDbEntity
  8
0
  6
Continuous
 62
     7
370
    30
100
AcDbLine
 10
211.8012724975
 20
142.3111505042
 30
0.0
 11
211.7310461618
 21
142.2706097036
 31
0.0
  0
SPLINE
  5
2F2
330
1F
100
AcDbEntity
  8
0
  6
Continuous
 62
     7
370
    30
100
AcDbSpline
210
0.0
220
0.0
230
1.0
 70
     8
 71
     3
 72
    11
 73
     7
 74
     0
 42
0.000000001
 43
0.00000001
 40
0.0
 40
0.0
 40
0.0
 40
0.0
 40
0.4941812884016539
 40
0.705600652790784
 40
0.919222287356822
 40
1.0
 40
1.0
 40
1.0
 40
1.0
 10
214.4770309419154
 20
145.8979169303809
 30
0.0
 10
214.4356704982864
 20
145.8131173689529
 30
0.0
 10
214.3766153363261
 20
145.6920390778393
 30
0.0
 10
214.3392449500934
 20
145.521732250077
 30
0.0
 10
214.3375528508185
 20
145.4225096720756
 30
0.0
 10
214.3581893095657
 20
145.3754107909765
 30
0.0
 10
214.3638515705402
 20
145.3624877328268
 30
0.0
  0
SPLINE
  5
2F3
330
1F
100
AcDbEntity
  8
0
  6
Continuous
 62
     7
370
    30
100
AcDbSpline
210
0.0
220
0.0
230
1.0
 70
     8
 71
     3
 72
    10
 73
     6
 74
     0
 42
0.000000001
 43
0.00000001
 40
0.0
 40
0.0
 40
0.0
 40
0.0
 40
0.0663720385453156
 40
0.3738836403987164
 40
1.0
 40
1.0
 40
1.0
 40
1.0
 10
214.7844078704956
 20
146.2982149055591
 30
0.0
 10
214.7748434961002
 20
146.2935796451026
 30
0.0
 10
214.720965941705
 20
146.2674685282581
 30
0.0
 10
214.604361558844
 20
146.1338795796401
 30
0.0
 10
214.5281443079081
 20
145.9926376310507
 30
0.0
 10
214.4770309419154
 20
145.8979169303809
 30
0.0
  0
ARC
  5
2F4
330
1F
100
AcDbEntity
  8
0
  6
Continuous
 62
     7
370
    30
100
AcDbCircle
 10
205.5730084136
 20
148.948038254
 30
0.0
 40
2.482986920824658
100
AcDbArc
 50
173.9482268812
 51
234.7395927254
  0
LWPOLYLINE
  5
2F5
330
1F
100
AcDbEntity
  8
0
  6
Continuous
 62
     7
370
    30
100
AcDbPolyline
 90
       18
 70
   128
 43
0.0
 10
209.1391898264
 20
155.5810769106
 10
209.0933158453
 20
155.6066049413
 10
208.6965749193
 20
155.7588397712
 10
208.2559887321
 20
155.8149942547
 10
207.7809476135
 20
155.7738715566
 10
207.2815762401
 20
155.6363481357
 10
206.7685178457
 20
155.4053550651
 10
206.2527073793
 20
155.0858155611
 10
205.7451384455
 20
154.6845400532
 10
205.2566289948
 20
154.2100810325
 10
204.7975907581
 20
153.672550769
 10
204.3778073384
 20
153.0834057872
 10
204.0062256906
 20
152.4552026895
 10
203.6907654322
 20
151.8013305344
 10
203.4381500511
 20
151.1357254714
 10
203.2537636055
 20
150.472573717
 10
203.1415359724
 20
149.8260091996
 10
203.1038590889
 20
149.2098123191
  0
ARC
  5
2F6
330
1F
100
AcDbEntity
  8
0
  6
Continuous
 62
     7
370
    30
100
AcDbCircle
 10
209.9520869041
 20
149.338455111
 30
0.0
 40
6.853931624183986
100
AcDbArc
 50
122.3430312079
 51
177.6623453248
  0
LINE
  5
2F7
330
1F
100
AcDbEntity
  8
0
  6
Continuous
 62
     8
370
    30
100
AcDbLine
 10
214.5491959438
 20
146.0167720023
 30
0.0
 11
214.4096250377
 21
145.9361994333
 31
0.0
  0
ENDSEC
  0
SECTION
  2
OBJECTS
  0
DICTIONARY
  5
C
330
0
100
AcDbDictionary
281
     1
  3
ACAD_GROUP
350
D
  3
ACAD_LAYOUT
350
1A
  3
ACAD_MLINESTYLE
350
17
  3
ACAD_PLOTSETTINGS
350
19
  3
ACAD_PLOTSTYLENAME
350
E
  3
ACAD_SCALELIST
350
47
  0
DICTIONARY
  5
D
102
{ACAD_REACTORS
330
C
102
}
330
C
100
AcDbDictionary
281
     1
  0
DICTIONARY
  5
1A
102
{ACAD_REACTORS
330
C
102
}
330
C
100
AcDbDictionary
281
     1
  3
Layout1
350
1E
  3
Layout2
350
26
  3
Model
350
22
  0
DICTIONARY
  5
17
102
{ACAD_REACTORS
330
C
102
}
330
C
100
AcDbDictionary
281
     1
  3
Standard
350
18
  0
DICTIONARY
  5
19
102
{ACAD_REACTORS
330
C
102
}
330
C
100
AcDbDictionary
281
     1
  0
ACDBDICTIONARYWDFLT
  5
E
102
{ACAD_REACTORS
330
C
102
}
330
C
100
AcDbDictionary
281
     1
  3
Normal
350
F
100
AcDbDictionaryWithDefault
340
F
  0
DICTIONARY
  5
47
102
{ACAD_REACTORS
330
C
102
}
330
C
100
AcDbDictionary
281
     1
  3
A0
350
48
  3
A1
350
49
  3
A2
350
4A
  3
A3
350
4B
  3
A4
350
4C
  3
A5
350
4D
  3
A6
350
4E
  3
A7
350
4F
  3
A8
350
50
  3
A9
350
51
  3
B0
350
52
  3
B1
350
53
  3
B2
350
54
  3
B3
350
55
  3
B4
350
56
  3
B5
350
57
  3
B6
350
58
  3
B7
350
59
  3
B8
350
5A
  3
B9
350
5B
  3
C0
350
5C
  3
C1
350
5D
  3
C2
350
5E
  3
C3
350
5F
  3
C4
350
60
  3
C5
350
61
  3
C6
350
62
  3
C7
350
63
  3
C8
350
64
  3
C9
350
65
  3
D0
350
66
  3
D1
350
67
  3
D2
350
68
  0
LAYOUT
  5
1E
102
{ACAD_REACTORS
330
1A
102
}
330
1A
100
AcDbPlotSettings
  1

  2
none_device
  4

  6

 40
0.0
 41
0.0
 42
0.0
 43
0.0
 44
0.0
 45
0.0
 46
0.0
 47
0.0
 48
0.0
 49
0.0
140
0.0
141
0.0
142
1.0
143
1.0
 70
   688
 72
     1
 73
     0
 74
     5
  7

 75
    16
147
1.0
148
0.0
149
0.0
100
AcDbLayout
  1
Layout1
 70
     1
 71
     1
 10
0.0
 20
0.0
 11
420.0
 21
297.0
 12
0.0
 22
0.0
 32
0.0
 14
1.0000000000E+20
 24
1.0000000000E+20
 34
1.0000000000E+20
 15
-1.0000000000E+20
 25
-1.0000000000E+20
 35
-1.0000000000E+20
146
0.0
 13
0.0
 23
0.0
 33
0.0
 16
1.0
 26
0.0
 36
0.0
 17
0.0
 27
1.0
 37
0.0
 76
     0
330
1B
  0
LAYOUT
  5
26
102
{ACAD_REACTORS
330
1A
102
}
330
1A
100
AcDbPlotSettings
  1

  2
none_device
  4

  6

 40
0.0
 41
0.0
 42
0.0
 43
0.0
 44
0.0
 45
0.0
 46
0.0
 47
0.0
 48
0.0
 49
0.0
140
0.0
141
0.0
142
1.0
143
1.0
 70
   688
 72
     1
 73
     0
 74
     5
  7

 75
    16
147
1.0
148
0.0
149
0.0
100
AcDbLayout
  1
Layout2
 70
     1
 71
     2
 10
0.0
 20
0.0
 11
0.0
 21
0.0
 12
0.0
 22
0.0
 32
0.0
 14
0.0
 24
0.0
 34
0.0
 15
0.0
 25
0.0
 35
0.0
146
0.0
 13
0.0
 23
0.0
 33
0.0
 16
1.0
 26
0.0
 36
0.0
 17
0.0
 27
1.0
 37
0.0
 76
     0
330
23
  0
LAYOUT
  5
22
102
{ACAD_REACTORS
330
1A
102
}
330
1A
100
AcDbPlotSettings
  1

  2
none_device
  4
Letter_(8.50_x_11.00_Inches)
  6

 40
6.35
 41
6.35
 42
6.35000508
 43
6.35000508
 44
215.9
 45
279.4
 46
0.0
 47
0.0
 48
0.0
 49
0.0
140
0.0
141
0.0
142
1.0
143
1.0
 70
  1712
 72
     1
 73
     0
 74
     0
  7

 75
     0
147
1.0
148
0.0
149
0.0
100
AcDbLayout
  1
Model
 70
     1
 71
     0
 10
0.0
 20
0.0
 11
297.0
 21
210.0
 12
0.0
 22
0.0
 32
0.0
 14
0.0
 24
0.0
 34
0.0
 15
297.0
 25
210.0
 35
0.0
146
0.0
 13
0.0
 23
0.0
 33
0.0
 16
1.0
 26
0.0
 36
0.0
 17
0.0
 27
1.0
 37
0.0
 76
     0
330
1F
331
29
  0
MLINESTYLE
  5
18
102
{ACAD_REACTORS
330
17
102
}
330
17
100
AcDbMlineStyle
  2
Standard
 70
     0
  3

 62
   256
 51
90.0
 52
90.0
 71
     2
 49
0.5
 62
   256
  6
BYLAYER
 49
-0.5
 62
   256
  6
BYLAYER
  0
ACDBPLACEHOLDER
  5
F
102
{ACAD_REACTORS
330
E
102
}
330
E
  0
SCALE
  5
48
102
{ACAD_REACTORS
330
47
102
}
330
47
100
AcDbScale
 70
     0
300
1:1
140
1.0
141
1.0
290
     1
  0
SCALE
  5
49
102
{ACAD_REACTORS
330
47
102
}
330
47
100
AcDbScale
 70
     0
300
1:2
140
1.0
141
2.0
290
     0
  0
SCALE
  5
4A
102
{ACAD_REACTORS
330
47
102
}
330
47
100
AcDbScale
 70
     0
300
1:4
140
1.0
141
4.0
290
     0
  0
SCALE
  5
4B
102
{ACAD_REACTORS
330
47
102
}
330
47
100
AcDbScale
 70
     0
300
1:5
140
1.0
141
5.0
290
     0
  0
SCALE
  5
4C
102
{ACAD_REACTORS
330
47
102
}
330
47
100
AcDbScale
 70
     0
300
1:8
140
1.0
141
8.0
290
     0
  0
SCALE
  5
4D
102
{ACAD_REACTORS
330
47
102
}
330
47
100
AcDbScale
 70
     0
300
1:10
140
1.0
141
10.0
290
     0
  0
SCALE
  5
4E
102
{ACAD_REACTORS
330
47
102
}
330
47
100
AcDbScale
 70
     0
300
1:16
140
1.0
141
16.0
290
     0
  0
SCALE
  5
4F
102
{ACAD_REACTORS
330
47
102
}
330
47
100
AcDbScale
 70
     0
300
1:20
140
1.0
141
20.0
290
     0
  0
SCALE
  5
50
102
{ACAD_REACTORS
330
47
102
}
330
47
100
AcDbScale
 70
     0
300
1:30
140
1.0
141
30.0
290
     0
  0
SCALE
  5
51
102
{ACAD_REACTORS
330
47
102
}
330
47
100
AcDbScale
 70
     0
300
1:40
140
1.0
141
40.0
290
     0
  0
SCALE
  5
52
102
{ACAD_REACTORS
330
47
102
}
330
47
100
AcDbScale
 70
     0
300
1:50
140
1.0
141
50.0
290
     0
  0
SCALE
  5
53
102
{ACAD_REACTORS
330
47
102
}
330
47
100
AcDbScale
 70
     0
300
1:100
140
1.0
141
100.0
290
     0
  0
SCALE
  5
54
102
{ACAD_REACTORS
330
47
102
}
330
47
100
AcDbScale
 70
     0
300
2:1
140
2.0
141
1.0
290
     0
  0
SCALE
  5
55
102
{ACAD_REACTORS
330
47
102
}
330
47
100
AcDbScale
 70
     0
300
4:1
140
4.0
141
1.0
290
     0
  0
SCALE
  5
56
102
{ACAD_REACTORS
330
47
102
}
330
47
100
AcDbScale
 70
     0
300
8:1
140
8.0
141
1.0
290
     0
  0
SCALE
  5
57
102
{ACAD_REACTORS
330
47
102
}
330
47
100
AcDbScale
 70
     0
300
10:1
140
10.0
141
1.0
290
     0
  0
SCALE
  5
58
102
{ACAD_REACTORS
330
47
102
}
330
47
100
AcDbScale
 70
     0
300
100:1
140
100.0
141
1.0
290
     0
  0
SCALE
  5
59
102
{ACAD_REACTORS
330
47
102
}
330
47
100
AcDbScale
 70
     0
300
1/128" = 1'-0"
140
0.0078125
141
12.0
290
     0
  0
SCALE
  5
5A
102
{ACAD_REACTORS
330
47
102
}
330
47
100
AcDbScale
 70
     0
300
1/64" = 1'-0"
140
0.015625
141
12.0
290
     0
  0
SCALE
  5
5B
102
{ACAD_REACTORS
330
47
102
}
330
47
100
AcDbScale
 70
     0
300
1/32" = 1'-0"
140
0.03125
141
12.0
290
     0
  0
SCALE
  5
5C
102
{ACAD_REACTORS
330
47
102
}
330
47
100
AcDbScale
 70
     0
300
1/16" = 1'-0"
140
0.0625
141
12.0
290
     0
  0
SCALE
  5
5D
102
{ACAD_REACTORS
330
47
102
}
330
47
100
AcDbScale
 70
     0
300
3/32" = 1'-0"
140
0.09375
141
12.0
290
     0
  0
SCALE
  5
5E
102
{ACAD_REACTORS
330
47
102
}
330
47
100
AcDbScale
 70
     0
300
1/8" = 1'-0"
140
0.125
141
12.0
290
     0
  0
SCALE
  5
5F
102
{ACAD_REACTORS
330
47
102
}
330
47
100
AcDbScale
 70
     0
300
3/16" = 1'-0"
140
0.1875
141
12.0
290
     0
  0
SCALE
  5
60
102
{ACAD_REACTORS
330
47
102
}
330
47
100
AcDbScale
 70
     0
300
1/4" = 1'-0"
140
0.25
141
12.0
290
     0
  0
SCALE
  5
61
102
{ACAD_REACTORS
330
47
102
}
330
47
100
AcDbScale
 70
     0
300
3/8" = 1'-0"
140
0.375
141
12.0
290
     0
  0
SCALE
  5
62
102
{ACAD_REACTORS
330
47
102
}
330
47
100
AcDbScale
 70
     0
300
1/2" = 1'-0"
140
0.5
141
12.0
290
     0
  0
SCALE
  5
63
102
{ACAD_REACTORS
330
47
102
}
330
47
100
AcDbScale
 70
     0
300
3/4" = 1'-0"
140
0.75
141
12.0
290
     0
  0
SCALE
  5
64
102
{ACAD_REACTORS
330
47
102
}
330
47
100
AcDbScale
 70
     0
300
1" = 1'-0"
140
1.0
141
12.0
290
     0
  0
SCALE
  5
65
102
{ACAD_REACTORS
330
47
102
}
330
47
100
AcDbScale
 70
     0
300
1-1/2" = 1'-0"
140
1.5
141
12.0
290
     0
  0
SCALE
  5
66
102
{ACAD_REACTORS
330
47
102
}
330
47
100
AcDbScale
 70
     0
300
3" = 1'-0"
140
3.0
141
12.0
290
     0
  0
SCALE
  5
67
102
{ACAD_REACTORS
330
47
102
}
330
47
100
AcDbScale
 70
     0
300
6" = 1'-0"
140
6.0
141
12.0
290
     0
  0
SCALE
  5
68
102
{ACAD_REACTORS
330
47
102
}
330
47
100
AcDbScale
 70
     0
300
1'-0" = 1'-0"
140
12.0
141
12.0
290
     0
  0
ENDSEC
  0
EOF
