  0
SECTION
  2
HEADER
  9
$ACADVER
  1
AC1015
  9
$ACADMAINTVER
 70
     6
  9
$DWGCODEPAGE
  3
ANSI_950
  9
$INSBASE
 10
0.0
 20
0.0
 30
0.0
  9
$EXTMIN
 10
0.0
 20
0.0
 30
0.0
  9
$EXTMAX
 10
297.0
 20
210.0
 30
0.0
  9
$LIMMIN
 10
0.0
 20
0.0
  9
$LIMMAX
 10
297.0
 20
210.0
  9
$ORTHOMODE
 70
     0
  9
$REGENMODE
 70
     1
  9
$FILLMODE
 70
     1
  9
$QTEXTMODE
 70
     0
  9
$MIRRTEXT
 70
     1
  9
$LTSCALE
 40
1.0
  9
$ATTMODE
 70
     1
  9
$TEXTSIZE
 40
3.175
  9
$TRACEWID
 40
1.0
  9
$TEXTSTYLE
  7
Standard
  9
$CLAYER
  8
0
  9
$CELTYPE
  6
ByLayer
  9
$CECOLOR
 62
   256
  9
$CELTSCALE
 40
1.0
  9
$DISPSILH
 70
     0
  9
$DIMSCALE
 40
1.0
  9
$DIMASZ
 40
2.0
  9
$DIMEXO
 40
1.0
  9
$DIMDLI
 40
3.75
  9
$DIMRND
 40
0.0
  9
$DIMDLE
 40
0.0
  9
$DIMEXE
 40
1.0
  9
$DIMTP
 40
0.0
  9
$DIMTM
 40
0.0
  9
$DIMTXT
 40
3.175
  9
$DIMCEN
 40
2.5
  9
$DIMTSZ
 40
0.0
  9
$DIMTOL
 70
     0
  9
$DIMLIM
 70
     0
  9
$DIMTIH
 70
     1
  9
$DIMTOH
 70
     1
  9
$DIMSE1
 70
     0
  9
$DIMSE2
 70
     0
  9
$DIMTAD
 70
     1
  9
$DIMZIN
 70
     0
  9
$DIMBLK
  1

  9
$DIMASO
 70
     1
  9
$DIMSHO
 70
     1
  9
$DIMPOST
  1

  9
$DIMAPOST
  1

  9
$DIMALT
 70
     0
  9
$DIMALTD
 70
     3
  9
$DIMALTF
 40
0.0393700787
  9
$DIMLFAC
 40
1.0
  9
$DIMTOFL
 70
     1
  9
$DIMTVP
 40
0.0
  9
$DIMTIX
 70
     0
  9
$DIMSOXD
 70
     0
  9
$DIMSAH
 70
     0
  9
$DIMBLK1
  1

  9
$DIMBLK2
  1

  9
$DIMSTYLE
  2
ISO-25
  9
$DIMCLRD
 70
     0
  9
$DIMCLRE
 70
     0
  9
$DIMCLRT
 70
     0
  9
$DIMTFAC
 40
1.0
  9
$DIMGAP
 40
1.0
  9
$DIMJUST
 70
     0
  9
$DIMSD1
 70
     0
  9
$DIMSD2
 70
     0
  9
$DIMTOLJ
 70
     0
  9
$DIMTZIN
 70
     0
  9
$DIMALTZ
 70
     0
  9
$DIMALTTZ
 70
     0
  9
$DIMUPT
 70
     0
  9
$DIMDEC
 70
     2
  9
$DIMTDEC
 70
     2
  9
$DIMALTU
 70
     2
  9
$DIMALTTD
 70
     3
  9
$DIMTXSTY
  7
Standard
  9
$DIMAUNIT
 70
     0
  9
$DIMADEC
 70
     2
  9
$DIMALTRND
 40
0.0
  9
$DIMAZIN
 70
     0
  9
$DIMDSEP
 70
    44
  9
$DIMATFIT
 70
     3
  9
$DIMFRAC
 70
     0
  9
$DIMLDRBLK
  1

  9
$DIMLUNIT
 70
     2
  9
$DIMLWD
 70
    -2
  9
$DIMLWE
 70
    -2
  9
$DIMTMOVE
 70
     0
  9
$LUNITS
 70
     2
  9
$LUPREC
 70
     2
  9
$SKETCHINC
 40
1.0
  9
$FILLETRAD
 40
10.0
  9
$AUNITS
 70
     0
  9
$AUPREC
 70
     2
  9
$MENU
  1
.
  9
$ELEVATION
 40
0.0
  9
$PELEVATION
 40
0.0
  9
$THICKNESS
 40
0.0
  9
$LIMCHECK
 70
     0
  9
$CHAMFERA
 40
0.0
  9
$CHAMFERB
 40
0.0
  9
$CHAMFERC
 40
0.0
  9
$CHAMFERD
 40
0.0
  9
$SKPOLY
 70
     0
  9
$TDCREATE
 40
2458136.609486123
  9
$TDUCREATE
 40
2458136.276152789
  9
$TDUPDATE
 40
2458136.609492084
  9
$TDUUPDATE
 40
2458136.27615875
  9
$TDINDWG
 40
0.0000000116
  9
$TDUSRTIMER
 40
0.0000000116
  9
$USRTIMER
 70
     1
  9
$ANGBASE
 50
0.0
  9
$ANGDIR
 70
     0
  9
$PDMODE
 70
     0
  9
$PDSIZE
 40
-1.0
  9
$PLINEWID
 40
0.0
  9
$SPLFRAME
 70
     0
  9
$SPLINETYPE
 70
     6
  9
$SPLINESEGS
 70
     8
  9
$HANDSEED
  5
2D8
  9
$SURFTAB1
 70
     6
  9
$SURFTAB2
 70
     6
  9
$SURFTYPE
 70
     6
  9
$SURFU
 70
     6
  9
$SURFV
 70
     6
  9
$UCSBASE
  2

  9
$UCSNAME
  2

  9
$UCSORG
 10
0.0
 20
0.0
 30
0.0
  9
$UCSXDIR
 10
1.0
 20
0.0
 30
0.0
  9
$UCSYDIR
 10
0.0
 20
1.0
 30
0.0
  9
$UCSORTHOREF
  2

  9
$UCSORTHOVIEW
 70
     0
  9
$UCSORGTOP
 10
0.0
 20
0.0
 30
0.0
  9
$UCSORGBOTTOM
 10
0.0
 20
0.0
 30
0.0
  9
$UCSORGLEFT
 10
0.0
 20
0.0
 30
0.0
  9
$UCSORGRIGHT
 10
0.0
 20
0.0
 30
0.0
  9
$UCSORGFRONT
 10
0.0
 20
0.0
 30
0.0
  9
$UCSORGBACK
 10
0.0
 20
0.0
 30
0.0
  9
$PUCSBASE
  2

  9
$PUCSNAME
  2

  9
$PUCSORG
 10
0.0
 20
0.0
 30
0.0
  9
$PUCSXDIR
 10
1.0
 20
0.0
 30
0.0
  9
$PUCSYDIR
 10
0.0
 20
1.0
 30
0.0
  9
$PUCSORTHOREF
  2

  9
$PUCSORTHOVIEW
 70
     0
  9
$PUCSORGTOP
 10
0.0
 20
0.0
 30
0.0
  9
$PUCSORGBOTTOM
 10
0.0
 20
0.0
 30
0.0
  9
$PUCSORGLEFT
 10
0.0
 20
0.0
 30
0.0
  9
$PUCSORGRIGHT
 10
0.0
 20
0.0
 30
0.0
  9
$PUCSORGFRONT
 10
0.0
 20
0.0
 30
0.0
  9
$PUCSORGBACK
 10
0.0
 20
0.0
 30
0.0
  9
$USERI1
 70
     0
  9
$USERI2
 70
     0
  9
$USERI3
 70
     0
  9
$USERI4
 70
     0
  9
$USERI5
 70
     0
  9
$USERR1
 40
0.0
  9
$USERR2
 40
0.0
  9
$USERR3
 40
0.0
  9
$USERR4
 40
0.0
  9
$USERR5
 40
0.0
  9
$WORLDVIEW
 70
     1
  9
$SHADEDGE
 70
     3
  9
$SHADEDIF
 70
    70
  9
$TILEMODE
 70
     1
  9
$MAXACTVP
 70
    64
  9
$PINSBASE
 10
0.0
 20
0.0
 30
0.0
  9
$PLIMCHECK
 70
     0
  9
$PEXTMIN
 10
1.0000000000E+20
 20
1.0000000000E+20
 30
1.0000000000E+20
  9
$PEXTMAX
 10
-1.0000000000E+20
 20
-1.0000000000E+20
 30
-1.0000000000E+20
  9
$PLIMMIN
 10
0.0
 20
0.0
  9
$PLIMMAX
 10
420.0
 20
297.0
  9
$UNITMODE
 70
     0
  9
$VISRETAIN
 70
     1
  9
$PLINEGEN
 70
     0
  9
$PSLTSCALE
 70
     1
  9
$TREEDEPTH
 70
  3020
  9
$CMLSTYLE
  2
Standard
  9
$CMLJUST
 70
     0
  9
$CMLSCALE
 40
20.0
  9
$PROXYGRAPHICS
 70
     1
  9
$MEASUREMENT
 70
     1
  9
$CELWEIGHT
370
    -1
  9
$ENDCAPS
280
     0
  9
$JOINSTYLE
280
     0
  9
$LWDISPLAY
290
     1
  9
$INSUNITS
 70
     4
  9
$HYPERLINKBASE
  1

  9
$STYLESHEET
  1

  9
$XEDIT
290
     1
  9
$CEPSNTYPE
380
     0
  9
$PSTYLEMODE
290
     1
  9
$FINGERPRINTGUID
  2
{DAB9BF00-A215-4652-A501-A82AF42E0753}
  9
$VERSIONGUID
  2
{FAEB1C32-E019-11D5-929B-00C0DF256EC4}
  9
$EXTNAMES
290
     1
  9
$PSVPSCALE
 40
0.0
  9
$OLESTARTUP
290
     0
  0
ENDSEC
  0
SECTION
  2
CLASSES
  0
CLASS
  1
ACDBDICTIONARYWDFLT
  2
AcDbDictionaryWithDefault
  3
ObjectDBX Classes
 90
        0
280
     0
281
     0
  0
CLASS
  1
VISUALSTYLE
  2
AcDbVisualStyle
  3
ObjectDBX Classes
 90
     4095
280
     0
281
     0
  0
CLASS
  1
MATERIAL
  2
AcDbMaterial
  3
ObjectDBX Classes
 90
     1153
280
     0
281
     0
  0
CLASS
  1
SCALE
  2
AcDbScale
  3
ObjectDBX Classes
 90
     1153
280
     0
281
     0
  0
CLASS
  1
TABLESTYLE
  2
AcDbTableStyle
  3
ObjectDBX Classes
 90
     4095
280
     0
281
     0
  0
CLASS
  1
MLEADERSTYLE
  2
AcDbMLeaderStyle
  3
ACDB_MLEADERSTYLE_CLASS
 90
     4095
280
     0
281
     0
  0
CLASS
  1
SUN
  2
AcDbSun
  3
SCENEOE
 90
     1153
280
     0
281
     0
  0
CLASS
  1
ACDBPLACEHOLDER
  2
AcDbPlaceHolder
  3
ObjectDBX Classes
 90
        0
280
     0
281
     0
  0
CLASS
  1
LAYOUT
  2
AcDbLayout
  3
ObjectDBX Classes
 90
        0
280
     0
281
     0
  0
ENDSEC
  0
SECTION
  2
TABLES
  0
TABLE
  2
VPORT
  5
8
330
0
100
AcDbSymbolTable
 70
     1
  0
VPORT
  5
29
330
8
100
AcDbSymbolTableRecord
100
AcDbViewportTableRecord
  2
*Active
 70
     0
 10
0.0
 20
0.0
 11
1.0
 21
1.0
 12
148.5
 22
105.0
 13
0.0
 23
0.0
 14
10.0
 24
10.0
 15
10.0
 25
10.0
 16
0.0
 26
0.0
 36
1.0
 17
0.0
 27
0.0
 37
0.0
 40
210.0
 41
1.4142857143
 42
50.0
 43
0.0
 44
0.0
 50
0.0
 51
0.0
 71
     0
 72
  2000
 73
     1
 74
     3
 75
     0
 76
     0
 77
     0
 78
     0
281
     0
 65
     1
110
0.0
120
0.0
130
0.0
111
1.0
121
0.0
131
0.0
112
0.0
122
1.0
132
0.0
 79
     0
146
0.0
  0
ENDTAB
  0
TABLE
  2
LTYPE
  5
5
330
0
100
AcDbSymbolTable
 70
     6
  0
LTYPE
  5
14
330
5
100
AcDbSymbolTableRecord
100
AcDbLinetypeTableRecord
  2
ByBlock
 70
     0
  3

 72
    65
 73
     0
 40
0.0
  0
LTYPE
  5
15
330
5
100
AcDbSymbolTableRecord
100
AcDbLinetypeTableRecord
  2
ByLayer
 70
     0
  3

 72
    65
 73
     0
 40
0.0
  0
LTYPE
  5
16
330
5
100
AcDbSymbolTableRecord
100
AcDbLinetypeTableRecord
  2
Continuous
 70
     0
  3
Solid line
 72
    65
 73
     0
 40
0.0
  0
LTYPE
  5
6E
330
5
100
AcDbSymbolTableRecord
100
AcDbLinetypeTableRecord
  2
HIDDEN
 70
     0
  3
Hidden __ __ __ __ __ __ __ __ __ __ __ __ __ __
 72
    65
 73
     2
 40
1.905
 49
1.27
 74
     0
 49
-0.635
 74
     0
  0
LTYPE
  5
6F
330
5
100
AcDbSymbolTableRecord
100
AcDbLinetypeTableRecord
  2
PHANTOM
 70
     0
  3
Phantom ______  __  __  ______  __  __  ______
 72
    65
 73
     6
 40
12.7
 49
6.35
 74
     0
 49
-1.27
 74
     0
 49
1.27
 74
     0
 49
-1.27
 74
     0
 49
1.27
 74
     0
 49
-1.27
 74
     0
  0
LTYPE
  5
70
330
5
100
AcDbSymbolTableRecord
100
AcDbLinetypeTableRecord
  2
CENTER
 70
     0
  3
Center ____ _ ____ _ ____ _ ____ _ ____ _ ____
 72
    65
 73
     4
 40
10.16
 49
6.35
 74
     0
 49
-1.27
 74
     0
 49
1.27
 74
     0
 49
-1.27
 74
     0
  0
LTYPE
  5
71
330
5
100
AcDbSymbolTableRecord
100
AcDbLinetypeTableRecord
  2
CENTERX2
 70
     0
  3
Center (2x) ________  __  ________  __  _____
 72
    65
 73
     4
 40
20.32
 49
12.7
 74
     0
 49
-2.54
 74
     0
 49
2.54
 74
     0
 49
-2.54
 74
     0
  0
LTYPE
  5
72
330
5
100
AcDbSymbolTableRecord
100
AcDbLinetypeTableRecord
  2
DOT2
 70
     0
  3
Dot (.5x) ........................................
 72
    65
 73
     2
 40
0.635
 49
0.0
 74
     0
 49
-0.635
 74
     0
  0
ENDTAB
  0
TABLE
  2
LAYER
  5
2
330
0
100
AcDbSymbolTable
 70
    10
  0
LAYER
  5
10
330
2
100
AcDbSymbolTableRecord
100
AcDbLayerTableRecord
  2
0
 70
     0
 62
     7
  6
Continuous
370
    -3
390
F
  0
LAYER
  5
73
330
2
100
AcDbSymbolTableRecord
100
AcDbLayerTableRecord
  2
SLD-0
 70
     0
 62
     7
  6
Continuous
370
    15
390
F
  0
LAYER
  5
74
330
2
100
AcDbSymbolTableRecord
100
AcDbLayerTableRecord
  2
輪廓線
 70
     0
 62
   219
  6
Continuous
370
    15
390
F
  0
LAYER
  5
75
330
2
100
AcDbSymbolTableRecord
100
AcDbLayerTableRecord
  2
DIM
 70
     0
 62
     7
  6
Continuous
370
    -3
390
F
  0
LAYER
  5
76
330
2
100
AcDbSymbolTableRecord
100
AcDbLayerTableRecord
  2
中心線
 70
     0
 62
     7
  6
CENTERX2
370
    -3
390
F
  0
LAYER
  5
77
330
2
100
AcDbSymbolTableRecord
100
AcDbLayerTableRecord
  2
虛線
 70
     0
 62
     7
  6
HIDDEN
370
    -3
390
F
  0
LAYER
  5
78
330
2
100
AcDbSymbolTableRecord
100
AcDbLayerTableRecord
  2
SECTION
 70
     0
 62
     7
  6
PHANTOM
370
    15
390
F
  0
LAYER
  5
79
330
2
100
AcDbSymbolTableRecord
100
AcDbLayerTableRecord
  2
假想線
 70
     0
 62
     7
  6
PHANTOM
370
    -3
390
F
  0
LAYER
  5
7A
330
2
100
AcDbSymbolTableRecord
100
AcDbLayerTableRecord
  2
圖層_1
 70
     0
 62
   179
  6
Continuous
370
    -3
390
F
  0
LAYER
  5
7B
330
2
100
AcDbSymbolTableRecord
100
AcDbLayerTableRecord
  2
工作區域參考線
 70
     0
 62
   179
  6
Continuous
370
    -3
390
F
  0
ENDTAB
  0
TABLE
  2
STYLE
  5
3
330
0
100
AcDbSymbolTable
 70
     3
  0
STYLE
  5
11
330
3
100
AcDbSymbolTableRecord
100
AcDbTextStyleTableRecord
  2
Standard
 70
     0
 40
0.0
 41
1.0
 50
0.0
 71
     0
 42
3.175
  3
txt
  4

  0
STYLE
  5
CC
330
3
100
AcDbSymbolTableRecord
100
AcDbTextStyleTableRecord
  2
SLDTEXTSTYLE0
 70
     0
 40
0.0
 41
0.605
 50
0.0
 71
     0
 42
3.175
  3
TXT
  4

  0
STYLE
  5
103
330
3
100
AcDbSymbolTableRecord
100
AcDbTextStyleTableRecord
  2
SLDTEXTSTYLE1
 70
     0
 40
0.0
 41
0.7
 50
0.0
 71
     0
 42
3.175
  3
TXT
  4

  0
ENDTAB
  0
TABLE
  2
VIEW
  5
6
330
0
100
AcDbSymbolTable
 70
     0
  0
ENDTAB
  0
TABLE
  2
UCS
  5
7
330
0
100
AcDbSymbolTable
 70
     0
  0
ENDTAB
  0
TABLE
  2
APPID
  5
9
330
0
100
AcDbSymbolTable
 70
     1
  0
APPID
  5
12
330
9
100
AcDbSymbolTableRecord
100
AcDbRegAppTableRecord
  2
ACAD
 70
     0
  0
ENDTAB
  0
TABLE
  2
DIMSTYLE
  5
A
330
0
100
AcDbSymbolTable
 70
     3
100
AcDbDimStyleTable
  0
DIMSTYLE
105
27
330
A
100
AcDbSymbolTableRecord
100
AcDbDimStyleTableRecord
  2
ISO-25
 70
     0
 41
2.5
 42
0.625
 43
3.75
 44
1.25
 73
     0
 74
     0
 77
     1
 78
     8
140
2.5
141
2.5
143
0.0393700787
147
0.625
171
     3
172
     1
178
     0
271
     2
272
     2
274
     3
278
    44
283
     0
284
     8
340
11
  0
DIMSTYLE
105
1CD
102
{ACAD_REACTORS
330
1CC
330
1D7
330
1E1
330
1F8
330
202
330
20E
330
219
102
}
330
A
100
AcDbSymbolTableRecord
100
AcDbDimStyleTableRecord
  2
SLDDIMSTYLE0
 70
     0
 41
2.0
 44
0.0
 45
0.000000001
 73
     0
 74
     0
 77
     1
 78
    12
 79
     3
140
2.5424804688
147
0.6356201172
173
     1
178
     0
271
     2
272
     2
276
     2
284
    12
340
103
  0
DIMSTYLE
105
1EC
102
{ACAD_REACTORS
330
1EB
102
}
330
A
100
AcDbSymbolTableRecord
100
AcDbDimStyleTableRecord
  2
SLDDIMSTYLE1
 70
     0
 41
2.0
 44
0.0
 45
0.000000001
 73
     0
 74
     0
 77
     1
 78
    12
 79
     3
140
2.5424804688
147
0.6356201172
172
     1
173
     1
178
     0
271
     2
272
     2
276
     2
284
    12
289
     0
340
103
  0
ENDTAB
  0
TABLE
  2
BLOCK_RECORD
  5
1
330
0
100
AcDbSymbolTable
 70
    12
  0
BLOCK_RECORD
  5
1F
330
1
100
AcDbSymbolTableRecord
100
AcDbBlockTableRecord
  2
*Model_Space
340
22
  0
BLOCK_RECORD
  5
1B
330
1
100
AcDbSymbolTableRecord
100
AcDbBlockTableRecord
  2
*Paper_Space
340
1E
  0
BLOCK_RECORD
  5
23
330
1
100
AcDbSymbolTableRecord
100
AcDbBlockTableRecord
  2
*Paper_Space0
340
26
  0
BLOCK_RECORD
  5
7C
330
1
100
AcDbSymbolTableRecord
100
AcDbBlockTableRecord
  2
圖塊6
340
0
102
{BLKREFS
331
CB
102
}
  0
BLOCK_RECORD
  5
CE
330
1
100
AcDbSymbolTableRecord
100
AcDbBlockTableRecord
  2
SW_NOTE_0
340
0
102
{BLKREFS
331
D4
102
}
  0
BLOCK_RECORD
  5
105
330
1
100
AcDbSymbolTableRecord
100
AcDbBlockTableRecord
  2
SW_NOTE_1
340
0
102
{BLKREFS
331
10A
102
}
  0
BLOCK_RECORD
  5
1CE
330
1
100
AcDbSymbolTableRecord
100
AcDbBlockTableRecord
  2
_D
340
0
  0
BLOCK_RECORD
  5
1D8
330
1
100
AcDbSymbolTableRecord
100
AcDbBlockTableRecord
  2
_D_1
340
0
  0
BLOCK_RECORD
  5
1E2
330
1
100
AcDbSymbolTableRecord
100
AcDbBlockTableRecord
  2
_D_2
340
0
  0
BLOCK_RECORD
  5
1ED
330
1
100
AcDbSymbolTableRecord
100
AcDbBlockTableRecord
  2
_D_3
340
0
  0
BLOCK_RECORD
  5
1F9
330
1
100
AcDbSymbolTableRecord
100
AcDbBlockTableRecord
  2
_D_4
340
0
  0
BLOCK_RECORD
  5
203
330
1
100
AcDbSymbolTableRecord
100
AcDbBlockTableRecord
  2
_D_5
340
0
  0
BLOCK_RECORD
  5
20F
330
1
100
AcDbSymbolTableRecord
100
AcDbBlockTableRecord
  2
_D_6
340
0
  0
BLOCK_RECORD
  5
21A
330
1
100
AcDbSymbolTableRecord
100
AcDbBlockTableRecord
  2
_D_7
340
0
  0
ENDTAB
  0
ENDSEC
  0
SECTION
  2
BLOCKS
  0
BLOCK
  5
20
330
1F
100
AcDbEntity
  8
0
100
AcDbBlockBegin
  2
*Model_Space
 70
     0
 10
0.0
 20
0.0
 30
0.0
  3
*Model_Space
  1

  0
ENDBLK
  5
21
330
1F
100
AcDbEntity
  8
0
100
AcDbBlockEnd
  0
BLOCK
  5
1C
330
1B
100
AcDbEntity
 67
     1
  8
0
100
AcDbBlockBegin
  2
*Paper_Space
 70
     0
 10
0.0
 20
0.0
 30
0.0
  3
*Paper_Space
  1

  0
ENDBLK
  5
1D
330
1B
100
AcDbEntity
 67
     1
  8
0
100
AcDbBlockEnd
  0
BLOCK
  5
24
330
23
100
AcDbEntity
  8
0
100
AcDbBlockBegin
  2
*Paper_Space0
 70
     0
 10
0.0
 20
0.0
 30
0.0
  3
*Paper_Space0
  1

  0
ENDBLK
  5
25
330
23
100
AcDbEntity
  8
0
100
AcDbBlockEnd
  0
BLOCK
  5
7D
330
7C
100
AcDbEntity
  8
0
100
AcDbBlockBegin
  2
圖塊6
 70
     0
 10
0.0
 20
0.0
 30
0.0
  3
圖塊6
  1

  0
ARC
  5
7F
330
7C
100
AcDbEntity
  8
圖層_1
 62
     7
370
    30
100
AcDbCircle
 10
1.5301544339
 20
6.1020682891
 30
0.0
 40
1.53015443394367
100
AcDbArc
 50
130.2115225915
 51
228.588904108
  0
ARC
  5
80
330
7C
100
AcDbEntity
  8
圖層_1
 62
     7
370
    30
100
AcDbCircle
 10
4.8509135981
 20
5.9949454415
 30
0.0
 40
2.577335426817622
100
AcDbArc
 50
140.4331765613
 51
251.0865666567
  0
ARC
  5
81
330
7C
100
AcDbEntity
  8
圖層_1
 62
     7
370
    30
100
AcDbCircle
 10
5.1765041982
 20
6.3117559713
 30
0.0
 40
2.989636657769863
100
AcDbArc
 50
247.1485306747
 51
309.6030773927
  0
LINE
  5
82
330
7C
100
AcDbEntity
  8
圖層_1
 62
     7
370
    30
100
AcDbLine
 10
1.8488977269
 20
8.5321825984
 30
0.0
 11
0.542269472
 21
7.2705955219
 31
0.0
  0
LINE
  5
83
330
7C
100
AcDbEntity
  8
圖層_1
 62
     7
370
    30
100
AcDbLine
 10
0.51802289
 20
4.9544784977
 30
0.0
 11
4.5272252002
 21
1.4698746574
 31
0.0
  0
LINE
  5
84
330
7C
100
AcDbEntity
  8
圖層_1
 62
     7
370
    30
100
AcDbLine
 10
4.5272252002
 20
1.4698746574
 30
0.0
 11
3.8961732797
 21
0.853974267
 31
0.0
  0
LINE
  5
85
330
7C
100
AcDbEntity
  8
圖層_1
 62
     7
370
    30
100
AcDbLine
 10
3.8961732797
 20
0.853974267
 30
0.0
 11
4.8880526445
 21
0.0
 31
0.0
  0
LINE
  5
86
330
7C
100
AcDbEntity
  8
圖層_1
 62
     7
370
    30
100
AcDbLine
 10
8.0977170788
 20
3.1165779655
 30
0.0
 11
7.0822940472
 21
4.0083036932
 31
0.0
  0
LINE
  5
87
330
7C
100
AcDbEntity
  8
圖層_1
 62
     7
370
    30
100
AcDbLine
 10
2.8640915743
 20
7.6366506975
 30
0.0
 11
1.8488977269
 21
8.5321825984
 31
0.0
  0
LINE
  5
88
330
7C
100
AcDbEntity
  8
圖層_1
 62
     7
370
    30
100
AcDbLine
 10
4.8880526445
 20
0.0
 30
0.0
 11
8.0977170788
 21
3.1165779655
 31
0.0
  0
ENDBLK
  5
7E
330
7C
100
AcDbEntity
  8
0
100
AcDbBlockEnd
  0
BLOCK
  5
CF
330
CE
100
AcDbEntity
  8
0
100
AcDbBlockBegin
  2
SW_NOTE_0
 70
     0
 10
0.0
 20
0.0
 30
0.0
  3
SW_NOTE_0
  1

  0
MTEXT
  5
D1
330
CE
100
AcDbEntity
  8
0
  6
Continuous
 62
     0
370
     0
100
AcDbMText
 10
0.0
 20
3.4106583948
 30
0.0
 40
2.6458333333
 41
0.0
 71
     1
 72
     1
  1
PROPRIETARY AND CONFIDENTIAL
  7
SLDTEXTSTYLE0
 73
     1
 44
1.0
  0
MTEXT
  5
D2
330
CE
100
AcDbEntity
  8
0
  6
Continuous
 62
     0
370
     0
100
AcDbMText
 10
0.0
 20
-0.08198348
 30
0.0
 40
1.8520833333
 41
0.0
 71
     1
 72
     1
  1
THE INFORMATION CONTAINED IN THIS DRAWING IS THE SOLE PROPERTY OF UNICE E-O SERVICES INC. ANY REPRODUCTION IN PART OR AS A WHOLE WITHOUT THE WRITTEN PERMISSION OF UNICE E-O SERVICES INC IS
  7
SLDTEXTSTYLE0
 73
     1
 44
1.0
  0
MTEXT
  5
D3
330
CE
100
AcDbEntity
  8
0
  6
Continuous
 62
     0
370
     0
100
AcDbMText
 10
0.0
 20
-2.5514278946
 30
0.0
 40
1.8520833333
 41
0.0
 71
     1
 72
     1
  1
PROHIBITED.
  7
SLDTEXTSTYLE0
 73
     1
 44
1.0
  0
ENDBLK
  5
D0
330
CE
100
AcDbEntity
  8
0
100
AcDbBlockEnd
  0
BLOCK
  5
106
330
105
100
AcDbEntity
  8
0
100
AcDbBlockBegin
  2
SW_NOTE_1
 70
     0
 10
0.0
 20
0.0
 30
0.0
  3
SW_NOTE_1
  1

  0
MTEXT
  5
108
330
105
100
AcDbEntity
  8
SLD-0
 62
     0
100
AcDbMText
 10
0.0
 20
2.0463950369
 30
0.0
 40
1.5875
 41
0.0
 71
     1
 72
     1
  1
No.5, Andong Rd., Chung Li District,
  7
SLDTEXTSTYLE0
 73
     1
 44
1.0
  0
MTEXT
  5
109
330
105
100
AcDbEntity
  8
SLD-0
 62
     0
100
AcDbMText
 10
0.0
 20
-0.0702716042
 30
0.0
 40
1.5875
 41
0.0
 71
     1
 72
     1
  1
Taoyuan City 32063, Taiwan, R.O.C.
  7
SLDTEXTSTYLE0
 73
     1
 44
1.0
  0
ENDBLK
  5
107
330
105
100
AcDbEntity
  8
0
100
AcDbBlockEnd
  0
BLOCK
  5
1CF
330
1CE
100
AcDbEntity
  8
0
100
AcDbBlockBegin
  2
_D
 70
     0
 10
0.0
 20
0.0
 30
0.0
  3
_D
  1

  0
SOLID
  5
1D1
330
1CE
100
AcDbEntity
  8
DIM
100
AcDbTrace
 10
84.4668230218
 20
85.7161249205
 30
0.0
 11
86.4668230218
 21
85.4661249205
 31
0.0
 12
86.4668230218
 22
85.9661249205
 32
0.0
 13
86.4668230218
 23
85.9661249205
 33
0.0
  0
SOLID
  5
1D2
330
1CE
100
AcDbEntity
  8
DIM
100
AcDbTrace
 10
111.4668230218
 20
85.7161249205
 30
0.0
 11
109.4668230218
 21
85.9661249205
 31
0.0
 12
109.4668230218
 22
85.4661249205
 32
0.0
 13
109.4668230218
 23
85.4661249205
 33
0.0
  0
LINE
  5
1D3
330
1CE
100
AcDbEntity
  8
DIM
100
AcDbLine
 10
84.4668230218
 20
97.5411249205
 30
0.0
 11
84.4668230218
 21
84.7161249205
 31
0.0
  0
LINE
  5
1D4
330
1CE
100
AcDbEntity
  8
DIM
100
AcDbLine
 10
111.4668230218
 20
95.7161249205
 30
0.0
 11
111.4668230218
 21
84.7161249205
 31
0.0
  0
LINE
  5
1D5
330
1CE
100
AcDbEntity
  8
DIM
100
AcDbLine
 10
84.4668230218
 20
85.7161249205
 30
0.0
 11
111.4668230218
 21
85.7161249205
 31
0.0
  0
MTEXT
  5
1D6
330
1CE
100
AcDbEntity
  8
DIM
100
AcDbMText
 10
96.4763369346
 20
88.7857173594
 30
0.0
 40
2.38125
 41
0.0
 71
     1
 72
     1
  1
27
  7
SLDTEXTSTYLE1
 73
     1
 44
1.0
  0
ENDBLK
  5
1D0
330
1CE
100
AcDbEntity
  8
0
100
AcDbBlockEnd
  0
BLOCK
  5
1D9
330
1D8
100
AcDbEntity
  8
0
100
AcDbBlockBegin
  2
_D_1
 70
     0
 10
0.0
 20
0.0
 30
0.0
  3
_D_1
  1

  0
SOLID
  5
1DB
330
1D8
100
AcDbEntity
  8
DIM
100
AcDbTrace
 10
111.4668230218
 20
85.7161249205
 30
0.0
 11
113.4668230218
 21
85.4661249205
 31
0.0
 12
113.4668230218
 22
85.9661249205
 32
0.0
 13
113.4668230218
 23
85.9661249205
 33
0.0
  0
SOLID
  5
1DC
330
1D8
100
AcDbEntity
  8
DIM
100
AcDbTrace
 10
126.4668230218
 20
85.7161249205
 30
0.0
 11
124.4668230218
 21
85.9661249205
 31
0.0
 12
124.4668230218
 22
85.4661249205
 32
0.0
 13
124.4668230218
 23
85.4661249205
 33
0.0
  0
LINE
  5
1DD
330
1D8
100
AcDbEntity
  8
DIM
100
AcDbLine
 10
111.4668230218
 20
95.7161249205
 30
0.0
 11
111.4668230218
 21
84.7161249205
 31
0.0
  0
LINE
  5
1DE
330
1D8
100
AcDbEntity
  8
DIM
100
AcDbLine
 10
126.4668230218
 20
93.3661249205
 30
0.0
 11
126.4668230218
 21
84.7161249205
 31
0.0
  0
LINE
  5
1DF
330
1D8
100
AcDbEntity
  8
DIM
100
AcDbLine
 10
111.4668230218
 20
85.7161249205
 30
0.0
 11
126.4668230218
 21
85.7161249205
 31
0.0
  0
MTEXT
  5
1E0
330
1D8
100
AcDbEntity
  8
DIM
100
AcDbMText
 10
117.4763369346
 20
88.7857173594
 30
0.0
 40
2.38125
 41
0.0
 71
     1
 72
     1
  1
15
  7
SLDTEXTSTYLE1
 73
     1
 44
1.0
  0
ENDBLK
  5
1DA
330
1D8
100
AcDbEntity
  8
0
100
AcDbBlockEnd
  0
BLOCK
  5
1E3
330
1E2
100
AcDbEntity
  8
0
100
AcDbBlockBegin
  2
_D_2
 70
     0
 10
0.0
 20
0.0
 30
0.0
  3
_D_2
  1

  0
SOLID
  5
1E5
330
1E2
100
AcDbEntity
  8
DIM
100
AcDbTrace
 10
126.4668230218
 20
85.7161249205
 30
0.0
 11
128.4668230218
 21
85.4661249205
 31
0.0
 12
128.4668230218
 22
85.9661249205
 32
0.0
 13
128.4668230218
 23
85.9661249205
 33
0.0
  0
SOLID
  5
1E6
330
1E2
100
AcDbEntity
  8
DIM
100
AcDbTrace
 10
176.4668230218
 20
85.7161249205
 30
0.0
 11
174.4668230218
 21
85.9661249205
 31
0.0
 12
174.4668230218
 22
85.4661249205
 32
0.0
 13
174.4668230218
 23
85.4661249205
 33
0.0
  0
LINE
  5
1E7
330
1E2
100
AcDbEntity
  8
DIM
100
AcDbLine
 10
126.4668230218
 20
93.3661249205
 30
0.0
 11
126.4668230218
 21
84.7161249205
 31
0.0
  0
LINE
  5
1E8
330
1E2
100
AcDbEntity
  8
DIM
100
AcDbLine
 10
176.4668230218
 20
96.4661249205
 30
0.0
 11
176.4668230218
 21
84.7161249205
 31
0.0
  0
LINE
  5
1E9
330
1E2
100
AcDbEntity
  8
DIM
100
AcDbLine
 10
126.4668230218
 20
85.7161249205
 30
0.0
 11
176.4668230218
 21
85.7161249205
 31
0.0
  0
MTEXT
  5
1EA
330
1E2
100
AcDbEntity
  8
DIM
100
AcDbMText
 10
149.9763369346
 20
88.7857173594
 30
0.0
 40
2.38125
 41
0.0
 71
     1
 72
     1
  1
50
  7
SLDTEXTSTYLE1
 73
     1
 44
1.0
  0
ENDBLK
  5
1E4
330
1E2
100
AcDbEntity
  8
0
100
AcDbBlockEnd
  0
BLOCK
  5
1EE
330
1ED
100
AcDbEntity
  8
0
100
AcDbBlockBegin
  2
_D_3
 70
     0
 10
0.0
 20
0.0
 30
0.0
  3
_D_3
  1

  0
SOLID
  5
1F0
330
1ED
100
AcDbEntity
  8
DIM
100
AcDbTrace
 10
176.4668230218
 20
85.7161249205
 30
0.0
 11
174.4668230218
 21
85.9661249205
 31
0.0
 12
174.4668230218
 22
85.4661249205
 32
0.0
 13
174.4668230218
 23
85.4661249205
 33
0.0
  0
SOLID
  5
1F1
330
1ED
100
AcDbEntity
  8
DIM
100
AcDbTrace
 10
179.9668230218
 20
85.7161249205
 30
0.0
 11
181.9668230218
 21
85.4661249205
 31
0.0
 12
181.9668230218
 22
85.9661249205
 32
0.0
 13
181.9668230218
 23
85.9661249205
 33
0.0
  0
LINE
  5
1F2
330
1ED
100
AcDbEntity
  8
DIM
100
AcDbLine
 10
176.4668230218
 20
96.4661249205
 30
0.0
 11
176.4668230218
 21
84.7161249205
 31
0.0
  0
LINE
  5
1F3
330
1ED
100
AcDbEntity
  8
DIM
100
AcDbLine
 10
179.9668230218
 20
96.4661249205
 30
0.0
 11
179.9668230218
 21
84.7161249205
 31
0.0
  0
LINE
  5
1F4
330
1ED
100
AcDbEntity
  8
DIM
100
AcDbLine
 10
176.4668230218
 20
85.7161249205
 30
0.0
 11
173.4668230218
 21
85.7161249205
 31
0.0
  0
LINE
  5
1F5
330
1ED
100
AcDbEntity
  8
DIM
100
AcDbLine
 10
176.4668230218
 20
85.7161249205
 30
0.0
 11
179.9668230218
 21
85.7161249205
 31
0.0
  0
LINE
  5
1F6
330
1ED
100
AcDbEntity
  8
DIM
100
AcDbLine
 10
179.9668230218
 20
85.7161249205
 30
0.0
 11
187.5176563933
 21
85.7161249205
 31
0.0
  0
MTEXT
  5
1F7
330
1ED
100
AcDbEntity
  8
DIM
100
AcDbMText
 10
183.7914410587
 20
88.7857173594
 30
0.0
 40
2.38125
 41
0.0
 71
     1
 72
     1
  1
3.5
  7
SLDTEXTSTYLE1
 73
     1
 44
1.0
  0
ENDBLK
  5
1EF
330
1ED
100
AcDbEntity
  8
0
100
AcDbBlockEnd
  0
BLOCK
  5
1FA
330
1F9
100
AcDbEntity
  8
0
100
AcDbBlockBegin
  2
_D_4
 70
     0
 10
0.0
 20
0.0
 30
0.0
  3
_D_4
  1

  0
SOLID
  5
1FC
330
1F9
100
AcDbEntity
  8
DIM
100
AcDbTrace
 10
179.9668230218
 20
80.7161249205
 30
0.0
 11
177.9668230218
 21
80.9661249205
 31
0.0
 12
177.9668230218
 22
80.4661249205
 32
0.0
 13
177.9668230218
 23
80.4661249205
 33
0.0
  0
SOLID
  5
1FD
330
1F9
100
AcDbEntity
  8
DIM
100
AcDbTrace
 10
84.4668230218
 20
80.7161249205
 30
0.0
 11
86.4668230218
 21
80.4661249205
 31
0.0
 12
86.4668230218
 22
80.9661249205
 32
0.0
 13
86.4668230218
 23
80.9661249205
 33
0.0
  0
LINE
  5
1FE
330
1F9
100
AcDbEntity
  8
DIM
100
AcDbLine
 10
179.9668230218
 20
96.4661249205
 30
0.0
 11
179.9668230218
 21
79.7161249205
 31
0.0
  0
LINE
  5
1FF
330
1F9
100
AcDbEntity
  8
DIM
100
AcDbLine
 10
84.4668230218
 20
97.5411249205
 30
0.0
 11
84.4668230218
 21
79.7161249205
 31
0.0
  0
LINE
  5
200
330
1F9
100
AcDbEntity
  8
DIM
100
AcDbLine
 10
179.9668230218
 20
80.7161249205
 30
0.0
 11
84.4668230218
 21
80.7161249205
 31
0.0
  0
MTEXT
  5
201
330
1F9
100
AcDbEntity
  8
DIM
100
AcDbMText
 10
129.6084725437
 20
83.7857173594
 30
0.0
 40
2.38125
 41
0.0
 71
     1
 72
     1
  1
95.5
  7
SLDTEXTSTYLE1
 73
     1
 44
1.0
  0
ENDBLK
  5
1FB
330
1F9
100
AcDbEntity
  8
0
100
AcDbBlockEnd
  0
BLOCK
  5
204
330
203
100
AcDbEntity
  8
0
100
AcDbBlockBegin
  2
_D_5
 70
     0
 10
0.0
 20
0.0
 30
0.0
  3
_D_5
  1

  0
SOLID
  5
206
330
203
100
AcDbEntity
  8
DIM
100
AcDbTrace
 10
77.4668230218
 20
104.8911249205
 30
0.0
 11
77.2168230218
 21
102.8911249205
 31
0.0
 12
77.7168230218
 22
102.8911249205
 32
0.0
 13
77.7168230218
 23
102.8911249205
 33
0.0
  0
SOLID
  5
207
330
203
100
AcDbEntity
  8
DIM
100
AcDbTrace
 10
77.4668230218
 20
98.5411249205
 30
0.0
 11
77.7168230218
 21
100.5411249205
 31
0.0
 12
77.2168230218
 22
100.5411249205
 32
0.0
 13
77.2168230218
 23
100.5411249205
 33
0.0
  0
LINE
  5
208
330
203
100
AcDbEntity
  8
DIM
100
AcDbLine
 10
83.4668230218
 20
104.8911249205
 30
0.0
 11
76.4668230218
 21
104.8911249205
 31
0.0
  0
LINE
  5
209
330
203
100
AcDbEntity
  8
DIM
100
AcDbLine
 10
83.4668230218
 20
98.5411249205
 30
0.0
 11
76.4668230218
 21
98.5411249205
 31
0.0
  0
LINE
  5
20A
330
203
100
AcDbEntity
  8
DIM
100
AcDbLine
 10
77.4668230218
 20
104.8911249205
 30
0.0
 11
77.4668230218
 21
98.5411249205
 31
0.0
  0
LINE
  5
20B
330
203
100
AcDbEntity
  8
DIM
100
AcDbLine
 10
77.4668230218
 20
98.5411249205
 30
0.0
 11
77.4668230218
 21
86.4835556029
 31
0.0
  0
MTEXT
  5
20C
330
203
100
AcDbEntity
  8
DIM
100
AcDbMText
 10
74.3972303501
 20
86.4835556029
 30
0.0
 40
2.38125
 41
0.0
 71
     1
 72
     1
  1
%%c
  7
SLDTEXTSTYLE1
 11
-1.770233605404514E-14
 21
1.0
 31
0.0
 73
     1
 44
1.0
  0
MTEXT
  5
20D
330
203
100
AcDbEntity
  8
DIM
100
AcDbMText
 10
74.3972303501
 20
89.4998055781
 30
0.0
 40
2.38125
 41
0.0
 71
     1
 72
     1
  1
6.35
  7
SLDTEXTSTYLE1
 11
-1.770233605404514E-14
 21
1.0
 31
0.0
 73
     1
 44
1.0
  0
ENDBLK
  5
205
330
203
100
AcDbEntity
  8
0
100
AcDbBlockEnd
  0
BLOCK
  5
210
330
20F
100
AcDbEntity
  8
0
100
AcDbBlockBegin
  2
_D_6
 70
     0
 10
0.0
 20
0.0
 30
0.0
  3
_D_6
  1

  0
SOLID
  5
212
330
20F
100
AcDbEntity
  8
DIM
100
AcDbTrace
 10
72.4668230218
 20
106.7161249205
 30
0.0
 11
72.2168230218
 21
104.7161249205
 31
0.0
 12
72.7168230218
 22
104.7161249205
 32
0.0
 13
72.7168230218
 23
104.7161249205
 33
0.0
  0
SOLID
  5
213
330
20F
100
AcDbEntity
  8
DIM
100
AcDbTrace
 10
72.4668230218
 20
96.7161249205
 30
0.0
 11
72.7168230218
 21
98.7161249205
 31
0.0
 12
72.2168230218
 22
98.7161249205
 32
0.0
 13
72.2168230218
 23
98.7161249205
 33
0.0
  0
LINE
  5
214
330
20F
100
AcDbEntity
  8
DIM
100
AcDbLine
 10
110.4668230218
 20
106.7161249205
 30
0.0
 11
71.4668230218
 21
106.7161249205
 31
0.0
  0
LINE
  5
215
330
20F
100
AcDbEntity
  8
DIM
100
AcDbLine
 10
110.4668230218
 20
96.7161249205
 30
0.0
 11
71.4668230218
 21
96.7161249205
 31
0.0
  0
LINE
  5
216
330
20F
100
AcDbEntity
  8
DIM
100
AcDbLine
 10
72.4668230218
 20
106.7161249205
 30
0.0
 11
72.4668230218
 21
96.7161249205
 31
0.0
  0
MTEXT
  5
217
330
20F
100
AcDbEntity
  8
DIM
100
AcDbMText
 10
69.3972303501
 20
98.717513962
 30
0.0
 40
2.38125
 41
0.0
 71
     1
 72
     1
  1
%%c
  7
SLDTEXTSTYLE1
 11
-1.770233605404514E-14
 21
1.0
 31
0.0
 73
     1
 44
1.0
  0
MTEXT
  5
218
330
20F
100
AcDbEntity
  8
DIM
100
AcDbMText
 10
69.3972303501
 20
101.7337639372
 30
0.0
 40
2.38125
 41
0.0
 71
     1
 72
     1
  1
10
  7
SLDTEXTSTYLE1
 11
-1.770233605404514E-14
 21
1.0
 31
0.0
 73
     1
 44
1.0
  0
ENDBLK
  5
211
330
20F
100
AcDbEntity
  8
0
100
AcDbBlockEnd
  0
BLOCK
  5
21B
330
21A
100
AcDbEntity
  8
0
100
AcDbBlockBegin
  2
_D_7
 70
     0
 10
0.0
 20
0.0
 30
0.0
  3
_D_7
  1

  0
SOLID
  5
21D
330
21A
100
AcDbEntity
  8
DIM
100
AcDbTrace
 10
186.9668230218
 20
110.7161249205
 30
0.0
 11
186.7168230218
 21
108.7161249205
 31
0.0
 12
187.2168230218
 22
108.7161249205
 32
0.0
 13
187.2168230218
 23
108.7161249205
 33
0.0
  0
SOLID
  5
21E
330
21A
100
AcDbEntity
  8
DIM
100
AcDbTrace
 10
186.9668230218
 20
92.7161249205
 30
0.0
 11
187.2168230218
 21
94.7161249205
 31
0.0
 12
186.7168230218
 22
94.7161249205
 32
0.0
 13
186.7168230218
 23
94.7161249205
 33
0.0
  0
LINE
  5
21F
330
21A
100
AcDbEntity
  8
DIM
100
AcDbLine
 10
176.4453176455
 20
110.7161249205
 30
0.0
 11
187.9668230218
 21
110.7161249205
 31
0.0
  0
LINE
  5
220
330
21A
100
AcDbEntity
  8
DIM
100
AcDbLine
 10
176.4453176455
 20
92.7161249205
 30
0.0
 11
187.9668230218
 21
92.7161249205
 31
0.0
  0
LINE
  5
221
330
21A
100
AcDbEntity
  8
DIM
100
AcDbLine
 10
186.9668230218
 20
110.7161249205
 30
0.0
 11
186.9668230218
 21
92.7161249205
 31
0.0
  0
MTEXT
  5
222
330
21A
100
AcDbEntity
  8
DIM
100
AcDbMText
 10
183.8972303501
 20
98.717513962
 30
0.0
 40
2.38125
 41
0.0
 71
     1
 72
     1
  1
%%c
  7
SLDTEXTSTYLE1
 11
-1.770233605404514E-14
 21
1.0
 31
0.0
 73
     1
 44
1.0
  0
MTEXT
  5
223
330
21A
100
AcDbEntity
  8
DIM
100
AcDbMText
 10
183.8972303501
 20
101.7337639372
 30
0.0
 40
2.38125
 41
0.0
 71
     1
 72
     1
  1
18
  7
SLDTEXTSTYLE1
 11
-1.770233605404514E-14
 21
1.0
 31
0.0
 73
     1
 44
1.0
  0
ENDBLK
  5
21C
330
21A
100
AcDbEntity
  8
0
100
AcDbBlockEnd
  0
ENDSEC
  0
SECTION
  2
ENTITIES
  0
HATCH
  5
89
330
1F
100
AcDbEntity
  8
0
  6
Continuous
 62
     7
100
AcDbHatch
 10
0.0
 20
0.0
 30
0.0
210
0.0
220
0.0
230
1.0
  2
SOLID
 70
     1
 71
     0
 91
        1
 92
        0
 93
       10
 72
     2
 10
192.1405965629367
 20
35.75580880988856
 40
2.989636657769859
 50
50.39692260731407
 51
112.8514693252983
 73
     0
 72
     2
 10
191.815005962812
 20
35.43899828006204
 40
2.577335426817619
 50
108.9134333432861
 51
219.5668234386827
 73
     0
 72
     1
 10
189.8281839389603
 20
37.0807035361501
 11
188.8129900915579
 21
37.97623543696786
 72
     1
 10
188.8129900915579
 20
37.97623543696786
 11
187.5063618366762
 21
36.71464836046036
 72
     2
 10
188.4942467986389
 20
35.54612112772446
 40
1.530154433943661
 50
130.2115225915088
 51
228.5889041080191
 73
     1
 72
     1
 10
187.482115254651
 20
34.39853133629978
 11
191.4913175648466
 21
30.9139274960251
 72
     1
 10
191.4913175648466
 20
30.9139274960251
 11
190.8602656444315
 21
30.29802710555407
 72
     1
 10
190.8602656444315
 20
30.29802710555407
 11
191.852145009157
 21
29.44405283860024
 72
     1
 10
191.852145009157
 20
29.44405283860024
 11
195.0618094435223
 21
32.56063080411572
 72
     1
 10
195.0618094435223
 20
32.56063080411572
 11
194.0463864118641
 21
33.45235653184883
 97
        0
 75
     0
 76
     1
 98
        1
 10
0.0
 20
0.0
  0
HATCH
  5
8A
330
1F
100
AcDbEntity
  8
0
  6
Continuous
 62
     1
100
AcDbHatch
 10
0.0
 20
0.0
 30
0.0
210
0.0
220
0.0
230
1.0
  2
SOLID
 70
     1
 71
     0
 91
        1
 92
        0
 93
       10
 72
     2
 10
192.5892455627688
 20
35.6630691563161
 40
2.57756748834625
 50
317.8184992995785
 51
398.0564711573078
 73
     0
 72
     1
 10
194.6188314058163
 20
34.07415900697447
 11
195.6042802987991
 21
33.21546206708498
 72
     1
 10
195.6042802987991
 20
33.21546206708498
 11
196.8459616135929
 21
34.41989500949219
 72
     2
 10
195.9525692879308
 20
35.64784174131312
 40
1.518552937418265
 50
306.0377529468138
 51
403.4396461533871
 73
     1
 72
     1
 10
197.0551891526031
 20
36.69198371335126
 11
192.9284332942598
 21
40.28115998198521
 72
     1
 10
192.9284332942598
 20
40.28115998198521
 11
193.552684596187
 21
40.89021841282256
 72
     1
 10
193.552684596187
 20
40.89021841282256
 11
192.622178086003
 21
41.72041063266705
 72
     1
 10
192.622178086003
 20
41.72041063266705
 11
189.3865926375931
 21
38.59349038605298
 72
     1
 10
189.3865926375931
 20
38.59349038605298
 11
190.4090005149417
 21
37.70169985893218
 72
     2
 10
192.2715892720444
 20
35.12224735083792
 40
3.181636704527876
 50
234.1674444878512
 51
314.4407074583994
 73
     0
 97
        0
 75
     0
 76
     1
 98
        1
 10
0.0
 20
0.0
  0
LINE
  5
8B
330
1F
100
AcDbEntity
  8
0
  6
Continuous
 62
     7
370
     0
100
AcDbLine
 10
167.8593775185
 20
17.7745192513
 30
0.0
 11
168.8593775185
 21
17.7745192513
 31
0.0
  0
LINE
  5
8C
330
1F
100
AcDbEntity
  8
0
  6
Continuous
 62
     7
370
     0
100
AcDbLine
 10
164.8593775185
 20
17.7745192513
 30
0.0
 11
167.3593775185
 21
17.7745192513
 31
0.0
  0
LINE
  5
8D
330
1F
100
AcDbEntity
  8
0
  6
Continuous
 62
     7
370
     0
100
AcDbLine
 10
181.3593775185
 20
15.2745192513
 30
0.0
 11
181.3593775185
 21
20.2745192513
 31
0.0
  0
LINE
  5
8E
330
1F
100
AcDbEntity
  8
0
  6
Continuous
 62
     7
370
     0
100
AcDbLine
 10
174.3593775185
 20
16.2745192513
 30
0.0
 11
181.3593775185
 21
15.2745192513
 31
0.0
  0
LINE
  5
8F
330
1F
100
AcDbEntity
  8
0
  6
Continuous
 62
     7
370
     0
100
AcDbLine
 10
168.3593775185
 20
16.7745192513
 30
0.0
 11
168.3593775185
 21
14.2745192513
 31
0.0
  0
LINE
  5
90
330
1F
100
AcDbEntity
  8
0
  6
Continuous
 62
     7
370
     0
100
AcDbLine
 10
181.3593775185
 20
20.2745192513
 30
0.0
 11
174.3593775185
 21
19.2745192513
 31
0.0
  0
LINE
  5
91
330
1F
100
AcDbEntity
  8
0
  6
Continuous
 62
     7
370
     0
100
AcDbLine
 10
173.3593775185
 20
17.7745192513
 30
0.0
 11
182.3593775185
 21
17.7745192513
 31
0.0
  0
LINE
  5
92
330
1F
100
AcDbEntity
  8
0
  6
Continuous
 62
     7
370
     0
100
AcDbLine
 10
168.3593775185
 20
18.2745192513
 30
0.0
 11
168.3593775185
 21
17.2745192513
 31
0.0
  0
LINE
  5
93
330
1F
100
AcDbEntity
  8
0
  6
Continuous
 62
     7
370
     0
100
AcDbLine
 10
169.3593775185
 20
17.7745192513
 30
0.0
 11
171.8593775185
 21
17.7745192513
 31
0.0
  0
LINE
  5
94
330
1F
100
AcDbEntity
  8
0
  6
Continuous
 62
     7
370
     0
100
AcDbLine
 10
168.3593775185
 20
21.2745192513
 30
0.0
 11
168.3593775185
 21
18.7745192513
 31
0.0
  0
LINE
  5
95
330
1F
100
AcDbEntity
  8
0
  6
Continuous
 62
     7
370
     0
100
AcDbLine
 10
174.3593775185
 20
19.2745192513
 30
0.0
 11
174.3593775185
 21
16.2745192513
 31
0.0
  0
LINE
  5
96
330
1F
100
AcDbEntity
  8
工作區域參考線
 62
     1
370
    30
100
AcDbLine
 10
190.4090005149
 20
37.7016998589
 30
0.0
 11
189.3865926376
 21
38.5934903861
 31
0.0
  0
LINE
  5
97
330
1F
100
AcDbEntity
  8
工作區域參考線
 62
     1
370
    30
100
AcDbLine
 10
189.3865926376
 20
38.5934903861
 30
0.0
 11
192.622178086
 21
41.7204106327
 31
0.0
  0
LINE
  5
98
330
1F
100
AcDbEntity
  8
工作區域參考線
 62
     1
370
    30
100
AcDbLine
 10
192.622178086
 20
41.7204106327
 30
0.0
 11
193.5526845962
 21
40.8902184128
 31
0.0
  0
LINE
  5
99
330
1F
100
AcDbEntity
  8
工作區域參考線
 62
     1
370
    30
100
AcDbLine
 10
193.5526845962
 20
40.8902184128
 30
0.0
 11
192.9284332943
 21
40.281159982
 31
0.0
  0
LINE
  5
9A
330
1F
100
AcDbEntity
  8
工作區域參考線
 62
     1
370
    30
100
AcDbLine
 10
192.9284332943
 20
40.281159982
 30
0.0
 11
197.0551891526
 21
36.6919837134
 31
0.0
  0
LINE
  5
9B
330
1F
100
AcDbEntity
  8
工作區域參考線
 62
     1
370
    30
100
AcDbLine
 10
194.6188314058
 20
34.074159007
 30
0.0
 11
195.6042802988
 21
33.2154620671
 31
0.0
  0
LINE
  5
9C
330
1F
100
AcDbEntity
  8
工作區域參考線
 62
     1
370
    30
100
AcDbLine
 10
195.6042802988
 20
33.2154620671
 30
0.0
 11
196.8459616136
 21
34.4198950095
 31
0.0
  0
LINE
  5
9D
330
1F
100
AcDbEntity
  8
0
  6
Continuous
 62
     7
370
     0
100
AcDbLine
 10
185.6907965209
 20
13.1152464079
 30
0.0
 11
285.6907965209
 21
13.1152464079
 31
0.0
  0
LINE
  5
9E
330
1F
100
AcDbEntity
  8
0
  6
Continuous
 62
     7
370
     0
100
AcDbLine
 10
185.6907965209
 20
18.1152464079
 30
0.0
 11
235.6907965209
 21
18.1152464079
 31
0.0
  0
LINE
  5
9F
330
1F
100
AcDbEntity
  8
0
  6
Continuous
 62
     7
370
     0
100
AcDbLine
 10
185.6907965209
 20
23.1152464079
 30
0.0
 11
235.6907965209
 21
23.1152464079
 31
0.0
  0
LINE
  5
A0
330
1F
100
AcDbEntity
  8
0
  6
Continuous
 62
     7
370
     0
100
AcDbLine
 10
185.6907965209
 20
28.1152464079
 30
0.0
 11
285.6907965209
 21
28.1152464079
 31
0.0
  0
LINE
  5
A1
330
1F
100
AcDbEntity
  8
0
  6
Continuous
 62
     7
370
     0
100
AcDbLine
 10
235.6907965209
 20
33.1152464079
 30
0.0
 11
285.6907965209
 21
33.1152464079
 31
0.0
  0
LINE
  5
A2
330
1F
100
AcDbEntity
  8
0
  6
Continuous
 62
     7
370
    15
100
AcDbLine
 10
235.6907965209
 20
18.1152464079
 30
0.0
 11
285.6907965209
 21
18.1152464079
 31
0.0
  0
LINE
  5
A3
330
1F
100
AcDbEntity
  8
0
  6
Continuous
 62
     7
370
     0
100
AcDbLine
 10
185.6907965209
 20
43.1152464079
 30
0.0
 11
285.6907965209
 21
43.1152464079
 31
0.0
  0
LINE
  5
A4
330
1F
100
AcDbEntity
  8
0
  6
Continuous
 62
     7
370
     0
100
AcDbLine
 10
251.237217675
 20
8.1152464079
 30
0.0
 11
251.237217675
 21
18.1152464079
 31
0.0
  0
LINE
  5
A5
330
1F
100
AcDbEntity
  8
0
  6
Continuous
 62
     7
370
     0
100
AcDbLine
 10
235.6907965209
 20
8.1152464079
 30
0.0
 11
235.6907965209
 21
43.1152464079
 31
0.0
  0
LINE
  5
A6
330
1F
100
AcDbEntity
  8
0
  6
Continuous
 62
     7
370
     0
100
AcDbLine
 10
251.237217675
 20
28.1152464079
 30
0.0
 11
251.237217675
 21
33.1152464079
 31
0.0
  0
LINE
  5
A7
330
1F
100
AcDbEntity
  8
0
  6
Continuous
 62
     7
370
     0
100
AcDbLine
 10
214.4164086353
 20
8.1152464079
 30
0.0
 11
214.4164086353
 21
28.1152464079
 31
0.0
  0
LINE
  5
A8
330
1F
100
AcDbEntity
  8
0
  6
Continuous
 62
     7
370
     0
100
AcDbLine
 10
199.7785887506
 20
8.1152464079
 30
0.0
 11
199.7785887506
 21
28.1152464079
 31
0.0
  0
LINE
  5
A9
330
1F
100
AcDbEntity
  8
0
  6
Continuous
 62
     7
370
     0
100
AcDbLine
 10
185.6907965209
 20
8.1152464079
 30
0.0
 11
185.6907965209
 21
43.1152464079
 31
0.0
  0
LINE
  5
AA
330
1F
100
AcDbEntity
  8
0
  6
Continuous
 62
     7
370
    15
100
AcDbLine
 10
43.3207965209
 20
201.3720275751
 30
0.0
 11
43.3207965209
 21
202.8720275751
 31
0.0
  0
LINE
  5
AB
330
1F
100
AcDbEntity
  8
0
  6
Continuous
 62
     7
370
    15
100
AcDbLine
 10
77.9507965209
 20
201.3720275751
 30
0.0
 11
77.9507965209
 21
202.8720275751
 31
0.0
  0
LINE
  5
AC
330
1F
100
AcDbEntity
  8
0
  6
Continuous
 62
     7
370
    15
100
AcDbLine
 10
112.5807965209
 20
201.3720275751
 30
0.0
 11
112.5807965209
 21
202.8720275751
 31
0.0
  0
LINE
  5
AD
330
1F
100
AcDbEntity
  8
0
  6
Continuous
 62
     7
370
    15
100
AcDbLine
 10
147.2107965209
 20
201.3720275751
 30
0.0
 11
147.2107965209
 21
202.8720275751
 31
0.0
  0
LINE
  5
AE
330
1F
100
AcDbEntity
  8
0
  6
Continuous
 62
     7
370
    15
100
AcDbLine
 10
181.8407965209
 20
201.3720275751
 30
0.0
 11
181.8407965209
 21
202.8720275751
 31
0.0
  0
LINE
  5
AF
330
1F
100
AcDbEntity
  8
0
  6
Continuous
 62
     7
370
    15
100
AcDbLine
 10
216.4707965209
 20
201.3720275751
 30
0.0
 11
216.4707965209
 21
202.8720275751
 31
0.0
  0
LINE
  5
B0
330
1F
100
AcDbEntity
  8
0
  6
Continuous
 62
     7
370
    15
100
AcDbLine
 10
251.1007965209
 20
201.3720275751
 30
0.0
 11
251.1007965209
 21
202.8720275751
 31
0.0
  0
LINE
  5
B1
330
1F
100
AcDbEntity
  8
0
  6
Continuous
 62
     7
370
    15
100
AcDbLine
 10
43.3157965209
 20
8.1152464079
 30
0.0
 11
43.3157965209
 21
6.6152464079
 31
0.0
  0
LINE
  5
B2
330
1F
100
AcDbEntity
  8
0
  6
Continuous
 62
     7
370
    15
100
AcDbLine
 10
77.9407965209
 20
8.1152464079
 30
0.0
 11
77.9407965209
 21
6.6152464079
 31
0.0
  0
LINE
  5
B3
330
1F
100
AcDbEntity
  8
0
  6
Continuous
 62
     7
370
    15
100
AcDbLine
 10
112.5657965209
 20
8.1152464079
 30
0.0
 11
112.5657965209
 21
6.6152464079
 31
0.0
  0
LINE
  5
B4
330
1F
100
AcDbEntity
  8
0
  6
Continuous
 62
     7
370
    15
100
AcDbLine
 10
147.1907965209
 20
8.1152464079
 30
0.0
 11
147.1907965209
 21
6.6152464079
 31
0.0
  0
LINE
  5
B5
330
1F
100
AcDbEntity
  8
0
  6
Continuous
 62
     7
370
    15
100
AcDbLine
 10
181.8157965209
 20
8.1152464079
 30
0.0
 11
181.8157965209
 21
6.6152464079
 31
0.0
  0
LINE
  5
B6
330
1F
100
AcDbEntity
  8
0
  6
Continuous
 62
     7
370
    15
100
AcDbLine
 10
216.4407965209
 20
8.1152464079
 30
0.0
 11
216.4407965209
 21
6.6152464079
 31
0.0
  0
LINE
  5
B7
330
1F
100
AcDbEntity
  8
0
  6
Continuous
 62
     7
370
     0
100
AcDbLine
 10
285.6907965209
 20
201.3720275751
 30
0.0
 11
8.6907965209
 21
201.3720275751
 31
0.0
  0
LINE
  5
B8
330
1F
100
AcDbEntity
  8
0
  6
Continuous
 62
     7
370
     0
100
AcDbLine
 10
285.6907965209
 20
8.1152464079
 30
0.0
 11
285.6907965209
 21
201.3720275751
 31
0.0
  0
LINE
  5
B9
330
1F
100
AcDbEntity
  8
0
  6
Continuous
 62
     7
370
     0
100
AcDbLine
 10
8.6907965209
 20
201.3720275751
 30
0.0
 11
8.6907965209
 21
8.1152464079
 31
0.0
  0
LINE
  5
BA
330
1F
100
AcDbEntity
  8
0
  6
Continuous
 62
     7
370
     0
100
AcDbLine
 10
8.6907965209
 20
8.1152464079
 30
0.0
 11
285.6907965209
 21
8.1152464079
 31
0.0
  0
LINE
  5
BB
330
1F
100
AcDbEntity
  8
0
  6
Continuous
 62
     7
370
    15
100
AcDbLine
 10
251.0657965209
 20
8.1152464079
 30
0.0
 11
251.0657965209
 21
6.6152464079
 31
0.0
  0
LINE
  5
BC
330
1F
100
AcDbEntity
  8
0
  6
Continuous
 62
     7
370
    15
100
AcDbLine
 10
8.6907965209
 20
40.3252464079
 30
0.0
 11
7.1907965209
 21
40.3252464079
 31
0.0
  0
LINE
  5
BD
330
1F
100
AcDbEntity
  8
0
  6
Continuous
 62
     7
370
    15
100
AcDbLine
 10
8.6907965209
 20
72.5352464079
 30
0.0
 11
7.1907965209
 21
72.5352464079
 31
0.0
  0
LINE
  5
BE
330
1F
100
AcDbEntity
  8
0
  6
Continuous
 62
     7
370
    15
100
AcDbLine
 10
8.6907965209
 20
104.7452464079
 30
0.0
 11
7.1907965209
 21
104.7452464079
 31
0.0
  0
LINE
  5
BF
330
1F
100
AcDbEntity
  8
0
  6
Continuous
 62
     7
370
    15
100
AcDbLine
 10
8.6907965209
 20
136.9552464079
 30
0.0
 11
7.1907965209
 21
136.9552464079
 31
0.0
  0
LINE
  5
C0
330
1F
100
AcDbEntity
  8
0
  6
Continuous
 62
     7
370
    15
100
AcDbLine
 10
8.6907965209
 20
169.1652464079
 30
0.0
 11
7.1907965209
 21
169.1652464079
 31
0.0
  0
LINE
  5
C1
330
1F
100
AcDbEntity
  8
0
  6
Continuous
 62
     7
370
    15
100
AcDbLine
 10
285.6907965209
 20
40.3252464079
 30
0.0
 11
287.1907965209
 21
40.3252464079
 31
0.0
  0
LINE
  5
C2
330
1F
100
AcDbEntity
  8
0
  6
Continuous
 62
     7
370
    15
100
AcDbLine
 10
285.6907965209
 20
72.5352464079
 30
0.0
 11
287.1907965209
 21
72.5352464079
 31
0.0
  0
LINE
  5
C3
330
1F
100
AcDbEntity
  8
0
  6
Continuous
 62
     7
370
    15
100
AcDbLine
 10
285.6907965209
 20
104.7452464079
 30
0.0
 11
287.1907965209
 21
104.7452464079
 31
0.0
  0
LINE
  5
C4
330
1F
100
AcDbEntity
  8
0
  6
Continuous
 62
     7
370
    15
100
AcDbLine
 10
285.6907965209
 20
136.9552464079
 30
0.0
 11
287.1907965209
 21
136.9552464079
 31
0.0
  0
LINE
  5
C5
330
1F
100
AcDbEntity
  8
0
  6
Continuous
 62
     7
370
    15
100
AcDbLine
 10
285.6907965209
 20
169.1652464079
 30
0.0
 11
287.1907965209
 21
169.1652464079
 31
0.0
  0
CIRCLE
  5
C6
330
1F
100
AcDbEntity
  8
0
  6
Continuous
 62
     7
370
     0
100
AcDbCircle
 10
168.3593775185
 20
17.7745192513
 30
0.0
 40
1.5
  0
CIRCLE
  5
C7
330
1F
100
AcDbEntity
  8
0
  6
Continuous
 62
     7
370
     0
100
AcDbCircle
 10
168.3593775185
 20
17.7745192513
 30
0.0
 40
2.5
  0
ARC
  5
C8
330
1F
100
AcDbEntity
  8
工作區域參考線
 62
     1
370
    30
100
AcDbCircle
 10
195.9525692879
 20
35.6478417413
 30
0.0
 40
1.518552937418275
100
AcDbArc
 50
306.0377529468
 51
43.4396461534
  0
ARC
  5
C9
330
1F
100
AcDbEntity
  8
工作區域參考線
 62
     1
370
    30
100
AcDbCircle
 10
192.271589272
 20
35.1222473508
 30
0.0
 40
3.181636704527891
100
AcDbArc
 50
45.5592925416
 51
125.8325555121
  0
ARC
  5
CA
330
1F
100
AcDbEntity
  8
工作區域參考線
 62
     1
370
    30
100
AcDbCircle
 10
192.5892455628
 20
35.6630691563
 30
0.0
 40
2.577567488346266
100
AcDbArc
 50
321.9435288427
 51
42.1815007004
  0
INSERT
  5
CB
330
1F
100
AcDbEntity
  8
0
  6
Continuous
 62
     7
100
AcDbBlockReference
  2
圖塊6
 10
186.9640923647
 20
29.4440528386
 30
0.0
  0
MTEXT
  5
CD
330
1F
100
AcDbEntity
  8
0
  6
Continuous
 62
     7
370
     0
100
AcDbMText
 10
165.5426850804
 20
13.2208440369
 30
0.0
 40
2.6458333333
 41
0.0
 71
     1
 72
     1
  1
UNIT:m/m
  7
SLDTEXTSTYLE0
 73
     1
 44
1.0
  0
INSERT
  5
D4
330
1F
100
AcDbEntity
  8
0
  6
Continuous
 62
     7
370
     0
100
AcDbBlockReference
  2
SW_NOTE_0
 10
12.2315076053
 20
193.8904304251
 30
0.0
  0
MTEXT
  5
D5
330
1F
100
AcDbEntity
  8
0
  6
Continuous
 62
     7
370
     0
100
AcDbMText
 10
198.7251893935
 20
40.4406774139
 30
0.0
 40
2.38125
 41
0.0
 71
     1
 72
     1
  1
Unice E-O Services Inc.
  7
SLDTEXTSTYLE0
 73
     1
 44
1.0
  0
MTEXT
  5
D6
330
1F
100
AcDbEntity
  8
0
  6
Continuous
 62
     7
370
     0
100
AcDbMText
 10
217.5590538149
 20
21.5867148511
 30
0.0
 40
1.8520833333
 41
0.0
 71
     1
 72
     1
  1
2018/1/17
  7
SLDTEXTSTYLE0
 73
     1
 44
1.0
  0
MTEXT
  5
D7
330
1F
100
AcDbEntity
  8
0
  6
Continuous
 62
     7
370
     0
100
AcDbMText
 10
252.6088982507
 20
16.87117774
 30
0.0
 40
2.5
 41
0.0
 71
     1
 72
     1
  1
1:1
  7
SLDTEXTSTYLE0
 73
     1
 44
1.0
  0
MTEXT
  5
D8
330
1F
100
AcDbEntity
  8
0
  6
Continuous
 62
     7
370
     0
100
AcDbMText
 10
252.3075599985
 20
32.1519195438
 30
0.0
 40
2.5
 41
0.0
 71
     1
 72
     1
  1
07MT25-1000
  7
SLDTEXTSTYLE0
 73
     1
 44
1.0
  0
MTEXT
  5
D9
330
1F
100
AcDbEntity
  8
0
  6
Continuous
 62
     7
370
     0
100
AcDbMText
 10
252.3075599985
 20
38.1082117879
 30
0.0
 40
2.5
 41
0.0
 71
     1
 72
     1
  1
07MT25-1000
  7
SLDTEXTSTYLE0
 73
     1
 44
1.0
  0
MTEXT
  5
DA
330
1F
100
AcDbEntity
  8
0
  6
Continuous
 62
     7
370
     0
100
AcDbMText
 10
236.3921866786
 20
16.5064795728
 30
0.0
 40
2.1166666667
 41
0.0
 71
     1
 72
     1
  1
SCALE:
  7
SLDTEXTSTYLE0
 73
     1
 44
1.0
  0
MTEXT
  5
DB
330
1F
100
AcDbEntity
  8
0
  6
Continuous
 62
     7
370
     0
100
AcDbMText
 10
186.3336086789
 20
21.5867148511
 30
0.0
 40
1.8520833333
 41
0.0
 71
     1
 72
     1
  1
DRAWN
  7
SLDTEXTSTYLE0
 73
     1
 44
1.0
  0
MTEXT
  5
DC
330
1F
100
AcDbEntity
  8
0
  6
Continuous
 62
     7
370
     0
100
AcDbMText
 10
203.2228367937
 20
26.683208308
 30
0.0
 40
1.8520833333
 41
0.0
 71
     1
 72
     1
  1
NAME
  7
SLDTEXTSTYLE0
 73
     1
 44
1.0
  0
MTEXT
  5
DD
330
1F
100
AcDbEntity
  8
0
  6
Continuous
 62
     7
370
     0
100
AcDbMText
 10
220.8710155758
 20
26.683208308
 30
0.0
 40
1.8520833333
 41
0.0
 71
     1
 72
     1
  1
DATE
  7
SLDTEXTSTYLE0
 73
     1
 44
1.0
  0
MTEXT
  5
DE
330
1F
100
AcDbEntity
  8
0
  6
Continuous
 62
     7
370
     0
100
AcDbMText
 10
236.2756316645
 20
31.7872213766
 30
0.0
 40
2.1166666667
 41
0.0
 71
     1
 72
     1
  1
DWG. NO.
  7
SLDTEXTSTYLE0
 73
     1
 44
1.0
  0
MTEXT
  5
DF
330
1F
100
AcDbEntity
  8
0
  6
Continuous
 62
     7
370
     0
100
AcDbMText
 10
236.3629907088
 20
41.8840658243
 30
0.0
 40
2.1166666667
 41
0.0
 71
     1
 72
     1
  1
TITLE:
  7
SLDTEXTSTYLE0
 73
     1
 44
1.0
  0
MTEXT
  5
E0
330
1F
100
AcDbEntity
  8
0
  6
Continuous
 62
     7
370
     0
100
AcDbMText
 10
203.0314209802
 20
16.2403789724
 30
0.0
 40
1.8520833333
 41
0.0
 71
     1
 72
     1
  1
Johnny
  7
SLDTEXTSTYLE0
 73
     1
 44
1.0
  0
MTEXT
  5
E1
330
1F
100
AcDbEntity
  8
0
  6
Continuous
 62
     7
370
     0
100
AcDbMText
 10
217.5590538149
 20
16.2403789724
 30
0.0
 40
1.8520833333
 41
0.0
 71
     1
 72
     1
  1
2018/1/17
  7
SLDTEXTSTYLE0
 73
     1
 44
1.0
  0
MTEXT
  5
E2
330
1F
100
AcDbEntity
  8
0
  6
Continuous
 62
     7
370
     0
100
AcDbMText
 10
186.3336086789
 20
16.2403789724
 30
0.0
 40
1.8520833333
 41
0.0
 71
     1
 72
     1
  1
ENG APPR.
  7
SLDTEXTSTYLE0
 73
     1
 44
1.0
  0
MTEXT
  5
E3
330
1F
100
AcDbEntity
  8
0
  6
Continuous
 62
     7
370
     0
100
AcDbMText
 10
236.3921866786
 20
11.6853389288
 30
0.0
 40
2.1166666667
 41
0.0
 71
     1
 72
     1
  1
REV
  7
SLDTEXTSTYLE0
 73
     1
 44
1.0
  0
MTEXT
  5
E4
330
1F
100
AcDbEntity
  8
0
  6
Continuous
 62
     7
370
     0
100
AcDbMText
 10
236.3629907088
 20
26.9493089085
 30
0.0
 40
2.1166666667
 41
0.0
 71
     1
 72
     1
  1
MATERIAL:
  7
SLDTEXTSTYLE0
 73
     1
 44
1.0
  0
MTEXT
  5
E5
330
1F
100
AcDbEntity
  8
0
  6
Continuous
 62
     7
370
     0
100
AcDbMText
 10
252.6088982507
 20
22.2175136187
 30
0.0
 40
2.5
 41
0.0
 71
     1
 72
     1
  1
N/A
  7
SLDTEXTSTYLE0
 73
     1
 44
1.0
  0
MTEXT
  5
E6
330
1F
100
AcDbEntity
  8
0
  6
Continuous
 62
     7
370
     0
100
AcDbMText
 10
26.6029931533
 20
204.453351657
 30
0.0
 40
2.1166666667
 41
0.0
 71
     1
 72
     1
  1
1
  7
SLDTEXTSTYLE0
 73
     1
 44
1.0
  0
MTEXT
  5
E7
330
1F
100
AcDbEntity
  8
0
  6
Continuous
 62
     7
370
     0
100
AcDbMText
 10
60.7170995724
 20
204.453351657
 30
0.0
 40
2.1166666667
 41
0.0
 71
     1
 72
     1
  1
2
  7
SLDTEXTSTYLE0
 73
     1
 44
1.0
  0
MTEXT
  5
E8
330
1F
100
AcDbEntity
  8
0
  6
Continuous
 62
     7
370
     0
100
AcDbMText
 10
94.9009943906
 20
204.453351657
 30
0.0
 40
2.1166666667
 41
0.0
 71
     1
 72
     1
  1
3
  7
SLDTEXTSTYLE0
 73
     1
 44
1.0
  0
MTEXT
  5
E9
330
1F
100
AcDbEntity
  8
0
  6
Continuous
 62
     7
370
     0
100
AcDbMText
 10
129.2533362851
 20
204.2992584364
 30
0.0
 40
2.1166666667
 41
0.0
 71
     1
 72
     1
  1
4
  7
SLDTEXTSTYLE0
 73
     1
 44
1.0
  0
MTEXT
  5
EA
330
1F
100
AcDbEntity
  8
0
  6
Continuous
 62
     7
370
     0
100
AcDbMText
 10
163.702323464
 20
204.453351657
 30
0.0
 40
2.1166666667
 41
0.0
 71
     1
 72
     1
  1
5
  7
SLDTEXTSTYLE0
 73
     1
 44
1.0
  0
MTEXT
  5
EB
330
1F
100
AcDbEntity
  8
0
  6
Continuous
 62
     7
370
     0
100
AcDbMText
 10
198.6382170415
 20
204.453351657
 30
0.0
 40
2.1166666667
 41
0.0
 71
     1
 72
     1
  1
6
  7
SLDTEXTSTYLE0
 73
     1
 44
1.0
  0
MTEXT
  5
EC
330
1F
100
AcDbEntity
  8
0
  6
Continuous
 62
     7
370
     0
100
AcDbMText
 10
234.3630657407
 20
204.453351657
 30
0.0
 40
2.1166666667
 41
0.0
 71
     1
 72
     1
  1
7
  7
SLDTEXTSTYLE0
 73
     1
 44
1.0
  0
MTEXT
  5
ED
330
1F
100
AcDbEntity
  8
0
  6
Continuous
 62
     7
370
     0
100
AcDbMText
 10
266.2787820494
 20
204.453351657
 30
0.0
 40
2.1166666667
 41
0.0
 71
     1
 72
     1
  1
8
  7
SLDTEXTSTYLE0
 73
     1
 44
1.0
  0
MTEXT
  5
EE
330
1F
100
AcDbEntity
  8
0
  6
Continuous
 62
     7
370
     0
100
AcDbMText
 10
5.3568236555
 20
185.8113022879
 30
0.0
 40
2.1166666667
 41
0.0
 71
     1
 72
     1
  1
A
  7
SLDTEXTSTYLE0
 73
     1
 44
1.0
  0
MTEXT
  5
EF
330
1F
100
AcDbEntity
  8
0
  6
Continuous
 62
     7
370
     0
100
AcDbMText
 10
5.5910431831
 20
154.2993048238
 30
0.0
 40
2.1166666667
 41
0.0
 71
     1
 72
     1
  1
B
  7
SLDTEXTSTYLE0
 73
     1
 44
1.0
  0
MTEXT
  5
F0
330
1F
100
AcDbEntity
  8
0
  6
Continuous
 62
     7
370
     0
100
AcDbMText
 10
5.5910431831
 20
121.274351423
 30
0.0
 40
2.1166666667
 41
0.0
 71
     1
 72
     1
  1
C
  7
SLDTEXTSTYLE0
 73
     1
 44
1.0
  0
MTEXT
  5
F1
330
1F
100
AcDbEntity
  8
0
  6
Continuous
 62
     7
370
     0
100
AcDbMText
 10
5.5910431831
 20
88.7453220221
 30
0.0
 40
2.1166666667
 41
0.0
 71
     1
 72
     1
  1
D
  7
SLDTEXTSTYLE0
 73
     1
 44
1.0
  0
MTEXT
  5
F2
330
1F
100
AcDbEntity
  8
0
  6
Continuous
 62
     7
370
     0
100
AcDbMText
 10
5.5910431831
 20
57.5558849197
 30
0.0
 40
2.1166666667
 41
0.0
 71
     1
 72
     1
  1
E
  7
SLDTEXTSTYLE0
 73
     1
 44
1.0
  0
MTEXT
  5
F3
330
1F
100
AcDbEntity
  8
0
  6
Continuous
 62
     7
370
     0
100
AcDbMText
 10
5.5910431831
 20
25.5694212252
 30
0.0
 40
2.1166666667
 41
0.0
 71
     1
 72
     1
  1
F
  7
SLDTEXTSTYLE0
 73
     1
 44
1.0
  0
MTEXT
  5
F4
330
1F
100
AcDbEntity
  8
0
  6
Continuous
 62
     7
370
     0
100
AcDbMText
 10
266.1858616964
 20
6.6236223963
 30
0.0
 40
2.1166666667
 41
0.0
 71
     1
 72
     1
  1
8
  7
SLDTEXTSTYLE0
 73
     1
 44
1.0
  0
MTEXT
  5
F5
330
1F
100
AcDbEntity
  8
0
  6
Continuous
 62
     7
370
     0
100
AcDbMText
 10
234.2701453876
 20
6.6236223963
 30
0.0
 40
2.1166666667
 41
0.0
 71
     1
 72
     1
  1
7
  7
SLDTEXTSTYLE0
 73
     1
 44
1.0
  0
MTEXT
  5
F6
330
1F
100
AcDbEntity
  8
0
  6
Continuous
 62
     7
370
     0
100
AcDbMText
 10
198.5452966885
 20
6.6236223963
 30
0.0
 40
2.1166666667
 41
0.0
 71
     1
 72
     1
  1
6
  7
SLDTEXTSTYLE0
 73
     1
 44
1.0
  0
MTEXT
  5
F7
330
1F
100
AcDbEntity
  8
0
  6
Continuous
 62
     7
370
     0
100
AcDbMText
 10
163.6094031109
 20
6.6236223963
 30
0.0
 40
2.1166666667
 41
0.0
 71
     1
 72
     1
  1
5
  7
SLDTEXTSTYLE0
 73
     1
 44
1.0
  0
MTEXT
  5
F8
330
1F
100
AcDbEntity
  8
0
  6
Continuous
 62
     7
370
     0
100
AcDbMText
 10
129.1604159321
 20
6.4695291758
 30
0.0
 40
2.1166666667
 41
0.0
 71
     1
 72
     1
  1
4
  7
SLDTEXTSTYLE0
 73
     1
 44
1.0
  0
MTEXT
  5
F9
330
1F
100
AcDbEntity
  8
0
  6
Continuous
 62
     7
370
     0
100
AcDbMText
 10
94.8080740376
 20
6.6236223963
 30
0.0
 40
2.1166666667
 41
0.0
 71
     1
 72
     1
  1
3
  7
SLDTEXTSTYLE0
 73
     1
 44
1.0
  0
MTEXT
  5
FA
330
1F
100
AcDbEntity
  8
0
  6
Continuous
 62
     7
370
     0
100
AcDbMText
 10
60.6241792194
 20
6.6236223963
 30
0.0
 40
2.1166666667
 41
0.0
 71
     1
 72
     1
  1
2
  7
SLDTEXTSTYLE0
 73
     1
 44
1.0
  0
MTEXT
  5
FB
330
1F
100
AcDbEntity
  8
0
  6
Continuous
 62
     7
370
     0
100
AcDbMText
 10
26.5100728003
 20
6.6236223963
 30
0.0
 40
2.1166666667
 41
0.0
 71
     1
 72
     1
  1
1
  7
SLDTEXTSTYLE0
 73
     1
 44
1.0
  0
MTEXT
  5
FC
330
1F
100
AcDbEntity
  8
0
  6
Continuous
 62
     7
370
     0
100
AcDbMText
 10
287.1023846145
 20
186.6424909092
 30
0.0
 40
2.1166666667
 41
0.0
 71
     1
 72
     1
  1
A
  7
SLDTEXTSTYLE0
 73
     1
 44
1.0
  0
MTEXT
  5
FD
330
1F
100
AcDbEntity
  8
0
  6
Continuous
 62
     7
370
     0
100
AcDbMText
 10
287.3366041421
 20
155.1304934451
 30
0.0
 40
2.1166666667
 41
0.0
 71
     1
 72
     1
  1
B
  7
SLDTEXTSTYLE0
 73
     1
 44
1.0
  0
MTEXT
  5
FE
330
1F
100
AcDbEntity
  8
0
  6
Continuous
 62
     7
370
     0
100
AcDbMText
 10
287.3366041421
 20
122.1055400442
 30
0.0
 40
2.1166666667
 41
0.0
 71
     1
 72
     1
  1
C
  7
SLDTEXTSTYLE0
 73
     1
 44
1.0
  0
MTEXT
  5
FF
330
1F
100
AcDbEntity
  8
0
  6
Continuous
 62
     7
370
     0
100
AcDbMText
 10
287.3366041421
 20
89.5765106433
 30
0.0
 40
2.1166666667
 41
0.0
 71
     1
 72
     1
  1
D
  7
SLDTEXTSTYLE0
 73
     1
 44
1.0
  0
MTEXT
  5
100
330
1F
100
AcDbEntity
  8
0
  6
Continuous
 62
     7
370
     0
100
AcDbMText
 10
287.3366041421
 20
58.3870735409
 30
0.0
 40
2.1166666667
 41
0.0
 71
     1
 72
     1
  1
E
  7
SLDTEXTSTYLE0
 73
     1
 44
1.0
  0
MTEXT
  5
101
330
1F
100
AcDbEntity
  8
0
  6
Continuous
 62
     7
370
     0
100
AcDbMText
 10
287.3366041421
 20
26.4006098464
 30
0.0
 40
2.1166666667
 41
0.0
 71
     1
 72
     1
  1
F
  7
SLDTEXTSTYLE0
 73
     1
 44
1.0
  0
MTEXT
  5
102
330
1F
100
AcDbEntity
  8
0
  6
Continuous
 62
     7
370
     0
100
AcDbMText
 10
203.1553128802
 20
21.5867148511
 30
0.0
 40
1.8520833333
 41
0.0
 71
     1
 72
     1
  1
Sky
  7
SLDTEXTSTYLE0
 73
     1
 44
1.0
  0
MTEXT
  5
104
330
1F
100
AcDbEntity
  8
0
  6
Continuous
 62
     7
370
     0
100
AcDbMText
 10
252.8482239645
 20
12.2219603318
 30
0.0
 40
2.38125
 41
0.0
 71
     1
 72
     1
  1
0
  7
SLDTEXTSTYLE1
 73
     1
 44
1.0
  0
INSERT
  5
10A
330
1F
100
AcDbEntity
  8
SLD-0
 62
     7
100
AcDbBlockReference
  2
SW_NOTE_1
 10
198.7251893935
 20
33.5479745212
 30
0.0
  0
LINE
  5
10B
330
1F
100
AcDbEntity
  8
0
  6
Continuous
 62
     7
370
    30
100
AcDbLine
 10
175.4453161627
 20
110.7161267157
 30
0.0
 11
156.4668247372
 21
110.7161267157
 31
0.0
  0
LINE
  5
10C
330
1F
100
AcDbEntity
  8
0
  6
Continuous
 62
     7
370
    30
100
AcDbLine
 10
156.4668247372
 20
92.7161256279
 30
0.0
 11
175.4453161627
 21
92.7161256279
 31
0.0
  0
LINE
  5
10D
330
1F
100
AcDbEntity
  8
0
  6
Continuous
 62
     7
370
    30
100
AcDbLine
 10
175.4453161627
 20
92.7161256279
 30
0.0
 11
176.4668242902
 21
97.4661240782
 31
0.0
  0
LINE
  5
10E
330
1F
100
AcDbEntity
  8
0
  6
Continuous
 62
     7
370
    30
100
AcDbLine
 10
176.4668242902
 20
105.9661245401
 30
0.0
 11
175.4453161627
 21
110.7161267157
 31
0.0
  0
LWPOLYLINE
  5
10F
330
1F
100
AcDbEntity
  8
0
  6
Continuous
 62
     7
370
    30
100
AcDbPolyline
 90
        3
 70
   128
 43
0.0
 10
147.5193852455
 20
101.7127501275
 10
147.5193889708
 20
101.7127687539
 10
147.5193889708
 20
101.712789243
  0
LINE
  5
110
330
1F
100
AcDbEntity
  8
0
  6
Continuous
 62
     7
370
    30
100
AcDbLine
 10
147.8037217528
 20
101.7125489618
 30
0.0
 11
147.8037217528
 21
101.7125713135
 31
0.0
  0
LINE
  5
111
330
1F
100
AcDbEntity
  8
0
  6
Continuous
 62
     7
370
    30
100
AcDbLine
 10
156.4668247372
 20
110.3161236699
 30
0.0
 11
135.9668223083
 21
110.3161236699
 31
0.0
  0
LINE
  5
112
330
1F
100
AcDbEntity
  8
0
  6
Continuous
 62
     7
370
    30
100
AcDbLine
 10
135.9668223083
 20
93.1161249484
 30
0.0
 11
156.4668247372
 21
93.1161249484
 31
0.0
  0
LINE
  5
113
330
1F
100
AcDbEntity
  8
0
  6
Continuous
 62
     7
370
    30
100
AcDbLine
 10
145.6951925427
 20
101.7160823996
 30
0.0
 11
145.6951925427
 21
101.7160842623
 31
0.0
  0
LINE
  5
114
330
1F
100
AcDbEntity
  8
0
  6
Continuous
 62
     7
370
    30
100
AcDbLine
 10
135.9668223083
 20
110.3161236699
 30
0.0
 11
129.4668231055
 21
109.2161236759
 31
0.0
  0
LINE
  5
115
330
1F
100
AcDbEntity
  8
0
  6
Continuous
 62
     7
370
    30
100
AcDbLine
 10
129.4668231055
 20
94.2161249425
 30
0.0
 11
135.9668223083
 21
93.1161249484
 31
0.0
  0
LINE
  5
116
330
1F
100
AcDbEntity
  8
0
  6
Continuous
 62
     7
370
    30
100
AcDbLine
 10
179.9668202073
 20
105.9661245401
 30
0.0
 11
176.4668242902
 21
105.9661245401
 31
0.0
  0
LINE
  5
117
330
1F
100
AcDbEntity
  8
0
  6
Continuous
 62
     7
370
    30
100
AcDbLine
 10
176.4668242902
 20
97.4661240782
 30
0.0
 11
179.9668202073
 21
97.4661240782
 31
0.0
  0
LINE
  5
118
330
1F
100
AcDbEntity
  8
0
  6
Continuous
 62
     7
370
    30
100
AcDbLine
 10
111.4668229491
 20
104.8911249693
 30
0.0
 11
84.4668222487
 21
104.8911249693
 31
0.0
  0
LINE
  5
119
330
1F
100
AcDbEntity
  8
0
  6
Continuous
 62
     7
370
    30
100
AcDbLine
 10
84.4668222487
 20
98.5411255117
 30
0.0
 11
111.4668229491
 21
98.5411255117
 31
0.0
  0
LINE
  5
11A
330
1F
100
AcDbEntity
  8
0
  6
Continuous
 62
     7
370
    30
100
AcDbLine
 10
129.4668231055
 20
109.066124862
 30
0.0
 11
126.4668226138
 21
109.066124862
 31
0.0
  0
LINE
  5
11B
330
1F
100
AcDbEntity
  8
0
  6
Continuous
 62
     7
370
    30
100
AcDbLine
 10
126.4668226138
 20
94.366125619
 30
0.0
 11
129.4668231055
 21
94.366125619
 31
0.0
  0
LINE
  5
11C
330
1F
100
AcDbEntity
  8
0
  6
Continuous
 62
     7
370
    30
100
AcDbLine
 10
126.4668226138
 20
106.71612606
 30
0.0
 11
111.4668229491
 21
106.71612606
 31
0.0
  0
LINE
  5
11D
330
1F
100
AcDbEntity
  8
0
  6
Continuous
 62
     7
370
    30
100
AcDbLine
 10
111.4668229491
 20
96.7161244209
 30
0.0
 11
126.4668226138
 21
96.7161244209
 31
0.0
  0
LINE
  5
11E
330
1F
100
AcDbEntity
  8
0
  6
Continuous
 62
     7
370
    30
100
AcDbLine
 10
175.4453161627
 20
110.7161267157
 30
0.0
 11
175.4453161627
 21
92.7161256279
 31
0.0
  0
LINE
  5
11F
330
1F
100
AcDbEntity
  8
0
  6
Continuous
 62
     7
370
    30
100
AcDbLine
 10
156.4668247372
 20
110.7161267157
 30
0.0
 11
156.4668247372
 21
92.7161256279
 31
0.0
  0
LINE
  5
120
330
1F
100
AcDbEntity
  8
0
  6
Continuous
 62
     7
370
    30
100
AcDbLine
 10
176.4668242902
 20
105.9661245401
 30
0.0
 11
176.4668242902
 21
97.4661240782
 31
0.0
  0
LINE
  5
121
330
1F
100
AcDbEntity
  8
0
  6
Continuous
 62
     7
370
    30
100
AcDbLine
 10
146.8292938441
 20
102.6434021498
 30
0.0
 11
146.8292938441
 21
100.8853743281
 31
0.0
  0
SPLINE
  5
122
330
1F
100
AcDbEntity
  8
0
  6
Continuous
 62
     7
370
    30
100
AcDbSpline
210
0.0
220
0.0
230
1.0
 70
     8
 71
     3
 72
     9
 73
     5
 74
     0
 42
0.000000001
 43
0.00000001
 40
0.0
 40
0.0
 40
0.0
 40
0.0
 40
0.4991350318956042
 40
1.0
 40
1.0
 40
1.0
 40
1.0
 10
147.3037617176979
 20
102.3685502316141
 30
0.0
 10
147.2346194872824
 20
102.4310907829889
 30
0.0
 10
147.0960953885974
 20
102.5563886430435
 30
0.0
 10
146.9183301997611
 20
102.6143642162232
 30
0.0
 10
146.8292938441246
 20
102.6434021498346
 30
0.0
  0
SPLINE
  5
123
330
1F
100
AcDbEntity
  8
0
  6
Continuous
 62
     7
370
    30
100
AcDbSpline
210
0.0
220
0.0
230
1.0
 70
     8
 71
     3
 72
    12
 73
     8
 74
     0
 42
0.000000001
 43
0.00000001
 40
0.0
 40
0.0
 40
0.0
 40
0.0
 40
0.2500173110217088
 40
0.3743323971863549
 40
0.5003840717960563
 40
0.7502016033702432
 40
1.0
 40
1.0
 40
1.0
 40
1.0
 10
146.8292938441246
 20
100.8853743280554
 30
0.0
 10
146.9270043072555
 20
100.9157735466923
 30
0.0
 10
147.0732989447928
 20
100.9612880446224
 30
0.0
 10
147.2390416562029
 20
101.0822898917103
 30
0.0
 10
147.3737333020923
 20
101.2346561810968
 30
0.0
 10
147.4942247934858
 20
101.4660933285469
 30
0.0
 10
147.5122602900341
 20
101.6695810434555
 30
0.0
 10
147.5212776929348
 20
101.7713210041904
 30
0.0
  0
SPLINE
  5
124
330
1F
100
AcDbEntity
  8
0
  6
Continuous
 62
     7
370
    30
100
AcDbSpline
210
0.0
220
0.0
230
1.0
 70
     8
 71
     3
 72
     9
 73
     5
 74
     0
 42
0.000000001
 43
0.00000001
 40
0.0
 40
0.0
 40
0.0
 40
0.0
 40
0.500165163568701
 40
1.0
 40
1.0
 40
1.0
 40
1.0
 10
147.5212776929348
 20
101.7713210041904
 30
0.0
 10
147.5130523078121
 20
101.8811952913104
 30
0.0
 10
147.4966069699082
 20
102.1008713006029
 30
0.0
 10
147.3680293108713
 20
102.2793435726886
 30
0.0
 10
147.3037617176979
 20
102.3685502316141
 30
0.0
  0
LINE
  5
125
330
1F
100
AcDbEntity
  8
0
  6
Continuous
 62
     7
370
    30
100
AcDbLine
 10
147.5123928756
 20
101.7140167262
 30
0.0
 11
147.5212776929
 21
101.7709987666
 31
0.0
  0
LINE
  5
126
330
1F
100
AcDbEntity
  8
0
  6
Continuous
 62
     7
370
    30
100
AcDbLine
 10
147.5212776929
 20
101.7709987666
 30
0.0
 11
147.5212776929
 21
101.7713210042
 31
0.0
  0
SPLINE
  5
127
330
1F
100
AcDbEntity
  8
0
  6
Continuous
 62
     7
370
    30
100
AcDbSpline
210
0.0
220
0.0
230
1.0
 70
     8
 71
     3
 72
    12
 73
     8
 74
     0
 42
0.000000001
 43
0.00000001
 40
0.0
 40
0.0
 40
0.0
 40
0.0
 40
0.1252116173930983
 40
0.2503691413615157
 40
0.5002106241079053
 40
0.7499908756649927
 40
1.0
 40
1.0
 40
1.0
 40
1.0
 10
147.8062139719932
 20
101.7859483565474
 30
0.0
 10
147.8050740250204
 20
101.7408966203739
 30
0.0
 10
147.80279462355
 20
101.6508126110989
 30
0.0
 10
147.7752378409809
 20
101.4726333221108
 30
0.0
 10
147.7040573855367
 20
101.2575317446413
 30
0.0
 10
147.5549338713508
 20
101.0285686850086
 30
0.0
 10
147.4180341783596
 20
100.9116038743108
 30
0.0
 10
147.3495529860466
 20
100.8530946876192
 30
0.0
  0
LINE
  5
128
330
1F
100
AcDbEntity
  8
0
  6
Continuous
 62
     7
370
    30
100
AcDbLine
 10
147.349552986
 20
100.8530946876
 30
0.0
 11
147.349552986
 21
100.8581126537
 31
0.0
  0
SPLINE
  5
129
330
1F
100
AcDbEntity
  8
0
  6
Continuous
 62
     7
370
    30
100
AcDbSpline
210
0.0
220
0.0
230
1.0
 70
     8
 71
     3
 72
    12
 73
     8
 74
     0
 42
0.000000001
 43
0.00000001
 40
0.0
 40
0.0
 40
0.0
 40
0.0
 40
0.2496909582989062
 40
0.4993338770766724
 40
0.749206190393853
 40
0.874536860517835
 40
1.0
 40
1.0
 40
1.0
 40
1.0
 10
147.8062139719932
 20
101.7855422999048
 30
0.0
 10
147.8014709997527
 20
101.6959537268904
 30
0.0
 10
147.7919859678002
 20
101.5167938173371
 30
0.0
 10
147.7037316967894
 20
101.2595090814064
 30
0.0
 10
147.5784022797143
 20
101.0720455777793
 30
0.0
 10
147.4545023258967
 20
100.9423463358265
 30
0.0
 10
147.384548415888
 20
100.8862004331367
 30
0.0
 10
147.3495529860466
 20
100.8581126536512
 30
0.0
  0
LINE
  5
12A
330
1F
100
AcDbEntity
  8
0
  6
Continuous
 62
     7
370
    30
100
AcDbLine
 10
147.806213972
 20
101.7859483565
 30
0.0
 11
147.806213972
 21
101.7855422999
 31
0.0
  0
LINE
  5
12B
330
1F
100
AcDbEntity
  8
0
  6
Continuous
 62
     7
370
    30
100
AcDbLine
 10
135.9668223083
 20
110.3161236699
 30
0.0
 11
135.9668223083
 21
93.1161249484
 31
0.0
  0
LINE
  5
12C
330
1F
100
AcDbEntity
  8
0
  6
Continuous
 62
     7
370
    30
100
AcDbLine
 10
148.6203165621
 20
109.7612081523
 30
0.0
 11
148.6203165621
 21
109.656117713
 31
0.0
  0
LINE
  5
12D
330
1F
100
AcDbEntity
  8
0
  6
Continuous
 62
     7
370
    30
100
AcDbLine
 10
146.7027233809
 20
109.7612081523
 30
0.0
 11
148.6203165621
 21
109.7612081523
 31
0.0
  0
SPLINE
  5
12E
330
1F
100
AcDbEntity
  8
0
  6
Continuous
 62
     7
370
    30
100
AcDbSpline
210
0.0
220
0.0
230
1.0
 70
     8
 71
     3
 72
     9
 73
     5
 74
     0
 42
0.000000001
 43
0.00000001
 40
0.0
 40
0.0
 40
0.0
 40
0.0
 40
0.4896780630095249
 40
1.0
 40
1.0
 40
1.0
 40
1.0
 10
146.0336351663081
 20
109.7410319800758
 30
0.0
 10
146.1420326310417
 20
109.7477245076271
 30
0.0
 10
146.363397386627
 20
109.7613917066642
 30
0.0
 10
146.5880686874976
 20
109.7612701734153
 30
0.0
 10
146.702723380944
 20
109.7612081523323
 30
0.0
  0
SPLINE
  5
12F
330
1F
100
AcDbEntity
  8
0
  6
Continuous
 62
     7
370
    30
100
AcDbSpline
210
0.0
220
0.0
230
1.0
 70
     8
 71
     3
 72
    11
 73
     7
 74
     0
 42
0.000000001
 43
0.00000001
 40
0.0
 40
0.0
 40
0.0
 40
0.0
 40
0.2504322942413967
 40
0.5004375265383516
 40
0.7502404938693621
 40
1.0
 40
1.0
 40
1.0
 40
1.0
 10
145.3639080643861
 20
109.3317417855644
 30
0.0
 10
145.3704491217279
 20
109.3806818971718
 30
0.0
 10
145.3835200819529
 20
109.4784786628627
 30
0.0
 10
145.5168509702448
 20
109.6012796140475
 30
0.0
 10
145.7333407841708
 20
109.6968760693081
 30
0.0
 10
145.9335428446906
 20
109.7263141968445
 30
0.0
 10
146.0336351663081
 20
109.7410319800758
 30
0.0
  0
SPLINE
  5
130
330
1F
100
AcDbEntity
  8
0
  6
Continuous
 62
     7
370
    30
100
AcDbSpline
210
0.0
220
0.0
230
1.0
 70
     8
 71
     3
 72
    14
 73
    10
 74
     0
 42
0.000000001
 43
0.00000001
 40
0.0
 40
0.0
 40
0.0
 40
0.0
 40
0.2502655477653998
 40
0.3753824415902079
 40
0.5002486684044861
 40
0.6252240498860344
 40
0.7501510075722397
 40
0.8750043567609145
 40
1.0
 40
1.0
 40
1.0
 40
1.0
 10
146.702723380944
 20
108.824420576849
 30
0.0
 10
146.5451369038349
 20
108.8270575600917
 30
0.0
 10
146.3087671874795
 20
108.8310128676319
 30
0.0
 10
145.9990594471697
 20
108.8668248545186
 30
0.0
 10
145.78331488815
 20
108.9234766499424
 30
0.0
 10
145.6048608262094
 20
109.0083834430882
 30
0.0
 10
145.4625305587828
 20
109.1075585700101
 30
0.0
 10
145.377255347417
 20
109.2202687541853
 30
0.0
 10
145.3683588476418
 20
109.2945700030837
 30
0.0
 10
145.3639080643861
 20
109.3317417855644
 30
0.0
  0
LINE
  5
131
330
1F
100
AcDbEntity
  8
0
  6
Continuous
 62
     7
370
    30
100
AcDbLine
 10
148.6203165621
 20
108.8244205768
 30
0.0
 11
146.7027233809
 21
108.8244205768
 31
0.0
  0
LINE
  5
132
330
1F
100
AcDbEntity
  8
0
  6
Continuous
 62
     7
370
    30
100
AcDbLine
 10
148.6203165621
 20
108.9808715935
 30
0.0
 11
148.6203165621
 21
108.8244205768
 31
0.0
  0
LINE
  5
133
330
1F
100
AcDbEntity
  8
0
  6
Continuous
 62
     7
370
    30
100
AcDbLine
 10
146.7179896206
 20
108.9808715935
 30
0.0
 11
148.6203165621
 21
108.9808715935
 31
0.0
  0
LINE
  5
134
330
1F
100
AcDbEntity
  8
0
  6
Continuous
 62
     7
370
    30
100
AcDbLine
 10
146.2250741095
 20
108.9981792922
 30
0.0
 11
146.7179896206
 21
108.9808715935
 31
0.0
  0
SPLINE
  5
135
330
1F
100
AcDbEntity
  8
0
  6
Continuous
 62
     7
370
    30
100
AcDbSpline
210
0.0
220
0.0
230
1.0
 70
     8
 71
     3
 72
    11
 73
     7
 74
     0
 42
0.000000001
 43
0.00000001
 40
0.0
 40
0.0
 40
0.0
 40
0.0
 40
0.2499979103052168
 40
0.4999450410399573
 40
0.7498021033011354
 40
0.9999999999999999
 40
0.9999999999999999
 40
0.9999999999999999
 40
0.9999999999999999
 10
145.6895487278907
 20
109.3391141350651
 30
0.0
 10
145.697175602278
 20
109.3023742589344
 30
0.0
 10
145.7124278018821
 20
109.228901969276
 30
0.0
 10
145.8271807843867
 20
109.1239357299063
 30
0.0
 10
146.0024720632664
 20
109.0394141070886
 30
0.0
 10
146.1508397185603
 20
109.0119304747489
 30
0.0
 10
146.2250741094558
 20
108.9981792922401
 30
0.0
  0
SPLINE
  5
136
330
1F
100
AcDbEntity
  8
0
  6
Continuous
 62
     7
370
    30
100
AcDbSpline
210
0.0
220
0.0
230
1.0
 70
     8
 71
     3
 72
    12
 73
     8
 74
     0
 42
0.000000001
 43
0.00000001
 40
0.0
 40
0.0
 40
0.0
 40
0.0
 40
0.2497046644874075
 40
0.3736043083644972
 40
0.5000106335654373
 40
0.7516311260816674
 40
1.0
 40
1.0
 40
1.0
 40
1.0
 10
146.2956720859019
 20
109.6512226815605
 30
0.0
 10
146.2094106684363
 20
109.6444836706892
 30
0.0
 10
146.0803476520248
 20
109.6344008654648
 30
0.0
 10
145.9336316104864
 20
109.5952697515385
 30
0.0
 10
145.8187031616866
 20
109.5414181088484
 30
0.0
 10
145.7167399056372
 20
109.4577726767917
 30
0.0
 10
145.6985730718923
 20
109.378495125078
 30
0.0
 10
145.6895487278907
 20
109.3391141350651
 30
0.0
  0
SPLINE
  5
137
330
1F
100
AcDbEntity
  8
0
  6
Continuous
 62
     7
370
    30
100
AcDbSpline
210
0.0
220
0.0
230
1.0
 70
     8
 71
     3
 72
     9
 73
     5
 74
     0
 42
0.000000001
 43
0.00000001
 40
0.0
 40
0.0
 40
0.0
 40
0.0
 40
0.6365751394707546
 40
1.0
 40
1.0
 40
1.0
 40
1.0
 10
146.717989620587
 20
109.6561177130127
 30
0.0
 10
146.6282570093605
 20
109.6563216157183
 30
0.0
 10
146.4872954705527
 20
109.656641927796
 30
0.0
 10
146.3467498561971
 20
109.6526671974002
 30
0.0
 10
146.2956720859019
 20
109.6512226815605
 30
0.0
  0
LINE
  5
138
330
1F
100
AcDbEntity
  8
0
  6
Continuous
 62
     7
370
    30
100
AcDbLine
 10
148.6203165621
 20
109.656117713
 30
0.0
 11
146.7179896206
 21
109.656117713
 31
0.0
  0
LINE
  5
139
330
1F
100
AcDbEntity
  8
0
  6
Continuous
 62
     7
370
    30
100
AcDbLine
 10
147.7655114502
 20
108.3867250438
 30
0.0
 11
147.7655114502
 21
108.2032582219
 31
0.0
  0
LINE
  5
13A
330
1F
100
AcDbEntity
  8
0
  6
Continuous
 62
     7
370
    30
100
AcDbLine
 10
145.4453168333
 20
108.3867250438
 30
0.0
 11
147.7655114502
 21
108.3867250438
 31
0.0
  0
LINE
  5
13B
330
1F
100
AcDbEntity
  8
0
  6
Continuous
 62
     7
370
    30
100
AcDbLine
 10
145.4453168333
 20
108.3867250438
 30
0.0
 11
145.4453168333
 21
108.2032582219
 31
0.0
  0
LINE
  5
13C
330
1F
100
AcDbEntity
  8
0
  6
Continuous
 62
     7
370
    30
100
AcDbLine
 10
146.2842242688
 20
108.2032582219
 30
0.0
 11
145.4453168333
 21
108.2032582219
 31
0.0
  0
LINE
  5
13D
330
1F
100
AcDbEntity
  8
0
  6
Continuous
 62
     7
370
    30
100
AcDbLine
 10
146.9068879158
 20
108.1743611451
 30
0.0
 11
146.2842242688
 21
108.2032582219
 31
0.0
  0
SPLINE
  5
13E
330
1F
100
AcDbEntity
  8
0
  6
Continuous
 62
     7
370
    30
100
AcDbSpline
210
0.0
220
0.0
230
1.0
 70
     8
 71
     3
 72
    11
 73
     7
 74
     0
 42
0.000000001
 43
0.00000001
 40
0.0
 40
0.0
 40
0.0
 40
0.0
 40
0.2498819007929378
 40
0.4998550235190398
 40
0.7500051121463239
 40
1.0
 40
1.0
 40
1.0
 40
1.0
 10
147.5212776929347
 20
107.6266987677002
 30
0.0
 10
147.5132104294993
 20
107.6913837376616
 30
0.0
 10
147.4970729575919
 20
107.8207772914917
 30
0.0
 10
147.3552030337881
 20
107.9830704052079
 30
0.0
 10
147.160447137222
 20
108.1122980117253
 30
0.0
 10
146.9913901694637
 20
108.1536777141471
 30
0.0
 10
146.9068879157512
 20
108.1743611450577
 30
0.0
  0
SPLINE
  5
13F
330
1F
100
AcDbEntity
  8
0
  6
Continuous
 62
     7
370
    30
100
AcDbSpline
210
0.0
220
0.0
230
1.0
 70
     8
 71
     3
 72
    13
 73
     9
 74
     0
 42
0.000000001
 43
0.00000001
 40
0.0
 40
0.0
 40
0.0
 40
0.0
 40
0.1253229072356901
 40
0.2505119886151166
 40
0.3775779025562091
 40
0.5007852267011825
 40
0.7499654639804914
 40
0.9999999999999999
 40
0.9999999999999999
 40
0.9999999999999999
 40
0.9999999999999999
 10
147.0646167069881
 20
107.1779987271213
 30
0.0
 10
147.0978649194659
 20
107.1848389054384
 30
0.0
 10
147.1643258403736
 20
107.1985119577995
 30
0.0
 10
147.2587091167287
 20
107.2323698055032
 30
0.0
 10
147.3431453064728
 20
107.2783537244384
 30
0.0
 10
147.4365201072542
 20
107.3553369031709
 30
0.0
 10
147.5099904440132
 20
107.4759207776109
 30
0.0
 10
147.517510986697
 20
107.5763821316686
 30
0.0
 10
147.5212776929347
 20
107.6266987677002
 30
0.0
  0
SPLINE
  5
140
330
1F
100
AcDbEntity
  8
0
  6
Continuous
 62
     7
370
    30
100
AcDbSpline
210
0.0
220
0.0
230
1.0
 70
     8
 71
     3
 72
     9
 73
     5
 74
     0
 42
0.000000001
 43
0.00000001
 40
0.0
 40
0.0
 40
0.0
 40
0.0
 40
0.5003079717636489
 40
1.0
 40
1.0
 40
1.0
 40
1.0
 10
146.5367244452445
 20
107.1519216950321
 30
0.0
 10
146.6251498706289
 20
107.1515595520345
 30
0.0
 10
146.8018918583144
 20
107.1508357118839
 30
0.0
 10
146.9770777256306
 20
107.1689481074465
 30
0.0
 10
147.0646167069881
 20
107.1779987271213
 30
0.0
  0
LINE
  5
141
330
1F
100
AcDbEntity
  8
0
  6
Continuous
 62
     7
370
    30
100
AcDbLine
 10
145.4453168333
 20
107.151921695
 30
0.0
 11
146.5367244452
 21
107.151921695
 31
0.0
  0
LINE
  5
142
330
1F
100
AcDbEntity
  8
0
  6
Continuous
 62
     7
370
    30
100
AcDbLine
 10
145.4453168333
 20
107.151921695
 30
0.0
 11
145.4453168333
 21
106.9281770344
 31
0.0
  0
LINE
  5
143
330
1F
100
AcDbEntity
  8
0
  6
Continuous
 62
     7
370
    30
100
AcDbLine
 10
146.6302180559
 20
106.9281770344
 30
0.0
 11
145.4453168333
 21
106.9281770344
 31
0.0
  0
SPLINE
  5
144
330
1F
100
AcDbEntity
  8
0
  6
Continuous
 62
     7
370
    30
100
AcDbSpline
210
0.0
220
0.0
230
1.0
 70
     8
 71
     3
 72
    14
 73
    10
 74
     0
 42
0.000000001
 43
0.00000001
 40
0.0
 40
0.0
 40
0.0
 40
0.0
 40
0.1249700621641862
 40
0.250016756095761
 40
0.3760557344034392
 40
0.499723486751423
 40
0.624609370672211
 40
0.7497236583009395
 40
1.0
 40
1.0
 40
1.0
 40
1.0
 10
147.8062139719932
 20
107.5905634518051
 30
0.0
 10
147.8025006950897
 20
107.5394094507332
 30
0.0
 10
147.7950718642975
 20
107.4370700809046
 30
0.0
 10
147.720325000464
 20
107.2872577117156
 30
0.0
 10
147.601959644071
 20
107.1540351351423
 30
0.0
 10
147.441752263652
 20
107.0474760750491
 30
0.0
 10
147.2517066987299
 20
106.977419860585
 30
0.0
 10
146.9778578592898
 20
106.9343512241914
 30
0.0
 10
146.7692792853356
 20
106.9306468045998
 30
0.0
 10
146.630218055865
 20
106.9281770344162
 30
0.0
  0
SPLINE
  5
145
330
1F
100
AcDbEntity
  8
0
  6
Continuous
 62
     7
370
    30
100
AcDbSpline
210
0.0
220
0.0
230
1.0
 70
     8
 71
     3
 72
    11
 73
     7
 74
     0
 42
0.000000001
 43
0.00000001
 40
0.0
 40
0.0
 40
0.0
 40
0.0
 40
0.2502311641530856
 40
0.500101364056451
 40
0.749984085635198
 40
1.0
 40
1.0
 40
1.0
 40
1.0
 10
147.3470086127727
 20
108.2032582219028
 30
0.0
 10
147.4137536580047
 20
108.166967833078
 30
0.0
 10
147.5471474671953
 20
108.0944394051547
 30
0.0
 10
147.6967578955077
 20
107.948782581371
 30
0.0
 10
147.790244192924
 20
107.7781194675697
 30
0.0
 10
147.800889766836
 20
107.6530932277065
 30
0.0
 10
147.8062139719932
 20
107.5905634518051
 30
0.0
  0
LINE
  5
146
330
1F
100
AcDbEntity
  8
0
  6
Continuous
 62
     7
370
    30
100
AcDbLine
 10
147.7655114502
 20
108.2032582219
 30
0.0
 11
147.3470086128
 21
108.2032582219
 31
0.0
  0
SPLINE
  5
147
330
1F
100
AcDbEntity
  8
0
  6
Continuous
 62
     7
370
    30
100
AcDbSpline
210
0.0
220
0.0
230
1.0
 70
     8
 71
     3
 72
    13
 73
     9
 74
     0
 42
0.000000001
 43
0.00000001
 40
0.0
 40
0.0
 40
0.0
 40
0.0
 40
0.1254625689545491
 40
0.2507530644074083
 40
0.5003948006316817
 40
0.6288958882631509
 40
0.7508553801146731
 40
1.0
 40
1.0
 40
1.0
 40
1.0
 10
148.7424315780609
 20
106.3110603447342
 30
0.0
 10
148.7416673397604
 20
106.2968690420273
 30
0.0
 10
148.740139911322
 20
106.2685059001649
 30
0.0
 10
148.7232372634827
 20
106.2131034289884
 30
0.0
 10
148.6865627473101
 20
106.1631128178609
 30
0.0
 10
148.6380365658165
 20
106.1236202448726
 30
0.0
 10
148.5806297541205
 20
106.0926426835991
 30
0.0
 10
148.530551668032
 20
106.0875742708929
 30
0.0
 10
148.4969312221019
 20
106.0841715391064
 30
0.0
  0
SPLINE
  5
148
330
1F
100
AcDbEntity
  8
0
  6
Continuous
 62
     7
370
    30
100
AcDbSpline
210
0.0
220
0.0
230
1.0
 70
     8
 71
     3
 72
    13
 73
     9
 74
     0
 42
0.000000001
 43
0.00000001
 40
0.0
 40
0.0
 40
0.0
 40
0.0
 40
0.1253360366281865
 40
0.2505024284082933
 40
0.3736948864334841
 40
0.5009141963959444
 40
0.7504470572143275
 40
1.0
 40
1.0
 40
1.0
 40
1.0
 10
148.4969312221019
 20
106.5314485187912
 30
0.0
 10
148.5136163791402
 20
106.530628091651
 30
0.0
 10
148.5469641095208
 20
106.5289883478352
 30
0.0
 10
148.5944325954015
 20
106.5153914442123
 30
0.0
 10
148.6375904285932
 20
106.493997732479
 30
0.0
 10
148.6861057474622
 20
106.4560409193921
 30
0.0
 10
148.7331987198279
 20
106.3956350682385
 30
0.0
 10
148.7393538760938
 20
106.3392526754646
 30
0.0
 10
148.7424315780609
 20
106.3110603447342
 30
0.0
  0
SPLINE
  5
149
330
1F
100
AcDbEntity
  8
0
  6
Continuous
 62
     7
370
    30
100
AcDbSpline
210
0.0
220
0.0
230
1.0
 70
     8
 71
     3
 72
    12
 73
     8
 74
     0
 42
0.000000001
 43
0.00000001
 40
0.0
 40
0.0
 40
0.0
 40
0.0
 40
0.1255974636333179
 40
0.2510337493754586
 40
0.5010056550849842
 40
0.7506316984759525
 40
1.0
 40
1.0
 40
1.0
 40
1.0
 10
148.2539715141265
 20
106.3110603447342
 30
0.0
 10
148.2547027302172
 20
106.3250564152597
 30
0.0
 10
148.2561642240366
 20
106.3530305953021
 30
0.0
 10
148.2736983576027
 20
106.4070748550664
 30
0.0
 10
148.3178277390732
 20
106.4664663350811
 30
0.0
 10
148.3973243503591
 20
106.5208293680369
 30
0.0
 10
148.4637403666459
 20
106.5279100209789
 30
0.0
 10
148.4969312221019
 20
106.5314485187912
 30
0.0
  0
SPLINE
  5
14A
330
1F
100
AcDbEntity
  8
0
  6
Continuous
 62
     7
370
    30
100
AcDbSpline
210
0.0
220
0.0
230
1.0
 70
     8
 71
     3
 72
    13
 73
     9
 74
     0
 42
0.000000001
 43
0.00000001
 40
0.0
 40
0.0
 40
0.0
 40
0.0
 40
0.1253175302248759
 40
0.2504725008068202
 40
0.3720753289773907
 40
0.500843182608665
 40
0.7503274239435797
 40
1.0
 40
1.0
 40
1.0
 40
1.0
 10
148.4969312221019
 20
106.0841715391064
 30
0.0
 10
148.480253698293
 20
106.0850805741072
 30
0.0
 10
148.4469202844585
 20
106.0868974649249
 30
0.0
 10
148.3998247667909
 20
106.1014445885021
 30
0.0
 10
148.3571520982659
 20
106.1242371000448
 30
0.0
 10
148.3094035541025
 20
106.1639623791971
 30
0.0
 10
148.2624754945648
 20
106.2260119767386
 30
0.0
 10
148.2568068872053
 20
106.2827037586911
 30
0.0
 10
148.2539715141265
 20
106.3110603447342
 30
0.0
  0
LINE
  5
14B
330
1F
100
AcDbEntity
  8
0
  6
Continuous
 62
     7
370
    30
100
AcDbLine
 10
147.7655114502
 20
106.4297853465
 30
0.0
 11
147.7655114502
 21
106.1889192517
 31
0.0
  0
LINE
  5
14C
330
1F
100
AcDbEntity
  8
0
  6
Continuous
 62
     7
370
    30
100
AcDbLine
 10
145.4453168333
 20
106.4297853465
 30
0.0
 11
147.7655114502
 21
106.4297853465
 31
0.0
  0
LINE
  5
14D
330
1F
100
AcDbEntity
  8
0
  6
Continuous
 62
     7
370
    30
100
AcDbLine
 10
145.4453168333
 20
106.4297853465
 30
0.0
 11
145.4453168333
 21
106.1889192517
 31
0.0
  0
LINE
  5
14E
330
1F
100
AcDbEntity
  8
0
  6
Continuous
 62
     7
370
    30
100
AcDbLine
 10
147.7655114502
 20
106.1889192517
 30
0.0
 11
145.4453168333
 21
106.1889192517
 31
0.0
  0
LINE
  5
14F
330
1F
100
AcDbEntity
  8
0
  6
Continuous
 62
     7
370
    30
100
AcDbLine
 10
147.262418446
 20
103.436807027
 30
0.0
 11
147.1142263979
 21
103.6697997208
 31
0.0
  0
SPLINE
  5
150
330
1F
100
AcDbEntity
  8
0
  6
Continuous
 62
     7
370
    30
100
AcDbSpline
210
0.0
220
0.0
230
1.0
 70
     8
 71
     3
 72
    11
 73
     7
 74
     0
 42
0.000000001
 43
0.00000001
 40
0.0
 40
0.0
 40
0.0
 40
0.0
 40
0.2502328322717807
 40
0.5004725389701521
 40
0.7502845495804107
 40
1.0
 40
1.0
 40
1.0
 40
1.0
 10
147.8062139719932
 20
104.4617293830299
 30
0.0
 10
147.7998673053577
 20
104.3626435285064
 30
0.0
 10
147.7871737977301
 20
104.1644690973609
 30
0.0
 10
147.6824717040395
 20
103.8790249336842
 30
0.0
 10
147.5194230828364
 20
103.6138562545819
 30
0.0
 10
147.3480756175923
 20
103.4958158303489
 30
0.0
 10
147.2624184459656
 20
103.4368070270204
 30
0.0
  0
SPLINE
  5
151
330
1F
100
AcDbEntity
  8
0
  6
Continuous
 62
     7
370
    30
100
AcDbSpline
210
0.0
220
0.0
230
1.0
 70
     8
 71
     3
 72
    14
 73
    10
 74
     0
 42
0.000000001
 43
0.00000001
 40
0.0
 40
0.0
 40
0.0
 40
0.0
 40
0.1250708723029208
 40
0.2500682516918441
 40
0.3759527304868224
 40
0.5003036274565099
 40
0.6255022371504391
 40
0.7506346639959246
 40
1.0
 40
1.0
 40
1.0
 40
1.0
 10
146.5863341361492
 20
105.6565901692295
 30
0.0
 10
146.669220547089
 20
105.6526473413083
 30
0.0
 10
146.8349446640724
 20
105.6447640023117
 30
0.0
 10
147.0731022770059
 20
105.5732489620747
 30
0.0
 10
147.2902442520984
 20
105.4635214188384
 30
0.0
 10
147.4781591917076
 20
105.3140014097403
 30
0.0
 10
147.6248680349053
 20
105.1304366858654
 30
0.0
 10
147.7714954451593
 20
104.8537834555195
 30
0.0
 10
147.7923365730488
 20
104.6184379553077
 30
0.0
 10
147.8062139719932
 20
104.4617293830299
 30
0.0
  0
SPLINE
  5
152
330
1F
100
AcDbEntity
  8
0
  6
Continuous
 62
     7
370
    30
100
AcDbSpline
210
0.0
220
0.0
230
1.0
 70
     8
 71
     3
 72
    13
 73
     9
 74
     0
 42
0.000000001
 43
0.00000001
 40
0.0
 40
0.0
 40
0.0
 40
0.0
 40
0.2497849265134474
 40
0.374467493191301
 40
0.5003452608555373
 40
0.6250927392162459
 40
0.7508933465452908
 40
1.0
 40
1.0
 40
1.0
 40
1.0
 10
145.4046124488323
 20
104.4840215201759
 30
0.0
 10
145.4172501208781
 20
104.6368884081728
 30
0.0
 10
145.4361960093943
 20
104.8660602847114
 30
0.0
 10
145.5767674873322
 20
105.1371899379772
 30
0.0
 10
145.7219184183806
 20
105.3152189163603
 30
0.0
 10
145.9014704232269
 20
105.4637068032227
 30
0.0
 10
146.1794656392441
 20
105.6178978224944
 30
0.0
 10
146.4239120373024
 20
105.6411441658799
 30
0.0
 10
146.5863341361492
 20
105.6565901692295
 30
0.0
  0
SPLINE
  5
153
330
1F
100
AcDbEntity
  8
0
  6
Continuous
 62
     7
370
    30
100
AcDbSpline
210
0.0
220
0.0
230
1.0
 70
     8
 71
     3
 72
    11
 73
     7
 74
     0
 42
0.000000001
 43
0.00000001
 40
0.0
 40
0.0
 40
0.0
 40
0.0
 40
0.2498147126500276
 40
0.4997366656383015
 40
0.7497562757223664
 40
1.0
 40
1.0
 40
1.0
 40
1.0
 10
145.9401378303974
 20
103.4368070270204
 30
0.0
 10
145.8566618863773
 20
103.5002951708745
 30
0.0
 10
145.6896741638246
 20
103.627298712742
 30
0.0
 10
145.5217997127529
 20
103.8926136005035
 30
0.0
 10
145.4198706109202
 20
104.1834492443067
 30
0.0
 10
145.4097000216439
 20
104.3838008428854
 30
0.0
 10
145.4046124488323
 20
104.4840215201759
 30
0.0
  0
LINE
  5
154
330
1F
100
AcDbEntity
  8
0
  6
Continuous
 62
     7
370
    30
100
AcDbLine
 10
146.0966000229
 20
103.6697997208
 30
0.0
 11
145.9401378304
 21
103.436807027
 31
0.0
  0
SPLINE
  5
155
330
1F
100
AcDbEntity
  8
0
  6
Continuous
 62
     7
370
    30
100
AcDbSpline
210
0.0
220
0.0
230
1.0
 70
     8
 71
     3
 72
    12
 73
     8
 74
     0
 42
0.000000001
 43
0.00000001
 40
0.0
 40
0.0
 40
0.0
 40
0.0
 40
0.1251954491633333
 40
0.2503358780889327
 40
0.50017483466492
 40
0.7499903714170395
 40
1.0
 40
1.0
 40
1.0
 40
1.0
 10
145.6895487278907
 20
104.4798044915581
 30
0.0
 10
145.6906681832718
 20
104.4414465118459
 30
0.0
 10
145.6929066020615
 20
104.3647474097848
 30
0.0
 10
145.7178088678594
 20
104.2121241854386
 30
0.0
 10
145.7828861107324
 20
104.0269801204743
 30
0.0
 10
145.9154551032107
 20
103.8273561376044
 30
0.0
 10
146.0362027534719
 20
103.7223321206923
 30
0.0
 10
146.0966000229328
 20
103.6697997208023
 30
0.0
  0
SPLINE
  5
156
330
1F
100
AcDbEntity
  8
0
  6
Continuous
 62
     7
370
    30
100
AcDbSpline
210
0.0
220
0.0
230
1.0
 70
     8
 71
     3
 72
    13
 73
     9
 74
     0
 42
0.000000001
 43
0.00000001
 40
0.0
 40
0.0
 40
0.0
 40
0.0
 40
0.2486613055106577
 40
0.374865235020076
 40
0.4996793300966009
 40
0.6237946257289014
 40
0.7502262386499227
 40
1.0
 40
1.0
 40
1.0
 40
1.0
 10
146.6117741435974
 20
105.4012066181087
 30
0.0
 10
146.4858462162326
 20
105.3874161442784
 30
0.0
 10
146.2960056538248
 20
105.3666265437299
 30
0.0
 10
146.077348724414
 20
105.2483008109611
 30
0.0
 10
145.9354148692669
 20
105.1334502260242
 30
0.0
 10
145.8245597072926
 20
104.9916221036508
 30
0.0
 10
145.7154702307652
 20
104.7787840459492
 30
0.0
 10
145.6998917423849
 20
104.599101195901
 30
0.0
 10
145.6895487278907
 20
104.4798044915581
 30
0.0
  0
SPLINE
  5
157
330
1F
100
AcDbEntity
  8
0
  6
Continuous
 62
     7
370
    30
100
AcDbSpline
210
0.0
220
0.0
230
1.0
 70
     8
 71
     3
 72
    14
 73
    10
 74
     0
 42
0.000000001
 43
0.00000001
 40
0.0
 40
0.0
 40
0.0
 40
0.0
 40
0.2494944939085121
 40
0.3745954129346003
 40
0.4997071190559862
 40
0.624830091798995
 40
0.749869413855077
 40
0.874885583671307
 40
1.0
 40
1.0
 40
1.0
 40
1.0
 10
147.5212776929347
 20
104.4816112573528
 30
0.0
 10
147.511720636181
 20
104.6001659596015
 30
0.0
 10
147.4973715034005
 20
104.7781660707402
 30
0.0
 10
147.388938519088
 20
104.9896508536588
 30
0.0
 10
147.278429956789
 20
105.1300877967006
 30
0.0
 10
147.1403395511137
 20
105.2477511059578
 30
0.0
 10
146.9795620269405
 20
105.3373981667322
 30
0.0
 10
146.7995727277368
 20
105.3919262196138
 30
0.0
 10
146.6743900614299
 20
105.3981123420135
 30
0.0
 10
146.6117741435974
 20
105.4012066181087
 30
0.0
  0
SPLINE
  5
158
330
1F
100
AcDbEntity
  8
0
  6
Continuous
 62
     7
370
    30
100
AcDbSpline
210
0.0
220
0.0
230
1.0
 70
     8
 71
     3
 72
    12
 73
     8
 74
     0
 42
0.000000001
 43
0.00000001
 40
0.0
 40
0.0
 40
0.0
 40
0.0
 40
0.1251991793618742
 40
0.2503422592535144
 40
0.5001121456367958
 40
0.7499487152978479
 40
1.0
 40
1.0
 40
1.0
 40
1.0
 10
147.1142263978927
 20
103.6697997208023
 30
0.0
 10
147.1458945805555
 20
103.6945989356891
 30
0.0
 10
147.2092167559456
 20
103.7441862533867
 30
0.0
 10
147.3201667328414
 20
103.859628616912
 30
0.0
 10
147.4317531743351
 20
104.0253778861541
 30
0.0
 10
147.5089707227872
 20
104.2502309893137
 30
0.0
 10
147.5171741950162
 20
104.4044624191818
 30
0.0
 10
147.5212776929347
 20
104.4816112573528
 30
0.0
  0
LINE
  5
159
330
1F
100
AcDbEntity
  8
0
  6
Continuous
 62
     7
370
    30
100
AcDbLine
 10
146.1780087918
 20
100.9753102864
 30
0.0
 11
146.0450829834
 21
100.7234732117
 31
0.0
  0
SPLINE
  5
15A
330
1F
100
AcDbEntity
  8
0
  6
Continuous
 62
     7
370
    30
100
AcDbSpline
210
0.0
220
0.0
230
1.0
 70
     8
 71
     3
 72
    11
 73
     7
 74
     0
 42
0.000000001
 43
0.00000001
 40
0.0
 40
0.0
 40
0.0
 40
0.0
 40
0.2495660758988562
 40
0.5000817524251826
 40
0.7495315823480992
 40
1.0
 40
1.0
 40
1.0
 40
1.0
 10
145.6895487278908
 20
101.8285600896263
 30
0.0
 10
145.6958842264667
 20
101.7427734310297
 30
0.0
 10
145.7085793302341
 20
101.5708736950131
 30
0.0
 10
145.8027781449987
 20
101.3269151280362
 30
0.0
 10
145.9645775908293
 20
101.1210565124863
 30
0.0
 10
146.1067684864356
 20
101.0239583079316
 30
0.0
 10
146.1780087918251
 20
100.9753102864408
 30
0.0
  0
SPLINE
  5
15B
330
1F
100
AcDbEntity
  8
0
  6
Continuous
 62
     7
370
    30
100
AcDbSpline
210
0.0
220
0.0
230
1.0
 70
     8
 71
     3
 72
    13
 73
     9
 74
     0
 42
0.000000001
 43
0.00000001
 40
0.0
 40
0.0
 40
0.0
 40
0.0
 40
0.249608619834661
 40
0.3748412198477722
 40
0.5001051912802261
 40
0.6270434573032189
 40
0.7506068034468939
 40
1.0
 40
1.0
 40
1.0
 40
1.0
 10
146.5443575650661
 20
102.6731150652551
 30
0.0
 10
146.4323394151712
 20
102.6615942259489
 30
0.0
 10
146.2641199843699
 20
102.6442931989968
 30
0.0
 10
146.0634577505241
 20
102.5414202472528
 30
0.0
 10
145.9320523098668
 20
102.4352554778549
 30
0.0
 10
145.8237718052751
 20
102.3067575883638
 30
0.0
 10
145.7153269630693
 20
102.1089060854529
 30
0.0
 10
145.6998787980543
 20
101.940902683558
 30
0.0
 10
145.6895487278908
 20
101.8285600896263
 30
0.0
  0
LINE
  5
15C
330
1F
100
AcDbEntity
  8
0
  6
Continuous
 62
     7
370
    30
100
AcDbLine
 10
146.5443575651
 20
102.6731150653
 30
0.0
 11
146.5443575651
 21
100.6022783424
 31
0.0
  0
SPLINE
  5
15D
330
1F
100
AcDbEntity
  8
0
  6
Continuous
 62
     7
370
    30
100
AcDbSpline
210
0.0
220
0.0
230
1.0
 70
     8
 71
     3
 72
     9
 73
     5
 74
     0
 42
0.000000001
 43
0.00000001
 40
0.0
 40
0.0
 40
0.0
 40
0.0
 40
0.4993883962787246
 40
1.0
 40
1.0
 40
1.0
 40
1.0
 10
147.3495529860466
 20
100.8530946876192
 30
0.0
 10
147.2259575398301
 20
100.7782565611601
 30
0.0
 10
146.9784639113486
 20
100.6283969989101
 30
0.0
 10
146.6891776328699
 20
100.6109916580204
 30
0.0
 10
146.5443575650662
 20
100.6022783424043
 30
0.0
  0
SPLINE
  5
15E
330
1F
100
AcDbEntity
  8
0
  6
Continuous
 62
     7
370
    30
100
AcDbSpline
210
0.0
220
0.0
230
1.0
 70
     8
 71
     3
 72
    12
 73
     8
 74
     0
 42
0.000000001
 43
0.00000001
 40
0.0
 40
0.0
 40
0.0
 40
0.0
 40
0.1251886441686702
 40
0.2503146966168478
 40
0.5000987600960677
 40
0.7499485405024523
 40
1.0
 40
1.0
 40
1.0
 40
1.0
 10
147.373722669503
 20
102.690812056818
 30
0.0
 10
147.4070722417739
 20
102.6630774187427
 30
0.0
 10
147.4737547122226
 20
102.6076220093348
 30
0.0
 10
147.5926471954742
 20
102.4810694741361
 30
0.0
 10
147.7095336152726
 20
102.2965235590436
 30
0.0
 10
147.7936065202995
 20
102.0469260047279
 30
0.0
 10
147.8020103579532
 20
101.8729643001874
 30
0.0
 10
147.8062139719932
 20
101.7859483565474
 30
0.0
  0
SPLINE
  5
15F
330
1F
100
AcDbEntity
  8
0
  6
Continuous
 62
     7
370
    30
100
AcDbSpline
210
0.0
220
0.0
230
1.0
 70
     8
 71
     3
 72
     9
 73
     5
 74
     0
 42
0.000000001
 43
0.00000001
 40
0.0
 40
0.0
 40
0.0
 40
0.0
 40
0.500022664202203
 40
0.9999999999999999
 40
0.9999999999999999
 40
0.9999999999999999
 40
0.9999999999999999
 10
146.5990522772281
 20
102.9557044114256
 30
0.0
 10
146.7397107630664
 20
102.944794265145
 30
0.0
 10
147.0210149836714
 20
102.9229749616182
 30
0.0
 10
147.2561569937631
 20
102.768197353144
 30
0.0
 10
147.373722669503
 20
102.690812056818
 30
0.0
  0
SPLINE
  5
160
330
1F
100
AcDbEntity
  8
0
  6
Continuous
 62
     7
370
    30
100
AcDbSpline
210
0.0
220
0.0
230
1.0
 70
     8
 71
     3
 72
    12
 73
     8
 74
     0
 42
0.000000001
 43
0.00000001
 40
0.0
 40
0.0
 40
0.0
 40
0.0
 40
0.2498437523843037
 40
0.374696476974163
 40
0.500474213889669
 40
0.750276462742725
 40
0.9999999999999999
 40
0.9999999999999999
 40
0.9999999999999999
 40
0.9999999999999999
 10
145.4046124488323
 20
101.7929444517278
 30
0.0
 10
145.4171513350468
 20
101.9494652763987
 30
0.0
 10
145.4359561938633
 20
102.1842031916659
 30
0.0
 10
145.584971825208
 20
102.4615534690453
 30
0.0
 10
145.7944649200568
 20
102.6902851779147
 30
0.0
 10
146.1320984335125
 20
102.9067362608997
 30
0.0
 10
146.4434173477704
 20
102.9393834093494
 30
0.0
 10
146.5990522772281
 20
102.9557044114256
 30
0.0
  0
SPLINE
  5
161
330
1F
100
AcDbEntity
  8
0
  6
Continuous
 62
     7
370
    30
100
AcDbSpline
210
0.0
220
0.0
230
1.0
 70
     8
 71
     3
 72
    11
 73
     7
 74
     0
 42
0.000000001
 43
0.00000001
 40
0.0
 40
0.0
 40
0.0
 40
0.0
 40
0.2502191126329781
 40
0.5000268656322475
 40
0.7498333939120816
 40
1.0
 40
1.0
 40
1.0
 40
1.0
 10
146.0450829833954
 20
100.7234732116842
 30
0.0
 10
145.9504940237732
 20
100.7801610265863
 30
0.0
 10
145.7614716085564
 20
100.893443461756
 30
0.0
 10
145.5523736559812
 20
101.154272139954
 30
0.0
 10
145.4223131919455
 20
101.4623493879218
 30
0.0
 10
145.41051552874
 20
101.682693200339
 30
0.0
 10
145.4046124488323
 20
101.7929444517278
 30
0.0
  0
LINE
  5
162
330
1F
100
AcDbEntity
  8
0
  6
Continuous
 62
     7
370
    30
100
AcDbLine
 10
148.6203165621
 20
98.7865439113
 30
0.0
 11
148.6203165621
 21
97.178086495
 31
0.0
  0
LINE
  5
163
330
1F
100
AcDbEntity
  8
0
  6
Continuous
 62
     7
370
    30
100
AcDbLine
 10
145.4453168333
 20
98.7865439113
 30
0.0
 11
148.6203165621
 21
98.7865439113
 31
0.0
  0
LINE
  5
164
330
1F
100
AcDbEntity
  8
0
  6
Continuous
 62
     7
370
    30
100
AcDbLine
 10
145.4453168333
 20
98.7865439113
 30
0.0
 11
145.4453168333
 21
97.178086495
 31
0.0
  0
LINE
  5
165
330
1F
100
AcDbEntity
  8
0
  6
Continuous
 62
     7
370
    30
100
AcDbLine
 10
145.7709574968
 20
97.178086495
 30
0.0
 11
145.4453168333
 21
97.178086495
 31
0.0
  0
LINE
  5
166
330
1F
100
AcDbEntity
  8
0
  6
Continuous
 62
     7
370
    30
100
AcDbLine
 10
145.7709574968
 20
98.5203067269
 30
0.0
 11
145.7709574968
 21
97.178086495
 31
0.0
  0
LINE
  5
167
330
1F
100
AcDbEntity
  8
0
  6
Continuous
 62
     7
370
    30
100
AcDbLine
 10
146.9921113819
 20
98.5203067269
 30
0.0
 11
145.7709574968
 21
98.5203067269
 31
0.0
  0
LINE
  5
168
330
1F
100
AcDbEntity
  8
0
  6
Continuous
 62
     7
370
    30
100
AcDbLine
 10
146.9921113819
 20
98.5203067269
 30
0.0
 11
146.9921113819
 21
97.178086495
 31
0.0
  0
LINE
  5
169
330
1F
100
AcDbEntity
  8
0
  6
Continuous
 62
     7
370
    30
100
AcDbLine
 10
147.3177539081
 20
97.178086495
 30
0.0
 11
146.9921113819
 21
97.178086495
 31
0.0
  0
LINE
  5
16A
330
1F
100
AcDbEntity
  8
0
  6
Continuous
 62
     7
370
    30
100
AcDbLine
 10
147.3177539081
 20
98.5203067269
 30
0.0
 11
147.3177539081
 21
97.178086495
 31
0.0
  0
LINE
  5
16B
330
1F
100
AcDbEntity
  8
0
  6
Continuous
 62
     7
370
    30
100
AcDbLine
 10
148.2946777612
 20
98.5203067269
 30
0.0
 11
147.3177539081
 21
98.5203067269
 31
0.0
  0
LINE
  5
16C
330
1F
100
AcDbEntity
  8
0
  6
Continuous
 62
     7
370
    30
100
AcDbLine
 10
148.2946777612
 20
98.5203067269
 30
0.0
 11
148.2946777612
 21
97.178086495
 31
0.0
  0
LINE
  5
16D
330
1F
100
AcDbEntity
  8
0
  6
Continuous
 62
     7
370
    30
100
AcDbLine
 10
148.6203165621
 20
97.178086495
 30
0.0
 11
148.2946777612
 21
97.178086495
 31
0.0
  0
LINE
  5
16E
330
1F
100
AcDbEntity
  8
0
  6
Continuous
 62
     7
370
    30
100
AcDbLine
 10
146.8292938441
 20
96.9385838564
 30
0.0
 11
146.8292938441
 21
95.9746873434
 31
0.0
  0
LINE
  5
16F
330
1F
100
AcDbEntity
  8
0
  6
Continuous
 62
     7
370
    30
100
AcDbLine
 10
146.503651318
 20
96.9385838564
 30
0.0
 11
146.8292938441
 21
96.9385838564
 31
0.0
  0
LINE
  5
170
330
1F
100
AcDbEntity
  8
0
  6
Continuous
 62
     7
370
    30
100
AcDbLine
 10
146.503651318
 20
96.9385838564
 30
0.0
 11
146.503651318
 21
95.9746873434
 31
0.0
  0
LINE
  5
171
330
1F
100
AcDbEntity
  8
0
  6
Continuous
 62
     7
370
    30
100
AcDbLine
 10
146.8292938441
 20
95.9746873434
 30
0.0
 11
146.503651318
 21
95.9746873434
 31
0.0
  0
SPLINE
  5
172
330
1F
100
AcDbEntity
  8
0
  6
Continuous
 62
     7
370
    30
100
AcDbSpline
210
0.0
220
0.0
230
1.0
 70
     8
 71
     3
 72
    13
 73
     9
 74
     0
 42
0.000000001
 43
0.00000001
 40
0.0
 40
0.0
 40
0.0
 40
0.0
 40
0.2494964426339193
 40
0.3743285960173497
 40
0.5000367593285774
 40
0.6253395108502245
 40
0.7505962012482061
 40
1.0
 40
1.0
 40
1.0
 40
1.0
 10
148.70172905626
 20
94.64511447206975
 30
0.0
 10
148.6821591690999
 20
94.52296169595084
 30
0.0
 10
148.652797754935
 20
94.33969143886225
 30
0.0
 10
148.4431385448469
 20
94.14829498675459
 30
0.0
 10
148.2325451979345
 20
94.02970293702076
 30
0.0
 10
147.978977677028
 20
93.93596081171518
 30
0.0
 10
147.588949742789
 20
93.84613446061047
 30
0.0
 10
147.255835360816
 20
93.83390207243627
 30
0.0
 10
147.0340879529923
 20
93.82575922266481
 30
0.0
  0
SPLINE
  5
173
330
1F
100
AcDbEntity
  8
0
  6
Continuous
 62
     7
370
    30
100
AcDbSpline
210
0.0
220
0.0
230
1.0
 70
     8
 71
     3
 72
    12
 73
     8
 74
     0
 42
0.000000001
 43
0.00000001
 40
0.0
 40
0.0
 40
0.0
 40
0.0
 40
0.2498102044095184
 40
0.4995556963480603
 40
0.6252688011591384
 40
0.7504461840296933
 40
1.0
 40
1.0
 40
1.0
 40
1.0
 10
147.0188254386395
 20
95.70723012641906
 30
0.0
 10
147.2372313785651
 20
95.69061607503566
 30
0.0
 10
147.6739866811116
 20
95.65739227608152
 30
0.0
 10
148.145717985086
 20
95.4372218497415
 30
0.0
 10
148.4256934877915
 20
95.21503235180892
 30
0.0
 10
148.6417019673866
 20
94.96656218976705
 30
0.0
 10
148.6777336235097
 20
94.77361107647818
 30
0.0
 10
148.70172905626
 20
94.64511447206975
 30
0.0
  0
SPLINE
  5
174
330
1F
100
AcDbEntity
  8
0
  6
Continuous
 62
     7
370
    30
100
AcDbSpline
210
0.0
220
0.0
230
1.0
 70
     8
 71
     3
 72
    12
 73
     8
 74
     0
 42
0.000000001
 43
0.00000001
 40
0.0
 40
0.0
 40
0.0
 40
0.0
 40
0.2497731605005297
 40
0.3728407568203131
 40
0.500675959560423
 40
0.7503243356900022
 40
1.0
 40
1.0
 40
1.0
 40
1.0
 10
145.3639080643862
 20
94.63066593364712
 30
0.0
 10
145.384052261072
 20
94.7590463837277
 30
0.0
 10
145.41412185511
 20
94.95068212262399
 30
0.0
 10
145.6251108976283
 20
95.20044837177763
 30
0.0
 10
145.9012023067419
 20
95.42345135889478
 30
0.0
 10
146.3613021875654
 20
95.65858824943177
 30
0.0
 10
146.7996430364701
 20
95.69101557670284
 30
0.0
 10
147.0188254386395
 20
95.70723012641905
 30
0.0
  0
SPLINE
  5
175
330
1F
100
AcDbEntity
  8
0
  6
Continuous
 62
     7
370
    30
100
AcDbSpline
210
0.0
220
0.0
230
1.0
 70
     8
 71
     3
 72
    12
 73
     8
 74
     0
 42
0.000000001
 43
0.00000001
 40
0.0
 40
0.0
 40
0.0
 40
0.0
 40
0.2497842017587274
 40
0.4994343373374444
 40
0.6270821858587612
 40
0.7503307985632585
 40
1.0
 40
1.0
 40
1.0
 40
1.0
 10
147.0340879529923
 20
93.82575922266481
 30
0.0
 10
146.8143906612851
 20
93.83404827589193
 30
0.0
 10
146.3751139955631
 20
93.85062193337902
 30
0.0
 10
145.9114461833703
 20
93.98899189869897
 30
0.0
 10
145.6311618722065
 20
94.14274940812075
 30
0.0
 10
145.416330060639
 20
94.33024685054244
 30
0.0
 10
145.3849302791364
 20
94.51019218347506
 30
0.0
 10
145.3639080643862
 20
94.63066593364712
 30
0.0
  0
SPLINE
  5
176
330
1F
100
AcDbEntity
  8
0
  6
Continuous
 62
     7
370
    30
100
AcDbSpline
210
0.0
220
0.0
230
1.0
 70
     8
 71
     3
 72
    11
 73
     7
 74
     0
 42
0.000000001
 43
0.00000001
 40
0.0
 40
0.0
 40
0.0
 40
0.0
 40
0.2504881236119173
 40
0.5004423030185798
 40
0.7501858496792947
 40
1.0
 40
1.0
 40
1.0
 40
1.0
 10
147.373722669503
 20
102.6851440276289
 30
0.0
 10
147.4393314751027
 20
102.6284243382018
 30
0.0
 10
147.5704092335976
 20
102.5151058638802
 30
0.0
 10
147.709143352379
 20
102.2928377335509
 30
0.0
 10
147.7936815462265
 20
102.0451807847579
 30
0.0
 10
147.802036103148
 20
101.8720966156529
 30
0.0
 10
147.8062139719933
 20
101.7855422999048
 30
0.0
  0
LINE
  5
177
330
1F
100
AcDbEntity
  8
0
  6
Continuous
 62
     7
370
    30
100
AcDbLine
 10
147.3737226695
 20
102.6908120568
 30
0.0
 11
147.3737226695
 21
102.6851440276
 31
0.0
  0
LINE
  5
178
330
1F
100
AcDbEntity
  8
0
  6
Continuous
 62
     7
370
    30
100
AcDbLine
 10
145.4046124488
 20
101.7929444517
 30
0.0
 11
145.4046124488
 21
101.7924974169
 31
0.0
  0
SPLINE
  5
179
330
1F
100
AcDbEntity
  8
0
  6
Continuous
 62
     7
370
    30
100
AcDbSpline
210
0.0
220
0.0
230
1.0
 70
     8
 71
     3
 72
    11
 73
     7
 74
     0
 42
0.000000001
 43
0.00000001
 40
0.0
 40
0.0
 40
0.0
 40
0.0
 40
0.2507605319067834
 40
0.5007031593236263
 40
0.7502680464410957
 40
1.0
 40
1.0
 40
1.0
 40
1.0
 10
146.0450829833954
 20
100.7292436863565
 30
0.0
 10
145.950519107377
 20
100.7855730860357
 30
0.0
 10
145.761699793906
 20
100.8980481560466
 30
0.0
 10
145.5524977505052
 20
101.1573105213534
 30
0.0
 10
145.4223317659351
 20
101.4637007865735
 30
0.0
 10
145.4105202052629
 20
101.6828740947381
 30
0.0
 10
145.4046124488323
 20
101.792497416892
 30
0.0
  0
LINE
  5
17A
330
1F
100
AcDbEntity
  8
0
  6
Continuous
 62
     7
370
    30
100
AcDbLine
 10
146.0450829834
 20
100.7234732117
 30
0.0
 11
146.0450829834
 21
100.7292436864
 31
0.0
  0
LINE
  5
17B
330
1F
100
AcDbEntity
  8
0
  6
Continuous
 62
     7
370
    30
100
AcDbLine
 10
146.5990522772
 20
102.9557044114
 30
0.0
 11
146.5990522772
 21
102.9484978373
 31
0.0
  0
SPLINE
  5
17C
330
1F
100
AcDbEntity
  8
0
  6
Continuous
 62
     7
370
    30
100
AcDbSpline
210
0.0
220
0.0
230
1.0
 70
     8
 71
     3
 72
    12
 73
     8
 74
     0
 42
0.000000001
 43
0.00000001
 40
0.0
 40
0.0
 40
0.0
 40
0.0
 40
0.2490588125056391
 40
0.37371589351907
 40
0.4994498780334147
 40
0.7496323452064995
 40
1.0
 40
1.0
 40
1.0
 40
1.0
 10
145.4046124488323
 20
101.792497416892
 30
0.0
 10
145.41716498433
 20
101.9480979652126
 30
0.0
 10
145.4360002223698
 20
102.181578553041
 30
0.0
 10
145.5849864452251
 20
102.4572468062887
 30
0.0
 10
145.794627540818
 20
102.6847901805098
 30
0.0
 10
146.1324089578747
 20
102.8999011126178
 30
0.0
 10
146.4434661436894
 20
102.9322949342069
 30
0.0
 10
146.5990522772281
 20
102.9484978373432
 30
0.0
  0
LINE
  5
17D
330
1F
100
AcDbEntity
  8
0
  6
Continuous
 62
     7
370
    30
100
AcDbLine
 10
145.6895487279
 20
101.8279063012
 30
0.0
 11
145.703306225
 21
101.7171143051
 31
0.0
  0
LINE
  5
17E
330
1F
100
AcDbEntity
  8
0
  6
Continuous
 62
     7
370
    30
100
AcDbLine
 10
145.6895487279
 20
101.8285600896
 30
0.0
 11
145.6895487279
 21
101.8279063012
 31
0.0
  0
LINE
  5
17F
330
1F
100
AcDbEntity
  8
0
  6
Continuous
 62
     7
370
    30
100
AcDbLine
 10
129.4668231055
 20
109.2161236759
 30
0.0
 11
129.4668231055
 21
94.2161249425
 31
0.0
  0
LINE
  5
180
330
1F
100
AcDbEntity
  8
0
  6
Continuous
 62
     7
370
    30
100
AcDbLine
 10
146.1780087918
 20
100.979616722
 30
0.0
 11
146.0450829834
 21
100.7292436864
 31
0.0
  0
SPLINE
  5
181
330
1F
100
AcDbEntity
  8
0
  6
Continuous
 62
     7
370
    30
100
AcDbSpline
210
0.0
220
0.0
230
1.0
 70
     8
 71
     3
 72
     9
 73
     5
 74
     0
 42
0.000000001
 43
0.00000001
 40
0.0
 40
0.0
 40
0.0
 40
0.0
 40
0.499121784341466
 40
1.0
 40
1.0
 40
1.0
 40
1.0
 10
147.3495529860466
 20
100.8581126536512
 30
0.0
 10
147.2259181830859
 20
100.7837096084416
 30
0.0
 10
146.9782135009033
 20
100.6346416904629
 30
0.0
 10
146.6891454530692
 20
100.6173938347711
 30
0.0
 10
146.5443575650662
 20
100.6087547595882
 30
0.0
  0
SPLINE
  5
182
330
1F
100
AcDbEntity
  8
0
  6
Continuous
 62
     7
370
    30
100
AcDbSpline
210
0.0
220
0.0
230
1.0
 70
     8
 71
     3
 72
     9
 73
     5
 74
     0
 42
0.000000001
 43
0.00000001
 40
0.0
 40
0.0
 40
0.0
 40
0.0
 40
0.5003224211347599
 40
1.0
 40
1.0
 40
1.0
 40
1.0
 10
146.5990522772281
 20
102.9484978373432
 30
0.0
 10
146.7396766266502
 20
102.937677710923
 30
0.0
 10
147.020744081319
 20
102.9160514036398
 30
0.0
 10
147.2561137322083
 20
102.7620800572217
 30
0.0
 10
147.373722669503
 20
102.6851440276289
 30
0.0
  0
SPLINE
  5
183
330
1F
100
AcDbEntity
  8
0
  6
Continuous
 62
     7
370
    30
100
AcDbSpline
210
0.0
220
0.0
230
1.0
 70
     8
 71
     3
 72
    12
 73
     8
 74
     0
 42
0.000000001
 43
0.00000001
 40
0.0
 40
0.0
 40
0.0
 40
0.0
 40
0.2503861154168939
 40
0.5002706773128142
 40
0.7499358653324739
 40
0.8749477562389154
 40
1.0
 40
1.0
 40
1.0
 40
1.0
 10
147.1142263978927
 20
103.6584413106823
 30
0.0
 10
147.1759804274158
 20
103.7096836740572
 30
0.0
 10
147.2993647857093
 20
103.8120657561868
 30
0.0
 10
147.4318049585476
 20
104.0123958568683
 30
0.0
 10
147.4944199448329
 20
104.198124441881
 30
0.0
 10
147.5181439361916
 20
104.350662903198
 30
0.0
 10
147.5202329949832
 20
104.4272387849986
 30
0.0
 10
147.5212776929347
 20
104.4655329044247
 30
0.0
  0
SPLINE
  5
184
330
1F
100
AcDbEntity
  8
0
  6
Continuous
 62
     7
370
    30
100
AcDbSpline
210
0.0
220
0.0
230
1.0
 70
     8
 71
     3
 72
    12
 73
     8
 74
     0
 42
0.000000001
 43
0.00000001
 40
0.0
 40
0.0
 40
0.0
 40
0.0
 40
0.2496767794736895
 40
0.4993300738189449
 40
0.7492438974451412
 40
0.8745603499469614
 40
1.0
 40
1.0
 40
1.0
 40
1.0
 10
145.6895487278908
 20
104.4637373145008
 30
0.0
 10
145.693912142949
 20
104.3873336459918
 30
0.0
 10
145.7026385626333
 20
104.2345334956651
 30
0.0
 10
145.7831416353547
 20
104.012933677684
 30
0.0
 10
145.8946315296304
 20
103.8494512365976
 30
0.0
 10
146.003940061737
 20
103.7342588162667
 30
0.0
 10
146.0657032543602
 20
103.6837220888476
 30
0.0
 10
146.0966000229328
 20
103.6584413106823
 30
0.0
  0
SPLINE
  5
185
330
1F
100
AcDbEntity
  8
0
  6
Continuous
 62
     7
370
    30
100
AcDbSpline
210
0.0
220
0.0
230
1.0
 70
     8
 71
     3
 72
    13
 73
     9
 74
     0
 42
0.000000001
 43
0.00000001
 40
0.0
 40
0.0
 40
0.0
 40
0.0
 40
0.2491309646529905
 40
0.3735920492276867
 40
0.4993928921623709
 40
0.6241917926492653
 40
0.7501878975289014
 40
1.0
 40
1.0
 40
1.0
 40
1.0
 10
145.4046124488323
 20
104.4679282660866
 30
0.0
 10
145.4172666999151
 20
104.6199380688689
 30
0.0
 10
145.4362427738048
 20
104.8478890736878
 30
0.0
 10
145.5768311139405
 20
105.117397916208
 30
0.0
 10
145.7220028125142
 20
105.2943774789316
 30
0.0
 10
145.9015816674855
 20
105.441997981383
 30
0.0
 10
146.1796968917097
 20
105.5952901743963
 30
0.0
 10
146.4239626411998
 20
105.6183506053453
 30
0.0
 10
146.5863341361492
 20
105.6336796338939
 30
0.0
  0
SPLINE
  5
186
330
1F
100
AcDbEntity
  8
0
  6
Continuous
 62
     7
370
    30
100
AcDbSpline
210
0.0
220
0.0
230
1.0
 70
     8
 71
     3
 72
    14
 73
    10
 74
     0
 42
0.000000001
 43
0.00000001
 40
0.0
 40
0.0
 40
0.0
 40
0.0
 40
0.1254942811240937
 40
0.2509095400406481
 40
0.376206672567172
 40
0.5013691386915725
 40
0.6256110994875198
 40
0.7512584975832864
 40
1.0
 40
1.0
 40
1.0
 40
1.0
 10
146.5863341361492
 20
105.6336796338939
 30
0.0
 10
146.669248327236
 20
105.6297608000653
 30
0.0
 10
146.8350244993619
 20
105.6219256000494
 30
0.0
 10
147.0727034368624
 20
105.5508929655427
 30
0.0
 10
147.2900006956945
 20
105.4420666037528
 30
0.0
 10
147.4774483146698
 20
105.2937227998604
 30
0.0
 10
147.6245597259351
 20
105.111058248392
 30
0.0
 10
147.7713813603685
 20
104.8361911744266
 30
0.0
 10
147.7923094728581
 20
104.6016164230983
 30
0.0
 10
147.8062139719932
 20
104.445766514101
 30
0.0
  0
LINE
  5
187
330
1F
100
AcDbEntity
  8
0
  6
Continuous
 62
     7
370
    30
100
AcDbLine
 10
145.6895487279
 20
104.4798044916
 30
0.0
 11
145.6895487279
 21
104.4637373145
 31
0.0
  0
LINE
  5
188
330
1F
100
AcDbEntity
  8
0
  6
Continuous
 62
     7
370
    30
100
AcDbLine
 10
147.5212776929
 20
104.4816112574
 30
0.0
 11
147.5212776929
 21
104.4655329044
 31
0.0
  0
LINE
  5
189
330
1F
100
AcDbEntity
  8
0
  6
Continuous
 62
     7
370
    30
100
AcDbLine
 10
146.5863341361
 20
105.6565901692
 30
0.0
 11
146.5863341361
 21
105.6336796339
 31
0.0
  0
LINE
  5
18A
330
1F
100
AcDbEntity
  8
0
  6
Continuous
 62
     7
370
    30
100
AcDbLine
 10
147.806213972
 20
104.461729383
 30
0.0
 11
147.806213972
 21
104.4457665141
 31
0.0
  0
LINE
  5
18B
330
1F
100
AcDbEntity
  8
0
  6
Continuous
 62
     7
370
    30
100
AcDbLine
 10
145.4046124488
 20
104.4840215202
 30
0.0
 11
145.4046124488
 21
104.4679282661
 31
0.0
  0
LINE
  5
18C
330
1F
100
AcDbEntity
  8
0
  6
Continuous
 62
     7
370
    30
100
AcDbLine
 10
148.6203165621
 20
97.2044690009
 30
0.0
 11
148.2946777612
 21
97.2044690009
 31
0.0
  0
LINE
  5
18D
330
1F
100
AcDbEntity
  8
0
  6
Continuous
 62
     7
370
    30
100
AcDbLine
 10
148.2946777612
 20
98.5388866122
 30
0.0
 11
147.3177539081
 21
98.5388866122
 31
0.0
  0
LINE
  5
18E
330
1F
100
AcDbEntity
  8
0
  6
Continuous
 62
     7
370
    30
100
AcDbLine
 10
147.3177539081
 20
97.2044690009
 30
0.0
 11
146.9921113819
 21
97.2044690009
 31
0.0
  0
LINE
  5
18F
330
1F
100
AcDbEntity
  8
0
  6
Continuous
 62
     7
370
    30
100
AcDbLine
 10
146.9921113819
 20
98.5388866122
 30
0.0
 11
145.7709574968
 21
98.5388866122
 31
0.0
  0
LINE
  5
190
330
1F
100
AcDbEntity
  8
0
  6
Continuous
 62
     7
370
    30
100
AcDbLine
 10
145.7709574968
 20
97.2044690009
 30
0.0
 11
145.4453168333
 21
97.2044690009
 31
0.0
  0
LINE
  5
191
330
1F
100
AcDbEntity
  8
0
  6
Continuous
 62
     7
370
    30
100
AcDbLine
 10
146.9921113819
 20
98.5203067269
 30
0.0
 11
146.9921113819
 21
98.5388866122
 31
0.0
  0
LINE
  5
192
330
1F
100
AcDbEntity
  8
0
  6
Continuous
 62
     7
370
    30
100
AcDbLine
 10
145.7709574968
 20
98.5203067269
 30
0.0
 11
145.7709574968
 21
98.5388866122
 31
0.0
  0
LINE
  5
193
330
1F
100
AcDbEntity
  8
0
  6
Continuous
 62
     7
370
    30
100
AcDbLine
 10
148.2946777612
 20
98.5203067269
 30
0.0
 11
148.2946777612
 21
98.5388866122
 31
0.0
  0
LINE
  5
194
330
1F
100
AcDbEntity
  8
0
  6
Continuous
 62
     7
370
    30
100
AcDbLine
 10
147.3177539081
 20
98.5203067269
 30
0.0
 11
147.3177539081
 21
98.5388866122
 31
0.0
  0
SPLINE
  5
195
330
1F
100
AcDbEntity
  8
0
  6
Continuous
 62
     7
370
    30
100
AcDbSpline
210
0.0
220
0.0
230
1.0
 70
     8
 71
     3
 72
    12
 73
     8
 74
     0
 42
0.000000001
 43
0.00000001
 40
0.0
 40
0.0
 40
0.0
 40
0.0
 40
0.2492335213655721
 40
0.4987886287866201
 40
0.7485196105448896
 40
0.8741391829924596
 40
1.0
 40
1.0
 40
1.0
 40
1.0
 10
148.2539715141265
 20
106.2843425627136
 30
0.0
 10
148.2570463383657
 20
106.3122108563063
 30
0.0
 10
148.2631999542901
 20
106.3679834019557
 30
0.0
 10
148.3183314590771
 20
106.4394206574931
 30
0.0
 10
148.3842905634996
 20
106.4824508687986
 30
0.0
 10
148.4472314997611
 20
106.5008670982995
 30
0.0
 10
148.4803540565241
 20
106.5025904564942
 30
0.0
 10
148.4969312221019
 20
106.5034529621983
 30
0.0
  0
SPLINE
  5
196
330
1F
100
AcDbEntity
  8
0
  6
Continuous
 62
     7
370
    30
100
AcDbSpline
210
0.0
220
0.0
230
1.0
 70
     8
 71
     3
 72
    13
 73
     9
 74
     0
 42
0.000000001
 43
0.00000001
 40
0.0
 40
0.0
 40
0.0
 40
0.0
 40
0.2498317982204405
 40
0.3732411328254596
 40
0.5005891298169718
 40
0.7499369601471049
 40
0.8749053577026594
 40
0.9999999999999999
 40
0.9999999999999999
 40
0.9999999999999999
 40
0.9999999999999999
 10
148.4969312221019
 20
106.5034529621983
 30
0.0
 10
148.5303372183778
 20
106.500222733565
 30
0.0
 10
148.5802447641025
 20
106.4953968699122
 30
0.0
 10
148.6375114251021
 20
106.4660673584445
 30
0.0
 10
148.686294564413
 20
106.4286274847223
 30
0.0
 10
148.722454466894
 20
106.3803091029708
 30
0.0
 10
148.7402168814657
 20
106.3263494272863
 30
0.0
 10
148.7416930974391
 20
106.2983495628306
 30
0.0
 10
148.7424315780609
 20
106.2843425627136
 30
0.0
  0
LINE
  5
197
330
1F
100
AcDbEntity
  8
0
  6
Continuous
 62
     7
370
    30
100
AcDbLine
 10
145.4453168333
 20
106.4023821111
 30
0.0
 11
147.7655114502
 21
106.4023821111
 31
0.0
  0
LINE
  5
198
330
1F
100
AcDbEntity
  8
0
  6
Continuous
 62
     7
370
    30
100
AcDbLine
 10
148.4969312221
 20
106.5314485188
 30
0.0
 11
148.4969312221
 21
106.5034529622
 31
0.0
  0
LINE
  5
199
330
1F
100
AcDbEntity
  8
0
  6
Continuous
 62
     7
370
    30
100
AcDbLine
 10
148.7424315781
 20
106.3110603447
 30
0.0
 11
148.7424315781
 21
106.2843425627
 31
0.0
  0
LINE
  5
19A
330
1F
100
AcDbEntity
  8
0
  6
Continuous
 62
     7
370
    30
100
AcDbLine
 10
148.2539715141
 20
106.3110603447
 30
0.0
 11
148.2539715141
 21
106.2843425627
 31
0.0
  0
LINE
  5
19B
330
1F
100
AcDbEntity
  8
0
  6
Continuous
 62
     7
370
    30
100
AcDbLine
 10
146.8292938441
 20
96.0080678071
 30
0.0
 11
146.503651318
 21
96.0080678071
 31
0.0
  0
SPLINE
  5
19C
330
1F
100
AcDbEntity
  8
0
  6
Continuous
 62
     7
370
    30
100
AcDbSpline
210
0.0
220
0.0
230
1.0
 70
     8
 71
     3
 72
    12
 73
     8
 74
     0
 42
0.000000001
 43
0.00000001
 40
0.0
 40
0.0
 40
0.0
 40
0.0
 40
0.25056199887519
 40
0.500441818205705
 40
0.7500307132478533
 40
0.8749920907414508
 40
1.0
 40
1.0
 40
1.0
 40
1.0
 10
147.3470086127727
 20
108.1655396576309
 30
0.0
 10
147.4136779965673
 20
108.1294660857806
 30
0.0
 10
147.5468352502397
 20
108.0574171559069
 30
0.0
 10
147.6974202622672
 20
107.912736403877
 30
0.0
 10
147.7724995542175
 20
107.7708931025615
 30
0.0
 10
147.802014331464
 20
107.6499913269168
 30
0.0
 10
147.8048139181025
 20
107.5876076401111
 30
0.0
 10
147.8062139719932
 20
107.5564099903488
 30
0.0
  0
LINE
  5
19D
330
1F
100
AcDbEntity
  8
0
  6
Continuous
 62
     7
370
    30
100
AcDbLine
 10
145.4453168333
 20
107.1203163321
 30
0.0
 11
146.5367244452
 21
107.1203163321
 31
0.0
  0
LINE
  5
19E
330
1F
100
AcDbEntity
  8
0
  6
Continuous
 62
     7
370
    30
100
AcDbLine
 10
146.5367244452
 20
107.1203163321
 30
0.0
 11
147.064616707
 21
107.1462443526
 31
0.0
  0
SPLINE
  5
19F
330
1F
100
AcDbEntity
  8
0
  6
Continuous
 62
     7
370
    30
100
AcDbSpline
210
0.0
220
0.0
230
1.0
 70
     8
 71
     3
 72
    13
 73
     9
 74
     0
 42
0.000000001
 43
0.00000001
 40
0.0
 40
0.0
 40
0.0
 40
0.0
 40
0.2505486175234895
 40
0.3778030565493208
 40
0.5010854432764962
 40
0.749970341880575
 40
0.8749452916983961
 40
1.0
 40
1.0
 40
1.0
 40
1.0
 10
147.0646167069881
 20
107.1462443526172
 30
0.0
 10
147.130886237251
 20
107.1613848757636
 30
0.0
 10
147.2308142725238
 20
107.1842153187292
 30
0.0
 10
147.3430127012495
 20
107.2461346752767
 30
0.0
 10
147.4367017708637
 20
107.3223884641909
 30
0.0
 10
147.4936906941396
 20
107.4182754024366
 30
0.0
 10
147.5183230004659
 20
107.517575597937
 30
0.0
 10
147.5202925860151
 20
107.5674110268681
 30
0.0
 10
147.5212776929347
 20
107.5923366899872
 30
0.0
  0
LINE
  5
1A0
330
1F
100
AcDbEntity
  8
0
  6
Continuous
 62
     7
370
    30
100
AcDbLine
 10
145.4453168333
 20
108.3479447718
 30
0.0
 11
147.7655114502
 21
108.3479447718
 31
0.0
  0
LINE
  5
1A1
330
1F
100
AcDbEntity
  8
0
  6
Continuous
 62
     7
370
    30
100
AcDbLine
 10
147.064616707
 20
107.1779987271
 30
0.0
 11
147.064616707
 21
107.1462443526
 31
0.0
  0
LINE
  5
1A2
330
1F
100
AcDbEntity
  8
0
  6
Continuous
 62
     7
370
    30
100
AcDbLine
 10
146.5367244452
 20
107.151921695
 30
0.0
 11
146.5367244452
 21
107.1203163321
 31
0.0
  0
LINE
  5
1A3
330
1F
100
AcDbEntity
  8
0
  6
Continuous
 62
     7
370
    30
100
AcDbLine
 10
147.5212776929
 20
107.6266987677
 30
0.0
 11
147.5212776929
 21
107.59233669
 31
0.0
  0
LINE
  5
1A4
330
1F
100
AcDbEntity
  8
0
  6
Continuous
 62
     7
370
    30
100
AcDbLine
 10
147.3470086128
 20
108.2032582219
 30
0.0
 11
147.3470086128
 21
108.1655396576
 31
0.0
  0
LINE
  5
1A5
330
1F
100
AcDbEntity
  8
0
  6
Continuous
 62
     7
370
    30
100
AcDbLine
 10
147.806213972
 20
107.5905634518
 30
0.0
 11
147.806213972
 21
107.5564099903
 31
0.0
  0
SPLINE
  5
1A6
330
1F
100
AcDbEntity
  8
0
  6
Continuous
 62
     7
370
    30
100
AcDbSpline
210
0.0
220
0.0
230
1.0
 70
     8
 71
     3
 72
    13
 73
     9
 74
     0
 42
0.000000001
 43
0.00000001
 40
0.0
 40
0.0
 40
0.0
 40
0.0
 40
0.2488207170339883
 40
0.3734461193216939
 40
0.4990836803388748
 40
0.6244516103953932
 40
0.749911973815636
 40
1.0
 40
1.0
 40
1.0
 40
1.0
 10
148.70172905626
 20
94.68622491315843
 30
0.0
 10
148.6821301760505
 20
94.56475501258438
 30
0.0
 10
148.6527149173673
 20
94.38244518113423
 30
0.0
 10
148.443030711514
 20
94.19222243667014
 30
0.0
 10
148.2324215380423
 20
94.07433414280543
 30
0.0
 10
147.9788236663073
 20
93.9811477159711
 30
0.0
 10
147.588673158074
 20
93.89185245498
 30
0.0
 10
147.2557744082397
 20
93.87971506800444
 30
0.0
 10
147.0340879529923
 20
93.87163244740007
 30
0.0
  0
SPLINE
  5
1A7
330
1F
100
AcDbEntity
  8
0
  6
Continuous
 62
     7
370
    30
100
AcDbSpline
210
0.0
220
0.0
230
1.0
 70
     8
 71
     3
 72
    12
 73
     8
 74
     0
 42
0.000000001
 43
0.00000001
 40
0.0
 40
0.0
 40
0.0
 40
0.0
 40
0.2504599886075591
 40
0.5003834359931184
 40
0.6279561471697167
 40
0.7510126423747435
 40
0.9999999999999999
 40
0.9999999999999999
 40
0.9999999999999999
 40
0.9999999999999999
 10
147.0340879529923
 20
93.87163244740007
 30
0.0
 10
146.8144529033094
 20
93.87985859297314
 30
0.0
 10
146.3756533112633
 20
93.8962932618786
 30
0.0
 10
145.9117423518935
 20
94.03377601920197
 30
0.0
 10
145.6312725482748
 20
94.18671184534773
 30
0.0
 10
145.4164246891185
 20
94.37304333455815
 30
0.0
 10
145.3849633276377
 20
94.55205684260609
 30
0.0
 10
145.3639080643862
 20
94.67186019376751
 30
0.0
  0
SPLINE
  5
1A8
330
1F
100
AcDbEntity
  8
0
  6
Continuous
 62
     7
370
    30
100
AcDbSpline
210
0.0
220
0.0
230
1.0
 70
     8
 71
     3
 72
    12
 73
     8
 74
     0
 42
0.000000001
 43
0.00000001
 40
0.0
 40
0.0
 40
0.0
 40
0.0
 40
0.2502659904480016
 40
0.3733445685234815
 40
0.50138654256473
 40
0.7508482079435025
 40
1.0
 40
1.0
 40
1.0
 40
1.0
 10
147.0200957626313
 20
95.54282188967703
 30
0.0
 10
146.8417141512305
 20
95.53032666813115
 30
0.0
 10
146.5756060571113
 20
95.51168640826879
 30
0.0
 10
146.2651939198415
 20
95.38891046511651
 30
0.0
 10
146.0000600317654
 20
95.2341200925692
 30
0.0
 10
145.7404310145978
 20
94.98860607645524
 30
0.0
 10
145.7065024616002
 20
94.78170448743917
 30
0.0
 10
145.6895487278908
 20
94.67831798449991
 30
0.0
  0
SPLINE
  5
1A9
330
1F
100
AcDbEntity
  8
0
  6
Continuous
 62
     7
370
    30
100
AcDbSpline
210
0.0
220
0.0
230
1.0
 70
     8
 71
     3
 72
    12
 73
     8
 74
     0
 42
0.000000001
 43
0.00000001
 40
0.0
 40
0.0
 40
0.0
 40
0.0
 40
0.2489910924495592
 40
0.4985208667047943
 40
0.624172098870943
 40
0.7508201071522063
 40
1.0
 40
1.0
 40
1.0
 40
1.0
 10
148.3760865301102
 20
94.67831798449994
 30
0.0
 10
148.3555121655457
 20
94.78203994368047
 30
0.0
 10
148.31431892464
 20
94.9897082601584
 30
0.0
 10
148.0570845595225
 20
95.23789375734607
 30
0.0
 10
147.7843826608275
 20
95.39128426367976
 30
0.0
 10
147.4688190282681
 20
95.51185906190892
 30
0.0
 10
147.1989940361044
 20
95.53047754104671
 30
0.0
 10
147.0200957626313
 20
95.54282188967704
 30
0.0
  0
LINE
  5
1AA
330
1F
100
AcDbEntity
  8
0
  6
Continuous
 62
     7
370
    30
100
AcDbLine
 10
148.3760865301
 20
94.6783179845
 30
0.0
 11
148.3760865301
 21
94.6371609773
 31
0.0
  0
SPLINE
  5
1AB
330
1F
100
AcDbEntity
  8
0
  6
Continuous
 62
     7
370
    30
100
AcDbSpline
210
0.0
220
0.0
230
1.0
 70
     8
 71
     3
 72
    12
 73
     8
 74
     0
 42
0.000000001
 43
0.00000001
 40
0.0
 40
0.0
 40
0.0
 40
0.0
 40
0.2496541967071665
 40
0.4994752081167989
 40
0.6250612622883471
 40
0.7515038527231434
 40
1.0
 40
1.0
 40
1.0
 40
1.0
 10
148.3760865301102
 20
94.63716097728253
 30
0.0
 10
148.3555372837322
 20
94.74145855035113
 30
0.0
 10
148.3144250603181
 20
94.95012338635877
 30
0.0
 10
148.0573472965378
 20
95.199843300186
 30
0.0
 10
147.7845045171943
 20
95.3542347922533
 30
0.0
 10
147.4690467472736
 20
95.47552389557232
 30
0.0
 10
147.1990440260122
 20
95.49428554384396
 30
0.0
 10
147.0200957626313
 20
95.50672010139465
 30
0.0
  0
LINE
  5
1AC
330
1F
100
AcDbEntity
  8
0
  6
Continuous
 62
     7
370
    30
100
AcDbLine
 10
147.0200957626
 20
95.5428218897
 30
0.0
 11
147.0200957626
 21
95.5067201014
 31
0.0
  0
SPLINE
  5
1AD
330
1F
100
AcDbEntity
  8
0
  6
Continuous
 62
     7
370
    30
100
AcDbSpline
210
0.0
220
0.0
230
1.0
 70
     8
 71
     3
 72
    12
 73
     8
 74
     0
 42
0.000000001
 43
0.00000001
 40
0.0
 40
0.0
 40
0.0
 40
0.0
 40
0.2495732431857635
 40
0.3724573302393878
 40
0.5004389463894221
 40
0.7501847899924488
 40
1.0
 40
1.0
 40
1.0
 40
1.0
 10
147.0200957626313
 20
95.50672010139463
 30
0.0
 10
146.8416604865906
 20
95.49413114159435
 30
0.0
 10
146.5753678115974
 20
95.47534366943647
 30
0.0
 10
146.2650749675536
 20
95.35184850686862
 30
0.0
 10
145.9998133462673
 20
95.19605380439839
 30
0.0
 10
145.7403215139162
 20
94.94901376733075
 30
0.0
 10
145.7064745565024
 20
94.7411215295706
 30
0.0
 10
145.6895487278908
 20
94.6371609772825
 30
0.0
  0
LINE
  5
1AE
330
1F
100
AcDbEntity
  8
0
  6
Continuous
 62
     7
370
    30
100
AcDbLine
 10
145.6895487279
 20
94.6783179845
 30
0.0
 11
145.6895487279
 21
94.6371609773
 31
0.0
  0
SPLINE
  5
1AF
330
1F
100
AcDbEntity
  8
0
  6
Continuous
 62
     7
370
    30
100
AcDbSpline
210
0.0
220
0.0
230
1.0
 70
     8
 71
     3
 72
    12
 73
     8
 74
     0
 42
0.000000001
 43
0.00000001
 40
0.0
 40
0.0
 40
0.0
 40
0.0
 40
0.2495369230828816
 40
0.3747534793478313
 40
0.5003977223018701
 40
0.7502916427152603
 40
1.0
 40
1.0
 40
1.0
 40
1.0
 10
147.0347249776333
 20
93.94340761558054
 30
0.0
 10
147.2144497014965
 20
93.951198767068
 30
0.0
 10
147.484359519893
 20
93.9628994849096
 30
0.0
 10
147.7982211274554
 20
94.04287756107193
 30
0.0
 10
148.0665390871503
 20
94.1516426838969
 30
0.0
 10
148.3158986616573
 20
94.34084426365503
 30
0.0
 10
148.3560288757034
 20
94.53841319987026
 30
0.0
 10
148.3760865301102
 20
94.63716097728253
 30
0.0
  0
SPLINE
  5
1B0
330
1F
100
AcDbEntity
  8
0
  6
Continuous
 62
     7
370
    30
100
AcDbSpline
210
0.0
220
0.0
230
1.0
 70
     8
 71
     3
 72
    12
 73
     8
 74
     0
 42
0.000000001
 43
0.00000001
 40
0.0
 40
0.0
 40
0.0
 40
0.0
 40
0.249853126841331
 40
0.499571414463377
 40
0.6249583465870047
 40
0.750385611840678
 40
1.0
 40
1.0
 40
1.0
 40
1.0
 10
145.6895487278908
 20
94.6371609772825
 30
0.0
 10
145.7075346190543
 20
94.53781721062674
 30
0.0
 10
145.7434966948644
 20
94.33918329055638
 30
0.0
 10
145.9943373669696
 20
94.14907821478141
 30
0.0
 10
146.2667755718935
 20
94.0417090598901
 30
0.0
 10
146.5832846068396
 20
93.96273724259802
 30
0.0
 10
146.8543280800664
 20
93.95113179128718
 30
0.0
 10
147.0347249776334
 20
93.94340761558055
 30
0.0
  0
LINE
  5
1B1
330
1F
100
AcDbEntity
  8
0
  6
Continuous
 62
     7
370
    30
100
AcDbLine
 10
147.034087953
 20
93.8257592227
 30
0.0
 11
147.034087953
 21
93.8716324474
 31
0.0
  0
LINE
  5
1B2
330
1F
100
AcDbEntity
  8
0
  6
Continuous
 62
     7
370
    30
100
AcDbLine
 10
148.7017290563
 20
94.6451144721
 30
0.0
 11
148.7017290563
 21
94.6862249132
 31
0.0
  0
LINE
  5
1B3
330
1F
100
AcDbEntity
  8
0
  6
Continuous
 62
     7
370
    30
100
AcDbLine
 10
145.3639080644
 20
94.6306659336
 30
0.0
 11
145.3639080644
 21
94.6718601938
 31
0.0
  0
SPLINE
  5
1B4
330
1F
100
AcDbEntity
  8
0
  6
Continuous
 62
     7
370
    30
100
AcDbSpline
210
0.0
220
0.0
230
1.0
 70
     8
 71
     3
 72
    11
 73
     7
 74
     0
 42
0.000000001
 43
0.00000001
 40
0.0
 40
0.0
 40
0.0
 40
0.0
 40
0.2494387019443617
 40
0.4991077247136644
 40
0.749165542366266
 40
1.0
 40
1.0
 40
1.0
 40
1.0
 10
145.6895487278907
 20
109.2947943563843
 30
0.0
 10
145.6971820172865
 20
109.258262074783
 30
0.0
 10
145.7124556443249
 20
109.185163779264
 30
0.0
 10
145.8273236861058
 20
109.0807635535037
 30
0.0
 10
146.0026659086394
 20
108.9967891702904
 30
0.0
 10
146.1508614494798
 20
108.9695047370516
 30
0.0
 10
146.2250741094558
 20
108.9558413679981
 30
0.0
  0
SPLINE
  5
1B5
330
1F
100
AcDbEntity
  8
0
  6
Continuous
 62
     7
370
    30
100
AcDbSpline
210
0.0
220
0.0
230
1.0
 70
     8
 71
     3
 72
     9
 73
     5
 74
     0
 42
0.000000001
 43
0.00000001
 40
0.0
 40
0.0
 40
0.0
 40
0.0
 40
0.499615459314777
 40
1.0
 40
1.0
 40
1.0
 40
1.0
 10
146.2250741094558
 20
108.9558413679981
 30
0.0
 10
146.306785367621
 20
108.9498959700828
 30
0.0
 10
146.4703336659008
 20
108.9379960222242
 30
0.0
 10
146.6353953204105
 20
108.9384213997644
 30
0.0
 10
146.7179896205871
 20
108.9386342521095
 30
0.0
  0
LINE
  5
1B6
330
1F
100
AcDbEntity
  8
0
  6
Continuous
 62
     7
370
    30
100
AcDbLine
 10
146.7179896206
 20
108.9386342521
 30
0.0
 11
148.6203165621
 21
108.9386342521
 31
0.0
  0
SPLINE
  5
1B7
330
1F
100
AcDbEntity
  8
0
  6
Continuous
 62
     7
370
    30
100
AcDbSpline
210
0.0
220
0.0
230
1.0
 70
     8
 71
     3
 72
    11
 73
     7
 74
     0
 42
0.000000001
 43
0.00000001
 40
0.0
 40
0.0
 40
0.0
 40
0.0
 40
0.2499275920000576
 40
0.4996458780578084
 40
0.7495957482624852
 40
1.0
 40
1.0
 40
1.0
 40
1.0
 10
145.3639080643861
 20
109.2874629850769
 30
0.0
 10
145.3704546425876
 20
109.3361240415924
 30
0.0
 10
145.3835423164517
 20
109.4334054026271
 30
0.0
 10
145.5169943386339
 20
109.5555398082663
 30
0.0
 10
145.7336361807769
 20
109.6505442659598
 30
0.0
 10
145.9335749816634
 20
109.6797568753879
 30
0.0
 10
146.0336351663081
 20
109.6943764443779
 30
0.0
  0
SPLINE
  5
1B8
330
1F
100
AcDbEntity
  8
0
  6
Continuous
 62
     7
370
    30
100
AcDbSpline
210
0.0
220
0.0
230
1.0
 70
     8
 71
     3
 72
    10
 73
     6
 74
     0
 42
0.000000001
 43
0.00000001
 40
0.0
 40
0.0
 40
0.0
 40
0.0
 40
0.3257264443113042
 40
0.6643846836429774
 40
1.0
 40
1.0
 40
1.0
 40
1.0
 10
146.0336351663081
 20
109.6943764443779
 30
0.0
 10
146.1053443082916
 20
109.6995898802127
 30
0.0
 10
146.2516095454042
 20
109.7102237325705
 30
0.0
 10
146.4763372181362
 20
109.7133660463455
 30
0.0
 10
146.6274887033941
 20
109.7140811796447
 30
0.0
 10
146.702723380944
 20
109.7144371326351
 30
0.0
  0
LINE
  5
1B9
330
1F
100
AcDbEntity
  8
0
  6
Continuous
 62
     7
370
    30
100
AcDbLine
 10
146.7027233809
 20
109.7144371326
 30
0.0
 11
148.6203165621
 21
109.7144371326
 31
0.0
  0
LINE
  5
1BA
330
1F
100
AcDbEntity
  8
0
  6
Continuous
 62
     7
370
    30
100
AcDbLine
 10
146.7179896206
 20
108.9808715935
 30
0.0
 11
146.7179896206
 21
108.9386342521
 31
0.0
  0
LINE
  5
1BB
330
1F
100
AcDbEntity
  8
0
  6
Continuous
 62
     7
370
    30
100
AcDbLine
 10
146.2250741095
 20
108.9981792922
 30
0.0
 11
146.2250741095
 21
108.955841368
 31
0.0
  0
SPLINE
  5
1BC
330
1F
100
AcDbEntity
  8
0
  6
Continuous
 62
     7
370
    30
100
AcDbSpline
210
0.0
220
0.0
230
1.0
 70
    24
 71
     3
 72
     9
 73
     5
 74
     0
 42
0.000000001
 43
0.00000001
 40
0.0
 40
0.0
 40
0.0
 40
0.0
 40
0.4999842233800469
 40
1.0
 40
1.0
 40
1.0
 40
1.0
 10
145.6895487278907
 20
109.3391141350651
 30
0.0
 10
145.6895487278907
 20
109.3317283200592
 30
0.0
 10
145.6895487278907
 20
109.31695622394
 30
0.0
 10
145.6895487278907
 20
109.3021818009632
 30
0.0
 10
145.6895487278907
 20
109.2947943563843
 30
0.0
  0
LINE
  5
1BD
330
1F
100
AcDbEntity
  8
0
  6
Continuous
 62
     7
370
    30
100
AcDbLine
 10
179.9668202073
 20
105.9661245401
 30
0.0
 11
179.9668202073
 21
97.4661240782
 31
0.0
  0
LINE
  5
1BE
330
1F
100
AcDbEntity
  8
0
  6
Continuous
 62
     7
370
    30
100
AcDbLine
 10
146.0336351663
 20
109.7410319801
 30
0.0
 11
146.0336351663
 21
109.6943764444
 31
0.0
  0
LINE
  5
1BF
330
1F
100
AcDbEntity
  8
0
  6
Continuous
 62
     7
370
    30
100
AcDbLine
 10
145.3639080644
 20
109.3317417856
 30
0.0
 11
145.3639080644
 21
109.2874629851
 31
0.0
  0
LINE
  5
1C0
330
1F
100
AcDbEntity
  8
0
  6
Continuous
 62
     7
370
    30
100
AcDbLine
 10
84.4668222487
 20
104.8911249693
 30
0.0
 11
84.4668222487
 21
98.5411255117
 31
0.0
  0
LINE
  5
1C1
330
1F
100
AcDbEntity
  8
0
  6
Continuous
 62
     7
370
    30
100
AcDbLine
 10
146.7027233809
 20
109.7612081523
 30
0.0
 11
146.7027233809
 21
109.7144371326
 31
0.0
  0
SPLINE
  5
1C2
330
1F
100
AcDbEntity
  8
0
  6
Continuous
 62
     7
370
    30
100
AcDbSpline
210
0.0
220
0.0
230
1.0
 70
     8
 71
     3
 72
    12
 73
     8
 74
     0
 42
0.000000001
 43
0.00000001
 40
0.0
 40
0.0
 40
0.0
 40
0.0
 40
0.3026266377252437
 40
0.6095529629106731
 40
0.7439958870566946
 40
0.8792806991943264
 40
0.9999999999999999
 40
0.9999999999999999
 40
0.9999999999999999
 40
0.9999999999999999
 10
129.1004771262616
 20
97.64486723200301
 30
0.0
 10
129.101921258148
 20
97.71424309070945
 30
0.0
 10
129.1048300399949
 20
97.8539804930308
 30
0.0
 10
129.1593871572607
 20
98.02924567195976
 30
0.0
 10
129.2573570329953
 20
98.13916273201328
 30
0.0
 10
129.35050912716
 20
98.19214441282847
 30
0.0
 10
129.4210505496037
 20
98.19856667261651
 30
0.0
 10
129.4543145120352
 20
98.20159510330181
 30
0.0
  0
SPLINE
  5
1C3
330
1F
100
AcDbEntity
  8
0
  6
Continuous
 62
     7
370
    30
100
AcDbSpline
210
0.0
220
0.0
230
1.0
 70
     8
 71
     3
 72
    13
 73
     9
 74
     0
 42
0.000000001
 43
0.00000001
 40
0.0
 40
0.0
 40
0.0
 40
0.0
 40
0.1052645857605947
 40
0.2107447493208879
 40
0.3214124481142926
 40
0.5294487052378796
 40
0.9050607130316912
 40
0.9999999999999999
 40
0.9999999999999999
 40
0.9999999999999999
 40
0.9999999999999999
 10
129.4543145120352
 20
97.08898872689228
 30
0.0
 10
129.4241282240976
 20
97.0914078055005
 30
0.0
 10
129.3636938278725
 20
97.09625091689631
 30
0.0
 10
129.2837745284626
 20
97.13518662247638
 30
0.0
 10
129.2015548260962
 20
97.20563718312313
 30
0.0
 10
129.1208036735482
 20
97.35264810888167
 30
0.0
 10
129.1018626505888
 20
97.51110730064813
 30
0.0
 10
129.1007097396701
 20
97.62241049635074
 30
0.0
 10
129.1004771262616
 20
97.64486723200301
 30
0.0
  0
LINE
  5
1C4
330
1F
100
AcDbEntity
  8
0
  6
Continuous
 62
     7
370
    30
100
AcDbLine
 10
126.4668226138
 20
109.066124862
 30
0.0
 11
126.4668226138
 21
94.366125619
 31
0.0
  0
LINE
  5
1C5
330
1F
100
AcDbEntity
  8
0
  6
Continuous
 62
     7
370
    30
100
AcDbLine
 10
129.4668231055
 20
101.8161250706
 30
0.0
 11
129.3668232754
 21
101.8161250706
 31
0.0
  0
LINE
  5
1C6
330
1F
100
AcDbEntity
  8
0
  6
Continuous
 62
     7
370
    30
100
AcDbLine
 10
129.3668232754
 20
101.8161250706
 30
0.0
 11
129.3668232754
 21
98.6161249186
 31
0.0
  0
LINE
  5
1C7
330
1F
100
AcDbEntity
  8
0
  6
Continuous
 62
     7
370
    30
100
AcDbLine
 10
129.4668231055
 20
98.6161249186
 30
0.0
 11
129.3668232754
 21
98.6161249186
 31
0.0
  0
LINE
  5
1C8
330
1F
100
AcDbEntity
  8
0
  6
Continuous
 62
     7
370
    30
100
AcDbLine
 10
129.3668232754
 20
101.6161254104
 30
0.0
 11
129.4668231055
 21
101.6161254104
 31
0.0
  0
SPLINE
  5
1C9
330
1F
100
AcDbEntity
  8
0
  6
Continuous
 62
     7
370
    30
100
AcDbSpline
210
0.0
220
0.0
230
1.0
 70
     8
 71
     3
 72
    12
 73
     8
 74
     0
 42
0.000000001
 43
0.00000001
 40
0.0
 40
0.0
 40
0.0
 40
0.0
 40
0.3386130947650804
 40
0.5953459482672985
 40
0.739573697278529
 40
0.884858870593241
 40
1.0
 40
1.0
 40
1.0
 40
1.0
 10
129.195455265066
 20
97.64529191509703
 30
0.0
 10
129.1966798557367
 20
97.5826348440897
 30
0.0
 10
129.1988329180529
 20
97.47247184705502
 30
0.0
 10
129.2369685075649
 20
97.34000752147172
 30
0.0
 10
129.3010266266306
 20
97.25634165138231
 30
0.0
 10
129.3732412156462
 20
97.20759224448237
 30
0.0
 10
129.4316645348868
 20
97.20061790627096
 30
0.0
 10
129.4574949786275
 20
97.1975343729637
 30
0.0
  0
SPLINE
  5
1CA
330
1F
100
AcDbEntity
  8
0
  6
Continuous
 62
     7
370
    30
100
AcDbSpline
210
0.0
220
0.0
230
1.0
 70
     8
 71
     3
 72
    12
 73
     8
 74
     0
 42
0.000000001
 43
0.00000001
 40
0.0
 40
0.0
 40
0.0
 40
0.0
 40
0.1137370635657676
 40
0.2279369320882684
 40
0.3494854685975831
 40
0.5584262182362261
 40
1.0
 40
1.0
 40
1.0
 40
1.0
 10
129.4574949786275
 20
98.09304759458523
 30
0.0
 10
129.4327331096771
 20
98.09046258551605
 30
0.0
 10
129.3831086138057
 20
98.08528204877481
 30
0.0
 10
129.3184491213213
 20
98.04734960965413
 30
0.0
 10
129.2561381443144
 20
97.98293882528894
 30
0.0
 10
129.1975053168932
 20
97.84490246310732
 30
0.0
 10
129.1962841807565
 20
97.72600222350542
 30
0.0
 10
129.195455265066
 20
97.64529191509703
 30
0.0
  0
LINE
  5
1CB
330
1F
100
AcDbEntity
  8
0
  6
Continuous
 62
     7
370
    30
100
AcDbLine
 10
111.4668229491
 20
106.71612606
 30
0.0
 11
111.4668229491
 21
96.7161244209
 31
0.0
  0
DIMENSION
  5
1CC
330
1F
100
AcDbEntity
  8
DIM
100
AcDbDimension
  2
_D
 10
111.4668230218
 20
85.7161249205
 30
0.0
 11
97.9668230218
 21
85.7161249205
 31
0.0
 70
   160
  1
<>
 71
     2
 42
-1.0
  3
SLDDIMSTYLE0
100
AcDbAlignedDimension
 13
84.4668230218
 23
98.5411249205
 33
0.0
 14
111.4668230218
 24
96.7161249205
 34
0.0
 50
0.0
100
AcDbRotatedDimension
  0
DIMENSION
  5
1D7
330
1F
100
AcDbEntity
  8
DIM
100
AcDbDimension
  2
_D_1
 10
126.4668230218
 20
85.7161249205
 30
0.0
 11
118.9668230218
 21
85.7161249205
 31
0.0
 70
   160
  1
<>
 71
     2
 42
-1.0
  3
SLDDIMSTYLE0
100
AcDbAlignedDimension
 13
111.4668230218
 23
96.7161249205
 33
0.0
 14
126.4668230218
 24
94.3661249205
 34
0.0
 50
0.0
100
AcDbRotatedDimension
  0
DIMENSION
  5
1E1
330
1F
100
AcDbEntity
  8
DIM
100
AcDbDimension
  2
_D_2
 10
176.4668230218
 20
85.7161249205
 30
0.0
 11
151.4668230218
 21
85.7161249205
 31
0.0
 70
   160
  1
<>
 71
     2
 42
-1.0
  3
SLDDIMSTYLE0
100
AcDbAlignedDimension
 13
126.4668230218
 23
94.3661249205
 33
0.0
 14
176.4668230218
 24
97.4661249205
 34
0.0
 50
0.0
100
AcDbRotatedDimension
  0
DIMENSION
  5
1EB
330
1F
100
AcDbEntity
  8
DIM
100
AcDbDimension
  2
_D_3
 10
179.9668230218
 20
85.7161249205
 30
0.0
 11
185.654548726
 21
85.7161249205
 31
0.0
 70
   160
  1
<>
 71
     2
 42
-1.0
  3
SLDDIMSTYLE1
100
AcDbAlignedDimension
 13
176.4668230218
 23
97.4661249205
 33
0.0
 14
179.9668230218
 24
97.4661249205
 34
0.0
 50
0.0
100
AcDbRotatedDimension
  0
DIMENSION
  5
1F8
330
1F
100
AcDbEntity
  8
DIM
100
AcDbDimension
  2
_D_4
 10
84.4668230218
 20
80.7161249205
 30
0.0
 11
132.2168230218
 21
80.7161249205
 31
0.0
 70
   160
  1
<>
 71
     2
 42
-1.0
  3
SLDDIMSTYLE0
100
AcDbAlignedDimension
 13
179.9668230218
 23
97.4661249205
 33
0.0
 14
84.4668230218
 24
98.5411249205
 34
0.0
 50
0.0
100
AcDbRotatedDimension
  0
DIMENSION
  5
202
330
1F
100
AcDbEntity
  8
DIM
100
AcDbDimension
  2
_D_5
 10
77.4668230218
 20
98.5411249205
 30
0.0
 11
77.4668230218
 21
90.6000311851
 31
0.0
 70
   160
  1
%%c<>
 71
     2
 42
-1.0
  3
SLDDIMSTYLE0
100
AcDbAlignedDimension
 13
84.4668230218
 23
104.8911249205
 33
0.0
 14
84.4668230218
 24
98.5411249205
 34
0.0
 50
90.0
100
AcDbRotatedDimension
  0
DIMENSION
  5
20E
330
1F
100
AcDbEntity
  8
DIM
100
AcDbDimension
  2
_D_6
 10
72.4668230218
 20
96.7161249205
 30
0.0
 11
72.4668230218
 21
101.7161249205
 31
0.0
 70
   160
  1
%%c<>
 71
     2
 42
-1.0
  3
SLDDIMSTYLE0
100
AcDbAlignedDimension
 13
111.4668230218
 23
106.7161249205
 33
0.0
 14
111.4668230218
 24
96.7161249205
 34
0.0
 50
90.0
100
AcDbRotatedDimension
  0
DIMENSION
  5
219
330
1F
100
AcDbEntity
  8
DIM
100
AcDbDimension
  2
_D_7
 10
186.9668230218
 20
92.7161249205
 30
0.0
 11
186.9668230218
 21
101.7161249205
 31
0.0
 70
   160
  1
%%c<>
 71
     2
 42
-1.0
  3
SLDDIMSTYLE0
100
AcDbAlignedDimension
 13
175.4453176455
 23
110.7161249205
 33
0.0
 14
175.4453176455
 24
92.7161249205
 34
0.0
 50
90.0
100
AcDbRotatedDimension
  0
LINE
  5
224
330
1F
100
AcDbEntity
  8
0
  6
Continuous
 62
     7
370
    30
100
AcDbLine
 10
257.9851243007
 20
134.6398911997
 30
0.0
 11
244.5653020556
 21
142.3869896802
 31
0.0
  0
LINE
  5
225
330
1F
100
AcDbEntity
  8
0
  6
Continuous
 62
     7
370
    30
100
AcDbLine
 10
235.5660334619
 20
126.7981101574
 30
0.0
 11
248.985855707
 21
119.0510116769
 31
0.0
  0
LINE
  5
226
330
1F
100
AcDbEntity
  8
0
  6
Continuous
 62
     7
370
    30
100
AcDbLine
 10
258.8075044235
 20
128.68046227
 30
0.0
 11
256.3326306893
 21
130.1091764657
 31
0.0
  0
LINE
  5
227
330
1F
100
AcDbEntity
  8
0
  6
Continuous
 62
     7
370
    30
100
AcDbLine
 10
252.0829760756
 20
122.7477611354
 30
0.0
 11
254.5578498098
 21
121.3190469397
 31
0.0
  0
LINE
  5
228
330
1F
100
AcDbEntity
  8
0
  6
Continuous
 62
     7
370
    30
100
AcDbLine
 10
243.0385605884
 20
142.8064910643
 30
0.0
 11
229.8696292948
 21
150.4087532814
 31
0.0
  0
LINE
  5
229
330
1F
100
AcDbEntity
  8
0
  6
Continuous
 62
     7
370
    30
100
AcDbLine
 10
229.4698138897
 20
130.779250511
 30
0.0
 11
234.4392594877
 21
127.9104506314
 31
0.0
  0
LINE
  5
22A
330
1F
100
AcDbEntity
  8
0
  6
Continuous
 62
     7
370
    30
100
AcDbLine
 10
221.2703281941
 20
135.5127128485
 30
0.0
 11
228.7092218265
 21
131.218330963
 31
0.0
  0
LINE
  5
22B
330
1F
100
AcDbEntity
  8
0
  6
Continuous
 62
     7
370
    30
100
AcDbLine
 10
207.9017963165
 20
156.8264325795
 30
0.0
 11
190.7413505014
 21
166.7329470825
 31
0.0
  0
LINE
  5
22C
330
1F
100
AcDbEntity
  8
0
  6
Continuous
 62
     7
370
    30
100
AcDbLine
 10
187.5666085252
 20
161.2335368063
 30
0.0
 11
204.7270543404
 21
151.3270223033
 31
0.0
  0
LWPOLYLINE
  5
22D
330
1F
100
AcDbEntity
  8
0
  6
Continuous
 62
     7
370
    30
100
AcDbPolyline
 90
        3
 70
   128
 43
0.0
 10
229.2071021344
 20
141.5253786851
 10
229.1952120338
 20
141.5342314259
 10
229.1833219252
 20
141.543084378
  0
LINE
  5
22E
330
1F
100
AcDbEntity
  8
0
  6
Continuous
 62
     7
370
    30
100
AcDbLine
 10
229.3240889787
 20
150.6523214396
 30
0.0
 11
224.2477180106
 21
152.3218399877
 31
0.0
  0
LINE
  5
22F
330
1F
100
AcDbEntity
  8
0
  6
Continuous
 62
     7
370
    30
100
AcDbLine
 10
216.802223773
 20
139.4244682237
 30
0.0
 11
220.7865889196
 21
135.8633351502
 31
0.0
  0
LINE
  5
230
330
1F
100
AcDbEntity
  8
0
  6
Continuous
 62
     7
370
    30
100
AcDbLine
 10
223.9021847912
 20
152.4103490895
 30
0.0
 11
222.5271656656
 21
153.2041307346
 31
0.0
  0
LINE
  5
231
330
1F
100
AcDbEntity
  8
0
  6
Continuous
 62
     7
370
    30
100
AcDbLine
 10
215.1777629807
 20
140.4732124576
 30
0.0
 11
216.5527821064
 21
139.6794308125
 31
0.0
  0
LINE
  5
232
330
1F
100
AcDbEntity
  8
0
  6
Continuous
 62
     7
370
    30
100
AcDbLine
 10
218.6584155313
 20
152.7240398847
 30
0.0
 11
210.7456594369
 21
157.2919767467
 31
0.0
  0
LINE
  5
233
330
1F
100
AcDbEntity
  8
0
  6
Continuous
 62
     7
370
    30
100
AcDbLine
 10
205.7460657738
 20
148.6314881229
 30
0.0
 11
213.6588218681
 21
144.0635512609
 31
0.0
  0
LWPOLYLINE
  5
234
330
1F
100
AcDbEntity
  8
0
  6
Continuous
 62
     7
370
    30
100
AcDbPolyline
 90
       22
 70
   128
 43
0.0
 10
256.3326306893
 20
130.1091764657
 10
255.974217868
 20
130.2557285995
 10
255.5721373666
 20
130.308140605
 10
255.1364624344
 20
130.2650222148
 10
254.6779208344
 20
130.1274351467
 10
254.2078033825
 20
129.8987672511
 10
253.7376859305
 20
129.5846490903
 10
253.2791443305
 20
129.192815296
 10
252.8434693984
 20
128.7329141167
 10
252.4413888969
 20
128.2162698456
 10
252.0828033825
 20
127.6556039795
 10
251.7765424205
 20
127.0647219726
 10
251.5301471723
 20
126.458173301
 10
251.3496847066
 20
125.8508932061
 10
251.2395986083
 20
125.2578349391
 10
251.2025995624
 20
124.6936015629
 10
251.2395986083
 20
124.1720863758
 10
251.3496847066
 20
123.7061308125
 10
251.5301471723
 20
123.3072082454
 10
251.7765424205
 20
122.9851414721
 10
252.0828033825
 20
122.7478608453
 10
252.0829760756
 20
122.7477611354
  0
LWPOLYLINE
  5
235
330
1F
100
AcDbEntity
  8
0
  6
Continuous
 62
     7
370
    30
100
AcDbPolyline
 90
       48
 70
   128
 43
0.0
 10
259.8494510345
 20
130.5192879415
 10
259.8121452223
 20
131.2923040743
 10
259.7006651621
 20
132.0131849257
 10
259.5163178558
 20
132.6734788269
 10
259.261264607
 20
133.2654444355
 10
258.9384956818
 20
133.7821414961
 10
258.5517952508
 20
134.2175122081
 10
258.1056970229
 20
134.5664522479
 10
257.605431092
 20
134.8248706126
 10
257.0568626187
 20
134.9897375831
 10
256.4664230669
 20
135.0591202449
 10
255.8410348004
 20
135.0322051498
 10
255.1880299248
 20
134.9093078527
 10
254.5150643254
 20
134.691869212
 10
253.8300279083
 20
134.3824384969
 10
253.1409520994
 20
133.9846434997
 10
252.4559156823
 20
133.503148003
 10
251.7829500828
 20
132.9435971012
 10
251.1299452073
 20
132.3125510172
 10
250.5045569408
 20
131.6174081892
 10
249.914117389
 20
130.8663185314
 10
249.3655489157
 20
130.0680878831
 10
248.8652829848
 20
129.2320747691
 10
248.4191847569
 20
128.3680806786
 10
248.0324843259
 20
127.4862351525
 10
247.7097154007
 20
126.5968770231
 10
247.4546621518
 20
125.7104332015
 10
247.2703148455
 20
124.837296431
 10
247.1588347854
 20
123.9877034419
 10
247.1215289732
 20
123.1716149351
 10
247.1588347854
 20
122.3985988023
 10
247.2703148455
 20
121.6777179509
 10
247.4546621518
 20
121.0174240498
 10
247.7097154007
 20
120.4254584411
 10
248.0324843259
 20
119.9087613805
 10
248.4191847569
 20
119.4733906685
 10
248.8652829848
 20
119.1244506287
 10
249.3655489157
 20
118.8660322641
 10
249.914117389
 20
118.7011652936
 10
250.5045569408
 20
118.6317826317
 10
251.1299452073
 20
118.6586977268
 10
251.7829500828
 20
118.7815950239
 10
252.4559156823
 20
118.9990336647
 10
253.1409520994
 20
119.3084643797
 10
253.8300279083
 20
119.7062593769
 10
254.5150643254
 20
120.1877548736
 10
255.1880299248
 20
120.7473057754
 10
255.6031626018
 20
121.1378914385
  0
ARC
  5
236
330
1F
100
AcDbEntity
  8
0
  6
Continuous
 62
     7
370
    30
100
AcDbCircle
 10
249.0150170448
 20
130.6472648851
 30
0.0
 40
10.8351897987435
100
AcDbArc
 50
345.1254653182
 51
359.3232505036
  0
LWPOLYLINE
  5
237
330
1F
100
AcDbEntity
  8
0
  6
Continuous
 62
     7
370
    30
100
AcDbPolyline
 90
       31
 70
   128
 43
0.0
 10
244.5653020556
 20
142.3869896802
 10
244.1856088469
 20
142.571969093
 10
243.6370403736
 20
142.7368360635
 10
243.0466008218
 20
142.8062187254
 10
242.4212125553
 20
142.7793036303
 10
241.7682076797
 20
142.6564063332
 10
241.0952420803
 20
142.4389676924
 10
240.4102056632
 20
142.1295369774
 10
239.7211298543
 20
141.7317419801
 10
239.0360934372
 20
141.2502464834
 10
238.3631278377
 20
140.6906955817
 10
237.7101229622
 20
140.0596494977
 10
237.0847346957
 20
139.3645066697
 10
236.4942951439
 20
138.6134170118
 10
235.9457266706
 20
137.8151863636
 10
235.4454607397
 20
136.9791732496
 10
234.9993625118
 20
136.1151791591
 10
234.6126620808
 20
135.2333336329
 10
234.2898931556
 20
134.3439755036
 10
234.0348399067
 20
133.457531682
 10
233.8504926004
 20
132.5843949115
 10
233.7390125403
 20
131.7348019223
 10
233.7017067281
 20
130.9187134156
 10
233.7390125403
 20
130.1456972828
 10
233.8504926004
 20
129.4248164314
 10
234.0348399067
 20
128.7645225302
 10
234.2898931556
 20
128.1725569216
 10
234.6126620808
 20
127.655859861
 10
234.9993625118
 20
127.220489149
 10
235.4454607397
 20
126.8715491092
 10
235.5660334619
 20
126.7981101574
  0
LWPOLYLINE
  5
238
330
1F
100
AcDbEntity
  8
0
  6
Continuous
 62
     7
370
    30
100
AcDbPolyline
 90
       41
 70
   128
 43
0.0
 10
259.6878809367
 20
126.7346218425
 10
259.6508818908
 20
127.2561370296
 10
259.5407957925
 20
127.7220925929
 10
259.3603333268
 20
128.12101516
 10
259.1139380786
 20
128.4430819333
 10
258.8076771166
 20
128.6803625601
 10
258.4490916022
 20
128.8270144038
 10
258.0470111007
 20
128.8794264093
 10
257.6113361686
 20
128.8363080191
 10
257.1527945685
 20
128.6987209511
 10
256.6826771166
 20
128.4700530554
 10
256.2125596647
 20
128.1559348946
 10
255.7540180647
 20
127.7641011003
 10
255.3183431325
 20
127.304199921
 10
254.9162626311
 20
126.7875556499
 10
254.5576771166
 20
126.2268897838
 10
254.2514161546
 20
125.6360077769
 10
254.0050209065
 20
125.0294591053
 10
253.8245584408
 20
124.4221790104
 10
253.7144723425
 20
123.8291207434
 10
253.6774732966
 20
123.2648873672
 10
253.7144723425
 20
122.7433721801
 10
253.8245584408
 20
122.2774166169
 10
254.0050209065
 20
121.8784940497
 10
254.2514161546
 20
121.5564272764
 10
254.5576771166
 20
121.3191466496
 10
254.9162626311
 20
121.1724948059
 10
255.3183431325
 20
121.1200828004
 10
255.7540180647
 20
121.1632011906
 10
256.2125596647
 20
121.3007882587
 10
256.6826771166
 20
121.5294561543
 10
257.1527945685
 20
121.8435743151
 10
257.6113361686
 20
122.2354081094
 10
258.0470111007
 20
122.6953092888
 10
258.4490916022
 20
123.2119535598
 10
258.8076771166
 20
123.7726194259
 10
259.1139380786
 20
124.3635014328
 10
259.3603333268
 20
124.9700501044
 10
259.5407957925
 20
125.5773301993
 10
259.6508818908
 20
126.1703884663
 10
259.6878809367
 20
126.7346218425
  0
LWPOLYLINE
  5
239
330
1F
100
AcDbEntity
  8
0
  6
Continuous
 62
     7
370
    30
100
AcDbPolyline
 90
       30
 70
   128
 43
0.0
 10
229.8696292948
 20
150.4087532814
 10
229.435890075
 20
150.6130686322
 10
228.8960352079
 20
150.7596177153
 10
228.3158065209
 20
150.8114989034
 10
227.7022472043
 20
150.7680824291
 10
227.0628050371
 20
150.6298953097
 10
226.4052419809
 20
150.3986149495
 10
225.7375399605
 20
150.0770487789
 10
225.067803974
 20
149.6691001755
 10
224.4041637088
 20
149.1797210828
 10
223.754674859
 20
148.6148519001
 10
223.1272213392
 20
147.9813493739
 10
222.5294195853
 20
147.2869033669
 10
221.9685261007
 20
146.5399435128
 10
221.4513493726
 20
145.7495368924
 10
220.9841672258
 20
144.9252779713
 10
220.5726506188
 20
144.0771721363
 10
220.2217948056
 20
143.2155142433
 10
219.9358587006
 20
142.350763652
 10
219.7183131807
 20
141.4934172631
 10
219.5717989539
 20
140.6538821003
 10
219.4980945044
 20
139.8423489833
 10
219.4980945044
 20
139.0686688248
 10
219.5717989539
 20
138.3422330538
 10
219.7183131807
 20
137.6718596165
 10
219.9358587006
 20
137.0656859385
 10
220.2217948056
 20
136.5310701469
 10
220.5726506188
 20
136.0745017532
 10
220.9841672258
 20
135.7015228794
 10
221.2703281941
 20
135.5127128485
  0
ARC
  5
23A
330
1F
100
AcDbEntity
  8
0
  6
Continuous
 62
     7
370
    30
100
AcDbCircle
 10
241.3485754615
 20
134.2644707974
 30
0.0
 40
12.61495919207837
100
AcDbArc
 50
135.3875127662
 51
136.6119310982
  0
LINE
  5
23B
330
1F
100
AcDbEntity
  8
0
  6
Continuous
 62
     7
370
    30
100
AcDbLine
 10
231.0123835036
 20
143.9068296044
 30
0.0
 11
232.3683266229
 21
143.1240603034
 31
0.0
  0
LINE
  5
23C
330
1F
100
AcDbEntity
  8
0
  6
Continuous
 62
     7
370
    30
100
AcDbLine
 10
230.5018683717
 20
144.1418901734
 30
0.0
 11
231.0123835036
 21
143.9068296044
 31
0.0
  0
SPLINE
  5
23D
330
1F
100
AcDbEntity
  8
0
  6
Continuous
 62
     7
370
    30
100
AcDbSpline
210
0.0
220
0.0
230
1.0
 70
     8
 71
     3
 72
    11
 73
     7
 74
     0
 42
0.000000001
 43
0.00000001
 40
0.0
 40
0.0
 40
0.0
 40
0.0
 40
0.2504306482802687
 40
0.5004375762315771
 40
0.7502413089856991
 40
1.0
 40
1.0
 40
1.0
 40
1.0
 10
229.3896196642381
 20
143.7123701894453
 30
0.0
 10
229.4620366010229
 20
143.7887966489267
 30
0.0
 10
229.6067479475438
 20
143.9415202568617
 30
0.0
 10
229.893032675764
 20
144.0982125737465
 30
0.0
 10
230.2087675702543
 20
144.181790955165
 30
0.0
 10
230.4041739772896
 20
144.1551896345029
 30
0.0
 10
230.5018683716533
 20
144.1418901733911
 30
0.0
  0
SPLINE
  5
23E
330
1F
100
AcDbEntity
  8
0
  6
Continuous
 62
     7
370
    30
100
AcDbSpline
210
0.0
220
0.0
230
1.0
 70
     8
 71
     3
 72
    14
 73
    10
 74
     0
 42
0.000000001
 43
0.00000001
 40
0.0
 40
0.0
 40
0.0
 40
0.0
 40
0.250265457189546
 40
0.375383332210697
 40
0.5002491132958397
 40
0.6252245425457283
 40
0.7501513982184346
 40
0.8750046622047372
 40
1.0
 40
1.0
 40
1.0
 40
1.0
 10
229.7385320592024
 20
142.4065230100717
 30
0.0
 10
229.6298237011722
 20
142.4745749956628
 30
0.0
 10
229.4667676161063
 20
142.5766489350773
 30
0.0
 10
229.2852985548755
 20
142.7539828079145
 30
0.0
 10
229.1931765024502
 20
142.9231959858648
 30
0.0
 10
229.1607039364324
 20
143.1194685365339
 30
0.0
 10
229.1748102538847
 20
143.3247934794023
 30
0.0
 10
229.2516940590271
 20
143.5308282811545
 30
0.0
 10
229.3436270369238
 20
143.6518332839362
 30
0.0
 10
229.3896196642381
 20
143.7123701894453
 30
0.0
  0
LINE
  5
23F
330
1F
100
AcDbEntity
  8
0
  6
Continuous
 62
     7
370
    30
100
AcDbLine
 10
231.0944751784
 20
141.623753709
 30
0.0
 11
229.7385320592
 21
142.4065230101
 31
0.0
  0
ARC
  5
240
330
1F
100
AcDbEntity
  8
0
  6
Continuous
 62
     7
370
    30
100
AcDbCircle
 10
242.6149588629
 20
133.1759915328
 30
0.0
 40
14.28587519579124
100
AcDbArc
 50
142.6211021684
 51
143.7480786186
  0
LINE
  5
241
330
1F
100
AcDbEntity
  8
0
  6
Continuous
 62
     7
370
    30
100
AcDbLine
 10
229.9177062471
 20
142.6252448601
 30
0.0
 11
231.2628557893
 21
141.8487065585
 31
0.0
  0
LINE
  5
242
330
1F
100
AcDbEntity
  8
0
  6
Continuous
 62
     7
370
    30
100
AcDbLine
 10
229.5885619615
 20
142.8517852065
 30
0.0
 11
229.9177062471
 21
142.6252448601
 31
0.0
  0
SPLINE
  5
243
330
1F
100
AcDbEntity
  8
0
  6
Continuous
 62
     7
370
    30
100
AcDbSpline
210
0.0
220
0.0
230
1.0
 70
     8
 71
     3
 72
    11
 73
     7
 74
     0
 42
0.000000001
 43
0.00000001
 40
0.0
 40
0.0
 40
0.0
 40
0.0
 40
0.2499982028558964
 40
0.4999447842352781
 40
0.7498010159290632
 40
1.0
 40
1.0
 40
1.0
 40
1.0
 10
229.6298438282995
 20
143.5912137111252
 30
0.0
 10
229.5864683830892
 20
143.529947927213
 30
0.0
 10
229.499726449151
 20
143.4074290100005
 30
0.0
 10
229.4523896459526
 20
143.200701277702
 30
0.0
 10
229.4776378309078
 20
143.0031559946995
 30
0.0
 10
229.5515703594758
 20
142.9022651870882
 30
0.0
 10
229.5885619615117
 20
142.8517852065368
 30
0.0
  0
SPLINE
  5
244
330
1F
100
AcDbEntity
  8
0
  6
Continuous
 62
     7
370
    30
100
AcDbSpline
210
0.0
220
0.0
230
1.0
 70
     8
 71
     3
 72
    12
 73
     8
 74
     0
 42
0.000000001
 43
0.00000001
 40
0.0
 40
0.0
 40
0.0
 40
0.0
 40
0.2497068776663761
 40
0.3736041887751432
 40
0.5000118599150086
 40
0.7516319720492369
 40
1.0
 40
1.0
 40
1.0
 40
1.0
 10
230.5289872887599
 20
143.8702821151185
 30
0.0
 10
230.4565578191636
 20
143.8933921090623
 30
0.0
 10
230.3481909472342
 20
143.927968611803
 30
0.0
 10
230.1801724103888
 20
143.9188004510444
 30
0.0
 10
230.0131452189022
 20
143.8722376670002
 30
0.0
 10
229.8132841372415
 20
143.7717997967179
 30
0.0
 10
229.6907248762879
 20
143.6511474858033
 30
0.0
 10
229.6298438282995
 20
143.5912137111252
 30
0.0
  0
SPLINE
  5
245
330
1F
100
AcDbEntity
  8
0
  6
Continuous
 62
     7
370
    30
100
AcDbSpline
210
0.0
220
0.0
230
1.0
 70
     8
 71
     3
 72
     9
 73
     5
 74
     0
 42
0.000000001
 43
0.00000001
 40
0.0
 40
0.0
 40
0.0
 40
0.0
 40
0.6365762138120723
 40
1.0
 40
1.0
 40
1.0
 40
1.0
 10
230.835911383139
 20
143.7066811818512
 30
0.0
 10
230.7728027628768
 20
143.7436730936651
 30
0.0
 10
230.6736651908267
 20
143.801783828894
 30
0.0
 10
230.5675515205707
 20
143.8520237373645
 30
0.0
 10
230.5289872887599
 20
143.8702821151185
 30
0.0
  0
LINE
  5
246
330
1F
100
AcDbEntity
  8
0
  6
Continuous
 62
     7
370
    30
100
AcDbLine
 10
232.1810609253
 20
142.9301428802
 30
0.0
 11
230.8359113831
 21
143.7066811819
 31
0.0
  0
ARC
  5
247
330
1F
100
AcDbEntity
  8
0
  6
Continuous
 62
     7
370
    30
100
AcDbCircle
 10
242.4186312542
 20
133.2383555192
 30
0.0
 40
14.78463985184431
100
AcDbArc
 50
146.6067951716
 51
147.7082803363
  0
LINE
  5
248
330
1F
100
AcDbEntity
  8
0
  6
Continuous
 62
     7
370
    30
100
AcDbLine
 10
228.4341174074
 20
142.3226630123
 30
0.0
 11
230.0747411218
 21
141.3755511018
 31
0.0
  0
ARC
  5
249
330
1F
100
AcDbEntity
  8
0
  6
Continuous
 62
     7
370
    30
100
AcDbCircle
 10
240.7780075398
 20
134.1854674296
 30
0.0
 40
14.78463985196953
100
AcDbArc
 50
146.6067951717
 51
147.7082803363
  0
LINE
  5
24A
330
1F
100
AcDbEntity
  8
0
  6
Continuous
 62
     7
370
    30
100
AcDbLine
 10
228.8731711609
 20
141.7414230043
 30
0.0
 11
228.2799741545
 21
142.0838683469
 31
0.0
  0
LINE
  5
24B
330
1F
100
AcDbEntity
  8
0
  6
Continuous
 62
     7
370
    30
100
AcDbLine
 10
229.290103605
 20
141.4501730042
 30
0.0
 11
228.8731711609
 21
141.7414230043
 31
0.0
  0
SPLINE
  5
24C
330
1F
100
AcDbEntity
  8
0
  6
Continuous
 62
     7
370
    30
100
AcDbSpline
210
0.0
220
0.0
230
1.0
 70
     8
 71
     3
 72
    11
 73
     7
 74
     0
 42
0.000000001
 43
0.00000001
 40
0.0
 40
0.0
 40
0.0
 40
0.0
 40
0.2498824963084904
 40
0.499855739240324
 40
0.75000368271911
 40
1.0
 40
1.0
 40
1.0
 40
1.0
 10
229.3229111094562
 20
140.5203281049487
 30
0.0
 10
229.3613174583435
 20
140.6019041007668
 30
0.0
 10
229.4381441036596
 20
140.7650857173118
 30
0.0
 10
229.457493257438
 20
141.0245999683288
 30
0.0
 10
229.4195690503838
 20
141.267225701293
 30
0.0
 10
229.3332500304637
 20
141.3892028963314
 30
0.0
 10
229.2901036049533
 20
141.4501730042469
 30
0.0
  0
SPLINE
  5
24D
330
1F
100
AcDbEntity
  8
0
  6
Continuous
 62
     7
370
    30
100
AcDbSpline
210
0.0
220
0.0
230
1.0
 70
     8
 71
     3
 72
    13
 73
     9
 74
     0
 42
0.000000001
 43
0.00000001
 40
0.0
 40
0.0
 40
0.0
 40
0.0
 40
0.1253187799521735
 40
0.2505074758406303
 40
0.3775785020615643
 40
0.5007845545482597
 40
0.7499620183516535
 40
1.0
 40
1.0
 40
1.0
 40
1.0
 10
228.7200763364571
 20
140.1787595277377
 30
0.0
 10
228.7475671854497
 20
140.1730717111024
 30
0.0
 10
228.8025203472382
 20
140.1617019819294
 30
0.0
 10
228.8891467685147
 20
140.1622979402626
 30
0.0
 10
228.9761922189976
 20
140.1811629120897
 30
0.0
 10
229.0887644340436
 20
140.2327790353415
 30
0.0
 10
229.2154514739369
 20
140.344394385545
 30
0.0
 10
229.2870500918058
 20
140.4616161784997
 30
0.0
 10
229.3229111094562
 20
140.5203281049487
 30
0.0
  0
SPLINE
  5
24E
330
1F
100
AcDbEntity
  8
0
  6
Continuous
 62
     7
370
    30
100
AcDbSpline
210
0.0
220
0.0
230
1.0
 70
     8
 71
     3
 72
     9
 73
     5
 74
     0
 42
0.000000001
 43
0.00000001
 40
0.0
 40
0.0
 40
0.0
 40
0.0
 40
0.5003064839533882
 40
1.0
 40
1.0
 40
1.0
 40
1.0
 10
228.3316964155292
 20
140.3642349483141
 30
0.0
 10
228.3940093501361
 20
140.3277201971465
 30
0.0
 10
228.5185588744889
 20
140.25473543213
 30
0.0
 10
228.6529313044634
 20
140.2040744780222
 30
0.0
 10
228.720076336457
 20
140.1787595277377
 30
0.0
  0
LINE
  5
24F
330
1F
100
AcDbEntity
  8
0
  6
Continuous
 62
     7
370
    30
100
AcDbLine
 10
227.5599556551
 20
140.8097514062
 30
0.0
 11
228.3316964155
 21
140.3642349483
 31
0.0
  0
ARC
  5
250
330
1F
100
AcDbEntity
  8
0
  6
Continuous
 62
     7
370
    30
100
AcDbCircle
 10
240.6891473492
 20
134.2219585667
 30
0.0
 40
14.68927122208319
100
AcDbArc
 50
153.3540207492
 51
154.4602684139
  0
LINE
  5
251
330
1F
100
AcDbEntity
  8
0
  6
Continuous
 62
     7
370
    30
100
AcDbLine
 10
228.2730671991
 20
140.0713639235
 30
0.0
 11
227.4352157792
 21
140.5550452528
 31
0.0
  0
SPLINE
  5
252
330
1F
100
AcDbEntity
  8
0
  6
Continuous
 62
     7
370
    30
100
AcDbSpline
210
0.0
220
0.0
230
1.0
 70
     8
 71
     3
 72
    14
 73
    10
 74
     0
 42
0.000000001
 43
0.00000001
 40
0.0
 40
0.0
 40
0.0
 40
0.0
 40
0.1249698545363647
 40
0.2500169049704061
 40
0.3760557291729926
 40
0.4997230104152883
 40
0.6246101612682272
 40
0.7497231575066885
 40
1.0
 40
1.0
 40
1.0
 40
1.0
 10
229.5003557998199
 20
140.3606357114507
 30
0.0
 10
229.4643799056072
 20
140.3011283313776
 30
0.0
 10
229.3924058942908
 20
140.1820768125616
 30
0.0
 10
229.2477515427887
 20
140.0372711619485
 30
0.0
 10
229.0857071021473
 20
139.9315715405777
 30
0.0
 10
228.9121462379333
 20
139.8751688457841
 30
0.0
 10
228.7391895884159
 20
139.8732690340477
 30
0.0
 10
228.5221922312449
 20
139.9364062337581
 30
0.0
 10
228.3727212614145
 20
140.0173786538905
 30
0.0
 10
228.2730671991204
 20
140.0713639234658
 30
0.0
  0
SPLINE
  5
253
330
1F
100
AcDbEntity
  8
0
  6
Continuous
 62
     7
370
    30
100
AcDbSpline
210
0.0
220
0.0
230
1.0
 70
     8
 71
     3
 72
    11
 73
     7
 74
     0
 42
0.000000001
 43
0.00000001
 40
0.0
 40
0.0
 40
0.0
 40
0.0
 40
0.2502298008222238
 40
0.5001010818605488
 40
0.7499844207790964
 40
1.0
 40
1.0
 40
1.0
 40
1.0
 10
229.6246739642735
 20
141.307589670296
 30
0.0
 10
229.6426563590401
 20
141.2338478115227
 30
0.0
 10
229.678595384079
 20
141.0864697485191
 30
0.0
 10
229.6732396876997
 20
140.8422979431829
 30
0.0
 10
229.6153103859384
 20
140.5931842747584
 30
0.0
 10
229.5386807522428
 20
140.4381655684637
 30
0.0
 10
229.50035579982
 20
140.3606357114507
 30
0.0
  0
LINE
  5
254
330
1F
100
AcDbEntity
  8
0
  6
Continuous
 62
     7
370
    30
100
AcDbLine
 10
229.9205978689
 20
141.1367564364
 30
0.0
 11
229.6246739643
 21
141.3075896703
 31
0.0
  0
SPLINE
  5
255
330
1F
100
AcDbEntity
  8
0
  6
Continuous
 62
     7
370
    30
100
AcDbSpline
210
0.0
220
0.0
230
1.0
 70
     8
 71
     3
 72
    13
 73
     9
 74
     0
 42
0.000000001
 43
0.00000001
 40
0.0
 40
0.0
 40
0.0
 40
0.0
 40
0.125458552955828
 40
0.2507518492598119
 40
0.5003872894232774
 40
0.6288887172954344
 40
0.7508529200252829
 40
1.0
 40
1.0
 40
1.0
 40
1.0
 10
229.4633402700477
 20
138.5301624486954
 30
0.0
 10
229.4564808297477
 20
138.5152404427633
 30
0.0
 10
229.4427709845471
 20
138.4854160864801
 30
0.0
 10
229.4065528969666
 20
138.4330683699825
 30
0.0
 10
229.3591293001894
 20
138.3948126300149
 30
0.0
 10
229.3080841787337
 20
138.3727120601384
 30
0.0
 10
229.2544800734281
 20
138.3633417011475
 30
0.0
 10
229.2169622347282
 20
138.378429710721
 30
0.0
 10
229.1917744800177
 20
138.3885591077591
 30
0.0
  0
SPLINE
  5
256
330
1F
100
AcDbEntity
  8
0
  6
Continuous
 62
     7
370
    30
100
AcDbSpline
210
0.0
220
0.0
230
1.0
 70
     8
 71
     3
 72
    13
 73
     9
 74
     0
 42
0.000000001
 43
0.00000001
 40
0.0
 40
0.0
 40
0.0
 40
0.0
 40
0.1253391219460768
 40
0.2505029642988528
 40
0.3736947096446103
 40
0.5009167439041715
 40
0.750444024022816
 40
1.0
 40
1.0
 40
1.0
 40
1.0
 10
229.3916171225815
 20
138.8691440429421
 30
0.0
 10
229.4030233149175
 20
138.8614366739973
 30
0.0
 10
229.425819748682
 20
138.8460327144222
 30
0.0
 10
229.4528995854526
 20
138.8118080593565
 30
0.0
 10
229.4732669420087
 20
138.7708638227604
 30
0.0
 10
229.4897150104886
 20
138.7097570819428
 30
0.0
 10
229.4949057489186
 20
138.6249831324021
 30
0.0
 10
229.4738624996469
 20
138.5617705547784
 30
0.0
 10
229.4633402700477
 20
138.5301624486954
 30
0.0
  0
SPLINE
  5
257
330
1F
100
AcDbEntity
  8
0
  6
Continuous
 62
     7
370
    30
100
AcDbSpline
210
0.0
220
0.0
230
1.0
 70
     8
 71
     3
 72
    12
 73
     8
 74
     0
 42
0.000000001
 43
0.00000001
 40
0.0
 40
0.0
 40
0.0
 40
0.0
 40
0.12559762946958
 40
0.2510326241509401
 40
0.5010054477530987
 40
0.750635057326299
 40
1.0
 40
1.0
 40
1.0
 40
1.0
 10
229.1179458038528
 20
138.7295544298521
 30
0.0
 10
229.1247411466129
 20
138.744309928957
 30
0.0
 10
229.1383230329296
 20
138.7738018204568
 30
0.0
 10
229.1753656765972
 20
138.8249923362205
 30
0.0
 10
229.2341204950556
 20
138.8713855425846
 30
0.0
 10
229.3160951878037
 20
138.8981924164201
 30
0.0
 10
229.3664520474213
 20
138.8788234096586
 30
0.0
 10
229.3916171225815
 20
138.8691440429421
 30
0.0
  0
SPLINE
  5
258
330
1F
100
AcDbEntity
  8
0
  6
Continuous
 62
     7
370
    30
100
AcDbSpline
210
0.0
220
0.0
230
1.0
 70
     8
 71
     3
 72
    13
 73
     9
 74
     0
 42
0.000000001
 43
0.00000001
 40
0.0
 40
0.0
 40
0.0
 40
0.0
 40
0.1253195859666942
 40
0.2504681748776453
 40
0.3720757010531925
 40
0.5008391159811976
 40
0.7503288696165195
 40
1.0
 40
1.0
 40
1.0
 40
1.0
 10
229.1917744800177
 20
138.3885591077591
 30
0.0
 10
229.1803600832621
 20
138.3963275694567
 30
0.0
 10
229.1575468645569
 20
138.4118538928801
 30
0.0
 10
229.1303227611403
 20
138.4464640777832
 30
0.0
 10
229.1097304059946
 20
138.4880272586013
 30
0.0
 10
229.0928041092766
 20
138.5496727170686
 30
0.0
 10
229.0862445991547
 20
138.6348669383175
 30
0.0
 10
229.1073761761402
 20
138.697984287831
 30
0.0
 10
229.1179458038528
 20
138.7295544298521
 30
0.0
  0
ARC
  5
259
330
1F
100
AcDbEntity
  8
0
  6
Continuous
 62
     7
370
    30
100
AcDbCircle
 10
241.8645051097
 20
133.4837223869
 30
0.0
 40
14.17920021759837
100
AcDbArc
 50
156.8545797754
 51
157.9872017298
  0
LINE
  5
25A
330
1F
100
AcDbEntity
  8
0
  6
Continuous
 62
     7
370
    30
100
AcDbLine
 10
227.1859623096
 20
140.0041981584
 30
0.0
 11
228.8265860241
 21
139.0570862479
 31
0.0
  0
ARC
  5
25B
330
1F
100
AcDbEntity
  8
0
  6
Continuous
 62
     7
370
    30
100
AcDbCircle
 10
240.2238813953
 20
134.4308342974
 30
0.0
 40
14.1792002175984
100
AcDbArc
 50
156.8545797754
 51
157.9872017298
  0
LINE
  5
25C
330
1F
100
AcDbEntity
  8
0
  6
Continuous
 62
     7
370
    30
100
AcDbLine
 10
228.7189663926
 20
138.798280755
 30
0.0
 11
227.0783426782
 21
139.7453926655
 31
0.0
  0
LINE
  5
25D
330
1F
100
AcDbEntity
  8
0
  6
Continuous
 62
     7
370
    30
100
AcDbLine
 10
227.5990156822
 20
136.3152613946
 30
0.0
 11
227.5302581931
 21
136.5868015038
 31
0.0
  0
SPLINE
  5
25E
330
1F
100
AcDbEntity
  8
0
  6
Continuous
 62
     7
370
    30
100
AcDbSpline
210
0.0
220
0.0
230
1.0
 70
     8
 71
     3
 72
    11
 73
     7
 74
     0
 42
0.000000001
 43
0.00000001
 40
0.0
 40
0.0
 40
0.0
 40
0.0
 40
0.2808577076413537
 40
0.5617237147682282
 40
0.8421121473666289
 40
1.0
 40
1.0
 40
1.0
 40
1.0
 10
228.1788094617115
 20
137.0429012445695
 30
0.0
 10
228.1516068461559
 20
136.9513029802994
 30
0.0
 10
228.0972008111938
 20
136.7681037449846
 30
0.0
 10
227.9668128673391
 20
136.5477605907745
 30
0.0
 10
227.8321641486178
 20
136.390567027677
 30
0.0
 10
227.7249387736455
 20
136.3592574780643
 30
0.0
 10
227.6863111207867
 20
136.3479782970504
 30
0.0
  0
SPLINE
  5
25F
330
1F
100
AcDbEntity
  8
0
  6
Continuous
 62
     7
370
    30
100
AcDbSpline
210
0.0
220
0.0
230
1.0
 70
     8
 71
     3
 72
    14
 73
    10
 74
     0
 42
0.000000001
 43
0.00000001
 40
0.0
 40
0.0
 40
0.0
 40
0.0
 40
0.1250716595822052
 40
0.2500688213706144
 40
0.3759532206701485
 40
0.5003047173943574
 40
0.6255024720100949
 40
0.7506352674516032
 40
1.0
 40
1.0
 40
1.0
 40
1.0
 10
227.6738897005037
 20
138.7229911120017
 30
0.0
 10
227.7310560108631
 20
138.6851035600221
 30
0.0
 10
227.8453545809902
 20
138.6093510234378
 30
0.0
 10
227.9879525953071
 20
138.4388405879297
 30
0.0
 10
228.103107192613
 20
138.2384467547865
 30
0.0
 10
228.185812721436
 20
138.010685863347
 30
0.0
 10
228.2315375318074
 20
137.7674203887633
 30
0.0
 10
228.2528530744224
 20
137.4341198281207
 30
0.0
 10
228.2084055229713
 20
137.1992756939087
 30
0.0
 10
228.1788094617114
 20
137.0429012445695
 30
0.0
  0
SPLINE
  5
260
330
1F
100
AcDbEntity
  8
0
  6
Continuous
 62
     7
370
    30
100
AcDbSpline
210
0.0
220
0.0
230
1.0
 70
     8
 71
     3
 72
    13
 73
     9
 74
     0
 42
0.000000001
 43
0.00000001
 40
0.0
 40
0.0
 40
0.0
 40
0.0
 40
0.2497847366215162
 40
0.3744674679937399
 40
0.5003452520161376
 40
0.6250935565681471
 40
0.7508945853253193
 40
0.9999999999999999
 40
0.9999999999999999
 40
0.9999999999999999
 40
0.9999999999999999
 10
226.4859540278532
 20
138.044525802938
 30
0.0
 10
226.5336121919414
 20
138.1865427675478
 30
0.0
 10
226.6050594399869
 20
138.3994490238263
 30
0.0
 10
226.7854088123025
 20
138.6101893166149
 30
0.0
 10
226.9443906120843
 20
138.7288302514647
 30
0.0
 10
227.1211164998739
 20
138.8055132809124
 30
0.0
 10
227.3718287623808
 20
138.8491901617476
 30
0.0
 10
227.5533070316479
 20
138.7733697485775
 30
0.0
 10
227.6738897005037
 20
138.7229911120017
 30
0.0
  0
SPLINE
  5
261
330
1F
100
AcDbEntity
  8
0
  6
Continuous
 62
     7
370
    30
100
AcDbSpline
210
0.0
220
0.0
230
1.0
 70
     8
 71
     3
 72
    11
 73
     7
 74
     0
 42
0.000000001
 43
0.00000001
 40
0.0
 40
0.0
 40
0.0
 40
0.0
 40
0.2498151551743573
 40
0.499737959170874
 40
0.7497554827813758
 40
1.0
 40
1.0
 40
1.0
 40
1.0
 10
226.6640220686582
 20
136.8550217186036
 30
0.0
 10
226.6143932969693
 20
136.946362840942
 30
0.0
 10
226.515114367864
 20
137.129084445778
 30
0.0
 10
226.4421259091242
 20
137.4406442080889
 30
0.0
 10
226.427044938563
 20
137.7526318774893
 30
0.0
 10
226.4663117256626
 20
137.9471983996399
 30
0.0
 10
226.4859540278532
 20
138.044525802938
 30
0.0
  0
LINE
  5
262
330
1F
100
AcDbEntity
  8
0
  6
Continuous
 62
     7
370
    30
100
AcDbLine
 10
226.8106863886
 20
137.0022014645
 30
0.0
 11
226.6640220687
 21
136.8550217186
 31
0.0
  0
SPLINE
  5
263
330
1F
100
AcDbEntity
  8
0
  6
Continuous
 62
     7
370
    30
100
AcDbSpline
210
0.0
220
0.0
230
1.0
 70
     8
 71
     3
 72
    12
 73
     8
 74
     0
 42
0.000000001
 43
0.00000001
 40
0.0
 40
0.0
 40
0.0
 40
0.0
 40
0.1251960058958429
 40
0.2503371137440856
 40
0.5001741257503145
 40
0.7499903408821189
 40
1.0
 40
1.0
 40
1.0
 40
1.0
 10
226.6864216855656
 20
137.9241871291237
 30
0.0
 10
226.678132629432
 20
137.8871671383672
 30
0.0
 10
226.6615581518893
 20
137.8131433900016
 30
0.0
 10
226.645154704684
 20
137.6587208586487
 30
0.0
 10
226.6528201429823
 20
137.4588379722845
 30
0.0
 10
226.7091425022303
 20
137.220120784028
 30
0.0
 10
226.7768296942881
 20
137.0748599774206
 30
0.0
 10
226.8106863885587
 20
137.0022014644983
 30
0.0
  0
SPLINE
  5
264
330
1F
100
AcDbEntity
  8
0
  6
Continuous
 62
     7
370
    30
100
AcDbSpline
210
0.0
220
0.0
230
1.0
 70
     8
 71
     3
 72
    13
 73
     9
 74
     0
 42
0.000000001
 43
0.00000001
 40
0.0
 40
0.0
 40
0.0
 40
0.0
 40
0.2486610267356502
 40
0.3748641209041234
 40
0.4996784370341426
 40
0.6237951399130209
 40
0.7502256786010479
 40
1.0
 40
1.0
 40
1.0
 40
1.0
 10
227.6025454669269
 20
138.452504956167
 30
0.0
 10
227.5088235652783
 20
138.4899493024584
 30
0.0
 10
227.3675349253487
 20
138.5463978024086
 30
0.0
 10
227.1744713179451
 20
138.5168358685978
 30
0.0
 10
227.0381274378418
 20
138.4602261038477
 30
0.0
 10
226.9173324931308
 20
138.3651856169674
 30
0.0
 10
226.7795101617619
 20
138.200891166718
 30
0.0
 10
226.7235652706235
 20
138.0345958539864
 30
0.0
 10
226.6864216855656
 20
137.9241871291237
 30
0.0
  0
SPLINE
  5
265
330
1F
100
AcDbEntity
  8
0
  6
Continuous
 62
     7
370
    30
100
AcDbSpline
210
0.0
220
0.0
230
1.0
 70
     8
 71
     3
 72
    14
 73
    10
 74
     0
 42
0.000000001
 43
0.00000001
 40
0.0
 40
0.0
 40
0.0
 40
0.0
 40
0.2494953450786512
 40
0.3745959285995338
 40
0.4997060529979747
 40
0.624829020465134
 40
0.7498687678745171
 40
0.8748864702349328
 40
1.0
 40
1.0
 40
1.0
 40
1.0
 10
227.9820846509371
 20
137.178192886871
 30
0.0
 10
228.0049827711085
 20
137.2960190062036
 30
0.0
 10
228.0393623407398
 20
137.4729248501614
 30
0.0
 10
228.0229487202919
 20
137.7246625210589
 30
0.0
 10
227.9867450843996
 20
137.9086538520258
 30
0.0
 10
227.925946036813
 20
138.0823702427789
 30
0.0
 10
227.8413428947617
 20
138.2379911622267
 30
0.0
 10
227.7322183234848
 20
138.3664654201204
 30
0.0
 10
227.6457807907644
 20
138.4238177867581
 30
0.0
 10
227.6025454669269
 20
138.452504956167
 30
0.0
  0
SPLINE
  5
266
330
1F
100
AcDbEntity
  8
0
  6
Continuous
 62
     7
370
    30
100
AcDbSpline
210
0.0
220
0.0
230
1.0
 70
     8
 71
     3
 72
    12
 73
     8
 74
     0
 42
0.000000001
 43
0.00000001
 40
0.0
 40
0.0
 40
0.0
 40
0.0
 40
0.1251990186331821
 40
0.2503412287105498
 40
0.5001113717669877
 40
0.7499496931165059
 40
1.0
 40
1.0
 40
1.0
 40
1.0
 10
227.5302581931316
 20
136.5868015037552
 30
0.0
 10
227.556785628796
 20
136.5965111244608
 30
0.0
 10
227.6098284634066
 20
136.6159259601702
 30
0.0
 10
227.7085221863197
 20
136.6765844168049
 30
0.0
 10
227.8184771748036
 20
136.7843029724098
 30
0.0
 10
227.9193200676672
 20
136.9630776255214
 30
0.0
 10
227.961157209284
 20
137.1064675308492
 30
0.0
 10
227.9820846509371
 20
137.178192886871
 30
0.0
  0
LINE
  5
267
330
1F
100
AcDbEntity
  8
0
  6
Continuous
 62
     7
370
    30
100
AcDbLine
 10
226.7318638765
 20
134.6900736154
 30
0.0
 11
226.6559106025
 21
134.5491149448
 31
0.0
  0
SPLINE
  5
268
330
1F
100
AcDbEntity
  8
0
  6
Continuous
 62
     7
370
    30
100
AcDbSpline
210
0.0
220
0.0
230
1.0
 70
     8
 71
     3
 72
    11
 73
     7
 74
     0
 42
0.000000001
 43
0.00000001
 40
0.0
 40
0.0
 40
0.0
 40
0.0
 40
0.2495648371657609
 40
0.5000801423848833
 40
0.7495323266982545
 40
1.0
 40
1.0
 40
1.0
 40
1.0
 10
226.3643852070903
 20
135.5734294668039
 30
0.0
 10
226.3686020391915
 20
135.5006439338595
 30
0.0
 10
226.3770517632054
 20
135.3547956641601
 30
0.0
 10
226.4495212054297
 20
135.120522523699
 30
0.0
 10
226.5724248954437
 20
134.891286602225
 30
0.0
 10
226.6786456272978
 20
134.7572353772524
 30
0.0
 10
226.7318638765004
 20
134.6900736154005
 30
0.0
  0
SPLINE
  5
269
330
1F
100
AcDbEntity
  8
0
  6
Continuous
 62
     7
370
    30
100
AcDbSpline
210
0.0
220
0.0
230
1.0
 70
     8
 71
     3
 72
    13
 73
     9
 74
     0
 42
0.000000001
 43
0.00000001
 40
0.0
 40
0.0
 40
0.0
 40
0.0
 40
0.2496078234340884
 40
0.3748406783349758
 40
0.5001042835540075
 40
0.6270421651224408
 40
0.7506055388496279
 40
0.9999999999999999
 40
0.9999999999999999
 40
0.9999999999999999
 40
0.9999999999999999
 10
227.0060736998607
 20
135.9356112993646
 30
0.0
 10
226.9259232135163
 20
135.9713854468853
 30
0.0
 10
226.805559747913
 20
136.0251081449122
 30
0.0
 10
226.6562048081176
 20
136.018712346992
 30
0.0
 10
226.5564381674662
 20
135.9817072603541
 30
0.0
 10
226.4729070752077
 20
135.91696681824
 30
0.0
 10
226.3874699979233
 20
135.7946223786494
 30
0.0
 10
226.3736359465948
 20
135.6620678271218
 30
0.0
 10
226.3643852070903
 20
135.5734294668039
 30
0.0
  0
ARC
  5
26A
330
1F
100
AcDbEntity
  8
0
  6
Continuous
 62
     7
370
    30
100
AcDbCircle
 10
234.9514967223
 20
135.1574803818
 30
0.0
 40
7.983435020733377
100
AcDbArc
 50
174.406604182
 51
186.5092185356
  0
SPLINE
  5
26B
330
1F
100
AcDbEntity
  8
0
  6
Continuous
 62
     7
370
    30
100
AcDbSpline
210
0.0
220
0.0
230
1.0
 70
     8
 71
     3
 72
     9
 73
     5
 74
     0
 42
0.000000001
 43
0.00000001
 40
0.0
 40
0.0
 40
0.0
 40
0.0
 40
0.4993867952804915
 40
1.0
 40
1.0
 40
1.0
 40
1.0
 10
227.5683647242021
 20
134.1167229125247
 30
0.0
 10
227.4868546866078
 20
134.1094640379629
 30
0.0
 10
227.3236344365639
 20
134.0949284622721
 30
0.0
 10
227.1209782484016
 20
134.1999023497112
 30
0.0
 10
227.0195258845894
 20
134.2524536639139
 30
0.0
  0
SPLINE
  5
26C
330
1F
100
AcDbEntity
  8
0
  6
Continuous
 62
     7
370
    30
100
AcDbSpline
210
0.0
220
0.0
230
1.0
 70
     8
 71
     3
 72
    12
 73
     8
 74
     0
 42
0.000000001
 43
0.00000001
 40
0.0
 40
0.0
 40
0.0
 40
0.0
 40
0.1252119614574862
 40
0.2503701830504159
 40
0.5002111660921569
 40
0.7499909910701877
 40
1.0
 40
1.0
 40
1.0
 40
1.0
 10
227.8607752688933
 20
134.6744198129283
 30
0.0
 10
227.8598559783698
 20
134.6380335753968
 30
0.0
 10
227.8580177918743
 20
134.5652767169846
 30
0.0
 10
227.8405767342848
 20
134.4322148699578
 30
0.0
 10
227.7961584131972
 20
134.2890456402843
 30
0.0
 10
227.7017088074705
 20
134.1693077754112
 30
0.0
 10
227.6128263379864
 20
134.1342565578672
 30
0.0
 10
227.5683647242021
 20
134.1167229125247
 30
0.0
  0
SPLINE
  5
26D
330
1F
100
AcDbEntity
  8
0
  6
Continuous
 62
     7
370
    30
100
AcDbSpline
210
0.0
220
0.0
230
1.0
 70
     8
 71
     3
 72
    12
 73
     8
 74
     0
 42
0.000000001
 43
0.00000001
 40
0.0
 40
0.0
 40
0.0
 40
0.0
 40
0.1251878956766943
 40
0.250313957020115
 40
0.5000988041059797
 40
0.7499486098187328
 40
1.0
 40
1.0
 40
1.0
 40
1.0
 10
227.59393894561
 20
135.6123261103993
 30
0.0
 10
227.61533674213
 20
135.5748057485661
 30
0.0
 10
227.6581217661089
 20
135.4997835574148
 30
0.0
 10
227.7333491648398
 20
135.3428116995273
 30
0.0
 10
227.8053602109306
 20
135.1382657795361
 30
0.0
 10
227.8549960529423
 20
134.8944753766352
 30
0.0
 10
227.8588483457657
 20
134.7477913842032
 30
0.0
 10
227.8607752688933
 20
134.6744198129283
 30
0.0
  0
SPLINE
  5
26E
330
1F
100
AcDbEntity
  8
0
  6
Continuous
 62
     7
370
    30
100
AcDbSpline
210
0.0
220
0.0
230
1.0
 70
     8
 71
     3
 72
     9
 73
     5
 74
     0
 42
0.000000001
 43
0.00000001
 40
0.0
 40
0.0
 40
0.0
 40
0.0
 40
0.5000224920518695
 40
1.0
 40
1.0
 40
1.0
 40
1.0
 10
227.0704835813414
 20
136.1588844790036
 30
0.0
 10
227.1686654888886
 20
136.0918204209968
 30
0.0
 10
227.3650204711301
 20
135.9576983383449
 30
0.0
 10
227.5176350758604
 20
135.7274467338272
 30
0.0
 10
227.59393894561
 20
135.6123261103993
 30
0.0
  0
SPLINE
  5
26F
330
1F
100
AcDbEntity
  8
0
  6
Continuous
 62
     7
370
    30
100
AcDbSpline
210
0.0
220
0.0
230
1.0
 70
     8
 71
     3
 72
    12
 73
     8
 74
     0
 42
0.000000001
 43
0.00000001
 40
0.0
 40
0.0
 40
0.0
 40
0.0
 40
0.2498436464884063
 40
0.3746959420947985
 40
0.5004738422822452
 40
0.7502750116689381
 40
1.0
 40
1.0
 40
1.0
 40
1.0
 10
226.1626279875091
 20
135.6605005388524
 30
0.0
 10
226.1742324275583
 20
135.7847674728042
 30
0.0
 10
226.1916358582952
 20
135.9711332921587
 30
0.0
 10
226.3123824552525
 20
136.1456542652351
 30
0.0
 10
226.4762915821792
 20
136.2560070460437
 30
0.0
 10
226.7350706647271
 20
136.3064989740554
 30
0.0
 10
226.9586906436471
 20
136.2080843077242
 30
0.0
 10
227.0704835813414
 20
136.1588844790036
 30
0.0
  0
SPLINE
  5
270
330
1F
100
AcDbEntity
  8
0
  6
Continuous
 62
     7
370
    30
100
AcDbSpline
210
0.0
220
0.0
230
1.0
 70
     8
 71
     3
 72
    11
 73
     7
 74
     0
 42
0.000000001
 43
0.00000001
 40
0.0
 40
0.0
 40
0.0
 40
0.0
 40
0.2502198274574149
 40
0.5000266077159305
 40
0.7498333285897398
 40
1.0
 40
1.0
 40
1.0
 40
1.0
 10
226.6559106025454
 20
134.5491149448375
 30
0.0
 10
226.5845260226052
 20
134.6314169204697
 30
0.0
 10
226.4418746999124
 20
134.7958850127941
 30
0.0
 10
226.2788231897484
 20
135.0854439323693
 30
0.0
 10
226.1757078238278
 20
135.3836564271222
 30
0.0
 10
226.1669900250442
 20
135.5681748875733
 30
0.0
 10
226.1626279875091
 20
135.6605005388524
 30
0.0
  0
ARC
  5
271
330
1F
100
AcDbEntity
  8
0
  6
Continuous
 62
     7
370
    30
100
AcDbCircle
 10
232.4037880222
 20
133.4514981503
 30
0.0
 40
3.84794364233529
100
AcDbArc
 50
200.5176077078
 51
217.5188977069
  0
LINE
  5
272
330
1F
100
AcDbEntity
  8
0
  6
Continuous
 62
     7
370
    30
100
AcDbLine
 10
226.5548764942
 20
133.3988601907
 30
0.0
 11
228.7999405244
 21
132.1028123131
 31
0.0
  0
ARC
  5
273
330
1F
100
AcDbEntity
  8
0
  6
Continuous
 62
     7
370
    30
100
AcDbCircle
 10
230.1587239919
 20
134.7475460278
 30
0.0
 40
3.847943642335709
100
AcDbArc
 50
200.5176077078
 51
217.5188977069
  0
LINE
  5
274
330
1F
100
AcDbEntity
  8
0
  6
Continuous
 62
     7
370
    30
100
AcDbLine
 10
227.3369808071
 20
132.2711316078
 30
0.0
 11
227.1067178296
 21
132.4040595953
 31
0.0
  0
ARC
  5
275
330
1F
100
AcDbEntity
  8
0
  6
Continuous
 62
     7
370
    30
100
AcDbCircle
 10
230.3065000529
 20
134.5623149408
 30
0.0
 40
3.750675354704726
100
AcDbArc
 50
203.1136425639
 51
217.6525959869
  0
LINE
  5
276
330
1F
100
AcDbEntity
  8
0
  6
Continuous
 62
     7
370
    30
100
AcDbLine
 10
227.7203848778
 20
132.5914844157
 30
0.0
 11
226.8568987123
 21
133.0899643686
 31
0.0
  0
ARC
  5
277
330
1F
100
AcDbEntity
  8
0
  6
Continuous
 62
     7
370
    30
100
AcDbCircle
 10
231.1699862184
 20
134.0638349879
 30
0.0
 40
3.750675354705338
100
AcDbArc
 50
203.1136425639
 51
217.6525959869
  0
LINE
  5
278
330
1F
100
AcDbEntity
  8
0
  6
Continuous
 62
     7
370
    30
100
AcDbLine
 10
228.43072995
 20
131.6397236675
 30
0.0
 11
228.2004669725
 21
131.7726516549
 31
0.0
  0
ARC
  5
279
330
1F
100
AcDbEntity
  8
0
  6
Continuous
 62
     7
370
    30
100
AcDbCircle
 10
231.4002491958
 20
133.9309070004
 30
0.0
 40
3.750675354706401
100
AcDbArc
 50
203.1136425639
 51
217.6525959869
  0
LINE
  5
27A
330
1F
100
AcDbEntity
  8
0
  6
Continuous
 62
     7
370
    30
100
AcDbLine
 10
228.6414367876
 20
132.0597724659
 30
0.0
 11
227.9506478552
 21
132.4585564282
 31
0.0
  0
ARC
  5
27B
330
1F
100
AcDbEntity
  8
0
  6
Continuous
 62
     7
370
    30
100
AcDbCircle
 10
232.0910381282
 20
133.5321230381
 30
0.0
 40
3.750675354703239
100
AcDbArc
 50
203.1136425639
 51
217.6525959869
  0
LINE
  5
27C
330
1F
100
AcDbEntity
  8
0
  6
Continuous
 62
     7
370
    30
100
AcDbLine
 10
229.3517818599
 20
131.1080117178
 30
0.0
 11
229.1215188824
 21
131.2409397052
 31
0.0
  0
ARC
  5
27D
330
1F
100
AcDbEntity
  8
0
  6
Continuous
 62
     7
370
    30
100
AcDbCircle
 10
230.4715885821
 20
133.6758826475
 30
0.0
 40
3.010571057134543
100
AcDbArc
 50
220.854337451
 51
234.5022614855
  0
LINE
  5
27E
330
1F
100
AcDbEntity
  8
0
  6
Continuous
 62
     7
370
    30
100
AcDbLine
 10
227.9642048234
 20
131.839481044
 30
0.0
 11
228.1944678009
 21
131.7065530565
 31
0.0
  0
ARC
  5
27F
330
1F
100
AcDbEntity
  8
0
  6
Continuous
 62
     7
370
    30
100
AcDbCircle
 10
230.2413256046
 20
133.8088106349
 30
0.0
 40
3.010571057128801
100
AcDbArc
 50
220.854337451
 51
234.5022614855
  0
LINE
  5
280
330
1F
100
AcDbEntity
  8
0
  6
Continuous
 62
     7
370
    30
100
AcDbLine
 10
228.7234378122
 20
131.2248610287
 30
0.0
 11
228.4931748347
 21
131.3577890162
 31
0.0
  0
LINE
  5
281
330
1F
100
AcDbEntity
  8
0
  6
Continuous
 62
     7
370
    30
100
AcDbLine
 10
229.0344542831
 20
131.0312799998
 30
0.0
 11
229.4698680284
 21
130.7793436834
 31
0.0
  0
LINE
  5
282
330
1F
100
AcDbEntity
  8
0
  6
Continuous
 62
     7
370
    30
100
AcDbLine
 10
228.7092836629
 20
131.2184374045
 30
0.0
 11
229.0344542831
 21
131.0312799998
 31
0.0
  0
LWPOLYLINE
  5
283
330
1F
100
AcDbEntity
  8
0
  6
Continuous
 62
     7
370
    30
100
AcDbPolyline
 90
       19
 70
   128
 43
0.0
 10
190.7413505014
 20
166.7329470825
 10
190.5069328588
 20
166.8331585758
 10
190.1546906628
 20
166.8816663145
 10
189.7683704487
 20
166.8314716876
 10
189.3611278883
 20
166.6842840128
 10
188.9468311383
 20
166.4451155899
 10
188.5395885779
 20
166.1221110127
 10
188.1532683638
 20
165.7262698147
 10
187.8010261678
 20
165.271071893
 10
187.4948571752
 20
164.7720184671
 10
187.245187604
 20
164.2461042027
 10
187.0605196519
 20
163.7112384794
 10
186.9471419645
 20
163.1856355079
 10
186.908915483
 20
162.6871940669
 10
186.9471419645
 20
162.2328879819
 10
187.0605196519
 20
161.8381881019
 10
187.245187604
 20
161.5165354577
 10
187.4948571752
 20
161.2788835444
 10
187.5666085252
 20
161.2335368063
  0
SPLINE
  5
284
330
1F
100
AcDbEntity
  8
0
  6
Continuous
 62
     7
370
    30
100
AcDbSpline
210
0.0
220
0.0
230
1.0
 70
     8
 71
     3
 72
     9
 73
     5
 74
     0
 42
0.000000001
 43
0.00000001
 40
0.0
 40
0.0
 40
0.0
 40
0.0
 40
0.4996167730441381
 40
1.0
 40
1.0
 40
1.0
 40
1.0
 10
229.6073706621046
 20
142.82807292566
 30
0.0
 10
229.6584816471471
 20
142.7860149250128
 30
0.0
 10
229.7607820257574
 20
142.7018344032281
 30
0.0
 10
229.877982551377
 20
142.6350817569721
 30
0.0
 10
229.9366277285875
 20
142.6016798524307
 30
0.0
  0
LINE
  5
285
330
1F
100
AcDbEntity
  8
0
  6
Continuous
 62
     7
370
    30
100
AcDbLine
 10
229.9366277286
 20
142.6016798524
 30
0.0
 11
231.2561571415
 21
141.8399317366
 31
0.0
  0
SPLINE
  5
286
330
1F
100
AcDbEntity
  8
0
  6
Continuous
 62
     7
370
    30
100
AcDbSpline
210
0.0
220
0.0
230
1.0
 70
     8
 71
     3
 72
    13
 73
     9
 74
     0
 42
0.000000001
 43
0.00000001
 40
0.0
 40
0.0
 40
0.0
 40
0.0
 40
0.0393509663440836
 40
0.231882177100575
 40
0.4243180500974303
 40
0.616424028745072
 40
0.8081658390022386
 40
0.9999999999999999
 40
0.9999999999999999
 40
0.9999999999999999
 40
0.9999999999999999
 10
229.3390519491288
 20
142.7098814312662
 30
0.0
 10
229.3298891527166
 20
142.7189141747051
 30
0.0
 10
229.2758958362172
 20
142.7721411322209
 30
0.0
 10
229.2143304987014
 20
142.9016123063568
 30
0.0
 10
229.1789709936562
 20
143.0951059338721
 30
0.0
 10
229.1929877185391
 20
143.3001143625976
 30
0.0
 10
229.2689022535365
 20
143.5050907234862
 30
0.0
 10
229.3603231949184
 20
143.6254861119027
 30
0.0
 10
229.4060446709802
 20
143.6856982994631
 30
0.0
  0
SPLINE
  5
287
330
1F
100
AcDbEntity
  8
0
  6
Continuous
 62
     7
370
    30
100
AcDbSpline
210
0.0
220
0.0
230
1.0
 70
     8
 71
     3
 72
    11
 73
     7
 74
     0
 42
0.000000001
 43
0.00000001
 40
0.0
 40
0.0
 40
0.0
 40
0.0
 40
0.2499289216070107
 40
0.499647887084449
 40
0.7495973681885647
 40
1.0
 40
1.0
 40
1.0
 40
1.0
 10
229.4060446709802
 20
143.6856982994631
 30
0.0
 10
229.4780799305737
 20
143.7616724384477
 30
0.0
 10
229.6220899355786
 20
143.9135568933263
 30
0.0
 10
229.9074284281746
 20
144.0690563180634
 30
0.0
 10
230.2222799548533
 20
144.1515190680283
 30
0.0
 10
230.4170879211854
 20
144.1246022325083
 30
0.0
 10
230.5145801195958
 20
144.111131625949
 30
0.0
  0
LINE
  5
288
330
1F
100
AcDbEntity
  8
0
  6
Continuous
 62
     7
370
    30
100
AcDbLine
 10
230.5145801196
 20
144.1111316259
 30
0.0
 11
231.0248778291
 21
143.8758497494
 31
0.0
  0
LINE
  5
289
330
1F
100
AcDbEntity
  8
0
  6
Continuous
 62
     7
370
    30
100
AcDbLine
 10
231.0248778291
 20
143.8758497494
 30
0.0
 11
232.3534026529
 21
143.1089086934
 31
0.0
  0
SPLINE
  5
28A
330
1F
100
AcDbEntity
  8
0
  6
Continuous
 62
     7
370
    30
100
AcDbSpline
210
0.0
220
0.0
230
1.0
 70
     8
 71
     3
 72
     9
 73
     5
 74
     0
 42
0.000000001
 43
0.00000001
 40
0.0
 40
0.0
 40
0.0
 40
0.0
 40
0.1211573962711476
 40
1.0
 40
1.0
 40
1.0
 40
1.0
 10
228.6509968019227
 20
139.9038084572752
 30
0.0
 10
228.6359468580617
 20
139.9076032488327
 30
0.0
 10
228.5117287391175
 20
139.9389244200885
 30
0.0
 10
228.3996709036226
 20
140.0048857434025
 30
0.0
 10
228.301189703708
 20
140.0628553645292
 30
0.0
  0
LINE
  5
28B
330
1F
100
AcDbEntity
  8
0
  6
Continuous
 62
     7
370
    30
100
AcDbLine
 10
228.3011897037
 20
140.0628553645
 30
0.0
 11
227.4633382838
 21
140.5465366938
 31
0.0
  0
ARC
  5
28C
330
1F
100
AcDbEntity
  8
0
  6
Continuous
 62
     7
370
    30
100
AcDbCircle
 10
240.6402121128
 20
134.2502702788
 30
0.0
 40
14.60386848325211
100
AcDbArc
 50
153.3540207492
 51
154.4602684139
  0
LINE
  5
28D
330
1F
100
AcDbEntity
  8
0
  6
Continuous
 62
     7
370
    30
100
AcDbLine
 10
228.694588476
 20
140.1938390405
 30
0.0
 11
228.7473858066
 21
140.1685956231
 31
0.0
  0
SPLINE
  5
28E
330
1F
100
AcDbEntity
  8
0
  6
Continuous
 62
     7
370
    30
100
AcDbSpline
210
0.0
220
0.0
230
1.0
 70
     8
 71
     3
 72
    13
 73
     9
 74
     0
 42
0.000000001
 43
0.00000001
 40
0.0
 40
0.0
 40
0.0
 40
0.0
 40
0.2505458866420949
 40
0.3778019983016221
 40
0.5010870033758142
 40
0.7499736347707378
 40
0.8749471572160147
 40
0.9999999999999999
 40
0.9999999999999999
 40
0.9999999999999999
 40
0.9999999999999999
 10
228.7473858066071
 20
140.1685956230888
 30
0.0
 10
228.8030529419809
 20
140.1589912925838
 30
0.0
 10
228.8869942721132
 20
140.1445087748073
 30
0.0
 10
229.0031375814665
 20
140.1705199505867
 30
0.0
 10
229.1154603247279
 20
140.2211359851633
 30
0.0
 10
229.2154073913655
 20
140.3106072621871
 30
0.0
 10
229.2968360392997
 20
140.4185866771904
 30
0.0
 10
229.3313370962908
 20
140.4775856887266
 30
0.0
 10
229.3485930974801
 20
140.507094553151
 30
0.0
  0
SPLINE
  5
28F
330
1F
100
AcDbEntity
  8
0
  6
Continuous
 62
     7
370
    30
100
AcDbSpline
210
0.0
220
0.0
230
1.0
 70
     8
 71
     3
 72
    11
 73
     7
 74
     0
 42
0.000000001
 43
0.00000001
 40
0.0
 40
0.0
 40
0.0
 40
0.0
 40
0.2493258462680852
 40
0.4990539966945429
 40
0.7493880339208445
 40
1.0
 40
1.0
 40
1.0
 40
1.0
 10
229.3485930974802
 20
140.5070945531509
 30
0.0
 10
229.3867445257204
 20
140.5882362360829
 30
0.0
 10
229.4631089421172
 20
140.7506505295541
 30
0.0
 10
229.4817054926209
 20
141.0090530506765
 30
0.0
 10
229.4431170285455
 20
141.2506969891909
 30
0.0
 10
229.3566886677251
 20
141.3722041945195
 30
0.0
 10
229.3134505117417
 20
141.4329915037689
 30
0.0
  0
LINE
  5
290
330
1F
100
AcDbEntity
  8
0
  6
Continuous
 62
     7
370
    30
100
AcDbLine
 10
229.3134505117
 20
141.4329915038
 30
0.0
 11
229.1983300055
 21
141.5133237586
 31
0.0
  0
ARC
  5
291
330
1F
100
AcDbEntity
  8
0
  6
Continuous
 62
     7
370
    30
100
AcDbCircle
 10
240.7285556737
 20
134.2139912999
 30
0.0
 40
14.69868264349264
100
AcDbArc
 50
146.6067951716
 51
147.7082803363
  0
LINE
  5
292
330
1F
100
AcDbEntity
  8
0
  6
Continuous
 62
     7
370
    30
100
AcDbLine
 10
228.4564323444
 20
142.3038776059
 30
0.0
 11
230.0719230655
 21
141.3712746636
 31
0.0
  0
SPLINE
  5
293
330
1F
100
AcDbEntity
  8
0
  6
Continuous
 62
     7
370
    30
100
AcDbSpline
210
0.0
220
0.0
230
1.0
 70
     8
 71
     3
 72
     9
 73
     5
 74
     0
 42
0.000000001
 43
0.00000001
 40
0.0
 40
0.0
 40
0.0
 40
0.0
 40
0.4995313394397086
 40
1.0
 40
1.0
 40
1.0
 40
1.0
 10
229.2987849464699
 20
138.3648408824059
 30
0.0
 10
229.2854869292557
 20
138.3656085552099
 30
0.0
 10
229.2588659424142
 20
138.3671453412799
 30
0.0
 10
229.234449526534
 20
138.3793140246022
 30
0.0
 10
229.2222298755827
 20
138.3854040692452
 30
0.0
  0
SPLINE
  5
294
330
1F
100
AcDbEntity
  8
0
  6
Continuous
 62
     7
370
    30
100
AcDbSpline
210
0.0
220
0.0
230
1.0
 70
     8
 71
     3
 72
    13
 73
     9
 74
     0
 42
0.000000001
 43
0.00000001
 40
0.0
 40
0.0
 40
0.0
 40
0.0
 40
0.2497637253598494
 40
0.3716048035455423
 40
0.5005185612727435
 40
0.7498768884903322
 40
0.8748767165648479
 40
1.0
 40
1.0
 40
1.0
 40
1.0
 10
229.2222298755827
 20
138.3854040692452
 30
0.0
 10
229.2000782569676
 20
138.402755721249
 30
0.0
 10
229.1671205171205
 20
138.4285719490649
 30
0.0
 10
229.1402069831867
 20
138.4847664897696
 30
0.0
 10
229.122891988033
 20
138.5459430310939
 30
0.0
 10
229.1185013121659
 20
138.6134978521728
 30
0.0
 10
229.1307167839718
 20
138.6789146869748
 30
0.0
 10
229.1421247921903
 20
138.7096288219493
 30
0.0
 10
229.1478316116726
 20
138.724993469353
 30
0.0
  0
SPLINE
  5
295
330
1F
100
AcDbEntity
  8
0
  6
Continuous
 62
     7
370
    30
100
AcDbSpline
210
0.0
220
0.0
230
1.0
 70
     8
 71
     3
 72
    12
 73
     8
 74
     0
 42
0.000000001
 43
0.00000001
 40
0.0
 40
0.0
 40
0.0
 40
0.0
 40
0.2492361082992017
 40
0.4987901705447531
 40
0.7485257865860548
 40
0.8741389114470212
 40
1.0
 40
1.0
 40
1.0
 40
1.0
 10
229.1478316116726
 20
138.724993469353
 30
0.0
 10
229.1625589320164
 20
138.7537398519638
 30
0.0
 10
229.1920323605501
 20
138.8112692893429
 30
0.0
 10
229.2642416716079
 20
138.8662793963415
 30
0.0
 10
229.3312415392575
 20
138.8862433764719
 30
0.0
 10
229.3845332015364
 20
138.880659409855
 30
0.0
 10
229.4087768603163
 20
138.8690202328292
 30
0.0
 10
229.4209106423177
 20
138.8631949059679
 30
0.0
  0
LINE
  5
296
330
1F
100
AcDbEntity
  8
0
  6
Continuous
 62
     7
370
    30
100
AcDbLine
 10
229.19177448
 20
138.3885591078
 30
0.0
 11
229.2222298756
 21
138.3854040692
 31
0.0
  0
LINE
  5
297
330
1F
100
AcDbEntity
  8
0
  6
Continuous
 62
     7
370
    30
100
AcDbLine
 10
229.1179458039
 20
138.7295544299
 30
0.0
 11
229.1478316117
 21
138.7249934694
 31
0.0
  0
LINE
  5
298
330
1F
100
AcDbEntity
  8
0
  6
Continuous
 62
     7
370
    30
100
AcDbLine
 10
229.3916171226
 20
138.8691440429
 30
0.0
 11
229.4209106423
 21
138.863194906
 31
0.0
  0
LINE
  5
299
330
1F
100
AcDbEntity
  8
0
  6
Continuous
 62
     7
370
    30
100
AcDbLine
 10
228.2730671991
 20
140.0713639235
 30
0.0
 11
228.3011897037
 21
140.0628553645
 31
0.0
  0
LINE
  5
29A
330
1F
100
AcDbEntity
  8
0
  6
Continuous
 62
     7
370
    30
100
AcDbLine
 10
229.9177062471
 20
142.6252448601
 30
0.0
 11
229.9366277286
 21
142.6016798524
 31
0.0
  0
LINE
  5
29B
330
1F
100
AcDbEntity
  8
0
  6
Continuous
 62
     7
370
    30
100
AcDbLine
 10
229.290103605
 20
141.4501730042
 30
0.0
 11
229.3134505117
 21
141.4329915038
 31
0.0
  0
LINE
  5
29C
330
1F
100
AcDbEntity
  8
0
  6
Continuous
 62
     7
370
    30
100
AcDbLine
 10
229.3229111095
 20
140.5203281049
 30
0.0
 11
229.3485930975
 21
140.5070945532
 31
0.0
  0
LINE
  5
29D
330
1F
100
AcDbEntity
  8
0
  6
Continuous
 62
     7
370
    30
100
AcDbLine
 10
227.6336561258
 20
136.3270902502
 30
0.0
 11
227.564689159
 21
136.5974033391
 31
0.0
  0
SPLINE
  5
29E
330
1F
100
AcDbEntity
  8
0
  6
Continuous
 62
     7
370
    30
100
AcDbSpline
210
0.0
220
0.0
230
1.0
 70
     8
 71
     3
 72
    12
 73
     8
 74
     0
 42
0.000000001
 43
0.00000001
 40
0.0
 40
0.0
 40
0.0
 40
0.0
 40
0.2503849153197164
 40
0.5002694321463742
 40
0.7499357848285905
 40
0.874948762454809
 40
0.9999999999999999
 40
0.9999999999999999
 40
0.9999999999999999
 40
0.9999999999999999
 10
227.5646891590305
 20
136.5974033390823
 30
0.0
 10
227.6169802568362
 20
136.6190156268606
 30
0.0
 10
227.7214579478031
 20
136.6621970098941
 30
0.0
 10
227.8525948091114
 20
136.7933557844382
 30
0.0
 10
227.9353498219576
 20
136.9416622213049
 30
0.0
 10
227.9861337857916
 20
137.0761656114024
 30
0.0
 10
228.0057516891663
 20
137.1483117601935
 30
0.0
 10
228.0155621416268
 20
137.184390353783
 30
0.0
  0
SPLINE
  5
29F
330
1F
100
AcDbEntity
  8
0
  6
Continuous
 62
     7
370
    30
100
AcDbSpline
210
0.0
220
0.0
230
1.0
 70
     8
 71
     3
 72
    15
 73
    11
 74
     0
 42
0.000000001
 43
0.00000001
 40
0.0
 40
0.0
 40
0.0
 40
0.0
 40
0.2488108393315902
 40
0.3736796421679528
 40
0.4986815326400353
 40
0.6238352538912125
 40
0.749047349527841
 40
0.8743627802287453
 40
0.9371685783147405
 40
1.0
 40
1.0
 40
1.0
 40
1.0
 10
228.0155621416268
 20
137.184390353783
 30
0.0
 10
228.0382869398115
 20
137.3015863309847
 30
0.0
 10
228.0724164595576
 20
137.4775985615688
 30
0.0
 10
228.0556285830168
 20
137.728082575718
 30
0.0
 10
228.0191822872683
 20
137.9113126637648
 30
0.0
 10
227.9580976224338
 20
138.0841891757491
 30
0.0
 10
227.8735280315784
 20
138.2398332282473
 30
0.0
 10
227.7818587965245
 20
138.3448208396836
 30
0.0
 10
227.7001275679013
 20
138.4128009289466
 30
0.0
 10
227.6563725150403
 20
138.4398998953448
 30
0.0
 10
227.6344905267078
 20
138.4534521419489
 30
0.0
  0
LINE
  5
2A0
330
1F
100
AcDbEntity
  8
0
  6
Continuous
 62
     7
370
    30
100
AcDbLine
 10
227.6344905267
 20
138.4534521419
 30
0.0
 11
227.3519002159
 21
138.5316061524
 31
0.0
  0
SPLINE
  5
2A1
330
1F
100
AcDbEntity
  8
0
  6
Continuous
 62
     7
370
    30
100
AcDbSpline
210
0.0
220
0.0
230
1.0
 70
     8
 71
     3
 72
    11
 73
     7
 74
     0
 42
0.000000001
 43
0.00000001
 40
0.0
 40
0.0
 40
0.0
 40
0.0
 40
0.2502881014520232
 40
0.500287682066685
 40
0.7500954941480031
 40
0.9999999999999999
 40
0.9999999999999999
 40
0.9999999999999999
 40
0.9999999999999999
 10
226.6986625122022
 20
136.8668505742206
 30
0.0
 10
226.6489881349525
 20
136.9578220375163
 30
0.0
 10
226.5496966428352
 20
137.1396600963068
 30
0.0
 10
226.4763524372309
 20
137.4498817733267
 30
0.0
 10
226.4609152717651
 20
137.7604008044988
 30
0.0
 10
226.4999213439321
 20
137.9539277137241
 30
0.0
 10
226.5194281538311
 20
138.0507098919563
 30
0.0
  0
SPLINE
  5
2A2
330
1F
100
AcDbEntity
  8
0
  6
Continuous
 62
     7
370
    30
100
AcDbSpline
210
0.0
220
0.0
230
1.0
 70
     8
 71
     3
 72
    12
 73
     8
 74
     0
 42
0.000000001
 43
0.00000001
 40
0.0
 40
0.0
 40
0.0
 40
0.0
 40
0.3320917518949993
 40
0.4979969969677205
 40
0.665689077539664
 40
0.8320474172364757
 40
1.0
 40
1.0
 40
1.0
 40
1.0
 10
226.5194281538311
 20
138.0507098919563
 30
0.0
 10
226.5668794013751
 20
138.1918477544939
 30
0.0
 10
226.638036178514
 20
138.4034947806578
 30
0.0
 10
226.8179389523654
 20
138.6129692287017
 30
0.0
 10
226.9765371971278
 20
138.7294680786251
 30
0.0
 10
227.1532473593947
 20
138.8093471370281
 30
0.0
 10
227.2780963202698
 20
138.8205235423635
 30
0.0
 10
227.3408184870478
 20
138.8261383937368
 30
0.0
  0
LINE
  5
2A3
330
1F
100
AcDbEntity
  8
0
  6
Continuous
 62
     7
370
    30
100
AcDbLine
 10
228.7200763365
 20
140.1787595277
 30
0.0
 11
228.7473858066
 21
140.1685956231
 31
0.0
  0
LINE
  5
2A4
330
1F
100
AcDbEntity
  8
0
  6
Continuous
 62
     7
370
    30
100
AcDbLine
 10
228.4341174074
 20
142.3226630123
 30
0.0
 11
228.4564323444
 21
142.3038776059
 31
0.0
  0
LINE
  5
2A5
330
1F
100
AcDbEntity
  8
0
  6
Continuous
 62
     7
370
    30
100
AcDbLine
 10
228.7234386748
 20
138.8093302431
 30
0.0
 11
227.1085400264
 21
139.7415913891
 31
0.0
  0
ARC
  5
2A6
330
1F
100
AcDbEntity
  8
0
  6
Continuous
 62
     7
370
    30
100
AcDbCircle
 10
240.1776511931
 20
134.457931616
 30
0.0
 40
14.09676300732496
100
AcDbArc
 50
156.8545797754
 51
157.9872017297
  0
LINE
  5
2A7
330
1F
100
AcDbEntity
  8
0
  6
Continuous
 62
     7
370
    30
100
AcDbLine
 10
231.0123835036
 20
143.9068296044
 30
0.0
 11
231.0248778291
 21
143.8758497494
 31
0.0
  0
LINE
  5
2A8
330
1F
100
AcDbEntity
  8
0
  6
Continuous
 62
     7
370
    30
100
AcDbLine
 10
227.0783426782
 20
139.7453926655
 30
0.0
 11
227.1085400264
 21
139.7415913891
 31
0.0
  0
LINE
  5
2A9
330
1F
100
AcDbEntity
  8
0
  6
Continuous
 62
     7
370
    30
100
AcDbLine
 10
227.6025454669
 20
138.4525049562
 30
0.0
 11
227.6344905267
 21
138.4534521419
 31
0.0
  0
LINE
  5
2AA
330
1F
100
AcDbEntity
  8
0
  6
Continuous
 62
     7
370
    30
100
AcDbLine
 10
227.9820846509
 20
137.1781928869
 30
0.0
 11
228.0155621416
 21
137.1843903538
 31
0.0
  0
LINE
  5
2AB
330
1F
100
AcDbEntity
  8
0
  6
Continuous
 62
     7
370
    30
100
AcDbLine
 10
229.3896196642
 20
143.7123701894
 30
0.0
 11
229.406044671
 21
143.6856982995
 31
0.0
  0
LINE
  5
2AC
330
1F
100
AcDbEntity
  8
0
  6
Continuous
 62
     7
370
    30
100
AcDbLine
 10
227.5990156822
 20
136.3152613946
 30
0.0
 11
227.6336561258
 21
136.3270902502
 31
0.0
  0
LINE
  5
2AD
330
1F
100
AcDbEntity
  8
0
  6
Continuous
 62
     7
370
    30
100
AcDbLine
 10
227.4352157792
 20
140.5550452528
 30
0.0
 11
227.4633382838
 21
140.5465366938
 31
0.0
  0
LINE
  5
2AE
330
1F
100
AcDbEntity
  8
0
  6
Continuous
 62
     7
370
    30
100
AcDbLine
 10
226.4859540279
 20
138.0445258029
 30
0.0
 11
226.5194281538
 21
138.050709892
 31
0.0
  0
LINE
  5
2AF
330
1F
100
AcDbEntity
  8
0
  6
Continuous
 62
     7
370
    30
100
AcDbLine
 10
227.5302581931
 20
136.5868015038
 30
0.0
 11
227.564689159
 21
136.5974033391
 31
0.0
  0
LINE
  5
2B0
330
1F
100
AcDbEntity
  8
0
  6
Continuous
 62
     7
370
    30
100
AcDbLine
 10
229.5885619615
 20
142.8517852065
 30
0.0
 11
229.6073706621
 21
142.8280729257
 31
0.0
  0
LINE
  5
2B1
330
1F
100
AcDbEntity
  8
0
  6
Continuous
 62
     7
370
    30
100
AcDbLine
 10
230.5018683717
 20
144.1418901734
 30
0.0
 11
230.5145801196
 21
144.1111316259
 31
0.0
  0
SPLINE
  5
2B2
330
1F
100
AcDbEntity
  8
0
  6
Continuous
 62
     7
370
    30
100
AcDbSpline
210
0.0
220
0.0
230
1.0
 70
     8
 71
     3
 72
    11
 73
     7
 74
     0
 42
0.000000001
 43
0.00000001
 40
0.0
 40
0.0
 40
0.0
 40
0.0
 40
0.250761184934339
 40
0.5007027724523
 40
0.7502676002891582
 40
0.9999999999999999
 40
0.9999999999999999
 40
0.9999999999999999
 40
0.9999999999999999
 10
226.6910296350921
 20
134.574101176343
 30
0.0
 10
226.6196907729501
 20
134.6561162572437
 30
0.0
 10
226.4772462153228
 20
134.819878357828
 30
0.0
 10
226.3142075958031
 20
135.1082507327914
 30
0.0
 10
226.2110728336178
 20
135.405160765933
 30
0.0
 10
226.2023465314647
 20
135.5887298790137
 30
0.0
 10
226.1979819160472
 20
135.6805452398711
 30
0.0
  0
SPLINE
  5
2B3
330
1F
100
AcDbEntity
  8
0
  6
Continuous
 62
     7
370
    30
100
AcDbSpline
210
0.0
220
0.0
230
1.0
 70
     8
 71
     3
 72
    10
 73
     6
 74
     0
 42
0.000000001
 43
0.00000001
 40
0.0
 40
0.0
 40
0.0
 40
0.0
 40
0.4989499473322881
 40
0.7486813122350567
 40
1.0
 40
1.0
 40
1.0
 40
1.0
 10
226.1979819160472
 20
135.6805452398711
 30
0.0
 10
226.2097875529595
 20
135.8037091305676
 30
0.0
 10
226.2275020747919
 20
135.9885182558108
 30
0.0
 10
226.3466144449146
 20
136.1638941532441
 30
0.0
 10
226.4315313629059
 20
136.2135878973664
 30
0.0
 10
226.4741243299858
 20
136.2385134841345
 30
0.0
  0
ARC
  5
2B4
330
1F
100
AcDbEntity
  8
0
  6
Continuous
 62
     7
370
    30
100
AcDbCircle
 10
234.9404381606
 20
135.1777446886
 30
0.0
 40
7.937019700841548
100
AcDbArc
 50
174.406604182
 51
186.5092185356
  0
SPLINE
  5
2B5
330
1F
100
AcDbEntity
  8
0
  6
Continuous
 62
     7
370
    30
100
AcDbSpline
210
0.0
220
0.0
230
1.0
 70
     8
 71
     3
 72
    10
 73
     6
 74
     0
 42
0.000000001
 43
0.00000001
 40
0.0
 40
0.0
 40
0.0
 40
0.0
 40
0.4994968338130745
 40
0.7498557508204656
 40
1.0
 40
1.0
 40
1.0
 40
1.0
 10
227.0412094581009
 20
135.9513515892407
 30
0.0
 10
226.9612351110275
 20
135.9869164499662
 30
0.0
 10
226.8411758433575
 20
136.0403072095002
 30
0.0
 10
226.6907786696733
 20
136.0363288787718
 30
0.0
 10
226.6267360406881
 20
136.0082344356089
 30
0.0
 10
226.5947284602666
 20
135.9941932389375
 30
0.0
  0
SPLINE
  5
2B6
330
1F
100
AcDbEntity
  8
0
  6
Continuous
 62
     7
370
    30
100
AcDbSpline
210
0.0
220
0.0
230
1.0
 70
     8
 71
     3
 72
     9
 73
     5
 74
     0
 42
0.000000001
 43
0.00000001
 40
0.0
 40
0.0
 40
0.0
 40
0.0
 40
0.4998252396149189
 40
1.0
 40
1.0
 40
1.0
 40
1.0
 10
227.6945745897026
 20
134.7988917765847
 30
0.0
 10
227.690104629284
 20
134.8922670503506
 30
0.0
 10
227.6811615826664
 20
135.0790828939
 30
0.0
 10
227.5991061849276
 20
135.2813350558025
 30
0.0
 10
227.5580641460254
 20
135.3824964824194
 30
0.0
  0
SPLINE
  5
2B7
330
1F
100
AcDbEntity
  8
0
  6
Continuous
 62
     7
370
    30
100
AcDbSpline
210
0.0
220
0.0
230
1.0
 70
     8
 71
     3
 72
     9
 73
     5
 74
     0
 42
0.000000001
 43
0.00000001
 40
0.0
 40
0.0
 40
0.0
 40
0.0
 40
0.4987802899469943
 40
1.0
 40
1.0
 40
1.0
 40
1.0
 10
227.5580641460254
 20
135.3824964824194
 30
0.0
 10
227.5128393156645
 20
135.4636398320802
 30
0.0
 10
227.4221684706604
 20
135.6263233849316
 30
0.0
 10
227.3010795581925
 20
135.7484017682315
 30
0.0
 10
227.2403874085947
 20
135.8095898601128
 30
0.0
  0
SPLINE
  5
2B8
330
1F
100
AcDbEntity
  8
0
  6
Continuous
 62
     7
370
    30
100
AcDbSpline
210
0.0
220
0.0
230
1.0
 70
     8
 71
     3
 72
    10
 73
     6
 74
     0
 42
0.000000001
 43
0.00000001
 40
0.0
 40
0.0
 40
0.0
 40
0.0
 40
0.1326266542546478
 40
0.5665605014690631
 40
1.0
 40
1.0
 40
1.0
 40
1.0
 10
227.5345580087781
 20
134.3874696498775
 30
0.0
 10
227.5484845728626
 20
134.3964210746074
 30
0.0
 10
227.6079766951346
 20
134.4346601730173
 30
0.0
 10
227.67534367258
 20
134.5641473701585
 30
0.0
 10
227.6881667201073
 20
134.720673377795
 30
0.0
 10
227.6945745897026
 20
134.7988917765847
 30
0.0
  0
ARC
  5
2B9
330
1F
100
AcDbEntity
  8
0
  6
Continuous
 62
     7
370
    30
100
AcDbCircle
 10
235.3367498669
 20
135.0342928538
 30
0.0
 40
8.166895526012091
100
AcDbArc
 50
174.6645804196
 51
184.7771553921
  0
SPLINE
  5
2BA
330
1F
100
AcDbEntity
  8
0
  6
Continuous
 62
     7
370
    30
100
AcDbSpline
210
0.0
220
0.0
230
1.0
 70
     8
 71
     3
 72
     9
 73
     5
 74
     0
 42
0.000000001
 43
0.00000001
 40
0.0
 40
0.0
 40
0.0
 40
0.0
 40
0.4991324330921279
 40
1.0
 40
1.0
 40
1.0
 40
1.0
 10
227.5228106932165
 20
135.3652423744958
 30
0.0
 10
227.4776295664162
 20
135.4466748422676
 30
0.0
 10
227.3871102496882
 20
135.609822861456
 30
0.0
 10
227.2659322948591
 20
135.7323372550943
 30
0.0
 10
227.2052381874609
 20
135.7937007413472
 30
0.0
  0
SPLINE
  5
2BB
330
1F
100
AcDbEntity
  8
0
  6
Continuous
 62
     7
370
    30
100
AcDbSpline
210
0.0
220
0.0
230
1.0
 70
     8
 71
     3
 72
     9
 73
     5
 74
     0
 42
0.000000001
 43
0.00000001
 40
0.0
 40
0.0
 40
0.0
 40
0.0
 40
0.5001661762310656
 40
1.0
 40
1.0
 40
1.0
 40
1.0
 10
227.6592199788261
 20
134.7787440255955
 30
0.0
 10
227.6547740605416
 20
134.8726105730885
 30
0.0
 10
227.6458851782143
 20
135.0602812952478
 30
0.0
 10
227.5638264307402
 20
135.2636112071455
 30
0.0
 10
227.5228106932165
 20
135.3652423744958
 30
0.0
  0
SPLINE
  5
2BC
330
1F
100
AcDbEntity
  8
0
  6
Continuous
 62
     7
370
    30
100
AcDbSpline
210
0.0
220
0.0
230
1.0
 70
     8
 71
     3
 72
    12
 73
     8
 74
     0
 42
0.000000001
 43
0.00000001
 40
0.0
 40
0.0
 40
0.0
 40
0.0
 40
0.2500193341512071
 40
0.3743335232349218
 40
0.5003841924907148
 40
0.7502021125590658
 40
1.0
 40
1.0
 40
1.0
 40
1.0
 10
227.1982249637117
 20
134.3541495361269
 30
0.0
 10
227.265251001502
 20
134.3378925200826
 30
0.0
 10
227.3656036120699
 20
134.3135522181065
 30
0.0
 10
227.4759037619721
 20
134.3407187615359
 30
0.0
 10
227.5638692909408
 20
134.4059480455667
 30
0.0
 10
227.6409690633748
 20
134.5410653128593
 30
0.0
 10
227.6531365029645
 20
134.6995199058186
 30
0.0
 10
227.6592199788261
 20
134.7787440255955
 30
0.0
  0
LINE
  5
2BD
330
1F
100
AcDbEntity
  8
0
  6
Continuous
 62
     7
370
    30
100
AcDbLine
 10
227.2403874086
 20
135.8095898601
 30
0.0
 11
227.2052381875
 21
135.7937007413
 31
0.0
  0
LINE
  5
2BE
330
1F
100
AcDbEntity
  8
0
  6
Continuous
 62
     7
370
    30
100
AcDbLine
 10
227.558064146
 20
135.3824964824
 30
0.0
 11
227.5228106932
 21
135.3652423745
 31
0.0
  0
LINE
  5
2BF
330
1F
100
AcDbEntity
  8
0
  6
Continuous
 62
     7
370
    30
100
AcDbLine
 10
227.6945745897
 20
134.7988917766
 30
0.0
 11
227.6592199788
 21
134.7787440256
 31
0.0
  0
LINE
  5
2C0
330
1F
100
AcDbEntity
  8
0
  6
Continuous
 62
     7
370
    30
100
AcDbLine
 10
227.5683647242
 20
134.1167229125
 30
0.0
 11
227.6035415881
 21
134.1411271743
 31
0.0
  0
LINE
  5
2C1
330
1F
100
AcDbEntity
  8
0
  6
Continuous
 62
     7
370
    30
100
AcDbLine
 10
226.1626279875
 20
135.6605005389
 30
0.0
 11
226.197981916
 21
135.6805452399
 31
0.0
  0
LINE
  5
2C2
330
1F
100
AcDbEntity
  8
0
  6
Continuous
 62
     7
370
    30
100
AcDbLine
 10
227.0060736999
 20
135.9356112994
 30
0.0
 11
227.0412094581
 21
135.9513515892
 31
0.0
  0
LINE
  5
2C3
330
1F
100
AcDbEntity
  8
0
  6
Continuous
 62
     7
370
    30
100
AcDbLine
 10
227.0195258846
 20
134.2524536639
 30
0.0
 11
227.0545834325
 21
134.277979754
 31
0.0
  0
LINE
  5
2C4
330
1F
100
AcDbEntity
  8
0
  6
Continuous
 62
     7
370
    30
100
AcDbLine
 10
229.2772599437
 20
131.2072505187
 30
0.0
 11
229.1515512588
 21
131.2798205978
 31
0.0
  0
ARC
  5
2C5
330
1F
100
AcDbEntity
  8
0
  6
Continuous
 62
     7
370
    30
100
AcDbCircle
 10
232.1038058578
 20
133.5576830974
 30
0.0
 40
3.728869102642167
100
AcDbArc
 50
203.1136425639
 51
217.6525959869
  0
LINE
  5
2C6
330
1F
100
AcDbEntity
  8
0
  6
Continuous
 62
     7
370
    30
100
AcDbLine
 10
228.674260339
 20
132.0938927029
 30
0.0
 11
227.9834714066
 21
132.4926766652
 31
0.0
  0
LINE
  5
2C7
330
1F
100
AcDbEntity
  8
0
  6
Continuous
 62
     7
370
    30
100
AcDbLine
 10
228.3562080338
 20
131.7389624684
 30
0.0
 11
228.2304993489
 21
131.8115325475
 31
0.0
  0
ARC
  5
2C8
330
1F
100
AcDbEntity
  8
0
  6
Continuous
 62
     7
370
    30
100
AcDbCircle
 10
231.182753948
 20
134.0893950471
 30
0.0
 40
3.728869102639965
100
AcDbArc
 50
203.1136425639
 51
217.6525959869
  0
LINE
  5
2C9
330
1F
100
AcDbEntity
  8
0
  6
Continuous
 62
     7
370
    30
100
AcDbLine
 10
227.7532084291
 20
132.6256046526
 30
0.0
 11
226.8897222637
 21
133.1240846055
 31
0.0
  0
LINE
  5
2CA
330
1F
100
AcDbEntity
  8
0
  6
Continuous
 62
     7
370
    30
100
AcDbLine
 10
227.2624588909
 20
132.3703704087
 30
0.0
 11
227.136750206
 21
132.4429404878
 31
0.0
  0
ARC
  5
2CB
330
1F
100
AcDbEntity
  8
0
  6
Continuous
 62
     7
370
    30
100
AcDbCircle
 10
230.1498231977
 20
134.7588629785
 30
0.0
 40
3.800277073579314
100
AcDbArc
 50
201.5275997338
 51
217.5467714172
  0
LWPOLYLINE
  5
2CC
330
1F
100
AcDbEntity
  8
0
  6
Continuous
 62
     7
370
    30
100
AcDbPolyline
 90
       27
 70
   128
 43
0.0
 10
224.2477180106
 20
152.3218399877
 10
224.065500239
 20
152.3745840501
 10
223.5341769701
 20
152.4551923485
 10
222.9669114057
 20
152.4397661366
 10
222.3716667109
 20
152.3285219646
 10
221.7567988164
 20
152.123021457
 10
221.1309391196
 20
151.8261493902
 10
220.5028733188
 20
151.4420731975
 10
219.881418081
 20
150.9761844666
 10
219.2752972756
 20
150.4350232541
 10
218.6930195101
 20
149.8261862772
 10
218.1427586878
 20
149.1582202724
 10
217.6322392647
 20
148.4405020182
 10
217.1686278142
 20
147.6831067058
 10
216.7584324249
 20
146.8966665049
 10
216.4074113409
 20
146.0922213123
 10
216.1204921288
 20
145.2810637749
 10
215.9017025053
 20
144.4745807665
 10
215.7541137973
 20
143.6840935408
 10
215.6797978266
 20
142.9206988057
 10
215.6797978266
 20
142.1951129497
 10
215.7541137973
 20
141.5175216079
 10
215.9017025053
 20
140.8974366773
 10
216.1204921288
 20
140.3435627913
 10
216.4074113409
 20
139.8636751249
 10
216.7584324249
 20
139.4645102492
 10
216.802223773
 20
139.4244682237
  0
LINE
  5
2CD
330
1F
100
AcDbEntity
  8
0
  6
Continuous
 62
     7
370
    30
100
AcDbLine
 10
227.9506478552
 20
132.4585564282
 30
0.0
 11
227.9834714066
 21
132.4926766652
 31
0.0
  0
LINE
  5
2CE
330
1F
100
AcDbEntity
  8
0
  6
Continuous
 62
     7
370
    30
100
AcDbLine
 10
228.6414367876
 20
132.0597724659
 30
0.0
 11
228.674260339
 21
132.0938927029
 31
0.0
  0
LINE
  5
2CF
330
1F
100
AcDbEntity
  8
0
  6
Continuous
 62
     7
370
    30
100
AcDbLine
 10
229.1215188824
 20
131.2409397052
 30
0.0
 11
229.1515512588
 21
131.2798205978
 31
0.0
  0
LINE
  5
2D0
330
1F
100
AcDbEntity
  8
0
  6
Continuous
 62
     7
370
    30
100
AcDbLine
 10
226.8568987123
 20
133.0899643686
 30
0.0
 11
226.8897222637
 21
133.1240846055
 31
0.0
  0
LINE
  5
2D1
330
1F
100
AcDbEntity
  8
0
  6
Continuous
 62
     7
370
    30
100
AcDbLine
 10
227.7203848778
 20
132.5914844157
 30
0.0
 11
227.7532084291
 21
132.6256046526
 31
0.0
  0
LINE
  5
2D2
330
1F
100
AcDbEntity
  8
0
  6
Continuous
 62
     7
370
    30
100
AcDbLine
 10
228.2004669725
 20
131.7726516549
 30
0.0
 11
228.2304993489
 21
131.8115325475
 31
0.0
  0
LINE
  5
2D3
330
1F
100
AcDbEntity
  8
0
  6
Continuous
 62
     7
370
    30
100
AcDbLine
 10
227.1067178296
 20
132.4040595953
 30
0.0
 11
227.136750206
 21
132.4429404878
 31
0.0
  0
ARC
  5
2D4
330
1F
100
AcDbEntity
  8
0
  6
Continuous
 62
     7
370
    30
100
AcDbCircle
 10
230.2539218524
 20
133.8300972808
 30
0.0
 40
2.985560187237708
100
AcDbArc
 50
223.9215506277
 51
231.8562031079
  0
LINE
  5
2D5
330
1F
100
AcDbEntity
  8
0
  6
Continuous
 62
     7
370
    30
100
AcDbLine
 10
228.4931748347
 20
131.3577890162
 30
0.0
 11
228.5128529282
 21
131.3895252818
 31
0.0
  0
LWPOLYLINE
  5
2D6
330
1F
100
AcDbEntity
  8
0
  6
Continuous
 62
     7
370
    30
100
AcDbPolyline
 90
       28
 70
   128
 43
0.0
 10
222.5271656656
 20
153.2041307346
 10
222.2988685069
 20
153.3204817513
 10
221.8048302172
 20
153.4822355164
 10
221.2677397846
 20
153.5471111596
 10
220.6954291971
 20
153.5141626478
 10
220.0962440317
 20
153.3838704447
 10
219.4789217575
 20
153.1581345038
 10
218.8524643231
 20
152.8402465635
 10
218.2260068888
 20
152.4348421458
 10
217.6086846145
 20
151.94783296
 10
217.0094994492
 20
151.3863206967
 10
216.4371888616
 20
150.7584934692
 10
215.9000984291
 20
150.073506412
 10
215.4060601394
 20
149.341348179
 10
214.9622781833
 20
148.5726952859
 10
214.5752239011
 20
147.7787564227
 10
214.2505414158
 20
146.9711090058
 10
213.9929653291
 20
146.1615303533
 10
213.8062516803
 20
145.3618259449
 10
213.693123175
 20
144.5836572717
 10
213.6552294814
 20
143.8383717852
 10
213.693123175
 20
143.136837426
 10
213.8062516803
 20
142.4892841448
 10
213.9929653291
 20
141.9051547266
 10
214.2505414158
 20
141.3929670937
 10
214.5752239011
 20
140.960190095
 10
214.9622781833
 20
140.6131345939
 10
215.1777629807
 20
140.4732124576
  0
LWPOLYLINE
  5
2D7
330
1F
100
AcDbEntity
  8
0
  6
Continuous
 62
     7
370
    30
100
AcDbPolyline
 90
       23
 70
   128
 43
0.0
 10
210.7456594369
 20
157.2919767467
 10
210.5074482618
 20
157.4054768419
 10
210.0876648421
 20
157.5099502039
 10
209.6286266054
 20
157.5174862005
 10
209.1401171547
 20
157.427924215
 10
208.6325482209
 20
157.2431731058
 10
208.1167377545
 20
156.9671705218
 10
207.6036793601
 20
156.6057989791
 10
207.1043079867
 20
156.1667604847
 10
206.6292668681
 20
155.6594123817
 10
206.1886806809
 20
155.0945679143
 10
205.7919397549
 20
154.4842657615
 10
205.4474999341
 20
153.8415134543
 10
205.1627023552
 20
153.180010142
 10
204.9436169842
 20
152.5138546194
 10
204.7949132455
 20
151.8572448348
 10
204.719760501
 20
151.2241752859
 10
204.719760501
 20
150.6281387509
 10
204.7949132455
 20
150.0818387138
 10
204.9436169842
 20
149.5969186115
 10
205.1627023552
 20
149.183713674
 10
205.4474999341
 20
148.8510306471
 10
205.7460657738
 20
148.6314881229
  0
ENDSEC
  0
SECTION
  2
OBJECTS
  0
DICTIONARY
  5
C
330
0
100
AcDbDictionary
281
     1
  3
ACAD_GROUP
350
D
  3
ACAD_LAYOUT
350
1A
  3
ACAD_MLINESTYLE
350
17
  3
ACAD_PLOTSETTINGS
350
19
  3
ACAD_PLOTSTYLENAME
350
E
  3
ACAD_SCALELIST
350
47
  0
DICTIONARY
  5
D
102
{ACAD_REACTORS
330
C
102
}
330
C
100
AcDbDictionary
281
     1
  0
DICTIONARY
  5
1A
102
{ACAD_REACTORS
330
C
102
}
330
C
100
AcDbDictionary
281
     1
  3
Layout1
350
1E
  3
Layout2
350
26
  3
Model
350
22
  0
DICTIONARY
  5
17
102
{ACAD_REACTORS
330
C
102
}
330
C
100
AcDbDictionary
281
     1
  3
Standard
350
18
  0
DICTIONARY
  5
19
102
{ACAD_REACTORS
330
C
102
}
330
C
100
AcDbDictionary
281
     1
  0
ACDBDICTIONARYWDFLT
  5
E
102
{ACAD_REACTORS
330
C
102
}
330
C
100
AcDbDictionary
281
     1
  3
Normal
350
F
100
AcDbDictionaryWithDefault
340
F
  0
DICTIONARY
  5
47
102
{ACAD_REACTORS
330
C
102
}
330
C
100
AcDbDictionary
281
     1
  3
A0
350
48
  3
A1
350
49
  3
A2
350
4A
  3
A3
350
4B
  3
A4
350
4C
  3
A5
350
4D
  3
A6
350
4E
  3
A7
350
4F
  3
A8
350
50
  3
A9
350
51
  3
B0
350
52
  3
B1
350
53
  3
B2
350
54
  3
B3
350
55
  3
B4
350
56
  3
B5
350
57
  3
B6
350
58
  3
B7
350
59
  3
B8
350
5A
  3
B9
350
5B
  3
C0
350
5C
  3
C1
350
5D
  3
C2
350
5E
  3
C3
350
5F
  3
C4
350
60
  3
C5
350
61
  3
C6
350
62
  3
C7
350
63
  3
C8
350
64
  3
C9
350
65
  3
D0
350
66
  3
D1
350
67
  3
D2
350
68
  0
LAYOUT
  5
1E
102
{ACAD_REACTORS
330
1A
102
}
330
1A
100
AcDbPlotSettings
  1

  2
none_device
  4

  6

 40
0.0
 41
0.0
 42
0.0
 43
0.0
 44
0.0
 45
0.0
 46
0.0
 47
0.0
 48
0.0
 49
0.0
140
0.0
141
0.0
142
1.0
143
1.0
 70
   688
 72
     1
 73
     0
 74
     5
  7

 75
    16
147
1.0
148
0.0
149
0.0
100
AcDbLayout
  1
Layout1
 70
     1
 71
     1
 10
0.0
 20
0.0
 11
420.0
 21
297.0
 12
0.0
 22
0.0
 32
0.0
 14
1.0000000000E+20
 24
1.0000000000E+20
 34
1.0000000000E+20
 15
-1.0000000000E+20
 25
-1.0000000000E+20
 35
-1.0000000000E+20
146
0.0
 13
0.0
 23
0.0
 33
0.0
 16
1.0
 26
0.0
 36
0.0
 17
0.0
 27
1.0
 37
0.0
 76
     0
330
1B
  0
LAYOUT
  5
26
102
{ACAD_REACTORS
330
1A
102
}
330
1A
100
AcDbPlotSettings
  1

  2
none_device
  4

  6

 40
0.0
 41
0.0
 42
0.0
 43
0.0
 44
0.0
 45
0.0
 46
0.0
 47
0.0
 48
0.0
 49
0.0
140
0.0
141
0.0
142
1.0
143
1.0
 70
   688
 72
     1
 73
     0
 74
     5
  7

 75
    16
147
1.0
148
0.0
149
0.0
100
AcDbLayout
  1
Layout2
 70
     1
 71
     2
 10
0.0
 20
0.0
 11
0.0
 21
0.0
 12
0.0
 22
0.0
 32
0.0
 14
0.0
 24
0.0
 34
0.0
 15
0.0
 25
0.0
 35
0.0
146
0.0
 13
0.0
 23
0.0
 33
0.0
 16
1.0
 26
0.0
 36
0.0
 17
0.0
 27
1.0
 37
0.0
 76
     0
330
23
  0
LAYOUT
  5
22
102
{ACAD_REACTORS
330
1A
102
}
330
1A
100
AcDbPlotSettings
  1

  2
none_device
  4
Letter_(8.50_x_11.00_Inches)
  6

 40
6.35
 41
6.35
 42
6.35000508
 43
6.35000508
 44
215.9
 45
279.4
 46
0.0
 47
0.0
 48
0.0
 49
0.0
140
0.0
141
0.0
142
1.0
143
1.0
 70
  1712
 72
     1
 73
     0
 74
     0
  7

 75
     0
147
1.0
148
0.0
149
0.0
100
AcDbLayout
  1
Model
 70
     1
 71
     0
 10
0.0
 20
0.0
 11
297.0
 21
210.0
 12
0.0
 22
0.0
 32
0.0
 14
0.0
 24
0.0
 34
0.0
 15
297.0
 25
210.0
 35
0.0
146
0.0
 13
0.0
 23
0.0
 33
0.0
 16
1.0
 26
0.0
 36
0.0
 17
0.0
 27
1.0
 37
0.0
 76
     0
330
1F
331
29
  0
MLINESTYLE
  5
18
102
{ACAD_REACTORS
330
17
102
}
330
17
100
AcDbMlineStyle
  2
Standard
 70
     0
  3

 62
   256
 51
90.0
 52
90.0
 71
     2
 49
0.5
 62
   256
  6
BYLAYER
 49
-0.5
 62
   256
  6
BYLAYER
  0
ACDBPLACEHOLDER
  5
F
102
{ACAD_REACTORS
330
E
102
}
330
E
  0
SCALE
  5
48
102
{ACAD_REACTORS
330
47
102
}
330
47
100
AcDbScale
 70
     0
300
1:1
140
1.0
141
1.0
290
     1
  0
SCALE
  5
49
102
{ACAD_REACTORS
330
47
102
}
330
47
100
AcDbScale
 70
     0
300
1:2
140
1.0
141
2.0
290
     0
  0
SCALE
  5
4A
102
{ACAD_REACTORS
330
47
102
}
330
47
100
AcDbScale
 70
     0
300
1:4
140
1.0
141
4.0
290
     0
  0
SCALE
  5
4B
102
{ACAD_REACTORS
330
47
102
}
330
47
100
AcDbScale
 70
     0
300
1:5
140
1.0
141
5.0
290
     0
  0
SCALE
  5
4C
102
{ACAD_REACTORS
330
47
102
}
330
47
100
AcDbScale
 70
     0
300
1:8
140
1.0
141
8.0
290
     0
  0
SCALE
  5
4D
102
{ACAD_REACTORS
330
47
102
}
330
47
100
AcDbScale
 70
     0
300
1:10
140
1.0
141
10.0
290
     0
  0
SCALE
  5
4E
102
{ACAD_REACTORS
330
47
102
}
330
47
100
AcDbScale
 70
     0
300
1:16
140
1.0
141
16.0
290
     0
  0
SCALE
  5
4F
102
{ACAD_REACTORS
330
47
102
}
330
47
100
AcDbScale
 70
     0
300
1:20
140
1.0
141
20.0
290
     0
  0
SCALE
  5
50
102
{ACAD_REACTORS
330
47
102
}
330
47
100
AcDbScale
 70
     0
300
1:30
140
1.0
141
30.0
290
     0
  0
SCALE
  5
51
102
{ACAD_REACTORS
330
47
102
}
330
47
100
AcDbScale
 70
     0
300
1:40
140
1.0
141
40.0
290
     0
  0
SCALE
  5
52
102
{ACAD_REACTORS
330
47
102
}
330
47
100
AcDbScale
 70
     0
300
1:50
140
1.0
141
50.0
290
     0
  0
SCALE
  5
53
102
{ACAD_REACTORS
330
47
102
}
330
47
100
AcDbScale
 70
     0
300
1:100
140
1.0
141
100.0
290
     0
  0
SCALE
  5
54
102
{ACAD_REACTORS
330
47
102
}
330
47
100
AcDbScale
 70
     0
300
2:1
140
2.0
141
1.0
290
     0
  0
SCALE
  5
55
102
{ACAD_REACTORS
330
47
102
}
330
47
100
AcDbScale
 70
     0
300
4:1
140
4.0
141
1.0
290
     0
  0
SCALE
  5
56
102
{ACAD_REACTORS
330
47
102
}
330
47
100
AcDbScale
 70
     0
300
8:1
140
8.0
141
1.0
290
     0
  0
SCALE
  5
57
102
{ACAD_REACTORS
330
47
102
}
330
47
100
AcDbScale
 70
     0
300
10:1
140
10.0
141
1.0
290
     0
  0
SCALE
  5
58
102
{ACAD_REACTORS
330
47
102
}
330
47
100
AcDbScale
 70
     0
300
100:1
140
100.0
141
1.0
290
     0
  0
SCALE
  5
59
102
{ACAD_REACTORS
330
47
102
}
330
47
100
AcDbScale
 70
     0
300
1/128" = 1'-0"
140
0.0078125
141
12.0
290
     0
  0
SCALE
  5
5A
102
{ACAD_REACTORS
330
47
102
}
330
47
100
AcDbScale
 70
     0
300
1/64" = 1'-0"
140
0.015625
141
12.0
290
     0
  0
SCALE
  5
5B
102
{ACAD_REACTORS
330
47
102
}
330
47
100
AcDbScale
 70
     0
300
1/32" = 1'-0"
140
0.03125
141
12.0
290
     0
  0
SCALE
  5
5C
102
{ACAD_REACTORS
330
47
102
}
330
47
100
AcDbScale
 70
     0
300
1/16" = 1'-0"
140
0.0625
141
12.0
290
     0
  0
SCALE
  5
5D
102
{ACAD_REACTORS
330
47
102
}
330
47
100
AcDbScale
 70
     0
300
3/32" = 1'-0"
140
0.09375
141
12.0
290
     0
  0
SCALE
  5
5E
102
{ACAD_REACTORS
330
47
102
}
330
47
100
AcDbScale
 70
     0
300
1/8" = 1'-0"
140
0.125
141
12.0
290
     0
  0
SCALE
  5
5F
102
{ACAD_REACTORS
330
47
102
}
330
47
100
AcDbScale
 70
     0
300
3/16" = 1'-0"
140
0.1875
141
12.0
290
     0
  0
SCALE
  5
60
102
{ACAD_REACTORS
330
47
102
}
330
47
100
AcDbScale
 70
     0
300
1/4" = 1'-0"
140
0.25
141
12.0
290
     0
  0
SCALE
  5
61
102
{ACAD_REACTORS
330
47
102
}
330
47
100
AcDbScale
 70
     0
300
3/8" = 1'-0"
140
0.375
141
12.0
290
     0
  0
SCALE
  5
62
102
{ACAD_REACTORS
330
47
102
}
330
47
100
AcDbScale
 70
     0
300
1/2" = 1'-0"
140
0.5
141
12.0
290
     0
  0
SCALE
  5
63
102
{ACAD_REACTORS
330
47
102
}
330
47
100
AcDbScale
 70
     0
300
3/4" = 1'-0"
140
0.75
141
12.0
290
     0
  0
SCALE
  5
64
102
{ACAD_REACTORS
330
47
102
}
330
47
100
AcDbScale
 70
     0
300
1" = 1'-0"
140
1.0
141
12.0
290
     0
  0
SCALE
  5
65
102
{ACAD_REACTORS
330
47
102
}
330
47
100
AcDbScale
 70
     0
300
1-1/2" = 1'-0"
140
1.5
141
12.0
290
     0
  0
SCALE
  5
66
102
{ACAD_REACTORS
330
47
102
}
330
47
100
AcDbScale
 70
     0
300
3" = 1'-0"
140
3.0
141
12.0
290
     0
  0
SCALE
  5
67
102
{ACAD_REACTORS
330
47
102
}
330
47
100
AcDbScale
 70
     0
300
6" = 1'-0"
140
6.0
141
12.0
290
     0
  0
SCALE
  5
68
102
{ACAD_REACTORS
330
47
102
}
330
47
100
AcDbScale
 70
     0
300
1'-0" = 1'-0"
140
12.0
141
12.0
290
     0
  0
ENDSEC
  0
EOF
