  0
SECTION
  2
HEADER
  9
$ACADVER
  1
AC1015
  9
$ACADMAINTVER
 70
     6
  9
$DWGCODEPAGE
  3
ANSI_950
  9
$INSBASE
 10
0.0
 20
0.0
 30
0.0
  9
$EXTMIN
 10
0.0
 20
0.0
 30
0.0
  9
$EXTMAX
 10
297.0
 20
210.0
 30
0.0
  9
$LIMMIN
 10
0.0
 20
0.0
  9
$LIMMAX
 10
297.0
 20
210.0
  9
$ORTHOMODE
 70
     0
  9
$REGENMODE
 70
     1
  9
$FILLMODE
 70
     1
  9
$QTEXTMODE
 70
     0
  9
$MIRRTEXT
 70
     1
  9
$LTSCALE
 40
1.0
  9
$ATTMODE
 70
     1
  9
$TEXTSIZE
 40
3.175
  9
$TRACEWID
 40
1.0
  9
$TEXTSTYLE
  7
Standard
  9
$CLAYER
  8
0
  9
$CELTYPE
  6
ByLayer
  9
$CECOLOR
 62
   256
  9
$CELTSCALE
 40
1.0
  9
$DISPSILH
 70
     0
  9
$DIMSCALE
 40
1.0
  9
$DIMASZ
 40
2.0
  9
$DIMEXO
 40
1.0
  9
$DIMDLI
 40
3.75
  9
$DIMRND
 40
0.0
  9
$DIMDLE
 40
0.0
  9
$DIMEXE
 40
1.0
  9
$DIMTP
 40
0.0
  9
$DIMTM
 40
0.0
  9
$DIMTXT
 40
3.175
  9
$DIMCEN
 40
2.5
  9
$DIMTSZ
 40
0.0
  9
$DIMTOL
 70
     0
  9
$DIMLIM
 70
     0
  9
$DIMTIH
 70
     1
  9
$DIMTOH
 70
     1
  9
$DIMSE1
 70
     0
  9
$DIMSE2
 70
     0
  9
$DIMTAD
 70
     1
  9
$DIMZIN
 70
     0
  9
$DIMBLK
  1

  9
$DIMASO
 70
     1
  9
$DIMSHO
 70
     1
  9
$DIMPOST
  1

  9
$DIMAPOST
  1

  9
$DIMALT
 70
     0
  9
$DIMALTD
 70
     3
  9
$DIMALTF
 40
0.0393700787
  9
$DIMLFAC
 40
1.0
  9
$DIMTOFL
 70
     1
  9
$DIMTVP
 40
0.0
  9
$DIMTIX
 70
     0
  9
$DIMSOXD
 70
     0
  9
$DIMSAH
 70
     0
  9
$DIMBLK1
  1

  9
$DIMBLK2
  1

  9
$DIMSTYLE
  2
ISO-25
  9
$DIMCLRD
 70
     0
  9
$DIMCLRE
 70
     0
  9
$DIMCLRT
 70
     0
  9
$DIMTFAC
 40
1.0
  9
$DIMGAP
 40
1.0
  9
$DIMJUST
 70
     0
  9
$DIMSD1
 70
     0
  9
$DIMSD2
 70
     0
  9
$DIMTOLJ
 70
     0
  9
$DIMTZIN
 70
     0
  9
$DIMALTZ
 70
     0
  9
$DIMALTTZ
 70
     0
  9
$DIMUPT
 70
     0
  9
$DIMDEC
 70
     2
  9
$DIMTDEC
 70
     2
  9
$DIMALTU
 70
     2
  9
$DIMALTTD
 70
     3
  9
$DIMTXSTY
  7
Standard
  9
$DIMAUNIT
 70
     0
  9
$DIMADEC
 70
     2
  9
$DIMALTRND
 40
0.0
  9
$DIMAZIN
 70
     0
  9
$DIMDSEP
 70
    44
  9
$DIMATFIT
 70
     3
  9
$DIMFRAC
 70
     0
  9
$DIMLDRBLK
  1

  9
$DIMLUNIT
 70
     2
  9
$DIMLWD
 70
    -2
  9
$DIMLWE
 70
    -2
  9
$DIMTMOVE
 70
     0
  9
$LUNITS
 70
     2
  9
$LUPREC
 70
     2
  9
$SKETCHINC
 40
1.0
  9
$FILLETRAD
 40
10.0
  9
$AUNITS
 70
     0
  9
$AUPREC
 70
     2
  9
$MENU
  1
.
  9
$ELEVATION
 40
0.0
  9
$PELEVATION
 40
0.0
  9
$THICKNESS
 40
0.0
  9
$LIMCHECK
 70
     0
  9
$CHAMFERA
 40
0.0
  9
$CHAMFERB
 40
0.0
  9
$CHAMFERC
 40
0.0
  9
$CHAMFERD
 40
0.0
  9
$SKPOLY
 70
     0
  9
$TDCREATE
 40
2458136.589647708
  9
$TDUCREATE
 40
2458136.256314375
  9
$TDUPDATE
 40
2458136.589656921
  9
$TDUUPDATE
 40
2458136.256323588
  9
$TDINDWG
 40
0.0000000116
  9
$TDUSRTIMER
 40
0.0000000116
  9
$USRTIMER
 70
     1
  9
$ANGBASE
 50
0.0
  9
$ANGDIR
 70
     0
  9
$PDMODE
 70
     0
  9
$PDSIZE
 40
-1.0
  9
$PLINEWID
 40
0.0
  9
$SPLFRAME
 70
     0
  9
$SPLINETYPE
 70
     6
  9
$SPLINESEGS
 70
     8
  9
$HANDSEED
  5
2D8
  9
$SURFTAB1
 70
     6
  9
$SURFTAB2
 70
     6
  9
$SURFTYPE
 70
     6
  9
$SURFU
 70
     6
  9
$SURFV
 70
     6
  9
$UCSBASE
  2

  9
$UCSNAME
  2

  9
$UCSORG
 10
0.0
 20
0.0
 30
0.0
  9
$UCSXDIR
 10
1.0
 20
0.0
 30
0.0
  9
$UCSYDIR
 10
0.0
 20
1.0
 30
0.0
  9
$UCSORTHOREF
  2

  9
$UCSORTHOVIEW
 70
     0
  9
$UCSORGTOP
 10
0.0
 20
0.0
 30
0.0
  9
$UCSORGBOTTOM
 10
0.0
 20
0.0
 30
0.0
  9
$UCSORGLEFT
 10
0.0
 20
0.0
 30
0.0
  9
$UCSORGRIGHT
 10
0.0
 20
0.0
 30
0.0
  9
$UCSORGFRONT
 10
0.0
 20
0.0
 30
0.0
  9
$UCSORGBACK
 10
0.0
 20
0.0
 30
0.0
  9
$PUCSBASE
  2

  9
$PUCSNAME
  2

  9
$PUCSORG
 10
0.0
 20
0.0
 30
0.0
  9
$PUCSXDIR
 10
1.0
 20
0.0
 30
0.0
  9
$PUCSYDIR
 10
0.0
 20
1.0
 30
0.0
  9
$PUCSORTHOREF
  2

  9
$PUCSORTHOVIEW
 70
     0
  9
$PUCSORGTOP
 10
0.0
 20
0.0
 30
0.0
  9
$PUCSORGBOTTOM
 10
0.0
 20
0.0
 30
0.0
  9
$PUCSORGLEFT
 10
0.0
 20
0.0
 30
0.0
  9
$PUCSORGRIGHT
 10
0.0
 20
0.0
 30
0.0
  9
$PUCSORGFRONT
 10
0.0
 20
0.0
 30
0.0
  9
$PUCSORGBACK
 10
0.0
 20
0.0
 30
0.0
  9
$USERI1
 70
     0
  9
$USERI2
 70
     0
  9
$USERI3
 70
     0
  9
$USERI4
 70
     0
  9
$USERI5
 70
     0
  9
$USERR1
 40
0.0
  9
$USERR2
 40
0.0
  9
$USERR3
 40
0.0
  9
$USERR4
 40
0.0
  9
$USERR5
 40
0.0
  9
$WORLDVIEW
 70
     1
  9
$SHADEDGE
 70
     3
  9
$SHADEDIF
 70
    70
  9
$TILEMODE
 70
     1
  9
$MAXACTVP
 70
    64
  9
$PINSBASE
 10
0.0
 20
0.0
 30
0.0
  9
$PLIMCHECK
 70
     0
  9
$PEXTMIN
 10
1.0000000000E+20
 20
1.0000000000E+20
 30
1.0000000000E+20
  9
$PEXTMAX
 10
-1.0000000000E+20
 20
-1.0000000000E+20
 30
-1.0000000000E+20
  9
$PLIMMIN
 10
0.0
 20
0.0
  9
$PLIMMAX
 10
420.0
 20
297.0
  9
$UNITMODE
 70
     0
  9
$VISRETAIN
 70
     1
  9
$PLINEGEN
 70
     0
  9
$PSLTSCALE
 70
     1
  9
$TREEDEPTH
 70
  3020
  9
$CMLSTYLE
  2
Standard
  9
$CMLJUST
 70
     0
  9
$CMLSCALE
 40
20.0
  9
$PROXYGRAPHICS
 70
     1
  9
$MEASUREMENT
 70
     1
  9
$CELWEIGHT
370
    -1
  9
$ENDCAPS
280
     0
  9
$JOINSTYLE
280
     0
  9
$LWDISPLAY
290
     1
  9
$INSUNITS
 70
     4
  9
$HYPERLINKBASE
  1

  9
$STYLESHEET
  1

  9
$XEDIT
290
     1
  9
$CEPSNTYPE
380
     0
  9
$PSTYLEMODE
290
     1
  9
$FINGERPRINTGUID
  2
{9797C017-E0B7-4663-A386-09ABBC0CF856}
  9
$VERSIONGUID
  2
{FAEB1C32-E019-11D5-929B-00C0DF256EC4}
  9
$EXTNAMES
290
     1
  9
$PSVPSCALE
 40
0.0
  9
$OLESTARTUP
290
     0
  0
ENDSEC
  0
SECTION
  2
CLASSES
  0
CLASS
  1
ACDBDICTIONARYWDFLT
  2
AcDbDictionaryWithDefault
  3
ObjectDBX Classes
 90
        0
280
     0
281
     0
  0
CLASS
  1
VISUALSTYLE
  2
AcDbVisualStyle
  3
ObjectDBX Classes
 90
     4095
280
     0
281
     0
  0
CLASS
  1
MATERIAL
  2
AcDbMaterial
  3
ObjectDBX Classes
 90
     1153
280
     0
281
     0
  0
CLASS
  1
SCALE
  2
AcDbScale
  3
ObjectDBX Classes
 90
     1153
280
     0
281
     0
  0
CLASS
  1
TABLESTYLE
  2
AcDbTableStyle
  3
ObjectDBX Classes
 90
     4095
280
     0
281
     0
  0
CLASS
  1
MLEADERSTYLE
  2
AcDbMLeaderStyle
  3
ACDB_MLEADERSTYLE_CLASS
 90
     4095
280
     0
281
     0
  0
CLASS
  1
SUN
  2
AcDbSun
  3
SCENEOE
 90
     1153
280
     0
281
     0
  0
CLASS
  1
ACDBPLACEHOLDER
  2
AcDbPlaceHolder
  3
ObjectDBX Classes
 90
        0
280
     0
281
     0
  0
CLASS
  1
LAYOUT
  2
AcDbLayout
  3
ObjectDBX Classes
 90
        0
280
     0
281
     0
  0
ENDSEC
  0
SECTION
  2
TABLES
  0
TABLE
  2
VPORT
  5
8
330
0
100
AcDbSymbolTable
 70
     1
  0
VPORT
  5
29
330
8
100
AcDbSymbolTableRecord
100
AcDbViewportTableRecord
  2
*Active
 70
     0
 10
0.0
 20
0.0
 11
1.0
 21
1.0
 12
148.5
 22
105.0
 13
0.0
 23
0.0
 14
10.0
 24
10.0
 15
10.0
 25
10.0
 16
0.0
 26
0.0
 36
1.0
 17
0.0
 27
0.0
 37
0.0
 40
210.0
 41
1.4142857143
 42
50.0
 43
0.0
 44
0.0
 50
0.0
 51
0.0
 71
     0
 72
  2000
 73
     1
 74
     3
 75
     0
 76
     0
 77
     0
 78
     0
281
     0
 65
     1
110
0.0
120
0.0
130
0.0
111
1.0
121
0.0
131
0.0
112
0.0
122
1.0
132
0.0
 79
     0
146
0.0
  0
ENDTAB
  0
TABLE
  2
LTYPE
  5
5
330
0
100
AcDbSymbolTable
 70
     6
  0
LTYPE
  5
14
330
5
100
AcDbSymbolTableRecord
100
AcDbLinetypeTableRecord
  2
ByBlock
 70
     0
  3

 72
    65
 73
     0
 40
0.0
  0
LTYPE
  5
15
330
5
100
AcDbSymbolTableRecord
100
AcDbLinetypeTableRecord
  2
ByLayer
 70
     0
  3

 72
    65
 73
     0
 40
0.0
  0
LTYPE
  5
16
330
5
100
AcDbSymbolTableRecord
100
AcDbLinetypeTableRecord
  2
Continuous
 70
     0
  3
Solid line
 72
    65
 73
     0
 40
0.0
  0
LTYPE
  5
6E
330
5
100
AcDbSymbolTableRecord
100
AcDbLinetypeTableRecord
  2
HIDDEN
 70
     0
  3
Hidden __ __ __ __ __ __ __ __ __ __ __ __ __ __
 72
    65
 73
     2
 40
1.905
 49
1.27
 74
     0
 49
-0.635
 74
     0
  0
LTYPE
  5
6F
330
5
100
AcDbSymbolTableRecord
100
AcDbLinetypeTableRecord
  2
PHANTOM
 70
     0
  3
Phantom ______  __  __  ______  __  __  ______
 72
    65
 73
     6
 40
12.7
 49
6.35
 74
     0
 49
-1.27
 74
     0
 49
1.27
 74
     0
 49
-1.27
 74
     0
 49
1.27
 74
     0
 49
-1.27
 74
     0
  0
LTYPE
  5
70
330
5
100
AcDbSymbolTableRecord
100
AcDbLinetypeTableRecord
  2
CENTER
 70
     0
  3
Center ____ _ ____ _ ____ _ ____ _ ____ _ ____
 72
    65
 73
     4
 40
10.16
 49
6.35
 74
     0
 49
-1.27
 74
     0
 49
1.27
 74
     0
 49
-1.27
 74
     0
  0
LTYPE
  5
71
330
5
100
AcDbSymbolTableRecord
100
AcDbLinetypeTableRecord
  2
CENTERX2
 70
     0
  3
Center (2x) ________  __  ________  __  _____
 72
    65
 73
     4
 40
20.32
 49
12.7
 74
     0
 49
-2.54
 74
     0
 49
2.54
 74
     0
 49
-2.54
 74
     0
  0
LTYPE
  5
72
330
5
100
AcDbSymbolTableRecord
100
AcDbLinetypeTableRecord
  2
DOT2
 70
     0
  3
Dot (.5x) ........................................
 72
    65
 73
     2
 40
0.635
 49
0.0
 74
     0
 49
-0.635
 74
     0
  0
ENDTAB
  0
TABLE
  2
LAYER
  5
2
330
0
100
AcDbSymbolTable
 70
    10
  0
LAYER
  5
10
330
2
100
AcDbSymbolTableRecord
100
AcDbLayerTableRecord
  2
0
 70
     0
 62
     7
  6
Continuous
370
    -3
390
F
  0
LAYER
  5
73
330
2
100
AcDbSymbolTableRecord
100
AcDbLayerTableRecord
  2
SLD-0
 70
     0
 62
     7
  6
Continuous
370
    15
390
F
  0
LAYER
  5
74
330
2
100
AcDbSymbolTableRecord
100
AcDbLayerTableRecord
  2
輪廓線
 70
     0
 62
   219
  6
Continuous
370
    15
390
F
  0
LAYER
  5
75
330
2
100
AcDbSymbolTableRecord
100
AcDbLayerTableRecord
  2
DIM
 70
     0
 62
     7
  6
Continuous
370
    -3
390
F
  0
LAYER
  5
76
330
2
100
AcDbSymbolTableRecord
100
AcDbLayerTableRecord
  2
中心線
 70
     0
 62
     7
  6
CENTERX2
370
    -3
390
F
  0
LAYER
  5
77
330
2
100
AcDbSymbolTableRecord
100
AcDbLayerTableRecord
  2
虛線
 70
     0
 62
     7
  6
HIDDEN
370
    -3
390
F
  0
LAYER
  5
78
330
2
100
AcDbSymbolTableRecord
100
AcDbLayerTableRecord
  2
SECTION
 70
     0
 62
     7
  6
PHANTOM
370
    15
390
F
  0
LAYER
  5
79
330
2
100
AcDbSymbolTableRecord
100
AcDbLayerTableRecord
  2
假想線
 70
     0
 62
     7
  6
PHANTOM
370
    -3
390
F
  0
LAYER
  5
7A
330
2
100
AcDbSymbolTableRecord
100
AcDbLayerTableRecord
  2
圖層_1
 70
     0
 62
   179
  6
Continuous
370
    -3
390
F
  0
LAYER
  5
7B
330
2
100
AcDbSymbolTableRecord
100
AcDbLayerTableRecord
  2
工作區域參考線
 70
     0
 62
   179
  6
Continuous
370
    -3
390
F
  0
ENDTAB
  0
TABLE
  2
STYLE
  5
3
330
0
100
AcDbSymbolTable
 70
     3
  0
STYLE
  5
11
330
3
100
AcDbSymbolTableRecord
100
AcDbTextStyleTableRecord
  2
Standard
 70
     0
 40
0.0
 41
1.0
 50
0.0
 71
     0
 42
3.175
  3
txt
  4

  0
STYLE
  5
CC
330
3
100
AcDbSymbolTableRecord
100
AcDbTextStyleTableRecord
  2
SLDTEXTSTYLE0
 70
     0
 40
0.0
 41
0.605
 50
0.0
 71
     0
 42
3.175
  3
TXT
  4

  0
STYLE
  5
103
330
3
100
AcDbSymbolTableRecord
100
AcDbTextStyleTableRecord
  2
SLDTEXTSTYLE1
 70
     0
 40
0.0
 41
0.7
 50
0.0
 71
     0
 42
3.175
  3
TXT
  4

  0
ENDTAB
  0
TABLE
  2
VIEW
  5
6
330
0
100
AcDbSymbolTable
 70
     0
  0
ENDTAB
  0
TABLE
  2
UCS
  5
7
330
0
100
AcDbSymbolTable
 70
     0
  0
ENDTAB
  0
TABLE
  2
APPID
  5
9
330
0
100
AcDbSymbolTable
 70
     1
  0
APPID
  5
12
330
9
100
AcDbSymbolTableRecord
100
AcDbRegAppTableRecord
  2
ACAD
 70
     0
  0
ENDTAB
  0
TABLE
  2
DIMSTYLE
  5
A
330
0
100
AcDbSymbolTable
 70
     3
100
AcDbDimStyleTable
  0
DIMSTYLE
105
27
330
A
100
AcDbSymbolTableRecord
100
AcDbDimStyleTableRecord
  2
ISO-25
 70
     0
 41
2.5
 42
0.625
 43
3.75
 44
1.25
 73
     0
 74
     0
 77
     1
 78
     8
140
2.5
141
2.5
143
0.0393700787
147
0.625
171
     3
172
     1
178
     0
271
     2
272
     2
274
     3
278
    44
283
     0
284
     8
340
11
  0
DIMSTYLE
105
1CD
102
{ACAD_REACTORS
330
1CC
330
1D7
330
1E1
330
1F8
330
203
330
20E
330
21A
102
}
330
A
100
AcDbSymbolTableRecord
100
AcDbDimStyleTableRecord
  2
SLDDIMSTYLE0
 70
     0
 41
2.0
 44
0.0
 45
0.000000001
 73
     0
 74
     0
 77
     1
 78
    12
 79
     3
140
2.5424804688
147
0.6356201172
173
     1
178
     0
271
     2
272
     2
276
     2
284
    12
340
103
  0
DIMSTYLE
105
1EC
102
{ACAD_REACTORS
330
1EB
102
}
330
A
100
AcDbSymbolTableRecord
100
AcDbDimStyleTableRecord
  2
SLDDIMSTYLE1
 70
     0
 41
2.0
 44
0.0
 45
0.000000001
 73
     0
 74
     0
 77
     1
 78
    12
 79
     3
140
2.5424804688
147
0.6356201172
172
     1
173
     1
178
     0
271
     2
272
     2
276
     2
284
    12
289
     0
340
103
  0
ENDTAB
  0
TABLE
  2
BLOCK_RECORD
  5
1
330
0
100
AcDbSymbolTable
 70
    12
  0
BLOCK_RECORD
  5
1F
330
1
100
AcDbSymbolTableRecord
100
AcDbBlockTableRecord
  2
*Model_Space
340
22
  0
BLOCK_RECORD
  5
1B
330
1
100
AcDbSymbolTableRecord
100
AcDbBlockTableRecord
  2
*Paper_Space
340
1E
  0
BLOCK_RECORD
  5
23
330
1
100
AcDbSymbolTableRecord
100
AcDbBlockTableRecord
  2
*Paper_Space0
340
26
  0
BLOCK_RECORD
  5
7C
330
1
100
AcDbSymbolTableRecord
100
AcDbBlockTableRecord
  2
圖塊6
340
0
102
{BLKREFS
331
CB
102
}
  0
BLOCK_RECORD
  5
CE
330
1
100
AcDbSymbolTableRecord
100
AcDbBlockTableRecord
  2
SW_NOTE_0
340
0
102
{BLKREFS
331
D4
102
}
  0
BLOCK_RECORD
  5
105
330
1
100
AcDbSymbolTableRecord
100
AcDbBlockTableRecord
  2
SW_NOTE_1
340
0
102
{BLKREFS
331
10A
102
}
  0
BLOCK_RECORD
  5
1CE
330
1
100
AcDbSymbolTableRecord
100
AcDbBlockTableRecord
  2
_D
340
0
  0
BLOCK_RECORD
  5
1D8
330
1
100
AcDbSymbolTableRecord
100
AcDbBlockTableRecord
  2
_D_1
340
0
  0
BLOCK_RECORD
  5
1E2
330
1
100
AcDbSymbolTableRecord
100
AcDbBlockTableRecord
  2
_D_2
340
0
  0
BLOCK_RECORD
  5
1ED
330
1
100
AcDbSymbolTableRecord
100
AcDbBlockTableRecord
  2
_D_3
340
0
  0
BLOCK_RECORD
  5
1F9
330
1
100
AcDbSymbolTableRecord
100
AcDbBlockTableRecord
  2
_D_4
340
0
  0
BLOCK_RECORD
  5
204
330
1
100
AcDbSymbolTableRecord
100
AcDbBlockTableRecord
  2
_D_5
340
0
  0
BLOCK_RECORD
  5
20F
330
1
100
AcDbSymbolTableRecord
100
AcDbBlockTableRecord
  2
_D_6
340
0
  0
BLOCK_RECORD
  5
21B
330
1
100
AcDbSymbolTableRecord
100
AcDbBlockTableRecord
  2
_D_7
340
0
  0
ENDTAB
  0
ENDSEC
  0
SECTION
  2
BLOCKS
  0
BLOCK
  5
20
330
1F
100
AcDbEntity
  8
0
100
AcDbBlockBegin
  2
*Model_Space
 70
     0
 10
0.0
 20
0.0
 30
0.0
  3
*Model_Space
  1

  0
ENDBLK
  5
21
330
1F
100
AcDbEntity
  8
0
100
AcDbBlockEnd
  0
BLOCK
  5
1C
330
1B
100
AcDbEntity
 67
     1
  8
0
100
AcDbBlockBegin
  2
*Paper_Space
 70
     0
 10
0.0
 20
0.0
 30
0.0
  3
*Paper_Space
  1

  0
ENDBLK
  5
1D
330
1B
100
AcDbEntity
 67
     1
  8
0
100
AcDbBlockEnd
  0
BLOCK
  5
24
330
23
100
AcDbEntity
  8
0
100
AcDbBlockBegin
  2
*Paper_Space0
 70
     0
 10
0.0
 20
0.0
 30
0.0
  3
*Paper_Space0
  1

  0
ENDBLK
  5
25
330
23
100
AcDbEntity
  8
0
100
AcDbBlockEnd
  0
BLOCK
  5
7D
330
7C
100
AcDbEntity
  8
0
100
AcDbBlockBegin
  2
圖塊6
 70
     0
 10
0.0
 20
0.0
 30
0.0
  3
圖塊6
  1

  0
ARC
  5
7F
330
7C
100
AcDbEntity
  8
圖層_1
 62
     7
370
    30
100
AcDbCircle
 10
1.5301544339
 20
6.1020682891
 30
0.0
 40
1.53015443394367
100
AcDbArc
 50
130.2115225915
 51
228.588904108
  0
ARC
  5
80
330
7C
100
AcDbEntity
  8
圖層_1
 62
     7
370
    30
100
AcDbCircle
 10
4.8509135981
 20
5.9949454415
 30
0.0
 40
2.577335426817622
100
AcDbArc
 50
140.4331765613
 51
251.0865666567
  0
ARC
  5
81
330
7C
100
AcDbEntity
  8
圖層_1
 62
     7
370
    30
100
AcDbCircle
 10
5.1765041982
 20
6.3117559713
 30
0.0
 40
2.989636657769863
100
AcDbArc
 50
247.1485306747
 51
309.6030773927
  0
LINE
  5
82
330
7C
100
AcDbEntity
  8
圖層_1
 62
     7
370
    30
100
AcDbLine
 10
1.8488977269
 20
8.5321825984
 30
0.0
 11
0.542269472
 21
7.2705955219
 31
0.0
  0
LINE
  5
83
330
7C
100
AcDbEntity
  8
圖層_1
 62
     7
370
    30
100
AcDbLine
 10
0.51802289
 20
4.9544784977
 30
0.0
 11
4.5272252002
 21
1.4698746574
 31
0.0
  0
LINE
  5
84
330
7C
100
AcDbEntity
  8
圖層_1
 62
     7
370
    30
100
AcDbLine
 10
4.5272252002
 20
1.4698746574
 30
0.0
 11
3.8961732797
 21
0.853974267
 31
0.0
  0
LINE
  5
85
330
7C
100
AcDbEntity
  8
圖層_1
 62
     7
370
    30
100
AcDbLine
 10
3.8961732797
 20
0.853974267
 30
0.0
 11
4.8880526445
 21
0.0
 31
0.0
  0
LINE
  5
86
330
7C
100
AcDbEntity
  8
圖層_1
 62
     7
370
    30
100
AcDbLine
 10
8.0977170788
 20
3.1165779655
 30
0.0
 11
7.0822940472
 21
4.0083036932
 31
0.0
  0
LINE
  5
87
330
7C
100
AcDbEntity
  8
圖層_1
 62
     7
370
    30
100
AcDbLine
 10
2.8640915743
 20
7.6366506975
 30
0.0
 11
1.8488977269
 21
8.5321825984
 31
0.0
  0
LINE
  5
88
330
7C
100
AcDbEntity
  8
圖層_1
 62
     7
370
    30
100
AcDbLine
 10
4.8880526445
 20
0.0
 30
0.0
 11
8.0977170788
 21
3.1165779655
 31
0.0
  0
ENDBLK
  5
7E
330
7C
100
AcDbEntity
  8
0
100
AcDbBlockEnd
  0
BLOCK
  5
CF
330
CE
100
AcDbEntity
  8
0
100
AcDbBlockBegin
  2
SW_NOTE_0
 70
     0
 10
0.0
 20
0.0
 30
0.0
  3
SW_NOTE_0
  1

  0
MTEXT
  5
D1
330
CE
100
AcDbEntity
  8
0
  6
Continuous
 62
     0
370
     0
100
AcDbMText
 10
0.0
 20
3.4106583948
 30
0.0
 40
2.6458333333
 41
0.0
 71
     1
 72
     1
  1
PROPRIETARY AND CONFIDENTIAL
  7
SLDTEXTSTYLE0
 73
     1
 44
1.0
  0
MTEXT
  5
D2
330
CE
100
AcDbEntity
  8
0
  6
Continuous
 62
     0
370
     0
100
AcDbMText
 10
0.0
 20
-0.08198348
 30
0.0
 40
1.8520833333
 41
0.0
 71
     1
 72
     1
  1
THE INFORMATION CONTAINED IN THIS DRAWING IS THE SOLE PROPERTY OF UNICE E-O SERVICES INC. ANY REPRODUCTION IN PART OR AS A WHOLE WITHOUT THE WRITTEN PERMISSION OF UNICE E-O SERVICES INC IS
  7
SLDTEXTSTYLE0
 73
     1
 44
1.0
  0
MTEXT
  5
D3
330
CE
100
AcDbEntity
  8
0
  6
Continuous
 62
     0
370
     0
100
AcDbMText
 10
0.0
 20
-2.5514278946
 30
0.0
 40
1.8520833333
 41
0.0
 71
     1
 72
     1
  1
PROHIBITED.
  7
SLDTEXTSTYLE0
 73
     1
 44
1.0
  0
ENDBLK
  5
D0
330
CE
100
AcDbEntity
  8
0
100
AcDbBlockEnd
  0
BLOCK
  5
106
330
105
100
AcDbEntity
  8
0
100
AcDbBlockBegin
  2
SW_NOTE_1
 70
     0
 10
0.0
 20
0.0
 30
0.0
  3
SW_NOTE_1
  1

  0
MTEXT
  5
108
330
105
100
AcDbEntity
  8
SLD-0
 62
     0
100
AcDbMText
 10
0.0
 20
2.0463950369
 30
0.0
 40
1.5875
 41
0.0
 71
     1
 72
     1
  1
No.5, Andong Rd., Chung Li District,
  7
SLDTEXTSTYLE0
 73
     1
 44
1.0
  0
MTEXT
  5
109
330
105
100
AcDbEntity
  8
SLD-0
 62
     0
100
AcDbMText
 10
0.0
 20
-0.0702716042
 30
0.0
 40
1.5875
 41
0.0
 71
     1
 72
     1
  1
Taoyuan City 32063, Taiwan, R.O.C.
  7
SLDTEXTSTYLE0
 73
     1
 44
1.0
  0
ENDBLK
  5
107
330
105
100
AcDbEntity
  8
0
100
AcDbBlockEnd
  0
BLOCK
  5
1CF
330
1CE
100
AcDbEntity
  8
0
100
AcDbBlockBegin
  2
_D
 70
     0
 10
0.0
 20
0.0
 30
0.0
  3
_D
  1

  0
SOLID
  5
1D1
330
1CE
100
AcDbEntity
  8
DIM
100
AcDbTrace
 10
78.9478094497
 20
83.8494370887
 30
0.0
 11
80.9478094497
 21
83.5994370887
 31
0.0
 12
80.9478094497
 22
84.0994370887
 32
0.0
 13
80.9478094497
 23
84.0994370887
 33
0.0
  0
SOLID
  5
1D2
330
1CE
100
AcDbEntity
  8
DIM
100
AcDbTrace
 10
105.9478094497
 20
83.8494370887
 30
0.0
 11
103.9478094497
 21
84.0994370887
 31
0.0
 12
103.9478094497
 22
83.5994370887
 32
0.0
 13
103.9478094497
 23
83.5994370887
 33
0.0
  0
LINE
  5
1D3
330
1CE
100
AcDbEntity
  8
DIM
100
AcDbLine
 10
78.9478094497
 20
95.6744370887
 30
0.0
 11
78.9478094497
 21
82.8494370887
 31
0.0
  0
LINE
  5
1D4
330
1CE
100
AcDbEntity
  8
DIM
100
AcDbLine
 10
105.9478094497
 20
93.8494370887
 30
0.0
 11
105.9478094497
 21
82.8494370887
 31
0.0
  0
LINE
  5
1D5
330
1CE
100
AcDbEntity
  8
DIM
100
AcDbLine
 10
78.9478094497
 20
83.8494370887
 30
0.0
 11
105.9478094497
 21
83.8494370887
 31
0.0
  0
MTEXT
  5
1D6
330
1CE
100
AcDbEntity
  8
DIM
100
AcDbMText
 10
90.9573233624
 20
86.9190295276
 30
0.0
 40
2.38125
 41
0.0
 71
     1
 72
     1
  1
27
  7
SLDTEXTSTYLE1
 73
     1
 44
1.0
  0
ENDBLK
  5
1D0
330
1CE
100
AcDbEntity
  8
0
100
AcDbBlockEnd
  0
BLOCK
  5
1D9
330
1D8
100
AcDbEntity
  8
0
100
AcDbBlockBegin
  2
_D_1
 70
     0
 10
0.0
 20
0.0
 30
0.0
  3
_D_1
  1

  0
SOLID
  5
1DB
330
1D8
100
AcDbEntity
  8
DIM
100
AcDbTrace
 10
105.9478094497
 20
83.8494370887
 30
0.0
 11
107.9478094497
 21
83.5994370887
 31
0.0
 12
107.9478094497
 22
84.0994370887
 32
0.0
 13
107.9478094497
 23
84.0994370887
 33
0.0
  0
SOLID
  5
1DC
330
1D8
100
AcDbEntity
  8
DIM
100
AcDbTrace
 10
120.9478094497
 20
83.8494370887
 30
0.0
 11
118.9478094497
 21
84.0994370887
 31
0.0
 12
118.9478094497
 22
83.5994370887
 32
0.0
 13
118.9478094497
 23
83.5994370887
 33
0.0
  0
LINE
  5
1DD
330
1D8
100
AcDbEntity
  8
DIM
100
AcDbLine
 10
105.9478094497
 20
93.8494370887
 30
0.0
 11
105.9478094497
 21
82.8494370887
 31
0.0
  0
LINE
  5
1DE
330
1D8
100
AcDbEntity
  8
DIM
100
AcDbLine
 10
120.9478094497
 20
91.4994370887
 30
0.0
 11
120.9478094497
 21
82.8494370887
 31
0.0
  0
LINE
  5
1DF
330
1D8
100
AcDbEntity
  8
DIM
100
AcDbLine
 10
105.9478094497
 20
83.8494370887
 30
0.0
 11
120.9478094497
 21
83.8494370887
 31
0.0
  0
MTEXT
  5
1E0
330
1D8
100
AcDbEntity
  8
DIM
100
AcDbMText
 10
111.9573233624
 20
86.9190295276
 30
0.0
 40
2.38125
 41
0.0
 71
     1
 72
     1
  1
15
  7
SLDTEXTSTYLE1
 73
     1
 44
1.0
  0
ENDBLK
  5
1DA
330
1D8
100
AcDbEntity
  8
0
100
AcDbBlockEnd
  0
BLOCK
  5
1E3
330
1E2
100
AcDbEntity
  8
0
100
AcDbBlockBegin
  2
_D_2
 70
     0
 10
0.0
 20
0.0
 30
0.0
  3
_D_2
  1

  0
SOLID
  5
1E5
330
1E2
100
AcDbEntity
  8
DIM
100
AcDbTrace
 10
120.9478094497
 20
83.8494370887
 30
0.0
 11
122.9478094497
 21
83.5994370887
 31
0.0
 12
122.9478094497
 22
84.0994370887
 32
0.0
 13
122.9478094497
 23
84.0994370887
 33
0.0
  0
SOLID
  5
1E6
330
1E2
100
AcDbEntity
  8
DIM
100
AcDbTrace
 10
170.9478094497
 20
83.8494370887
 30
0.0
 11
168.9478094497
 21
84.0994370887
 31
0.0
 12
168.9478094497
 22
83.5994370887
 32
0.0
 13
168.9478094497
 23
83.5994370887
 33
0.0
  0
LINE
  5
1E7
330
1E2
100
AcDbEntity
  8
DIM
100
AcDbLine
 10
120.9478094497
 20
91.4994370887
 30
0.0
 11
120.9478094497
 21
82.8494370887
 31
0.0
  0
LINE
  5
1E8
330
1E2
100
AcDbEntity
  8
DIM
100
AcDbLine
 10
170.9478094497
 20
94.5994370887
 30
0.0
 11
170.9478094497
 21
82.8494370887
 31
0.0
  0
LINE
  5
1E9
330
1E2
100
AcDbEntity
  8
DIM
100
AcDbLine
 10
120.9478094497
 20
83.8494370887
 30
0.0
 11
170.9478094497
 21
83.8494370887
 31
0.0
  0
MTEXT
  5
1EA
330
1E2
100
AcDbEntity
  8
DIM
100
AcDbMText
 10
144.4573233624
 20
86.9190295276
 30
0.0
 40
2.38125
 41
0.0
 71
     1
 72
     1
  1
50
  7
SLDTEXTSTYLE1
 73
     1
 44
1.0
  0
ENDBLK
  5
1E4
330
1E2
100
AcDbEntity
  8
0
100
AcDbBlockEnd
  0
BLOCK
  5
1EE
330
1ED
100
AcDbEntity
  8
0
100
AcDbBlockBegin
  2
_D_3
 70
     0
 10
0.0
 20
0.0
 30
0.0
  3
_D_3
  1

  0
SOLID
  5
1F0
330
1ED
100
AcDbEntity
  8
DIM
100
AcDbTrace
 10
170.9478094497
 20
83.8494370887
 30
0.0
 11
168.9478094497
 21
84.0994370887
 31
0.0
 12
168.9478094497
 22
83.5994370887
 32
0.0
 13
168.9478094497
 23
83.5994370887
 33
0.0
  0
SOLID
  5
1F1
330
1ED
100
AcDbEntity
  8
DIM
100
AcDbTrace
 10
174.4478094497
 20
83.8494370887
 30
0.0
 11
176.4478094497
 21
83.5994370887
 31
0.0
 12
176.4478094497
 22
84.0994370887
 32
0.0
 13
176.4478094497
 23
84.0994370887
 33
0.0
  0
LINE
  5
1F2
330
1ED
100
AcDbEntity
  8
DIM
100
AcDbLine
 10
170.9478094497
 20
94.5994370887
 30
0.0
 11
170.9478094497
 21
82.8494370887
 31
0.0
  0
LINE
  5
1F3
330
1ED
100
AcDbEntity
  8
DIM
100
AcDbLine
 10
174.4478094497
 20
94.5994370887
 30
0.0
 11
174.4478094497
 21
82.8494370887
 31
0.0
  0
LINE
  5
1F4
330
1ED
100
AcDbEntity
  8
DIM
100
AcDbLine
 10
170.9478094497
 20
83.8494370887
 30
0.0
 11
167.9478094497
 21
83.8494370887
 31
0.0
  0
LINE
  5
1F5
330
1ED
100
AcDbEntity
  8
DIM
100
AcDbLine
 10
170.9478094497
 20
83.8494370887
 30
0.0
 11
174.4478094497
 21
83.8494370887
 31
0.0
  0
LINE
  5
1F6
330
1ED
100
AcDbEntity
  8
DIM
100
AcDbLine
 10
174.4478094497
 20
83.8494370887
 30
0.0
 11
181.9986428211
 21
83.8494370887
 31
0.0
  0
MTEXT
  5
1F7
330
1ED
100
AcDbEntity
  8
DIM
100
AcDbMText
 10
178.2724274865
 20
86.9190295276
 30
0.0
 40
2.38125
 41
0.0
 71
     1
 72
     1
  1
3.5
  7
SLDTEXTSTYLE1
 73
     1
 44
1.0
  0
ENDBLK
  5
1EF
330
1ED
100
AcDbEntity
  8
0
100
AcDbBlockEnd
  0
BLOCK
  5
1FA
330
1F9
100
AcDbEntity
  8
0
100
AcDbBlockBegin
  2
_D_4
 70
     0
 10
0.0
 20
0.0
 30
0.0
  3
_D_4
  1

  0
SOLID
  5
1FC
330
1F9
100
AcDbEntity
  8
DIM
100
AcDbTrace
 10
181.4478094497
 20
108.8494370887
 30
0.0
 11
181.1978094497
 21
106.8494370887
 31
0.0
 12
181.6978094497
 22
106.8494370887
 32
0.0
 13
181.6978094497
 23
106.8494370887
 33
0.0
  0
SOLID
  5
1FD
330
1F9
100
AcDbEntity
  8
DIM
100
AcDbTrace
 10
181.4478094497
 20
90.8494370887
 30
0.0
 11
181.6978094497
 21
92.8494370887
 31
0.0
 12
181.1978094497
 22
92.8494370887
 32
0.0
 13
181.1978094497
 23
92.8494370887
 33
0.0
  0
LINE
  5
1FE
330
1F9
100
AcDbEntity
  8
DIM
100
AcDbLine
 10
170.9263040733
 20
108.8494370887
 30
0.0
 11
182.4478094497
 21
108.8494370887
 31
0.0
  0
LINE
  5
1FF
330
1F9
100
AcDbEntity
  8
DIM
100
AcDbLine
 10
170.9263040733
 20
90.8494370887
 30
0.0
 11
182.4478094497
 21
90.8494370887
 31
0.0
  0
LINE
  5
200
330
1F9
100
AcDbEntity
  8
DIM
100
AcDbLine
 10
181.4478094497
 20
108.8494370887
 30
0.0
 11
181.4478094497
 21
90.8494370887
 31
0.0
  0
MTEXT
  5
201
330
1F9
100
AcDbEntity
  8
DIM
100
AcDbMText
 10
178.3782167779
 20
96.8508261303
 30
0.0
 40
2.38125
 41
0.0
 71
     1
 72
     1
  1
%%c
  7
SLDTEXTSTYLE1
 11
-1.770233605404514E-14
 21
1.0
 31
0.0
 73
     1
 44
1.0
  0
MTEXT
  5
202
330
1F9
100
AcDbEntity
  8
DIM
100
AcDbMText
 10
178.3782167779
 20
99.8670761055
 30
0.0
 40
2.38125
 41
0.0
 71
     1
 72
     1
  1
18
  7
SLDTEXTSTYLE1
 11
-1.770233605404514E-14
 21
1.0
 31
0.0
 73
     1
 44
1.0
  0
ENDBLK
  5
1FB
330
1F9
100
AcDbEntity
  8
0
100
AcDbBlockEnd
  0
BLOCK
  5
205
330
204
100
AcDbEntity
  8
0
100
AcDbBlockBegin
  2
_D_5
 70
     0
 10
0.0
 20
0.0
 30
0.0
  3
_D_5
  1

  0
SOLID
  5
207
330
204
100
AcDbEntity
  8
DIM
100
AcDbTrace
 10
66.9478094497
 20
104.8494370887
 30
0.0
 11
66.6978094497
 21
102.8494370887
 31
0.0
 12
67.1978094497
 22
102.8494370887
 32
0.0
 13
67.1978094497
 23
102.8494370887
 33
0.0
  0
SOLID
  5
208
330
204
100
AcDbEntity
  8
DIM
100
AcDbTrace
 10
66.9478094497
 20
94.8494370887
 30
0.0
 11
67.1978094497
 21
96.8494370887
 31
0.0
 12
66.6978094497
 22
96.8494370887
 32
0.0
 13
66.6978094497
 23
96.8494370887
 33
0.0
  0
LINE
  5
209
330
204
100
AcDbEntity
  8
DIM
100
AcDbLine
 10
104.9478094497
 20
104.8494370887
 30
0.0
 11
65.9478094497
 21
104.8494370887
 31
0.0
  0
LINE
  5
20A
330
204
100
AcDbEntity
  8
DIM
100
AcDbLine
 10
104.9478094497
 20
94.8494370887
 30
0.0
 11
65.9478094497
 21
94.8494370887
 31
0.0
  0
LINE
  5
20B
330
204
100
AcDbEntity
  8
DIM
100
AcDbLine
 10
66.9478094497
 20
104.8494370887
 30
0.0
 11
66.9478094497
 21
94.8494370887
 31
0.0
  0
MTEXT
  5
20C
330
204
100
AcDbEntity
  8
DIM
100
AcDbMText
 10
63.8782167779
 20
96.8508261303
 30
0.0
 40
2.38125
 41
0.0
 71
     1
 72
     1
  1
%%c
  7
SLDTEXTSTYLE1
 11
-1.770233605404514E-14
 21
1.0
 31
0.0
 73
     1
 44
1.0
  0
MTEXT
  5
20D
330
204
100
AcDbEntity
  8
DIM
100
AcDbMText
 10
63.8782167779
 20
99.8670761054
 30
0.0
 40
2.38125
 41
0.0
 71
     1
 72
     1
  1
10
  7
SLDTEXTSTYLE1
 11
-1.770233605404514E-14
 21
1.0
 31
0.0
 73
     1
 44
1.0
  0
ENDBLK
  5
206
330
204
100
AcDbEntity
  8
0
100
AcDbBlockEnd
  0
BLOCK
  5
210
330
20F
100
AcDbEntity
  8
0
100
AcDbBlockBegin
  2
_D_6
 70
     0
 10
0.0
 20
0.0
 30
0.0
  3
_D_6
  1

  0
SOLID
  5
212
330
20F
100
AcDbEntity
  8
DIM
100
AcDbTrace
 10
71.9478094497
 20
103.0244370887
 30
0.0
 11
71.6978094497
 21
101.0244370887
 31
0.0
 12
72.1978094497
 22
101.0244370887
 32
0.0
 13
72.1978094497
 23
101.0244370887
 33
0.0
  0
SOLID
  5
213
330
20F
100
AcDbEntity
  8
DIM
100
AcDbTrace
 10
71.9478094497
 20
96.6744370887
 30
0.0
 11
72.1978094497
 21
98.6744370887
 31
0.0
 12
71.6978094497
 22
98.6744370887
 32
0.0
 13
71.6978094497
 23
98.6744370887
 33
0.0
  0
LINE
  5
214
330
20F
100
AcDbEntity
  8
DIM
100
AcDbLine
 10
77.9478094497
 20
103.0244370887
 30
0.0
 11
70.9478094497
 21
103.0244370887
 31
0.0
  0
LINE
  5
215
330
20F
100
AcDbEntity
  8
DIM
100
AcDbLine
 10
77.9478094497
 20
96.6744370887
 30
0.0
 11
70.9478094497
 21
96.6744370887
 31
0.0
  0
LINE
  5
216
330
20F
100
AcDbEntity
  8
DIM
100
AcDbLine
 10
71.9478094497
 20
103.0244370887
 30
0.0
 11
71.9478094497
 21
96.6744370887
 31
0.0
  0
LINE
  5
217
330
20F
100
AcDbEntity
  8
DIM
100
AcDbLine
 10
71.9478094497
 20
96.6744370887
 30
0.0
 11
71.9478094497
 21
84.6168677712
 31
0.0
  0
MTEXT
  5
218
330
20F
100
AcDbEntity
  8
DIM
100
AcDbMText
 10
68.8782167779
 20
84.6168677712
 30
0.0
 40
2.38125
 41
0.0
 71
     1
 72
     1
  1
%%c
  7
SLDTEXTSTYLE1
 11
-1.770233605404514E-14
 21
1.0
 31
0.0
 73
     1
 44
1.0
  0
MTEXT
  5
219
330
20F
100
AcDbEntity
  8
DIM
100
AcDbMText
 10
68.8782167779
 20
87.6331177464
 30
0.0
 40
2.38125
 41
0.0
 71
     1
 72
     1
  1
6.35
  7
SLDTEXTSTYLE1
 11
-1.770233605404514E-14
 21
1.0
 31
0.0
 73
     1
 44
1.0
  0
ENDBLK
  5
211
330
20F
100
AcDbEntity
  8
0
100
AcDbBlockEnd
  0
BLOCK
  5
21C
330
21B
100
AcDbEntity
  8
0
100
AcDbBlockBegin
  2
_D_7
 70
     0
 10
0.0
 20
0.0
 30
0.0
  3
_D_7
  1

  0
SOLID
  5
21E
330
21B
100
AcDbEntity
  8
DIM
100
AcDbTrace
 10
78.9478094497
 20
78.8494370887
 30
0.0
 11
80.9478094497
 21
78.5994370887
 31
0.0
 12
80.9478094497
 22
79.0994370887
 32
0.0
 13
80.9478094497
 23
79.0994370887
 33
0.0
  0
SOLID
  5
21F
330
21B
100
AcDbEntity
  8
DIM
100
AcDbTrace
 10
174.4478094497
 20
78.8494370887
 30
0.0
 11
172.4478094497
 21
79.0994370887
 31
0.0
 12
172.4478094497
 22
78.5994370887
 32
0.0
 13
172.4478094497
 23
78.5994370887
 33
0.0
  0
LINE
  5
220
330
21B
100
AcDbEntity
  8
DIM
100
AcDbLine
 10
78.9478094497
 20
95.6744370887
 30
0.0
 11
78.9478094497
 21
77.8494370887
 31
0.0
  0
LINE
  5
221
330
21B
100
AcDbEntity
  8
DIM
100
AcDbLine
 10
174.4478094497
 20
94.5994370887
 30
0.0
 11
174.4478094497
 21
77.8494370887
 31
0.0
  0
LINE
  5
222
330
21B
100
AcDbEntity
  8
DIM
100
AcDbLine
 10
78.9478094497
 20
78.8494370887
 30
0.0
 11
174.4478094497
 21
78.8494370887
 31
0.0
  0
MTEXT
  5
223
330
21B
100
AcDbEntity
  8
DIM
100
AcDbMText
 10
124.0894589715
 20
81.9190295276
 30
0.0
 40
2.38125
 41
0.0
 71
     1
 72
     1
  1
95.5
  7
SLDTEXTSTYLE1
 73
     1
 44
1.0
  0
ENDBLK
  5
21D
330
21B
100
AcDbEntity
  8
0
100
AcDbBlockEnd
  0
ENDSEC
  0
SECTION
  2
ENTITIES
  0
HATCH
  5
89
330
1F
100
AcDbEntity
  8
0
  6
Continuous
 62
     7
100
AcDbHatch
 10
0.0
 20
0.0
 30
0.0
210
0.0
220
0.0
230
1.0
  2
SOLID
 70
     1
 71
     0
 91
        1
 92
        0
 93
       10
 72
     2
 10
192.1405965629367
 20
35.75580880988856
 40
2.989636657769859
 50
50.39692260731407
 51
112.8514693252983
 73
     0
 72
     2
 10
191.815005962812
 20
35.43899828006204
 40
2.577335426817619
 50
108.9134333432861
 51
219.5668234386827
 73
     0
 72
     1
 10
189.8281839389603
 20
37.0807035361501
 11
188.8129900915579
 21
37.97623543696786
 72
     1
 10
188.8129900915579
 20
37.97623543696786
 11
187.5063618366762
 21
36.71464836046036
 72
     2
 10
188.4942467986389
 20
35.54612112772446
 40
1.530154433943661
 50
130.2115225915088
 51
228.5889041080191
 73
     1
 72
     1
 10
187.482115254651
 20
34.39853133629978
 11
191.4913175648466
 21
30.9139274960251
 72
     1
 10
191.4913175648466
 20
30.9139274960251
 11
190.8602656444315
 21
30.29802710555407
 72
     1
 10
190.8602656444315
 20
30.29802710555407
 11
191.852145009157
 21
29.44405283860024
 72
     1
 10
191.852145009157
 20
29.44405283860024
 11
195.0618094435223
 21
32.56063080411572
 72
     1
 10
195.0618094435223
 20
32.56063080411572
 11
194.0463864118641
 21
33.45235653184883
 97
        0
 75
     0
 76
     1
 98
        1
 10
0.0
 20
0.0
  0
HATCH
  5
8A
330
1F
100
AcDbEntity
  8
0
  6
Continuous
 62
     1
100
AcDbHatch
 10
0.0
 20
0.0
 30
0.0
210
0.0
220
0.0
230
1.0
  2
SOLID
 70
     1
 71
     0
 91
        1
 92
        0
 93
       10
 72
     2
 10
192.5892455627688
 20
35.6630691563161
 40
2.57756748834625
 50
317.8184992995785
 51
398.0564711573078
 73
     0
 72
     1
 10
194.6188314058163
 20
34.07415900697447
 11
195.6042802987991
 21
33.21546206708498
 72
     1
 10
195.6042802987991
 20
33.21546206708498
 11
196.8459616135929
 21
34.41989500949219
 72
     2
 10
195.9525692879308
 20
35.64784174131312
 40
1.518552937418265
 50
306.0377529468138
 51
403.4396461533871
 73
     1
 72
     1
 10
197.0551891526031
 20
36.69198371335126
 11
192.9284332942598
 21
40.28115998198521
 72
     1
 10
192.9284332942598
 20
40.28115998198521
 11
193.552684596187
 21
40.89021841282256
 72
     1
 10
193.552684596187
 20
40.89021841282256
 11
192.622178086003
 21
41.72041063266705
 72
     1
 10
192.622178086003
 20
41.72041063266705
 11
189.3865926375931
 21
38.59349038605298
 72
     1
 10
189.3865926375931
 20
38.59349038605298
 11
190.4090005149417
 21
37.70169985893218
 72
     2
 10
192.2715892720444
 20
35.12224735083792
 40
3.181636704527876
 50
234.1674444878512
 51
314.4407074583994
 73
     0
 97
        0
 75
     0
 76
     1
 98
        1
 10
0.0
 20
0.0
  0
LINE
  5
8B
330
1F
100
AcDbEntity
  8
0
  6
Continuous
 62
     7
370
     0
100
AcDbLine
 10
167.8593775185
 20
17.7745192513
 30
0.0
 11
168.8593775185
 21
17.7745192513
 31
0.0
  0
LINE
  5
8C
330
1F
100
AcDbEntity
  8
0
  6
Continuous
 62
     7
370
     0
100
AcDbLine
 10
164.8593775185
 20
17.7745192513
 30
0.0
 11
167.3593775185
 21
17.7745192513
 31
0.0
  0
LINE
  5
8D
330
1F
100
AcDbEntity
  8
0
  6
Continuous
 62
     7
370
     0
100
AcDbLine
 10
181.3593775185
 20
15.2745192513
 30
0.0
 11
181.3593775185
 21
20.2745192513
 31
0.0
  0
LINE
  5
8E
330
1F
100
AcDbEntity
  8
0
  6
Continuous
 62
     7
370
     0
100
AcDbLine
 10
174.3593775185
 20
16.2745192513
 30
0.0
 11
181.3593775185
 21
15.2745192513
 31
0.0
  0
LINE
  5
8F
330
1F
100
AcDbEntity
  8
0
  6
Continuous
 62
     7
370
     0
100
AcDbLine
 10
168.3593775185
 20
16.7745192513
 30
0.0
 11
168.3593775185
 21
14.2745192513
 31
0.0
  0
LINE
  5
90
330
1F
100
AcDbEntity
  8
0
  6
Continuous
 62
     7
370
     0
100
AcDbLine
 10
181.3593775185
 20
20.2745192513
 30
0.0
 11
174.3593775185
 21
19.2745192513
 31
0.0
  0
LINE
  5
91
330
1F
100
AcDbEntity
  8
0
  6
Continuous
 62
     7
370
     0
100
AcDbLine
 10
173.3593775185
 20
17.7745192513
 30
0.0
 11
182.3593775185
 21
17.7745192513
 31
0.0
  0
LINE
  5
92
330
1F
100
AcDbEntity
  8
0
  6
Continuous
 62
     7
370
     0
100
AcDbLine
 10
168.3593775185
 20
18.2745192513
 30
0.0
 11
168.3593775185
 21
17.2745192513
 31
0.0
  0
LINE
  5
93
330
1F
100
AcDbEntity
  8
0
  6
Continuous
 62
     7
370
     0
100
AcDbLine
 10
169.3593775185
 20
17.7745192513
 30
0.0
 11
171.8593775185
 21
17.7745192513
 31
0.0
  0
LINE
  5
94
330
1F
100
AcDbEntity
  8
0
  6
Continuous
 62
     7
370
     0
100
AcDbLine
 10
168.3593775185
 20
21.2745192513
 30
0.0
 11
168.3593775185
 21
18.7745192513
 31
0.0
  0
LINE
  5
95
330
1F
100
AcDbEntity
  8
0
  6
Continuous
 62
     7
370
     0
100
AcDbLine
 10
174.3593775185
 20
19.2745192513
 30
0.0
 11
174.3593775185
 21
16.2745192513
 31
0.0
  0
LINE
  5
96
330
1F
100
AcDbEntity
  8
工作區域參考線
 62
     1
370
    30
100
AcDbLine
 10
190.4090005149
 20
37.7016998589
 30
0.0
 11
189.3865926376
 21
38.5934903861
 31
0.0
  0
LINE
  5
97
330
1F
100
AcDbEntity
  8
工作區域參考線
 62
     1
370
    30
100
AcDbLine
 10
189.3865926376
 20
38.5934903861
 30
0.0
 11
192.622178086
 21
41.7204106327
 31
0.0
  0
LINE
  5
98
330
1F
100
AcDbEntity
  8
工作區域參考線
 62
     1
370
    30
100
AcDbLine
 10
192.622178086
 20
41.7204106327
 30
0.0
 11
193.5526845962
 21
40.8902184128
 31
0.0
  0
LINE
  5
99
330
1F
100
AcDbEntity
  8
工作區域參考線
 62
     1
370
    30
100
AcDbLine
 10
193.5526845962
 20
40.8902184128
 30
0.0
 11
192.9284332943
 21
40.281159982
 31
0.0
  0
LINE
  5
9A
330
1F
100
AcDbEntity
  8
工作區域參考線
 62
     1
370
    30
100
AcDbLine
 10
192.9284332943
 20
40.281159982
 30
0.0
 11
197.0551891526
 21
36.6919837134
 31
0.0
  0
LINE
  5
9B
330
1F
100
AcDbEntity
  8
工作區域參考線
 62
     1
370
    30
100
AcDbLine
 10
194.6188314058
 20
34.074159007
 30
0.0
 11
195.6042802988
 21
33.2154620671
 31
0.0
  0
LINE
  5
9C
330
1F
100
AcDbEntity
  8
工作區域參考線
 62
     1
370
    30
100
AcDbLine
 10
195.6042802988
 20
33.2154620671
 30
0.0
 11
196.8459616136
 21
34.4198950095
 31
0.0
  0
LINE
  5
9D
330
1F
100
AcDbEntity
  8
0
  6
Continuous
 62
     7
370
     0
100
AcDbLine
 10
185.6907965209
 20
13.1152464079
 30
0.0
 11
285.6907965209
 21
13.1152464079
 31
0.0
  0
LINE
  5
9E
330
1F
100
AcDbEntity
  8
0
  6
Continuous
 62
     7
370
     0
100
AcDbLine
 10
185.6907965209
 20
18.1152464079
 30
0.0
 11
235.6907965209
 21
18.1152464079
 31
0.0
  0
LINE
  5
9F
330
1F
100
AcDbEntity
  8
0
  6
Continuous
 62
     7
370
     0
100
AcDbLine
 10
185.6907965209
 20
23.1152464079
 30
0.0
 11
235.6907965209
 21
23.1152464079
 31
0.0
  0
LINE
  5
A0
330
1F
100
AcDbEntity
  8
0
  6
Continuous
 62
     7
370
     0
100
AcDbLine
 10
185.6907965209
 20
28.1152464079
 30
0.0
 11
285.6907965209
 21
28.1152464079
 31
0.0
  0
LINE
  5
A1
330
1F
100
AcDbEntity
  8
0
  6
Continuous
 62
     7
370
     0
100
AcDbLine
 10
235.6907965209
 20
33.1152464079
 30
0.0
 11
285.6907965209
 21
33.1152464079
 31
0.0
  0
LINE
  5
A2
330
1F
100
AcDbEntity
  8
0
  6
Continuous
 62
     7
370
    15
100
AcDbLine
 10
235.6907965209
 20
18.1152464079
 30
0.0
 11
285.6907965209
 21
18.1152464079
 31
0.0
  0
LINE
  5
A3
330
1F
100
AcDbEntity
  8
0
  6
Continuous
 62
     7
370
     0
100
AcDbLine
 10
185.6907965209
 20
43.1152464079
 30
0.0
 11
285.6907965209
 21
43.1152464079
 31
0.0
  0
LINE
  5
A4
330
1F
100
AcDbEntity
  8
0
  6
Continuous
 62
     7
370
     0
100
AcDbLine
 10
251.237217675
 20
8.1152464079
 30
0.0
 11
251.237217675
 21
18.1152464079
 31
0.0
  0
LINE
  5
A5
330
1F
100
AcDbEntity
  8
0
  6
Continuous
 62
     7
370
     0
100
AcDbLine
 10
235.6907965209
 20
8.1152464079
 30
0.0
 11
235.6907965209
 21
43.1152464079
 31
0.0
  0
LINE
  5
A6
330
1F
100
AcDbEntity
  8
0
  6
Continuous
 62
     7
370
     0
100
AcDbLine
 10
251.237217675
 20
28.1152464079
 30
0.0
 11
251.237217675
 21
33.1152464079
 31
0.0
  0
LINE
  5
A7
330
1F
100
AcDbEntity
  8
0
  6
Continuous
 62
     7
370
     0
100
AcDbLine
 10
214.4164086353
 20
8.1152464079
 30
0.0
 11
214.4164086353
 21
28.1152464079
 31
0.0
  0
LINE
  5
A8
330
1F
100
AcDbEntity
  8
0
  6
Continuous
 62
     7
370
     0
100
AcDbLine
 10
199.7785887506
 20
8.1152464079
 30
0.0
 11
199.7785887506
 21
28.1152464079
 31
0.0
  0
LINE
  5
A9
330
1F
100
AcDbEntity
  8
0
  6
Continuous
 62
     7
370
     0
100
AcDbLine
 10
185.6907965209
 20
8.1152464079
 30
0.0
 11
185.6907965209
 21
43.1152464079
 31
0.0
  0
LINE
  5
AA
330
1F
100
AcDbEntity
  8
0
  6
Continuous
 62
     7
370
    15
100
AcDbLine
 10
43.3207965209
 20
201.3720275751
 30
0.0
 11
43.3207965209
 21
202.8720275751
 31
0.0
  0
LINE
  5
AB
330
1F
100
AcDbEntity
  8
0
  6
Continuous
 62
     7
370
    15
100
AcDbLine
 10
77.9507965209
 20
201.3720275751
 30
0.0
 11
77.9507965209
 21
202.8720275751
 31
0.0
  0
LINE
  5
AC
330
1F
100
AcDbEntity
  8
0
  6
Continuous
 62
     7
370
    15
100
AcDbLine
 10
112.5807965209
 20
201.3720275751
 30
0.0
 11
112.5807965209
 21
202.8720275751
 31
0.0
  0
LINE
  5
AD
330
1F
100
AcDbEntity
  8
0
  6
Continuous
 62
     7
370
    15
100
AcDbLine
 10
147.2107965209
 20
201.3720275751
 30
0.0
 11
147.2107965209
 21
202.8720275751
 31
0.0
  0
LINE
  5
AE
330
1F
100
AcDbEntity
  8
0
  6
Continuous
 62
     7
370
    15
100
AcDbLine
 10
181.8407965209
 20
201.3720275751
 30
0.0
 11
181.8407965209
 21
202.8720275751
 31
0.0
  0
LINE
  5
AF
330
1F
100
AcDbEntity
  8
0
  6
Continuous
 62
     7
370
    15
100
AcDbLine
 10
216.4707965209
 20
201.3720275751
 30
0.0
 11
216.4707965209
 21
202.8720275751
 31
0.0
  0
LINE
  5
B0
330
1F
100
AcDbEntity
  8
0
  6
Continuous
 62
     7
370
    15
100
AcDbLine
 10
251.1007965209
 20
201.3720275751
 30
0.0
 11
251.1007965209
 21
202.8720275751
 31
0.0
  0
LINE
  5
B1
330
1F
100
AcDbEntity
  8
0
  6
Continuous
 62
     7
370
    15
100
AcDbLine
 10
43.3157965209
 20
8.1152464079
 30
0.0
 11
43.3157965209
 21
6.6152464079
 31
0.0
  0
LINE
  5
B2
330
1F
100
AcDbEntity
  8
0
  6
Continuous
 62
     7
370
    15
100
AcDbLine
 10
77.9407965209
 20
8.1152464079
 30
0.0
 11
77.9407965209
 21
6.6152464079
 31
0.0
  0
LINE
  5
B3
330
1F
100
AcDbEntity
  8
0
  6
Continuous
 62
     7
370
    15
100
AcDbLine
 10
112.5657965209
 20
8.1152464079
 30
0.0
 11
112.5657965209
 21
6.6152464079
 31
0.0
  0
LINE
  5
B4
330
1F
100
AcDbEntity
  8
0
  6
Continuous
 62
     7
370
    15
100
AcDbLine
 10
147.1907965209
 20
8.1152464079
 30
0.0
 11
147.1907965209
 21
6.6152464079
 31
0.0
  0
LINE
  5
B5
330
1F
100
AcDbEntity
  8
0
  6
Continuous
 62
     7
370
    15
100
AcDbLine
 10
181.8157965209
 20
8.1152464079
 30
0.0
 11
181.8157965209
 21
6.6152464079
 31
0.0
  0
LINE
  5
B6
330
1F
100
AcDbEntity
  8
0
  6
Continuous
 62
     7
370
    15
100
AcDbLine
 10
216.4407965209
 20
8.1152464079
 30
0.0
 11
216.4407965209
 21
6.6152464079
 31
0.0
  0
LINE
  5
B7
330
1F
100
AcDbEntity
  8
0
  6
Continuous
 62
     7
370
     0
100
AcDbLine
 10
285.6907965209
 20
201.3720275751
 30
0.0
 11
8.6907965209
 21
201.3720275751
 31
0.0
  0
LINE
  5
B8
330
1F
100
AcDbEntity
  8
0
  6
Continuous
 62
     7
370
     0
100
AcDbLine
 10
285.6907965209
 20
8.1152464079
 30
0.0
 11
285.6907965209
 21
201.3720275751
 31
0.0
  0
LINE
  5
B9
330
1F
100
AcDbEntity
  8
0
  6
Continuous
 62
     7
370
     0
100
AcDbLine
 10
8.6907965209
 20
201.3720275751
 30
0.0
 11
8.6907965209
 21
8.1152464079
 31
0.0
  0
LINE
  5
BA
330
1F
100
AcDbEntity
  8
0
  6
Continuous
 62
     7
370
     0
100
AcDbLine
 10
8.6907965209
 20
8.1152464079
 30
0.0
 11
285.6907965209
 21
8.1152464079
 31
0.0
  0
LINE
  5
BB
330
1F
100
AcDbEntity
  8
0
  6
Continuous
 62
     7
370
    15
100
AcDbLine
 10
251.0657965209
 20
8.1152464079
 30
0.0
 11
251.0657965209
 21
6.6152464079
 31
0.0
  0
LINE
  5
BC
330
1F
100
AcDbEntity
  8
0
  6
Continuous
 62
     7
370
    15
100
AcDbLine
 10
8.6907965209
 20
40.3252464079
 30
0.0
 11
7.1907965209
 21
40.3252464079
 31
0.0
  0
LINE
  5
BD
330
1F
100
AcDbEntity
  8
0
  6
Continuous
 62
     7
370
    15
100
AcDbLine
 10
8.6907965209
 20
72.5352464079
 30
0.0
 11
7.1907965209
 21
72.5352464079
 31
0.0
  0
LINE
  5
BE
330
1F
100
AcDbEntity
  8
0
  6
Continuous
 62
     7
370
    15
100
AcDbLine
 10
8.6907965209
 20
104.7452464079
 30
0.0
 11
7.1907965209
 21
104.7452464079
 31
0.0
  0
LINE
  5
BF
330
1F
100
AcDbEntity
  8
0
  6
Continuous
 62
     7
370
    15
100
AcDbLine
 10
8.6907965209
 20
136.9552464079
 30
0.0
 11
7.1907965209
 21
136.9552464079
 31
0.0
  0
LINE
  5
C0
330
1F
100
AcDbEntity
  8
0
  6
Continuous
 62
     7
370
    15
100
AcDbLine
 10
8.6907965209
 20
169.1652464079
 30
0.0
 11
7.1907965209
 21
169.1652464079
 31
0.0
  0
LINE
  5
C1
330
1F
100
AcDbEntity
  8
0
  6
Continuous
 62
     7
370
    15
100
AcDbLine
 10
285.6907965209
 20
40.3252464079
 30
0.0
 11
287.1907965209
 21
40.3252464079
 31
0.0
  0
LINE
  5
C2
330
1F
100
AcDbEntity
  8
0
  6
Continuous
 62
     7
370
    15
100
AcDbLine
 10
285.6907965209
 20
72.5352464079
 30
0.0
 11
287.1907965209
 21
72.5352464079
 31
0.0
  0
LINE
  5
C3
330
1F
100
AcDbEntity
  8
0
  6
Continuous
 62
     7
370
    15
100
AcDbLine
 10
285.6907965209
 20
104.7452464079
 30
0.0
 11
287.1907965209
 21
104.7452464079
 31
0.0
  0
LINE
  5
C4
330
1F
100
AcDbEntity
  8
0
  6
Continuous
 62
     7
370
    15
100
AcDbLine
 10
285.6907965209
 20
136.9552464079
 30
0.0
 11
287.1907965209
 21
136.9552464079
 31
0.0
  0
LINE
  5
C5
330
1F
100
AcDbEntity
  8
0
  6
Continuous
 62
     7
370
    15
100
AcDbLine
 10
285.6907965209
 20
169.1652464079
 30
0.0
 11
287.1907965209
 21
169.1652464079
 31
0.0
  0
CIRCLE
  5
C6
330
1F
100
AcDbEntity
  8
0
  6
Continuous
 62
     7
370
     0
100
AcDbCircle
 10
168.3593775185
 20
17.7745192513
 30
0.0
 40
1.5
  0
CIRCLE
  5
C7
330
1F
100
AcDbEntity
  8
0
  6
Continuous
 62
     7
370
     0
100
AcDbCircle
 10
168.3593775185
 20
17.7745192513
 30
0.0
 40
2.5
  0
ARC
  5
C8
330
1F
100
AcDbEntity
  8
工作區域參考線
 62
     1
370
    30
100
AcDbCircle
 10
195.9525692879
 20
35.6478417413
 30
0.0
 40
1.518552937418275
100
AcDbArc
 50
306.0377529468
 51
43.4396461534
  0
ARC
  5
C9
330
1F
100
AcDbEntity
  8
工作區域參考線
 62
     1
370
    30
100
AcDbCircle
 10
192.271589272
 20
35.1222473508
 30
0.0
 40
3.181636704527891
100
AcDbArc
 50
45.5592925416
 51
125.8325555121
  0
ARC
  5
CA
330
1F
100
AcDbEntity
  8
工作區域參考線
 62
     1
370
    30
100
AcDbCircle
 10
192.5892455628
 20
35.6630691563
 30
0.0
 40
2.577567488346266
100
AcDbArc
 50
321.9435288427
 51
42.1815007004
  0
INSERT
  5
CB
330
1F
100
AcDbEntity
  8
0
  6
Continuous
 62
     7
100
AcDbBlockReference
  2
圖塊6
 10
186.9640923647
 20
29.4440528386
 30
0.0
  0
MTEXT
  5
CD
330
1F
100
AcDbEntity
  8
0
  6
Continuous
 62
     7
370
     0
100
AcDbMText
 10
165.5426850804
 20
13.2208440369
 30
0.0
 40
2.6458333333
 41
0.0
 71
     1
 72
     1
  1
UNIT:m/m
  7
SLDTEXTSTYLE0
 73
     1
 44
1.0
  0
INSERT
  5
D4
330
1F
100
AcDbEntity
  8
0
  6
Continuous
 62
     7
370
     0
100
AcDbBlockReference
  2
SW_NOTE_0
 10
12.2315076053
 20
193.8904304251
 30
0.0
  0
MTEXT
  5
D5
330
1F
100
AcDbEntity
  8
0
  6
Continuous
 62
     7
370
     0
100
AcDbMText
 10
198.7251893935
 20
40.4406774139
 30
0.0
 40
2.38125
 41
0.0
 71
     1
 72
     1
  1
Unice E-O Services Inc.
  7
SLDTEXTSTYLE0
 73
     1
 44
1.0
  0
MTEXT
  5
D6
330
1F
100
AcDbEntity
  8
0
  6
Continuous
 62
     7
370
     0
100
AcDbMText
 10
217.5590538149
 20
21.5867148511
 30
0.0
 40
1.8520833333
 41
0.0
 71
     1
 72
     1
  1
2018/1/17
  7
SLDTEXTSTYLE0
 73
     1
 44
1.0
  0
MTEXT
  5
D7
330
1F
100
AcDbEntity
  8
0
  6
Continuous
 62
     7
370
     0
100
AcDbMText
 10
252.6088982507
 20
16.87117774
 30
0.0
 40
2.5
 41
0.0
 71
     1
 72
     1
  1
1:1
  7
SLDTEXTSTYLE0
 73
     1
 44
1.0
  0
MTEXT
  5
D8
330
1F
100
AcDbEntity
  8
0
  6
Continuous
 62
     7
370
     0
100
AcDbMText
 10
252.3075599985
 20
32.1519195438
 30
0.0
 40
2.5
 41
0.0
 71
     1
 72
     1
  1
07MT25-1
  7
SLDTEXTSTYLE0
 73
     1
 44
1.0
  0
MTEXT
  5
D9
330
1F
100
AcDbEntity
  8
0
  6
Continuous
 62
     7
370
     0
100
AcDbMText
 10
252.3075599985
 20
38.1082117879
 30
0.0
 40
2.5
 41
0.0
 71
     1
 72
     1
  1
07MT25-1
  7
SLDTEXTSTYLE0
 73
     1
 44
1.0
  0
MTEXT
  5
DA
330
1F
100
AcDbEntity
  8
0
  6
Continuous
 62
     7
370
     0
100
AcDbMText
 10
236.3921866786
 20
16.5064795728
 30
0.0
 40
2.1166666667
 41
0.0
 71
     1
 72
     1
  1
SCALE:
  7
SLDTEXTSTYLE0
 73
     1
 44
1.0
  0
MTEXT
  5
DB
330
1F
100
AcDbEntity
  8
0
  6
Continuous
 62
     7
370
     0
100
AcDbMText
 10
186.3336086789
 20
21.5867148511
 30
0.0
 40
1.8520833333
 41
0.0
 71
     1
 72
     1
  1
DRAWN
  7
SLDTEXTSTYLE0
 73
     1
 44
1.0
  0
MTEXT
  5
DC
330
1F
100
AcDbEntity
  8
0
  6
Continuous
 62
     7
370
     0
100
AcDbMText
 10
203.2228367937
 20
26.683208308
 30
0.0
 40
1.8520833333
 41
0.0
 71
     1
 72
     1
  1
NAME
  7
SLDTEXTSTYLE0
 73
     1
 44
1.0
  0
MTEXT
  5
DD
330
1F
100
AcDbEntity
  8
0
  6
Continuous
 62
     7
370
     0
100
AcDbMText
 10
220.8710155758
 20
26.683208308
 30
0.0
 40
1.8520833333
 41
0.0
 71
     1
 72
     1
  1
DATE
  7
SLDTEXTSTYLE0
 73
     1
 44
1.0
  0
MTEXT
  5
DE
330
1F
100
AcDbEntity
  8
0
  6
Continuous
 62
     7
370
     0
100
AcDbMText
 10
236.2756316645
 20
31.7872213766
 30
0.0
 40
2.1166666667
 41
0.0
 71
     1
 72
     1
  1
DWG. NO.
  7
SLDTEXTSTYLE0
 73
     1
 44
1.0
  0
MTEXT
  5
DF
330
1F
100
AcDbEntity
  8
0
  6
Continuous
 62
     7
370
     0
100
AcDbMText
 10
236.3629907088
 20
41.8840658243
 30
0.0
 40
2.1166666667
 41
0.0
 71
     1
 72
     1
  1
TITLE:
  7
SLDTEXTSTYLE0
 73
     1
 44
1.0
  0
MTEXT
  5
E0
330
1F
100
AcDbEntity
  8
0
  6
Continuous
 62
     7
370
     0
100
AcDbMText
 10
203.0314209802
 20
16.2403789724
 30
0.0
 40
1.8520833333
 41
0.0
 71
     1
 72
     1
  1
Johnny
  7
SLDTEXTSTYLE0
 73
     1
 44
1.0
  0
MTEXT
  5
E1
330
1F
100
AcDbEntity
  8
0
  6
Continuous
 62
     7
370
     0
100
AcDbMText
 10
217.5590538149
 20
16.2403789724
 30
0.0
 40
1.8520833333
 41
0.0
 71
     1
 72
     1
  1
2018/1/17
  7
SLDTEXTSTYLE0
 73
     1
 44
1.0
  0
MTEXT
  5
E2
330
1F
100
AcDbEntity
  8
0
  6
Continuous
 62
     7
370
     0
100
AcDbMText
 10
186.3336086789
 20
16.2403789724
 30
0.0
 40
1.8520833333
 41
0.0
 71
     1
 72
     1
  1
ENG APPR.
  7
SLDTEXTSTYLE0
 73
     1
 44
1.0
  0
MTEXT
  5
E3
330
1F
100
AcDbEntity
  8
0
  6
Continuous
 62
     7
370
     0
100
AcDbMText
 10
236.3921866786
 20
11.6853389288
 30
0.0
 40
2.1166666667
 41
0.0
 71
     1
 72
     1
  1
REV
  7
SLDTEXTSTYLE0
 73
     1
 44
1.0
  0
MTEXT
  5
E4
330
1F
100
AcDbEntity
  8
0
  6
Continuous
 62
     7
370
     0
100
AcDbMText
 10
236.3629907088
 20
26.9493089085
 30
0.0
 40
2.1166666667
 41
0.0
 71
     1
 72
     1
  1
MATERIAL:
  7
SLDTEXTSTYLE0
 73
     1
 44
1.0
  0
MTEXT
  5
E5
330
1F
100
AcDbEntity
  8
0
  6
Continuous
 62
     7
370
     0
100
AcDbMText
 10
252.6088982507
 20
22.2175136187
 30
0.0
 40
2.5
 41
0.0
 71
     1
 72
     1
  1
N/A
  7
SLDTEXTSTYLE0
 73
     1
 44
1.0
  0
MTEXT
  5
E6
330
1F
100
AcDbEntity
  8
0
  6
Continuous
 62
     7
370
     0
100
AcDbMText
 10
26.6029931533
 20
204.453351657
 30
0.0
 40
2.1166666667
 41
0.0
 71
     1
 72
     1
  1
1
  7
SLDTEXTSTYLE0
 73
     1
 44
1.0
  0
MTEXT
  5
E7
330
1F
100
AcDbEntity
  8
0
  6
Continuous
 62
     7
370
     0
100
AcDbMText
 10
60.7170995724
 20
204.453351657
 30
0.0
 40
2.1166666667
 41
0.0
 71
     1
 72
     1
  1
2
  7
SLDTEXTSTYLE0
 73
     1
 44
1.0
  0
MTEXT
  5
E8
330
1F
100
AcDbEntity
  8
0
  6
Continuous
 62
     7
370
     0
100
AcDbMText
 10
94.9009943906
 20
204.453351657
 30
0.0
 40
2.1166666667
 41
0.0
 71
     1
 72
     1
  1
3
  7
SLDTEXTSTYLE0
 73
     1
 44
1.0
  0
MTEXT
  5
E9
330
1F
100
AcDbEntity
  8
0
  6
Continuous
 62
     7
370
     0
100
AcDbMText
 10
129.2533362851
 20
204.2992584364
 30
0.0
 40
2.1166666667
 41
0.0
 71
     1
 72
     1
  1
4
  7
SLDTEXTSTYLE0
 73
     1
 44
1.0
  0
MTEXT
  5
EA
330
1F
100
AcDbEntity
  8
0
  6
Continuous
 62
     7
370
     0
100
AcDbMText
 10
163.702323464
 20
204.453351657
 30
0.0
 40
2.1166666667
 41
0.0
 71
     1
 72
     1
  1
5
  7
SLDTEXTSTYLE0
 73
     1
 44
1.0
  0
MTEXT
  5
EB
330
1F
100
AcDbEntity
  8
0
  6
Continuous
 62
     7
370
     0
100
AcDbMText
 10
198.6382170415
 20
204.453351657
 30
0.0
 40
2.1166666667
 41
0.0
 71
     1
 72
     1
  1
6
  7
SLDTEXTSTYLE0
 73
     1
 44
1.0
  0
MTEXT
  5
EC
330
1F
100
AcDbEntity
  8
0
  6
Continuous
 62
     7
370
     0
100
AcDbMText
 10
234.3630657407
 20
204.453351657
 30
0.0
 40
2.1166666667
 41
0.0
 71
     1
 72
     1
  1
7
  7
SLDTEXTSTYLE0
 73
     1
 44
1.0
  0
MTEXT
  5
ED
330
1F
100
AcDbEntity
  8
0
  6
Continuous
 62
     7
370
     0
100
AcDbMText
 10
266.2787820494
 20
204.453351657
 30
0.0
 40
2.1166666667
 41
0.0
 71
     1
 72
     1
  1
8
  7
SLDTEXTSTYLE0
 73
     1
 44
1.0
  0
MTEXT
  5
EE
330
1F
100
AcDbEntity
  8
0
  6
Continuous
 62
     7
370
     0
100
AcDbMText
 10
5.3568236555
 20
185.8113022879
 30
0.0
 40
2.1166666667
 41
0.0
 71
     1
 72
     1
  1
A
  7
SLDTEXTSTYLE0
 73
     1
 44
1.0
  0
MTEXT
  5
EF
330
1F
100
AcDbEntity
  8
0
  6
Continuous
 62
     7
370
     0
100
AcDbMText
 10
5.5910431831
 20
154.2993048238
 30
0.0
 40
2.1166666667
 41
0.0
 71
     1
 72
     1
  1
B
  7
SLDTEXTSTYLE0
 73
     1
 44
1.0
  0
MTEXT
  5
F0
330
1F
100
AcDbEntity
  8
0
  6
Continuous
 62
     7
370
     0
100
AcDbMText
 10
5.5910431831
 20
121.274351423
 30
0.0
 40
2.1166666667
 41
0.0
 71
     1
 72
     1
  1
C
  7
SLDTEXTSTYLE0
 73
     1
 44
1.0
  0
MTEXT
  5
F1
330
1F
100
AcDbEntity
  8
0
  6
Continuous
 62
     7
370
     0
100
AcDbMText
 10
5.5910431831
 20
88.7453220221
 30
0.0
 40
2.1166666667
 41
0.0
 71
     1
 72
     1
  1
D
  7
SLDTEXTSTYLE0
 73
     1
 44
1.0
  0
MTEXT
  5
F2
330
1F
100
AcDbEntity
  8
0
  6
Continuous
 62
     7
370
     0
100
AcDbMText
 10
5.5910431831
 20
57.5558849197
 30
0.0
 40
2.1166666667
 41
0.0
 71
     1
 72
     1
  1
E
  7
SLDTEXTSTYLE0
 73
     1
 44
1.0
  0
MTEXT
  5
F3
330
1F
100
AcDbEntity
  8
0
  6
Continuous
 62
     7
370
     0
100
AcDbMText
 10
5.5910431831
 20
25.5694212252
 30
0.0
 40
2.1166666667
 41
0.0
 71
     1
 72
     1
  1
F
  7
SLDTEXTSTYLE0
 73
     1
 44
1.0
  0
MTEXT
  5
F4
330
1F
100
AcDbEntity
  8
0
  6
Continuous
 62
     7
370
     0
100
AcDbMText
 10
266.1858616964
 20
6.6236223963
 30
0.0
 40
2.1166666667
 41
0.0
 71
     1
 72
     1
  1
8
  7
SLDTEXTSTYLE0
 73
     1
 44
1.0
  0
MTEXT
  5
F5
330
1F
100
AcDbEntity
  8
0
  6
Continuous
 62
     7
370
     0
100
AcDbMText
 10
234.2701453876
 20
6.6236223963
 30
0.0
 40
2.1166666667
 41
0.0
 71
     1
 72
     1
  1
7
  7
SLDTEXTSTYLE0
 73
     1
 44
1.0
  0
MTEXT
  5
F6
330
1F
100
AcDbEntity
  8
0
  6
Continuous
 62
     7
370
     0
100
AcDbMText
 10
198.5452966885
 20
6.6236223963
 30
0.0
 40
2.1166666667
 41
0.0
 71
     1
 72
     1
  1
6
  7
SLDTEXTSTYLE0
 73
     1
 44
1.0
  0
MTEXT
  5
F7
330
1F
100
AcDbEntity
  8
0
  6
Continuous
 62
     7
370
     0
100
AcDbMText
 10
163.6094031109
 20
6.6236223963
 30
0.0
 40
2.1166666667
 41
0.0
 71
     1
 72
     1
  1
5
  7
SLDTEXTSTYLE0
 73
     1
 44
1.0
  0
MTEXT
  5
F8
330
1F
100
AcDbEntity
  8
0
  6
Continuous
 62
     7
370
     0
100
AcDbMText
 10
129.1604159321
 20
6.4695291758
 30
0.0
 40
2.1166666667
 41
0.0
 71
     1
 72
     1
  1
4
  7
SLDTEXTSTYLE0
 73
     1
 44
1.0
  0
MTEXT
  5
F9
330
1F
100
AcDbEntity
  8
0
  6
Continuous
 62
     7
370
     0
100
AcDbMText
 10
94.8080740376
 20
6.6236223963
 30
0.0
 40
2.1166666667
 41
0.0
 71
     1
 72
     1
  1
3
  7
SLDTEXTSTYLE0
 73
     1
 44
1.0
  0
MTEXT
  5
FA
330
1F
100
AcDbEntity
  8
0
  6
Continuous
 62
     7
370
     0
100
AcDbMText
 10
60.6241792194
 20
6.6236223963
 30
0.0
 40
2.1166666667
 41
0.0
 71
     1
 72
     1
  1
2
  7
SLDTEXTSTYLE0
 73
     1
 44
1.0
  0
MTEXT
  5
FB
330
1F
100
AcDbEntity
  8
0
  6
Continuous
 62
     7
370
     0
100
AcDbMText
 10
26.5100728003
 20
6.6236223963
 30
0.0
 40
2.1166666667
 41
0.0
 71
     1
 72
     1
  1
1
  7
SLDTEXTSTYLE0
 73
     1
 44
1.0
  0
MTEXT
  5
FC
330
1F
100
AcDbEntity
  8
0
  6
Continuous
 62
     7
370
     0
100
AcDbMText
 10
287.1023846145
 20
186.6424909092
 30
0.0
 40
2.1166666667
 41
0.0
 71
     1
 72
     1
  1
A
  7
SLDTEXTSTYLE0
 73
     1
 44
1.0
  0
MTEXT
  5
FD
330
1F
100
AcDbEntity
  8
0
  6
Continuous
 62
     7
370
     0
100
AcDbMText
 10
287.3366041421
 20
155.1304934451
 30
0.0
 40
2.1166666667
 41
0.0
 71
     1
 72
     1
  1
B
  7
SLDTEXTSTYLE0
 73
     1
 44
1.0
  0
MTEXT
  5
FE
330
1F
100
AcDbEntity
  8
0
  6
Continuous
 62
     7
370
     0
100
AcDbMText
 10
287.3366041421
 20
122.1055400442
 30
0.0
 40
2.1166666667
 41
0.0
 71
     1
 72
     1
  1
C
  7
SLDTEXTSTYLE0
 73
     1
 44
1.0
  0
MTEXT
  5
FF
330
1F
100
AcDbEntity
  8
0
  6
Continuous
 62
     7
370
     0
100
AcDbMText
 10
287.3366041421
 20
89.5765106433
 30
0.0
 40
2.1166666667
 41
0.0
 71
     1
 72
     1
  1
D
  7
SLDTEXTSTYLE0
 73
     1
 44
1.0
  0
MTEXT
  5
100
330
1F
100
AcDbEntity
  8
0
  6
Continuous
 62
     7
370
     0
100
AcDbMText
 10
287.3366041421
 20
58.3870735409
 30
0.0
 40
2.1166666667
 41
0.0
 71
     1
 72
     1
  1
E
  7
SLDTEXTSTYLE0
 73
     1
 44
1.0
  0
MTEXT
  5
101
330
1F
100
AcDbEntity
  8
0
  6
Continuous
 62
     7
370
     0
100
AcDbMText
 10
287.3366041421
 20
26.4006098464
 30
0.0
 40
2.1166666667
 41
0.0
 71
     1
 72
     1
  1
F
  7
SLDTEXTSTYLE0
 73
     1
 44
1.0
  0
MTEXT
  5
102
330
1F
100
AcDbEntity
  8
0
  6
Continuous
 62
     7
370
     0
100
AcDbMText
 10
203.1553128802
 20
21.5867148511
 30
0.0
 40
1.8520833333
 41
0.0
 71
     1
 72
     1
  1
Sky
  7
SLDTEXTSTYLE0
 73
     1
 44
1.0
  0
MTEXT
  5
104
330
1F
100
AcDbEntity
  8
0
  6
Continuous
 62
     7
370
     0
100
AcDbMText
 10
252.8482239645
 20
12.2219603318
 30
0.0
 40
2.38125
 41
0.0
 71
     1
 72
     1
  1
0
  7
SLDTEXTSTYLE1
 73
     1
 44
1.0
  0
INSERT
  5
10A
330
1F
100
AcDbEntity
  8
SLD-0
 62
     7
100
AcDbBlockReference
  2
SW_NOTE_1
 10
198.7251893935
 20
33.5479745212
 30
0.0
  0
LINE
  5
10B
330
1F
100
AcDbEntity
  8
0
  6
Continuous
 62
     7
370
    30
100
AcDbLine
 10
169.9263025905
 20
108.849438884
 30
0.0
 11
150.947811165
 21
108.849438884
 31
0.0
  0
LINE
  5
10C
330
1F
100
AcDbEntity
  8
0
  6
Continuous
 62
     7
370
    30
100
AcDbLine
 10
150.947811165
 20
90.8494377962
 30
0.0
 11
169.9263025905
 21
90.8494377962
 31
0.0
  0
LINE
  5
10D
330
1F
100
AcDbEntity
  8
0
  6
Continuous
 62
     7
370
    30
100
AcDbLine
 10
169.9263025905
 20
90.8494377962
 30
0.0
 11
170.947810718
 21
95.5994362465
 31
0.0
  0
LINE
  5
10E
330
1F
100
AcDbEntity
  8
0
  6
Continuous
 62
     7
370
    30
100
AcDbLine
 10
170.947810718
 20
104.0994367084
 30
0.0
 11
169.9263025905
 21
108.849438884
 31
0.0
  0
LWPOLYLINE
  5
10F
330
1F
100
AcDbEntity
  8
0
  6
Continuous
 62
     7
370
    30
100
AcDbPolyline
 90
        3
 70
   128
 43
0.0
 10
142.0003716733
 20
99.8460622957
 10
142.0003753986
 20
99.8460809222
 10
142.0003753986
 20
99.8461014113
  0
LINE
  5
110
330
1F
100
AcDbEntity
  8
0
  6
Continuous
 62
     7
370
    30
100
AcDbLine
 10
142.2847081806
 20
99.8458611301
 30
0.0
 11
142.2847081806
 21
99.8458834818
 31
0.0
  0
LINE
  5
111
330
1F
100
AcDbEntity
  8
0
  6
Continuous
 62
     7
370
    30
100
AcDbLine
 10
150.947811165
 20
108.4494358382
 30
0.0
 11
130.4478087361
 21
108.4494358382
 31
0.0
  0
LINE
  5
112
330
1F
100
AcDbEntity
  8
0
  6
Continuous
 62
     7
370
    30
100
AcDbLine
 10
130.4478087361
 20
91.2494371167
 30
0.0
 11
150.947811165
 21
91.2494371167
 31
0.0
  0
LINE
  5
113
330
1F
100
AcDbEntity
  8
0
  6
Continuous
 62
     7
370
    30
100
AcDbLine
 10
140.1761789705
 20
99.8493945679
 30
0.0
 11
140.1761789705
 21
99.8493964306
 31
0.0
  0
LINE
  5
114
330
1F
100
AcDbEntity
  8
0
  6
Continuous
 62
     7
370
    30
100
AcDbLine
 10
130.4478087361
 20
108.4494358382
 30
0.0
 11
123.9478095333
 21
107.3494358441
 31
0.0
  0
LINE
  5
115
330
1F
100
AcDbEntity
  8
0
  6
Continuous
 62
     7
370
    30
100
AcDbLine
 10
123.9478095333
 20
92.3494371107
 30
0.0
 11
130.4478087361
 21
91.2494371167
 31
0.0
  0
LINE
  5
116
330
1F
100
AcDbEntity
  8
0
  6
Continuous
 62
     7
370
    30
100
AcDbLine
 10
174.4478066351
 20
104.0994367084
 30
0.0
 11
170.947810718
 21
104.0994367084
 31
0.0
  0
LINE
  5
117
330
1F
100
AcDbEntity
  8
0
  6
Continuous
 62
     7
370
    30
100
AcDbLine
 10
170.947810718
 20
95.5994362465
 30
0.0
 11
174.4478066351
 21
95.5994362465
 31
0.0
  0
LINE
  5
118
330
1F
100
AcDbEntity
  8
0
  6
Continuous
 62
     7
370
    30
100
AcDbLine
 10
105.9478093769
 20
103.0244371375
 30
0.0
 11
78.9478086765
 21
103.0244371375
 31
0.0
  0
LINE
  5
119
330
1F
100
AcDbEntity
  8
0
  6
Continuous
 62
     7
370
    30
100
AcDbLine
 10
78.9478086765
 20
96.6744376799
 30
0.0
 11
105.9478093769
 21
96.6744376799
 31
0.0
  0
LINE
  5
11A
330
1F
100
AcDbEntity
  8
0
  6
Continuous
 62
     7
370
    30
100
AcDbLine
 10
123.9478095333
 20
107.1994370303
 30
0.0
 11
120.9478090416
 21
107.1994370303
 31
0.0
  0
LINE
  5
11B
330
1F
100
AcDbEntity
  8
0
  6
Continuous
 62
     7
370
    30
100
AcDbLine
 10
120.9478090416
 20
92.4994377872
 30
0.0
 11
123.9478095333
 21
92.4994377872
 31
0.0
  0
LINE
  5
11C
330
1F
100
AcDbEntity
  8
0
  6
Continuous
 62
     7
370
    30
100
AcDbLine
 10
120.9478090416
 20
104.8494382283
 30
0.0
 11
105.9478093769
 21
104.8494382283
 31
0.0
  0
LINE
  5
11D
330
1F
100
AcDbEntity
  8
0
  6
Continuous
 62
     7
370
    30
100
AcDbLine
 10
105.9478093769
 20
94.8494365892
 30
0.0
 11
120.9478090416
 21
94.8494365892
 31
0.0
  0
LINE
  5
11E
330
1F
100
AcDbEntity
  8
0
  6
Continuous
 62
     7
370
    30
100
AcDbLine
 10
169.9263025905
 20
108.849438884
 30
0.0
 11
169.9263025905
 21
90.8494377962
 31
0.0
  0
LINE
  5
11F
330
1F
100
AcDbEntity
  8
0
  6
Continuous
 62
     7
370
    30
100
AcDbLine
 10
150.947811165
 20
108.849438884
 30
0.0
 11
150.947811165
 21
90.8494377962
 31
0.0
  0
LINE
  5
120
330
1F
100
AcDbEntity
  8
0
  6
Continuous
 62
     7
370
    30
100
AcDbLine
 10
170.947810718
 20
104.0994367084
 30
0.0
 11
170.947810718
 21
95.5994362465
 31
0.0
  0
LINE
  5
121
330
1F
100
AcDbEntity
  8
0
  6
Continuous
 62
     7
370
    30
100
AcDbLine
 10
141.3102802719
 20
100.7767143181
 30
0.0
 11
141.3102802719
 21
99.0186864963
 31
0.0
  0
SPLINE
  5
122
330
1F
100
AcDbEntity
  8
0
  6
Continuous
 62
     7
370
    30
100
AcDbSpline
210
0.0
220
0.0
230
1.0
 70
     8
 71
     3
 72
     9
 73
     5
 74
     0
 42
0.000000001
 43
0.00000001
 40
0.0
 40
0.0
 40
0.0
 40
0.0
 40
0.4991350318956042
 40
1.0
 40
1.0
 40
1.0
 40
1.0
 10
141.7847481455102
 20
100.5018623998783
 30
0.0
 10
141.7156059150948
 20
100.5644029512532
 30
0.0
 10
141.5770818164098
 20
100.6897008113078
 30
0.0
 10
141.3993166275735
 20
100.7476763844874
 30
0.0
 10
141.3102802719369
 20
100.7767143180989
 30
0.0
  0
SPLINE
  5
123
330
1F
100
AcDbEntity
  8
0
  6
Continuous
 62
     7
370
    30
100
AcDbSpline
210
0.0
220
0.0
230
1.0
 70
     8
 71
     3
 72
    12
 73
     8
 74
     0
 42
0.000000001
 43
0.00000001
 40
0.0
 40
0.0
 40
0.0
 40
0.0
 40
0.2500173110217088
 40
0.3743323971863549
 40
0.5003840717960563
 40
0.7502016033702432
 40
1.0
 40
1.0
 40
1.0
 40
1.0
 10
141.310280271937
 20
99.01868649631962
 30
0.0
 10
141.4079907350678
 20
99.04908571495659
 30
0.0
 10
141.5542853726052
 20
99.09460021288663
 30
0.0
 10
141.7200280840153
 20
99.21560205997457
 30
0.0
 10
141.8547197299046
 20
99.36796834936109
 30
0.0
 10
141.9752112212981
 20
99.5994054968111
 30
0.0
 10
141.9932467178465
 20
99.80289321171975
 30
0.0
 10
142.0022641207472
 20
99.90463317245468
 30
0.0
  0
SPLINE
  5
124
330
1F
100
AcDbEntity
  8
0
  6
Continuous
 62
     7
370
    30
100
AcDbSpline
210
0.0
220
0.0
230
1.0
 70
     8
 71
     3
 72
     9
 73
     5
 74
     0
 42
0.000000001
 43
0.00000001
 40
0.0
 40
0.0
 40
0.0
 40
0.0
 40
0.500165163568701
 40
1.0
 40
1.0
 40
1.0
 40
1.0
 10
142.0022641207471
 20
99.90463317245468
 30
0.0
 10
141.9940387356245
 20
100.0145074595746
 30
0.0
 10
141.9775933977205
 20
100.2341834688672
 30
0.0
 10
141.8490157386837
 20
100.4126557409529
 30
0.0
 10
141.7847481455102
 20
100.5018623998783
 30
0.0
  0
LINE
  5
125
330
1F
100
AcDbEntity
  8
0
  6
Continuous
 62
     7
370
    30
100
AcDbLine
 10
141.9933793034
 20
99.8473288944
 30
0.0
 11
142.0022641207
 21
99.9043109348
 31
0.0
  0
LINE
  5
126
330
1F
100
AcDbEntity
  8
0
  6
Continuous
 62
     7
370
    30
100
AcDbLine
 10
142.0022641207
 20
99.9043109348
 30
0.0
 11
142.0022641207
 21
99.9046331725
 31
0.0
  0
SPLINE
  5
127
330
1F
100
AcDbEntity
  8
0
  6
Continuous
 62
     7
370
    30
100
AcDbSpline
210
0.0
220
0.0
230
1.0
 70
     8
 71
     3
 72
    12
 73
     8
 74
     0
 42
0.000000001
 43
0.00000001
 40
0.0
 40
0.0
 40
0.0
 40
0.0
 40
0.1252116173930983
 40
0.2503691413615157
 40
0.5002106241079053
 40
0.7499908756649927
 40
1.0
 40
1.0
 40
1.0
 40
1.0
 10
142.2872003998056
 20
99.91926052481159
 30
0.0
 10
142.2860604528327
 20
99.87420878863817
 30
0.0
 10
142.2837810513623
 20
99.78412477936315
 30
0.0
 10
142.2562242687933
 20
99.60594549037503
 30
0.0
 10
142.1850438133491
 20
99.39084391290558
 30
0.0
 10
142.0359202991631
 20
99.16188085327285
 30
0.0
 10
141.899020606172
 20
99.04491604257508
 30
0.0
 10
141.830539413859
 20
98.98640685588344
 30
0.0
  0
LINE
  5
128
330
1F
100
AcDbEntity
  8
0
  6
Continuous
 62
     7
370
    30
100
AcDbLine
 10
141.8305394139
 20
98.9864068559
 30
0.0
 11
141.8305394139
 21
98.9914248219
 31
0.0
  0
SPLINE
  5
129
330
1F
100
AcDbEntity
  8
0
  6
Continuous
 62
     7
370
    30
100
AcDbSpline
210
0.0
220
0.0
230
1.0
 70
     8
 71
     3
 72
    12
 73
     8
 74
     0
 42
0.000000001
 43
0.00000001
 40
0.0
 40
0.0
 40
0.0
 40
0.0
 40
0.2496909582989062
 40
0.4993338770766724
 40
0.749206190393853
 40
0.874536860517835
 40
1.0
 40
1.0
 40
1.0
 40
1.0
 10
142.2872003998056
 20
99.91885446816906
 30
0.0
 10
142.2824574275651
 20
99.82926589515459
 30
0.0
 10
142.2729723956125
 20
99.65010598560139
 30
0.0
 10
142.1847181246018
 20
99.39282124967069
 30
0.0
 10
142.0593887075267
 20
99.20535774604352
 30
0.0
 10
141.9354887537091
 20
99.07565850409071
 30
0.0
 10
141.8655348437004
 20
99.01951260140089
 30
0.0
 10
141.830539413859
 20
98.99142482191547
 30
0.0
  0
LINE
  5
12A
330
1F
100
AcDbEntity
  8
0
  6
Continuous
 62
     7
370
    30
100
AcDbLine
 10
142.2872003998
 20
99.9192605248
 30
0.0
 11
142.2872003998
 21
99.9188544682
 31
0.0
  0
LINE
  5
12B
330
1F
100
AcDbEntity
  8
0
  6
Continuous
 62
     7
370
    30
100
AcDbLine
 10
130.4478087361
 20
108.4494358382
 30
0.0
 11
130.4478087361
 21
91.2494371167
 31
0.0
  0
LINE
  5
12C
330
1F
100
AcDbEntity
  8
0
  6
Continuous
 62
     7
370
    30
100
AcDbLine
 10
143.1013029899
 20
107.8945203206
 30
0.0
 11
143.1013029899
 21
107.7894298813
 31
0.0
  0
LINE
  5
12D
330
1F
100
AcDbEntity
  8
0
  6
Continuous
 62
     7
370
    30
100
AcDbLine
 10
141.1837098088
 20
107.8945203206
 30
0.0
 11
143.1013029899
 21
107.8945203206
 31
0.0
  0
SPLINE
  5
12E
330
1F
100
AcDbEntity
  8
0
  6
Continuous
 62
     7
370
    30
100
AcDbSpline
210
0.0
220
0.0
230
1.0
 70
     8
 71
     3
 72
     9
 73
     5
 74
     0
 42
0.000000001
 43
0.00000001
 40
0.0
 40
0.0
 40
0.0
 40
0.0
 40
0.4896780630095249
 40
1.0
 40
1.0
 40
1.0
 40
1.0
 10
140.5146215941205
 20
107.8743441483401
 30
0.0
 10
140.6230190588541
 20
107.8810366758913
 30
0.0
 10
140.8443838144394
 20
107.8947038749284
 30
0.0
 10
141.0690551153099
 20
107.8945823416795
 30
0.0
 10
141.1837098087563
 20
107.8945203205965
 30
0.0
  0
SPLINE
  5
12F
330
1F
100
AcDbEntity
  8
0
  6
Continuous
 62
     7
370
    30
100
AcDbSpline
210
0.0
220
0.0
230
1.0
 70
     8
 71
     3
 72
    11
 73
     7
 74
     0
 42
0.000000001
 43
0.00000001
 40
0.0
 40
0.0
 40
0.0
 40
0.0
 40
0.2504322942413967
 40
0.5004375265383516
 40
0.7502404938693621
 40
1.0
 40
1.0
 40
1.0
 40
1.0
 10
139.8448944921984
 20
107.4650539538286
 30
0.0
 10
139.8514355495402
 20
107.5139940654361
 30
0.0
 10
139.8645065097652
 20
107.6117908311269
 30
0.0
 10
139.9978373980572
 20
107.7345917823117
 30
0.0
 10
140.2143272119832
 20
107.8301882375724
 30
0.0
 10
140.414529272503
 20
107.8596263651088
 30
0.0
 10
140.5146215941205
 20
107.8743441483401
 30
0.0
  0
SPLINE
  5
130
330
1F
100
AcDbEntity
  8
0
  6
Continuous
 62
     7
370
    30
100
AcDbSpline
210
0.0
220
0.0
230
1.0
 70
     8
 71
     3
 72
    14
 73
    10
 74
     0
 42
0.000000001
 43
0.00000001
 40
0.0
 40
0.0
 40
0.0
 40
0.0
 40
0.2502655477653998
 40
0.3753824415902079
 40
0.5002486684044861
 40
0.6252240498860344
 40
0.7501510075722397
 40
0.8750043567609145
 40
1.0
 40
1.0
 40
1.0
 40
1.0
 10
141.1837098087563
 20
106.9577327451132
 30
0.0
 10
141.0261233316472
 20
106.960369728356
 30
0.0
 10
140.7897536152919
 20
106.9643250358961
 30
0.0
 10
140.480045874982
 20
107.0001370227829
 30
0.0
 10
140.2643013159623
 20
107.0567888182067
 30
0.0
 10
140.0858472540217
 20
107.1416956113524
 30
0.0
 10
139.9435169865951
 20
107.2408707382744
 30
0.0
 10
139.8582417752293
 20
107.3535809224495
 30
0.0
 10
139.8493452754542
 20
107.427882171348
 30
0.0
 10
139.8448944921984
 20
107.4650539538286
 30
0.0
  0
LINE
  5
131
330
1F
100
AcDbEntity
  8
0
  6
Continuous
 62
     7
370
    30
100
AcDbLine
 10
143.1013029899
 20
106.9577327451
 30
0.0
 11
141.1837098088
 21
106.9577327451
 31
0.0
  0
LINE
  5
132
330
1F
100
AcDbEntity
  8
0
  6
Continuous
 62
     7
370
    30
100
AcDbLine
 10
143.1013029899
 20
107.1141837618
 30
0.0
 11
143.1013029899
 21
106.9577327451
 31
0.0
  0
LINE
  5
133
330
1F
100
AcDbEntity
  8
0
  6
Continuous
 62
     7
370
    30
100
AcDbLine
 10
141.1989760484
 20
107.1141837618
 30
0.0
 11
143.1013029899
 21
107.1141837618
 31
0.0
  0
LINE
  5
134
330
1F
100
AcDbEntity
  8
0
  6
Continuous
 62
     7
370
    30
100
AcDbLine
 10
140.7060605373
 20
107.1314914605
 30
0.0
 11
141.1989760484
 21
107.1141837618
 31
0.0
  0
SPLINE
  5
135
330
1F
100
AcDbEntity
  8
0
  6
Continuous
 62
     7
370
    30
100
AcDbSpline
210
0.0
220
0.0
230
1.0
 70
     8
 71
     3
 72
    11
 73
     7
 74
     0
 42
0.000000001
 43
0.00000001
 40
0.0
 40
0.0
 40
0.0
 40
0.0
 40
0.2499979103052168
 40
0.4999450410399573
 40
0.7498021033011354
 40
0.9999999999999999
 40
0.9999999999999999
 40
0.9999999999999999
 40
0.9999999999999999
 10
140.170535155703
 20
107.4724263033293
 30
0.0
 10
140.1781620300904
 20
107.4356864271986
 30
0.0
 10
140.1934142296945
 20
107.3622141375402
 30
0.0
 10
140.3081672121991
 20
107.2572478981705
 30
0.0
 10
140.4834584910788
 20
107.1727262753529
 30
0.0
 10
140.6318261463726
 20
107.1452426430131
 30
0.0
 10
140.7060605372681
 20
107.1314914605044
 30
0.0
  0
SPLINE
  5
136
330
1F
100
AcDbEntity
  8
0
  6
Continuous
 62
     7
370
    30
100
AcDbSpline
210
0.0
220
0.0
230
1.0
 70
     8
 71
     3
 72
    12
 73
     8
 74
     0
 42
0.000000001
 43
0.00000001
 40
0.0
 40
0.0
 40
0.0
 40
0.0
 40
0.2497046644874075
 40
0.3736043083644972
 40
0.5000106335654373
 40
0.7516311260816674
 40
1.0
 40
1.0
 40
1.0
 40
1.0
 10
140.7766585137143
 20
107.7845348498248
 30
0.0
 10
140.6903970962487
 20
107.7777958389534
 30
0.0
 10
140.5613340798372
 20
107.7677130337291
 30
0.0
 10
140.4146180382988
 20
107.7285819198027
 30
0.0
 10
140.2996895894989
 20
107.6747302771126
 30
0.0
 10
140.1977263334495
 20
107.591084845056
 30
0.0
 10
140.1795594997047
 20
107.5118072933423
 30
0.0
 10
140.170535155703
 20
107.4724263033293
 30
0.0
  0
SPLINE
  5
137
330
1F
100
AcDbEntity
  8
0
  6
Continuous
 62
     7
370
    30
100
AcDbSpline
210
0.0
220
0.0
230
1.0
 70
     8
 71
     3
 72
     9
 73
     5
 74
     0
 42
0.000000001
 43
0.00000001
 40
0.0
 40
0.0
 40
0.0
 40
0.0
 40
0.6365751394707546
 40
1.0
 40
1.0
 40
1.0
 40
1.0
 10
141.1989760483994
 20
107.7894298812769
 30
0.0
 10
141.1092434371728
 20
107.7896337839825
 30
0.0
 10
140.968281898365
 20
107.7899540960602
 30
0.0
 10
140.8277362840095
 20
107.7859793656645
 30
0.0
 10
140.7766585137143
 20
107.7845348498248
 30
0.0
  0
LINE
  5
138
330
1F
100
AcDbEntity
  8
0
  6
Continuous
 62
     7
370
    30
100
AcDbLine
 10
143.1013029899
 20
107.7894298813
 30
0.0
 11
141.1989760484
 21
107.7894298813
 31
0.0
  0
LINE
  5
139
330
1F
100
AcDbEntity
  8
0
  6
Continuous
 62
     7
370
    30
100
AcDbLine
 10
142.246497878
 20
106.5200372121
 30
0.0
 11
142.246497878
 21
106.3365703902
 31
0.0
  0
LINE
  5
13A
330
1F
100
AcDbEntity
  8
0
  6
Continuous
 62
     7
370
    30
100
AcDbLine
 10
139.9263032611
 20
106.5200372121
 30
0.0
 11
142.246497878
 21
106.5200372121
 31
0.0
  0
LINE
  5
13B
330
1F
100
AcDbEntity
  8
0
  6
Continuous
 62
     7
370
    30
100
AcDbLine
 10
139.9263032611
 20
106.5200372121
 30
0.0
 11
139.9263032611
 21
106.3365703902
 31
0.0
  0
LINE
  5
13C
330
1F
100
AcDbEntity
  8
0
  6
Continuous
 62
     7
370
    30
100
AcDbLine
 10
140.7652106966
 20
106.3365703902
 30
0.0
 11
139.9263032611
 21
106.3365703902
 31
0.0
  0
LINE
  5
13D
330
1F
100
AcDbEntity
  8
0
  6
Continuous
 62
     7
370
    30
100
AcDbLine
 10
141.3878743436
 20
106.3076733133
 30
0.0
 11
140.7652106966
 21
106.3365703902
 31
0.0
  0
SPLINE
  5
13E
330
1F
100
AcDbEntity
  8
0
  6
Continuous
 62
     7
370
    30
100
AcDbSpline
210
0.0
220
0.0
230
1.0
 70
     8
 71
     3
 72
    11
 73
     7
 74
     0
 42
0.000000001
 43
0.00000001
 40
0.0
 40
0.0
 40
0.0
 40
0.0
 40
0.2498819007929378
 40
0.4998550235190398
 40
0.7500051121463239
 40
1.0
 40
1.0
 40
1.0
 40
1.0
 10
142.0022641207471
 20
105.7600109359644
 30
0.0
 10
141.9941968573117
 20
105.8246959059259
 30
0.0
 10
141.9780593854043
 20
105.9540894597559
 30
0.0
 10
141.8361894616005
 20
106.1163825734722
 30
0.0
 10
141.6414335650344
 20
106.2456101799895
 30
0.0
 10
141.4723765972761
 20
106.2869898824113
 30
0.0
 10
141.3878743435635
 20
106.3076733133219
 30
0.0
  0
SPLINE
  5
13F
330
1F
100
AcDbEntity
  8
0
  6
Continuous
 62
     7
370
    30
100
AcDbSpline
210
0.0
220
0.0
230
1.0
 70
     8
 71
     3
 72
    13
 73
     9
 74
     0
 42
0.000000001
 43
0.00000001
 40
0.0
 40
0.0
 40
0.0
 40
0.0
 40
0.1253229072356901
 40
0.2505119886151166
 40
0.3775779025562091
 40
0.5007852267011825
 40
0.7499654639804914
 40
0.9999999999999999
 40
0.9999999999999999
 40
0.9999999999999999
 40
0.9999999999999999
 10
141.5456031348004
 20
105.3113108953856
 30
0.0
 10
141.5788513472782
 20
105.3181510737026
 30
0.0
 10
141.6453122681859
 20
105.3318241260637
 30
0.0
 10
141.739695544541
 20
105.3656819737675
 30
0.0
 10
141.8241317342852
 20
105.4116658927027
 30
0.0
 10
141.9175065350666
 20
105.4886490714351
 30
0.0
 10
141.9909768718256
 20
105.6092329458751
 30
0.0
 10
141.9984974145094
 20
105.7096942999328
 30
0.0
 10
142.0022641207471
 20
105.7600109359644
 30
0.0
  0
SPLINE
  5
140
330
1F
100
AcDbEntity
  8
0
  6
Continuous
 62
     7
370
    30
100
AcDbSpline
210
0.0
220
0.0
230
1.0
 70
     8
 71
     3
 72
     9
 73
     5
 74
     0
 42
0.000000001
 43
0.00000001
 40
0.0
 40
0.0
 40
0.0
 40
0.0
 40
0.5003079717636489
 40
1.0
 40
1.0
 40
1.0
 40
1.0
 10
141.0177108730569
 20
105.2852338632963
 30
0.0
 10
141.1061362984413
 20
105.2848717202987
 30
0.0
 10
141.2828782861268
 20
105.2841478801481
 30
0.0
 10
141.4580641534429
 20
105.3022602757107
 30
0.0
 10
141.5456031348004
 20
105.3113108953856
 30
0.0
  0
LINE
  5
141
330
1F
100
AcDbEntity
  8
0
  6
Continuous
 62
     7
370
    30
100
AcDbLine
 10
139.9263032611
 20
105.2852338633
 30
0.0
 11
141.0177108731
 21
105.2852338633
 31
0.0
  0
LINE
  5
142
330
1F
100
AcDbEntity
  8
0
  6
Continuous
 62
     7
370
    30
100
AcDbLine
 10
139.9263032611
 20
105.2852338633
 30
0.0
 11
139.9263032611
 21
105.0614892027
 31
0.0
  0
LINE
  5
143
330
1F
100
AcDbEntity
  8
0
  6
Continuous
 62
     7
370
    30
100
AcDbLine
 10
141.1112044837
 20
105.0614892027
 30
0.0
 11
139.9263032611
 21
105.0614892027
 31
0.0
  0
SPLINE
  5
144
330
1F
100
AcDbEntity
  8
0
  6
Continuous
 62
     7
370
    30
100
AcDbSpline
210
0.0
220
0.0
230
1.0
 70
     8
 71
     3
 72
    14
 73
    10
 74
     0
 42
0.000000001
 43
0.00000001
 40
0.0
 40
0.0
 40
0.0
 40
0.0
 40
0.1249700621641862
 40
0.250016756095761
 40
0.3760557344034392
 40
0.499723486751423
 40
0.624609370672211
 40
0.7497236583009395
 40
1.0
 40
1.0
 40
1.0
 40
1.0
 10
142.2872003998056
 20
105.7238756200694
 30
0.0
 10
142.283487122902
 20
105.6727216189974
 30
0.0
 10
142.2760582921098
 20
105.5703822491689
 30
0.0
 10
142.2013114282763
 20
105.4205698799798
 30
0.0
 10
142.0829460718833
 20
105.2873473034065
 30
0.0
 10
141.9227386914643
 20
105.1807882433134
 30
0.0
 10
141.7326931265422
 20
105.1107320288492
 30
0.0
 10
141.4588442871021
 20
105.0676633924556
 30
0.0
 10
141.2502657131479
 20
105.063958972864
 30
0.0
 10
141.1112044836774
 20
105.0614892026804
 30
0.0
  0
SPLINE
  5
145
330
1F
100
AcDbEntity
  8
0
  6
Continuous
 62
     7
370
    30
100
AcDbSpline
210
0.0
220
0.0
230
1.0
 70
     8
 71
     3
 72
    11
 73
     7
 74
     0
 42
0.000000001
 43
0.00000001
 40
0.0
 40
0.0
 40
0.0
 40
0.0
 40
0.2502311641530856
 40
0.500101364056451
 40
0.749984085635198
 40
1.0
 40
1.0
 40
1.0
 40
1.0
 10
141.827995040585
 20
106.3365703901671
 30
0.0
 10
141.8947400858171
 20
106.3002800013422
 30
0.0
 10
142.0281338950076
 20
106.227751573419
 30
0.0
 10
142.17774432332
 20
106.0820947496353
 30
0.0
 10
142.2712306207364
 20
105.9114316358339
 30
0.0
 10
142.2818761946484
 20
105.7864053959708
 30
0.0
 10
142.2872003998055
 20
105.7238756200694
 30
0.0
  0
LINE
  5
146
330
1F
100
AcDbEntity
  8
0
  6
Continuous
 62
     7
370
    30
100
AcDbLine
 10
142.246497878
 20
106.3365703902
 30
0.0
 11
141.8279950406
 21
106.3365703902
 31
0.0
  0
SPLINE
  5
147
330
1F
100
AcDbEntity
  8
0
  6
Continuous
 62
     7
370
    30
100
AcDbSpline
210
0.0
220
0.0
230
1.0
 70
     8
 71
     3
 72
    13
 73
     9
 74
     0
 42
0.000000001
 43
0.00000001
 40
0.0
 40
0.0
 40
0.0
 40
0.0
 40
0.1254625689545491
 40
0.2507530644074083
 40
0.5003948006316817
 40
0.6288958882631509
 40
0.7508553801146731
 40
1.0
 40
1.0
 40
1.0
 40
1.0
 10
143.2234180058732
 20
104.4443725129984
 30
0.0
 10
143.2226537675727
 20
104.4301812102916
 30
0.0
 10
143.2211263391343
 20
104.4018180684292
 30
0.0
 10
143.2042236912951
 20
104.3464155972527
 30
0.0
 10
143.1675491751225
 20
104.2964249861251
 30
0.0
 10
143.1190229936288
 20
104.2569324131369
 30
0.0
 10
143.0616161819328
 20
104.2259548518633
 30
0.0
 10
143.0115380958444
 20
104.2208864391571
 30
0.0
 10
142.9779176499143
 20
104.2174837073706
 30
0.0
  0
SPLINE
  5
148
330
1F
100
AcDbEntity
  8
0
  6
Continuous
 62
     7
370
    30
100
AcDbSpline
210
0.0
220
0.0
230
1.0
 70
     8
 71
     3
 72
    13
 73
     9
 74
     0
 42
0.000000001
 43
0.00000001
 40
0.0
 40
0.0
 40
0.0
 40
0.0
 40
0.1253360366281865
 40
0.2505024284082933
 40
0.3736948864334841
 40
0.5009141963959444
 40
0.7504470572143275
 40
1.0
 40
1.0
 40
1.0
 40
1.0
 10
142.9779176499143
 20
104.6647606870554
 30
0.0
 10
142.9946028069525
 20
104.6639402599152
 30
0.0
 10
143.0279505373331
 20
104.6623005160994
 30
0.0
 10
143.0754190232139
 20
104.6487036124765
 30
0.0
 10
143.1185768564056
 20
104.6273099007433
 30
0.0
 10
143.1670921752745
 20
104.5893530876563
 30
0.0
 10
143.2141851476402
 20
104.5289472365027
 30
0.0
 10
143.2203403039062
 20
104.4725648437288
 30
0.0
 10
143.2234180058732
 20
104.4443725129985
 30
0.0
  0
SPLINE
  5
149
330
1F
100
AcDbEntity
  8
0
  6
Continuous
 62
     7
370
    30
100
AcDbSpline
210
0.0
220
0.0
230
1.0
 70
     8
 71
     3
 72
    12
 73
     8
 74
     0
 42
0.000000001
 43
0.00000001
 40
0.0
 40
0.0
 40
0.0
 40
0.0
 40
0.1255974636333179
 40
0.2510337493754586
 40
0.5010056550849842
 40
0.7506316984759525
 40
1.0
 40
1.0
 40
1.0
 40
1.0
 10
142.7349579419389
 20
104.4443725129984
 30
0.0
 10
142.7356891580295
 20
104.4583685835239
 30
0.0
 10
142.7371506518489
 20
104.4863427635663
 30
0.0
 10
142.754684785415
 20
104.5403870233306
 30
0.0
 10
142.7988141668855
 20
104.5997785033453
 30
0.0
 10
142.8783107781715
 20
104.6541415363011
 30
0.0
 10
142.9447267944583
 20
104.6612221892431
 30
0.0
 10
142.9779176499143
 20
104.6647606870554
 30
0.0
  0
SPLINE
  5
14A
330
1F
100
AcDbEntity
  8
0
  6
Continuous
 62
     7
370
    30
100
AcDbSpline
210
0.0
220
0.0
230
1.0
 70
     8
 71
     3
 72
    13
 73
     9
 74
     0
 42
0.000000001
 43
0.00000001
 40
0.0
 40
0.0
 40
0.0
 40
0.0
 40
0.1253175302248759
 40
0.2504725008068202
 40
0.3720753289773907
 40
0.500843182608665
 40
0.7503274239435797
 40
1.0
 40
1.0
 40
1.0
 40
1.0
 10
142.9779176499143
 20
104.2174837073706
 30
0.0
 10
142.9612401261053
 20
104.2183927423714
 30
0.0
 10
142.9279067122709
 20
104.2202096331891
 30
0.0
 10
142.8808111946032
 20
104.2347567567664
 30
0.0
 10
142.8381385260782
 20
104.2575492683091
 30
0.0
 10
142.7903899819149
 20
104.2972745474613
 30
0.0
 10
142.7434619223771
 20
104.3593241450028
 30
0.0
 10
142.7377933150176
 20
104.4160159269554
 30
0.0
 10
142.7349579419389
 20
104.4443725129984
 30
0.0
  0
LINE
  5
14B
330
1F
100
AcDbEntity
  8
0
  6
Continuous
 62
     7
370
    30
100
AcDbLine
 10
142.246497878
 20
104.5630975148
 30
0.0
 11
142.246497878
 21
104.32223142
 31
0.0
  0
LINE
  5
14C
330
1F
100
AcDbEntity
  8
0
  6
Continuous
 62
     7
370
    30
100
AcDbLine
 10
139.9263032611
 20
104.5630975148
 30
0.0
 11
142.246497878
 21
104.5630975148
 31
0.0
  0
LINE
  5
14D
330
1F
100
AcDbEntity
  8
0
  6
Continuous
 62
     7
370
    30
100
AcDbLine
 10
139.9263032611
 20
104.5630975148
 30
0.0
 11
139.9263032611
 21
104.32223142
 31
0.0
  0
LINE
  5
14E
330
1F
100
AcDbEntity
  8
0
  6
Continuous
 62
     7
370
    30
100
AcDbLine
 10
142.246497878
 20
104.32223142
 30
0.0
 11
139.9263032611
 21
104.32223142
 31
0.0
  0
LINE
  5
14F
330
1F
100
AcDbEntity
  8
0
  6
Continuous
 62
     7
370
    30
100
AcDbLine
 10
141.7434048738
 20
101.5701191953
 30
0.0
 11
141.5952128257
 21
101.8031118891
 31
0.0
  0
SPLINE
  5
150
330
1F
100
AcDbEntity
  8
0
  6
Continuous
 62
     7
370
    30
100
AcDbSpline
210
0.0
220
0.0
230
1.0
 70
     8
 71
     3
 72
    11
 73
     7
 74
     0
 42
0.000000001
 43
0.00000001
 40
0.0
 40
0.0
 40
0.0
 40
0.0
 40
0.2502328322717807
 40
0.5004725389701521
 40
0.7502845495804107
 40
1.0
 40
1.0
 40
1.0
 40
1.0
 10
142.2872003998056
 20
102.5950415512942
 30
0.0
 10
142.28085373317
 20
102.4959556967707
 30
0.0
 10
142.2681602255425
 20
102.2977812656251
 30
0.0
 10
142.1634581318518
 20
102.0123371019485
 30
0.0
 10
142.0004095106488
 20
101.7471684228461
 30
0.0
 10
141.8290620454046
 20
101.6291279986131
 30
0.0
 10
141.7434048737779
 20
101.5701191952847
 30
0.0
  0
SPLINE
  5
151
330
1F
100
AcDbEntity
  8
0
  6
Continuous
 62
     7
370
    30
100
AcDbSpline
210
0.0
220
0.0
230
1.0
 70
     8
 71
     3
 72
    14
 73
    10
 74
     0
 42
0.000000001
 43
0.00000001
 40
0.0
 40
0.0
 40
0.0
 40
0.0
 40
0.1250708723029208
 40
0.2500682516918441
 40
0.3759527304868224
 40
0.5003036274565099
 40
0.6255022371504391
 40
0.7506346639959246
 40
1.0
 40
1.0
 40
1.0
 40
1.0
 10
141.0673205639615
 20
103.7899023374937
 30
0.0
 10
141.1502069749014
 20
103.7859595095726
 30
0.0
 10
141.3159310918847
 20
103.7780761705759
 30
0.0
 10
141.5540887048183
 20
103.706561130339
 30
0.0
 10
141.7712306799108
 20
103.5968335871026
 30
0.0
 10
141.9591456195199
 20
103.4473135780046
 30
0.0
 10
142.1058544627176
 20
103.2637488541296
 30
0.0
 10
142.2524818729716
 20
102.9870956237837
 30
0.0
 10
142.2733230008611
 20
102.7517501235719
 30
0.0
 10
142.2872003998056
 20
102.5950415512942
 30
0.0
  0
SPLINE
  5
152
330
1F
100
AcDbEntity
  8
0
  6
Continuous
 62
     7
370
    30
100
AcDbSpline
210
0.0
220
0.0
230
1.0
 70
     8
 71
     3
 72
    13
 73
     9
 74
     0
 42
0.000000001
 43
0.00000001
 40
0.0
 40
0.0
 40
0.0
 40
0.0
 40
0.2497849265134474
 40
0.374467493191301
 40
0.5003452608555373
 40
0.6250927392162459
 40
0.7508933465452908
 40
1.0
 40
1.0
 40
1.0
 40
1.0
 10
139.8855988766447
 20
102.6173336884402
 30
0.0
 10
139.8982365486904
 20
102.7702005764371
 30
0.0
 10
139.9171824372066
 20
102.9993724529757
 30
0.0
 10
140.0577539151446
 20
103.2705021062415
 30
0.0
 10
140.202904846193
 20
103.4485310846246
 30
0.0
 10
140.3824568510393
 20
103.5970189714869
 30
0.0
 10
140.6604520670565
 20
103.7512099907587
 30
0.0
 10
140.9048984651148
 20
103.7744563341442
 30
0.0
 10
141.0673205639615
 20
103.7899023374937
 30
0.0
  0
SPLINE
  5
153
330
1F
100
AcDbEntity
  8
0
  6
Continuous
 62
     7
370
    30
100
AcDbSpline
210
0.0
220
0.0
230
1.0
 70
     8
 71
     3
 72
    11
 73
     7
 74
     0
 42
0.000000001
 43
0.00000001
 40
0.0
 40
0.0
 40
0.0
 40
0.0
 40
0.2498147126500276
 40
0.4997366656383015
 40
0.7497562757223664
 40
1.0
 40
1.0
 40
1.0
 40
1.0
 10
140.4211242582097
 20
101.5701191952847
 30
0.0
 10
140.3376483141897
 20
101.6336073391387
 30
0.0
 10
140.170660591637
 20
101.7606108810063
 30
0.0
 10
140.0027861405653
 20
102.0259257687678
 30
0.0
 10
139.9008570387325
 20
102.316761412571
 30
0.0
 10
139.8906864494563
 20
102.5171130111497
 30
0.0
 10
139.8855988766446
 20
102.6173336884401
 30
0.0
  0
LINE
  5
154
330
1F
100
AcDbEntity
  8
0
  6
Continuous
 62
     7
370
    30
100
AcDbLine
 10
140.5775864507
 20
101.8031118891
 30
0.0
 11
140.4211242582
 21
101.5701191953
 31
0.0
  0
SPLINE
  5
155
330
1F
100
AcDbEntity
  8
0
  6
Continuous
 62
     7
370
    30
100
AcDbSpline
210
0.0
220
0.0
230
1.0
 70
     8
 71
     3
 72
    12
 73
     8
 74
     0
 42
0.000000001
 43
0.00000001
 40
0.0
 40
0.0
 40
0.0
 40
0.0
 40
0.1251954491633333
 40
0.2503358780889327
 40
0.50017483466492
 40
0.7499903714170395
 40
1.0
 40
1.0
 40
1.0
 40
1.0
 10
140.1705351557031
 20
102.6131166598223
 30
0.0
 10
140.1716546110841
 20
102.5747586801101
 30
0.0
 10
140.1738930298739
 20
102.4980595780491
 30
0.0
 10
140.1987952956718
 20
102.3454363537029
 30
0.0
 10
140.2638725385447
 20
102.1602922887386
 30
0.0
 10
140.396441531023
 20
101.9606683058686
 30
0.0
 10
140.5171891812843
 20
101.8556442889566
 30
0.0
 10
140.5775864507451
 20
101.8031118890665
 30
0.0
  0
SPLINE
  5
156
330
1F
100
AcDbEntity
  8
0
  6
Continuous
 62
     7
370
    30
100
AcDbSpline
210
0.0
220
0.0
230
1.0
 70
     8
 71
     3
 72
    13
 73
     9
 74
     0
 42
0.000000001
 43
0.00000001
 40
0.0
 40
0.0
 40
0.0
 40
0.0
 40
0.2486613055106577
 40
0.374865235020076
 40
0.4996793300966009
 40
0.6237946257289014
 40
0.7502262386499227
 40
1.0
 40
1.0
 40
1.0
 40
1.0
 10
141.0927605714097
 20
103.534518786373
 30
0.0
 10
140.9668326440449
 20
103.5207283125426
 30
0.0
 10
140.7769920816371
 20
103.4999387119941
 30
0.0
 10
140.5583351522264
 20
103.3816129792254
 30
0.0
 10
140.4164012970793
 20
103.2667623942885
 30
0.0
 10
140.3055461351049
 20
103.124934271915
 30
0.0
 10
140.1964566585775
 20
102.9120962142135
 30
0.0
 10
140.1808781701973
 20
102.7324133641652
 30
0.0
 10
140.1705351557031
 20
102.6131166598223
 30
0.0
  0
SPLINE
  5
157
330
1F
100
AcDbEntity
  8
0
  6
Continuous
 62
     7
370
    30
100
AcDbSpline
210
0.0
220
0.0
230
1.0
 70
     8
 71
     3
 72
    14
 73
    10
 74
     0
 42
0.000000001
 43
0.00000001
 40
0.0
 40
0.0
 40
0.0
 40
0.0
 40
0.2494944939085121
 40
0.3745954129346003
 40
0.4997071190559862
 40
0.624830091798995
 40
0.749869413855077
 40
0.874885583671307
 40
1.0
 40
1.0
 40
1.0
 40
1.0
 10
142.0022641207471
 20
102.6149234256171
 30
0.0
 10
141.9927070639934
 20
102.7334781278658
 30
0.0
 10
141.9783579312129
 20
102.9114782390044
 30
0.0
 10
141.8699249469004
 20
103.1229630219231
 30
0.0
 10
141.7594163846013
 20
103.2633999649649
 30
0.0
 10
141.6213259789261
 20
103.381063274222
 30
0.0
 10
141.4605484547528
 20
103.4707103349964
 30
0.0
 10
141.2805591555492
 20
103.525238387878
 30
0.0
 10
141.1553764892423
 20
103.5314245102778
 30
0.0
 10
141.0927605714097
 20
103.534518786373
 30
0.0
  0
SPLINE
  5
158
330
1F
100
AcDbEntity
  8
0
  6
Continuous
 62
     7
370
    30
100
AcDbSpline
210
0.0
220
0.0
230
1.0
 70
     8
 71
     3
 72
    12
 73
     8
 74
     0
 42
0.000000001
 43
0.00000001
 40
0.0
 40
0.0
 40
0.0
 40
0.0
 40
0.1251991793618742
 40
0.2503422592535144
 40
0.5001121456367958
 40
0.7499487152978479
 40
1.0
 40
1.0
 40
1.0
 40
1.0
 10
141.5952128257051
 20
101.8031118890665
 30
0.0
 10
141.6268810083678
 20
101.8279111039534
 30
0.0
 10
141.6902031837579
 20
101.8774984216509
 30
0.0
 10
141.8011531606538
 20
101.9929407851762
 30
0.0
 10
141.9127396021474
 20
102.1586900544184
 30
0.0
 10
141.9899571505996
 20
102.3835431575779
 30
0.0
 10
141.9981606228286
 20
102.537774587446
 30
0.0
 10
142.0022641207471
 20
102.6149234256171
 30
0.0
  0
LINE
  5
159
330
1F
100
AcDbEntity
  8
0
  6
Continuous
 62
     7
370
    30
100
AcDbLine
 10
140.6589952196
 20
99.1086224547
 30
0.0
 11
140.5260694112
 21
98.8567853799
 31
0.0
  0
SPLINE
  5
15A
330
1F
100
AcDbEntity
  8
0
  6
Continuous
 62
     7
370
    30
100
AcDbSpline
210
0.0
220
0.0
230
1.0
 70
     8
 71
     3
 72
    11
 73
     7
 74
     0
 42
0.000000001
 43
0.00000001
 40
0.0
 40
0.0
 40
0.0
 40
0.0
 40
0.2495660758988562
 40
0.5000817524251826
 40
0.7495315823480992
 40
1.0
 40
1.0
 40
1.0
 40
1.0
 10
140.1705351557031
 20
99.96187225789053
 30
0.0
 10
140.1768706542791
 20
99.87608559929392
 30
0.0
 10
140.1895657580465
 20
99.70418586327735
 30
0.0
 10
140.283764572811
 20
99.46022729630045
 30
0.0
 10
140.4455640186416
 20
99.25436868075057
 30
0.0
 10
140.5877549142479
 20
99.15727047619585
 30
0.0
 10
140.6589952196375
 20
99.10862245470507
 30
0.0
  0
SPLINE
  5
15B
330
1F
100
AcDbEntity
  8
0
  6
Continuous
 62
     7
370
    30
100
AcDbSpline
210
0.0
220
0.0
230
1.0
 70
     8
 71
     3
 72
    13
 73
     9
 74
     0
 42
0.000000001
 43
0.00000001
 40
0.0
 40
0.0
 40
0.0
 40
0.0
 40
0.249608619834661
 40
0.3748412198477722
 40
0.5001051912802261
 40
0.6270434573032189
 40
0.7506068034468939
 40
1.0
 40
1.0
 40
1.0
 40
1.0
 10
141.0253439928785
 20
100.8064272335194
 30
0.0
 10
140.9133258429836
 20
100.7949063942132
 30
0.0
 10
140.7451064121823
 20
100.7776053672611
 30
0.0
 10
140.5444441783364
 20
100.674732415517
 30
0.0
 10
140.4130387376791
 20
100.5685676461192
 30
0.0
 10
140.3047582330874
 20
100.440069756628
 30
0.0
 10
140.1963133908817
 20
100.2422182537172
 30
0.0
 10
140.1808652258666
 20
100.0742148518223
 30
0.0
 10
140.1705351557031
 20
99.96187225789052
 30
0.0
  0
LINE
  5
15C
330
1F
100
AcDbEntity
  8
0
  6
Continuous
 62
     7
370
    30
100
AcDbLine
 10
141.0253439929
 20
100.8064272335
 30
0.0
 11
141.0253439929
 21
98.7355905107
 31
0.0
  0
SPLINE
  5
15D
330
1F
100
AcDbEntity
  8
0
  6
Continuous
 62
     7
370
    30
100
AcDbSpline
210
0.0
220
0.0
230
1.0
 70
     8
 71
     3
 72
     9
 73
     5
 74
     0
 42
0.000000001
 43
0.00000001
 40
0.0
 40
0.0
 40
0.0
 40
0.0
 40
0.4993883962787246
 40
1.0
 40
1.0
 40
1.0
 40
1.0
 10
141.830539413859
 20
98.98640685588344
 30
0.0
 10
141.7069439676424
 20
98.91156872942437
 30
0.0
 10
141.459450339161
 20
98.76170916717436
 30
0.0
 10
141.1701640606823
 20
98.74430382628468
 30
0.0
 10
141.0253439928785
 20
98.73559051066859
 30
0.0
  0
SPLINE
  5
15E
330
1F
100
AcDbEntity
  8
0
  6
Continuous
 62
     7
370
    30
100
AcDbSpline
210
0.0
220
0.0
230
1.0
 70
     8
 71
     3
 72
    12
 73
     8
 74
     0
 42
0.000000001
 43
0.00000001
 40
0.0
 40
0.0
 40
0.0
 40
0.0
 40
0.1251886441686702
 40
0.2503146966168478
 40
0.5000987600960677
 40
0.7499485405024523
 40
1.0
 40
1.0
 40
1.0
 40
1.0
 10
141.8547090973154
 20
100.8241242250822
 30
0.0
 10
141.8880586695862
 20
100.796389587007
 30
0.0
 10
141.9547411400349
 20
100.740934177599
 30
0.0
 10
142.0736336232866
 20
100.6143816424003
 30
0.0
 10
142.1905200430849
 20
100.4298357273078
 30
0.0
 10
142.2745929481119
 20
100.1802381729921
 30
0.0
 10
142.2829967857656
 20
100.0062764684516
 30
0.0
 10
142.2872003998056
 20
99.91926052481159
 30
0.0
  0
SPLINE
  5
15F
330
1F
100
AcDbEntity
  8
0
  6
Continuous
 62
     7
370
    30
100
AcDbSpline
210
0.0
220
0.0
230
1.0
 70
     8
 71
     3
 72
     9
 73
     5
 74
     0
 42
0.000000001
 43
0.00000001
 40
0.0
 40
0.0
 40
0.0
 40
0.0
 40
0.500022664202203
 40
0.9999999999999999
 40
0.9999999999999999
 40
0.9999999999999999
 40
0.9999999999999999
 10
141.0800387050405
 20
101.0890165796898
 30
0.0
 10
141.2206971908787
 20
101.0781064334093
 30
0.0
 10
141.5020014114837
 20
101.0562871298824
 30
0.0
 10
141.7371434215755
 20
100.9015095214083
 30
0.0
 10
141.8547090973154
 20
100.8241242250822
 30
0.0
  0
SPLINE
  5
160
330
1F
100
AcDbEntity
  8
0
  6
Continuous
 62
     7
370
    30
100
AcDbSpline
210
0.0
220
0.0
230
1.0
 70
     8
 71
     3
 72
    12
 73
     8
 74
     0
 42
0.000000001
 43
0.00000001
 40
0.0
 40
0.0
 40
0.0
 40
0.0
 40
0.2498437523843037
 40
0.374696476974163
 40
0.500474213889669
 40
0.750276462742725
 40
0.9999999999999999
 40
0.9999999999999999
 40
0.9999999999999999
 40
0.9999999999999999
 10
139.8855988766447
 20
99.92625661999207
 30
0.0
 10
139.8981377628592
 20
100.0827774446629
 30
0.0
 10
139.9169426216756
 20
100.3175153599302
 30
0.0
 10
140.0659582530203
 20
100.5948656373096
 30
0.0
 10
140.2754513478692
 20
100.823597346179
 30
0.0
 10
140.6130848613248
 20
101.040048429164
 30
0.0
 10
140.9244037755828
 20
101.0726955776136
 30
0.0
 10
141.0800387050405
 20
101.0890165796898
 30
0.0
  0
SPLINE
  5
161
330
1F
100
AcDbEntity
  8
0
  6
Continuous
 62
     7
370
    30
100
AcDbSpline
210
0.0
220
0.0
230
1.0
 70
     8
 71
     3
 72
    11
 73
     7
 74
     0
 42
0.000000001
 43
0.00000001
 40
0.0
 40
0.0
 40
0.0
 40
0.0
 40
0.2502191126329781
 40
0.5000268656322475
 40
0.7498333939120816
 40
1.0
 40
1.0
 40
1.0
 40
1.0
 10
140.5260694112077
 20
98.85678537994845
 30
0.0
 10
140.4314804515856
 20
98.91347319485057
 30
0.0
 10
140.2424580363688
 20
99.02675563002019
 30
0.0
 10
140.0333600837936
 20
99.28758430821821
 30
0.0
 10
139.9032996197578
 20
99.59566155618606
 30
0.0
 10
139.8915019565524
 20
99.81600536860319
 30
0.0
 10
139.8855988766447
 20
99.92625661999207
 30
0.0
  0
LINE
  5
162
330
1F
100
AcDbEntity
  8
0
  6
Continuous
 62
     7
370
    30
100
AcDbLine
 10
143.1013029899
 20
96.9198560795
 30
0.0
 11
143.1013029899
 21
95.3113986632
 31
0.0
  0
LINE
  5
163
330
1F
100
AcDbEntity
  8
0
  6
Continuous
 62
     7
370
    30
100
AcDbLine
 10
139.9263032611
 20
96.9198560795
 30
0.0
 11
143.1013029899
 21
96.9198560795
 31
0.0
  0
LINE
  5
164
330
1F
100
AcDbEntity
  8
0
  6
Continuous
 62
     7
370
    30
100
AcDbLine
 10
139.9263032611
 20
96.9198560795
 30
0.0
 11
139.9263032611
 21
95.3113986632
 31
0.0
  0
LINE
  5
165
330
1F
100
AcDbEntity
  8
0
  6
Continuous
 62
     7
370
    30
100
AcDbLine
 10
140.2519439246
 20
95.3113986632
 30
0.0
 11
139.9263032611
 21
95.3113986632
 31
0.0
  0
LINE
  5
166
330
1F
100
AcDbEntity
  8
0
  6
Continuous
 62
     7
370
    30
100
AcDbLine
 10
140.2519439246
 20
96.6536188951
 30
0.0
 11
140.2519439246
 21
95.3113986632
 31
0.0
  0
LINE
  5
167
330
1F
100
AcDbEntity
  8
0
  6
Continuous
 62
     7
370
    30
100
AcDbLine
 10
141.4730978097
 20
96.6536188951
 30
0.0
 11
140.2519439246
 21
96.6536188951
 31
0.0
  0
LINE
  5
168
330
1F
100
AcDbEntity
  8
0
  6
Continuous
 62
     7
370
    30
100
AcDbLine
 10
141.4730978097
 20
96.6536188951
 30
0.0
 11
141.4730978097
 21
95.3113986632
 31
0.0
  0
LINE
  5
169
330
1F
100
AcDbEntity
  8
0
  6
Continuous
 62
     7
370
    30
100
AcDbLine
 10
141.7987403359
 20
95.3113986632
 30
0.0
 11
141.4730978097
 21
95.3113986632
 31
0.0
  0
LINE
  5
16A
330
1F
100
AcDbEntity
  8
0
  6
Continuous
 62
     7
370
    30
100
AcDbLine
 10
141.7987403359
 20
96.6536188951
 30
0.0
 11
141.7987403359
 21
95.3113986632
 31
0.0
  0
LINE
  5
16B
330
1F
100
AcDbEntity
  8
0
  6
Continuous
 62
     7
370
    30
100
AcDbLine
 10
142.775664189
 20
96.6536188951
 30
0.0
 11
141.7987403359
 21
96.6536188951
 31
0.0
  0
LINE
  5
16C
330
1F
100
AcDbEntity
  8
0
  6
Continuous
 62
     7
370
    30
100
AcDbLine
 10
142.775664189
 20
96.6536188951
 30
0.0
 11
142.775664189
 21
95.3113986632
 31
0.0
  0
LINE
  5
16D
330
1F
100
AcDbEntity
  8
0
  6
Continuous
 62
     7
370
    30
100
AcDbLine
 10
143.1013029899
 20
95.3113986632
 30
0.0
 11
142.775664189
 21
95.3113986632
 31
0.0
  0
LINE
  5
16E
330
1F
100
AcDbEntity
  8
0
  6
Continuous
 62
     7
370
    30
100
AcDbLine
 10
141.3102802719
 20
95.0718960246
 30
0.0
 11
141.3102802719
 21
94.1079995117
 31
0.0
  0
LINE
  5
16F
330
1F
100
AcDbEntity
  8
0
  6
Continuous
 62
     7
370
    30
100
AcDbLine
 10
140.9846377458
 20
95.0718960246
 30
0.0
 11
141.3102802719
 21
95.0718960246
 31
0.0
  0
LINE
  5
170
330
1F
100
AcDbEntity
  8
0
  6
Continuous
 62
     7
370
    30
100
AcDbLine
 10
140.9846377458
 20
95.0718960246
 30
0.0
 11
140.9846377458
 21
94.1079995117
 31
0.0
  0
LINE
  5
171
330
1F
100
AcDbEntity
  8
0
  6
Continuous
 62
     7
370
    30
100
AcDbLine
 10
141.3102802719
 20
94.1079995117
 30
0.0
 11
140.9846377458
 21
94.1079995117
 31
0.0
  0
SPLINE
  5
172
330
1F
100
AcDbEntity
  8
0
  6
Continuous
 62
     7
370
    30
100
AcDbSpline
210
0.0
220
0.0
230
1.0
 70
     8
 71
     3
 72
    13
 73
     9
 74
     0
 42
0.000000001
 43
0.00000001
 40
0.0
 40
0.0
 40
0.0
 40
0.0
 40
0.2494964426339193
 40
0.3743285960173497
 40
0.5000367593285774
 40
0.6253395108502245
 40
0.7505962012482061
 40
1.0
 40
1.0
 40
1.0
 40
1.0
 10
143.1827154840723
 20
92.77842664033399
 30
0.0
 10
143.1631455969123
 20
92.65627386421508
 30
0.0
 10
143.1337841827474
 20
92.47300360712649
 30
0.0
 10
142.9241249726592
 20
92.28160715501885
 30
0.0
 10
142.7135316257469
 20
92.16301510528501
 30
0.0
 10
142.4599641048404
 20
92.06927297997943
 30
0.0
 10
142.0699361706014
 20
91.97944662887473
 30
0.0
 10
141.7368217886284
 20
91.96721424070053
 30
0.0
 10
141.5150743808047
 20
91.95907139092907
 30
0.0
  0
SPLINE
  5
173
330
1F
100
AcDbEntity
  8
0
  6
Continuous
 62
     7
370
    30
100
AcDbSpline
210
0.0
220
0.0
230
1.0
 70
     8
 71
     3
 72
    12
 73
     8
 74
     0
 42
0.000000001
 43
0.00000001
 40
0.0
 40
0.0
 40
0.0
 40
0.0
 40
0.2498102044095184
 40
0.4995556963480603
 40
0.6252688011591384
 40
0.7504461840296933
 40
1.0
 40
1.0
 40
1.0
 40
1.0
 10
141.4998118664519
 20
93.8405422946833
 30
0.0
 10
141.7182178063775
 20
93.8239282432999
 30
0.0
 10
142.154973108924
 20
93.79070444434578
 30
0.0
 10
142.6267044128983
 20
93.57053401800574
 30
0.0
 10
142.9066799156038
 20
93.34834452007316
 30
0.0
 10
143.1226883951989
 20
93.09987435803129
 30
0.0
 10
143.158720051322
 20
92.90692324474243
 30
0.0
 10
143.1827154840723
 20
92.77842664033399
 30
0.0
  0
SPLINE
  5
174
330
1F
100
AcDbEntity
  8
0
  6
Continuous
 62
     7
370
    30
100
AcDbSpline
210
0.0
220
0.0
230
1.0
 70
     8
 71
     3
 72
    12
 73
     8
 74
     0
 42
0.000000001
 43
0.00000001
 40
0.0
 40
0.0
 40
0.0
 40
0.0
 40
0.2497731605005297
 40
0.3728407568203131
 40
0.500675959560423
 40
0.7503243356900022
 40
1.0
 40
1.0
 40
1.0
 40
1.0
 10
139.8448944921986
 20
92.76397810191136
 30
0.0
 10
139.8650386888843
 20
92.89235855199196
 30
0.0
 10
139.8951082829223
 20
93.08399429088823
 30
0.0
 10
140.1060973254407
 20
93.33376054004188
 30
0.0
 10
140.3821887345542
 20
93.55676352715902
 30
0.0
 10
140.8422886153777
 20
93.79190041769601
 30
0.0
 10
141.2806294642824
 20
93.8243277449671
 30
0.0
 10
141.4998118664519
 20
93.8405422946833
 30
0.0
  0
SPLINE
  5
175
330
1F
100
AcDbEntity
  8
0
  6
Continuous
 62
     7
370
    30
100
AcDbSpline
210
0.0
220
0.0
230
1.0
 70
     8
 71
     3
 72
    12
 73
     8
 74
     0
 42
0.000000001
 43
0.00000001
 40
0.0
 40
0.0
 40
0.0
 40
0.0
 40
0.2497842017587274
 40
0.4994343373374444
 40
0.6270821858587612
 40
0.7503307985632585
 40
1.0
 40
1.0
 40
1.0
 40
1.0
 10
141.5150743808047
 20
91.95907139092907
 30
0.0
 10
141.2953770890975
 20
91.96736044415618
 30
0.0
 10
140.8561004233754
 20
91.98393410164327
 30
0.0
 10
140.3924326111826
 20
92.12230406696322
 30
0.0
 10
140.1121483000189
 20
92.27606157638499
 30
0.0
 10
139.8973164884514
 20
92.46355901880668
 30
0.0
 10
139.8659167069488
 20
92.64350435173931
 30
0.0
 10
139.8448944921986
 20
92.76397810191136
 30
0.0
  0
SPLINE
  5
176
330
1F
100
AcDbEntity
  8
0
  6
Continuous
 62
     7
370
    30
100
AcDbSpline
210
0.0
220
0.0
230
1.0
 70
     8
 71
     3
 72
    11
 73
     7
 74
     0
 42
0.000000001
 43
0.00000001
 40
0.0
 40
0.0
 40
0.0
 40
0.0
 40
0.2504881236119173
 40
0.5004423030185798
 40
0.7501858496792947
 40
1.0
 40
1.0
 40
1.0
 40
1.0
 10
141.8547090973154
 20
100.8184561958931
 30
0.0
 10
141.9203179029151
 20
100.7617365064661
 30
0.0
 10
142.05139566141
 20
100.6484180321445
 30
0.0
 10
142.1901297801914
 20
100.4261499018151
 30
0.0
 10
142.2746679740388
 20
100.1784929530222
 30
0.0
 10
142.2830225309603
 20
100.0054087839172
 30
0.0
 10
142.2872003998056
 20
99.91885446816906
 30
0.0
  0
LINE
  5
177
330
1F
100
AcDbEntity
  8
0
  6
Continuous
 62
     7
370
    30
100
AcDbLine
 10
141.8547090973
 20
100.8241242251
 30
0.0
 11
141.8547090973
 21
100.8184561959
 31
0.0
  0
LINE
  5
178
330
1F
100
AcDbEntity
  8
0
  6
Continuous
 62
     7
370
    30
100
AcDbLine
 10
139.8855988766
 20
99.92625662
 30
0.0
 11
139.8855988766
 21
99.9258095852
 31
0.0
  0
SPLINE
  5
179
330
1F
100
AcDbEntity
  8
0
  6
Continuous
 62
     7
370
    30
100
AcDbSpline
210
0.0
220
0.0
230
1.0
 70
     8
 71
     3
 72
    11
 73
     7
 74
     0
 42
0.000000001
 43
0.00000001
 40
0.0
 40
0.0
 40
0.0
 40
0.0
 40
0.2507605319067834
 40
0.5007031593236263
 40
0.7502680464410957
 40
1.0
 40
1.0
 40
1.0
 40
1.0
 10
140.5260694112077
 20
98.86255585462077
 30
0.0
 10
140.4315055351894
 20
98.91888525429995
 30
0.0
 10
140.2426862217183
 20
99.0313603243108
 30
0.0
 10
140.0334841783175
 20
99.29062268961765
 30
0.0
 10
139.9033181937474
 20
99.5970129548377
 30
0.0
 10
139.8915066330752
 20
99.81618626300232
 30
0.0
 10
139.8855988766447
 20
99.92580958515626
 30
0.0
  0
LINE
  5
17A
330
1F
100
AcDbEntity
  8
0
  6
Continuous
 62
     7
370
    30
100
AcDbLine
 10
140.5260694112
 20
98.8567853799
 30
0.0
 11
140.5260694112
 21
98.8625558546
 31
0.0
  0
LINE
  5
17B
330
1F
100
AcDbEntity
  8
0
  6
Continuous
 62
     7
370
    30
100
AcDbLine
 10
141.080038705
 20
101.0890165797
 30
0.0
 11
141.080038705
 21
101.0818100056
 31
0.0
  0
SPLINE
  5
17C
330
1F
100
AcDbEntity
  8
0
  6
Continuous
 62
     7
370
    30
100
AcDbSpline
210
0.0
220
0.0
230
1.0
 70
     8
 71
     3
 72
    12
 73
     8
 74
     0
 42
0.000000001
 43
0.00000001
 40
0.0
 40
0.0
 40
0.0
 40
0.0
 40
0.2490588125056391
 40
0.37371589351907
 40
0.4994498780334147
 40
0.7496323452064995
 40
1.0
 40
1.0
 40
1.0
 40
1.0
 10
139.8855988766447
 20
99.92580958515626
 30
0.0
 10
139.8981514121424
 20
100.0814101334768
 30
0.0
 10
139.9169866501822
 20
100.3148907213052
 30
0.0
 10
140.0659728730375
 20
100.5905589745529
 30
0.0
 10
140.2756139686304
 20
100.8181023487741
 30
0.0
 10
140.613395385687
 20
101.0332132808821
 30
0.0
 10
140.9244525715018
 20
101.0656071024712
 30
0.0
 10
141.0800387050405
 20
101.0818100056074
 30
0.0
  0
LINE
  5
17D
330
1F
100
AcDbEntity
  8
0
  6
Continuous
 62
     7
370
    30
100
AcDbLine
 10
140.1705351557
 20
99.9612184694
 30
0.0
 11
140.1842926528
 21
99.8504264733
 31
0.0
  0
LINE
  5
17E
330
1F
100
AcDbEntity
  8
0
  6
Continuous
 62
     7
370
    30
100
AcDbLine
 10
140.1705351557
 20
99.9618722579
 30
0.0
 11
140.1705351557
 21
99.9612184694
 31
0.0
  0
LINE
  5
17F
330
1F
100
AcDbEntity
  8
0
  6
Continuous
 62
     7
370
    30
100
AcDbLine
 10
123.9478095333
 20
107.3494358441
 30
0.0
 11
123.9478095333
 21
92.3494371107
 31
0.0
  0
LINE
  5
180
330
1F
100
AcDbEntity
  8
0
  6
Continuous
 62
     7
370
    30
100
AcDbLine
 10
140.6589952196
 20
99.1129288903
 30
0.0
 11
140.5260694112
 21
98.8625558546
 31
0.0
  0
SPLINE
  5
181
330
1F
100
AcDbEntity
  8
0
  6
Continuous
 62
     7
370
    30
100
AcDbSpline
210
0.0
220
0.0
230
1.0
 70
     8
 71
     3
 72
     9
 73
     5
 74
     0
 42
0.000000001
 43
0.00000001
 40
0.0
 40
0.0
 40
0.0
 40
0.0
 40
0.499121784341466
 40
1.0
 40
1.0
 40
1.0
 40
1.0
 10
141.830539413859
 20
98.99142482191547
 30
0.0
 10
141.7069046108982
 20
98.91702177670587
 30
0.0
 10
141.4591999287157
 20
98.76795385872715
 30
0.0
 10
141.1701318808815
 20
98.75070600303532
 30
0.0
 10
141.0253439928785
 20
98.74206692785246
 30
0.0
  0
SPLINE
  5
182
330
1F
100
AcDbEntity
  8
0
  6
Continuous
 62
     7
370
    30
100
AcDbSpline
210
0.0
220
0.0
230
1.0
 70
     8
 71
     3
 72
     9
 73
     5
 74
     0
 42
0.000000001
 43
0.00000001
 40
0.0
 40
0.0
 40
0.0
 40
0.0
 40
0.5003224211347599
 40
1.0
 40
1.0
 40
1.0
 40
1.0
 10
141.0800387050405
 20
101.0818100056074
 30
0.0
 10
141.2206630544626
 20
101.0709898791873
 30
0.0
 10
141.5017305091313
 20
101.049363571904
 30
0.0
 10
141.7371001600206
 20
100.8953922254859
 30
0.0
 10
141.8547090973154
 20
100.8184561958931
 30
0.0
  0
SPLINE
  5
183
330
1F
100
AcDbEntity
  8
0
  6
Continuous
 62
     7
370
    30
100
AcDbSpline
210
0.0
220
0.0
230
1.0
 70
     8
 71
     3
 72
    12
 73
     8
 74
     0
 42
0.000000001
 43
0.00000001
 40
0.0
 40
0.0
 40
0.0
 40
0.0
 40
0.2503861154168939
 40
0.5002706773128142
 40
0.7499358653324739
 40
0.8749477562389154
 40
1.0
 40
1.0
 40
1.0
 40
1.0
 10
141.5952128257051
 20
101.7917534789465
 30
0.0
 10
141.6569668552282
 20
101.8429958423215
 30
0.0
 10
141.7803512135217
 20
101.945377924451
 30
0.0
 10
141.9127913863599
 20
102.1457080251325
 30
0.0
 10
141.9754063726453
 20
102.3314366101453
 30
0.0
 10
141.999130364004
 20
102.4839750714622
 30
0.0
 10
142.0012194227956
 20
102.5605509532628
 30
0.0
 10
142.0022641207471
 20
102.5988450726889
 30
0.0
  0
SPLINE
  5
184
330
1F
100
AcDbEntity
  8
0
  6
Continuous
 62
     7
370
    30
100
AcDbSpline
210
0.0
220
0.0
230
1.0
 70
     8
 71
     3
 72
    12
 73
     8
 74
     0
 42
0.000000001
 43
0.00000001
 40
0.0
 40
0.0
 40
0.0
 40
0.0
 40
0.2496767794736895
 40
0.4993300738189449
 40
0.7492438974451412
 40
0.8745603499469614
 40
1.0
 40
1.0
 40
1.0
 40
1.0
 10
140.1705351557031
 20
102.597049482765
 30
0.0
 10
140.1748985707613
 20
102.520645814256
 30
0.0
 10
140.1836249904457
 20
102.3678456639294
 30
0.0
 10
140.264128063167
 20
102.1462458459483
 30
0.0
 10
140.3756179574428
 20
101.9827634048618
 30
0.0
 10
140.4849264895494
 20
101.867570984531
 30
0.0
 10
140.5466896821725
 20
101.8170342571118
 30
0.0
 10
140.5775864507451
 20
101.7917534789465
 30
0.0
  0
SPLINE
  5
185
330
1F
100
AcDbEntity
  8
0
  6
Continuous
 62
     7
370
    30
100
AcDbSpline
210
0.0
220
0.0
230
1.0
 70
     8
 71
     3
 72
    13
 73
     9
 74
     0
 42
0.000000001
 43
0.00000001
 40
0.0
 40
0.0
 40
0.0
 40
0.0
 40
0.2491309646529905
 40
0.3735920492276867
 40
0.4993928921623709
 40
0.6241917926492653
 40
0.7501878975289014
 40
1.0
 40
1.0
 40
1.0
 40
1.0
 10
139.8855988766447
 20
102.6012404343508
 30
0.0
 10
139.8982531277274
 20
102.7532502371331
 30
0.0
 10
139.9172292016172
 20
102.981201241952
 30
0.0
 10
140.0578175417529
 20
103.2507100844722
 30
0.0
 10
140.2029892403266
 20
103.4276896471958
 30
0.0
 10
140.3825680952979
 20
103.5753101496473
 30
0.0
 10
140.6606833195221
 20
103.7286023426605
 30
0.0
 10
140.9049490690121
 20
103.7516627736096
 30
0.0
 10
141.0673205639615
 20
103.7669918021582
 30
0.0
  0
SPLINE
  5
186
330
1F
100
AcDbEntity
  8
0
  6
Continuous
 62
     7
370
    30
100
AcDbSpline
210
0.0
220
0.0
230
1.0
 70
     8
 71
     3
 72
    14
 73
    10
 74
     0
 42
0.000000001
 43
0.00000001
 40
0.0
 40
0.0
 40
0.0
 40
0.0
 40
0.1254942811240937
 40
0.2509095400406481
 40
0.376206672567172
 40
0.5013691386915725
 40
0.6256110994875198
 40
0.7512584975832864
 40
1.0
 40
1.0
 40
1.0
 40
1.0
 10
141.0673205639615
 20
103.7669918021582
 30
0.0
 10
141.1502347550484
 20
103.7630729683295
 30
0.0
 10
141.3160109271743
 20
103.7552377683137
 30
0.0
 10
141.5536898646748
 20
103.684205133807
 30
0.0
 10
141.7709871235068
 20
103.575378772017
 30
0.0
 10
141.9584347424822
 20
103.4270349681246
 30
0.0
 10
142.1055461537475
 20
103.2443704166562
 30
0.0
 10
142.2523677881809
 20
102.9695033426909
 30
0.0
 10
142.2732959006704
 20
102.7349285913625
 30
0.0
 10
142.2872003998056
 20
102.5790786823653
 30
0.0
  0
LINE
  5
187
330
1F
100
AcDbEntity
  8
0
  6
Continuous
 62
     7
370
    30
100
AcDbLine
 10
140.1705351557
 20
102.6131166598
 30
0.0
 11
140.1705351557
 21
102.5970494828
 31
0.0
  0
LINE
  5
188
330
1F
100
AcDbEntity
  8
0
  6
Continuous
 62
     7
370
    30
100
AcDbLine
 10
142.0022641207
 20
102.6149234256
 30
0.0
 11
142.0022641207
 21
102.5988450727
 31
0.0
  0
LINE
  5
189
330
1F
100
AcDbEntity
  8
0
  6
Continuous
 62
     7
370
    30
100
AcDbLine
 10
141.067320564
 20
103.7899023375
 30
0.0
 11
141.067320564
 21
103.7669918022
 31
0.0
  0
LINE
  5
18A
330
1F
100
AcDbEntity
  8
0
  6
Continuous
 62
     7
370
    30
100
AcDbLine
 10
142.2872003998
 20
102.5950415513
 30
0.0
 11
142.2872003998
 21
102.5790786824
 31
0.0
  0
LINE
  5
18B
330
1F
100
AcDbEntity
  8
0
  6
Continuous
 62
     7
370
    30
100
AcDbLine
 10
139.8855988766
 20
102.6173336884
 30
0.0
 11
139.8855988766
 21
102.6012404344
 31
0.0
  0
LINE
  5
18C
330
1F
100
AcDbEntity
  8
0
  6
Continuous
 62
     7
370
    30
100
AcDbLine
 10
143.1013029899
 20
95.3377811691
 30
0.0
 11
142.775664189
 21
95.3377811691
 31
0.0
  0
LINE
  5
18D
330
1F
100
AcDbEntity
  8
0
  6
Continuous
 62
     7
370
    30
100
AcDbLine
 10
142.775664189
 20
96.6721987805
 30
0.0
 11
141.7987403359
 21
96.6721987805
 31
0.0
  0
LINE
  5
18E
330
1F
100
AcDbEntity
  8
0
  6
Continuous
 62
     7
370
    30
100
AcDbLine
 10
141.7987403359
 20
95.3377811691
 30
0.0
 11
141.4730978097
 21
95.3377811691
 31
0.0
  0
LINE
  5
18F
330
1F
100
AcDbEntity
  8
0
  6
Continuous
 62
     7
370
    30
100
AcDbLine
 10
141.4730978097
 20
96.6721987805
 30
0.0
 11
140.2519439246
 21
96.6721987805
 31
0.0
  0
LINE
  5
190
330
1F
100
AcDbEntity
  8
0
  6
Continuous
 62
     7
370
    30
100
AcDbLine
 10
140.2519439246
 20
95.3377811691
 30
0.0
 11
139.9263032611
 21
95.3377811691
 31
0.0
  0
LINE
  5
191
330
1F
100
AcDbEntity
  8
0
  6
Continuous
 62
     7
370
    30
100
AcDbLine
 10
141.4730978097
 20
96.6536188951
 30
0.0
 11
141.4730978097
 21
96.6721987805
 31
0.0
  0
LINE
  5
192
330
1F
100
AcDbEntity
  8
0
  6
Continuous
 62
     7
370
    30
100
AcDbLine
 10
140.2519439246
 20
96.6536188951
 30
0.0
 11
140.2519439246
 21
96.6721987805
 31
0.0
  0
LINE
  5
193
330
1F
100
AcDbEntity
  8
0
  6
Continuous
 62
     7
370
    30
100
AcDbLine
 10
142.775664189
 20
96.6536188951
 30
0.0
 11
142.775664189
 21
96.6721987805
 31
0.0
  0
LINE
  5
194
330
1F
100
AcDbEntity
  8
0
  6
Continuous
 62
     7
370
    30
100
AcDbLine
 10
141.7987403359
 20
96.6536188951
 30
0.0
 11
141.7987403359
 21
96.6721987805
 31
0.0
  0
SPLINE
  5
195
330
1F
100
AcDbEntity
  8
0
  6
Continuous
 62
     7
370
    30
100
AcDbSpline
210
0.0
220
0.0
230
1.0
 70
     8
 71
     3
 72
    12
 73
     8
 74
     0
 42
0.000000001
 43
0.00000001
 40
0.0
 40
0.0
 40
0.0
 40
0.0
 40
0.2492335213655721
 40
0.4987886287866201
 40
0.7485196105448896
 40
0.8741391829924596
 40
1.0
 40
1.0
 40
1.0
 40
1.0
 10
142.7349579419389
 20
104.4176547309779
 30
0.0
 10
142.738032766178
 20
104.4455230245705
 30
0.0
 10
142.7441863821025
 20
104.5012955702199
 30
0.0
 10
142.7993178868895
 20
104.5727328257574
 30
0.0
 10
142.865276991312
 20
104.6157630370628
 30
0.0
 10
142.9282179275735
 20
104.6341792665637
 30
0.0
 10
142.9613404843365
 20
104.6359026247584
 30
0.0
 10
142.9779176499143
 20
104.6367651304625
 30
0.0
  0
SPLINE
  5
196
330
1F
100
AcDbEntity
  8
0
  6
Continuous
 62
     7
370
    30
100
AcDbSpline
210
0.0
220
0.0
230
1.0
 70
     8
 71
     3
 72
    13
 73
     9
 74
     0
 42
0.000000001
 43
0.00000001
 40
0.0
 40
0.0
 40
0.0
 40
0.0
 40
0.2498317982204405
 40
0.3732411328254596
 40
0.5005891298169718
 40
0.7499369601471049
 40
0.8749053577026594
 40
0.9999999999999999
 40
0.9999999999999999
 40
0.9999999999999999
 40
0.9999999999999999
 10
142.9779176499143
 20
104.6367651304625
 30
0.0
 10
143.0113236461901
 20
104.6335349018293
 30
0.0
 10
143.0612311919148
 20
104.6287090381764
 30
0.0
 10
143.1184978529145
 20
104.5993795267088
 30
0.0
 10
143.1672809922254
 20
104.5619396529866
 30
0.0
 10
143.2034408947063
 20
104.5136212712351
 30
0.0
 10
143.221203309278
 20
104.4596615955505
 30
0.0
 10
143.2226795252514
 20
104.4316617310948
 30
0.0
 10
143.2234180058732
 20
104.4176547309779
 30
0.0
  0
LINE
  5
197
330
1F
100
AcDbEntity
  8
0
  6
Continuous
 62
     7
370
    30
100
AcDbLine
 10
139.9263032611
 20
104.5356942794
 30
0.0
 11
142.246497878
 21
104.5356942794
 31
0.0
  0
LINE
  5
198
330
1F
100
AcDbEntity
  8
0
  6
Continuous
 62
     7
370
    30
100
AcDbLine
 10
142.9779176499
 20
104.6647606871
 30
0.0
 11
142.9779176499
 21
104.6367651305
 31
0.0
  0
LINE
  5
199
330
1F
100
AcDbEntity
  8
0
  6
Continuous
 62
     7
370
    30
100
AcDbLine
 10
143.2234180059
 20
104.444372513
 30
0.0
 11
143.2234180059
 21
104.417654731
 31
0.0
  0
LINE
  5
19A
330
1F
100
AcDbEntity
  8
0
  6
Continuous
 62
     7
370
    30
100
AcDbLine
 10
142.7349579419
 20
104.444372513
 30
0.0
 11
142.7349579419
 21
104.417654731
 31
0.0
  0
LINE
  5
19B
330
1F
100
AcDbEntity
  8
0
  6
Continuous
 62
     7
370
    30
100
AcDbLine
 10
141.3102802719
 20
94.1413799754
 30
0.0
 11
140.9846377458
 21
94.1413799754
 31
0.0
  0
SPLINE
  5
19C
330
1F
100
AcDbEntity
  8
0
  6
Continuous
 62
     7
370
    30
100
AcDbSpline
210
0.0
220
0.0
230
1.0
 70
     8
 71
     3
 72
    12
 73
     8
 74
     0
 42
0.000000001
 43
0.00000001
 40
0.0
 40
0.0
 40
0.0
 40
0.0
 40
0.25056199887519
 40
0.500441818205705
 40
0.7500307132478533
 40
0.8749920907414508
 40
1.0
 40
1.0
 40
1.0
 40
1.0
 10
141.827995040585
 20
106.2988518258952
 30
0.0
 10
141.8946644243797
 20
106.2627782540448
 30
0.0
 10
142.027821678052
 20
106.1907293241712
 30
0.0
 10
142.1784066900795
 20
106.0460485721413
 30
0.0
 10
142.2534859820299
 20
105.9042052708257
 30
0.0
 10
142.2830007592763
 20
105.783303495181
 30
0.0
 10
142.2858003459149
 20
105.7209198083753
 30
0.0
 10
142.2872003998055
 20
105.6897221586131
 30
0.0
  0
LINE
  5
19D
330
1F
100
AcDbEntity
  8
0
  6
Continuous
 62
     7
370
    30
100
AcDbLine
 10
139.9263032611
 20
105.2536285004
 30
0.0
 11
141.0177108731
 21
105.2536285004
 31
0.0
  0
LINE
  5
19E
330
1F
100
AcDbEntity
  8
0
  6
Continuous
 62
     7
370
    30
100
AcDbLine
 10
141.0177108731
 20
105.2536285004
 30
0.0
 11
141.5456031348
 21
105.2795565209
 31
0.0
  0
SPLINE
  5
19F
330
1F
100
AcDbEntity
  8
0
  6
Continuous
 62
     7
370
    30
100
AcDbSpline
210
0.0
220
0.0
230
1.0
 70
     8
 71
     3
 72
    13
 73
     9
 74
     0
 42
0.000000001
 43
0.00000001
 40
0.0
 40
0.0
 40
0.0
 40
0.0
 40
0.2505486175234895
 40
0.3778030565493208
 40
0.5010854432764962
 40
0.749970341880575
 40
0.8749452916983961
 40
1.0
 40
1.0
 40
1.0
 40
1.0
 10
141.5456031348004
 20
105.2795565208815
 30
0.0
 10
141.6118726650634
 20
105.2946970440279
 30
0.0
 10
141.7118007003361
 20
105.3175274869934
 30
0.0
 10
141.8239991290618
 20
105.3794468435409
 30
0.0
 10
141.9176881986761
 20
105.4557006324551
 30
0.0
 10
141.9746771219519
 20
105.5515875707009
 30
0.0
 10
141.9993094282783
 20
105.6508877662012
 30
0.0
 10
142.0012790138275
 20
105.7007231951324
 30
0.0
 10
142.0022641207471
 20
105.7256488582514
 30
0.0
  0
LINE
  5
1A0
330
1F
100
AcDbEntity
  8
0
  6
Continuous
 62
     7
370
    30
100
AcDbLine
 10
139.9263032611
 20
106.4812569401
 30
0.0
 11
142.246497878
 21
106.4812569401
 31
0.0
  0
LINE
  5
1A1
330
1F
100
AcDbEntity
  8
0
  6
Continuous
 62
     7
370
    30
100
AcDbLine
 10
141.5456031348
 20
105.3113108954
 30
0.0
 11
141.5456031348
 21
105.2795565209
 31
0.0
  0
LINE
  5
1A2
330
1F
100
AcDbEntity
  8
0
  6
Continuous
 62
     7
370
    30
100
AcDbLine
 10
141.0177108731
 20
105.2852338633
 30
0.0
 11
141.0177108731
 21
105.2536285004
 31
0.0
  0
LINE
  5
1A3
330
1F
100
AcDbEntity
  8
0
  6
Continuous
 62
     7
370
    30
100
AcDbLine
 10
142.0022641207
 20
105.760010936
 30
0.0
 11
142.0022641207
 21
105.7256488583
 31
0.0
  0
LINE
  5
1A4
330
1F
100
AcDbEntity
  8
0
  6
Continuous
 62
     7
370
    30
100
AcDbLine
 10
141.8279950406
 20
106.3365703902
 30
0.0
 11
141.8279950406
 21
106.2988518259
 31
0.0
  0
LINE
  5
1A5
330
1F
100
AcDbEntity
  8
0
  6
Continuous
 62
     7
370
    30
100
AcDbLine
 10
142.2872003998
 20
105.7238756201
 30
0.0
 11
142.2872003998
 21
105.6897221586
 31
0.0
  0
SPLINE
  5
1A6
330
1F
100
AcDbEntity
  8
0
  6
Continuous
 62
     7
370
    30
100
AcDbSpline
210
0.0
220
0.0
230
1.0
 70
     8
 71
     3
 72
    13
 73
     9
 74
     0
 42
0.000000001
 43
0.00000001
 40
0.0
 40
0.0
 40
0.0
 40
0.0
 40
0.2488207170339883
 40
0.3734461193216939
 40
0.4990836803388748
 40
0.6244516103953932
 40
0.749911973815636
 40
1.0
 40
1.0
 40
1.0
 40
1.0
 10
143.1827154840723
 20
92.81953708142267
 30
0.0
 10
143.1631166038628
 20
92.69806718084861
 30
0.0
 10
143.1337013451797
 20
92.51575734939847
 30
0.0
 10
142.9240171393264
 20
92.32553460493436
 30
0.0
 10
142.7134079658546
 20
92.20764631106968
 30
0.0
 10
142.4598100941196
 20
92.11445988423534
 30
0.0
 10
142.0696595858864
 20
92.02516462324424
 30
0.0
 10
141.7367608360521
 20
92.01302723626868
 30
0.0
 10
141.5150743808047
 20
92.00494461566433
 30
0.0
  0
SPLINE
  5
1A7
330
1F
100
AcDbEntity
  8
0
  6
Continuous
 62
     7
370
    30
100
AcDbSpline
210
0.0
220
0.0
230
1.0
 70
     8
 71
     3
 72
    12
 73
     8
 74
     0
 42
0.000000001
 43
0.00000001
 40
0.0
 40
0.0
 40
0.0
 40
0.0
 40
0.2504599886075591
 40
0.5003834359931184
 40
0.6279561471697167
 40
0.7510126423747435
 40
0.9999999999999999
 40
0.9999999999999999
 40
0.9999999999999999
 40
0.9999999999999999
 10
141.5150743808047
 20
92.00494461566433
 30
0.0
 10
141.2954393311217
 20
92.01317076123739
 30
0.0
 10
140.8566397390757
 20
92.02960543014284
 30
0.0
 10
140.3927287797058
 20
92.16708818746622
 30
0.0
 10
140.1122589760871
 20
92.32002401361197
 30
0.0
 10
139.8974111169309
 20
92.5063555028224
 30
0.0
 10
139.86594975545
 20
92.68536901087032
 30
0.0
 10
139.8448944921986
 20
92.80517236203175
 30
0.0
  0
SPLINE
  5
1A8
330
1F
100
AcDbEntity
  8
0
  6
Continuous
 62
     7
370
    30
100
AcDbSpline
210
0.0
220
0.0
230
1.0
 70
     8
 71
     3
 72
    12
 73
     8
 74
     0
 42
0.000000001
 43
0.00000001
 40
0.0
 40
0.0
 40
0.0
 40
0.0
 40
0.2502659904480016
 40
0.3733445685234815
 40
0.50138654256473
 40
0.7508482079435025
 40
1.0
 40
1.0
 40
1.0
 40
1.0
 10
141.5010821904436
 20
93.67613405794128
 30
0.0
 10
141.3227005790428
 20
93.66363883639539
 30
0.0
 10
141.0565924849237
 20
93.64499857653306
 30
0.0
 10
140.7461803476538
 20
93.52222263338075
 30
0.0
 10
140.4810464595778
 20
93.36743226083344
 30
0.0
 10
140.2214174424101
 20
93.12191824471948
 30
0.0
 10
140.1874888894125
 20
92.91501665570343
 30
0.0
 10
140.1705351557032
 20
92.81163015276415
 30
0.0
  0
SPLINE
  5
1A9
330
1F
100
AcDbEntity
  8
0
  6
Continuous
 62
     7
370
    30
100
AcDbSpline
210
0.0
220
0.0
230
1.0
 70
     8
 71
     3
 72
    12
 73
     8
 74
     0
 42
0.000000001
 43
0.00000001
 40
0.0
 40
0.0
 40
0.0
 40
0.0
 40
0.2489910924495592
 40
0.4985208667047943
 40
0.624172098870943
 40
0.7508201071522063
 40
1.0
 40
1.0
 40
1.0
 40
1.0
 10
142.8570729579226
 20
92.81163015276417
 30
0.0
 10
142.836498593358
 20
92.91535211194471
 30
0.0
 10
142.7953053524524
 20
93.12302042842265
 30
0.0
 10
142.5380709873349
 20
93.3712059256103
 30
0.0
 10
142.2653690886398
 20
93.524596431944
 30
0.0
 10
141.9498054560804
 20
93.64517123017318
 30
0.0
 10
141.6799804639168
 20
93.66378970931096
 30
0.0
 10
141.5010821904436
 20
93.67613405794128
 30
0.0
  0
LINE
  5
1AA
330
1F
100
AcDbEntity
  8
0
  6
Continuous
 62
     7
370
    30
100
AcDbLine
 10
142.8570729579
 20
92.8116301528
 30
0.0
 11
142.8570729579
 21
92.7704731455
 31
0.0
  0
SPLINE
  5
1AB
330
1F
100
AcDbEntity
  8
0
  6
Continuous
 62
     7
370
    30
100
AcDbSpline
210
0.0
220
0.0
230
1.0
 70
     8
 71
     3
 72
    12
 73
     8
 74
     0
 42
0.000000001
 43
0.00000001
 40
0.0
 40
0.0
 40
0.0
 40
0.0
 40
0.2496541967071665
 40
0.4994752081167989
 40
0.6250612622883471
 40
0.7515038527231434
 40
1.0
 40
1.0
 40
1.0
 40
1.0
 10
142.8570729579226
 20
92.77047314554676
 30
0.0
 10
142.8365237115446
 20
92.87477071861537
 30
0.0
 10
142.7954114881305
 20
93.08343555462301
 30
0.0
 10
142.5383337243501
 20
93.33315546845026
 30
0.0
 10
142.2654909450066
 20
93.48754696051755
 30
0.0
 10
141.950033175086
 20
93.60883606383656
 30
0.0
 10
141.6800304538245
 20
93.6275977121082
 30
0.0
 10
141.5010821904436
 20
93.64003226965889
 30
0.0
  0
LINE
  5
1AC
330
1F
100
AcDbEntity
  8
0
  6
Continuous
 62
     7
370
    30
100
AcDbLine
 10
141.5010821904
 20
93.6761340579
 30
0.0
 11
141.5010821904
 21
93.6400322697
 31
0.0
  0
SPLINE
  5
1AD
330
1F
100
AcDbEntity
  8
0
  6
Continuous
 62
     7
370
    30
100
AcDbSpline
210
0.0
220
0.0
230
1.0
 70
     8
 71
     3
 72
    12
 73
     8
 74
     0
 42
0.000000001
 43
0.00000001
 40
0.0
 40
0.0
 40
0.0
 40
0.0
 40
0.2495732431857635
 40
0.3724573302393878
 40
0.5004389463894221
 40
0.7501847899924488
 40
1.0
 40
1.0
 40
1.0
 40
1.0
 10
141.5010821904436
 20
93.64003226965889
 30
0.0
 10
141.3226469144029
 20
93.62744330985859
 30
0.0
 10
141.0563542394098
 20
93.60865583770071
 30
0.0
 10
140.746061395366
 20
93.48516067513287
 30
0.0
 10
140.4807997740797
 20
93.32936597266261
 30
0.0
 10
140.2213079417285
 20
93.082325935595
 30
0.0
 10
140.1874609843148
 20
92.87443369783485
 30
0.0
 10
140.1705351557032
 20
92.77047314554673
 30
0.0
  0
LINE
  5
1AE
330
1F
100
AcDbEntity
  8
0
  6
Continuous
 62
     7
370
    30
100
AcDbLine
 10
140.1705351557
 20
92.8116301528
 30
0.0
 11
140.1705351557
 21
92.7704731455
 31
0.0
  0
SPLINE
  5
1AF
330
1F
100
AcDbEntity
  8
0
  6
Continuous
 62
     7
370
    30
100
AcDbSpline
210
0.0
220
0.0
230
1.0
 70
     8
 71
     3
 72
    12
 73
     8
 74
     0
 42
0.000000001
 43
0.00000001
 40
0.0
 40
0.0
 40
0.0
 40
0.0
 40
0.2495369230828816
 40
0.3747534793478313
 40
0.5003977223018701
 40
0.7502916427152603
 40
1.0
 40
1.0
 40
1.0
 40
1.0
 10
141.5157114054457
 20
92.0767197838448
 30
0.0
 10
141.6954361293089
 20
92.08451093533225
 30
0.0
 10
141.9653459477054
 20
92.09621165317384
 30
0.0
 10
142.2792075552678
 20
92.17618972933619
 30
0.0
 10
142.5475255149626
 20
92.28495485216114
 30
0.0
 10
142.7968850894696
 20
92.47415643191928
 30
0.0
 10
142.8370153035157
 20
92.6717253681345
 30
0.0
 10
142.8570729579226
 20
92.77047314554676
 30
0.0
  0
SPLINE
  5
1B0
330
1F
100
AcDbEntity
  8
0
  6
Continuous
 62
     7
370
    30
100
AcDbSpline
210
0.0
220
0.0
230
1.0
 70
     8
 71
     3
 72
    12
 73
     8
 74
     0
 42
0.000000001
 43
0.00000001
 40
0.0
 40
0.0
 40
0.0
 40
0.0
 40
0.249853126841331
 40
0.499571414463377
 40
0.6249583465870047
 40
0.750385611840678
 40
1.0
 40
1.0
 40
1.0
 40
1.0
 10
140.1705351557032
 20
92.77047314554673
 30
0.0
 10
140.1885210468666
 20
92.671129378891
 30
0.0
 10
140.2244831226768
 20
92.47249545882062
 30
0.0
 10
140.475323794782
 20
92.28239038304565
 30
0.0
 10
140.7477619997059
 20
92.17502122815434
 30
0.0
 10
141.0642710346519
 20
92.09604941086228
 30
0.0
 10
141.3353145078787
 20
92.08444395955142
 30
0.0
 10
141.5157114054457
 20
92.0767197838448
 30
0.0
  0
LINE
  5
1B1
330
1F
100
AcDbEntity
  8
0
  6
Continuous
 62
     7
370
    30
100
AcDbLine
 10
141.5150743808
 20
91.9590713909
 30
0.0
 11
141.5150743808
 21
92.0049446157
 31
0.0
  0
LINE
  5
1B2
330
1F
100
AcDbEntity
  8
0
  6
Continuous
 62
     7
370
    30
100
AcDbLine
 10
143.1827154841
 20
92.7784266403
 30
0.0
 11
143.1827154841
 21
92.8195370814
 31
0.0
  0
LINE
  5
1B3
330
1F
100
AcDbEntity
  8
0
  6
Continuous
 62
     7
370
    30
100
AcDbLine
 10
139.8448944922
 20
92.7639781019
 30
0.0
 11
139.8448944922
 21
92.805172362
 31
0.0
  0
SPLINE
  5
1B4
330
1F
100
AcDbEntity
  8
0
  6
Continuous
 62
     7
370
    30
100
AcDbSpline
210
0.0
220
0.0
230
1.0
 70
     8
 71
     3
 72
    11
 73
     7
 74
     0
 42
0.000000001
 43
0.00000001
 40
0.0
 40
0.0
 40
0.0
 40
0.0
 40
0.2494387019443617
 40
0.4991077247136644
 40
0.749165542366266
 40
1.0
 40
1.0
 40
1.0
 40
1.0
 10
140.170535155703
 20
107.4281065246485
 30
0.0
 10
140.1781684450989
 20
107.3915742430472
 30
0.0
 10
140.1934420721373
 20
107.3184759475282
 30
0.0
 10
140.3083101139181
 20
107.2140757217679
 30
0.0
 10
140.4836523364517
 20
107.1301013385547
 30
0.0
 10
140.6318478772921
 20
107.1028169053159
 30
0.0
 10
140.7060605372681
 20
107.0891535362623
 30
0.0
  0
SPLINE
  5
1B5
330
1F
100
AcDbEntity
  8
0
  6
Continuous
 62
     7
370
    30
100
AcDbSpline
210
0.0
220
0.0
230
1.0
 70
     8
 71
     3
 72
     9
 73
     5
 74
     0
 42
0.000000001
 43
0.00000001
 40
0.0
 40
0.0
 40
0.0
 40
0.0
 40
0.499615459314777
 40
1.0
 40
1.0
 40
1.0
 40
1.0
 10
140.7060605372681
 20
107.0891535362623
 30
0.0
 10
140.7877717954333
 20
107.0832081383471
 30
0.0
 10
140.9513200937131
 20
107.0713081904884
 30
0.0
 10
141.1163817482228
 20
107.0717335680287
 30
0.0
 10
141.1989760483994
 20
107.0719464203738
 30
0.0
  0
LINE
  5
1B6
330
1F
100
AcDbEntity
  8
0
  6
Continuous
 62
     7
370
    30
100
AcDbLine
 10
141.1989760484
 20
107.0719464204
 30
0.0
 11
143.1013029899
 21
107.0719464204
 31
0.0
  0
SPLINE
  5
1B7
330
1F
100
AcDbEntity
  8
0
  6
Continuous
 62
     7
370
    30
100
AcDbSpline
210
0.0
220
0.0
230
1.0
 70
     8
 71
     3
 72
    11
 73
     7
 74
     0
 42
0.000000001
 43
0.00000001
 40
0.0
 40
0.0
 40
0.0
 40
0.0
 40
0.2499275920000576
 40
0.4996458780578084
 40
0.7495957482624852
 40
1.0
 40
1.0
 40
1.0
 40
1.0
 10
139.8448944921984
 20
107.4207751533411
 30
0.0
 10
139.8514410703999
 20
107.4694362098566
 30
0.0
 10
139.864528744264
 20
107.5667175708914
 30
0.0
 10
139.9979807664462
 20
107.6888519765306
 30
0.0
 10
140.2146226085892
 20
107.7838564342241
 30
0.0
 10
140.4145614094757
 20
107.8130690436522
 30
0.0
 10
140.5146215941205
 20
107.8276886126421
 30
0.0
  0
SPLINE
  5
1B8
330
1F
100
AcDbEntity
  8
0
  6
Continuous
 62
     7
370
    30
100
AcDbSpline
210
0.0
220
0.0
230
1.0
 70
     8
 71
     3
 72
    10
 73
     6
 74
     0
 42
0.000000001
 43
0.00000001
 40
0.0
 40
0.0
 40
0.0
 40
0.0
 40
0.3257264443113042
 40
0.6643846836429774
 40
1.0
 40
1.0
 40
1.0
 40
1.0
 10
140.5146215941205
 20
107.8276886126421
 30
0.0
 10
140.586330736104
 20
107.832902048477
 30
0.0
 10
140.7325959732166
 20
107.8435359008348
 30
0.0
 10
140.9573236459485
 20
107.8466782146097
 30
0.0
 10
141.1084751312064
 20
107.847393347909
 30
0.0
 10
141.1837098087563
 20
107.8477493008994
 30
0.0
  0
LINE
  5
1B9
330
1F
100
AcDbEntity
  8
0
  6
Continuous
 62
     7
370
    30
100
AcDbLine
 10
141.1837098088
 20
107.8477493009
 30
0.0
 11
143.1013029899
 21
107.8477493009
 31
0.0
  0
LINE
  5
1BA
330
1F
100
AcDbEntity
  8
0
  6
Continuous
 62
     7
370
    30
100
AcDbLine
 10
141.1989760484
 20
107.1141837618
 30
0.0
 11
141.1989760484
 21
107.0719464204
 31
0.0
  0
LINE
  5
1BB
330
1F
100
AcDbEntity
  8
0
  6
Continuous
 62
     7
370
    30
100
AcDbLine
 10
140.7060605373
 20
107.1314914605
 30
0.0
 11
140.7060605373
 21
107.0891535363
 31
0.0
  0
SPLINE
  5
1BC
330
1F
100
AcDbEntity
  8
0
  6
Continuous
 62
     7
370
    30
100
AcDbSpline
210
0.0
220
0.0
230
1.0
 70
    24
 71
     3
 72
     9
 73
     5
 74
     0
 42
0.000000001
 43
0.00000001
 40
0.0
 40
0.0
 40
0.0
 40
0.0
 40
0.4999842233800469
 40
1.0
 40
1.0
 40
1.0
 40
1.0
 10
140.170535155703
 20
107.4724263033293
 30
0.0
 10
140.170535155703
 20
107.4650404883235
 30
0.0
 10
140.170535155703
 20
107.4502683922043
 30
0.0
 10
140.170535155703
 20
107.4354939692274
 30
0.0
 10
140.170535155703
 20
107.4281065246485
 30
0.0
  0
LINE
  5
1BD
330
1F
100
AcDbEntity
  8
0
  6
Continuous
 62
     7
370
    30
100
AcDbLine
 10
174.4478066351
 20
104.0994367084
 30
0.0
 11
174.4478066351
 21
95.5994362465
 31
0.0
  0
LINE
  5
1BE
330
1F
100
AcDbEntity
  8
0
  6
Continuous
 62
     7
370
    30
100
AcDbLine
 10
140.5146215941
 20
107.8743441483
 30
0.0
 11
140.5146215941
 21
107.8276886126
 31
0.0
  0
LINE
  5
1BF
330
1F
100
AcDbEntity
  8
0
  6
Continuous
 62
     7
370
    30
100
AcDbLine
 10
139.8448944922
 20
107.4650539538
 30
0.0
 11
139.8448944922
 21
107.4207751533
 31
0.0
  0
LINE
  5
1C0
330
1F
100
AcDbEntity
  8
0
  6
Continuous
 62
     7
370
    30
100
AcDbLine
 10
78.9478086765
 20
103.0244371375
 30
0.0
 11
78.9478086765
 21
96.6744376799
 31
0.0
  0
LINE
  5
1C1
330
1F
100
AcDbEntity
  8
0
  6
Continuous
 62
     7
370
    30
100
AcDbLine
 10
141.1837098088
 20
107.8945203206
 30
0.0
 11
141.1837098088
 21
107.8477493009
 31
0.0
  0
SPLINE
  5
1C2
330
1F
100
AcDbEntity
  8
0
  6
Continuous
 62
     7
370
    30
100
AcDbSpline
210
0.0
220
0.0
230
1.0
 70
     8
 71
     3
 72
    12
 73
     8
 74
     0
 42
0.000000001
 43
0.00000001
 40
0.0
 40
0.0
 40
0.0
 40
0.0
 40
0.3026266377252437
 40
0.6095529629106731
 40
0.7439958870566946
 40
0.8792806991943264
 40
0.9999999999999999
 40
0.9999999999999999
 40
0.9999999999999999
 40
0.9999999999999999
 10
123.5814635540739
 20
95.77817940026725
 30
0.0
 10
123.5829076859603
 20
95.84755525897368
 30
0.0
 10
123.5858164678072
 20
95.98729266129504
 30
0.0
 10
123.640373585073
 20
96.16255784022401
 30
0.0
 10
123.7383434608076
 20
96.27247490027752
 30
0.0
 10
123.8314955549723
 20
96.32545658109272
 30
0.0
 10
123.9020369774161
 20
96.33187884088075
 30
0.0
 10
123.9353009398476
 20
96.33490727156604
 30
0.0
  0
SPLINE
  5
1C3
330
1F
100
AcDbEntity
  8
0
  6
Continuous
 62
     7
370
    30
100
AcDbSpline
210
0.0
220
0.0
230
1.0
 70
     8
 71
     3
 72
    13
 73
     9
 74
     0
 42
0.000000001
 43
0.00000001
 40
0.0
 40
0.0
 40
0.0
 40
0.0
 40
0.1052645857605947
 40
0.2107447493208879
 40
0.3214124481142926
 40
0.5294487052378796
 40
0.9050607130316912
 40
0.9999999999999999
 40
0.9999999999999999
 40
0.9999999999999999
 40
0.9999999999999999
 10
123.9353009398476
 20
95.22230089515651
 30
0.0
 10
123.90511465191
 20
95.22471997376472
 30
0.0
 10
123.8446802556849
 20
95.22956308516055
 30
0.0
 10
123.7647609562749
 20
95.26849879074064
 30
0.0
 10
123.6825412539086
 20
95.33894935138737
 30
0.0
 10
123.6017901013606
 20
95.48596027714589
 30
0.0
 10
123.5828490784011
 20
95.64441946891236
 30
0.0
 10
123.5816961674824
 20
95.75572266461499
 30
0.0
 10
123.5814635540739
 20
95.77817940026725
 30
0.0
  0
LINE
  5
1C4
330
1F
100
AcDbEntity
  8
0
  6
Continuous
 62
     7
370
    30
100
AcDbLine
 10
120.9478090416
 20
107.1994370303
 30
0.0
 11
120.9478090416
 21
92.4994377872
 31
0.0
  0
LINE
  5
1C5
330
1F
100
AcDbEntity
  8
0
  6
Continuous
 62
     7
370
    30
100
AcDbLine
 10
123.9478095333
 20
99.9494372389
 30
0.0
 11
123.8478097032
 21
99.9494372389
 31
0.0
  0
LINE
  5
1C6
330
1F
100
AcDbEntity
  8
0
  6
Continuous
 62
     7
370
    30
100
AcDbLine
 10
123.8478097032
 20
99.9494372389
 30
0.0
 11
123.8478097032
 21
96.7494370869
 31
0.0
  0
LINE
  5
1C7
330
1F
100
AcDbEntity
  8
0
  6
Continuous
 62
     7
370
    30
100
AcDbLine
 10
123.9478095333
 20
96.7494370869
 30
0.0
 11
123.8478097032
 21
96.7494370869
 31
0.0
  0
LINE
  5
1C8
330
1F
100
AcDbEntity
  8
0
  6
Continuous
 62
     7
370
    30
100
AcDbLine
 10
123.8478097032
 20
99.7494375786
 30
0.0
 11
123.9478095333
 21
99.7494375786
 31
0.0
  0
SPLINE
  5
1C9
330
1F
100
AcDbEntity
  8
0
  6
Continuous
 62
     7
370
    30
100
AcDbSpline
210
0.0
220
0.0
230
1.0
 70
     8
 71
     3
 72
    12
 73
     8
 74
     0
 42
0.000000001
 43
0.00000001
 40
0.0
 40
0.0
 40
0.0
 40
0.0
 40
0.3386130947650804
 40
0.5953459482672985
 40
0.739573697278529
 40
0.884858870593241
 40
1.0
 40
1.0
 40
1.0
 40
1.0
 10
123.6764416928783
 20
95.77860408336127
 30
0.0
 10
123.6776662835491
 20
95.71594701235395
 30
0.0
 10
123.6798193458653
 20
95.60578401531927
 30
0.0
 10
123.7179549353772
 20
95.47331968973596
 30
0.0
 10
123.7820130544429
 20
95.38965381964657
 30
0.0
 10
123.8542276434586
 20
95.34090441274662
 30
0.0
 10
123.9126509626992
 20
95.3339300745352
 30
0.0
 10
123.9384814064399
 20
95.33084654122794
 30
0.0
  0
SPLINE
  5
1CA
330
1F
100
AcDbEntity
  8
0
  6
Continuous
 62
     7
370
    30
100
AcDbSpline
210
0.0
220
0.0
230
1.0
 70
     8
 71
     3
 72
    12
 73
     8
 74
     0
 42
0.000000001
 43
0.00000001
 40
0.0
 40
0.0
 40
0.0
 40
0.0
 40
0.1137370635657676
 40
0.2279369320882684
 40
0.3494854685975831
 40
0.5584262182362261
 40
1.0
 40
1.0
 40
1.0
 40
1.0
 10
123.9384814064399
 20
96.22635976284946
 30
0.0
 10
123.9137195374894
 20
96.2237747537803
 30
0.0
 10
123.8640950416181
 20
96.21859421703904
 30
0.0
 10
123.7994355491336
 20
96.18066177791839
 30
0.0
 10
123.7371245721268
 20
96.11625099355318
 30
0.0
 10
123.6784917447056
 20
95.97821463137156
 30
0.0
 10
123.6772706085688
 20
95.85931439176966
 30
0.0
 10
123.6764416928783
 20
95.77860408336127
 30
0.0
  0
LINE
  5
1CB
330
1F
100
AcDbEntity
  8
0
  6
Continuous
 62
     7
370
    30
100
AcDbLine
 10
105.9478093769
 20
104.8494382283
 30
0.0
 11
105.9478093769
 21
94.8494365892
 31
0.0
  0
DIMENSION
  5
1CC
330
1F
100
AcDbEntity
  8
DIM
100
AcDbDimension
  2
_D
 10
105.9478094497
 20
83.8494370887
 30
0.0
 11
92.4478094497
 21
83.8494370887
 31
0.0
 70
   160
  1
<>
 71
     2
 42
-1.0
  3
SLDDIMSTYLE0
100
AcDbAlignedDimension
 13
78.9478094497
 23
96.6744370887
 33
0.0
 14
105.9478094497
 24
94.8494370887
 34
0.0
 50
0.0
100
AcDbRotatedDimension
  0
DIMENSION
  5
1D7
330
1F
100
AcDbEntity
  8
DIM
100
AcDbDimension
  2
_D_1
 10
120.9478094497
 20
83.8494370887
 30
0.0
 11
113.4478094497
 21
83.8494370887
 31
0.0
 70
   160
  1
<>
 71
     2
 42
-1.0
  3
SLDDIMSTYLE0
100
AcDbAlignedDimension
 13
105.9478094497
 23
94.8494370887
 33
0.0
 14
120.9478094497
 24
92.4994370887
 34
0.0
 50
0.0
100
AcDbRotatedDimension
  0
DIMENSION
  5
1E1
330
1F
100
AcDbEntity
  8
DIM
100
AcDbDimension
  2
_D_2
 10
170.9478094497
 20
83.8494370887
 30
0.0
 11
145.9478094497
 21
83.8494370887
 31
0.0
 70
   160
  1
<>
 71
     2
 42
-1.0
  3
SLDDIMSTYLE0
100
AcDbAlignedDimension
 13
120.9478094497
 23
92.4994370887
 33
0.0
 14
170.9478094497
 24
95.5994370887
 34
0.0
 50
0.0
100
AcDbRotatedDimension
  0
DIMENSION
  5
1EB
330
1F
100
AcDbEntity
  8
DIM
100
AcDbDimension
  2
_D_3
 10
174.4478094497
 20
83.8494370887
 30
0.0
 11
180.1355351538
 21
83.8494370887
 31
0.0
 70
   160
  1
<>
 71
     2
 42
-1.0
  3
SLDDIMSTYLE1
100
AcDbAlignedDimension
 13
170.9478094497
 23
95.5994370887
 33
0.0
 14
174.4478094497
 24
95.5994370887
 34
0.0
 50
0.0
100
AcDbRotatedDimension
  0
DIMENSION
  5
1F8
330
1F
100
AcDbEntity
  8
DIM
100
AcDbDimension
  2
_D_4
 10
181.4478094497
 20
90.8494370887
 30
0.0
 11
181.4478094497
 21
99.8494370887
 31
0.0
 70
   160
  1
%%c<>
 71
     2
 42
-1.0
  3
SLDDIMSTYLE0
100
AcDbAlignedDimension
 13
169.9263040733
 23
108.8494370887
 33
0.0
 14
169.9263040733
 24
90.8494370887
 34
0.0
 50
90.0
100
AcDbRotatedDimension
  0
DIMENSION
  5
203
330
1F
100
AcDbEntity
  8
DIM
100
AcDbDimension
  2
_D_5
 10
66.9478094497
 20
94.8494370887
 30
0.0
 11
66.9478094497
 21
99.8494370887
 31
0.0
 70
   160
  1
%%c<>
 71
     2
 42
-1.0
  3
SLDDIMSTYLE0
100
AcDbAlignedDimension
 13
105.9478094497
 23
104.8494370887
 33
0.0
 14
105.9478094497
 24
94.8494370887
 34
0.0
 50
90.0
100
AcDbRotatedDimension
  0
DIMENSION
  5
20E
330
1F
100
AcDbEntity
  8
DIM
100
AcDbDimension
  2
_D_6
 10
71.9478094497
 20
96.6744370887
 30
0.0
 11
71.9478094497
 21
88.7333433533
 31
0.0
 70
   160
  1
%%c<>
 71
     2
 42
-1.0
  3
SLDDIMSTYLE0
100
AcDbAlignedDimension
 13
78.9478094497
 23
103.0244370887
 33
0.0
 14
78.9478094497
 24
96.6744370887
 34
0.0
 50
90.0
100
AcDbRotatedDimension
  0
DIMENSION
  5
21A
330
1F
100
AcDbEntity
  8
DIM
100
AcDbDimension
  2
_D_7
 10
174.4478094497
 20
78.8494370887
 30
0.0
 11
126.6978094497
 21
78.8494370887
 31
0.0
 70
   160
  1
<>
 71
     2
 42
-1.0
  3
SLDDIMSTYLE0
100
AcDbAlignedDimension
 13
78.9478094497
 23
96.6744370887
 33
0.0
 14
174.4478094497
 24
95.5994370887
 34
0.0
 50
0.0
100
AcDbRotatedDimension
  0
LINE
  5
224
330
1F
100
AcDbEntity
  8
0
  6
Continuous
 62
     7
370
    30
100
AcDbLine
 10
259.8036456047
 20
127.9861076999
 30
0.0
 11
246.3838233596
 21
135.7332061803
 31
0.0
  0
LINE
  5
225
330
1F
100
AcDbEntity
  8
0
  6
Continuous
 62
     7
370
    30
100
AcDbLine
 10
237.3845547659
 20
120.1443266575
 30
0.0
 11
250.804377011
 21
112.397228177
 31
0.0
  0
LINE
  5
226
330
1F
100
AcDbEntity
  8
0
  6
Continuous
 62
     7
370
    30
100
AcDbLine
 10
260.6260257275
 20
122.0266787701
 30
0.0
 11
258.1511519933
 21
123.4553929658
 31
0.0
  0
LINE
  5
227
330
1F
100
AcDbEntity
  8
0
  6
Continuous
 62
     7
370
    30
100
AcDbLine
 10
253.9014973796
 20
116.0939776355
 30
0.0
 11
256.3763711138
 21
114.6652634399
 31
0.0
  0
LINE
  5
228
330
1F
100
AcDbEntity
  8
0
  6
Continuous
 62
     7
370
    30
100
AcDbLine
 10
244.8570818923
 20
136.1527075645
 30
0.0
 11
231.6881505987
 21
143.7549697815
 31
0.0
  0
LINE
  5
229
330
1F
100
AcDbEntity
  8
0
  6
Continuous
 62
     7
370
    30
100
AcDbLine
 10
231.2883351937
 20
124.1254670111
 30
0.0
 11
236.2577807917
 21
121.2566671315
 31
0.0
  0
LINE
  5
22A
330
1F
100
AcDbEntity
  8
0
  6
Continuous
 62
     7
370
    30
100
AcDbLine
 10
223.0888494981
 20
128.8589293486
 30
0.0
 11
230.5277431305
 21
124.5645474631
 31
0.0
  0
LINE
  5
22B
330
1F
100
AcDbEntity
  8
0
  6
Continuous
 62
     7
370
    30
100
AcDbLine
 10
209.7203176205
 20
150.1726490796
 30
0.0
 11
192.5598718054
 21
160.0791635826
 31
0.0
  0
LINE
  5
22C
330
1F
100
AcDbEntity
  8
0
  6
Continuous
 62
     7
370
    30
100
AcDbLine
 10
189.3851298292
 20
154.5797533065
 30
0.0
 11
206.5455756444
 21
144.6732388034
 31
0.0
  0
LWPOLYLINE
  5
22D
330
1F
100
AcDbEntity
  8
0
  6
Continuous
 62
     7
370
    30
100
AcDbPolyline
 90
        3
 70
   128
 43
0.0
 10
231.0256234384
 20
134.8715951852
 10
231.0137333377
 20
134.880447926
 10
231.0018432292
 20
134.8893008781
  0
LINE
  5
22E
330
1F
100
AcDbEntity
  8
0
  6
Continuous
 62
     7
370
    30
100
AcDbLine
 10
231.1426102827
 20
143.9985379397
 30
0.0
 11
226.0662393146
 21
145.6680564878
 31
0.0
  0
LINE
  5
22F
330
1F
100
AcDbEntity
  8
0
  6
Continuous
 62
     7
370
    30
100
AcDbLine
 10
218.620745077
 20
132.7706847238
 30
0.0
 11
222.6051102236
 21
129.2095516503
 31
0.0
  0
LINE
  5
230
330
1F
100
AcDbEntity
  8
0
  6
Continuous
 62
     7
370
    30
100
AcDbLine
 10
225.7207060952
 20
145.7565655896
 30
0.0
 11
224.3456869696
 21
146.5503472347
 31
0.0
  0
LINE
  5
231
330
1F
100
AcDbEntity
  8
0
  6
Continuous
 62
     7
370
    30
100
AcDbLine
 10
216.9962842847
 20
133.8194289577
 30
0.0
 11
218.3713034103
 21
133.0256473126
 31
0.0
  0
LINE
  5
232
330
1F
100
AcDbEntity
  8
0
  6
Continuous
 62
     7
370
    30
100
AcDbLine
 10
220.4769368352
 20
146.0702563848
 30
0.0
 11
212.5641807409
 21
150.6381932468
 31
0.0
  0
LINE
  5
233
330
1F
100
AcDbEntity
  8
0
  6
Continuous
 62
     7
370
    30
100
AcDbLine
 10
207.5645870777
 20
141.977704623
 30
0.0
 11
215.4773431721
 21
137.409767761
 31
0.0
  0
LWPOLYLINE
  5
234
330
1F
100
AcDbEntity
  8
0
  6
Continuous
 62
     7
370
    30
100
AcDbPolyline
 90
       22
 70
   128
 43
0.0
 10
258.1511519933
 20
123.4553929658
 10
257.792739172
 20
123.6019450996
 10
257.3906586705
 20
123.6543571051
 10
256.9549837384
 20
123.6112387149
 10
256.4964421384
 20
123.4736516469
 10
256.0263246865
 20
123.2449837512
 10
255.5562072345
 20
122.9308655904
 10
255.0976656345
 20
122.5390317961
 10
254.6619907024
 20
122.0791306168
 10
254.2599102009
 20
121.5624863457
 10
253.9013246865
 20
121.0018204796
 10
253.5950637245
 20
120.4109384727
 10
253.3486684763
 20
119.8043898011
 10
253.1682060106
 20
119.1971097062
 10
253.0581199123
 20
118.6040514392
 10
253.0211208664
 20
118.039818063
 10
253.0581199123
 20
117.5183028759
 10
253.1682060106
 20
117.0523473127
 10
253.3486684763
 20
116.6534247455
 10
253.5950637245
 20
116.3313579722
 10
253.9013246865
 20
116.0940773454
 10
253.9014973796
 20
116.0939776355
  0
LWPOLYLINE
  5
235
330
1F
100
AcDbEntity
  8
0
  6
Continuous
 62
     7
370
    30
100
AcDbPolyline
 90
       48
 70
   128
 43
0.0
 10
261.6679723385
 20
123.8655044416
 10
261.6306665263
 20
124.6385205744
 10
261.5191864661
 20
125.3594014258
 10
261.3348391598
 20
126.019695327
 10
261.079785911
 20
126.6116609356
 10
260.7570169858
 20
127.1283579963
 10
260.3703165548
 20
127.5637287082
 10
259.9242183269
 20
127.912668748
 10
259.423952396
 20
128.1710871127
 10
258.8753839227
 20
128.3359540832
 10
258.2849443709
 20
128.405336745
 10
257.6595561044
 20
128.3784216499
 10
257.0065512288
 20
128.2555243528
 10
256.3335856294
 20
128.0380857121
 10
255.6485492123
 20
127.728654997
 10
254.9594734033
 20
127.3308599998
 10
254.2744369863
 20
126.8493645031
 10
253.6014713868
 20
126.2898136014
 10
252.9484665113
 20
125.6587675173
 10
252.3230782448
 20
124.9636246893
 10
251.7326386929
 20
124.2125350315
 10
251.1840702197
 20
123.4143043833
 10
250.6838042888
 20
122.5782912692
 10
250.2377060609
 20
121.7142971787
 10
249.8510056298
 20
120.8324516526
 10
249.5282367046
 20
119.9430935232
 10
249.2731834558
 20
119.0566497016
 10
249.0888361495
 20
118.1835129311
 10
248.9773560894
 20
117.333919942
 10
248.9400502771
 20
116.5178314352
 10
248.9773560894
 20
115.7448153025
 10
249.0888361495
 20
115.023934451
 10
249.2731834558
 20
114.3636405499
 10
249.5282367046
 20
113.7716749412
 10
249.8510056298
 20
113.2549778806
 10
250.2377060609
 20
112.8196071686
 10
250.6838042888
 20
112.4706671288
 10
251.1840702197
 20
112.2122487642
 10
251.7326386929
 20
112.0473817937
 10
252.3230782448
 20
111.9779991318
 10
252.9484665113
 20
112.0049142269
 10
253.6014713868
 20
112.127811524
 10
254.2744369863
 20
112.3452501648
 10
254.9594734033
 20
112.6546808799
 10
255.6485492123
 20
113.0524758771
 10
256.3335856294
 20
113.5339713738
 10
257.0065512288
 20
114.0935222755
 10
257.4216839058
 20
114.4841079386
  0
ARC
  5
236
330
1F
100
AcDbEntity
  8
0
  6
Continuous
 62
     7
370
    30
100
AcDbCircle
 10
250.8335383488
 20
123.9934813852
 30
0.0
 40
10.83518979872887
100
AcDbArc
 50
345.1254653182
 51
359.3232505036
  0
LWPOLYLINE
  5
237
330
1F
100
AcDbEntity
  8
0
  6
Continuous
 62
     7
370
    30
100
AcDbPolyline
 90
       31
 70
   128
 43
0.0
 10
246.3838233596
 20
135.7332061803
 10
246.0041301509
 20
135.9181855931
 10
245.4555616776
 20
136.0830525636
 10
244.8651221258
 20
136.1524352255
 10
244.2397338593
 20
136.1255201304
 10
243.5867289837
 20
136.0026228333
 10
242.9137633843
 20
135.7851841925
 10
242.2287269672
 20
135.4757534775
 10
241.5396511582
 20
135.0779584803
 10
240.8546147412
 20
134.5964629836
 10
240.1816491417
 20
134.0369120818
 10
239.5286442662
 20
133.4058659978
 10
238.9032559997
 20
132.7107231698
 10
238.3128164478
 20
131.9596335119
 10
237.7642479746
 20
131.1614028637
 10
237.2639820437
 20
130.3253897497
 10
236.8178838158
 20
129.4613956592
 10
236.4311833847
 20
128.579550133
 10
236.1084144595
 20
127.6901920037
 10
235.8533612107
 20
126.8037481821
 10
235.6690139044
 20
125.9306114116
 10
235.5575338443
 20
125.0810184224
 10
235.520228032
 20
124.2649299157
 10
235.5575338443
 20
123.4919137829
 10
235.6690139044
 20
122.7710329315
 10
235.8533612107
 20
122.1107390303
 10
236.1084144595
 20
121.5187734217
 10
236.4311833847
 20
121.0020763611
 10
236.8178838158
 20
120.5667056491
 10
237.2639820437
 20
120.2177656093
 10
237.3845547659
 20
120.1443266575
  0
LWPOLYLINE
  5
238
330
1F
100
AcDbEntity
  8
0
  6
Continuous
 62
     7
370
    30
100
AcDbPolyline
 90
       41
 70
   128
 43
0.0
 10
261.5064022407
 20
120.0808383426
 10
261.4694031948
 20
120.6023535297
 10
261.3593170965
 20
121.068309093
 10
261.1788546308
 20
121.4672316601
 10
260.9324593826
 20
121.7892984335
 10
260.6261984206
 20
122.0265790603
 10
260.2676129062
 20
122.173230904
 10
259.8655324047
 20
122.2256429095
 10
259.4298574726
 20
122.1825245192
 10
258.9713158725
 20
122.0449374512
 10
258.5011984206
 20
121.8162695555
 10
258.0310809687
 20
121.5021513947
 10
257.5725393687
 20
121.1103176004
 10
257.1368644365
 20
120.6504164211
 10
256.7347839351
 20
120.13377215
 10
256.3761984206
 20
119.5731062839
 10
256.0699374586
 20
118.982224277
 10
255.8235422104
 20
118.3756756054
 10
255.6430797448
 20
117.7683955105
 10
255.5329936464
 20
117.1753372435
 10
255.4959946006
 20
116.6111038674
 10
255.5329936464
 20
116.0895886803
 10
255.6430797448
 20
115.623633117
 10
255.8235422104
 20
115.2247105499
 10
256.0699374586
 20
114.9026437765
 10
256.3761984206
 20
114.6653631497
 10
256.7347839351
 20
114.518711306
 10
257.1368644365
 20
114.4662993005
 10
257.5725393687
 20
114.5094176907
 10
258.0310809687
 20
114.6470047588
 10
258.5011984206
 20
114.8756726545
 10
258.9713158725
 20
115.1897908153
 10
259.4298574726
 20
115.5816246095
 10
259.8655324047
 20
116.0415257889
 10
260.2676129062
 20
116.5581700599
 10
260.6261984206
 20
117.1188359261
 10
260.9324593826
 20
117.7097179329
 10
261.1788546308
 20
118.3162666045
 10
261.3593170965
 20
118.9235466995
 10
261.4694031948
 20
119.5166049664
 10
261.5064022407
 20
120.0808383426
  0
LWPOLYLINE
  5
239
330
1F
100
AcDbEntity
  8
0
  6
Continuous
 62
     7
370
    30
100
AcDbPolyline
 90
       30
 70
   128
 43
0.0
 10
231.6881505987
 20
143.7549697815
 10
231.254411379
 20
143.9592851323
 10
230.7145565119
 20
144.1058342154
 10
230.1343278249
 20
144.1577154035
 10
229.5207685083
 20
144.1142989292
 10
228.8813263411
 20
143.9761118098
 10
228.2237632849
 20
143.7448314496
 10
227.5560612645
 20
143.423265279
 10
226.8863252779
 20
143.0153166756
 10
226.2226850128
 20
142.525937583
 10
225.573196163
 20
141.9610684002
 10
224.9457426432
 20
141.327565874
 10
224.3479408893
 20
140.633119867
 10
223.7870474047
 20
139.8861600129
 10
223.2698706766
 20
139.0957533925
 10
222.8026885298
 20
138.2714944714
 10
222.3911719227
 20
137.4233886364
 10
222.0403161096
 20
136.5617307434
 10
221.7543800046
 20
135.6969801521
 10
221.5368344847
 20
134.8396337632
 10
221.3903202579
 20
134.0000986004
 10
221.3166158084
 20
133.1885654834
 10
221.3166158084
 20
132.4148853249
 10
221.3903202579
 20
131.6884495539
 10
221.5368344847
 20
131.0180761166
 10
221.7543800046
 20
130.4119024386
 10
222.0403161096
 20
129.877286647
 10
222.3911719227
 20
129.4207182533
 10
222.8026885298
 20
129.0477393795
 10
223.0888494981
 20
128.8589293486
  0
ARC
  5
23A
330
1F
100
AcDbEntity
  8
0
  6
Continuous
 62
     7
370
    30
100
AcDbCircle
 10
243.167096766
 20
127.610687297
 30
0.0
 40
12.6149591928292
100
AcDbArc
 50
135.3875127662
 51
136.6119310981
  0
LINE
  5
23B
330
1F
100
AcDbEntity
  8
0
  6
Continuous
 62
     7
370
    30
100
AcDbLine
 10
232.8309048076
 20
137.2530461045
 30
0.0
 11
234.1868479268
 21
136.4702768035
 31
0.0
  0
LINE
  5
23C
330
1F
100
AcDbEntity
  8
0
  6
Continuous
 62
     7
370
    30
100
AcDbLine
 10
232.3203896756
 20
137.4881066735
 30
0.0
 11
232.8309048076
 21
137.2530461045
 31
0.0
  0
SPLINE
  5
23D
330
1F
100
AcDbEntity
  8
0
  6
Continuous
 62
     7
370
    30
100
AcDbSpline
210
0.0
220
0.0
230
1.0
 70
     8
 71
     3
 72
    11
 73
     7
 74
     0
 42
0.000000001
 43
0.00000001
 40
0.0
 40
0.0
 40
0.0
 40
0.0
 40
0.2504306482802687
 40
0.5004375762315771
 40
0.7502413089856991
 40
1.0
 40
1.0
 40
1.0
 40
1.0
 10
231.2081409682226
 20
137.0585866895597
 30
0.0
 10
231.2805579050075
 20
137.1350131490412
 30
0.0
 10
231.4252692515284
 20
137.2877367569761
 30
0.0
 10
231.7115539797486
 20
137.4444290738609
 30
0.0
 10
232.0272888742389
 20
137.5280074552794
 30
0.0
 10
232.2226952812742
 20
137.5014061346173
 30
0.0
 10
232.3203896756379
 20
137.4881066735055
 30
0.0
  0
SPLINE
  5
23E
330
1F
100
AcDbEntity
  8
0
  6
Continuous
 62
     7
370
    30
100
AcDbSpline
210
0.0
220
0.0
230
1.0
 70
     8
 71
     3
 72
    14
 73
    10
 74
     0
 42
0.000000001
 43
0.00000001
 40
0.0
 40
0.0
 40
0.0
 40
0.0
 40
0.250265457189546
 40
0.375383332210697
 40
0.5002491132958397
 40
0.6252245425457283
 40
0.7501513982184346
 40
0.8750046622047372
 40
1.0
 40
1.0
 40
1.0
 40
1.0
 10
231.5570533631869
 20
135.7527395101861
 30
0.0
 10
231.4483450051567
 20
135.8207914957772
 30
0.0
 10
231.2852889200909
 20
135.9228654351918
 30
0.0
 10
231.10381985886
 20
136.1001993080289
 30
0.0
 10
231.0116978064347
 20
136.2694124859792
 30
0.0
 10
230.979225240417
 20
136.4656850366483
 30
0.0
 10
230.9933315578693
 20
136.6710099795168
 30
0.0
 10
231.0702153630117
 20
136.8770447812689
 30
0.0
 10
231.1621483409084
 20
136.9980497840507
 30
0.0
 10
231.2081409682226
 20
137.0585866895597
 30
0.0
  0
LINE
  5
23F
330
1F
100
AcDbEntity
  8
0
  6
Continuous
 62
     7
370
    30
100
AcDbLine
 10
232.9129964824
 20
134.9699702092
 30
0.0
 11
231.5570533632
 21
135.7527395102
 31
0.0
  0
ARC
  5
240
330
1F
100
AcDbEntity
  8
0
  6
Continuous
 62
     7
370
    30
100
AcDbCircle
 10
244.4334801669
 20
126.522208033
 30
0.0
 40
14.28587519577832
100
AcDbArc
 50
142.6211021684
 51
143.7480786186
  0
LINE
  5
241
330
1F
100
AcDbEntity
  8
0
  6
Continuous
 62
     7
370
    30
100
AcDbLine
 10
231.7362275511
 20
135.9714613602
 30
0.0
 11
233.0813770933
 21
135.1949230586
 31
0.0
  0
LINE
  5
242
330
1F
100
AcDbEntity
  8
0
  6
Continuous
 62
     7
370
    30
100
AcDbLine
 10
231.4070832655
 20
136.1980017067
 30
0.0
 11
231.7362275511
 21
135.9714613602
 31
0.0
  0
SPLINE
  5
243
330
1F
100
AcDbEntity
  8
0
  6
Continuous
 62
     7
370
    30
100
AcDbSpline
210
0.0
220
0.0
230
1.0
 70
     8
 71
     3
 72
    11
 73
     7
 74
     0
 42
0.000000001
 43
0.00000001
 40
0.0
 40
0.0
 40
0.0
 40
0.0
 40
0.2499982028558964
 40
0.4999447842352781
 40
0.7498010159290632
 40
1.0
 40
1.0
 40
1.0
 40
1.0
 10
231.4483651322841
 20
136.9374302112396
 30
0.0
 10
231.4049896870738
 20
136.8761644273274
 30
0.0
 10
231.3182477531355
 20
136.7536455101149
 30
0.0
 10
231.2709109499372
 20
136.5469177778164
 30
0.0
 10
231.2961591348923
 20
136.349372494814
 30
0.0
 10
231.3700916634604
 20
136.2484816872027
 30
0.0
 10
231.4070832654963
 20
136.1980017066512
 30
0.0
  0
SPLINE
  5
244
330
1F
100
AcDbEntity
  8
0
  6
Continuous
 62
     7
370
    30
100
AcDbSpline
210
0.0
220
0.0
230
1.0
 70
     8
 71
     3
 72
    12
 73
     8
 74
     0
 42
0.000000001
 43
0.00000001
 40
0.0
 40
0.0
 40
0.0
 40
0.0
 40
0.2497068776663761
 40
0.3736041887751432
 40
0.5000118599150086
 40
0.7516319720492369
 40
1.0
 40
1.0
 40
1.0
 40
1.0
 10
232.3475085927445
 20
137.216498615233
 30
0.0
 10
232.2750791231481
 20
137.2396086091768
 30
0.0
 10
232.1667122512188
 20
137.2741851119174
 30
0.0
 10
231.9986937143734
 20
137.2650169511588
 30
0.0
 10
231.8316665228868
 20
137.2184541671147
 30
0.0
 10
231.6318054412261
 20
137.1180162968323
 30
0.0
 10
231.5092461802725
 20
136.9973639859177
 30
0.0
 10
231.4483651322841
 20
136.9374302112396
 30
0.0
  0
SPLINE
  5
245
330
1F
100
AcDbEntity
  8
0
  6
Continuous
 62
     7
370
    30
100
AcDbSpline
210
0.0
220
0.0
230
1.0
 70
     8
 71
     3
 72
     9
 73
     5
 74
     0
 42
0.000000001
 43
0.00000001
 40
0.0
 40
0.0
 40
0.0
 40
0.0
 40
0.6365762138120723
 40
1.0
 40
1.0
 40
1.0
 40
1.0
 10
232.6544326871236
 20
137.0528976819656
 30
0.0
 10
232.5913240668614
 20
137.0898895937795
 30
0.0
 10
232.4921864948113
 20
137.1480003290085
 30
0.0
 10
232.3860728245552
 20
137.1982402374789
 30
0.0
 10
232.3475085927445
 20
137.216498615233
 30
0.0
  0
LINE
  5
246
330
1F
100
AcDbEntity
  8
0
  6
Continuous
 62
     7
370
    30
100
AcDbLine
 10
233.9995822293
 20
136.2763593804
 30
0.0
 11
232.6544326871
 21
137.052897682
 31
0.0
  0
ARC
  5
247
330
1F
100
AcDbEntity
  8
0
  6
Continuous
 62
     7
370
    30
100
AcDbCircle
 10
244.237152558
 20
126.5845720194
 30
0.0
 40
14.78463985166098
100
AcDbArc
 50
146.6067951716
 51
147.7082803364
  0
LINE
  5
248
330
1F
100
AcDbEntity
  8
0
  6
Continuous
 62
     7
370
    30
100
AcDbLine
 10
230.2526387114
 20
135.6688795124
 30
0.0
 11
231.8932624258
 21
134.7217676019
 31
0.0
  0
ARC
  5
249
330
1F
100
AcDbEntity
  8
0
  6
Continuous
 62
     7
370
    30
100
AcDbCircle
 10
242.5965288434
 20
127.53168393
 30
0.0
 40
14.78463985151013
100
AcDbArc
 50
146.6067951716
 51
147.7082803364
  0
LINE
  5
24A
330
1F
100
AcDbEntity
  8
0
  6
Continuous
 62
     7
370
    30
100
AcDbLine
 10
230.6916924649
 20
135.0876395044
 30
0.0
 11
230.0984954585
 21
135.430084847
 31
0.0
  0
LINE
  5
24B
330
1F
100
AcDbEntity
  8
0
  6
Continuous
 62
     7
370
    30
100
AcDbLine
 10
231.1086249089
 20
134.7963895044
 30
0.0
 11
230.6916924649
 21
135.0876395044
 31
0.0
  0
SPLINE
  5
24C
330
1F
100
AcDbEntity
  8
0
  6
Continuous
 62
     7
370
    30
100
AcDbSpline
210
0.0
220
0.0
230
1.0
 70
     8
 71
     3
 72
    11
 73
     7
 74
     0
 42
0.000000001
 43
0.00000001
 40
0.0
 40
0.0
 40
0.0
 40
0.0
 40
0.2498824963084904
 40
0.499855739240324
 40
0.75000368271911
 40
1.0
 40
1.0
 40
1.0
 40
1.0
 10
231.1414324134408
 20
133.8665446050632
 30
0.0
 10
231.1798387623281
 20
133.9481206008812
 30
0.0
 10
231.2566654076442
 20
134.1113022174263
 30
0.0
 10
231.2760145614226
 20
134.3708164684432
 30
0.0
 10
231.2380903543684
 20
134.6134422014074
 30
0.0
 10
231.1517713344483
 20
134.7354193964458
 30
0.0
 10
231.1086249089379
 20
134.7963895043613
 30
0.0
  0
SPLINE
  5
24D
330
1F
100
AcDbEntity
  8
0
  6
Continuous
 62
     7
370
    30
100
AcDbSpline
210
0.0
220
0.0
230
1.0
 70
     8
 71
     3
 72
    13
 73
     9
 74
     0
 42
0.000000001
 43
0.00000001
 40
0.0
 40
0.0
 40
0.0
 40
0.0
 40
0.1253187799521735
 40
0.2505074758406303
 40
0.3775785020615643
 40
0.5007845545482597
 40
0.7499620183516535
 40
1.0
 40
1.0
 40
1.0
 40
1.0
 10
230.5385976404416
 20
133.5249760278521
 30
0.0
 10
230.5660884894342
 20
133.5192882112169
 30
0.0
 10
230.6210416512228
 20
133.5079184820438
 30
0.0
 10
230.7076680724993
 20
133.508514440377
 30
0.0
 10
230.7947135229822
 20
133.5273794122041
 30
0.0
 10
230.9072857380282
 20
133.5789955354559
 30
0.0
 10
231.0339727779215
 20
133.6906108856594
 30
0.0
 10
231.1055713957903
 20
133.8078326786141
 30
0.0
 10
231.1414324134408
 20
133.8665446050632
 30
0.0
  0
SPLINE
  5
24E
330
1F
100
AcDbEntity
  8
0
  6
Continuous
 62
     7
370
    30
100
AcDbSpline
210
0.0
220
0.0
230
1.0
 70
     8
 71
     3
 72
     9
 73
     5
 74
     0
 42
0.000000001
 43
0.00000001
 40
0.0
 40
0.0
 40
0.0
 40
0.0
 40
0.5003064839533882
 40
1.0
 40
1.0
 40
1.0
 40
1.0
 10
230.1502177195137
 20
133.7104514484285
 30
0.0
 10
230.2125306541207
 20
133.6739366972609
 30
0.0
 10
230.3370801784735
 20
133.6009519322444
 30
0.0
 10
230.4714526084479
 20
133.5502909781366
 30
0.0
 10
230.5385976404416
 20
133.5249760278521
 30
0.0
  0
LINE
  5
24F
330
1F
100
AcDbEntity
  8
0
  6
Continuous
 62
     7
370
    30
100
AcDbLine
 10
229.3784769591
 20
134.1559679063
 30
0.0
 11
230.1502177195
 21
133.7104514484
 31
0.0
  0
ARC
  5
250
330
1F
100
AcDbEntity
  8
0
  6
Continuous
 62
     7
370
    30
100
AcDbCircle
 10
242.5076686537
 20
127.5681750665
 30
0.0
 40
14.68927122270982
100
AcDbArc
 50
153.3540207492
 51
154.4602684139
  0
LINE
  5
251
330
1F
100
AcDbEntity
  8
0
  6
Continuous
 62
     7
370
    30
100
AcDbLine
 10
230.0915885031
 20
133.4175804236
 30
0.0
 11
229.2537370832
 21
133.9012617529
 31
0.0
  0
SPLINE
  5
252
330
1F
100
AcDbEntity
  8
0
  6
Continuous
 62
     7
370
    30
100
AcDbSpline
210
0.0
220
0.0
230
1.0
 70
     8
 71
     3
 72
    14
 73
    10
 74
     0
 42
0.000000001
 43
0.00000001
 40
0.0
 40
0.0
 40
0.0
 40
0.0
 40
0.1249698545363647
 40
0.2500169049704061
 40
0.3760557291729926
 40
0.4997230104152883
 40
0.6246101612682272
 40
0.7497231575066885
 40
1.0
 40
1.0
 40
1.0
 40
1.0
 10
231.3188771038045
 20
133.7068522115651
 30
0.0
 10
231.2829012095918
 20
133.647344831492
 30
0.0
 10
231.2109271982754
 20
133.528293312676
 30
0.0
 10
231.0662728467733
 20
133.3834876620629
 30
0.0
 10
230.9042284061318
 20
133.2777880406922
 30
0.0
 10
230.7306675419179
 20
133.2213853458985
 30
0.0
 10
230.5577108924005
 20
133.2194855341622
 30
0.0
 10
230.3407135352295
 20
133.2826227338725
 30
0.0
 10
230.1912425653991
 20
133.3635951540049
 30
0.0
 10
230.091588503105
 20
133.4175804235803
 30
0.0
  0
SPLINE
  5
253
330
1F
100
AcDbEntity
  8
0
  6
Continuous
 62
     7
370
    30
100
AcDbSpline
210
0.0
220
0.0
230
1.0
 70
     8
 71
     3
 72
    11
 73
     7
 74
     0
 42
0.000000001
 43
0.00000001
 40
0.0
 40
0.0
 40
0.0
 40
0.0
 40
0.2502298008222238
 40
0.5001010818605488
 40
0.7499844207790964
 40
1.0
 40
1.0
 40
1.0
 40
1.0
 10
231.4431952682581
 20
134.6538061704104
 30
0.0
 10
231.4611776630246
 20
134.5800643116371
 30
0.0
 10
231.4971166880636
 20
134.4326862486336
 30
0.0
 10
231.4917609916843
 20
134.1885144432974
 30
0.0
 10
231.433831689923
 20
133.9394007748728
 30
0.0
 10
231.3572020562274
 20
133.7843820685781
 30
0.0
 10
231.3188771038046
 20
133.7068522115651
 30
0.0
  0
LINE
  5
254
330
1F
100
AcDbEntity
  8
0
  6
Continuous
 62
     7
370
    30
100
AcDbLine
 10
231.7391191729
 20
134.4829729366
 30
0.0
 11
231.4431952683
 21
134.6538061704
 31
0.0
  0
SPLINE
  5
255
330
1F
100
AcDbEntity
  8
0
  6
Continuous
 62
     7
370
    30
100
AcDbSpline
210
0.0
220
0.0
230
1.0
 70
     8
 71
     3
 72
    13
 73
     9
 74
     0
 42
0.000000001
 43
0.00000001
 40
0.0
 40
0.0
 40
0.0
 40
0.0
 40
0.125458552955828
 40
0.2507518492598119
 40
0.5003872894232774
 40
0.6288887172954344
 40
0.7508529200252829
 40
1.0
 40
1.0
 40
1.0
 40
1.0
 10
231.2818615740323
 20
131.8763789488099
 30
0.0
 10
231.2750021337323
 20
131.8614569428778
 30
0.0
 10
231.2612922885317
 20
131.8316325865945
 30
0.0
 10
231.2250742009512
 20
131.7792848700969
 30
0.0
 10
231.177650604174
 20
131.7410291301293
 30
0.0
 10
231.1266054827183
 20
131.7189285602528
 30
0.0
 10
231.0730013774127
 20
131.7095582012619
 30
0.0
 10
231.0354835387128
 20
131.7246462108354
 30
0.0
 10
231.0102957840023
 20
131.7347756078736
 30
0.0
  0
SPLINE
  5
256
330
1F
100
AcDbEntity
  8
0
  6
Continuous
 62
     7
370
    30
100
AcDbSpline
210
0.0
220
0.0
230
1.0
 70
     8
 71
     3
 72
    13
 73
     9
 74
     0
 42
0.000000001
 43
0.00000001
 40
0.0
 40
0.0
 40
0.0
 40
0.0
 40
0.1253391219460768
 40
0.2505029642988528
 40
0.3736947096446103
 40
0.5009167439041715
 40
0.750444024022816
 40
1.0
 40
1.0
 40
1.0
 40
1.0
 10
231.2101384265661
 20
132.2153605430566
 30
0.0
 10
231.2215446189021
 20
132.2076531741117
 30
0.0
 10
231.2443410526666
 20
132.1922492145366
 30
0.0
 10
231.2714208894371
 20
132.1580245594709
 30
0.0
 10
231.2917882459933
 20
132.1170803228748
 30
0.0
 10
231.3082363144732
 20
132.0559735820572
 30
0.0
 10
231.3134270529032
 20
131.9711996325165
 30
0.0
 10
231.2923838036314
 20
131.9079870548929
 30
0.0
 10
231.2818615740323
 20
131.8763789488099
 30
0.0
  0
SPLINE
  5
257
330
1F
100
AcDbEntity
  8
0
  6
Continuous
 62
     7
370
    30
100
AcDbSpline
210
0.0
220
0.0
230
1.0
 70
     8
 71
     3
 72
    12
 73
     8
 74
     0
 42
0.000000001
 43
0.00000001
 40
0.0
 40
0.0
 40
0.0
 40
0.0
 40
0.12559762946958
 40
0.2510326241509401
 40
0.5010054477530987
 40
0.750635057326299
 40
1.0
 40
1.0
 40
1.0
 40
1.0
 10
230.9364671078373
 20
132.0757709299666
 30
0.0
 10
230.9432624505975
 20
132.0905264290714
 30
0.0
 10
230.9568443369142
 20
132.1200183205712
 30
0.0
 10
230.9938869805818
 20
132.171208836335
 30
0.0
 10
231.0526417990402
 20
132.217602042699
 30
0.0
 10
231.1346164917882
 20
132.2444089165345
 30
0.0
 10
231.1849733514059
 20
132.225039909773
 30
0.0
 10
231.2101384265661
 20
132.2153605430566
 30
0.0
  0
SPLINE
  5
258
330
1F
100
AcDbEntity
  8
0
  6
Continuous
 62
     7
370
    30
100
AcDbSpline
210
0.0
220
0.0
230
1.0
 70
     8
 71
     3
 72
    13
 73
     9
 74
     0
 42
0.000000001
 43
0.00000001
 40
0.0
 40
0.0
 40
0.0
 40
0.0
 40
0.1253195859666942
 40
0.2504681748776453
 40
0.3720757010531925
 40
0.5008391159811976
 40
0.7503288696165195
 40
1.0
 40
1.0
 40
1.0
 40
1.0
 10
231.0102957840023
 20
131.7347756078736
 30
0.0
 10
230.9988813872467
 20
131.7425440695712
 30
0.0
 10
230.9760681685415
 20
131.7580703929945
 30
0.0
 10
230.9488440651249
 20
131.7926805778976
 30
0.0
 10
230.9282517099792
 20
131.8342437587157
 30
0.0
 10
230.9113254132612
 20
131.8958892171831
 30
0.0
 10
230.9047659031393
 20
131.9810834384319
 30
0.0
 10
230.9258974801248
 20
132.0442007879454
 30
0.0
 10
230.9364671078373
 20
132.0757709299666
 30
0.0
  0
ARC
  5
259
330
1F
100
AcDbEntity
  8
0
  6
Continuous
 62
     7
370
    30
100
AcDbCircle
 10
243.6830264135
 20
126.8299388871
 30
0.0
 40
14.179200217393
100
AcDbArc
 50
156.8545797754
 51
157.9872017298
  0
LINE
  5
25A
330
1F
100
AcDbEntity
  8
0
  6
Continuous
 62
     7
370
    30
100
AcDbLine
 10
229.0044836136
 20
133.3504146585
 30
0.0
 11
230.645107328
 21
132.403302748
 31
0.0
  0
ARC
  5
25B
330
1F
100
AcDbEntity
  8
0
  6
Continuous
 62
     7
370
    30
100
AcDbCircle
 10
242.0424026992
 20
127.7770507976
 30
0.0
 40
14.17920021752497
100
AcDbArc
 50
156.8545797754
 51
157.9872017298
  0
LINE
  5
25C
330
1F
100
AcDbEntity
  8
0
  6
Continuous
 62
     7
370
    30
100
AcDbLine
 10
230.5374876966
 20
132.1444972552
 30
0.0
 11
228.8968639822
 21
133.0916091656
 31
0.0
  0
LINE
  5
25D
330
1F
100
AcDbEntity
  8
0
  6
Continuous
 62
     7
370
    30
100
AcDbLine
 10
229.4175369862
 20
129.6614778947
 30
0.0
 11
229.3487794971
 21
129.9330180039
 31
0.0
  0
SPLINE
  5
25E
330
1F
100
AcDbEntity
  8
0
  6
Continuous
 62
     7
370
    30
100
AcDbSpline
210
0.0
220
0.0
230
1.0
 70
     8
 71
     3
 72
    11
 73
     7
 74
     0
 42
0.000000001
 43
0.00000001
 40
0.0
 40
0.0
 40
0.0
 40
0.0
 40
0.2808577076413455
 40
0.5617237147682118
 40
0.8421121473666043
 40
1.0
 40
1.0
 40
1.0
 40
1.0
 10
229.997330765696
 20
130.3891177446839
 30
0.0
 10
229.9701281501404
 20
130.2975194804138
 30
0.0
 10
229.9157221151784
 20
130.114320245099
 30
0.0
 10
229.7853341713237
 20
129.893977090889
 30
0.0
 10
229.6506854526024
 20
129.7367835277914
 30
0.0
 10
229.5434600776301
 20
129.7054739781788
 30
0.0
 10
229.5048324247712
 20
129.6941947971648
 30
0.0
  0
SPLINE
  5
25F
330
1F
100
AcDbEntity
  8
0
  6
Continuous
 62
     7
370
    30
100
AcDbSpline
210
0.0
220
0.0
230
1.0
 70
     8
 71
     3
 72
    14
 73
    10
 74
     0
 42
0.000000001
 43
0.00000001
 40
0.0
 40
0.0
 40
0.0
 40
0.0
 40
0.1250716595822052
 40
0.2500688213706144
 40
0.3759532206701485
 40
0.5003047173943574
 40
0.6255024720100949
 40
0.7506352674516032
 40
1.0
 40
1.0
 40
1.0
 40
1.0
 10
229.4924110044883
 20
132.0692076121161
 30
0.0
 10
229.5495773148477
 20
132.0313200601365
 30
0.0
 10
229.6638758849748
 20
131.9555675235522
 30
0.0
 10
229.8064738992917
 20
131.7850570880441
 30
0.0
 10
229.9216284965975
 20
131.584663254901
 30
0.0
 10
230.0043340254205
 20
131.3569023634615
 30
0.0
 10
230.050058835792
 20
131.1136368888777
 30
0.0
 10
230.071374378407
 20
130.7803363282351
 30
0.0
 10
230.0269268269558
 20
130.5454921940232
 30
0.0
 10
229.997330765696
 20
130.3891177446839
 30
0.0
  0
SPLINE
  5
260
330
1F
100
AcDbEntity
  8
0
  6
Continuous
 62
     7
370
    30
100
AcDbSpline
210
0.0
220
0.0
230
1.0
 70
     8
 71
     3
 72
    13
 73
     9
 74
     0
 42
0.000000001
 43
0.00000001
 40
0.0
 40
0.0
 40
0.0
 40
0.0
 40
0.2497847366215162
 40
0.3744674679937399
 40
0.5003452520161376
 40
0.6250935565681471
 40
0.7508945853253193
 40
0.9999999999999999
 40
0.9999999999999999
 40
0.9999999999999999
 40
0.9999999999999999
 10
228.3044753318378
 20
131.3907423030525
 30
0.0
 10
228.352133495926
 20
131.5327592676623
 30
0.0
 10
228.4235807439715
 20
131.7456655239408
 30
0.0
 10
228.603930116287
 20
131.9564058167294
 30
0.0
 10
228.7629119160689
 20
132.0750467515791
 30
0.0
 10
228.9396378038585
 20
132.1517297810268
 30
0.0
 10
229.1903500663654
 20
132.1954066618621
 30
0.0
 10
229.3718283356325
 20
132.1195862486919
 30
0.0
 10
229.4924110044883
 20
132.0692076121161
 30
0.0
  0
SPLINE
  5
261
330
1F
100
AcDbEntity
  8
0
  6
Continuous
 62
     7
370
    30
100
AcDbSpline
210
0.0
220
0.0
230
1.0
 70
     8
 71
     3
 72
    11
 73
     7
 74
     0
 42
0.000000001
 43
0.00000001
 40
0.0
 40
0.0
 40
0.0
 40
0.0
 40
0.2498151551743573
 40
0.499737959170874
 40
0.7497554827813758
 40
1.0
 40
1.0
 40
1.0
 40
1.0
 10
228.4825433726428
 20
130.201238218718
 30
0.0
 10
228.4329146009539
 20
130.2925793410565
 30
0.0
 10
228.3336356718486
 20
130.4753009458924
 30
0.0
 10
228.2606472131088
 20
130.7868607082033
 30
0.0
 10
228.2455662425475
 20
131.0988483776037
 30
0.0
 10
228.2848330296471
 20
131.2934148997544
 30
0.0
 10
228.3044753318378
 20
131.3907423030525
 30
0.0
  0
LINE
  5
262
330
1F
100
AcDbEntity
  8
0
  6
Continuous
 62
     7
370
    30
100
AcDbLine
 10
228.6292076925
 20
130.3484179646
 30
0.0
 11
228.4825433726
 21
130.2012382187
 31
0.0
  0
SPLINE
  5
263
330
1F
100
AcDbEntity
  8
0
  6
Continuous
 62
     7
370
    30
100
AcDbSpline
210
0.0
220
0.0
230
1.0
 70
     8
 71
     3
 72
    12
 73
     8
 74
     0
 42
0.000000001
 43
0.00000001
 40
0.0
 40
0.0
 40
0.0
 40
0.0
 40
0.1251960058958429
 40
0.2503371137440856
 40
0.5001741257503145
 40
0.7499903408821189
 40
1.0
 40
1.0
 40
1.0
 40
1.0
 10
228.5049429895502
 20
131.2704036292381
 30
0.0
 10
228.4966539334165
 20
131.2333836384816
 30
0.0
 10
228.4800794558738
 20
131.159359890116
 30
0.0
 10
228.4636760086686
 20
131.0049373587631
 30
0.0
 10
228.4713414469668
 20
130.8050544723989
 30
0.0
 10
228.5276638062149
 20
130.5663372841424
 30
0.0
 10
228.5953509982727
 20
130.4210764775351
 30
0.0
 10
228.6292076925433
 20
130.3484179646127
 30
0.0
  0
SPLINE
  5
264
330
1F
100
AcDbEntity
  8
0
  6
Continuous
 62
     7
370
    30
100
AcDbSpline
210
0.0
220
0.0
230
1.0
 70
     8
 71
     3
 72
    13
 73
     9
 74
     0
 42
0.000000001
 43
0.00000001
 40
0.0
 40
0.0
 40
0.0
 40
0.0
 40
0.2486610267356502
 40
0.3748641209041234
 40
0.4996784370341426
 40
0.6237951399130209
 40
0.7502256786010479
 40
1.0
 40
1.0
 40
1.0
 40
1.0
 10
229.4210667709115
 20
131.7987214562814
 30
0.0
 10
229.3273448692628
 20
131.8361658025728
 30
0.0
 10
229.1860562293333
 20
131.8926143025231
 30
0.0
 10
228.9929926219297
 20
131.8630523687122
 30
0.0
 10
228.8566487418263
 20
131.8064426039621
 30
0.0
 10
228.7358537971154
 20
131.7114021170818
 30
0.0
 10
228.5980314657465
 20
131.5471076668324
 30
0.0
 10
228.5420865746081
 20
131.3808123541008
 30
0.0
 10
228.5049429895502
 20
131.2704036292381
 30
0.0
  0
SPLINE
  5
265
330
1F
100
AcDbEntity
  8
0
  6
Continuous
 62
     7
370
    30
100
AcDbSpline
210
0.0
220
0.0
230
1.0
 70
     8
 71
     3
 72
    14
 73
    10
 74
     0
 42
0.000000001
 43
0.00000001
 40
0.0
 40
0.0
 40
0.0
 40
0.0
 40
0.2494953450786512
 40
0.3745959285995338
 40
0.4997060529979747
 40
0.624829020465134
 40
0.7498687678745171
 40
0.8748864702349328
 40
1.0
 40
1.0
 40
1.0
 40
1.0
 10
229.8006059549217
 20
130.5244093869854
 30
0.0
 10
229.8235040750931
 20
130.642235506318
 30
0.0
 10
229.8578836447244
 20
130.8191413502758
 30
0.0
 10
229.8414700242765
 20
131.0708790211733
 30
0.0
 10
229.8052663883841
 20
131.2548703521402
 30
0.0
 10
229.7444673407976
 20
131.4285867428933
 30
0.0
 10
229.6598641987463
 20
131.5842076623412
 30
0.0
 10
229.5507396274694
 20
131.7126819202348
 30
0.0
 10
229.464302094749
 20
131.7700342868726
 30
0.0
 10
229.4210667709115
 20
131.7987214562814
 30
0.0
  0
SPLINE
  5
266
330
1F
100
AcDbEntity
  8
0
  6
Continuous
 62
     7
370
    30
100
AcDbSpline
210
0.0
220
0.0
230
1.0
 70
     8
 71
     3
 72
    12
 73
     8
 74
     0
 42
0.000000001
 43
0.00000001
 40
0.0
 40
0.0
 40
0.0
 40
0.0
 40
0.1251990186331821
 40
0.2503412287105498
 40
0.5001113717669877
 40
0.7499496931165059
 40
1.0
 40
1.0
 40
1.0
 40
1.0
 10
229.3487794971162
 20
129.9330180038696
 30
0.0
 10
229.3753069327806
 20
129.9427276245752
 30
0.0
 10
229.4283497673912
 20
129.9621424602847
 30
0.0
 10
229.5270434903043
 20
130.0228009169193
 30
0.0
 10
229.6369984787882
 20
130.1305194725243
 30
0.0
 10
229.7378413716518
 20
130.3092941256358
 30
0.0
 10
229.7796785132685
 20
130.4526840309637
 30
0.0
 10
229.8006059549217
 20
130.5244093869854
 30
0.0
  0
LINE
  5
267
330
1F
100
AcDbEntity
  8
0
  6
Continuous
 62
     7
370
    30
100
AcDbLine
 10
228.5503851805
 20
128.0362901155
 30
0.0
 11
228.4744319065
 21
127.895331445
 31
0.0
  0
SPLINE
  5
268
330
1F
100
AcDbEntity
  8
0
  6
Continuous
 62
     7
370
    30
100
AcDbSpline
210
0.0
220
0.0
230
1.0
 70
     8
 71
     3
 72
    11
 73
     7
 74
     0
 42
0.000000001
 43
0.00000001
 40
0.0
 40
0.0
 40
0.0
 40
0.0
 40
0.2495648371657609
 40
0.5000801423848833
 40
0.7495323266982545
 40
1.0
 40
1.0
 40
1.0
 40
1.0
 10
228.1829065110749
 20
128.9196459669184
 30
0.0
 10
228.1871233431761
 20
128.8468604339739
 30
0.0
 10
228.19557306719
 20
128.7010121642745
 30
0.0
 10
228.2680425094143
 20
128.4667390238134
 30
0.0
 10
228.3909461994283
 20
128.2375031023394
 30
0.0
 10
228.4971669312824
 20
128.1034518773668
 30
0.0
 10
228.550385180485
 20
128.036290115515
 30
0.0
  0
SPLINE
  5
269
330
1F
100
AcDbEntity
  8
0
  6
Continuous
 62
     7
370
    30
100
AcDbSpline
210
0.0
220
0.0
230
1.0
 70
     8
 71
     3
 72
    13
 73
     9
 74
     0
 42
0.000000001
 43
0.00000001
 40
0.0
 40
0.0
 40
0.0
 40
0.0
 40
0.2496078234340884
 40
0.3748406783349758
 40
0.5001042835540075
 40
0.6270421651224408
 40
0.7506055388496279
 40
0.9999999999999999
 40
0.9999999999999999
 40
0.9999999999999999
 40
0.9999999999999999
 10
228.8245950038452
 20
129.2818277994791
 30
0.0
 10
228.7444445175009
 20
129.3176019469997
 30
0.0
 10
228.6240810518976
 20
129.3713246450266
 30
0.0
 10
228.4747261121022
 20
129.3649288471064
 30
0.0
 10
228.3749594714508
 20
129.3279237604685
 30
0.0
 10
228.2914283791922
 20
129.2631833183544
 30
0.0
 10
228.2059913019078
 20
129.1408388787639
 30
0.0
 10
228.1921572505793
 20
129.0082843272363
 30
0.0
 10
228.1829065110749
 20
128.9196459669184
 30
0.0
  0
ARC
  5
26A
330
1F
100
AcDbEntity
  8
0
  6
Continuous
 62
     7
370
    30
100
AcDbCircle
 10
236.7700180263
 20
128.5036968819
 30
0.0
 40
7.983435020734985
100
AcDbArc
 50
174.406604182
 51
186.5092185356
  0
SPLINE
  5
26B
330
1F
100
AcDbEntity
  8
0
  6
Continuous
 62
     7
370
    30
100
AcDbSpline
210
0.0
220
0.0
230
1.0
 70
     8
 71
     3
 72
     9
 73
     5
 74
     0
 42
0.000000001
 43
0.00000001
 40
0.0
 40
0.0
 40
0.0
 40
0.0
 40
0.4993867952804915
 40
1.0
 40
1.0
 40
1.0
 40
1.0
 10
229.3868860281867
 20
127.4629394126391
 30
0.0
 10
229.3053759905924
 20
127.4556805380773
 30
0.0
 10
229.1421557405485
 20
127.4411449623865
 30
0.0
 10
228.9394995523862
 20
127.5461188498256
 30
0.0
 10
228.8380471885739
 20
127.5986701640283
 30
0.0
  0
SPLINE
  5
26C
330
1F
100
AcDbEntity
  8
0
  6
Continuous
 62
     7
370
    30
100
AcDbSpline
210
0.0
220
0.0
230
1.0
 70
     8
 71
     3
 72
    12
 73
     8
 74
     0
 42
0.000000001
 43
0.00000001
 40
0.0
 40
0.0
 40
0.0
 40
0.0
 40
0.1252119614574862
 40
0.2503701830504159
 40
0.5002111660921569
 40
0.7499909910701877
 40
1.0
 40
1.0
 40
1.0
 40
1.0
 10
229.6792965728779
 20
128.0206363130427
 30
0.0
 10
229.6783772823544
 20
127.9842500755113
 30
0.0
 10
229.6765390958589
 20
127.9114932170991
 30
0.0
 10
229.6590980382694
 20
127.7784313700722
 30
0.0
 10
229.6146797171818
 20
127.6352621403987
 30
0.0
 10
229.5202301114551
 20
127.5155242755256
 30
0.0
 10
229.431347641971
 20
127.4804730579817
 30
0.0
 10
229.3868860281867
 20
127.4629394126391
 30
0.0
  0
SPLINE
  5
26D
330
1F
100
AcDbEntity
  8
0
  6
Continuous
 62
     7
370
    30
100
AcDbSpline
210
0.0
220
0.0
230
1.0
 70
     8
 71
     3
 72
    12
 73
     8
 74
     0
 42
0.000000001
 43
0.00000001
 40
0.0
 40
0.0
 40
0.0
 40
0.0
 40
0.1251878956766943
 40
0.250313957020115
 40
0.5000988041059797
 40
0.7499486098187328
 40
1.0
 40
1.0
 40
1.0
 40
1.0
 10
229.4124602495946
 20
128.9585426105137
 30
0.0
 10
229.4338580461145
 20
128.9210222486805
 30
0.0
 10
229.4766430700935
 20
128.8460000575292
 30
0.0
 10
229.5518704688244
 20
128.6890281996417
 30
0.0
 10
229.6238815149151
 20
128.4844822796505
 30
0.0
 10
229.6735173569269
 20
128.2406918767496
 30
0.0
 10
229.6773696497503
 20
128.0940078843176
 30
0.0
 10
229.6792965728779
 20
128.0206363130427
 30
0.0
  0
SPLINE
  5
26E
330
1F
100
AcDbEntity
  8
0
  6
Continuous
 62
     7
370
    30
100
AcDbSpline
210
0.0
220
0.0
230
1.0
 70
     8
 71
     3
 72
     9
 73
     5
 74
     0
 42
0.000000001
 43
0.00000001
 40
0.0
 40
0.0
 40
0.0
 40
0.0
 40
0.5000224920518695
 40
1.0
 40
1.0
 40
1.0
 40
1.0
 10
228.889004885326
 20
129.5051009791181
 30
0.0
 10
228.9871867928732
 20
129.4380369211113
 30
0.0
 10
229.1835417751146
 20
129.3039148384593
 30
0.0
 10
229.336156379845
 20
129.0736632339416
 30
0.0
 10
229.4124602495946
 20
128.9585426105137
 30
0.0
  0
SPLINE
  5
26F
330
1F
100
AcDbEntity
  8
0
  6
Continuous
 62
     7
370
    30
100
AcDbSpline
210
0.0
220
0.0
230
1.0
 70
     8
 71
     3
 72
    12
 73
     8
 74
     0
 42
0.000000001
 43
0.00000001
 40
0.0
 40
0.0
 40
0.0
 40
0.0
 40
0.2498436464884063
 40
0.3746959420947985
 40
0.5004738422822452
 40
0.7502750116689381
 40
1.0
 40
1.0
 40
1.0
 40
1.0
 10
227.9811492914937
 20
129.0067170389668
 30
0.0
 10
227.9927537315428
 20
129.1309839729186
 30
0.0
 10
228.0101571622798
 20
129.3173497922731
 30
0.0
 10
228.1309037592371
 20
129.4918707653495
 30
0.0
 10
228.2948128861637
 20
129.6022235461582
 30
0.0
 10
228.5535919687117
 20
129.6527154741699
 30
0.0
 10
228.7772119476317
 20
129.5543008078386
 30
0.0
 10
228.889004885326
 20
129.5051009791181
 30
0.0
  0
SPLINE
  5
270
330
1F
100
AcDbEntity
  8
0
  6
Continuous
 62
     7
370
    30
100
AcDbSpline
210
0.0
220
0.0
230
1.0
 70
     8
 71
     3
 72
    11
 73
     7
 74
     0
 42
0.000000001
 43
0.00000001
 40
0.0
 40
0.0
 40
0.0
 40
0.0
 40
0.2502198274574149
 40
0.5000266077159305
 40
0.7498333285897398
 40
1.0
 40
1.0
 40
1.0
 40
1.0
 10
228.47443190653
 20
127.8953314449519
 30
0.0
 10
228.4030473265898
 20
127.9776334205841
 30
0.0
 10
228.260396003897
 20
128.1421015129085
 30
0.0
 10
228.0973444937329
 20
128.4316604324837
 30
0.0
 10
227.9942291278124
 20
128.7298729272366
 30
0.0
 10
227.9855113290288
 20
128.9143913876878
 30
0.0
 10
227.9811492914937
 20
129.0067170389668
 30
0.0
  0
ARC
  5
271
330
1F
100
AcDbEntity
  8
0
  6
Continuous
 62
     7
370
    30
100
AcDbCircle
 10
234.2223093262
 20
126.7977146504
 30
0.0
 40
3.84794364233707
100
AcDbArc
 50
200.5176077078
 51
217.5188977069
  0
LINE
  5
272
330
1F
100
AcDbEntity
  8
0
  6
Continuous
 62
     7
370
    30
100
AcDbLine
 10
228.3733977981
 20
126.7450766908
 30
0.0
 11
230.6184618284
 21
125.4490288133
 31
0.0
  0
ARC
  5
273
330
1F
100
AcDbEntity
  8
0
  6
Continuous
 62
     7
370
    30
100
AcDbCircle
 10
231.9772452959
 20
128.093762528
 30
0.0
 40
3.84794364233551
100
AcDbArc
 50
200.5176077078
 51
217.5188977069
  0
LINE
  5
274
330
1F
100
AcDbEntity
  8
0
  6
Continuous
 62
     7
370
    30
100
AcDbLine
 10
229.155502111
 20
125.6173481079
 30
0.0
 11
228.9252391336
 21
125.7502760954
 31
0.0
  0
ARC
  5
275
330
1F
100
AcDbEntity
  8
0
  6
Continuous
 62
     7
370
    30
100
AcDbCircle
 10
232.1250213569
 20
127.9085314409
 30
0.0
 40
3.750675354704712
100
AcDbArc
 50
203.1136425639
 51
217.6525959869
  0
LINE
  5
276
330
1F
100
AcDbEntity
  8
0
  6
Continuous
 62
     7
370
    30
100
AcDbLine
 10
229.5389061818
 20
125.9377009158
 30
0.0
 11
228.6754200163
 21
126.4361808687
 31
0.0
  0
ARC
  5
277
330
1F
100
AcDbEntity
  8
0
  6
Continuous
 62
     7
370
    30
100
AcDbCircle
 10
232.9885075223
 20
127.410051488
 30
0.0
 40
3.750675354701616
100
AcDbArc
 50
203.1136425639
 51
217.6525959869
  0
LINE
  5
278
330
1F
100
AcDbEntity
  8
0
  6
Continuous
 62
     7
370
    30
100
AcDbLine
 10
230.249251254
 20
124.9859401676
 30
0.0
 11
230.0189882765
 21
125.1188681551
 31
0.0
  0
ARC
  5
279
330
1F
100
AcDbEntity
  8
0
  6
Continuous
 62
     7
370
    30
100
AcDbCircle
 10
233.2187704998
 20
127.2771235006
 30
0.0
 40
3.750675354704792
100
AcDbArc
 50
203.1136425639
 51
217.6525959869
  0
LINE
  5
27A
330
1F
100
AcDbEntity
  8
0
  6
Continuous
 62
     7
370
    30
100
AcDbLine
 10
230.4599580916
 20
125.405988966
 30
0.0
 11
229.7691691592
 21
125.8047729283
 31
0.0
  0
ARC
  5
27B
330
1F
100
AcDbEntity
  8
0
  6
Continuous
 62
     7
370
    30
100
AcDbCircle
 10
233.9095594322
 20
126.8783395382
 30
0.0
 40
3.750675354703066
100
AcDbArc
 50
203.1136425639
 51
217.6525959869
  0
LINE
  5
27C
330
1F
100
AcDbEntity
  8
0
  6
Continuous
 62
     7
370
    30
100
AcDbLine
 10
231.1703031638
 20
124.4542282179
 30
0.0
 11
230.9400401864
 21
124.5871562053
 31
0.0
  0
ARC
  5
27D
330
1F
100
AcDbEntity
  8
0
  6
Continuous
 62
     7
370
    30
100
AcDbCircle
 10
232.290109886
 20
127.0220991476
 30
0.0
 40
3.010571057132328
100
AcDbArc
 50
220.854337451
 51
234.5022614855
  0
LINE
  5
27E
330
1F
100
AcDbEntity
  8
0
  6
Continuous
 62
     7
370
    30
100
AcDbLine
 10
229.7827261274
 20
125.1856975441
 30
0.0
 11
230.0129891048
 21
125.0527695566
 31
0.0
  0
ARC
  5
27F
330
1F
100
AcDbEntity
  8
0
  6
Continuous
 62
     7
370
    30
100
AcDbCircle
 10
232.0598469086
 20
127.1550271351
 30
0.0
 40
3.010571057131148
100
AcDbArc
 50
220.854337451
 51
234.5022614855
  0
LINE
  5
280
330
1F
100
AcDbEntity
  8
0
  6
Continuous
 62
     7
370
    30
100
AcDbLine
 10
230.5419591161
 20
124.5710775288
 30
0.0
 11
230.3116961387
 21
124.7040055163
 31
0.0
  0
LINE
  5
281
330
1F
100
AcDbEntity
  8
0
  6
Continuous
 62
     7
370
    30
100
AcDbLine
 10
230.8529755871
 20
124.3774965
 30
0.0
 11
231.2883893324
 21
124.1255601835
 31
0.0
  0
LINE
  5
282
330
1F
100
AcDbEntity
  8
0
  6
Continuous
 62
     7
370
    30
100
AcDbLine
 10
230.5278049668
 20
124.5646539046
 30
0.0
 11
230.8529755871
 21
124.3774965
 31
0.0
  0
LWPOLYLINE
  5
283
330
1F
100
AcDbEntity
  8
0
  6
Continuous
 62
     7
370
    30
100
AcDbPolyline
 90
       19
 70
   128
 43
0.0
 10
192.5598718054
 20
160.0791635826
 10
192.3254541628
 20
160.179375076
 10
191.9732119668
 20
160.2278828146
 10
191.5868917527
 20
160.1776881877
 10
191.1796491923
 20
160.0305005129
 10
190.7653524423
 20
159.79133209
 10
190.3581098819
 20
159.4683275128
 10
189.9717896678
 20
159.0724863148
 10
189.6195474718
 20
158.6172883932
 10
189.3133784792
 20
158.1182349672
 10
189.063708908
 20
157.5923207028
 10
188.8790409558
 20
157.0574549795
 10
188.7656632685
 20
156.531852008
 10
188.727436787
 20
156.033410567
 10
188.7656632685
 20
155.579104482
 10
188.8790409558
 20
155.184404602
 10
189.063708908
 20
154.8627519578
 10
189.3133784792
 20
154.6251000445
 10
189.3851298292
 20
154.5797533065
  0
SPLINE
  5
284
330
1F
100
AcDbEntity
  8
0
  6
Continuous
 62
     7
370
    30
100
AcDbSpline
210
0.0
220
0.0
230
1.0
 70
     8
 71
     3
 72
     9
 73
     5
 74
     0
 42
0.000000001
 43
0.00000001
 40
0.0
 40
0.0
 40
0.0
 40
0.0
 40
0.4996167730441381
 40
1.0
 40
1.0
 40
1.0
 40
1.0
 10
231.4258919660892
 20
136.1742894257744
 30
0.0
 10
231.4770029511317
 20
136.1322314251272
 30
0.0
 10
231.579303329742
 20
136.0480509033426
 30
0.0
 10
231.6965038553616
 20
135.9812982570865
 30
0.0
 10
231.7551490325721
 20
135.9478963525451
 30
0.0
  0
LINE
  5
285
330
1F
100
AcDbEntity
  8
0
  6
Continuous
 62
     7
370
    30
100
AcDbLine
 10
231.7551490326
 20
135.9478963525
 30
0.0
 11
233.0746784455
 21
135.1861482367
 31
0.0
  0
SPLINE
  5
286
330
1F
100
AcDbEntity
  8
0
  6
Continuous
 62
     7
370
    30
100
AcDbSpline
210
0.0
220
0.0
230
1.0
 70
     8
 71
     3
 72
    13
 73
     9
 74
     0
 42
0.000000001
 43
0.00000001
 40
0.0
 40
0.0
 40
0.0
 40
0.0
 40
0.0393509663440154
 40
0.2318821771005205
 40
0.4243180500973895
 40
0.6164240287450448
 40
0.808165839002225
 40
1.0
 40
1.0
 40
1.0
 40
1.0
 10
231.1575732531133
 20
136.0560979313807
 30
0.0
 10
231.1484104567012
 20
136.0651306748196
 30
0.0
 10
231.0944171402017
 20
136.1183576323353
 30
0.0
 10
231.032851802686
 20
136.2478288064712
 30
0.0
 10
230.9974922976407
 20
136.4413224339866
 30
0.0
 10
231.0115090225236
 20
136.646330862712
 30
0.0
 10
231.0874235575211
 20
136.8513072236007
 30
0.0
 10
231.1788444989029
 20
136.9717026120171
 30
0.0
 10
231.2245659749647
 20
137.0319147995775
 30
0.0
  0
SPLINE
  5
287
330
1F
100
AcDbEntity
  8
0
  6
Continuous
 62
     7
370
    30
100
AcDbSpline
210
0.0
220
0.0
230
1.0
 70
     8
 71
     3
 72
    11
 73
     7
 74
     0
 42
0.000000001
 43
0.00000001
 40
0.0
 40
0.0
 40
0.0
 40
0.0
 40
0.2499289216070107
 40
0.499647887084449
 40
0.7495973681885647
 40
1.0
 40
1.0
 40
1.0
 40
1.0
 10
231.2245659749647
 20
137.0319147995775
 30
0.0
 10
231.2966012345583
 20
137.1078889385621
 30
0.0
 10
231.4406112395632
 20
137.2597733934407
 30
0.0
 10
231.7259497321592
 20
137.4152728181778
 30
0.0
 10
232.0408012588379
 20
137.4977355681427
 30
0.0
 10
232.23560922517
 20
137.4708187326228
 30
0.0
 10
232.3331014235804
 20
137.4573481260634
 30
0.0
  0
LINE
  5
288
330
1F
100
AcDbEntity
  8
0
  6
Continuous
 62
     7
370
    30
100
AcDbLine
 10
232.3331014236
 20
137.4573481261
 30
0.0
 11
232.843399133
 21
137.2220662495
 31
0.0
  0
LINE
  5
289
330
1F
100
AcDbEntity
  8
0
  6
Continuous
 62
     7
370
    30
100
AcDbLine
 10
232.843399133
 20
137.2220662495
 30
0.0
 11
234.1719239569
 21
136.4551251935
 31
0.0
  0
SPLINE
  5
28A
330
1F
100
AcDbEntity
  8
0
  6
Continuous
 62
     7
370
    30
100
AcDbSpline
210
0.0
220
0.0
230
1.0
 70
     8
 71
     3
 72
     9
 73
     5
 74
     0
 42
0.000000001
 43
0.00000001
 40
0.0
 40
0.0
 40
0.0
 40
0.0
 40
0.121157396270935
 40
1.0
 40
1.0
 40
1.0
 40
1.0
 10
230.4695181059072
 20
133.2500249573896
 30
0.0
 10
230.4544681620463
 20
133.2538197489471
 30
0.0
 10
230.3302500431021
 20
133.2851409202029
 30
0.0
 10
230.2181922076072
 20
133.3511022435169
 30
0.0
 10
230.1197110076926
 20
133.4090718646436
 30
0.0
  0
LINE
  5
28B
330
1F
100
AcDbEntity
  8
0
  6
Continuous
 62
     7
370
    30
100
AcDbLine
 10
230.1197110077
 20
133.4090718646
 30
0.0
 11
229.2818595877
 21
133.8927531939
 31
0.0
  0
ARC
  5
28C
330
1F
100
AcDbEntity
  8
0
  6
Continuous
 62
     7
370
    30
100
AcDbCircle
 10
242.4587334166
 20
127.596486779
 30
0.0
 40
14.60386848298928
100
AcDbArc
 50
153.3540207492
 51
154.4602684139
  0
LINE
  5
28D
330
1F
100
AcDbEntity
  8
0
  6
Continuous
 62
     7
370
    30
100
AcDbLine
 10
230.51310978
 20
133.5400555406
 30
0.0
 11
230.5659071106
 21
133.5148121232
 31
0.0
  0
SPLINE
  5
28E
330
1F
100
AcDbEntity
  8
0
  6
Continuous
 62
     7
370
    30
100
AcDbSpline
210
0.0
220
0.0
230
1.0
 70
     8
 71
     3
 72
    13
 73
     9
 74
     0
 42
0.000000001
 43
0.00000001
 40
0.0
 40
0.0
 40
0.0
 40
0.0
 40
0.2505458866420949
 40
0.3778019983016221
 40
0.5010870033758142
 40
0.7499736347707378
 40
0.8749471572160147
 40
0.9999999999999999
 40
0.9999999999999999
 40
0.9999999999999999
 40
0.9999999999999999
 10
230.5659071105917
 20
133.5148121232032
 30
0.0
 10
230.6215742459655
 20
133.5052077926983
 30
0.0
 10
230.7055155760978
 20
133.4907252749217
 30
0.0
 10
230.8216588854511
 20
133.5167364507012
 30
0.0
 10
230.9339816287125
 20
133.5673524852777
 30
0.0
 10
231.0339286953501
 20
133.6568237623015
 30
0.0
 10
231.1153573432843
 20
133.7648031773048
 30
0.0
 10
231.1498584002753
 20
133.8238021888411
 30
0.0
 10
231.1671144014647
 20
133.8533110532654
 30
0.0
  0
SPLINE
  5
28F
330
1F
100
AcDbEntity
  8
0
  6
Continuous
 62
     7
370
    30
100
AcDbSpline
210
0.0
220
0.0
230
1.0
 70
     8
 71
     3
 72
    11
 73
     7
 74
     0
 42
0.000000001
 43
0.00000001
 40
0.0
 40
0.0
 40
0.0
 40
0.0
 40
0.2493258462680852
 40
0.4990539966945429
 40
0.7493880339208445
 40
1.0
 40
1.0
 40
1.0
 40
1.0
 10
231.1671144014647
 20
133.8533110532654
 30
0.0
 10
231.205265829705
 20
133.9344527361974
 30
0.0
 10
231.2816302461018
 20
134.0968670296685
 30
0.0
 10
231.3002267966055
 20
134.355269550791
 30
0.0
 10
231.2616383325301
 20
134.5969134893053
 30
0.0
 10
231.1752099717097
 20
134.7184206946339
 30
0.0
 10
231.1319718157263
 20
134.7792080038834
 30
0.0
  0
LINE
  5
290
330
1F
100
AcDbEntity
  8
0
  6
Continuous
 62
     7
370
    30
100
AcDbLine
 10
231.1319718157
 20
134.7792080039
 30
0.0
 11
231.0168513095
 21
134.8595402587
 31
0.0
  0
ARC
  5
291
330
1F
100
AcDbEntity
  8
0
  6
Continuous
 62
     7
370
    30
100
AcDbCircle
 10
242.5470769776
 20
127.5602078001
 30
0.0
 40
14.69868264334676
100
AcDbArc
 50
146.6067951716
 51
147.7082803363
  0
LINE
  5
292
330
1F
100
AcDbEntity
  8
0
  6
Continuous
 62
     7
370
    30
100
AcDbLine
 10
230.2749536484
 20
135.650094106
 30
0.0
 11
231.8904443695
 21
134.7174911637
 31
0.0
  0
SPLINE
  5
293
330
1F
100
AcDbEntity
  8
0
  6
Continuous
 62
     7
370
    30
100
AcDbSpline
210
0.0
220
0.0
230
1.0
 70
     8
 71
     3
 72
     9
 73
     5
 74
     0
 42
0.000000001
 43
0.00000001
 40
0.0
 40
0.0
 40
0.0
 40
0.0
 40
0.4995313394397086
 40
1.0
 40
1.0
 40
1.0
 40
1.0
 10
231.1173062504544
 20
131.7110573825204
 30
0.0
 10
231.1040082332403
 20
131.7118250553244
 30
0.0
 10
231.0773872463987
 20
131.7133618413943
 30
0.0
 10
231.0529708305185
 20
131.7255305247166
 30
0.0
 10
231.0407511795673
 20
131.7316205693597
 30
0.0
  0
SPLINE
  5
294
330
1F
100
AcDbEntity
  8
0
  6
Continuous
 62
     7
370
    30
100
AcDbSpline
210
0.0
220
0.0
230
1.0
 70
     8
 71
     3
 72
    13
 73
     9
 74
     0
 42
0.000000001
 43
0.00000001
 40
0.0
 40
0.0
 40
0.0
 40
0.0
 40
0.2497637253598494
 40
0.3716048035455423
 40
0.5005185612727435
 40
0.7498768884903322
 40
0.8748767165648479
 40
1.0
 40
1.0
 40
1.0
 40
1.0
 10
231.0407511795673
 20
131.7316205693597
 30
0.0
 10
231.0185995609522
 20
131.7489722213634
 30
0.0
 10
230.985641821105
 20
131.7747884491793
 30
0.0
 10
230.9587282871712
 20
131.830982989884
 30
0.0
 10
230.9414132920175
 20
131.8921595312083
 30
0.0
 10
230.9370226161505
 20
131.9597143522872
 30
0.0
 10
230.9492380879564
 20
132.0251311870893
 30
0.0
 10
230.9606460961748
 20
132.0558453220637
 30
0.0
 10
230.9663529156572
 20
132.0712099694674
 30
0.0
  0
SPLINE
  5
295
330
1F
100
AcDbEntity
  8
0
  6
Continuous
 62
     7
370
    30
100
AcDbSpline
210
0.0
220
0.0
230
1.0
 70
     8
 71
     3
 72
    12
 73
     8
 74
     0
 42
0.000000001
 43
0.00000001
 40
0.0
 40
0.0
 40
0.0
 40
0.0
 40
0.2492361082992017
 40
0.4987901705447531
 40
0.7485257865860548
 40
0.8741389114470212
 40
1.0
 40
1.0
 40
1.0
 40
1.0
 10
230.9663529156572
 20
132.0712099694674
 30
0.0
 10
230.981080236001
 20
132.0999563520782
 30
0.0
 10
231.0105536645347
 20
132.1574857894573
 30
0.0
 10
231.0827629755925
 20
132.2124958964559
 30
0.0
 10
231.1497628432421
 20
132.2324598765863
 30
0.0
 10
231.203054505521
 20
132.2268759099694
 30
0.0
 10
231.2272981643009
 20
132.2152367329436
 30
0.0
 10
231.2394319463023
 20
132.2094114060823
 30
0.0
  0
LINE
  5
296
330
1F
100
AcDbEntity
  8
0
  6
Continuous
 62
     7
370
    30
100
AcDbLine
 10
231.010295784
 20
131.7347756079
 30
0.0
 11
231.0407511796
 21
131.7316205694
 31
0.0
  0
LINE
  5
297
330
1F
100
AcDbEntity
  8
0
  6
Continuous
 62
     7
370
    30
100
AcDbLine
 10
230.9364671078
 20
132.07577093
 30
0.0
 11
230.9663529157
 21
132.0712099695
 31
0.0
  0
LINE
  5
298
330
1F
100
AcDbEntity
  8
0
  6
Continuous
 62
     7
370
    30
100
AcDbLine
 10
231.2101384266
 20
132.2153605431
 30
0.0
 11
231.2394319463
 21
132.2094114061
 31
0.0
  0
LINE
  5
299
330
1F
100
AcDbEntity
  8
0
  6
Continuous
 62
     7
370
    30
100
AcDbLine
 10
230.0915885031
 20
133.4175804236
 30
0.0
 11
230.1197110077
 21
133.4090718646
 31
0.0
  0
LINE
  5
29A
330
1F
100
AcDbEntity
  8
0
  6
Continuous
 62
     7
370
    30
100
AcDbLine
 10
231.7362275511
 20
135.9714613602
 30
0.0
 11
231.7551490326
 21
135.9478963525
 31
0.0
  0
LINE
  5
29B
330
1F
100
AcDbEntity
  8
0
  6
Continuous
 62
     7
370
    30
100
AcDbLine
 10
231.1086249089
 20
134.7963895044
 30
0.0
 11
231.1319718157
 21
134.7792080039
 31
0.0
  0
LINE
  5
29C
330
1F
100
AcDbEntity
  8
0
  6
Continuous
 62
     7
370
    30
100
AcDbLine
 10
231.1414324134
 20
133.8665446051
 30
0.0
 11
231.1671144015
 21
133.8533110533
 31
0.0
  0
LINE
  5
29D
330
1F
100
AcDbEntity
  8
0
  6
Continuous
 62
     7
370
    30
100
AcDbLine
 10
229.4521774298
 20
129.6733067503
 30
0.0
 11
229.383210463
 21
129.9436198392
 31
0.0
  0
SPLINE
  5
29E
330
1F
100
AcDbEntity
  8
0
  6
Continuous
 62
     7
370
    30
100
AcDbSpline
210
0.0
220
0.0
230
1.0
 70
     8
 71
     3
 72
    12
 73
     8
 74
     0
 42
0.000000001
 43
0.00000001
 40
0.0
 40
0.0
 40
0.0
 40
0.0
 40
0.2503849153197164
 40
0.5002694321463742
 40
0.7499357848285905
 40
0.874948762454809
 40
0.9999999999999999
 40
0.9999999999999999
 40
0.9999999999999999
 40
0.9999999999999999
 10
229.383210463015
 20
129.9436198391968
 30
0.0
 10
229.4355015608207
 20
129.9652321269751
 30
0.0
 10
229.5399792517877
 20
130.0084135100085
 30
0.0
 10
229.671116113096
 20
130.1395722845526
 30
0.0
 10
229.7538711259422
 20
130.2878787214193
 30
0.0
 10
229.8046550897762
 20
130.4223821115168
 30
0.0
 10
229.8242729931508
 20
130.4945282603079
 30
0.0
 10
229.8340834456114
 20
130.5306068538974
 30
0.0
  0
SPLINE
  5
29F
330
1F
100
AcDbEntity
  8
0
  6
Continuous
 62
     7
370
    30
100
AcDbSpline
210
0.0
220
0.0
230
1.0
 70
     8
 71
     3
 72
    15
 73
    11
 74
     0
 42
0.000000001
 43
0.00000001
 40
0.0
 40
0.0
 40
0.0
 40
0.0
 40
0.2488108393315902
 40
0.3736796421679528
 40
0.4986815326400353
 40
0.6238352538912125
 40
0.749047349527841
 40
0.8743627802287453
 40
0.9371685783147405
 40
1.0
 40
1.0
 40
1.0
 40
1.0
 10
229.8340834456114
 20
130.5306068538974
 30
0.0
 10
229.8568082437961
 20
130.6478028310991
 30
0.0
 10
229.8909377635422
 20
130.8238150616832
 30
0.0
 10
229.8741498870014
 20
131.0742990758324
 30
0.0
 10
229.8377035912529
 20
131.2575291638792
 30
0.0
 10
229.7766189264183
 20
131.4304056758635
 30
0.0
 10
229.692049335563
 20
131.5860497283618
 30
0.0
 10
229.6003801005091
 20
131.6910373397981
 30
0.0
 10
229.5186488718859
 20
131.7590174290611
 30
0.0
 10
229.4748938190249
 20
131.7861163954592
 30
0.0
 10
229.4530118306923
 20
131.7996686420633
 30
0.0
  0
LINE
  5
2A0
330
1F
100
AcDbEntity
  8
0
  6
Continuous
 62
     7
370
    30
100
AcDbLine
 10
229.4530118307
 20
131.7996686421
 30
0.0
 11
229.1704215199
 21
131.8778226525
 31
0.0
  0
SPLINE
  5
2A1
330
1F
100
AcDbEntity
  8
0
  6
Continuous
 62
     7
370
    30
100
AcDbSpline
210
0.0
220
0.0
230
1.0
 70
     8
 71
     3
 72
    11
 73
     7
 74
     0
 42
0.000000001
 43
0.00000001
 40
0.0
 40
0.0
 40
0.0
 40
0.0
 40
0.2502881014520232
 40
0.500287682066685
 40
0.7500954941480031
 40
0.9999999999999999
 40
0.9999999999999999
 40
0.9999999999999999
 40
0.9999999999999999
 10
228.5171838161867
 20
130.213067074335
 30
0.0
 10
228.4675094389371
 20
130.3040385376307
 30
0.0
 10
228.3682179468198
 20
130.4858765964212
 30
0.0
 10
228.2948737412155
 20
130.7960982734411
 30
0.0
 10
228.2794365757497
 20
131.1066173046132
 30
0.0
 10
228.3184426479167
 20
131.3001442138386
 30
0.0
 10
228.3379494578157
 20
131.3969263920707
 30
0.0
  0
SPLINE
  5
2A2
330
1F
100
AcDbEntity
  8
0
  6
Continuous
 62
     7
370
    30
100
AcDbSpline
210
0.0
220
0.0
230
1.0
 70
     8
 71
     3
 72
    12
 73
     8
 74
     0
 42
0.000000001
 43
0.00000001
 40
0.0
 40
0.0
 40
0.0
 40
0.0
 40
0.3320917518949993
 40
0.4979969969677205
 40
0.665689077539664
 40
0.8320474172364757
 40
1.0
 40
1.0
 40
1.0
 40
1.0
 10
228.3379494578157
 20
131.3969263920707
 30
0.0
 10
228.3854007053597
 20
131.5380642546083
 30
0.0
 10
228.4565574824986
 20
131.7497112807722
 30
0.0
 10
228.6364602563499
 20
131.9591857288161
 30
0.0
 10
228.7950585011124
 20
132.0756845787395
 30
0.0
 10
228.9717686633793
 20
132.1555636371426
 30
0.0
 10
229.0966176242543
 20
132.166740042478
 30
0.0
 10
229.1593397910324
 20
132.1723548938513
 30
0.0
  0
LINE
  5
2A3
330
1F
100
AcDbEntity
  8
0
  6
Continuous
 62
     7
370
    30
100
AcDbLine
 10
230.5385976404
 20
133.5249760279
 30
0.0
 11
230.5659071106
 21
133.5148121232
 31
0.0
  0
LINE
  5
2A4
330
1F
100
AcDbEntity
  8
0
  6
Continuous
 62
     7
370
    30
100
AcDbLine
 10
230.2526387114
 20
135.6688795124
 30
0.0
 11
230.2749536484
 21
135.650094106
 31
0.0
  0
LINE
  5
2A5
330
1F
100
AcDbEntity
  8
0
  6
Continuous
 62
     7
370
    30
100
AcDbLine
 10
230.5419599788
 20
132.1555467432
 30
0.0
 11
228.9270613304
 21
133.0878078892
 31
0.0
  0
ARC
  5
2A6
330
1F
100
AcDbEntity
  8
0
  6
Continuous
 62
     7
370
    30
100
AcDbCircle
 10
241.9961724965
 20
127.8041481164
 30
0.0
 40
14.09676300676203
100
AcDbArc
 50
156.8545797754
 51
157.9872017298
  0
LINE
  5
2A7
330
1F
100
AcDbEntity
  8
0
  6
Continuous
 62
     7
370
    30
100
AcDbLine
 10
232.8309048076
 20
137.2530461045
 30
0.0
 11
232.843399133
 21
137.2220662495
 31
0.0
  0
LINE
  5
2A8
330
1F
100
AcDbEntity
  8
0
  6
Continuous
 62
     7
370
    30
100
AcDbLine
 10
228.8968639822
 20
133.0916091656
 30
0.0
 11
228.9270613304
 21
133.0878078892
 31
0.0
  0
LINE
  5
2A9
330
1F
100
AcDbEntity
  8
0
  6
Continuous
 62
     7
370
    30
100
AcDbLine
 10
229.4210667709
 20
131.7987214563
 30
0.0
 11
229.4530118307
 21
131.7996686421
 31
0.0
  0
LINE
  5
2AA
330
1F
100
AcDbEntity
  8
0
  6
Continuous
 62
     7
370
    30
100
AcDbLine
 10
229.8006059549
 20
130.524409387
 30
0.0
 11
229.8340834456
 21
130.5306068539
 31
0.0
  0
LINE
  5
2AB
330
1F
100
AcDbEntity
  8
0
  6
Continuous
 62
     7
370
    30
100
AcDbLine
 10
231.2081409682
 20
137.0585866896
 30
0.0
 11
231.224565975
 21
137.0319147996
 31
0.0
  0
LINE
  5
2AC
330
1F
100
AcDbEntity
  8
0
  6
Continuous
 62
     7
370
    30
100
AcDbLine
 10
229.4175369862
 20
129.6614778947
 30
0.0
 11
229.4521774298
 21
129.6733067503
 31
0.0
  0
LINE
  5
2AD
330
1F
100
AcDbEntity
  8
0
  6
Continuous
 62
     7
370
    30
100
AcDbLine
 10
229.2537370832
 20
133.9012617529
 30
0.0
 11
229.2818595877
 21
133.8927531939
 31
0.0
  0
LINE
  5
2AE
330
1F
100
AcDbEntity
  8
0
  6
Continuous
 62
     7
370
    30
100
AcDbLine
 10
228.3044753318
 20
131.3907423031
 30
0.0
 11
228.3379494578
 21
131.3969263921
 31
0.0
  0
LINE
  5
2AF
330
1F
100
AcDbEntity
  8
0
  6
Continuous
 62
     7
370
    30
100
AcDbLine
 10
229.3487794971
 20
129.9330180039
 30
0.0
 11
229.383210463
 21
129.9436198392
 31
0.0
  0
LINE
  5
2B0
330
1F
100
AcDbEntity
  8
0
  6
Continuous
 62
     7
370
    30
100
AcDbLine
 10
231.4070832655
 20
136.1980017067
 30
0.0
 11
231.4258919661
 21
136.1742894258
 31
0.0
  0
LINE
  5
2B1
330
1F
100
AcDbEntity
  8
0
  6
Continuous
 62
     7
370
    30
100
AcDbLine
 10
232.3203896756
 20
137.4881066735
 30
0.0
 11
232.3331014236
 21
137.4573481261
 31
0.0
  0
SPLINE
  5
2B2
330
1F
100
AcDbEntity
  8
0
  6
Continuous
 62
     7
370
    30
100
AcDbSpline
210
0.0
220
0.0
230
1.0
 70
     8
 71
     3
 72
    11
 73
     7
 74
     0
 42
0.000000001
 43
0.00000001
 40
0.0
 40
0.0
 40
0.0
 40
0.0
 40
0.250761184934339
 40
0.5007027724523
 40
0.7502676002891582
 40
0.9999999999999999
 40
0.9999999999999999
 40
0.9999999999999999
 40
0.9999999999999999
 10
228.5095509390766
 20
127.9203176764574
 30
0.0
 10
228.4382120769347
 20
128.0023327573581
 30
0.0
 10
228.2957675193073
 20
128.1660948579424
 30
0.0
 10
228.1327288997877
 20
128.4544672329059
 30
0.0
 10
228.0295941376024
 20
128.7513772660474
 30
0.0
 10
228.0208678354493
 20
128.9349463791281
 30
0.0
 10
228.0165032200317
 20
129.0267617399856
 30
0.0
  0
SPLINE
  5
2B3
330
1F
100
AcDbEntity
  8
0
  6
Continuous
 62
     7
370
    30
100
AcDbSpline
210
0.0
220
0.0
230
1.0
 70
     8
 71
     3
 72
    10
 73
     6
 74
     0
 42
0.000000001
 43
0.00000001
 40
0.0
 40
0.0
 40
0.0
 40
0.0
 40
0.4989499473322815
 40
0.7486813122350469
 40
1.0
 40
1.0
 40
1.0
 40
1.0
 10
228.0165032200317
 20
129.0267617399856
 30
0.0
 10
228.0283088569441
 20
129.149925630682
 30
0.0
 10
228.0460233787765
 20
129.3347347559253
 30
0.0
 10
228.1651357488992
 20
129.5101106533585
 30
0.0
 10
228.2500526668905
 20
129.5598043974808
 30
0.0
 10
228.2926456339703
 20
129.5847299842489
 30
0.0
  0
ARC
  5
2B4
330
1F
100
AcDbEntity
  8
0
  6
Continuous
 62
     7
370
    30
100
AcDbCircle
 10
236.7589594646
 20
128.5239611888
 30
0.0
 40
7.937019700840898
100
AcDbArc
 50
174.406604182
 51
186.5092185356
  0
SPLINE
  5
2B5
330
1F
100
AcDbEntity
  8
0
  6
Continuous
 62
     7
370
    30
100
AcDbSpline
210
0.0
220
0.0
230
1.0
 70
     8
 71
     3
 72
    10
 73
     6
 74
     0
 42
0.000000001
 43
0.00000001
 40
0.0
 40
0.0
 40
0.0
 40
0.0
 40
0.4994968338130745
 40
0.7498557508204656
 40
1.0
 40
1.0
 40
1.0
 40
1.0
 10
228.8597307620855
 20
129.2975680893551
 30
0.0
 10
228.7797564150121
 20
129.3331329500806
 30
0.0
 10
228.6596971473421
 20
129.3865237096146
 30
0.0
 10
228.5092999736578
 20
129.3825453788862
 30
0.0
 10
228.4452573446727
 20
129.3544509357233
 30
0.0
 10
228.4132497642511
 20
129.3404097390519
 30
0.0
  0
SPLINE
  5
2B6
330
1F
100
AcDbEntity
  8
0
  6
Continuous
 62
     7
370
    30
100
AcDbSpline
210
0.0
220
0.0
230
1.0
 70
     8
 71
     3
 72
     9
 73
     5
 74
     0
 42
0.000000001
 43
0.00000001
 40
0.0
 40
0.0
 40
0.0
 40
0.0
 40
0.4998252396149189
 40
1.0
 40
1.0
 40
1.0
 40
1.0
 10
229.5130958936872
 20
128.1451082766991
 30
0.0
 10
229.5086259332686
 20
128.238483550465
 30
0.0
 10
229.499682886651
 20
128.4252993940144
 30
0.0
 10
229.4176274889122
 20
128.6275515559169
 30
0.0
 10
229.3765854500099
 20
128.7287129825338
 30
0.0
  0
SPLINE
  5
2B7
330
1F
100
AcDbEntity
  8
0
  6
Continuous
 62
     7
370
    30
100
AcDbSpline
210
0.0
220
0.0
230
1.0
 70
     8
 71
     3
 72
     9
 73
     5
 74
     0
 42
0.000000001
 43
0.00000001
 40
0.0
 40
0.0
 40
0.0
 40
0.0
 40
0.4987802899469943
 40
1.0
 40
1.0
 40
1.0
 40
1.0
 10
229.3765854500099
 20
128.7287129825338
 30
0.0
 10
229.3313606196491
 20
128.8098563321946
 30
0.0
 10
229.240689774645
 20
128.9725398850461
 30
0.0
 10
229.1196008621771
 20
129.094618268346
 30
0.0
 10
229.0589087125792
 20
129.1558063602272
 30
0.0
  0
SPLINE
  5
2B8
330
1F
100
AcDbEntity
  8
0
  6
Continuous
 62
     7
370
    30
100
AcDbSpline
210
0.0
220
0.0
230
1.0
 70
     8
 71
     3
 72
    10
 73
     6
 74
     0
 42
0.000000001
 43
0.00000001
 40
0.0
 40
0.0
 40
0.0
 40
0.0
 40
0.1326266542546446
 40
0.5665605014690615
 40
1.0
 40
1.0
 40
1.0
 40
1.0
 10
229.3530793127627
 20
127.733686149992
 30
0.0
 10
229.3670058768472
 20
127.7426375747218
 30
0.0
 10
229.4264979991192
 20
127.7808766731318
 30
0.0
 10
229.4938649765646
 20
127.9103638702729
 30
0.0
 10
229.5066880240919
 20
128.0668898779095
 30
0.0
 10
229.5130958936872
 20
128.1451082766991
 30
0.0
  0
ARC
  5
2B9
330
1F
100
AcDbEntity
  8
0
  6
Continuous
 62
     7
370
    30
100
AcDbCircle
 10
237.1552711709
 20
128.380509354
 30
0.0
 40
8.166895526011862
100
AcDbArc
 50
174.6645804196
 51
184.7771553921
  0
SPLINE
  5
2BA
330
1F
100
AcDbEntity
  8
0
  6
Continuous
 62
     7
370
    30
100
AcDbSpline
210
0.0
220
0.0
230
1.0
 70
     8
 71
     3
 72
     9
 73
     5
 74
     0
 42
0.000000001
 43
0.00000001
 40
0.0
 40
0.0
 40
0.0
 40
0.0
 40
0.4991324330921279
 40
1.0
 40
1.0
 40
1.0
 40
1.0
 10
229.3413319972011
 20
128.7114588746103
 30
0.0
 10
229.2961508704008
 20
128.792891342382
 30
0.0
 10
229.2056315536728
 20
128.9560393615704
 30
0.0
 10
229.0844535988437
 20
129.0785537552088
 30
0.0
 10
229.0237594914455
 20
129.1399172414616
 30
0.0
  0
SPLINE
  5
2BB
330
1F
100
AcDbEntity
  8
0
  6
Continuous
 62
     7
370
    30
100
AcDbSpline
210
0.0
220
0.0
230
1.0
 70
     8
 71
     3
 72
     9
 73
     5
 74
     0
 42
0.000000001
 43
0.00000001
 40
0.0
 40
0.0
 40
0.0
 40
0.0
 40
0.5001661762310656
 40
1.0
 40
1.0
 40
1.0
 40
1.0
 10
229.4777412828107
 20
128.1249605257099
 30
0.0
 10
229.4732953645262
 20
128.2188270732029
 30
0.0
 10
229.4644064821989
 20
128.4064977953622
 30
0.0
 10
229.3823477347247
 20
128.6098277072599
 30
0.0
 10
229.3413319972011
 20
128.7114588746103
 30
0.0
  0
SPLINE
  5
2BC
330
1F
100
AcDbEntity
  8
0
  6
Continuous
 62
     7
370
    30
100
AcDbSpline
210
0.0
220
0.0
230
1.0
 70
     8
 71
     3
 72
    12
 73
     8
 74
     0
 42
0.000000001
 43
0.00000001
 40
0.0
 40
0.0
 40
0.0
 40
0.0
 40
0.2500193341512071
 40
0.3743335232349218
 40
0.5003841924907148
 40
0.7502021125590658
 40
1.0
 40
1.0
 40
1.0
 40
1.0
 10
229.0167462676962
 20
127.7003660362413
 30
0.0
 10
229.0837723054866
 20
127.6841090201971
 30
0.0
 10
229.1841249160545
 20
127.6597687182209
 30
0.0
 10
229.2944250659567
 20
127.6869352616503
 30
0.0
 10
229.3823905949254
 20
127.7521645456811
 30
0.0
 10
229.4594903673594
 20
127.8872818129737
 30
0.0
 10
229.4716578069491
 20
128.045736405933
 30
0.0
 10
229.4777412828107
 20
128.1249605257099
 30
0.0
  0
LINE
  5
2BD
330
1F
100
AcDbEntity
  8
0
  6
Continuous
 62
     7
370
    30
100
AcDbLine
 10
229.0589087126
 20
129.1558063602
 30
0.0
 11
229.0237594914
 21
129.1399172415
 31
0.0
  0
LINE
  5
2BE
330
1F
100
AcDbEntity
  8
0
  6
Continuous
 62
     7
370
    30
100
AcDbLine
 10
229.37658545
 20
128.7287129825
 30
0.0
 11
229.3413319972
 21
128.7114588746
 31
0.0
  0
LINE
  5
2BF
330
1F
100
AcDbEntity
  8
0
  6
Continuous
 62
     7
370
    30
100
AcDbLine
 10
229.5130958937
 20
128.1451082767
 30
0.0
 11
229.4777412828
 21
128.1249605257
 31
0.0
  0
LINE
  5
2C0
330
1F
100
AcDbEntity
  8
0
  6
Continuous
 62
     7
370
    30
100
AcDbLine
 10
229.3868860282
 20
127.4629394126
 30
0.0
 11
229.422062892
 21
127.4873436744
 31
0.0
  0
LINE
  5
2C1
330
1F
100
AcDbEntity
  8
0
  6
Continuous
 62
     7
370
    30
100
AcDbLine
 10
227.9811492915
 20
129.006717039
 30
0.0
 11
228.01650322
 21
129.02676174
 31
0.0
  0
LINE
  5
2C2
330
1F
100
AcDbEntity
  8
0
  6
Continuous
 62
     7
370
    30
100
AcDbLine
 10
228.8245950038
 20
129.2818277995
 30
0.0
 11
228.8597307621
 21
129.2975680894
 31
0.0
  0
LINE
  5
2C3
330
1F
100
AcDbEntity
  8
0
  6
Continuous
 62
     7
370
    30
100
AcDbLine
 10
228.8380471886
 20
127.598670164
 30
0.0
 11
228.8731047364
 21
127.6241962541
 31
0.0
  0
LINE
  5
2C4
330
1F
100
AcDbEntity
  8
0
  6
Continuous
 62
     7
370
    30
100
AcDbLine
 10
231.0957812477
 20
124.5534670188
 30
0.0
 11
230.9700725628
 21
124.6260370979
 31
0.0
  0
ARC
  5
2C5
330
1F
100
AcDbEntity
  8
0
  6
Continuous
 62
     7
370
    30
100
AcDbCircle
 10
233.9223271618
 20
126.9038995975
 30
0.0
 40
3.728869102639656
100
AcDbArc
 50
203.1136425639
 51
217.6525959869
  0
LINE
  5
2C6
330
1F
100
AcDbEntity
  8
0
  6
Continuous
 62
     7
370
    30
100
AcDbLine
 10
230.492781643
 20
125.440109203
 30
0.0
 11
229.8019927106
 21
125.8388931653
 31
0.0
  0
LINE
  5
2C7
330
1F
100
AcDbEntity
  8
0
  6
Continuous
 62
     7
370
    30
100
AcDbLine
 10
230.1747293378
 20
125.0851789685
 30
0.0
 11
230.0490206529
 21
125.1577490476
 31
0.0
  0
ARC
  5
2C8
330
1F
100
AcDbEntity
  8
0
  6
Continuous
 62
     7
370
    30
100
AcDbCircle
 10
233.001275252
 20
127.4356115472
 30
0.0
 40
3.728869102642558
100
AcDbArc
 50
203.1136425639
 51
217.6525959869
  0
LINE
  5
2C9
330
1F
100
AcDbEntity
  8
0
  6
Continuous
 62
     7
370
    30
100
AcDbLine
 10
229.5717297331
 20
125.9718211528
 30
0.0
 11
228.7082435676
 21
126.4703011056
 31
0.0
  0
LINE
  5
2CA
330
1F
100
AcDbEntity
  8
0
  6
Continuous
 62
     7
370
    30
100
AcDbLine
 10
229.0809801949
 20
125.7165869089
 30
0.0
 11
228.95527151
 21
125.7891569879
 31
0.0
  0
ARC
  5
2CB
330
1F
100
AcDbEntity
  8
0
  6
Continuous
 62
     7
370
    30
100
AcDbCircle
 10
231.9683445017
 20
128.1050794786
 30
0.0
 40
3.800277073580042
100
AcDbArc
 50
201.5275997338
 51
217.5467714172
  0
LWPOLYLINE
  5
2CC
330
1F
100
AcDbEntity
  8
0
  6
Continuous
 62
     7
370
    30
100
AcDbPolyline
 90
       27
 70
   128
 43
0.0
 10
226.0662393146
 20
145.6680564878
 10
225.884021543
 20
145.7208005503
 10
225.3526982741
 20
145.8014088486
 10
224.7854327097
 20
145.7859826367
 10
224.1901880149
 20
145.6747384648
 10
223.5753201204
 20
145.4692379571
 10
222.9494604236
 20
145.1723658903
 10
222.3213946228
 20
144.7882896976
 10
221.699939385
 20
144.3224009667
 10
221.0938185796
 20
143.7812397542
 10
220.5115408141
 20
143.1724027773
 10
219.9612799918
 20
142.5044367725
 10
219.4507605686
 20
141.7867185184
 10
218.9871491181
 20
141.0293232059
 10
218.5769537288
 20
140.2428830051
 10
218.2259326449
 20
139.4384378124
 10
217.9390134327
 20
138.627280275
 10
217.7202238093
 20
137.8207972666
 10
217.5726351013
 20
137.0303100409
 10
217.4983191306
 20
136.2669153058
 10
217.4983191306
 20
135.5413294498
 10
217.5726351013
 20
134.863738108
 10
217.7202238093
 20
134.2436531775
 10
217.9390134327
 20
133.6897792914
 10
218.2259326449
 20
133.209891625
 10
218.5769537288
 20
132.8107267493
 10
218.620745077
 20
132.7706847238
  0
LINE
  5
2CD
330
1F
100
AcDbEntity
  8
0
  6
Continuous
 62
     7
370
    30
100
AcDbLine
 10
229.7691691592
 20
125.8047729283
 30
0.0
 11
229.8019927106
 21
125.8388931653
 31
0.0
  0
LINE
  5
2CE
330
1F
100
AcDbEntity
  8
0
  6
Continuous
 62
     7
370
    30
100
AcDbLine
 10
230.4599580916
 20
125.405988966
 30
0.0
 11
230.492781643
 21
125.440109203
 31
0.0
  0
LINE
  5
2CF
330
1F
100
AcDbEntity
  8
0
  6
Continuous
 62
     7
370
    30
100
AcDbLine
 10
230.9400401864
 20
124.5871562053
 30
0.0
 11
230.9700725628
 21
124.6260370979
 31
0.0
  0
LINE
  5
2D0
330
1F
100
AcDbEntity
  8
0
  6
Continuous
 62
     7
370
    30
100
AcDbLine
 10
228.6754200163
 20
126.4361808687
 30
0.0
 11
228.7082435676
 21
126.4703011056
 31
0.0
  0
LINE
  5
2D1
330
1F
100
AcDbEntity
  8
0
  6
Continuous
 62
     7
370
    30
100
AcDbLine
 10
229.5389061818
 20
125.9377009158
 30
0.0
 11
229.5717297331
 21
125.9718211528
 31
0.0
  0
LINE
  5
2D2
330
1F
100
AcDbEntity
  8
0
  6
Continuous
 62
     7
370
    30
100
AcDbLine
 10
230.0189882765
 20
125.1188681551
 30
0.0
 11
230.0490206529
 21
125.1577490476
 31
0.0
  0
LINE
  5
2D3
330
1F
100
AcDbEntity
  8
0
  6
Continuous
 62
     7
370
    30
100
AcDbLine
 10
228.9252391336
 20
125.7502760954
 30
0.0
 11
228.95527151
 21
125.7891569879
 31
0.0
  0
ARC
  5
2D4
330
1F
100
AcDbEntity
  8
0
  6
Continuous
 62
     7
370
    30
100
AcDbCircle
 10
232.0724431563
 20
127.1763137809
 30
0.0
 40
2.985560187239567
100
AcDbArc
 50
223.9215506277
 51
231.8562031079
  0
LINE
  5
2D5
330
1F
100
AcDbEntity
  8
0
  6
Continuous
 62
     7
370
    30
100
AcDbLine
 10
230.3116961387
 20
124.7040055163
 30
0.0
 11
230.3313742322
 21
124.7357417819
 31
0.0
  0
LWPOLYLINE
  5
2D6
330
1F
100
AcDbEntity
  8
0
  6
Continuous
 62
     7
370
    30
100
AcDbPolyline
 90
       28
 70
   128
 43
0.0
 10
224.3456869696
 20
146.5503472347
 10
224.1173898109
 20
146.6666982514
 10
223.6233515212
 20
146.8284520165
 10
223.0862610886
 20
146.8933276597
 10
222.5139505011
 20
146.860379148
 10
221.9147653357
 20
146.7300869448
 10
221.2974430615
 20
146.5043510039
 10
220.6709856271
 20
146.1864630636
 10
220.0445281928
 20
145.7810586459
 10
219.4272059185
 20
145.2940494601
 10
218.8280207531
 20
144.7325371969
 10
218.2557101656
 20
144.1047099693
 10
217.7186197331
 20
143.4197229121
 10
217.2245814434
 20
142.6875646791
 10
216.7807994873
 20
141.918911786
 10
216.3937452051
 20
141.1249729228
 10
216.0690627198
 20
140.317325506
 10
215.8114866331
 20
139.5077468534
 10
215.6247729843
 20
138.7080424451
 10
215.511644479
 20
137.9298737718
 10
215.4737507854
 20
137.1845882853
 10
215.511644479
 20
136.4830539261
 10
215.6247729843
 20
135.8355006449
 10
215.8114866331
 20
135.2513712267
 10
216.0690627198
 20
134.7391835938
 10
216.3937452051
 20
134.3064065952
 10
216.7807994873
 20
133.959351094
 10
216.9962842847
 20
133.8194289577
  0
LWPOLYLINE
  5
2D7
330
1F
100
AcDbEntity
  8
0
  6
Continuous
 62
     7
370
    30
100
AcDbPolyline
 90
       23
 70
   128
 43
0.0
 10
212.5641807409
 20
150.6381932468
 10
212.3259695658
 20
150.751693342
 10
211.9061861461
 20
150.856166704
 10
211.4471479094
 20
150.8637027006
 10
210.9586384587
 20
150.7741407151
 10
210.4510695249
 20
150.5893896059
 10
209.9352590585
 20
150.313387022
 10
209.4222006641
 20
149.9520154792
 10
208.9228292907
 20
149.5129769848
 10
208.4477881721
 20
149.0056288818
 10
208.0072019849
 20
148.4407844144
 10
207.6104610589
 20
147.8304822616
 10
207.2660212381
 20
147.1877299544
 10
206.9812236592
 20
146.5262266421
 10
206.7621382882
 20
145.8600711195
 10
206.6134345495
 20
145.2034613349
 10
206.538281805
 20
144.570391786
 10
206.538281805
 20
143.974355251
 10
206.6134345495
 20
143.4280552139
 10
206.7621382882
 20
142.9431351116
 10
206.9812236592
 20
142.5299301741
 10
207.2660212381
 20
142.1972471473
 10
207.5645870777
 20
141.977704623
  0
ENDSEC
  0
SECTION
  2
OBJECTS
  0
DICTIONARY
  5
C
330
0
100
AcDbDictionary
281
     1
  3
ACAD_GROUP
350
D
  3
ACAD_LAYOUT
350
1A
  3
ACAD_MLINESTYLE
350
17
  3
ACAD_PLOTSETTINGS
350
19
  3
ACAD_PLOTSTYLENAME
350
E
  3
ACAD_SCALELIST
350
47
  0
DICTIONARY
  5
D
102
{ACAD_REACTORS
330
C
102
}
330
C
100
AcDbDictionary
281
     1
  0
DICTIONARY
  5
1A
102
{ACAD_REACTORS
330
C
102
}
330
C
100
AcDbDictionary
281
     1
  3
Layout1
350
1E
  3
Layout2
350
26
  3
Model
350
22
  0
DICTIONARY
  5
17
102
{ACAD_REACTORS
330
C
102
}
330
C
100
AcDbDictionary
281
     1
  3
Standard
350
18
  0
DICTIONARY
  5
19
102
{ACAD_REACTORS
330
C
102
}
330
C
100
AcDbDictionary
281
     1
  0
ACDBDICTIONARYWDFLT
  5
E
102
{ACAD_REACTORS
330
C
102
}
330
C
100
AcDbDictionary
281
     1
  3
Normal
350
F
100
AcDbDictionaryWithDefault
340
F
  0
DICTIONARY
  5
47
102
{ACAD_REACTORS
330
C
102
}
330
C
100
AcDbDictionary
281
     1
  3
A0
350
48
  3
A1
350
49
  3
A2
350
4A
  3
A3
350
4B
  3
A4
350
4C
  3
A5
350
4D
  3
A6
350
4E
  3
A7
350
4F
  3
A8
350
50
  3
A9
350
51
  3
B0
350
52
  3
B1
350
53
  3
B2
350
54
  3
B3
350
55
  3
B4
350
56
  3
B5
350
57
  3
B6
350
58
  3
B7
350
59
  3
B8
350
5A
  3
B9
350
5B
  3
C0
350
5C
  3
C1
350
5D
  3
C2
350
5E
  3
C3
350
5F
  3
C4
350
60
  3
C5
350
61
  3
C6
350
62
  3
C7
350
63
  3
C8
350
64
  3
C9
350
65
  3
D0
350
66
  3
D1
350
67
  3
D2
350
68
  0
LAYOUT
  5
1E
102
{ACAD_REACTORS
330
1A
102
}
330
1A
100
AcDbPlotSettings
  1

  2
none_device
  4

  6

 40
0.0
 41
0.0
 42
0.0
 43
0.0
 44
0.0
 45
0.0
 46
0.0
 47
0.0
 48
0.0
 49
0.0
140
0.0
141
0.0
142
1.0
143
1.0
 70
   688
 72
     1
 73
     0
 74
     5
  7

 75
    16
147
1.0
148
0.0
149
0.0
100
AcDbLayout
  1
Layout1
 70
     1
 71
     1
 10
0.0
 20
0.0
 11
420.0
 21
297.0
 12
0.0
 22
0.0
 32
0.0
 14
1.0000000000E+20
 24
1.0000000000E+20
 34
1.0000000000E+20
 15
-1.0000000000E+20
 25
-1.0000000000E+20
 35
-1.0000000000E+20
146
0.0
 13
0.0
 23
0.0
 33
0.0
 16
1.0
 26
0.0
 36
0.0
 17
0.0
 27
1.0
 37
0.0
 76
     0
330
1B
  0
LAYOUT
  5
26
102
{ACAD_REACTORS
330
1A
102
}
330
1A
100
AcDbPlotSettings
  1

  2
none_device
  4

  6

 40
0.0
 41
0.0
 42
0.0
 43
0.0
 44
0.0
 45
0.0
 46
0.0
 47
0.0
 48
0.0
 49
0.0
140
0.0
141
0.0
142
1.0
143
1.0
 70
   688
 72
     1
 73
     0
 74
     5
  7

 75
    16
147
1.0
148
0.0
149
0.0
100
AcDbLayout
  1
Layout2
 70
     1
 71
     2
 10
0.0
 20
0.0
 11
0.0
 21
0.0
 12
0.0
 22
0.0
 32
0.0
 14
0.0
 24
0.0
 34
0.0
 15
0.0
 25
0.0
 35
0.0
146
0.0
 13
0.0
 23
0.0
 33
0.0
 16
1.0
 26
0.0
 36
0.0
 17
0.0
 27
1.0
 37
0.0
 76
     0
330
23
  0
LAYOUT
  5
22
102
{ACAD_REACTORS
330
1A
102
}
330
1A
100
AcDbPlotSettings
  1

  2
none_device
  4
Letter_(8.50_x_11.00_Inches)
  6

 40
6.35
 41
6.35
 42
6.35000508
 43
6.35000508
 44
215.9
 45
279.4
 46
0.0
 47
0.0
 48
0.0
 49
0.0
140
0.0
141
0.0
142
1.0
143
1.0
 70
  1712
 72
     1
 73
     0
 74
     0
  7

 75
     0
147
1.0
148
0.0
149
0.0
100
AcDbLayout
  1
Model
 70
     1
 71
     0
 10
0.0
 20
0.0
 11
297.0
 21
210.0
 12
0.0
 22
0.0
 32
0.0
 14
0.0
 24
0.0
 34
0.0
 15
297.0
 25
210.0
 35
0.0
146
0.0
 13
0.0
 23
0.0
 33
0.0
 16
1.0
 26
0.0
 36
0.0
 17
0.0
 27
1.0
 37
0.0
 76
     0
330
1F
331
29
  0
MLINESTYLE
  5
18
102
{ACAD_REACTORS
330
17
102
}
330
17
100
AcDbMlineStyle
  2
Standard
 70
     0
  3

 62
   256
 51
90.0
 52
90.0
 71
     2
 49
0.5
 62
   256
  6
BYLAYER
 49
-0.5
 62
   256
  6
BYLAYER
  0
ACDBPLACEHOLDER
  5
F
102
{ACAD_REACTORS
330
E
102
}
330
E
  0
SCALE
  5
48
102
{ACAD_REACTORS
330
47
102
}
330
47
100
AcDbScale
 70
     0
300
1:1
140
1.0
141
1.0
290
     1
  0
SCALE
  5
49
102
{ACAD_REACTORS
330
47
102
}
330
47
100
AcDbScale
 70
     0
300
1:2
140
1.0
141
2.0
290
     0
  0
SCALE
  5
4A
102
{ACAD_REACTORS
330
47
102
}
330
47
100
AcDbScale
 70
     0
300
1:4
140
1.0
141
4.0
290
     0
  0
SCALE
  5
4B
102
{ACAD_REACTORS
330
47
102
}
330
47
100
AcDbScale
 70
     0
300
1:5
140
1.0
141
5.0
290
     0
  0
SCALE
  5
4C
102
{ACAD_REACTORS
330
47
102
}
330
47
100
AcDbScale
 70
     0
300
1:8
140
1.0
141
8.0
290
     0
  0
SCALE
  5
4D
102
{ACAD_REACTORS
330
47
102
}
330
47
100
AcDbScale
 70
     0
300
1:10
140
1.0
141
10.0
290
     0
  0
SCALE
  5
4E
102
{ACAD_REACTORS
330
47
102
}
330
47
100
AcDbScale
 70
     0
300
1:16
140
1.0
141
16.0
290
     0
  0
SCALE
  5
4F
102
{ACAD_REACTORS
330
47
102
}
330
47
100
AcDbScale
 70
     0
300
1:20
140
1.0
141
20.0
290
     0
  0
SCALE
  5
50
102
{ACAD_REACTORS
330
47
102
}
330
47
100
AcDbScale
 70
     0
300
1:30
140
1.0
141
30.0
290
     0
  0
SCALE
  5
51
102
{ACAD_REACTORS
330
47
102
}
330
47
100
AcDbScale
 70
     0
300
1:40
140
1.0
141
40.0
290
     0
  0
SCALE
  5
52
102
{ACAD_REACTORS
330
47
102
}
330
47
100
AcDbScale
 70
     0
300
1:50
140
1.0
141
50.0
290
     0
  0
SCALE
  5
53
102
{ACAD_REACTORS
330
47
102
}
330
47
100
AcDbScale
 70
     0
300
1:100
140
1.0
141
100.0
290
     0
  0
SCALE
  5
54
102
{ACAD_REACTORS
330
47
102
}
330
47
100
AcDbScale
 70
     0
300
2:1
140
2.0
141
1.0
290
     0
  0
SCALE
  5
55
102
{ACAD_REACTORS
330
47
102
}
330
47
100
AcDbScale
 70
     0
300
4:1
140
4.0
141
1.0
290
     0
  0
SCALE
  5
56
102
{ACAD_REACTORS
330
47
102
}
330
47
100
AcDbScale
 70
     0
300
8:1
140
8.0
141
1.0
290
     0
  0
SCALE
  5
57
102
{ACAD_REACTORS
330
47
102
}
330
47
100
AcDbScale
 70
     0
300
10:1
140
10.0
141
1.0
290
     0
  0
SCALE
  5
58
102
{ACAD_REACTORS
330
47
102
}
330
47
100
AcDbScale
 70
     0
300
100:1
140
100.0
141
1.0
290
     0
  0
SCALE
  5
59
102
{ACAD_REACTORS
330
47
102
}
330
47
100
AcDbScale
 70
     0
300
1/128" = 1'-0"
140
0.0078125
141
12.0
290
     0
  0
SCALE
  5
5A
102
{ACAD_REACTORS
330
47
102
}
330
47
100
AcDbScale
 70
     0
300
1/64" = 1'-0"
140
0.015625
141
12.0
290
     0
  0
SCALE
  5
5B
102
{ACAD_REACTORS
330
47
102
}
330
47
100
AcDbScale
 70
     0
300
1/32" = 1'-0"
140
0.03125
141
12.0
290
     0
  0
SCALE
  5
5C
102
{ACAD_REACTORS
330
47
102
}
330
47
100
AcDbScale
 70
     0
300
1/16" = 1'-0"
140
0.0625
141
12.0
290
     0
  0
SCALE
  5
5D
102
{ACAD_REACTORS
330
47
102
}
330
47
100
AcDbScale
 70
     0
300
3/32" = 1'-0"
140
0.09375
141
12.0
290
     0
  0
SCALE
  5
5E
102
{ACAD_REACTORS
330
47
102
}
330
47
100
AcDbScale
 70
     0
300
1/8" = 1'-0"
140
0.125
141
12.0
290
     0
  0
SCALE
  5
5F
102
{ACAD_REACTORS
330
47
102
}
330
47
100
AcDbScale
 70
     0
300
3/16" = 1'-0"
140
0.1875
141
12.0
290
     0
  0
SCALE
  5
60
102
{ACAD_REACTORS
330
47
102
}
330
47
100
AcDbScale
 70
     0
300
1/4" = 1'-0"
140
0.25
141
12.0
290
     0
  0
SCALE
  5
61
102
{ACAD_REACTORS
330
47
102
}
330
47
100
AcDbScale
 70
     0
300
3/8" = 1'-0"
140
0.375
141
12.0
290
     0
  0
SCALE
  5
62
102
{ACAD_REACTORS
330
47
102
}
330
47
100
AcDbScale
 70
     0
300
1/2" = 1'-0"
140
0.5
141
12.0
290
     0
  0
SCALE
  5
63
102
{ACAD_REACTORS
330
47
102
}
330
47
100
AcDbScale
 70
     0
300
3/4" = 1'-0"
140
0.75
141
12.0
290
     0
  0
SCALE
  5
64
102
{ACAD_REACTORS
330
47
102
}
330
47
100
AcDbScale
 70
     0
300
1" = 1'-0"
140
1.0
141
12.0
290
     0
  0
SCALE
  5
65
102
{ACAD_REACTORS
330
47
102
}
330
47
100
AcDbScale
 70
     0
300
1-1/2" = 1'-0"
140
1.5
141
12.0
290
     0
  0
SCALE
  5
66
102
{ACAD_REACTORS
330
47
102
}
330
47
100
AcDbScale
 70
     0
300
3" = 1'-0"
140
3.0
141
12.0
290
     0
  0
SCALE
  5
67
102
{ACAD_REACTORS
330
47
102
}
330
47
100
AcDbScale
 70
     0
300
6" = 1'-0"
140
6.0
141
12.0
290
     0
  0
SCALE
  5
68
102
{ACAD_REACTORS
330
47
102
}
330
47
100
AcDbScale
 70
     0
300
1'-0" = 1'-0"
140
12.0
141
12.0
290
     0
  0
ENDSEC
  0
EOF
