  0
SECTION
  2
HEADER
  9
$ACADVER
  1
AC1015
  9
$ACADMAINTVER
 70
     6
  9
$DWGCODEPAGE
  3
ANSI_950
  9
$INSBASE
 10
0.0
 20
0.0
 30
0.0
  9
$EXTMIN
 10
0.0
 20
0.0
 30
0.0
  9
$EXTMAX
 10
148.5
 20
105.0
 30
0.0
  9
$LIMMIN
 10
0.0
 20
0.0
  9
$LIMMAX
 10
148.5
 20
105.0
  9
$ORTHOMODE
 70
     0
  9
$REGENMODE
 70
     1
  9
$FILLMODE
 70
     1
  9
$QTEXTMODE
 70
     0
  9
$MIRRTEXT
 70
     1
  9
$LTSCALE
 40
0.5
  9
$ATTMODE
 70
     1
  9
$TEXTSIZE
 40
1.5875
  9
$TRACEWID
 40
1.0
  9
$TEXTSTYLE
  7
Standard
  9
$CLAYER
  8
0
  9
$CELTYPE
  6
ByLayer
  9
$CECOLOR
 62
   256
  9
$CELTSCALE
 40
1.0
  9
$DISPSILH
 70
     0
  9
$DIMSCALE
 40
1.0
  9
$DIMASZ
 40
1.0
  9
$DIMEXO
 40
0.5
  9
$DIMDLI
 40
3.75
  9
$DIMRND
 40
0.0
  9
$DIMDLE
 40
0.0
  9
$DIMEXE
 40
0.5
  9
$DIMTP
 40
0.0
  9
$DIMTM
 40
0.0
  9
$DIMTXT
 40
1.5875
  9
$DIMCEN
 40
2.5
  9
$DIMTSZ
 40
0.0
  9
$DIMTOL
 70
     0
  9
$DIMLIM
 70
     0
  9
$DIMTIH
 70
     1
  9
$DIMTOH
 70
     1
  9
$DIMSE1
 70
     0
  9
$DIMSE2
 70
     0
  9
$DIMTAD
 70
     1
  9
$DIMZIN
 70
     0
  9
$DIMBLK
  1

  9
$DIMASO
 70
     1
  9
$DIMSHO
 70
     1
  9
$DIMPOST
  1

  9
$DIMAPOST
  1

  9
$DIMALT
 70
     0
  9
$DIMALTD
 70
     3
  9
$DIMALTF
 40
0.0393700787
  9
$DIMLFAC
 40
1.0
  9
$DIMTOFL
 70
     1
  9
$DIMTVP
 40
0.0
  9
$DIMTIX
 70
     0
  9
$DIMSOXD
 70
     0
  9
$DIMSAH
 70
     0
  9
$DIMBLK1
  1

  9
$DIMBLK2
  1

  9
$DIMSTYLE
  2
ISO-25
  9
$DIMCLRD
 70
     0
  9
$DIMCLRE
 70
     0
  9
$DIMCLRT
 70
     0
  9
$DIMTFAC
 40
1.0
  9
$DIMGAP
 40
0.5
  9
$DIMJUST
 70
     0
  9
$DIMSD1
 70
     0
  9
$DIMSD2
 70
     0
  9
$DIMTOLJ
 70
     0
  9
$DIMTZIN
 70
     0
  9
$DIMALTZ
 70
     0
  9
$DIMALTTZ
 70
     0
  9
$DIMUPT
 70
     0
  9
$DIMDEC
 70
     2
  9
$DIMTDEC
 70
     2
  9
$DIMALTU
 70
     2
  9
$DIMALTTD
 70
     3
  9
$DIMTXSTY
  7
Standard
  9
$DIMAUNIT
 70
     0
  9
$DIMADEC
 70
     2
  9
$DIMALTRND
 40
0.0
  9
$DIMAZIN
 70
     0
  9
$DIMDSEP
 70
    44
  9
$DIMATFIT
 70
     3
  9
$DIMFRAC
 70
     0
  9
$DIMLDRBLK
  1

  9
$DIMLUNIT
 70
     2
  9
$DIMLWD
 70
    -2
  9
$DIMLWE
 70
    -2
  9
$DIMTMOVE
 70
     0
  9
$LUNITS
 70
     2
  9
$LUPREC
 70
     2
  9
$SKETCHINC
 40
1.0
  9
$FILLETRAD
 40
10.0
  9
$AUNITS
 70
     0
  9
$AUPREC
 70
     2
  9
$MENU
  1
.
  9
$ELEVATION
 40
0.0
  9
$PELEVATION
 40
0.0
  9
$THICKNESS
 40
0.0
  9
$LIMCHECK
 70
     0
  9
$CHAMFERA
 40
0.0
  9
$CHAMFERB
 40
0.0
  9
$CHAMFERC
 40
0.0
  9
$CHAMFERD
 40
0.0
  9
$SKPOLY
 70
     0
  9
$TDCREATE
 40
2458136.584741782
  9
$TDUCREATE
 40
2458136.251408449
  9
$TDUPDATE
 40
2458136.584747373
  9
$TDUUPDATE
 40
2458136.251414039
  9
$TDINDWG
 40
0.0000000116
  9
$TDUSRTIMER
 40
0.0000000116
  9
$USRTIMER
 70
     1
  9
$ANGBASE
 50
0.0
  9
$ANGDIR
 70
     0
  9
$PDMODE
 70
     0
  9
$PDSIZE
 40
-1.0
  9
$PLINEWID
 40
0.0
  9
$SPLFRAME
 70
     0
  9
$SPLINETYPE
 70
     6
  9
$SPLINESEGS
 70
     8
  9
$HANDSEED
  5
2EB
  9
$SURFTAB1
 70
     6
  9
$SURFTAB2
 70
     6
  9
$SURFTYPE
 70
     6
  9
$SURFU
 70
     6
  9
$SURFV
 70
     6
  9
$UCSBASE
  2

  9
$UCSNAME
  2

  9
$UCSORG
 10
0.0
 20
0.0
 30
0.0
  9
$UCSXDIR
 10
1.0
 20
0.0
 30
0.0
  9
$UCSYDIR
 10
0.0
 20
1.0
 30
0.0
  9
$UCSORTHOREF
  2

  9
$UCSORTHOVIEW
 70
     0
  9
$UCSORGTOP
 10
0.0
 20
0.0
 30
0.0
  9
$UCSORGBOTTOM
 10
0.0
 20
0.0
 30
0.0
  9
$UCSORGLEFT
 10
0.0
 20
0.0
 30
0.0
  9
$UCSORGRIGHT
 10
0.0
 20
0.0
 30
0.0
  9
$UCSORGFRONT
 10
0.0
 20
0.0
 30
0.0
  9
$UCSORGBACK
 10
0.0
 20
0.0
 30
0.0
  9
$PUCSBASE
  2

  9
$PUCSNAME
  2

  9
$PUCSORG
 10
0.0
 20
0.0
 30
0.0
  9
$PUCSXDIR
 10
1.0
 20
0.0
 30
0.0
  9
$PUCSYDIR
 10
0.0
 20
1.0
 30
0.0
  9
$PUCSORTHOREF
  2

  9
$PUCSORTHOVIEW
 70
     0
  9
$PUCSORGTOP
 10
0.0
 20
0.0
 30
0.0
  9
$PUCSORGBOTTOM
 10
0.0
 20
0.0
 30
0.0
  9
$PUCSORGLEFT
 10
0.0
 20
0.0
 30
0.0
  9
$PUCSORGRIGHT
 10
0.0
 20
0.0
 30
0.0
  9
$PUCSORGFRONT
 10
0.0
 20
0.0
 30
0.0
  9
$PUCSORGBACK
 10
0.0
 20
0.0
 30
0.0
  9
$USERI1
 70
     0
  9
$USERI2
 70
     0
  9
$USERI3
 70
     0
  9
$USERI4
 70
     0
  9
$USERI5
 70
     0
  9
$USERR1
 40
0.0
  9
$USERR2
 40
0.0
  9
$USERR3
 40
0.0
  9
$USERR4
 40
0.0
  9
$USERR5
 40
0.0
  9
$WORLDVIEW
 70
     1
  9
$SHADEDGE
 70
     3
  9
$SHADEDIF
 70
    70
  9
$TILEMODE
 70
     1
  9
$MAXACTVP
 70
    64
  9
$PINSBASE
 10
0.0
 20
0.0
 30
0.0
  9
$PLIMCHECK
 70
     0
  9
$PEXTMIN
 10
1.0000000000E+20
 20
1.0000000000E+20
 30
1.0000000000E+20
  9
$PEXTMAX
 10
-1.0000000000E+20
 20
-1.0000000000E+20
 30
-1.0000000000E+20
  9
$PLIMMIN
 10
0.0
 20
0.0
  9
$PLIMMAX
 10
420.0
 20
297.0
  9
$UNITMODE
 70
     0
  9
$VISRETAIN
 70
     1
  9
$PLINEGEN
 70
     0
  9
$PSLTSCALE
 70
     1
  9
$TREEDEPTH
 70
  3020
  9
$CMLSTYLE
  2
Standard
  9
$CMLJUST
 70
     0
  9
$CMLSCALE
 40
20.0
  9
$PROXYGRAPHICS
 70
     1
  9
$MEASUREMENT
 70
     1
  9
$CELWEIGHT
370
    -1
  9
$ENDCAPS
280
     0
  9
$JOINSTYLE
280
     0
  9
$LWDISPLAY
290
     1
  9
$INSUNITS
 70
     4
  9
$HYPERLINKBASE
  1

  9
$STYLESHEET
  1

  9
$XEDIT
290
     1
  9
$CEPSNTYPE
380
     0
  9
$PSTYLEMODE
290
     1
  9
$FINGERPRINTGUID
  2
{5393F157-C529-4A0A-B1A7-75D22B273155}
  9
$VERSIONGUID
  2
{FAEB1C32-E019-11D5-929B-00C0DF256EC4}
  9
$EXTNAMES
290
     1
  9
$PSVPSCALE
 40
0.0
  9
$OLESTARTUP
290
     0
  0
ENDSEC
  0
SECTION
  2
CLASSES
  0
CLASS
  1
ACDBDICTIONARYWDFLT
  2
AcDbDictionaryWithDefault
  3
ObjectDBX Classes
 90
        0
280
     0
281
     0
  0
CLASS
  1
VISUALSTYLE
  2
AcDbVisualStyle
  3
ObjectDBX Classes
 90
     4095
280
     0
281
     0
  0
CLASS
  1
MATERIAL
  2
AcDbMaterial
  3
ObjectDBX Classes
 90
     1153
280
     0
281
     0
  0
CLASS
  1
SCALE
  2
AcDbScale
  3
ObjectDBX Classes
 90
     1153
280
     0
281
     0
  0
CLASS
  1
TABLESTYLE
  2
AcDbTableStyle
  3
ObjectDBX Classes
 90
     4095
280
     0
281
     0
  0
CLASS
  1
MLEADERSTYLE
  2
AcDbMLeaderStyle
  3
ACDB_MLEADERSTYLE_CLASS
 90
     4095
280
     0
281
     0
  0
CLASS
  1
SUN
  2
AcDbSun
  3
SCENEOE
 90
     1153
280
     0
281
     0
  0
CLASS
  1
ACDBPLACEHOLDER
  2
AcDbPlaceHolder
  3
ObjectDBX Classes
 90
        0
280
     0
281
     0
  0
CLASS
  1
LAYOUT
  2
AcDbLayout
  3
ObjectDBX Classes
 90
        0
280
     0
281
     0
  0
ENDSEC
  0
SECTION
  2
TABLES
  0
TABLE
  2
VPORT
  5
8
330
0
100
AcDbSymbolTable
 70
     1
  0
VPORT
  5
29
330
8
100
AcDbSymbolTableRecord
100
AcDbViewportTableRecord
  2
*Active
 70
     0
 10
0.0
 20
0.0
 11
1.0
 21
1.0
 12
74.25
 22
52.5
 13
0.0
 23
0.0
 14
10.0
 24
10.0
 15
10.0
 25
10.0
 16
0.0
 26
0.0
 36
1.0
 17
0.0
 27
0.0
 37
0.0
 40
105.0
 41
1.4142857143
 42
50.0
 43
0.0
 44
0.0
 50
0.0
 51
0.0
 71
     0
 72
  2000
 73
     1
 74
     3
 75
     0
 76
     0
 77
     0
 78
     0
281
     0
 65
     1
110
0.0
120
0.0
130
0.0
111
1.0
121
0.0
131
0.0
112
0.0
122
1.0
132
0.0
 79
     0
146
0.0
  0
ENDTAB
  0
TABLE
  2
LTYPE
  5
5
330
0
100
AcDbSymbolTable
 70
     6
  0
LTYPE
  5
14
330
5
100
AcDbSymbolTableRecord
100
AcDbLinetypeTableRecord
  2
ByBlock
 70
     0
  3

 72
    65
 73
     0
 40
0.0
  0
LTYPE
  5
15
330
5
100
AcDbSymbolTableRecord
100
AcDbLinetypeTableRecord
  2
ByLayer
 70
     0
  3

 72
    65
 73
     0
 40
0.0
  0
LTYPE
  5
16
330
5
100
AcDbSymbolTableRecord
100
AcDbLinetypeTableRecord
  2
Continuous
 70
     0
  3
Solid line
 72
    65
 73
     0
 40
0.0
  0
LTYPE
  5
6E
330
5
100
AcDbSymbolTableRecord
100
AcDbLinetypeTableRecord
  2
HIDDEN
 70
     0
  3
Hidden __ __ __ __ __ __ __ __ __ __ __ __ __ __
 72
    65
 73
     2
 40
1.905
 49
1.27
 74
     0
 49
-0.635
 74
     0
  0
LTYPE
  5
6F
330
5
100
AcDbSymbolTableRecord
100
AcDbLinetypeTableRecord
  2
PHANTOM
 70
     0
  3
Phantom ______  __  __  ______  __  __  ______
 72
    65
 73
     6
 40
12.7
 49
6.35
 74
     0
 49
-1.27
 74
     0
 49
1.27
 74
     0
 49
-1.27
 74
     0
 49
1.27
 74
     0
 49
-1.27
 74
     0
  0
LTYPE
  5
70
330
5
100
AcDbSymbolTableRecord
100
AcDbLinetypeTableRecord
  2
CENTER
 70
     0
  3
Center ____ _ ____ _ ____ _ ____ _ ____ _ ____
 72
    65
 73
     4
 40
10.16
 49
6.35
 74
     0
 49
-1.27
 74
     0
 49
1.27
 74
     0
 49
-1.27
 74
     0
  0
LTYPE
  5
71
330
5
100
AcDbSymbolTableRecord
100
AcDbLinetypeTableRecord
  2
CENTERX2
 70
     0
  3
Center (2x) ________  __  ________  __  _____
 72
    65
 73
     4
 40
20.32
 49
12.7
 74
     0
 49
-2.54
 74
     0
 49
2.54
 74
     0
 49
-2.54
 74
     0
  0
LTYPE
  5
72
330
5
100
AcDbSymbolTableRecord
100
AcDbLinetypeTableRecord
  2
DOT2
 70
     0
  3
Dot (.5x) ........................................
 72
    65
 73
     2
 40
0.635
 49
0.0
 74
     0
 49
-0.635
 74
     0
  0
ENDTAB
  0
TABLE
  2
LAYER
  5
2
330
0
100
AcDbSymbolTable
 70
    10
  0
LAYER
  5
10
330
2
100
AcDbSymbolTableRecord
100
AcDbLayerTableRecord
  2
0
 70
     0
 62
     7
  6
Continuous
370
    -3
390
F
  0
LAYER
  5
73
330
2
100
AcDbSymbolTableRecord
100
AcDbLayerTableRecord
  2
SLD-0
 70
     0
 62
     7
  6
Continuous
370
    15
390
F
  0
LAYER
  5
74
330
2
100
AcDbSymbolTableRecord
100
AcDbLayerTableRecord
  2
輪廓線
 70
     0
 62
   219
  6
Continuous
370
    15
390
F
  0
LAYER
  5
75
330
2
100
AcDbSymbolTableRecord
100
AcDbLayerTableRecord
  2
DIM
 70
     0
 62
     7
  6
Continuous
370
    -3
390
F
  0
LAYER
  5
76
330
2
100
AcDbSymbolTableRecord
100
AcDbLayerTableRecord
  2
中心線
 70
     0
 62
     7
  6
CENTERX2
370
    -3
390
F
  0
LAYER
  5
77
330
2
100
AcDbSymbolTableRecord
100
AcDbLayerTableRecord
  2
虛線
 70
     0
 62
     7
  6
HIDDEN
370
    -3
390
F
  0
LAYER
  5
78
330
2
100
AcDbSymbolTableRecord
100
AcDbLayerTableRecord
  2
SECTION
 70
     0
 62
     7
  6
PHANTOM
370
    15
390
F
  0
LAYER
  5
79
330
2
100
AcDbSymbolTableRecord
100
AcDbLayerTableRecord
  2
假想線
 70
     0
 62
     7
  6
PHANTOM
370
    -3
390
F
  0
LAYER
  5
7A
330
2
100
AcDbSymbolTableRecord
100
AcDbLayerTableRecord
  2
圖層_1
 70
     0
 62
   179
  6
Continuous
370
    -3
390
F
  0
LAYER
  5
7B
330
2
100
AcDbSymbolTableRecord
100
AcDbLayerTableRecord
  2
工作區域參考線
 70
     0
 62
   179
  6
Continuous
370
    -3
390
F
  0
ENDTAB
  0
TABLE
  2
STYLE
  5
3
330
0
100
AcDbSymbolTable
 70
     3
  0
STYLE
  5
11
330
3
100
AcDbSymbolTableRecord
100
AcDbTextStyleTableRecord
  2
Standard
 70
     0
 40
0.0
 41
1.0
 50
0.0
 71
     0
 42
1.5875
  3
txt
  4

  0
STYLE
  5
CC
330
3
100
AcDbSymbolTableRecord
100
AcDbTextStyleTableRecord
  2
SLDTEXTSTYLE0
 70
     0
 40
0.0
 41
0.605
 50
0.0
 71
     0
 42
1.5875
  3
TXT
  4

  0
STYLE
  5
103
330
3
100
AcDbSymbolTableRecord
100
AcDbTextStyleTableRecord
  2
SLDTEXTSTYLE1
 70
     0
 40
0.0
 41
0.7
 50
0.0
 71
     0
 42
1.5875
  3
TXT
  4

  0
ENDTAB
  0
TABLE
  2
VIEW
  5
6
330
0
100
AcDbSymbolTable
 70
     0
  0
ENDTAB
  0
TABLE
  2
UCS
  5
7
330
0
100
AcDbSymbolTable
 70
     0
  0
ENDTAB
  0
TABLE
  2
APPID
  5
9
330
0
100
AcDbSymbolTable
 70
     1
  0
APPID
  5
12
330
9
100
AcDbSymbolTableRecord
100
AcDbRegAppTableRecord
  2
ACAD
 70
     0
  0
ENDTAB
  0
TABLE
  2
DIMSTYLE
  5
A
330
0
100
AcDbSymbolTable
 70
     5
100
AcDbDimStyleTable
  0
DIMSTYLE
105
27
330
A
100
AcDbSymbolTableRecord
100
AcDbDimStyleTableRecord
  2
ISO-25
 70
     0
 41
2.5
 42
0.625
 43
3.75
 44
1.25
 73
     0
 74
     0
 77
     1
 78
     8
140
2.5
141
2.5
143
0.0393700787
147
0.625
171
     3
172
     1
178
     0
271
     2
272
     2
274
     3
278
    44
283
     0
284
     8
340
11
  0
DIMSTYLE
105
1F9
102
{ACAD_REACTORS
330
1F8
102
}
330
A
100
AcDbSymbolTableRecord
100
AcDbDimStyleTableRecord
  2
SLDDIMSTYLE0
 70
     0
 41
1.0
 44
0.0
 45
0.000000001
 73
     0
 74
     0
 77
     1
 78
    12
 79
     3
140
1.2712402344
147
0.3178100586
173
     1
178
     0
271
     1
272
     1
276
     2
284
    12
340
103
  0
DIMSTYLE
105
204
102
{ACAD_REACTORS
330
203
330
219
330
223
330
22E
330
239
330
243
102
}
330
A
100
AcDbSymbolTableRecord
100
AcDbDimStyleTableRecord
  2
SLDDIMSTYLE1
 70
     0
 41
1.0
 44
0.0
 45
0.000000001
 73
     0
 74
     0
 77
     1
 78
    12
 79
     3
140
1.2712402344
147
0.3178100586
173
     1
178
     0
271
     2
272
     2
276
     2
284
    12
340
103
  0
DIMSTYLE
105
20F
102
{ACAD_REACTORS
330
20E
102
}
330
A
100
AcDbSymbolTableRecord
100
AcDbDimStyleTableRecord
  2
SLDDIMSTYLE2
 70
     0
 41
1.0
 44
0.0
 45
0.000000001
 73
     0
 74
     0
 77
     1
 78
    12
 79
     3
140
1.2712402344
147
0.3178100586
173
     1
178
     0
271
     1
272
     3
276
     2
284
    12
340
103
  0
DIMSTYLE
105
254
330
A
100
AcDbSymbolTableRecord
100
AcDbDimStyleTableRecord
  2
SLDDIMSTYLE3
 70
     0
 41
1.0
 44
0.0
 45
0.000000001
147
0.0
173
     1
178
     0
271
     0
272
     0
276
     2
340
11
  0
ENDTAB
  0
TABLE
  2
BLOCK_RECORD
  5
1
330
0
100
AcDbSymbolTable
 70
    13
  0
BLOCK_RECORD
  5
1F
330
1
100
AcDbSymbolTableRecord
100
AcDbBlockTableRecord
  2
*Model_Space
340
22
  0
BLOCK_RECORD
  5
1B
330
1
100
AcDbSymbolTableRecord
100
AcDbBlockTableRecord
  2
*Paper_Space
340
1E
  0
BLOCK_RECORD
  5
23
330
1
100
AcDbSymbolTableRecord
100
AcDbBlockTableRecord
  2
*Paper_Space0
340
26
  0
BLOCK_RECORD
  5
7C
330
1
100
AcDbSymbolTableRecord
100
AcDbBlockTableRecord
  2
圖塊6
340
0
102
{BLKREFS
331
CB
102
}
  0
BLOCK_RECORD
  5
CE
330
1
100
AcDbSymbolTableRecord
100
AcDbBlockTableRecord
  2
SW_NOTE_0
340
0
102
{BLKREFS
331
D4
102
}
  0
BLOCK_RECORD
  5
105
330
1
100
AcDbSymbolTableRecord
100
AcDbBlockTableRecord
  2
SW_NOTE_1
340
0
102
{BLKREFS
331
10A
102
}
  0
BLOCK_RECORD
  5
1FA
330
1
100
AcDbSymbolTableRecord
100
AcDbBlockTableRecord
  2
_D
340
0
  0
BLOCK_RECORD
  5
205
330
1
100
AcDbSymbolTableRecord
100
AcDbBlockTableRecord
  2
_D_1
340
0
  0
BLOCK_RECORD
  5
210
330
1
100
AcDbSymbolTableRecord
100
AcDbBlockTableRecord
  2
_D_2
340
0
  0
BLOCK_RECORD
  5
21A
330
1
100
AcDbSymbolTableRecord
100
AcDbBlockTableRecord
  2
_D_3
340
0
  0
BLOCK_RECORD
  5
224
330
1
100
AcDbSymbolTableRecord
100
AcDbBlockTableRecord
  2
_D_4
340
0
  0
BLOCK_RECORD
  5
22F
330
1
100
AcDbSymbolTableRecord
100
AcDbBlockTableRecord
  2
_D_5
340
0
  0
BLOCK_RECORD
  5
23A
330
1
100
AcDbSymbolTableRecord
100
AcDbBlockTableRecord
  2
_D_6
340
0
  0
BLOCK_RECORD
  5
244
330
1
100
AcDbSymbolTableRecord
100
AcDbBlockTableRecord
  2
_D_7
340
0
  0
BLOCK_RECORD
  5
24E
330
1
100
AcDbSymbolTableRecord
100
AcDbBlockTableRecord
  2
SW_NOTE_2
340
0
102
{BLKREFS
331
253
102
}
  0
ENDTAB
  0
ENDSEC
  0
SECTION
  2
BLOCKS
  0
BLOCK
  5
20
330
1F
100
AcDbEntity
  8
0
100
AcDbBlockBegin
  2
*Model_Space
 70
     0
 10
0.0
 20
0.0
 30
0.0
  3
*Model_Space
  1

  0
ENDBLK
  5
21
330
1F
100
AcDbEntity
  8
0
100
AcDbBlockEnd
  0
BLOCK
  5
1C
330
1B
100
AcDbEntity
 67
     1
  8
0
100
AcDbBlockBegin
  2
*Paper_Space
 70
     0
 10
0.0
 20
0.0
 30
0.0
  3
*Paper_Space
  1

  0
ENDBLK
  5
1D
330
1B
100
AcDbEntity
 67
     1
  8
0
100
AcDbBlockEnd
  0
BLOCK
  5
24
330
23
100
AcDbEntity
  8
0
100
AcDbBlockBegin
  2
*Paper_Space0
 70
     0
 10
0.0
 20
0.0
 30
0.0
  3
*Paper_Space0
  1

  0
ENDBLK
  5
25
330
23
100
AcDbEntity
  8
0
100
AcDbBlockEnd
  0
BLOCK
  5
7D
330
7C
100
AcDbEntity
  8
0
100
AcDbBlockBegin
  2
圖塊6
 70
     0
 10
0.0
 20
0.0
 30
0.0
  3
圖塊6
  1

  0
ARC
  5
7F
330
7C
100
AcDbEntity
  8
圖層_1
 62
     7
370
    30
100
AcDbCircle
 10
0.765077217
 20
3.0510341446
 30
0.0
 40
0.765077216971835
100
AcDbArc
 50
130.2115225915
 51
228.588904108
  0
ARC
  5
80
330
7C
100
AcDbEntity
  8
圖層_1
 62
     7
370
    30
100
AcDbCircle
 10
2.4254567991
 20
2.9974727207
 30
0.0
 40
1.288667713408811
100
AcDbArc
 50
140.4331765613
 51
251.0865666567
  0
ARC
  5
81
330
7C
100
AcDbEntity
  8
圖層_1
 62
     7
370
    30
100
AcDbCircle
 10
2.5882520991
 20
3.1558779856
 30
0.0
 40
1.494818328884931
100
AcDbArc
 50
247.1485306747
 51
309.6030773927
  0
LINE
  5
82
330
7C
100
AcDbEntity
  8
圖層_1
 62
     7
370
    30
100
AcDbLine
 10
0.9244488634
 20
4.2660912992
 30
0.0
 11
0.271134736
 21
3.6352977609
 31
0.0
  0
LINE
  5
83
330
7C
100
AcDbEntity
  8
圖層_1
 62
     7
370
    30
100
AcDbLine
 10
0.259011445
 20
2.4772392488
 30
0.0
 11
2.2636126001
 21
0.7349373287
 31
0.0
  0
LINE
  5
84
330
7C
100
AcDbEntity
  8
圖層_1
 62
     7
370
    30
100
AcDbLine
 10
2.2636126001
 20
0.7349373287
 30
0.0
 11
1.9480866399
 21
0.4269871335
 31
0.0
  0
LINE
  5
85
330
7C
100
AcDbEntity
  8
圖層_1
 62
     7
370
    30
100
AcDbLine
 10
1.9480866399
 20
0.4269871335
 30
0.0
 11
2.4440263222
 21
0.0
 31
0.0
  0
LINE
  5
86
330
7C
100
AcDbEntity
  8
圖層_1
 62
     7
370
    30
100
AcDbLine
 10
4.0488585394
 20
1.5582889828
 30
0.0
 11
3.5411470236
 21
2.0041518466
 31
0.0
  0
LINE
  5
87
330
7C
100
AcDbEntity
  8
圖層_1
 62
     7
370
    30
100
AcDbLine
 10
1.4320457871
 20
3.8183253488
 30
0.0
 11
0.9244488634
 21
4.2660912992
 31
0.0
  0
LINE
  5
88
330
7C
100
AcDbEntity
  8
圖層_1
 62
     7
370
    30
100
AcDbLine
 10
2.4440263222
 20
0.0
 30
0.0
 11
4.0488585394
 21
1.5582889828
 31
0.0
  0
ENDBLK
  5
7E
330
7C
100
AcDbEntity
  8
0
100
AcDbBlockEnd
  0
BLOCK
  5
CF
330
CE
100
AcDbEntity
  8
0
100
AcDbBlockBegin
  2
SW_NOTE_0
 70
     0
 10
0.0
 20
0.0
 30
0.0
  3
SW_NOTE_0
  1

  0
MTEXT
  5
D1
330
CE
100
AcDbEntity
  8
0
  6
Continuous
 62
     0
370
     0
100
AcDbMText
 10
0.0
 20
1.7053291974
 30
0.0
 40
1.3229166667
 41
0.0
 71
     1
 72
     1
  1
PROPRIETARY AND CONFIDENTIAL
  7
SLDTEXTSTYLE0
 73
     1
 44
1.0
  0
MTEXT
  5
D2
330
CE
100
AcDbEntity
  8
0
  6
Continuous
 62
     0
370
     0
100
AcDbMText
 10
0.0
 20
-0.04099174
 30
0.0
 40
0.9260416667
 41
0.0
 71
     1
 72
     1
  1
THE INFORMATION CONTAINED IN THIS DRAWING IS THE SOLE PROPERTY OF UNICE E-O SERVICES INC. ANY REPRODUCTION IN PART OR AS A WHOLE WITHOUT THE WRITTEN PERMISSION OF UNICE E-O SERVICES INC IS
  7
SLDTEXTSTYLE0
 73
     1
 44
1.0
  0
MTEXT
  5
D3
330
CE
100
AcDbEntity
  8
0
  6
Continuous
 62
     0
370
     0
100
AcDbMText
 10
0.0
 20
-1.2757139473
 30
0.0
 40
0.9260416667
 41
0.0
 71
     1
 72
     1
  1
PROHIBITED.
  7
SLDTEXTSTYLE0
 73
     1
 44
1.0
  0
ENDBLK
  5
D0
330
CE
100
AcDbEntity
  8
0
100
AcDbBlockEnd
  0
BLOCK
  5
106
330
105
100
AcDbEntity
  8
0
100
AcDbBlockBegin
  2
SW_NOTE_1
 70
     0
 10
0.0
 20
0.0
 30
0.0
  3
SW_NOTE_1
  1

  0
MTEXT
  5
108
330
105
100
AcDbEntity
  8
SLD-0
 62
     0
100
AcDbMText
 10
0.0
 20
1.0231975184
 30
0.0
 40
0.79375
 41
0.0
 71
     1
 72
     1
  1
No.5, Andong Rd., Chung Li District,
  7
SLDTEXTSTYLE0
 73
     1
 44
1.0
  0
MTEXT
  5
109
330
105
100
AcDbEntity
  8
SLD-0
 62
     0
100
AcDbMText
 10
0.0
 20
-0.0351358021
 30
0.0
 40
0.79375
 41
0.0
 71
     1
 72
     1
  1
Taoyuan City 32063, Taiwan, R.O.C.
  7
SLDTEXTSTYLE0
 73
     1
 44
1.0
  0
ENDBLK
  5
107
330
105
100
AcDbEntity
  8
0
100
AcDbBlockEnd
  0
BLOCK
  5
1FB
330
1FA
100
AcDbEntity
  8
0
100
AcDbBlockBegin
  2
_D
 70
     0
 10
0.0
 20
0.0
 30
0.0
  3
_D
  1

  0
SOLID
  5
1FD
330
1FA
100
AcDbEntity
  8
DIM
100
AcDbTrace
 10
31.0213720418
 20
38.1103890505
 30
0.0
 11
32.0213720418
 21
37.9853890505
 31
0.0
 12
32.0213720418
 22
38.2353890505
 32
0.0
 13
32.0213720418
 23
38.2353890505
 33
0.0
  0
SOLID
  5
1FE
330
1FA
100
AcDbEntity
  8
DIM
100
AcDbTrace
 10
48.526869464
 20
38.1103890505
 30
0.0
 11
47.526869464
 21
38.2353890505
 31
0.0
 12
47.526869464
 22
37.9853890505
 32
0.0
 13
47.526869464
 23
37.9853890505
 33
0.0
  0
LINE
  5
1FF
330
1FA
100
AcDbEntity
  8
DIM
100
AcDbLine
 10
31.0213720418
 20
49.7800674943
 30
0.0
 11
31.0213720418
 21
37.6103890505
 31
0.0
  0
LINE
  5
200
330
1FA
100
AcDbEntity
  8
DIM
100
AcDbLine
 10
48.526869464
 20
42.8800674943
 30
0.0
 11
48.526869464
 21
37.6103890505
 31
0.0
  0
LINE
  5
201
330
1FA
100
AcDbEntity
  8
DIM
100
AcDbLine
 10
31.0213720418
 20
38.1103890505
 30
0.0
 11
48.526869464
 21
38.1103890505
 31
0.0
  0
MTEXT
  5
202
330
1FA
100
AcDbEntity
  8
DIM
100
AcDbMText
 10
38.4699455138
 20
39.64518527
 30
0.0
 40
1.190625
 41
0.0
 71
     1
 72
     1
  1
17.5
  7
SLDTEXTSTYLE1
 73
     1
 44
1.0
  0
ENDBLK
  5
1FC
330
1FA
100
AcDbEntity
  8
0
100
AcDbBlockEnd
  0
BLOCK
  5
206
330
205
100
AcDbEntity
  8
0
100
AcDbBlockBegin
  2
_D_1
 70
     0
 10
0.0
 20
0.0
 30
0.0
  3
_D_1
  1

  0
SOLID
  5
208
330
205
100
AcDbEntity
  8
DIM
100
AcDbTrace
 10
48.526869464
 20
38.1103890505
 30
0.0
 11
49.526869464
 21
37.9853890505
 31
0.0
 12
49.526869464
 22
38.2353890505
 32
0.0
 13
49.526869464
 23
38.2353890505
 33
0.0
  0
SOLID
  5
209
330
205
100
AcDbEntity
  8
DIM
100
AcDbTrace
 10
58.126869464
 20
38.1103890505
 30
0.0
 11
57.126869464
 21
38.2353890505
 31
0.0
 12
57.126869464
 22
37.9853890505
 32
0.0
 13
57.126869464
 23
37.9853890505
 33
0.0
  0
LINE
  5
20A
330
205
100
AcDbEntity
  8
DIM
100
AcDbLine
 10
48.526869464
 20
42.8800674943
 30
0.0
 11
48.526869464
 21
37.6103890505
 31
0.0
  0
LINE
  5
20B
330
205
100
AcDbEntity
  8
DIM
100
AcDbLine
 10
58.126869464
 20
44.5300674943
 30
0.0
 11
58.126869464
 21
37.6103890505
 31
0.0
  0
LINE
  5
20C
330
205
100
AcDbEntity
  8
DIM
100
AcDbLine
 10
48.526869464
 20
38.1103890505
 30
0.0
 11
58.126869464
 21
38.1103890505
 31
0.0
  0
MTEXT
  5
20D
330
205
100
AcDbEntity
  8
DIM
100
AcDbMText
 10
52.3953156304
 20
39.64518527
 30
0.0
 40
1.190625
 41
0.0
 71
     1
 72
     1
  1
9.6
  7
SLDTEXTSTYLE1
 73
     1
 44
1.0
  0
ENDBLK
  5
207
330
205
100
AcDbEntity
  8
0
100
AcDbBlockEnd
  0
BLOCK
  5
211
330
210
100
AcDbEntity
  8
0
100
AcDbBlockBegin
  2
_D_2
 70
     0
 10
0.0
 20
0.0
 30
0.0
  3
_D_2
  1

  0
SOLID
  5
213
330
210
100
AcDbEntity
  8
DIM
100
AcDbTrace
 10
58.126869464
 20
38.1103890505
 30
0.0
 11
59.126869464
 21
37.9853890505
 31
0.0
 12
59.126869464
 22
38.2353890505
 32
0.0
 13
59.126869464
 23
38.2353890505
 33
0.0
  0
SOLID
  5
214
330
210
100
AcDbEntity
  8
DIM
100
AcDbTrace
 10
89.5213613432
 20
38.1103890505
 30
0.0
 11
88.5213613432
 21
38.2353890505
 31
0.0
 12
88.5213613432
 22
37.9853890505
 32
0.0
 13
88.5213613432
 23
37.9853890505
 33
0.0
  0
LINE
  5
215
330
210
100
AcDbEntity
  8
DIM
100
AcDbLine
 10
58.126869464
 20
44.5300674943
 30
0.0
 11
58.126869464
 21
37.6103890505
 31
0.0
  0
LINE
  5
216
330
210
100
AcDbEntity
  8
DIM
100
AcDbLine
 10
89.5213613432
 20
49.7800674943
 30
0.0
 11
89.5213613432
 21
37.6103890505
 31
0.0
  0
LINE
  5
217
330
210
100
AcDbEntity
  8
DIM
100
AcDbLine
 10
58.126869464
 20
38.1103890505
 30
0.0
 11
89.5213613432
 21
38.1103890505
 31
0.0
  0
MTEXT
  5
218
330
210
100
AcDbEntity
  8
DIM
100
AcDbMText
 10
72.5199401646
 20
39.64518527
 30
0.0
 40
1.190625
 41
0.0
 71
     1
 72
     1
  1
31.4
  7
SLDTEXTSTYLE1
 73
     1
 44
1.0
  0
ENDBLK
  5
212
330
210
100
AcDbEntity
  8
0
100
AcDbBlockEnd
  0
BLOCK
  5
21B
330
21A
100
AcDbEntity
  8
0
100
AcDbBlockBegin
  2
_D_3
 70
     0
 10
0.0
 20
0.0
 30
0.0
  3
_D_3
  1

  0
SOLID
  5
21D
330
21A
100
AcDbEntity
  8
DIM
100
AcDbTrace
 10
31.0213720418
 20
35.6103890505
 30
0.0
 11
32.0213720418
 21
35.4853890505
 31
0.0
 12
32.0213720418
 22
35.7353890505
 32
0.0
 13
32.0213720418
 23
35.7353890505
 33
0.0
  0
SOLID
  5
21E
330
21A
100
AcDbEntity
  8
DIM
100
AcDbTrace
 10
89.5213613432
 20
35.6103890505
 30
0.0
 11
88.5213613432
 21
35.7353890505
 31
0.0
 12
88.5213613432
 22
35.4853890505
 32
0.0
 13
88.5213613432
 23
35.4853890505
 33
0.0
  0
LINE
  5
21F
330
21A
100
AcDbEntity
  8
DIM
100
AcDbLine
 10
31.0213720418
 20
49.7800674943
 30
0.0
 11
31.0213720418
 21
35.1103890505
 31
0.0
  0
LINE
  5
220
330
21A
100
AcDbEntity
  8
DIM
100
AcDbLine
 10
89.5213613432
 20
49.7800674943
 30
0.0
 11
89.5213613432
 21
35.1103890505
 31
0.0
  0
LINE
  5
221
330
21A
100
AcDbEntity
  8
DIM
100
AcDbLine
 10
31.0213720418
 20
35.6103890505
 30
0.0
 11
89.5213613432
 21
35.6103890505
 31
0.0
  0
MTEXT
  5
222
330
21A
100
AcDbEntity
  8
DIM
100
AcDbMText
 10
58.9671914534
 20
37.14518527
 30
0.0
 40
1.190625
 41
0.0
 71
     1
 72
     1
  1
58.5
  7
SLDTEXTSTYLE1
 73
     1
 44
1.0
  0
ENDBLK
  5
21C
330
21A
100
AcDbEntity
  8
0
100
AcDbBlockEnd
  0
BLOCK
  5
225
330
224
100
AcDbEntity
  8
0
100
AcDbBlockBegin
  2
_D_4
 70
     0
 10
0.0
 20
0.0
 30
0.0
  3
_D_4
  1

  0
SOLID
  5
227
330
224
100
AcDbEntity
  8
DIM
100
AcDbTrace
 10
27.5213720418
 20
52.7800674943
 30
0.0
 11
27.3963720418
 21
51.7800674943
 31
0.0
 12
27.6463720418
 22
51.7800674943
 32
0.0
 13
27.6463720418
 23
51.7800674943
 33
0.0
  0
SOLID
  5
228
330
224
100
AcDbEntity
  8
DIM
100
AcDbTrace
 10
27.5213720418
 20
47.7800674943
 30
0.0
 11
27.6463720418
 21
48.7800674943
 31
0.0
 12
27.3963720418
 22
48.7800674943
 32
0.0
 13
27.3963720418
 23
48.7800674943
 33
0.0
  0
LINE
  5
229
330
224
100
AcDbEntity
  8
DIM
100
AcDbLine
 10
31.1213720418
 20
52.7800674943
 30
0.0
 11
27.0213720418
 21
52.7800674943
 31
0.0
  0
LINE
  5
22A
330
224
100
AcDbEntity
  8
DIM
100
AcDbLine
 10
31.1213720418
 20
47.7800674943
 30
0.0
 11
27.0213720418
 21
47.7800674943
 31
0.0
  0
LINE
  5
22B
330
224
100
AcDbEntity
  8
DIM
100
AcDbLine
 10
27.5213720418
 20
52.7800674943
 30
0.0
 11
27.5213720418
 21
47.7800674943
 31
0.0
  0
MTEXT
  5
22C
330
224
100
AcDbEntity
  8
DIM
100
AcDbMText
 10
25.9865757059
 20
49.1533834787
 30
0.0
 40
1.190625
 41
0.0
 71
     1
 72
     1
  1
%%c
  7
SLDTEXTSTYLE1
 11
-1.770233605404514E-14
 21
1.0
 31
0.0
 73
     1
 44
1.0
  0
MTEXT
  5
22D
330
224
100
AcDbEntity
  8
DIM
100
AcDbMText
 10
25.9865757059
 20
50.6615084663
 30
0.0
 40
1.190625
 41
0.0
 71
     1
 72
     1
  1
5
  7
SLDTEXTSTYLE1
 11
-1.770233605404514E-14
 21
1.0
 31
0.0
 73
     1
 44
1.0
  0
ENDBLK
  5
226
330
224
100
AcDbEntity
  8
0
100
AcDbBlockEnd
  0
BLOCK
  5
230
330
22F
100
AcDbEntity
  8
0
100
AcDbBlockBegin
  2
_D_5
 70
     0
 10
0.0
 20
0.0
 30
0.0
  3
_D_5
  1

  0
SOLID
  5
232
330
22F
100
AcDbEntity
  8
DIM
100
AcDbTrace
 10
25.0213720418
 20
57.2800674943
 30
0.0
 11
24.8963720418
 21
56.2800674943
 31
0.0
 12
25.1463720418
 22
56.2800674943
 32
0.0
 13
25.1463720418
 23
56.2800674943
 33
0.0
  0
SOLID
  5
233
330
22F
100
AcDbEntity
  8
DIM
100
AcDbTrace
 10
25.0213720418
 20
43.2800674943
 30
0.0
 11
25.1463720418
 21
44.2800674943
 31
0.0
 12
24.8963720418
 22
44.2800674943
 32
0.0
 13
24.8963720418
 23
44.2800674943
 33
0.0
  0
LINE
  5
234
330
22F
100
AcDbEntity
  8
DIM
100
AcDbLine
 10
48.126869464
 20
57.2800674943
 30
0.0
 11
24.5213720418
 21
57.2800674943
 31
0.0
  0
LINE
  5
235
330
22F
100
AcDbEntity
  8
DIM
100
AcDbLine
 10
48.126869464
 20
43.2800674943
 30
0.0
 11
24.5213720418
 21
43.2800674943
 31
0.0
  0
LINE
  5
236
330
22F
100
AcDbEntity
  8
DIM
100
AcDbLine
 10
25.0213720418
 20
57.2800674943
 30
0.0
 11
25.0213720418
 21
43.2800674943
 31
0.0
  0
MTEXT
  5
237
330
22F
100
AcDbEntity
  8
DIM
100
AcDbMText
 10
23.4865757059
 20
48.7807620151
 30
0.0
 40
1.190625
 41
0.0
 71
     1
 72
     1
  1
%%c
  7
SLDTEXTSTYLE1
 11
-1.770233605404514E-14
 21
1.0
 31
0.0
 73
     1
 44
1.0
  0
MTEXT
  5
238
330
22F
100
AcDbEntity
  8
DIM
100
AcDbMText
 10
23.4865757059
 20
50.2888870027
 30
0.0
 40
1.190625
 41
0.0
 71
     1
 72
     1
  1
14
  7
SLDTEXTSTYLE1
 11
-1.770233605404514E-14
 21
1.0
 31
0.0
 73
     1
 44
1.0
  0
ENDBLK
  5
231
330
22F
100
AcDbEntity
  8
0
100
AcDbBlockEnd
  0
BLOCK
  5
23B
330
23A
100
AcDbEntity
  8
0
100
AcDbBlockBegin
  2
_D_6
 70
     0
 10
0.0
 20
0.0
 30
0.0
  3
_D_6
  1

  0
SOLID
  5
23D
330
23A
100
AcDbEntity
  8
DIM
100
AcDbTrace
 10
48.526869464
 20
62.4497459381
 30
0.0
 11
49.526869464
 21
62.3247459381
 31
0.0
 12
49.526869464
 22
62.5747459381
 32
0.0
 13
49.526869464
 23
62.5747459381
 33
0.0
  0
SOLID
  5
23E
330
23A
100
AcDbEntity
  8
DIM
100
AcDbTrace
 10
52.526869464
 20
62.4497459381
 30
0.0
 11
51.526869464
 21
62.5747459381
 31
0.0
 12
51.526869464
 22
62.3247459381
 32
0.0
 13
51.526869464
 23
62.3247459381
 33
0.0
  0
LINE
  5
23F
330
23A
100
AcDbEntity
  8
DIM
100
AcDbLine
 10
48.526869464
 20
57.6800674943
 30
0.0
 11
48.526869464
 21
62.9497459381
 31
0.0
  0
LINE
  5
240
330
23A
100
AcDbEntity
  8
DIM
100
AcDbLine
 10
52.526869464
 20
57.6800674943
 30
0.0
 11
52.526869464
 21
62.9497459381
 31
0.0
  0
LINE
  5
241
330
23A
100
AcDbEntity
  8
DIM
100
AcDbLine
 10
48.526869464
 20
62.4497459381
 30
0.0
 11
52.526869464
 21
62.4497459381
 31
0.0
  0
MTEXT
  5
242
330
23A
100
AcDbEntity
  8
DIM
100
AcDbMText
 10
50.1542479422
 20
63.9845421576
 30
0.0
 40
1.190625
 41
0.0
 71
     1
 72
     1
  1
4
  7
SLDTEXTSTYLE1
 73
     1
 44
1.0
  0
ENDBLK
  5
23C
330
23A
100
AcDbEntity
  8
0
100
AcDbBlockEnd
  0
BLOCK
  5
245
330
244
100
AcDbEntity
  8
0
100
AcDbBlockBegin
  2
_D_7
 70
     0
 10
0.0
 20
0.0
 30
0.0
  3
_D_7
  1

  0
SOLID
  5
247
330
244
100
AcDbEntity
  8
DIM
100
AcDbTrace
 10
93.0213720418
 20
56.7800674943
 30
0.0
 11
92.8963720418
 21
55.7800674943
 31
0.0
 12
93.1463720418
 22
55.7800674943
 32
0.0
 13
93.1463720418
 23
55.7800674943
 33
0.0
  0
SOLID
  5
248
330
244
100
AcDbEntity
  8
DIM
100
AcDbTrace
 10
93.0213720418
 20
43.7800674943
 30
0.0
 11
93.1463720418
 21
44.7800674943
 31
0.0
 12
92.8963720418
 22
44.7800674943
 32
0.0
 13
92.8963720418
 23
44.7800674943
 33
0.0
  0
LINE
  5
249
330
244
100
AcDbEntity
  8
DIM
100
AcDbLine
 10
86.0213720418
 20
56.7800674943
 30
0.0
 11
93.5213720418
 21
56.7800674943
 31
0.0
  0
LINE
  5
24A
330
244
100
AcDbEntity
  8
DIM
100
AcDbLine
 10
86.0213720418
 20
43.7800674943
 30
0.0
 11
93.5213720418
 21
43.7800674943
 31
0.0
  0
LINE
  5
24B
330
244
100
AcDbEntity
  8
DIM
100
AcDbLine
 10
93.0213720418
 20
56.7800674943
 30
0.0
 11
93.0213720418
 21
43.7800674943
 31
0.0
  0
MTEXT
  5
24C
330
244
100
AcDbEntity
  8
DIM
100
AcDbMText
 10
91.4865757059
 20
48.7807620151
 30
0.0
 40
1.190625
 41
0.0
 71
     1
 72
     1
  1
%%c
  7
SLDTEXTSTYLE1
 11
-1.770233605404514E-14
 21
1.0
 31
0.0
 73
     1
 44
1.0
  0
MTEXT
  5
24D
330
244
100
AcDbEntity
  8
DIM
100
AcDbMText
 10
91.4865757059
 20
50.2888870027
 30
0.0
 40
1.190625
 41
0.0
 71
     1
 72
     1
  1
13
  7
SLDTEXTSTYLE1
 11
-1.770233605404514E-14
 21
1.0
 31
0.0
 73
     1
 44
1.0
  0
ENDBLK
  5
246
330
244
100
AcDbEntity
  8
0
100
AcDbBlockEnd
  0
BLOCK
  5
24F
330
24E
100
AcDbEntity
  8
0
100
AcDbBlockBegin
  2
SW_NOTE_2
 70
     0
 10
0.0
 20
0.0
 30
0.0
  3
SW_NOTE_2
  1

  0
LINE
  5
251
330
24E
100
AcDbEntity
  8
DIM
 62
     0
100
AcDbLine
 10
5.7387761759
 20
0.0
 30
0.0
 11
0.0
 21
0.0
 31
0.0
  0
MTEXT
  5
252
330
24E
100
AcDbEntity
  8
DIM
 62
     0
100
AcDbMText
 10
0.2323493515
 20
1.537093858
 30
0.0
 40
1.190625
 41
0.0
 71
     1
 72
     1
  1
M9.5x0.5
  7
SLDTEXTSTYLE1
 73
     1
 44
1.0
  0
ENDBLK
  5
250
330
24E
100
AcDbEntity
  8
0
100
AcDbBlockEnd
  0
ENDSEC
  0
SECTION
  2
ENTITIES
  0
HATCH
  5
89
330
1F
100
AcDbEntity
  8
0
  6
Continuous
 62
     7
100
AcDbHatch
 10
0.0
 20
0.0
 30
0.0
210
0.0
220
0.0
230
1.0
  2
SOLID
 70
     1
 71
     0
 91
        1
 92
        0
 93
       10
 72
     2
 10
96.07029828146834
 20
17.87790440494428
 40
1.494818328884929
 50
50.39692260731407
 51
112.8514693252983
 73
     0
 72
     2
 10
95.907502981406
 20
17.71949914003102
 40
1.288667713408809
 50
108.9134333432861
 51
219.5668234386827
 73
     0
 72
     1
 10
94.91409196948017
 20
18.54035176807505
 11
94.40649504577894
 21
18.98811771848393
 72
     1
 10
94.40649504577894
 20
18.98811771848393
 11
93.75318091833812
 21
18.35732418023018
 72
     2
 10
94.24712339931945
 20
17.77306056386223
 40
0.7650772169718307
 50
130.2115225915088
 51
228.5889041080191
 73
     1
 72
     1
 10
93.7410576273255
 20
17.19926566814989
 11
95.7456587824233
 21
15.45696374801255
 72
     1
 10
95.7456587824233
 20
15.45696374801255
 11
95.43013282221574
 21
15.14901355277703
 72
     1
 10
95.43013282221574
 20
15.14901355277703
 11
95.92607250457851
 21
14.72202641930012
 72
     1
 10
95.92607250457851
 20
14.72202641930012
 11
97.53090472176115
 21
16.28031540205786
 72
     1
 10
97.53090472176115
 20
16.28031540205786
 11
97.02319320593206
 21
16.72617826592441
 97
        0
 75
     0
 76
     1
 98
        1
 10
0.0
 20
0.0
  0
HATCH
  5
8A
330
1F
100
AcDbEntity
  8
0
  6
Continuous
 62
     1
100
AcDbHatch
 10
0.0
 20
0.0
 30
0.0
210
0.0
220
0.0
230
1.0
  2
SOLID
 70
     1
 71
     0
 91
        1
 92
        0
 93
       10
 72
     2
 10
96.29462278138442
 20
17.83153457815805
 40
1.288783744173125
 50
317.8184992995785
 51
398.0564711573078
 73
     0
 72
     1
 10
97.30941570290815
 20
17.03707950348723
 11
97.80214014939956
 21
16.60773103354249
 72
     1
 10
97.80214014939956
 20
16.60773103354249
 11
98.42298080679645
 21
17.2099475047461
 72
     2
 10
97.97628464396539
 20
17.82392087065656
 40
0.7592764687091326
 50
306.0377529468138
 51
403.4396461533871
 73
     1
 72
     1
 10
98.52759457630154
 20
18.34599185667563
 11
96.46421664712989
 21
20.14057999099261
 72
     1
 10
96.46421664712989
 20
20.14057999099261
 11
96.77634229809352
 21
20.44510920641128
 72
     1
 10
96.77634229809352
 20
20.44510920641128
 11
96.3110890430015
 21
20.86020531633353
 72
     1
 10
96.3110890430015
 20
20.86020531633353
 11
94.69329631879657
 21
19.29674519302649
 72
     1
 10
94.69329631879657
 20
19.29674519302649
 11
95.20450025747084
 21
18.85084992946609
 72
     2
 10
96.13579463602218
 20
17.56112367541896
 40
1.590818352263938
 50
234.1674444878512
 51
314.4407074583994
 73
     0
 97
        0
 75
     0
 76
     1
 98
        1
 10
0.0
 20
0.0
  0
LINE
  5
8B
330
1F
100
AcDbEntity
  8
0
  6
Continuous
 62
     7
370
     0
100
AcDbLine
 10
83.9296887592
 20
8.8872596256
 30
0.0
 11
84.4296887592
 21
8.8872596256
 31
0.0
  0
LINE
  5
8C
330
1F
100
AcDbEntity
  8
0
  6
Continuous
 62
     7
370
     0
100
AcDbLine
 10
82.4296887592
 20
8.8872596256
 30
0.0
 11
83.6796887592
 21
8.8872596256
 31
0.0
  0
LINE
  5
8D
330
1F
100
AcDbEntity
  8
0
  6
Continuous
 62
     7
370
     0
100
AcDbLine
 10
90.6796887592
 20
7.6372596256
 30
0.0
 11
90.6796887592
 21
10.1372596256
 31
0.0
  0
LINE
  5
8E
330
1F
100
AcDbEntity
  8
0
  6
Continuous
 62
     7
370
     0
100
AcDbLine
 10
87.1796887592
 20
8.1372596256
 30
0.0
 11
90.6796887592
 21
7.6372596256
 31
0.0
  0
LINE
  5
8F
330
1F
100
AcDbEntity
  8
0
  6
Continuous
 62
     7
370
     0
100
AcDbLine
 10
84.1796887592
 20
8.3872596256
 30
0.0
 11
84.1796887592
 21
7.1372596256
 31
0.0
  0
LINE
  5
90
330
1F
100
AcDbEntity
  8
0
  6
Continuous
 62
     7
370
     0
100
AcDbLine
 10
90.6796887592
 20
10.1372596256
 30
0.0
 11
87.1796887592
 21
9.6372596256
 31
0.0
  0
LINE
  5
91
330
1F
100
AcDbEntity
  8
0
  6
Continuous
 62
     7
370
     0
100
AcDbLine
 10
86.6796887592
 20
8.8872596256
 30
0.0
 11
91.1796887592
 21
8.8872596256
 31
0.0
  0
LINE
  5
92
330
1F
100
AcDbEntity
  8
0
  6
Continuous
 62
     7
370
     0
100
AcDbLine
 10
84.1796887592
 20
9.1372596256
 30
0.0
 11
84.1796887592
 21
8.6372596256
 31
0.0
  0
LINE
  5
93
330
1F
100
AcDbEntity
  8
0
  6
Continuous
 62
     7
370
     0
100
AcDbLine
 10
84.6796887592
 20
8.8872596256
 30
0.0
 11
85.9296887592
 21
8.8872596256
 31
0.0
  0
LINE
  5
94
330
1F
100
AcDbEntity
  8
0
  6
Continuous
 62
     7
370
     0
100
AcDbLine
 10
84.1796887592
 20
10.6372596256
 30
0.0
 11
84.1796887592
 21
9.3872596256
 31
0.0
  0
LINE
  5
95
330
1F
100
AcDbEntity
  8
0
  6
Continuous
 62
     7
370
     0
100
AcDbLine
 10
87.1796887592
 20
9.6372596256
 30
0.0
 11
87.1796887592
 21
8.1372596256
 31
0.0
  0
LINE
  5
96
330
1F
100
AcDbEntity
  8
工作區域參考線
 62
     1
370
    30
100
AcDbLine
 10
95.2045002575
 20
18.8508499295
 30
0.0
 11
94.6932963188
 21
19.296745193
 31
0.0
  0
LINE
  5
97
330
1F
100
AcDbEntity
  8
工作區域參考線
 62
     1
370
    30
100
AcDbLine
 10
94.6932963188
 20
19.296745193
 30
0.0
 11
96.311089043
 21
20.8602053163
 31
0.0
  0
LINE
  5
98
330
1F
100
AcDbEntity
  8
工作區域參考線
 62
     1
370
    30
100
AcDbLine
 10
96.311089043
 20
20.8602053163
 30
0.0
 11
96.7763422981
 21
20.4451092064
 31
0.0
  0
LINE
  5
99
330
1F
100
AcDbEntity
  8
工作區域參考線
 62
     1
370
    30
100
AcDbLine
 10
96.7763422981
 20
20.4451092064
 30
0.0
 11
96.4642166471
 21
20.140579991
 31
0.0
  0
LINE
  5
9A
330
1F
100
AcDbEntity
  8
工作區域參考線
 62
     1
370
    30
100
AcDbLine
 10
96.4642166471
 20
20.140579991
 30
0.0
 11
98.5275945763
 21
18.3459918567
 31
0.0
  0
LINE
  5
9B
330
1F
100
AcDbEntity
  8
工作區域參考線
 62
     1
370
    30
100
AcDbLine
 10
97.3094157029
 20
17.0370795035
 30
0.0
 11
97.8021401494
 21
16.6077310335
 31
0.0
  0
LINE
  5
9C
330
1F
100
AcDbEntity
  8
工作區域參考線
 62
     1
370
    30
100
AcDbLine
 10
97.8021401494
 20
16.6077310335
 30
0.0
 11
98.4229808068
 21
17.2099475047
 31
0.0
  0
LINE
  5
9D
330
1F
100
AcDbEntity
  8
0
  6
Continuous
 62
     7
370
     0
100
AcDbLine
 10
92.8453982605
 20
6.557623204
 30
0.0
 11
142.8453982605
 21
6.557623204
 31
0.0
  0
LINE
  5
9E
330
1F
100
AcDbEntity
  8
0
  6
Continuous
 62
     7
370
     0
100
AcDbLine
 10
92.8453982605
 20
9.057623204
 30
0.0
 11
117.8453982605
 21
9.057623204
 31
0.0
  0
LINE
  5
9F
330
1F
100
AcDbEntity
  8
0
  6
Continuous
 62
     7
370
     0
100
AcDbLine
 10
92.8453982605
 20
11.557623204
 30
0.0
 11
117.8453982605
 21
11.557623204
 31
0.0
  0
LINE
  5
A0
330
1F
100
AcDbEntity
  8
0
  6
Continuous
 62
     7
370
     0
100
AcDbLine
 10
92.8453982605
 20
14.057623204
 30
0.0
 11
142.8453982605
 21
14.057623204
 31
0.0
  0
LINE
  5
A1
330
1F
100
AcDbEntity
  8
0
  6
Continuous
 62
     7
370
     0
100
AcDbLine
 10
117.8453982605
 20
16.557623204
 30
0.0
 11
142.8453982605
 21
16.557623204
 31
0.0
  0
LINE
  5
A2
330
1F
100
AcDbEntity
  8
0
  6
Continuous
 62
     7
370
    15
100
AcDbLine
 10
117.8453982605
 20
9.057623204
 30
0.0
 11
142.8453982605
 21
9.057623204
 31
0.0
  0
LINE
  5
A3
330
1F
100
AcDbEntity
  8
0
  6
Continuous
 62
     7
370
     0
100
AcDbLine
 10
92.8453982605
 20
21.557623204
 30
0.0
 11
142.8453982605
 21
21.557623204
 31
0.0
  0
LINE
  5
A4
330
1F
100
AcDbEntity
  8
0
  6
Continuous
 62
     7
370
     0
100
AcDbLine
 10
125.6186088375
 20
4.057623204
 30
0.0
 11
125.6186088375
 21
9.057623204
 31
0.0
  0
LINE
  5
A5
330
1F
100
AcDbEntity
  8
0
  6
Continuous
 62
     7
370
     0
100
AcDbLine
 10
117.8453982605
 20
4.057623204
 30
0.0
 11
117.8453982605
 21
21.557623204
 31
0.0
  0
LINE
  5
A6
330
1F
100
AcDbEntity
  8
0
  6
Continuous
 62
     7
370
     0
100
AcDbLine
 10
125.6186088375
 20
14.057623204
 30
0.0
 11
125.6186088375
 21
16.557623204
 31
0.0
  0
LINE
  5
A7
330
1F
100
AcDbEntity
  8
0
  6
Continuous
 62
     7
370
     0
100
AcDbLine
 10
107.2082043177
 20
4.057623204
 30
0.0
 11
107.2082043177
 21
14.057623204
 31
0.0
  0
LINE
  5
A8
330
1F
100
AcDbEntity
  8
0
  6
Continuous
 62
     7
370
     0
100
AcDbLine
 10
99.8892943753
 20
4.057623204
 30
0.0
 11
99.8892943753
 21
14.057623204
 31
0.0
  0
LINE
  5
A9
330
1F
100
AcDbEntity
  8
0
  6
Continuous
 62
     7
370
     0
100
AcDbLine
 10
92.8453982605
 20
4.057623204
 30
0.0
 11
92.8453982605
 21
21.557623204
 31
0.0
  0
LINE
  5
AA
330
1F
100
AcDbEntity
  8
0
  6
Continuous
 62
     7
370
    15
100
AcDbLine
 10
21.6603982605
 20
100.6860137875
 30
0.0
 11
21.6603982605
 21
101.4360137875
 31
0.0
  0
LINE
  5
AB
330
1F
100
AcDbEntity
  8
0
  6
Continuous
 62
     7
370
    15
100
AcDbLine
 10
38.9753982605
 20
100.6860137875
 30
0.0
 11
38.9753982605
 21
101.4360137875
 31
0.0
  0
LINE
  5
AC
330
1F
100
AcDbEntity
  8
0
  6
Continuous
 62
     7
370
    15
100
AcDbLine
 10
56.2903982605
 20
100.6860137875
 30
0.0
 11
56.2903982605
 21
101.4360137875
 31
0.0
  0
LINE
  5
AD
330
1F
100
AcDbEntity
  8
0
  6
Continuous
 62
     7
370
    15
100
AcDbLine
 10
73.6053982605
 20
100.6860137875
 30
0.0
 11
73.6053982605
 21
101.4360137875
 31
0.0
  0
LINE
  5
AE
330
1F
100
AcDbEntity
  8
0
  6
Continuous
 62
     7
370
    15
100
AcDbLine
 10
90.9203982605
 20
100.6860137875
 30
0.0
 11
90.9203982605
 21
101.4360137875
 31
0.0
  0
LINE
  5
AF
330
1F
100
AcDbEntity
  8
0
  6
Continuous
 62
     7
370
    15
100
AcDbLine
 10
108.2353982605
 20
100.6860137875
 30
0.0
 11
108.2353982605
 21
101.4360137875
 31
0.0
  0
LINE
  5
B0
330
1F
100
AcDbEntity
  8
0
  6
Continuous
 62
     7
370
    15
100
AcDbLine
 10
125.5503982605
 20
100.6860137875
 30
0.0
 11
125.5503982605
 21
101.4360137875
 31
0.0
  0
LINE
  5
B1
330
1F
100
AcDbEntity
  8
0
  6
Continuous
 62
     7
370
    15
100
AcDbLine
 10
21.6578982605
 20
4.057623204
 30
0.0
 11
21.6578982605
 21
3.307623204
 31
0.0
  0
LINE
  5
B2
330
1F
100
AcDbEntity
  8
0
  6
Continuous
 62
     7
370
    15
100
AcDbLine
 10
38.9703982605
 20
4.057623204
 30
0.0
 11
38.9703982605
 21
3.307623204
 31
0.0
  0
LINE
  5
B3
330
1F
100
AcDbEntity
  8
0
  6
Continuous
 62
     7
370
    15
100
AcDbLine
 10
56.2828982605
 20
4.057623204
 30
0.0
 11
56.2828982605
 21
3.307623204
 31
0.0
  0
LINE
  5
B4
330
1F
100
AcDbEntity
  8
0
  6
Continuous
 62
     7
370
    15
100
AcDbLine
 10
73.5953982605
 20
4.057623204
 30
0.0
 11
73.5953982605
 21
3.307623204
 31
0.0
  0
LINE
  5
B5
330
1F
100
AcDbEntity
  8
0
  6
Continuous
 62
     7
370
    15
100
AcDbLine
 10
90.9078982605
 20
4.057623204
 30
0.0
 11
90.9078982605
 21
3.307623204
 31
0.0
  0
LINE
  5
B6
330
1F
100
AcDbEntity
  8
0
  6
Continuous
 62
     7
370
    15
100
AcDbLine
 10
108.2203982605
 20
4.057623204
 30
0.0
 11
108.2203982605
 21
3.307623204
 31
0.0
  0
LINE
  5
B7
330
1F
100
AcDbEntity
  8
0
  6
Continuous
 62
     7
370
     0
100
AcDbLine
 10
142.8453982605
 20
100.6860137875
 30
0.0
 11
4.3453982605
 21
100.6860137875
 31
0.0
  0
LINE
  5
B8
330
1F
100
AcDbEntity
  8
0
  6
Continuous
 62
     7
370
     0
100
AcDbLine
 10
142.8453982605
 20
4.057623204
 30
0.0
 11
142.8453982605
 21
100.6860137875
 31
0.0
  0
LINE
  5
B9
330
1F
100
AcDbEntity
  8
0
  6
Continuous
 62
     7
370
     0
100
AcDbLine
 10
4.3453982605
 20
100.6860137875
 30
0.0
 11
4.3453982605
 21
4.057623204
 31
0.0
  0
LINE
  5
BA
330
1F
100
AcDbEntity
  8
0
  6
Continuous
 62
     7
370
     0
100
AcDbLine
 10
4.3453982605
 20
4.057623204
 30
0.0
 11
142.8453982605
 21
4.057623204
 31
0.0
  0
LINE
  5
BB
330
1F
100
AcDbEntity
  8
0
  6
Continuous
 62
     7
370
    15
100
AcDbLine
 10
125.5328982605
 20
4.057623204
 30
0.0
 11
125.5328982605
 21
3.307623204
 31
0.0
  0
LINE
  5
BC
330
1F
100
AcDbEntity
  8
0
  6
Continuous
 62
     7
370
    15
100
AcDbLine
 10
4.3453982605
 20
20.162623204
 30
0.0
 11
3.5953982605
 21
20.162623204
 31
0.0
  0
LINE
  5
BD
330
1F
100
AcDbEntity
  8
0
  6
Continuous
 62
     7
370
    15
100
AcDbLine
 10
4.3453982605
 20
36.267623204
 30
0.0
 11
3.5953982605
 21
36.267623204
 31
0.0
  0
LINE
  5
BE
330
1F
100
AcDbEntity
  8
0
  6
Continuous
 62
     7
370
    15
100
AcDbLine
 10
4.3453982605
 20
52.372623204
 30
0.0
 11
3.5953982605
 21
52.372623204
 31
0.0
  0
LINE
  5
BF
330
1F
100
AcDbEntity
  8
0
  6
Continuous
 62
     7
370
    15
100
AcDbLine
 10
4.3453982605
 20
68.477623204
 30
0.0
 11
3.5953982605
 21
68.477623204
 31
0.0
  0
LINE
  5
C0
330
1F
100
AcDbEntity
  8
0
  6
Continuous
 62
     7
370
    15
100
AcDbLine
 10
4.3453982605
 20
84.582623204
 30
0.0
 11
3.5953982605
 21
84.582623204
 31
0.0
  0
LINE
  5
C1
330
1F
100
AcDbEntity
  8
0
  6
Continuous
 62
     7
370
    15
100
AcDbLine
 10
142.8453982605
 20
20.162623204
 30
0.0
 11
143.5953982605
 21
20.162623204
 31
0.0
  0
LINE
  5
C2
330
1F
100
AcDbEntity
  8
0
  6
Continuous
 62
     7
370
    15
100
AcDbLine
 10
142.8453982605
 20
36.267623204
 30
0.0
 11
143.5953982605
 21
36.267623204
 31
0.0
  0
LINE
  5
C3
330
1F
100
AcDbEntity
  8
0
  6
Continuous
 62
     7
370
    15
100
AcDbLine
 10
142.8453982605
 20
52.372623204
 30
0.0
 11
143.5953982605
 21
52.372623204
 31
0.0
  0
LINE
  5
C4
330
1F
100
AcDbEntity
  8
0
  6
Continuous
 62
     7
370
    15
100
AcDbLine
 10
142.8453982605
 20
68.477623204
 30
0.0
 11
143.5953982605
 21
68.477623204
 31
0.0
  0
LINE
  5
C5
330
1F
100
AcDbEntity
  8
0
  6
Continuous
 62
     7
370
    15
100
AcDbLine
 10
142.8453982605
 20
84.582623204
 30
0.0
 11
143.5953982605
 21
84.582623204
 31
0.0
  0
CIRCLE
  5
C6
330
1F
100
AcDbEntity
  8
0
  6
Continuous
 62
     7
370
     0
100
AcDbCircle
 10
84.1796887592
 20
8.8872596256
 30
0.0
 40
0.75
  0
CIRCLE
  5
C7
330
1F
100
AcDbEntity
  8
0
  6
Continuous
 62
     7
370
     0
100
AcDbCircle
 10
84.1796887592
 20
8.8872596256
 30
0.0
 40
1.25
  0
ARC
  5
C8
330
1F
100
AcDbEntity
  8
工作區域參考線
 62
     1
370
    30
100
AcDbCircle
 10
97.976284644
 20
17.8239208707
 30
0.0
 40
0.7592764687091375
100
AcDbArc
 50
306.0377529468
 51
43.4396461534
  0
ARC
  5
C9
330
1F
100
AcDbEntity
  8
工作區域參考線
 62
     1
370
    30
100
AcDbCircle
 10
96.135794636
 20
17.5611236754
 30
0.0
 40
1.590818352263945
100
AcDbArc
 50
45.5592925416
 51
125.8325555121
  0
ARC
  5
CA
330
1F
100
AcDbEntity
  8
工作區域參考線
 62
     1
370
    30
100
AcDbCircle
 10
96.2946227814
 20
17.8315345782
 30
0.0
 40
1.288783744173133
100
AcDbArc
 50
321.9435288427
 51
42.1815007004
  0
INSERT
  5
CB
330
1F
100
AcDbEntity
  8
0
  6
Continuous
 62
     7
100
AcDbBlockReference
  2
圖塊6
 10
93.4820461823
 20
14.7220264193
 30
0.0
  0
MTEXT
  5
CD
330
1F
100
AcDbEntity
  8
0
  6
Continuous
 62
     7
370
     0
100
AcDbMText
 10
82.7713425402
 20
6.6104220185
 30
0.0
 40
1.3229166667
 41
0.0
 71
     1
 72
     1
  1
UNIT:m/m
  7
SLDTEXTSTYLE0
 73
     1
 44
1.0
  0
INSERT
  5
D4
330
1F
100
AcDbEntity
  8
0
  6
Continuous
 62
     7
370
     0
100
AcDbBlockReference
  2
SW_NOTE_0
 10
6.1157538027
 20
96.9452152126
 30
0.0
  0
MTEXT
  5
D5
330
1F
100
AcDbEntity
  8
0
  6
Continuous
 62
     7
370
     0
100
AcDbMText
 10
99.3625946967
 20
20.2203387069
 30
0.0
 40
1.190625
 41
0.0
 71
     1
 72
     1
  1
Unice E-O Services Inc.
  7
SLDTEXTSTYLE0
 73
     1
 44
1.0
  0
MTEXT
  5
D6
330
1F
100
AcDbEntity
  8
0
  6
Continuous
 62
     7
370
     0
100
AcDbMText
 10
108.7795269075
 20
10.7933574255
 30
0.0
 40
0.9260416667
 41
0.0
 71
     1
 72
     1
  1
2018/1/17
  7
SLDTEXTSTYLE0
 73
     1
 44
1.0
  0
MTEXT
  5
D7
330
1F
100
AcDbEntity
  8
0
  6
Continuous
 62
     7
370
     0
100
AcDbMText
 10
126.3044491253
 20
8.43558887
 30
0.0
 40
1.25
 41
0.0
 71
     1
 72
     1
  1
2:1
  7
SLDTEXTSTYLE0
 73
     1
 44
1.0
  0
MTEXT
  5
D8
330
1F
100
AcDbEntity
  8
0
  6
Continuous
 62
     7
370
     0
100
AcDbMText
 10
126.1537799992
 20
16.0759597719
 30
0.0
 40
1.25
 41
0.0
 71
     1
 72
     1
  1
07MT13-4
  7
SLDTEXTSTYLE0
 73
     1
 44
1.0
  0
MTEXT
  5
D9
330
1F
100
AcDbEntity
  8
0
  6
Continuous
 62
     7
370
     0
100
AcDbMText
 10
126.1537799992
 20
19.0541058939
 30
0.0
 40
1.25
 41
0.0
 71
     1
 72
     1
  1
07MT13-4
  7
SLDTEXTSTYLE0
 73
     1
 44
1.0
  0
MTEXT
  5
DA
330
1F
100
AcDbEntity
  8
0
  6
Continuous
 62
     7
370
     0
100
AcDbMText
 10
118.1960933393
 20
8.2532397864
 30
0.0
 40
1.0583333333
 41
0.0
 71
     1
 72
     1
  1
SCALE:
  7
SLDTEXTSTYLE0
 73
     1
 44
1.0
  0
MTEXT
  5
DB
330
1F
100
AcDbEntity
  8
0
  6
Continuous
 62
     7
370
     0
100
AcDbMText
 10
93.1668043395
 20
10.7933574255
 30
0.0
 40
0.9260416667
 41
0.0
 71
     1
 72
     1
  1
DRAWN
  7
SLDTEXTSTYLE0
 73
     1
 44
1.0
  0
MTEXT
  5
DC
330
1F
100
AcDbEntity
  8
0
  6
Continuous
 62
     7
370
     0
100
AcDbMText
 10
101.6114183968
 20
13.341604154
 30
0.0
 40
0.9260416667
 41
0.0
 71
     1
 72
     1
  1
NAME
  7
SLDTEXTSTYLE0
 73
     1
 44
1.0
  0
MTEXT
  5
DD
330
1F
100
AcDbEntity
  8
0
  6
Continuous
 62
     7
370
     0
100
AcDbMText
 10
110.4355077879
 20
13.341604154
 30
0.0
 40
0.9260416667
 41
0.0
 71
     1
 72
     1
  1
DATE
  7
SLDTEXTSTYLE0
 73
     1
 44
1.0
  0
MTEXT
  5
DE
330
1F
100
AcDbEntity
  8
0
  6
Continuous
 62
     7
370
     0
100
AcDbMText
 10
118.1378158323
 20
15.8936106883
 30
0.0
 40
1.0583333333
 41
0.0
 71
     1
 72
     1
  1
DWG. NO.
  7
SLDTEXTSTYLE0
 73
     1
 44
1.0
  0
MTEXT
  5
DF
330
1F
100
AcDbEntity
  8
0
  6
Continuous
 62
     7
370
     0
100
AcDbMText
 10
118.1814953544
 20
20.9420329122
 30
0.0
 40
1.0583333333
 41
0.0
 71
     1
 72
     1
  1
TITLE:
  7
SLDTEXTSTYLE0
 73
     1
 44
1.0
  0
MTEXT
  5
E0
330
1F
100
AcDbEntity
  8
0
  6
Continuous
 62
     7
370
     0
100
AcDbMText
 10
101.5157104901
 20
8.1201894862
 30
0.0
 40
0.9260416667
 41
0.0
 71
     1
 72
     1
  1
Johnny
  7
SLDTEXTSTYLE0
 73
     1
 44
1.0
  0
MTEXT
  5
E1
330
1F
100
AcDbEntity
  8
0
  6
Continuous
 62
     7
370
     0
100
AcDbMText
 10
108.7795269075
 20
8.1201894862
 30
0.0
 40
0.9260416667
 41
0.0
 71
     1
 72
     1
  1
2018/1/17
  7
SLDTEXTSTYLE0
 73
     1
 44
1.0
  0
MTEXT
  5
E2
330
1F
100
AcDbEntity
  8
0
  6
Continuous
 62
     7
370
     0
100
AcDbMText
 10
93.1668043395
 20
8.1201894862
 30
0.0
 40
0.9260416667
 41
0.0
 71
     1
 72
     1
  1
ENG APPR.
  7
SLDTEXTSTYLE0
 73
     1
 44
1.0
  0
MTEXT
  5
E3
330
1F
100
AcDbEntity
  8
0
  6
Continuous
 62
     7
370
     0
100
AcDbMText
 10
118.1960933393
 20
5.8426694644
 30
0.0
 40
1.0583333333
 41
0.0
 71
     1
 72
     1
  1
REV
  7
SLDTEXTSTYLE0
 73
     1
 44
1.0
  0
MTEXT
  5
E4
330
1F
100
AcDbEntity
  8
0
  6
Continuous
 62
     7
370
     0
100
AcDbMText
 10
118.1814953544
 20
13.4746544542
 30
0.0
 40
1.0583333333
 41
0.0
 71
     1
 72
     1
  1
MATERIAL:
  7
SLDTEXTSTYLE0
 73
     1
 44
1.0
  0
MTEXT
  5
E5
330
1F
100
AcDbEntity
  8
0
  6
Continuous
 62
     7
370
     0
100
AcDbMText
 10
126.3044491253
 20
11.1087568093
 30
0.0
 40
1.25
 41
0.0
 71
     1
 72
     1
  1
N/A
  7
SLDTEXTSTYLE0
 73
     1
 44
1.0
  0
MTEXT
  5
E6
330
1F
100
AcDbEntity
  8
0
  6
Continuous
 62
     7
370
     0
100
AcDbMText
 10
13.3014965767
 20
102.2266758285
 30
0.0
 40
1.0583333333
 41
0.0
 71
     1
 72
     1
  1
1
  7
SLDTEXTSTYLE0
 73
     1
 44
1.0
  0
MTEXT
  5
E7
330
1F
100
AcDbEntity
  8
0
  6
Continuous
 62
     7
370
     0
100
AcDbMText
 10
30.3585497862
 20
102.2266758285
 30
0.0
 40
1.0583333333
 41
0.0
 71
     1
 72
     1
  1
2
  7
SLDTEXTSTYLE0
 73
     1
 44
1.0
  0
MTEXT
  5
E8
330
1F
100
AcDbEntity
  8
0
  6
Continuous
 62
     7
370
     0
100
AcDbMText
 10
47.4504971953
 20
102.2266758285
 30
0.0
 40
1.0583333333
 41
0.0
 71
     1
 72
     1
  1
3
  7
SLDTEXTSTYLE0
 73
     1
 44
1.0
  0
MTEXT
  5
E9
330
1F
100
AcDbEntity
  8
0
  6
Continuous
 62
     7
370
     0
100
AcDbMText
 10
64.6266681426
 20
102.1496292182
 30
0.0
 40
1.0583333333
 41
0.0
 71
     1
 72
     1
  1
4
  7
SLDTEXTSTYLE0
 73
     1
 44
1.0
  0
MTEXT
  5
EA
330
1F
100
AcDbEntity
  8
0
  6
Continuous
 62
     7
370
     0
100
AcDbMText
 10
81.851161732
 20
102.2266758285
 30
0.0
 40
1.0583333333
 41
0.0
 71
     1
 72
     1
  1
5
  7
SLDTEXTSTYLE0
 73
     1
 44
1.0
  0
MTEXT
  5
EB
330
1F
100
AcDbEntity
  8
0
  6
Continuous
 62
     7
370
     0
100
AcDbMText
 10
99.3191085208
 20
102.2266758285
 30
0.0
 40
1.0583333333
 41
0.0
 71
     1
 72
     1
  1
6
  7
SLDTEXTSTYLE0
 73
     1
 44
1.0
  0
MTEXT
  5
EC
330
1F
100
AcDbEntity
  8
0
  6
Continuous
 62
     7
370
     0
100
AcDbMText
 10
117.1815328703
 20
102.2266758285
 30
0.0
 40
1.0583333333
 41
0.0
 71
     1
 72
     1
  1
7
  7
SLDTEXTSTYLE0
 73
     1
 44
1.0
  0
MTEXT
  5
ED
330
1F
100
AcDbEntity
  8
0
  6
Continuous
 62
     7
370
     0
100
AcDbMText
 10
133.1393910247
 20
102.2266758285
 30
0.0
 40
1.0583333333
 41
0.0
 71
     1
 72
     1
  1
8
  7
SLDTEXTSTYLE0
 73
     1
 44
1.0
  0
MTEXT
  5
EE
330
1F
100
AcDbEntity
  8
0
  6
Continuous
 62
     7
370
     0
100
AcDbMText
 10
2.6784118277
 20
92.905651144
 30
0.0
 40
1.0583333333
 41
0.0
 71
     1
 72
     1
  1
A
  7
SLDTEXTSTYLE0
 73
     1
 44
1.0
  0
MTEXT
  5
EF
330
1F
100
AcDbEntity
  8
0
  6
Continuous
 62
     7
370
     0
100
AcDbMText
 10
2.7955215916
 20
77.1496524119
 30
0.0
 40
1.0583333333
 41
0.0
 71
     1
 72
     1
  1
B
  7
SLDTEXTSTYLE0
 73
     1
 44
1.0
  0
MTEXT
  5
F0
330
1F
100
AcDbEntity
  8
0
  6
Continuous
 62
     7
370
     0
100
AcDbMText
 10
2.7955215916
 20
60.6371757115
 30
0.0
 40
1.0583333333
 41
0.0
 71
     1
 72
     1
  1
C
  7
SLDTEXTSTYLE0
 73
     1
 44
1.0
  0
MTEXT
  5
F1
330
1F
100
AcDbEntity
  8
0
  6
Continuous
 62
     7
370
     0
100
AcDbMText
 10
2.7955215916
 20
44.372661011
 30
0.0
 40
1.0583333333
 41
0.0
 71
     1
 72
     1
  1
D
  7
SLDTEXTSTYLE0
 73
     1
 44
1.0
  0
MTEXT
  5
F2
330
1F
100
AcDbEntity
  8
0
  6
Continuous
 62
     7
370
     0
100
AcDbMText
 10
2.7955215916
 20
28.7779424599
 30
0.0
 40
1.0583333333
 41
0.0
 71
     1
 72
     1
  1
E
  7
SLDTEXTSTYLE0
 73
     1
 44
1.0
  0
MTEXT
  5
F3
330
1F
100
AcDbEntity
  8
0
  6
Continuous
 62
     7
370
     0
100
AcDbMText
 10
2.7955215916
 20
12.7847106126
 30
0.0
 40
1.0583333333
 41
0.0
 71
     1
 72
     1
  1
F
  7
SLDTEXTSTYLE0
 73
     1
 44
1.0
  0
MTEXT
  5
F4
330
1F
100
AcDbEntity
  8
0
  6
Continuous
 62
     7
370
     0
100
AcDbMText
 10
133.0929308482
 20
3.3118111982
 30
0.0
 40
1.0583333333
 41
0.0
 71
     1
 72
     1
  1
8
  7
SLDTEXTSTYLE0
 73
     1
 44
1.0
  0
MTEXT
  5
F5
330
1F
100
AcDbEntity
  8
0
  6
Continuous
 62
     7
370
     0
100
AcDbMText
 10
117.1350726938
 20
3.3118111982
 30
0.0
 40
1.0583333333
 41
0.0
 71
     1
 72
     1
  1
7
  7
SLDTEXTSTYLE0
 73
     1
 44
1.0
  0
MTEXT
  5
F6
330
1F
100
AcDbEntity
  8
0
  6
Continuous
 62
     7
370
     0
100
AcDbMText
 10
99.2726483442
 20
3.3118111982
 30
0.0
 40
1.0583333333
 41
0.0
 71
     1
 72
     1
  1
6
  7
SLDTEXTSTYLE0
 73
     1
 44
1.0
  0
MTEXT
  5
F7
330
1F
100
AcDbEntity
  8
0
  6
Continuous
 62
     7
370
     0
100
AcDbMText
 10
81.8047015555
 20
3.3118111982
 30
0.0
 40
1.0583333333
 41
0.0
 71
     1
 72
     1
  1
5
  7
SLDTEXTSTYLE0
 73
     1
 44
1.0
  0
MTEXT
  5
F8
330
1F
100
AcDbEntity
  8
0
  6
Continuous
 62
     7
370
     0
100
AcDbMText
 10
64.580207966
 20
3.2347645879
 30
0.0
 40
1.0583333333
 41
0.0
 71
     1
 72
     1
  1
4
  7
SLDTEXTSTYLE0
 73
     1
 44
1.0
  0
MTEXT
  5
F9
330
1F
100
AcDbEntity
  8
0
  6
Continuous
 62
     7
370
     0
100
AcDbMText
 10
47.4040370188
 20
3.3118111982
 30
0.0
 40
1.0583333333
 41
0.0
 71
     1
 72
     1
  1
3
  7
SLDTEXTSTYLE0
 73
     1
 44
1.0
  0
MTEXT
  5
FA
330
1F
100
AcDbEntity
  8
0
  6
Continuous
 62
     7
370
     0
100
AcDbMText
 10
30.3120896097
 20
3.3118111982
 30
0.0
 40
1.0583333333
 41
0.0
 71
     1
 72
     1
  1
2
  7
SLDTEXTSTYLE0
 73
     1
 44
1.0
  0
MTEXT
  5
FB
330
1F
100
AcDbEntity
  8
0
  6
Continuous
 62
     7
370
     0
100
AcDbMText
 10
13.2550364001
 20
3.3118111982
 30
0.0
 40
1.0583333333
 41
0.0
 71
     1
 72
     1
  1
1
  7
SLDTEXTSTYLE0
 73
     1
 44
1.0
  0
MTEXT
  5
FC
330
1F
100
AcDbEntity
  8
0
  6
Continuous
 62
     7
370
     0
100
AcDbMText
 10
143.5511923072
 20
93.3212454546
 30
0.0
 40
1.0583333333
 41
0.0
 71
     1
 72
     1
  1
A
  7
SLDTEXTSTYLE0
 73
     1
 44
1.0
  0
MTEXT
  5
FD
330
1F
100
AcDbEntity
  8
0
  6
Continuous
 62
     7
370
     0
100
AcDbMText
 10
143.6683020711
 20
77.5652467225
 30
0.0
 40
1.0583333333
 41
0.0
 71
     1
 72
     1
  1
B
  7
SLDTEXTSTYLE0
 73
     1
 44
1.0
  0
MTEXT
  5
FE
330
1F
100
AcDbEntity
  8
0
  6
Continuous
 62
     7
370
     0
100
AcDbMText
 10
143.6683020711
 20
61.0527700221
 30
0.0
 40
1.0583333333
 41
0.0
 71
     1
 72
     1
  1
C
  7
SLDTEXTSTYLE0
 73
     1
 44
1.0
  0
MTEXT
  5
FF
330
1F
100
AcDbEntity
  8
0
  6
Continuous
 62
     7
370
     0
100
AcDbMText
 10
143.6683020711
 20
44.7882553217
 30
0.0
 40
1.0583333333
 41
0.0
 71
     1
 72
     1
  1
D
  7
SLDTEXTSTYLE0
 73
     1
 44
1.0
  0
MTEXT
  5
100
330
1F
100
AcDbEntity
  8
0
  6
Continuous
 62
     7
370
     0
100
AcDbMText
 10
143.6683020711
 20
29.1935367705
 30
0.0
 40
1.0583333333
 41
0.0
 71
     1
 72
     1
  1
E
  7
SLDTEXTSTYLE0
 73
     1
 44
1.0
  0
MTEXT
  5
101
330
1F
100
AcDbEntity
  8
0
  6
Continuous
 62
     7
370
     0
100
AcDbMText
 10
143.6683020711
 20
13.2003049232
 30
0.0
 40
1.0583333333
 41
0.0
 71
     1
 72
     1
  1
F
  7
SLDTEXTSTYLE0
 73
     1
 44
1.0
  0
MTEXT
  5
102
330
1F
100
AcDbEntity
  8
0
  6
Continuous
 62
     7
370
     0
100
AcDbMText
 10
101.5776564401
 20
10.7933574255
 30
0.0
 40
0.9260416667
 41
0.0
 71
     1
 72
     1
  1
Sky
  7
SLDTEXTSTYLE0
 73
     1
 44
1.0
  0
MTEXT
  5
104
330
1F
100
AcDbEntity
  8
0
  6
Continuous
 62
     7
370
     0
100
AcDbMText
 10
126.4241119823
 20
6.1109801659
 30
0.0
 40
1.190625
 41
0.0
 71
     1
 72
     1
  1
0
  7
SLDTEXTSTYLE1
 73
     1
 44
1.0
  0
INSERT
  5
10A
330
1F
100
AcDbEntity
  8
SLD-0
 62
     7
100
AcDbBlockReference
  2
SW_NOTE_1
 10
99.3625946967
 20
16.7739872606
 30
0.0
  0
LINE
  5
10B
330
1F
100
AcDbEntity
  8
0
  6
Continuous
 62
     7
370
    30
100
AcDbLine
 10
52.426869464
 20
57.2800674943
 30
0.0
 11
48.626869464
 21
57.2800674943
 31
0.0
  0
LINE
  5
10C
330
1F
100
AcDbEntity
  8
0
  6
Continuous
 62
     7
370
    30
100
AcDbLine
 10
52.426869464
 20
43.2800674943
 30
0.0
 11
52.526869464
 21
43.3800674943
 31
0.0
  0
LINE
  5
10D
330
1F
100
AcDbEntity
  8
0
  6
Continuous
 62
     7
370
    30
100
AcDbLine
 10
52.526869464
 20
57.1800674943
 30
0.0
 11
52.426869464
 21
57.2800674943
 31
0.0
  0
LINE
  5
10E
330
1F
100
AcDbEntity
  8
0
  6
Continuous
 62
     7
370
    30
100
AcDbLine
 10
48.626869464
 20
57.2800674943
 30
0.0
 11
48.526869464
 21
57.1800674943
 31
0.0
  0
LINE
  5
10F
330
1F
100
AcDbEntity
  8
0
  6
Continuous
 62
     7
370
    30
100
AcDbLine
 10
48.626869464
 20
43.2800674943
 30
0.0
 11
52.426869464
 21
43.2800674943
 31
0.0
  0
LINE
  5
110
330
1F
100
AcDbEntity
  8
0
  6
Continuous
 62
     7
370
    30
100
AcDbLine
 10
48.526869464
 20
43.3800674943
 30
0.0
 11
48.626869464
 21
43.2800674943
 31
0.0
  0
LINE
  5
111
330
1F
100
AcDbEntity
  8
0
  6
Continuous
 62
     7
370
    30
100
AcDbLine
 10
85.5213720418
 20
56.7800674943
 30
0.0
 11
73.0213720418
 21
56.7800674943
 31
0.0
  0
LINE
  5
112
330
1F
100
AcDbEntity
  8
0
  6
Continuous
 62
     7
370
    30
100
AcDbLine
 10
73.0213720418
 20
43.7800674943
 30
0.0
 11
85.5213720418
 21
43.7800674943
 31
0.0
  0
LINE
  5
113
330
1F
100
AcDbEntity
  8
0
  6
Continuous
 62
     7
370
    30
100
AcDbLine
 10
85.5213720418
 20
43.7800674943
 30
0.0
 11
86.0213720418
 21
46.2800674943
 31
0.0
  0
LINE
  5
114
330
1F
100
AcDbEntity
  8
0
  6
Continuous
 62
     7
370
    30
100
AcDbLine
 10
86.0213720418
 20
54.2800674943
 30
0.0
 11
85.5213720418
 21
56.7800674943
 31
0.0
  0
LINE
  5
115
330
1F
100
AcDbEntity
  8
0
  6
Continuous
 62
     7
370
    30
100
AcDbLine
 10
73.0213720418
 20
56.2800674943
 30
0.0
 11
61.3057549487
 21
56.2800674943
 31
0.0
  0
LINE
  5
116
330
1F
100
AcDbEntity
  8
0
  6
Continuous
 62
     7
370
    30
100
AcDbLine
 10
69.3626973897
 20
44.2800674943
 30
0.0
 11
73.0213720418
 21
44.2800674943
 31
0.0
  0
LINE
  5
117
330
1F
100
AcDbEntity
  8
0
  6
Continuous
 62
     7
370
    30
100
AcDbLine
 10
61.3057549487
 20
44.2800674943
 30
0.0
 11
68.219808271
 21
44.2800674943
 31
0.0
  0
LINE
  5
118
330
1F
100
AcDbEntity
  8
0
  6
Continuous
 62
     7
370
    30
100
AcDbLine
 10
61.3057549487
 20
56.2800674943
 30
0.0
 11
59.5213720418
 21
55.5800674943
 31
0.0
  0
LINE
  5
119
330
1F
100
AcDbEntity
  8
0
  6
Continuous
 62
     7
370
    30
100
AcDbLine
 10
59.5213720418
 20
44.9800674943
 30
0.0
 11
61.3057549487
 21
44.2800674943
 31
0.0
  0
LINE
  5
11A
330
1F
100
AcDbEntity
  8
0
  6
Continuous
 62
     7
370
    30
100
AcDbLine
 10
89.0215207418
 20
52.8800674943
 30
0.0
 11
86.0213720418
 21
52.8800674943
 31
0.0
  0
LINE
  5
11B
330
1F
100
AcDbEntity
  8
0
  6
Continuous
 62
     7
370
    30
100
AcDbLine
 10
86.0213720418
 20
47.6800674943
 30
0.0
 11
89.0215207418
 21
47.6800674943
 31
0.0
  0
ARC
  5
11C
330
1F
100
AcDbEntity
  8
0
  6
Continuous
 62
     7
370
    30
100
AcDbCircle
 10
82.5727115418
 20
50.2922609625
 30
0.0
 40
6.948660500000003
100
AcDbArc
 50
0.0
 51
21.8648216434
  0
ARC
  5
11D
330
1F
100
AcDbEntity
  8
0
  6
Continuous
 62
     7
370
    30
100
AcDbCircle
 10
82.5727115418
 20
50.2678740262
 30
0.0
 40
6.948660500000003
100
AcDbArc
 50
338.1351783566
 51
0.0
  0
LINE
  5
11E
330
1F
100
AcDbEntity
  8
0
  6
Continuous
 62
     7
370
    30
100
AcDbLine
 10
89.5213720418
 20
50.2678740262
 30
0.0
 11
89.5213720418
 21
50.2922609625
 31
0.0
  0
LINE
  5
11F
330
1F
100
AcDbEntity
  8
0
  6
Continuous
 62
     7
370
    30
100
AcDbLine
 10
48.526869464
 20
52.7800674943
 30
0.0
 11
31.6213720418
 21
52.7800674943
 31
0.0
  0
LINE
  5
120
330
1F
100
AcDbEntity
  8
0
  6
Continuous
 62
     7
370
    30
100
AcDbLine
 10
31.6213720418
 20
47.7800674943
 30
0.0
 11
48.526869464
 21
47.7800674943
 31
0.0
  0
ARC
  5
121
330
1F
100
AcDbEntity
  8
0
  6
Continuous
 62
     7
370
    30
100
AcDbCircle
 10
36.5297053751
 20
50.2800674943
 30
0.0
 40
5.508333333333328
100
AcDbArc
 50
153.0085334384
 51
206.9914665616
  0
LINE
  5
122
330
1F
100
AcDbEntity
  8
0
  6
Continuous
 62
     7
370
    30
100
AcDbLine
 10
59.5213720418
 20
55.5300674943
 30
0.0
 11
58.126869464
 21
55.5300674943
 31
0.0
  0
LINE
  5
123
330
1F
100
AcDbEntity
  8
0
  6
Continuous
 62
     7
370
    30
100
AcDbLine
 10
58.126869464
 20
45.0300674943
 30
0.0
 11
58.3175146459
 21
45.0300674943
 31
0.0
  0
LINE
  5
124
330
1F
100
AcDbEntity
  8
0
  6
Continuous
 62
     7
370
    30
100
AcDbLine
 10
57.126869464
 20
55.0300674943
 30
0.0
 11
52.526869464
 21
55.0300674943
 31
0.0
  0
LINE
  5
125
330
1F
100
AcDbEntity
  8
0
  6
Continuous
 62
     7
370
    30
100
AcDbLine
 10
52.526869464
 20
45.5300674943
 30
0.0
 11
57.126869464
 21
45.5300674943
 31
0.0
  0
LINE
  5
126
330
1F
100
AcDbEntity
  8
0
  6
Continuous
 62
     7
370
    30
100
AcDbLine
 10
58.126869464
 20
54.8800674943
 30
0.0
 11
57.126869464
 21
54.8800674943
 31
0.0
  0
LINE
  5
127
330
1F
100
AcDbEntity
  8
0
  6
Continuous
 62
     7
370
    30
100
AcDbLine
 10
57.126869464
 20
45.6800674943
 30
0.0
 11
58.126869464
 21
45.6800674943
 31
0.0
  0
LINE
  5
128
330
1F
100
AcDbEntity
  8
0
  6
Continuous
 62
     7
370
    30
100
AcDbLine
 10
52.426869464
 20
51.2800674943
 30
0.0
 11
52.426869464
 21
57.2800674943
 31
0.0
  0
LINE
  5
129
330
1F
100
AcDbEntity
  8
0
  6
Continuous
 62
     7
370
    30
100
AcDbLine
 10
48.626869464
 20
51.2800674943
 30
0.0
 11
52.426869464
 21
51.2800674943
 31
0.0
  0
LINE
  5
12A
330
1F
100
AcDbEntity
  8
0
  6
Continuous
 62
     7
370
    30
100
AcDbLine
 10
48.626869464
 20
57.2800674943
 30
0.0
 11
48.626869464
 21
51.2800674943
 31
0.0
  0
LINE
  5
12B
330
1F
100
AcDbEntity
  8
0
  6
Continuous
 62
     7
370
    30
100
AcDbLine
 10
52.526869464
 20
49.2800674943
 30
0.0
 11
52.526869464
 21
43.3800674943
 31
0.0
  0
LINE
  5
12C
330
1F
100
AcDbEntity
  8
0
  6
Continuous
 62
     7
370
    30
100
AcDbLine
 10
52.426869464
 20
43.2800674943
 30
0.0
 11
52.426869464
 21
49.2800674943
 31
0.0
  0
LINE
  5
12D
330
1F
100
AcDbEntity
  8
0
  6
Continuous
 62
     7
370
    30
100
AcDbLine
 10
52.426869464
 20
49.2800674943
 30
0.0
 11
52.526869464
 21
49.2800674943
 31
0.0
  0
LINE
  5
12E
330
1F
100
AcDbEntity
  8
0
  6
Continuous
 62
     7
370
    30
100
AcDbLine
 10
52.526869464
 20
57.1800674943
 30
0.0
 11
52.526869464
 21
51.2800674943
 31
0.0
  0
LINE
  5
12F
330
1F
100
AcDbEntity
  8
0
  6
Continuous
 62
     7
370
    30
100
AcDbLine
 10
52.526869464
 20
51.2800674943
 30
0.0
 11
52.426869464
 21
51.2800674943
 31
0.0
  0
LINE
  5
130
330
1F
100
AcDbEntity
  8
0
  6
Continuous
 62
     7
370
    30
100
AcDbLine
 10
48.526869464
 20
51.2800674943
 30
0.0
 11
48.526869464
 21
57.1800674943
 31
0.0
  0
LINE
  5
131
330
1F
100
AcDbEntity
  8
0
  6
Continuous
 62
     7
370
    30
100
AcDbLine
 10
48.626869464
 20
51.2800674943
 30
0.0
 11
48.526869464
 21
51.2800674943
 31
0.0
  0
LINE
  5
132
330
1F
100
AcDbEntity
  8
0
  6
Continuous
 62
     7
370
    30
100
AcDbLine
 10
48.626869464
 20
49.2800674943
 30
0.0
 11
48.626869464
 21
43.2800674943
 31
0.0
  0
LINE
  5
133
330
1F
100
AcDbEntity
  8
0
  6
Continuous
 62
     7
370
    30
100
AcDbLine
 10
52.426869464
 20
49.2800674943
 30
0.0
 11
48.626869464
 21
49.2800674943
 31
0.0
  0
LINE
  5
134
330
1F
100
AcDbEntity
  8
0
  6
Continuous
 62
     7
370
    30
100
AcDbLine
 10
48.526869464
 20
43.3800674943
 30
0.0
 11
48.526869464
 21
49.2800674943
 31
0.0
  0
LINE
  5
135
330
1F
100
AcDbEntity
  8
0
  6
Continuous
 62
     7
370
    30
100
AcDbLine
 10
48.526869464
 20
49.2800674943
 30
0.0
 11
48.626869464
 21
49.2800674943
 31
0.0
  0
LINE
  5
136
330
1F
100
AcDbEntity
  8
0
  6
Continuous
 62
     7
370
    30
100
AcDbLine
 10
52.526869464
 20
49.2800674943
 30
0.0
 11
52.526869464
 21
51.2800674943
 31
0.0
  0
LINE
  5
137
330
1F
100
AcDbEntity
  8
0
  6
Continuous
 62
     7
370
    30
100
AcDbLine
 10
48.526869464
 20
49.2800674943
 30
0.0
 11
48.526869464
 21
51.2800674943
 31
0.0
  0
LINE
  5
138
330
1F
100
AcDbEntity
  8
0
  6
Continuous
 62
     7
370
    30
100
AcDbLine
 10
85.5213720418
 20
56.1427054334
 30
0.0
 11
85.5213720418
 21
43.7800674943
 31
0.0
  0
LINE
  5
139
330
1F
100
AcDbEntity
  8
0
  6
Continuous
 62
     7
370
    30
100
AcDbLine
 10
85.5213720418
 20
56.7800674943
 30
0.0
 11
85.5213720418
 21
56.1427054334
 31
0.0
  0
LINE
  5
13A
330
1F
100
AcDbEntity
  8
0
  6
Continuous
 62
     7
370
    30
100
AcDbLine
 10
73.0213720418
 20
56.1427054334
 30
0.0
 11
73.0213720418
 21
43.7800674943
 31
0.0
  0
LINE
  5
13B
330
1F
100
AcDbEntity
  8
0
  6
Continuous
 62
     7
370
    30
100
AcDbLine
 10
73.0213720418
 20
56.7800674943
 30
0.0
 11
73.0213720418
 21
56.1427054334
 31
0.0
  0
LINE
  5
13C
330
1F
100
AcDbEntity
  8
0
  6
Continuous
 62
     7
370
    30
100
AcDbLine
 10
86.0213720418
 20
53.8878446876
 30
0.0
 11
86.0213720418
 21
46.2800674943
 31
0.0
  0
LINE
  5
13D
330
1F
100
AcDbEntity
  8
0
  6
Continuous
 62
     7
370
    30
100
AcDbLine
 10
86.0213720418
 20
54.2800674943
 30
0.0
 11
86.0213720418
 21
53.8878446876
 31
0.0
  0
LINE
  5
13E
330
1F
100
AcDbEntity
  8
0
  6
Continuous
 62
     7
370
    30
100
AcDbLine
 10
61.3057549487
 20
55.6917332842
 30
0.0
 11
61.3057549487
 21
44.2800674943
 31
0.0
  0
LINE
  5
13F
330
1F
100
AcDbEntity
  8
0
  6
Continuous
 62
     7
370
    30
100
AcDbLine
 10
61.3057549487
 20
56.2800674943
 30
0.0
 11
61.3057549487
 21
55.6917332842
 31
0.0
  0
LINE
  5
140
330
1F
100
AcDbEntity
  8
0
  6
Continuous
 62
     7
370
    30
100
AcDbLine
 10
70.6968805891
 20
48.0048320562
 30
0.0
 11
70.5773047881
 21
48.0048320562
 31
0.0
  0
LINE
  5
141
330
1F
100
AcDbEntity
  8
0
  6
Continuous
 62
     7
370
    30
100
AcDbLine
 10
70.6968805891
 20
48.7122033187
 30
0.0
 11
70.6968805891
 21
48.0048320562
 31
0.0
  0
LINE
  5
142
330
1F
100
AcDbEntity
  8
0
  6
Continuous
 62
     7
370
    30
100
AcDbLine
 10
70.5773047881
 20
48.7122033187
 30
0.0
 11
70.6968805891
 21
48.7122033187
 31
0.0
  0
LINE
  5
143
330
1F
100
AcDbEntity
  8
0
  6
Continuous
 62
     7
370
    30
100
AcDbLine
 10
70.5773047881
 20
48.7122033187
 30
0.0
 11
70.5773047881
 21
48.6401886142
 31
0.0
  0
SPLINE
  5
144
330
1F
100
AcDbEntity
  8
0
  6
Continuous
 62
     7
370
    30
100
AcDbSpline
210
0.0
220
0.0
230
1.0
 70
     8
 71
     3
 72
    13
 73
     9
 74
     0
 42
0.000000001
 43
0.00000001
 40
0.0
 40
0.0
 40
0.0
 40
0.0
 40
0.125323070522926
 40
0.250424174698298
 40
0.3754596171714626
 40
0.5003747473189929
 40
0.7495854888800327
 40
0.9999999999999999
 40
0.9999999999999999
 40
0.9999999999999999
 40
0.9999999999999999
 10
70.45772898712846
 20
48.49693359668525
 30
0.0
 10
70.46687393785719
 20
48.49722114525835
 30
0.0
 10
70.48514764220658
 20
48.49779573311201
 30
0.0
 10
70.51168134652373
 20
48.50526534825659
 30
0.0
 10
70.53539397670927
 20
48.51887021597091
 30
0.0
 10
70.55985790874593
 20
48.54523324465837
 30
0.0
 10
70.57548176176745
 20
48.58766816165732
 30
0.0
 10
70.57669613739115
 20
48.62265369926498
 30
0.0
 10
70.57730478812786
 20
48.64018861418228
 30
0.0
  0
LINE
  5
145
330
1F
100
AcDbEntity
  8
0
  6
Continuous
 62
     7
370
    30
100
AcDbLine
 10
68.4509591787
 20
48.4969335967
 30
0.0
 11
70.4577289871
 21
48.4969335967
 31
0.0
  0
SPLINE
  5
146
330
1F
100
AcDbEntity
  8
0
  6
Continuous
 62
     7
370
    30
100
AcDbSpline
210
0.0
220
0.0
230
1.0
 70
     8
 71
     3
 72
    13
 73
     9
 74
     0
 42
0.000000001
 43
0.00000001
 40
0.0
 40
0.0
 40
0.0
 40
0.0
 40
0.2498943521448887
 40
0.3761232678467165
 40
0.4999722186189252
 40
0.6210255431847528
 40
0.7501083598484062
 40
1.0
 40
1.0
 40
1.0
 40
1.0
 10
67.84200834026632
 20
47.92210557789187
 30
0.0
 10
67.84659435557052
 20
47.99873251768567
 30
0.0
 10
67.85349690077733
 20
48.1140659566088
 30
0.0
 10
67.9152019562455
 20
48.25948180158311
 30
0.0
 10
67.98877141658613
 20
48.35357271176741
 30
0.0
 10
68.08795384685753
 20
48.42532640611545
 30
0.0
 10
68.2421723595533
 20
48.48611042029766
 30
0.0
 10
68.36799385279943
 20
48.49263280624322
 30
0.0
 10
68.45095917868925
 20
48.49693359668524
 30
0.0
  0
SPLINE
  5
147
330
1F
100
AcDbEntity
  8
0
  6
Continuous
 62
     7
370
    30
100
AcDbSpline
210
0.0
220
0.0
230
1.0
 70
     8
 71
     3
 72
    10
 73
     6
 74
     0
 42
0.000000001
 43
0.00000001
 40
0.0
 40
0.0
 40
0.0
 40
0.0
 40
0.2502335980472348
 40
0.5005111299271381
 40
0.9999999999999999
 40
0.9999999999999999
 40
0.9999999999999999
 40
0.9999999999999999
 10
68.01030020833957
 20
47.49024002447157
 30
0.0
 10
67.98252886575736
 20
47.51983930272671
 30
0.0
 10
67.9269813047428
 20
47.57904305602008
 30
0.0
 10
67.85662553809956
 20
47.72333166199379
 30
0.0
 10
67.84785272435087
 20
47.84262994078617
 30
0.0
 10
67.84200834026633
 20
47.92210557789186
 30
0.0
  0
SPLINE
  5
148
330
1F
100
AcDbEntity
  8
0
  6
Continuous
 62
     7
370
    30
100
AcDbSpline
210
0.0
220
0.0
230
1.0
 70
     8
 71
     3
 72
    10
 73
     6
 74
     0
 42
0.000000001
 43
0.00000001
 40
0.0
 40
0.0
 40
0.0
 40
0.0
 40
0.4993754841237257
 40
0.7497467513861382
 40
1.0
 40
1.0
 40
1.0
 40
1.0
 10
68.48472827063817
 20
47.33271483461046
 30
0.0
 10
68.39749131095321
 20
47.3382336838065
 30
0.0
 10
68.26651646496256
 20
47.34651951158072
 30
0.0
 10
68.10699732382805
 20
47.41261655569875
 30
0.0
 10
68.04252751407023
 20
47.4643696016841
 30
0.0
 10
68.01030020833957
 20
47.49024002447157
 30
0.0
  0
LINE
  5
149
330
1F
100
AcDbEntity
  8
0
  6
Continuous
 62
     7
370
    30
100
AcDbLine
 10
70.4278350369
 20
47.3327148346
 30
0.0
 11
68.4847282706
 21
47.3327148346
 31
0.0
  0
SPLINE
  5
14A
330
1F
100
AcDbEntity
  8
0
  6
Continuous
 62
     7
370
    30
100
AcDbSpline
210
0.0
220
0.0
230
1.0
 70
     8
 71
     3
 72
    13
 73
     9
 74
     0
 42
0.000000001
 43
0.00000001
 40
0.0
 40
0.0
 40
0.0
 40
0.0
 40
0.2499630104053024
 40
0.380408124844594
 40
0.4999962146716337
 40
0.6195858805539327
 40
0.750033201755906
 40
1.0
 40
1.0
 40
1.0
 40
1.0
 10
70.57730478812789
 20
47.20344979375281
 30
0.0
 10
70.57620595494488
 20
47.22091369233424
 30
0.0
 10
70.57453368723618
 20
47.24749126035545
 30
0.0
 10
70.55889135499716
 20
47.28008300222456
 30
0.0
 10
70.54095801475604
 20
47.30110311646975
 30
0.0
 10
70.5167194652368
 20
47.31669034631506
 30
0.0
 10
70.47904503053111
 20
47.33029718933741
 30
0.0
 10
70.44814148618916
 20
47.33175615862389
 30
0.0
 10
70.42783503687862
 20
47.33271483461048
 30
0.0
  0
LINE
  5
14B
330
1F
100
AcDbEntity
  8
0
  6
Continuous
 62
     7
370
    30
100
AcDbLine
 10
70.5773047881
 20
47.2034497938
 30
0.0
 11
70.5773047881
 21
47.1522739052
 31
0.0
  0
LINE
  5
14C
330
1F
100
AcDbEntity
  8
0
  6
Continuous
 62
     7
370
    30
100
AcDbLine
 10
70.6968805891
 20
47.1522739052
 30
0.0
 11
70.5773047881
 21
47.1522739052
 31
0.0
  0
LINE
  5
14D
330
1F
100
AcDbEntity
  8
0
  6
Continuous
 62
     7
370
    30
100
AcDbLine
 10
70.6968805891
 20
47.6234213858
 30
0.0
 11
70.6968805891
 21
47.1522739052
 31
0.0
  0
LINE
  5
14E
330
1F
100
AcDbEntity
  8
0
  6
Continuous
 62
     7
370
    30
100
AcDbLine
 10
70.5773047881
 20
47.6234213858
 30
0.0
 11
70.6968805891
 21
47.6234213858
 31
0.0
  0
LINE
  5
14F
330
1F
100
AcDbEntity
  8
0
  6
Continuous
 62
     7
370
    30
100
AcDbLine
 10
70.5773047881
 20
47.6234213858
 30
0.0
 11
70.5773047881
 21
47.5699463576
 31
0.0
  0
SPLINE
  5
150
330
1F
100
AcDbEntity
  8
0
  6
Continuous
 62
     7
370
    30
100
AcDbSpline
210
0.0
220
0.0
230
1.0
 70
     8
 71
     3
 72
    12
 73
     8
 74
     0
 42
0.000000001
 43
0.00000001
 40
0.0
 40
0.0
 40
0.0
 40
0.0
 40
0.2505326527610722
 40
0.5000540682322453
 40
0.6224717351978051
 40
0.7504257125024227
 40
1.0
 40
1.0
 40
1.0
 40
1.0
 10
70.39794108662876
 20
47.43744763640582
 30
0.0
 10
70.42019304067462
 20
47.43822376745299
 30
0.0
 10
70.46460713210789
 20
47.43977289681134
 30
0.0
 10
70.51818149915488
 20
47.45762537686463
 30
0.0
 10
70.55085590014536
 20
47.48483078016062
 30
0.0
 10
70.5732776425955
 20
47.51969030114185
 30
0.0
 10
70.57570206466072
 20
47.54994545112773
 30
0.0
 10
70.57730478812788
 20
47.56994635756269
 30
0.0
  0
LINE
  5
151
330
1F
100
AcDbEntity
  8
0
  6
Continuous
 62
     7
370
    30
100
AcDbLine
 10
68.4847282706
 20
47.4374476364
 30
0.0
 11
70.3979410866
 21
47.4374476364
 31
0.0
  0
SPLINE
  5
152
330
1F
100
AcDbEntity
  8
0
  6
Continuous
 62
     7
370
    30
100
AcDbSpline
210
0.0
220
0.0
230
1.0
 70
     8
 71
     3
 72
    13
 73
     9
 74
     0
 42
0.000000001
 43
0.00000001
 40
0.0
 40
0.0
 40
0.0
 40
0.0
 40
0.2499818069533495
 40
0.3751393729469252
 40
0.500130419193716
 40
0.6210840622066678
 40
0.7501795607210475
 40
0.9999999999999999
 40
0.9999999999999999
 40
0.9999999999999999
 40
0.9999999999999999
 10
68.03631901689036
 20
47.85356847217591
 30
0.0
 10
68.03947548939458
 20
47.79717442411779
 30
0.0
 10
68.04421230256666
 20
47.71254575419859
 30
0.0
 10
68.08872310463364
 20
47.60835292324765
 30
0.0
 10
68.14163063831717
 20
47.5407572271198
 30
0.0
 10
68.21459470453338
 20
47.48913804322502
 30
0.0
 10
68.32872233252681
 20
47.44488371494344
 30
0.0
 10
68.42274128625118
 20
47.44040226806786
 30
0.0
 10
68.48472827063817
 20
47.43744763640581
 30
0.0
  0
SPLINE
  5
153
330
1F
100
AcDbEntity
  8
0
  6
Continuous
 62
     7
370
    30
100
AcDbSpline
210
0.0
220
0.0
230
1.0
 70
     8
 71
     3
 72
    13
 73
     9
 74
     0
 42
0.000000001
 43
0.00000001
 40
0.0
 40
0.0
 40
0.0
 40
0.0
 40
0.2499157917518747
 40
0.3781669731073433
 40
0.499908467330328
 40
0.6209545167255209
 40
0.7500018192520097
 40
1.0
 40
1.0
 40
1.0
 40
1.0
 10
68.42106522843939
 20
48.21383138146604
 30
0.0
 10
68.36854895533516
 20
48.21108520094659
 30
0.0
 10
68.28908250825913
 20
48.2069297421524
 30
0.0
 10
68.19155150413945
 20
48.1689514847177
 30
0.0
 10
68.12945603545316
 20
48.12430677827852
 30
0.0
 10
68.08281760136562
 20
48.06559516192907
 30
0.0
 10
68.04273301699111
 20
47.97494424577238
 30
0.0
 10
68.03886810600486
 20
47.90180633597055
 30
0.0
 10
68.03631901689036
 20
47.85356847217591
 30
0.0
  0
LINE
  5
154
330
1F
100
AcDbEntity
  8
0
  6
Continuous
 62
     7
370
    30
100
AcDbLine
 10
70.4577289871
 20
48.2138313815
 30
0.0
 11
68.4210652284
 21
48.2138313815
 31
0.0
  0
SPLINE
  5
155
330
1F
100
AcDbEntity
  8
0
  6
Continuous
 62
     7
370
    30
100
AcDbSpline
210
0.0
220
0.0
230
1.0
 70
     8
 71
     3
 72
    13
 73
     9
 74
     0
 42
0.000000001
 43
0.00000001
 40
0.0
 40
0.0
 40
0.0
 40
0.0
 40
0.2501878851228032
 40
0.3808377610721252
 40
0.5003524462015572
 40
0.6260407202147127
 40
0.7502271440393924
 40
1.0
 40
1.0
 40
1.0
 40
1.0
 10
70.57730478812788
 20
48.0880668399955
 30
0.0
 10
70.57666397024971
 20
48.10415940174121
 30
0.0
 10
70.5756885127616
 20
48.12865561258752
 30
0.0
 10
70.56445838928697
 20
48.15932112328009
 30
0.0
 10
70.55079074958051
 20
48.18004392522608
 30
0.0
 10
70.53213738471386
 20
48.19656988321879
 30
0.0
 10
70.50105979916782
 20
48.21143147521078
 30
0.0
 10
70.47508076372279
 20
48.21287034161408
 30
0.0
 10
70.45772898712848
 20
48.21383138146606
 30
0.0
  0
LINE
  5
156
330
1F
100
AcDbEntity
  8
0
  6
Continuous
 62
     7
370
    30
100
AcDbLine
 10
70.5773047881
 20
48.08806684
 30
0.0
 11
70.5773047881
 21
48.0048320562
 31
0.0
  0
LINE
  5
157
330
1F
100
AcDbEntity
  8
0
  6
Continuous
 62
     7
370
    30
100
AcDbLine
 10
69.8000620816
 20
46.622769757
 30
0.0
 11
69.5498386462
 21
46.622769757
 31
0.0
  0
SPLINE
  5
158
330
1F
100
AcDbEntity
  8
0
  6
Continuous
 62
     7
370
    30
100
AcDbSpline
210
0.0
220
0.0
230
1.0
 70
     8
 71
     3
 72
     9
 73
     5
 74
     0
 42
0.000000001
 43
0.00000001
 40
0.0
 40
0.0
 40
0.0
 40
0.0
 40
0.4999565492681733
 40
1.0
 40
1.0
 40
1.0
 40
1.0
 10
69.66553930550737
 20
47.00062982674965
 30
0.0
 10
69.67129199159753
 20
46.93241986646088
 30
0.0
 10
69.68279836369842
 20
46.79598808976225
 30
0.0
 10
69.76097191118872
 20
46.68051254625117
 30
0.0
 10
69.80006208163171
 20
46.62276975699874
 30
0.0
  0
LINE
  5
159
330
1F
100
AcDbEntity
  8
0
  6
Continuous
 62
     7
370
    30
100
AcDbLine
 10
69.5420883628
 20
47.0006298267
 30
0.0
 11
69.6655393055
 21
47.0006298267
 31
0.0
  0
LINE
  5
15A
330
1F
100
AcDbEntity
  8
0
  6
Continuous
 62
     7
370
    30
100
AcDbLine
 10
69.5420883628
 20
47.0006298267
 30
0.0
 11
69.5420883628
 21
46.9507263933
 31
0.0
  0
SPLINE
  5
15B
330
1F
100
AcDbEntity
  8
0
  6
Continuous
 62
     7
370
    30
100
AcDbSpline
210
0.0
220
0.0
230
1.0
 70
     8
 71
     3
 72
    13
 73
     9
 74
     0
 42
0.000000001
 43
0.00000001
 40
0.0
 40
0.0
 40
0.0
 40
0.0
 40
0.2500397820808356
 40
0.3777937796122249
 40
0.5000001128878965
 40
0.6221700943969068
 40
0.749962157500822
 40
0.9999999999999999
 40
0.9999999999999999
 40
0.9999999999999999
 40
0.9999999999999999
 10
69.40756558668457
 20
46.83965985302296
 30
0.0
 10
69.42584493282989
 20
46.84044093030573
 30
0.0
 10
69.45346383095726
 20
46.84162108706469
 30
0.0
 10
69.48744095086202
 20
46.85308923877998
 30
0.0
 10
69.50917014273874
 20
46.8666715265546
 30
0.0
 10
69.52570947512426
 20
46.8845623944449
 30
0.0
 10
69.53969080560992
 20
46.91260697183916
 30
0.0
 10
69.54113357570427
 20
46.93554597047975
 30
0.0
 10
69.5420883628089
 20
46.95072639332117
 30
0.0
  0
LINE
  5
15C
330
1F
100
AcDbEntity
  8
0
  6
Continuous
 62
     7
370
    30
100
AcDbLine
 10
68.1409478428
 20
46.839659853
 30
0.0
 11
69.4075655867
 21
46.839659853
 31
0.0
  0
SPLINE
  5
15D
330
1F
100
AcDbEntity
  8
0
  6
Continuous
 62
     7
370
    30
100
AcDbSpline
210
0.0
220
0.0
230
1.0
 70
     8
 71
     3
 72
    12
 73
     8
 74
     0
 42
0.000000001
 43
0.00000001
 40
0.0
 40
0.0
 40
0.0
 40
0.0
 40
0.2508405333877264
 40
0.5005186823463512
 40
0.6258416189945355
 40
0.7508706987083638
 40
1.0
 40
1.0
 40
1.0
 40
1.0
 10
67.9914780915156
 20
47.00062982674963
 30
0.0
 10
67.99225376999708
 20
46.98112615504657
 30
0.0
 10
67.99380153249874
 20
46.94220919083074
 30
0.0
 10
68.01336103689361
 20
46.89559535533589
 30
0.0
 10
68.04215211204384
 20
46.86502321732861
 30
0.0
 10
68.08220279888603
 20
46.84393402227411
 30
0.0
 10
68.11746733424279
 20
46.84136824680224
 30
0.0
 10
68.14094784276486
 20
46.83965985302294
 30
0.0
  0
LINE
  5
15E
330
1F
100
AcDbEntity
  8
0
  6
Continuous
 62
     7
370
    30
100
AcDbLine
 10
67.8719022905
 20
47.0006298267
 30
0.0
 11
67.9914780915
 21
47.0006298267
 31
0.0
  0
LINE
  5
15F
330
1F
100
AcDbEntity
  8
0
  6
Continuous
 62
     7
370
    30
100
AcDbLine
 10
67.8719022905
 20
47.0006298267
 30
0.0
 11
67.8719022905
 21
46.4591388776
 31
0.0
  0
LINE
  5
160
330
1F
100
AcDbEntity
  8
0
  6
Continuous
 62
     7
370
    30
100
AcDbLine
 10
67.9914780915
 20
46.4591388776
 30
0.0
 11
67.8719022905
 21
46.4591388776
 31
0.0
  0
SPLINE
  5
161
330
1F
100
AcDbEntity
  8
0
  6
Continuous
 62
     7
370
    30
100
AcDbSpline
210
0.0
220
0.0
230
1.0
 70
     8
 71
     3
 72
    13
 73
     9
 74
     0
 42
0.000000001
 43
0.00000001
 40
0.0
 40
0.0
 40
0.0
 40
0.0
 40
0.1252665154879367
 40
0.2503236425728707
 40
0.368155691660596
 40
0.4999147691912929
 40
0.7495198424991273
 40
0.9999999999999999
 40
0.9999999999999999
 40
0.9999999999999999
 40
0.9999999999999999
 10
68.14094784276486
 20
46.62276975699872
 30
0.0
 10
68.12874264769819
 20
46.6222753734809
 30
0.0
 10
68.10435265907672
 20
46.6212874328287
 30
0.0
 10
68.07001928043687
 20
46.61169105672062
 30
0.0
 10
68.0403084914498
 20
46.59430179443753
 30
0.0
 10
68.01181614059891
 20
46.56271047909523
 30
0.0
 10
67.99382488484038
 20
46.51559881252637
 30
0.0
 10
67.99226126799931
 20
46.47798079813764
 30
0.0
 10
67.99147809151559
 20
46.45913887762397
 30
0.0
  0
LINE
  5
162
330
1F
100
AcDbEntity
  8
0
  6
Continuous
 62
     7
370
    30
100
AcDbLine
 10
69.3328307111
 20
46.622769757
 30
0.0
 11
68.1409478428
 21
46.622769757
 31
0.0
  0
SPLINE
  5
163
330
1F
100
AcDbEntity
  8
0
  6
Continuous
 62
     7
370
    30
100
AcDbSpline
210
0.0
220
0.0
230
1.0
 70
     8
 71
     3
 72
    10
 73
     6
 74
     0
 42
0.000000001
 43
0.00000001
 40
0.0
 40
0.0
 40
0.0
 40
0.0
 40
0.2501049341293148
 40
0.5003778651460198
 40
1.0
 40
1.0
 40
1.0
 40
1.0
 10
69.65059233038245
 20
46.26671046450508
 30
0.0
 10
69.64579502634255
 20
46.30343849976177
 30
0.0
 10
69.6361971958867
 20
46.37691924070249
 30
0.0
 10
69.53652877966809
 20
46.51159321943804
 30
0.0
 10
69.41427982103987
 20
46.57831557980971
 30
0.0
 10
69.33283071105993
 20
46.62276975699874
 30
0.0
  0
SPLINE
  5
164
330
1F
100
AcDbEntity
  8
0
  6
Continuous
 62
     7
370
    30
100
AcDbSpline
210
0.0
220
0.0
230
1.0
 70
     8
 71
     3
 72
    10
 73
     6
 74
     0
 42
0.000000001
 43
0.00000001
 40
0.0
 40
0.0
 40
0.0
 40
0.0
 40
0.2506156963356928
 40
0.5008152345029658
 40
0.9999999999999999
 40
0.9999999999999999
 40
0.9999999999999999
 40
0.9999999999999999
 10
69.54596350450797
 20
46.08662308491989
 30
0.0
 10
69.56287949005714
 20
46.09801335848829
 30
0.0
 10
69.5966833714322
 20
46.12077499158477
 30
0.0
 10
69.64131311423472
 20
46.18082293246588
 30
0.0
 10
69.64688244884597
 20
46.23237215787948
 30
0.0
 10
69.65059233038245
 20
46.26671046450508
 30
0.0
  0
SPLINE
  5
165
330
1F
100
AcDbEntity
  8
0
  6
Continuous
 62
     7
370
    30
100
AcDbSpline
210
0.0
220
0.0
230
1.0
 70
     8
 71
     3
 72
    10
 73
     6
 74
     0
 42
0.000000001
 43
0.00000001
 40
0.0
 40
0.0
 40
0.0
 40
0.0
 40
0.2508083184244138
 40
0.5014092167677396
 40
1.0
 40
1.0
 40
1.0
 40
1.0
 10
69.2769179522593
 20
46.02841741382542
 30
0.0
 10
69.3007787442544
 20
46.02895906525639
 30
0.0
 10
69.34848059521727
 20
46.03004192016915
 30
0.0
 10
69.4430968305815
 20
46.04241654281619
 30
0.0
 10
69.50485988511275
 20
46.06895896871925
 30
0.0
 10
69.54596350450797
 20
46.08662308491988
 30
0.0
  0
LINE
  5
166
330
1F
100
AcDbEntity
  8
0
  6
Continuous
 62
     7
370
    30
100
AcDbLine
 10
68.1409478428
 20
46.0284174138
 30
0.0
 11
69.2769179523
 21
46.0284174138
 31
0.0
  0
SPLINE
  5
167
330
1F
100
AcDbEntity
  8
0
  6
Continuous
 62
     7
370
    30
100
AcDbSpline
210
0.0
220
0.0
230
1.0
 70
     8
 71
     3
 72
    12
 73
     8
 74
     0
 42
0.000000001
 43
0.00000001
 40
0.0
 40
0.0
 40
0.0
 40
0.0
 40
0.2508405333877284
 40
0.5005186823463603
 40
0.6258416189945516
 40
0.7508706987083652
 40
1.0
 40
1.0
 40
1.0
 40
1.0
 10
67.9914780915156
 20
46.16772881597071
 30
0.0
 10
67.99225376999708
 20
46.15078568955231
 30
0.0
 10
67.99380153249874
 20
46.11697795044716
 30
0.0
 10
68.01336103689363
 20
46.07666322952907
 30
0.0
 10
68.04215211204385
 20
46.05027508963767
 30
0.0
 10
68.08220279888604
 20
46.03209648354768
 30
0.0
 10
68.1174673342428
 20
46.02988794516325
 30
0.0
 10
68.14094784276487
 20
46.02841741382539
 30
0.0
  0
LINE
  5
168
330
1F
100
AcDbEntity
  8
0
  6
Continuous
 62
     7
370
    30
100
AcDbLine
 10
67.8719022905
 20
46.167728816
 30
0.0
 11
67.9914780915
 21
46.167728816
 31
0.0
  0
LINE
  5
169
330
1F
100
AcDbEntity
  8
0
  6
Continuous
 62
     7
370
    30
100
AcDbLine
 10
67.8719022905
 20
46.167728816
 30
0.0
 11
67.8719022905
 21
45.7047851524
 31
0.0
  0
LINE
  5
16A
330
1F
100
AcDbEntity
  8
0
  6
Continuous
 62
     7
370
    30
100
AcDbLine
 10
67.9914780915
 20
45.7047851524
 30
0.0
 11
67.8719022905
 21
45.7047851524
 31
0.0
  0
SPLINE
  5
16B
330
1F
100
AcDbEntity
  8
0
  6
Continuous
 62
     7
370
    30
100
AcDbSpline
210
0.0
220
0.0
230
1.0
 70
     8
 71
     3
 72
    13
 73
     9
 74
     0
 42
0.000000001
 43
0.00000001
 40
0.0
 40
0.0
 40
0.0
 40
0.0
 40
0.125266515487451
 40
0.2503236425718696
 40
0.3681556916879768
 40
0.4999147691932076
 40
0.7495198425001066
 40
1.0
 40
1.0
 40
1.0
 40
1.0
 10
68.14094784276486
 20
45.84291563924561
 30
0.0
 10
68.1287426476981
 20
45.84249580817123
 30
0.0
 10
68.10435265907647
 20
45.84165684778826
 30
0.0
 10
68.0700192804353
 20
45.83351058527491
 30
0.0
 10
68.04030849144334
 20
45.81876284934562
 30
0.0
 10
68.0118161406011
 20
45.79201145203038
 30
0.0
 10
67.99382488483948
 20
45.75221705299034
 30
0.0
 10
67.99226126799903
 20
45.7206142195251
 30
0.0
 10
67.9914780915156
 20
45.70478515236579
 30
0.0
  0
LINE
  5
16C
330
1F
100
AcDbEntity
  8
0
  6
Continuous
 62
     7
370
    30
100
AcDbLine
 10
69.2769179523
 20
45.8429156392
 30
0.0
 11
68.1409478428
 21
45.8429156392
 31
0.0
  0
SPLINE
  5
16D
330
1F
100
AcDbEntity
  8
0
  6
Continuous
 62
     7
370
    30
100
AcDbSpline
210
0.0
220
0.0
230
1.0
 70
     8
 71
     3
 72
    10
 73
     6
 74
     0
 42
0.000000001
 43
0.00000001
 40
0.0
 40
0.0
 40
0.0
 40
0.0
 40
0.2501564763781311
 40
0.5003736012593316
 40
1.0
 40
1.0
 40
1.0
 40
1.0
 10
69.65834261378055
 20
45.93190322863458
 30
0.0
 10
69.63158631907226
 20
45.91697282960078
 30
0.0
 10
69.5780672427989
 20
45.88710841177338
 30
0.0
 10
69.44960928186534
 20
45.85027651828784
 30
0.0
 10
69.3459721532133
 20
45.84585903901989
 30
0.0
 10
69.2769179522593
 20
45.84291563924562
 30
0.0
  0
SPLINE
  5
16E
330
1F
100
AcDbEntity
  8
0
  6
Continuous
 62
     7
370
    30
100
AcDbSpline
210
0.0
220
0.0
230
1.0
 70
     8
 71
     3
 72
    10
 73
     6
 74
     0
 42
0.000000001
 43
0.00000001
 40
0.0
 40
0.0
 40
0.0
 40
0.0
 40
0.4994179363304534
 40
0.7497315281210696
 40
1.0
 40
1.0
 40
1.0
 40
1.0
 10
69.80006208163171
 20
46.20049545775029
 30
0.0
 10
69.79518962685418
 20
46.1500909017539
 30
0.0
 10
69.78787504581832
 20
46.07442304515045
 30
0.0
 10
69.72827438098386
 20
45.98508411399749
 30
0.0
 10
69.68165180207458
 20
45.94962912517832
 30
0.0
 10
69.65834261378056
 20
45.93190322863458
 30
0.0
  0
SPLINE
  5
16F
330
1F
100
AcDbEntity
  8
0
  6
Continuous
 62
     7
370
    30
100
AcDbSpline
210
0.0
220
0.0
230
1.0
 70
     8
 71
     3
 72
    11
 73
     7
 74
     0
 42
0.000000001
 43
0.00000001
 40
0.0
 40
0.0
 40
0.0
 40
0.0
 40
0.1255229121053074
 40
0.250982556130057
 40
0.5015396269937212
 40
1.0
 40
1.0
 40
1.0
 40
1.0
 10
69.54983864620701
 20
46.62276975699874
 30
0.0
 10
69.56949749580845
 20
46.60904824454075
 30
0.0
 10
69.60880528624119
 20
46.58161213576255
 30
0.0
 10
69.67719502503547
 20
46.51945287772827
 30
0.0
 10
69.77457062258628
 20
46.39659551883271
 30
0.0
 10
69.78987634364714
 20
46.27885204916326
 30
0.0
 10
69.80006208163171
 20
46.20049545775029
 30
0.0
  0
LINE
  5
170
330
1F
100
AcDbEntity
  8
0
  6
Continuous
 62
     7
370
    30
100
AcDbLine
 10
69.8000620816
 20
45.0486921715
 30
0.0
 11
68.2156827184
 21
45.0486921715
 31
0.0
  0
SPLINE
  5
171
330
1F
100
AcDbEntity
  8
0
  6
Continuous
 62
     7
370
    30
100
AcDbSpline
210
0.0
220
0.0
230
1.0
 70
     8
 71
     3
 72
    10
 73
     6
 74
     0
 42
0.000000001
 43
0.00000001
 40
0.0
 40
0.0
 40
0.0
 40
0.0
 40
0.3291674793685701
 40
0.6529478694290962
 40
1.0
 40
1.0
 40
1.0
 40
1.0
 10
69.68048628063231
 20
45.34983675975248
 30
0.0
 10
69.68386090027346
 20
45.31386653200206
 30
0.0
 10
69.69055491120382
 20
45.24251475807355
 30
0.0
 10
69.73407448492036
 20
45.14158886876366
 30
0.0
 10
69.77756332796363
 20
45.08036569824744
 30
0.0
 10
69.80006208163172
 20
45.04869217152582
 30
0.0
  0
LINE
  5
172
330
1F
100
AcDbEntity
  8
0
  6
Continuous
 62
     7
370
    30
100
AcDbLine
 10
69.5570353379
 20
45.3498367598
 30
0.0
 11
69.6804862806
 21
45.3498367598
 31
0.0
  0
LINE
  5
173
330
1F
100
AcDbEntity
  8
0
  6
Continuous
 62
     7
370
    30
100
AcDbLine
 10
69.5420883628
 20
45.2395979538
 30
0.0
 11
69.5570353379
 21
45.3498367598
 31
0.0
  0
SPLINE
  5
174
330
1F
100
AcDbEntity
  8
0
  6
Continuous
 62
     7
370
    30
100
AcDbSpline
210
0.0
220
0.0
230
1.0
 70
     8
 71
     3
 72
    12
 73
     8
 74
     0
 42
0.000000001
 43
0.00000001
 40
0.0
 40
0.0
 40
0.0
 40
0.0
 40
0.2503346058885101
 40
0.499622741722326
 40
0.6262522957299793
 40
0.7498929195186111
 40
1.0
 40
1.0
 40
1.0
 40
1.0
 10
69.39261861155966
 20
45.1856557930857
 30
0.0
 10
69.40890219110663
 20
45.18606085082261
 30
0.0
 10
69.44140128019359
 20
45.18686927303956
 30
0.0
 10
69.48014458001975
 20
45.19503368757638
 30
0.0
 10
69.50576425779532
 20
45.2057325430484
 30
0.0
 10
69.5269257812199
 20
45.21911518175673
 30
0.0
 10
69.53600959398887
 20
45.23138628910456
 30
0.0
 10
69.54208836280893
 20
45.23959795381307
 30
0.0
  0
LINE
  5
175
330
1F
100
AcDbEntity
  8
0
  6
Continuous
 62
     7
370
    30
100
AcDbLine
 10
68.2156827184
 20
45.1856557931
 30
0.0
 11
69.3926186116
 21
45.1856557931
 31
0.0
  0
SPLINE
  5
176
330
1F
100
AcDbEntity
  8
0
  6
Continuous
 62
     7
370
    30
100
AcDbSpline
210
0.0
220
0.0
230
1.0
 70
     8
 71
     3
 72
    10
 73
     6
 74
     0
 42
0.000000001
 43
0.00000001
 40
0.0
 40
0.0
 40
0.0
 40
0.0
 40
0.2492805667152931
 40
0.5008826090635662
 40
1.0
 40
1.0
 40
1.0
 40
1.0
 10
68.02524718346451
 20
45.23959795381305
 30
0.0
 10
68.03526306031718
 20
45.23090399047286
 30
0.0
 10
68.05538808889891
 20
45.21343509950268
 30
0.0
 10
68.1196295834448
 20
45.18973710340981
 30
0.0
 10
68.17732427897104
 20
45.18728564821645
 30
0.0
 10
68.21568271838952
 20
45.18565579308569
 30
0.0
  0
LINE
  5
177
330
1F
100
AcDbEntity
  8
0
  6
Continuous
 62
     7
370
    30
100
AcDbLine
 10
67.9914780915
 20
45.3669348294
 30
0.0
 11
68.0252471835
 21
45.2395979538
 31
0.0
  0
LINE
  5
178
330
1F
100
AcDbEntity
  8
0
  6
Continuous
 62
     7
370
    30
100
AcDbLine
 10
67.8719022905
 20
45.3669348294
 30
0.0
 11
67.9914780915
 21
45.3669348294
 31
0.0
  0
LINE
  5
179
330
1F
100
AcDbEntity
  8
0
  6
Continuous
 62
     7
370
    30
100
AcDbLine
 10
67.8719022905
 20
45.3669348294
 30
0.0
 11
67.8719022905
 21
44.8890227198
 31
0.0
  0
LINE
  5
17A
330
1F
100
AcDbEntity
  8
0
  6
Continuous
 62
     7
370
    30
100
AcDbLine
 10
67.9914780915
 20
44.8890227198
 30
0.0
 11
67.8719022905
 21
44.8890227198
 31
0.0
  0
LINE
  5
17B
330
1F
100
AcDbEntity
  8
0
  6
Continuous
 62
     7
370
    30
100
AcDbLine
 10
68.0213720418
 20
45.0000938445
 30
0.0
 11
67.9914780915
 21
44.8890227198
 31
0.0
  0
SPLINE
  5
17C
330
1F
100
AcDbEntity
  8
0
  6
Continuous
 62
     7
370
    30
100
AcDbSpline
210
0.0
220
0.0
230
1.0
 70
     8
 71
     3
 72
    10
 73
     6
 74
     0
 42
0.000000001
 43
0.00000001
 40
0.0
 40
0.0
 40
0.0
 40
0.0
 40
0.4995416504901214
 40
0.7498034709452446
 40
1.0
 40
1.0
 40
1.0
 40
1.0
 10
68.21568271838952
 20
45.04869217152581
 30
0.0
 10
68.17670690784777
 20
45.04727391784767
 30
0.0
 10
68.11820488304478
 20
45.04514514334109
 30
0.0
 10
68.05000018870085
 20
45.024543832409
 30
0.0
 10
68.03091392739233
 20
45.00824313157486
 30
0.0
 10
68.02137204176547
 20
45.00009384447863
 30
0.0
  0
SPLINE
  5
17D
330
1F
100
AcDbEntity
  8
0
  6
Continuous
 62
     7
370
    30
100
AcDbSpline
210
0.0
220
0.0
230
1.0
 70
     8
 71
     3
 72
    14
 73
    10
 74
     0
 42
0.000000001
 43
0.00000001
 40
0.0
 40
0.0
 40
0.0
 40
0.0
 40
0.1253258828178486
 40
0.2505180437899449
 40
0.3797024442429551
 40
0.5003456296711887
 40
0.6209804983576207
 40
0.7501746542468074
 40
0.9999999999999999
 40
0.9999999999999999
 40
0.9999999999999999
 40
0.9999999999999999
 10
70.72677453937716
 20
45.1158760761715
 30
0.0
 10
70.72648235454851
 20
45.1091986372718
 30
0.0
 10
70.7258982966504
 20
45.09585088425328
 30
0.0
 10
70.7180039744474
 20
45.07620622812672
 30
0.0
 10
70.70299380583747
 20
45.05803678739695
 30
0.0
 10
70.679317919186
 20
45.04263746823632
 30
0.0
 10
70.6479100244691
 20
45.03118087161872
 30
0.0
 10
70.59896426324168
 20
45.02127970784543
 30
0.0
 10
70.5588829160595
 20
45.02031236965522
 30
0.0
 10
70.53246386275312
 20
45.01967476236381
 30
0.0
  0
SPLINE
  5
17E
330
1F
100
AcDbEntity
  8
0
  6
Continuous
 62
     7
370
    30
100
AcDbSpline
210
0.0
220
0.0
230
1.0
 70
     8
 71
     3
 72
     9
 73
     5
 74
     0
 42
0.000000001
 43
0.00000001
 40
0.0
 40
0.0
 40
0.0
 40
0.0
 40
0.4995077818326923
 40
1.0
 40
1.0
 40
1.0
 40
1.0
 10
70.67086178057652
 20
45.18770402531524
 30
0.0
 10
70.68767214794232
 20
45.17714914714989
 30
0.0
 10
70.72132601276125
 20
45.15601858913008
 30
0.0
 10
70.72495717229008
 20
45.12926569266547
 30
0.0
 10
70.72677453937716
 20
45.1158760761715
 30
0.0
  0
SPLINE
  5
17F
330
1F
100
AcDbEntity
  8
0
  6
Continuous
 62
     7
370
    30
100
AcDbSpline
210
0.0
220
0.0
230
1.0
 70
     8
 71
     3
 72
    10
 73
     6
 74
     0
 42
0.000000001
 43
0.00000001
 40
0.0
 40
0.0
 40
0.0
 40
0.0
 40
0.2508377305454063
 40
0.5013368652755436
 40
1.0
 40
1.0
 40
1.0
 40
1.0
 10
70.53246386275312
 20
45.21749309749466
 30
0.0
 10
70.54524778679728
 20
45.21721133768782
 30
0.0
 10
70.57079837837807
 20
45.21664819841043
 30
0.0
 10
70.62071855957758
 20
45.20923384404071
 30
0.0
 10
70.65082325941421
 20
45.19630789478267
 30
0.0
 10
70.67086178057653
 20
45.18770402531524
 30
0.0
  0
SPLINE
  5
180
330
1F
100
AcDbEntity
  8
0
  6
Continuous
 62
     7
370
    30
100
AcDbSpline
210
0.0
220
0.0
230
1.0
 70
     8
 71
     3
 72
    10
 73
     6
 74
     0
 42
0.000000001
 43
0.00000001
 40
0.0
 40
0.0
 40
0.0
 40
0.0
 40
0.2507789149874333
 40
0.5012404149339181
 40
1.0
 40
1.0
 40
1.0
 40
1.0
 10
70.39406594492972
 20
45.18770402531524
 30
0.0
 10
70.40365905019611
 20
45.19218144505511
 30
0.0
 10
70.42283311857611
 20
45.20113061739025
 30
0.0
 10
70.46831108129004
 20
45.214318244971
 30
0.0
 10
70.50682499235191
 20
45.2162242572271
 30
0.0
 10
70.53246386275312
 20
45.21749309749466
 30
0.0
  0
SPLINE
  5
181
330
1F
100
AcDbEntity
  8
0
  6
Continuous
 62
     7
370
    30
100
AcDbSpline
210
0.0
220
0.0
230
1.0
 70
     8
 71
     3
 72
    10
 73
     6
 74
     0
 42
0.000000001
 43
0.00000001
 40
0.0
 40
0.0
 40
0.0
 40
0.0
 40
0.2508016000314259
 40
0.5012358405695814
 40
1.0
 40
1.0
 40
1.0
 40
1.0
 10
70.33427804443002
 20
45.11587607617149
 30
0.0
 10
70.33502546618843
 20
45.1224717063724
 30
0.0
 10
70.33651921492566
 20
45.13565330588143
 30
0.0
 10
70.35146029848933
 20
45.16165966646759
 30
0.0
 10
70.37703805473079
 20
45.17729506500572
 30
0.0
 10
70.39406594492972
 20
45.18770402531524
 30
0.0
  0
SPLINE
  5
182
330
1F
100
AcDbEntity
  8
0
  6
Continuous
 62
     7
370
    30
100
AcDbSpline
210
0.0
220
0.0
230
1.0
 70
     8
 71
     3
 72
    10
 73
     6
 74
     0
 42
0.000000001
 43
0.00000001
 40
0.0
 40
0.0
 40
0.0
 40
0.0
 40
0.2508428548508311
 40
0.5013299441761648
 40
1.0
 40
1.0
 40
1.0
 40
1.0
 10
70.39406594492974
 20
45.0467956395952
 30
0.0
 10
70.38542063042289
 20
45.05149141104134
 30
0.0
 10
70.36814226289002
 20
45.06087629401262
 30
0.0
 10
70.34131206333339
 20
45.08308079537189
 30
0.0
 10
70.33708905431703
 20
45.10277007520089
 30
0.0
 10
70.33427804443004
 20
45.11587607617149
 30
0.0
  0
SPLINE
  5
183
330
1F
100
AcDbEntity
  8
0
  6
Continuous
 62
     7
370
    30
100
AcDbSpline
210
0.0
220
0.0
230
1.0
 70
     8
 71
     3
 72
    10
 73
     6
 74
     0
 42
0.000000001
 43
0.00000001
 40
0.0
 40
0.0
 40
0.0
 40
0.0
 40
0.2507553566625891
 40
0.5011736638904886
 40
1.0
 40
1.0
 40
1.0
 40
1.0
 10
70.53246386275312
 20
45.01967476236381
 30
0.0
 10
70.51968999954704
 20
45.0199399014744
 30
0.0
 10
70.49415944295102
 20
45.02046982331241
 30
0.0
 10
70.44434198463347
 20
45.02719929995291
 30
0.0
 10
70.41416016480386
 20
45.03896341653586
 30
0.0
 10
70.39406594492974
 20
45.0467956395952
 30
0.0
  0
SPLINE
  5
184
330
1F
100
AcDbEntity
  8
0
  6
Continuous
 62
     7
370
    30
100
AcDbSpline
210
0.0
220
0.0
230
1.0
 70
     8
 71
     3
 72
     9
 73
     5
 74
     0
 42
0.000000001
 43
0.00000001
 40
0.0
 40
0.0
 40
0.0
 40
0.0
 40
0.5006698252641542
 40
1.0
 40
1.0
 40
1.0
 40
1.0
 10
69.80006208163174
 20
44.39419807986332
 30
0.0
 10
69.79717118957072
 20
44.37841459693863
 30
0.0
 10
69.79139714065637
 20
44.34688986321544
 30
0.0
 10
69.71742353438012
 20
44.32791152185666
 30
0.0
 10
69.68048628063235
 20
44.31843506334978
 30
0.0
  0
SPLINE
  5
185
330
1F
100
AcDbEntity
  8
0
  6
Continuous
 62
     7
370
    30
100
AcDbSpline
210
0.0
220
0.0
230
1.0
 70
     8
 71
     3
 72
    11
 73
     7
 74
     0
 42
0.000000001
 43
0.00000001
 40
0.0
 40
0.0
 40
0.0
 40
0.0
 40
0.1254138964560727
 40
0.2507777640573571
 40
0.5011130148295556
 40
1.0
 40
1.0
 40
1.0
 40
1.0
 10
69.54208836280893
 20
44.55245995065894
 30
0.0
 10
69.56290084974242
 20
44.54618962439344
 30
0.0
 10
69.60451752130069
 20
44.53365147315815
 30
0.0
 10
69.67609266242313
 20
44.50695737621017
 30
0.0
 10
69.77571949935657
 20
44.45730576962232
 30
0.0
 10
69.79033200570801
 20
44.41942311990977
 30
0.0
 10
69.80006208163174
 20
44.39419807986331
 30
0.0
  0
SPLINE
  5
186
330
1F
100
AcDbEntity
  8
0
  6
Continuous
 62
     7
370
    30
100
AcDbSpline
210
0.0
220
0.0
230
1.0
 70
     8
 71
     3
 72
     9
 73
     5
 74
     0
 42
0.000000001
 43
0.00000001
 40
0.0
 40
0.0
 40
0.0
 40
0.0
 40
0.5003832241934809
 40
1.0
 40
1.0
 40
1.0
 40
1.0
 10
68.85840264876137
 20
44.63833547609163
 30
0.0
 10
68.9861781211297
 20
44.63463045872232
 30
0.0
 10
69.24153334926363
 20
44.62722609904325
 30
0.0
 10
69.44195456246568
 20
44.57736926255641
 30
0.0
 10
69.54208836280893
 20
44.55245995065894
 30
0.0
  0
SPLINE
  5
187
330
1F
100
AcDbEntity
  8
0
  6
Continuous
 62
     7
370
    30
100
AcDbSpline
210
0.0
220
0.0
230
1.0
 70
     8
 71
     3
 72
    10
 73
     6
 74
     0
 42
0.000000001
 43
0.00000001
 40
0.0
 40
0.0
 40
0.0
 40
0.0
 40
0.249923053679642
 40
0.5001178084698157
 40
1.0
 40
1.0
 40
1.0
 40
1.0
 10
68.09610691739013
 20
44.56143601134274
 30
0.0
 10
68.14999011948929
 20
44.5744207314311
 30
0.0
 10
68.25781510222062
 20
44.60040428780404
 30
0.0
 10
68.51715367612948
 20
44.63210008187135
 30
0.0
 10
68.72193076009628
 20
44.63584182455256
 30
0.0
 10
68.85840264876137
 20
44.63833547609163
 30
0.0
  0
SPLINE
  5
188
330
1F
100
AcDbEntity
  8
0
  6
Continuous
 62
     7
370
    30
100
AcDbSpline
210
0.0
220
0.0
230
1.0
 70
     8
 71
     3
 72
     9
 73
     5
 74
     0
 42
0.000000001
 43
0.00000001
 40
0.0
 40
0.0
 40
0.0
 40
0.0
 40
0.5000936746673093
 40
1.0
 40
1.0
 40
1.0
 40
1.0
 10
67.84200834026636
 20
44.40916165304139
 30
0.0
 10
67.85253918217313
 20
44.43442305489147
 30
0.0
 10
67.87359692083332
 20
44.48493639495096
 30
0.0
 10
68.02194618291638
 20
44.53593932433377
 30
0.0
 10
68.09610691739013
 20
44.56143601134274
 30
0.0
  0
SPLINE
  5
189
330
1F
100
AcDbEntity
  8
0
  6
Continuous
 62
     7
370
    30
100
AcDbSpline
210
0.0
220
0.0
230
1.0
 70
     8
 71
     3
 72
     9
 73
     5
 74
     0
 42
0.000000001
 43
0.00000001
 40
0.0
 40
0.0
 40
0.0
 40
0.0
 40
0.4996384136483048
 40
1.0
 40
1.0
 40
1.0
 40
1.0
 10
67.97265597469165
 20
44.32733549726872
 30
0.0
 10
67.93337211899888
 20
44.33769856678009
 30
0.0
 10
67.8547475484701
 20
44.35843970522798
 30
0.0
 10
67.84625678976258
 20
44.39224618779512
 30
0.0
 10
67.84200834026636
 20
44.40916165304139
 30
0.0
  0
SPLINE
  5
18A
330
1F
100
AcDbEntity
  8
0
  6
Continuous
 62
     7
370
    30
100
AcDbSpline
210
0.0
220
0.0
230
1.0
 70
     8
 71
     3
 72
     9
 73
     5
 74
     0
 42
0.000000001
 43
0.00000001
 40
0.0
 40
0.0
 40
0.0
 40
0.0
 40
0.5012934905933994
 40
0.9999999999999999
 40
0.9999999999999999
 40
0.9999999999999999
 40
0.9999999999999999
 10
68.42106522843945
 20
44.29509908573618
 30
0.0
 10
68.33434623430985
 20
44.29782916293071
 30
0.0
 10
68.16135576912959
 20
44.30327522845075
 30
0.0
 10
68.0354473319182
 20
44.31932925148124
 30
0.0
 10
67.97265597469165
 20
44.32733549726872
 30
0.0
  0
LINE
  5
18B
330
1F
100
AcDbEntity
  8
0
  6
Continuous
 62
     7
370
    30
100
AcDbLine
 10
68.4697812955
 20
44.2996255909
 30
0.0
 11
68.4210652284
 21
44.2950990857
 31
0.0
  0
SPLINE
  5
18C
330
1F
100
AcDbEntity
  8
0
  6
Continuous
 62
     7
370
    30
100
AcDbSpline
210
0.0
220
0.0
230
1.0
 70
     8
 71
     3
 72
     9
 73
     5
 74
     0
 42
0.000000001
 43
0.00000001
 40
0.0
 40
0.0
 40
0.0
 40
0.0
 40
0.4986668931320036
 40
1.0
 40
1.0
 40
1.0
 40
1.0
 10
68.09998205908919
 20
44.33869332674516
 30
0.0
 10
68.14821172897489
 20
44.32941038556494
 30
0.0
 10
68.24492893749617
 20
44.31079487026191
 30
0.0
 10
68.39469740459285
 20
44.30335529582558
 30
0.0
 10
68.46978129551329
 20
44.29962559085965
 30
0.0
  0
LINE
  5
18D
330
1F
100
AcDbEntity
  8
0
  6
Continuous
 62
     7
370
    30
100
AcDbLine
 10
68.0363190169
 20
44.4000740562
 30
0.0
 11
68.0999820591
 21
44.3386933267
 31
0.0
  0
SPLINE
  5
18E
330
1F
100
AcDbEntity
  8
0
  6
Continuous
 62
     7
370
    30
100
AcDbSpline
210
0.0
220
0.0
230
1.0
 70
     8
 71
     3
 72
    11
 73
     7
 74
     0
 42
0.000000001
 43
0.00000001
 40
0.0
 40
0.0
 40
0.0
 40
0.0
 40
0.2502278532405975
 40
0.5002161221344745
 40
0.7499229029305916
 40
1.0
 40
1.0
 40
1.0
 40
1.0
 10
68.30923971083813
 20
44.51169282885289
 30
0.0
 10
68.26991018728206
 20
44.5043399846401
 30
0.0
 10
68.19128879680198
 20
44.48964133630359
 30
0.0
 10
68.1011465354491
 20
44.46097923722311
 30
0.0
 10
68.04530498111474
 20
44.42948746773642
 30
0.0
 10
68.03931581752772
 20
44.40988336861648
 30
0.0
 10
68.0363190168904
 20
44.40007405620025
 30
0.0
  0
SPLINE
  5
18F
330
1F
100
AcDbEntity
  8
0
  6
Continuous
 62
     7
370
    30
100
AcDbSpline
210
0.0
220
0.0
230
1.0
 70
     8
 71
     3
 72
     9
 73
     5
 74
     0
 42
0.000000001
 43
0.00000001
 40
0.0
 40
0.0
 40
0.0
 40
0.0
 40
0.5003804375913002
 40
1.0
 40
1.0
 40
1.0
 40
1.0
 10
68.85840264876138
 20
44.55245995065894
 30
0.0
 10
68.7617994320285
 20
44.55105259212264
 30
0.0
 10
68.56873989277491
 20
44.54824001507014
 30
0.0
 10
68.39569588318626
 20
44.52386904316942
 30
0.0
 10
68.30923971083814
 20
44.51169282885289
 30
0.0
  0
SPLINE
  5
190
330
1F
100
AcDbEntity
  8
0
  6
Continuous
 62
     7
370
    30
100
AcDbSpline
210
0.0
220
0.0
230
1.0
 70
     8
 71
     3
 72
     9
 73
     5
 74
     0
 42
0.000000001
 43
0.00000001
 40
0.0
 40
0.0
 40
0.0
 40
0.0
 40
0.4993513543406681
 40
1.0
 40
1.0
 40
1.0
 40
1.0
 10
69.45240651205937
 20
44.49552768558512
 30
0.0
 10
69.36284178975971
 20
44.51241945442798
 30
0.0
 10
69.18347966022685
 20
44.54624687613422
 30
0.0
 10
68.9668553275386
 20
44.55038713544321
 30
0.0
 10
68.85840264876137
 20
44.55245995065894
 30
0.0
  0
SPLINE
  5
191
330
1F
100
AcDbEntity
  8
0
  6
Continuous
 62
     7
370
    30
100
AcDbSpline
210
0.0
220
0.0
230
1.0
 70
     8
 71
     3
 72
    11
 73
     7
 74
     0
 42
0.000000001
 43
0.00000001
 40
0.0
 40
0.0
 40
0.0
 40
0.0
 40
0.1254637692826916
 40
0.2508743879101145
 40
0.5012635249725955
 40
1.0
 40
1.0
 40
1.0
 40
1.0
 10
69.66553930550741
 20
44.39419807986332
 30
0.0
 10
69.66492033859966
 20
44.39835860844238
 30
0.0
 10
69.66368266699926
 20
44.40667790306123
 30
0.0
 10
69.649463463639
 20
44.42414587679998
 30
0.0
 10
69.60159444165559
 20
44.45597327038475
 30
0.0
 10
69.51203286251236
 20
44.47971886359071
 30
0.0
 10
69.45240651205937
 20
44.49552768558511
 30
0.0
  0
SPLINE
  5
192
330
1F
100
AcDbEntity
  8
0
  6
Continuous
 62
     7
370
    30
100
AcDbSpline
210
0.0
220
0.0
230
1.0
 70
     8
 71
     3
 72
    13
 73
     9
 74
     0
 42
0.000000001
 43
0.00000001
 40
0.0
 40
0.0
 40
0.0
 40
0.0
 40
0.0626139020342171
 40
0.1250081517118451
 40
0.1852395402851159
 40
0.2501425761716525
 40
0.4995812533042225
 40
0.9999999999999999
 40
0.9999999999999999
 40
0.9999999999999999
 40
0.9999999999999999
 10
69.53101652938307
 20
44.3371594693515
 30
0.0
 10
69.53941314456739
 20
44.33726173175774
 30
0.0
 10
69.5561769192361
 20
44.33746589782913
 30
0.0
 10
69.57933484478889
 20
44.33888124576801
 30
0.0
 10
69.59872193370303
 20
44.34117800609874
 30
0.0
 10
69.62951736819348
 20
44.34694182504784
 30
0.0
 10
69.66164434514482
 20
44.36318548308048
 30
0.0
 10
69.66398036098856
 20
44.38178539442652
 30
0.0
 10
69.66553930550741
 20
44.39419807986332
 30
0.0
  0
SPLINE
  5
193
330
1F
100
AcDbEntity
  8
0
  6
Continuous
 62
     7
370
    30
100
AcDbSpline
210
0.0
220
0.0
230
1.0
 70
     8
 71
     3
 72
    10
 73
     6
 74
     0
 42
0.000000001
 43
0.00000001
 40
0.0
 40
0.0
 40
0.0
 40
0.0
 40
0.5006964024275756
 40
0.752552072060495
 40
1.0
 40
1.0
 40
1.0
 40
1.0
 10
69.47897891228146
 20
44.34293578194007
 30
0.0
 10
69.48545523634486
 20
44.34157810802419
 30
0.0
 10
69.49518922099027
 20
44.3395375095425
 30
0.0
 10
69.51396882454257
 20
44.33757022411021
 30
0.0
 10
69.52536750277275
 20
44.33729557943693
 30
0.0
 10
69.53101652938307
 20
44.3371594693515
 30
0.0
  0
SPLINE
  5
194
330
1F
100
AcDbEntity
  8
0
  6
Continuous
 62
     7
370
    30
100
AcDbSpline
210
0.0
220
0.0
230
1.0
 70
     8
 71
     3
 72
     9
 73
     5
 74
     0
 42
0.000000001
 43
0.00000001
 40
0.0
 40
0.0
 40
0.0
 40
0.0
 40
0.5003366825879798
 40
0.9999999999999999
 40
0.9999999999999999
 40
0.9999999999999999
 40
0.9999999999999999
 10
69.36659980300887
 20
44.34790545545535
 30
0.0
 10
69.38667369995665
 20
44.3477199090023
 30
0.0
 10
69.4267944779175
 20
44.34734906580908
 30
0.0
 10
69.46159191128676
 20
44.34440621602555
 30
0.0
 10
69.47897891228146
 20
44.34293578194007
 30
0.0
  0
SPLINE
  5
195
330
1F
100
AcDbEntity
  8
0
  6
Continuous
 62
     7
370
    30
100
AcDbSpline
210
0.0
220
0.0
230
1.0
 70
     8
 71
     3
 72
    10
 73
     6
 74
     0
 42
0.000000001
 43
0.00000001
 40
0.0
 40
0.0
 40
0.0
 40
0.0
 40
0.2510481082437939
 40
0.5017582820258729
 40
1.0
 40
1.0
 40
1.0
 40
1.0
 10
69.25477428540758
 20
44.34024741541909
 30
0.0
 10
69.26219291393441
 20
44.34133104472011
 30
0.0
 10
69.27702018481352
 20
44.34349684465477
 30
0.0
 10
69.31356834143489
 20
44.34683962023257
 30
0.0
 10
69.34541424984764
 20
44.34747966464923
 30
0.0
 10
69.36659980300887
 20
44.34790545545535
 30
0.0
  0
SPLINE
  5
196
330
1F
100
AcDbEntity
  8
0
  6
Continuous
 62
     7
370
    30
100
AcDbSpline
210
0.0
220
0.0
230
1.0
 70
     8
 71
     3
 72
    10
 73
     6
 74
     0
 42
0.000000001
 43
0.00000001
 40
0.0
 40
0.0
 40
0.0
 40
0.0
 40
0.2508330002098714
 40
0.5013491902807702
 40
1.0
 40
1.0
 40
1.0
 40
1.0
 10
69.20218307663468
 20
44.32366441858139
 30
0.0
 10
69.20278746895431
 20
44.32509810339049
 30
0.0
 10
69.20399549022663
 20
44.32796366221871
 30
0.0
 10
69.21718299224841
 20
44.3338779899064
 30
0.0
 10
69.23975211740408
 20
44.33770207653617
 30
0.0
 10
69.25477428540758
 20
44.34024741541909
 30
0.0
  0
SPLINE
  5
197
330
1F
100
AcDbEntity
  8
0
  6
Continuous
 62
     7
370
    30
100
AcDbSpline
210
0.0
220
0.0
230
1.0
 70
     8
 71
     3
 72
     9
 73
     5
 74
     0
 42
0.000000001
 43
0.00000001
 40
0.0
 40
0.0
 40
0.0
 40
0.0
 40
0.4997213296138153
 40
1.0
 40
1.0
 40
1.0
 40
1.0
 10
69.2359521685836
 20
44.3089755471744
 30
0.0
 10
69.225872965327
 20
44.31111310325699
 30
0.0
 10
69.20570331744669
 20
44.31539059944517
 30
0.0
 10
69.20335692615186
 20
44.32090545431816
 30
0.0
 10
69.20218307663468
 20
44.32366441858139
 30
0.0
  0
SPLINE
  5
198
330
1F
100
AcDbEntity
  8
0
  6
Continuous
 62
     7
370
    30
100
AcDbSpline
210
0.0
220
0.0
230
1.0
 70
     8
 71
     3
 72
    10
 73
     6
 74
     0
 42
0.000000001
 43
0.00000001
 40
0.0
 40
0.0
 40
0.0
 40
0.0
 40
0.2507574264030861
 40
0.5011859718679682
 40
1.0
 40
1.0
 40
1.0
 40
1.0
 10
69.39261861155968
 20
44.30341018994707
 30
0.0
 10
69.37831926792214
 20
44.30347501101158
 30
0.0
 10
69.34973933495326
 20
44.30360456812451
 30
0.0
 10
69.29349791720155
 20
44.30481874897563
 30
0.0
 10
69.25895162760672
 20
44.30731418882672
 30
0.0
 10
69.2359521685836
 20
44.30897554717441
 30
0.0
  0
SPLINE
  5
199
330
1F
100
AcDbEntity
  8
0
  6
Continuous
 62
     7
370
    30
100
AcDbSpline
210
0.0
220
0.0
230
1.0
 70
     8
 71
     3
 72
    10
 73
     6
 74
     0
 42
0.000000001
 43
0.00000001
 40
0.0
 40
0.0
 40
0.0
 40
0.0
 40
0.4992387631567923
 40
0.7516165399035507
 40
1.0
 40
1.0
 40
1.0
 40
1.0
 10
69.68048628063234
 20
44.31843506334978
 30
0.0
 10
69.64130784675076
 20
44.31411598807115
 30
0.0
 10
69.58232372715496
 20
44.30761351138848
 30
0.0
 10
69.47620800902786
 20
44.30394949017377
 30
0.0
 10
69.4203331823967
 20
44.30358899820252
 30
0.0
 10
69.39261861155967
 20
44.30341018994707
 30
0.0
  0
LINE
  5
19A
330
1F
100
AcDbEntity
  8
0
  6
Continuous
 62
     7
370
    30
100
AcDbLine
 10
69.2431488603
 20
44.2803898613
 30
0.0
 11
69.3626973897
 21
44.2803164492
 31
0.0
  0
SPLINE
  5
19B
330
1F
100
AcDbEntity
  8
0
  6
Continuous
 62
     7
370
    30
100
AcDbSpline
210
0.0
220
0.0
230
1.0
 70
     8
 71
     3
 72
    10
 73
     6
 74
     0
 42
0.000000001
 43
0.00000001
 40
0.0
 40
0.0
 40
0.0
 40
0.0
 40
0.3329429967037237
 40
0.6691674332193104
 40
1.0
 40
1.0
 40
1.0
 40
1.0
 10
68.78366777313673
 20
44.28208898384401
 30
0.0
 10
68.83605500158782
 20
44.28204175392028
 30
0.0
 10
68.94134577971847
 20
44.28194682858129
 30
0.0
 10
69.09693836980682
 20
44.28118250680317
 30
0.0
 10
69.19467536853932
 20
44.28065264886952
 30
0.0
 10
69.2431488603104
 20
44.28038986134258
 30
0.0
  0
SPLINE
  5
19C
330
1F
100
AcDbEntity
  8
0
  6
Continuous
 62
     7
370
    30
100
AcDbSpline
210
0.0
220
0.0
230
1.0
 70
     8
 71
     3
 72
     9
 73
     5
 74
     0
 42
0.000000001
 43
0.00000001
 40
0.0
 40
0.0
 40
0.0
 40
0.0
 40
0.4997057696359016
 40
1.0
 40
1.0
 40
1.0
 40
1.0
 10
68.27159547719017
 20
44.28017656442625
 30
0.0
 10
68.35313330767437
 20
44.28064655352212
 30
0.0
 10
68.51630498876905
 20
44.28158708517981
 30
0.0
 10
68.69451188909338
 20
44.28192161866934
 30
0.0
 10
68.78366777313673
 20
44.28208898384401
 30
0.0
  0
LINE
  5
19D
330
1F
100
AcDbEntity
  8
0
  6
Continuous
 62
     7
370
    30
100
AcDbLine
 10
68.219808271
 20
44.2803219475
 30
0.0
 11
68.2715954772
 21
44.2801765644
 31
0.0
  0
SPLINE
  5
19E
330
1F
100
AcDbEntity
  8
0
  6
Continuous
 62
     7
370
    30
100
AcDbSpline
210
0.0
220
0.0
230
1.0
 70
     8
 71
     3
 72
    10
 73
     6
 74
     0
 42
0.000000001
 43
0.00000001
 40
0.0
 40
0.0
 40
0.0
 40
0.0
 40
0.4789524546414369
 40
0.9577193144710959
 40
0.9999999999999999
 40
0.9999999999999999
 40
0.9999999999999999
 40
0.9999999999999999
 10
68.78366777313673
 20
44.28113704819825
 30
0.0
 10
68.75006942354113
 20
44.28117039193138
 30
0.0
 10
68.68288574376199
 20
44.28123706647692
 30
0.0
 10
68.61163816571838
 20
44.28124229110197
 30
0.0
 10
68.57668742495929
 20
44.28154430212014
 30
0.0
 10
68.57385132815354
 20
44.28156880896793
 30
0.0
  0
SPLINE
  5
19F
330
1F
100
AcDbEntity
  8
0
  6
Continuous
 62
     7
370
    30
100
AcDbSpline
210
0.0
220
0.0
230
1.0
 70
     8
 71
     3
 72
     9
 73
     5
 74
     0
 42
0.000000001
 43
0.00000001
 40
0.0
 40
0.0
 40
0.0
 40
0.0
 40
0.4999987697799347
 40
1.0
 40
1.0
 40
1.0
 40
1.0
 10
68.92926238268694
 20
44.2813563072492
 30
0.0
 10
68.90510370198592
 20
44.28129094606664
 30
0.0
 10
68.85678622170161
 20
44.28116022337986
 30
0.0
 10
68.80804062930355
 20
44.28114477327146
 30
0.0
 10
68.78366777313673
 20
44.28113704819825
 30
0.0
  0
LINE
  5
1A0
330
1F
100
AcDbEntity
  8
0
  6
Continuous
 62
     7
370
    30
100
AcDbLine
 10
59.5213720418
 20
44.9800674943
 30
0.0
 11
59.5213720418
 21
55.5800674943
 31
0.0
  0
LINE
  5
1A1
330
1F
100
AcDbEntity
  8
0
  6
Continuous
 62
     7
370
    30
100
AcDbLine
 10
70.6968805891
 20
48.0124161743
 30
0.0
 11
70.5773047881
 21
48.0124161743
 31
0.0
  0
SPLINE
  5
1A2
330
1F
100
AcDbEntity
  8
0
  6
Continuous
 62
     7
370
    30
100
AcDbSpline
210
0.0
220
0.0
230
1.0
 70
     8
 71
     3
 72
    13
 73
     9
 74
     0
 42
0.000000001
 43
0.00000001
 40
0.0
 40
0.0
 40
0.0
 40
0.0
 40
0.2498123127853797
 40
0.3802843237902228
 40
0.4997528889782986
 40
0.6254353688002029
 40
0.7497950507222749
 40
1.0
 40
1.0
 40
1.0
 40
1.0
 10
70.57730478812788
 20
48.0953735088432
 30
0.0
 10
70.57666364724064
 20
48.11141360771952
 30
0.0
 10
70.57568765119767
 20
48.13583113176667
 30
0.0
 10
70.56445594803137
 20
48.16639520989095
 30
0.0
 10
70.5507868592901
 20
48.18704909625183
 30
0.0
 10
70.53212914947078
 20
48.20351889799561
 30
0.0
 10
70.50105096273963
 20
48.21833009766031
 30
0.0
 10
70.4750783796871
 20
48.21976220417506
 30
0.0
 10
70.45772898712848
 20
48.22071883517552
 30
0.0
  0
LINE
  5
1A3
330
1F
100
AcDbEntity
  8
0
  6
Continuous
 62
     7
370
    30
100
AcDbLine
 10
70.4577289871
 20
48.2207188352
 30
0.0
 11
68.4210652284
 21
48.2207188352
 31
0.0
  0
SPLINE
  5
1A4
330
1F
100
AcDbEntity
  8
0
  6
Continuous
 62
     7
370
    30
100
AcDbSpline
210
0.0
220
0.0
230
1.0
 70
     8
 71
     3
 72
    13
 73
     9
 74
     0
 42
0.000000001
 43
0.00000001
 40
0.0
 40
0.0
 40
0.0
 40
0.0
 40
0.2503216123696039
 40
0.3786982929254311
 40
0.5005167153125359
 40
0.6214824938302381
 40
0.7504040868828531
 40
0.9999999999999999
 40
0.9999999999999999
 40
0.9999999999999999
 40
0.9999999999999999
 10
68.42106522843939
 20
48.22071883517551
 30
0.0
 10
68.36855421004839
 20
48.21798339381703
 30
0.0
 10
68.28911307495741
 20
48.21384508964486
 30
0.0
 10
68.19158289189235
 20
48.17600466633575
 30
0.0
 10
68.1294876210283
 20
48.13152274786233
 30
0.0
 10
68.08283377199221
 20
48.07300476902264
 30
0.0
 10
68.04273825131473
 20
47.98265586280273
 30
0.0
 10
68.03886985345662
 20
47.90973867739787
 30
0.0
 10
68.03631901689037
 20
47.86165680224967
 30
0.0
  0
LINE
  5
1A5
330
1F
100
AcDbEntity
  8
0
  6
Continuous
 62
     7
370
    30
100
AcDbLine
 10
70.6968805891
 20
47.1626998838
 30
0.0
 11
70.5773047881
 21
47.1626998838
 31
0.0
  0
SPLINE
  5
1A6
330
1F
100
AcDbEntity
  8
0
  6
Continuous
 62
     7
370
    30
100
AcDbSpline
210
0.0
220
0.0
230
1.0
 70
     8
 71
     3
 72
    13
 73
     9
 74
     0
 42
0.000000001
 43
0.00000001
 40
0.0
 40
0.0
 40
0.0
 40
0.0
 40
0.2495593923731291
 40
0.3798274885119653
 40
0.4993859877971678
 40
0.618993054460776
 40
0.7496293910545755
 40
0.9999999999999999
 40
0.9999999999999999
 40
0.9999999999999999
 40
0.9999999999999999
 10
70.57730478812789
 20
47.21370518608799
 30
0.0
 10
70.576205254313
 20
47.23111264064379
 30
0.0
 10
70.57453177224734
 20
47.25760665348154
 30
0.0
 10
70.55888707229025
 20
47.29008975378591
 30
0.0
 10
70.54095187369705
 20
47.3110385435824
 30
0.0
 10
70.51671175942839
 20
47.32657049161422
 30
0.0
 10
70.47903848203914
 20
47.34013196012818
 30
0.0
 10
70.44813958786223
 20
47.34158470384647
 30
0.0
 10
70.42783503687862
 20
47.34253934347614
 30
0.0
  0
LINE
  5
1A7
330
1F
100
AcDbEntity
  8
0
  6
Continuous
 62
     7
370
    30
100
AcDbLine
 10
70.4278350369
 20
47.3425393435
 30
0.0
 11
68.4847282706
 21
47.3425393435
 31
0.0
  0
SPLINE
  5
1A8
330
1F
100
AcDbEntity
  8
0
  6
Continuous
 62
     7
370
    30
100
AcDbSpline
210
0.0
220
0.0
230
1.0
 70
     8
 71
     3
 72
    10
 73
     6
 74
     0
 42
0.000000001
 43
0.00000001
 40
0.0
 40
0.0
 40
0.0
 40
0.0
 40
0.4996028079601291
 40
0.7499496393672758
 40
1.0
 40
1.0
 40
1.0
 40
1.0
 10
68.48472827063819
 20
47.34253934347611
 30
0.0
 10
68.39750270456405
 20
47.34803656855458
 30
0.0
 10
68.26656912937459
 20
47.35628840761437
 30
0.0
 10
68.10703987903368
 20
47.42214766980658
 30
0.0
 10
68.04253402595735
 20
47.47375238094607
 30
0.0
 10
68.01030020833957
 20
47.49953944937102
 30
0.0
  0
SPLINE
  5
1A9
330
1F
100
AcDbEntity
  8
0
  6
Continuous
 62
     7
370
    30
100
AcDbSpline
210
0.0
220
0.0
230
1.0
 70
     8
 71
     3
 72
    10
 73
     6
 74
     0
 42
0.000000001
 43
0.00000001
 40
0.0
 40
0.0
 40
0.0
 40
0.0
 40
0.2504183065326262
 40
0.500715888906578
 40
1.0
 40
1.0
 40
1.0
 40
1.0
 10
68.01030020833957
 20
47.49953944937102
 30
0.0
 10
67.9825317021618
 20
47.52903462696814
 30
0.0
 10
67.92700807672512
 20
47.58801076283255
 30
0.0
 10
67.85663423951588
 20
47.7318123344979
 30
0.0
 10
67.84785562912562
 20
47.85074580841561
 30
0.0
 10
67.84200834026632
 20
47.92996545094659
 30
0.0
  0
LINE
  5
1AA
330
1F
100
AcDbEntity
  8
0
  6
Continuous
 62
     7
370
    30
100
AcDbLine
 10
68.0363190169
 20
47.8535684722
 30
0.0
 11
68.0363190169
 21
47.8616568022
 31
0.0
  0
LINE
  5
1AB
330
1F
100
AcDbEntity
  8
0
  6
Continuous
 62
     7
370
    30
100
AcDbLine
 10
68.4210652284
 20
48.2138313815
 30
0.0
 11
68.4210652284
 21
48.2207188352
 31
0.0
  0
LINE
  5
1AC
330
1F
100
AcDbEntity
  8
0
  6
Continuous
 62
     7
370
    30
100
AcDbLine
 10
70.4577289871
 20
48.2138313815
 30
0.0
 11
70.4577289871
 21
48.2207188352
 31
0.0
  0
LINE
  5
1AD
330
1F
100
AcDbEntity
  8
0
  6
Continuous
 62
     7
370
    30
100
AcDbLine
 10
70.5773047881
 20
48.08806684
 30
0.0
 11
70.5773047881
 21
48.0953735088
 31
0.0
  0
LINE
  5
1AE
330
1F
100
AcDbEntity
  8
0
  6
Continuous
 62
     7
370
    30
100
AcDbLine
 10
68.0103002083
 20
47.4902400245
 30
0.0
 11
68.0103002083
 21
47.4995394494
 31
0.0
  0
LINE
  5
1AF
330
1F
100
AcDbEntity
  8
0
  6
Continuous
 62
     7
370
    30
100
AcDbLine
 10
67.8420083403
 20
47.9221055779
 30
0.0
 11
67.8420083403
 21
47.9299654509
 31
0.0
  0
LINE
  5
1B0
330
1F
100
AcDbEntity
  8
0
  6
Continuous
 62
     7
370
    30
100
AcDbLine
 10
68.4847282706
 20
47.3327148346
 30
0.0
 11
68.4847282706
 21
47.3425393435
 31
0.0
  0
LINE
  5
1B1
330
1F
100
AcDbEntity
  8
0
  6
Continuous
 62
     7
370
    30
100
AcDbLine
 10
70.4278350369
 20
47.3327148346
 30
0.0
 11
70.4278350369
 21
47.3425393435
 31
0.0
  0
LINE
  5
1B2
330
1F
100
AcDbEntity
  8
0
  6
Continuous
 62
     7
370
    30
100
AcDbLine
 10
70.5773047881
 20
47.2034497938
 30
0.0
 11
70.5773047881
 21
47.2137051861
 31
0.0
  0
LINE
  5
1B3
330
1F
100
AcDbEntity
  8
0
  6
Continuous
 62
     7
370
    30
100
AcDbLine
 10
69.8000620816
 20
46.6349607495
 30
0.0
 11
69.5498386462
 21
46.6349607495
 31
0.0
  0
SPLINE
  5
1B4
330
1F
100
AcDbEntity
  8
0
  6
Continuous
 62
     7
370
    30
100
AcDbSpline
210
0.0
220
0.0
230
1.0
 70
     8
 71
     3
 72
    10
 73
     6
 74
     0
 42
0.000000001
 43
0.00000001
 40
0.0
 40
0.0
 40
0.0
 40
0.0
 40
0.4991901199349606
 40
0.7495271903466217
 40
1.0
 40
1.0
 40
1.0
 40
1.0
 10
69.80006208163171
 20
46.21409403120547
 30
0.0
 10
69.79518676419839
 20
46.16385116741101
 30
0.0
 10
69.78786654123742
 20
46.08841218929232
 30
0.0
 10
69.72824961242195
 20
45.99937693040494
 30
0.0
 10
69.68164915684854
 20
45.96406024055398
 30
0.0
 10
69.65834261378056
 20
45.94639710952015
 30
0.0
  0
SPLINE
  5
1B5
330
1F
100
AcDbEntity
  8
0
  6
Continuous
 62
     7
370
    30
100
AcDbSpline
210
0.0
220
0.0
230
1.0
 70
     8
 71
     3
 72
    10
 73
     6
 74
     0
 42
0.000000001
 43
0.00000001
 40
0.0
 40
0.0
 40
0.0
 40
0.0
 40
0.2499773672510234
 40
0.5001764863192304
 40
1.0
 40
1.0
 40
1.0
 40
1.0
 10
69.65834261378055
 20
45.94639710952015
 30
0.0
 10
69.63158153320107
 20
45.93151503765856
 30
0.0
 10
69.57803563261996
 20
45.90173769223432
 30
0.0
 10
69.44957447444693
 20
45.86503844967665
 30
0.0
 10
69.34596468239184
 20
45.86063839279643
 30
0.0
 10
69.2769179522593
 20
45.85770614542917
 30
0.0
  0
LINE
  5
1B6
330
1F
100
AcDbEntity
  8
0
  6
Continuous
 62
     7
370
    30
100
AcDbLine
 10
69.2769179523
 20
45.8577061454
 30
0.0
 11
68.1409478428
 21
45.8577061454
 31
0.0
  0
SPLINE
  5
1B7
330
1F
100
AcDbEntity
  8
0
  6
Continuous
 62
     7
370
    30
100
AcDbSpline
210
0.0
220
0.0
230
1.0
 70
     8
 71
     3
 72
    13
 73
     9
 74
     0
 42
0.000000001
 43
0.00000001
 40
0.0
 40
0.0
 40
0.0
 40
0.0
 40
0.1255203605718837
 40
0.250787870114196
 40
0.3686983472764579
 40
0.500468405960757
 40
0.7498359064601671
 40
1.0
 40
1.0
 40
1.0
 40
1.0
 10
68.14094784276486
 20
45.85770614542916
 30
0.0
 10
68.12874325191444
 20
45.85728778715277
 30
0.0
 10
68.1043586554151
 20
45.85645191335033
 30
0.0
 10
68.07003507917076
 20
45.84833738673065
 30
0.0
 10
68.0403232893531
 20
45.83364411891804
 30
0.0
 10
68.01182731900782
 20
45.80698771159648
 30
0.0
 10
67.9938247541999
 20
45.76731626393349
 30
0.0
 10
67.99226114356324
 20
45.73581289624497
 30
0.0
 10
67.9914780915156
 20
45.72003609350558
 30
0.0
  0
LINE
  5
1B8
330
1F
100
AcDbEntity
  8
0
  6
Continuous
 62
     7
370
    30
100
AcDbLine
 10
67.9914780915
 20
45.7200360935
 30
0.0
 11
67.8719022905
 21
45.7200360935
 31
0.0
  0
SPLINE
  5
1B9
330
1F
100
AcDbEntity
  8
0
  6
Continuous
 62
     7
370
    30
100
AcDbSpline
210
0.0
220
0.0
230
1.0
 70
     8
 71
     3
 72
    10
 73
     6
 74
     0
 42
0.000000001
 43
0.00000001
 40
0.0
 40
0.0
 40
0.0
 40
0.0
 40
0.2498321562132092
 40
0.4999995350655176
 40
1.0
 40
1.0
 40
1.0
 40
1.0
 10
69.65059233038245
 20
46.28008832127109
 30
0.0
 10
69.64579255360992
 20
46.31669872224683
 30
0.0
 10
69.63618655976563
 20
46.38996864771958
 30
0.0
 10
69.53643186177233
 20
46.52424020530963
 30
0.0
 10
69.41426028282817
 20
46.59067845309281
 30
0.0
 10
69.33283071105993
 20
46.63496074945643
 30
0.0
  0
LINE
  5
1BA
330
1F
100
AcDbEntity
  8
0
  6
Continuous
 62
     7
370
    30
100
AcDbLine
 10
69.3328307111
 20
46.6349607495
 30
0.0
 11
68.1409478428
 21
46.6349607495
 31
0.0
  0
SPLINE
  5
1BB
330
1F
100
AcDbEntity
  8
0
  6
Continuous
 62
     7
370
    30
100
AcDbSpline
210
0.0
220
0.0
230
1.0
 70
     8
 71
     3
 72
    13
 73
     9
 74
     0
 42
0.000000001
 43
0.00000001
 40
0.0
 40
0.0
 40
0.0
 40
0.0
 40
0.1255203605729134
 40
0.2507878701162786
 40
0.3686983472110755
 40
0.5004684059566831
 40
0.7498359064580968
 40
1.0
 40
1.0
 40
1.0
 40
1.0
 10
68.14094784276486
 20
46.63496074945642
 30
0.0
 10
68.12874325191463
 20
46.63446810022396
 30
0.0
 10
68.1043586554157
 20
46.63348379416271
 30
0.0
 10
68.07003507917479
 20
46.62392480450713
 30
0.0
 10
68.04032328936727
 20
46.60659977831989
 30
0.0
 10
68.01182731900346
 20
46.57512067194004
 30
0.0
 10
67.9938247542018
 20
46.52815462687998
 30
0.0
 10
67.99226114356387
 20
46.49065501315211
 30
0.0
 10
67.99147809151559
 20
46.47187530634623
 30
0.0
  0
LINE
  5
1BC
330
1F
100
AcDbEntity
  8
0
  6
Continuous
 62
     7
370
    30
100
AcDbLine
 10
67.9914780915
 20
46.4718753063
 30
0.0
 11
67.8719022905
 21
46.4718753063
 31
0.0
  0
LINE
  5
1BD
330
1F
100
AcDbEntity
  8
0
  6
Continuous
 62
     7
370
    30
100
AcDbLine
 10
69.5498386462
 20
46.622769757
 30
0.0
 11
69.5498386462
 21
46.6349607495
 31
0.0
  0
LINE
  5
1BE
330
1F
100
AcDbEntity
  8
0
  6
Continuous
 62
     7
370
    30
100
AcDbLine
 10
67.9914780915
 20
46.4591388776
 30
0.0
 11
67.9914780915
 21
46.4718753063
 31
0.0
  0
LINE
  5
1BF
330
1F
100
AcDbEntity
  8
0
  6
Continuous
 62
     7
370
    30
100
AcDbLine
 10
68.1409478428
 20
46.622769757
 30
0.0
 11
68.1409478428
 21
46.6349607495
 31
0.0
  0
LINE
  5
1C0
330
1F
100
AcDbEntity
  8
0
  6
Continuous
 62
     7
370
    30
100
AcDbLine
 10
69.3328307111
 20
46.622769757
 30
0.0
 11
69.3328307111
 21
46.6349607495
 31
0.0
  0
LINE
  5
1C1
330
1F
100
AcDbEntity
  8
0
  6
Continuous
 62
     7
370
    30
100
AcDbLine
 10
69.6505923304
 20
46.2667104645
 30
0.0
 11
69.6505923304
 21
46.2800883213
 31
0.0
  0
LINE
  5
1C2
330
1F
100
AcDbEntity
  8
0
  6
Continuous
 62
     7
370
    30
100
AcDbLine
 10
69.6583426138
 20
45.9319032286
 30
0.0
 11
69.6583426138
 21
45.9463971095
 31
0.0
  0
LINE
  5
1C3
330
1F
100
AcDbEntity
  8
0
  6
Continuous
 62
     7
370
    30
100
AcDbLine
 10
69.8000620816
 20
46.2004954578
 30
0.0
 11
69.8000620816
 21
46.2140940312
 31
0.0
  0
LINE
  5
1C4
330
1F
100
AcDbEntity
  8
0
  6
Continuous
 62
     7
370
    30
100
AcDbLine
 10
69.2769179523
 20
45.8429156392
 30
0.0
 11
69.2769179523
 21
45.8577061454
 31
0.0
  0
LINE
  5
1C5
330
1F
100
AcDbEntity
  8
0
  6
Continuous
 62
     7
370
    30
100
AcDbLine
 10
67.9914780915
 20
45.7047851524
 30
0.0
 11
67.9914780915
 21
45.7200360935
 31
0.0
  0
LINE
  5
1C6
330
1F
100
AcDbEntity
  8
0
  6
Continuous
 62
     7
370
    30
100
AcDbLine
 10
68.1409478428
 20
45.8429156392
 30
0.0
 11
68.1409478428
 21
45.8577061454
 31
0.0
  0
LINE
  5
1C7
330
1F
100
AcDbEntity
  8
0
  6
Continuous
 62
     7
370
    30
100
AcDbLine
 10
89.0215207418
 20
52.6251226699
 30
0.0
 11
89.0215207418
 21
47.6800674943
 31
0.0
  0
LINE
  5
1C8
330
1F
100
AcDbEntity
  8
0
  6
Continuous
 62
     7
370
    30
100
AcDbLine
 10
89.0215207418
 20
52.8800674943
 30
0.0
 11
89.0215207418
 21
52.6251226699
 31
0.0
  0
LINE
  5
1C9
330
1F
100
AcDbEntity
  8
0
  6
Continuous
 62
     7
370
    30
100
AcDbLine
 10
69.8000620816
 20
45.0661300893
 30
0.0
 11
68.2156827184
 21
45.0661300893
 31
0.0
  0
SPLINE
  5
1CA
330
1F
100
AcDbEntity
  8
0
  6
Continuous
 62
     7
370
    30
100
AcDbSpline
210
0.0
220
0.0
230
1.0
 70
     8
 71
     3
 72
    10
 73
     6
 74
     0
 42
0.000000001
 43
0.00000001
 40
0.0
 40
0.0
 40
0.0
 40
0.0
 40
0.4999278729194566
 40
0.750155990735711
 40
1.0
 40
1.0
 40
1.0
 40
1.0
 10
68.21568271838952
 20
45.06613008926841
 30
0.0
 10
68.17671573929013
 20
45.06471804402123
 30
0.0
 10
68.11824467897183
 20
45.06259922997078
 30
0.0
 10
68.05002784913849
 20
45.04207743586628
 30
0.0
 10
68.03091908503578
 20
45.0258174865954
 30
0.0
 10
68.02137204176547
 20
45.01769375664472
 30
0.0
  0
LINE
  5
1CB
330
1F
100
AcDbEntity
  8
0
  6
Continuous
 62
     7
370
    30
100
AcDbLine
 10
68.0213720418
 20
45.0176937566
 30
0.0
 11
67.9914780915
 21
44.9069928691
 31
0.0
  0
LINE
  5
1CC
330
1F
100
AcDbEntity
  8
0
  6
Continuous
 62
     7
370
    30
100
AcDbLine
 10
67.9914780915
 20
44.9069928691
 30
0.0
 11
67.8719022905
 21
44.9069928691
 31
0.0
  0
LINE
  5
1CD
330
1F
100
AcDbEntity
  8
0
  6
Continuous
 62
     7
370
    30
100
AcDbLine
 10
31.6213720418
 20
52.5349282401
 30
0.0
 11
31.6213720418
 21
47.7800674943
 31
0.0
  0
LINE
  5
1CE
330
1F
100
AcDbEntity
  8
0
  6
Continuous
 62
     7
370
    30
100
AcDbLine
 10
31.6213720418
 20
52.7800674943
 30
0.0
 11
31.6213720418
 21
52.5349282401
 31
0.0
  0
SPLINE
  5
1CF
330
1F
100
AcDbEntity
  8
0
  6
Continuous
 62
     7
370
    30
100
AcDbSpline
210
0.0
220
0.0
230
1.0
 70
     8
 71
     3
 72
    14
 73
    10
 74
     0
 42
0.000000001
 43
0.00000001
 40
0.0
 40
0.0
 40
0.0
 40
0.0
 40
0.2494212645898429
 40
0.3784315377315111
 40
0.4990464548533365
 40
0.6197126249134841
 40
0.749080489022881
 40
0.8744653939050813
 40
1.0
 40
1.0
 40
1.0
 40
1.0
 10
70.72677453937716
 20
45.13309004756528
 30
0.0
 10
70.72544386825261
 20
45.11976828442872
 30
0.0
 10
70.72342492283227
 20
45.09955599291719
 30
0.0
 10
70.7029105332358
 20
45.07543768379647
 30
0.0
 10
70.67933028207769
 20
45.06010028148231
 30
0.0
 10
70.64788913374097
 20
45.04863767837777
 30
0.0
 10
70.61118849430697
 20
45.04141639842044
 30
0.0
 10
70.57192214583405
 20
45.03762909115463
 30
0.0
 10
70.54562185412341
 20
45.03734935588495
 30
0.0
 10
70.53246386275312
 20
45.03720940480362
 30
0.0
  0
SPLINE
  5
1D0
330
1F
100
AcDbEntity
  8
0
  6
Continuous
 62
     7
370
    30
100
AcDbSpline
210
0.0
220
0.0
230
1.0
 70
     8
 71
     3
 72
    10
 73
     6
 74
     0
 42
0.000000001
 43
0.00000001
 40
0.0
 40
0.0
 40
0.0
 40
0.0
 40
0.4989928228874475
 40
0.7494129155162919
 40
1.0
 40
1.0
 40
1.0
 40
1.0
 10
70.53246386275312
 20
45.03720940480362
 30
0.0
 10
70.50682891563048
 20
45.03833787698424
 30
0.0
 10
70.46832904232346
 20
45.04003267416002
 30
0.0
 10
70.42284283365655
 20
45.05191448079292
 30
0.0
 10
70.4036603724221
 20
45.06013050017147
 30
0.0
 10
70.39406594492972
 20
45.06423987911091
 30
0.0
  0
SPLINE
  5
1D1
330
1F
100
AcDbEntity
  8
0
  6
Continuous
 62
     7
370
    30
100
AcDbSpline
210
0.0
220
0.0
230
1.0
 70
     8
 71
     3
 72
    10
 73
     6
 74
     0
 42
0.000000001
 43
0.00000001
 40
0.0
 40
0.0
 40
0.0
 40
0.0
 40
0.4993087938144646
 40
0.7495041008620361
 40
1.0
 40
1.0
 40
1.0
 40
1.0
 10
70.39406594492974
 20
45.0642398791109
 30
0.0
 10
70.37726487013899
 20
45.07397077776133
 30
0.0
 10
70.35204505704824
 20
45.0885776673934
 30
0.0
 10
70.33668422301425
 20
45.11353627279152
 30
0.0
 10
70.3350804249071
 20
45.12656951445338
 30
0.0
 10
70.33427804443004
 20
45.13309004756528
 30
0.0
  0
LINE
  5
1D2
330
1F
100
AcDbEntity
  8
0
  6
Continuous
 62
     7
370
    30
100
AcDbLine
 10
70.3940659449
 20
45.0467956396
 30
0.0
 11
70.3940659449
 21
45.0642398791
 31
0.0
  0
LINE
  5
1D3
330
1F
100
AcDbEntity
  8
0
  6
Continuous
 62
     7
370
    30
100
AcDbLine
 10
70.3342780444
 20
45.1158760762
 30
0.0
 11
70.3342780444
 21
45.1330900476
 31
0.0
  0
LINE
  5
1D4
330
1F
100
AcDbEntity
  8
0
  6
Continuous
 62
     7
370
    30
100
AcDbLine
 10
70.5324638628
 20
45.0196747624
 30
0.0
 11
70.5324638628
 21
45.0372094048
 31
0.0
  0
LINE
  5
1D5
330
1F
100
AcDbEntity
  8
0
  6
Continuous
 62
     7
370
    30
100
AcDbLine
 10
70.7267745394
 20
45.1158760762
 30
0.0
 11
70.7267745394
 21
45.1330900476
 31
0.0
  0
LINE
  5
1D6
330
1F
100
AcDbEntity
  8
0
  6
Continuous
 62
     7
370
    30
100
AcDbLine
 10
68.2156827184
 20
45.0486921715
 30
0.0
 11
68.2156827184
 21
45.0661300893
 31
0.0
  0
LINE
  5
1D7
330
1F
100
AcDbEntity
  8
0
  6
Continuous
 62
     7
370
    30
100
AcDbLine
 10
68.0213720418
 20
45.0000938445
 30
0.0
 11
68.0213720418
 21
45.0176937566
 31
0.0
  0
LINE
  5
1D8
330
1F
100
AcDbEntity
  8
0
  6
Continuous
 62
     7
370
    30
100
AcDbLine
 10
67.9914780915
 20
44.8890227198
 30
0.0
 11
67.9914780915
 21
44.9069928691
 31
0.0
  0
SPLINE
  5
1D9
330
1F
100
AcDbEntity
  8
0
  6
Continuous
 62
     7
370
    30
100
AcDbSpline
210
0.0
220
0.0
230
1.0
 70
     8
 71
     3
 72
     9
 73
     5
 74
     0
 42
0.000000001
 43
0.00000001
 40
0.0
 40
0.0
 40
0.0
 40
0.0
 40
0.5005657143982899
 40
1.0
 40
1.0
 40
1.0
 40
1.0
 10
69.80006208163174
 20
44.41381764457812
 30
0.0
 10
69.79716673738685
 20
44.39808589507893
 30
0.0
 10
69.7913825932443
 20
44.36665795455748
 30
0.0
 10
69.717423825143
 20
44.34775030160012
 30
0.0
 10
69.68048628063235
 20
44.33830717145297
 30
0.0
  0
SPLINE
  5
1DA
330
1F
100
AcDbEntity
  8
0
  6
Continuous
 62
     7
370
    30
100
AcDbSpline
210
0.0
220
0.0
230
1.0
 70
     8
 71
     3
 72
    10
 73
     6
 74
     0
 42
0.000000001
 43
0.00000001
 40
0.0
 40
0.0
 40
0.0
 40
0.0
 40
0.4989462646640758
 40
0.7514229661021068
 40
1.0
 40
1.0
 40
1.0
 40
1.0
 10
69.68048628063234
 20
44.33830717145297
 30
0.0
 10
69.64129153070597
 20
44.33400192606311
 30
0.0
 10
69.58226346028815
 20
44.32751814115528
 30
0.0
 10
69.47619149185502
 20
44.32386982465884
 30
0.0
 10
69.42033131966977
 20
44.32351059691221
 30
0.0
 10
69.39261861155967
 20
44.3233323809616
 30
0.0
  0
SPLINE
  5
1DB
330
1F
100
AcDbEntity
  8
0
  6
Continuous
 62
     7
370
    30
100
AcDbSpline
210
0.0
220
0.0
230
1.0
 70
     8
 71
     3
 72
    10
 73
     6
 74
     0
 42
0.000000001
 43
0.00000001
 40
0.0
 40
0.0
 40
0.0
 40
0.0
 40
0.4993303514643012
 40
0.7495705189926797
 40
1.0
 40
1.0
 40
1.0
 40
1.0
 10
69.39261861155968
 20
44.3233323809616
 30
0.0
 10
69.36386267336984
 20
44.32354184555096
 30
0.0
 10
69.32069565287956
 20
44.32385628363888
 30
0.0
 10
69.2690136453792
 20
44.32623425900331
 30
0.0
 10
69.24697543854836
 20
44.32799732211642
 30
0.0
 10
69.2359521685836
 20
44.32887918699817
 30
0.0
  0
LINE
  5
1DC
330
1F
100
AcDbEntity
  8
0
  6
Continuous
 62
     7
370
    30
100
AcDbLine
 10
69.2359521686
 20
44.328879187
 30
0.0
 11
69.2194457198
 21
44.3331674709
 31
0.0
  0
SPLINE
  5
1DD
330
1F
100
AcDbEntity
  8
0
  6
Continuous
 62
     7
370
    30
100
AcDbSpline
210
0.0
220
0.0
230
1.0
 70
     8
 71
     3
 72
    10
 73
     6
 74
     0
 42
0.000000001
 43
0.00000001
 40
0.0
 40
0.0
 40
0.0
 40
0.0
 40
0.2504018255677416
 40
0.5007926159401436
 40
1.0
 40
1.0
 40
1.0
 40
1.0
 10
69.6655393055074
 20
44.41381764457812
 30
0.0
 10
69.66293959336174
 20
44.42222157265545
 30
0.0
 10
69.6577402836396
 20
44.43902905844942
 30
0.0
 10
69.60075333456352
 20
44.47546563086498
 30
0.0
 10
69.51170784099108
 20
44.49908186238705
 30
0.0
 10
69.45240651205937
 20
44.51480948494751
 30
0.0
  0
SPLINE
  5
1DE
330
1F
100
AcDbEntity
  8
0
  6
Continuous
 62
     7
370
    30
100
AcDbSpline
210
0.0
220
0.0
230
1.0
 70
     8
 71
     3
 72
     9
 73
     5
 74
     0
 42
0.000000001
 43
0.00000001
 40
0.0
 40
0.0
 40
0.0
 40
0.0
 40
0.4991702545949526
 40
0.9999999999999999
 40
0.9999999999999999
 40
0.9999999999999999
 40
0.9999999999999999
 10
69.45240651205937
 20
44.51480948494751
 30
0.0
 10
69.3628216774238
 20
44.5316448740281
 30
0.0
 10
69.18335418349574
 20
44.56537162141659
 30
0.0
 10
68.96683959499612
 20
44.56948957977046
 30
0.0
 10
68.85840264876137
 20
44.57155197580443
 30
0.0
  0
SPLINE
  5
1DF
330
1F
100
AcDbEntity
  8
0
  6
Continuous
 62
     7
370
    30
100
AcDbSpline
210
0.0
220
0.0
230
1.0
 70
     8
 71
     3
 72
     9
 73
     5
 74
     0
 42
0.000000001
 43
0.00000001
 40
0.0
 40
0.0
 40
0.0
 40
0.0
 40
0.5004919496794462
 40
1.0
 40
1.0
 40
1.0
 40
1.0
 10
68.85840264876138
 20
44.57155197580443
 30
0.0
 10
68.76180891322618
 20
44.57015086516054
 30
0.0
 10
68.56881133235184
 20
44.56735139826647
 30
0.0
 10
68.39570681220059
 20
44.54305632772365
 30
0.0
 10
68.30923971083814
 20
44.5309207444044
 30
0.0
  0
SPLINE
  5
1E0
330
1F
100
AcDbEntity
  8
0
  6
Continuous
 62
     7
370
    30
100
AcDbSpline
210
0.0
220
0.0
230
1.0
 70
     8
 71
     3
 72
    12
 73
     8
 74
     0
 42
0.000000001
 43
0.00000001
 40
0.0
 40
0.0
 40
0.0
 40
0.0
 40
0.2503959146700336
 40
0.5003504095870175
 40
0.7498159662144395
 40
0.8748798314378545
 40
0.9999999999999999
 40
0.9999999999999999
 40
0.9999999999999999
 40
0.9999999999999999
 10
68.30923971083813
 20
44.5309207444044
 30
0.0
 10
68.26994873818803
 20
44.52359785478598
 30
0.0
 10
68.1914360584406
 20
44.5089649849775
 30
0.0
 10
68.10077938520797
 20
44.48034288760892
 30
0.0
 10
68.05578088597889
 20
44.45435781465867
 30
0.0
 10
68.03875935464383
 20
44.43407462309646
 30
0.0
 10
68.03713258484181
 20
44.4244749507117
 30
0.0
 10
68.0363190168904
 20
44.41967403432727
 30
0.0
  0
SPLINE
  5
1E1
330
1F
100
AcDbEntity
  8
0
  6
Continuous
 62
     7
370
    30
100
AcDbSpline
210
0.0
220
0.0
230
1.0
 70
     8
 71
     3
 72
     9
 73
     5
 74
     0
 42
0.000000001
 43
0.00000001
 40
0.0
 40
0.0
 40
0.0
 40
0.0
 40
0.0427968934625112
 40
1.0
 40
1.0
 40
1.0
 40
1.0
 10
68.18377530305503
 20
44.32538792377726
 30
0.0
 10
68.18008187352758
 20
44.32554483443037
 30
0.0
 10
68.09378052713022
 20
44.32921123730245
 30
0.0
 10
68.0318939748179
 20
44.33839102037985
 30
0.0
 10
67.97265597469165
 20
44.34717793725885
 30
0.0
  0
SPLINE
  5
1E2
330
1F
100
AcDbEntity
  8
0
  6
Continuous
 62
     7
370
    30
100
AcDbSpline
210
0.0
220
0.0
230
1.0
 70
     8
 71
     3
 72
     9
 73
     5
 74
     0
 42
0.000000001
 43
0.00000001
 40
0.0
 40
0.0
 40
0.0
 40
0.0
 40
0.4997539695537716
 40
1.0
 40
1.0
 40
1.0
 40
1.0
 10
67.97265597469165
 20
44.34717793725885
 30
0.0
 10
67.93337193453073
 20
44.35750439311482
 30
0.0
 10
67.85476517489657
 20
44.37816747231995
 30
0.0
 10
67.84626201316756
 20
44.411871188799
 30
0.0
 10
67.84200834026636
 20
44.42873133917894
 30
0.0
  0
LINE
  5
1E3
330
1F
100
AcDbEntity
  8
0
  6
Continuous
 62
     7
370
    30
100
AcDbLine
 10
68.3092397108
 20
44.5116928289
 30
0.0
 11
68.3092397108
 21
44.5309207444
 31
0.0
  0
LINE
  5
1E4
330
1F
100
AcDbEntity
  8
0
  6
Continuous
 62
     7
370
    30
100
AcDbLine
 10
68.8584026488
 20
44.5524599507
 30
0.0
 11
68.8584026488
 21
44.5715519758
 31
0.0
  0
LINE
  5
1E5
330
1F
100
AcDbEntity
  8
0
  6
Continuous
 62
     7
370
    30
100
AcDbLine
 10
69.4524065121
 20
44.4955276856
 30
0.0
 11
69.4524065121
 21
44.5148094849
 31
0.0
  0
LINE
  5
1E6
330
1F
100
AcDbEntity
  8
0
  6
Continuous
 62
     7
370
    30
100
AcDbLine
 10
68.0363190169
 20
44.4000740562
 30
0.0
 11
68.0363190169
 21
44.4196740343
 31
0.0
  0
LINE
  5
1E7
330
1F
100
AcDbEntity
  8
0
  6
Continuous
 62
     7
370
    30
100
AcDbLine
 10
69.6655393055
 20
44.3941980799
 30
0.0
 11
69.6655393055
 21
44.4138176446
 31
0.0
  0
LINE
  5
1E8
330
1F
100
AcDbEntity
  8
0
  6
Continuous
 62
     7
370
    30
100
AcDbLine
 10
67.9726559747
 20
44.3273354973
 30
0.0
 11
67.9726559747
 21
44.3471779373
 31
0.0
  0
LINE
  5
1E9
330
1F
100
AcDbEntity
  8
0
  6
Continuous
 62
     7
370
    30
100
AcDbLine
 10
69.6804862806
 20
44.3184350633
 30
0.0
 11
69.6804862806
 21
44.3383071715
 31
0.0
  0
LINE
  5
1EA
330
1F
100
AcDbEntity
  8
0
  6
Continuous
 62
     7
370
    30
100
AcDbLine
 10
69.2359521686
 20
44.3089755472
 30
0.0
 11
69.2359521686
 21
44.328879187
 31
0.0
  0
LINE
  5
1EB
330
1F
100
AcDbEntity
  8
0
  6
Continuous
 62
     7
370
    30
100
AcDbLine
 10
69.3926186116
 20
44.3034101899
 30
0.0
 11
69.3926186116
 21
44.323332381
 31
0.0
  0
LINE
  5
1EC
330
1F
100
AcDbEntity
  8
0
  6
Continuous
 62
     7
370
    30
100
AcDbLine
 10
58.3175146459
 20
45.0303055949
 30
0.0
 11
58.3175146459
 21
45.0300674943
 31
0.0
  0
LINE
  5
1ED
330
1F
100
AcDbEntity
  8
0
  6
Continuous
 62
     7
370
    30
100
AcDbLine
 10
59.5213720418
 20
45.0303055949
 30
0.0
 11
58.3175146459
 21
45.0303055949
 31
0.0
  0
SPLINE
  5
1EE
330
1F
100
AcDbEntity
  8
0
  6
Continuous
 62
     7
370
    30
100
AcDbSpline
210
0.0
220
0.0
230
1.0
 70
     8
 71
     3
 72
    13
 73
     9
 74
     0
 42
0.000000001
 43
0.00000001
 40
0.0
 40
0.0
 40
0.0
 40
0.0
 40
0.3361454903419486
 40
0.5043177618619342
 40
0.6782219765282292
 40
0.7885217634176446
 40
0.8995331530381596
 40
0.9999999999999999
 40
0.9999999999999999
 40
0.9999999999999999
 40
0.9999999999999999
 10
59.1913435474295
 20
46.2209342901263
 30
0.0
 10
59.193231932044
 20
46.28420552036493
 30
0.0
 10
59.19606506808087
 20
46.37913109914253
 30
0.0
 10
59.23725874404553
 20
46.5120696572785
 30
0.0
 10
59.28792835539137
 20
46.59893514166286
 30
0.0
 10
59.35738006947273
 20
46.66510449013212
 30
0.0
 10
59.43448939519544
 20
46.70823248407133
 30
0.0
 10
59.49630959551563
 20
46.71404090564514
 30
0.0
 10
59.52567848332694
 20
46.71680030921675
 30
0.0
  0
SPLINE
  5
1EF
330
1F
100
AcDbEntity
  8
0
  6
Continuous
 62
     7
370
    30
100
AcDbSpline
210
0.0
220
0.0
230
1.0
 70
     8
 71
     3
 72
    12
 73
     8
 74
     0
 42
0.000000001
 43
0.00000001
 40
0.0
 40
0.0
 40
0.0
 40
0.0
 40
0.1105155225127349
 40
0.2214135473683474
 40
0.3339028715525212
 40
0.5354549386068246
 40
1.0
 40
1.0
 40
1.0
 40
1.0
 10
59.52567848332695
 20
45.84178870811833
 30
0.0
 10
59.49574689800913
 20
45.84337042995927
 30
0.0
 10
59.43578013195768
 20
45.84653934809666
 30
0.0
 10
59.35673600983375
 20
45.87249088499993
 30
0.0
 10
59.27974813816545
 20
45.91960477970906
 30
0.0
 10
59.19645205260349
 20
46.0306878352419
 30
0.0
 10
59.19344247038762
 20
46.14276804809303
 30
0.0
 10
59.1913435474295
 20
46.2209342901263
 30
0.0
  0
LINE
  5
1F0
330
1F
100
AcDbEntity
  8
0
  6
Continuous
 62
     7
370
    30
100
AcDbLine
 10
59.5213720418
 20
45.7124625439
 30
0.0
 11
59.476869464
 21
45.7124625439
 31
0.0
  0
LINE
  5
1F1
330
1F
100
AcDbEntity
  8
0
  6
Continuous
 62
     7
370
    30
100
AcDbLine
 10
59.476869464
 20
45.7124625439
 30
0.0
 11
59.476869464
 21
45.0308107192
 31
0.0
  0
LINE
  5
1F2
330
1F
100
AcDbEntity
  8
0
  6
Continuous
 62
     7
370
    30
100
AcDbLine
 10
59.5213720418
 20
45.0308107192
 30
0.0
 11
59.476869464
 21
45.0308107192
 31
0.0
  0
LINE
  5
1F3
330
1F
100
AcDbEntity
  8
0
  6
Continuous
 62
     7
370
    30
100
AcDbLine
 10
58.126869464
 20
55.5300674943
 30
0.0
 11
58.126869464
 21
45.0300674943
 31
0.0
  0
LINE
  5
1F4
330
1F
100
AcDbEntity
  8
0
  6
Continuous
 62
     7
370
    30
100
AcDbLine
 10
57.126869464
 20
55.0300674943
 30
0.0
 11
57.126869464
 21
45.5300674943
 31
0.0
  0
SPLINE
  5
1F5
330
1F
100
AcDbEntity
  8
0
  6
Continuous
 62
     7
370
    30
100
AcDbSpline
210
0.0
220
0.0
230
1.0
 70
     8
 71
     3
 72
    12
 73
     8
 74
     0
 42
0.000000001
 43
0.00000001
 40
0.0
 40
0.0
 40
0.0
 40
0.0
 40
0.0897978905663143
 40
0.1799933804691771
 40
0.315108970777848
 40
0.5387355802026984
 40
1.0
 40
1.0
 40
1.0
 40
1.0
 10
59.52868329101924
 20
46.60893070905544
 30
0.0
 10
59.50817135127954
 20
46.60701754234801
 30
0.0
 10
59.4670566508067
 20
46.60318273797901
 30
0.0
 10
59.40750740655562
 20
46.57229876971986
 30
0.0
 10
59.34412412912314
 20
46.51520085831088
 30
0.0
 10
59.28443971450309
 20
46.39038848479468
 30
0.0
 10
59.28243636483526
 20
46.28932666205909
 30
0.0
 10
59.2810871371731
 20
46.22126295405471
 30
0.0
  0
LINE
  5
1F6
330
1F
100
AcDbEntity
  8
0
  6
Continuous
 62
     7
370
    30
100
AcDbLine
 10
59.2810871372
 20
46.5750566386
 30
0.0
 11
59.2810871372
 21
46.2212629541
 31
0.0
  0
SPLINE
  5
1F7
330
1F
100
AcDbEntity
  8
0
  6
Continuous
 62
     7
370
    30
100
AcDbSpline
210
0.0
220
0.0
230
1.0
 70
     8
 71
     3
 72
    13
 73
     9
 74
     0
 42
0.000000001
 43
0.00000001
 40
0.0
 40
0.0
 40
0.0
 40
0.0
 40
0.3624608567694694
 40
0.5787132691116424
 40
0.7296880773878243
 40
0.8517216092537861
 40
0.9448389098232428
 40
1.0
 40
1.0
 40
1.0
 40
1.0
 10
59.2810871371731
 20
46.22126295405474
 30
0.0
 10
59.28204309712626
 20
46.17275532649842
 30
0.0
 10
59.28356940458625
 20
46.09530694222279
 30
0.0
 10
59.31886166952398
 20
46.00521337858449
 30
0.0
 10
59.37063179767238
 20
45.95203745797681
 30
0.0
 10
59.43091720807966
 20
45.92299610648458
 30
0.0
 10
59.48511177347654
 20
45.90985005309697
 30
0.0
 10
59.51686920066958
 20
45.90870327113371
 30
0.0
 10
59.52868329101925
 20
45.90827665641952
 30
0.0
  0
DIMENSION
  5
1F8
330
1F
100
AcDbEntity
  8
DIM
100
AcDbDimension
  2
_D
 10
48.526869464
 20
38.1103890505
 30
0.0
 11
39.7741207529
 21
38.1103890505
 31
0.0
 70
   160
  1
<>
 71
     2
 42
-1.0
  3
SLDDIMSTYLE0
100
AcDbAlignedDimension
 13
31.0213720418
 23
50.2800674943
 33
0.0
 14
48.526869464
 24
43.3800674943
 34
0.0
 50
0.0
100
AcDbRotatedDimension
  0
DIMENSION
  5
203
330
1F
100
AcDbEntity
  8
DIM
100
AcDbDimension
  2
_D_1
 10
58.126869464
 20
38.1103890505
 30
0.0
 11
53.326869464
 21
38.1103890505
 31
0.0
 70
   160
  1
<>
 71
     2
 42
-1.0
  3
SLDDIMSTYLE1
100
AcDbAlignedDimension
 13
48.526869464
 23
43.3800674943
 33
0.0
 14
58.126869464
 24
45.0300674943
 34
0.0
 50
0.0
100
AcDbRotatedDimension
  0
DIMENSION
  5
20E
330
1F
100
AcDbEntity
  8
DIM
100
AcDbDimension
  2
_D_2
 10
89.5213613432
 20
38.1103890505
 30
0.0
 11
73.8241154036
 21
38.1103890505
 31
0.0
 70
   160
  1
<>
 71
     2
 42
-1.0
  3
SLDDIMSTYLE2
100
AcDbAlignedDimension
 13
58.126869464
 23
45.0300674943
 33
0.0
 14
89.5213613432
 24
50.2800674943
 34
0.0
 50
0.0
100
AcDbRotatedDimension
  0
DIMENSION
  5
219
330
1F
100
AcDbEntity
  8
DIM
100
AcDbDimension
  2
_D_3
 10
89.5213613432
 20
35.6103890505
 30
0.0
 11
60.2713666925
 21
35.6103890505
 31
0.0
 70
   160
  1
<>
 71
     2
 42
-1.0
  3
SLDDIMSTYLE1
100
AcDbAlignedDimension
 13
31.0213720418
 23
50.2800674943
 33
0.0
 14
89.5213613432
 24
50.2800674943
 34
0.0
 50
0.0
100
AcDbRotatedDimension
  0
DIMENSION
  5
223
330
1F
100
AcDbEntity
  8
DIM
100
AcDbDimension
  2
_D_4
 10
27.5213720418
 20
47.7800674943
 30
0.0
 11
27.5213720418
 21
50.2800674943
 31
0.0
 70
   160
  1
%%c<>
 71
     2
 42
-1.0
  3
SLDDIMSTYLE1
100
AcDbAlignedDimension
 13
31.6213720418
 23
52.7800674943
 33
0.0
 14
31.6213720418
 24
47.7800674943
 34
0.0
 50
90.0
100
AcDbRotatedDimension
  0
DIMENSION
  5
22E
330
1F
100
AcDbEntity
  8
DIM
100
AcDbDimension
  2
_D_5
 10
25.0213720418
 20
43.2800674943
 30
0.0
 11
25.0213720418
 21
50.2800674943
 31
0.0
 70
   160
  1
%%c<>
 71
     2
 42
-1.0
  3
SLDDIMSTYLE1
100
AcDbAlignedDimension
 13
48.626869464
 23
57.2800674943
 33
0.0
 14
48.626869464
 24
43.2800674943
 34
0.0
 50
90.0
100
AcDbRotatedDimension
  0
DIMENSION
  5
239
330
1F
100
AcDbEntity
  8
DIM
100
AcDbDimension
  2
_D_6
 10
52.526869464
 20
62.4497459381
 30
0.0
 11
50.526869464
 21
62.4497459381
 31
0.0
 70
   160
  1
<>
 71
     2
 42
-1.0
  3
SLDDIMSTYLE1
100
AcDbAlignedDimension
 13
48.526869464
 23
57.1800674943
 33
0.0
 14
52.526869464
 24
57.1800674943
 34
0.0
 50
0.0
100
AcDbRotatedDimension
  0
DIMENSION
  5
243
330
1F
100
AcDbEntity
  8
DIM
100
AcDbDimension
  2
_D_7
 10
93.0213720418
 20
43.7800674943
 30
0.0
 11
93.0213720418
 21
50.2800674943
 31
0.0
 70
   160
  1
%%c<>
 71
     2
 42
-1.0
  3
SLDDIMSTYLE1
100
AcDbAlignedDimension
 13
85.5213720418
 23
56.7800674943
 33
0.0
 14
85.5213720418
 24
43.7800674943
 34
0.0
 50
90.0
100
AcDbRotatedDimension
  0
INSERT
  5
253
330
1F
100
AcDbEntity
  8
DIM
100
AcDbBlockReference
  2
SW_NOTE_2
 10
60.039017341
 20
62.1321532328
 30
0.0
  0
LEADER
  5
255
330
1F
100
AcDbEntity
  8
DIM
100
AcDbLeader
  3
SLDDIMSTYLE3
 76
     2
 10
52.669255787
 20
55.0300674943
 30
0.0
 10
60.039017341
 20
62.1321532328
 30
0.0
  0
LINE
  5
256
330
1F
100
AcDbEntity
  8
0
  6
Continuous
 62
     7
370
    30
100
AcDbLine
 10
111.2773871854
 20
83.091582461
 30
0.0
 11
108.5903814169
 21
84.6427578735
 31
0.0
  0
LINE
  5
257
330
1F
100
AcDbEntity
  8
0
  6
Continuous
 62
     7
370
    30
100
AcDbLine
 10
105.0898613795
 20
84.295737032
 30
0.0
 11
105.0191621939
 21
84.254909992
 31
0.0
  0
LINE
  5
258
330
1F
100
AcDbEntity
  8
0
  6
Continuous
 62
     7
370
    30
100
AcDbLine
 10
107.7784760944
 20
71.3139192291
 30
0.0
 11
107.84917528
 21
71.3547462692
 31
0.0
  0
LINE
  5
259
330
1F
100
AcDbEntity
  8
0
  6
Continuous
 62
     7
370
    30
100
AcDbLine
 10
101.5909502885
 20
72.5180738001
 30
0.0
 11
104.277956057
 21
70.9668983877
 31
0.0
  0
LINE
  5
25A
330
1F
100
AcDbEntity
  8
0
  6
Continuous
 62
     7
370
    30
100
AcDbLine
 10
134.428754695
 20
69.1492478492
 30
0.0
 11
125.5899199302
 21
74.2517985481
 31
0.0
  0
LINE
  5
25B
330
1F
100
AcDbEntity
  8
0
  6
Continuous
 62
     7
370
    30
100
AcDbLine
 10
119.090448168
 20
62.9931633371
 30
0.0
 11
127.9292829329
 21
57.8906126382
 31
0.0
  0
LINE
  5
25C
330
1F
100
AcDbEntity
  8
0
  6
Continuous
 62
     7
370
    30
100
AcDbLine
 10
134.9538920473
 20
64.3428823903
 30
0.0
 11
132.832466557
 21
65.567555258
 31
0.0
  0
LINE
  5
25D
330
1F
100
AcDbEntity
  8
0
  6
Continuous
 62
     7
370
    30
100
AcDbLine
 10
130.2326778521
 20
61.0641011736
 30
0.0
 11
132.3541033424
 21
59.8394283059
 31
0.0
  0
LINE
  5
25E
330
1F
100
AcDbEntity
  8
0
  6
Continuous
 62
     7
370
    30
100
AcDbLine
 10
124.0898386711
 20
74.5404423956
 30
0.0
 11
117.0557479547
 21
78.6011365318
 31
0.0
  0
LINE
  5
25F
330
1F
100
AcDbEntity
  8
0
  6
Continuous
 62
     7
370
    30
100
AcDbLine
 10
117.0328676527
 20
64.7583139158
 30
0.0
 11
118.0903262752
 21
64.147856047
 31
0.0
  0
LINE
  5
260
330
1F
100
AcDbEntity
  8
0
  6
Continuous
 62
     7
370
    30
100
AcDbLine
 10
115.8453768771
 20
65.4438377488
 30
0.0
 11
116.7719823434
 21
64.9089197991
 31
0.0
  0
LINE
  5
261
330
1F
100
AcDbEntity
  8
0
  6
Continuous
 62
     7
370
    30
100
AcDbLine
 10
111.0562355589
 20
68.2085501832
 30
0.0
 11
115.6992028706
 21
65.5282222066
 31
0.0
  0
LINE
  5
262
330
1F
100
AcDbEntity
  8
0
  6
Continuous
 62
     7
370
    30
100
AcDbLine
 10
103.0540052512
 20
82.6428281285
 30
0.0
 11
94.3158617238
 21
87.6872510133
 31
0.0
  0
LINE
  5
263
330
1F
100
AcDbEntity
  8
0
  6
Continuous
 62
     7
370
    30
100
AcDbLine
 10
91.8160648922
 20
83.3570067014
 30
0.0
 11
100.5542084196
 21
78.3125838166
 31
0.0
  0
LINE
  5
264
330
1F
100
AcDbEntity
  8
0
  6
Continuous
 62
     7
370
    30
100
AcDbLine
 10
116.105694616
 20
78.8776668887
 30
0.0
 11
114.6048133621
 21
78.9675631499
 31
0.0
  0
LINE
  5
265
330
1F
100
AcDbEntity
  8
0
  6
Continuous
 62
     7
370
    30
100
AcDbLine
 10
109.5132515236
 20
70.1477637121
 30
0.0
 11
110.341662346
 21
68.8929882798
 31
0.0
  0
LINE
  5
266
330
1F
100
AcDbEntity
  8
0
  6
Continuous
 62
     7
370
    30
100
AcDbLine
 10
114.9574779535
 20
78.9464400743
 30
0.0
 11
114.4329669471
 21
79.2492338331
 31
0.0
  0
LINE
  5
267
330
1F
100
AcDbEntity
  8
0
  6
Continuous
 62
     7
370
    30
100
AcDbLine
 10
109.1833936008
 20
70.1557207781
 30
0.0
 11
109.7079046072
 21
69.8529270193
 31
0.0
  0
LINE
  5
268
330
1F
100
AcDbEntity
  8
0
  6
Continuous
 62
     7
370
    30
100
AcDbLine
 10
113.0648624229
 20
79.4616891333
 30
0.0
 11
110.1524786112
 21
81.1429725206
 31
0.0
  0
LINE
  5
269
330
1F
100
AcDbEntity
  8
0
  6
Continuous
 62
     7
370
    30
100
AcDbLine
 10
105.4028646312
 20
72.915508328
 30
0.0
 11
108.3152484429
 21
71.2342249406
 31
0.0
  0
LWPOLYLINE
  5
26A
330
1F
100
AcDbEntity
  8
0
  6
Continuous
 62
     7
370
    30
100
AcDbPolyline
 90
       29
 70
   128
 43
0.0
 10
102.8786921356
 20
75.0176605774
 10
102.976107097
 20
75.6454650967
 10
103.1233957456
 20
76.2876428432
 10
103.3190281992
 20
76.9375235384
 10
103.5609724301
 20
77.5883568939
 10
103.8467153718
 20
78.2333827256
 10
104.1732890223
 20
78.8659011723
 10
104.537301272
 20
79.4793422863
 10
104.9349711382
 20
80.0673342757
 10
105.3621680374
 20
80.6237696878
 10
105.8144546901
 20
81.1428688469
 10
106.2871332102
 20
81.6192398877
 10
106.775293902
 20
82.0479347603
 10
107.273866257
 20
82.4245006259
 10
107.7776716212
 20
82.7450261075
 10
108.2814769854
 20
83.006181918
 10
108.7800493404
 20
83.2052554407
 10
109.2682100322
 20
83.3401789058
 10
109.7408885523
 20
83.4095508678
 10
110.193175205
 20
83.4126507627
 10
110.6203721043
 20
83.3494463917
 10
111.0180419704
 20
83.2205942567
 10
111.3820542201
 20
83.0274327403
 10
111.7086278706
 20
82.7719682046
 10
111.9943708123
 20
82.4568541511
 10
112.2363150433
 20
82.0853636587
 10
112.4319474968
 20
81.6613553864
 10
112.5792361454
 20
81.1892334939
 10
112.6766511068
 20
80.673901895
  0
LWPOLYLINE
  5
26B
330
1F
100
AcDbEntity
  8
0
  6
Continuous
 62
     7
370
    30
100
AcDbPolyline
 90
        3
 70
   128
 43
0.0
 10
112.6766511068
 20
80.673901895
 10
112.6763880199
 20
80.6445904702
 10
112.6759075452
 20
80.5918318349
  0
LWPOLYLINE
  5
26C
330
1F
100
AcDbEntity
  8
0
  6
Continuous
 62
     7
370
    30
100
AcDbPolyline
 90
       28
 70
   128
 43
0.0
 10
112.6759075452
 20
80.5918318349
 10
112.5745058913
 20
81.1162362976
 10
112.4204684512
 20
81.5946684427
 10
112.2155107709
 20
82.0217998754
 10
111.961915505
 20
82.3928735473
 10
111.6625069949
 20
82.7037567366
 10
111.3206198133
 20
82.9509870748
 10
110.9400616263
 20
83.131811108
 10
110.5250707866
 20
83.2442149628
 10
110.0802691305
 20
83.2869467749
 10
109.6106105032
 20
83.2595306315
 10
109.121325587
 20
83.1622718716
 10
108.6178636462
 20
82.9962536857
 10
108.1058318373
 20
82.7633250515
 10
107.5909327613
 20
82.466080142
 10
107.0789009524
 20
82.1078294332
 10
106.5754390116
 20
81.6925628353
 10
106.0861540955
 20
81.2249052555
 10
105.6164954682
 20
80.7100650901
 10
105.1716938121
 20
80.1537762173
 10
104.7567029724
 20
79.5622341377
 10
104.3761447853
 20
78.9420269742
 10
104.0342576037
 20
78.3000620983
 10
103.7348490937
 20
77.6434892016
 10
103.4812538278
 20
76.979620668
 10
103.2762961474
 20
76.3158501345
 10
103.1222587073
 20
75.6595701467
 10
103.0208570534
 20
75.0180898264
  0
LWPOLYLINE
  5
26D
330
1F
100
AcDbEntity
  8
0
  6
Continuous
 62
     7
370
    30
100
AcDbPolyline
 90
        3
 70
   128
 43
0.0
 10
103.0208570534
 20
75.0180898264
 10
102.929466514
 20
75.0178124543
 10
102.8786921356
 20
75.0176605774
  0
LINE
  5
26E
330
1F
100
AcDbEntity
  8
0
  6
Continuous
 62
     7
370
    30
100
AcDbLine
 10
100.1916863671
 20
76.5688359899
 30
0.0
 11
102.8786921356
 21
75.0176605774
 31
0.0
  0
LWPOLYLINE
  5
26F
330
1F
100
AcDbEntity
  8
0
  6
Continuous
 62
     7
370
    30
100
AcDbPolyline
 90
       23
 70
   128
 43
0.0
 10
108.5903814169
 20
84.6427578735
 10
108.3310362019
 20
84.7717696692
 10
107.9333663357
 20
84.9006218042
 10
107.5061694365
 20
84.9638261751
 10
107.0538827838
 20
84.9607262803
 10
106.5812042637
 20
84.8913543182
 10
106.0930435719
 20
84.7564308531
 10
105.5944712169
 20
84.5573573304
 10
105.0906658527
 20
84.29620152
 10
104.5868604885
 20
83.9756760384
 10
104.0882881335
 20
83.5991101728
 10
103.6001274417
 20
83.1704153001
 10
103.1274489216
 20
82.6940442594
 10
102.6751622689
 20
82.1749451003
 10
102.2479653697
 20
81.6185096882
 10
101.8502955035
 20
81.0305176988
 10
101.4862832538
 20
80.4170765847
 10
101.1597096033
 20
79.7845581381
 10
100.8739666616
 20
79.1395323064
 10
100.6320224307
 20
78.4886989509
 10
100.4363899771
 20
77.8388182556
 10
100.2891013285
 20
77.1966405092
 10
100.1916863671
 20
76.5688359899
  0
LWPOLYLINE
  5
270
330
1F
100
AcDbEntity
  8
0
  6
Continuous
 62
     7
370
    30
100
AcDbPolyline
 90
       22
 70
   128
 43
0.0
 10
104.4189144106
 20
75.0086303476
 10
104.4449080293
 20
75.5103011717
 10
104.5224948486
 20
76.0343787708
 10
104.6504987314
 20
76.5729186628
 10
104.8269792694
 20
77.1177571318
 10
105.0492611975
 20
77.6606349819
 10
105.3139749482
 20
78.1933227385
 10
105.6171077309
 20
78.707745398
 10
105.9540643617
 20
79.1961048374
 10
106.3197369214
 20
79.6509980253
 10
106.7085821868
 20
80.0655292447
 10
107.1147056601
 20
80.4334146249
 10
107.5319509234
 20
80.7490773985
 10
107.9539929638
 20
81.0077324396
 10
108.3744340541
 20
81.2054588014
 10
108.7869007361
 20
81.339259154
 10
109.1851404353
 20
81.4071052202
 10
109.5631162437
 20
81.407968523
 10
109.9150984334
 20
81.3418359754
 10
110.2357513133
 20
81.2097100796
 10
110.5202141124
 20
81.0135937295
 10
110.7131270474
 20
80.8193170676
  0
ARC
  5
271
330
1F
100
AcDbEntity
  8
0
  6
Continuous
 62
     7
370
    30
100
AcDbCircle
 10
106.5609791799
 20
74.6756792071
 30
0.0
 40
2.167786414254227
100
AcDbArc
 50
171.1649478985
 51
254.0015618224
  0
LINE
  5
272
330
1F
100
AcDbEntity
  8
0
  6
Continuous
 62
     7
370
    30
100
AcDbLine
 10
103.4289649169
 20
73.6206038574
 30
0.0
 11
103.4289649169
 21
75.2536854812
 31
0.0
  0
LINE
  5
273
330
1F
100
AcDbEntity
  8
0
  6
Continuous
 62
     7
370
    30
100
AcDbLine
 10
103.4289649169
 20
75.2536854812
 30
0.0
 11
103.0208570534
 21
75.0180898264
 31
0.0
  0
LINE
  5
274
330
1F
100
AcDbEntity
  8
0
  6
Continuous
 62
     7
370
    30
100
AcDbLine
 10
112.6759075452
 20
80.5918318349
 30
0.0
 11
112.2677996817
 21
80.3562361801
 31
0.0
  0
LINE
  5
275
330
1F
100
AcDbEntity
  8
0
  6
Continuous
 62
     7
370
    30
100
AcDbLine
 10
112.2677996817
 20
80.3562361801
 30
0.0
 11
112.2677996817
 21
79.9218236595
 31
0.0
  0
LWPOLYLINE
  5
276
330
1F
100
AcDbEntity
  8
0
  6
Continuous
 62
     7
370
    30
100
AcDbPolyline
 90
       15
 70
   128
 43
0.0
 10
103.0208570534
 20
73.3850082026
 10
103.1222587073
 20
72.8606037399
 10
103.2762961474
 20
72.3821715948
 10
103.4812538278
 20
71.9550401621
 10
103.7348490937
 20
71.5839664901
 10
104.0342576037
 20
71.2730833009
 10
104.3761447853
 20
71.0258529627
 10
104.7567029724
 20
70.8450289294
 10
105.1716938121
 20
70.7326250746
 10
105.6164954682
 20
70.6898932626
 10
106.0861540955
 20
70.717309406
 10
106.5754390116
 20
70.8145681658
 10
107.0789009524
 20
70.9805863518
 10
107.5909327613
 20
71.213514986
 10
107.9761525271
 20
71.4299808461
  0
LINE
  5
277
330
1F
100
AcDbEntity
  8
0
  6
Continuous
 62
     7
370
    30
100
AcDbLine
 10
103.0208570534
 20
73.3850082026
 30
0.0
 11
103.4289649169
 21
73.6206038574
 31
0.0
  0
ARC
  5
278
330
1F
100
AcDbEntity
  8
0
  6
Continuous
 62
     7
370
    30
100
AcDbCircle
 10
110.8003882603
 20
75.2512928102
 30
0.0
 40
10.69989239136858
100
AcDbArc
 50
122.7045357081
 51
172.4838127283
  0
LWPOLYLINE
  5
279
330
1F
100
AcDbEntity
  8
0
  6
Continuous
 62
     7
370
    30
100
AcDbPolyline
 90
        3
 70
   128
 43
0.0
 10
100.1916863671
 20
76.5688359899
 10
100.191949454
 20
76.5981474146
 10
100.1924299287
 20
76.65090605
  0
ARC
  5
27A
330
1F
100
AcDbEntity
  8
0
  6
Continuous
 62
     7
370
    30
100
AcDbCircle
 10
106.6792517953
 20
74.7977052299
 30
0.0
 40
2.274165642599181
100
AcDbArc
 50
173.6363640777
 51
235.8573562066
  0
ARC
  5
27B
330
1F
100
AcDbEntity
  8
0
  6
Continuous
 62
     7
370
    30
100
AcDbCircle
 10
109.18180054
 20
78.8685906642
 30
0.0
 40
2.472858416244149
100
AcDbArc
 50
66.8878094737
 51
123.6292233601
  0
LINE
  5
27C
330
1F
100
AcDbEntity
  8
0
  6
Continuous
 62
     7
370
    30
100
AcDbLine
 10
100.6005377922
 20
75.2534200811
 30
0.0
 11
103.4289649169
 21
73.6206038574
 31
0.0
  0
LINE
  5
27D
330
1F
100
AcDbEntity
  8
0
  6
Continuous
 62
     7
370
    30
100
AcDbLine
 10
100.6005377922
 20
75.2534200811
 30
0.0
 11
100.6005377922
 21
76.3328110862
 31
0.0
  0
LWPOLYLINE
  5
27E
330
1F
100
AcDbEntity
  8
0
  6
Continuous
 62
     7
370
    30
100
AcDbPolyline
 90
       16
 70
   128
 43
0.0
 10
107.7784760944
 20
71.3139192291
 10
107.7776716212
 20
71.3134547411
 10
107.273866257
 20
71.0522989307
 10
106.775293902
 20
70.853225408
 10
106.2871332102
 20
70.7183019429
 10
105.8144546901
 20
70.6489299808
 10
105.3621680374
 20
70.645830086
 10
104.9349711382
 20
70.7090344569
 10
104.537301272
 20
70.837886592
 10
104.1732890223
 20
71.0310481084
 10
103.8467153718
 20
71.286512644
 10
103.5609724301
 20
71.6016266976
 10
103.3190281992
 20
71.97311719
 10
103.1233957456
 20
72.3971254622
 10
102.976107097
 20
72.8692473548
 10
102.8786921356
 20
73.3845789537
  0
LWPOLYLINE
  5
27F
330
1F
100
AcDbEntity
  8
0
  6
Continuous
 62
     7
370
    30
100
AcDbPolyline
 90
        3
 70
   128
 43
0.0
 10
102.8786921356
 20
73.3845789537
 10
102.929466514
 20
73.3847308305
 10
103.0208570534
 20
73.3850082026
  0
LINE
  5
280
330
1F
100
AcDbEntity
  8
0
  6
Continuous
 62
     7
370
    30
100
AcDbLine
 10
102.8786921356
 20
73.3845789537
 30
0.0
 11
100.1916863671
 21
74.9357543661
 31
0.0
  0
LWPOLYLINE
  5
281
330
1F
100
AcDbEntity
  8
0
  6
Continuous
 62
     7
370
    30
100
AcDbPolyline
 90
        3
 70
   128
 43
0.0
 10
100.1924299287
 20
75.0178244262
 10
100.191949454
 20
74.9650657909
 10
100.1916863671
 20
74.9357543661
  0
LINE
  5
282
330
1F
100
AcDbEntity
  8
0
  6
Continuous
 62
     7
370
    30
100
AcDbLine
 10
100.1924299287
 20
75.0178244262
 30
0.0
 11
100.6005377922
 21
75.2534200811
 31
0.0
  0
ARC
  5
283
330
1F
100
AcDbEntity
  8
0
  6
Continuous
 62
     7
370
    30
100
AcDbCircle
 10
103.23528224
 20
75.0835135369
 30
0.0
 40
3.0471804360486
100
AcDbArc
 50
182.7793884454
 51
237.3419477193
  0
LWPOLYLINE
  5
284
330
1F
100
AcDbEntity
  8
0
  6
Continuous
 62
     7
370
    30
100
AcDbPolyline
 90
       22
 70
   128
 43
0.0
 10
130.311109204
 20
65.5565899533
 10
129.9751134548
 20
65.1431223778
 10
129.6681302153
 20
64.6956157694
 10
129.3958780023
 20
64.2224063296
 10
129.1634283596
 20
63.7323090549
 10
128.9751113842
 20
63.2344535301
 10
128.8344350649
 20
62.7381138617
 10
128.7440199354
 20
62.2525359187
 10
128.7055502586
 20
61.7867650993
 10
128.7197426517
 20
61.3494778327
 10
128.7863327373
 20
60.9488199533
 10
128.9040800681
 20
60.5922549592
 10
129.0707912341
 20
60.2864249818
 10
129.2833607217
 20
60.0370270547
 10
129.5378287636
 20
59.8487069895
 10
129.8294551015
 20
59.7249728327
 10
130.1528072887
 20
59.6681295175
 10
130.5018618856
 20
59.6792359274
 10
130.8701166656
 20
59.7580851709
 10
131.2507117389
 20
59.9032084359
 10
131.6365573393
 20
60.1119023504
 10
131.7526697731
 20
60.1866285151
  0
LWPOLYLINE
  5
285
330
1F
100
AcDbEntity
  8
0
  6
Continuous
 62
     7
370
    30
100
AcDbPolyline
 90
       17
 70
   128
 43
0.0
 10
134.352458478
 20
64.6900825995
 10
134.3595941504
 20
64.8448913322
 10
134.3454017573
 20
65.2821785988
 10
134.2788116717
 20
65.6828364782
 10
134.161064341
 20
66.0394014723
 10
133.994353175
 20
66.3452314498
 10
133.7817836874
 20
66.5946293769
 10
133.5273156455
 20
66.782949442
 10
133.2356893075
 20
66.9066835988
 10
132.9123371204
 20
66.963526914
 10
132.5632825234
 20
66.9524205041
 10
132.1950277435
 20
66.8735712606
 10
131.8144326702
 20
66.7284479957
 10
131.4285870697
 20
66.5197540812
 10
131.0446785156
 20
66.2513770899
 10
130.6698584978
 20
65.9283163773
 10
130.311109204
 20
65.5565899533
  0
LWPOLYLINE
  5
286
330
1F
100
AcDbEntity
  8
0
  6
Continuous
 62
     7
370
    30
100
AcDbPolyline
 90
       31
 70
   128
 43
0.0
 10
129.194141438
 20
67.1611680672
 10
128.7647453464
 20
66.6425318178
 10
128.3627039379
 20
66.0885152448
 10
127.9925725023
 20
65.5053955774
 10
127.6585447766
 20
64.8997797945
 10
127.3644054285
 20
64.2785297647
 10
127.1134871743
 20
63.6486844993
 10
126.908633018
 20
63.0173803967
 10
126.7521640392
 20
62.3917703847
 10
126.6458530939
 20
61.7789428747
 10
126.5909047275
 20
61.1858414472
 10
126.5879415271
 20
60.6191861784
 10
126.6369970668
 20
60.085397499
 10
126.7375155278
 20
59.590523448
 10
126.8883579958
 20
59.140171146
 10
127.0878153653
 20
58.7394432647
 10
127.3336277046
 20
58.3928802111
 10
127.6230098618
 20
58.104408683
 10
127.9526830213
 20
57.8772971781
 10
128.3189118545
 20
57.7141189605
 10
128.7175468424
 20
57.6167229047
 10
129.1440712912
 20
57.5862125468
 10
129.5936525087
 20
57.6229335814
 10
130.0611965598
 20
57.7264699445
 10
130.5414059838
 20
57.8956485277
 10
131.0288398159
 20
58.1285524702
 10
131.517975236
 20
58.422542877
 10
132.0032701445
 20
58.7742887196
 10
132.479225956
 20
59.1798045769
 10
132.9404499011
 20
59.6344957923
 10
133.0338530106
 20
59.734572241
  0
LWPOLYLINE
  5
287
330
1F
100
AcDbEntity
  8
0
  6
Continuous
 62
     7
370
    30
100
AcDbPolyline
 90
       24
 70
   128
 43
0.0
 10
135.3846252163
 20
63.8066703587
 10
135.5338111653
 20
64.3364423429
 10
135.6653876112
 20
64.9565399709
 10
135.746131706
 20
65.5603602368
 10
135.7751285868
 20
66.1410616155
 10
135.7520497074
 20
66.6920645283
 10
135.6771565606
 20
67.2071258923
 10
135.5512977159
 20
67.6804098562
 10
135.3758992041
 20
68.1065539236
 10
135.1529483604
 20
68.4807297121
 10
134.8849713072
 20
68.7986976603
 10
134.5750043313
 20
69.0568550644
 10
134.2265594826
 20
69.2522768978
 10
133.8435847803
 20
69.3827489531
 10
133.430419481
 20
69.4467929298
 10
132.9917449125
 20
69.443683184
 10
132.5325314329
 20
69.3734549504
 10
132.0579821145
 20
69.2369039429
 10
131.5734737908
 20
69.035577339
 10
131.0844961345
 20
68.7717562495
 10
130.596589458
 20
68.4484298729
 10
130.1152819388
 20
68.0692616262
 10
129.6460269834
 20
67.6385476371
 10
129.194141438
 20
67.1611680672
  0
LWPOLYLINE
  5
288
330
1F
100
AcDbEntity
  8
0
  6
Continuous
 62
     7
370
    30
100
AcDbPolyline
 90
       19
 70
   128
 43
0.0
 10
120.3553066732
 20
72.2637187661
 10
119.9259105816
 20
71.7450825167
 10
119.5238691731
 20
71.1910659437
 10
119.1537377375
 20
70.6079462763
 10
118.8197100118
 20
70.0023304934
 10
118.5255706637
 20
69.3810804636
 10
118.2746524094
 20
68.7512351982
 10
118.0697982532
 20
68.1199310956
 10
117.9133292744
 20
67.4943210836
 10
117.8070183291
 20
66.8814935736
 10
117.7520699627
 20
66.2883921461
 10
117.7491067623
 20
65.7217368773
 10
117.798162302
 20
65.1879481979
 10
117.898680763
 20
64.6930741469
 10
118.049523231
 20
64.2427218449
 10
118.2489806005
 20
63.8419939636
 10
118.4947929398
 20
63.49543091
 10
118.784175097
 20
63.2069593819
 10
119.090448168
 20
62.9931633371
  0
LWPOLYLINE
  5
289
330
1F
100
AcDbEntity
  8
0
  6
Continuous
 62
     7
370
    30
100
AcDbPolyline
 90
       13
 70
   128
 43
0.0
 10
125.5899199302
 20
74.2517985481
 10
125.3877247177
 20
74.3548275967
 10
125.0047500155
 20
74.485299652
 10
124.5915847161
 20
74.5493436287
 10
124.1529101476
 20
74.5462338829
 10
123.6936966681
 20
74.4760056493
 10
123.2191473497
 20
74.3394546418
 10
122.734639026
 20
74.1381280379
 10
122.2456613697
 20
73.8743069484
 10
121.7577546931
 20
73.5509805718
 10
121.2764471739
 20
73.1718123251
 10
120.8071922186
 20
72.741098336
 10
120.3553066732
 20
72.2637187661
  0
LWPOLYLINE
  5
28A
330
1F
100
AcDbEntity
  8
0
  6
Continuous
 62
     7
370
    30
100
AcDbPolyline
 90
       38
 70
   128
 43
0.0
 10
132.8600467445
 20
63.5476504775
 10
132.5912290994
 20
63.2099780011
 10
132.3529853719
 20
62.840119034
 10
132.1521694001
 20
62.4487137453
 10
131.994558294
 20
62.0470221525
 10
131.8846862381
 20
61.6466001914
 10
131.8257140514
 20
61.2589672728
 10
131.8193382565
 20
60.8952748899
 10
131.8657422732
 20
60.5659858105
 10
131.9635911425
 20
60.2805730818
 10
132.1100699306
 20
60.0472475084
 10
132.3009647095
 20
59.8727214422
 10
132.5307837839
 20
59.7620156804
 10
132.7929156775
 20
59.7183150261
 10
133.079819333
 20
59.7428766677
 10
133.3832410545
 20
59.8349940115
 10
133.6944519516
 20
59.9920170091
 10
134.0044990534
 20
60.2094283948
 10
134.3044628693
 20
60.480973639
 10
134.5857139864
 20
60.7988408792
 10
134.8401613222
 20
61.1538856538
 10
135.06048489
 20
61.5358939711
 10
135.240346382
 20
61.9338761471
 10
135.3745715106
 20
62.3363829595
 10
135.4592988631
 20
62.7318350199
 10
135.4920909879
 20
63.1088558927
 10
135.4720045153
 20
63.4565993737
 10
135.3996172965
 20
63.7650615162
 10
135.27701178
 20
64.0253684259
 10
135.1077151033
 20
64.2300315469
 10
134.8965976235
 20
64.373163094
 10
134.6497328062
 20
64.450645433
 10
134.3742225026
 20
64.4602495382
 10
134.0779926426
 20
64.401699117
 10
133.76956522
 20
64.2766785583
 10
133.4578131301
 20
64.088784476
 10
133.1517049129
 20
63.8434222408
 10
132.8600467445
 20
63.5476504775
  0
LWPOLYLINE
  5
28B
330
1F
100
AcDbEntity
  8
0
  6
Continuous
 62
     7
370
    30
100
AcDbPolyline
 90
       13
 70
   128
 43
0.0
 10
130.7386212542
 20
64.7723233452
 10
130.4698036091
 20
64.4346508688
 10
130.2315598815
 20
64.0647919017
 10
130.0307439097
 20
63.673386613
 10
129.8731328036
 20
63.2716950202
 10
129.7632607478
 20
62.8712730591
 10
129.7042885611
 20
62.4836401405
 10
129.6979127661
 20
62.1199477576
 10
129.7443167829
 20
61.7906586782
 10
129.8421656522
 20
61.5052459495
 10
129.9886444403
 20
61.2719203761
 10
130.1795392192
 20
61.0973943099
 10
130.2326778521
 20
61.0641011736
  0
LWPOLYLINE
  5
28C
330
1F
100
AcDbEntity
  8
0
  6
Continuous
 62
     7
370
    30
100
AcDbPolyline
 90
        9
 70
   128
 43
0.0
 10
132.832466557
 20
65.567555258
 10
132.7751721332
 20
65.5978359616
 10
132.5283073158
 20
65.6753183007
 10
132.2527970123
 20
65.6849224059
 10
131.9565671523
 20
65.6263719846
 10
131.6481397297
 20
65.501351426
 10
131.3363876397
 20
65.3134573437
 10
131.0302794225
 20
65.0680951085
 10
130.7386212542
 20
64.7723233452
  0
LWPOLYLINE
  5
28D
330
1F
100
AcDbEntity
  8
0
  6
Continuous
 62
     7
370
    30
100
AcDbPolyline
 90
       19
 70
   128
 43
0.0
 10
112.2237972559
 20
76.7659859638
 10
111.8139571634
 20
76.2698209545
 10
111.4313323336
 20
75.7388789982
 10
111.0805673138
 20
75.179605011
 10
110.7659199162
 20
74.5987878214
 10
110.4912095338
 20
74.0034777634
 10
110.2597707786
 20
73.4009010947
 10
110.0744130036
 20
72.7983722797
 10
109.9373862011
 20
72.203205202
 10
109.8503536908
 20
71.6226243838
 10
109.8143719295
 20
71.0636772897
 10
109.8298776871
 20
70.5331487801
 10
109.8966827446
 20
70.0374787527
 10
110.0139761792
 20
69.58268397
 10
110.1803342075
 20
69.1742850246
 10
110.3937374683
 20
68.8172393265
 10
110.6515955351
 20
68.5158809269
 10
110.9507783604
 20
68.2738679083
 10
111.0562355589
 20
68.2085501832
  0
LWPOLYLINE
  5
28E
330
1F
100
AcDbEntity
  8
0
  6
Continuous
 62
     7
370
    30
100
AcDbPolyline
 90
       13
 70
   128
 43
0.0
 10
117.0557479547
 20
78.6011365318
 10
116.9972334256
 20
78.6336235871
 10
116.6430177119
 20
78.7813454429
 10
116.2573990076
 20
78.8638038466
 10
115.8450582014
 20
78.8799978649
 10
115.4110005521
 20
78.8297309242
 10
114.9604949315
 20
78.7136131973
 10
114.4990098677
 20
78.5330541959
 10
114.0321471641
 20
78.2902456618
 10
113.5655739016
 20
77.9881349617
 10
113.1049536475
 20
77.6303893103
 10
112.6558777078
 20
77.221351255
 10
112.2237972559
 20
76.7659859638
  0
LINE
  5
28F
330
1F
100
AcDbEntity
  8
0
  6
Continuous
 62
     7
370
    30
100
AcDbLine
 10
116.7707527036
 20
65.4472277494
 30
0.0
 11
116.6861998438
 21
65.4960390764
 31
0.0
  0
ARC
  5
290
330
1F
100
AcDbEntity
  8
0
  6
Continuous
 62
     7
370
    30
100
AcDbCircle
 10
119.7760970288
 20
66.778570628
 30
0.0
 40
3.287030327458056
100
AcDbArc
 50
195.0149296131
 51
203.8929496293
  0
LINE
  5
291
330
1F
100
AcDbEntity
  8
0
  6
Continuous
 62
     7
370
    30
100
AcDbLine
 10
116.5167384714
 20
65.9758086135
 30
0.0
 11
116.6012913312
 21
65.9269972865
 31
0.0
  0
ARC
  5
292
330
1F
100
AcDbEntity
  8
0
  6
Continuous
 62
     7
370
    30
100
AcDbCircle
 10
120.0098754071
 20
66.92279989
 30
0.0
 40
3.619226178242259
100
AcDbArc
 50
195.1683301544
 51
196.0007456566
  0
SPLINE
  5
293
330
1F
100
AcDbEntity
  8
0
  6
Continuous
 62
     7
370
    30
100
AcDbSpline
210
0.0
220
0.0
230
1.0
 70
     8
 71
     3
 72
    13
 73
     9
 74
     0
 42
0.000000001
 43
0.00000001
 40
0.0
 40
0.0
 40
0.0
 40
0.0
 40
0.1253230705229252
 40
0.2504241746983015
 40
0.3754596171714636
 40
0.5003747473189973
 40
0.7495854888800328
 40
1.0
 40
1.0
 40
1.0
 40
1.0
 10
116.4764620872746
 20
65.87440369211927
 30
0.0
 10
116.4828651857001
 20
65.87086890534776
 30
0.0
 10
116.4956600416833
 20
65.86380559245335
 30
0.0
 10
116.5127808768444
 20
65.85812615438594
 30
0.0
 10
116.5265775538775
 20
65.8578405525977
 30
0.0
 10
116.5381824882067
 20
65.86609387487191
 30
0.0
 10
116.5402319053395
 20
65.88917137943353
 30
0.0
 10
116.5339922437333
 20
65.91314499263312
 30
0.0
 10
116.5308648961817
 20
65.92516067958437
 30
0.0
  0
LINE
  5
294
330
1F
100
AcDbEntity
  8
0
  6
Continuous
 62
     7
370
    30
100
AcDbLine
 10
115.0574615474
 20
66.6935752672
 30
0.0
 11
116.4764620873
 21
65.8744036921
 31
0.0
  0
SPLINE
  5
295
330
1F
100
AcDbEntity
  8
0
  6
Continuous
 62
     7
370
    30
100
AcDbSpline
210
0.0
220
0.0
230
1.0
 70
     8
 71
     3
 72
    13
 73
     9
 74
     0
 42
0.000000001
 43
0.00000001
 40
0.0
 40
0.0
 40
0.0
 40
0.0
 40
0.2498943521448901
 40
0.376123267846718
 40
0.4999722186189241
 40
0.6210255431847511
 40
0.7501083598484063
 40
1.0
 40
1.0
 40
1.0
 40
1.0
 10
114.7765380131996
 20
66.55918342987752
 30
0.0
 10
114.7573734379213
 20
66.60694491959832
 30
0.0
 10
114.7285282774817
 20
66.67883212888023
 30
0.0
 10
114.7345318981194
 20
66.75065940959406
 30
0.0
 10
114.7634363731471
 20
66.78411197184026
 30
0.0
 10
114.8168083645997
 20
66.79253944589026
 30
0.0
 10
114.9121628945169
 20
66.77131382783512
 30
0.0
 10
114.9997244252397
 20
66.72446613016045
 30
0.0
 10
115.0574615474468
 20
66.6935752672046
 30
0.0
  0
SPLINE
  5
296
330
1F
100
AcDbEntity
  8
0
  6
Continuous
 62
     7
370
    30
100
AcDbSpline
210
0.0
220
0.0
230
1.0
 70
     8
 71
     3
 72
    10
 73
     6
 74
     0
 42
0.000000001
 43
0.00000001
 40
0.0
 40
0.0
 40
0.0
 40
0.0
 40
0.2502335980472346
 40
0.5005111299271351
 40
1.0
 40
1.0
 40
1.0
 40
1.0
 10
115.0407019880333
 20
66.2216513506606
 30
0.0
 10
115.0101986120473
 20
66.25088389458475
 30
0.0
 10
114.9491865045585
 20
66.3093541148282
 30
0.0
 10
114.8490301568771
 20
66.42679164009294
 30
0.0
 10
114.8055224967919
 20
66.50624931227384
 30
0.0
 10
114.7765380131996
 20
66.55918342987752
 30
0.0
  0
SPLINE
  5
297
330
1F
100
AcDbEntity
  8
0
  6
Continuous
 62
     7
370
    30
100
AcDbSpline
210
0.0
220
0.0
230
1.0
 70
     8
 71
     3
 72
    10
 73
     6
 74
     0
 42
0.000000001
 43
0.00000001
 40
0.0
 40
0.0
 40
0.0
 40
0.0
 40
0.4993754841237258
 40
0.7497467513861401
 40
1.0
 40
1.0
 40
1.0
 40
1.0
 10
115.4368146775015
 20
65.93436967393318
 30
0.0
 10
115.3729144069088
 20
65.97320816006187
 30
0.0
 10
115.2769765368839
 20
66.03151904982218
 30
0.0
 10
115.1382416866176
 20
66.13563278040604
 30
0.0
 10
115.0732101106517
 20
66.1929830005438
 30
0.0
 10
115.0407019880333
 20
66.2216513506606
 30
0.0
  0
LINE
  5
298
330
1F
100
AcDbEntity
  8
0
  6
Continuous
 62
     7
370
    30
100
AcDbLine
 10
116.8107986485
 20
65.1411856109
 30
0.0
 11
115.4368146775
 21
65.9343696739
 31
0.0
  0
SPLINE
  5
299
330
1F
100
AcDbEntity
  8
0
  6
Continuous
 62
     7
370
    30
100
AcDbSpline
210
0.0
220
0.0
230
1.0
 70
     8
 71
     3
 72
    13
 73
     9
 74
     0
 42
0.000000001
 43
0.00000001
 40
0.0
 40
0.0
 40
0.0
 40
0.0
 40
0.2499630104053024
 40
0.3804081248446007
 40
0.4999962146716404
 40
0.619585880553935
 40
0.7500332017559036
 40
1.0
 40
1.0
 40
1.0
 40
1.0
 10
116.9695491256456
 20
65.00525181183832
 30
0.0
 10
116.9614449627981
 20
65.01573046046026
 30
0.0
 10
116.9491115804019
 20
65.031677472247
 30
0.0
 10
116.9246920963116
 20
65.05696341844053
 30
0.0
 10
116.9034740734276
 20
65.07651922015148
 30
0.0
 10
116.8800576172275
 20
65.09551734548583
 30
0.0
 10
116.8479705594823
 20
65.11886213808327
 30
0.0
 10
116.8255385356132
 20
65.13233361859696
 30
0.0
 10
116.8107986484795
 20
65.14118561088505
 30
0.0
  0
ARC
  5
29A
330
1F
100
AcDbEntity
  8
0
  6
Continuous
 62
     7
370
    30
100
AcDbCircle
 10
118.8647932084
 20
66.4027501784
 30
0.0
 40
2.354772137106374
100
AcDbArc
 50
216.403993661
 51
217.2908945313
  0
LINE
  5
29B
330
1F
100
AcDbEntity
  8
0
  6
Continuous
 62
     7
370
    30
100
AcDbLine
 10
117.0759605295
 20
64.9272719522
 30
0.0
 11
116.9914076697
 21
64.9760832792
 31
0.0
  0
ARC
  5
29C
330
1F
100
AcDbEntity
  8
0
  6
Continuous
 62
     7
370
    30
100
AcDbCircle
 10
119.0540338432
 20
66.4294071286
 30
0.0
 40
2.483784234251484
100
AcDbArc
 50
209.5079778434
 51
217.2127850432
  0
LINE
  5
29D
330
1F
100
AcDbEntity
  8
0
  6
Continuous
 62
     7
370
    30
100
AcDbLine
 10
116.807875549
 20
65.2548435874
 30
0.0
 11
116.8924284087
 21
65.2060322604
 31
0.0
  0
ARC
  5
29E
330
1F
100
AcDbEntity
  8
0
  6
Continuous
 62
     7
370
    30
100
AcDbCircle
 10
119.0944846366
 20
66.5531531868
 30
0.0
 40
2.629484538037858
100
AcDbArc
 50
209.5873979636
 51
210.4113976919
  0
SPLINE
  5
29F
330
1F
100
AcDbEntity
  8
0
  6
Continuous
 62
     7
370
    30
100
AcDbSpline
210
0.0
220
0.0
230
1.0
 70
     8
 71
     3
 72
    12
 73
     8
 74
     0
 42
0.000000001
 43
0.00000001
 40
0.0
 40
0.0
 40
0.0
 40
0.0
 40
0.2505326527610742
 40
0.5000540682322476
 40
0.6224717351977953
 40
0.7504257125024285
 40
1.0
 40
1.0
 40
1.0
 40
1.0
 10
116.7488625220122
 20
65.21535491662871
 30
0.0
 10
116.7643017597711
 20
65.20673486575933
 30
0.0
 10
116.7951179171329
 20
65.1895295575566
 30
0.0
 10
116.8262228950675
 20
65.17832480981691
 30
0.0
 10
116.8391441110468
 20
65.18132274510438
 30
0.0
 10
116.8420728108857
 20
65.19317237668025
 30
0.0
 10
116.8328680505045
 20
65.21058382851214
 30
0.0
 10
116.8267830186594
 20
65.22209409433954
 30
0.0
  0
LINE
  5
2A0
330
1F
100
AcDbEntity
  8
0
  6
Continuous
 62
     7
370
    30
100
AcDbLine
 10
115.396016766
 20
65.9963361479
 30
0.0
 11
116.748862522
 21
65.2153549166
 31
0.0
  0
SPLINE
  5
2A1
330
1F
100
AcDbEntity
  8
0
  6
Continuous
 62
     7
370
    30
100
AcDbSpline
210
0.0
220
0.0
230
1.0
 70
     8
 71
     3
 72
    13
 73
     9
 74
     0
 42
0.000000001
 43
0.00000001
 40
0.0
 40
0.0
 40
0.0
 40
0.0
 40
0.2499818069533508
 40
0.3751393729469282
 40
0.5001304191937188
 40
0.6210840622066689
 40
0.7501795607210474
 40
1.0
 40
1.0
 40
1.0
 40
1.0
 10
114.935006466812
 20
66.43606516434592
 30
0.0
 10
114.9552909358487
 20
66.3991501275229
 30
0.0
 10
114.9857311630305
 20
66.34375296108558
 30
0.0
 10
115.053329873654
 20
66.26136018743276
 30
0.0
 10
115.1149193385328
 20
66.19852624442923
 30
0.0
 10
115.1855186380176
 20
66.13756472664686
 30
0.0
 10
115.2828434201862
 20
66.06443894105279
 30
0.0
 10
115.3510487698614
 20
66.02339593056286
 30
0.0
 10
115.3960167659722
 20
65.99633614793765
 30
0.0
  0
SPLINE
  5
2A2
330
1F
100
AcDbEntity
  8
0
  6
Continuous
 62
     7
370
    30
100
AcDbSpline
210
0.0
220
0.0
230
1.0
 70
     8
 71
     3
 72
    13
 73
     9
 74
     0
 42
0.000000001
 43
0.00000001
 40
0.0
 40
0.0
 40
0.0
 40
0.0
 40
0.2499157917518754
 40
0.3781669731073432
 40
0.4999084673303282
 40
0.62095451672552
 40
0.7500018192520111
 40
1.0
 40
1.0
 40
1.0
 40
1.0
 10
115.104144705038
 20
66.51376603125996
 30
0.0
 10
115.0677148965944
 20
66.53336789338596
 30
0.0
 10
115.0125901271935
 20
66.56302899169228
 30
0.0
 10
114.953606479386
 20
66.57759276235679
 30
0.0
 10
114.9216742026411
 20
66.57339967087377
 30
0.0
 10
114.9049078253409
 20
66.55385621231285
 30
0.0
 10
114.9023550821461
 20
66.5110877522
 30
0.0
 10
114.9220299641743
 20
66.46588107626306
 30
0.0
 10
114.935006466812
 20
66.43606516434592
 30
0.0
  0
LINE
  5
2A3
330
1F
100
AcDbEntity
  8
0
  6
Continuous
 62
     7
370
    30
100
AcDbLine
 10
116.5442834598
 20
65.6823916244
 30
0.0
 11
115.104144705
 21
66.5137660313
 31
0.0
  0
SPLINE
  5
2A4
330
1F
100
AcDbEntity
  8
0
  6
Continuous
 62
     7
370
    30
100
AcDbSpline
210
0.0
220
0.0
230
1.0
 70
     8
 71
     3
 72
    13
 73
     9
 74
     0
 42
0.000000001
 43
0.00000001
 40
0.0
 40
0.0
 40
0.0
 40
0.0
 40
0.2501878851227893
 40
0.3808377610721271
 40
0.5003524462015516
 40
0.6260407202147079
 40
0.750227144039393
 40
1.0
 40
1.0
 40
1.0
 40
1.0
 10
116.6625920551035
 20
65.5503751880236
 30
0.0
 10
116.657704979608
 20
65.56121734173912
 30
0.0
 10
116.650265838864
 20
65.57772134449769
 30
0.0
 10
116.6340930803591
 20
65.60259301464156
 30
0.0
 10
116.6189244663887
 20
65.62191574563843
 30
0.0
 10
116.6013918504277
 20
65.6405172594299
 30
0.0
 10
116.5755424018679
 20
65.66310177973882
 30
0.0
 10
116.5568010691849
 20
65.67466702708862
 30
0.0
 10
116.5442834598039
 20
65.68239162443544
 30
0.0
  0
ARC
  5
2A5
330
1F
100
AcDbEntity
  8
0
  6
Continuous
 62
     7
370
    30
100
AcDbCircle
 10
119.4218657164
 20
66.7169194488
 30
0.0
 40
2.995733073903434
100
AcDbArc
 50
202.9172912763
 51
204.0503805082
  0
LINE
  5
2A6
330
1F
100
AcDbEntity
  8
0
  6
Continuous
 62
     7
370
    30
100
AcDbLine
 10
116.6990293718
 20
65.0094823839
 30
0.0
 11
116.5220946838
 21
65.1116246051
 31
0.0
  0
SPLINE
  5
2A7
330
1F
100
AcDbEntity
  8
0
  6
Continuous
 62
     7
370
    30
100
AcDbSpline
210
0.0
220
0.0
230
1.0
 70
     8
 71
     3
 72
     9
 73
     5
 74
     0
 42
0.000000001
 43
0.00000001
 40
0.0
 40
0.0
 40
0.0
 40
0.0
 40
0.4999565492681726
 40
1.0
 40
1.0
 40
1.0
 40
1.0
 10
116.414415873377
 20
65.26354216230152
 30
0.0
 10
116.4507549579734
 20
65.22412751336579
 30
0.0
 10
116.5234394435543
 20
65.1452913645176
 30
0.0
 10
116.6404960049452
 20
65.054754666675
 30
0.0
 10
116.6990293718339
 20
65.00948238386793
 30
0.0
  0
LINE
  5
2A8
330
1F
100
AcDbEntity
  8
0
  6
Continuous
 62
     7
370
    30
100
AcDbLine
 10
116.3271228747
 20
65.3139353378
 30
0.0
 11
116.4144158734
 21
65.2635421623
 31
0.0
  0
ARC
  5
2A9
330
1F
100
AcDbEntity
  8
0
  6
Continuous
 62
     7
370
    30
100
AcDbCircle
 10
118.0486351022
 20
66.7581873376
 30
0.0
 40
2.247102175815552
100
AcDbArc
 50
219.9947599596
 51
220.9097700393
  0
SPLINE
  5
2AA
330
1F
100
AcDbEntity
  8
0
  6
Continuous
 62
     7
370
    30
100
AcDbSpline
210
0.0
220
0.0
230
1.0
 70
     8
 71
     3
 72
    13
 73
     9
 74
     0
 42
0.000000001
 43
0.00000001
 40
0.0
 40
0.0
 40
0.0
 40
0.0
 40
0.2500397820808349
 40
0.3777937796122244
 40
0.5000001128878963
 40
0.6221700943969068
 40
0.7499621575008304
 40
1.0
 40
1.0
 40
1.0
 40
1.0
 10
116.3089489639601
 20
65.28183069511152
 30
0.0
 10
116.3214868282203
 20
65.2747830250915
 30
0.0
 10
116.3404307222187
 20
65.26413445600315
 30
0.0
 10
116.3587981526657
 20
65.25636276550857
 30
0.0
 10
116.3674951557647
 20
65.25473404230483
 30
0.0
 10
116.3704699530688
 20
65.25755713490327
 30
0.0
 10
116.3667905278792
 20
65.26691811832572
 30
0.0
 10
116.3569308835832
 20
65.27877900619337
 30
0.0
 10
116.3504060316563
 20
65.28662822820723
 30
0.0
  0
LINE
  5
2AB
330
1F
100
AcDbEntity
  8
0
  6
Continuous
 62
     7
370
    30
100
AcDbLine
 10
115.4133149681
 20
65.7988691955
 30
0.0
 11
116.308948964
 21
65.2818306951
 31
0.0
  0
SPLINE
  5
2AC
330
1F
100
AcDbEntity
  8
0
  6
Continuous
 62
     7
370
    30
100
AcDbSpline
210
0.0
220
0.0
230
1.0
 70
     8
 71
     3
 72
    12
 73
     8
 74
     0
 42
0.000000001
 43
0.00000001
 40
0.0
 40
0.0
 40
0.0
 40
0.0
 40
0.2508405333877362
 40
0.5005186823463604
 40
0.6258416189945364
 40
0.7508706987083643
 40
1.0
 40
1.0
 40
1.0
 40
1.0
 10
115.230675836842
 20
65.94690073969683
 30
0.0
 10
115.2402916945744
 20
65.93589304207528
 30
0.0
 10
115.2594788505608
 20
65.91392865603768
 30
0.0
 10
115.2957015297721
 20
65.8808089265139
 30
0.0
 10
115.3309575568041
 20
65.85269313200611
 30
0.0
 10
115.3696523702938
 20
65.82511327828128
 30
0.0
 10
115.3958629426441
 20
65.80935900651406
 30
0.0
 10
115.4133149680633
 20
65.79886919546881
 30
0.0
  0
LINE
  5
2AD
330
1F
100
AcDbEntity
  8
0
  6
Continuous
 62
     7
370
    30
100
AcDbLine
 10
115.1461229771
 20
65.9957120667
 30
0.0
 11
115.2306758368
 21
65.9469007397
 31
0.0
  0
ARC
  5
2AE
330
1F
100
AcDbEntity
  8
0
  6
Continuous
 62
     7
370
    30
100
AcDbCircle
 10
116.788552767
 20
67.3692984903
 30
0.0
 40
2.141101417053198
100
AcDbArc
 50
219.9061990403
 51
230.5412665386
  0
LINE
  5
2AF
330
1F
100
AcDbEntity
  8
0
  6
Continuous
 62
     7
370
    30
100
AcDbLine
 10
115.5123879237
 20
65.6673802066
 30
0.0
 11
115.4278350639
 21
65.7161915335
 31
0.0
  0
SPLINE
  5
2B0
330
1F
100
AcDbEntity
  8
0
  6
Continuous
 62
     7
370
    30
100
AcDbSpline
210
0.0
220
0.0
230
1.0
 70
     8
 71
     3
 72
    13
 73
     9
 74
     0
 42
0.000000001
 43
0.00000001
 40
0.0
 40
0.0
 40
0.0
 40
0.0
 40
0.1252665154879388
 40
0.2503236425728683
 40
0.368155691660599
 40
0.4999147691913046
 40
0.7495198424991325
 40
1.0
 40
1.0
 40
1.0
 40
1.0
 10
115.525858442768
 20
65.68673954539365
 30
0.0
 10
115.5174966778864
 20
65.69147313721592
 30
0.0
 10
115.5007871251751
 20
65.70093240845681
 30
0.0
 10
115.4817357412706
 20
65.71012849471998
 30
0.0
 10
115.4702524220802
 20
65.71355640245231
 30
0.0
 10
115.4675750307629
 20
65.70947656542586
 30
0.0
 10
115.4813058057688
 20
65.69362278178792
 30
0.0
 10
115.5020151381693
 20
65.67613793037053
 30
0.0
 10
115.5123879236903
 20
65.66738020655247
 30
0.0
  0
LINE
  5
2B1
330
1F
100
AcDbEntity
  8
0
  6
Continuous
 62
     7
370
    30
100
AcDbLine
 10
116.3686469013
 20
65.2002081244
 30
0.0
 11
115.5258584428
 21
65.6867395454
 31
0.0
  0
SPLINE
  5
2B2
330
1F
100
AcDbEntity
  8
0
  6
Continuous
 62
     7
370
    30
100
AcDbSpline
210
0.0
220
0.0
230
1.0
 70
     8
 71
     3
 72
    10
 73
     6
 74
     0
 42
0.000000001
 43
0.00000001
 40
0.0
 40
0.0
 40
0.0
 40
0.0
 40
0.2501049341293119
 40
0.5003778651460223
 40
1.0
 40
1.0
 40
1.0
 40
1.0
 10
116.8028783808516
 20
64.90072451430586
 30
0.0
 10
116.77646098357
 20
64.91938057313045
 30
0.0
 10
116.7236084442929
 20
64.95670522215902
 30
0.0
 10
116.5738282318362
 20
65.06157584942422
 30
0.0
 10
116.4506890967575
 20
65.1447757116612
 30
0.0
 10
116.3686469013195
 20
65.20020812438435
 30
0.0
  0
SPLINE
  5
2B3
330
1F
100
AcDbEntity
  8
0
  6
Continuous
 62
     7
370
    30
100
AcDbSpline
210
0.0
220
0.0
230
1.0
 70
     8
 71
     3
 72
    10
 73
     6
 74
     0
 42
0.000000001
 43
0.00000001
 40
0.0
 40
0.0
 40
0.0
 40
0.0
 40
0.2506156963356909
 40
0.5008152345029696
 40
1.0
 40
1.0
 40
1.0
 40
1.0
 10
116.8483108647469
 20
64.8653232560257
 30
0.0
 10
116.8524361504303
 20
64.8631950081649
 30
0.0
 10
116.8606798715823
 20
64.8589420464906
 30
0.0
 10
116.8517108852023
 20
64.86635987121015
 30
0.0
 10
116.8224018840642
 20
64.88698534141682
 30
0.0
 10
116.8028783808515
 20
64.90072451430586
 30
0.0
  0
SPLINE
  5
2B4
330
1F
100
AcDbEntity
  8
0
  6
Continuous
 62
     7
370
    30
100
AcDbSpline
210
0.0
220
0.0
230
1.0
 70
     8
 71
     3
 72
     9
 73
     5
 74
     0
 42
0.000000001
 43
0.00000001
 40
0.0
 40
0.0
 40
0.0
 40
0.0
 40
0.1747741836632516
 40
0.9999999999999999
 40
0.9999999999999999
 40
0.9999999999999999
 40
0.9999999999999999
 10
116.7719843580662
 20
64.9089232898113
 30
0.0
 10
116.7781272936983
 20
64.90537373016808
 30
0.0
 10
116.8132751370654
 20
64.88506432537606
 30
0.0
 10
116.8324704209409
 20
64.87424863935318
 30
0.0
 10
116.8483108647469
 20
64.8653232560257
 30
0.0
  0
SPLINE
  5
2B5
330
1F
100
AcDbEntity
  8
0
  6
Continuous
 62
     7
370
    30
100
AcDbSpline
210
0.0
220
0.0
230
1.0
 70
     8
 71
     3
 72
    12
 73
     8
 74
     0
 42
0.000000001
 43
0.00000001
 40
0.0
 40
0.0
 40
0.0
 40
0.0
 40
0.3249113172853485
 40
0.6483170092598814
 40
0.8106465972355708
 40
0.972595555165732
 40
1.0
 40
1.0
 40
1.0
 40
1.0
 10
115.6941211634835
 20
65.53434436442852
 30
0.0
 10
115.7060086256732
 20
65.52675452804742
 30
0.0
 10
115.7297284640552
 20
65.51161002626618
 30
0.0
 10
115.7715694797103
 20
65.4866818391854
 30
0.0
 10
115.8100466375831
 20
65.46424873817463
 30
0.0
 10
115.8331923556838
 20
65.45086913177728
 30
0.0
 10
115.84383690989
 20
65.44472759920788
 30
0.0
 10
115.8453774583791
 20
65.44383875703215
 30
0.0
  0
LINE
  5
2B6
330
1F
100
AcDbEntity
  8
0
  6
Continuous
 62
     7
370
    30
100
AcDbLine
 10
115.6095683037
 20
65.5831556914
 30
0.0
 11
115.6941211635
 21
65.5343443644
 31
0.0
  0
ARC
  5
2B7
330
1F
100
AcDbEntity
  8
0
  6
Continuous
 62
     7
370
    30
100
AcDbCircle
 10
116.6999089708
 20
67.2616618352
 30
0.0
 40
2.001555806137971
100
AcDbArc
 50
236.9926529445
 51
240.002373343
  0
LINE
  5
2B8
330
1F
100
AcDbEntity
  8
0
  6
Continuous
 62
     7
370
    30
100
AcDbLine
 10
116.9589829235
 20
64.8072023123
 30
0.0
 11
116.8366117387
 21
64.8792233901
 31
0.0
  0
SPLINE
  5
2B9
330
1F
100
AcDbEntity
  8
0
  6
Continuous
 62
     7
370
    30
100
AcDbSpline
210
0.0
220
0.0
230
1.0
 70
     8
 71
     3
 72
     9
 73
     5
 74
     0
 42
0.000000001
 43
0.00000001
 40
0.0
 40
0.0
 40
0.0
 40
0.0
 40
0.8915189273237235
 40
1.0
 40
1.0
 40
1.0
 40
1.0
 10
116.9513377703125
 20
64.81033272281879
 30
0.0
 10
116.9843779263467
 20
64.78876821901564
 30
0.0
 10
117.0214384474658
 20
64.76457972100145
 30
0.0
 10
117.0318091118368
 20
64.75903156212371
 30
0.0
 10
117.0329341326321
 20
64.75842969189728
 30
0.0
  0
SPLINE
  5
2BA
330
1F
100
AcDbEntity
  8
0
  6
Continuous
 62
     7
370
    30
100
AcDbSpline
210
0.0
220
0.0
230
1.0
 70
     8
 71
     3
 72
    11
 73
     7
 74
     0
 42
0.000000001
 43
0.00000001
 40
0.0
 40
0.0
 40
0.0
 40
0.0
 40
0.1255229121053018
 40
0.2509825561300511
 40
0.5015396269937147
 40
1.0
 40
1.0
 40
1.0
 40
1.0
 10
116.5220946838333
 20
65.11162460509237
 30
0.0
 10
116.5434904255479
 20
65.09672228466872
 30
0.0
 10
116.5862711247507
 20
65.06692515512904
 30
0.0
 10
116.6694227099085
 20
65.00833803494245
 30
0.0
 10
116.8086633136795
 20
64.90890364921005
 30
0.0
 10
116.8943286901432
 20
64.84971915524417
 30
0.0
 10
116.9513377703125
 20
64.81033272281879
 30
0.0
  0
LWPOLYLINE
  5
2BB
330
1F
100
AcDbEntity
  8
0
  6
Continuous
 62
     7
370
    30
100
AcDbPolyline
 90
       24
 70
   128
 43
0.0
 10
109.5132515236
 20
70.1477637121
 10
109.4635007484
 20
70.226678971
 10
109.2836981491
 20
70.5917093205
 10
109.1531758974
 20
71.0064549372
 10
109.0737662395
 20
71.4650937017
 10
109.046583913
 20
71.9611873313
 10
109.0720104981
 20
72.4877717587
 10
109.1496890613
 20
73.037454893
 10
109.2785291659
 20
73.6025203877
 10
109.4567221792
 20
74.175035962
 10
109.6817666619
 20
74.7469647523
 10
109.9505034827
 20
75.3102781319
 10
110.2591601659
 20
75.8570684159
 10
110.6034038481
 20
76.3796598672
 10
110.9784021027
 20
76.8707164474
 10
111.3788907761
 20
77.3233447984
 10
111.7992478853
 20
77.7311910105
 10
112.2335725378
 20
78.0885298168
 10
112.6757677677
 20
78.3903449638
 10
113.1196261231
 20
78.6323996284
 10
113.5589168058
 20
78.8112958937
 10
113.9874731374
 20
78.9245224483
 10
114.3992791266
 20
78.9704898395
 10
114.6048133621
 20
78.9675631499
  0
LINE
  5
2BC
330
1F
100
AcDbEntity
  8
0
  6
Continuous
 62
     7
370
    30
100
AcDbLine
 10
116.7581867914
 20
65.4757832877
 30
0.0
 11
116.6992857361
 21
65.5097861431
 31
0.0
  0
ARC
  5
2BD
330
1F
100
AcDbEntity
  8
0
  6
Continuous
 62
     7
370
    30
100
AcDbCircle
 10
119.4258327224
 20
66.7265969143
 30
0.0
 40
2.985747296984019
100
AcDbArc
 50
202.9172912763
 51
204.0503805082
  0
SPLINE
  5
2BE
330
1F
100
AcDbEntity
  8
0
  6
Continuous
 62
     7
370
    30
100
AcDbSpline
210
0.0
220
0.0
230
1.0
 70
     8
 71
     3
 72
    13
 73
     9
 74
     0
 42
0.000000001
 43
0.00000001
 40
0.0
 40
0.0
 40
0.0
 40
0.0
 40
0.2498123127853846
 40
0.3802843237902365
 40
0.4997528889783033
 40
0.6254353688002072
 40
0.7497950507222761
 40
1.0
 40
1.0
 40
1.0
 40
1.0
 10
116.6757566399878
 20
65.56394113442506
 30
0.0
 10
116.6708837986053
 20
65.57474893095241
 30
0.0
 10
116.6634659689179
 20
65.59120142501982
 30
0.0
 10
116.647319338791
 20
65.61600664459667
 30
0.0
 10
116.6321680199066
 20
65.63528427045006
 30
0.0
 10
116.6146471008444
 20
65.65385023010303
 30
0.0
 10
116.5888103684831
 20
65.67640143473764
 30
0.0
 10
116.5700753469176
 20
65.68795953790759
 30
0.0
 10
116.5575605638066
 20
65.69568022047207
 30
0.0
  0
LINE
  5
2BF
330
1F
100
AcDbEntity
  8
0
  6
Continuous
 62
     7
370
    30
100
AcDbLine
 10
116.5575605638
 20
65.6956802205
 30
0.0
 11
115.117421809
 21
66.5270546273
 31
0.0
  0
SPLINE
  5
2C0
330
1F
100
AcDbEntity
  8
0
  6
Continuous
 62
     7
370
    30
100
AcDbSpline
210
0.0
220
0.0
230
1.0
 70
     8
 71
     3
 72
    10
 73
     6
 74
     0
 42
0.000000001
 43
0.00000001
 40
0.0
 40
0.0
 40
0.0
 40
0.0
 40
0.5001263788229221
 40
0.7566146770721919
 40
1.0
 40
1.0
 40
1.0
 40
1.0
 10
115.1174218090407
 20
66.52705462729661
 30
0.0
 10
115.0811446394778
 20
66.54650856957475
 30
0.0
 10
115.0262628334061
 20
66.57593940721468
 30
0.0
 10
114.9661702885426
 20
66.59167661894425
 30
0.0
 10
114.9467612129211
 20
66.58675915987016
 30
0.0
 10
114.937311056046
 20
66.58436487996813
 30
0.0
  0
SPLINE
  5
2C1
330
1F
100
AcDbEntity
  8
0
  6
Continuous
 62
     7
370
    30
100
AcDbSpline
210
0.0
220
0.0
230
1.0
 70
     8
 71
     3
 72
    10
 73
     6
 74
     0
 42
0.000000001
 43
0.00000001
 40
0.0
 40
0.0
 40
0.0
 40
0.0
 40
0.2450730668154101
 40
0.5010934808403104
 40
1.0
 40
1.0
 40
1.0
 40
1.0
 10
116.8410260415981
 20
65.19492460403727
 30
0.0
 10
116.8446040152905
 20
65.19524087259157
 30
0.0
 10
116.8519197897864
 20
65.19588753733044
 30
0.0
 10
116.8544868251333
 20
65.20807079038026
 30
0.0
 10
116.845403303012
 20
65.22534099660594
 30
0.0
 10
116.8394003003318
 20
65.2367543110533
 30
0.0
  0
LINE
  5
2C2
330
1F
100
AcDbEntity
  8
0
  6
Continuous
 62
     7
370
    30
100
AcDbLine
 10
117.0466032079
 20
64.9666668417
 30
0.0
 11
117.0034762026
 21
64.9915635319
 31
0.0
  0
ARC
  5
2C3
330
1F
100
AcDbEntity
  8
0
  6
Continuous
 62
     7
370
    30
100
AcDbCircle
 10
118.8706171233
 20
66.4134748752
 30
0.0
 40
2.346922897299522
100
AcDbArc
 50
216.4039936611
 51
217.2908945311
  0
SPLINE
  5
2C4
330
1F
100
AcDbEntity
  8
0
  6
Continuous
 62
     7
370
    30
100
AcDbSpline
210
0.0
220
0.0
230
1.0
 70
     8
 71
     3
 72
    13
 73
     9
 74
     0
 42
0.000000001
 43
0.00000001
 40
0.0
 40
0.0
 40
0.0
 40
0.0
 40
0.2495593923731383
 40
0.3798274885119575
 40
0.4993859877971666
 40
0.6189930544607715
 40
0.7496293910545719
 40
1.0
 40
1.0
 40
1.0
 40
1.0
 10
116.9816905202947
 20
65.02063483616041
 30
0.0
 10
116.9736095595137
 20
65.03108136220126
 30
0.0
 10
116.961310398945
 20
65.04698089502203
 30
0.0
 10
116.9369338100405
 20
65.07220482683196
 30
0.0
 10
116.9157434648896
 20
65.09171988440859
 30
0.0
 10
116.8923481774655
 20
65.11068636783446
 30
0.0
 10
116.8602801034664
 20
65.13400412453485
 30
0.0
 10
116.8378538458882
 20
65.14747005399445
 30
0.0
 10
116.8231169078036
 20
65.15631890307263
 30
0.0
  0
LINE
  5
2C5
330
1F
100
AcDbEntity
  8
0
  6
Continuous
 62
     7
370
    30
100
AcDbLine
 10
116.8231169078
 20
65.1563189031
 30
0.0
 11
115.4491329368
 21
65.9495029661
 31
0.0
  0
SPLINE
  5
2C6
330
1F
100
AcDbEntity
  8
0
  6
Continuous
 62
     7
370
    30
100
AcDbSpline
210
0.0
220
0.0
230
1.0
 70
     8
 71
     3
 72
    10
 73
     6
 74
     0
 42
0.000000001
 43
0.00000001
 40
0.0
 40
0.0
 40
0.0
 40
0.0
 40
0.4996028079601298
 40
0.7499496393672741
 40
1.0
 40
1.0
 40
1.0
 40
1.0
 10
115.4491329368255
 20
65.94950296612076
 30
0.0
 10
115.3852494325813
 20
65.9883241724456
 30
0.0
 10
115.2893544331816
 20
66.04659836390177
 30
0.0
 10
115.1507052942209
 20
66.1505756691604
 30
0.0
 10
115.0857038511339
 20
66.20785158924097
 30
0.0
 10
115.0532223853221
 20
66.23647258212333
 30
0.0
  0
SPLINE
  5
2C7
330
1F
100
AcDbEntity
  8
0
  6
Continuous
 62
     7
370
    30
100
AcDbSpline
210
0.0
220
0.0
230
1.0
 70
     8
 71
     3
 72
    10
 73
     6
 74
     0
 42
0.000000001
 43
0.00000001
 40
0.0
 40
0.0
 40
0.0
 40
0.0
 40
0.2504183065326275
 40
0.500715888906578
 40
1.0
 40
1.0
 40
1.0
 40
1.0
 10
115.0532223853221
 20
66.23647258212333
 30
0.0
 10
115.0227591624396
 20
66.26564098784131
 30
0.0
 10
114.9618474026892
 20
66.3239637374809
 30
0.0
 10
114.8618471759276
 20
66.44110845900137
 30
0.0
 10
114.8184490629031
 20
66.52033622571093
 30
0.0
 10
114.7895422893341
 20
66.57310854581993
 30
0.0
  0
SPLINE
  5
2C8
330
1F
100
AcDbEntity
  8
0
  6
Continuous
 62
     7
370
    30
100
AcDbSpline
210
0.0
220
0.0
230
1.0
 70
     8
 71
     3
 72
    10
 73
     6
 74
     0
 42
0.000000001
 43
0.00000001
 40
0.0
 40
0.0
 40
0.0
 40
0.0
 40
0.556137500515817
 40
0.8371775054366303
 40
1.0
 40
1.0
 40
1.0
 40
1.0
 10
114.7895422893341
 20
66.57310854581995
 30
0.0
 10
114.7710012160715
 20
66.6201921149933
 30
0.0
 10
114.743090547491
 20
66.6910690203468
 30
0.0
 10
114.7451348414175
 20
66.75856855233613
 30
0.0
 10
114.7627440253511
 20
66.77414492101057
 30
0.0
 10
114.7692036187131
 20
66.77985881485557
 30
0.0
  0
SPLINE
  5
2C9
330
1F
100
AcDbEntity
  8
0
  6
Continuous
 62
     7
370
    30
100
AcDbSpline
210
0.0
220
0.0
230
1.0
 70
     8
 71
     3
 72
     9
 73
     5
 74
     0
 42
0.000000001
 43
0.00000001
 40
0.0
 40
0.0
 40
0.0
 40
0.0
 40
0.498900932971139
 40
1.0
 40
1.0
 40
1.0
 40
1.0
 10
116.5479938220949
 20
65.8774412073739
 30
0.0
 10
116.5502037699462
 20
65.8852002374665
 30
0.0
 10
116.5546334025751
 20
65.90075248357358
 30
0.0
 10
116.5478618102114
 20
65.92521779585513
 30
0.0
 10
116.5444685715957
 20
65.93747734101397
 30
0.0
  0
ARC
  5
2CA
330
1F
100
AcDbEntity
  8
0
  6
Continuous
 62
     7
370
    30
100
AcDbCircle
 10
120.0118823826
 20
66.9317910878
 30
0.0
 40
3.607162092858374
100
AcDbArc
 50
195.1683301545
 51
196.0007456563
  0
LINE
  5
2CB
330
1F
100
AcDbEntity
  8
0
  6
Continuous
 62
     7
370
    30
100
AcDbLine
 10
116.5308648962
 20
65.9251606796
 30
0.0
 11
116.5444685716
 21
65.937477341
 31
0.0
  0
LINE
  5
2CC
330
1F
100
AcDbEntity
  8
0
  6
Continuous
 62
     7
370
    30
100
AcDbLine
 10
116.5442834598
 20
65.6823916244
 30
0.0
 11
116.5575605638
 21
65.6956802205
 31
0.0
  0
LINE
  5
2CD
330
1F
100
AcDbEntity
  8
0
  6
Continuous
 62
     7
370
    30
100
AcDbLine
 10
116.6625920551
 20
65.550375188
 30
0.0
 11
116.67575664
 21
65.5639411344
 31
0.0
  0
LINE
  5
2CE
330
1F
100
AcDbEntity
  8
0
  6
Continuous
 62
     7
370
    30
100
AcDbLine
 10
115.104144705
 20
66.5137660313
 30
0.0
 11
115.117421809
 21
66.5270546273
 31
0.0
  0
LINE
  5
2CF
330
1F
100
AcDbEntity
  8
0
  6
Continuous
 62
     7
370
    30
100
AcDbLine
 10
116.6861998438
 20
65.4960390764
 30
0.0
 11
116.6992857361
 21
65.5097861431
 31
0.0
  0
LWPOLYLINE
  5
2D0
330
1F
100
AcDbEntity
  8
0
  6
Continuous
 62
     7
370
    30
100
AcDbPolyline
 90
       12
 70
   128
 43
0.0
 10
92.3025489326
 20
86.9226049433
 10
92.0372775131
 20
86.5884134988
 10
91.803262191
 20
86.221823535
 10
91.6076134033
 20
85.8339737025
 10
91.4562758395
 20
85.4366486222
 10
91.3538478149
 20
85.0419208156
 10
91.3034415532
 20
84.6617838873
 10
91.3065886232
 20
84.3077881056
 10
91.3631934026
 20
83.9906894531
 10
91.471535984
 20
83.720122812
 10
91.6283244328
 20
83.5043092128
 10
91.8160648922
 20
83.3570067014
  0
LWPOLYLINE
  5
2D1
330
1F
100
AcDbEntity
  8
0
  6
Continuous
 62
     7
370
    30
100
AcDbPolyline
 90
        9
 70
   128
 43
0.0
 10
94.3158617238
 20
87.6872510133
 10
94.3031318046
 20
87.6944516724
 10
94.0650706874
 20
87.7829499133
 10
93.7966521979
 20
87.8027542505
 10
93.5060320964
 20
87.7532629392
 10
93.2020407273
 20
87.6359797478
 10
92.8939147147
 20
87.4544682668
 10
92.5910163116
 20
87.2142436306
 10
92.3025489326
 20
86.9226049433
  0
LINE
  5
2D2
330
1F
100
AcDbEntity
  8
0
  6
Continuous
 62
     7
370
    30
100
AcDbLine
 10
116.8267830187
 20
65.2220940943
 30
0.0
 11
116.8394003003
 21
65.2367543111
 31
0.0
  0
LINE
  5
2D3
330
1F
100
AcDbEntity
  8
0
  6
Continuous
 62
     7
370
    30
100
AcDbLine
 10
116.8107986485
 20
65.1411856109
 30
0.0
 11
116.8231169078
 21
65.1563189031
 31
0.0
  0
LINE
  5
2D4
330
1F
100
AcDbEntity
  8
0
  6
Continuous
 62
     7
370
    30
100
AcDbLine
 10
116.9695491256
 20
65.0052518118
 30
0.0
 11
116.9816905203
 21
65.0206348362
 31
0.0
  0
LINE
  5
2D5
330
1F
100
AcDbEntity
  8
0
  6
Continuous
 62
     7
370
    30
100
AcDbLine
 10
115.4368146775
 20
65.9343696739
 30
0.0
 11
115.4491329368
 21
65.9495029661
 31
0.0
  0
LINE
  5
2D6
330
1F
100
AcDbEntity
  8
0
  6
Continuous
 62
     7
370
    30
100
AcDbLine
 10
116.9914076697
 20
64.9760832792
 30
0.0
 11
117.0034762026
 21
64.9915635319
 31
0.0
  0
LINE
  5
2D7
330
1F
100
AcDbEntity
  8
0
  6
Continuous
 62
     7
370
    30
100
AcDbLine
 10
114.7765380132
 20
66.5591834299
 30
0.0
 11
114.7895422893
 21
66.5731085458
 31
0.0
  0
LINE
  5
2D8
330
1F
100
AcDbEntity
  8
0
  6
Continuous
 62
     7
370
    30
100
AcDbLine
 10
116.5259250455
 20
65.1172368258
 30
0.0
 11
116.3798580499
 21
65.2166346256
 31
0.0
  0
LINE
  5
2D9
330
1F
100
AcDbEntity
  8
0
  6
Continuous
 62
     7
370
    30
100
AcDbLine
 10
116.3798580499
 20
65.2166346256
 30
0.0
 11
115.5370695913
 21
65.7031660466
 31
0.0
  0
SPLINE
  5
2DA
330
1F
100
AcDbEntity
  8
0
  6
Continuous
 62
     7
370
    30
100
AcDbSpline
210
0.0
220
0.0
230
1.0
 70
     8
 71
     3
 72
    11
 73
     7
 74
     0
 42
0.000000001
 43
0.00000001
 40
0.0
 40
0.0
 40
0.0
 40
0.0
 40
0.2508057633188103
 40
0.5011062978828457
 40
0.7367065389597868
 40
1.0
 40
1.0
 40
1.0
 40
1.0
 10
115.5370695913019
 20
65.7031660465597
 30
0.0
 10
115.5287005191383
 20
65.70790450741487
 30
0.0
 10
115.5119792336579
 20
65.71737188386335
 30
0.0
 10
115.4930140550793
 20
65.72652049320055
 30
0.0
 10
115.4811239448013
 20
65.73021260978297
 30
0.0
 10
115.4807510509906
 20
65.72757591506691
 30
0.0
 10
115.4805542545556
 20
65.7261843872233
 30
0.0
  0
LINE
  5
2DB
330
1F
100
AcDbEntity
  8
0
  6
Continuous
 62
     7
370
    30
100
AcDbLine
 10
115.4702331256
 20
65.7147046653
 30
0.0
 11
115.4387388106
 21
65.7328859463
 31
0.0
  0
ARC
  5
2DC
330
1F
100
AcDbEntity
  8
0
  6
Continuous
 62
     7
370
    30
100
AcDbCircle
 10
116.7822057918
 20
67.3668161693
 30
0.0
 40
2.115332480517581
100
AcDbArc
 50
221.4513895926
 51
230.5719207498
  0
SPLINE
  5
2DD
330
1F
100
AcDbEntity
  8
0
  6
Continuous
 62
     7
370
    30
100
AcDbSpline
210
0.0
220
0.0
230
1.0
 70
     8
 71
     3
 72
     9
 73
     5
 74
     0
 42
0.000000001
 43
0.00000001
 40
0.0
 40
0.0
 40
0.0
 40
0.0
 40
0.4888415891878299
 40
0.9999999999999999
 40
0.9999999999999999
 40
0.9999999999999999
 40
0.9999999999999999
 10
116.3781879880193
 20
65.2714684525765
 30
0.0
 10
116.3796263570831
 20
65.27203884172445
 30
0.0
 10
116.3825687602984
 20
65.27320565968874
 30
0.0
 10
116.3799254932736
 20
65.27843737700937
 30
0.0
 10
116.3785743651018
 20
65.28111161332079
 30
0.0
  0
LINE
  5
2DE
330
1F
100
AcDbEntity
  8
0
  6
Continuous
 62
     7
370
    30
100
AcDbLine
 10
116.3504060317
 20
65.2866282282
 30
0.0
 11
116.3621712081
 21
65.3024819296
 31
0.0
  0
LINE
  5
2DF
330
1F
100
AcDbEntity
  8
0
  6
Continuous
 62
     7
370
    30
100
AcDbLine
 10
115.040701988
 20
66.2216513507
 30
0.0
 11
115.0532223853
 21
66.2364725821
 31
0.0
  0
LINE
  5
2E0
330
1F
100
AcDbEntity
  8
0
  6
Continuous
 62
     7
370
    30
100
AcDbLine
 10
116.5220946838
 20
65.1116246051
 30
0.0
 11
116.5333058324
 21
65.1280511063
 31
0.0
  0
LINE
  5
2E1
330
1F
100
AcDbEntity
  8
0
  6
Continuous
 62
     7
370
    30
100
AcDbLine
 10
116.3686469013
 20
65.2002081244
 30
0.0
 11
116.3798580499
 21
65.2166346256
 31
0.0
  0
LINE
  5
2E2
330
1F
100
AcDbEntity
  8
0
  6
Continuous
 62
     7
370
    30
100
AcDbLine
 10
116.8028783809
 20
64.9007245143
 30
0.0
 11
116.8133910624
 21
64.9177169222
 31
0.0
  0
LINE
  5
2E3
330
1F
100
AcDbEntity
  8
0
  6
Continuous
 62
     7
370
    30
100
AcDbLine
 10
115.5258584428
 20
65.6867395454
 30
0.0
 11
115.5370695913
 21
65.7031660466
 31
0.0
  0
LINE
  5
2E4
330
1F
100
AcDbEntity
  8
0
  6
Continuous
 62
     7
370
    30
100
AcDbLine
 10
115.4278350639
 20
65.7161915335
 30
0.0
 11
115.4387388106
 21
65.7328859463
 31
0.0
  0
LWPOLYLINE
  5
2E5
330
1F
100
AcDbEntity
  8
0
  6
Continuous
 62
     7
370
    30
100
AcDbPolyline
 90
       21
 70
   128
 43
0.0
 10
111.808180274
 20
78.989316568
 10
111.3691135277
 20
78.7057598174
 10
110.9362103161
 20
78.3660057557
 10
110.5155476514
 20
77.9748237851
 10
110.1130307152
 20
77.5377052429
 10
109.7343099629
 20
77.0607863155
 10
109.3847018039
 20
76.550761899
 10
109.0691139702
 20
76.0147916183
 10
108.7919766234
 20
75.4603993212
 10
108.5571801642
 20
74.8953674605
 10
108.3680206203
 20
74.3276278448
 10
108.2271533769
 20
73.7651502939
 10
108.1365559015
 20
73.2158307596
 10
108.097499984
 20
72.687380484
 10
108.1105338839
 20
72.1872177506
 10
108.1754746337
 20
71.7223637479
 10
108.2914106077
 20
71.299344007
 10
108.456714319
 20
70.9240967979
 10
108.6690652658
 20
70.6018897688
 10
108.9254825063
 20
70.3372460001
 10
109.1833936008
 20
70.1557207781
  0
ARC
  5
2E6
330
1F
100
AcDbEntity
  8
0
  6
Continuous
 62
     7
370
    30
100
AcDbCircle
 10
113.3519525038
 20
76.7826846122
 30
0.0
 40
2.693038671475082
100
AcDbArc
 50
66.3336043924
 51
124.9768540367
  0
LWPOLYLINE
  5
2E7
330
1F
100
AcDbEntity
  8
0
  6
Continuous
 62
     7
370
    30
100
AcDbPolyline
 90
       17
 70
   128
 43
0.0
 10
111.1010734928
 20
78.8667690962
 10
110.6851285751
 20
78.595811778
 10
110.2760134615
 20
78.2676287146
 10
109.8804458108
 20
77.887608663
 10
109.5049208329
 20
77.4619915419
 10
109.1556046375
 20
76.9977659727
 10
108.838232987
 20
76.5025545263
 10
108.558017115
 20
75.984488561
 10
108.3195581584
 20
75.4520747056
 10
108.1267716067
 20
74.914055181
 10
107.9828230098
 20
74.3792642528
 10
107.8900759995
 20
73.8564831733
 10
107.8500534794
 20
73.3542959934
 10
107.8634126179
 20
72.8809486127
 10
107.9299340586
 20
72.4442133821
 10
108.048525521
 20
72.051261482
 10
108.158522214
 20
71.811316077
  0
ARC
  5
2E8
330
1F
100
AcDbEntity
  8
0
  6
Continuous
 62
     7
370
    30
100
AcDbCircle
 10
112.6682347619
 20
76.3470875667
 30
0.0
 40
2.967286547308522
100
AcDbArc
 50
93.5067357463
 51
121.8802899133
  0
LWPOLYLINE
  5
2E9
330
1F
100
AcDbEntity
  8
0
  6
Continuous
 62
     7
370
    30
100
AcDbPolyline
 90
       18
 70
   128
 43
0.0
 10
111.1010734928
 20
78.989250218
 10
110.6801095908
 20
78.7156492563
 10
110.2657845411
 20
78.3851957973
 10
109.864632497
 20
78.0031012896
 10
109.4829798661
 20
77.5753915918
 10
109.1268455383
 20
77.1088119413
 10
108.8018459647
 20
76.610720578
 10
108.5131065827
 20
76.0889727001
 10
108.2651809849
 20
75.5517965834
 10
108.0619791059
 20
75.0076638161
 10
107.906705561
 20
74.4651556971
 10
107.8018091065
 20
73.9328279034
 10
107.7489440223
 20
73.4190755624
 10
107.7489440223
 20
72.9320008554
 10
107.8018091065
 20
72.4792852414
 10
107.906705561
 20
72.0680683161
 10
108.0619791059
 20
71.7048352162
 10
108.2557785255
 20
71.4070948887
  0
ARC
  5
2EA
330
1F
100
AcDbEntity
  8
0
  6
Continuous
 62
     7
370
    30
100
AcDbCircle
 10
112.6267523909
 20
76.6241771661
 30
0.0
 40
2.814474487497062
100
AcDbArc
 50
84.7267020855
 51
122.8255535855
  0
ENDSEC
  0
SECTION
  2
OBJECTS
  0
DICTIONARY
  5
C
330
0
100
AcDbDictionary
281
     1
  3
ACAD_GROUP
350
D
  3
ACAD_LAYOUT
350
1A
  3
ACAD_MLINESTYLE
350
17
  3
ACAD_PLOTSETTINGS
350
19
  3
ACAD_PLOTSTYLENAME
350
E
  3
ACAD_SCALELIST
350
47
  0
DICTIONARY
  5
D
102
{ACAD_REACTORS
330
C
102
}
330
C
100
AcDbDictionary
281
     1
  0
DICTIONARY
  5
1A
102
{ACAD_REACTORS
330
C
102
}
330
C
100
AcDbDictionary
281
     1
  3
Layout1
350
1E
  3
Layout2
350
26
  3
Model
350
22
  0
DICTIONARY
  5
17
102
{ACAD_REACTORS
330
C
102
}
330
C
100
AcDbDictionary
281
     1
  3
Standard
350
18
  0
DICTIONARY
  5
19
102
{ACAD_REACTORS
330
C
102
}
330
C
100
AcDbDictionary
281
     1
  0
ACDBDICTIONARYWDFLT
  5
E
102
{ACAD_REACTORS
330
C
102
}
330
C
100
AcDbDictionary
281
     1
  3
Normal
350
F
100
AcDbDictionaryWithDefault
340
F
  0
DICTIONARY
  5
47
102
{ACAD_REACTORS
330
C
102
}
330
C
100
AcDbDictionary
281
     1
  3
A0
350
48
  3
A1
350
49
  3
A2
350
4A
  3
A3
350
4B
  3
A4
350
4C
  3
A5
350
4D
  3
A6
350
4E
  3
A7
350
4F
  3
A8
350
50
  3
A9
350
51
  3
B0
350
52
  3
B1
350
53
  3
B2
350
54
  3
B3
350
55
  3
B4
350
56
  3
B5
350
57
  3
B6
350
58
  3
B7
350
59
  3
B8
350
5A
  3
B9
350
5B
  3
C0
350
5C
  3
C1
350
5D
  3
C2
350
5E
  3
C3
350
5F
  3
C4
350
60
  3
C5
350
61
  3
C6
350
62
  3
C7
350
63
  3
C8
350
64
  3
C9
350
65
  3
D0
350
66
  3
D1
350
67
  3
D2
350
68
  0
LAYOUT
  5
1E
102
{ACAD_REACTORS
330
1A
102
}
330
1A
100
AcDbPlotSettings
  1

  2
none_device
  4

  6

 40
0.0
 41
0.0
 42
0.0
 43
0.0
 44
0.0
 45
0.0
 46
0.0
 47
0.0
 48
0.0
 49
0.0
140
0.0
141
0.0
142
1.0
143
1.0
 70
   688
 72
     1
 73
     0
 74
     5
  7

 75
    16
147
1.0
148
0.0
149
0.0
100
AcDbLayout
  1
Layout1
 70
     1
 71
     1
 10
0.0
 20
0.0
 11
420.0
 21
297.0
 12
0.0
 22
0.0
 32
0.0
 14
1.0000000000E+20
 24
1.0000000000E+20
 34
1.0000000000E+20
 15
-1.0000000000E+20
 25
-1.0000000000E+20
 35
-1.0000000000E+20
146
0.0
 13
0.0
 23
0.0
 33
0.0
 16
1.0
 26
0.0
 36
0.0
 17
0.0
 27
1.0
 37
0.0
 76
     0
330
1B
  0
LAYOUT
  5
26
102
{ACAD_REACTORS
330
1A
102
}
330
1A
100
AcDbPlotSettings
  1

  2
none_device
  4

  6

 40
0.0
 41
0.0
 42
0.0
 43
0.0
 44
0.0
 45
0.0
 46
0.0
 47
0.0
 48
0.0
 49
0.0
140
0.0
141
0.0
142
1.0
143
1.0
 70
   688
 72
     1
 73
     0
 74
     5
  7

 75
    16
147
1.0
148
0.0
149
0.0
100
AcDbLayout
  1
Layout2
 70
     1
 71
     2
 10
0.0
 20
0.0
 11
0.0
 21
0.0
 12
0.0
 22
0.0
 32
0.0
 14
0.0
 24
0.0
 34
0.0
 15
0.0
 25
0.0
 35
0.0
146
0.0
 13
0.0
 23
0.0
 33
0.0
 16
1.0
 26
0.0
 36
0.0
 17
0.0
 27
1.0
 37
0.0
 76
     0
330
23
  0
LAYOUT
  5
22
102
{ACAD_REACTORS
330
1A
102
}
330
1A
100
AcDbPlotSettings
  1

  2
none_device
  4
Letter_(8.50_x_11.00_Inches)
  6

 40
6.35
 41
6.35
 42
6.35000508
 43
6.35000508
 44
215.9
 45
279.4
 46
0.0
 47
0.0
 48
0.0
 49
0.0
140
0.0
141
0.0
142
1.0
143
1.0
 70
  1712
 72
     1
 73
     0
 74
     0
  7

 75
     0
147
1.0
148
0.0
149
0.0
100
AcDbLayout
  1
Model
 70
     1
 71
     0
 10
0.0
 20
0.0
 11
148.5
 21
105.0
 12
0.0
 22
0.0
 32
0.0
 14
0.0
 24
0.0
 34
0.0
 15
148.5
 25
105.0
 35
0.0
146
0.0
 13
0.0
 23
0.0
 33
0.0
 16
1.0
 26
0.0
 36
0.0
 17
0.0
 27
1.0
 37
0.0
 76
     0
330
1F
331
29
  0
MLINESTYLE
  5
18
102
{ACAD_REACTORS
330
17
102
}
330
17
100
AcDbMlineStyle
  2
Standard
 70
     0
  3

 62
   256
 51
90.0
 52
90.0
 71
     2
 49
0.5
 62
   256
  6
BYLAYER
 49
-0.5
 62
   256
  6
BYLAYER
  0
ACDBPLACEHOLDER
  5
F
102
{ACAD_REACTORS
330
E
102
}
330
E
  0
SCALE
  5
48
102
{ACAD_REACTORS
330
47
102
}
330
47
100
AcDbScale
 70
     0
300
1:1
140
1.0
141
1.0
290
     1
  0
SCALE
  5
49
102
{ACAD_REACTORS
330
47
102
}
330
47
100
AcDbScale
 70
     0
300
1:2
140
1.0
141
2.0
290
     0
  0
SCALE
  5
4A
102
{ACAD_REACTORS
330
47
102
}
330
47
100
AcDbScale
 70
     0
300
1:4
140
1.0
141
4.0
290
     0
  0
SCALE
  5
4B
102
{ACAD_REACTORS
330
47
102
}
330
47
100
AcDbScale
 70
     0
300
1:5
140
1.0
141
5.0
290
     0
  0
SCALE
  5
4C
102
{ACAD_REACTORS
330
47
102
}
330
47
100
AcDbScale
 70
     0
300
1:8
140
1.0
141
8.0
290
     0
  0
SCALE
  5
4D
102
{ACAD_REACTORS
330
47
102
}
330
47
100
AcDbScale
 70
     0
300
1:10
140
1.0
141
10.0
290
     0
  0
SCALE
  5
4E
102
{ACAD_REACTORS
330
47
102
}
330
47
100
AcDbScale
 70
     0
300
1:16
140
1.0
141
16.0
290
     0
  0
SCALE
  5
4F
102
{ACAD_REACTORS
330
47
102
}
330
47
100
AcDbScale
 70
     0
300
1:20
140
1.0
141
20.0
290
     0
  0
SCALE
  5
50
102
{ACAD_REACTORS
330
47
102
}
330
47
100
AcDbScale
 70
     0
300
1:30
140
1.0
141
30.0
290
     0
  0
SCALE
  5
51
102
{ACAD_REACTORS
330
47
102
}
330
47
100
AcDbScale
 70
     0
300
1:40
140
1.0
141
40.0
290
     0
  0
SCALE
  5
52
102
{ACAD_REACTORS
330
47
102
}
330
47
100
AcDbScale
 70
     0
300
1:50
140
1.0
141
50.0
290
     0
  0
SCALE
  5
53
102
{ACAD_REACTORS
330
47
102
}
330
47
100
AcDbScale
 70
     0
300
1:100
140
1.0
141
100.0
290
     0
  0
SCALE
  5
54
102
{ACAD_REACTORS
330
47
102
}
330
47
100
AcDbScale
 70
     0
300
2:1
140
2.0
141
1.0
290
     0
  0
SCALE
  5
55
102
{ACAD_REACTORS
330
47
102
}
330
47
100
AcDbScale
 70
     0
300
4:1
140
4.0
141
1.0
290
     0
  0
SCALE
  5
56
102
{ACAD_REACTORS
330
47
102
}
330
47
100
AcDbScale
 70
     0
300
8:1
140
8.0
141
1.0
290
     0
  0
SCALE
  5
57
102
{ACAD_REACTORS
330
47
102
}
330
47
100
AcDbScale
 70
     0
300
10:1
140
10.0
141
1.0
290
     0
  0
SCALE
  5
58
102
{ACAD_REACTORS
330
47
102
}
330
47
100
AcDbScale
 70
     0
300
100:1
140
100.0
141
1.0
290
     0
  0
SCALE
  5
59
102
{ACAD_REACTORS
330
47
102
}
330
47
100
AcDbScale
 70
     0
300
1/128" = 1'-0"
140
0.0078125
141
12.0
290
     0
  0
SCALE
  5
5A
102
{ACAD_REACTORS
330
47
102
}
330
47
100
AcDbScale
 70
     0
300
1/64" = 1'-0"
140
0.015625
141
12.0
290
     0
  0
SCALE
  5
5B
102
{ACAD_REACTORS
330
47
102
}
330
47
100
AcDbScale
 70
     0
300
1/32" = 1'-0"
140
0.03125
141
12.0
290
     0
  0
SCALE
  5
5C
102
{ACAD_REACTORS
330
47
102
}
330
47
100
AcDbScale
 70
     0
300
1/16" = 1'-0"
140
0.0625
141
12.0
290
     0
  0
SCALE
  5
5D
102
{ACAD_REACTORS
330
47
102
}
330
47
100
AcDbScale
 70
     0
300
3/32" = 1'-0"
140
0.09375
141
12.0
290
     0
  0
SCALE
  5
5E
102
{ACAD_REACTORS
330
47
102
}
330
47
100
AcDbScale
 70
     0
300
1/8" = 1'-0"
140
0.125
141
12.0
290
     0
  0
SCALE
  5
5F
102
{ACAD_REACTORS
330
47
102
}
330
47
100
AcDbScale
 70
     0
300
3/16" = 1'-0"
140
0.1875
141
12.0
290
     0
  0
SCALE
  5
60
102
{ACAD_REACTORS
330
47
102
}
330
47
100
AcDbScale
 70
     0
300
1/4" = 1'-0"
140
0.25
141
12.0
290
     0
  0
SCALE
  5
61
102
{ACAD_REACTORS
330
47
102
}
330
47
100
AcDbScale
 70
     0
300
3/8" = 1'-0"
140
0.375
141
12.0
290
     0
  0
SCALE
  5
62
102
{ACAD_REACTORS
330
47
102
}
330
47
100
AcDbScale
 70
     0
300
1/2" = 1'-0"
140
0.5
141
12.0
290
     0
  0
SCALE
  5
63
102
{ACAD_REACTORS
330
47
102
}
330
47
100
AcDbScale
 70
     0
300
3/4" = 1'-0"
140
0.75
141
12.0
290
     0
  0
SCALE
  5
64
102
{ACAD_REACTORS
330
47
102
}
330
47
100
AcDbScale
 70
     0
300
1" = 1'-0"
140
1.0
141
12.0
290
     0
  0
SCALE
  5
65
102
{ACAD_REACTORS
330
47
102
}
330
47
100
AcDbScale
 70
     0
300
1-1/2" = 1'-0"
140
1.5
141
12.0
290
     0
  0
SCALE
  5
66
102
{ACAD_REACTORS
330
47
102
}
330
47
100
AcDbScale
 70
     0
300
3" = 1'-0"
140
3.0
141
12.0
290
     0
  0
SCALE
  5
67
102
{ACAD_REACTORS
330
47
102
}
330
47
100
AcDbScale
 70
     0
300
6" = 1'-0"
140
6.0
141
12.0
290
     0
  0
SCALE
  5
68
102
{ACAD_REACTORS
330
47
102
}
330
47
100
AcDbScale
 70
     0
300
1'-0" = 1'-0"
140
12.0
141
12.0
290
     0
  0
ENDSEC
  0
EOF
