  0
SECTION
  2
HEADER
  9
$ACADVER
  1
AC1015
  9
$ACADMAINTVER
 70
     6
  9
$DWGCODEPAGE
  3
ANSI_950
  9
$INSBASE
 10
0.0
 20
0.0
 30
0.0
  9
$EXTMIN
 10
0.0
 20
0.0
 30
0.0
  9
$EXTMAX
 10
148.5
 20
105.0
 30
0.0
  9
$LIMMIN
 10
0.0
 20
0.0
  9
$LIMMAX
 10
148.5
 20
105.0
  9
$ORTHOMODE
 70
     0
  9
$REGENMODE
 70
     1
  9
$FILLMODE
 70
     1
  9
$QTEXTMODE
 70
     0
  9
$MIRRTEXT
 70
     1
  9
$LTSCALE
 40
0.5
  9
$ATTMODE
 70
     1
  9
$TEXTSIZE
 40
1.5875
  9
$TRACEWID
 40
1.0
  9
$TEXTSTYLE
  7
Standard
  9
$CLAYER
  8
0
  9
$CELTYPE
  6
ByLayer
  9
$CECOLOR
 62
   256
  9
$CELTSCALE
 40
1.0
  9
$DISPSILH
 70
     0
  9
$DIMSCALE
 40
1.0
  9
$DIMASZ
 40
1.0
  9
$DIMEXO
 40
0.5
  9
$DIMDLI
 40
3.75
  9
$DIMRND
 40
0.0
  9
$DIMDLE
 40
0.0
  9
$DIMEXE
 40
0.5
  9
$DIMTP
 40
0.0
  9
$DIMTM
 40
0.0
  9
$DIMTXT
 40
1.5875
  9
$DIMCEN
 40
2.5
  9
$DIMTSZ
 40
0.0
  9
$DIMTOL
 70
     0
  9
$DIMLIM
 70
     0
  9
$DIMTIH
 70
     1
  9
$DIMTOH
 70
     1
  9
$DIMSE1
 70
     0
  9
$DIMSE2
 70
     0
  9
$DIMTAD
 70
     1
  9
$DIMZIN
 70
     0
  9
$DIMBLK
  1

  9
$DIMASO
 70
     1
  9
$DIMSHO
 70
     1
  9
$DIMPOST
  1

  9
$DIMAPOST
  1

  9
$DIMALT
 70
     0
  9
$DIMALTD
 70
     3
  9
$DIMALTF
 40
0.0393700787
  9
$DIMLFAC
 40
1.0
  9
$DIMTOFL
 70
     1
  9
$DIMTVP
 40
0.0
  9
$DIMTIX
 70
     0
  9
$DIMSOXD
 70
     0
  9
$DIMSAH
 70
     0
  9
$DIMBLK1
  1

  9
$DIMBLK2
  1

  9
$DIMSTYLE
  2
ISO-25
  9
$DIMCLRD
 70
     0
  9
$DIMCLRE
 70
     0
  9
$DIMCLRT
 70
     0
  9
$DIMTFAC
 40
1.0
  9
$DIMGAP
 40
0.5
  9
$DIMJUST
 70
     0
  9
$DIMSD1
 70
     0
  9
$DIMSD2
 70
     0
  9
$DIMTOLJ
 70
     0
  9
$DIMTZIN
 70
     0
  9
$DIMALTZ
 70
     0
  9
$DIMALTTZ
 70
     0
  9
$DIMUPT
 70
     0
  9
$DIMDEC
 70
     2
  9
$DIMTDEC
 70
     2
  9
$DIMALTU
 70
     2
  9
$DIMALTTD
 70
     3
  9
$DIMTXSTY
  7
Standard
  9
$DIMAUNIT
 70
     0
  9
$DIMADEC
 70
     2
  9
$DIMALTRND
 40
0.0
  9
$DIMAZIN
 70
     0
  9
$DIMDSEP
 70
    44
  9
$DIMATFIT
 70
     3
  9
$DIMFRAC
 70
     0
  9
$DIMLDRBLK
  1

  9
$DIMLUNIT
 70
     2
  9
$DIMLWD
 70
    -2
  9
$DIMLWE
 70
    -2
  9
$DIMTMOVE
 70
     0
  9
$LUNITS
 70
     2
  9
$LUPREC
 70
     2
  9
$SKETCHINC
 40
1.0
  9
$FILLETRAD
 40
10.0
  9
$AUNITS
 70
     0
  9
$AUPREC
 70
     2
  9
$MENU
  1
.
  9
$ELEVATION
 40
0.0
  9
$PELEVATION
 40
0.0
  9
$THICKNESS
 40
0.0
  9
$LIMCHECK
 70
     0
  9
$CHAMFERA
 40
0.0
  9
$CHAMFERB
 40
0.0
  9
$CHAMFERC
 40
0.0
  9
$CHAMFERD
 40
0.0
  9
$SKPOLY
 70
     0
  9
$TDCREATE
 40
2458136.487554213
  9
$TDUCREATE
 40
2458136.15422088
  9
$TDUPDATE
 40
2458136.487561609
  9
$TDUUPDATE
 40
2458136.154228276
  9
$TDINDWG
 40
0.0000000116
  9
$TDUSRTIMER
 40
0.0000000116
  9
$USRTIMER
 70
     1
  9
$ANGBASE
 50
0.0
  9
$ANGDIR
 70
     0
  9
$PDMODE
 70
     0
  9
$PDSIZE
 40
-1.0
  9
$PLINEWID
 40
0.0
  9
$SPLFRAME
 70
     0
  9
$SPLINETYPE
 70
     6
  9
$SPLINESEGS
 70
     8
  9
$HANDSEED
  5
3F7
  9
$SURFTAB1
 70
     6
  9
$SURFTAB2
 70
     6
  9
$SURFTYPE
 70
     6
  9
$SURFU
 70
     6
  9
$SURFV
 70
     6
  9
$UCSBASE
  2

  9
$UCSNAME
  2

  9
$UCSORG
 10
0.0
 20
0.0
 30
0.0
  9
$UCSXDIR
 10
1.0
 20
0.0
 30
0.0
  9
$UCSYDIR
 10
0.0
 20
1.0
 30
0.0
  9
$UCSORTHOREF
  2

  9
$UCSORTHOVIEW
 70
     0
  9
$UCSORGTOP
 10
0.0
 20
0.0
 30
0.0
  9
$UCSORGBOTTOM
 10
0.0
 20
0.0
 30
0.0
  9
$UCSORGLEFT
 10
0.0
 20
0.0
 30
0.0
  9
$UCSORGRIGHT
 10
0.0
 20
0.0
 30
0.0
  9
$UCSORGFRONT
 10
0.0
 20
0.0
 30
0.0
  9
$UCSORGBACK
 10
0.0
 20
0.0
 30
0.0
  9
$PUCSBASE
  2

  9
$PUCSNAME
  2

  9
$PUCSORG
 10
0.0
 20
0.0
 30
0.0
  9
$PUCSXDIR
 10
1.0
 20
0.0
 30
0.0
  9
$PUCSYDIR
 10
0.0
 20
1.0
 30
0.0
  9
$PUCSORTHOREF
  2

  9
$PUCSORTHOVIEW
 70
     0
  9
$PUCSORGTOP
 10
0.0
 20
0.0
 30
0.0
  9
$PUCSORGBOTTOM
 10
0.0
 20
0.0
 30
0.0
  9
$PUCSORGLEFT
 10
0.0
 20
0.0
 30
0.0
  9
$PUCSORGRIGHT
 10
0.0
 20
0.0
 30
0.0
  9
$PUCSORGFRONT
 10
0.0
 20
0.0
 30
0.0
  9
$PUCSORGBACK
 10
0.0
 20
0.0
 30
0.0
  9
$USERI1
 70
     0
  9
$USERI2
 70
     0
  9
$USERI3
 70
     0
  9
$USERI4
 70
     0
  9
$USERI5
 70
     0
  9
$USERR1
 40
0.0
  9
$USERR2
 40
0.0
  9
$USERR3
 40
0.0
  9
$USERR4
 40
0.0
  9
$USERR5
 40
0.0
  9
$WORLDVIEW
 70
     1
  9
$SHADEDGE
 70
     3
  9
$SHADEDIF
 70
    70
  9
$TILEMODE
 70
     1
  9
$MAXACTVP
 70
    64
  9
$PINSBASE
 10
0.0
 20
0.0
 30
0.0
  9
$PLIMCHECK
 70
     0
  9
$PEXTMIN
 10
1.0000000000E+20
 20
1.0000000000E+20
 30
1.0000000000E+20
  9
$PEXTMAX
 10
-1.0000000000E+20
 20
-1.0000000000E+20
 30
-1.0000000000E+20
  9
$PLIMMIN
 10
0.0
 20
0.0
  9
$PLIMMAX
 10
420.0
 20
297.0
  9
$UNITMODE
 70
     0
  9
$VISRETAIN
 70
     1
  9
$PLINEGEN
 70
     0
  9
$PSLTSCALE
 70
     1
  9
$TREEDEPTH
 70
  3020
  9
$CMLSTYLE
  2
Standard
  9
$CMLJUST
 70
     0
  9
$CMLSCALE
 40
20.0
  9
$PROXYGRAPHICS
 70
     1
  9
$MEASUREMENT
 70
     1
  9
$CELWEIGHT
370
    -1
  9
$ENDCAPS
280
     0
  9
$JOINSTYLE
280
     0
  9
$LWDISPLAY
290
     1
  9
$INSUNITS
 70
     4
  9
$HYPERLINKBASE
  1

  9
$STYLESHEET
  1

  9
$XEDIT
290
     1
  9
$CEPSNTYPE
380
     0
  9
$PSTYLEMODE
290
     1
  9
$FINGERPRINTGUID
  2
{0AD4182F-F7DB-437F-91D3-183FB5533027}
  9
$VERSIONGUID
  2
{FAEB1C32-E019-11D5-929B-00C0DF256EC4}
  9
$EXTNAMES
290
     1
  9
$PSVPSCALE
 40
0.0
  9
$OLESTARTUP
290
     0
  0
ENDSEC
  0
SECTION
  2
CLASSES
  0
CLASS
  1
ACDBDICTIONARYWDFLT
  2
AcDbDictionaryWithDefault
  3
ObjectDBX Classes
 90
        0
280
     0
281
     0
  0
CLASS
  1
VISUALSTYLE
  2
AcDbVisualStyle
  3
ObjectDBX Classes
 90
     4095
280
     0
281
     0
  0
CLASS
  1
MATERIAL
  2
AcDbMaterial
  3
ObjectDBX Classes
 90
     1153
280
     0
281
     0
  0
CLASS
  1
SCALE
  2
AcDbScale
  3
ObjectDBX Classes
 90
     1153
280
     0
281
     0
  0
CLASS
  1
TABLESTYLE
  2
AcDbTableStyle
  3
ObjectDBX Classes
 90
     4095
280
     0
281
     0
  0
CLASS
  1
MLEADERSTYLE
  2
AcDbMLeaderStyle
  3
ACDB_MLEADERSTYLE_CLASS
 90
     4095
280
     0
281
     0
  0
CLASS
  1
SUN
  2
AcDbSun
  3
SCENEOE
 90
     1153
280
     0
281
     0
  0
CLASS
  1
ACDBPLACEHOLDER
  2
AcDbPlaceHolder
  3
ObjectDBX Classes
 90
        0
280
     0
281
     0
  0
CLASS
  1
LAYOUT
  2
AcDbLayout
  3
ObjectDBX Classes
 90
        0
280
     0
281
     0
  0
ENDSEC
  0
SECTION
  2
TABLES
  0
TABLE
  2
VPORT
  5
8
330
0
100
AcDbSymbolTable
 70
     1
  0
VPORT
  5
29
330
8
100
AcDbSymbolTableRecord
100
AcDbViewportTableRecord
  2
*Active
 70
     0
 10
0.0
 20
0.0
 11
1.0
 21
1.0
 12
74.25
 22
52.5
 13
0.0
 23
0.0
 14
10.0
 24
10.0
 15
10.0
 25
10.0
 16
0.0
 26
0.0
 36
1.0
 17
0.0
 27
0.0
 37
0.0
 40
105.0
 41
1.4142857143
 42
50.0
 43
0.0
 44
0.0
 50
0.0
 51
0.0
 71
     0
 72
  2000
 73
     1
 74
     3
 75
     0
 76
     0
 77
     0
 78
     0
281
     0
 65
     1
110
0.0
120
0.0
130
0.0
111
1.0
121
0.0
131
0.0
112
0.0
122
1.0
132
0.0
 79
     0
146
0.0
  0
ENDTAB
  0
TABLE
  2
LTYPE
  5
5
330
0
100
AcDbSymbolTable
 70
     6
  0
LTYPE
  5
14
330
5
100
AcDbSymbolTableRecord
100
AcDbLinetypeTableRecord
  2
ByBlock
 70
     0
  3

 72
    65
 73
     0
 40
0.0
  0
LTYPE
  5
15
330
5
100
AcDbSymbolTableRecord
100
AcDbLinetypeTableRecord
  2
ByLayer
 70
     0
  3

 72
    65
 73
     0
 40
0.0
  0
LTYPE
  5
16
330
5
100
AcDbSymbolTableRecord
100
AcDbLinetypeTableRecord
  2
Continuous
 70
     0
  3
Solid line
 72
    65
 73
     0
 40
0.0
  0
LTYPE
  5
6E
330
5
100
AcDbSymbolTableRecord
100
AcDbLinetypeTableRecord
  2
HIDDEN
 70
     0
  3
Hidden __ __ __ __ __ __ __ __ __ __ __ __ __ __
 72
    65
 73
     2
 40
1.905
 49
1.27
 74
     0
 49
-0.635
 74
     0
  0
LTYPE
  5
6F
330
5
100
AcDbSymbolTableRecord
100
AcDbLinetypeTableRecord
  2
PHANTOM
 70
     0
  3
Phantom ______  __  __  ______  __  __  ______
 72
    65
 73
     6
 40
12.7
 49
6.35
 74
     0
 49
-1.27
 74
     0
 49
1.27
 74
     0
 49
-1.27
 74
     0
 49
1.27
 74
     0
 49
-1.27
 74
     0
  0
LTYPE
  5
70
330
5
100
AcDbSymbolTableRecord
100
AcDbLinetypeTableRecord
  2
CENTER
 70
     0
  3
Center ____ _ ____ _ ____ _ ____ _ ____ _ ____
 72
    65
 73
     4
 40
10.16
 49
6.35
 74
     0
 49
-1.27
 74
     0
 49
1.27
 74
     0
 49
-1.27
 74
     0
  0
LTYPE
  5
71
330
5
100
AcDbSymbolTableRecord
100
AcDbLinetypeTableRecord
  2
CENTERX2
 70
     0
  3
Center (2x) ________  __  ________  __  _____
 72
    65
 73
     4
 40
20.32
 49
12.7
 74
     0
 49
-2.54
 74
     0
 49
2.54
 74
     0
 49
-2.54
 74
     0
  0
LTYPE
  5
72
330
5
100
AcDbSymbolTableRecord
100
AcDbLinetypeTableRecord
  2
DOT2
 70
     0
  3
Dot (.5x) ........................................
 72
    65
 73
     2
 40
0.635
 49
0.0
 74
     0
 49
-0.635
 74
     0
  0
ENDTAB
  0
TABLE
  2
LAYER
  5
2
330
0
100
AcDbSymbolTable
 70
    10
  0
LAYER
  5
10
330
2
100
AcDbSymbolTableRecord
100
AcDbLayerTableRecord
  2
0
 70
     0
 62
     7
  6
Continuous
370
    -3
390
F
  0
LAYER
  5
73
330
2
100
AcDbSymbolTableRecord
100
AcDbLayerTableRecord
  2
SLD-0
 70
     0
 62
     7
  6
Continuous
370
    15
390
F
  0
LAYER
  5
74
330
2
100
AcDbSymbolTableRecord
100
AcDbLayerTableRecord
  2
輪廓線
 70
     0
 62
   219
  6
Continuous
370
    15
390
F
  0
LAYER
  5
75
330
2
100
AcDbSymbolTableRecord
100
AcDbLayerTableRecord
  2
DIM
 70
     0
 62
     7
  6
Continuous
370
    -3
390
F
  0
LAYER
  5
76
330
2
100
AcDbSymbolTableRecord
100
AcDbLayerTableRecord
  2
中心線
 70
     0
 62
     7
  6
CENTERX2
370
    -3
390
F
  0
LAYER
  5
77
330
2
100
AcDbSymbolTableRecord
100
AcDbLayerTableRecord
  2
虛線
 70
     0
 62
     7
  6
HIDDEN
370
    -3
390
F
  0
LAYER
  5
78
330
2
100
AcDbSymbolTableRecord
100
AcDbLayerTableRecord
  2
SECTION
 70
     0
 62
     7
  6
PHANTOM
370
    15
390
F
  0
LAYER
  5
79
330
2
100
AcDbSymbolTableRecord
100
AcDbLayerTableRecord
  2
假想線
 70
     0
 62
     7
  6
PHANTOM
370
    -3
390
F
  0
LAYER
  5
7A
330
2
100
AcDbSymbolTableRecord
100
AcDbLayerTableRecord
  2
圖層_1
 70
     0
 62
   179
  6
Continuous
370
    -3
390
F
  0
LAYER
  5
7B
330
2
100
AcDbSymbolTableRecord
100
AcDbLayerTableRecord
  2
工作區域參考線
 70
     0
 62
   179
  6
Continuous
370
    -3
390
F
  0
ENDTAB
  0
TABLE
  2
STYLE
  5
3
330
0
100
AcDbSymbolTable
 70
     3
  0
STYLE
  5
11
330
3
100
AcDbSymbolTableRecord
100
AcDbTextStyleTableRecord
  2
Standard
 70
     0
 40
0.0
 41
1.0
 50
0.0
 71
     0
 42
1.5875
  3
txt
  4

  0
STYLE
  5
CC
330
3
100
AcDbSymbolTableRecord
100
AcDbTextStyleTableRecord
  2
SLDTEXTSTYLE0
 70
     0
 40
0.0
 41
0.605
 50
0.0
 71
     0
 42
1.5875
  3
TXT
  4

  0
STYLE
  5
103
330
3
100
AcDbSymbolTableRecord
100
AcDbTextStyleTableRecord
  2
SLDTEXTSTYLE1
 70
     0
 40
0.0
 41
0.7
 50
0.0
 71
     0
 42
1.5875
  3
TXT
  4

  0
ENDTAB
  0
TABLE
  2
VIEW
  5
6
330
0
100
AcDbSymbolTable
 70
     0
  0
ENDTAB
  0
TABLE
  2
UCS
  5
7
330
0
100
AcDbSymbolTable
 70
     0
  0
ENDTAB
  0
TABLE
  2
APPID
  5
9
330
0
100
AcDbSymbolTable
 70
     1
  0
APPID
  5
12
330
9
100
AcDbSymbolTableRecord
100
AcDbRegAppTableRecord
  2
ACAD
 70
     0
  0
ENDTAB
  0
TABLE
  2
DIMSTYLE
  5
A
330
0
100
AcDbSymbolTable
 70
     2
100
AcDbDimStyleTable
  0
DIMSTYLE
105
27
330
A
100
AcDbSymbolTableRecord
100
AcDbDimStyleTableRecord
  2
ISO-25
 70
     0
 41
2.5
 42
0.625
 43
3.75
 44
1.25
 73
     0
 74
     0
 77
     1
 78
     8
140
2.5
141
2.5
143
0.0393700787
147
0.625
171
     3
172
     1
178
     0
271
     2
272
     2
274
     3
278
    44
283
     0
284
     8
340
11
  0
DIMSTYLE
105
254
102
{ACAD_REACTORS
330
253
330
25F
330
26A
330
274
330
27E
330
288
330
292
102
}
330
A
100
AcDbSymbolTableRecord
100
AcDbDimStyleTableRecord
  2
SLDDIMSTYLE0
 70
     0
 41
1.0
 44
0.0
 45
0.000000001
 73
     0
 74
     0
 77
     1
 78
    12
 79
     3
140
1.2712402344
147
0.3178100586
173
     1
178
     0
271
     2
272
     2
276
     2
284
    12
340
103
  0
ENDTAB
  0
TABLE
  2
BLOCK_RECORD
  5
1
330
0
100
AcDbSymbolTable
 70
    11
  0
BLOCK_RECORD
  5
1F
330
1
100
AcDbSymbolTableRecord
100
AcDbBlockTableRecord
  2
*Model_Space
340
22
  0
BLOCK_RECORD
  5
1B
330
1
100
AcDbSymbolTableRecord
100
AcDbBlockTableRecord
  2
*Paper_Space
340
1E
  0
BLOCK_RECORD
  5
23
330
1
100
AcDbSymbolTableRecord
100
AcDbBlockTableRecord
  2
*Paper_Space0
340
26
  0
BLOCK_RECORD
  5
7C
330
1
100
AcDbSymbolTableRecord
100
AcDbBlockTableRecord
  2
圖塊6
340
0
102
{BLKREFS
331
CB
102
}
  0
BLOCK_RECORD
  5
CE
330
1
100
AcDbSymbolTableRecord
100
AcDbBlockTableRecord
  2
SW_NOTE_0
340
0
102
{BLKREFS
331
D4
102
}
  0
BLOCK_RECORD
  5
105
330
1
100
AcDbSymbolTableRecord
100
AcDbBlockTableRecord
  2
SW_NOTE_1
340
0
102
{BLKREFS
331
10A
102
}
  0
BLOCK_RECORD
  5
255
330
1
100
AcDbSymbolTableRecord
100
AcDbBlockTableRecord
  2
_D
340
0
  0
BLOCK_RECORD
  5
260
330
1
100
AcDbSymbolTableRecord
100
AcDbBlockTableRecord
  2
_D_1
340
0
  0
BLOCK_RECORD
  5
26B
330
1
100
AcDbSymbolTableRecord
100
AcDbBlockTableRecord
  2
_D_2
340
0
  0
BLOCK_RECORD
  5
275
330
1
100
AcDbSymbolTableRecord
100
AcDbBlockTableRecord
  2
_D_3
340
0
  0
BLOCK_RECORD
  5
27F
330
1
100
AcDbSymbolTableRecord
100
AcDbBlockTableRecord
  2
_D_4
340
0
  0
BLOCK_RECORD
  5
289
330
1
100
AcDbSymbolTableRecord
100
AcDbBlockTableRecord
  2
_D_5
340
0
  0
BLOCK_RECORD
  5
293
330
1
100
AcDbSymbolTableRecord
100
AcDbBlockTableRecord
  2
_D_6
340
0
  0
ENDTAB
  0
ENDSEC
  0
SECTION
  2
BLOCKS
  0
BLOCK
  5
20
330
1F
100
AcDbEntity
  8
0
100
AcDbBlockBegin
  2
*Model_Space
 70
     0
 10
0.0
 20
0.0
 30
0.0
  3
*Model_Space
  1

  0
ENDBLK
  5
21
330
1F
100
AcDbEntity
  8
0
100
AcDbBlockEnd
  0
BLOCK
  5
1C
330
1B
100
AcDbEntity
 67
     1
  8
0
100
AcDbBlockBegin
  2
*Paper_Space
 70
     0
 10
0.0
 20
0.0
 30
0.0
  3
*Paper_Space
  1

  0
ENDBLK
  5
1D
330
1B
100
AcDbEntity
 67
     1
  8
0
100
AcDbBlockEnd
  0
BLOCK
  5
24
330
23
100
AcDbEntity
  8
0
100
AcDbBlockBegin
  2
*Paper_Space0
 70
     0
 10
0.0
 20
0.0
 30
0.0
  3
*Paper_Space0
  1

  0
ENDBLK
  5
25
330
23
100
AcDbEntity
  8
0
100
AcDbBlockEnd
  0
BLOCK
  5
7D
330
7C
100
AcDbEntity
  8
0
100
AcDbBlockBegin
  2
圖塊6
 70
     0
 10
0.0
 20
0.0
 30
0.0
  3
圖塊6
  1

  0
ARC
  5
7F
330
7C
100
AcDbEntity
  8
圖層_1
 62
     7
370
    30
100
AcDbCircle
 10
0.765077217
 20
3.0510341446
 30
0.0
 40
0.765077216971835
100
AcDbArc
 50
130.2115225915
 51
228.588904108
  0
ARC
  5
80
330
7C
100
AcDbEntity
  8
圖層_1
 62
     7
370
    30
100
AcDbCircle
 10
2.4254567991
 20
2.9974727207
 30
0.0
 40
1.288667713408811
100
AcDbArc
 50
140.4331765613
 51
251.0865666567
  0
ARC
  5
81
330
7C
100
AcDbEntity
  8
圖層_1
 62
     7
370
    30
100
AcDbCircle
 10
2.5882520991
 20
3.1558779856
 30
0.0
 40
1.494818328884931
100
AcDbArc
 50
247.1485306747
 51
309.6030773927
  0
LINE
  5
82
330
7C
100
AcDbEntity
  8
圖層_1
 62
     7
370
    30
100
AcDbLine
 10
0.9244488634
 20
4.2660912992
 30
0.0
 11
0.271134736
 21
3.6352977609
 31
0.0
  0
LINE
  5
83
330
7C
100
AcDbEntity
  8
圖層_1
 62
     7
370
    30
100
AcDbLine
 10
0.259011445
 20
2.4772392488
 30
0.0
 11
2.2636126001
 21
0.7349373287
 31
0.0
  0
LINE
  5
84
330
7C
100
AcDbEntity
  8
圖層_1
 62
     7
370
    30
100
AcDbLine
 10
2.2636126001
 20
0.7349373287
 30
0.0
 11
1.9480866399
 21
0.4269871335
 31
0.0
  0
LINE
  5
85
330
7C
100
AcDbEntity
  8
圖層_1
 62
     7
370
    30
100
AcDbLine
 10
1.9480866399
 20
0.4269871335
 30
0.0
 11
2.4440263222
 21
0.0
 31
0.0
  0
LINE
  5
86
330
7C
100
AcDbEntity
  8
圖層_1
 62
     7
370
    30
100
AcDbLine
 10
4.0488585394
 20
1.5582889828
 30
0.0
 11
3.5411470236
 21
2.0041518466
 31
0.0
  0
LINE
  5
87
330
7C
100
AcDbEntity
  8
圖層_1
 62
     7
370
    30
100
AcDbLine
 10
1.4320457871
 20
3.8183253488
 30
0.0
 11
0.9244488634
 21
4.2660912992
 31
0.0
  0
LINE
  5
88
330
7C
100
AcDbEntity
  8
圖層_1
 62
     7
370
    30
100
AcDbLine
 10
2.4440263222
 20
0.0
 30
0.0
 11
4.0488585394
 21
1.5582889828
 31
0.0
  0
ENDBLK
  5
7E
330
7C
100
AcDbEntity
  8
0
100
AcDbBlockEnd
  0
BLOCK
  5
CF
330
CE
100
AcDbEntity
  8
0
100
AcDbBlockBegin
  2
SW_NOTE_0
 70
     0
 10
0.0
 20
0.0
 30
0.0
  3
SW_NOTE_0
  1

  0
MTEXT
  5
D1
330
CE
100
AcDbEntity
  8
0
  6
Continuous
 62
     0
370
     0
100
AcDbMText
 10
0.0
 20
1.7053291974
 30
0.0
 40
1.3229166667
 41
0.0
 71
     1
 72
     1
  1
PROPRIETARY AND CONFIDENTIAL
  7
SLDTEXTSTYLE0
 73
     1
 44
1.0
  0
MTEXT
  5
D2
330
CE
100
AcDbEntity
  8
0
  6
Continuous
 62
     0
370
     0
100
AcDbMText
 10
0.0
 20
-0.04099174
 30
0.0
 40
0.9260416667
 41
0.0
 71
     1
 72
     1
  1
THE INFORMATION CONTAINED IN THIS DRAWING IS THE SOLE PROPERTY OF UNICE E-O SERVICES INC. ANY REPRODUCTION IN PART OR AS A WHOLE WITHOUT THE WRITTEN PERMISSION OF UNICE E-O SERVICES INC IS
  7
SLDTEXTSTYLE0
 73
     1
 44
1.0
  0
MTEXT
  5
D3
330
CE
100
AcDbEntity
  8
0
  6
Continuous
 62
     0
370
     0
100
AcDbMText
 10
0.0
 20
-1.2757139473
 30
0.0
 40
0.9260416667
 41
0.0
 71
     1
 72
     1
  1
PROHIBITED.
  7
SLDTEXTSTYLE0
 73
     1
 44
1.0
  0
ENDBLK
  5
D0
330
CE
100
AcDbEntity
  8
0
100
AcDbBlockEnd
  0
BLOCK
  5
106
330
105
100
AcDbEntity
  8
0
100
AcDbBlockBegin
  2
SW_NOTE_1
 70
     0
 10
0.0
 20
0.0
 30
0.0
  3
SW_NOTE_1
  1

  0
MTEXT
  5
108
330
105
100
AcDbEntity
  8
SLD-0
 62
     0
100
AcDbMText
 10
0.0
 20
1.0231975184
 30
0.0
 40
0.79375
 41
0.0
 71
     1
 72
     1
  1
No.5, Andong Rd., Chung Li District,
  7
SLDTEXTSTYLE0
 73
     1
 44
1.0
  0
MTEXT
  5
109
330
105
100
AcDbEntity
  8
SLD-0
 62
     0
100
AcDbMText
 10
0.0
 20
-0.0351358021
 30
0.0
 40
0.79375
 41
0.0
 71
     1
 72
     1
  1
Taoyuan City 32063, Taiwan, R.O.C.
  7
SLDTEXTSTYLE0
 73
     1
 44
1.0
  0
ENDBLK
  5
107
330
105
100
AcDbEntity
  8
0
100
AcDbBlockEnd
  0
BLOCK
  5
256
330
255
100
AcDbEntity
  8
0
100
AcDbBlockBegin
  2
_D
 70
     0
 10
0.0
 20
0.0
 30
0.0
  3
_D
  1

  0
SOLID
  5
258
330
255
100
AcDbEntity
  8
DIM
100
AcDbTrace
 10
27.6677287899
 20
49.5549448294
 30
0.0
 11
27.5427287899
 21
48.5549448294
 31
0.0
 12
27.7927287899
 22
48.5549448294
 32
0.0
 13
27.7927287899
 23
48.5549448294
 33
0.0
  0
SOLID
  5
259
330
255
100
AcDbEntity
  8
DIM
100
AcDbTrace
 10
27.6677287899
 20
44.5549448294
 30
0.0
 11
27.7927287899
 21
45.5549448294
 31
0.0
 12
27.5427287899
 22
45.5549448294
 32
0.0
 13
27.5427287899
 23
45.5549448294
 33
0.0
  0
LINE
  5
25A
330
255
100
AcDbEntity
  8
DIM
100
AcDbLine
 10
31.2677287899
 20
49.5549448294
 30
0.0
 11
27.1677287899
 21
49.5549448294
 31
0.0
  0
LINE
  5
25B
330
255
100
AcDbEntity
  8
DIM
100
AcDbLine
 10
31.2677287899
 20
44.5549448294
 30
0.0
 11
27.1677287899
 21
44.5549448294
 31
0.0
  0
LINE
  5
25C
330
255
100
AcDbEntity
  8
DIM
100
AcDbLine
 10
27.6677287899
 20
49.5549448294
 30
0.0
 11
27.6677287899
 21
44.5549448294
 31
0.0
  0
MTEXT
  5
25D
330
255
100
AcDbEntity
  8
DIM
100
AcDbMText
 10
26.132932454
 20
45.9282608138
 30
0.0
 40
1.190625
 41
0.0
 71
     1
 72
     1
  1
%%c
  7
SLDTEXTSTYLE1
 11
-1.770233605404514E-14
 21
1.0
 31
0.0
 73
     1
 44
1.0
  0
MTEXT
  5
25E
330
255
100
AcDbEntity
  8
DIM
100
AcDbMText
 10
26.132932454
 20
47.4363858014
 30
0.0
 40
1.190625
 41
0.0
 71
     1
 72
     1
  1
5
  7
SLDTEXTSTYLE1
 11
-1.770233605404514E-14
 21
1.0
 31
0.0
 73
     1
 44
1.0
  0
ENDBLK
  5
257
330
255
100
AcDbEntity
  8
0
100
AcDbBlockEnd
  0
BLOCK
  5
261
330
260
100
AcDbEntity
  8
0
100
AcDbBlockBegin
  2
_D_1
 70
     0
 10
0.0
 20
0.0
 30
0.0
  3
_D_1
  1

  0
SOLID
  5
263
330
260
100
AcDbEntity
  8
DIM
100
AcDbTrace
 10
25.1677287899
 20
51.8049448294
 30
0.0
 11
25.0427287899
 21
50.8049448294
 31
0.0
 12
25.2927287899
 22
50.8049448294
 32
0.0
 13
25.2927287899
 23
50.8049448294
 33
0.0
  0
SOLID
  5
264
330
260
100
AcDbEntity
  8
DIM
100
AcDbTrace
 10
25.1677287899
 20
42.3049448294
 30
0.0
 11
25.2927287899
 21
43.3049448294
 31
0.0
 12
25.0427287899
 22
43.3049448294
 32
0.0
 13
25.0427287899
 23
43.3049448294
 33
0.0
  0
LINE
  5
265
330
260
100
AcDbEntity
  8
DIM
100
AcDbLine
 10
48.3677287899
 20
51.8049448294
 30
0.0
 11
24.6677287899
 21
51.8049448294
 31
0.0
  0
LINE
  5
266
330
260
100
AcDbEntity
  8
DIM
100
AcDbLine
 10
48.3677287899
 20
42.3049448294
 30
0.0
 11
24.6677287899
 21
42.3049448294
 31
0.0
  0
LINE
  5
267
330
260
100
AcDbEntity
  8
DIM
100
AcDbLine
 10
25.1677287899
 20
51.8049448294
 30
0.0
 11
25.1677287899
 21
42.3049448294
 31
0.0
  0
MTEXT
  5
268
330
260
100
AcDbEntity
  8
DIM
100
AcDbMText
 10
23.632932454
 20
45.369328502
 30
0.0
 40
1.190625
 41
0.0
 71
     1
 72
     1
  1
%%c
  7
SLDTEXTSTYLE1
 11
-1.770233605404514E-14
 21
1.0
 31
0.0
 73
     1
 44
1.0
  0
MTEXT
  5
269
330
260
100
AcDbEntity
  8
DIM
100
AcDbMText
 10
23.632932454
 20
46.8774534896
 30
0.0
 40
1.190625
 41
0.0
 71
     1
 72
     1
  1
9.5
  7
SLDTEXTSTYLE1
 11
-1.770233605404514E-14
 21
1.0
 31
0.0
 73
     1
 44
1.0
  0
ENDBLK
  5
262
330
260
100
AcDbEntity
  8
0
100
AcDbBlockEnd
  0
BLOCK
  5
26C
330
26B
100
AcDbEntity
  8
0
100
AcDbBlockBegin
  2
_D_2
 70
     0
 10
0.0
 20
0.0
 30
0.0
  3
_D_2
  1

  0
SOLID
  5
26E
330
26B
100
AcDbEntity
  8
DIM
100
AcDbTrace
 10
31.1677287899
 20
37.0549448294
 30
0.0
 11
32.1677287899
 21
36.9299448294
 31
0.0
 12
32.1677287899
 22
37.1799448294
 32
0.0
 13
32.1677287899
 23
37.1799448294
 33
0.0
  0
SOLID
  5
26F
330
26B
100
AcDbEntity
  8
DIM
100
AcDbTrace
 10
48.6677287899
 20
37.0549448294
 30
0.0
 11
47.6677287899
 21
37.1799448294
 31
0.0
 12
47.6677287899
 22
36.9299448294
 32
0.0
 13
47.6677287899
 23
36.9299448294
 33
0.0
  0
LINE
  5
270
330
26B
100
AcDbEntity
  8
DIM
100
AcDbLine
 10
31.1677287899
 20
46.5549448294
 30
0.0
 11
31.1677287899
 21
36.5549448294
 31
0.0
  0
LINE
  5
271
330
26B
100
AcDbEntity
  8
DIM
100
AcDbLine
 10
48.6677287899
 20
42.0049448294
 30
0.0
 11
48.6677287899
 21
36.5549448294
 31
0.0
  0
LINE
  5
272
330
26B
100
AcDbEntity
  8
DIM
100
AcDbLine
 10
31.1677287899
 20
37.0549448294
 30
0.0
 11
48.6677287899
 21
37.0549448294
 31
0.0
  0
MTEXT
  5
273
330
26B
100
AcDbEntity
  8
DIM
100
AcDbMText
 10
38.6135535508
 20
38.5897410489
 30
0.0
 40
1.190625
 41
0.0
 71
     1
 72
     1
  1
17.5
  7
SLDTEXTSTYLE1
 73
     1
 44
1.0
  0
ENDBLK
  5
26D
330
26B
100
AcDbEntity
  8
0
100
AcDbBlockEnd
  0
BLOCK
  5
276
330
275
100
AcDbEntity
  8
0
100
AcDbBlockBegin
  2
_D_3
 70
     0
 10
0.0
 20
0.0
 30
0.0
  3
_D_3
  1

  0
SOLID
  5
278
330
275
100
AcDbEntity
  8
DIM
100
AcDbTrace
 10
48.6677287899
 20
37.0549448294
 30
0.0
 11
49.6677287899
 21
36.9299448294
 31
0.0
 12
49.6677287899
 22
37.1799448294
 32
0.0
 13
49.6677287899
 23
37.1799448294
 33
0.0
  0
SOLID
  5
279
330
275
100
AcDbEntity
  8
DIM
100
AcDbTrace
 10
57.2677287899
 20
37.0549448294
 30
0.0
 11
56.2677287899
 21
37.1799448294
 31
0.0
 12
56.2677287899
 22
36.9299448294
 32
0.0
 13
56.2677287899
 23
36.9299448294
 33
0.0
  0
LINE
  5
27A
330
275
100
AcDbEntity
  8
DIM
100
AcDbLine
 10
48.6677287899
 20
42.0049448294
 30
0.0
 11
48.6677287899
 21
36.5549448294
 31
0.0
  0
LINE
  5
27B
330
275
100
AcDbEntity
  8
DIM
100
AcDbLine
 10
57.2677287899
 20
41.8049448294
 30
0.0
 11
57.2677287899
 21
36.5549448294
 31
0.0
  0
LINE
  5
27C
330
275
100
AcDbEntity
  8
DIM
100
AcDbLine
 10
48.6677287899
 20
37.0549448294
 30
0.0
 11
57.2677287899
 21
37.0549448294
 31
0.0
  0
MTEXT
  5
27D
330
275
100
AcDbEntity
  8
DIM
100
AcDbMText
 10
52.0361749562
 20
38.5897410489
 30
0.0
 40
1.190625
 41
0.0
 71
     1
 72
     1
  1
8.6
  7
SLDTEXTSTYLE1
 73
     1
 44
1.0
  0
ENDBLK
  5
277
330
275
100
AcDbEntity
  8
0
100
AcDbBlockEnd
  0
BLOCK
  5
280
330
27F
100
AcDbEntity
  8
0
100
AcDbBlockBegin
  2
_D_4
 70
     0
 10
0.0
 20
0.0
 30
0.0
  3
_D_4
  1

  0
SOLID
  5
282
330
27F
100
AcDbEntity
  8
DIM
100
AcDbTrace
 10
57.2677287899
 20
37.0549448294
 30
0.0
 11
58.2677287899
 21
36.9299448294
 31
0.0
 12
58.2677287899
 22
37.1799448294
 32
0.0
 13
58.2677287899
 23
37.1799448294
 33
0.0
  0
SOLID
  5
283
330
27F
100
AcDbEntity
  8
DIM
100
AcDbTrace
 10
89.6677180914
 20
37.0549448294
 30
0.0
 11
88.6677180914
 21
37.1799448294
 31
0.0
 12
88.6677180914
 22
36.9299448294
 32
0.0
 13
88.6677180914
 23
36.9299448294
 33
0.0
  0
LINE
  5
284
330
27F
100
AcDbEntity
  8
DIM
100
AcDbLine
 10
57.2677287899
 20
41.8049448294
 30
0.0
 11
57.2677287899
 21
36.5549448294
 31
0.0
  0
LINE
  5
285
330
27F
100
AcDbEntity
  8
DIM
100
AcDbLine
 10
89.6677180914
 20
46.5549448294
 30
0.0
 11
89.6677180914
 21
36.5549448294
 31
0.0
  0
LINE
  5
286
330
27F
100
AcDbEntity
  8
DIM
100
AcDbLine
 10
57.2677287899
 20
37.0549448294
 30
0.0
 11
89.6677180914
 21
37.0549448294
 31
0.0
  0
MTEXT
  5
287
330
27F
100
AcDbEntity
  8
DIM
100
AcDbMText
 10
72.1635482016
 20
38.5897410489
 30
0.0
 40
1.190625
 41
0.0
 71
     1
 72
     1
  1
32.4
  7
SLDTEXTSTYLE1
 73
     1
 44
1.0
  0
ENDBLK
  5
281
330
27F
100
AcDbEntity
  8
0
100
AcDbBlockEnd
  0
BLOCK
  5
28A
330
289
100
AcDbEntity
  8
0
100
AcDbBlockBegin
  2
_D_5
 70
     0
 10
0.0
 20
0.0
 30
0.0
  3
_D_5
  1

  0
SOLID
  5
28C
330
289
100
AcDbEntity
  8
DIM
100
AcDbTrace
 10
31.1677287899
 20
34.5549448294
 30
0.0
 11
32.1677287899
 21
34.4299448294
 31
0.0
 12
32.1677287899
 22
34.6799448294
 32
0.0
 13
32.1677287899
 23
34.6799448294
 33
0.0
  0
SOLID
  5
28D
330
289
100
AcDbEntity
  8
DIM
100
AcDbTrace
 10
89.6677180914
 20
34.5549448294
 30
0.0
 11
88.6677180914
 21
34.6799448294
 31
0.0
 12
88.6677180914
 22
34.4299448294
 32
0.0
 13
88.6677180914
 23
34.4299448294
 33
0.0
  0
LINE
  5
28E
330
289
100
AcDbEntity
  8
DIM
100
AcDbLine
 10
31.1677287899
 20
46.5549448294
 30
0.0
 11
31.1677287899
 21
34.0549448294
 31
0.0
  0
LINE
  5
28F
330
289
100
AcDbEntity
  8
DIM
100
AcDbLine
 10
89.6677180914
 20
46.5549448294
 30
0.0
 11
89.6677180914
 21
34.0549448294
 31
0.0
  0
LINE
  5
290
330
289
100
AcDbEntity
  8
DIM
100
AcDbLine
 10
31.1677287899
 20
34.5549448294
 30
0.0
 11
89.6677180914
 21
34.5549448294
 31
0.0
  0
MTEXT
  5
291
330
289
100
AcDbEntity
  8
DIM
100
AcDbMText
 10
59.1135482016
 20
36.0897410489
 30
0.0
 40
1.190625
 41
0.0
 71
     1
 72
     1
  1
58.5
  7
SLDTEXTSTYLE1
 73
     1
 44
1.0
  0
ENDBLK
  5
28B
330
289
100
AcDbEntity
  8
0
100
AcDbBlockEnd
  0
BLOCK
  5
294
330
293
100
AcDbEntity
  8
0
100
AcDbBlockBegin
  2
_D_6
 70
     0
 10
0.0
 20
0.0
 30
0.0
  3
_D_6
  1

  0
SOLID
  5
296
330
293
100
AcDbEntity
  8
DIM
100
AcDbTrace
 10
93.1677287899
 20
53.5549448294
 30
0.0
 11
93.0427287899
 21
52.5549448294
 31
0.0
 12
93.2927287899
 22
52.5549448294
 32
0.0
 13
93.2927287899
 23
52.5549448294
 33
0.0
  0
SOLID
  5
297
330
293
100
AcDbEntity
  8
DIM
100
AcDbTrace
 10
93.1677287899
 20
40.5549448294
 30
0.0
 11
93.2927287899
 21
41.5549448294
 31
0.0
 12
93.0427287899
 22
41.5549448294
 32
0.0
 13
93.0427287899
 23
41.5549448294
 33
0.0
  0
LINE
  5
298
330
293
100
AcDbEntity
  8
DIM
100
AcDbLine
 10
86.1677287899
 20
53.5549448294
 30
0.0
 11
93.6677287899
 21
53.5549448294
 31
0.0
  0
LINE
  5
299
330
293
100
AcDbEntity
  8
DIM
100
AcDbLine
 10
86.1677287899
 20
40.5549448294
 30
0.0
 11
93.6677287899
 21
40.5549448294
 31
0.0
  0
LINE
  5
29A
330
293
100
AcDbEntity
  8
DIM
100
AcDbLine
 10
93.1677287899
 20
53.5549448294
 30
0.0
 11
93.1677287899
 21
40.5549448294
 31
0.0
  0
MTEXT
  5
29B
330
293
100
AcDbEntity
  8
DIM
100
AcDbMText
 10
91.632932454
 20
45.5556393502
 30
0.0
 40
1.190625
 41
0.0
 71
     1
 72
     1
  1
%%c
  7
SLDTEXTSTYLE1
 11
-1.770233605404514E-14
 21
1.0
 31
0.0
 73
     1
 44
1.0
  0
MTEXT
  5
29C
330
293
100
AcDbEntity
  8
DIM
100
AcDbMText
 10
91.632932454
 20
47.0637643378
 30
0.0
 40
1.190625
 41
0.0
 71
     1
 72
     1
  1
13
  7
SLDTEXTSTYLE1
 11
-1.770233605404514E-14
 21
1.0
 31
0.0
 73
     1
 44
1.0
  0
ENDBLK
  5
295
330
293
100
AcDbEntity
  8
0
100
AcDbBlockEnd
  0
ENDSEC
  0
SECTION
  2
ENTITIES
  0
HATCH
  5
89
330
1F
100
AcDbEntity
  8
0
  6
Continuous
 62
     7
100
AcDbHatch
 10
0.0
 20
0.0
 30
0.0
210
0.0
220
0.0
230
1.0
  2
SOLID
 70
     1
 71
     0
 91
        1
 92
        0
 93
       10
 72
     2
 10
96.07029828146834
 20
17.87790440494428
 40
1.494818328884929
 50
50.39692260731407
 51
112.8514693252983
 73
     0
 72
     2
 10
95.907502981406
 20
17.71949914003102
 40
1.288667713408809
 50
108.9134333432861
 51
219.5668234386827
 73
     0
 72
     1
 10
94.91409196948017
 20
18.54035176807505
 11
94.40649504577894
 21
18.98811771848393
 72
     1
 10
94.40649504577894
 20
18.98811771848393
 11
93.75318091833812
 21
18.35732418023018
 72
     2
 10
94.24712339931945
 20
17.77306056386223
 40
0.7650772169718307
 50
130.2115225915088
 51
228.5889041080191
 73
     1
 72
     1
 10
93.7410576273255
 20
17.19926566814989
 11
95.7456587824233
 21
15.45696374801255
 72
     1
 10
95.7456587824233
 20
15.45696374801255
 11
95.43013282221574
 21
15.14901355277703
 72
     1
 10
95.43013282221574
 20
15.14901355277703
 11
95.92607250457851
 21
14.72202641930012
 72
     1
 10
95.92607250457851
 20
14.72202641930012
 11
97.53090472176115
 21
16.28031540205786
 72
     1
 10
97.53090472176115
 20
16.28031540205786
 11
97.02319320593206
 21
16.72617826592441
 97
        0
 75
     0
 76
     1
 98
        1
 10
0.0
 20
0.0
  0
HATCH
  5
8A
330
1F
100
AcDbEntity
  8
0
  6
Continuous
 62
     1
100
AcDbHatch
 10
0.0
 20
0.0
 30
0.0
210
0.0
220
0.0
230
1.0
  2
SOLID
 70
     1
 71
     0
 91
        1
 92
        0
 93
       10
 72
     2
 10
96.29462278138442
 20
17.83153457815805
 40
1.288783744173125
 50
317.8184992995785
 51
398.0564711573078
 73
     0
 72
     1
 10
97.30941570290815
 20
17.03707950348723
 11
97.80214014939956
 21
16.60773103354249
 72
     1
 10
97.80214014939956
 20
16.60773103354249
 11
98.42298080679645
 21
17.2099475047461
 72
     2
 10
97.97628464396539
 20
17.82392087065656
 40
0.7592764687091326
 50
306.0377529468138
 51
403.4396461533871
 73
     1
 72
     1
 10
98.52759457630154
 20
18.34599185667563
 11
96.46421664712989
 21
20.14057999099261
 72
     1
 10
96.46421664712989
 20
20.14057999099261
 11
96.77634229809352
 21
20.44510920641128
 72
     1
 10
96.77634229809352
 20
20.44510920641128
 11
96.3110890430015
 21
20.86020531633353
 72
     1
 10
96.3110890430015
 20
20.86020531633353
 11
94.69329631879657
 21
19.29674519302649
 72
     1
 10
94.69329631879657
 20
19.29674519302649
 11
95.20450025747084
 21
18.85084992946609
 72
     2
 10
96.13579463602218
 20
17.56112367541896
 40
1.590818352263938
 50
234.1674444878512
 51
314.4407074583994
 73
     0
 97
        0
 75
     0
 76
     1
 98
        1
 10
0.0
 20
0.0
  0
LINE
  5
8B
330
1F
100
AcDbEntity
  8
0
  6
Continuous
 62
     7
370
     0
100
AcDbLine
 10
83.9296887592
 20
8.8872596256
 30
0.0
 11
84.4296887592
 21
8.8872596256
 31
0.0
  0
LINE
  5
8C
330
1F
100
AcDbEntity
  8
0
  6
Continuous
 62
     7
370
     0
100
AcDbLine
 10
82.4296887592
 20
8.8872596256
 30
0.0
 11
83.6796887592
 21
8.8872596256
 31
0.0
  0
LINE
  5
8D
330
1F
100
AcDbEntity
  8
0
  6
Continuous
 62
     7
370
     0
100
AcDbLine
 10
90.6796887592
 20
7.6372596256
 30
0.0
 11
90.6796887592
 21
10.1372596256
 31
0.0
  0
LINE
  5
8E
330
1F
100
AcDbEntity
  8
0
  6
Continuous
 62
     7
370
     0
100
AcDbLine
 10
87.1796887592
 20
8.1372596256
 30
0.0
 11
90.6796887592
 21
7.6372596256
 31
0.0
  0
LINE
  5
8F
330
1F
100
AcDbEntity
  8
0
  6
Continuous
 62
     7
370
     0
100
AcDbLine
 10
84.1796887592
 20
8.3872596256
 30
0.0
 11
84.1796887592
 21
7.1372596256
 31
0.0
  0
LINE
  5
90
330
1F
100
AcDbEntity
  8
0
  6
Continuous
 62
     7
370
     0
100
AcDbLine
 10
90.6796887592
 20
10.1372596256
 30
0.0
 11
87.1796887592
 21
9.6372596256
 31
0.0
  0
LINE
  5
91
330
1F
100
AcDbEntity
  8
0
  6
Continuous
 62
     7
370
     0
100
AcDbLine
 10
86.6796887592
 20
8.8872596256
 30
0.0
 11
91.1796887592
 21
8.8872596256
 31
0.0
  0
LINE
  5
92
330
1F
100
AcDbEntity
  8
0
  6
Continuous
 62
     7
370
     0
100
AcDbLine
 10
84.1796887592
 20
9.1372596256
 30
0.0
 11
84.1796887592
 21
8.6372596256
 31
0.0
  0
LINE
  5
93
330
1F
100
AcDbEntity
  8
0
  6
Continuous
 62
     7
370
     0
100
AcDbLine
 10
84.6796887592
 20
8.8872596256
 30
0.0
 11
85.9296887592
 21
8.8872596256
 31
0.0
  0
LINE
  5
94
330
1F
100
AcDbEntity
  8
0
  6
Continuous
 62
     7
370
     0
100
AcDbLine
 10
84.1796887592
 20
10.6372596256
 30
0.0
 11
84.1796887592
 21
9.3872596256
 31
0.0
  0
LINE
  5
95
330
1F
100
AcDbEntity
  8
0
  6
Continuous
 62
     7
370
     0
100
AcDbLine
 10
87.1796887592
 20
9.6372596256
 30
0.0
 11
87.1796887592
 21
8.1372596256
 31
0.0
  0
LINE
  5
96
330
1F
100
AcDbEntity
  8
工作區域參考線
 62
     1
370
    30
100
AcDbLine
 10
95.2045002575
 20
18.8508499295
 30
0.0
 11
94.6932963188
 21
19.296745193
 31
0.0
  0
LINE
  5
97
330
1F
100
AcDbEntity
  8
工作區域參考線
 62
     1
370
    30
100
AcDbLine
 10
94.6932963188
 20
19.296745193
 30
0.0
 11
96.311089043
 21
20.8602053163
 31
0.0
  0
LINE
  5
98
330
1F
100
AcDbEntity
  8
工作區域參考線
 62
     1
370
    30
100
AcDbLine
 10
96.311089043
 20
20.8602053163
 30
0.0
 11
96.7763422981
 21
20.4451092064
 31
0.0
  0
LINE
  5
99
330
1F
100
AcDbEntity
  8
工作區域參考線
 62
     1
370
    30
100
AcDbLine
 10
96.7763422981
 20
20.4451092064
 30
0.0
 11
96.4642166471
 21
20.140579991
 31
0.0
  0
LINE
  5
9A
330
1F
100
AcDbEntity
  8
工作區域參考線
 62
     1
370
    30
100
AcDbLine
 10
96.4642166471
 20
20.140579991
 30
0.0
 11
98.5275945763
 21
18.3459918567
 31
0.0
  0
LINE
  5
9B
330
1F
100
AcDbEntity
  8
工作區域參考線
 62
     1
370
    30
100
AcDbLine
 10
97.3094157029
 20
17.0370795035
 30
0.0
 11
97.8021401494
 21
16.6077310335
 31
0.0
  0
LINE
  5
9C
330
1F
100
AcDbEntity
  8
工作區域參考線
 62
     1
370
    30
100
AcDbLine
 10
97.8021401494
 20
16.6077310335
 30
0.0
 11
98.4229808068
 21
17.2099475047
 31
0.0
  0
LINE
  5
9D
330
1F
100
AcDbEntity
  8
0
  6
Continuous
 62
     7
370
     0
100
AcDbLine
 10
92.8453982605
 20
6.557623204
 30
0.0
 11
142.8453982605
 21
6.557623204
 31
0.0
  0
LINE
  5
9E
330
1F
100
AcDbEntity
  8
0
  6
Continuous
 62
     7
370
     0
100
AcDbLine
 10
92.8453982605
 20
9.057623204
 30
0.0
 11
117.8453982605
 21
9.057623204
 31
0.0
  0
LINE
  5
9F
330
1F
100
AcDbEntity
  8
0
  6
Continuous
 62
     7
370
     0
100
AcDbLine
 10
92.8453982605
 20
11.557623204
 30
0.0
 11
117.8453982605
 21
11.557623204
 31
0.0
  0
LINE
  5
A0
330
1F
100
AcDbEntity
  8
0
  6
Continuous
 62
     7
370
     0
100
AcDbLine
 10
92.8453982605
 20
14.057623204
 30
0.0
 11
142.8453982605
 21
14.057623204
 31
0.0
  0
LINE
  5
A1
330
1F
100
AcDbEntity
  8
0
  6
Continuous
 62
     7
370
     0
100
AcDbLine
 10
117.8453982605
 20
16.557623204
 30
0.0
 11
142.8453982605
 21
16.557623204
 31
0.0
  0
LINE
  5
A2
330
1F
100
AcDbEntity
  8
0
  6
Continuous
 62
     7
370
    15
100
AcDbLine
 10
117.8453982605
 20
9.057623204
 30
0.0
 11
142.8453982605
 21
9.057623204
 31
0.0
  0
LINE
  5
A3
330
1F
100
AcDbEntity
  8
0
  6
Continuous
 62
     7
370
     0
100
AcDbLine
 10
92.8453982605
 20
21.557623204
 30
0.0
 11
142.8453982605
 21
21.557623204
 31
0.0
  0
LINE
  5
A4
330
1F
100
AcDbEntity
  8
0
  6
Continuous
 62
     7
370
     0
100
AcDbLine
 10
125.6186088375
 20
4.057623204
 30
0.0
 11
125.6186088375
 21
9.057623204
 31
0.0
  0
LINE
  5
A5
330
1F
100
AcDbEntity
  8
0
  6
Continuous
 62
     7
370
     0
100
AcDbLine
 10
117.8453982605
 20
4.057623204
 30
0.0
 11
117.8453982605
 21
21.557623204
 31
0.0
  0
LINE
  5
A6
330
1F
100
AcDbEntity
  8
0
  6
Continuous
 62
     7
370
     0
100
AcDbLine
 10
125.6186088375
 20
14.057623204
 30
0.0
 11
125.6186088375
 21
16.557623204
 31
0.0
  0
LINE
  5
A7
330
1F
100
AcDbEntity
  8
0
  6
Continuous
 62
     7
370
     0
100
AcDbLine
 10
107.2082043177
 20
4.057623204
 30
0.0
 11
107.2082043177
 21
14.057623204
 31
0.0
  0
LINE
  5
A8
330
1F
100
AcDbEntity
  8
0
  6
Continuous
 62
     7
370
     0
100
AcDbLine
 10
99.8892943753
 20
4.057623204
 30
0.0
 11
99.8892943753
 21
14.057623204
 31
0.0
  0
LINE
  5
A9
330
1F
100
AcDbEntity
  8
0
  6
Continuous
 62
     7
370
     0
100
AcDbLine
 10
92.8453982605
 20
4.057623204
 30
0.0
 11
92.8453982605
 21
21.557623204
 31
0.0
  0
LINE
  5
AA
330
1F
100
AcDbEntity
  8
0
  6
Continuous
 62
     7
370
    15
100
AcDbLine
 10
21.6603982605
 20
100.6860137875
 30
0.0
 11
21.6603982605
 21
101.4360137875
 31
0.0
  0
LINE
  5
AB
330
1F
100
AcDbEntity
  8
0
  6
Continuous
 62
     7
370
    15
100
AcDbLine
 10
38.9753982605
 20
100.6860137875
 30
0.0
 11
38.9753982605
 21
101.4360137875
 31
0.0
  0
LINE
  5
AC
330
1F
100
AcDbEntity
  8
0
  6
Continuous
 62
     7
370
    15
100
AcDbLine
 10
56.2903982605
 20
100.6860137875
 30
0.0
 11
56.2903982605
 21
101.4360137875
 31
0.0
  0
LINE
  5
AD
330
1F
100
AcDbEntity
  8
0
  6
Continuous
 62
     7
370
    15
100
AcDbLine
 10
73.6053982605
 20
100.6860137875
 30
0.0
 11
73.6053982605
 21
101.4360137875
 31
0.0
  0
LINE
  5
AE
330
1F
100
AcDbEntity
  8
0
  6
Continuous
 62
     7
370
    15
100
AcDbLine
 10
90.9203982605
 20
100.6860137875
 30
0.0
 11
90.9203982605
 21
101.4360137875
 31
0.0
  0
LINE
  5
AF
330
1F
100
AcDbEntity
  8
0
  6
Continuous
 62
     7
370
    15
100
AcDbLine
 10
108.2353982605
 20
100.6860137875
 30
0.0
 11
108.2353982605
 21
101.4360137875
 31
0.0
  0
LINE
  5
B0
330
1F
100
AcDbEntity
  8
0
  6
Continuous
 62
     7
370
    15
100
AcDbLine
 10
125.5503982605
 20
100.6860137875
 30
0.0
 11
125.5503982605
 21
101.4360137875
 31
0.0
  0
LINE
  5
B1
330
1F
100
AcDbEntity
  8
0
  6
Continuous
 62
     7
370
    15
100
AcDbLine
 10
21.6578982605
 20
4.057623204
 30
0.0
 11
21.6578982605
 21
3.307623204
 31
0.0
  0
LINE
  5
B2
330
1F
100
AcDbEntity
  8
0
  6
Continuous
 62
     7
370
    15
100
AcDbLine
 10
38.9703982605
 20
4.057623204
 30
0.0
 11
38.9703982605
 21
3.307623204
 31
0.0
  0
LINE
  5
B3
330
1F
100
AcDbEntity
  8
0
  6
Continuous
 62
     7
370
    15
100
AcDbLine
 10
56.2828982605
 20
4.057623204
 30
0.0
 11
56.2828982605
 21
3.307623204
 31
0.0
  0
LINE
  5
B4
330
1F
100
AcDbEntity
  8
0
  6
Continuous
 62
     7
370
    15
100
AcDbLine
 10
73.5953982605
 20
4.057623204
 30
0.0
 11
73.5953982605
 21
3.307623204
 31
0.0
  0
LINE
  5
B5
330
1F
100
AcDbEntity
  8
0
  6
Continuous
 62
     7
370
    15
100
AcDbLine
 10
90.9078982605
 20
4.057623204
 30
0.0
 11
90.9078982605
 21
3.307623204
 31
0.0
  0
LINE
  5
B6
330
1F
100
AcDbEntity
  8
0
  6
Continuous
 62
     7
370
    15
100
AcDbLine
 10
108.2203982605
 20
4.057623204
 30
0.0
 11
108.2203982605
 21
3.307623204
 31
0.0
  0
LINE
  5
B7
330
1F
100
AcDbEntity
  8
0
  6
Continuous
 62
     7
370
     0
100
AcDbLine
 10
142.8453982605
 20
100.6860137875
 30
0.0
 11
4.3453982605
 21
100.6860137875
 31
0.0
  0
LINE
  5
B8
330
1F
100
AcDbEntity
  8
0
  6
Continuous
 62
     7
370
     0
100
AcDbLine
 10
142.8453982605
 20
4.057623204
 30
0.0
 11
142.8453982605
 21
100.6860137875
 31
0.0
  0
LINE
  5
B9
330
1F
100
AcDbEntity
  8
0
  6
Continuous
 62
     7
370
     0
100
AcDbLine
 10
4.3453982605
 20
100.6860137875
 30
0.0
 11
4.3453982605
 21
4.057623204
 31
0.0
  0
LINE
  5
BA
330
1F
100
AcDbEntity
  8
0
  6
Continuous
 62
     7
370
     0
100
AcDbLine
 10
4.3453982605
 20
4.057623204
 30
0.0
 11
142.8453982605
 21
4.057623204
 31
0.0
  0
LINE
  5
BB
330
1F
100
AcDbEntity
  8
0
  6
Continuous
 62
     7
370
    15
100
AcDbLine
 10
125.5328982605
 20
4.057623204
 30
0.0
 11
125.5328982605
 21
3.307623204
 31
0.0
  0
LINE
  5
BC
330
1F
100
AcDbEntity
  8
0
  6
Continuous
 62
     7
370
    15
100
AcDbLine
 10
4.3453982605
 20
20.162623204
 30
0.0
 11
3.5953982605
 21
20.162623204
 31
0.0
  0
LINE
  5
BD
330
1F
100
AcDbEntity
  8
0
  6
Continuous
 62
     7
370
    15
100
AcDbLine
 10
4.3453982605
 20
36.267623204
 30
0.0
 11
3.5953982605
 21
36.267623204
 31
0.0
  0
LINE
  5
BE
330
1F
100
AcDbEntity
  8
0
  6
Continuous
 62
     7
370
    15
100
AcDbLine
 10
4.3453982605
 20
52.372623204
 30
0.0
 11
3.5953982605
 21
52.372623204
 31
0.0
  0
LINE
  5
BF
330
1F
100
AcDbEntity
  8
0
  6
Continuous
 62
     7
370
    15
100
AcDbLine
 10
4.3453982605
 20
68.477623204
 30
0.0
 11
3.5953982605
 21
68.477623204
 31
0.0
  0
LINE
  5
C0
330
1F
100
AcDbEntity
  8
0
  6
Continuous
 62
     7
370
    15
100
AcDbLine
 10
4.3453982605
 20
84.582623204
 30
0.0
 11
3.5953982605
 21
84.582623204
 31
0.0
  0
LINE
  5
C1
330
1F
100
AcDbEntity
  8
0
  6
Continuous
 62
     7
370
    15
100
AcDbLine
 10
142.8453982605
 20
20.162623204
 30
0.0
 11
143.5953982605
 21
20.162623204
 31
0.0
  0
LINE
  5
C2
330
1F
100
AcDbEntity
  8
0
  6
Continuous
 62
     7
370
    15
100
AcDbLine
 10
142.8453982605
 20
36.267623204
 30
0.0
 11
143.5953982605
 21
36.267623204
 31
0.0
  0
LINE
  5
C3
330
1F
100
AcDbEntity
  8
0
  6
Continuous
 62
     7
370
    15
100
AcDbLine
 10
142.8453982605
 20
52.372623204
 30
0.0
 11
143.5953982605
 21
52.372623204
 31
0.0
  0
LINE
  5
C4
330
1F
100
AcDbEntity
  8
0
  6
Continuous
 62
     7
370
    15
100
AcDbLine
 10
142.8453982605
 20
68.477623204
 30
0.0
 11
143.5953982605
 21
68.477623204
 31
0.0
  0
LINE
  5
C5
330
1F
100
AcDbEntity
  8
0
  6
Continuous
 62
     7
370
    15
100
AcDbLine
 10
142.8453982605
 20
84.582623204
 30
0.0
 11
143.5953982605
 21
84.582623204
 31
0.0
  0
CIRCLE
  5
C6
330
1F
100
AcDbEntity
  8
0
  6
Continuous
 62
     7
370
     0
100
AcDbCircle
 10
84.1796887592
 20
8.8872596256
 30
0.0
 40
0.75
  0
CIRCLE
  5
C7
330
1F
100
AcDbEntity
  8
0
  6
Continuous
 62
     7
370
     0
100
AcDbCircle
 10
84.1796887592
 20
8.8872596256
 30
0.0
 40
1.25
  0
ARC
  5
C8
330
1F
100
AcDbEntity
  8
工作區域參考線
 62
     1
370
    30
100
AcDbCircle
 10
97.976284644
 20
17.8239208707
 30
0.0
 40
0.7592764687091375
100
AcDbArc
 50
306.0377529468
 51
43.4396461534
  0
ARC
  5
C9
330
1F
100
AcDbEntity
  8
工作區域參考線
 62
     1
370
    30
100
AcDbCircle
 10
96.135794636
 20
17.5611236754
 30
0.0
 40
1.590818352263945
100
AcDbArc
 50
45.5592925416
 51
125.8325555121
  0
ARC
  5
CA
330
1F
100
AcDbEntity
  8
工作區域參考線
 62
     1
370
    30
100
AcDbCircle
 10
96.2946227814
 20
17.8315345782
 30
0.0
 40
1.288783744173133
100
AcDbArc
 50
321.9435288427
 51
42.1815007004
  0
INSERT
  5
CB
330
1F
100
AcDbEntity
  8
0
  6
Continuous
 62
     7
100
AcDbBlockReference
  2
圖塊6
 10
93.4820461823
 20
14.7220264193
 30
0.0
  0
MTEXT
  5
CD
330
1F
100
AcDbEntity
  8
0
  6
Continuous
 62
     7
370
     0
100
AcDbMText
 10
82.7713425402
 20
6.6104220185
 30
0.0
 40
1.3229166667
 41
0.0
 71
     1
 72
     1
  1
UNIT:m/m
  7
SLDTEXTSTYLE0
 73
     1
 44
1.0
  0
INSERT
  5
D4
330
1F
100
AcDbEntity
  8
0
  6
Continuous
 62
     7
370
     0
100
AcDbBlockReference
  2
SW_NOTE_0
 10
6.1157538027
 20
96.9452152126
 30
0.0
  0
MTEXT
  5
D5
330
1F
100
AcDbEntity
  8
0
  6
Continuous
 62
     7
370
     0
100
AcDbMText
 10
99.3625946967
 20
20.2203387069
 30
0.0
 40
1.190625
 41
0.0
 71
     1
 72
     1
  1
Unice E-O Services Inc.
  7
SLDTEXTSTYLE0
 73
     1
 44
1.0
  0
MTEXT
  5
D6
330
1F
100
AcDbEntity
  8
0
  6
Continuous
 62
     7
370
     0
100
AcDbMText
 10
108.7795269075
 20
10.7933574255
 30
0.0
 40
0.9260416667
 41
0.0
 71
     1
 72
     1
  1
2018/1/17
  7
SLDTEXTSTYLE0
 73
     1
 44
1.0
  0
MTEXT
  5
D7
330
1F
100
AcDbEntity
  8
0
  6
Continuous
 62
     7
370
     0
100
AcDbMText
 10
126.3044491253
 20
8.43558887
 30
0.0
 40
1.25
 41
0.0
 71
     1
 72
     1
  1
2:1
  7
SLDTEXTSTYLE0
 73
     1
 44
1.0
  0
MTEXT
  5
D8
330
1F
100
AcDbEntity
  8
0
  6
Continuous
 62
     7
370
     0
100
AcDbMText
 10
126.1537799992
 20
16.0759597719
 30
0.0
 40
1.25
 41
0.0
 71
     1
 72
     1
  1
07MT13-3
  7
SLDTEXTSTYLE0
 73
     1
 44
1.0
  0
MTEXT
  5
D9
330
1F
100
AcDbEntity
  8
0
  6
Continuous
 62
     7
370
     0
100
AcDbMText
 10
126.1537799992
 20
19.0541058939
 30
0.0
 40
1.25
 41
0.0
 71
     1
 72
     1
  1
07MT13-3
  7
SLDTEXTSTYLE0
 73
     1
 44
1.0
  0
MTEXT
  5
DA
330
1F
100
AcDbEntity
  8
0
  6
Continuous
 62
     7
370
     0
100
AcDbMText
 10
118.1960933393
 20
8.2532397864
 30
0.0
 40
1.0583333333
 41
0.0
 71
     1
 72
     1
  1
SCALE:
  7
SLDTEXTSTYLE0
 73
     1
 44
1.0
  0
MTEXT
  5
DB
330
1F
100
AcDbEntity
  8
0
  6
Continuous
 62
     7
370
     0
100
AcDbMText
 10
93.1668043395
 20
10.7933574255
 30
0.0
 40
0.9260416667
 41
0.0
 71
     1
 72
     1
  1
DRAWN
  7
SLDTEXTSTYLE0
 73
     1
 44
1.0
  0
MTEXT
  5
DC
330
1F
100
AcDbEntity
  8
0
  6
Continuous
 62
     7
370
     0
100
AcDbMText
 10
101.6114183968
 20
13.341604154
 30
0.0
 40
0.9260416667
 41
0.0
 71
     1
 72
     1
  1
NAME
  7
SLDTEXTSTYLE0
 73
     1
 44
1.0
  0
MTEXT
  5
DD
330
1F
100
AcDbEntity
  8
0
  6
Continuous
 62
     7
370
     0
100
AcDbMText
 10
110.4355077879
 20
13.341604154
 30
0.0
 40
0.9260416667
 41
0.0
 71
     1
 72
     1
  1
DATE
  7
SLDTEXTSTYLE0
 73
     1
 44
1.0
  0
MTEXT
  5
DE
330
1F
100
AcDbEntity
  8
0
  6
Continuous
 62
     7
370
     0
100
AcDbMText
 10
118.1378158323
 20
15.8936106883
 30
0.0
 40
1.0583333333
 41
0.0
 71
     1
 72
     1
  1
DWG. NO.
  7
SLDTEXTSTYLE0
 73
     1
 44
1.0
  0
MTEXT
  5
DF
330
1F
100
AcDbEntity
  8
0
  6
Continuous
 62
     7
370
     0
100
AcDbMText
 10
118.1814953544
 20
20.9420329122
 30
0.0
 40
1.0583333333
 41
0.0
 71
     1
 72
     1
  1
TITLE:
  7
SLDTEXTSTYLE0
 73
     1
 44
1.0
  0
MTEXT
  5
E0
330
1F
100
AcDbEntity
  8
0
  6
Continuous
 62
     7
370
     0
100
AcDbMText
 10
101.5157104901
 20
8.1201894862
 30
0.0
 40
0.9260416667
 41
0.0
 71
     1
 72
     1
  1
Johnny
  7
SLDTEXTSTYLE0
 73
     1
 44
1.0
  0
MTEXT
  5
E1
330
1F
100
AcDbEntity
  8
0
  6
Continuous
 62
     7
370
     0
100
AcDbMText
 10
108.7795269075
 20
8.1201894862
 30
0.0
 40
0.9260416667
 41
0.0
 71
     1
 72
     1
  1
2018/1/17
  7
SLDTEXTSTYLE0
 73
     1
 44
1.0
  0
MTEXT
  5
E2
330
1F
100
AcDbEntity
  8
0
  6
Continuous
 62
     7
370
     0
100
AcDbMText
 10
93.1668043395
 20
8.1201894862
 30
0.0
 40
0.9260416667
 41
0.0
 71
     1
 72
     1
  1
ENG APPR.
  7
SLDTEXTSTYLE0
 73
     1
 44
1.0
  0
MTEXT
  5
E3
330
1F
100
AcDbEntity
  8
0
  6
Continuous
 62
     7
370
     0
100
AcDbMText
 10
118.1960933393
 20
5.8426694644
 30
0.0
 40
1.0583333333
 41
0.0
 71
     1
 72
     1
  1
REV
  7
SLDTEXTSTYLE0
 73
     1
 44
1.0
  0
MTEXT
  5
E4
330
1F
100
AcDbEntity
  8
0
  6
Continuous
 62
     7
370
     0
100
AcDbMText
 10
118.1814953544
 20
13.4746544542
 30
0.0
 40
1.0583333333
 41
0.0
 71
     1
 72
     1
  1
MATERIAL:
  7
SLDTEXTSTYLE0
 73
     1
 44
1.0
  0
MTEXT
  5
E5
330
1F
100
AcDbEntity
  8
0
  6
Continuous
 62
     7
370
     0
100
AcDbMText
 10
126.3044491253
 20
11.1087568093
 30
0.0
 40
1.25
 41
0.0
 71
     1
 72
     1
  1
N/A
  7
SLDTEXTSTYLE0
 73
     1
 44
1.0
  0
MTEXT
  5
E6
330
1F
100
AcDbEntity
  8
0
  6
Continuous
 62
     7
370
     0
100
AcDbMText
 10
13.3014965767
 20
102.2266758285
 30
0.0
 40
1.0583333333
 41
0.0
 71
     1
 72
     1
  1
1
  7
SLDTEXTSTYLE0
 73
     1
 44
1.0
  0
MTEXT
  5
E7
330
1F
100
AcDbEntity
  8
0
  6
Continuous
 62
     7
370
     0
100
AcDbMText
 10
30.3585497862
 20
102.2266758285
 30
0.0
 40
1.0583333333
 41
0.0
 71
     1
 72
     1
  1
2
  7
SLDTEXTSTYLE0
 73
     1
 44
1.0
  0
MTEXT
  5
E8
330
1F
100
AcDbEntity
  8
0
  6
Continuous
 62
     7
370
     0
100
AcDbMText
 10
47.4504971953
 20
102.2266758285
 30
0.0
 40
1.0583333333
 41
0.0
 71
     1
 72
     1
  1
3
  7
SLDTEXTSTYLE0
 73
     1
 44
1.0
  0
MTEXT
  5
E9
330
1F
100
AcDbEntity
  8
0
  6
Continuous
 62
     7
370
     0
100
AcDbMText
 10
64.6266681426
 20
102.1496292182
 30
0.0
 40
1.0583333333
 41
0.0
 71
     1
 72
     1
  1
4
  7
SLDTEXTSTYLE0
 73
     1
 44
1.0
  0
MTEXT
  5
EA
330
1F
100
AcDbEntity
  8
0
  6
Continuous
 62
     7
370
     0
100
AcDbMText
 10
81.851161732
 20
102.2266758285
 30
0.0
 40
1.0583333333
 41
0.0
 71
     1
 72
     1
  1
5
  7
SLDTEXTSTYLE0
 73
     1
 44
1.0
  0
MTEXT
  5
EB
330
1F
100
AcDbEntity
  8
0
  6
Continuous
 62
     7
370
     0
100
AcDbMText
 10
99.3191085208
 20
102.2266758285
 30
0.0
 40
1.0583333333
 41
0.0
 71
     1
 72
     1
  1
6
  7
SLDTEXTSTYLE0
 73
     1
 44
1.0
  0
MTEXT
  5
EC
330
1F
100
AcDbEntity
  8
0
  6
Continuous
 62
     7
370
     0
100
AcDbMText
 10
117.1815328703
 20
102.2266758285
 30
0.0
 40
1.0583333333
 41
0.0
 71
     1
 72
     1
  1
7
  7
SLDTEXTSTYLE0
 73
     1
 44
1.0
  0
MTEXT
  5
ED
330
1F
100
AcDbEntity
  8
0
  6
Continuous
 62
     7
370
     0
100
AcDbMText
 10
133.1393910247
 20
102.2266758285
 30
0.0
 40
1.0583333333
 41
0.0
 71
     1
 72
     1
  1
8
  7
SLDTEXTSTYLE0
 73
     1
 44
1.0
  0
MTEXT
  5
EE
330
1F
100
AcDbEntity
  8
0
  6
Continuous
 62
     7
370
     0
100
AcDbMText
 10
2.6784118277
 20
92.905651144
 30
0.0
 40
1.0583333333
 41
0.0
 71
     1
 72
     1
  1
A
  7
SLDTEXTSTYLE0
 73
     1
 44
1.0
  0
MTEXT
  5
EF
330
1F
100
AcDbEntity
  8
0
  6
Continuous
 62
     7
370
     0
100
AcDbMText
 10
2.7955215916
 20
77.1496524119
 30
0.0
 40
1.0583333333
 41
0.0
 71
     1
 72
     1
  1
B
  7
SLDTEXTSTYLE0
 73
     1
 44
1.0
  0
MTEXT
  5
F0
330
1F
100
AcDbEntity
  8
0
  6
Continuous
 62
     7
370
     0
100
AcDbMText
 10
2.7955215916
 20
60.6371757115
 30
0.0
 40
1.0583333333
 41
0.0
 71
     1
 72
     1
  1
C
  7
SLDTEXTSTYLE0
 73
     1
 44
1.0
  0
MTEXT
  5
F1
330
1F
100
AcDbEntity
  8
0
  6
Continuous
 62
     7
370
     0
100
AcDbMText
 10
2.7955215916
 20
44.372661011
 30
0.0
 40
1.0583333333
 41
0.0
 71
     1
 72
     1
  1
D
  7
SLDTEXTSTYLE0
 73
     1
 44
1.0
  0
MTEXT
  5
F2
330
1F
100
AcDbEntity
  8
0
  6
Continuous
 62
     7
370
     0
100
AcDbMText
 10
2.7955215916
 20
28.7779424599
 30
0.0
 40
1.0583333333
 41
0.0
 71
     1
 72
     1
  1
E
  7
SLDTEXTSTYLE0
 73
     1
 44
1.0
  0
MTEXT
  5
F3
330
1F
100
AcDbEntity
  8
0
  6
Continuous
 62
     7
370
     0
100
AcDbMText
 10
2.7955215916
 20
12.7847106126
 30
0.0
 40
1.0583333333
 41
0.0
 71
     1
 72
     1
  1
F
  7
SLDTEXTSTYLE0
 73
     1
 44
1.0
  0
MTEXT
  5
F4
330
1F
100
AcDbEntity
  8
0
  6
Continuous
 62
     7
370
     0
100
AcDbMText
 10
133.0929308482
 20
3.3118111982
 30
0.0
 40
1.0583333333
 41
0.0
 71
     1
 72
     1
  1
8
  7
SLDTEXTSTYLE0
 73
     1
 44
1.0
  0
MTEXT
  5
F5
330
1F
100
AcDbEntity
  8
0
  6
Continuous
 62
     7
370
     0
100
AcDbMText
 10
117.1350726938
 20
3.3118111982
 30
0.0
 40
1.0583333333
 41
0.0
 71
     1
 72
     1
  1
7
  7
SLDTEXTSTYLE0
 73
     1
 44
1.0
  0
MTEXT
  5
F6
330
1F
100
AcDbEntity
  8
0
  6
Continuous
 62
     7
370
     0
100
AcDbMText
 10
99.2726483442
 20
3.3118111982
 30
0.0
 40
1.0583333333
 41
0.0
 71
     1
 72
     1
  1
6
  7
SLDTEXTSTYLE0
 73
     1
 44
1.0
  0
MTEXT
  5
F7
330
1F
100
AcDbEntity
  8
0
  6
Continuous
 62
     7
370
     0
100
AcDbMText
 10
81.8047015555
 20
3.3118111982
 30
0.0
 40
1.0583333333
 41
0.0
 71
     1
 72
     1
  1
5
  7
SLDTEXTSTYLE0
 73
     1
 44
1.0
  0
MTEXT
  5
F8
330
1F
100
AcDbEntity
  8
0
  6
Continuous
 62
     7
370
     0
100
AcDbMText
 10
64.580207966
 20
3.2347645879
 30
0.0
 40
1.0583333333
 41
0.0
 71
     1
 72
     1
  1
4
  7
SLDTEXTSTYLE0
 73
     1
 44
1.0
  0
MTEXT
  5
F9
330
1F
100
AcDbEntity
  8
0
  6
Continuous
 62
     7
370
     0
100
AcDbMText
 10
47.4040370188
 20
3.3118111982
 30
0.0
 40
1.0583333333
 41
0.0
 71
     1
 72
     1
  1
3
  7
SLDTEXTSTYLE0
 73
     1
 44
1.0
  0
MTEXT
  5
FA
330
1F
100
AcDbEntity
  8
0
  6
Continuous
 62
     7
370
     0
100
AcDbMText
 10
30.3120896097
 20
3.3118111982
 30
0.0
 40
1.0583333333
 41
0.0
 71
     1
 72
     1
  1
2
  7
SLDTEXTSTYLE0
 73
     1
 44
1.0
  0
MTEXT
  5
FB
330
1F
100
AcDbEntity
  8
0
  6
Continuous
 62
     7
370
     0
100
AcDbMText
 10
13.2550364001
 20
3.3118111982
 30
0.0
 40
1.0583333333
 41
0.0
 71
     1
 72
     1
  1
1
  7
SLDTEXTSTYLE0
 73
     1
 44
1.0
  0
MTEXT
  5
FC
330
1F
100
AcDbEntity
  8
0
  6
Continuous
 62
     7
370
     0
100
AcDbMText
 10
143.5511923072
 20
93.3212454546
 30
0.0
 40
1.0583333333
 41
0.0
 71
     1
 72
     1
  1
A
  7
SLDTEXTSTYLE0
 73
     1
 44
1.0
  0
MTEXT
  5
FD
330
1F
100
AcDbEntity
  8
0
  6
Continuous
 62
     7
370
     0
100
AcDbMText
 10
143.6683020711
 20
77.5652467225
 30
0.0
 40
1.0583333333
 41
0.0
 71
     1
 72
     1
  1
B
  7
SLDTEXTSTYLE0
 73
     1
 44
1.0
  0
MTEXT
  5
FE
330
1F
100
AcDbEntity
  8
0
  6
Continuous
 62
     7
370
     0
100
AcDbMText
 10
143.6683020711
 20
61.0527700221
 30
0.0
 40
1.0583333333
 41
0.0
 71
     1
 72
     1
  1
C
  7
SLDTEXTSTYLE0
 73
     1
 44
1.0
  0
MTEXT
  5
FF
330
1F
100
AcDbEntity
  8
0
  6
Continuous
 62
     7
370
     0
100
AcDbMText
 10
143.6683020711
 20
44.7882553217
 30
0.0
 40
1.0583333333
 41
0.0
 71
     1
 72
     1
  1
D
  7
SLDTEXTSTYLE0
 73
     1
 44
1.0
  0
MTEXT
  5
100
330
1F
100
AcDbEntity
  8
0
  6
Continuous
 62
     7
370
     0
100
AcDbMText
 10
143.6683020711
 20
29.1935367705
 30
0.0
 40
1.0583333333
 41
0.0
 71
     1
 72
     1
  1
E
  7
SLDTEXTSTYLE0
 73
     1
 44
1.0
  0
MTEXT
  5
101
330
1F
100
AcDbEntity
  8
0
  6
Continuous
 62
     7
370
     0
100
AcDbMText
 10
143.6683020711
 20
13.2003049232
 30
0.0
 40
1.0583333333
 41
0.0
 71
     1
 72
     1
  1
F
  7
SLDTEXTSTYLE0
 73
     1
 44
1.0
  0
MTEXT
  5
102
330
1F
100
AcDbEntity
  8
0
  6
Continuous
 62
     7
370
     0
100
AcDbMText
 10
101.5776564401
 20
10.7933574255
 30
0.0
 40
0.9260416667
 41
0.0
 71
     1
 72
     1
  1
Sky
  7
SLDTEXTSTYLE0
 73
     1
 44
1.0
  0
MTEXT
  5
104
330
1F
100
AcDbEntity
  8
0
  6
Continuous
 62
     7
370
     0
100
AcDbMText
 10
126.4241119823
 20
6.1109801659
 30
0.0
 40
1.190625
 41
0.0
 71
     1
 72
     1
  1
0
  7
SLDTEXTSTYLE1
 73
     1
 44
1.0
  0
INSERT
  5
10A
330
1F
100
AcDbEntity
  8
SLD-0
 62
     7
100
AcDbBlockReference
  2
SW_NOTE_1
 10
99.3625946967
 20
16.7739872606
 30
0.0
  0
LINE
  5
10B
330
1F
100
AcDbEntity
  8
0
  6
Continuous
 62
     7
370
    30
100
AcDbLine
 10
85.6677287899
 20
53.5549448294
 30
0.0
 11
73.1677287899
 21
53.5549448294
 31
0.0
  0
LINE
  5
10C
330
1F
100
AcDbEntity
  8
0
  6
Continuous
 62
     7
370
    30
100
AcDbLine
 10
73.1677287899
 20
40.5549448294
 30
0.0
 11
85.6677287899
 21
40.5549448294
 31
0.0
  0
LINE
  5
10D
330
1F
100
AcDbEntity
  8
0
  6
Continuous
 62
     7
370
    30
100
AcDbLine
 10
85.6677287899
 20
40.5549448294
 30
0.0
 11
86.1677287899
 21
43.0549448294
 31
0.0
  0
LINE
  5
10E
330
1F
100
AcDbEntity
  8
0
  6
Continuous
 62
     7
370
    30
100
AcDbLine
 10
86.1677287899
 20
51.0549448294
 30
0.0
 11
85.6677287899
 21
53.5549448294
 31
0.0
  0
LINE
  5
10F
330
1F
100
AcDbEntity
  8
0
  6
Continuous
 62
     7
370
    30
100
AcDbLine
 10
61.4521116968
 20
53.0549448294
 30
0.0
 11
59.6677287899
 21
52.3549448294
 31
0.0
  0
LINE
  5
110
330
1F
100
AcDbEntity
  8
0
  6
Continuous
 62
     7
370
    30
100
AcDbLine
 10
59.6677287899
 20
41.7549448294
 30
0.0
 11
61.4521116968
 21
41.0549448294
 31
0.0
  0
LINE
  5
111
330
1F
100
AcDbEntity
  8
0
  6
Continuous
 62
     7
370
    30
100
AcDbLine
 10
68.0253613589
 20
53.0549448294
 30
0.0
 11
61.4521116968
 21
53.0549448294
 31
0.0
  0
LINE
  5
112
330
1F
100
AcDbEntity
  8
0
  6
Continuous
 62
     7
370
    30
100
AcDbLine
 10
73.1677287899
 20
53.0549448294
 30
0.0
 11
68.2046399146
 21
53.0549448294
 31
0.0
  0
LINE
  5
113
330
1F
100
AcDbEntity
  8
0
  6
Continuous
 62
     7
370
    30
100
AcDbLine
 10
61.4521116968
 20
41.0549448294
 30
0.0
 11
73.1677287899
 21
41.0549448294
 31
0.0
  0
ARC
  5
114
330
1F
100
AcDbEntity
  8
0
  6
Continuous
 62
     7
370
    30
100
AcDbCircle
 10
82.7190682899
 20
47.0671382976
 30
0.0
 40
6.948660500000003
100
AcDbArc
 50
0.0
 51
21.8648216434
  0
ARC
  5
115
330
1F
100
AcDbEntity
  8
0
  6
Continuous
 62
     7
370
    30
100
AcDbCircle
 10
82.7190682899
 20
47.0427513613
 30
0.0
 40
6.948660500000006
100
AcDbArc
 50
338.1351783566
 51
0.0
  0
LINE
  5
116
330
1F
100
AcDbEntity
  8
0
  6
Continuous
 62
     7
370
    30
100
AcDbLine
 10
89.6677287899
 20
47.0427513613
 30
0.0
 11
89.6677287899
 21
47.0671382976
 31
0.0
  0
LINE
  5
117
330
1F
100
AcDbEntity
  8
0
  6
Continuous
 62
     7
370
    30
100
AcDbLine
 10
89.1678774899
 20
49.6549448294
 30
0.0
 11
86.1677287899
 21
49.6549448294
 31
0.0
  0
LINE
  5
118
330
1F
100
AcDbEntity
  8
0
  6
Continuous
 62
     7
370
    30
100
AcDbLine
 10
86.1677287899
 20
44.4549448294
 30
0.0
 11
89.1678774899
 21
44.4549448294
 31
0.0
  0
ARC
  5
119
330
1F
100
AcDbEntity
  8
0
  6
Continuous
 62
     7
370
    30
100
AcDbCircle
 10
36.6760621232
 20
47.0549448294
 30
0.0
 40
5.508333333333344
100
AcDbArc
 50
153.0085334384
 51
206.9914665616
  0
LINE
  5
11A
330
1F
100
AcDbEntity
  8
0
  6
Continuous
 62
     7
370
    30
100
AcDbLine
 10
48.6677287899
 20
49.5549448294
 30
0.0
 11
31.7677287899
 21
49.5549448294
 31
0.0
  0
LINE
  5
11B
330
1F
100
AcDbEntity
  8
0
  6
Continuous
 62
     7
370
    30
100
AcDbLine
 10
31.7677287899
 20
44.5549448294
 30
0.0
 11
48.6677287899
 21
44.5549448294
 31
0.0
  0
LINE
  5
11C
330
1F
100
AcDbEntity
  8
0
  6
Continuous
 62
     7
370
    30
100
AcDbLine
 10
59.6677287899
 20
52.3049448294
 30
0.0
 11
58.2677287899
 21
52.3049448294
 31
0.0
  0
LINE
  5
11D
330
1F
100
AcDbEntity
  8
0
  6
Continuous
 62
     7
370
    30
100
AcDbLine
 10
58.2677287899
 20
41.8049448294
 30
0.0
 11
59.6677287899
 21
41.8049448294
 31
0.0
  0
LINE
  5
11E
330
1F
100
AcDbEntity
  8
0
  6
Continuous
 62
     7
370
    30
100
AcDbLine
 10
57.2677287899
 20
51.8049448294
 30
0.0
 11
48.8677287899
 21
51.8049448294
 31
0.0
  0
LINE
  5
11F
330
1F
100
AcDbEntity
  8
0
  6
Continuous
 62
     7
370
    30
100
AcDbLine
 10
48.8677287899
 20
42.3049448294
 30
0.0
 11
57.2677287899
 21
42.3049448294
 31
0.0
  0
LINE
  5
120
330
1F
100
AcDbEntity
  8
0
  6
Continuous
 62
     7
370
    30
100
AcDbLine
 10
48.8677287899
 20
51.8049448294
 30
0.0
 11
48.6677287899
 21
51.6049448294
 31
0.0
  0
LINE
  5
121
330
1F
100
AcDbEntity
  8
0
  6
Continuous
 62
     7
370
    30
100
AcDbLine
 10
48.6677287899
 20
42.5049448294
 30
0.0
 11
48.8677287899
 21
42.3049448294
 31
0.0
  0
LINE
  5
122
330
1F
100
AcDbEntity
  8
0
  6
Continuous
 62
     7
370
    30
100
AcDbLine
 10
58.2677287899
 20
51.6549448294
 30
0.0
 11
57.2677287899
 21
51.6549448294
 31
0.0
  0
LINE
  5
123
330
1F
100
AcDbEntity
  8
0
  6
Continuous
 62
     7
370
    30
100
AcDbLine
 10
57.2677287899
 20
42.4549448294
 30
0.0
 11
58.2677287899
 21
42.4549448294
 31
0.0
  0
LINE
  5
124
330
1F
100
AcDbEntity
  8
0
  6
Continuous
 62
     7
370
    30
100
AcDbLine
 10
85.6677287899
 20
53.5549448294
 30
0.0
 11
85.6677287899
 21
40.5549448294
 31
0.0
  0
LINE
  5
125
330
1F
100
AcDbEntity
  8
0
  6
Continuous
 62
     7
370
    30
100
AcDbLine
 10
73.1677287899
 20
53.5549448294
 30
0.0
 11
73.1677287899
 21
40.5549448294
 31
0.0
  0
LINE
  5
126
330
1F
100
AcDbEntity
  8
0
  6
Continuous
 62
     7
370
    30
100
AcDbLine
 10
86.1677287899
 20
51.0549448294
 30
0.0
 11
86.1677287899
 21
43.0549448294
 31
0.0
  0
LINE
  5
127
330
1F
100
AcDbEntity
  8
0
  6
Continuous
 62
     7
370
    30
100
AcDbLine
 10
61.4521116968
 20
53.0549448294
 30
0.0
 11
61.4521116968
 21
41.0549448294
 31
0.0
  0
LINE
  5
128
330
1F
100
AcDbEntity
  8
0
  6
Continuous
 62
     7
370
    30
100
AcDbLine
 10
59.6677287899
 20
47.0549448294
 30
0.0
 11
59.6677287899
 21
52.3549448294
 31
0.0
  0
LINE
  5
129
330
1F
100
AcDbEntity
  8
0
  6
Continuous
 62
     7
370
    30
100
AcDbLine
 10
59.6677287899
 20
41.7549448294
 30
0.0
 11
59.6677287899
 21
47.0549448294
 31
0.0
  0
SPLINE
  5
12A
330
1F
100
AcDbEntity
  8
0
  6
Continuous
 62
     7
370
    30
100
AcDbSpline
210
0.0
220
0.0
230
1.0
 70
     8
 71
     3
 72
    10
 73
     6
 74
     0
 42
0.000000001
 43
0.00000001
 40
0.0
 40
0.0
 40
0.0
 40
0.0
 40
0.49922077489765
 40
0.998529198624862
 40
1.0
 40
1.0
 40
1.0
 40
1.0
 10
68.15665695644658
 20
53.0508257276435
 30
0.0
 10
68.12981228941622
 20
53.05178903557581
 30
0.0
 10
68.076118242203
 20
53.05371582056962
 30
0.0
 10
68.03157033153724
 20
53.05585584962338
 30
0.0
 10
68.02537954140416
 20
53.05493945167602
 30
0.0
 10
68.02536135889542
 20
53.05493676019184
 30
0.0
  0
SPLINE
  5
12B
330
1F
100
AcDbEntity
  8
0
  6
Continuous
 62
     7
370
    30
100
AcDbSpline
210
0.0
220
0.0
230
1.0
 70
     8
 71
     3
 72
    10
 73
     6
 74
     0
 42
0.000000001
 43
0.00000001
 40
0.0
 40
0.0
 40
0.0
 40
0.0
 40
0.4993754841237276
 40
0.7497467513861408
 40
1.0
 40
1.0
 40
1.0
 40
1.0
 10
68.6310850187452
 20
53.04150272601588
 30
0.0
 10
68.54384805906022
 20
53.04194398939005
 30
0.0
 10
68.41287321306959
 20
53.04260648843498
 30
0.0
 10
68.25335407193508
 20
53.04714705129286
 30
0.0
 10
68.18888426217725
 20
53.04959969492435
 30
0.0
 10
68.15665695644658
 20
53.0508257276435
 30
0.0
  0
LINE
  5
12C
330
1F
100
AcDbEntity
  8
0
  6
Continuous
 62
     7
370
    30
100
AcDbLine
 10
70.574191785
 20
53.041502726
 30
0.0
 11
68.6310850187
 21
53.041502726
 31
0.0
  0
SPLINE
  5
12D
330
1F
100
AcDbEntity
  8
0
  6
Continuous
 62
     7
370
    30
100
AcDbSpline
210
0.0
220
0.0
230
1.0
 70
     8
 71
     3
 72
    13
 73
     9
 74
     0
 42
0.000000001
 43
0.00000001
 40
0.0
 40
0.0
 40
0.0
 40
0.0
 40
0.2499630104052953
 40
0.3804081248445912
 40
0.4999962146716357
 40
0.6195858805539362
 40
0.7500332017559028
 40
1.0
 40
1.0
 40
1.0
 40
1.0
 10
70.7236615362349
 20
53.02964665336971
 30
0.0
 10
70.72256270305188
 20
53.03145093973148
 30
0.0
 10
70.7208904353432
 20
53.03419680677177
 30
0.0
 10
70.70524810310417
 20
53.0371615470649
 30
0.0
 10
70.68731476286305
 20
53.03897356296557
 30
0.0
 10
70.66307621334381
 20
53.04024902911481
 30
0.0
 10
70.6254017786381
 20
53.04132102521578
 30
0.0
 10
70.59449823429617
 20
53.04143067566353
 30
0.0
 10
70.57419178498563
 20
53.04150272601589
 30
0.0
  0
LINE
  5
12E
330
1F
100
AcDbEntity
  8
0
  6
Continuous
 62
     7
370
    30
100
AcDbLine
 10
70.7236615362
 20
53.0296466534
 30
0.0
 11
70.7236615362
 21
53.0238655949
 31
0.0
  0
LINE
  5
12F
330
1F
100
AcDbEntity
  8
0
  6
Continuous
 62
     7
370
    30
100
AcDbLine
 10
70.8432373372
 20
53.0238655949
 30
0.0
 11
70.7236615362
 21
53.0238655949
 31
0.0
  0
LINE
  5
130
330
1F
100
AcDbEntity
  8
0
  6
Continuous
 62
     7
370
    30
100
AcDbLine
 10
70.8432373372
 20
53.0545023342
 30
0.0
 11
70.8432373372
 21
53.0238655949
 31
0.0
  0
LINE
  5
131
330
1F
100
AcDbEntity
  8
0
  6
Continuous
 62
     7
370
    30
100
AcDbLine
 10
70.7236615362
 20
53.0545023342
 30
0.0
 11
70.8432373372
 21
53.0545023342
 31
0.0
  0
LINE
  5
132
330
1F
100
AcDbEntity
  8
0
  6
Continuous
 62
     7
370
    30
100
AcDbLine
 10
70.7236615362
 20
53.0545023342
 30
0.0
 11
70.7236615362
 21
53.0534783836
 31
0.0
  0
SPLINE
  5
133
330
1F
100
AcDbEntity
  8
0
  6
Continuous
 62
     7
370
    30
100
AcDbSpline
210
0.0
220
0.0
230
1.0
 70
     8
 71
     3
 72
    12
 73
     8
 74
     0
 42
0.000000001
 43
0.00000001
 40
0.0
 40
0.0
 40
0.0
 40
0.0
 40
0.2505326527610729
 40
0.5000540682322503
 40
0.6224717351977938
 40
0.7504257125024298
 40
1.0
 40
1.0
 40
1.0
 40
1.0
 10
70.54429783473579
 20
53.0483130596608
 30
0.0
 10
70.56654978878164
 20
53.04835451465942
 30
0.0
 10
70.61096388021491
 20
53.04843725732983
 30
0.0
 10
70.66453824726189
 20
53.04937301474403
 30
0.0
 10
70.69721264825239
 20
53.0506132342578
 30
0.0
 10
70.71963439070251
 20
53.05204655049416
 30
0.0
 10
70.72205881276771
 20
53.05290854263267
 30
0.0
 10
70.7236615362349
 20
53.0534783836058
 30
0.0
  0
LINE
  5
134
330
1F
100
AcDbEntity
  8
0
  6
Continuous
 62
     7
370
    30
100
AcDbLine
 10
68.6310850187
 20
53.0483130597
 30
0.0
 11
70.5442978347
 21
53.0483130597
 31
0.0
  0
SPLINE
  5
135
330
1F
100
AcDbEntity
  8
0
  6
Continuous
 62
     7
370
    30
100
AcDbSpline
210
0.0
220
0.0
230
1.0
 70
     8
 71
     3
 72
    13
 73
     9
 74
     0
 42
0.000000001
 43
0.00000001
 40
0.0
 40
0.0
 40
0.0
 40
0.0
 40
0.2499818069533516
 40
0.3751393729469279
 40
0.5001304191937195
 40
0.6210840622066697
 40
0.750179560721048
 40
1.0
 40
1.0
 40
1.0
 40
1.0
 10
68.18267576499738
 20
53.05220804851032
 30
0.0
 10
68.1858322375016
 20
53.05353522571317
 30
0.0
 10
68.19056905067367
 20
53.05552687634462
 30
0.0
 10
68.23507985274065
 20
53.05444407803608
 30
0.0
 10
68.28798738642416
 20
53.0527951484533
 30
0.0
 10
68.36095145264042
 20
53.05084417793098
 30
0.0
 10
68.47507908063382
 20
53.04875044491772
 30
0.0
 10
68.5690980343582
 20
53.04848684915508
 30
0.0
 10
68.63108501874518
 20
53.04831305966078
 30
0.0
  0
LINE
  5
136
330
1F
100
AcDbEntity
  8
0
  6
Continuous
 62
     7
370
    30
100
AcDbLine
 10
69.9464188297
 20
52.9244443545
 30
0.0
 11
69.6961953943
 21
52.9244443545
 31
0.0
  0
SPLINE
  5
137
330
1F
100
AcDbEntity
  8
0
  6
Continuous
 62
     7
370
    30
100
AcDbSpline
210
0.0
220
0.0
230
1.0
 70
     8
 71
     3
 72
     9
 73
     5
 74
     0
 42
0.000000001
 43
0.00000001
 40
0.0
 40
0.0
 40
0.0
 40
0.0
 40
0.499956549268176
 40
1.0
 40
1.0
 40
1.0
 40
1.0
 10
69.81189605361438
 20
53.0029689621554
 30
0.0
 10
69.81764873970454
 20
52.9912621751014
 30
0.0
 10
69.82915511180543
 20
52.96784656614272
 30
0.0
 10
69.90732865929573
 20
52.93891259654722
 30
0.0
 10
69.94641882973872
 20
52.92444435454733
 30
0.0
  0
LINE
  5
138
330
1F
100
AcDbEntity
  8
0
  6
Continuous
 62
     7
370
    30
100
AcDbLine
 10
69.6884451109
 20
53.0029689622
 30
0.0
 11
69.8118960536
 21
53.0029689622
 31
0.0
  0
LINE
  5
139
330
1F
100
AcDbEntity
  8
0
  6
Continuous
 62
     7
370
    30
100
AcDbLine
 10
69.6884451109
 20
53.0029689622
 30
0.0
 11
69.6884451109
 21
52.9948212375
 31
0.0
  0
SPLINE
  5
13A
330
1F
100
AcDbEntity
  8
0
  6
Continuous
 62
     7
370
    30
100
AcDbSpline
210
0.0
220
0.0
230
1.0
 70
     8
 71
     3
 72
    13
 73
     9
 74
     0
 42
0.000000001
 43
0.00000001
 40
0.0
 40
0.0
 40
0.0
 40
0.0
 40
0.2500397820808341
 40
0.3777937796122265
 40
0.5000001128879025
 40
0.622170094396916
 40
0.7499621575008198
 40
0.9999999999999999
 40
0.9999999999999999
 40
0.9999999999999999
 40
0.9999999999999999
 10
69.55392233479158
 20
52.97433376218833
 30
0.0
 10
69.57220168093689
 20
52.97449083344473
 30
0.0
 10
69.59982057906424
 20
52.97472815785417
 30
0.0
 10
69.63379769896905
 20
52.97699265237107
 30
0.0
 10
69.65552689084574
 20
52.97963223821543
 30
0.0
 10
69.67206622323127
 20
52.98302910230038
 30
0.0
 10
69.68604755371693
 20
52.98822162681854
 30
0.0
 10
69.68749032381128
 20
52.99219305281515
 30
0.0
 10
69.68844511091591
 20
52.99482123754355
 30
0.0
  0
LINE
  5
13B
330
1F
100
AcDbEntity
  8
0
  6
Continuous
 62
     7
370
    30
100
AcDbLine
 10
68.2873045909
 20
52.9743337622
 30
0.0
 11
69.5539223348
 21
52.9743337622
 31
0.0
  0
SPLINE
  5
13C
330
1F
100
AcDbEntity
  8
0
  6
Continuous
 62
     7
370
    30
100
AcDbSpline
210
0.0
220
0.0
230
1.0
 70
     8
 71
     3
 72
    12
 73
     8
 74
     0
 42
0.000000001
 43
0.00000001
 40
0.0
 40
0.0
 40
0.0
 40
0.0
 40
0.2508405333877312
 40
0.50051868234636
 40
0.6258416189945357
 40
0.7508706987083619
 40
1.0
 40
1.0
 40
1.0
 40
1.0
 10
68.13783483962261
 20
53.00296896215538
 30
0.0
 10
68.13861051810409
 20
52.99982585903717
 30
0.0
 10
68.14015828060575
 20
52.99355421780776
 30
0.0
 10
68.1597177850006
 20
52.98512255373672
 30
0.0
 10
68.18850886015085
 20
52.97932261226622
 30
0.0
 10
68.22855954699303
 20
52.9751966657568
 30
0.0
 10
68.26382408234981
 20
52.97467866642629
 30
0.0
 10
68.28730459087187
 20
52.97433376218832
 30
0.0
  0
LINE
  5
13D
330
1F
100
AcDbEntity
  8
0
  6
Continuous
 62
     7
370
    30
100
AcDbLine
 10
68.0182590386
 20
53.0029689622
 30
0.0
 11
68.1378348396
 21
53.0029689622
 31
0.0
  0
LINE
  5
13E
330
1F
100
AcDbEntity
  8
0
  6
Continuous
 62
     7
370
    30
100
AcDbLine
 10
68.0182590386
 20
53.0029689622
 30
0.0
 11
68.0182590386
 21
52.8774775612
 31
0.0
  0
LINE
  5
13F
330
1F
100
AcDbEntity
  8
0
  6
Continuous
 62
     7
370
    30
100
AcDbLine
 10
68.1378348396
 20
52.8774775612
 30
0.0
 11
68.0182590386
 21
52.8774775612
 31
0.0
  0
SPLINE
  5
140
330
1F
100
AcDbEntity
  8
0
  6
Continuous
 62
     7
370
    30
100
AcDbSpline
210
0.0
220
0.0
230
1.0
 70
     8
 71
     3
 72
    13
 73
     9
 74
     0
 42
0.000000001
 43
0.00000001
 40
0.0
 40
0.0
 40
0.0
 40
0.0
 40
0.1252665154879382
 40
0.2503236425728673
 40
0.3681556916605893
 40
0.4999147691912921
 40
0.749519842499126
 40
1.0
 40
1.0
 40
1.0
 40
1.0
 10
68.28730459087187
 20
52.92444435454731
 30
0.0
 10
68.2750993958052
 20
52.92431523027171
 30
0.0
 10
68.25070940718373
 20
52.92405719755733
 30
0.0
 10
68.21637602854389
 20
52.92153545800948
 30
0.0
 10
68.1866652395568
 20
52.91689502999003
 30
0.0
 10
68.15817288870593
 20
52.9082544261793
 30
0.0
 10
68.14018163294739
 20
52.89485842293394
 30
0.0
 10
68.13861801610632
 20
52.88327793653201
 30
0.0
 10
68.1378348396226
 20
52.8774775611576
 30
0.0
  0
LINE
  5
141
330
1F
100
AcDbEntity
  8
0
  6
Continuous
 62
     7
370
    30
100
AcDbLine
 10
69.4791874592
 20
52.9244443545
 30
0.0
 11
68.2873045909
 21
52.9244443545
 31
0.0
  0
SPLINE
  5
142
330
1F
100
AcDbEntity
  8
0
  6
Continuous
 62
     7
370
    30
100
AcDbSpline
210
0.0
220
0.0
230
1.0
 70
     8
 71
     3
 72
    10
 73
     6
 74
     0
 42
0.000000001
 43
0.00000001
 40
0.0
 40
0.0
 40
0.0
 40
0.0
 40
0.2501049341293142
 40
0.5003778651460186
 40
0.9999999999999999
 40
0.9999999999999999
 40
0.9999999999999999
 40
0.9999999999999999
 10
69.79694907848946
 20
52.81093226138306
 30
0.0
 10
69.79215177444954
 20
52.82444076676622
 30
0.0
 10
69.78255394399369
 20
52.8514668512714
 30
0.0
 10
69.68288552777511
 20
52.89446314324782
 30
0.0
 10
69.56063656914688
 20
52.91245630285321
 30
0.0
 10
69.47918745916694
 20
52.92444435454733
 30
0.0
  0
SPLINE
  5
143
330
1F
100
AcDbEntity
  8
0
  6
Continuous
 62
     7
370
    30
100
AcDbSpline
210
0.0
220
0.0
230
1.0
 70
     8
 71
     3
 72
    10
 73
     6
 74
     0
 42
0.000000001
 43
0.00000001
 40
0.0
 40
0.0
 40
0.0
 40
0.0
 40
0.2506156963356863
 40
0.5008152345029634
 40
1.0
 40
1.0
 40
1.0
 40
1.0
 10
69.69232025261496
 20
52.7363830179125
 30
0.0
 10
69.70923623816415
 20
52.74145940324866
 30
0.0
 10
69.74304011953922
 20
52.75160374436427
 30
0.0
 10
69.78766986234172
 20
52.77736575747881
 30
0.0
 10
69.79323919695298
 20
52.79751218892263
 30
0.0
 10
69.79694907848945
 20
52.81093226138306
 30
0.0
  0
SPLINE
  5
144
330
1F
100
AcDbEntity
  8
0
  6
Continuous
 62
     7
370
    30
100
AcDbSpline
210
0.0
220
0.0
230
1.0
 70
     8
 71
     3
 72
    10
 73
     6
 74
     0
 42
0.000000001
 43
0.00000001
 40
0.0
 40
0.0
 40
0.0
 40
0.0
 40
0.2508083184244139
 40
0.5014092167677395
 40
1.0
 40
1.0
 40
1.0
 40
1.0
 10
69.4232747003663
 20
52.70951237237256
 30
0.0
 10
69.4471354923614
 20
52.70976674839953
 30
0.0
 10
69.49483734332426
 20
52.71027529008286
 30
0.0
 10
69.5894535786885
 20
52.71617211266967
 30
0.0
 10
69.65121663321975
 20
52.72830711417202
 30
0.0
 10
69.69232025261498
 20
52.73638301791251
 30
0.0
  0
LINE
  5
145
330
1F
100
AcDbEntity
  8
0
  6
Continuous
 62
     7
370
    30
100
AcDbLine
 10
68.2873045909
 20
52.7095123724
 30
0.0
 11
69.4232747004
 21
52.7095123724
 31
0.0
  0
SPLINE
  5
146
330
1F
100
AcDbEntity
  8
0
  6
Continuous
 62
     7
370
    30
100
AcDbSpline
210
0.0
220
0.0
230
1.0
 70
     8
 71
     3
 72
    12
 73
     8
 74
     0
 42
0.000000001
 43
0.00000001
 40
0.0
 40
0.0
 40
0.0
 40
0.0
 40
0.250840533387743
 40
0.500518682346366
 40
0.62584161899455
 40
0.750870698708366
 40
1.0
 40
1.0
 40
1.0
 40
1.0
 10
68.13783483962261
 20
52.77151533683053
 30
0.0
 10
68.13861051810409
 20
52.76435168951374
 30
0.0
 10
68.14015828060575
 20
52.75005759091904
 30
0.0
 10
68.15971778500062
 20
52.73195368547596
 30
0.0
 10
68.18850886015085
 20
52.71979157947051
 30
0.0
 10
68.22855954699304
 20
52.7112683169615
 30
0.0
 10
68.26382408234981
 20
52.71021422684678
 30
0.0
 10
68.28730459087188
 20
52.70951237237255
 30
0.0
  0
LINE
  5
147
330
1F
100
AcDbEntity
  8
0
  6
Continuous
 62
     7
370
    30
100
AcDbLine
 10
68.0182590386
 20
52.7715153368
 30
0.0
 11
68.1378348396
 21
52.7715153368
 31
0.0
  0
LINE
  5
148
330
1F
100
AcDbEntity
  8
0
  6
Continuous
 62
     7
370
    30
100
AcDbLine
 10
68.0182590386
 20
52.7715153368
 30
0.0
 11
68.0182590386
 21
52.5317752659
 31
0.0
  0
LINE
  5
149
330
1F
100
AcDbEntity
  8
0
  6
Continuous
 62
     7
370
    30
100
AcDbLine
 10
68.1378348396
 20
52.5317752659
 30
0.0
 11
68.0182590386
 21
52.5317752659
 31
0.0
  0
SPLINE
  5
14A
330
1F
100
AcDbEntity
  8
0
  6
Continuous
 62
     7
370
    30
100
AcDbSpline
210
0.0
220
0.0
230
1.0
 70
     8
 71
     3
 72
    13
 73
     9
 74
     0
 42
0.000000001
 43
0.00000001
 40
0.0
 40
0.0
 40
0.0
 40
0.0
 40
0.1252665154874516
 40
0.2503236425718699
 40
0.3681556916879802
 40
0.4999147691932097
 40
0.7495198425001095
 40
1.0
 40
1.0
 40
1.0
 40
1.0
 10
68.28730459087187
 20
52.61388728284145
 30
0.0
 10
68.27509939580511
 20
52.61365285026065
 30
0.0
 10
68.25070940718346
 20
52.61318437696327
 30
0.0
 10
68.21637602854231
 20
52.60861746703873
 30
0.0
 10
68.18666523955034
 20
52.60026619139076
 30
0.0
 10
68.1581728887081
 20
52.58486960474856
 30
0.0
 10
68.14018163294648
 20
52.56136346701486
 30
0.0
 10
68.13861801610602
 20
52.54164949855782
 30
0.0
 10
68.1378348396226
 20
52.53177526588731
 30
0.0
  0
LINE
  5
14B
330
1F
100
AcDbEntity
  8
0
  6
Continuous
 62
     7
370
    30
100
AcDbLine
 10
69.4232747004
 20
52.6138872828
 30
0.0
 11
68.2873045909
 21
52.6138872828
 31
0.0
  0
SPLINE
  5
14C
330
1F
100
AcDbEntity
  8
0
  6
Continuous
 62
     7
370
    30
100
AcDbSpline
210
0.0
220
0.0
230
1.0
 70
     8
 71
     3
 72
    10
 73
     6
 74
     0
 42
0.000000001
 43
0.00000001
 40
0.0
 40
0.0
 40
0.0
 40
0.0
 40
0.2501564763781308
 40
0.5003736012593306
 40
1.0
 40
1.0
 40
1.0
 40
1.0
 10
69.80469936188756
 20
52.66173071554846
 30
0.0
 10
69.77794306717924
 20
52.65391340338705
 30
0.0
 10
69.72442399090589
 20
52.63827688381736
 30
0.0
 10
69.59596602997235
 20
52.61802863732697
 30
0.0
 10
69.49232890132029
 20
52.61554328911297
 30
0.0
 10
69.4232747003663
 20
52.61388728284145
 30
0.0
  0
SPLINE
  5
14D
330
1F
100
AcDbEntity
  8
0
  6
Continuous
 62
     7
370
    30
100
AcDbSpline
210
0.0
220
0.0
230
1.0
 70
     8
 71
     3
 72
    10
 73
     6
 74
     0
 42
0.000000001
 43
0.00000001
 40
0.0
 40
0.0
 40
0.0
 40
0.0
 40
0.4994179363304518
 40
0.7497315281210678
 40
0.9999999999999999
 40
0.9999999999999999
 40
0.9999999999999999
 40
0.9999999999999999
 10
69.94641882973872
 20
52.78497459425845
 30
0.0
 10
69.94154637496119
 20
52.76373458153142
 30
0.0
 10
69.93423179392533
 20
52.7318488480791
 30
0.0
 10
69.87463112909087
 20
52.68884795246246
 30
0.0
 10
69.82800855018158
 20
52.67076925134585
 30
0.0
 10
69.80469936188757
 20
52.66173071554846
 30
0.0
  0
SPLINE
  5
14E
330
1F
100
AcDbEntity
  8
0
  6
Continuous
 62
     7
370
    30
100
AcDbSpline
210
0.0
220
0.0
230
1.0
 70
     8
 71
     3
 72
    11
 73
     7
 74
     0
 42
0.000000001
 43
0.00000001
 40
0.0
 40
0.0
 40
0.0
 40
0.0
 40
0.1255229121053028
 40
0.2509825561300572
 40
0.5015396269937159
 40
1.0
 40
1.0
 40
1.0
 40
1.0
 10
69.69619539431402
 20
52.92444435454733
 30
0.0
 10
69.71585424391544
 20
52.92081004557684
 30
0.0
 10
69.75516203434822
 20
52.91354325945884
 30
0.0
 10
69.82355177314247
 20
52.89600729075394
 30
0.0
 10
69.92092737069329
 20
52.85928368064657
 30
0.0
 10
69.93623309175415
 20
52.81466661316066
 30
0.0
 10
69.94641882973872
 20
52.78497459425844
 30
0.0
  0
LINE
  5
14F
330
1F
100
AcDbEntity
  8
0
  6
Continuous
 62
     7
370
    30
100
AcDbLine
 10
69.9464188297
 20
51.9641723567
 30
0.0
 11
68.3620394665
 21
51.9641723567
 31
0.0
  0
SPLINE
  5
150
330
1F
100
AcDbEntity
  8
0
  6
Continuous
 62
     7
370
    30
100
AcDbSpline
210
0.0
220
0.0
230
1.0
 70
     8
 71
     3
 72
    10
 73
     6
 74
     0
 42
0.000000001
 43
0.00000001
 40
0.0
 40
0.0
 40
0.0
 40
0.0
 40
0.3291674793685682
 40
0.6529478694290995
 40
1.0
 40
1.0
 40
1.0
 40
1.0
 10
69.82684302873932
 20
52.26825477304872
 30
0.0
 10
69.83021764838044
 20
52.23603805665053
 30
0.0
 10
69.83691165931081
 20
52.17213187620845
 30
0.0
 10
69.88043123302737
 20
52.07001962467091
 30
0.0
 10
69.92392007607063
 20
52.00026143598561
 30
0.0
 10
69.94641882973873
 20
51.9641723567245
 30
0.0
  0
LINE
  5
151
330
1F
100
AcDbEntity
  8
0
  6
Continuous
 62
     7
370
    30
100
AcDbLine
 10
69.703392086
 20
52.268254773
 30
0.0
 11
69.8268430287
 21
52.268254773
 31
0.0
  0
LINE
  5
152
330
1F
100
AcDbEntity
  8
0
  6
Continuous
 62
     7
370
    30
100
AcDbLine
 10
69.6884451109
 20
52.1673241351
 30
0.0
 11
69.703392086
 21
52.268254773
 31
0.0
  0
SPLINE
  5
153
330
1F
100
AcDbEntity
  8
0
  6
Continuous
 62
     7
370
    30
100
AcDbSpline
210
0.0
220
0.0
230
1.0
 70
     8
 71
     3
 72
    12
 73
     8
 74
     0
 42
0.000000001
 43
0.00000001
 40
0.0
 40
0.0
 40
0.0
 40
0.0
 40
0.2503346058885123
 40
0.4996227417223312
 40
0.626252295729986
 40
0.7498929195186088
 40
1.0
 40
1.0
 40
1.0
 40
1.0
 10
69.53897535966667
 20
52.11386743761236
 30
0.0
 10
69.55525893921363
 20
52.11428024950364
 30
0.0
 10
69.5877580283006
 20
52.11510414761477
 30
0.0
 10
69.62650132812674
 20
52.12338894549166
 30
0.0
 10
69.65212100590232
 20
52.13410862899224
 30
0.0
 10
69.6732825293269
 20
52.1474169513619
 30
0.0
 10
69.68236634209586
 20
52.15934322713876
 30
0.0
 10
69.68844511091592
 20
52.16732413506539
 30
0.0
  0
LINE
  5
154
330
1F
100
AcDbEntity
  8
0
  6
Continuous
 62
     7
370
    30
100
AcDbLine
 10
68.3620394665
 20
52.1138674376
 30
0.0
 11
69.5389753597
 21
52.1138674376
 31
0.0
  0
SPLINE
  5
155
330
1F
100
AcDbEntity
  8
0
  6
Continuous
 62
     7
370
    30
100
AcDbSpline
210
0.0
220
0.0
230
1.0
 70
     8
 71
     3
 72
    10
 73
     6
 74
     0
 42
0.000000001
 43
0.00000001
 40
0.0
 40
0.0
 40
0.0
 40
0.0
 40
0.249280566715285
 40
0.5008826090635661
 40
0.9999999999999999
 40
0.9999999999999999
 40
0.9999999999999999
 40
0.9999999999999999
 10
68.17160393157152
 20
52.16732413506538
 30
0.0
 10
68.18161980842417
 20
52.15886602994926
 30
0.0
 10
68.20174483700592
 20
52.14187105190457
 30
0.0
 10
68.26598633155179
 20
52.11805524386399
 30
0.0
 10
68.32368102707804
 20
52.11553982147043
 30
0.0
 10
68.36203946649653
 20
52.11386743761234
 30
0.0
  0
LINE
  5
156
330
1F
100
AcDbEntity
  8
0
  6
Continuous
 62
     7
370
    30
100
AcDbLine
 10
68.1378348396
 20
52.2829879298
 30
0.0
 11
68.1716039316
 21
52.1673241351
 31
0.0
  0
LINE
  5
157
330
1F
100
AcDbEntity
  8
0
  6
Continuous
 62
     7
370
    30
100
AcDbLine
 10
68.0182590386
 20
52.2829879298
 30
0.0
 11
68.1378348396
 21
52.2829879298
 31
0.0
  0
LINE
  5
158
330
1F
100
AcDbEntity
  8
0
  6
Continuous
 62
     7
370
    30
100
AcDbLine
 10
68.0182590386
 20
52.2829879298
 30
0.0
 11
68.0182590386
 21
51.7585756871
 31
0.0
  0
LINE
  5
159
330
1F
100
AcDbEntity
  8
0
  6
Continuous
 62
     7
370
    30
100
AcDbLine
 10
68.1378348396
 20
51.7585756871
 30
0.0
 11
68.0182590386
 21
51.7585756871
 31
0.0
  0
LINE
  5
15A
330
1F
100
AcDbEntity
  8
0
  6
Continuous
 62
     7
370
    30
100
AcDbLine
 10
68.1677287899
 20
51.905556911
 30
0.0
 11
68.1378348396
 21
51.7585756871
 31
0.0
  0
SPLINE
  5
15B
330
1F
100
AcDbEntity
  8
0
  6
Continuous
 62
     7
370
    30
100
AcDbSpline
210
0.0
220
0.0
230
1.0
 70
     8
 71
     3
 72
    10
 73
     6
 74
     0
 42
0.000000001
 43
0.00000001
 40
0.0
 40
0.0
 40
0.0
 40
0.0
 40
0.4995416504901276
 40
0.7498034709452628
 40
1.0
 40
1.0
 40
1.0
 40
1.0
 10
68.36203946649653
 20
51.96417235672449
 30
0.0
 10
68.32306365595478
 20
51.96251637556035
 30
0.0
 10
68.26456163115178
 20
51.96003077616444
 30
0.0
 10
68.19635693680785
 20
51.93557953371631
 30
0.0
 10
68.17727067549932
 20
51.9155635814272
 30
0.0
 10
68.16772878987248
 20
51.90555691095529
 30
0.0
  0
SPLINE
  5
15C
330
1F
100
AcDbEntity
  8
0
  6
Continuous
 62
     7
370
    30
100
AcDbSpline
210
0.0
220
0.0
230
1.0
 70
     8
 71
     3
 72
    14
 73
    10
 74
     0
 42
0.000000001
 43
0.00000001
 40
0.0
 40
0.0
 40
0.0
 40
0.0
 40
0.125325882817842
 40
0.2505180437899538
 40
0.3797024442429534
 40
0.5003456296711917
 40
0.6209804983576205
 40
0.7501746542468083
 40
1.0
 40
1.0
 40
1.0
 40
1.0
 10
70.87313128748417
 20
52.04027284991461
 30
0.0
 10
70.87283910265552
 20
52.03293026786121
 30
0.0
 10
70.87225504475738
 20
52.01825293823842
 30
0.0
 10
70.86436072255441
 20
51.99606874983473
 30
0.0
 10
70.84935055394446
 20
51.97515050339776
 30
0.0
 10
70.825674667293
 20
51.95707716717304
 30
0.0
 10
70.79426677257611
 20
51.94343498340703
 30
0.0
 10
70.74532101134866
 20
51.93151325605687
 30
0.0
 10
70.70523966416648
 20
51.93033327672914
 30
0.0
 10
70.67882061086011
 20
51.92955551003836
 30
0.0
  0
SPLINE
  5
15D
330
1F
100
AcDbEntity
  8
0
  6
Continuous
 62
     7
370
    30
100
AcDbSpline
210
0.0
220
0.0
230
1.0
 70
     8
 71
     3
 72
     9
 73
     5
 74
     0
 42
0.000000001
 43
0.00000001
 40
0.0
 40
0.0
 40
0.0
 40
0.0
 40
0.4995077818326918
 40
1.0
 40
1.0
 40
1.0
 40
1.0
 10
70.81721852868351
 20
52.11594993949787
 30
0.0
 10
70.83402889604932
 20
52.10517321891654
 30
0.0
 10
70.86768276086826
 20
52.08359853885496
 30
0.0
 10
70.87131392039707
 20
52.05472422120387
 30
0.0
 10
70.87313128748417
 20
52.04027284991461
 30
0.0
  0
SPLINE
  5
15E
330
1F
100
AcDbEntity
  8
0
  6
Continuous
 62
     7
370
    30
100
AcDbSpline
210
0.0
220
0.0
230
1.0
 70
     8
 71
     3
 72
    10
 73
     6
 74
     0
 42
0.000000001
 43
0.00000001
 40
0.0
 40
0.0
 40
0.0
 40
0.0
 40
0.2508377305454059
 40
0.5013368652755478
 40
0.9999999999999999
 40
0.9999999999999999
 40
0.9999999999999999
 40
0.9999999999999999
 10
70.67882061086011
 20
52.14576205701237
 30
0.0
 10
70.69160453490427
 20
52.14548312806075
 30
0.0
 10
70.71715512648507
 20
52.14492564667254
 30
0.0
 10
70.76707530768458
 20
52.13762591148006
 30
0.0
 10
70.79718000752122
 20
52.1246122155668
 30
0.0
 10
70.81721852868353
 20
52.11594993949786
 30
0.0
  0
SPLINE
  5
15F
330
1F
100
AcDbEntity
  8
0
  6
Continuous
 62
     7
370
    30
100
AcDbSpline
210
0.0
220
0.0
230
1.0
 70
     8
 71
     3
 72
    10
 73
     6
 74
     0
 42
0.000000001
 43
0.00000001
 40
0.0
 40
0.0
 40
0.0
 40
0.0
 40
0.2507789149874363
 40
0.5012404149339171
 40
1.0
 40
1.0
 40
1.0
 40
1.0
 10
70.54042269303673
 20
52.11594993949785
 30
0.0
 10
70.55001579830311
 20
52.12047845795752
 30
0.0
 10
70.5691898666831
 20
52.12952976305575
 30
0.0
 10
70.61466782939704
 20
52.14264160247324
 30
0.0
 10
70.6531817404589
 20
52.14451495707849
 30
0.0
 10
70.67882061086011
 20
52.14576205701237
 30
0.0
  0
SPLINE
  5
160
330
1F
100
AcDbEntity
  8
0
  6
Continuous
 62
     7
370
    30
100
AcDbSpline
210
0.0
220
0.0
230
1.0
 70
     8
 71
     3
 72
    10
 73
     6
 74
     0
 42
0.000000001
 43
0.00000001
 40
0.0
 40
0.0
 40
0.0
 40
0.0
 40
0.2508016000314264
 40
0.5012358405695821
 40
1.0
 40
1.0
 40
1.0
 40
1.0
 10
70.48063479253702
 20
52.04027284991461
 30
0.0
 10
70.48138221429544
 20
52.04743813976217
 30
0.0
 10
70.48287596303267
 20
52.0617582241604
 30
0.0
 10
70.49781704659634
 20
52.08929586257207
 30
0.0
 10
70.5233948028378
 20
52.1052972975791
 30
0.0
 10
70.54042269303673
 20
52.11594993949785
 30
0.0
  0
SPLINE
  5
161
330
1F
100
AcDbEntity
  8
0
  6
Continuous
 62
     7
370
    30
100
AcDbSpline
210
0.0
220
0.0
230
1.0
 70
     8
 71
     3
 72
    10
 73
     6
 74
     0
 42
0.000000001
 43
0.00000001
 40
0.0
 40
0.0
 40
0.0
 40
0.0
 40
0.250842854850828
 40
0.5013299441761614
 40
1.0
 40
1.0
 40
1.0
 40
1.0
 10
70.54042269303673
 20
51.9619434087278
 30
0.0
 10
70.53177737852988
 20
51.96744284000665
 30
0.0
 10
70.51449901099701
 20
51.97843390282833
 30
0.0
 10
70.48766881144039
 20
52.0039872060936
 30
0.0
 10
70.48344580242403
 20
52.02577199273205
 30
0.0
 10
70.48063479253703
 20
52.04027284991461
 30
0.0
  0
SPLINE
  5
162
330
1F
100
AcDbEntity
  8
0
  6
Continuous
 62
     7
370
    30
100
AcDbSpline
210
0.0
220
0.0
230
1.0
 70
     8
 71
     3
 72
    10
 73
     6
 74
     0
 42
0.000000001
 43
0.00000001
 40
0.0
 40
0.0
 40
0.0
 40
0.0
 40
0.2507553566625882
 40
0.5011736638904877
 40
1.0
 40
1.0
 40
1.0
 40
1.0
 10
70.67882061086011
 20
51.92955551003836
 30
0.0
 10
70.66604674765404
 20
51.92987574301095
 30
0.0
 10
70.64051619105801
 20
51.93051577851929
 30
0.0
 10
70.59069873274048
 20
51.93868453936444
 30
0.0
 10
70.56051691291084
 20
51.95264735363347
 30
0.0
 10
70.54042269303673
 20
51.9619434087278
 30
0.0
  0
SPLINE
  5
163
330
1F
100
AcDbEntity
  8
0
  6
Continuous
 62
     7
370
    30
100
AcDbSpline
210
0.0
220
0.0
230
1.0
 70
     8
 71
     3
 72
     9
 73
     5
 74
     0
 42
0.000000001
 43
0.00000001
 40
0.0
 40
0.0
 40
0.0
 40
0.0
 40
0.5006698252641565
 40
1.0
 40
1.0
 40
1.0
 40
1.0
 10
69.94641882973875
 20
50.64727196466191
 30
0.0
 10
69.94352793767773
 20
50.57740355013114
 30
0.0
 10
69.93775388876338
 20
50.4378536691414
 30
0.0
 10
69.86378028248713
 20
50.30623401515664
 30
0.0
 10
69.82684302873936
 20
50.24051235033375
 30
0.0
  0
SPLINE
  5
164
330
1F
100
AcDbEntity
  8
0
  6
Continuous
 62
     7
370
    30
100
AcDbSpline
210
0.0
220
0.0
230
1.0
 70
     8
 71
     3
 72
    11
 73
     7
 74
     0
 42
0.000000001
 43
0.00000001
 40
0.0
 40
0.0
 40
0.0
 40
0.0
 40
0.125413896456068
 40
0.2507777640573583
 40
0.5011130148295584
 40
1.0
 40
1.0
 40
1.0
 40
1.0
 10
69.68844511091594
 20
51.14048865137805
 30
0.0
 10
69.70925759784943
 20
51.12489338708685
 30
0.0
 10
69.75087426940769
 20
51.093709079611
 30
0.0
 10
69.82244941053011
 20
51.02316203128872
 30
0.0
 10
69.9220762474636
 20
50.88365127571326
 30
0.0
 10
69.93668875381503
 20
50.7417561330762
 30
0.0
 10
69.94641882973875
 20
50.64727196466191
 30
0.0
  0
SPLINE
  5
165
330
1F
100
AcDbEntity
  8
0
  6
Continuous
 62
     7
370
    30
100
AcDbSpline
210
0.0
220
0.0
230
1.0
 70
     8
 71
     3
 72
     9
 73
     5
 74
     0
 42
0.000000001
 43
0.00000001
 40
0.0
 40
0.0
 40
0.0
 40
0.0
 40
0.5003832241934798
 40
1.0
 40
1.0
 40
1.0
 40
1.0
 10
69.00475939686837
 20
51.33335251338186
 30
0.0
 10
69.13253486923671
 20
51.32659134032053
 30
0.0
 10
69.38789009737064
 20
51.3130793504407
 30
0.0
 10
69.58831131057269
 20
51.19798948091731
 30
0.0
 10
69.68844511091594
 20
51.14048865137805
 30
0.0
  0
SPLINE
  5
166
330
1F
100
AcDbEntity
  8
0
  6
Continuous
 62
     7
370
    30
100
AcDbSpline
210
0.0
220
0.0
230
1.0
 70
     8
 71
     3
 72
    10
 73
     6
 74
     0
 42
0.000000001
 43
0.00000001
 40
0.0
 40
0.0
 40
0.0
 40
0.0
 40
0.2499230536796421
 40
0.5001178084698149
 40
1.0
 40
1.0
 40
1.0
 40
1.0
 10
68.24246366549711
 20
51.16233080944471
 30
0.0
 10
68.29634686759628
 20
51.19271519574365
 30
0.0
 10
68.40417185032761
 20
51.25351700039433
 30
0.0
 10
68.66351042423649
 20
51.32058514866828
 30
0.0
 10
68.86828750820328
 20
51.32824660386864
 30
0.0
 10
69.00475939686837
 20
51.33335251338186
 30
0.0
  0
SPLINE
  5
167
330
1F
100
AcDbEntity
  8
0
  6
Continuous
 62
     7
370
    30
100
AcDbSpline
210
0.0
220
0.0
230
1.0
 70
     8
 71
     3
 72
     9
 73
     5
 74
     0
 42
0.000000001
 43
0.00000001
 40
0.0
 40
0.0
 40
0.0
 40
0.0
 40
0.5000936746673098
 40
1.0
 40
1.0
 40
1.0
 40
1.0
 10
67.98836508837337
 20
50.70685121068149
 30
0.0
 10
67.99889593028013
 20
50.7954837734362
 30
0.0
 10
68.01995366894033
 20
50.97271569466311
 30
0.0
 10
68.16830293102339
 20
51.09913366595845
 30
0.0
 10
68.24246366549713
 20
51.16233080944471
 30
0.0
  0
SPLINE
  5
168
330
1F
100
AcDbEntity
  8
0
  6
Continuous
 62
     7
370
    30
100
AcDbSpline
210
0.0
220
0.0
230
1.0
 70
     8
 71
     3
 72
     9
 73
     5
 74
     0
 42
0.000000001
 43
0.00000001
 40
0.0
 40
0.0
 40
0.0
 40
0.0
 40
0.4996384136483036
 40
1.0
 40
1.0
 40
1.0
 40
1.0
 10
68.11901272279866
 20
50.30359520272211
 30
0.0
 10
68.0797288671059
 20
50.36841276982162
 30
0.0
 10
68.0011042965771
 20
50.49814172045655
 30
0.0
 10
67.99261353786959
 20
50.63724784802172
 30
0.0
 10
67.98836508837337
 20
50.70685121068149
 30
0.0
  0
SPLINE
  5
169
330
1F
100
AcDbEntity
  8
0
  6
Continuous
 62
     7
370
    30
100
AcDbSpline
210
0.0
220
0.0
230
1.0
 70
     8
 71
     3
 72
     9
 73
     5
 74
     0
 42
0.000000001
 43
0.00000001
 40
0.0
 40
0.0
 40
0.0
 40
0.0
 40
0.5012934905933972
 40
1.0
 40
1.0
 40
1.0
 40
1.0
 10
68.56742197654646
 20
50.02239302533021
 30
0.0
 10
68.48070298241686
 20
50.05620214628142
 30
0.0
 10
68.3077125172366
 20
50.12364591242964
 30
0.0
 10
68.1818040800252
 20
50.243715645338
 30
0.0
 10
68.11901272279866
 20
50.30359520272212
 30
0.0
  0
LINE
  5
16A
330
1F
100
AcDbEntity
  8
0
  6
Continuous
 62
     7
370
    30
100
AcDbLine
 10
68.6161380436
 20
50.0742086057
 30
0.0
 11
68.5674219765
 21
50.0223930253
 31
0.0
  0
SPLINE
  5
16B
330
1F
100
AcDbEntity
  8
0
  6
Continuous
 62
     7
370
    30
100
AcDbSpline
210
0.0
220
0.0
230
1.0
 70
     8
 71
     3
 72
     9
 73
     5
 74
     0
 42
0.000000001
 43
0.00000001
 40
0.0
 40
0.0
 40
0.0
 40
0.0
 40
0.4986668931320001
 40
1.0
 40
1.0
 40
1.0
 40
1.0
 10
68.24633880719618
 20
50.37540152405136
 30
0.0
 10
68.2945684770819
 20
50.31430773789297
 30
0.0
 10
68.39128568560318
 20
50.1917935164762
 30
0.0
 10
68.54105415269987
 20
50.11347318224114
 30
0.0
 10
68.6161380436203
 20
50.07420860574815
 30
0.0
  0
LINE
  5
16C
330
1F
100
AcDbEntity
  8
0
  6
Continuous
 62
     7
370
    30
100
AcDbLine
 10
68.182675765
 20
50.6711710626
 30
0.0
 11
68.2463388072
 21
50.3754015241
 31
0.0
  0
SPLINE
  5
16D
330
1F
100
AcDbEntity
  8
0
  6
Continuous
 62
     7
370
    30
100
AcDbSpline
210
0.0
220
0.0
230
1.0
 70
     8
 71
     3
 72
    11
 73
     7
 74
     0
 42
0.000000001
 43
0.00000001
 40
0.0
 40
0.0
 40
0.0
 40
0.0
 40
0.2502278532405994
 40
0.5002161221344738
 40
0.749922902930593
 40
1.0
 40
1.0
 40
1.0
 40
1.0
 10
68.45559645894514
 20
51.03515562491487
 30
0.0
 10
68.41626693538907
 20
51.01489346257726
 30
0.0
 10
68.33764554490901
 20
50.97438853820805
 30
0.0
 10
68.24750328355611
 20
50.88823871758839
 30
0.0
 10
68.19166172922175
 20
50.78457936092038
 30
0.0
 10
68.18567256563475
 20
50.70899249744576
 30
0.0
 10
68.18267576499743
 20
50.67117106255865
 30
0.0
  0
SPLINE
  5
16E
330
1F
100
AcDbEntity
  8
0
  6
Continuous
 62
     7
370
    30
100
AcDbSpline
210
0.0
220
0.0
230
1.0
 70
     8
 71
     3
 72
     9
 73
     5
 74
     0
 42
0.000000001
 43
0.00000001
 40
0.0
 40
0.0
 40
0.0
 40
0.0
 40
0.5003804375913005
 40
1.0
 40
1.0
 40
1.0
 40
1.0
 10
69.00475939686837
 20
51.14048865137805
 30
0.0
 10
68.9081561801355
 20
51.13732126561102
 30
0.0
 10
68.71509664088194
 20
51.13099131038282
 30
0.0
 10
68.54205263129329
 20
51.06708464507231
 30
0.0
 10
68.45559645894515
 20
51.03515562491487
 30
0.0
  0
SPLINE
  5
16F
330
1F
100
AcDbEntity
  8
0
  6
Continuous
 62
     7
370
    30
100
AcDbSpline
210
0.0
220
0.0
230
1.0
 70
     8
 71
     3
 72
     9
 73
     5
 74
     0
 42
0.000000001
 43
0.00000001
 40
0.0
 40
0.0
 40
0.0
 40
0.0
 40
0.4993513543406675
 40
1.0
 40
1.0
 40
1.0
 40
1.0
 10
69.59876326016638
 20
50.99021989888745
 30
0.0
 10
69.50919853786674
 20
51.03576745333888
 30
0.0
 10
69.32983640833386
 20
51.12698089264465
 30
0.0
 10
69.1132120756456
 20
51.13598217270608
 30
0.0
 10
69.00475939686837
 20
51.14048865137805
 30
0.0
  0
SPLINE
  5
170
330
1F
100
AcDbEntity
  8
0
  6
Continuous
 62
     7
370
    30
100
AcDbSpline
210
0.0
220
0.0
230
1.0
 70
     8
 71
     3
 72
    11
 73
     7
 74
     0
 42
0.000000001
 43
0.00000001
 40
0.0
 40
0.0
 40
0.0
 40
0.0
 40
0.1254637692826931
 40
0.2508743879101155
 40
0.501263524972592
 40
1.0
 40
1.0
 40
1.0
 40
1.0
 10
69.8118960536144
 20
50.64727196466191
 30
0.0
 10
69.81127708670667
 20
50.66413717782601
 30
0.0
 10
69.81003941510627
 20
50.69786045948499
 30
0.0
 10
69.795820211746
 20
50.76362000759459
 30
0.0
 10
69.74795118976259
 20
50.87438598398717
 30
0.0
 10
69.65838961061937
 20
50.94392423929302
 30
0.0
 10
69.59876326016638
 20
50.99021989888745
 30
0.0
  0
SPLINE
  5
171
330
1F
100
AcDbEntity
  8
0
  6
Continuous
 62
     7
370
    30
100
AcDbSpline
210
0.0
220
0.0
230
1.0
 70
     8
 71
     3
 72
    13
 73
     9
 74
     0
 42
0.000000001
 43
0.00000001
 40
0.0
 40
0.0
 40
0.0
 40
0.0
 40
0.0626139020342166
 40
0.1250081517118448
 40
0.1852395402851172
 40
0.250142576171659
 40
0.4995812533042255
 40
1.0
 40
1.0
 40
1.0
 40
1.0
 10
69.67737327749008
 20
50.36617404239802
 30
0.0
 10
69.6857698926744
 20
50.36679466183494
 30
0.0
 10
69.70253366734309
 20
50.36803372354817
 30
0.0
 10
69.7256915928959
 20
50.37655430552564
 30
0.0
 10
69.74507868181004
 20
50.39013605597533
 30
0.0
 10
69.77587411630049
 20
50.42339063064093
 30
0.0
 10
69.80800109325183
 20
50.51223379753876
 30
0.0
 10
69.81033710909557
 20
50.5932234016796
 30
0.0
 10
69.8118960536144
 20
50.64727196466191
 30
0.0
  0
SPLINE
  5
172
330
1F
100
AcDbEntity
  8
0
  6
Continuous
 62
     7
370
    30
100
AcDbSpline
210
0.0
220
0.0
230
1.0
 70
     8
 71
     3
 72
    10
 73
     6
 74
     0
 42
0.000000001
 43
0.00000001
 40
0.0
 40
0.0
 40
0.0
 40
0.0
 40
0.5006964024275513
 40
0.7525520720605016
 40
1.0
 40
1.0
 40
1.0
 40
1.0
 10
69.62533566038847
 20
50.40025915894623
 30
0.0
 10
69.63181198445187
 20
50.39236771413909
 30
0.0
 10
69.64154596909728
 20
50.38050678781254
 30
0.0
 10
69.66032557264957
 20
50.3686626255113
 30
0.0
 10
69.67172425087976
 20
50.36699867376984
 30
0.0
 10
69.67737327749008
 20
50.36617404239802
 30
0.0
  0
SPLINE
  5
173
330
1F
100
AcDbEntity
  8
0
  6
Continuous
 62
     7
370
    30
100
AcDbSpline
210
0.0
220
0.0
230
1.0
 70
     8
 71
     3
 72
     9
 73
     5
 74
     0
 42
0.000000001
 43
0.00000001
 40
0.0
 40
0.0
 40
0.0
 40
0.0
 40
0.5003366825879778
 40
1.0
 40
1.0
 40
1.0
 40
1.0
 10
69.51295655111588
 20
50.42823916055094
 30
0.0
 10
69.53303044806367
 20
50.42724736244828
 30
0.0
 10
69.5731512260245
 20
50.42526510102874
 30
0.0
 10
69.60794865939377
 20
50.40859073032688
 30
0.0
 10
69.62533566038847
 20
50.40025915894623
 30
0.0
  0
SPLINE
  5
174
330
1F
100
AcDbEntity
  8
0
  6
Continuous
 62
     7
370
    30
100
AcDbSpline
210
0.0
220
0.0
230
1.0
 70
     8
 71
     3
 72
    10
 73
     6
 74
     0
 42
0.000000001
 43
0.00000001
 40
0.0
 40
0.0
 40
0.0
 40
0.0
 40
0.2510481082437978
 40
0.5017582820258824
 40
1.0
 40
1.0
 40
1.0
 40
1.0
 10
69.40113103351459
 20
50.38461769904603
 30
0.0
 10
69.40854966204142
 20
50.39094068870777
 30
0.0
 10
69.42337693292053
 20
50.40357815669007
 30
0.0
 10
69.4599250895419
 20
50.42238578521098
 30
0.0
 10
69.49177099795465
 20
50.42590079402743
 30
0.0
 10
69.51295655111588
 20
50.42823916055094
 30
0.0
  0
SPLINE
  5
175
330
1F
100
AcDbEntity
  8
0
  6
Continuous
 62
     7
370
    30
100
AcDbSpline
210
0.0
220
0.0
230
1.0
 70
     8
 71
     3
 72
    10
 73
     6
 74
     0
 42
0.000000001
 43
0.00000001
 40
0.0
 40
0.0
 40
0.0
 40
0.0
 40
0.2508330002098689
 40
0.5013491902807713
 40
1.0
 40
1.0
 40
1.0
 40
1.0
 10
69.34853982474169
 20
50.27842199695527
 30
0.0
 10
69.34914421706131
 20
50.2883186071421
 30
0.0
 10
69.35035223833364
 20
50.3080993277791
 30
0.0
 10
69.36353974035542
 20
50.3464564524002
 30
0.0
 10
69.38610886551108
 20
50.36936776720917
 30
0.0
 10
69.40113103351459
 20
50.38461769904603
 30
0.0
  0
SPLINE
  5
176
330
1F
100
AcDbEntity
  8
0
  6
Continuous
 62
     7
370
    30
100
AcDbSpline
210
0.0
220
0.0
230
1.0
 70
     8
 71
     3
 72
     9
 73
     5
 74
     0
 42
0.000000001
 43
0.00000001
 40
0.0
 40
0.0
 40
0.0
 40
0.0
 40
0.4997213296138175
 40
1.0
 40
1.0
 40
1.0
 40
1.0
 10
69.3823089166906
 20
50.16416141620639
 30
0.0
 10
69.372229713434
 20
50.18234352063642
 30
0.0
 10
69.35206006555369
 20
50.21872800805479
 30
0.0
 10
69.34971367425887
 20
50.25851660871863
 30
0.0
 10
69.34853982474169
 20
50.27842199695527
 30
0.0
  0
SPLINE
  5
177
330
1F
100
AcDbEntity
  8
0
  6
Continuous
 62
     7
370
    30
100
AcDbSpline
210
0.0
220
0.0
230
1.0
 70
     8
 71
     3
 72
    10
 73
     6
 74
     0
 42
0.000000001
 43
0.00000001
 40
0.0
 40
0.0
 40
0.0
 40
0.0
 40
0.2507574264030895
 40
0.5011859718679686
 40
1.0
 40
1.0
 40
1.0
 40
1.0
 10
69.5389753596667
 20
50.11287383211885
 30
0.0
 10
69.52467601602916
 20
50.11349800143176
 30
0.0
 10
69.49609608306027
 20
50.11474552142823
 30
0.0
 10
69.43985466530859
 20
50.12668736015597
 30
0.0
 10
69.40530837571372
 20
50.14918406275698
 30
0.0
 10
69.3823089166906
 20
50.16416141620639
 30
0.0
  0
SPLINE
  5
178
330
1F
100
AcDbEntity
  8
0
  6
Continuous
 62
     7
370
    30
100
AcDbSpline
210
0.0
220
0.0
230
1.0
 70
     8
 71
     3
 72
    10
 73
     6
 74
     0
 42
0.000000001
 43
0.00000001
 40
0.0
 40
0.0
 40
0.0
 40
0.0
 40
0.4992387631567942
 40
0.7516165399035498
 40
1.0
 40
1.0
 40
1.0
 40
1.0
 10
69.82684302873935
 20
50.24051235033375
 30
0.0
 10
69.78766459485777
 20
50.20589049517358
 30
0.0
 10
69.72868047526197
 20
50.15376641967917
 30
0.0
 10
69.62256475713487
 20
50.11804136955192
 30
0.0
 10
69.56668993050371
 20
50.11458716044254
 30
0.0
 10
69.5389753596667
 20
50.11287383211885
 30
0.0
  0
SPLINE
  5
179
330
1F
100
AcDbEntity
  8
0
  6
Continuous
 62
     7
370
    30
100
AcDbSpline
210
0.0
220
0.0
230
1.0
 70
     8
 71
     3
 72
    14
 73
    10
 74
     0
 42
0.000000001
 43
0.00000001
 40
0.0
 40
0.0
 40
0.0
 40
0.0
 40
0.0626404246599921
 40
0.1252646658890575
 40
0.2502405607945684
 40
0.3738378916026925
 40
0.5002010621465297
 40
0.7497247388973076
 40
1.0
 40
1.0
 40
1.0
 40
1.0
 10
69.94641882973876
 20
49.00208762856856
 30
0.0
 10
69.94585447064975
 20
48.97650464857757
 30
0.0
 10
69.94472589827637
 20
48.92534529807168
 30
0.0
 10
69.92903450400831
 20
48.82356028142271
 30
0.0
 10
69.8902312097002
 20
48.69927482697442
 30
0.0
 10
69.80318480152283
 20
48.565525852904
 30
0.0
 10
69.64411360950714
 20
48.42207025728884
 30
0.0
 10
69.39443524744935
 20
48.30730492797047
 30
0.0
 10
69.18199765567954
 20
48.27088737754318
 30
0.0
 10
69.07561913079397
 20
48.25265122045758
 30
0.0
  0
SPLINE
  5
17A
330
1F
100
AcDbEntity
  8
0
  6
Continuous
 62
     7
370
    30
100
AcDbSpline
210
0.0
220
0.0
230
1.0
 70
     8
 71
     3
 72
     9
 73
     5
 74
     0
 42
0.000000001
 43
0.00000001
 40
0.0
 40
0.0
 40
0.0
 40
0.0
 40
0.4999046679591402
 40
1.0
 40
1.0
 40
1.0
 40
1.0
 10
69.78200210336456
 20
49.46154065517518
 30
0.0
 10
69.83015489997935
 20
49.3923455433311
 30
0.0
 10
69.92647885872807
 20
49.2539289285662
 30
0.0
 10
69.9397713279364
 20
49.08604539835415
 30
0.0
 10
69.94641882973876
 20
49.00208762856856
 30
0.0
  0
SPLINE
  5
17B
330
1F
100
AcDbEntity
  8
0
  6
Continuous
 62
     7
370
    30
100
AcDbSpline
210
0.0
220
0.0
230
1.0
 70
     8
 71
     3
 72
     9
 73
     5
 74
     0
 42
0.000000001
 43
0.00000001
 40
0.0
 40
0.0
 40
0.0
 40
0.0
 40
0.5009004402924763
 40
1.0
 40
1.0
 40
1.0
 40
1.0
 10
69.38950560841742
 20
49.70201695023797
 30
0.0
 10
69.46268385647048
 20
49.67242379626271
 30
0.0
 10
69.60877725581017
 20
49.61334388417883
 30
0.0
 10
69.72432985298936
 20
49.5120809440221
 30
0.0
 10
69.78200210336456
 20
49.46154065517518
 30
0.0
  0
SPLINE
  5
17C
330
1F
100
AcDbEntity
  8
0
  6
Continuous
 62
     7
370
    30
100
AcDbSpline
210
0.0
220
0.0
230
1.0
 70
     8
 71
     3
 72
    10
 73
     6
 74
     0
 42
0.000000001
 43
0.00000001
 40
0.0
 40
0.0
 40
0.0
 40
0.0
 40
0.3329429967037242
 40
0.6691674332193108
 40
1.0
 40
1.0
 40
1.0
 40
1.0
 10
68.93002452124375
 20
49.78565160362429
 30
0.0
 10
68.98241174969483
 20
49.7839461182031
 30
0.0
 10
69.08770252782548
 20
49.78051833833388
 30
0.0
 10
69.24329511791385
 20
49.75392890073702
 30
0.0
 10
69.34103211664635
 20
49.71922743559144
 30
0.0
 10
69.38950560841742
 20
49.70201695023797
 30
0.0
  0
SPLINE
  5
17D
330
1F
100
AcDbEntity
  8
0
  6
Continuous
 62
     7
370
    30
100
AcDbSpline
210
0.0
220
0.0
230
1.0
 70
     8
 71
     3
 72
     9
 73
     5
 74
     0
 42
0.000000001
 43
0.00000001
 40
0.0
 40
0.0
 40
0.0
 40
0.0
 40
0.4997057696359025
 40
0.9999999999999999
 40
0.9999999999999999
 40
0.9999999999999999
 40
0.9999999999999999
 10
68.41795222529719
 20
49.67864235395414
 30
0.0
 10
68.4994900557814
 20
49.710909058311
 30
0.0
 10
68.66266173687606
 20
49.77548046476159
 30
0.0
 10
68.8408686372004
 20
49.78225989419407
 30
0.0
 10
68.93002452124375
 20
49.78565160362429
 30
0.0
  0
SPLINE
  5
17E
330
1F
100
AcDbEntity
  8
0
  6
Continuous
 62
     7
370
    30
100
AcDbSpline
210
0.0
220
0.0
230
1.0
 70
     8
 71
     3
 72
    10
 73
     6
 74
     0
 42
0.000000001
 43
0.00000001
 40
0.0
 40
0.0
 40
0.0
 40
0.0
 40
0.2503030710679647
 40
0.500491184485349
 40
0.9999999999999999
 40
0.9999999999999999
 40
0.9999999999999999
 40
0.9999999999999999
 10
68.10794088937278
 20
49.42395877900137
 30
0.0
 10
68.12849128473266
 20
49.45015443694551
 30
0.0
 10
68.16958263719361
 20
49.5025337218536
 30
0.0
 10
68.26812976748481
 20
49.59477187370095
 30
0.0
 10
68.3580440486241
 20
49.64510580928633
 30
0.0
 10
68.41795222529719
 20
49.67864235395414
 30
0.0
  0
SPLINE
  5
17F
330
1F
100
AcDbEntity
  8
0
  6
Continuous
 62
     7
370
    30
100
AcDbSpline
210
0.0
220
0.0
230
1.0
 70
     8
 71
     3
 72
     9
 73
     5
 74
     0
 42
0.000000001
 43
0.00000001
 40
0.0
 40
0.0
 40
0.0
 40
0.0
 40
0.500316889687631
 40
1.0
 40
1.0
 40
1.0
 40
1.0
 10
67.98836508837338
 20
49.01621957999533
 30
0.0
 10
67.99242837963243
 20
49.08898861632716
 30
0.0
 10
68.0005498149523
 20
49.23443450838421
 30
0.0
 10
68.07215899270594
 20
49.36081072034121
 30
0.0
 10
68.10794088937278
 20
49.42395877900137
 30
0.0
  0
SPLINE
  5
180
330
1F
100
AcDbEntity
  8
0
  6
Continuous
 62
     7
370
    30
100
AcDbSpline
210
0.0
220
0.0
230
1.0
 70
     8
 71
     3
 72
     9
 73
     5
 74
     0
 42
0.000000001
 43
0.00000001
 40
0.0
 40
0.0
 40
0.0
 40
0.0
 40
0.4997903880833161
 40
1.0
 40
1.0
 40
1.0
 40
1.0
 10
68.11181603107185
 20
48.6269340550224
 30
0.0
 10
68.07518514567244
 20
48.68764254075275
 30
0.0
 10
68.00189264891216
 20
48.80911043444951
 30
0.0
 10
67.99287553528262
 20
48.94716390637814
 30
0.0
 10
67.98836508837338
 20
49.01621957999533
 30
0.0
  0
SPLINE
  5
181
330
1F
100
AcDbEntity
  8
0
  6
Continuous
 62
     7
370
    30
100
AcDbSpline
210
0.0
220
0.0
230
1.0
 70
     8
 71
     3
 72
    10
 73
     6
 74
     0
 42
0.000000001
 43
0.00000001
 40
0.0
 40
0.0
 40
0.0
 40
0.0
 40
0.3298911087146527
 40
0.6693659867606274
 40
1.0
 40
1.0
 40
1.0
 40
1.0
 10
68.51150921774583
 20
48.28192853373984
 30
0.0
 10
68.46064863390673
 20
48.31177655998133
 30
0.0
 10
68.35744989956885
 20
48.37233973676966
 30
0.0
 10
68.22261407778699
 20
48.4899257314305
 30
0.0
 10
68.14842243885039
 20
48.58166807145003
 30
0.0
 10
68.11181603107185
 20
48.6269340550224
 30
0.0
  0
LINE
  5
182
330
1F
100
AcDbEntity
  8
0
  6
Continuous
 62
     7
370
    30
100
AcDbLine
 10
68.5674219765
 20
48.35120362
 30
0.0
 11
68.5115092177
 21
48.2819285337
 31
0.0
  0
SPLINE
  5
183
330
1F
100
AcDbEntity
  8
0
  6
Continuous
 62
     7
370
    30
100
AcDbSpline
210
0.0
220
0.0
230
1.0
 70
     8
 71
     3
 72
    10
 73
     6
 74
     0
 42
0.000000001
 43
0.00000001
 40
0.0
 40
0.0
 40
0.0
 40
0.0
 40
0.2503047624972256
 40
0.500491199598696
 40
1.0
 40
1.0
 40
1.0
 40
1.0
 10
68.29505487427002
 20
48.61624630852054
 30
0.0
 10
68.3129540299653
 20
48.59008884833545
 30
0.0
 10
68.34874387997199
 20
48.53778629325868
 30
0.0
 10
68.43393692202
 20
48.44201697788912
 30
0.0
 10
68.51404642104484
 20
48.38751640006182
 30
0.0
 10
68.56742197654647
 20
48.3512036200282
 30
0.0
  0
SPLINE
  5
184
330
1F
100
AcDbEntity
  8
0
  6
Continuous
 62
     7
370
    30
100
AcDbSpline
210
0.0
220
0.0
230
1.0
 70
     8
 71
     3
 72
    10
 73
     6
 74
     0
 42
0.000000001
 43
0.00000001
 40
0.0
 40
0.0
 40
0.0
 40
0.0
 40
0.2503541711002775
 40
0.5005514580027346
 40
1.0
 40
1.0
 40
1.0
 40
1.0
 10
68.18267576499744
 20
48.95961962297287
 30
0.0
 10
68.18421831060056
 20
48.92945637809041
 30
0.0
 10
68.18730243517206
 20
48.86914879009359
 30
0.0
 10
68.2169208811469
 20
48.75017560369009
 30
0.0
 10
68.26381311235436
 20
48.66979773967071
 30
0.0
 10
68.29505487427002
 20
48.61624630852054
 30
0.0
  0
LINE
  5
185
330
1F
100
AcDbEntity
  8
0
  6
Continuous
 62
     7
370
    30
100
AcDbLine
 10
68.2385885238
 20
49.2266893477
 30
0.0
 11
68.182675765
 21
48.959619623
 31
0.0
  0
SPLINE
  5
186
330
1F
100
AcDbEntity
  8
0
  6
Continuous
 62
     7
370
    30
100
AcDbSpline
210
0.0
220
0.0
230
1.0
 70
     8
 71
     3
 72
    12
 73
     8
 74
     0
 42
0.000000001
 43
0.00000001
 40
0.0
 40
0.0
 40
0.0
 40
0.0
 40
0.1252899004110623
 40
0.2505312507932875
 40
0.5004776080238097
 40
0.7502091690074247
 40
1.0
 40
1.0
 40
1.0
 40
1.0
 10
68.93002452124375
 20
49.54342044630228
 30
0.0
 10
68.89629897559095
 20
49.54262729433724
 30
0.0
 10
68.8288609529861
 20
49.54104129775477
 30
0.0
 10
68.69508976117528
 20
49.52492382733934
 30
0.0
 10
68.53267393618702
 20
49.48039413207862
 30
0.0
 10
68.35895234311306
 20
49.3786024674865
 30
0.0
 10
68.27871297046006
 20
49.277331059724
 30
0.0
 10
68.23858852379807
 20
49.22668934774647
 30
0.0
  0
SPLINE
  5
187
330
1F
100
AcDbEntity
  8
0
  6
Continuous
 62
     7
370
    30
100
AcDbSpline
210
0.0
220
0.0
230
1.0
 70
     8
 71
     3
 72
     9
 73
     5
 74
     0
 42
0.000000001
 43
0.00000001
 40
0.0
 40
0.0
 40
0.0
 40
0.0
 40
0.4999987697799366
 40
1.0
 40
1.0
 40
1.0
 40
1.0
 10
69.07561913079397
 20
49.53334154148357
 30
0.0
 10
69.05146045009295
 20
49.53630294379421
 30
0.0
 10
69.00314296980862
 20
49.54222576298822
 30
0.0
 10
68.95439737741057
 20
49.54302221787771
 30
0.0
 10
68.93002452124375
 20
49.54342044630228
 30
0.0
  0
LINE
  5
188
330
1F
100
AcDbEntity
  8
0
  6
Continuous
 62
     7
370
    30
100
AcDbLine
 10
69.0756191308
 20
49.5333415415
 30
0.0
 11
69.0756191308
 21
48.2526512205
 31
0.0
  0
LINE
  5
189
330
1F
100
AcDbEntity
  8
0
  6
Continuous
 62
     7
370
    30
100
AcDbLine
 10
70.8432373372
 20
44.6393782423
 30
0.0
 11
70.1108355561
 21
44.5847705167
 31
0.0
  0
LINE
  5
18A
330
1F
100
AcDbEntity
  8
0
  6
Continuous
 62
     7
370
    30
100
AcDbLine
 10
70.8432373372
 20
46.1123085781
 30
0.0
 11
70.8432373372
 21
44.6393782423
 31
0.0
  0
LINE
  5
18B
330
1F
100
AcDbEntity
  8
0
  6
Continuous
 62
     7
370
    30
100
AcDbLine
 10
70.7236615362
 20
46.1123085781
 30
0.0
 11
70.8432373372
 21
46.1123085781
 31
0.0
  0
LINE
  5
18C
330
1F
100
AcDbEntity
  8
0
  6
Continuous
 62
     7
370
    30
100
AcDbLine
 10
70.7236615362
 20
46.1123085781
 30
0.0
 11
70.7236615362
 21
46.023849014
 31
0.0
  0
SPLINE
  5
18D
330
1F
100
AcDbEntity
  8
0
  6
Continuous
 62
     7
370
    30
100
AcDbSpline
210
0.0
220
0.0
230
1.0
 70
     8
 71
     3
 72
    13
 73
     9
 74
     0
 42
0.000000001
 43
0.00000001
 40
0.0
 40
0.0
 40
0.0
 40
0.0
 40
0.2500397820817937
 40
0.3777937795574163
 40
0.500000112887772
 40
0.6221700942841457
 40
0.7499621574998215
 40
1.0
 40
1.0
 40
1.0
 40
1.0
 10
70.58913876011064
 20
45.89159774517698
 30
0.0
 10
70.60741810625629
 20
45.89253361938236
 30
0.0
 10
70.63503700438004
 20
45.89394766418073
 30
0.0
 10
70.66901412428271
 20
45.9076699551191
 30
0.0
 10
70.69074331615684
 20
45.92390296863608
 30
0.0
 10
70.7072826485437
 20
45.94524959892803
 30
0.0
 10
70.72126397903702
 20
45.97865204923854
 30
0.0
 10
70.72270674913092
 20
46.00585007774839
 30
0.0
 10
70.72366153623497
 20
46.02384901395218
 30
0.0
  0
LINE
  5
18E
330
1F
100
AcDbEntity
  8
0
  6
Continuous
 62
     7
370
    30
100
AcDbLine
 10
68.3321455162
 20
45.8915977452
 30
0.0
 11
70.5891387601
 21
45.8915977452
 31
0.0
  0
SPLINE
  5
18F
330
1F
100
AcDbEntity
  8
0
  6
Continuous
 62
     7
370
    30
100
AcDbSpline
210
0.0
220
0.0
230
1.0
 70
     8
 71
     3
 72
    13
 73
     9
 74
     0
 42
0.000000001
 43
0.00000001
 40
0.0
 40
0.0
 40
0.0
 40
0.0
 40
0.1251906917028248
 40
0.2501755277645317
 40
0.3687809784210364
 40
0.4998739120364356
 40
0.7494316164358891
 40
1.0
 40
1.0
 40
1.0
 40
1.0
 10
68.13783483962268
 20
46.02384901395215
 30
0.0
 10
68.13826049835845
 20
46.01278810389885
 30
0.0
 10
68.13911111590375
 20
45.99068447165191
 30
0.0
 10
68.15142901989275
 20
45.95994956892464
 30
0.0
 10
68.17230342397862
 20
45.93370337493702
 30
0.0
 10
68.20968695832767
 20
45.90877554671213
 30
0.0
 10
68.26511096587568
 20
45.89366677227883
 30
0.0
 10
68.3097705826799
 20
45.89228834940562
 30
0.0
 10
68.33214551624673
 20
45.89159774517697
 30
0.0
  0
LINE
  5
190
330
1F
100
AcDbEntity
  8
0
  6
Continuous
 62
     7
370
    30
100
AcDbLine
 10
68.1378348396
 20
46.1270728474
 30
0.0
 11
68.1378348396
 21
46.023849014
 31
0.0
  0
LINE
  5
191
330
1F
100
AcDbEntity
  8
0
  6
Continuous
 62
     7
370
    30
100
AcDbLine
 10
68.0182590386
 20
46.1270728474
 30
0.0
 11
68.1378348396
 21
46.1270728474
 31
0.0
  0
LINE
  5
192
330
1F
100
AcDbEntity
  8
0
  6
Continuous
 62
     7
370
    30
100
AcDbLine
 10
68.0182590386
 20
46.1270728474
 30
0.0
 11
68.0182590386
 21
44.6257036128
 31
0.0
  0
LINE
  5
193
330
1F
100
AcDbEntity
  8
0
  6
Continuous
 62
     7
370
    30
100
AcDbLine
 10
68.7955017451
 20
44.4898004309
 30
0.0
 11
68.0182590386
 21
44.6257036128
 31
0.0
  0
LINE
  5
194
330
1F
100
AcDbEntity
  8
0
  6
Continuous
 62
     7
370
    30
100
AcDbLine
 10
68.7955017451
 20
44.5847705167
 30
0.0
 11
68.7955017451
 21
44.4898004309
 31
0.0
  0
SPLINE
  5
195
330
1F
100
AcDbEntity
  8
0
  6
Continuous
 62
     7
370
    30
100
AcDbSpline
210
0.0
220
0.0
230
1.0
 70
     8
 71
     3
 72
     9
 73
     5
 74
     0
 42
0.000000001
 43
0.00000001
 40
0.0
 40
0.0
 40
0.0
 40
0.0
 40
0.4986144763497192
 40
1.0
 40
1.0
 40
1.0
 40
1.0
 10
68.29117973257101
 20
44.84624883208981
 30
0.0
 10
68.36620258293686
 20
44.78810224363559
 30
0.0
 10
68.51666522276047
 20
44.67148591737105
 30
0.0
 10
68.7023846918553
 20
44.61372899932688
 30
0.0
 10
68.79550174511947
 20
44.58477051672888
 30
0.0
  0
SPLINE
  5
196
330
1F
100
AcDbEntity
  8
0
  6
Continuous
 62
     7
370
    30
100
AcDbSpline
210
0.0
220
0.0
230
1.0
 70
     8
 71
     3
 72
    10
 73
     6
 74
     0
 42
0.000000001
 43
0.00000001
 40
0.0
 40
0.0
 40
0.0
 40
0.0
 40
0.5000170001944335
 40
0.750170082176677
 40
1.0
 40
1.0
 40
1.0
 40
1.0
 10
68.13783483962268
 20
45.36910046564221
 30
0.0
 10
68.14219094189069
 20
45.27579594276343
 30
0.0
 10
68.14872635487684
 20
45.13581217907497
 30
0.0
 10
68.20786885275035
 20
44.95874599379092
 30
0.0
 10
68.26342140810095
 20
44.88373172415844
 30
0.0
 10
68.29117973257101
 20
44.84624883208981
 30
0.0
  0
SPLINE
  5
197
330
1F
100
AcDbEntity
  8
0
  6
Continuous
 62
     7
370
    30
100
AcDbSpline
210
0.0
220
0.0
230
1.0
 70
     8
 71
     3
 72
    12
 73
     8
 74
     0
 42
0.000000001
 43
0.00000001
 40
0.0
 40
0.0
 40
0.0
 40
0.0
 40
0.2496287499908494
 40
0.373864578912407
 40
0.4999453472919817
 40
0.7493860021096314
 40
0.9999999999999999
 40
0.9999999999999999
 40
0.9999999999999999
 40
0.9999999999999999
 10
68.33214551624673
 20
45.59989614414312
 30
0.0
 10
68.30247013894508
 20
45.5977857205478
 30
0.0
 10
68.25802584941773
 20
45.5946249763274
 30
0.0
 10
68.20691490810952
 20
45.56469493779319
 30
0.0
 10
68.16710701916597
 20
45.52235278023506
 30
0.0
 10
68.14119259709935
 20
45.45352853115318
 30
0.0
 10
68.13895584157808
 20
45.39728714296648
 30
0.0
 10
68.13783483962268
 20
45.36910046564221
 30
0.0
  0
LINE
  5
198
330
1F
100
AcDbEntity
  8
0
  6
Continuous
 62
     7
370
    30
100
AcDbLine
 10
69.4382216755
 20
45.5998961441
 30
0.0
 11
68.3321455162
 21
45.5998961441
 31
0.0
  0
LINE
  5
199
330
1F
100
AcDbEntity
  8
0
  6
Continuous
 62
     7
370
    30
100
AcDbLine
 10
69.4382216755
 20
45.5998961441
 30
0.0
 11
69.4382216755
 21
45.2975088874
 31
0.0
  0
SPLINE
  5
19A
330
1F
100
AcDbEntity
  8
0
  6
Continuous
 62
     7
370
    30
100
AcDbSpline
210
0.0
220
0.0
230
1.0
 70
     8
 71
     3
 72
    10
 73
     6
 74
     0
 42
0.000000001
 43
0.00000001
 40
0.0
 40
0.0
 40
0.0
 40
0.0
 40
0.2504254912418437
 40
0.5003240958740152
 40
1.0
 40
1.0
 40
1.0
 40
1.0
 10
69.35629010813986
 20
45.14465583802484
 30
0.0
 10
69.37053154248247
 20
45.15196671905531
 30
0.0
 10
69.39898444768022
 20
45.16657309927434
 30
0.0
 10
69.43359750006071
 20
45.2205046433788
 30
0.0
 10
69.4363720951227
 20
45.26670868524135
 30
0.0
 10
69.43822167549129
 20
45.29750888738561
 30
0.0
  0
LINE
  5
19B
330
1F
100
AcDbEntity
  8
0
  6
Continuous
 62
     7
370
    30
100
AcDbLine
 10
69.0756191308
 20
45.112674424
 30
0.0
 11
69.3562901081
 21
45.144655838
 31
0.0
  0
LINE
  5
19C
330
1F
100
AcDbEntity
  8
0
  6
Continuous
 62
     7
370
    30
100
AcDbLine
 10
68.9449714964
 20
45.112674424
 30
0.0
 11
69.0756191308
 21
45.112674424
 31
0.0
  0
LINE
  5
19D
330
1F
100
AcDbEntity
  8
0
  6
Continuous
 62
     7
370
    30
100
AcDbLine
 10
68.9449714964
 20
45.112674424
 30
0.0
 11
68.9449714964
 21
44.9999302806
 31
0.0
  0
LINE
  5
19E
330
1F
100
AcDbEntity
  8
0
  6
Continuous
 62
     7
370
    30
100
AcDbLine
 10
70.0023315885
 20
44.9999302806
 30
0.0
 11
68.9449714964
 21
44.9999302806
 31
0.0
  0
LINE
  5
19F
330
1F
100
AcDbEntity
  8
0
  6
Continuous
 62
     7
370
    30
100
AcDbLine
 10
70.0023315885
 20
45.112674424
 30
0.0
 11
70.0023315885
 21
44.9999302806
 31
0.0
  0
LINE
  5
1A0
330
1F
100
AcDbEntity
  8
0
  6
Continuous
 62
     7
370
    30
100
AcDbLine
 10
69.8268430287
 20
45.112674424
 30
0.0
 11
70.0023315885
 21
45.112674424
 31
0.0
  0
SPLINE
  5
1A1
330
1F
100
AcDbEntity
  8
0
  6
Continuous
 62
     7
370
    30
100
AcDbSpline
210
0.0
220
0.0
230
1.0
 70
     8
 71
     3
 72
     9
 73
     5
 74
     0
 42
0.000000001
 43
0.00000001
 40
0.0
 40
0.0
 40
0.0
 40
0.0
 40
0.4987750160155456
 40
1.0
 40
1.0
 40
1.0
 40
1.0
 10
69.6364074938144
 20
45.1409827470339
 30
0.0
 10
69.66727199192204
 20
45.13147494197818
 30
0.0
 10
69.72915259362935
 20
45.1124126298125
 30
0.0
 10
69.79422640744954
 20
45.11258701685176
 30
0.0
 10
69.82684302873939
 20
45.11267442399273
 30
0.0
  0
SPLINE
  5
1A2
330
1F
100
AcDbEntity
  8
0
  6
Continuous
 62
     7
370
    30
100
AcDbSpline
210
0.0
220
0.0
230
1.0
 70
     8
 71
     3
 72
    10
 73
     6
 74
     0
 42
0.000000001
 43
0.00000001
 40
0.0
 40
0.0
 40
0.0
 40
0.0
 40
0.4989775873245514
 40
0.7492022571777339
 40
1.0
 40
1.0
 40
1.0
 40
1.0
 10
69.55392233479165
 20
45.29750888738561
 30
0.0
 10
69.55632917124956
 20
45.2664025692854
 30
0.0
 10
69.55994297546187
 20
45.21969721753175
 30
0.0
 10
69.59583705988216
 20
45.1665528815758
 30
0.0
 10
69.62287370760087
 20
45.1495126221375
 30
0.0
 10
69.63640749381439
 20
45.1409827470339
 30
0.0
  0
LINE
  5
1A3
330
1F
100
AcDbEntity
  8
0
  6
Continuous
 62
     7
370
    30
100
AcDbLine
 10
69.5539223348
 20
45.5998961441
 30
0.0
 11
69.5539223348
 21
45.2975088874
 31
0.0
  0
LINE
  5
1A4
330
1F
100
AcDbEntity
  8
0
  6
Continuous
 62
     7
370
    30
100
AcDbLine
 10
70.5891387601
 20
45.5998961441
 30
0.0
 11
69.5539223348
 21
45.5998961441
 31
0.0
  0
SPLINE
  5
1A5
330
1F
100
AcDbEntity
  8
0
  6
Continuous
 62
     7
370
    30
100
AcDbSpline
210
0.0
220
0.0
230
1.0
 70
     8
 71
     3
 72
    12
 73
     8
 74
     0
 42
0.000000001
 43
0.00000001
 40
0.0
 40
0.0
 40
0.0
 40
0.0
 40
0.4998845273982008
 40
0.6349964659085873
 40
0.7502637530720702
 40
0.8750274787511316
 40
1.0
 40
1.0
 40
1.0
 40
1.0
 10
70.72366153623499
 20
45.35476086990743
 30
0.0
 10
70.72221455072942
 20
45.40676655572986
 30
0.0
 10
70.72037646486777
 20
45.47282866586611
 30
0.0
 10
70.68826047009877
 20
45.54465166560695
 30
0.0
 10
70.66340065102314
 20
45.57542617880242
 30
0.0
 10
70.62952538162823
 20
45.59689525364624
 30
0.0
 10
70.60260846870683
 20
45.5988952899245
 30
0.0
 10
70.58913876011064
 20
45.59989614414313
 30
0.0
  0
SPLINE
  5
1A6
330
1F
100
AcDbEntity
  8
0
  6
Continuous
 62
     7
370
    30
100
AcDbSpline
210
0.0
220
0.0
230
1.0
 70
     8
 71
     3
 72
     9
 73
     5
 74
     0
 42
0.000000001
 43
0.00000001
 40
0.0
 40
0.0
 40
0.0
 40
0.0
 40
0.4991992743863469
 40
1.0
 40
1.0
 40
1.0
 40
1.0
 10
70.58526361841159
 20
44.91590535278922
 30
0.0
 10
70.62782287909309
 20
44.98268443051887
 30
0.0
 10
70.71307793226563
 20
45.11645681592897
 30
0.0
 10
70.72012990378238
 20
45.27524142331315
 30
0.0
 10
70.72366153623497
 20
45.35476086990743
 30
0.0
  0
SPLINE
  5
1A7
330
1F
100
AcDbEntity
  8
0
  6
Continuous
 62
     7
370
    30
100
AcDbSpline
210
0.0
220
0.0
230
1.0
 70
     8
 71
     3
 72
    10
 73
     6
 74
     0
 42
0.000000001
 43
0.00000001
 40
0.0
 40
0.0
 40
0.0
 40
0.0
 40
0.5003168568586811
 40
0.7504821019532343
 40
1.0
 40
1.0
 40
1.0
 40
1.0
 10
70.110835556113
 20
44.68049173545599
 30
0.0
 10
70.19690993891578
 20
44.70709952273868
 30
0.0
 10
70.3260226858573
 20
44.74701156618573
 30
0.0
 10
70.4882588285562
 20
44.82609062324992
 30
0.0
 10
70.5529566274512
 20
44.885992977744
 30
0.0
 10
70.58526361841159
 20
44.91590535278922
 30
0.0
  0
LINE
  5
1A8
330
1F
100
AcDbEntity
  8
0
  6
Continuous
 62
     7
370
    30
100
AcDbLine
 10
70.1108355561
 20
44.6804917355
 30
0.0
 11
70.1108355561
 21
44.5847705167
 31
0.0
  0
LINE
  5
1A9
330
1F
100
AcDbEntity
  8
0
  6
Continuous
 62
     7
370
    30
100
AcDbLine
 10
69.3895056084
 20
42.9731744515
 30
0.0
 11
69.2439109989
 21
42.9731744515
 31
0.0
  0
LINE
  5
1AA
330
1F
100
AcDbEntity
  8
0
  6
Continuous
 62
     7
370
    30
100
AcDbLine
 10
69.3895056084
 20
44.2360387529
 30
0.0
 11
69.3895056084
 21
42.9731744515
 31
0.0
  0
LINE
  5
1AB
330
1F
100
AcDbEntity
  8
0
  6
Continuous
 62
     7
370
    30
100
AcDbLine
 10
69.2439109989
 20
44.2360387529
 30
0.0
 11
69.3895056084
 21
44.2360387529
 31
0.0
  0
LINE
  5
1AC
330
1F
100
AcDbEntity
  8
0
  6
Continuous
 62
     7
370
    30
100
AcDbLine
 10
69.2439109989
 20
44.2360387529
 30
0.0
 11
69.2439109989
 21
42.9731744515
 31
0.0
  0
SPLINE
  5
1AD
330
1F
100
AcDbEntity
  8
0
  6
Continuous
 62
     7
370
    30
100
AcDbSpline
210
0.0
220
0.0
230
1.0
 70
     8
 71
     3
 72
    12
 73
     8
 74
     0
 42
0.000000001
 43
0.00000001
 40
0.0
 40
0.0
 40
0.0
 40
0.0
 40
0.125274779530171
 40
0.2504460673021037
 40
0.4999058860993588
 40
0.7497515684179014
 40
1.0
 40
1.0
 40
1.0
 40
1.0
 10
70.87313128748427
 20
42.20965055047781
 30
0.0
 10
70.87175977127096
 20
42.18927305459091
 30
0.0
 10
70.86901787187863
 20
42.14853489703456
 30
0.0
 10
70.83842884141788
 20
42.07128964864744
 30
0.0
 10
70.75883010018192
 20
41.98504126226315
 30
0.0
 10
70.60772571638506
 20
41.90766589898878
 30
0.0
 10
70.48575600393085
 20
41.87398725507517
 30
0.0
 10
70.42472203373649
 20
41.85713437162197
 30
0.0
  0
SPLINE
  5
1AE
330
1F
100
AcDbEntity
  8
0
  6
Continuous
 62
     7
370
    30
100
AcDbSpline
210
0.0
220
0.0
230
1.0
 70
     8
 71
     3
 72
     9
 73
     5
 74
     0
 42
0.000000001
 43
0.00000001
 40
0.0
 40
0.0
 40
0.0
 40
0.0
 40
0.4999120493406972
 40
1.0
 40
1.0
 40
1.0
 40
1.0
 10
70.72366153623501
 20
42.47772312871727
 30
0.0
 10
70.76764589943744
 20
42.43559098448802
 30
0.0
 10
70.85563010237966
 20
42.35131187122234
 30
0.0
 10
70.86729687504916
 20
42.25687652782646
 30
0.0
 10
70.87313128748427
 20
42.20965055047781
 30
0.0
  0
SPLINE
  5
1AF
330
1F
100
AcDbEntity
  8
0
  6
Continuous
 62
     7
370
    30
100
AcDbSpline
210
0.0
220
0.0
230
1.0
 70
     8
 71
     3
 72
     9
 73
     5
 74
     0
 42
0.000000001
 43
0.00000001
 40
0.0
 40
0.0
 40
0.0
 40
0.0
 40
0.5008330558458021
 40
1.0
 40
1.0
 40
1.0
 40
1.0
 10
70.12578253123795
 20
42.71769915491334
 30
0.0
 10
70.23880557522402
 20
42.69142349795458
 30
0.0
 10
70.46447567161012
 20
42.63895959475955
 30
0.0
 10
70.63736226415108
 20
42.53140888690077
 30
0.0
 10
70.72366153623501
 20
42.47772312871727
 30
0.0
  0
SPLINE
  5
1B0
330
1F
100
AcDbEntity
  8
0
  6
Continuous
 62
     7
370
    30
100
AcDbSpline
210
0.0
220
0.0
230
1.0
 70
     8
 71
     3
 72
    11
 73
     7
 74
     0
 42
0.000000001
 43
0.00000001
 40
0.0
 40
0.0
 40
0.0
 40
0.0
 40
0.2500219001328982
 40
0.5000116189976709
 40
0.7499935517148512
 40
1.0
 40
1.0
 40
1.0
 40
1.0
 10
69.42327470036639
 20
42.78014966236185
 30
0.0
 10
69.4824867017476
 20
42.77954914553409
 30
0.0
 10
69.60090308310848
 20
42.77834818917339
 30
0.0
 10
69.77776594119523
 20
42.76634747073891
 30
0.0
 10
69.95363741933855
 20
42.74817598612001
 30
0.0
 10
70.06839895159845
 20
42.72785843072089
 30
0.0
 10
70.12578253123795
 20
42.71769915491334
 30
0.0
  0
SPLINE
  5
1B1
330
1F
100
AcDbEntity
  8
0
  6
Continuous
 62
     7
370
    30
100
AcDbSpline
210
0.0
220
0.0
230
1.0
 70
     8
 71
     3
 72
    11
 73
     7
 74
     0
 42
0.000000001
 43
0.00000001
 40
0.0
 40
0.0
 40
0.0
 40
0.0
 40
0.2499447935141776
 40
0.4999290540169055
 40
0.7499448991341037
 40
1.0
 40
1.0
 40
1.0
 40
1.0
 10
68.58236895167146
 20
42.68683640322816
 30
0.0
 10
68.64999622935214
 20
42.70260262845002
 30
0.0
 10
68.78526146325159
 20
42.73413756842523
 30
0.0
 10
68.99621310972363
 20
42.7614188278773
 30
0.0
 10
69.20916378976497
 20
42.77768828964719
 30
0.0
 10
69.35190066186736
 20
42.77932916185394
 30
0.0
 10
69.42327470036639
 20
42.78014966236185
 30
0.0
  0
SPLINE
  5
1B2
330
1F
100
AcDbEntity
  8
0
  6
Continuous
 62
     7
370
    30
100
AcDbSpline
210
0.0
220
0.0
230
1.0
 70
     8
 71
     3
 72
    10
 73
     6
 74
     0
 42
0.000000001
 43
0.00000001
 40
0.0
 40
0.0
 40
0.0
 40
0.0
 40
0.3283059576478941
 40
0.6695845175245807
 40
1.0
 40
1.0
 40
1.0
 40
1.0
 10
68.17547907327068
 20
42.50937110521338
 30
0.0
 10
68.21474979264057
 20
42.53330101372585
 30
0.0
 10
68.29484296509018
 20
42.58210639136968
 30
0.0
 10
68.43310063831639
 20
42.64151452280831
 30
0.0
 10
68.53315221382637
 20
42.67189287598428
 30
0.0
 10
68.58236895167146
 20
42.68683640322816
 30
0.0
  0
SPLINE
  5
1B3
330
1F
100
AcDbEntity
  8
0
  6
Continuous
 62
     7
370
    30
100
AcDbSpline
210
0.0
220
0.0
230
1.0
 70
     8
 71
     3
 72
     9
 73
     5
 74
     0
 42
0.000000001
 43
0.00000001
 40
0.0
 40
0.0
 40
0.0
 40
0.0
 40
0.4993083232763098
 40
1.0
 40
1.0
 40
1.0
 40
1.0
 10
67.98836508837346
 20
42.23623281250456
 30
0.0
 10
67.99808548869522
 20
42.28587175249424
 30
0.0
 10
68.01755322009213
 20
42.38528715911908
 30
0.0
 10
68.12278859630435
 20
42.46797166255099
 30
0.0
 10
68.1754790732707
 20
42.50937110521338
 30
0.0
  0
SPLINE
  5
1B4
330
1F
100
AcDbEntity
  8
0
  6
Continuous
 62
     7
370
    30
100
AcDbSpline
210
0.0
220
0.0
230
1.0
 70
     8
 71
     3
 72
     9
 73
     5
 74
     0
 42
0.000000001
 43
0.00000001
 40
0.0
 40
0.0
 40
0.0
 40
0.0
 40
0.5005447593412855
 40
1.0
 40
1.0
 40
1.0
 40
1.0
 10
68.16772878987257
 20
41.98276136670148
 30
0.0
 10
68.11686353611525
 20
42.01859957387067
 30
0.0
 10
68.01524374526124
 20
42.09019798040749
 30
0.0
 10
67.99731813057203
 20
42.18758990524609
 30
0.0
 10
67.98836508837346
 20
42.23623281250456
 30
0.0
  0
SPLINE
  5
1B5
330
1F
100
AcDbEntity
  8
0
  6
Continuous
 62
     7
370
    30
100
AcDbSpline
210
0.0
220
0.0
230
1.0
 70
     8
 71
     3
 72
    10
 73
     6
 74
     0
 42
0.000000001
 43
0.00000001
 40
0.0
 40
0.0
 40
0.0
 40
0.0
 40
0.2502371147498208
 40
0.5003726739811395
 40
1.0
 40
1.0
 40
1.0
 40
1.0
 10
68.5973159267964
 20
41.8275276045979
 30
0.0
 10
68.55679069379747
 20
41.83624693564528
 30
0.0
 10
68.47575667444484
 20
41.85368205911155
 30
0.0
 10
68.32515380384041
 20
41.90082035423929
 30
0.0
 10
68.23068257169975
 20
41.94999340631689
 30
0.0
 10
68.16772878987257
 20
41.98276136670148
 30
0.0
  0
SPLINE
  5
1B6
330
1F
100
AcDbEntity
  8
0
  6
Continuous
 62
     7
370
    30
100
AcDbSpline
210
0.0
220
0.0
230
1.0
 70
     8
 71
     3
 72
    11
 73
     7
 74
     0
 42
0.000000001
 43
0.00000001
 40
0.0
 40
0.0
 40
0.0
 40
0.0
 40
0.2500190851195419
 40
0.5000221522824846
 40
0.7500185043456882
 40
0.9999999999999999
 40
0.9999999999999999
 40
0.9999999999999999
 40
0.9999999999999999
 10
69.4232747003664
 20
41.75760641212376
 30
0.0
 10
69.35297537026628
 20
41.75827524390578
 30
0.0
 10
69.21238121392862
 20
41.75961286461983
 30
0.0
 10
69.00319981044895
 20
41.77303546388958
 30
0.0
 10
68.79661503442736
 20
41.79383305863944
 30
0.0
 10
68.66374764666025
 20
41.81629631177046
 30
0.0
 10
68.5973159267964
 20
41.8275276045979
 30
0.0
  0
SPLINE
  5
1B7
330
1F
100
AcDbEntity
  8
0
  6
Continuous
 62
     7
370
    30
100
AcDbSpline
210
0.0
220
0.0
230
1.0
 70
     8
 71
     3
 72
     9
 73
     5
 74
     0
 42
0.000000001
 43
0.00000001
 40
0.0
 40
0.0
 40
0.0
 40
0.0
 40
0.4996420431531827
 40
1.0
 40
1.0
 40
1.0
 40
1.0
 10
70.42472203373649
 20
41.85713437162197
 30
0.0
 10
70.26378728141313
 20
41.82646530949591
 30
0.0
 10
69.94168718089375
 20
41.76508324098038
 30
0.0
 10
69.59616131610822
 20
41.76009987762865
 30
0.0
 10
69.4232747003664
 20
41.75760641212376
 30
0.0
  0
LINE
  5
1B8
330
1F
100
AcDbEntity
  8
0
  6
Continuous
 62
     7
370
    30
100
AcDbLine
 10
70.8432373372
 20
44.647430131
 30
0.0
 11
70.1108355561
 21
44.5930044311
 31
0.0
  0
SPLINE
  5
1B9
330
1F
100
AcDbEntity
  8
0
  6
Continuous
 62
     7
370
    30
100
AcDbSpline
210
0.0
220
0.0
230
1.0
 70
     8
 71
     3
 72
    12
 73
     8
 74
     0
 42
0.000000001
 43
0.00000001
 40
0.0
 40
0.0
 40
0.0
 40
0.0
 40
0.499428794462154
 40
0.6344625712391766
 40
0.7497959004267216
 40
0.8747410045178187
 40
1.0
 40
1.0
 40
1.0
 40
1.0
 10
70.72366153623497
 20
45.3604281497725
 30
0.0
 10
70.72221163506731
 20
45.4122680866428
 30
0.0
 10
70.72036971479143
 20
45.47812432081331
 30
0.0
 10
70.68825463899925
 20
45.54969602239211
 30
0.0
 10
70.66338670721315
 20
45.58037209555117
 30
0.0
 10
70.62950815778696
 20
45.60175937981204
 30
0.0
 10
70.60260647576033
 20
45.60374983185415
 30
0.0
 10
70.58913876011064
 20
45.60474630642742
 30
0.0
  0
LINE
  5
1BA
330
1F
100
AcDbEntity
  8
0
  6
Continuous
 62
     7
370
    30
100
AcDbLine
 10
70.5891387601
 20
45.6047463064
 30
0.0
 11
69.5539223348
 21
45.6047463064
 31
0.0
  0
LINE
  5
1BB
330
1F
100
AcDbEntity
  8
0
  6
Continuous
 62
     7
370
    30
100
AcDbLine
 10
70.0023315885
 20
45.0067803291
 30
0.0
 11
68.9449714964
 21
45.0067803291
 31
0.0
  0
LINE
  5
1BC
330
1F
100
AcDbEntity
  8
0
  6
Continuous
 62
     7
370
    30
100
AcDbLine
 10
69.4382216755
 20
45.6047463064
 30
0.0
 11
68.3321455162
 21
45.6047463064
 31
0.0
  0
SPLINE
  5
1BD
330
1F
100
AcDbEntity
  8
0
  6
Continuous
 62
     7
370
    30
100
AcDbSpline
210
0.0
220
0.0
230
1.0
 70
     8
 71
     3
 72
    12
 73
     8
 74
     0
 42
0.000000001
 43
0.00000001
 40
0.0
 40
0.0
 40
0.0
 40
0.0
 40
0.2500798832964085
 40
0.3744191365497442
 40
0.500536928835991
 40
0.7497374299598687
 40
0.9999999999999999
 40
0.9999999999999999
 40
0.9999999999999999
 40
0.9999999999999999
 10
68.33214551624673
 20
45.6047463064274
 30
0.0
 10
68.30247555312818
 20
45.60264575047724
 30
0.0
 10
68.25805373948256
 20
45.59950080201213
 30
0.0
 10
68.20693410437498
 20
45.56967758852751
 30
0.0
 10
68.16712837218904
 20
45.52749431060378
 30
0.0
 10
68.14119233561128
 20
45.45888349428834
 30
0.0
 10
68.13895559037313
 20
45.40281420497647
 30
0.0
 10
68.13783483962268
 20
45.37471994685482
 30
0.0
  0
LINE
  5
1BE
330
1F
100
AcDbEntity
  8
0
  6
Continuous
 62
     7
370
    30
100
AcDbLine
 10
68.7955017451
 20
44.4983509123
 30
0.0
 11
68.0182590386
 21
44.6338010835
 31
0.0
  0
SPLINE
  5
1BF
330
1F
100
AcDbEntity
  8
0
  6
Continuous
 62
     7
370
    30
100
AcDbSpline
210
0.0
220
0.0
230
1.0
 70
     8
 71
     3
 72
    10
 73
     6
 74
     0
 42
0.000000001
 43
0.00000001
 40
0.0
 40
0.0
 40
0.0
 40
0.0
 40
0.499412307777275
 40
0.7495956214103796
 40
1.0
 40
1.0
 40
1.0
 40
1.0
 10
68.29505487427002
 20
48.61104197025691
 30
0.0
 10
68.33231084996626
 20
48.55959599290468
 30
0.0
 10
68.38823040945319
 20
48.48237787320306
 30
0.0
 10
68.48591867884888
 20
48.3986211103734
 30
0.0
 10
68.54024621343768
 20
48.36413395168753
 30
0.0
 10
68.56742197654647
 20
48.34688275739286
 30
0.0
  0
LINE
  5
1C0
330
1F
100
AcDbEntity
  8
0
  6
Continuous
 62
     7
370
    30
100
AcDbLine
 10
68.2950548743
 20
48.6162463085
 30
0.0
 11
68.2950548743
 21
48.6110419703
 31
0.0
  0
SPLINE
  5
1C1
330
1F
100
AcDbEntity
  8
0
  6
Continuous
 62
     7
370
    30
100
AcDbSpline
210
0.0
220
0.0
230
1.0
 70
     8
 71
     3
 72
    10
 73
     6
 74
     0
 42
0.000000001
 43
0.00000001
 40
0.0
 40
0.0
 40
0.0
 40
0.0
 40
0.499076460473008
 40
0.7494076619554264
 40
1.0
 40
1.0
 40
1.0
 40
1.0
 10
68.18267576499744
 20
48.95327070699438
 30
0.0
 10
68.18843972090114
 20
48.89303468646164
 30
0.0
 10
68.19709481297525
 20
48.80258494801844
 30
0.0
 10
68.24571453616103
 20
48.68939867927899
 30
0.0
 10
68.27860237997729
 20
48.63716994905461
 30
0.0
 10
68.29505487427002
 20
48.61104197025691
 30
0.0
  0
SPLINE
  5
1C2
330
1F
100
AcDbEntity
  8
0
  6
Continuous
 62
     7
370
    30
100
AcDbSpline
210
0.0
220
0.0
230
1.0
 70
     8
 71
     3
 72
     9
 73
     5
 74
     0
 42
0.000000001
 43
0.00000001
 40
0.0
 40
0.0
 40
0.0
 40
0.0
 40
0.5001957400523429
 40
0.9999999999999999
 40
0.9999999999999999
 40
0.9999999999999999
 40
0.9999999999999999
 10
67.98836508837338
 20
49.00968199749344
 30
0.0
 10
67.99243336241959
 20
49.0822159139489
 30
0.0
 10
68.00056672646178
 20
49.22722697791333
 30
0.0
 10
68.07215884403236
 20
49.3531334664903
 30
0.0
 10
68.10794088937278
 20
49.41606206583612
 30
0.0
  0
SPLINE
  5
1C3
330
1F
100
AcDbEntity
  8
0
  6
Continuous
 62
     7
370
    30
100
AcDbSpline
210
0.0
220
0.0
230
1.0
 70
     8
 71
     3
 72
    10
 73
     6
 74
     0
 42
0.000000001
 43
0.00000001
 40
0.0
 40
0.0
 40
0.0
 40
0.0
 40
0.499300007367399
 40
0.7495430759271849
 40
1.0
 40
1.0
 40
1.0
 40
1.0
 10
68.10794088937278
 20
49.41606206583612
 30
0.0
 10
68.15102518512607
 20
49.46701489897993
 30
0.0
 10
68.21570280396557
 20
49.54350467009607
 30
0.0
 10
68.32650130527313
 20
49.6226321766441
 30
0.0
 10
68.38745990655063
 20
49.65413737048068
 30
0.0
 10
68.41795222529719
 20
49.66989669553904
 30
0.0
  0
SPLINE
  5
1C4
330
1F
100
AcDbEntity
  8
0
  6
Continuous
 62
     7
370
    30
100
AcDbSpline
210
0.0
220
0.0
230
1.0
 70
     8
 71
     3
 72
     9
 73
     5
 74
     0
 42
0.000000001
 43
0.00000001
 40
0.0
 40
0.0
 40
0.0
 40
0.0
 40
0.4996145163108261
 40
1.0
 40
1.0
 40
1.0
 40
1.0
 10
68.4179522252972
 20
49.66989669553905
 30
0.0
 10
68.4994982885486
 20
49.70205571411847
 30
0.0
 10
68.66271625077584
 20
49.76642337664533
 30
0.0
 10
68.84087597930817
 20
49.7731722229752
 30
0.0
 10
68.93002452124375
 20
49.7765492477103
 30
0.0
  0
SPLINE
  5
1C5
330
1F
100
AcDbEntity
  8
0
  6
Continuous
 62
     7
370
    30
100
AcDbSpline
210
0.0
220
0.0
230
1.0
 70
     8
 71
     3
 72
    10
 73
     6
 74
     0
 42
0.000000001
 43
0.00000001
 40
0.0
 40
0.0
 40
0.0
 40
0.0
 40
0.3329627835958612
 40
0.6692139490472444
 40
1.0
 40
1.0
 40
1.0
 40
1.0
 10
68.93002452124375
 20
49.7765492477103
 30
0.0
 10
68.98240576054934
 20
49.77484998529339
 30
0.0
 10
69.08768556279367
 20
49.77143467833264
 30
0.0
 10
69.24326427363381
 20
49.74494051265717
 30
0.0
 10
69.34102548653443
 20
49.71034794823511
 30
0.0
 10
69.38950560841742
 20
49.69319337650194
 30
0.0
  0
SPLINE
  5
1C6
330
1F
100
AcDbEntity
  8
0
  6
Continuous
 62
     7
370
    30
100
AcDbSpline
210
0.0
220
0.0
230
1.0
 70
     8
 71
     3
 72
     9
 73
     5
 74
     0
 42
0.000000001
 43
0.00000001
 40
0.0
 40
0.0
 40
0.0
 40
0.0
 40
0.5010762541612708
 40
1.0
 40
1.0
 40
1.0
 40
1.0
 10
69.38950560841742
 20
49.69319337650194
 30
0.0
 10
69.46267410272027
 20
49.66370839333738
 30
0.0
 10
69.60869677630579
 20
49.60486508771334
 30
0.0
 10
69.72431661856922
 20
49.50389502900012
 30
0.0
 10
69.78200210336456
 20
49.45351866908936
 30
0.0
  0
SPLINE
  5
1C7
330
1F
100
AcDbEntity
  8
0
  6
Continuous
 62
     7
370
    30
100
AcDbSpline
210
0.0
220
0.0
230
1.0
 70
     8
 71
     3
 72
     9
 73
     5
 74
     0
 42
0.000000001
 43
0.00000001
 40
0.0
 40
0.0
 40
0.0
 40
0.0
 40
0.5000690885800249
 40
1.0
 40
1.0
 40
1.0
 40
1.0
 10
69.78200210336456
 20
49.45351866908936
 30
0.0
 10
69.83015494360814
 20
49.38456836923149
 30
0.0
 10
69.92644731868839
 20
49.24668682159646
 30
0.0
 10
69.93976227266282
 20
49.07928599858966
 30
0.0
 10
69.94641882973876
 20
48.99559715257141
 30
0.0
  0
SPLINE
  5
1C8
330
1F
100
AcDbEntity
  8
0
  6
Continuous
 62
     7
370
    30
100
AcDbSpline
210
0.0
220
0.0
230
1.0
 70
     8
 71
     3
 72
    14
 73
    10
 74
     0
 42
0.000000001
 43
0.00000001
 40
0.0
 40
0.0
 40
0.0
 40
0.0
 40
0.2506358976917706
 40
0.5004263639855775
 40
0.6283349608265337
 40
0.7502083033779611
 40
0.8749842018597015
 40
0.937480107968193
 40
1.0
 40
1.0
 40
1.0
 40
1.0
 10
69.19907007349244
 20
48.52456767515298
 30
0.0
 10
69.27203697255706
 20
48.53268463216941
 30
0.0
 10
69.41772464270524
 20
48.54889116652372
 30
0.0
 10
69.59331360078502
 20
48.61401885498609
 30
0.0
 10
69.70777573502541
 20
48.70404839278351
 30
0.0
 10
69.77133344077419
 20
48.79162563633788
 30
0.0
 10
69.7998841405523
 20
48.87470624204266
 30
0.0
 10
69.81079869134024
 20
48.94357465880061
 30
0.0
 10
69.81153021940527
 20
48.97825410341213
 30
0.0
 10
69.81189605361442
 20
48.99559715257141
 30
0.0
  0
LINE
  5
1C9
330
1F
100
AcDbEntity
  8
0
  6
Continuous
 62
     7
370
    30
100
AcDbLine
 10
68.3321455162
 20
45.5998961441
 30
0.0
 11
68.3321455162
 21
45.6047463064
 31
0.0
  0
LINE
  5
1CA
330
1F
100
AcDbEntity
  8
0
  6
Continuous
 62
     7
370
    30
100
AcDbLine
 10
69.4382216755
 20
45.5998961441
 30
0.0
 11
69.4382216755
 21
45.6047463064
 31
0.0
  0
LINE
  5
1CB
330
1F
100
AcDbEntity
  8
0
  6
Continuous
 62
     7
370
    30
100
AcDbLine
 10
69.5539223348
 20
45.5998961441
 30
0.0
 11
69.5539223348
 21
45.6047463064
 31
0.0
  0
LINE
  5
1CC
330
1F
100
AcDbEntity
  8
0
  6
Continuous
 62
     7
370
    30
100
AcDbLine
 10
70.5891387601
 20
45.5998961441
 30
0.0
 11
70.5891387601
 21
45.6047463064
 31
0.0
  0
LINE
  5
1CD
330
1F
100
AcDbEntity
  8
0
  6
Continuous
 62
     7
370
    30
100
AcDbLine
 10
68.1378348396
 20
45.3691004656
 30
0.0
 11
68.1378348396
 21
45.3747199469
 31
0.0
  0
LINE
  5
1CE
330
1F
100
AcDbEntity
  8
0
  6
Continuous
 62
     7
370
    30
100
AcDbLine
 10
70.7236615362
 20
45.3547608699
 30
0.0
 11
70.7236615362
 21
45.3604281498
 31
0.0
  0
LINE
  5
1CF
330
1F
100
AcDbEntity
  8
0
  6
Continuous
 62
     7
370
    30
100
AcDbLine
 10
69.3335928496
 20
49.4888945639
 30
0.0
 11
69.1990700735
 21
49.5197216395
 31
0.0
  0
SPLINE
  5
1D0
330
1F
100
AcDbEntity
  8
0
  6
Continuous
 62
     7
370
    30
100
AcDbSpline
210
0.0
220
0.0
230
1.0
 70
     8
 71
     3
 72
    10
 73
     6
 74
     0
 42
0.000000001
 43
0.00000001
 40
0.0
 40
0.0
 40
0.0
 40
0.0
 40
0.4993825937214313
 40
0.7496196830159745
 40
1.0
 40
1.0
 40
1.0
 40
1.0
 10
69.67017658576327
 20
49.30286066591973
 30
0.0
 10
69.62099859782526
 20
49.34416991612412
 30
0.0
 10
69.54717786760172
 20
49.4061789397328
 30
0.0
 10
69.42803947456234
 20
49.4607373341691
 30
0.0
 10
69.3650810621099
 20
49.47950703064216
 30
0.0
 10
69.33359284961676
 20
49.48889456390344
 30
0.0
  0
SPLINE
  5
1D1
330
1F
100
AcDbEntity
  8
0
  6
Continuous
 62
     7
370
    30
100
AcDbSpline
210
0.0
220
0.0
230
1.0
 70
     8
 71
     3
 72
    10
 73
     6
 74
     0
 42
0.000000001
 43
0.00000001
 40
0.0
 40
0.0
 40
0.0
 40
0.0
 40
0.2502789854939425
 40
0.5005798351587671
 40
1.0
 40
1.0
 40
1.0
 40
1.0
 10
69.81189605361443
 20
49.00208762856856
 30
0.0
 10
69.80990939824834
 20
49.03037853509429
 30
0.0
 10
69.80593591396352
 20
49.08696281961658
 30
0.0
 10
69.76587177787098
 20
49.19456079247033
 30
0.0
 10
69.70843655942126
 20
49.25956120422185
 30
0.0
 10
69.67017658576326
 20
49.30286066591973
 30
0.0
  0
SPLINE
  5
1D2
330
1F
100
AcDbEntity
  8
0
  6
Continuous
 62
     7
370
    30
100
AcDbSpline
210
0.0
220
0.0
230
1.0
 70
     8
 71
     3
 72
    14
 73
    10
 74
     0
 42
0.000000001
 43
0.00000001
 40
0.0
 40
0.0
 40
0.0
 40
0.0
 40
0.2503102209320218
 40
0.4998790581280103
 40
0.6277869030165102
 40
0.749767236824627
 40
0.8747441235546988
 40
0.9373579981979816
 40
1.0
 40
1.0
 40
1.0
 40
1.0
 10
69.19907007349244
 20
48.52948280172731
 30
0.0
 10
69.27204096934823
 20
48.53762715109204
 30
0.0
 10
69.41776663150986
 20
48.553891727402
 30
0.0
 10
69.59337914912292
 20
48.61927137149346
 30
0.0
 10
69.70781035918496
 20
48.70959957106132
 30
0.0
 10
69.77135071964211
 20
48.79747006302884
 30
0.0
 10
69.79988583786897
 20
48.88080336839711
 30
0.0
 10
69.81079883490898
 20
48.94989282823491
 30
0.0
 10
69.81153025929697
 20
48.98468675737696
 30
0.0
 10
69.81189605361442
 20
49.00208762856856
 30
0.0
  0
LINE
  5
1D3
330
1F
100
AcDbEntity
  8
0
  6
Continuous
 62
     7
370
    30
100
AcDbLine
 10
69.1990700735
 20
49.5197216395
 30
0.0
 11
69.1990700735
 21
48.5294828017
 31
0.0
  0
LINE
  5
1D4
330
1F
100
AcDbEntity
  8
0
  6
Continuous
 62
     7
370
    30
100
AcDbLine
 10
69.8118960536
 20
48.9955971526
 30
0.0
 11
69.8118960536
 21
49.0020876286
 31
0.0
  0
LINE
  5
1D5
330
1F
100
AcDbEntity
  8
0
  6
Continuous
 62
     7
370
    30
100
AcDbLine
 10
69.1990700735
 20
48.5245676752
 30
0.0
 11
69.1990700735
 21
48.5294828017
 31
0.0
  0
LINE
  5
1D6
330
1F
100
AcDbEntity
  8
0
  6
Continuous
 62
     7
370
    30
100
AcDbLine
 10
68.182675765
 20
48.959619623
 30
0.0
 11
68.182675765
 21
48.953270707
 31
0.0
  0
LINE
  5
1D7
330
1F
100
AcDbEntity
  8
0
  6
Continuous
 62
     7
370
    30
100
AcDbLine
 10
69.7820021034
 20
49.4615406552
 30
0.0
 11
69.7820021034
 21
49.4535186691
 31
0.0
  0
LINE
  5
1D8
330
1F
100
AcDbEntity
  8
0
  6
Continuous
 62
     7
370
    30
100
AcDbLine
 10
69.9464188297
 20
49.0020876286
 30
0.0
 11
69.9464188297
 21
48.9955971526
 31
0.0
  0
LINE
  5
1D9
330
1F
100
AcDbEntity
  8
0
  6
Continuous
 62
     7
370
    30
100
AcDbLine
 10
68.1079408894
 20
49.423958779
 30
0.0
 11
68.1079408894
 21
49.4160620658
 31
0.0
  0
LINE
  5
1DA
330
1F
100
AcDbEntity
  8
0
  6
Continuous
 62
     7
370
    30
100
AcDbLine
 10
67.9883650884
 20
49.01621958
 30
0.0
 11
67.9883650884
 21
49.0096819975
 31
0.0
  0
LINE
  5
1DB
330
1F
100
AcDbEntity
  8
0
  6
Continuous
 62
     7
370
    30
100
AcDbLine
 10
68.4179522253
 20
49.678642354
 30
0.0
 11
68.4179522253
 21
49.6698966955
 31
0.0
  0
LINE
  5
1DC
330
1F
100
AcDbEntity
  8
0
  6
Continuous
 62
     7
370
    30
100
AcDbLine
 10
69.3895056084
 20
49.7020169502
 30
0.0
 11
69.3895056084
 21
49.6931933765
 31
0.0
  0
LINE
  5
1DD
330
1F
100
AcDbEntity
  8
0
  6
Continuous
 62
     7
370
    30
100
AcDbLine
 10
68.9300245212
 20
49.7856516036
 30
0.0
 11
68.9300245212
 21
49.7765492477
 31
0.0
  0
LINE
  5
1DE
330
1F
100
AcDbEntity
  8
0
  6
Continuous
 62
     7
370
    30
100
AcDbLine
 10
69.3895056084
 20
42.9867803528
 30
0.0
 11
69.2439109989
 21
42.9867803528
 31
0.0
  0
SPLINE
  5
1DF
330
1F
100
AcDbEntity
  8
0
  6
Continuous
 62
     7
370
    30
100
AcDbSpline
210
0.0
220
0.0
230
1.0
 70
     8
 71
     3
 72
    10
 73
     6
 74
     0
 42
0.000000001
 43
0.00000001
 40
0.0
 40
0.0
 40
0.0
 40
0.0
 40
0.4985586100985079
 40
0.7490373699254156
 40
1.0
 40
1.0
 40
1.0
 40
1.0
 10
69.34853982474169
 20
50.26767707306351
 30
0.0
 10
69.35093566086451
 20
50.28743192800117
 30
0.0
 10
69.35453517905925
 20
50.31711173752815
 30
0.0
 10
69.37729830341615
 20
50.35193812051059
 30
0.0
 10
69.39318168121373
 20
50.36632060698864
 30
0.0
 10
69.40113103351459
 20
50.37351878948063
 30
0.0
  0
SPLINE
  5
1E0
330
1F
100
AcDbEntity
  8
0
  6
Continuous
 62
     7
370
    30
100
AcDbSpline
210
0.0
220
0.0
230
1.0
 70
     8
 71
     3
 72
    10
 73
     6
 74
     0
 42
0.000000001
 43
0.00000001
 40
0.0
 40
0.0
 40
0.0
 40
0.0
 40
0.4984413425331996
 40
0.7490460155127633
 40
1.0
 40
1.0
 40
1.0
 40
1.0
 10
69.40113103351459
 20
50.37351878948063
 30
0.0
 10
69.41689785733546
 20
50.38543964740938
 30
0.0
 10
69.44059187216239
 20
50.40335403446171
 30
0.0
 10
69.48111220991198
 20
50.41538855316004
 30
0.0
 10
69.50233684340208
 20
50.41645916658566
 30
0.0
 10
69.51295655111588
 20
50.41699484611387
 30
0.0
  0
SPLINE
  5
1E1
330
1F
100
AcDbEntity
  8
0
  6
Continuous
 62
     7
370
    30
100
AcDbSpline
210
0.0
220
0.0
230
1.0
 70
     8
 71
     3
 72
    10
 73
     6
 74
     0
 42
0.000000001
 43
0.00000001
 40
0.0
 40
0.0
 40
0.0
 40
0.0
 40
0.4996423089888694
 40
0.7497738267929258
 40
1.0
 40
1.0
 40
1.0
 40
1.0
 10
69.51295655111588
 20
50.41699484611387
 30
0.0
 10
69.53285628694937
 20
50.41584285064951
 30
0.0
 10
69.56271825183829
 20
50.41411414186679
 30
0.0
 10
69.6001130315227
 20
50.40227211793962
 30
0.0
 10
69.61692705716612
 20
50.39349666680068
 30
0.0
 10
69.62533566038847
 20
50.38910811118117
 30
0.0
  0
SPLINE
  5
1E2
330
1F
100
AcDbEntity
  8
0
  6
Continuous
 62
     7
370
    30
100
AcDbSpline
210
0.0
220
0.0
230
1.0
 70
     8
 71
     3
 72
    10
 73
     6
 74
     0
 42
0.000000001
 43
0.00000001
 40
0.0
 40
0.0
 40
0.0
 40
0.0
 40
0.5003469099327732
 40
0.7522696751304921
 40
1.0
 40
1.0
 40
1.0
 40
1.0
 10
69.62533566038847
 20
50.38910811118117
 30
0.0
 10
69.63181428753667
 20
50.38124110218934
 30
0.0
 10
69.64155487880112
 20
50.36941308410621
 30
0.0
 10
69.66033333038031
 20
50.35761453161175
 30
0.0
 10
69.67172515692853
 20
50.3559579517064
 30
0.0
 10
69.67737327749008
 20
50.35513661168812
 30
0.0
  0
SPLINE
  5
1E3
330
1F
100
AcDbEntity
  8
0
  6
Continuous
 62
     7
370
    30
100
AcDbSpline
210
0.0
220
0.0
230
1.0
 70
     8
 71
     3
 72
    13
 73
     9
 74
     0
 42
0.000000001
 43
0.00000001
 40
0.0
 40
0.0
 40
0.0
 40
0.0
 40
0.0627752438004748
 40
0.1253014361070414
 40
0.1855893797263624
 40
0.2505522962299427
 40
0.4999185670824782
 40
1.0
 40
1.0
 40
1.0
 40
1.0
 10
69.67737327749008
 20
50.35513661168812
 30
0.0
 10
69.68576924993702
 20
50.35575499326192
 30
0.0
 10
69.7025278850522
 20
50.3569893030721
 30
0.0
 10
69.72567977970299
 20
50.36547661638445
 30
0.0
 10
69.74507073189024
 20
50.37901106420187
 30
0.0
 10
69.7758569957688
 20
50.41213930209831
 30
0.0
 10
69.80800484217431
 20
50.500692208856
 30
0.0
 10
69.81033872891055
 20
50.58142634624985
 30
0.0
 10
69.8118960536144
 20
50.63529754087779
 30
0.0
  0
LINE
  5
1E4
330
1F
100
AcDbEntity
  8
0
  6
Continuous
 62
     7
370
    30
100
AcDbLine
 10
68.182675765
 20
50.6591169751
 30
0.0
 11
68.2463388072
 21
50.3643333351
 31
0.0
  0
SPLINE
  5
1E5
330
1F
100
AcDbEntity
  8
0
  6
Continuous
 62
     7
370
    30
100
AcDbSpline
210
0.0
220
0.0
230
1.0
 70
     8
 71
     3
 72
     9
 73
     5
 74
     0
 42
0.000000001
 43
0.00000001
 40
0.0
 40
0.0
 40
0.0
 40
0.0
 40
0.4984230850202485
 40
1.0
 40
1.0
 40
1.0
 40
1.0
 10
68.24633880719618
 20
50.36433333506928
 30
0.0
 10
68.29458769570083
 20
50.30343463235025
 30
0.0
 10
68.39139077315595
 20
50.1812518832977
 30
0.0
 10
68.54106493784393
 20
50.10326221192688
 30
0.0
 10
68.6161380436203
 20
50.06414439316042
 30
0.0
  0
SPLINE
  5
1E6
330
1F
100
AcDbEntity
  8
0
  6
Continuous
 62
     7
370
    30
100
AcDbSpline
210
0.0
220
0.0
230
1.0
 70
     8
 71
     3
 72
     9
 73
     5
 74
     0
 42
0.000000001
 43
0.00000001
 40
0.0
 40
0.0
 40
0.0
 40
0.0
 40
0.4998482905843085
 40
1.0
 40
1.0
 40
1.0
 40
1.0
 10
67.98836508837337
 20
50.69467818941064
 30
0.0
 10
67.99891672649666
 20
50.78302972286428
 30
0.0
 10
68.02002640781808
 20
50.95978642108234
 30
0.0
 10
68.16830291630914
 20
51.08567575652553
 30
0.0
 10
68.24246366549713
 20
51.14863952284465
 30
0.0
  0
SPLINE
  5
1E7
330
1F
100
AcDbEntity
  8
0
  6
Continuous
 62
     7
370
    30
100
AcDbSpline
210
0.0
220
0.0
230
1.0
 70
     8
 71
     3
 72
    10
 73
     6
 74
     0
 42
0.000000001
 43
0.00000001
 40
0.0
 40
0.0
 40
0.0
 40
0.0
 40
0.2497512502456617
 40
0.4999388082228851
 40
1.0
 40
1.0
 40
1.0
 40
1.0
 10
68.24246366549711
 20
51.14863952284465
 30
0.0
 10
68.296357045806
 20
51.17892524668125
 30
0.0
 10
68.404237956497
 20
51.23954960257996
 30
0.0
 10
68.66356538078614
 20
51.30636976374067
 30
0.0
 10
68.86829892363538
 20
51.31400323696742
 30
0.0
 10
69.00475939686837
 20
51.31909115443535
 30
0.0
  0
SPLINE
  5
1E8
330
1F
100
AcDbEntity
  8
0
  6
Continuous
 62
     7
370
    30
100
AcDbSpline
210
0.0
220
0.0
230
1.0
 70
     8
 71
     3
 72
     9
 73
     5
 74
     0
 42
0.000000001
 43
0.00000001
 40
0.0
 40
0.0
 40
0.0
 40
0.0
 40
0.5006057262323983
 40
1.0
 40
1.0
 40
1.0
 40
1.0
 10
69.00475939686837
 20
51.31909115443535
 30
0.0
 10
69.13251353653378
 20
51.3123671876883
 30
0.0
 10
69.38771265426443
 20
51.29893552601383
 30
0.0
 10
69.58828195208883
 20
51.18417894927306
 30
0.0
 10
69.68844511091594
 20
51.12687017197155
 30
0.0
  0
SPLINE
  5
1E9
330
1F
100
AcDbEntity
  8
0
  6
Continuous
 62
     7
370
    30
100
AcDbSpline
210
0.0
220
0.0
230
1.0
 70
     8
 71
     3
 72
    10
 73
     6
 74
     0
 42
0.000000001
 43
0.00000001
 40
0.0
 40
0.0
 40
0.0
 40
0.0
 40
0.2507311908927081
 40
0.5011857148534041
 40
0.9999999999999999
 40
0.9999999999999999
 40
0.9999999999999999
 40
0.9999999999999999
 10
69.68844511091594
 20
51.12687017197155
 30
0.0
 10
69.72881908533216
 20
51.09484183027281
 30
0.0
 10
69.80952248388914
 20
51.0308204882423
 30
0.0
 10
69.92130020409819
 20
50.87042058428196
 30
0.0
 10
69.93637981122272
 20
50.72926783288568
 30
0.0
 10
69.94641882973875
 20
50.6352975408778
 30
0.0
  0
LINE
  5
1EA
330
1F
100
AcDbEntity
  8
0
  6
Continuous
 62
     7
370
    30
100
AcDbLine
 10
68.2463388072
 20
50.3754015241
 30
0.0
 11
68.2463388072
 21
50.3643333351
 31
0.0
  0
LINE
  5
1EB
330
1F
100
AcDbEntity
  8
0
  6
Continuous
 62
     7
370
    30
100
AcDbLine
 10
69.4011310335
 20
50.384617699
 30
0.0
 11
69.4011310335
 21
50.3735187895
 31
0.0
  0
LINE
  5
1EC
330
1F
100
AcDbEntity
  8
0
  6
Continuous
 62
     7
370
    30
100
AcDbLine
 10
69.3485398247
 20
50.278421997
 30
0.0
 11
69.3485398247
 21
50.2676770731
 31
0.0
  0
LINE
  5
1ED
330
1F
100
AcDbEntity
  8
0
  6
Continuous
 62
     7
370
    30
100
AcDbLine
 10
69.6773732775
 20
50.3661740424
 30
0.0
 11
69.6773732775
 21
50.3551366117
 31
0.0
  0
LINE
  5
1EE
330
1F
100
AcDbEntity
  8
0
  6
Continuous
 62
     7
370
    30
100
AcDbLine
 10
69.6253356604
 20
50.4002591589
 30
0.0
 11
69.6253356604
 21
50.3891081112
 31
0.0
  0
LINE
  5
1EF
330
1F
100
AcDbEntity
  8
0
  6
Continuous
 62
     7
370
    30
100
AcDbLine
 10
69.8118960536
 20
50.6472719647
 30
0.0
 11
69.8118960536
 21
50.6352975409
 31
0.0
  0
LINE
  5
1F0
330
1F
100
AcDbEntity
  8
0
  6
Continuous
 62
     7
370
    30
100
AcDbLine
 10
68.182675765
 20
50.6711710626
 30
0.0
 11
68.182675765
 21
50.6591169751
 31
0.0
  0
LINE
  5
1F1
330
1F
100
AcDbEntity
  8
0
  6
Continuous
 62
     7
370
    30
100
AcDbLine
 10
69.5129565511
 20
50.4282391606
 30
0.0
 11
69.5129565511
 21
50.4169948461
 31
0.0
  0
LINE
  5
1F2
330
1F
100
AcDbEntity
  8
0
  6
Continuous
 62
     7
370
    30
100
AcDbLine
 10
69.6884451109
 20
51.1404886514
 30
0.0
 11
69.6884451109
 21
51.126870172
 31
0.0
  0
LINE
  5
1F3
330
1F
100
AcDbEntity
  8
0
  6
Continuous
 62
     7
370
    30
100
AcDbLine
 10
69.9464188297
 20
50.6472719647
 30
0.0
 11
69.9464188297
 21
50.6352975409
 31
0.0
  0
LINE
  5
1F4
330
1F
100
AcDbEntity
  8
0
  6
Continuous
 62
     7
370
    30
100
AcDbLine
 10
68.2424636655
 20
51.1623308094
 30
0.0
 11
68.2424636655
 21
51.1486395228
 31
0.0
  0
LINE
  5
1F5
330
1F
100
AcDbEntity
  8
0
  6
Continuous
 62
     7
370
    30
100
AcDbLine
 10
67.9883650884
 20
50.7068512107
 30
0.0
 11
67.9883650884
 21
50.6946781894
 31
0.0
  0
LINE
  5
1F6
330
1F
100
AcDbEntity
  8
0
  6
Continuous
 62
     7
370
    30
100
AcDbLine
 10
69.0047593969
 20
51.3333525134
 30
0.0
 11
69.0047593969
 21
51.3190911544
 31
0.0
  0
SPLINE
  5
1F7
330
1F
100
AcDbEntity
  8
0
  6
Continuous
 62
     7
370
    30
100
AcDbSpline
210
0.0
220
0.0
230
1.0
 70
     8
 71
     3
 72
    12
 73
     8
 74
     0
 42
0.000000001
 43
0.00000001
 40
0.0
 40
0.0
 40
0.0
 40
0.0
 40
0.2495560962330161
 40
0.4989823283544505
 40
0.749042563778746
 40
0.8744726916789415
 40
1.0
 40
1.0
 40
1.0
 40
1.0
 10
70.87313128748427
 20
42.22580153140765
 30
0.0
 10
70.86777049917765
 20
42.18543025848329
 30
0.0
 10
70.8570517122138
 20
42.10470872105542
 30
0.0
 10
70.75822140007098
 20
42.00177262554488
 30
0.0
 10
70.63229666668097
 20
41.93830914944814
 30
0.0
 10
70.5173300687692
 20
41.89849018512841
 30
0.0
 10
70.45559934692136
 20
41.88247240026553
 30
0.0
 10
70.42472203373649
 20
41.87446040648133
 30
0.0
  0
SPLINE
  5
1F8
330
1F
100
AcDbEntity
  8
0
  6
Continuous
 62
     7
370
    30
100
AcDbSpline
210
0.0
220
0.0
230
1.0
 70
     8
 71
     3
 72
     9
 73
     5
 74
     0
 42
0.000000001
 43
0.00000001
 40
0.0
 40
0.0
 40
0.0
 40
0.0
 40
0.4995682761709476
 40
1.0
 40
1.0
 40
1.0
 40
1.0
 10
70.42472203373649
 20
41.87446040648133
 30
0.0
 10
70.26377441525852
 20
41.84389373708296
 30
0.0
 10
69.94160099842036
 20
41.78270756723116
 30
0.0
 10
69.59614955946304
 20
41.77774675477642
 30
0.0
 10
69.4232747003664
 20
41.7752642068481
 30
0.0
  0
SPLINE
  5
1F9
330
1F
100
AcDbEntity
  8
0
  6
Continuous
 62
     7
370
    30
100
AcDbSpline
210
0.0
220
0.0
230
1.0
 70
     8
 71
     3
 72
    11
 73
     7
 74
     0
 42
0.000000001
 43
0.00000001
 40
0.0
 40
0.0
 40
0.0
 40
0.0
 40
0.2500509068882719
 40
0.5000734674084414
 40
0.7500642752477615
 40
0.9999999999999999
 40
0.9999999999999999
 40
0.9999999999999999
 40
0.9999999999999999
 10
69.4232747003664
 20
41.7752642068481
 30
0.0
 10
69.35297598820715
 20
41.77593076306173
 30
0.0
 10
69.21238653311858
 20
41.77726379992659
 30
0.0
 10
69.00320967692133
 20
41.7906411823874
 30
0.0
 10
68.79663334416065
 20
41.81136753702349
 30
0.0
 10
68.66375018545764
 20
41.83375822048108
 30
0.0
 10
68.5973159267964
 20
41.84495232868067
 30
0.0
  0
SPLINE
  5
1FA
330
1F
100
AcDbEntity
  8
0
  6
Continuous
 62
     7
370
    30
100
AcDbSpline
210
0.0
220
0.0
230
1.0
 70
     8
 71
     3
 72
    10
 73
     6
 74
     0
 42
0.000000001
 43
0.00000001
 40
0.0
 40
0.0
 40
0.0
 40
0.0
 40
0.4996971553931886
 40
0.7498437740929096
 40
1.0
 40
1.0
 40
1.0
 40
1.0
 10
68.5973159267964
 20
41.84495232868067
 30
0.0
 10
68.51736283561797
 20
41.86374161663335
 30
0.0
 10
68.39738551136755
 20
41.89193675530665
 30
0.0
 10
68.25937742350408
 20
41.94903784524404
 30
0.0
 10
68.19827872550476
 20
41.98279149563371
 30
0.0
 10
68.16772878987257
 20
41.99966864491056
 30
0.0
  0
SPLINE
  5
1FB
330
1F
100
AcDbEntity
  8
0
  6
Continuous
 62
     7
370
    30
100
AcDbSpline
210
0.0
220
0.0
230
1.0
 70
     8
 71
     3
 72
     9
 73
     5
 74
     0
 42
0.000000001
 43
0.00000001
 40
0.0
 40
0.0
 40
0.0
 40
0.0
 40
0.5007528041676832
 40
1.0
 40
1.0
 40
1.0
 40
1.0
 10
68.16772878987257
 20
41.99966864491056
 30
0.0
 10
68.11686395502105
 20
42.0353768179578
 30
0.0
 10
68.01528722009678
 20
42.10668580065356
 30
0.0
 10
67.99733012016146
 20
42.20380746654396
 30
0.0
 10
67.98836508837346
 20
42.25229518589431
 30
0.0
  0
SPLINE
  5
1FC
330
1F
100
AcDbEntity
  8
0
  6
Continuous
 62
     7
370
    30
100
AcDbSpline
210
0.0
220
0.0
230
1.0
 70
     8
 71
     3
 72
    10
 73
     6
 74
     0
 42
0.000000001
 43
0.00000001
 40
0.0
 40
0.0
 40
0.0
 40
0.0
 40
0.2500225863584287
 40
0.5001665544323259
 40
1.0
 40
1.0
 40
1.0
 40
1.0
 10
70.73860851135993
 20
42.22580153140765
 30
0.0
 10
70.73482394971269
 20
42.25064711073137
 30
0.0
 10
70.72725298907783
 20
42.30035033148523
 30
0.0
 10
70.64270487730269
 20
42.39226728330483
 30
0.0
 10
70.5388071338631
 20
42.4382000838172
 30
0.0
 10
70.46956295911124
 20
42.4688126723126
 30
0.0
  0
SPLINE
  5
1FD
330
1F
100
AcDbEntity
  8
0
  6
Continuous
 62
     7
370
    30
100
AcDbSpline
210
0.0
220
0.0
230
1.0
 70
     8
 71
     3
 72
    12
 73
     8
 74
     0
 42
0.000000001
 43
0.00000001
 40
0.0
 40
0.0
 40
0.0
 40
0.0
 40
0.1637592948939582
 40
0.3263750240118059
 40
0.499779680166552
 40
0.7498661897074953
 40
0.9999999999999999
 40
0.9999999999999999
 40
0.9999999999999999
 40
0.9999999999999999
 10
70.46956295911124
 20
42.4688126723126
 30
0.0
 10
70.4172928778514
 20
42.48616310910465
 30
0.0
 10
70.31311772835936
 20
42.5207428209206
 30
0.0
 10
70.13893235109934
 20
42.55031348435725
 30
0.0
 10
69.93235134734616
 20
42.57397130610127
 30
0.0
 10
69.69182981613261
 20
42.58865121830227
 30
0.0
 10
69.512798715339
 20
42.59001957689244
 30
0.0
 10
69.42327470036639
 20
42.59070382088342
 30
0.0
  0
SPLINE
  5
1FE
330
1F
100
AcDbEntity
  8
0
  6
Continuous
 62
     7
370
    30
100
AcDbSpline
210
0.0
220
0.0
230
1.0
 70
     8
 71
     3
 72
    18
 73
    14
 74
     0
 42
0.000000001
 43
0.00000001
 40
0.0
 40
0.0
 40
0.0
 40
0.0
 40
0.1251963942311001
 40
0.2503840017799971
 40
0.3826353346132424
 40
0.500713322583331
 40
0.5943636298993535
 40
0.6772967573443373
 40
0.750794099211484
 40
0.8154239753776178
 40
0.8755027590985162
 40
0.9377442013346142
 40
1.0
 40
1.0
 40
1.0
 40
1.0
 10
69.42327470036639
 20
42.59070382088342
 30
0.0
 10
69.35881330646936
 20
42.59030191381292
 30
0.0
 10
69.22989504278145
 20
42.58949812787905
 30
0.0
 10
69.03309198027257
 20
42.58251221176656
 30
0.0
 10
68.84071555837396
 20
42.56892636580535
 30
0.0
 10
68.66621725231352
 20
42.54820927662988
 30
0.0
 10
68.51963123675432
 20
42.52203592891347
 30
0.0
 10
68.39952688920728
 20
42.49131733618042
 30
0.0
 10
68.29989391969833
 20
42.45537808743659
 30
0.0
 10
68.2206748527392
 20
42.41367766519459
 30
0.0
 10
68.16256581653596
 20
42.36508946779267
 30
0.0
 10
68.12482451758875
 20
42.31019891744334
 30
0.0
 10
68.12095013665379
 20
42.27159791350533
 30
0.0
 10
68.11901272279873
 20
42.25229518589431
 30
0.0
  0
SPLINE
  5
1FF
330
1F
100
AcDbEntity
  8
0
  6
Continuous
 62
     7
370
    30
100
AcDbSpline
210
0.0
220
0.0
230
1.0
 70
     8
 71
     3
 72
    12
 73
     8
 74
     0
 42
0.000000001
 43
0.00000001
 40
0.0
 40
0.0
 40
0.0
 40
0.0
 40
0.1638309553917674
 40
0.3264604698892459
 40
0.4998541592909662
 40
0.749906865709543
 40
1.0
 40
1.0
 40
1.0
 40
1.0
 10
70.46956295911124
 20
42.45347443767342
 30
0.0
 10
70.41729778119524
 20
42.47088210298256
 30
0.0
 10
70.3131507077652
 20
42.50556977591288
 30
0.0
 10
70.1389436755288
 20
42.5352470470574
 30
0.0
 10
69.93235961055207
 20
42.55898377223622
 30
0.0
 10
69.69183307391893
 20
42.57371384224173
 30
0.0
 10
69.51279898212175
 20
42.57508674305472
 30
0.0
 10
69.42327470036639
 20
42.57577324894849
 30
0.0
  0
LINE
  5
200
330
1F
100
AcDbEntity
  8
0
  6
Continuous
 62
     7
370
    30
100
AcDbLine
 10
69.4232747004
 20
42.5907038209
 30
0.0
 11
69.4232747004
 21
42.5757732489
 31
0.0
  0
LINE
  5
201
330
1F
100
AcDbEntity
  8
0
  6
Continuous
 62
     7
370
    30
100
AcDbLine
 10
70.4695629591
 20
42.4688126723
 30
0.0
 11
70.4695629591
 21
42.4534744377
 31
0.0
  0
SPLINE
  5
202
330
1F
100
AcDbEntity
  8
0
  6
Continuous
 62
     7
370
    30
100
AcDbSpline
210
0.0
220
0.0
230
1.0
 70
     8
 71
     3
 72
    18
 73
    14
 74
     0
 42
0.000000001
 43
0.00000001
 40
0.0
 40
0.0
 40
0.0
 40
0.0
 40
0.1251031235458348
 40
0.2501985968150522
 40
0.3823566199482867
 40
0.5003596083604025
 40
0.5939627734036818
 40
0.6768726281313491
 40
0.7503762764208183
 40
0.815048661142738
 40
0.8752117559885051
 40
0.9375854040594656
 40
1.0
 40
1.0
 40
1.0
 40
1.0
 10
69.42327470036639
 20
42.57577324894849
 30
0.0
 10
69.35881322997733
 20
42.57536999604903
 30
0.0
 10
69.2298942311318
 20
42.57456351490976
 30
0.0
 10
69.03308907166006
 20
42.56755411743084
 30
0.0
 10
68.84070899958009
 20
42.55392240009607
 30
0.0
 10
68.66620703804152
 20
42.53313514977002
 30
0.0
 10
68.51961694691822
 20
42.50687275014744
 30
0.0
 10
68.3995071070677
 20
42.4760485842319
 30
0.0
 10
68.29986825187858
 20
42.43998423201662
 30
0.0
 10
68.22064915870412
 20
42.39813826463421
 30
0.0
 10
68.16254811498939
 20
42.34938506281377
 30
0.0
 10
68.12482130572914
 20
42.29431767284451
 30
0.0
 10
68.12094934062291
 20
42.25559866768769
 30
0.0
 10
68.11901272279873
 20
42.23623281250456
 30
0.0
  0
SPLINE
  5
203
330
1F
100
AcDbEntity
  8
0
  6
Continuous
 62
     7
370
    30
100
AcDbSpline
210
0.0
220
0.0
230
1.0
 70
     8
 71
     3
 72
    10
 73
     6
 74
     0
 42
0.000000001
 43
0.00000001
 40
0.0
 40
0.0
 40
0.0
 40
0.0
 40
0.2502950103687552
 40
0.5005448512753171
 40
1.0
 40
1.0
 40
1.0
 40
1.0
 10
70.73860851135993
 20
42.20965055047781
 30
0.0
 10
70.73482602124639
 20
42.2345759572008
 30
0.0
 10
70.72726172362594
 20
42.28442227248592
 30
0.0
 10
70.64278733901511
 20
42.37661402811975
 30
0.0
 10
70.53882374143296
 20
42.42274312780694
 30
0.0
 10
70.46956295911124
 20
42.45347443767342
 30
0.0
  0
SPLINE
  5
204
330
1F
100
AcDbEntity
  8
0
  6
Continuous
 62
     7
370
    30
100
AcDbSpline
210
0.0
220
0.0
230
1.0
 70
     8
 71
     3
 72
    11
 73
     7
 74
     0
 42
0.000000001
 43
0.00000001
 40
0.0
 40
0.0
 40
0.0
 40
0.0
 40
0.2503564519311223
 40
0.5001035876545986
 40
0.7498614775170629
 40
0.9999999999999999
 40
0.9999999999999999
 40
0.9999999999999999
 40
0.9999999999999999
 10
70.49558176766205
 20
42.00088074535597
 30
0.0
 10
70.52983290175625
 20
42.01122612565312
 30
0.0
 10
70.59825180971576
 20
42.0318917077156
 30
0.0
 10
70.67964033620049
 20
42.07977809489652
 30
0.0
 10
70.73124169647447
 20
42.14080602500625
 30
0.0
 10
70.73615166021169
 20
42.18669072943103
 30
0.0
 10
70.73860851135993
 20
42.20965055047781
 30
0.0
  0
SPLINE
  5
205
330
1F
100
AcDbEntity
  8
0
  6
Continuous
 62
     7
370
    30
100
AcDbSpline
210
0.0
220
0.0
230
1.0
 70
     8
 71
     3
 72
    13
 73
     9
 74
     0
 42
0.000000001
 43
0.00000001
 40
0.0
 40
0.0
 40
0.0
 40
0.0
 40
0.1807188852216796
 40
0.337690818295585
 40
0.5001085203334616
 40
0.6723910422672837
 40
0.8364668244883801
 40
1.0
 40
1.0
 40
1.0
 40
1.0
 10
69.4232747003664
 20
41.90449804166642
 30
0.0
 10
69.4893569558067
 20
41.90486015918503
 30
0.0
 10
69.61283807891722
 20
41.9055368109972
 30
0.0
 10
69.79541578525375
 20
41.91124538265221
 30
0.0
 10
69.97429501313823
 20
41.92107010536946
 30
0.0
 10
70.15395659812408
 20
41.93741012908747
 30
0.0
 10
70.33181308829015
 20
41.96100182891121
 30
0.0
 10
70.44105251762578
 20
41.98760245909066
 30
0.0
 10
70.49558176766206
 20
42.00088074535597
 30
0.0
  0
SPLINE
  5
206
330
1F
100
AcDbEntity
  8
0
  6
Continuous
 62
     7
370
    30
100
AcDbSpline
210
0.0
220
0.0
230
1.0
 70
     8
 71
     3
 72
     9
 73
     5
 74
     0
 42
0.000000001
 43
0.00000001
 40
0.0
 40
0.0
 40
0.0
 40
0.0
 40
0.4992191460397098
 40
1.0
 40
1.0
 40
1.0
 40
1.0
 10
68.40300525017234
 20
42.00088074535595
 30
0.0
 10
68.56776942958506
 20
41.96998000103844
 30
0.0
 10
68.89781322041277
 20
41.90808184556375
 30
0.0
 10
69.24793860918425
 20
41.90569388606395
 30
0.0
 10
69.4232747003664
 20
41.90449804166642
 30
0.0
  0
SPLINE
  5
207
330
1F
100
AcDbEntity
  8
0
  6
Continuous
 62
     7
370
    30
100
AcDbSpline
210
0.0
220
0.0
230
1.0
 70
     8
 71
     3
 72
    12
 73
     8
 74
     0
 42
0.000000001
 43
0.00000001
 40
0.0
 40
0.0
 40
0.0
 40
0.0
 40
0.2499190785632641
 40
0.4994653133807377
 40
0.7493245395846819
 40
0.8746322343600312
 40
1.0
 40
1.0
 40
1.0
 40
1.0
 10
68.11901272279873
 20
42.23623281250456
 30
0.0
 10
68.12222790819214
 20
42.20993275426936
 30
0.0
 10
68.12865348237932
 20
42.15737187374799
 30
0.0
 10
68.19038339974324
 20
42.08827518980798
 30
0.0
 10
68.27025460501602
 20
42.04475306593886
 30
0.0
 10
68.34373415674702
 20
42.01742231973042
 30
0.0
 10
68.38324506295206
 20
42.00639548428968
 30
0.0
 10
68.40300525017234
 20
42.00088074535595
 30
0.0
  0
LINE
  5
208
330
1F
100
AcDbEntity
  8
0
  6
Continuous
 62
     7
370
    30
100
AcDbLine
 10
68.1190127228
 20
42.2522951859
 30
0.0
 11
68.1190127228
 21
42.2362328125
 31
0.0
  0
LINE
  5
209
330
1F
100
AcDbEntity
  8
0
  6
Continuous
 62
     7
370
    30
100
AcDbLine
 10
70.7386085114
 20
42.2258015314
 30
0.0
 11
70.7386085114
 21
42.2096505505
 31
0.0
  0
LINE
  5
20A
330
1F
100
AcDbEntity
  8
0
  6
Continuous
 62
     7
370
    30
100
AcDbLine
 10
68.0182590386
 20
52.2655611194
 30
0.0
 11
68.1378348396
 21
52.2655611194
 31
0.0
  0
LINE
  5
20B
330
1F
100
AcDbEntity
  8
0
  6
Continuous
 62
     7
370
    30
100
AcDbLine
 10
68.1378348396
 20
52.2655611194
 30
0.0
 11
68.1716039316
 21
52.1502828707
 31
0.0
  0
SPLINE
  5
20C
330
1F
100
AcDbEntity
  8
0
  6
Continuous
 62
     7
370
    30
100
AcDbSpline
210
0.0
220
0.0
230
1.0
 70
     8
 71
     3
 72
    10
 73
     6
 74
     0
 42
0.000000001
 43
0.00000001
 40
0.0
 40
0.0
 40
0.0
 40
0.0
 40
0.2489556526073398
 40
0.5005015793688994
 40
0.9999999999999999
 40
0.9999999999999999
 40
0.9999999999999999
 40
0.9999999999999999
 10
68.17160393157152
 20
52.15028287071325
 30
0.0
 10
68.1816236393184
 20
52.14185136523261
 30
0.0
 10
68.20176730546778
 20
52.12490062816227
 30
0.0
 10
68.26602831505356
 20
52.10117092701189
 30
0.0
 10
68.32369018350117
 20
52.09866859363219
 30
0.0
 10
68.36203946649653
 20
52.09700436225174
 30
0.0
  0
LINE
  5
20D
330
1F
100
AcDbEntity
  8
0
  6
Continuous
 62
     7
370
    30
100
AcDbLine
 10
68.3620394665
 20
52.0970043623
 30
0.0
 11
69.5389753597
 21
52.0970043623
 31
0.0
  0
SPLINE
  5
20E
330
1F
100
AcDbEntity
  8
0
  6
Continuous
 62
     7
370
    30
100
AcDbSpline
210
0.0
220
0.0
230
1.0
 70
     8
 71
     3
 72
    12
 73
     8
 74
     0
 42
0.000000001
 43
0.00000001
 40
0.0
 40
0.0
 40
0.0
 40
0.0
 40
0.250627570709555
 40
0.500097720961276
 40
0.6266927912226274
 40
0.7502667932193703
 40
1.0
 40
1.0
 40
1.0
 40
1.0
 10
69.53897535966667
 20
52.09700436225175
 30
0.0
 10
69.55525788083361
 20
52.0974157100063
 30
0.0
 10
69.58774772903365
 20
52.09823650587485
 30
0.0
 10
69.62648659300574
 20
52.10648935051025
 30
0.0
 10
69.65211360409724
 20
52.11717439466128
 30
0.0
 10
69.67327414436883
 20
52.13043466838218
 30
0.0
 10
69.6823641344156
 20
52.14232711841662
 30
0.0
 10
69.68844511091592
 20
52.15028287071327
 30
0.0
  0
LINE
  5
20F
330
1F
100
AcDbEntity
  8
0
  6
Continuous
 62
     7
370
    30
100
AcDbLine
 10
69.6884451109
 20
52.1502828707
 30
0.0
 11
69.703392086
 21
52.2508770732
 31
0.0
  0
LINE
  5
210
330
1F
100
AcDbEntity
  8
0
  6
Continuous
 62
     7
370
    30
100
AcDbLine
 10
69.703392086
 20
52.2508770732
 30
0.0
 11
69.8268430287
 21
52.2508770732
 31
0.0
  0
SPLINE
  5
211
330
1F
100
AcDbEntity
  8
0
  6
Continuous
 62
     7
370
    30
100
AcDbSpline
210
0.0
220
0.0
230
1.0
 70
     8
 71
     3
 72
    10
 73
     6
 74
     0
 42
0.000000001
 43
0.00000001
 40
0.0
 40
0.0
 40
0.0
 40
0.0
 40
0.3272439765094754
 40
0.6529065515589779
 40
1.0
 40
1.0
 40
1.0
 40
1.0
 10
69.82684302873932
 20
52.25087707323665
 30
0.0
 10
69.8301399790092
 20
52.21894947908353
 30
0.0
 10
69.83671794708776
 20
52.15524858038267
 30
0.0
 10
69.88034859681615
 20
52.05349017708183
 30
0.0
 10
69.92393262406274
 20
51.98377582716439
 30
0.0
 10
69.94641882973873
 20
51.94780826496685
 30
0.0
  0
LINE
  5
212
330
1F
100
AcDbEntity
  8
0
  6
Continuous
 62
     7
370
    30
100
AcDbLine
 10
68.1677287899
 20
41.9827613667
 30
0.0
 11
68.1677287899
 21
41.9996686449
 31
0.0
  0
LINE
  5
213
330
1F
100
AcDbEntity
  8
0
  6
Continuous
 62
     7
370
    30
100
AcDbLine
 10
67.9883650884
 20
42.2362328125
 30
0.0
 11
67.9883650884
 21
42.2522951859
 31
0.0
  0
LINE
  5
214
330
1F
100
AcDbEntity
  8
0
  6
Continuous
 62
     7
370
    30
100
AcDbLine
 10
70.4247220337
 20
41.8571343716
 30
0.0
 11
70.4247220337
 21
41.8744604065
 31
0.0
  0
LINE
  5
215
330
1F
100
AcDbEntity
  8
0
  6
Continuous
 62
     7
370
    30
100
AcDbLine
 10
70.8731312875
 20
42.2096505505
 30
0.0
 11
70.8731312875
 21
42.2258015314
 31
0.0
  0
SPLINE
  5
216
330
1F
100
AcDbEntity
  8
0
  6
Continuous
 62
     7
370
    30
100
AcDbSpline
210
0.0
220
0.0
230
1.0
 70
     8
 71
     3
 72
    10
 73
     6
 74
     0
 42
0.000000001
 43
0.00000001
 40
0.0
 40
0.0
 40
0.0
 40
0.0
 40
0.4984855822720855
 40
0.7489810961414964
 40
1.0
 40
1.0
 40
1.0
 40
1.0
 10
70.48063479253702
 20
52.02365508984633
 30
0.0
 10
70.48334199461553
 20
52.03796394648836
 30
0.0
 10
70.4874096010867
 20
52.05946319042523
 30
0.0
 10
70.51381154297002
 20
52.08395352907738
 30
0.0
 10
70.53154614029341
 20
52.09403428451259
 30
0.0
 10
70.54042269303673
 20
52.09907992246428
 30
0.0
  0
SPLINE
  5
217
330
1F
100
AcDbEntity
  8
0
  6
Continuous
 62
     7
370
    30
100
AcDbSpline
210
0.0
220
0.0
230
1.0
 70
     8
 71
     3
 72
    10
 73
     6
 74
     0
 42
0.000000001
 43
0.00000001
 40
0.0
 40
0.0
 40
0.0
 40
0.0
 40
0.4986071967142264
 40
0.7491066200789752
 40
1.0
 40
1.0
 40
1.0
 40
1.0
 10
70.54042269303673
 20
52.09907992246429
 30
0.0
 10
70.56052314565517
 20
52.1076580959524
 30
0.0
 10
70.59072203211787
 20
52.12054592948243
 30
0.0
 10
70.64052066750772
 20
52.12792076001904
 30
0.0
 10
70.66604727744928
 20
52.1285018786425
 30
0.0
 10
70.67882061086011
 20
52.12879266625376
 30
0.0
  0
SPLINE
  5
218
330
1F
100
AcDbEntity
  8
0
  6
Continuous
 62
     7
370
    30
100
AcDbSpline
210
0.0
220
0.0
230
1.0
 70
     8
 71
     3
 72
    10
 73
     6
 74
     0
 42
0.000000001
 43
0.00000001
 40
0.0
 40
0.0
 40
0.0
 40
0.0
 40
0.4990300503910251
 40
0.7494375638479096
 40
1.0
 40
1.0
 40
1.0
 40
1.0
 10
70.67882061086011
 20
52.12879266625376
 30
0.0
 10
70.70446876594086
 20
52.12757399512259
 30
0.0
 10
70.74298686890047
 20
52.12574380889843
 30
0.0
 10
70.78868418798363
 20
52.11280406132876
 30
0.0
 10
70.807705121071
 20
52.10365557846146
 30
0.0
 10
70.81721852868353
 20
52.09907992246429
 30
0.0
  0
SPLINE
  5
219
330
1F
100
AcDbEntity
  8
0
  6
Continuous
 62
     7
370
    30
100
AcDbSpline
210
0.0
220
0.0
230
1.0
 70
     8
 71
     3
 72
    10
 73
     6
 74
     0
 42
0.000000001
 43
0.00000001
 40
0.0
 40
0.0
 40
0.0
 40
0.0
 40
0.4986074279220621
 40
0.7491460853760269
 40
1.0
 40
1.0
 40
1.0
 40
1.0
 10
70.81721852868351
 20
52.09907992246429
 30
0.0
 10
70.8337681305897
 20
52.0884060284862
 30
0.0
 10
70.85863352325786
 20
52.07236875057654
 30
0.0
 10
70.87160980783445
 20
52.0448865554619
 30
0.0
 10
70.87262391505651
 20
52.03073521099946
 30
0.0
 10
70.87313128748417
 20
52.02365508984633
 30
0.0
  0
LINE
  5
21A
330
1F
100
AcDbEntity
  8
0
  6
Continuous
 62
     7
370
    30
100
AcDbLine
 10
69.8268430287
 20
52.268254773
 30
0.0
 11
69.8268430287
 21
52.2508770732
 31
0.0
  0
LINE
  5
21B
330
1F
100
AcDbEntity
  8
0
  6
Continuous
 62
     7
370
    30
100
AcDbLine
 10
70.540422693
 20
52.1159499395
 30
0.0
 11
70.540422693
 21
52.0990799225
 31
0.0
  0
LINE
  5
21C
330
1F
100
AcDbEntity
  8
0
  6
Continuous
 62
     7
370
    30
100
AcDbLine
 10
70.4806347925
 20
52.0402728499
 30
0.0
 11
70.4806347925
 21
52.0236550898
 31
0.0
  0
LINE
  5
21D
330
1F
100
AcDbEntity
  8
0
  6
Continuous
 62
     7
370
    30
100
AcDbLine
 10
70.8172185287
 20
52.1159499395
 30
0.0
 11
70.8172185287
 21
52.0990799225
 31
0.0
  0
LINE
  5
21E
330
1F
100
AcDbEntity
  8
0
  6
Continuous
 62
     7
370
    30
100
AcDbLine
 10
70.8731312875
 20
52.0402728499
 30
0.0
 11
70.8731312875
 21
52.0236550898
 31
0.0
  0
LINE
  5
21F
330
1F
100
AcDbEntity
  8
0
  6
Continuous
 62
     7
370
    30
100
AcDbLine
 10
69.5389753597
 20
52.1138674376
 30
0.0
 11
69.5389753597
 21
52.0970043623
 31
0.0
  0
LINE
  5
220
330
1F
100
AcDbEntity
  8
0
  6
Continuous
 62
     7
370
    30
100
AcDbLine
 10
68.3620394665
 20
52.1138674376
 30
0.0
 11
68.3620394665
 21
52.0970043623
 31
0.0
  0
LINE
  5
221
330
1F
100
AcDbEntity
  8
0
  6
Continuous
 62
     7
370
    30
100
AcDbLine
 10
68.1716039316
 20
52.1673241351
 30
0.0
 11
68.1716039316
 21
52.1502828707
 31
0.0
  0
LINE
  5
222
330
1F
100
AcDbEntity
  8
0
  6
Continuous
 62
     7
370
    30
100
AcDbLine
 10
69.6884451109
 20
52.1673241351
 30
0.0
 11
69.6884451109
 21
52.1502828707
 31
0.0
  0
LINE
  5
223
330
1F
100
AcDbEntity
  8
0
  6
Continuous
 62
     7
370
    30
100
AcDbLine
 10
70.6788206109
 20
52.145762057
 30
0.0
 11
70.6788206109
 21
52.1287926663
 31
0.0
  0
LINE
  5
224
330
1F
100
AcDbEntity
  8
0
  6
Continuous
 62
     7
370
    30
100
AcDbLine
 10
68.5973159268
 20
41.8275276046
 30
0.0
 11
68.5973159268
 21
41.8449523287
 31
0.0
  0
LINE
  5
225
330
1F
100
AcDbEntity
  8
0
  6
Continuous
 62
     7
370
    30
100
AcDbLine
 10
69.703392086
 20
52.268254773
 30
0.0
 11
69.703392086
 21
52.2508770732
 31
0.0
  0
LINE
  5
226
330
1F
100
AcDbEntity
  8
0
  6
Continuous
 62
     7
370
    30
100
AcDbLine
 10
68.1378348396
 20
52.2829879298
 30
0.0
 11
68.1378348396
 21
52.2655611194
 31
0.0
  0
LINE
  5
227
330
1F
100
AcDbEntity
  8
0
  6
Continuous
 62
     7
370
    30
100
AcDbLine
 10
69.4232747004
 20
41.7576064121
 30
0.0
 11
69.4232747004
 21
41.7752642068
 31
0.0
  0
LINE
  5
228
330
1F
100
AcDbEntity
  8
0
  6
Continuous
 62
     7
370
    30
100
AcDbLine
 10
89.1678774899
 20
49.6549448294
 30
0.0
 11
89.1678774899
 21
44.4549448294
 31
0.0
  0
LINE
  5
229
330
1F
100
AcDbEntity
  8
0
  6
Continuous
 62
     7
370
    30
100
AcDbLine
 10
31.7677287899
 20
49.5549448294
 30
0.0
 11
31.7677287899
 21
44.5549448294
 31
0.0
  0
SPLINE
  5
22A
330
1F
100
AcDbEntity
  8
0
  6
Continuous
 62
     7
370
    30
100
AcDbSpline
210
0.0
220
0.0
230
1.0
 70
     8
 71
     3
 72
    10
 73
     6
 74
     0
 42
0.000000001
 43
0.00000001
 40
0.0
 40
0.0
 40
0.0
 40
0.0
 40
0.2509367791502293
 40
0.5016343042173182
 40
1.0
 40
1.0
 40
1.0
 40
1.0
 10
69.69619539431402
 20
52.90487935613026
 30
0.0
 10
69.73440428612808
 20
52.8972955973598
 30
0.0
 10
69.81078563973024
 20
52.88213531050567
 30
0.0
 10
69.92022910468629
 20
52.83976517596262
 30
0.0
 10
69.93595565995479
 20
52.7953948790239
 30
0.0
 10
69.94641882973872
 20
52.76587449504235
 30
0.0
  0
LINE
  5
22B
330
1F
100
AcDbEntity
  8
0
  6
Continuous
 62
     7
370
    30
100
AcDbLine
 10
68.0182590386
 20
52.7524601018
 30
0.0
 11
68.1378348396
 21
52.7524601018
 31
0.0
  0
SPLINE
  5
22C
330
1F
100
AcDbEntity
  8
0
  6
Continuous
 62
     7
370
    30
100
AcDbSpline
210
0.0
220
0.0
230
1.0
 70
     8
 71
     3
 72
    13
 73
     9
 74
     0
 42
0.000000001
 43
0.00000001
 40
0.0
 40
0.0
 40
0.0
 40
0.0
 40
0.2500888059603544
 40
0.4991143795959204
 40
0.6242242815147221
 40
0.7491698173981733
 40
0.8744754162593582
 40
1.0
 40
1.0
 40
1.0
 40
1.0
 10
68.13783483962261
 20
52.75246010180585
 30
0.0
 10
68.13861019022823
 20
52.74531718789094
 30
0.0
 10
68.14015759509911
 20
52.73106172758171
 30
0.0
 10
68.15973265515804
 20
52.71304981260469
 30
0.0
 10
68.18851747018446
 20
52.70085809605314
 30
0.0
 10
68.2186638419342
 20
52.69469531425085
 30
0.0
 10
68.25222501629709
 20
52.69103488262888
 30
0.0
 10
68.27560459557463
 20
52.69078757544339
 30
0.0
 10
68.28730459087187
 20
52.69066381389606
 30
0.0
  0
LINE
  5
22D
330
1F
100
AcDbEntity
  8
0
  6
Continuous
 62
     7
370
    30
100
AcDbLine
 10
68.2873045909
 20
52.6906638139
 30
0.0
 11
69.4232747004
 21
52.6906638139
 31
0.0
  0
SPLINE
  5
22E
330
1F
100
AcDbEntity
  8
0
  6
Continuous
 62
     7
370
    30
100
AcDbSpline
210
0.0
220
0.0
230
1.0
 70
     8
 71
     3
 72
     9
 73
     5
 74
     0
 42
0.000000001
 43
0.00000001
 40
0.0
 40
0.0
 40
0.0
 40
0.0
 40
0.5009446153185997
 40
1.0
 40
1.0
 40
1.0
 40
1.0
 10
69.4232747003663
 20
52.69066381389607
 30
0.0
 10
69.4716633969843
 20
52.69144350466712
 30
0.0
 10
69.56825830016982
 20
52.69299994573305
 30
0.0
 10
69.65101838609655
 20
52.70930684482051
 30
0.0
 10
69.69232025261498
 20
52.71744489061756
 30
0.0
  0
SPLINE
  5
22F
330
1F
100
AcDbEntity
  8
0
  6
Continuous
 62
     7
370
    30
100
AcDbSpline
210
0.0
220
0.0
230
1.0
 70
     8
 71
     3
 72
    11
 73
     7
 74
     0
 42
0.000000001
 43
0.00000001
 40
0.0
 40
0.0
 40
0.0
 40
0.0
 40
0.2503332933422581
 40
0.5000453300390942
 40
0.7498429004924771
 40
1.0
 40
1.0
 40
1.0
 40
1.0
 10
69.69232025261496
 20
52.71744489061756
 30
0.0
 10
69.70928833136331
 20
52.72250814110591
 30
0.0
 10
69.74318237887316
 20
52.73262207652262
 30
0.0
 10
69.77591344898859
 20
52.75183854961592
 30
0.0
 10
69.79386791173503
 20
52.77198189529177
 30
0.0
 10
69.79592153063624
 20
52.78515456524587
 30
0.0
 10
69.79694907848946
 20
52.79174563660987
 30
0.0
  0
LINE
  5
230
330
1F
100
AcDbEntity
  8
0
  6
Continuous
 62
     7
370
    30
100
AcDbLine
 10
68.0182590386
 20
52.983142215
 30
0.0
 11
68.1378348396
 21
52.983142215
 31
0.0
  0
SPLINE
  5
231
330
1F
100
AcDbEntity
  8
0
  6
Continuous
 62
     7
370
    30
100
AcDbSpline
210
0.0
220
0.0
230
1.0
 70
     8
 71
     3
 72
    13
 73
     9
 74
     0
 42
0.000000001
 43
0.00000001
 40
0.0
 40
0.0
 40
0.0
 40
0.0
 40
0.2500888059603478
 40
0.4991143795959189
 40
0.6242242815147011
 40
0.7491698173981393
 40
0.8744754162593401
 40
1.0
 40
1.0
 40
1.0
 40
1.0
 10
68.13783483962261
 20
52.98314221504629
 30
0.0
 10
68.13861019022823
 20
52.98000805206368
 30
0.0
 10
68.14015759509911
 20
52.9737530507388
 30
0.0
 10
68.15973265515802
 20
52.96536503333453
 30
0.0
 10
68.18851747018445
 20
52.95954978517871
 30
0.0
 10
68.21866384193419
 20
52.95656836681503
 30
0.0
 10
68.25222501629707
 20
52.9547841525912
 30
0.0
 10
68.27560459557463
 20
52.95466306326621
 30
0.0
 10
68.28730459087187
 20
52.95460246574578
 30
0.0
  0
LINE
  5
232
330
1F
100
AcDbEntity
  8
0
  6
Continuous
 62
     7
370
    30
100
AcDbLine
 10
68.2873045909
 20
52.9546024657
 30
0.0
 11
69.5539223348
 21
52.9546024657
 31
0.0
  0
SPLINE
  5
233
330
1F
100
AcDbEntity
  8
0
  6
Continuous
 62
     7
370
    30
100
AcDbSpline
210
0.0
220
0.0
230
1.0
 70
     8
 71
     3
 72
    13
 73
     9
 74
     0
 42
0.000000001
 43
0.00000001
 40
0.0
 40
0.0
 40
0.0
 40
0.0
 40
0.2504438220309735
 40
0.3783226551594707
 40
0.5006071607052837
 40
0.6226998852003821
 40
0.750366443048548
 40
0.9999999999999999
 40
0.9999999999999999
 40
0.9999999999999999
 40
0.9999999999999999
 10
69.55392233479158
 20
52.95460246574579
 30
0.0
 10
69.5721998674933
 20
52.95475891882515
 30
0.0
 10
69.59981007023423
 20
52.95499525823217
 30
0.0
 10
69.63378691751024
 20
52.95725154789893
 30
0.0
 10
69.65551590751011
 20
52.95988155320919
 30
0.0
 10
69.67206039932567
 20
52.96326715445041
 30
0.0
 10
69.68604574264347
 20
52.96844249287123
 30
0.0
 10
69.68748972621849
 20
52.97240194930082
 30
0.0
 10
69.68844511091591
 20
52.97502164951651
 30
0.0
  0
LINE
  5
234
330
1F
100
AcDbEntity
  8
0
  6
Continuous
 62
     7
370
    30
100
AcDbLine
 10
69.6884451109
 20
52.983142215
 30
0.0
 11
69.8118960536
 21
52.983142215
 31
0.0
  0
SPLINE
  5
235
330
1F
100
AcDbEntity
  8
0
  6
Continuous
 62
     7
370
    30
100
AcDbSpline
210
0.0
220
0.0
230
1.0
 70
     8
 71
     3
 72
     9
 73
     5
 74
     0
 42
0.000000001
 43
0.00000001
 40
0.0
 40
0.0
 40
0.0
 40
0.0
 40
0.6522103271101249
 40
1.0
 40
1.0
 40
1.0
 40
1.0
 10
69.81189605361438
 20
52.98314221504631
 30
0.0
 10
69.81596269047314
 20
52.9716117031471
 30
0.0
 10
69.8221978521836
 20
52.95393257201422
 30
0.0
 10
69.87949825248026
 20
52.93205362601841
 30
0.0
 10
69.8994267399559
 20
52.92444435454735
 30
0.0
  0
LINE
  5
236
330
1F
100
AcDbEntity
  8
0
  6
Continuous
 62
     7
370
    30
100
AcDbLine
 10
69.4232747004
 20
52.7095123724
 30
0.0
 11
69.4232747004
 21
52.6906638139
 31
0.0
  0
LINE
  5
237
330
1F
100
AcDbEntity
  8
0
  6
Continuous
 62
     7
370
    30
100
AcDbLine
 10
68.2873045909
 20
52.7095123724
 30
0.0
 11
68.2873045909
 21
52.6906638139
 31
0.0
  0
LINE
  5
238
330
1F
100
AcDbEntity
  8
0
  6
Continuous
 62
     7
370
    30
100
AcDbLine
 10
68.1378348396
 20
52.7715153368
 30
0.0
 11
68.1378348396
 21
52.7524601018
 31
0.0
  0
LINE
  5
239
330
1F
100
AcDbEntity
  8
0
  6
Continuous
 62
     7
370
    30
100
AcDbLine
 10
69.6923202526
 20
52.7363830179
 30
0.0
 11
69.6923202526
 21
52.7174448906
 31
0.0
  0
LINE
  5
23A
330
1F
100
AcDbEntity
  8
0
  6
Continuous
 62
     7
370
    30
100
AcDbLine
 10
69.7969490785
 20
52.8109322614
 30
0.0
 11
69.7969490785
 21
52.7917456366
 31
0.0
  0
LINE
  5
23B
330
1F
100
AcDbEntity
  8
0
  6
Continuous
 62
     7
370
    30
100
AcDbLine
 10
69.6961953943
 20
52.9244443545
 30
0.0
 11
69.6961953943
 21
52.9048793561
 31
0.0
  0
LINE
  5
23C
330
1F
100
AcDbEntity
  8
0
  6
Continuous
 62
     7
370
    30
100
AcDbLine
 10
69.9464188297
 20
52.7849745943
 30
0.0
 11
69.9464188297
 21
52.765874495
 31
0.0
  0
LINE
  5
23D
330
1F
100
AcDbEntity
  8
0
  6
Continuous
 62
     7
370
    30
100
AcDbLine
 10
69.8118960536
 20
53.0029689622
 30
0.0
 11
69.8118960536
 21
52.983142215
 31
0.0
  0
LINE
  5
23E
330
1F
100
AcDbEntity
  8
0
  6
Continuous
 62
     7
370
    30
100
AcDbLine
 10
68.2873045909
 20
52.9743337622
 30
0.0
 11
68.2873045909
 21
52.9546024657
 31
0.0
  0
LINE
  5
23F
330
1F
100
AcDbEntity
  8
0
  6
Continuous
 62
     7
370
    30
100
AcDbLine
 10
68.1378348396
 20
53.0029689622
 30
0.0
 11
68.1378348396
 21
52.983142215
 31
0.0
  0
LINE
  5
240
330
1F
100
AcDbEntity
  8
0
  6
Continuous
 62
     7
370
    30
100
AcDbLine
 10
69.6884451109
 20
52.9948212375
 30
0.0
 11
69.6884451109
 21
52.9750216495
 31
0.0
  0
LINE
  5
241
330
1F
100
AcDbEntity
  8
0
  6
Continuous
 62
     7
370
    30
100
AcDbLine
 10
69.5539223348
 20
52.9743337622
 30
0.0
 11
69.5539223348
 21
52.9546024657
 31
0.0
  0
LINE
  5
242
330
1F
100
AcDbEntity
  8
0
  6
Continuous
 62
     7
370
    30
100
AcDbLine
 10
70.7236615362
 20
53.0345038091
 30
0.0
 11
70.8432373372
 21
53.0345038091
 31
0.0
  0
LINE
  5
243
330
1F
100
AcDbEntity
  8
0
  6
Continuous
 62
     7
370
    30
100
AcDbLine
 10
59.6677287899
 20
47.0049448294
 30
0.0
 11
58.4583739718
 21
47.0049448294
 31
0.0
  0
LINE
  5
244
330
1F
100
AcDbEntity
  8
0
  6
Continuous
 62
     7
370
    30
100
AcDbLine
 10
59.6677287899
 20
47.1049448294
 30
0.0
 11
58.4583739718
 21
47.1049448294
 31
0.0
  0
SPLINE
  5
245
330
1F
100
AcDbEntity
  8
0
  6
Continuous
 62
     7
370
    30
100
AcDbSpline
210
0.0
220
0.0
230
1.0
 70
     8
 71
     3
 72
    12
 73
     8
 74
     0
 42
0.000000001
 43
0.00000001
 40
0.0
 40
0.0
 40
0.0
 40
0.0
 40
0.3366928352357149
 40
0.6776980261462469
 40
0.7881774139134807
 40
0.8993695631127905
 40
1.0
 40
1.0
 40
1.0
 40
1.0
 10
59.33220287329384
 20
50.38449999952556
 30
0.0
 10
59.33418018636787
 20
50.45883182902662
 30
0.0
 10
59.3381601379056
 20
50.6084475287413
 30
0.0
 10
59.39972232545942
 20
50.7716704632703
 30
0.0
 10
59.49821044293641
 20
50.86236576674949
 30
0.0
 10
59.57535518019148
 20
50.90264780626903
 30
0.0
 10
59.63717100164547
 20
50.90799932377796
 30
0.0
 10
59.66653780919128
 20
50.91054166619235
 30
0.0
  0
SPLINE
  5
246
330
1F
100
AcDbEntity
  8
0
  6
Continuous
 62
     7
370
    30
100
AcDbSpline
210
0.0
220
0.0
230
1.0
 70
     8
 71
     3
 72
    12
 73
     8
 74
     0
 42
0.000000001
 43
0.00000001
 40
0.0
 40
0.0
 40
0.0
 40
0.0
 40
0.1105155225127328
 40
0.2214135473683425
 40
0.3339028715525211
 40
0.5354549386068234
 40
0.9999999999999999
 40
0.9999999999999999
 40
0.9999999999999999
 40
0.9999999999999999
 10
59.6665378091913
 20
49.85925961491016
 30
0.0
 10
59.63660622387349
 20
49.86177138652855
 30
0.0
 10
59.57663945782203
 20
49.86680362319142
 30
0.0
 10
59.49759533569809
 20
49.90749247144279
 30
0.0
 10
59.42060746402981
 20
49.9793467512705
 30
0.0
 10
59.3373113784678
 20
50.14280250357325
 30
0.0
 10
59.33430179625195
 20
50.28519415448933
 30
0.0
 10
59.33220287329384
 20
50.38449999952556
 30
0.0
  0
LINE
  5
247
330
1F
100
AcDbEntity
  8
0
  6
Continuous
 62
     7
370
    30
100
AcDbLine
 10
59.6677287899
 20
49.6432811709
 30
0.0
 11
59.6177287899
 21
49.6432811709
 31
0.0
  0
LINE
  5
248
330
1F
100
AcDbEntity
  8
0
  6
Continuous
 62
     7
370
    30
100
AcDbLine
 10
59.6177287899
 20
49.6432811709
 30
0.0
 11
59.6177287899
 21
47.1432811709
 31
0.0
  0
LINE
  5
249
330
1F
100
AcDbEntity
  8
0
  6
Continuous
 62
     7
370
    30
100
AcDbLine
 10
59.6677287899
 20
47.1432811709
 30
0.0
 11
59.6177287899
 21
47.1432811709
 31
0.0
  0
LINE
  5
24A
330
1F
100
AcDbEntity
  8
0
  6
Continuous
 62
     7
370
    30
100
AcDbLine
 10
58.4583739718
 20
47.1049448294
 30
0.0
 11
58.4583739718
 21
47.0049448294
 31
0.0
  0
LINE
  5
24B
330
1F
100
AcDbEntity
  8
0
  6
Continuous
 62
     7
370
    30
100
AcDbLine
 10
58.2677287899
 20
52.3049448294
 30
0.0
 11
58.2677287899
 21
41.8049448294
 31
0.0
  0
LINE
  5
24C
330
1F
100
AcDbEntity
  8
0
  6
Continuous
 62
     7
370
    30
100
AcDbLine
 10
57.2677287899
 20
51.8049448294
 30
0.0
 11
57.2677287899
 21
42.3049448294
 31
0.0
  0
LINE
  5
24D
330
1F
100
AcDbEntity
  8
0
  6
Continuous
 62
     7
370
    30
100
AcDbLine
 10
48.8677287899
 20
47.0549448294
 30
0.0
 11
48.8677287899
 21
42.3049448294
 31
0.0
  0
LINE
  5
24E
330
1F
100
AcDbEntity
  8
0
  6
Continuous
 62
     7
370
    30
100
AcDbLine
 10
48.8677287899
 20
51.8049448294
 30
0.0
 11
48.8677287899
 21
47.0549448294
 31
0.0
  0
LINE
  5
24F
330
1F
100
AcDbEntity
  8
0
  6
Continuous
 62
     7
370
    30
100
AcDbLine
 10
48.6677287899
 20
47.0549448294
 30
0.0
 11
48.6677287899
 21
51.6049448294
 31
0.0
  0
LINE
  5
250
330
1F
100
AcDbEntity
  8
0
  6
Continuous
 62
     7
370
    30
100
AcDbLine
 10
48.6677287899
 20
42.5049448294
 30
0.0
 11
48.6677287899
 21
47.0549448294
 31
0.0
  0
SPLINE
  5
251
330
1F
100
AcDbEntity
  8
0
  6
Continuous
 62
     7
370
    30
100
AcDbSpline
210
0.0
220
0.0
230
1.0
 70
     8
 71
     3
 72
    12
 73
     8
 74
     0
 42
0.000000001
 43
0.00000001
 40
0.0
 40
0.0
 40
0.0
 40
0.0
 40
0.0897978905663106
 40
0.1799933804692272
 40
0.3151089707779181
 40
0.5387355802027282
 40
1.0
 40
1.0
 40
1.0
 40
1.0
 10
59.66954261688358
 20
50.80797756362821
 30
0.0
 10
59.64903067714388
 20
50.80611033390244
 30
0.0
 10
59.60791597667102
 20
50.80236760689255
 30
0.0
 10
59.54836673241999
 20
50.77192910713915
 30
0.0
 10
59.48498345498747
 20
50.71440856322602
 30
0.0
 10
59.42529904036743
 20
50.58420929443292
 30
0.0
 10
59.42329569069959
 20
50.46511139265466
 30
0.0
 10
59.42194646303743
 20
50.3849006405512
 30
0.0
  0
SPLINE
  5
252
330
1F
100
AcDbEntity
  8
0
  6
Continuous
 62
     7
370
    30
100
AcDbSpline
210
0.0
220
0.0
230
1.0
 70
     8
 71
     3
 72
    13
 73
     9
 74
     0
 42
0.000000001
 43
0.00000001
 40
0.0
 40
0.0
 40
0.0
 40
0.0
 40
0.3624608567693388
 40
0.5787132691116404
 40
0.7296880773878537
 40
0.8517216092537868
 40
0.9448389098232417
 40
0.9999999999999999
 40
0.9999999999999999
 40
0.9999999999999999
 40
0.9999999999999999
 10
59.42194646303743
 20
50.3849006405512
 30
0.0
 10
59.42290242299062
 20
50.32425977871766
 30
0.0
 10
59.42442873045061
 20
50.22743919592087
 30
0.0
 10
59.45972099538831
 20
50.10320977754808
 30
0.0
 10
59.51149112353671
 20
50.02685683819924
 30
0.0
 10
59.57177653394402
 20
49.98390971397298
 30
0.0
 10
59.62597109934088
 20
49.96419218269478
 30
0.0
 10
59.65772852653394
 20
49.9624659090637
 30
0.0
 10
59.6695426168836
 20
49.96182371747426
 30
0.0
  0
DIMENSION
  5
253
330
1F
100
AcDbEntity
  8
DIM
100
AcDbDimension
  2
_D
 10
27.6677287899
 20
44.5549448294
 30
0.0
 11
27.6677287899
 21
47.0549448294
 31
0.0
 70
   160
  1
%%c<>
 71
     2
 42
-1.0
  3
SLDDIMSTYLE0
100
AcDbAlignedDimension
 13
31.7677287899
 23
49.5549448294
 33
0.0
 14
31.7677287899
 24
44.5549448294
 34
0.0
 50
90.0
100
AcDbRotatedDimension
  0
DIMENSION
  5
25F
330
1F
100
AcDbEntity
  8
DIM
100
AcDbDimension
  2
_D_1
 10
25.1677287899
 20
42.3049448294
 30
0.0
 11
25.1677287899
 21
47.0549448294
 31
0.0
 70
   160
  1
%%c<>
 71
     2
 42
-1.0
  3
SLDDIMSTYLE0
100
AcDbAlignedDimension
 13
48.8677287899
 23
51.8049448294
 33
0.0
 14
48.8677287899
 24
42.3049448294
 34
0.0
 50
90.0
100
AcDbRotatedDimension
  0
DIMENSION
  5
26A
330
1F
100
AcDbEntity
  8
DIM
100
AcDbDimension
  2
_D_2
 10
48.6677287899
 20
37.0549448294
 30
0.0
 11
39.9177287899
 21
37.0549448294
 31
0.0
 70
   160
  1
<>
 71
     2
 42
-1.0
  3
SLDDIMSTYLE0
100
AcDbAlignedDimension
 13
31.1677287899
 23
47.0549448294
 33
0.0
 14
48.6677287899
 24
42.5049448294
 34
0.0
 50
0.0
100
AcDbRotatedDimension
  0
DIMENSION
  5
274
330
1F
100
AcDbEntity
  8
DIM
100
AcDbDimension
  2
_D_3
 10
57.2677287899
 20
37.0549448294
 30
0.0
 11
52.9677287899
 21
37.0549448294
 31
0.0
 70
   160
  1
<>
 71
     2
 42
-1.0
  3
SLDDIMSTYLE0
100
AcDbAlignedDimension
 13
48.6677287899
 23
42.5049448294
 33
0.0
 14
57.2677287899
 24
42.3049448294
 34
0.0
 50
0.0
100
AcDbRotatedDimension
  0
DIMENSION
  5
27E
330
1F
100
AcDbEntity
  8
DIM
100
AcDbDimension
  2
_D_4
 10
89.6677180914
 20
37.0549448294
 30
0.0
 11
73.4677234406
 21
37.0549448294
 31
0.0
 70
   160
  1
<>
 71
     2
 42
-1.0
  3
SLDDIMSTYLE0
100
AcDbAlignedDimension
 13
57.2677287899
 23
42.3049448294
 33
0.0
 14
89.6677180914
 24
47.0549448294
 34
0.0
 50
0.0
100
AcDbRotatedDimension
  0
DIMENSION
  5
288
330
1F
100
AcDbEntity
  8
DIM
100
AcDbDimension
  2
_D_5
 10
89.6677180914
 20
34.5549448294
 30
0.0
 11
60.4177234406
 21
34.5549448294
 31
0.0
 70
   160
  1
<>
 71
     2
 42
-1.0
  3
SLDDIMSTYLE0
100
AcDbAlignedDimension
 13
31.1677287899
 23
47.0549448294
 33
0.0
 14
89.6677180914
 24
47.0549448294
 34
0.0
 50
0.0
100
AcDbRotatedDimension
  0
DIMENSION
  5
292
330
1F
100
AcDbEntity
  8
DIM
100
AcDbDimension
  2
_D_6
 10
93.1677287899
 20
40.5549448294
 30
0.0
 11
93.1677287899
 21
47.0549448294
 31
0.0
 70
   160
  1
%%c<>
 71
     2
 42
-1.0
  3
SLDDIMSTYLE0
100
AcDbAlignedDimension
 13
85.6677287899
 23
53.5549448294
 33
0.0
 14
85.6677287899
 24
40.5549448294
 34
0.0
 50
90.0
100
AcDbRotatedDimension
  0
LINE
  5
29D
330
1F
100
AcDbEntity
  8
0
  6
Continuous
 62
     7
370
    30
100
AcDbLine
 10
131.4328249859
 20
66.7907499931
 30
0.0
 11
122.5939902211
 21
71.893300692
 31
0.0
  0
LINE
  5
29E
330
1F
100
AcDbEntity
  8
0
  6
Continuous
 62
     7
370
    30
100
AcDbLine
 10
116.0945184589
 20
60.634665481
 30
0.0
 11
124.9333532238
 21
55.5321147821
 31
0.0
  0
LINE
  5
29F
330
1F
100
AcDbEntity
  8
0
  6
Continuous
 62
     7
370
    30
100
AcDbLine
 10
131.9579623382
 20
61.9843845342
 30
0.0
 11
129.8365368479
 21
63.2090574018
 31
0.0
  0
LINE
  5
2A0
330
1F
100
AcDbEntity
  8
0
  6
Continuous
 62
     7
370
    30
100
AcDbLine
 10
127.236748143
 20
58.7056033175
 30
0.0
 11
129.3581736333
 21
57.4809304498
 31
0.0
  0
LINE
  5
2A1
330
1F
100
AcDbEntity
  8
0
  6
Continuous
 62
     7
370
    30
100
AcDbLine
 10
121.093908962
 20
72.1819445394
 30
0.0
 11
114.0598182456
 21
76.2426386757
 31
0.0
  0
LINE
  5
2A2
330
1F
100
AcDbEntity
  8
0
  6
Continuous
 62
     7
370
    30
100
AcDbLine
 10
108.0603058498
 20
65.8500523271
 30
0.0
 11
115.0943965661
 21
61.7893581909
 31
0.0
  0
LINE
  5
2A3
330
1F
100
AcDbEntity
  8
0
  6
Continuous
 62
     7
370
    30
100
AcDbLine
 10
101.3690599639
 20
79.5275150749
 30
0.0
 11
91.3199320147
 21
85.3287531572
 31
0.0
  0
LINE
  5
2A4
330
1F
100
AcDbEntity
  8
0
  6
Continuous
 62
     7
370
    30
100
AcDbLine
 10
88.8201351831
 20
80.9985088453
 30
0.0
 11
98.8692631324
 21
75.197270763
 31
0.0
  0
LINE
  5
2A5
330
1F
100
AcDbEntity
  8
0
  6
Continuous
 62
     7
370
    30
100
AcDbLine
 10
113.1097649069
 20
76.5191690326
 30
0.0
 11
111.608883653
 21
76.6090652938
 31
0.0
  0
LINE
  5
2A6
330
1F
100
AcDbEntity
  8
0
  6
Continuous
 62
     7
370
    30
100
AcDbLine
 10
106.5173218145
 20
67.789265856
 30
0.0
 11
107.3457326369
 21
66.5344904237
 31
0.0
  0
LINE
  5
2A7
330
1F
100
AcDbEntity
  8
0
  6
Continuous
 62
     7
370
    30
100
AcDbLine
 10
111.9615482444
 20
76.5879422182
 30
0.0
 11
111.4331499735
 21
76.8929800471
 31
0.0
  0
LINE
  5
2A8
330
1F
100
AcDbEntity
  8
0
  6
Continuous
 62
     7
370
    30
100
AcDbLine
 10
106.1835766272
 20
67.7994669921
 30
0.0
 11
106.7119748981
 21
67.4944291632
 31
0.0
  0
LINE
  5
2A9
330
1F
100
AcDbEntity
  8
0
  6
Continuous
 62
     7
370
    30
100
AcDbLine
 10
107.2135978217
 20
73.4163114431
 30
0.0
 11
107.0487878144
 21
73.321168651
 31
0.0
  0
LINE
  5
2AA
330
1F
100
AcDbEntity
  8
0
  6
Continuous
 62
     7
370
    30
100
AcDbLine
 10
110.0650454493
 20
77.1054353472
 30
0.0
 11
104.5363665472
 21
80.2970737415
 31
0.0
  0
LINE
  5
2AB
330
1F
100
AcDbEntity
  8
0
  6
Continuous
 62
     7
370
    30
100
AcDbLine
 10
99.7867525672
 20
72.0696095488
 30
0.0
 11
105.3154314693
 21
68.8779711546
 31
0.0
  0
LINE
  5
2AC
330
1F
100
AcDbEntity
  8
0
  6
Continuous
 62
     7
370
    30
100
AcDbLine
 10
102.1610136647
 20
80.0615953133
 30
0.0
 11
102.0196152934
 21
79.9799412332
 31
0.0
  0
LINE
  5
2AD
330
1F
100
AcDbEntity
  8
0
  6
Continuous
 62
     7
370
    30
100
AcDbLine
 10
98.8028023465
 20
74.4076540019
 30
0.0
 11
98.8028023465
 21
74.2443723796
 31
0.0
  0
LWPOLYLINE
  5
2AE
330
1F
100
AcDbEntity
  8
0
  6
Continuous
 62
     7
370
    30
100
AcDbPolyline
 90
       39
 70
   128
 43
0.0
 10
131.3565287689
 20
62.3315847434
 10
131.3650696202
 20
62.5901465833
 10
131.340872034
 20
63.002497466
 10
131.268693303
 20
63.3798549725
 10
131.1497684252
 20
63.7157624113
 10
130.9861322382
 20
64.0044723128
 10
130.7805846026
 20
64.2410447707
 10
130.5366424954
 20
64.4214319646
 10
130.2584798337
 20
64.5425474196
 10
129.9508560578
 20
64.6023188168
 10
129.6190346957
 20
64.5997234508
 10
129.268693303
 20
64.5348057292
 10
128.905826318
 20
64.4086764121
 10
128.5366424954
 20
64.2234936072
 10
128.1674586729
 20
63.9824258436
 10
127.8045916879
 20
63.6895978575
 10
127.4542502951
 20
63.350020017
 10
127.1224289331
 20
62.9695025931
 10
126.8148051571
 20
62.5545563444
 10
126.5366424954
 20
62.1122811163
 10
126.2927003882
 20
61.6502443605
 10
126.0871527526
 20
61.176351654
 10
125.9235165657
 20
60.6987114325
 10
125.8045916879
 20
60.2254962525
 10
125.7324129568
 20
59.764802957
 10
125.7082153707
 20
59.324514136
 10
125.7324129568
 20
58.9121632533
 10
125.8045916879
 20
58.5348057468
 10
125.9235165657
 20
58.198898308
 10
126.0871527526
 20
57.9101884065
 10
126.2927003882
 20
57.6736159486
 10
126.5366424954
 20
57.4932287547
 10
126.8148051571
 20
57.3721132997
 10
127.1224289331
 20
57.3123419026
 10
127.4542502951
 20
57.3149372685
 10
127.8045916879
 20
57.3798549901
 10
128.1674586729
 20
57.5059843072
 10
128.5366424954
 20
57.6911671121
 10
128.756740064
 20
57.828130659
  0
LWPOLYLINE
  5
2AF
330
1F
100
AcDbEntity
  8
0
  6
Continuous
 62
     7
370
    30
100
AcDbPolyline
 90
       52
 70
   128
 43
0.0
 10
132.7792831825
 20
63.814758751
 10
132.7557015971
 20
64.3380978061
 10
132.6851988198
 20
64.8288399752
 10
132.5684983044
 20
65.2819495796
 10
132.4067975563
 20
65.6927771018
 10
132.2017558438
 20
66.0571068952
 10
131.9554771725
 20
66.3712004433
 10
131.6704886948
 20
66.6318347213
 10
131.349714778
 20
66.8363352686
 10
130.9964469967
 20
66.982603633
 10
130.6143103564
 20
67.0691389031
 10
130.2072260961
 20
67.09505311
 10
129.7793714511
 20
67.0600803388
 10
129.3351367892
 20
66.9645794575
 10
128.879080559
 20
66.8095304343
 10
128.4158825147
 20
66.596524282
 10
127.950295695
 20
66.3277467321
 10
127.4870976507
 20
66.0059558059
 10
127.0310414205
 20
65.6344535137
 10
126.5868067585
 20
65.2170519717
 10
126.1589521136
 20
64.7580342848
 10
125.7518678532
 20
64.2621105953
 10
125.3697312129
 20
63.7343697516
 10
125.0164634316
 20
63.1802270888
 10
124.6956895149
 20
62.6053688604
 10
124.4107010372
 20
62.01569389
 10
124.1644223658
 20
61.4172530404
 10
123.9593806534
 20
60.8161871249
 10
123.7976799053
 20
60.2186638929
 10
123.6809793899
 20
59.6308147414
 10
123.6104766126
 20
59.0586717982
 10
123.5868950271
 20
58.5081060242
 10
123.6104766126
 20
57.9847669692
 10
123.6809793899
 20
57.4940248001
 10
123.7976799053
 20
57.0409151956
 10
123.9593806534
 20
56.6300876735
 10
124.1644223658
 20
56.26575788
 10
124.4107010372
 20
55.9516643319
 10
124.6956895149
 20
55.691030054
 10
125.0164634316
 20
55.4865295066
 10
125.3697312129
 20
55.3402611422
 10
125.7518678532
 20
55.2537258721
 10
126.1589521136
 20
55.2278116652
 10
126.5868067585
 20
55.2627844364
 10
127.0310414205
 20
55.3582853178
 10
127.4870976507
 20
55.513334341
 10
127.950295695
 20
55.7263404932
 10
128.4158825147
 20
55.9951180431
 10
128.879080559
 20
56.3169089694
 10
129.3351367892
 20
56.6884112616
 10
129.7793714511
 20
57.1058128035
 10
130.0379233015
 20
57.3760743849
  0
ARC
  5
2B0
330
1F
100
AcDbEntity
  8
0
  6
Continuous
 62
     7
370
    30
100
AcDbCircle
 10
124.6854931719
 20
63.9350543976
 30
0.0
 40
8.094683920837403
100
AcDbArc
 50
342.107979406
 51
359.148492191
  0
LWPOLYLINE
  5
2B1
330
1F
100
AcDbEntity
  8
0
  6
Continuous
 62
     7
370
    30
100
AcDbPolyline
 90
       33
 70
   128
 43
0.0
 10
122.5939902211
 20
71.893300692
 10
122.5108800132
 20
71.9388859675
 10
122.1576122319
 20
72.0851543319
 10
121.7754755916
 20
72.171689602
 10
121.3683913312
 20
72.1976038089
 10
120.9405366863
 20
72.1626310377
 10
120.4963020243
 20
72.0671301564
 10
120.0402457942
 20
71.9120811332
 10
119.5770477499
 20
71.6990749809
 10
119.1114609301
 20
71.430297431
 10
118.6482628858
 20
71.1085065048
 10
118.1922066557
 20
70.7370042126
 10
117.7479719937
 20
70.3196026706
 10
117.3201173488
 20
69.8605849836
 10
116.9130330884
 20
69.3646612942
 10
116.5308964481
 20
68.8369204505
 10
116.1776286668
 20
68.2827777877
 10
115.8568547501
 20
67.7079195593
 10
115.5718662723
 20
67.1182445888
 10
115.325587601
 20
66.5198037393
 10
115.1205458886
 20
65.9187378238
 10
114.9588451404
 20
65.3212145918
 10
114.8421446251
 20
64.7333654403
 10
114.7716418477
 20
64.1612224971
 10
114.7480602623
 20
63.6106567231
 10
114.7716418477
 20
63.0873176681
 10
114.8421446251
 20
62.596575499
 10
114.9588451404
 20
62.1434658945
 10
115.1205458886
 20
61.7326383724
 10
115.325587601
 20
61.3683085789
 10
115.5718662723
 20
61.0542150308
 10
115.8568547501
 20
60.7935807529
 10
116.0945184589
 20
60.634665481
  0
LWPOLYLINE
  5
2B2
330
1F
100
AcDbEntity
  8
0
  6
Continuous
 62
     7
370
    30
100
AcDbPolyline
 90
       40
 70
   128
 43
0.0
 10
132.4965456168
 20
60.7939880374
 10
132.4727378144
 20
61.1207982151
 10
132.4019310166
 20
61.4116562772
 10
132.2859590822
 20
61.6590291527
 10
132.1278256236
 20
61.8565100141
 10
131.9316262142
 20
61.9989842108
 10
131.7024423156
 20
62.0827617359
 10
131.4462096705
 20
62.1056727955
 10
131.1695645698
 20
62.0671240053
 10
130.8796719761
 20
61.9681137586
 10
130.5840399556
 20
61.8112063689
 10
130.2903252221
 20
61.600465655
 10
130.0061348331
 20
61.3413496908
 10
129.7388291702
 20
61.0405694437
 10
129.4953313098
 20
60.7059149641
 10
129.2819477186
 20
60.3460536271
 10
129.1042049195
 20
59.9703056525
 10
128.9667063575
 20
59.5884027153
 10
128.8730131733
 20
59.2102359011
 10
128.8255519711
 20
58.8455995316
 10
128.8255519711
 20
58.5039374974
 10
128.8730131733
 20
58.1940986657
 10
128.9667063575
 20
57.9241076993
 10
129.1042049195
 20
57.7009572226
 10
129.2819477186
 20
57.5304267157
 10
129.4953313098
 20
57.4169328291
 10
129.7388291702
 20
57.3634149949
 10
130.0061348331
 20
57.3712592968
 10
130.2903252221
 20
57.4402625716
 10
130.5840399556
 20
57.5686376707
 10
130.8796719761
 20
57.7530597465
 10
131.1695645698
 20
57.9887523641
 10
131.4462096705
 20
58.2696112084
 10
131.7024423156
 20
58.588362183
 10
131.9316262142
 20
58.936749805
 10
132.1278256236
 20
59.305751018
 10
132.2859590822
 20
59.6858088845
 10
132.4019310166
 20
60.0670801052
 10
132.4727378144
 20
60.439689956
 10
132.4965456168
 20
60.7939880374
  0
LWPOLYLINE
  5
2B3
330
1F
100
AcDbEntity
  8
0
  6
Continuous
 62
     7
370
    30
100
AcDbPolyline
 90
       22
 70
   128
 43
0.0
 10
129.8365368479
 20
63.2090574018
 10
129.8102007239
 20
63.2236570785
 10
129.5810168253
 20
63.3074346036
 10
129.3247841802
 20
63.3303456632
 10
129.0481390794
 20
63.291796873
 10
128.7582464858
 20
63.1927866263
 10
128.4626144652
 20
63.0358792365
 10
128.1688997318
 20
62.8251385227
 10
127.8847093427
 20
62.5660225585
 10
127.6174036799
 20
62.2652423114
 10
127.3739058195
 20
61.9305878318
 10
127.1605222283
 20
61.5707264948
 10
126.9827794291
 20
61.1949785202
 10
126.8452808672
 20
60.813075583
 10
126.751587683
 20
60.4349087688
 10
126.7041264808
 20
60.0702723993
 10
126.7041264808
 20
59.7286103651
 10
126.751587683
 20
59.4187715333
 10
126.8452808672
 20
59.148780567
 10
126.9827794291
 20
58.9256300903
 10
127.1605222283
 20
58.7550995834
 10
127.236748143
 20
58.7056033175
  0
LWPOLYLINE
  5
2B4
330
1F
100
AcDbEntity
  8
0
  6
Continuous
 62
     7
370
    30
100
AcDbPolyline
 90
       31
 70
   128
 43
0.0
 10
114.0598182456
 20
76.2426386757
 10
113.8538892174
 20
76.3462160807
 10
113.4986785007
 20
76.4631944923
 10
113.1158372851
 20
76.5187978403
 10
112.7097033147
 20
76.5123961167
 10
112.2848782495
 20
76.4440618554
 10
111.8461755274
 20
76.3145693111
 10
111.3985658254
 20
76.1253856859
 10
110.9471207403
 20
75.8786545059
 10
110.4969553254
 20
75.577171334
 10
110.0531701347
 20
75.2243520951
 10
109.6207934316
 20
74.8241943719
 10
109.2047242171
 20
74.3812321115
 10
108.8096767216
 20
73.9004842533
 10
108.440126991
 20
73.3873978625
 10
108.1002621715
 20
72.8477864131
 10
107.7939330672
 20
72.2877639183
 10
107.5246105094
 20
71.7136756568
 10
107.2953460302
 20
71.132026278
 10
107.1087372878
 20
70.5494061017
 10
106.9668986338
 20
69.9724164475
 10
106.8714371568
 20
69.4075948385
 10
106.8234344735
 20
68.8613409293
 10
106.8234344735
 20
68.3398439951
 10
106.8714371568
 20
67.8490128043
 10
106.9668986338
 20
67.3944086706
 10
107.1087372878
 20
66.9811824405
 10
107.2953460302
 20
66.6140161321
 10
107.5246105094
 20
66.2970698866
 10
107.7939330672
 20
66.0339348316
 10
108.0603058498
 20
65.8500523271
  0
LINE
  5
2B5
330
1F
100
AcDbEntity
  8
0
  6
Continuous
 62
     7
370
    30
100
AcDbLine
 10
117.944863786
 20
72.2449835129
 30
0.0
 11
117.8603109262
 21
72.2937948399
 31
0.0
  0
ARC
  5
2B6
330
1F
100
AcDbEntity
  8
0
  6
Continuous
 62
     7
370
    30
100
AcDbCircle
 10
120.0809389742
 20
68.0832727767
 30
0.0
 40
4.677889851374303
100
AcDbArc
 50
110.1541343071
 51
117.1700028632
  0
LINE
  5
2B7
330
1F
100
AcDbEntity
  8
0
  6
Continuous
 62
     7
370
    30
100
AcDbLine
 10
118.3846340518
 20
72.5235427167
 30
0.0
 11
118.4691869116
 21
72.4747313898
 31
0.0
  0
ARC
  5
2B8
330
1F
100
AcDbEntity
  8
0
  6
Continuous
 62
     7
370
    30
100
AcDbCircle
 10
119.8435068943
 20
68.5222177794
 30
0.0
 40
4.258980068568515
100
AcDbArc
 50
110.0317262742
 51
110.7785416431
  0
SPLINE
  5
2B9
330
1F
100
AcDbEntity
  8
0
  6
Continuous
 62
     7
370
    30
100
AcDbSpline
210
0.0
220
0.0
230
1.0
 70
     8
 71
     3
 72
    13
 73
     9
 74
     0
 42
0.000000001
 43
0.00000001
 40
0.0
 40
0.0
 40
0.0
 40
0.0
 40
0.125323070522925
 40
0.2504241746983
 40
0.3754596171714611
 40
0.5003747473189939
 40
0.7495854888800167
 40
1.0
 40
1.0
 40
1.0
 40
1.0
 10
118.1436675197327
 20
72.5118524938007
 30
0.0
 10
118.1503447279381
 20
72.50820574489023
 30
0.0
 10
118.1636873179907
 20
72.50091870602004
 30
0.0
 10
118.1879221946574
 20
72.49232239197913
 30
0.0
 10
118.2146492426086
 20
72.48668904990235
 30
0.0
 10
118.2512202565453
 20
72.48446237640327
 30
0.0
 10
118.2932176893476
 20
72.49035995440245
 30
0.0
 10
118.3194545829002
 20
72.49957114955303
 30
0.0
 10
118.3326046365394
 20
72.5041878436014
 30
0.0
  0
LINE
  5
2BA
330
1F
100
AcDbEntity
  8
0
  6
Continuous
 62
     7
370
    30
100
AcDbLine
 10
116.7246669799
 20
73.3310240689
 30
0.0
 11
118.1436675197
 21
72.5118524938
 31
0.0
  0
SPLINE
  5
2BB
330
1F
100
AcDbEntity
  8
0
  6
Continuous
 62
     7
370
    30
100
AcDbSpline
210
0.0
220
0.0
230
1.0
 70
     8
 71
     3
 72
    13
 73
     9
 74
     0
 42
0.000000001
 43
0.00000001
 40
0.0
 40
0.0
 40
0.0
 40
0.0
 40
0.2498943521448914
 40
0.3761232678467173
 40
0.4999722186189246
 40
0.6210255431847524
 40
0.7501083598484064
 40
1.0
 40
1.0
 40
1.0
 40
1.0
 10
115.862829881529
 20
73.37746147828113
 30
0.0
 10
115.9246197982251
 20
73.4057053964057
 30
0.0
 10
116.0176216015402
 20
73.4482161402085
 30
0.0
 10
116.1702455959803
 20
73.47386153889381
 30
0.0
 10
116.2922586344872
 20
73.47513372989712
 30
0.0
 10
116.415391719255
 20
73.45739813023512
 30
0.0
 10
116.5691209232142
 20
73.41306807989567
 30
0.0
 10
116.6628578612181
 20
73.36362578262876
 30
0.0
 10
116.7246669799049
 20
73.33102406888602
 30
0.0
  0
SPLINE
  5
2BC
330
1F
100
AcDbEntity
  8
0
  6
Continuous
 62
     7
370
    30
100
AcDbSpline
210
0.0
220
0.0
230
1.0
 70
     8
 71
     3
 72
    10
 73
     6
 74
     0
 42
0.000000001
 43
0.00000001
 40
0.0
 40
0.0
 40
0.0
 40
0.0
 40
0.2502335980472371
 40
0.5005111299271366
 40
1.0
 40
1.0
 40
1.0
 40
1.0
 10
115.6437096370814
 20
73.11466525182296
 30
0.0
 10
115.6476424304473
 20
73.14048826692974
 30
0.0
 10
115.6555087076647
 20
73.192138830923
 30
0.0
 10
115.7195512625328
 20
73.2881698693408
 30
0.0
 10
115.8055428905428
 20
73.34176007612953
 30
0.0
 10
115.862829881529
 20
73.37746147828113
 30
0.0
  0
SPLINE
  5
2BD
330
1F
100
AcDbEntity
  8
0
  6
Continuous
 62
     7
370
    30
100
AcDbSpline
210
0.0
220
0.0
230
1.0
 70
     8
 71
     3
 72
    10
 73
     6
 74
     0
 42
0.000000001
 43
0.00000001
 40
0.0
 40
0.0
 40
0.0
 40
0.0
 40
0.4993754841237276
 40
0.7497467513861408
 40
1.0
 40
1.0
 40
1.0
 40
1.0
 10
115.852527821669
 20
72.84027389399027
 30
0.0
 10
115.7953180421324
 20
72.87882866234403
 30
0.0
 10
115.7094250663682
 20
72.9367135871004
 30
0.0
 10
115.6499840670358
 20
73.03633930428735
 30
0.0
 10
115.6458007850066
 20
73.08856070625176
 30
0.0
 10
115.6437096370814
 20
73.11466525182296
 30
0.0
  0
LINE
  5
2BE
330
1F
100
AcDbEntity
  8
0
  6
Continuous
 62
     7
370
    30
100
AcDbLine
 10
117.2265117926
 20
72.0470898309
 30
0.0
 11
115.8525278217
 21
72.840273894
 31
0.0
  0
SPLINE
  5
2BF
330
1F
100
AcDbEntity
  8
0
  6
Continuous
 62
     7
370
    30
100
AcDbSpline
210
0.0
220
0.0
230
1.0
 70
     8
 71
     3
 72
    13
 73
     9
 74
     0
 42
0.000000001
 43
0.00000001
 40
0.0
 40
0.0
 40
0.0
 40
0.0
 40
0.2499630104052953
 40
0.3804081248445912
 40
0.4999962146716357
 40
0.6195858805539362
 40
0.7500332017559028
 40
1.0
 40
1.0
 40
1.0
 40
1.0
 10
117.2268475525419
 20
71.91557437642732
 30
0.0
 10
117.2403727830171
 20
71.92575269555863
 30
0.0
 10
117.2609562587674
 20
71.94124264860623
 30
0.0
 10
117.2764505050116
 20
71.96537864494479
 30
0.0
 10
117.2808625622195
 20
71.9840461807355
 30
0.0
 10
117.2763752311664
 20
72.00228571826986
 30
0.0
 10
117.2607658222425
 20
72.02490764097385
 30
0.0
 10
117.2400946436894
 20
72.0382938619513
 30
0.0
 10
117.2265117926471
 20
72.04708983094214
 30
0.0
  0
ARC
  5
2C0
330
1F
100
AcDbEntity
  8
0
  6
Continuous
 62
     7
370
    30
100
AcDbCircle
 10
120.8907969713
 20
66.5564086625
 30
0.0
 40
6.491932107817854
100
AcDbArc
 50
124.3595988843
 51
124.8106824873
  0
LINE
  5
2C1
330
1F
100
AcDbEntity
  8
0
  6
Continuous
 62
     7
370
    30
100
AcDbLine
 10
117.2693222539
 20
71.8377513755
 30
0.0
 11
117.1847693941
 21
71.8865627025
 31
0.0
  0
ARC
  5
2C2
330
1F
100
AcDbEntity
  8
0
  6
Continuous
 62
     7
370
    30
100
AcDbCircle
 10
120.7802517176
 20
66.7962464301
 30
0.0
 40
6.143565561968034
100
AcDbArc
 50
120.6418018203
 51
124.8535477311
  0
LINE
  5
2C3
330
1F
100
AcDbEntity
  8
0
  6
Continuous
 62
     7
370
    30
100
AcDbLine
 10
117.564512345
 20
72.1307997897
 30
0.0
 11
117.6490652047
 21
72.0819884627
 31
0.0
  0
ARC
  5
2C4
330
1F
100
AcDbEntity
  8
0
  6
Continuous
 62
     7
370
    30
100
AcDbCircle
 10
120.5176923168
 20
67.1366427426
 30
0.0
 40
5.801971781836684
100
AcDbArc
 50
120.5969716764
 51
121.0831430517
  0
SPLINE
  5
2C5
330
1F
100
AcDbEntity
  8
0
  6
Continuous
 62
     7
370
    30
100
AcDbSpline
210
0.0
220
0.0
230
1.0
 70
     8
 71
     3
 72
    12
 73
     8
 74
     0
 42
0.000000001
 43
0.00000001
 40
0.0
 40
0.0
 40
0.0
 40
0.0
 40
0.2505326527610729
 40
0.5000540682322503
 40
0.6224717351977938
 40
0.7504257125024298
 40
1.0
 40
1.0
 40
1.0
 40
1.0
 10
117.28978778948
 20
72.11358486522576
 30
0.0
 10
117.3061448038853
 20
72.10489474255964
 30
0.0
 10
117.3387928100728
 20
72.08754957359768
 30
0.0
 10
117.3909884189735
 20
72.0747069935167
 30
0.0
 10
117.4358411098621
 20
72.07493694465174
 30
0.0
 10
117.4795101312875
 20
72.0830116029053
 30
0.0
 10
117.5052357448916
 20
72.0965872174449
 30
0.0
 10
117.5222422905844
 20
72.10556170926961
 30
0.0
  0
LINE
  5
2C6
330
1F
100
AcDbEntity
  8
0
  6
Continuous
 62
     7
370
    30
100
AcDbLine
 10
115.9369420334
 20
72.8945660965
 30
0.0
 11
117.2897877895
 21
72.1135848652
 31
0.0
  0
SPLINE
  5
2C7
330
1F
100
AcDbEntity
  8
0
  6
Continuous
 62
     7
370
    30
100
AcDbSpline
210
0.0
220
0.0
230
1.0
 70
     8
 71
     3
 72
    13
 73
     9
 74
     0
 42
0.000000001
 43
0.00000001
 40
0.0
 40
0.0
 40
0.0
 40
0.0
 40
0.2499818069533516
 40
0.3751393729469279
 40
0.5001304191937195
 40
0.6210840622066697
 40
0.750179560721048
 40
1.0
 40
1.0
 40
1.0
 40
1.0
 10
115.9474181508374
 20
73.26987919991213
 30
0.0
 10
115.9058876117512
 20
73.24441085461494
 30
0.0
 10
115.8435641147704
 20
73.20619135695941
 30
0.0
 10
115.7929862561292
 20
73.1397702517811
 30
0.0
 10
115.7768455534084
 20
73.08591186445994
 30
0.0
 10
115.7873099754433
 20
73.03079134412994
 30
0.0
 10
115.8326070004337
 20
72.96205642031953
 30
0.0
 10
115.8954858290142
 20
72.92138252222571
 30
0.0
 10
115.93694203344
 20
72.89456609653469
 30
0.0
  0
SPLINE
  5
2C8
330
1F
100
AcDbEntity
  8
0
  6
Continuous
 62
     7
370
    30
100
AcDbSpline
210
0.0
220
0.0
230
1.0
 70
     8
 71
     3
 72
    13
 73
     9
 74
     0
 42
0.000000001
 43
0.00000001
 40
0.0
 40
0.0
 40
0.0
 40
0.0
 40
0.2499157917518749
 40
0.3781669731073451
 40
0.4999084673303259
 40
0.6209545167255215
 40
0.7500018192520127
 40
1.0
 40
1.0
 40
1.0
 40
1.0
 10
116.4936855804918
 20
73.25127782618492
 30
0.0
 10
116.4544951620969
 20
73.2717626864353
 30
0.0
 10
116.395193099609
 20
73.30275991770712
 30
0.0
 10
116.2976964374377
 20
73.32909775723266
 30
0.0
 10
116.220143415027
 20
73.33829220757598
 30
0.0
 10
116.1427193195023
 20
73.33549012270834
 30
0.0
 10
116.0454226680651
 20
73.31715062566445
 30
0.0
 10
115.9863676743972
 20
73.2886660840592
 30
0.0
 10
115.9474181508374
 20
73.26987919991213
 30
0.0
  0
LINE
  5
2C9
330
1F
100
AcDbEntity
  8
0
  6
Continuous
 62
     7
370
    30
100
AcDbLine
 10
117.9338243353
 20
72.4199034194
 30
0.0
 11
116.4936855805
 21
73.2512778262
 31
0.0
  0
SPLINE
  5
2CA
330
1F
100
AcDbEntity
  8
0
  6
Continuous
 62
     7
370
    30
100
AcDbSpline
210
0.0
220
0.0
230
1.0
 70
     8
 71
     3
 72
    13
 73
     9
 74
     0
 42
0.000000001
 43
0.00000001
 40
0.0
 40
0.0
 40
0.0
 40
0.0
 40
0.2501878851227959
 40
0.3808377610721324
 40
0.5003524462015523
 40
0.6260407202147126
 40
0.750227144039392
 40
1.0
 40
1.0
 40
1.0
 40
1.0
 10
117.9235907315714
 20
72.32556308720628
 30
0.0
 10
117.9353157843463
 20
72.33179844338464
 30
0.0
 10
117.9531637422724
 20
72.34128994648158
 30
0.0
 10
117.9683353663297
 20
72.35697702144657
 30
0.0
 10
117.9742642593451
 20
72.36998342123557
 30
0.0
 10
117.9734895174162
 20
72.38346051900795
 30
0.0
 10
117.962665753071
 20
72.40137869896185
 30
0.0
 10
117.9453738496796
 20
72.4124852152073
 30
0.0
 10
117.9338243352577
 20
72.41990341936038
 30
0.0
  0
ARC
  5
2CB
330
1F
100
AcDbEntity
  8
0
  6
Continuous
 62
     7
370
    30
100
AcDbCircle
 10
120.1865827339
 20
67.7389559143
 30
0.0
 40
5.114498818201601
100
AcDbArc
 50
116.2613299039
 51
117.0545540447
  0
LINE
  5
2CC
330
1F
100
AcDbEntity
  8
0
  6
Continuous
 62
     7
370
    30
100
AcDbLine
 10
116.1863944162
 20
71.8635788457
 30
0.0
 11
116.0094597282
 21
71.965721067
 31
0.0
  0
SPLINE
  5
2CD
330
1F
100
AcDbEntity
  8
0
  6
Continuous
 62
     7
370
    30
100
AcDbSpline
210
0.0
220
0.0
230
1.0
 70
     8
 71
     3
 72
     9
 73
     5
 74
     0
 42
0.000000001
 43
0.00000001
 40
0.0
 40
0.0
 40
0.0
 40
0.0
 40
0.499956549268176
 40
1.0
 40
1.0
 40
1.0
 40
1.0
 10
116.4140929866495
 20
72.16897046504415
 30
0.0
 10
116.360721973152
 20
72.12390442577613
 30
0.0
 10
116.2539706693126
 20
72.03376451394978
 30
0.0
 10
116.2089211388363
 20
71.92031068824498
 30
0.0
 10
116.1863944161631
 20
71.86357884574082
 30
0.0
  0
LINE
  5
2CE
330
1F
100
AcDbEntity
  8
0
  6
Continuous
 62
     7
370
    30
100
AcDbLine
 10
116.3267999879
 20
72.2193636406
 30
0.0
 11
116.4140929866
 21
72.168970465
 31
0.0
  0
ARC
  5
2CF
330
1F
100
AcDbEntity
  8
0
  6
Continuous
 62
     7
370
    30
100
AcDbCircle
 10
120.3604008832
 20
66.6960937492
 30
0.0
 40
6.839330849964139
100
AcDbArc
 50
126.1403641247
 51
126.576040387
  0
SPLINE
  5
2D0
330
1F
100
AcDbEntity
  8
0
  6
Continuous
 62
     7
370
    30
100
AcDbSpline
210
0.0
220
0.0
230
1.0
 70
     8
 71
     3
 72
    13
 73
     9
 74
     0
 42
0.000000001
 43
0.00000001
 40
0.0
 40
0.0
 40
0.0
 40
0.0
 40
0.2500397820808341
 40
0.3777937796122265
 40
0.5000001128879025
 40
0.622170094396916
 40
0.7499621575008198
 40
0.9999999999999999
 40
0.9999999999999999
 40
0.9999999999999999
 40
0.9999999999999999
 10
116.0957858491612
 20
72.17244569315746
 30
0.0
 10
116.1093768268209
 20
72.16549644617503
 30
0.0
 10
116.1299119063829
 20
72.15499658786806
 30
0.0
 10
116.1636948421094
 20
72.1486089174258
 30
0.0
 10
116.1906016187791
 20
72.14855731002595
 30
0.0
 10
116.21747284064
 20
72.15334056924908
 30
0.0
 10
116.2511035384478
 20
72.16558059440564
 30
0.0
 10
116.2714520409323
 20
72.17939247704834
 30
0.0
 10
116.2849181419048
 20
72.18853281582413
 30
0.0
  0
LINE
  5
2D1
330
1F
100
AcDbEntity
  8
0
  6
Continuous
 62
     7
370
    30
100
AcDbLine
 10
115.2001518533
 20
72.6894841935
 30
0.0
 11
116.0957858492
 21
72.1724456932
 31
0.0
  0
SPLINE
  5
2D2
330
1F
100
AcDbEntity
  8
0
  6
Continuous
 62
     7
370
    30
100
AcDbSpline
210
0.0
220
0.0
230
1.0
 70
     8
 71
     3
 72
    12
 73
     8
 74
     0
 42
0.000000001
 43
0.00000001
 40
0.0
 40
0.0
 40
0.0
 40
0.0
 40
0.2508405333877312
 40
0.50051868234636
 40
0.6258416189945357
 40
0.7508706987083619
 40
1.0
 40
1.0
 40
1.0
 40
1.0
 10
115.2303529501145
 20
72.85232904243946
 30
0.0
 10
115.2145467973387
 20
72.84000460249025
 30
0.0
 10
115.1830077368311
 20
72.8154128335256
 30
0.0
 10
115.157439398141
 20
72.77779920990405
 30
0.0
 10
115.1518661506301
 20
72.74634068638164
 30
0.0
 10
115.1622558478787
 20
72.7162718216009
 30
0.0
 10
115.1850047460591
 20
72.70019126066512
 30
0.0
 10
115.2001518532644
 20
72.68948419351476
 30
0.0
  0
LINE
  5
2D3
330
1F
100
AcDbEntity
  8
0
  6
Continuous
 62
     7
370
    30
100
AcDbLine
 10
115.1458000904
 20
72.9011403694
 30
0.0
 11
115.2303529501
 21
72.8523290424
 31
0.0
  0
ARC
  5
2D4
330
1F
100
AcDbEntity
  8
0
  6
Continuous
 62
     7
370
    30
100
AcDbCircle
 10
119.443250389
 20
67.0279902314
 30
0.0
 40
7.277497620266908
100
AcDbArc
 50
126.1933557825
 51
130.8956338161
  0
LINE
  5
2D5
330
1F
100
AcDbEntity
  8
0
  6
Continuous
 62
     7
370
    30
100
AcDbLine
 10
114.7633477274
 20
72.4802638155
 30
0.0
 11
114.6787948677
 21
72.5290751424
 31
0.0
  0
SPLINE
  5
2D6
330
1F
100
AcDbEntity
  8
0
  6
Continuous
 62
     7
370
    30
100
AcDbSpline
210
0.0
220
0.0
230
1.0
 70
     8
 71
     3
 72
    13
 73
     9
 74
     0
 42
0.000000001
 43
0.00000001
 40
0.0
 40
0.0
 40
0.0
 40
0.0
 40
0.1252665154879382
 40
0.2503236425728673
 40
0.3681556916605893
 40
0.4999147691912921
 40
0.749519842499126
 40
1.0
 40
1.0
 40
1.0
 40
1.0
 10
115.0132234870972
 20
72.54083600726655
 30
0.0
 10
115.0041618070267
 20
72.54546379572898
 30
0.0
 10
114.9860535938762
 20
72.55471163710509
 30
0.0
 10
114.9533990869675
 20
72.56183153709256
 30
0.0
 10
114.9171864620466
 20
72.56139346397859
 30
0.0
 10
114.8693469547308
 20
72.5499822849617
 30
0.0
 10
114.8151551831499
 20
72.52244786490905
 30
0.0
 10
114.7806370134466
 20
72.49434155939983
 30
0.0
 10
114.7633477274384
 20
72.48026381545338
 30
0.0
  0
LINE
  5
2D7
330
1F
100
AcDbEntity
  8
0
  6
Continuous
 62
     7
370
    30
100
AcDbLine
 10
115.8560119456
 20
72.0543045863
 30
0.0
 11
115.0132234871
 21
72.5408360073
 31
0.0
  0
SPLINE
  5
2D8
330
1F
100
AcDbEntity
  8
0
  6
Continuous
 62
     7
370
    30
100
AcDbSpline
210
0.0
220
0.0
230
1.0
 70
     8
 71
     3
 72
    10
 73
     6
 74
     0
 42
0.000000001
 43
0.00000001
 40
0.0
 40
0.0
 40
0.0
 40
0.0
 40
0.2501049341293142
 40
0.5003778651460186
 40
0.9999999999999999
 40
0.9999999999999999
 40
0.9999999999999999
 40
0.9999999999999999
 10
115.763128690534
 20
71.64857380406896
 30
0.0
 10
115.7931040411875
 20
71.68082500955269
 30
0.0
 10
115.8530748771058
 20
71.74534908383585
 30
0.0
 10
115.9027374340797
 20
71.8904969983795
 30
0.0
 10
115.8746952324962
 20
71.98880577062407
 30
0.0
 10
115.8560119456487
 20
72.05430458625725
 30
0.0
  0
SPLINE
  5
2D9
330
1F
100
AcDbEntity
  8
0
  6
Continuous
 62
     7
370
    30
100
AcDbSpline
210
0.0
220
0.0
230
1.0
 70
     8
 71
     3
 72
    10
 73
     6
 74
     0
 42
0.000000001
 43
0.00000001
 40
0.0
 40
0.0
 40
0.0
 40
0.0
 40
0.2506156963356863
 40
0.5008152345029634
 40
1.0
 40
1.0
 40
1.0
 40
1.0
 10
115.522720256322
 20
71.53433629150216
 30
0.0
 10
115.5453300979304
 20
71.5377234032169
 30
0.0
 10
115.5905122365305
 20
71.5444920022014
 30
0.0
 10
115.6778687344368
 20
71.57952148606533
 30
0.0
 10
115.7290412922139
 20
71.62096630839967
 30
0.0
 10
115.763128690534
 20
71.64857380406896
 30
0.0
  0
SPLINE
  5
2DA
330
1F
100
AcDbEntity
  8
0
  6
Continuous
 62
     7
370
    30
100
AcDbSpline
210
0.0
220
0.0
230
1.0
 70
     8
 71
     3
 72
    10
 73
     6
 74
     0
 42
0.000000001
 43
0.00000001
 40
0.0
 40
0.0
 40
0.0
 40
0.0
 40
0.2508083184244139
 40
0.5014092167677395
 40
1.0
 40
1.0
 40
1.0
 40
1.0
 10
115.2777467785375
 20
71.5906261055709
 30
0.0
 10
115.2951296730765
 20
71.58138860125702
 30
0.0
 10
115.3298810863898
 20
71.5629212321043
 30
0.0
 10
115.4084827824768
 20
71.5358665596455
 30
0.0
 10
115.4770730756913
 20
71.53494775833526
 30
0.0
 10
115.522720256322
 20
71.53433629150216
 30
0.0
  0
LINE
  5
2DB
330
1F
100
AcDbEntity
  8
0
  6
Continuous
 62
     7
370
    30
100
AcDbLine
 10
114.4744946109
 20
72.0543337117
 30
0.0
 11
115.2777467785
 21
71.5906261056
 31
0.0
  0
SPLINE
  5
2DC
330
1F
100
AcDbEntity
  8
0
  6
Continuous
 62
     7
370
    30
100
AcDbSpline
210
0.0
220
0.0
230
1.0
 70
     8
 71
     3
 72
    12
 73
     8
 74
     0
 42
0.000000001
 43
0.00000001
 40
0.0
 40
0.0
 40
0.0
 40
0.0
 40
0.250840533387743
 40
0.500518682346366
 40
0.62584161899455
 40
0.750870698708366
 40
1.0
 40
1.0
 40
1.0
 40
1.0
 10
114.4990129284241
 20
72.24114410342459
 30
0.0
 10
114.4838529823379
 20
72.22590977223254
 30
0.0
 10
114.4536033407147
 20
72.19551170509527
 30
0.0
 10
114.4296987138451
 20
72.15096074204146
 30
0.0
 10
114.4252516404188
 20
72.11495737798502
 30
0.0
 10
114.436434410473
 20
72.08175575641334
 30
0.0
 10
114.45928187461
 20
72.06529435638897
 30
0.0
 10
114.4744946108888
 20
72.05433371166058
 30
0.0
  0
LINE
  5
2DD
330
1F
100
AcDbEntity
  8
0
  6
Continuous
 62
     7
370
    30
100
AcDbLine
 10
114.4144600687
 20
72.2899554304
 30
0.0
 11
114.4990129284
 21
72.2411441034
 31
0.0
  0
ARC
  5
2DE
330
1F
100
AcDbEntity
  8
0
  6
Continuous
 62
     7
370
    30
100
AcDbCircle
 10
120.3961631227
 20
65.9702903473
 30
0.0
 40
8.701662955346986
100
AcDbArc
 50
133.4262784439
 51
137.6001925922
  0
LINE
  5
2DF
330
1F
100
AcDbEntity
  8
0
  6
Continuous
 62
     7
370
    30
100
AcDbLine
 10
114.0549067778
 20
71.7890095276
 30
0.0
 11
113.970353918
 21
71.8378208546
 31
0.0
  0
SPLINE
  5
2E0
330
1F
100
AcDbEntity
  8
0
  6
Continuous
 62
     7
370
    30
100
AcDbSpline
210
0.0
220
0.0
230
1.0
 70
     8
 71
     3
 72
    13
 73
     9
 74
     0
 42
0.000000001
 43
0.00000001
 40
0.0
 40
0.0
 40
0.0
 40
0.0
 40
0.1252665154874516
 40
0.2503236425718699
 40
0.3681556916879802
 40
0.4999147691932097
 40
0.7495198425001095
 40
1.0
 40
1.0
 40
1.0
 40
1.0
 10
114.2966896286712
 20
71.87360729203643
 30
0.0
 10
114.2876507426787
 20
71.878162250711
 30
0.0
 10
114.2695880795828
 20
71.88726455424957
 30
0.0
 10
114.2373780127242
 20
71.89297105893802
 30
0.0
 10
114.2019799341406
 20
71.88997315488409
 30
0.0
 10
114.1556474967183
 20
71.8739154530846
 30
0.0
 10
114.1037693942732
 20
71.83946134837305
 30
0.0
 10
114.0712133062369
 20
71.80584640845905
 30
0.0
 10
114.0549067777563
 20
71.78900952761292
 30
0.0
  0
LINE
  5
2E1
330
1F
100
AcDbEntity
  8
0
  6
Continuous
 62
     7
370
    30
100
AcDbLine
 10
115.0999417963
 20
71.4098996859
 30
0.0
 11
114.2966896287
 21
71.873607292
 31
0.0
  0
SPLINE
  5
2E2
330
1F
100
AcDbEntity
  8
0
  6
Continuous
 62
     7
370
    30
100
AcDbSpline
210
0.0
220
0.0
230
1.0
 70
     8
 71
     3
 72
    10
 73
     6
 74
     0
 42
0.000000001
 43
0.00000001
 40
0.0
 40
0.0
 40
0.0
 40
0.0
 40
0.2501564763781308
 40
0.5003736012593306
 40
1.0
 40
1.0
 40
1.0
 40
1.0
 10
115.4556123573095
 20
71.34289185802734
 30
0.0
 10
115.4223409980921
 20
71.33914561280992
 30
0.0
 10
115.3557902132736
 20
71.33165221412688
 30
0.0
 10
115.2292259054809
 20
71.34692879615535
 30
0.0
 10
115.151638722127
 20
71.38471947285888
 30
0.0
 10
115.09994179632
 20
71.40989968594674
 30
0.0
  0
SPLINE
  5
2E3
330
1F
100
AcDbEntity
  8
0
  6
Continuous
 62
     7
370
    30
100
AcDbSpline
210
0.0
220
0.0
230
1.0
 70
     8
 71
     3
 72
    10
 73
     6
 74
     0
 42
0.000000001
 43
0.00000001
 40
0.0
 40
0.0
 40
0.0
 40
0.0
 40
0.4994179363304518
 40
0.7497315281210678
 40
0.9999999999999999
 40
0.9999999999999999
 40
0.9999999999999999
 40
0.9999999999999999
 10
115.8081201600629
 20
71.53132301459607
 30
0.0
 10
115.7579675221847
 20
71.48900508738862
 30
0.0
 10
115.6826778477451
 20
71.42547696409919
 30
0.0
 10
115.5559352801413
 20
71.36585651724563
 30
0.0
 10
115.4890513220606
 20
71.35054628443802
 30
0.0
 10
115.4556123573095
 20
71.34289185802734
 30
0.0
  0
SPLINE
  5
2E4
330
1F
100
AcDbEntity
  8
0
  6
Continuous
 62
     7
370
    30
100
AcDbSpline
210
0.0
220
0.0
230
1.0
 70
     8
 71
     3
 72
    11
 73
     7
 74
     0
 42
0.000000001
 43
0.00000001
 40
0.0
 40
0.0
 40
0.0
 40
0.0
 40
0.1255229121053028
 40
0.2509825561300572
 40
0.5015396269937159
 40
1.0
 40
1.0
 40
1.0
 40
1.0
 10
116.0094597281625
 20
71.96572106696526
 30
0.0
 10
116.0113727895302
 20
71.94780824790418
 30
0.0
 10
116.0151979480135
 20
71.91199163848965
 30
0.0
 10
116.008888101793
 20
71.83819627016084
 30
0.0
 10
115.9689919806701
 20
71.70568017553016
 30
0.0
 10
115.8724004435447
 20
71.60099169671592
 30
0.0
 10
115.8081201600629
 20
71.53132301459607
 30
0.0
  0
LINE
  5
2E5
330
1F
100
AcDbEntity
  8
0
  6
Continuous
 62
     7
370
    30
100
AcDbLine
 10
114.6272348135
 20
70.1793938892
 30
0.0
 11
113.5069094218
 21
70.8261439714
 31
0.0
  0
LINE
  5
2E6
330
1F
100
AcDbEntity
  8
0
  6
Continuous
 62
     7
370
    30
100
AcDbLine
 10
114.8817247707
 20
70.6722261714
 30
0.0
 11
114.6272348135
 21
70.1793938892
 31
0.0
  0
LINE
  5
2E7
330
1F
100
AcDbEntity
  8
0
  6
Continuous
 62
     7
370
    30
100
AcDbLine
 10
114.794431772
 20
70.7226193469
 30
0.0
 11
114.8817247707
 21
70.6722261714
 31
0.0
  0
LINE
  5
2E8
330
1F
100
AcDbEntity
  8
0
  6
Continuous
 62
     7
370
    30
100
AcDbLine
 10
114.6632661184
 20
70.5766878735
 30
0.0
 11
114.794431772
 21
70.7226193469
 31
0.0
  0
SPLINE
  5
2E9
330
1F
100
AcDbEntity
  8
0
  6
Continuous
 62
     7
370
    30
100
AcDbSpline
210
0.0
220
0.0
230
1.0
 70
     8
 71
     3
 72
    12
 73
     8
 74
     0
 42
0.000000001
 43
0.00000001
 40
0.0
 40
0.0
 40
0.0
 40
0.0
 40
0.2503346058885123
 40
0.4996227417223312
 40
0.626252295729986
 40
0.7498929195186088
 40
1.0
 40
1.0
 40
1.0
 40
1.0
 10
114.4971869329436
 20
70.55919114274137
 30
0.0
 10
114.5091584830386
 20
70.55314520283099
 30
0.0
 10
114.5330515387345
 20
70.54107859676354
 30
0.0
 10
114.5696528641257
 20
70.5373426234858
 30
0.0
 10
114.5997857040472
 20
70.5425748880132
 30
0.0
 10
114.6297466062235
 20
70.55346129765279
 30
0.0
 10
114.6498279472941
 20
70.56737620156977
 30
0.0
 10
114.6632661183649
 20
70.57668787346527
 30
0.0
  0
LINE
  5
2EA
330
1F
100
AcDbEntity
  8
0
  6
Continuous
 62
     7
370
    30
100
AcDbLine
 10
113.6649675819
 20
71.0396211479
 30
0.0
 11
114.4971869329
 21
70.5591911427
 31
0.0
  0
SPLINE
  5
2EB
330
1F
100
AcDbEntity
  8
0
  6
Continuous
 62
     7
370
    30
100
AcDbSpline
210
0.0
220
0.0
230
1.0
 70
     8
 71
     3
 72
    10
 73
     6
 74
     0
 42
0.000000001
 43
0.00000001
 40
0.0
 40
0.0
 40
0.0
 40
0.0
 40
0.249280566715285
 40
0.5008826090635661
 40
0.9999999999999999
 40
0.9999999999999999
 40
0.9999999999999999
 40
0.9999999999999999
 10
113.5906974344675
 20
71.195868595047
 30
0.0
 10
113.5881002220231
 20
71.17928582508912
 30
0.0
 10
113.5828816100688
 20
71.14596585477837
 30
0.0
 10
113.6016652665555
 20
71.08491557236016
 30
0.0
 10
113.6396880526912
 20
71.05770929709531
 30
0.0
 10
113.6649675818612
 20
71.03962114788105
 30
0.0
  0
LINE
  5
2EC
330
1F
100
AcDbEntity
  8
0
  6
Continuous
 62
     7
370
    30
100
AcDbLine
 10
113.7058082952
 20
71.3843342499
 30
0.0
 11
113.5906974345
 21
71.195868595
 31
0.0
  0
LINE
  5
2ED
330
1F
100
AcDbEntity
  8
0
  6
Continuous
 62
     7
370
    30
100
AcDbLine
 10
113.6212554354
 20
71.4331455769
 30
0.0
 11
113.7058082952
 21
71.3843342499
 31
0.0
  0
ARC
  5
2EE
330
1F
100
AcDbEntity
  8
0
  6
Continuous
 62
     7
370
    30
100
AcDbCircle
 10
121.3741364447
 20
65.1241595844
 30
0.0
 40
9.995522407415962
100
AcDbArc
 50
140.8626755893
 51
146.1894701977
  0
LINE
  5
2EF
330
1F
100
AcDbEntity
  8
0
  6
Continuous
 62
     7
370
    30
100
AcDbLine
 10
113.1535874626
 20
70.6373399505
 30
0.0
 11
113.0690346029
 21
70.6861512775
 31
0.0
  0
LINE
  5
2F0
330
1F
100
AcDbEntity
  8
0
  6
Continuous
 62
     7
370
    30
100
AcDbLine
 10
113.3115658098
 20
70.8241494135
 30
0.0
 11
113.1535874626
 21
70.6373399505
 31
0.0
  0
SPLINE
  5
2F1
330
1F
100
AcDbEntity
  8
0
  6
Continuous
 62
     7
370
    30
100
AcDbSpline
210
0.0
220
0.0
230
1.0
 70
     8
 71
     3
 72
    10
 73
     6
 74
     0
 42
0.000000001
 43
0.00000001
 40
0.0
 40
0.0
 40
0.0
 40
0.0
 40
0.4995416504901276
 40
0.7498034709452628
 40
1.0
 40
1.0
 40
1.0
 40
1.0
 10
113.5069094218241
 20
70.82614397141334
 30
0.0
 10
113.4776768232106
 20
70.83973634312835
 30
0.0
 10
113.4337991928194
 20
70.86013826052655
 30
0.0
 10
113.3611418567845
 20
70.85391150160727
 30
0.0
 10
113.3280897214628
 20
70.83406924665171
 30
0.0
 10
113.3115658098458
 20
70.82414941351603
 30
0.0
  0
SPLINE
  5
2F2
330
1F
100
AcDbEntity
  8
0
  6
Continuous
 62
     7
370
    30
100
AcDbSpline
210
0.0
220
0.0
230
1.0
 70
     8
 71
     3
 72
    14
 73
    10
 74
     0
 42
0.000000001
 43
0.00000001
 40
0.0
 40
0.0
 40
0.0
 40
0.0
 40
0.125325882817842
 40
0.2505180437899538
 40
0.3797024442429534
 40
0.5003456296711917
 40
0.6209804983576205
 40
0.7501746542468083
 40
1.0
 40
1.0
 40
1.0
 40
1.0
 10
115.3609552280164
 20
69.9085252592803
 30
0.0
 10
115.3530277069858
 20
69.89819182295504
 30
0.0
 10
115.3371811235343
 20
69.87753597600924
 30
0.0
 10
115.3086872019561
 20
69.84941747868672
 30
0.0
 10
115.2767467595068
 20
69.8261524752263
 30
0.0
 10
115.2418136342847
 20
69.81055758057322
 30
0.0
 10
115.2060043996044
 20
69.80438760962707
 30
0.0
 10
115.1595959340521
 20
69.80782171230281
 30
0.0
 10
115.1300962689753
 20
69.82255115383737
 30
0.0
 10
115.1106519818199
 20
69.83225985697317
 30
0.0
  0
SPLINE
  5
2F3
330
1F
100
AcDbEntity
  8
0
  6
Continuous
 62
     7
370
    30
100
AcDbSpline
210
0.0
220
0.0
230
1.0
 70
     8
 71
     3
 72
     9
 73
     5
 74
     0
 42
0.000000001
 43
0.00000001
 40
0.0
 40
0.0
 40
0.0
 40
0.0
 40
0.4995077818326918
 40
1.0
 40
1.0
 40
1.0
 40
1.0
 10
115.4033521798703
 20
70.04044156062409
 30
0.0
 10
115.4033154773067
 20
70.01789662023202
 30
0.0
 10
115.4032419998456
 20
69.97276230759061
 30
0.0
 10
115.3750600663992
 20
69.9299516568371
 30
0.0
 10
115.3609552280164
 20
69.9085252592803
 30
0.0
  0
SPLINE
  5
2F4
330
1F
100
AcDbEntity
  8
0
  6
Continuous
 62
     7
370
    30
100
AcDbSpline
210
0.0
220
0.0
230
1.0
 70
     8
 71
     3
 72
    10
 73
     6
 74
     0
 42
0.000000001
 43
0.00000001
 40
0.0
 40
0.0
 40
0.0
 40
0.0
 40
0.2508377305454059
 40
0.5013368652755478
 40
0.9999999999999999
 40
0.9999999999999999
 40
0.9999999999999999
 40
0.9999999999999999
 10
115.338937432484
 20
70.1405877118906
 30
0.0
 10
115.3476617023945
 20
70.13495946954372
 30
0.0
 10
115.3650984656729
 20
70.1237105821891
 30
0.0
 10
115.3921132281685
 20
70.09259010004712
 30
0.0
 10
115.398860805622
 20
70.06128145862014
 30
0.0
 10
115.4033521798703
 20
70.04044156062409
 30
0.0
  0
SPLINE
  5
2F5
330
1F
100
AcDbEntity
  8
0
  6
Continuous
 62
     7
370
    30
100
AcDbSpline
210
0.0
220
0.0
230
1.0
 70
     8
 71
     3
 72
    10
 73
     6
 74
     0
 42
0.000000001
 43
0.00000001
 40
0.0
 40
0.0
 40
0.0
 40
0.0
 40
0.2507789149874363
 40
0.5012404149339171
 40
1.0
 40
1.0
 40
1.0
 40
1.0
 10
115.2076279674802
 20
70.15343074339448
 30
0.0
 10
115.2194547199527
 20
70.15612401345334
 30
0.0
 10
115.2430932555804
 20
70.1615071446544
 30
0.0
 10
115.2900290699145
 20
70.16218038786067
 30
0.0
 10
115.3193910443016
 20
70.1492172959583
 30
0.0
 10
115.338937432484
 20
70.1405877118906
 30
0.0
  0
SPLINE
  5
2F6
330
1F
100
AcDbEntity
  8
0
  6
Continuous
 62
     7
370
    30
100
AcDbSpline
210
0.0
220
0.0
230
1.0
 70
     8
 71
     3
 72
    10
 73
     6
 74
     0
 42
0.000000001
 43
0.00000001
 40
0.0
 40
0.0
 40
0.0
 40
0.0
 40
0.2508016000314264
 40
0.5012358405695821
 40
1.0
 40
1.0
 40
1.0
 40
1.0
 10
115.0834182948473
 20
70.06874392044871
 30
0.0
 10
115.091543555835
 20
70.07867508417736
 30
0.0
 10
115.107782176404
 20
70.09852286504776
 30
0.0
 10
115.1480588479859
 20
70.13206167644101
 30
0.0
 10
115.1838204088409
 20
70.14489032314181
 30
0.0
 10
115.2076279674802
 20
70.15343074339448
 30
0.0
  0
SPLINE
  5
2F7
330
1F
100
AcDbEntity
  8
0
  6
Continuous
 62
     7
370
    30
100
AcDbSpline
210
0.0
220
0.0
230
1.0
 70
     8
 71
     3
 72
    10
 73
     6
 74
     0
 42
0.000000001
 43
0.00000001
 40
0.0
 40
0.0
 40
0.0
 40
0.0
 40
0.250842854850828
 40
0.5013299441761614
 40
1.0
 40
1.0
 40
1.0
 40
1.0
 10
115.0450174879453
 20
69.93380509403191
 30
0.0
 10
115.0444476296066
 20
69.94502473678938
 30
0.0
 10
115.0433087211483
 20
69.96744810970395
 30
0.0
 10
115.050396227332
 20
70.0143093474876
 30
0.0
 10
115.0702216629431
 20
70.04699019403843
 30
0.0
 10
115.0834182948473
 20
70.0687439204487
 30
0.0
  0
SPLINE
  5
2F8
330
1F
100
AcDbEntity
  8
0
  6
Continuous
 62
     7
370
    30
100
AcDbSpline
210
0.0
220
0.0
230
1.0
 70
     8
 71
     3
 72
    10
 73
     6
 74
     0
 42
0.000000001
 43
0.00000001
 40
0.0
 40
0.0
 40
0.0
 40
0.0
 40
0.2507553566625882
 40
0.5011736638904877
 40
1.0
 40
1.0
 40
1.0
 40
1.0
 10
115.1106519818199
 20
69.83225985697317
 30
0.0
 10
115.1019357797428
 20
69.83791826945016
 30
0.0
 10
115.084515091354
 20
69.84922748872523
 30
0.0
 10
115.0573302547767
 20
69.88087552030751
 30
0.0
 10
115.0499386282225
 20
69.91265031536341
 30
0.0
 10
115.0450174879453
 20
69.93380509403191
 30
0.0
  0
SPLINE
  5
2F9
330
1F
100
AcDbEntity
  8
0
  6
Continuous
 62
     7
370
    30
100
AcDbSpline
210
0.0
220
0.0
230
1.0
 70
     8
 71
     3
 72
     9
 73
     5
 74
     0
 42
0.000000001
 43
0.00000001
 40
0.0
 40
0.0
 40
0.0
 40
0.0
 40
0.5006698252641565
 40
1.0
 40
1.0
 40
1.0
 40
1.0
 10
113.6682692896706
 20
68.55049196068198
 30
0.0
 10
113.6301962561116
 20
68.47382260204945
 30
0.0
 10
113.5541520616389
 20
68.32068903025474
 30
0.0
 10
113.4424045135133
 20
68.20909837696598
 30
0.0
 10
113.3866055907814
 20
68.15337779656042
 30
0.0
  0
SPLINE
  5
2FA
330
1F
100
AcDbEntity
  8
0
  6
Continuous
 62
     7
370
    30
100
AcDbSpline
210
0.0
220
0.0
230
1.0
 70
     8
 71
     3
 72
    11
 73
     7
 74
     0
 42
0.000000001
 43
0.00000001
 40
0.0
 40
0.0
 40
0.0
 40
0.0
 40
0.125413896456068
 40
0.2507777640573583
 40
0.5011130148295584
 40
1.0
 40
1.0
 40
1.0
 40
1.0
 10
113.776913900299
 20
69.22655454987286
 30
0.0
 10
113.7814347441524
 20
69.19943872455211
 30
0.0
 10
113.7904746284497
 20
69.14521789068391
 30
0.0
 10
113.7962735619299
 20
69.0325264737948
 30
0.0
 10
113.7805611793948
 20
68.82820352497764
 30
0.0
 10
113.7131539531087
 20
68.66149721784599
 30
0.0
 10
113.6682692896706
 20
68.55049196068198
 30
0.0
  0
SPLINE
  5
2FB
330
1F
100
AcDbEntity
  8
0
  6
Continuous
 62
     7
370
    30
100
AcDbSpline
210
0.0
220
0.0
230
1.0
 70
     8
 71
     3
 72
     9
 73
     5
 74
     0
 42
0.000000001
 43
0.00000001
 40
0.0
 40
0.0
 40
0.0
 40
0.0
 40
0.5003832241934798
 40
1.0
 40
1.0
 40
1.0
 40
1.0
 10
113.4260965718666
 20
69.73967979433193
 30
0.0
 10
113.5112537244145
 20
69.67900226621975
 30
0.0
 10
113.6814375923594
 20
69.55774015114793
 30
0.0
 10
113.7451047301775
 20
69.33689332773402
 30
0.0
 10
113.776913900299
 20
69.22655454987286
 30
0.0
  0
SPLINE
  5
2FC
330
1F
100
AcDbEntity
  8
0
  6
Continuous
 62
     7
370
    30
100
AcDbSpline
210
0.0
220
0.0
230
1.0
 70
     8
 71
     3
 72
    10
 73
     6
 74
     0
 42
0.000000001
 43
0.00000001
 40
0.0
 40
0.0
 40
0.0
 40
0.0
 40
0.2499230536796421
 40
0.5001178084698149
 40
1.0
 40
1.0
 40
1.0
 40
1.0
 10
112.7688826372219
 20
69.8429764833665
 30
0.0
 10
112.8274506380748
 20
69.85760647875279
 30
0.0
 10
112.9446503113415
 20
69.88688237436463
 30
0.0
 10
113.1755861131175
 20
69.86323653980614
 30
0.0
 10
113.3259127231881
 20
69.78909246298299
 30
0.0
 10
113.4260965718666
 20
69.73967979433193
 30
0.0
  0
SPLINE
  5
2FD
330
1F
100
AcDbEntity
  8
0
  6
Continuous
 62
     7
370
    30
100
AcDbSpline
210
0.0
220
0.0
230
1.0
 70
     8
 71
     3
 72
     9
 73
     5
 74
     0
 42
0.000000001
 43
0.00000001
 40
0.0
 40
0.0
 40
0.0
 40
0.0
 40
0.5000936746673098
 40
1.0
 40
1.0
 40
1.0
 40
1.0
 10
112.3156187414265
 20
69.41684326418677
 30
0.0
 10
112.3728774019575
 20
69.51367262531598
 30
0.0
 10
112.4873732722941
 20
69.70729507253775
 30
0.0
 10
112.6750579031095
 20
69.79775499562571
 30
0.0
 10
112.7688826372219
 20
69.84297648336648
 30
0.0
  0
SPLINE
  5
2FE
330
1F
100
AcDbEntity
  8
0
  6
Continuous
 62
     7
370
    30
100
AcDbSpline
210
0.0
220
0.0
230
1.0
 70
     8
 71
     3
 72
     9
 73
     5
 74
     0
 42
0.000000001
 43
0.00000001
 40
0.0
 40
0.0
 40
0.0
 40
0.0
 40
0.4996384136483036
 40
1.0
 40
1.0
 40
1.0
 40
1.0
 10
112.2073225418497
 20
68.91838842223328
 30
0.0
 10
112.2096139921817
 20
69.00470909566793
 30
0.0
 10
112.2142002094728
 20
69.17747538239989
 30
0.0
 10
112.2817962695668
 20
69.33701551190222
 30
0.0
 10
112.3156187414265
 20
69.41684326418677
 30
0.0
  0
SPLINE
  5
2FF
330
1F
100
AcDbEntity
  8
0
  6
Continuous
 62
     7
370
    30
100
AcDbSpline
210
0.0
220
0.0
230
1.0
 70
     8
 71
     3
 72
     9
 73
     5
 74
     0
 42
0.000000001
 43
0.00000001
 40
0.0
 40
0.0
 40
0.0
 40
0.0
 40
0.5012934905933972
 40
1.0
 40
1.0
 40
1.0
 40
1.0
 10
112.4039181496885
 20
68.43618264448092
 30
0.0
 10
112.3561854350393
 20
68.50703175217659
 30
0.0
 10
112.2609663357593
 20
68.64836434281483
 30
0.0
 10
112.2251729408731
 20
68.82853576245147
 30
0.0
 10
112.2073225418497
 20
68.91838842223328
 30
0.0
  0
LINE
  5
300
330
1F
100
AcDbEntity
  8
0
  6
Continuous
 62
     7
370
    30
100
AcDbLine
 10
112.4594571863
 20
68.4707819916
 30
0.0
 11
112.4039181497
 21
68.4361826445
 31
0.0
  0
SPLINE
  5
301
330
1F
100
AcDbEntity
  8
0
  6
Continuous
 62
     7
370
    30
100
AcDbSpline
210
0.0
220
0.0
230
1.0
 70
     8
 71
     3
 72
     9
 73
     5
 74
     0
 42
0.000000001
 43
0.00000001
 40
0.0
 40
0.0
 40
0.0
 40
0.0
 40
0.4986668931320001
 40
1.0
 40
1.0
 40
1.0
 40
1.0
 10
112.3305710227535
 20
68.9442209995602
 30
0.0
 10
112.3367127555747
 20
68.85850588297264
 30
0.0
 10
112.3490290591149
 20
68.68661735825185
 30
0.0
 10
112.4225824409142
 20
68.54285488101053
 30
0.0
 10
112.4594571863324
 20
68.4707819916441
 30
0.0
  0
LINE
  5
302
330
1F
100
AcDbEntity
  8
0
  6
Continuous
 62
     7
370
    30
100
AcDbLine
 10
112.4338126305
 20
69.2973040342
 30
0.0
 11
112.3305710228
 21
68.9442209996
 31
0.0
  0
SPLINE
  5
303
330
1F
100
AcDbEntity
  8
0
  6
Continuous
 62
     7
370
    30
100
AcDbSpline
210
0.0
220
0.0
230
1.0
 70
     8
 71
     3
 72
    11
 73
     7
 74
     0
 42
0.000000001
 43
0.00000001
 40
0.0
 40
0.0
 40
0.0
 40
0.0
 40
0.2502278532405994
 40
0.5002161221344738
 40
0.749922902930593
 40
1.0
 40
1.0
 40
1.0
 40
1.0
 10
112.8375356711621
 20
69.6047619663635
 30
0.0
 10
112.7971009755026
 20
69.5969835729969
 30
0.0
 10
112.7162702989788
 20
69.58143423380109
 30
0.0
 10
112.6008923502147
 20
69.51807599064787
 30
0.0
 10
112.5016221611927
 20
69.4217159330312
 30
0.0
 10
112.4564269698746
 20
69.33879514730384
 30
0.0
 10
112.4338126304633
 20
69.2973040342452
 30
0.0
  0
LINE
  5
304
330
1F
100
AcDbEntity
  8
0
  6
Continuous
 62
     7
370
    30
100
AcDbLine
 10
113.2934750957
 20
69.5056378313
 30
0.0
 11
113.2356214235
 21
69.5290160262
 31
0.0
  0
SPLINE
  5
305
330
1F
100
AcDbEntity
  8
0
  6
Continuous
 62
     7
370
    30
100
AcDbSpline
210
0.0
220
0.0
230
1.0
 70
     8
 71
     3
 72
     9
 73
     5
 74
     0
 42
0.000000001
 43
0.00000001
 40
0.0
 40
0.0
 40
0.0
 40
0.0
 40
0.3105654622505672
 40
1.0
 40
1.0
 40
1.0
 40
1.0
 10
113.1740648511891
 20
69.55389053267224
 30
0.0
 10
113.1420456817907
 20
69.56881384693882
 30
0.0
 10
113.0389460996078
 20
69.6168659199492
 30
0.0
 10
112.9197284418973
 20
69.60970142004392
 30
0.0
 10
112.8375356711621
 20
69.6047619663635
 30
0.0
  0
SPLINE
  5
306
330
1F
100
AcDbEntity
  8
0
  6
Continuous
 62
     7
370
    30
100
AcDbSpline
210
0.0
220
0.0
230
1.0
 70
     8
 71
     3
 72
     9
 73
     5
 74
     0
 42
0.000000001
 43
0.00000001
 40
0.0
 40
0.0
 40
0.0
 40
0.0
 40
0.4993513543406675
 40
1.0
 40
1.0
 40
1.0
 40
1.0
 10
113.6179898973241
 20
69.08532609707551
 30
0.0
 10
113.5833216491507
 20
69.17562534631521
 30
0.0
 10
113.5138950863266
 20
69.35645843799459
 30
0.0
 10
113.3670119426483
 20
69.45586837899087
 30
0.0
 10
113.2934750956956
 20
69.50563783131572
 30
0.0
  0
SPLINE
  5
307
330
1F
100
AcDbEntity
  8
0
  6
Continuous
 62
     7
370
    30
100
AcDbSpline
210
0.0
220
0.0
230
1.0
 70
     8
 71
     3
 72
    11
 73
     7
 74
     0
 42
0.000000001
 43
0.00000001
 40
0.0
 40
0.0
 40
0.0
 40
0.0
 40
0.1254637692826931
 40
0.2508743879101155
 40
0.501263524972592
 40
1.0
 40
1.0
 40
1.0
 40
1.0
 10
113.573147322449
 20
68.6054047035084
 30
0.0
 10
113.5816813720072
 20
68.62460776990675
 30
0.0
 10
113.5987458558143
 20
68.66300576764127
 30
0.0
 10
113.6246497191904
 20
68.74326377743346
 30
0.0
 10
113.6532546238408
 20
68.88930263553868
 30
0.0
 10
113.6320842476352
 20
69.0069808606597
 30
0.0
 10
113.6179898973241
 20
69.08532609707552
 30
0.0
  0
SPLINE
  5
308
330
1F
100
AcDbEntity
  8
0
  6
Continuous
 62
     7
370
    30
100
AcDbSpline
210
0.0
220
0.0
230
1.0
 70
     8
 71
     3
 72
    13
 73
     9
 74
     0
 42
0.000000001
 43
0.00000001
 40
0.0
 40
0.0
 40
0.0
 40
0.0
 40
0.0626139020342166
 40
0.1250081517118448
 40
0.1852395402851172
 40
0.250142576171659
 40
0.4995812533042255
 40
1.0
 40
1.0
 40
1.0
 40
1.0
 10
113.3381385945787
 20
68.35003461266402
 30
0.0
 10
113.3443661891683
 20
68.34728142284703
 30
0.0
 10
113.3567995316685
 20
68.34178470152554
 30
0.0
 10
113.3771690243012
 20
68.34159484397516
 30
0.0
 10
113.3972766717154
 20
68.34846501863119
 30
0.0
 10
113.4348298516048
 20
68.37215608280236
 30
0.0
 10
113.5003608529275
 20
68.45630167166446
 30
0.0
 10
113.5440147878034
 20
68.54572672668779
 30
0.0
 10
113.573147322449
 20
68.6054047035084
 30
0.0
  0
SPLINE
  5
309
330
1F
100
AcDbEntity
  8
0
  6
Continuous
 62
     7
370
    30
100
AcDbSpline
210
0.0
220
0.0
230
1.0
 70
     8
 71
     3
 72
    10
 73
     6
 74
     0
 42
0.000000001
 43
0.00000001
 40
0.0
 40
0.0
 40
0.0
 40
0.0
 40
0.5006964024275513
 40
0.7525520720605016
 40
1.0
 40
1.0
 40
1.0
 40
1.0
 10
113.3174109482234
 20
68.40838461858382
 30
0.0
 10
113.3182542528752
 20
68.39714043774696
 30
0.0
 10
113.319521748827
 20
68.38024031314774
 30
0.0
 10
113.3272486149453
 20
68.35969787543233
 30
0.0
 10
113.3345300276009
 20
68.35323668760792
 30
0.0
 10
113.3381385945787
 20
68.35003461266402
 30
0.0
  0
SPLINE
  5
30A
330
1F
100
AcDbEntity
  8
0
  6
Continuous
 62
     7
370
    30
100
AcDbSpline
210
0.0
220
0.0
230
1.0
 70
     8
 71
     3
 72
     9
 73
     5
 74
     0
 42
0.000000001
 43
0.00000001
 40
0.0
 40
0.0
 40
0.0
 40
0.0
 40
0.5003366825879778
 40
1.0
 40
1.0
 40
1.0
 40
1.0
 10
113.2513160628996
 20
68.48482288309116
 30
0.0
 10
113.2650291997455
 20
68.47554097255436
 30
0.0
 10
113.2924370179668
 20
68.45698964329985
 30
0.0
 10
113.3090900426601
 20
68.42457901876054
 30
0.0
 10
113.3174109482234
 20
68.40838461858382
 30
0.0
  0
SPLINE
  5
30B
330
1F
100
AcDbEntity
  8
0
  6
Continuous
 62
     7
370
    30
100
AcDbSpline
210
0.0
220
0.0
230
1.0
 70
     8
 71
     3
 72
    10
 73
     6
 74
     0
 42
0.000000001
 43
0.00000001
 40
0.0
 40
0.0
 40
0.0
 40
0.0
 40
0.2510481082437978
 40
0.5017582820258824
 40
1.0
 40
1.0
 40
1.0
 40
1.0
 10
113.1514710759801
 20
68.48286015511475
 30
0.0
 10
113.1597071186425
 20
68.48672107194403
 30
0.0
 10
113.1761681174762
 20
68.49443770844394
 30
0.0
 10
113.2109998213327
 20
68.50006460779554
 30
0.0
 10
113.2352101164741
 20
68.4909118038829
 30
0.0
 10
113.2513160628996
 20
68.48482288309116
 30
0.0
  0
SPLINE
  5
30C
330
1F
100
AcDbEntity
  8
0
  6
Continuous
 62
     7
370
    30
100
AcDbSpline
210
0.0
220
0.0
230
1.0
 70
     8
 71
     3
 72
    10
 73
     6
 74
     0
 42
0.000000001
 43
0.00000001
 40
0.0
 40
0.0
 40
0.0
 40
0.0
 40
0.2508330002098689
 40
0.5013491902807713
 40
1.0
 40
1.0
 40
1.0
 40
1.0
 10
113.0653287011135
 20
68.38935398526317
 30
0.0
 10
113.0702306866395
 20
68.39977139659662
 30
0.0
 10
113.0800284663264
 20
68.42059306173823
 30
0.0
 10
113.1069764927357
 20
68.45670360030368
 30
0.0
 10
113.1336902270502
 20
68.47240751760901
 30
0.0
 10
113.1514710759801
 20
68.48286015511475
 30
0.0
  0
SPLINE
  5
30D
330
1F
100
AcDbEntity
  8
0
  6
Continuous
 62
     7
370
    30
100
AcDbSpline
210
0.0
220
0.0
230
1.0
 70
     8
 71
     3
 72
     9
 73
     5
 74
     0
 42
0.000000001
 43
0.00000001
 40
0.0
 40
0.0
 40
0.0
 40
0.0
 40
0.4997213296138175
 40
1.0
 40
1.0
 40
1.0
 40
1.0
 10
113.0390067614856
 20
68.25329086499057
 30
0.0
 10
113.0397112944931
 20
68.27677275685103
 30
0.0
 10
113.0411211462759
 20
68.32376272999984
 30
0.0
 10
113.057256518534
 20
68.36748211131082
 30
0.0
 10
113.0653287011135
 20
68.38935398526317
 30
0.0
  0
SPLINE
  5
30E
330
1F
100
AcDbEntity
  8
0
  6
Continuous
 62
     7
370
    30
100
AcDbSpline
210
0.0
220
0.0
230
1.0
 70
     8
 71
     3
 72
    10
 73
     6
 74
     0
 42
0.000000001
 43
0.00000001
 40
0.0
 40
0.0
 40
0.0
 40
0.0
 40
0.2507574264030895
 40
0.5011859718679686
 40
1.0
 40
1.0
 40
1.0
 40
1.0
 10
113.128059411078
 20
68.13491770488231
 30
0.0
 10
113.1182103878555
 20
68.14141574465685
 30
0.0
 10
113.0985252588982
 20
68.15440330170092
 30
0.0
 10
113.0637515402938
 20
68.18999580961012
 30
0.0
 10
113.0488965715916
 20
68.22799356558009
 30
0.0
 10
113.0390067614856
 20
68.25329086499057
 30
0.0
  0
SPLINE
  5
30F
330
1F
100
AcDbEntity
  8
0
  6
Continuous
 62
     7
370
    30
100
AcDbSpline
210
0.0
220
0.0
230
1.0
 70
     8
 71
     3
 72
    10
 73
     6
 74
     0
 42
0.000000001
 43
0.00000001
 40
0.0
 40
0.0
 40
0.0
 40
0.0
 40
0.4992387631567942
 40
0.7516165399035498
 40
1.0
 40
1.0
 40
1.0
 40
1.0
 10
113.3866055907814
 20
68.15337779656042
 30
0.0
 10
113.3437944743312
 20
68.132378898601
 30
0.0
 10
113.2793412595763
 20
68.10076452850235
 30
0.0
 10
113.189338383208
 20
68.10626974555787
 30
0.0
 10
113.1483768253118
 20
68.12541930051427
 30
0.0
 10
113.128059411078
 20
68.13491770488233
 30
0.0
  0
SPLINE
  5
310
330
1F
100
AcDbEntity
  8
0
  6
Continuous
 62
     7
370
    30
100
AcDbSpline
210
0.0
220
0.0
230
1.0
 70
     8
 71
     3
 72
    14
 73
    10
 74
     0
 42
0.000000001
 43
0.00000001
 40
0.0
 40
0.0
 40
0.0
 40
0.0
 40
0.0626404246599921
 40
0.1252646658890575
 40
0.2502405607945684
 40
0.3738378916026925
 40
0.5002010621465297
 40
0.7497247388973076
 40
1.0
 40
1.0
 40
1.0
 40
1.0
 10
113.0534257255601
 20
66.85219017277069
 30
0.0
 10
113.0468996006967
 20
66.82799392116549
 30
0.0
 10
113.0338490370233
 20
66.7796076691638
 30
0.0
 10
112.9997306149296
 20
66.68961048476724
 30
0.0
 10
112.9460495755031
 20
66.58881625869216
 30
0.0
 10
112.8588631901601
 20
66.50033852763718
 30
0.0
 10
112.7211801968907
 20
66.43358549046538
 30
0.0
 10
112.5267935367904
 20
66.43149732514874
 30
0.0
 10
112.371304577742
 20
66.48543481670929
 30
0.0
 10
112.2934431881368
 20
66.51244411737228
 30
0.0
  0
SPLINE
  5
311
330
1F
100
AcDbEntity
  8
0
  6
Continuous
 62
     7
370
    30
100
AcDbSpline
210
0.0
220
0.0
230
1.0
 70
     8
 71
     3
 72
     9
 73
     5
 74
     0
 42
0.000000001
 43
0.00000001
 40
0.0
 40
0.0
 40
0.0
 40
0.0
 40
0.4999046679591402
 40
1.0
 40
1.0
 40
1.0
 40
1.0
 10
113.0637784692824
 20
67.3675599810079
 30
0.0
 10
113.0768426156855
 20
67.27928878562837
 30
0.0
 10
113.1029758911687
 20
67.10271272815743
 30
0.0
 10
113.0699445467266
 20
66.93570830514791
 30
0.0
 10
113.0534257255601
 20
66.85219017277069
 30
0.0
  0
SPLINE
  5
312
330
1F
100
AcDbEntity
  8
0
  6
Continuous
 62
     7
370
    30
100
AcDbSpline
210
0.0
220
0.0
230
1.0
 70
     8
 71
     3
 72
     9
 73
     5
 74
     0
 42
0.000000001
 43
0.00000001
 40
0.0
 40
0.0
 40
0.0
 40
0.0
 40
0.5009004402924763
 40
1.0
 40
1.0
 40
1.0
 40
1.0
 10
112.8652195516321
 20
67.76973038927011
 30
0.0
 10
112.9066898381489
 20
67.70976334280019
 30
0.0
 10
112.9894813136217
 20
67.59004484857228
 30
0.0
 10
113.0390425019894
 20
67.44163251256454
 30
0.0
 10
113.0637784692824
 20
67.3675599810079
 30
0.0
  0
LINE
  5
313
330
1F
100
AcDbEntity
  8
0
  6
Continuous
 62
     7
370
    30
100
AcDbLine
 10
112.5699651098
 20
68.0426988226
 30
0.0
 11
112.8652195516
 21
67.7697303893
 31
0.0
  0
SPLINE
  5
314
330
1F
100
AcDbEntity
  8
0
  6
Continuous
 62
     7
370
    30
100
AcDbSpline
210
0.0
220
0.0
230
1.0
 70
     8
 71
     3
 72
     9
 73
     5
 74
     0
 42
0.000000001
 43
0.00000001
 40
0.0
 40
0.0
 40
0.0
 40
0.0
 40
0.4997057696359025
 40
0.9999999999999999
 40
0.9999999999999999
 40
0.9999999999999999
 40
0.9999999999999999
 10
112.1701465517856
 20
68.1425710386773
 30
0.0
 10
112.2390953071779
 20
68.14215324267356
 30
0.0
 10
112.3770740130122
 20
68.14131715866353
 30
0.0
 10
112.5056428582826
 20
68.07558449500048
 30
0.0
 10
112.5699651097759
 20
68.04269882262336
 30
0.0
  0
SPLINE
  5
315
330
1F
100
AcDbEntity
  8
0
  6
Continuous
 62
     7
370
    30
100
AcDbSpline
210
0.0
220
0.0
230
1.0
 70
     8
 71
     3
 72
    10
 73
     6
 74
     0
 42
0.000000001
 43
0.00000001
 40
0.0
 40
0.0
 40
0.0
 40
0.0
 40
0.2503030710679647
 40
0.500491184485349
 40
0.9999999999999999
 40
0.9999999999999999
 40
0.9999999999999999
 40
0.9999999999999999
 10
111.8685103909334
 20
68.01357642583648
 30
0.0
 10
111.8910977737895
 20
68.03122815874003
 30
0.0
 10
111.9362621657076
 20
68.06652351756817
 30
0.0
 10
112.0356874856443
 20
68.1187820718675
 30
0.0
 10
112.1163815982045
 20
68.13305875562361
 30
0.0
 10
112.1701465517856
 20
68.1425710386773
 30
0.0
  0
SPLINE
  5
316
330
1F
100
AcDbEntity
  8
0
  6
Continuous
 62
     7
370
    30
100
AcDbSpline
210
0.0
220
0.0
230
1.0
 70
     8
 71
     3
 72
     9
 73
     5
 74
     0
 42
0.000000001
 43
0.00000001
 40
0.0
 40
0.0
 40
0.0
 40
0.0
 40
0.500316889687631
 40
1.0
 40
1.0
 40
1.0
 40
1.0
 10
111.6723150226529
 20
67.66500220787961
 30
0.0
 10
111.6936042583455
 20
67.7333938061066
 30
0.0
 10
111.7361557614658
 20
67.87009036709959
 30
0.0
 10
111.8244108258574
 20
67.9657679524176
 30
0.0
 10
111.8685103909334
 20
68.01357642583648
 30
0.0
  0
SPLINE
  5
317
330
1F
100
AcDbEntity
  8
0
  6
Continuous
 62
     7
370
    30
100
AcDbSpline
210
0.0
220
0.0
230
1.0
 70
     8
 71
     3
 72
     9
 73
     5
 74
     0
 42
0.000000001
 43
0.00000001
 40
0.0
 40
0.0
 40
0.0
 40
0.0
 40
0.4997903880833161
 40
1.0
 40
1.0
 40
1.0
 40
1.0
 10
111.6747458499053
 20
67.24775162493464
 30
0.0
 10
111.6608019156262
 20
67.31917867122712
 30
0.0
 10
111.6329023509055
 20
67.46209267676934
 30
0.0
 10
111.6591737941987
 20
67.59734679692595
 30
0.0
 10
111.6723150226529
 20
67.66500220787961
 30
0.0
  0
LINE
  5
318
330
1F
100
AcDbEntity
  8
0
  6
Continuous
 62
     7
370
    30
100
AcDbLine
 10
111.8988283872
 20
66.7690878719
 30
0.0
 11
111.6747458499
 21
67.2477516249
 31
0.0
  0
LINE
  5
319
330
1F
100
AcDbEntity
  8
0
  6
Continuous
 62
     7
370
    30
100
AcDbLine
 10
111.948900473
 20
66.8089121772
 30
0.0
 11
111.8988283872
 21
66.7690878719
 31
0.0
  0
SPLINE
  5
31A
330
1F
100
AcDbEntity
  8
0
  6
Continuous
 62
     7
370
    30
100
AcDbSpline
210
0.0
220
0.0
230
1.0
 70
     8
 71
     3
 72
    10
 73
     6
 74
     0
 42
0.000000001
 43
0.00000001
 40
0.0
 40
0.0
 40
0.0
 40
0.0
 40
0.2503047624972256
 40
0.500491199598696
 40
1.0
 40
1.0
 40
1.0
 40
1.0
 10
111.8022710750762
 20
67.1630457112129
 30
0.0
 10
111.8100239606196
 20
67.13154970708953
 30
0.0
 10
111.8255260667213
 20
67.06857258780103
 30
0.0
 10
111.8690186912819
 20
66.94592850040173
 30
0.0
 10
111.9169588111786
 20
66.86369975162873
 30
0.0
 10
111.948900473047
 20
66.80891217715389
 30
0.0
  0
SPLINE
  5
31B
330
1F
100
AcDbEntity
  8
0
  6
Continuous
 62
     7
370
    30
100
AcDbSpline
210
0.0
220
0.0
230
1.0
 70
     8
 71
     3
 72
    10
 73
     6
 74
     0
 42
0.000000001
 43
0.00000001
 40
0.0
 40
0.0
 40
0.0
 40
0.0
 40
0.2503541711002775
 40
0.5005514580027346
 40
1.0
 40
1.0
 40
1.0
 40
1.0
 10
111.7960934283177
 20
67.53160497302198
 30
0.0
 10
111.7901568513278
 20
67.5022889928652
 30
0.0
 10
111.7782874174982
 20
67.44367540338209
 30
0.0
 10
111.773295728836
 20
67.31946656108288
 30
0.0
 10
111.7906853256159
 20
67.22559035733875
 30
0.0
 10
111.8022710750762
 20
67.1630457112129
 30
0.0
  0
LINE
  5
31C
330
1F
100
AcDbEntity
  8
0
  6
Continuous
 62
     7
370
    30
100
AcDbLine
 10
111.9038589712
 20
67.7662423968
 30
0.0
 11
111.7960934283
 21
67.531604973
 31
0.0
  0
SPLINE
  5
31D
330
1F
100
AcDbEntity
  8
0
  6
Continuous
 62
     7
370
    30
100
AcDbSpline
210
0.0
220
0.0
230
1.0
 70
     8
 71
     3
 72
    12
 73
     8
 74
     0
 42
0.000000001
 43
0.00000001
 40
0.0
 40
0.0
 40
0.0
 40
0.0
 40
0.1252899004110623
 40
0.2505312507932875
 40
0.5004776080238097
 40
0.7502091690074247
 40
1.0
 40
1.0
 40
1.0
 40
1.0
 10
112.4872080932364
 20
67.79713258802254
 30
0.0
 10
112.4631049689091
 20
67.81010431862263
 30
0.0
 10
112.4149080602524
 20
67.83604275325735
 30
0.0
 10
112.3151315779017
 20
67.8744943297852
 30
0.0
 10
112.1861483852812
 20
67.8962712011074
 30
0.0
 10
112.0317794800101
 20
67.86586659830138
 30
0.0
 10
111.9465025135963
 20
67.79945309067304
 30
0.0
 10
111.9038589711903
 20
67.76624239676605
 30
0.0
  0
SPLINE
  5
31E
330
1F
100
AcDbEntity
  8
0
  6
Continuous
 62
     7
370
    30
100
AcDbSpline
210
0.0
220
0.0
230
1.0
 70
     8
 71
     3
 72
     9
 73
     5
 74
     0
 42
0.000000001
 43
0.00000001
 40
0.0
 40
0.0
 40
0.0
 40
0.0
 40
0.4999987697799366
 40
1.0
 40
1.0
 40
1.0
 40
1.0
 10
112.5869185707853
 20
67.72759976407964
 30
0.0
 10
112.5707871857619
 20
67.74042876246902
 30
0.0
 10
112.5385243363344
 20
67.7660868223779
 30
0.0
 10
112.5043135356603
 20
67.78678398249961
 30
0.0
 10
112.4872080932364
 20
67.79713258802254
 30
0.0
  0
ARC
  5
31F
330
1F
100
AcDbEntity
  8
0
  6
Continuous
 62
     7
370
    30
100
AcDbCircle
 10
120.4862858507
 20
65.1767863218
 30
0.0
 40
8.301003110528146
100
AcDbArc
 50
162.1040241133
 51
170.7406761209
  0
LINE
  5
320
330
1F
100
AcDbEntity
  8
0
  6
Continuous
 62
     7
370
    30
100
AcDbLine
 10
113.816968775
 20
62.9984740242
 30
0.0
 11
113.3162952916
 21
63.2627906931
 31
0.0
  0
ARC
  5
321
330
1F
100
AcDbEntity
  8
0
  6
Continuous
 62
     7
370
    30
100
AcDbCircle
 10
117.0039148862
 20
64.5087939807
 30
0.0
 40
3.526711199831644
100
AcDbArc
 50
187.8955228688
 51
205.3566577174
  0
LINE
  5
322
330
1F
100
AcDbEntity
  8
0
  6
Continuous
 62
     7
370
    30
100
AcDbLine
 10
113.4260833427
 20
64.0731510534
 30
0.0
 11
113.5106362024
 21
64.0243397265
 31
0.0
  0
ARC
  5
323
330
1F
100
AcDbEntity
  8
0
  6
Continuous
 62
     7
370
    30
100
AcDbCircle
 10
117.7165814635
 20
64.7151401009
 30
0.0
 40
4.33826279307108
100
AcDbArc
 50
188.510055227
 51
189.395281901
  0
SPLINE
  5
324
330
1F
100
AcDbEntity
  8
0
  6
Continuous
 62
     7
370
    30
100
AcDbSpline
210
0.0
220
0.0
230
1.0
 70
     8
 71
     3
 72
    13
 73
     9
 74
     0
 42
0.000000001
 43
0.00000001
 40
0.0
 40
0.0
 40
0.0
 40
0.0
 40
0.2500397820817937
 40
0.3777937795574163
 40
0.500000112887772
 40
0.6221700942841457
 40
0.7499621574998215
 40
1.0
 40
1.0
 40
1.0
 40
1.0
 10
113.3587875686676
 20
63.96390811300379
 30
0.0
 10
113.3715813634181
 20
63.95713458651553
 30
0.0
 10
113.3909119516686
 20
63.94690023039977
 30
0.0
 10
113.4130342944527
 20
63.94313680133043
 30
0.0
 10
113.4261755959023
 20
63.94623814270523
 30
0.0
 10
113.4349991735599
 20
63.9552594353684
 30
0.0
 10
113.4404791032043
 20
63.97428292368192
 30
0.0
 10
113.4380929338455
 20
63.99393582850513
 30
0.0
 10
113.4365138300497
 20
64.00694160133177
 30
0.0
  0
LINE
  5
325
330
1F
100
AcDbEntity
  8
0
  6
Continuous
 62
     7
370
    30
100
AcDbLine
 10
111.7628523408
 20
64.8852219093
 30
0.0
 11
113.3587875687
 21
63.963908113
 31
0.0
  0
SPLINE
  5
326
330
1F
100
AcDbEntity
  8
0
  6
Continuous
 62
     7
370
    30
100
AcDbSpline
210
0.0
220
0.0
230
1.0
 70
     8
 71
     3
 72
    13
 73
     9
 74
     0
 42
0.000000001
 43
0.00000001
 40
0.0
 40
0.0
 40
0.0
 40
0.0
 40
0.1251906917028248
 40
0.2501755277645317
 40
0.3687809784210364
 40
0.4998739120364356
 40
0.7494316164358891
 40
1.0
 40
1.0
 40
1.0
 40
1.0
 10
111.6080582379019
 20
65.06248654677275
 30
0.0
 10
111.6097368533444
 20
65.05407639512117
 30
0.0
 10
111.6130913240207
 20
65.03726992093853
 30
0.0
 10
111.6257898853929
 20
65.00944790521648
 30
0.0
 10
111.6440417417719
 20
64.98151135625409
 30
0.0
 10
111.6738673814443
 20
64.94785452175358
 30
0.0
 10
111.7151626137302
 20
64.91410821162566
 30
0.0
 10
111.7469343631698
 20
64.89486364020676
 30
0.0
 10
111.7628523408392
 20
64.88522190931354
 30
0.0
  0
ARC
  5
327
330
1F
100
AcDbEntity
  8
0
  6
Continuous
 62
     7
370
    30
100
AcDbCircle
 10
115.8971646825
 20
65.7721289089
 30
0.0
 40
4.347416057273164
100
AcDbArc
 50
188.3632943131
 51
189.3946091758
  0
LINE
  5
328
330
1F
100
AcDbEntity
  8
0
  6
Continuous
 62
     7
370
    30
100
AcDbLine
 10
111.5114274231
 20
65.1886118915
 30
0.0
 11
111.5959802828
 21
65.1398005645
 31
0.0
  0
ARC
  5
329
330
1F
100
AcDbEntity
  8
0
  6
Continuous
 62
     7
370
    30
100
AcDbCircle
 10
115.006241045
 20
65.6627378648
 30
0.0
 40
3.52682827628392
100
AcDbArc
 50
187.7258977231
 51
205.526282863
  0
LINE
  5
32A
330
1F
100
AcDbEntity
  8
0
  6
Continuous
 62
     7
370
    30
100
AcDbLine
 10
112.4172589354
 20
63.7400902941
 30
0.0
 11
111.8236745734
 21
64.1429390807
 31
0.0
  0
ARC
  5
32B
330
1F
100
AcDbEntity
  8
0
  6
Continuous
 62
     7
370
    30
100
AcDbCircle
 10
114.8462396232
 20
65.0426886312
 30
0.0
 40
2.756212910789411
100
AcDbArc
 50
206.8060284725
 51
208.203486733
  0
SPLINE
  5
32C
330
1F
100
AcDbEntity
  8
0
  6
Continuous
 62
     7
370
    30
100
AcDbSpline
210
0.0
220
0.0
230
1.0
 70
     8
 71
     3
 72
     9
 73
     5
 74
     0
 42
0.000000001
 43
0.00000001
 40
0.0
 40
0.0
 40
0.0
 40
0.0
 40
0.4986144763497192
 40
1.0
 40
1.0
 40
1.0
 40
1.0
 10
111.9512915166538
 20
64.17388027789079
 30
0.0
 10
112.0211421418707
 20
64.10547585935447
 30
0.0
 10
112.1612315867828
 20
63.96828686508964
 30
0.0
 10
112.3110813382342
 20
63.8560095234174
 30
0.0
 10
112.3862138343346
 20
63.799715289669
 30
0.0
  0
SPLINE
  5
32D
330
1F
100
AcDbEntity
  8
0
  6
Continuous
 62
     7
370
    30
100
AcDbSpline
210
0.0
220
0.0
230
1.0
 70
     8
 71
     3
 72
    10
 73
     6
 74
     0
 42
0.000000001
 43
0.00000001
 40
0.0
 40
0.0
 40
0.0
 40
0.0
 40
0.5000170001944335
 40
0.750170082176677
 40
1.0
 40
1.0
 40
1.0
 40
1.0
 10
111.715854773616
 20
64.59008725102784
 30
0.0
 10
111.7392416473465
 20
64.52384489776502
 30
0.0
 10
111.774328720349
 20
64.42446221363342
 30
0.0
 10
111.8614133521127
 20
64.28186891975533
 30
0.0
 10
111.9213450407616
 20
64.20986097772746
 30
0.0
 10
111.9512915166538
 20
64.17388027789079
 30
0.0
  0
SPLINE
  5
32E
330
1F
100
AcDbEntity
  8
0
  6
Continuous
 62
     7
370
    30
100
AcDbSpline
210
0.0
220
0.0
230
1.0
 70
     8
 71
     3
 72
    12
 73
     8
 74
     0
 42
0.000000001
 43
0.00000001
 40
0.0
 40
0.0
 40
0.0
 40
0.0
 40
0.2496287499908494
 40
0.373864578912407
 40
0.4999453472919817
 40
0.7493860021096314
 40
0.9999999999999999
 40
0.9999999999999999
 40
0.9999999999999999
 40
0.9999999999999999
 10
111.8089853949318
 20
64.67366769242558
 30
0.0
 10
111.7883703471183
 20
64.68427085039333
 30
0.0
 10
111.7574955533683
 20
64.7001510131907
 30
0.0
 10
111.7267188539677
 20
64.69967229193063
 30
0.0
 10
111.706323832203
 20
64.68582388021667
 30
0.0
 10
111.7010205557537
 20
64.64772130005436
 30
0.0
 10
111.710902305385
 20
64.6093286292706
 30
0.0
 10
111.715854773616
 20
64.59008725102784
 30
0.0
  0
LINE
  5
32F
330
1F
100
AcDbEntity
  8
0
  6
Continuous
 62
     7
370
    30
100
AcDbLine
 10
112.5910993476
 20
64.2221629181
 30
0.0
 11
111.8089853949
 21
64.6736676924
 31
0.0
  0
ARC
  5
330
330
1F
100
AcDbEntity
  8
0
  6
Continuous
 62
     7
370
    30
100
AcDbCircle
 10
116.1018570346
 20
65.0889615611
 30
0.0
 40
3.616180225605849
100
AcDbArc
 50
193.868838768
 51
197.367055845
  0
SPLINE
  5
331
330
1F
100
AcDbEntity
  8
0
  6
Continuous
 62
     7
370
    30
100
AcDbSpline
210
0.0
220
0.0
230
1.0
 70
     8
 71
     3
 72
    10
 73
     6
 74
     0
 42
0.000000001
 43
0.00000001
 40
0.0
 40
0.0
 40
0.0
 40
0.0
 40
0.2504254912418437
 40
0.5003240958740152
 40
1.0
 40
1.0
 40
1.0
 40
1.0
 10
112.627295213702
 20
63.93822565381872
 30
0.0
 10
112.635633587181
 20
63.93738210457789
 30
0.0
 10
112.6522927904884
 20
63.93569678089478
 30
0.0
 10
112.6642173075926
 20
63.95835958816247
 30
0.0
 10
112.6560051488239
 20
63.9890810937548
 30
0.0
 10
112.650530819308
 20
64.00956044024217
 30
0.0
  0
LINE
  5
332
330
1F
100
AcDbEntity
  8
0
  6
Continuous
 62
     7
370
    30
100
AcDbLine
 10
112.4364969473
 20
64.031108092
 30
0.0
 11
112.6272952137
 21
63.9382256538
 31
0.0
  0
LINE
  5
333
330
1F
100
AcDbEntity
  8
0
  6
Continuous
 62
     7
370
    30
100
AcDbLine
 10
112.3441151191
 20
64.0844389863
 30
0.0
 11
112.4364969473
 21
64.031108092
 31
0.0
  0
ARC
  5
334
330
1F
100
AcDbEntity
  8
0
  6
Continuous
 62
     7
370
    30
100
AcDbCircle
 10
115.3707376889
 20
65.1659473836
 30
0.0
 40
3.214048007371944
100
AcDbArc
 50
199.663422923
 51
201.104999274
  0
LINE
  5
335
330
1F
100
AcDbEntity
  8
0
  6
Continuous
 62
     7
370
    30
100
AcDbLine
 10
113.1199476988
 20
63.5770200505
 30
0.0
 11
112.3722812075
 21
64.0086387287
 31
0.0
  0
ARC
  5
336
330
1F
100
AcDbEntity
  8
0
  6
Continuous
 62
     7
370
    30
100
AcDbCircle
 10
116.1184041802
 20
64.7343287054
 30
0.0
 40
3.214048007300984
100
AcDbArc
 50
199.663422923
 51
201.1049992741
  0
LINE
  5
337
330
1F
100
AcDbEntity
  8
0
  6
Continuous
 62
     7
370
    30
100
AcDbLine
 10
112.9676924597
 20
63.72445545
 30
0.0
 11
113.0917816104
 21
63.6528203081
 31
0.0
  0
SPLINE
  5
338
330
1F
100
AcDbEntity
  8
0
  6
Continuous
 62
     7
370
    30
100
AcDbSpline
210
0.0
220
0.0
230
1.0
 70
     8
 71
     3
 72
     9
 73
     5
 74
     0
 42
0.000000001
 43
0.00000001
 40
0.0
 40
0.0
 40
0.0
 40
0.0
 40
0.4987750160155456
 40
1.0
 40
1.0
 40
1.0
 40
1.0
 10
112.8262413649554
 20
63.82138548767686
 30
0.0
 10
112.8503435838176
 20
63.80233786497816
 30
0.0
 10
112.8986664109205
 20
63.76414905822745
 30
0.0
 10
112.9446462271011
 20
63.73770824577701
 30
0.0
 10
112.9676924597298
 20
63.72445544998001
 30
0.0
  0
SPLINE
  5
339
330
1F
100
AcDbEntity
  8
0
  6
Continuous
 62
     7
370
    30
100
AcDbSpline
210
0.0
220
0.0
230
1.0
 70
     8
 71
     3
 72
    10
 73
     6
 74
     0
 42
0.000000001
 43
0.00000001
 40
0.0
 40
0.0
 40
0.0
 40
0.0
 40
0.4989775873245514
 40
0.7492022571777339
 40
1.0
 40
1.0
 40
1.0
 40
1.0
 10
112.7323435400871
 20
63.96233096184415
 30
0.0
 10
112.7408983646276
 20
63.93990501788606
 30
0.0
 10
112.7537432178202
 20
63.90623302888386
 30
0.0
 10
112.7914906695849
 20
63.85532542803438
 30
0.0
 10
112.8146489702893
 20
63.83270742467329
 30
0.0
 10
112.8262413649553
 20
63.82138548767688
 30
0.0
  0
ARC
  5
33A
330
1F
100
AcDbEntity
  8
0
  6
Continuous
 62
     7
370
    30
100
AcDbCircle
 10
116.1836697554
 20
65.0417320827
 30
0.0
 40
3.616180225588939
100
AcDbArc
 50
193.868838768
 51
197.367055845
  0
LINE
  5
33B
330
1F
100
AcDbEntity
  8
0
  6
Continuous
 62
     7
370
    30
100
AcDbLine
 10
113.4049206228
 20
63.7523538961
 30
0.0
 11
112.6729120684
 21
64.1749334397
 31
0.0
  0
SPLINE
  5
33C
330
1F
100
AcDbEntity
  8
0
  6
Continuous
 62
     7
370
    30
100
AcDbSpline
210
0.0
220
0.0
230
1.0
 70
     8
 71
     3
 72
    12
 73
     8
 74
     0
 42
0.000000001
 43
0.00000001
 40
0.0
 40
0.0
 40
0.0
 40
0.0
 40
0.4998845273982008
 40
0.6349964659085873
 40
0.7502637530720702
 40
0.8750274787511316
 40
1.0
 40
1.0
 40
1.0
 40
1.0
 10
113.5472926420762
 20
63.52455507191271
 30
0.0
 10
113.5357032798824
 20
63.56151077115589
 30
0.0
 10
113.5209814718811
 20
63.60845508955026
 30
0.0
 10
113.4849518047925
 20
63.67252177463855
 30
0.0
 10
113.4617794804661
 20
63.70456908048633
 30
0.0
 10
113.4340065833889
 20
63.73372254880219
 30
0.0
 10
113.4146213454051
 20
63.74613998641902
 30
0.0
 10
113.4049206227602
 20
63.75235389611582
 30
0.0
  0
SPLINE
  5
33D
330
1F
100
AcDbEntity
  8
0
  6
Continuous
 62
     7
370
    30
100
AcDbSpline
210
0.0
220
0.0
230
1.0
 70
     8
 71
     3
 72
     9
 73
     5
 74
     0
 42
0.000000001
 43
0.00000001
 40
0.0
 40
0.0
 40
0.0
 40
0.0
 40
0.4991992743863469
 40
1.0
 40
1.0
 40
1.0
 40
1.0
 10
113.5543070066145
 20
63.28325012089087
 30
0.0
 10
113.5667794981551
 20
63.31023245368917
 30
0.0
 10
113.5917644934878
 20
63.36428367968796
 30
0.0
 10
113.5621324106585
 20
63.47107426786496
 30
0.0
 10
113.5472926420762
 20
63.52455507191271
 30
0.0
  0
SPLINE
  5
33E
330
1F
100
AcDbEntity
  8
0
  6
Continuous
 62
     7
370
    30
100
AcDbSpline
210
0.0
220
0.0
230
1.0
 70
     8
 71
     3
 72
    10
 73
     6
 74
     0
 42
0.000000001
 43
0.00000001
 40
0.0
 40
0.0
 40
0.0
 40
0.0
 40
0.5003168568586811
 40
0.7504821019532343
 40
1.0
 40
1.0
 40
1.0
 40
1.0
 10
113.286425891866
 20
63.3237077373575
 30
0.0
 10
113.3392651393074
 20
63.30566570551116
 30
0.0
 10
113.418524730388
 20
63.27860241192448
 30
0.0
 10
113.5103386667652
 20
63.26372584372136
 30
0.0
 10
113.5396635569439
 20
63.27674765181729
 30
0.0
 10
113.5543070066145
 20
63.28325012089087
 30
0.0
  0
ARC
  5
33F
330
1F
100
AcDbEntity
  8
0
  6
Continuous
 62
     7
370
    30
100
AcDbCircle
 10
115.8453329638
 20
64.5406329107
 30
0.0
 40
2.833533532592444
100
AcDbArc
 50
205.4340982519
 51
206.8060167564
  0
LINE
  5
340
330
1F
100
AcDbEntity
  8
0
  6
Continuous
 62
     7
370
    30
100
AcDbLine
 10
113.5630530358
 20
62.6782065678
 30
0.0
 11
113.4601021001
 21
62.737638878
 31
0.0
  0
ARC
  5
341
330
1F
100
AcDbEntity
  8
0
  6
Continuous
 62
     7
370
    30
100
AcDbCircle
 10
114.7886140839
 20
64.4873203461
 30
0.0
 40
2.185152751035674
100
AcDbArc
 50
211.5969099713
 51
235.8848245795
  0
LINE
  5
342
330
1F
100
AcDbEntity
  8
0
  6
Continuous
 62
     7
370
    30
100
AcDbLine
 10
112.824447947
 20
63.4018637882
 30
0.0
 11
112.9273988827
 21
63.342431478
 31
0.0
  0
ARC
  5
343
330
1F
100
AcDbEntity
  8
0
  6
Continuous
 62
     7
370
    30
100
AcDbCircle
 10
114.6856631481
 20
64.5467526563
 30
0.0
 40
2.185152751035774
100
AcDbArc
 50
211.5969099713
 51
235.8848245795
  0
LWPOLYLINE
  5
344
330
1F
100
AcDbEntity
  8
0
  6
Continuous
 62
     7
370
    30
100
AcDbPolyline
 90
       20
 70
   128
 43
0.0
 10
106.0506468537
 20
69.611256345
 10
106.0742113905
 20
70.1094047529
 10
106.1446086633
 20
70.6284956906
 10
106.2609533854
 20
71.1620012885
 10
106.4217824545
 20
71.703212404
 10
106.6250733517
 20
72.2453229934
 10
106.8682695761
 20
72.7815157015
 10
107.148312794
 20
73.3050475938
 10
107.4616812994
 20
73.8093349531
 10
107.8044343017
 20
74.2880360732
 10
108.1722614828
 20
74.7351310098
 10
108.5605372027
 20
75.1449972847
 10
108.9643786688
 20
75.5124805915
 10
109.3787073404
 20
75.8329596146
 10
109.798312794
 20
76.1024041443
 10
110.2179182476
 20
76.3174257592
 10
110.6322469192
 20
76.4753204379
 10
111.0360883853
 20
76.574102563
 10
111.4243641051
 20
76.6125298921
 10
111.608883653
 20
76.6090652938
  0
ARC
  5
345
330
1F
100
AcDbEntity
  8
0
  6
Continuous
 62
     7
370
    30
100
AcDbCircle
 10
109.3407694502
 20
69.4832097946
 30
0.0
 40
3.292613341893874
100
AcDbArc
 50
177.771260499
 51
210.9618966749
  0
SPLINE
  5
346
330
1F
100
AcDbEntity
  8
0
  6
Continuous
 62
     7
370
    30
100
AcDbSpline
210
0.0
220
0.0
230
1.0
 70
     8
 71
     3
 72
    10
 73
     6
 74
     0
 42
0.000000001
 43
0.00000001
 40
0.0
 40
0.0
 40
0.0
 40
0.0
 40
0.4989928228874377
 40
0.7494129155162779
 40
1.0
 40
1.0
 40
1.0
 40
1.0
 10
115.1188975768434
 20
69.82375220911649
 30
0.0
 10
115.1021203059296
 20
69.83611616549273
 30
0.0
 10
115.0769233433016
 20
69.85468498686696
 30
0.0
 10
115.0589107257762
 20
69.89308491103837
 30
0.0
 10
115.0550744398821
 20
69.9144574473406
 30
0.0
 10
115.0531556575944
 20
69.92514727735633
 30
0.0
  0
SPLINE
  5
347
330
1F
100
AcDbEntity
  8
0
  6
Continuous
 62
     7
370
    30
100
AcDbSpline
210
0.0
220
0.0
230
1.0
 70
     8
 71
     3
 72
    10
 73
     6
 74
     0
 42
0.000000001
 43
0.00000001
 40
0.0
 40
0.0
 40
0.0
 40
0.0
 40
0.4993087938144601
 40
0.7495041008620331
 40
1.0
 40
1.0
 40
1.0
 40
1.0
 10
115.0531556575944
 20
69.92514727735633
 30
0.0
 10
115.0527503948605
 20
69.94790569021718
 30
0.0
 10
115.0521420617313
 20
69.98206796410388
 30
0.0
 10
115.0703796511215
 20
70.02812674676312
 30
0.0
 10
115.08431545515
 20
70.04918314175345
 30
0.0
 10
115.0912875403739
 20
70.05971765989665
 30
0.0
  0
SPLINE
  5
348
330
1F
100
AcDbEntity
  8
0
  6
Continuous
 62
     7
370
    30
100
AcDbSpline
210
0.0
220
0.0
230
1.0
 70
     8
 71
     3
 72
    10
 73
     6
 74
     0
 42
0.000000001
 43
0.00000001
 40
0.0
 40
0.0
 40
0.0
 40
0.0
 40
0.4984855822720855
 40
0.7489810961414964
 40
1.0
 40
1.0
 40
1.0
 40
1.0
 10
115.0912875403738
 20
70.05971765989666
 30
0.0
 10
115.1084360282796
 20
70.07909085492788
 30
0.0
 10
115.1342018552675
 20
70.10819933342013
 30
0.0
 10
115.1796611061947
 20
70.13288500186599
 30
0.0
 10
115.2033615254604
 20
70.1403196417921
 30
0.0
 10
115.2152241021975
 20
70.144040841221
 30
0.0
  0
SPLINE
  5
349
330
1F
100
AcDbEntity
  8
0
  6
Continuous
 62
     7
370
    30
100
AcDbSpline
210
0.0
220
0.0
230
1.0
 70
     8
 71
     3
 72
    10
 73
     6
 74
     0
 42
0.000000001
 43
0.00000001
 40
0.0
 40
0.0
 40
0.0
 40
0.0
 40
0.4986071967142264
 40
0.7491066200789752
 40
1.0
 40
1.0
 40
1.0
 40
1.0
 10
115.2152241021975
 20
70.144040841221
 30
0.0
 10
115.2390207854369
 20
70.14837263021899
 30
0.0
 10
115.2747728826149
 20
70.15488070277902
 30
0.0
 10
115.3183540295153
 20
70.14540540358712
 30
0.0
 10
115.3370611609588
 20
70.13583917634676
 30
0.0
 10
115.3464220760052
 20
70.13105230451754
 30
0.0
  0
LINE
  5
34A
330
1F
100
AcDbEntity
  8
0
  6
Continuous
 62
     7
370
    30
100
AcDbLine
 10
115.346422076
 20
70.1310523045
 30
0.0
 11
115.3914124548
 21
70.0899189767
 31
0.0
  0
SPLINE
  5
34B
330
1F
100
AcDbEntity
  8
0
  6
Continuous
 62
     7
370
    30
100
AcDbSpline
210
0.0
220
0.0
230
1.0
 70
     8
 71
     3
 72
     9
 73
     5
 74
     0
 42
0.000000001
 43
0.00000001
 40
0.0
 40
0.0
 40
0.0
 40
0.0
 40
0.2710602578969779
 40
0.9999999999999999
 40
0.9999999999999999
 40
0.9999999999999999
 40
0.9999999999999999
 10
113.2265988123133
 20
68.10751740306264
 30
0.0
 10
113.2183959657266
 20
68.10771481765943
 30
0.0
 10
113.1881338880237
 20
68.1084431228647
 30
0.0
 10
113.1604250674817
 20
68.12300447834188
 30
0.0
 10
113.1402270069819
 20
68.13361882904812
 30
0.0
  0
SPLINE
  5
34C
330
1F
100
AcDbEntity
  8
0
  6
Continuous
 62
     7
370
    30
100
AcDbSpline
210
0.0
220
0.0
230
1.0
 70
     8
 71
     3
 72
    10
 73
     6
 74
     0
 42
0.000000001
 43
0.00000001
 40
0.0
 40
0.0
 40
0.0
 40
0.0
 40
0.4993303514642991
 40
0.7495705189926728
 40
1.0
 40
1.0
 40
1.0
 40
1.0
 10
113.1402270069819
 20
68.13361882904812
 30
0.0
 10
113.1207594307127
 20
68.14754942596967
 30
0.0
 10
113.091535648892
 20
68.16846136279419
 30
0.0
 10
113.0644712804764
 20
68.21339924920142
 30
0.0
 10
113.0555595055388
 20
68.23900357914665
 30
0.0
 10
113.0511019332075
 20
68.25181058488083
 30
0.0
  0
SPLINE
  5
34D
330
1F
100
AcDbEntity
  8
0
  6
Continuous
 62
     7
370
    30
100
AcDbSpline
210
0.0
220
0.0
230
1.0
 70
     8
 71
     3
 72
     9
 73
     5
 74
     0
 42
0.000000001
 43
0.00000001
 40
0.0
 40
0.0
 40
0.0
 40
0.0
 40
0.4998243176814157
 40
1.0
 40
1.0
 40
1.0
 40
1.0
 10
113.0511019332075
 20
68.25181058488083
 30
0.0
 10
113.0517794074259
 20
68.27522570412609
 30
0.0
 10
113.0531348321111
 20
68.3220724028899
 30
0.0
 10
113.0692140864922
 20
68.36566310245554
 30
0.0
 10
113.0772565385235
 20
68.38746611035351
 30
0.0
  0
SPLINE
  5
34E
330
1F
100
AcDbEntity
  8
0
  6
Continuous
 62
     7
370
    30
100
AcDbSpline
210
0.0
220
0.0
230
1.0
 70
     8
 71
     3
 72
    10
 73
     6
 74
     0
 42
0.000000001
 43
0.00000001
 40
0.0
 40
0.0
 40
0.0
 40
0.0
 40
0.4985586100985079
 40
0.7490373699254156
 40
1.0
 40
1.0
 40
1.0
 40
1.0
 10
113.0772565385235
 20
68.38746611035351
 30
0.0
 10
113.0879164228458
 20
68.40779459582926
 30
0.0
 10
113.1039318953595
 20
68.43833623122958
 30
0.0
 10
113.1362313686043
 20
68.46683548390077
 30
0.0
 10
113.1542284879145
 20
68.47600156844015
 30
0.0
 10
113.1632357308084
 20
68.48058903315649
 30
0.0
  0
SPLINE
  5
34F
330
1F
100
AcDbEntity
  8
0
  6
Continuous
 62
     7
370
    30
100
AcDbSpline
210
0.0
220
0.0
230
1.0
 70
     8
 71
     3
 72
    10
 73
     6
 74
     0
 42
0.000000001
 43
0.00000001
 40
0.0
 40
0.0
 40
0.0
 40
0.0
 40
0.4984413425331996
 40
0.7490460155127633
 40
1.0
 40
1.0
 40
1.0
 40
1.0
 10
113.1632357308084
 20
68.48058903315649
 30
0.0
 10
113.1800370363251
 20
68.48714992452474
 30
0.0
 10
113.2052856460988
 20
68.49700947893615
 30
0.0
 10
113.2397229683107
 20
68.49363526512221
 30
0.0
 10
113.2552450368969
 20
68.4861422011872
 30
0.0
 10
113.2630114763776
 20
68.4823930599402
 30
0.0
  0
SPLINE
  5
350
330
1F
100
AcDbEntity
  8
0
  6
Continuous
 62
     7
370
    30
100
AcDbSpline
210
0.0
220
0.0
230
1.0
 70
     8
 71
     3
 72
    13
 73
     9
 74
     0
 42
0.000000001
 43
0.00000001
 40
0.0
 40
0.0
 40
0.0
 40
0.0
 40
0.0627752438004748
 40
0.1253014361070414
 40
0.1855893797263624
 40
0.2505522962299427
 40
0.4999185670824782
 40
1.0
 40
1.0
 40
1.0
 40
1.0
 10
113.3499321335582
 20
68.34783036516592
 30
0.0
 10
113.3561582270625
 20
68.34507500622026
 30
0.0
 10
113.3685857129662
 20
68.33957521980797
 30
0.0
 10
113.3889353398787
 20
68.3393516524759
 30
0.0
 10
113.4090234125812
 20
68.34616874835419
 30
0.0
 10
113.446510102202
 20
68.36972575634417
 30
0.0
 10
113.5119154135247
 20
68.45354473867154
 30
0.0
 10
113.5554352429387
 20
68.54268551545525
 30
0.0
 10
113.5844745722264
 20
68.60216617989806
 30
0.0
  0
SPLINE
  5
351
330
1F
100
AcDbEntity
  8
0
  6
Continuous
 62
     7
370
    30
100
AcDbSpline
210
0.0
220
0.0
230
1.0
 70
     8
 71
     3
 72
    10
 73
     6
 74
     0
 42
0.000000001
 43
0.00000001
 40
0.0
 40
0.0
 40
0.0
 40
0.0
 40
0.2504018255677415
 40
0.5007926159401447
 40
1.0
 40
1.0
 40
1.0
 40
1.0
 10
113.5844745722264
 20
68.60216617989806
 30
0.0
 10
113.6005553176956
 20
68.64089847916227
 30
0.0
 10
113.6327160999564
 20
68.71836137076033
 30
0.0
 10
113.6636152001416
 20
68.88553627527895
 30
0.0
 10
113.6426364565816
 20
69.00273043756015
 30
0.0
 10
113.6286653130401
 20
69.08077784105573
 30
0.0
  0
SPLINE
  5
352
330
1F
100
AcDbEntity
  8
0
  6
Continuous
 62
     7
370
    30
100
AcDbSpline
210
0.0
220
0.0
230
1.0
 70
     8
 71
     3
 72
     9
 73
     5
 74
     0
 42
0.000000001
 43
0.00000001
 40
0.0
 40
0.0
 40
0.0
 40
0.0
 40
0.4991702545949538
 40
1.0
 40
1.0
 40
1.0
 40
1.0
 10
113.6286653130401
 20
69.08077784105573
 30
0.0
 10
113.5938870958392
 20
69.1709057069225
 30
0.0
 10
113.5242150413033
 20
69.3514610686195
 30
0.0
 10
113.3773743386229
 20
69.45076328281536
 30
0.0
 10
113.3038321468844
 20
69.50049678546921
 30
0.0
  0
LINE
  5
353
330
1F
100
AcDbEntity
  8
0
  6
Continuous
 62
     7
370
    30
100
AcDbLine
 10
113.3038321469
 20
69.5004967855
 30
0.0
 11
113.2459927753
 21
69.5239001945
 31
0.0
  0
SPLINE
  5
354
330
1F
100
AcDbEntity
  8
0
  6
Continuous
 62
     7
370
    30
100
AcDbSpline
210
0.0
220
0.0
230
1.0
 70
     8
 71
     3
 72
     9
 73
     5
 74
     0
 42
0.000000001
 43
0.00000001
 40
0.0
 40
0.0
 40
0.0
 40
0.0
 40
0.5015166196691726
 40
0.9999999999999999
 40
0.9999999999999999
 40
0.9999999999999999
 40
0.9999999999999999
 10
112.4162095765121
 20
68.4352015256198
 30
0.0
 10
112.3684345045595
 20
68.50591157177799
 30
0.0
 10
112.273173310655
 20
68.6469040003137
 30
0.0
 10
112.2371629452788
 20
68.82675657364915
 30
0.0
 10
112.2192123766191
 20
68.9164100923666
 30
0.0
  0
SPLINE
  5
355
330
1F
100
AcDbEntity
  8
0
  6
Continuous
 62
     7
370
    30
100
AcDbSpline
210
0.0
220
0.0
230
1.0
 70
     8
 71
     3
 72
     9
 73
     5
 74
     0
 42
0.000000001
 43
0.00000001
 40
0.0
 40
0.0
 40
0.0
 40
0.0
 40
0.4997539695537723
 40
1.0
 40
1.0
 40
1.0
 40
1.0
 10
112.2192123766191
 20
68.9164100923666
 30
0.0
 10
112.2213991026741
 20
69.00248743188774
 30
0.0
 10
112.2257747078483
 20
69.17472686321838
 30
0.0
 10
112.2931402862516
 20
69.3338036544687
 30
0.0
 10
112.3268396494366
 20
69.41338118782781
 30
0.0
  0
SPLINE
  5
356
330
1F
100
AcDbEntity
  8
0
  6
Continuous
 62
     7
370
    30
100
AcDbSpline
210
0.0
220
0.0
230
1.0
 70
     8
 71
     3
 72
     9
 73
     5
 74
     0
 42
0.000000001
 43
0.00000001
 40
0.0
 40
0.0
 40
0.0
 40
0.0
 40
0.4998482905843085
 40
1.0
 40
1.0
 40
1.0
 40
1.0
 10
112.3268396494366
 20
69.41338118782781
 30
0.0
 10
112.3839567483121
 20
69.50988237705934
 30
0.0
 10
112.4982256173899
 20
69.70294333385229
 30
0.0
 10
112.6855173176331
 20
69.792804166824
 30
0.0
 10
112.7791915816691
 20
69.83774821604433
 30
0.0
  0
SPLINE
  5
357
330
1F
100
AcDbEntity
  8
0
  6
Continuous
 62
     7
370
    30
100
AcDbSpline
210
0.0
220
0.0
230
1.0
 70
     8
 71
     3
 72
    10
 73
     6
 74
     0
 42
0.000000001
 43
0.00000001
 40
0.0
 40
0.0
 40
0.0
 40
0.0
 40
0.2497512502456617
 40
0.4999388082228851
 40
1.0
 40
1.0
 40
1.0
 40
1.0
 10
112.7791915816691
 20
69.83774821604433
 30
0.0
 10
112.8377004336665
 20
69.85225519402299
 30
0.0
 10
112.9548203508212
 20
69.88129449322348
 30
0.0
 10
113.1855734489607
 20
69.85734979714186
 30
0.0
 10
113.335848886319
 20
69.78318887783885
 30
0.0
 10
113.4360115514682
 20
69.7337586086087
 30
0.0
  0
LINE
  5
358
330
1F
100
AcDbEntity
  8
0
  6
Continuous
 62
     7
370
    30
100
AcDbLine
 10
115.3389374325
 20
70.1405877119
 30
0.0
 11
115.346422076
 21
70.1310523045
 31
0.0
  0
LINE
  5
359
330
1F
100
AcDbEntity
  8
0
  6
Continuous
 62
     7
370
    30
100
AcDbLine
 10
115.0450174879
 20
69.933805094
 30
0.0
 11
115.0531556576
 21
69.9251472774
 31
0.0
  0
LINE
  5
35A
330
1F
100
AcDbEntity
  8
0
  6
Continuous
 62
     7
370
    30
100
AcDbLine
 10
115.1106519818
 20
69.832259857
 30
0.0
 11
115.1188975768
 21
69.8237522091
 31
0.0
  0
LINE
  5
35B
330
1F
100
AcDbEntity
  8
0
  6
Continuous
 62
     7
370
    30
100
AcDbLine
 10
115.2076279675
 20
70.1534307434
 30
0.0
 11
115.2152241022
 21
70.1440408412
 31
0.0
  0
LINE
  5
35C
330
1F
100
AcDbEntity
  8
0
  6
Continuous
 62
     7
370
    30
100
AcDbLine
 10
115.0834182948
 20
70.0687439204
 30
0.0
 11
115.0912875404
 21
70.0597176599
 31
0.0
  0
ARC
  5
35D
330
1F
100
AcDbEntity
  8
0
  6
Continuous
 62
     7
370
    30
100
AcDbCircle
 10
121.3552327544
 20
65.1349657775
 30
0.0
 40
9.962203999366917
100
AcDbArc
 50
140.8626755893
 51
146.1894701977
  0
LINE
  5
35E
330
1F
100
AcDbEntity
  8
0
  6
Continuous
 62
     7
370
    30
100
AcDbLine
 10
113.6281946818
 20
71.4229218167
 30
0.0
 11
113.7127475416
 21
71.3741104897
 31
0.0
  0
LINE
  5
35F
330
1F
100
AcDbEntity
  8
0
  6
Continuous
 62
     7
370
    30
100
AcDbLine
 10
113.6246854529
 20
71.0760240832
 30
0.0
 11
113.6725714194
 21
71.0302413606
 31
0.0
  0
LINE
  5
360
330
1F
100
AcDbEntity
  8
0
  6
Continuous
 62
     7
370
    30
100
AcDbLine
 10
113.6725714194
 20
71.0302413606
 30
0.0
 11
114.5047907704
 21
70.5498113554
 31
0.0
  0
SPLINE
  5
361
330
1F
100
AcDbEntity
  8
0
  6
Continuous
 62
     7
370
    30
100
AcDbSpline
210
0.0
220
0.0
230
1.0
 70
     8
 71
     3
 72
    12
 73
     8
 74
     0
 42
0.000000001
 43
0.00000001
 40
0.0
 40
0.0
 40
0.0
 40
0.0
 40
0.250627570709555
 40
0.500097720961276
 40
0.6266927912226274
 40
0.7502667932193703
 40
1.0
 40
1.0
 40
1.0
 40
1.0
 10
114.5047907704413
 20
70.54981135544762
 30
0.0
 10
114.5167599531873
 20
70.54376371743847
 30
0.0
 10
114.5406430439268
 20
70.53169636995146
 30
0.0
 10
114.5772056854951
 20
70.5279155953196
 30
0.0
 10
114.6073048602199
 20
70.53309415392137
 30
0.0
 10
114.6372108361454
 20
70.5439104242827
 30
0.0
 10
114.6572577662152
 20
70.55777279987291
 30
0.0
 10
114.6706686621602
 20
70.5670463832068
 30
0.0
  0
LINE
  5
362
330
1F
100
AcDbEntity
  8
0
  6
Continuous
 62
     7
370
    30
100
AcDbLine
 10
114.6706686622
 20
70.5670463832
 30
0.0
 11
114.8014323273
 21
70.7124710803
 31
0.0
  0
LINE
  5
363
330
1F
100
AcDbEntity
  8
0
  6
Continuous
 62
     7
370
    30
100
AcDbLine
 10
114.8014323273
 20
70.7124710803
 30
0.0
 11
114.888725326
 21
70.6620779048
 31
0.0
  0
LINE
  5
364
330
1F
100
AcDbEntity
  8
0
  6
Continuous
 62
     7
370
    30
100
AcDbLine
 10
113.6179898973
 20
69.0853260971
 30
0.0
 11
113.628665313
 21
69.0807778411
 31
0.0
  0
LINE
  5
365
330
1F
100
AcDbEntity
  8
0
  6
Continuous
 62
     7
370
    30
100
AcDbLine
 10
113.5731473224
 20
68.6054047035
 30
0.0
 11
113.5844745722
 21
68.6021661799
 31
0.0
  0
SPLINE
  5
366
330
1F
100
AcDbEntity
  8
0
  6
Continuous
 62
     7
370
    30
100
AcDbSpline
210
0.0
220
0.0
230
1.0
 70
     8
 71
     3
 72
     9
 73
     5
 74
     0
 42
0.000000001
 43
0.00000001
 40
0.0
 40
0.0
 40
0.0
 40
0.0
 40
0.497390358622309
 40
1.0
 40
1.0
 40
1.0
 40
1.0
 10
112.765836320071
 20
66.45962023911257
 30
0.0
 10
112.691308856191
 20
66.45005098199532
 30
0.0
 10
112.5414718869213
 20
66.43081205435753
 30
0.0
 10
112.3856288898709
 20
66.48829332542998
 30
0.0
 10
112.3073006970121
 20
66.51718396646963
 30
0.0
  0
ARC
  5
367
330
1F
100
AcDbEntity
  8
0
  6
Continuous
 62
     7
370
    30
100
AcDbCircle
 10
120.4728338841
 20
65.1859783635
 30
0.0
 40
8.273333100148756
100
AcDbArc
 50
162.1040241133
 51
170.7406761209
  0
SPLINE
  5
368
330
1F
100
AcDbEntity
  8
0
  6
Continuous
 62
     7
370
    30
100
AcDbSpline
210
0.0
220
0.0
230
1.0
 70
     8
 71
     3
 72
     9
 73
     5
 74
     0
 42
0.000000001
 43
0.00000001
 40
0.0
 40
0.0
 40
0.0
 40
0.0
 40
0.4999890549697142
 40
1.0
 40
1.0
 40
1.0
 40
1.0
 10
112.599797828385
 20
67.72828909435464
 30
0.0
 10
112.5836631043434
 20
67.7411082981689
 30
0.0
 10
112.5513929498644
 20
67.766747267036
 30
0.0
 10
112.5171822657854
 20
67.78744110462765
 30
0.0
 10
112.5000765493089
 20
67.79778824991817
 30
0.0
  0
SPLINE
  5
369
330
1F
100
AcDbEntity
  8
0
  6
Continuous
 62
     7
370
    30
100
AcDbSpline
210
0.0
220
0.0
230
1.0
 70
     8
 71
     3
 72
     9
 73
     5
 74
     0
 42
0.000000001
 43
0.00000001
 40
0.0
 40
0.0
 40
0.0
 40
0.0
 40
0.5004075265718909
 40
0.9999999999999999
 40
0.9999999999999999
 40
0.9999999999999999
 40
0.9999999999999999
 10
112.5000765493089
 20
67.79778824991817
 30
0.0
 10
112.4514331343126
 20
67.8233313768177
 30
0.0
 10
112.3542255336804
 20
67.87437602651455
 30
0.0
 10
112.2507812005746
 20
67.88328927126221
 30
0.0
 10
112.1991011903362
 20
67.88774226125197
 30
0.0
  0
LINE
  5
36A
330
1F
100
AcDbEntity
  8
0
  6
Continuous
 62
     7
370
    30
100
AcDbLine
 10
111.9126716589
 20
66.773739815
 30
0.0
 11
111.6883939775
 21
67.2513518768
 31
0.0
  0
SPLINE
  5
36B
330
1F
100
AcDbEntity
  8
0
  6
Continuous
 62
     7
370
    30
100
AcDbSpline
210
0.0
220
0.0
230
1.0
 70
     8
 71
     3
 72
     9
 73
     5
 74
     0
 42
0.000000001
 43
0.00000001
 40
0.0
 40
0.0
 40
0.0
 40
0.0
 40
0.4999334314029934
 40
1.0
 40
1.0
 40
1.0
 40
1.0
 10
111.6883939775495
 20
67.25135187678814
 30
0.0
 10
111.6744076677836
 20
67.32258112813692
 30
0.0
 10
111.64643132356
 20
67.4650585998853
 30
0.0
 10
111.6725961309451
 20
67.59993328215508
 30
0.0
 10
111.6856802763922
 20
67.66737960170833
 30
0.0
  0
SPLINE
  5
36C
330
1F
100
AcDbEntity
  8
0
  6
Continuous
 62
     7
370
    30
100
AcDbSpline
210
0.0
220
0.0
230
1.0
 70
     8
 71
     3
 72
     9
 73
     5
 74
     0
 42
0.000000001
 43
0.00000001
 40
0.0
 40
0.0
 40
0.0
 40
0.0
 40
0.5001957400523429
 40
0.9999999999999999
 40
0.9999999999999999
 40
0.9999999999999999
 40
0.9999999999999999
 10
111.6856802763922
 20
67.66737960170833
 30
0.0
 10
111.706913929758
 20
67.73554305997845
 30
0.0
 10
111.7493646178897
 20
67.87181662812795
 30
0.0
 10
111.8374687049474
 20
67.967037435848
 30
0.0
 10
111.8815035029776
 20
68.01462920118215
 30
0.0
  0
SPLINE
  5
36D
330
1F
100
AcDbEntity
  8
0
  6
Continuous
 62
     7
370
    30
100
AcDbSpline
210
0.0
220
0.0
230
1.0
 70
     8
 71
     3
 72
    10
 73
     6
 74
     0
 42
0.000000001
 43
0.00000001
 40
0.0
 40
0.0
 40
0.0
 40
0.0
 40
0.499300007367399
 40
0.7495430759271849
 40
1.0
 40
1.0
 40
1.0
 40
1.0
 10
111.8815035029776
 20
68.01462920118215
 30
0.0
 10
111.9278186424872
 20
68.04779706130253
 30
0.0
 10
111.9973463645335
 20
68.09758824802336
 30
0.0
 10
112.1020587021619
 20
68.13219143703392
 30
0.0
 10
112.1559218412947
 20
68.13924414537522
 30
0.0
 10
112.1828649136865
 20
68.14277200569782
 30
0.0
  0
LINE
  5
36E
330
1F
100
AcDbEntity
  8
0
  6
Continuous
 62
     7
370
    30
100
AcDbLine
 10
112.1828649137
 20
68.1427720057
 30
0.0
 11
112.2319497599
 21
68.1385123415
 31
0.0
  0
SPLINE
  5
36F
330
1F
100
AcDbEntity
  8
0
  6
Continuous
 62
     7
370
    30
100
AcDbSpline
210
0.0
220
0.0
230
1.0
 70
     8
 71
     3
 72
    12
 73
     8
 74
     0
 42
0.000000001
 43
0.00000001
 40
0.0
 40
0.0
 40
0.0
 40
0.0
 40
0.2260045979228529
 40
0.479806803748706
 40
0.7396536054002256
 40
0.8698018272620113
 40
1.0
 40
1.0
 40
1.0
 40
1.0
 10
112.7689033485607
 20
66.65688268690178
 30
0.0
 10
112.7905998490383
 20
66.66361356783896
 30
0.0
 10
112.8366614276186
 20
66.67790319954808
 30
0.0
 10
112.8960764853854
 20
66.73292673323526
 30
0.0
 10
112.9347523113018
 20
66.79924135727452
 30
0.0
 10
112.9583913547868
 20
66.86028177662179
 30
0.0
 10
112.967250209475
 20
66.8931087580757
 30
0.0
 10
112.9716804866629
 20
66.90952539794647
 30
0.0
  0
SPLINE
  5
370
330
1F
100
AcDbEntity
  8
0
  6
Continuous
 62
     7
370
    30
100
AcDbSpline
210
0.0
220
0.0
230
1.0
 70
     8
 71
     3
 72
    10
 73
     6
 74
     0
 42
0.000000001
 43
0.00000001
 40
0.0
 40
0.0
 40
0.0
 40
0.0
 40
0.2501275146035811
 40
0.5003546082620675
 40
1.0
 40
1.0
 40
1.0
 40
1.0
 10
112.9716804866629
 20
66.90952539794645
 30
0.0
 10
112.977216225978
 20
66.93736809607239
 30
0.0
 10
112.9882899084587
 20
66.99306457686873
 30
0.0
 10
112.9879282039222
 20
67.11317826699727
 30
0.0
 10
112.9655231752431
 20
67.19998712148778
 30
0.0
 10
112.9505945446435
 20
67.25782848112283
 30
0.0
  0
SPLINE
  5
371
330
1F
100
AcDbEntity
  8
0
  6
Continuous
 62
     7
370
    30
100
AcDbSpline
210
0.0
220
0.0
230
1.0
 70
     8
 71
     3
 72
    10
 73
     6
 74
     0
 42
0.000000001
 43
0.00000001
 40
0.0
 40
0.0
 40
0.0
 40
0.0
 40
0.4991870000820025
 40
0.7494829962307901
 40
0.9999999999999999
 40
0.9999999999999999
 40
0.9999999999999999
 40
0.9999999999999999
 10
112.9505945446435
 20
67.25782848112283
 30
0.0
 10
112.9278203680306
 20
67.31846239448944
 30
0.0
 10
112.8936270534576
 20
67.40949859346046
 30
0.0
 10
112.8261658871118
 20
67.5121790401868
 30
0.0
 10
112.7874998057049
 20
67.55651839472264
 30
0.0
 10
112.7681582333753
 20
67.57869785541796
 30
0.0
  0
LINE
  5
372
330
1F
100
AcDbEntity
  8
0
  6
Continuous
 62
     7
370
    30
100
AcDbLine
 10
112.7681582334
 20
67.5786978554
 30
0.0
 11
112.682751593
 21
67.6643067971
 31
0.0
  0
LINE
  5
373
330
1F
100
AcDbEntity
  8
0
  6
Continuous
 62
     7
370
    30
100
AcDbLine
 10
113.3381385946
 20
68.3500346127
 30
0.0
 11
113.3499321336
 21
68.3478303652
 31
0.0
  0
ARC
  5
374
330
1F
100
AcDbEntity
  8
0
  6
Continuous
 62
     7
370
    30
100
AcDbCircle
 10
120.3805193435
 20
65.9782761046
 30
0.0
 40
8.672657412147512
100
AcDbArc
 50
133.4262784439
 51
137.6001925923
  0
LINE
  5
375
330
1F
100
AcDbEntity
  8
0
  6
Continuous
 62
     7
370
    30
100
AcDbLine
 10
114.4187552996
 20
72.2768756374
 30
0.0
 11
114.5033081594
 21
72.2280643104
 31
0.0
  0
SPLINE
  5
376
330
1F
100
AcDbEntity
  8
0
  6
Continuous
 62
     7
370
    30
100
AcDbSpline
210
0.0
220
0.0
230
1.0
 70
     8
 71
     3
 72
    10
 73
     6
 74
     0
 42
0.000000001
 43
0.00000001
 40
0.0
 40
0.0
 40
0.0
 40
0.0
 40
0.332500291362882
 40
0.6659587685797755
 40
1.0
 40
1.0
 40
1.0
 40
1.0
 10
114.4318689187457
 20
72.102551995477
 30
0.0
 10
114.4339733537059
 20
72.09421403071852
 30
0.0
 10
114.4381882881015
 20
72.07751407319287
 30
0.0
 10
114.4552940296337
 20
72.05675105926925
 30
0.0
 10
114.471242617401
 20
72.04670210375023
 30
0.0
 10
114.4792238731653
 20
72.04167323941874
 30
0.0
  0
LINE
  5
377
330
1F
100
AcDbEntity
  8
0
  6
Continuous
 62
     7
370
    30
100
AcDbLine
 10
114.4792238732
 20
72.0416732394
 30
0.0
 11
115.2824760408
 21
71.5779656333
 31
0.0
  0
SPLINE
  5
378
330
1F
100
AcDbEntity
  8
0
  6
Continuous
 62
     7
370
    30
100
AcDbSpline
210
0.0
220
0.0
230
1.0
 70
     8
 71
     3
 72
     9
 73
     5
 74
     0
 42
0.000000001
 43
0.00000001
 40
0.0
 40
0.0
 40
0.0
 40
0.0
 40
0.5009446153185997
 40
1.0
 40
1.0
 40
1.0
 40
1.0
 10
115.282476040814
 20
71.57796563332904
 30
0.0
 10
115.318176082313
 20
71.55970655350312
 30
0.0
 10
115.3894415284469
 20
71.52325725498274
 30
0.0
 10
115.4813831336396
 20
71.5220832570244
 30
0.0
 10
115.5272670867873
 20
71.5214973670217
 30
0.0
  0
SPLINE
  5
379
330
1F
100
AcDbEntity
  8
0
  6
Continuous
 62
     7
370
    30
100
AcDbSpline
210
0.0
220
0.0
230
1.0
 70
     8
 71
     3
 72
    11
 73
     7
 74
     0
 42
0.000000001
 43
0.00000001
 40
0.0
 40
0.0
 40
0.0
 40
0.0
 40
0.2503332933422581
 40
0.5000453300390942
 40
0.7498429004924771
 40
1.0
 40
1.0
 40
1.0
 40
1.0
 10
115.5272670867873
 20
71.5214973670217
 30
0.0
 10
115.5498746935233
 20
71.52482993412242
 30
0.0
 10
115.5950338012903
 20
71.53148679783202
 30
0.0
 10
115.6599752297597
 20
71.557945809883
 30
0.0
 10
115.7180319529506
 20
71.59325093758768
 30
0.0
 10
115.750749989589
 20
71.62121808959209
 30
0.0
 10
115.7671207720595
 20
71.63521172150966
 30
0.0
  0
SPLINE
  5
37A
330
1F
100
AcDbEntity
  8
0
  6
Continuous
 62
     7
370
    30
100
AcDbSpline
210
0.0
220
0.0
230
1.0
 70
     8
 71
     3
 72
    10
 73
     6
 74
     0
 42
0.000000001
 43
0.00000001
 40
0.0
 40
0.0
 40
0.0
 40
0.0
 40
0.3080594136319797
 40
0.6165321787364169
 40
1.0
 40
1.0
 40
1.0
 40
1.0
 10
115.7671207720595
 20
71.63521172150966
 30
0.0
 10
115.7967724024068
 20
71.66733172115627
 30
0.0
 10
115.856115449404
 20
71.73161481878887
 30
0.0
 10
115.8995426177085
 20
71.84966915924853
 30
0.0
 10
115.8801119391503
 20
71.92330425634562
 30
0.0
 10
115.8693436158011
 20
71.96411222571273
 30
0.0
  0
ARC
  5
37B
330
1F
100
AcDbEntity
  8
0
  6
Continuous
 62
     7
370
    30
100
AcDbCircle
 10
119.4307829855
 20
67.0324503224
 30
0.0
 40
7.253239294825202
100
AcDbArc
 50
126.1933557825
 51
130.8956338162
  0
LINE
  5
37C
330
1F
100
AcDbEntity
  8
0
  6
Continuous
 62
     7
370
    30
100
AcDbLine
 10
115.1476575213
 20
72.8860232932
 30
0.0
 11
115.232210381
 21
72.8372119663
 31
0.0
  0
SPLINE
  5
37D
330
1F
100
AcDbEntity
  8
0
  6
Continuous
 62
     7
370
    30
100
AcDbSpline
210
0.0
220
0.0
230
1.0
 70
     8
 71
     3
 72
    10
 73
     6
 74
     0
 42
0.000000001
 43
0.00000001
 40
0.0
 40
0.0
 40
0.0
 40
0.0
 40
0.3325002913628288
 40
0.6659587685797462
 40
1.0
 40
1.0
 40
1.0
 40
1.0
 10
115.1561022643999
 20
72.73165721233072
 30
0.0
 10
115.1579964977969
 20
72.72415514182553
 30
0.0
 10
115.1617904233159
 20
72.70912938165267
 30
0.0
 10
115.1785701486496
 20
72.68963680763926
 30
0.0
 10
115.1944935876589
 20
72.67968620030716
 30
0.0
 10
115.2024622580662
 20
72.67470655300005
 30
0.0
  0
LINE
  5
37E
330
1F
100
AcDbEntity
  8
0
  6
Continuous
 62
     7
370
    30
100
AcDbLine
 10
115.2024622581
 20
72.674706553
 30
0.0
 11
116.098096254
 21
72.1576680526
 31
0.0
  0
SPLINE
  5
37F
330
1F
100
AcDbEntity
  8
0
  6
Continuous
 62
     7
370
    30
100
AcDbSpline
210
0.0
220
0.0
230
1.0
 70
     8
 71
     3
 72
    13
 73
     9
 74
     0
 42
0.000000001
 43
0.00000001
 40
0.0
 40
0.0
 40
0.0
 40
0.0
 40
0.2504438220309735
 40
0.3783226551594707
 40
0.5006071607052837
 40
0.6226998852003821
 40
0.750366443048548
 40
0.9999999999999999
 40
0.9999999999999999
 40
0.9999999999999999
 40
0.9999999999999999
 10
116.098096253963
 20
72.15766805264276
 30
0.0
 10
116.1116833257358
 20
72.15071752658304
 30
0.0
 10
116.1322080766649
 20
72.14021800037251
 30
0.0
 10
116.1659554433219
 20
72.13380331932494
 30
0.0
 10
116.1928200570558
 20
72.13371971369713
 30
0.0
 10
116.219644445857
 20
72.13846252799827
 30
0.0
 10
116.253199037005
 20
72.15064130845674
 30
0.0
 10
116.2734900259908
 20
72.16440922492794
 30
0.0
 10
116.2869151789549
 20
72.17351850909112
 30
0.0
  0
ARC
  5
380
330
1F
100
AcDbEntity
  8
0
  6
Continuous
 62
     7
370
    30
100
AcDbCircle
 10
120.3488129775
 20
66.6993875731
 30
0.0
 40
6.816533079948512
100
AcDbArc
 50
126.1403641247
 51
126.576040387
  0
LINE
  5
381
330
1F
100
AcDbEntity
  8
0
  6
Continuous
 62
     7
370
    30
100
AcDbLine
 10
116.3286574188
 20
72.2042465644
 30
0.0
 11
116.4159504175
 21
72.1538533889
 31
0.0
  0
LINE
  5
382
330
1F
100
AcDbEntity
  8
0
  6
Continuous
 62
     7
370
    30
100
AcDbLine
 10
113.2934750957
 20
69.5056378313
 30
0.0
 11
113.3038321469
 21
69.5004967855
 31
0.0
  0
LINE
  5
383
330
1F
100
AcDbEntity
  8
0
  6
Continuous
 62
     7
370
    30
100
AcDbLine
 10
113.1280594111
 20
68.1349177049
 30
0.0
 11
113.140227007
 21
68.133618829
 31
0.0
  0
LINE
  5
384
330
1F
100
AcDbEntity
  8
0
  6
Continuous
 62
     7
370
    30
100
AcDbLine
 10
112.7552319706
 20
67.5778604137
 30
0.0
 11
112.6698578229
 21
67.6635720183
 31
0.0
  0
SPLINE
  5
385
330
1F
100
AcDbEntity
  8
0
  6
Continuous
 62
     7
370
    30
100
AcDbSpline
210
0.0
220
0.0
230
1.0
 70
     8
 71
     3
 72
    10
 73
     6
 74
     0
 42
0.000000001
 43
0.00000001
 40
0.0
 40
0.0
 40
0.0
 40
0.0
 40
0.4993825937214313
 40
0.7496196830159745
 40
1.0
 40
1.0
 40
1.0
 40
1.0
 10
112.9374824479402
 20
67.25637741222363
 30
0.0
 10
112.9147548394196
 20
67.31713704007555
 30
0.0
 10
112.8806385868527
 20
67.40834288814312
 30
0.0
 10
112.8132195054924
 20
67.51123738710876
 30
0.0
 10
112.7745648352615
 20
67.55564850280038
 30
0.0
 10
112.755231970555
 20
67.57786041370284
 30
0.0
  0
SPLINE
  5
386
330
1F
100
AcDbEntity
  8
0
  6
Continuous
 62
     7
370
    30
100
AcDbSpline
210
0.0
220
0.0
230
1.0
 70
     8
 71
     3
 72
    10
 73
     6
 74
     0
 42
0.000000001
 43
0.00000001
 40
0.0
 40
0.0
 40
0.0
 40
0.0
 40
0.2502789854939425
 40
0.5005798351587671
 40
1.0
 40
1.0
 40
1.0
 40
1.0
 10
112.9583037583385
 20
66.9071029155971
 30
0.0
 10
112.9638624712054
 20
66.93503449356992
 30
0.0
 10
112.9749803825438
 20
66.99090008959575
 30
0.0
 10
112.9747207121573
 20
67.11131700688286
 30
0.0
 10
112.9523707090601
 20
67.19838069196092
 30
0.0
 10
112.9374824479402
 20
67.25637741222363
 30
0.0
  0
SPLINE
  5
387
330
1F
100
AcDbEntity
  8
0
  6
Continuous
 62
     7
370
    30
100
AcDbSpline
210
0.0
220
0.0
230
1.0
 70
     8
 71
     3
 72
    14
 73
    10
 74
     0
 42
0.000000001
 43
0.00000001
 40
0.0
 40
0.0
 40
0.0
 40
0.0
 40
0.2503102209320218
 40
0.4998790581280103
 40
0.6277869030165102
 40
0.749767236824627
 40
0.8747441235546988
 40
0.9373579981979816
 40
1.0
 40
1.0
 40
1.0
 40
1.0
 10
112.4254629973407
 20
66.71391546407199
 30
0.0
 10
112.4785230933298
 20
66.69162256782748
 30
0.0
 10
112.5844861287522
 20
66.64710280376771
 30
0.0
 10
112.7207233380771
 20
66.63576453439016
 30
0.0
 10
112.8194672180028
 20
66.6731022561859
 30
0.0
 10
112.8826702869971
 20
66.72946358842898
 30
0.0
 10
112.9212708122619
 20
66.79649594017474
 30
0.0
 10
112.9449756455924
 20
66.8576853534944
 30
0.0
 10
112.9538603890443
 20
66.89062792906097
 30
0.0
 10
112.9583037583385
 20
66.9071029155971
 30
0.0
  0
ARC
  5
388
330
1F
100
AcDbEntity
  8
0
  6
Continuous
 62
     7
370
    30
100
AcDbCircle
 10
120.747326645
 20
65.0785534937
 30
0.0
 40
8.48102725758301
100
AcDbArc
 50
162.2538581164
 51
168.8822516071
  0
LINE
  5
389
330
1F
100
AcDbEntity
  8
0
  6
Continuous
 62
     7
370
    30
100
AcDbLine
 10
114.794431772
 20
70.7226193469
 30
0.0
 11
114.8014323273
 21
70.7124710803
 31
0.0
  0
LINE
  5
38A
330
1F
100
AcDbEntity
  8
0
  6
Continuous
 62
     7
370
    30
100
AcDbLine
 10
114.6632661184
 20
70.5766878735
 30
0.0
 11
114.6706686622
 21
70.5670463832
 31
0.0
  0
LINE
  5
38B
330
1F
100
AcDbEntity
  8
0
  6
Continuous
 62
     7
370
    30
100
AcDbLine
 10
114.4971869329
 20
70.5591911427
 30
0.0
 11
114.5047907704
 21
70.5498113554
 31
0.0
  0
LINE
  5
38C
330
1F
100
AcDbEntity
  8
0
  6
Continuous
 62
     7
370
    30
100
AcDbLine
 10
113.151471076
 20
68.4828601551
 30
0.0
 11
113.1632357308
 21
68.4805890332
 31
0.0
  0
LINE
  5
38D
330
1F
100
AcDbEntity
  8
0
  6
Continuous
 62
     7
370
    30
100
AcDbLine
 10
113.2513160629
 20
68.4848228831
 30
0.0
 11
113.2630114764
 21
68.4823930599
 31
0.0
  0
LINE
  5
38E
330
1F
100
AcDbEntity
  8
0
  6
Continuous
 62
     7
370
    30
100
AcDbLine
 10
113.6649675819
 20
71.0396211479
 30
0.0
 11
113.6725714194
 21
71.0302413606
 31
0.0
  0
LINE
  5
38F
330
1F
100
AcDbEntity
  8
0
  6
Continuous
 62
     7
370
    30
100
AcDbLine
 10
113.0390067615
 20
68.253290865
 30
0.0
 11
113.0511019332
 21
68.2518105849
 31
0.0
  0
LINE
  5
390
330
1F
100
AcDbEntity
  8
0
  6
Continuous
 62
     7
370
    30
100
AcDbLine
 10
113.0653287011
 20
68.3893539853
 30
0.0
 11
113.0772565385
 21
68.3874661104
 31
0.0
  0
LINE
  5
391
330
1F
100
AcDbEntity
  8
0
  6
Continuous
 62
     7
370
    30
100
AcDbLine
 10
112.2934431881
 20
66.5124441174
 30
0.0
 11
112.307300697
 21
66.5171839665
 31
0.0
  0
LINE
  5
392
330
1F
100
AcDbEntity
  8
0
  6
Continuous
 62
     7
370
    30
100
AcDbLine
 10
112.9505945446
 20
67.2578284811
 30
0.0
 11
112.9374824479
 21
67.2563774122
 31
0.0
  0
LINE
  5
393
330
1F
100
AcDbEntity
  8
0
  6
Continuous
 62
     7
370
    30
100
AcDbLine
 10
112.9716804867
 20
66.9095253979
 30
0.0
 11
112.9583037583
 21
66.9071029156
 31
0.0
  0
LINE
  5
394
330
1F
100
AcDbEntity
  8
0
  6
Continuous
 62
     7
370
    30
100
AcDbLine
 10
112.7681582334
 20
67.5786978554
 30
0.0
 11
112.7552319706
 21
67.5778604137
 31
0.0
  0
LINE
  5
395
330
1F
100
AcDbEntity
  8
0
  6
Continuous
 62
     7
370
    30
100
AcDbLine
 10
112.7688826372
 20
69.8429764834
 30
0.0
 11
112.7791915817
 21
69.837748216
 31
0.0
  0
LINE
  5
396
330
1F
100
AcDbEntity
  8
0
  6
Continuous
 62
     7
370
    30
100
AcDbLine
 10
113.4260965719
 20
69.7396797943
 30
0.0
 11
113.4360115515
 21
69.7337586086
 31
0.0
  0
LINE
  5
397
330
1F
100
AcDbEntity
  8
0
  6
Continuous
 62
     7
370
    30
100
AcDbLine
 10
115.7631286905
 20
71.6485738041
 30
0.0
 11
115.7671207721
 21
71.6352117215
 31
0.0
  0
LINE
  5
398
330
1F
100
AcDbEntity
  8
0
  6
Continuous
 62
     7
370
    30
100
AcDbLine
 10
115.5227202563
 20
71.5343362915
 30
0.0
 11
115.5272670868
 21
71.521497367
 31
0.0
  0
LINE
  5
399
330
1F
100
AcDbEntity
  8
0
  6
Continuous
 62
     7
370
    30
100
AcDbLine
 10
112.5869185708
 20
67.7275997641
 30
0.0
 11
112.5997978284
 21
67.7282890944
 31
0.0
  0
ARC
  5
39A
330
1F
100
AcDbEntity
  8
0
  6
Continuous
 62
     7
370
    30
100
AcDbCircle
 10
120.1780142506
 20
67.7373649325
 30
0.0
 40
5.097450488289061
100
AcDbArc
 50
116.2613299038
 51
117.0545540447
  0
SPLINE
  5
39B
330
1F
100
AcDbEntity
  8
0
  6
Continuous
 62
     7
370
    30
100
AcDbSpline
210
0.0
220
0.0
230
1.0
 70
     8
 71
     3
 72
    11
 73
     7
 74
     0
 42
0.000000001
 43
0.00000001
 40
0.0
 40
0.0
 40
0.0
 40
0.0
 40
0.3994214674245142
 40
0.608031369443884
 40
0.7990480134454124
 40
1.0
 40
1.0
 40
1.0
 40
1.0
 10
117.9225655551704
 20
72.30868341442346
 30
0.0
 10
117.9342696759494
 20
72.3149000416325
 30
0.0
 10
117.9520866266289
 20
72.32436348980322
 30
0.0
 10
117.9670450924342
 20
72.34001001157674
 30
0.0
 10
117.9733190956152
 20
72.35300534959958
 30
0.0
 10
117.9717557722188
 20
72.36190118489691
 30
0.0
 10
117.970954297515
 20
72.36646184520414
 30
0.0
  0
SPLINE
  5
39C
330
1F
100
AcDbEntity
  8
0
  6
Continuous
 62
     7
370
    30
100
AcDbSpline
210
0.0
220
0.0
230
1.0
 70
     8
 71
     3
 72
    10
 73
     6
 74
     0
 42
0.000000001
 43
0.00000001
 40
0.0
 40
0.0
 40
0.0
 40
0.0
 40
0.2092042037599291
 40
0.478572657823951
 40
1.0
 40
1.0
 40
1.0
 40
1.0
 10
115.7832352127787
 20
73.06016220298501
 30
0.0
 10
115.7847242573219
 20
73.04548539774609
 30
0.0
 10
115.7881305751294
 20
73.0119109400377
 30
0.0
 10
115.8341937014728
 20
72.94611499923785
 30
0.0
 10
115.896514366954
 20
72.90545022379592
 30
0.0
 10
115.9376067692139
 20
72.87863707445992
 30
0.0
  0
LINE
  5
39D
330
1F
100
AcDbEntity
  8
0
  6
Continuous
 62
     7
370
    30
100
AcDbLine
 10
115.9376067692
 20
72.8786370745
 30
0.0
 11
117.2904525253
 21
72.0976558432
 31
0.0
  0
SPLINE
  5
39E
330
1F
100
AcDbEntity
  8
0
  6
Continuous
 62
     7
370
    30
100
AcDbSpline
210
0.0
220
0.0
230
1.0
 70
     8
 71
     3
 72
    12
 73
     8
 74
     0
 42
0.000000001
 43
0.00000001
 40
0.0
 40
0.0
 40
0.0
 40
0.0
 40
0.250890199989974
 40
0.5006515094082185
 40
0.6230283754071956
 40
0.7508717827112149
 40
1.0
 40
1.0
 40
1.0
 40
1.0
 10
117.2904525252539
 20
72.09765584315099
 30
0.0
 10
117.3068066596969
 20
72.08896501458572
 30
0.0
 10
117.3394413424957
 20
72.07162246218876
 30
0.0
 10
117.3915687888915
 20
72.05874713093048
 30
0.0
 10
117.4363606220282
 20
72.05892685177587
 30
0.0
 10
117.4799377592019
 20
72.06693944503128
 30
0.0
 10
117.5055973548142
 20
72.08047209117905
 30
0.0
 10
117.5225549423201
 20
72.08941537441325
 30
0.0
  0
ARC
  5
39F
330
1F
100
AcDbEntity
  8
0
  6
Continuous
 62
     7
370
    30
100
AcDbCircle
 10
120.5080201362
 20
67.1370594691
 30
0.0
 40
5.782631877966152
100
AcDbArc
 50
120.5969716765
 51
121.0831430516
  0
LINE
  5
3A0
330
1F
100
AcDbEntity
  8
0
  6
Continuous
 62
     7
370
    30
100
AcDbLine
 10
117.5646840965
 20
72.1145693279
 30
0.0
 11
117.6352833745
 21
72.0738132322
 31
0.0
  0
ARC
  5
3A1
330
1F
100
AcDbEntity
  8
0
  6
Continuous
 62
     7
370
    30
100
AcDbCircle
 10
120.8798811086
 20
66.5587595027
 30
0.0
 40
6.470292336268667
100
AcDbArc
 50
124.3595988843
 51
124.8106824872
  0
SPLINE
  5
3A2
330
1F
100
AcDbEntity
  8
0
  6
Continuous
 62
     7
370
    30
100
AcDbSpline
210
0.0
220
0.0
230
1.0
 70
     8
 71
     3
 72
    11
 73
     7
 74
     0
 42
0.000000001
 43
0.00000001
 40
0.0
 40
0.0
 40
0.0
 40
0.0
 40
0.4031699395892724
 40
0.61362156776192
 40
0.8067715529250961
 40
1.0
 40
1.0
 40
1.0
 40
1.0
 10
117.2281448534044
 20
71.90006133268042
 30
0.0
 10
117.2416414103792
 20
71.91021237232783
 30
0.0
 10
117.2621830669786
 20
71.92566217711536
 30
0.0
 10
117.2774582732319
 20
71.94971207555898
 30
0.0
 10
117.2821837634886
 20
71.96842239795687
 30
0.0
 10
117.2783350981028
 20
71.98000175259632
 30
0.0
 10
117.2764103746355
 20
71.98579260562647
 30
0.0
  0
SPLINE
  5
3A3
330
1F
100
AcDbEntity
  8
0
  6
Continuous
 62
     7
370
    30
100
AcDbSpline
210
0.0
220
0.0
230
1.0
 70
     8
 71
     3
 72
    10
 73
     6
 74
     0
 42
0.000000001
 43
0.00000001
 40
0.0
 40
0.0
 40
0.0
 40
0.0
 40
0.2504183065326269
 40
0.500715888906578
 40
1.0
 40
1.0
 40
1.0
 40
1.0
 10
115.6442335765097
 20
73.09864811076147
 30
0.0
 10
115.6480855090703
 20
73.12441910695746
 30
0.0
 10
115.6557875172133
 20
73.1759486754102
 30
0.0
 10
115.7194337386145
 20
73.27176149542524
 30
0.0
 10
115.8051395275806
 20
73.32520169678057
 30
0.0
 10
115.8622267524053
 20
73.36079734120851
 30
0.0
  0
SPLINE
  5
3A4
330
1F
100
AcDbEntity
  8
0
  6
Continuous
 62
     7
370
    30
100
AcDbSpline
210
0.0
220
0.0
230
1.0
 70
     8
 71
     3
 72
    13
 73
     9
 74
     0
 42
0.000000001
 43
0.00000001
 40
0.0
 40
0.0
 40
0.0
 40
0.0
 40
0.2494922140339733
 40
0.3755712736096684
 40
0.4993625268397217
 40
0.620451630326464
 40
0.7497030425049138
 40
1.0
 40
1.0
 40
1.0
 40
1.0
 10
115.8622267524053
 20
73.36079734120852
 30
0.0
 10
115.9238287608181
 20
73.38894242787248
 30
0.0
 10
116.0165608921436
 20
73.43131042755198
 30
0.0
 10
116.1688341313972
 20
73.4567810075357
 30
0.0
 10
116.2906208707551
 20
73.4579402372965
 30
0.0
 10
116.4135661097893
 20
73.44012418598709
 30
0.0
 10
116.5671361517157
 20
73.3957287371589
 30
0.0
 10
116.6608354407546
 20
73.34628939986128
 30
0.0
 10
116.7226263713442
 20
73.31368613583774
 30
0.0
  0
LINE
  5
3A5
330
1F
100
AcDbEntity
  8
0
  6
Continuous
 62
     7
370
    30
100
AcDbLine
 10
116.7226263713
 20
73.3136861358
 30
0.0
 11
118.1416269112
 21
72.4945145608
 31
0.0
  0
SPLINE
  5
3A6
330
1F
100
AcDbEntity
  8
0
  6
Continuous
 62
     7
370
    30
100
AcDbSpline
210
0.0
220
0.0
230
1.0
 70
     8
 71
     3
 72
    12
 73
     8
 74
     0
 42
0.000000001
 43
0.00000001
 40
0.0
 40
0.0
 40
0.0
 40
0.0
 40
0.2498232691648889
 40
0.375138404958644
 40
0.5002628191339077
 40
0.7495821649083766
 40
0.9999999999999999
 40
0.9999999999999999
 40
0.9999999999999999
 40
0.9999999999999999
 10
118.141626911172
 20
72.49451456075242
 30
0.0
 10
118.1556421920809
 20
72.48740416622188
 30
0.0
 10
118.1766877501779
 20
72.47672709009628
 30
0.0
 10
118.2126020753238
 20
72.46935355774586
 30
0.0
 10
118.2490024427485
 20
72.46706342374858
 30
0.0
 10
118.2909604353008
 20
72.4729345711281
 30
0.0
 10
118.3171117040722
 20
72.4821133016586
 30
0.0
 10
118.3302160804552
 20
72.48671275496393
 30
0.0
  0
ARC
  5
3A7
330
1F
100
AcDbEntity
  8
0
  6
Continuous
 62
     7
370
    30
100
AcDbCircle
 10
119.836081998
 20
68.5180159224
 30
0.0
 40
4.244783470362059
100
AcDbArc
 50
110.0317262743
 51
110.7785416428
  0
LINE
  5
3A8
330
1F
100
AcDbEntity
  8
0
  6
Continuous
 62
     7
370
    30
100
AcDbLine
 10
118.3820720644
 20
72.5060031119
 30
0.0
 11
118.4490557915
 21
72.4673342293
 31
0.0
  0
LINE
  5
3A9
330
1F
100
AcDbEntity
  8
0
  6
Continuous
 62
     7
370
    30
100
AcDbLine
 10
115.2777467785
 20
71.5906261056
 30
0.0
 11
115.2824760408
 21
71.5779656333
 31
0.0
  0
LINE
  5
3AA
330
1F
100
AcDbEntity
  8
0
  6
Continuous
 62
     7
370
    30
100
AcDbLine
 10
117.2268475525
 20
71.9155743764
 30
0.0
 11
117.2281448534
 21
71.9000613327
 31
0.0
  0
LINE
  5
3AB
330
1F
100
AcDbEntity
  8
0
  6
Continuous
 62
     7
370
    30
100
AcDbLine
 10
112.682751593
 20
67.6643067971
 30
0.0
 11
112.6698578229
 21
67.6635720183
 31
0.0
  0
LINE
  5
3AC
330
1F
100
AcDbEntity
  8
0
  6
Continuous
 62
     7
370
    30
100
AcDbLine
 10
112.3156187414
 20
69.4168432642
 30
0.0
 11
112.3268396494
 21
69.4133811878
 31
0.0
  0
LINE
  5
3AD
330
1F
100
AcDbEntity
  8
0
  6
Continuous
 62
     7
370
    30
100
AcDbLine
 10
114.4744946109
 20
72.0543337117
 30
0.0
 11
114.4792238732
 21
72.0416732394
 31
0.0
  0
LINE
  5
3AE
330
1F
100
AcDbEntity
  8
0
  6
Continuous
 62
     7
370
    30
100
AcDbLine
 10
112.1701465518
 20
68.1425710387
 30
0.0
 11
112.1828649137
 21
68.1427720057
 31
0.0
  0
LINE
  5
3AF
330
1F
100
AcDbEntity
  8
0
  6
Continuous
 62
     7
370
    30
100
AcDbLine
 10
112.2073225418
 20
68.9183884222
 30
0.0
 11
112.2192123766
 21
68.9164100924
 31
0.0
  0
LINE
  5
3B0
330
1F
100
AcDbEntity
  8
0
  6
Continuous
 62
     7
370
    30
100
AcDbLine
 10
112.4872080932
 20
67.797132588
 30
0.0
 11
112.5000765493
 21
67.7977882499
 31
0.0
  0
LINE
  5
3B1
330
1F
100
AcDbEntity
  8
0
  6
Continuous
 62
     7
370
    30
100
AcDbLine
 10
117.5222422906
 20
72.1055617093
 30
0.0
 11
117.5225549423
 21
72.0894153744
 31
0.0
  0
LINE
  5
3B2
330
1F
100
AcDbEntity
  8
0
  6
Continuous
 62
     7
370
    30
100
AcDbLine
 10
117.2897877895
 20
72.1135848652
 30
0.0
 11
117.2904525253
 21
72.0976558432
 31
0.0
  0
LINE
  5
3B3
330
1F
100
AcDbEntity
  8
0
  6
Continuous
 62
     7
370
    30
100
AcDbLine
 10
113.6212554354
 20
71.4331455769
 30
0.0
 11
113.6281946818
 21
71.4229218167
 31
0.0
  0
LINE
  5
3B4
330
1F
100
AcDbEntity
  8
0
  6
Continuous
 62
     7
370
    30
100
AcDbLine
 10
117.564512345
 20
72.1307997897
 30
0.0
 11
117.5646840965
 21
72.1145693279
 31
0.0
  0
LINE
  5
3B5
330
1F
100
AcDbEntity
  8
0
  6
Continuous
 62
     7
370
    30
100
AcDbLine
 10
115.9369420334
 20
72.8945660965
 30
0.0
 11
115.9376067692
 21
72.8786370745
 31
0.0
  0
LINE
  5
3B6
330
1F
100
AcDbEntity
  8
0
  6
Continuous
 62
     7
370
    30
100
AcDbLine
 10
116.2849181419
 20
72.1885328158
 30
0.0
 11
116.286915179
 21
72.1735185091
 31
0.0
  0
LINE
  5
3B7
330
1F
100
AcDbEntity
  8
0
  6
Continuous
 62
     7
370
    30
100
AcDbLine
 10
116.0957858492
 20
72.1724456932
 30
0.0
 11
116.098096254
 21
72.1576680526
 31
0.0
  0
LINE
  5
3B8
330
1F
100
AcDbEntity
  8
0
  6
Continuous
 62
     7
370
    30
100
AcDbLine
 10
111.8685103909
 20
68.0135764258
 30
0.0
 11
111.881503503
 21
68.0146292012
 31
0.0
  0
LINE
  5
3B9
330
1F
100
AcDbEntity
  8
0
  6
Continuous
 62
     7
370
    30
100
AcDbLine
 10
116.3267999879
 20
72.2193636406
 30
0.0
 11
116.3286574188
 21
72.2042465644
 31
0.0
  0
LINE
  5
3BA
330
1F
100
AcDbEntity
  8
0
  6
Continuous
 62
     7
370
    30
100
AcDbLine
 10
115.2001518533
 20
72.6894841935
 30
0.0
 11
115.2024622581
 21
72.674706553
 31
0.0
  0
LINE
  5
3BB
330
1F
100
AcDbEntity
  8
0
  6
Continuous
 62
     7
370
    30
100
AcDbLine
 10
117.9235907316
 20
72.3255630872
 30
0.0
 11
117.9225655552
 21
72.3086834144
 31
0.0
  0
LINE
  5
3BC
330
1F
100
AcDbEntity
  8
0
  6
Continuous
 62
     7
370
    30
100
AcDbLine
 10
114.4144600687
 20
72.2899554304
 30
0.0
 11
114.4187552996
 21
72.2768756374
 31
0.0
  0
LINE
  5
3BD
330
1F
100
AcDbEntity
  8
0
  6
Continuous
 62
     7
370
    30
100
AcDbLine
 10
111.6723150227
 20
67.6650022079
 30
0.0
 11
111.6856802764
 21
67.6673796017
 31
0.0
  0
LINE
  5
3BE
330
1F
100
AcDbEntity
  8
0
  6
Continuous
 62
     7
370
    30
100
AcDbLine
 10
111.6747458499
 20
67.2477516249
 30
0.0
 11
111.6883939775
 21
67.2513518768
 31
0.0
  0
LINE
  5
3BF
330
1F
100
AcDbEntity
  8
0
  6
Continuous
 62
     7
370
    30
100
AcDbLine
 10
113.8299141813
 20
63.0125219439
 30
0.0
 11
113.329183322
 21
63.2769541218
 31
0.0
  0
ARC
  5
3C0
330
1F
100
AcDbEntity
  8
0
  6
Continuous
 62
     7
370
    30
100
AcDbCircle
 10
115.8386840151
 20
64.5450146882
 30
0.0
 40
2.811684784687944
100
AcDbArc
 50
205.9098816011
 51
206.8076493463
  0
SPLINE
  5
3C1
330
1F
100
AcDbEntity
  8
0
  6
Continuous
 62
     7
370
    30
100
AcDbSpline
210
0.0
220
0.0
230
1.0
 70
     8
 71
     3
 72
     9
 73
     5
 74
     0
 42
0.000000001
 43
0.00000001
 40
0.0
 40
0.0
 40
0.0
 40
0.0
 40
0.4993500737045826
 40
1.0
 40
1.0
 40
1.0
 40
1.0
 10
113.567519902276
 20
63.29669980663372
 30
0.0
 10
113.5800540366215
 20
63.32352562477911
 30
0.0
 10
113.6051549327775
 20
63.37724709105701
 30
0.0
 10
113.5756345189703
 20
63.48371096291525
 30
0.0
 10
113.5608551259735
 20
63.5370120925142
 30
0.0
  0
SPLINE
  5
3C2
330
1F
100
AcDbEntity
  8
0
  6
Continuous
 62
     7
370
    30
100
AcDbSpline
210
0.0
220
0.0
230
1.0
 70
     8
 71
     3
 72
    12
 73
     8
 74
     0
 42
0.000000001
 43
0.00000001
 40
0.0
 40
0.0
 40
0.0
 40
0.0
 40
0.499428794462154
 40
0.6344625712391766
 40
0.7497959004267216
 40
0.8747410045178187
 40
1.0
 40
1.0
 40
1.0
 40
1.0
 10
113.5608551259735
 20
63.5370120925142
 30
0.0
 10
113.549297510285
 20
63.57385315821103
 30
0.0
 10
113.5346149876744
 20
63.62065517989736
 30
0.0
 10
113.4986326835911
 20
63.68454326160126
 30
0.0
 10
113.4754725572306
 20
63.71652385216021
 30
0.0
 10
113.4477119320319
 20
63.74562029737593
 30
0.0
 10
113.4283391498835
 20
63.75802466504749
 30
0.0
 10
113.4186406068311
 20
63.76423462977939
 30
0.0
  0
LINE
  5
3C3
330
1F
100
AcDbEntity
  8
0
  6
Continuous
 62
     7
370
    30
100
AcDbLine
 10
113.4186406068
 20
63.7642346298
 30
0.0
 11
112.6866320525
 21
64.1868141733
 31
0.0
  0
LINE
  5
3C4
330
1F
100
AcDbEntity
  8
0
  6
Continuous
 62
     7
370
    30
100
AcDbLine
 10
113.1097278079
 20
63.6038537972
 30
0.0
 11
112.3855679835
 21
64.0219023654
 31
0.0
  0
ARC
  5
3C5
330
1F
100
AcDbEntity
  8
0
  6
Continuous
 62
     7
370
    30
100
AcDbCircle
 10
115.3740296107
 20
65.175353325
 30
0.0
 40
3.203334514697732
100
AcDbArc
 50
199.6634229231
 51
201.1049992738
  0
SPLINE
  5
3C6
330
1F
100
AcDbEntity
  8
0
  6
Continuous
 62
     7
370
    30
100
AcDbSpline
210
0.0
220
0.0
230
1.0
 70
     8
 71
     3
 72
    10
 73
     6
 74
     0
 42
0.000000001
 43
0.00000001
 40
0.0
 40
0.0
 40
0.0
 40
0.0
 40
0.2507880347821592
 40
0.5007174885477669
 40
0.9999999999999999
 40
0.9999999999999999
 40
0.9999999999999999
 40
0.9999999999999999
 10
112.6407014303299
 20
63.95116432769014
 30
0.0
 10
112.6490445850812
 20
63.95030245772741
 30
0.0
 10
112.6657023315215
 20
63.94858166844186
 30
0.0
 10
112.6776851960892
 20
63.97110702847387
 30
0.0
 10
112.6695044387688
 20
64.00173743370615
 30
0.0
 10
112.6640526984735
 20
64.02214984883186
 30
0.0
  0
ARC
  5
3C7
330
1F
100
AcDbEntity
  8
0
  6
Continuous
 62
     7
370
    30
100
AcDbCircle
 10
116.103874493
 20
65.097952966
 30
0.0
 40
3.604126291453547
100
AcDbArc
 50
193.868838768
 51
197.3670558451
  0
LINE
  5
3C8
330
1F
100
AcDbEntity
  8
0
  6
Continuous
 62
     7
370
    30
100
AcDbLine
 10
112.6048193317
 20
64.2340436517
 30
0.0
 11
111.822705379
 21
64.6855484261
 31
0.0
  0
SPLINE
  5
3C9
330
1F
100
AcDbEntity
  8
0
  6
Continuous
 62
     7
370
    30
100
AcDbSpline
210
0.0
220
0.0
230
1.0
 70
     8
 71
     3
 72
    10
 73
     6
 74
     0
 42
0.000000001
 43
0.00000001
 40
0.0
 40
0.0
 40
0.0
 40
0.0
 40
0.4996232423409288
 40
0.7480349899865804
 40
1.0
 40
1.0
 40
1.0
 40
1.0
 10
111.8227053790027
 20
64.68554842608914
 30
0.0
 10
111.8021706690227
 20
64.69607612051573
 30
0.0
 10
111.7714261394002
 20
64.71183816504767
 30
0.0
 10
111.7400773230237
 20
64.71200039486693
 30
0.0
 10
111.7309846001084
 20
64.7039403427967
 30
0.0
 10
111.7264059541475
 20
64.6998816988459
 30
0.0
  0
LINE
  5
3CA
330
1F
100
AcDbEntity
  8
0
  6
Continuous
 62
     7
370
    30
100
AcDbLine
 10
112.4300434821
 20
63.7544524727
 30
0.0
 11
111.836605756
 21
64.1570160088
 31
0.0
  0
ARC
  5
3CB
330
1F
100
AcDbEntity
  8
0
  6
Continuous
 62
     7
370
    30
100
AcDbCircle
 10
115.0085636727
 20
65.671748797
 30
0.0
 40
3.515072182029362
100
AcDbArc
 50
187.7258977231
 51
205.526282863
  0
SPLINE
  5
3CC
330
1F
100
AcDbEntity
  8
0
  6
Continuous
 62
     7
370
    30
100
AcDbSpline
210
0.0
220
0.0
230
1.0
 70
     8
 71
     3
 72
    10
 73
     6
 74
     0
 42
0.000000001
 43
0.00000001
 40
0.0
 40
0.0
 40
0.0
 40
0.0
 40
0.2444823291077444
 40
0.5001258782481326
 40
0.9999999999999999
 40
0.9999999999999999
 40
0.9999999999999999
 40
0.9999999999999999
 10
113.4393566366712
 20
63.95830460228225
 30
0.0
 10
113.4425519519964
 20
63.96084163679122
 30
0.0
 10
113.4490884566555
 20
63.96603152767852
 30
0.0
 10
113.4542852576412
 20
63.98538378300967
 30
0.0
 10
113.4519744676125
 20
64.00488683658402
 30
0.0
 10
113.4504455766537
 20
64.0177906668352
 30
0.0
  0
ARC
  5
3CD
330
1F
100
AcDbEntity
  8
0
  6
Continuous
 62
     7
370
    30
100
AcDbCircle
 10
117.7162463159
 20
64.7236285044
 30
0.0
 40
4.323801914974316
100
AcDbArc
 50
188.5100552269
 51
189.3952819013
  0
LINE
  5
3CE
330
1F
100
AcDbEntity
  8
0
  6
Continuous
 62
     7
370
    30
100
AcDbLine
 10
118.3326046365
 20
72.5041878436
 30
0.0
 11
118.3302160805
 21
72.486712755
 31
0.0
  0
LINE
  5
3CF
330
1F
100
AcDbEntity
  8
0
  6
Continuous
 62
     7
370
    30
100
AcDbLine
 10
118.1436675197
 20
72.5118524938
 30
0.0
 11
118.1416269112
 21
72.4945145608
 31
0.0
  0
LINE
  5
3D0
330
1F
100
AcDbEntity
  8
0
  6
Continuous
 62
     7
370
    30
100
AcDbLine
 10
113.43651383
 20
64.0069416013
 30
0.0
 11
113.4504455767
 21
64.0177906668
 31
0.0
  0
LINE
  5
3D1
330
1F
100
AcDbEntity
  8
0
  6
Continuous
 62
     7
370
    30
100
AcDbLine
 10
116.7246669799
 20
73.3310240689
 30
0.0
 11
116.7226263713
 21
73.3136861358
 31
0.0
  0
LINE
  5
3D2
330
1F
100
AcDbEntity
  8
0
  6
Continuous
 62
     7
370
    30
100
AcDbLine
 10
118.3846340518
 20
72.5235427167
 30
0.0
 11
118.3820720644
 21
72.5060031119
 31
0.0
  0
LINE
  5
3D3
330
1F
100
AcDbEntity
  8
0
  6
Continuous
 62
     7
370
    30
100
AcDbLine
 10
115.1458000904
 20
72.9011403694
 30
0.0
 11
115.1476575213
 21
72.8860232932
 31
0.0
  0
LINE
  5
3D4
330
1F
100
AcDbEntity
  8
0
  6
Continuous
 62
     7
370
    30
100
AcDbLine
 10
113.4049206228
 20
63.7523538961
 30
0.0
 11
113.4186406068
 21
63.7642346298
 31
0.0
  0
LINE
  5
3D5
330
1F
100
AcDbEntity
  8
0
  6
Continuous
 62
     7
370
    30
100
AcDbLine
 10
113.5472926421
 20
63.5245550719
 30
0.0
 11
113.560855126
 21
63.5370120925
 31
0.0
  0
LINE
  5
3D6
330
1F
100
AcDbEntity
  8
0
  6
Continuous
 62
     7
370
    30
100
AcDbLine
 10
115.6437096371
 20
73.1146652518
 30
0.0
 11
115.6442335765
 21
73.0986481108
 31
0.0
  0
LINE
  5
3D7
330
1F
100
AcDbEntity
  8
0
  6
Continuous
 62
     7
370
    30
100
AcDbLine
 10
112.6729120684
 20
64.1749334397
 30
0.0
 11
112.6866320525
 21
64.1868141733
 31
0.0
  0
LINE
  5
3D8
330
1F
100
AcDbEntity
  8
0
  6
Continuous
 62
     7
370
    30
100
AcDbLine
 10
113.5543070066
 20
63.2832501209
 30
0.0
 11
113.5675199023
 21
63.2966998066
 31
0.0
  0
LINE
  5
3D9
330
1F
100
AcDbEntity
  8
0
  6
Continuous
 62
     7
370
    30
100
AcDbLine
 10
115.8628298815
 20
73.3774614783
 30
0.0
 11
115.8622267524
 21
73.3607973412
 31
0.0
  0
LWPOLYLINE
  5
3DA
330
1F
100
AcDbEntity
  8
0
  6
Continuous
 62
     7
370
    30
100
AcDbPolyline
 90
       21
 70
   128
 43
0.0
 10
91.3199320147
 20
85.3287531572
 10
91.2673095791
 20
85.3566752109
 10
91.0369104778
 20
85.4307486321
 10
90.7801374957
 20
85.4429809943
 10
90.5039947305
 20
85.3930386305
 10
90.2160146368
 20
85.2822838382
 10
89.924052561
 20
85.1137377194
 10
89.6360724673
 20
84.8919977729
 10
89.359929702
 20
84.6231124864
 10
89.10315672
 20
84.3144163495
 10
88.8727576187
 20
83.9743297883
 10
88.6750170851
 20
83.6121294774
 10
88.5153289655
 20
83.2376952973
 10
88.3980491355
 20
82.8612408362
 10
88.326376683
 20
82.4930347906
 10
88.3022666459
 20
82.1431208615
 10
88.326376683
 20
81.8210437887
 10
88.3980491355
 20
81.5355889952
 10
88.5153289655
 20
81.2945429436
 10
88.6750170851
 20
81.104480742
 10
88.8201351831
 20
80.9985088453
  0
LINE
  5
3DB
330
1F
100
AcDbEntity
  8
0
  6
Continuous
 62
     7
370
    30
100
AcDbLine
 10
113.3162952916
 20
63.2627906931
 30
0.0
 11
113.329183322
 21
63.2769541218
 31
0.0
  0
LINE
  5
3DC
330
1F
100
AcDbEntity
  8
0
  6
Continuous
 62
     7
370
    30
100
AcDbLine
 10
111.8089853949
 20
64.6736676924
 30
0.0
 11
111.822705379
 21
64.6855484261
 31
0.0
  0
LINE
  5
3DD
330
1F
100
AcDbEntity
  8
0
  6
Continuous
 62
     7
370
    30
100
AcDbLine
 10
112.5910993476
 20
64.2221629181
 30
0.0
 11
112.6048193317
 21
64.2340436517
 31
0.0
  0
LINE
  5
3DE
330
1F
100
AcDbEntity
  8
0
  6
Continuous
 62
     7
370
    30
100
AcDbLine
 10
112.6505308193
 20
64.0095604402
 30
0.0
 11
112.6640526985
 21
64.0221498488
 31
0.0
  0
LINE
  5
3DF
330
1F
100
AcDbEntity
  8
0
  6
Continuous
 62
     7
370
    30
100
AcDbLine
 10
112.3722812075
 20
64.0086387287
 30
0.0
 11
112.3855679835
 21
64.0219023654
 31
0.0
  0
LINE
  5
3E0
330
1F
100
AcDbEntity
  8
0
  6
Continuous
 62
     7
370
    30
100
AcDbLine
 10
112.6272952137
 20
63.9382256538
 30
0.0
 11
112.6407014303
 21
63.9511643277
 31
0.0
  0
LINE
  5
3E1
330
1F
100
AcDbEntity
  8
0
  6
Continuous
 62
     7
370
    30
100
AcDbLine
 10
111.8236745734
 20
64.1429390807
 30
0.0
 11
111.836605756
 21
64.1570160088
 31
0.0
  0
ARC
  5
3E2
330
1F
100
AcDbEntity
  8
0
  6
Continuous
 62
     7
370
    30
100
AcDbCircle
 10
114.7062174285
 20
64.5667796401
 30
0.0
 40
2.194391406708481
100
AcDbArc
 50
212.6860873441
 51
231.8288594707
  0
LINE
  5
3E3
330
1F
100
AcDbEntity
  8
0
  6
Continuous
 62
     7
370
    30
100
AcDbLine
 10
113.4601021001
 20
62.737638878
 30
0.0
 11
113.4659114376
 21
62.7472191143
 31
0.0
  0
ARC
  5
3E4
330
1F
100
AcDbEntity
  8
0
  6
Continuous
 62
     7
370
    30
100
AcDbCircle
 10
110.1810868252
 20
70.1254272832
 30
0.0
 40
4.950227626097118
100
AcDbArc
 50
179.5274472584
 51
180.4725527416
  0
LINE
  5
3E5
330
1F
100
AcDbEntity
  8
0
  6
Continuous
 62
     7
370
    30
100
AcDbLine
 10
106.0506468572
 20
69.6114440952
 30
0.0
 11
105.2310275626
 21
70.0846002426
 31
0.0
  0
LINE
  5
3E6
330
1F
100
AcDbEntity
  8
0
  6
Continuous
 62
     7
370
    30
100
AcDbLine
 10
106.0513046839
 20
69.6927184212
 30
0.0
 11
105.2310275626
 21
70.1662543238
 31
0.0
  0
SPLINE
  5
3E7
330
1F
100
AcDbEntity
  8
0
  6
Continuous
 62
     7
370
    30
100
AcDbSpline
210
0.0
220
0.0
230
1.0
 70
     8
 71
     3
 72
    12
 73
     8
 74
     0
 42
0.000000001
 43
0.00000001
 40
0.0
 40
0.0
 40
0.0
 40
0.0
 40
0.3366928352357149
 40
0.6776980261462469
 40
0.7881774139134807
 40
0.8993695631127905
 40
1.0
 40
1.0
 40
1.0
 40
1.0
 10
106.69081952869
 20
72.97346392570006
 30
0.0
 10
106.7367147236877
 20
73.05903933579253
 30
0.0
 10
106.8290929385013
 20
73.23128620426459
 30
0.0
 10
106.9860277976969
 20
73.4049010882543
 30
0.0
 10
107.1222954127836
 20
73.47721662670983
 30
0.0
 10
107.2073226745953
 20
73.49621216012024
 30
0.0
 10
107.2551425109408
 20
73.47772075841394
 30
0.0
 10
107.2778602537095
 20
73.46893605860105
 30
0.0
  0
SPLINE
  5
3E8
330
1F
100
AcDbEntity
  8
0
  6
Continuous
 62
     7
370
    30
100
AcDbSpline
210
0.0
220
0.0
230
1.0
 70
     8
 71
     3
 72
    12
 73
     8
 74
     0
 42
0.000000001
 43
0.00000001
 40
0.0
 40
0.0
 40
0.0
 40
0.0
 40
0.1105155225127328
 40
0.2214135473683425
 40
0.3339028715525211
 40
0.5354549386068234
 40
0.9999999999999999
 40
0.9999999999999999
 40
0.9999999999999999
 40
0.9999999999999999
 10
106.6591336169559
 20
72.25333807438828
 30
0.0
 10
106.6390872362457
 20
72.26825289822223
 30
0.0
 10
106.5989250928288
 20
72.29813416719115
 30
0.0
 10
106.5613829657886
 20
72.374217926245
 30
0.0
 10
106.5402588740997
 20
72.483548722614
 30
0.0
 10
106.5599072289948
 20
72.69636336908619
 30
0.0
 10
106.6370318115453
 20
72.85961208447131
 30
0.0
 10
106.69081952869
 20
72.97346392570006
 30
0.0
  0
LINE
  5
3E9
330
1F
100
AcDbEntity
  8
0
  6
Continuous
 62
     7
370
    30
100
AcDbLine
 10
106.5425975228
 20
72.038674786
 30
0.0
 11
106.5331730207
 21
72.0441154352
 31
0.0
  0
ARC
  5
3EA
330
1F
100
AcDbEntity
  8
0
  6
Continuous
 62
     7
370
    30
100
AcDbCircle
 10
112.9211677498
 20
69.5068457561
 30
0.0
 40
6.873442666073251
100
AcDbArc
 50
158.3373481009
 51
178.1852836392
  0
LINE
  5
3EB
330
1F
100
AcDbEntity
  8
0
  6
Continuous
 62
     7
370
    30
100
AcDbLine
 10
106.0519044731
 20
69.7240877452
 30
0.0
 11
106.0511723931
 21
69.724510366
 31
0.0
  0
LWPOLYLINE
  5
3EC
330
1F
100
AcDbEntity
  8
0
  6
Continuous
 62
     7
370
    30
100
AcDbPolyline
 90
       30
 70
   128
 43
0.0
 10
111.4331499735
 20
76.8929800471
 10
111.3956120248
 20
76.9140391933
 10
111.0752778975
 20
77.0496431007
 10
110.7253910716
 20
77.1239307409
 10
110.350512857
 20
77.1359336609
 10
109.9555303645
 20
77.0854953843
 10
109.545592795
 20
76.9732734511
 10
109.1260443115
 20
76.8007308459
 10
108.7023543702
 20
76.5701169255
 10
108.2800464175
 20
76.2844380949
 10
107.8646258833
 20
75.9474186145
 10
107.4615084095
 20
75.5634520488
 10
107.0759492491
 20
75.1375439891
 10
106.7129747551
 20
74.6752467983
 10
106.3773168554
 20
74.1825872273
 10
106.0733513638
 20
73.665987847
 10
105.8050409355
 20
73.1321833203
 10
105.5758834072
 20
72.5881326057
 10
105.3888661978
 20
72.0409282362
 10
105.2464273626
 20
71.4977038576
 10
105.1504238095
 20
70.9655412305
 10
105.1021070919
 20
70.4513779085
 10
105.1021070919
 20
69.9619167968
 10
105.1504238095
 20
69.5035387695
 10
105.2464273626
 20
69.0822194853
 10
105.3888661978
 20
68.7034514854
 10
105.5758834072
 20
68.3721725898
 10
105.8050409355
 20
68.0927015256
 10
106.0733513638
 20
67.8686816255
 10
106.1835766272
 20
67.7994669921
  0
LINE
  5
3ED
330
1F
100
AcDbEntity
  8
0
  6
Continuous
 62
     7
370
    30
100
AcDbLine
 10
105.3017497341
 20
70.1254272832
 30
0.0
 11
105.2310275626
 21
70.0846002426
 31
0.0
  0
SPLINE
  5
3EE
330
1F
100
AcDbEntity
  8
0
  6
Continuous
 62
     7
370
    30
100
AcDbSpline
210
0.0
220
0.0
230
1.0
 70
     8
 71
     3
 72
    13
 73
     9
 74
     0
 42
0.000000001
 43
0.00000001
 40
0.0
 40
0.0
 40
0.0
 40
0.0
 40
0.3624608567693388
 40
0.5787132691116404
 40
0.7296880773878537
 40
0.8517216092537868
 40
0.9448389098232417
 40
0.9999999999999999
 40
0.9999999999999999
 40
0.9999999999999999
 40
0.9999999999999999
 10
106.7545102300582
 20
72.93729153007166
 30
0.0
 10
106.7208861234393
 20
72.86758455447534
 30
0.0
 10
106.6672011080812
 20
72.75628880771033
 30
0.0
 10
106.6284507381522
 20
72.60366741379362
 30
0.0
 10
106.6274566927713
 20
72.49848271995376
 30
0.0
 10
106.6495495787019
 20
72.42695109376106
 30
0.0
 10
106.6785752599013
 20
72.38336221104738
 30
0.0
 10
106.7002202547198
 20
72.36852100654096
 30
0.0
 10
106.7082724159622
 20
72.36299992544484
 30
0.0
  0
SPLINE
  5
3EF
330
1F
100
AcDbEntity
  8
0
  6
Continuous
 62
     7
370
    30
100
AcDbSpline
210
0.0
220
0.0
230
1.0
 70
     8
 71
     3
 72
    12
 73
     8
 74
     0
 42
0.000000001
 43
0.00000001
 40
0.0
 40
0.0
 40
0.0
 40
0.0
 40
0.0897978905663106
 40
0.1799933804692272
 40
0.3151089707779181
 40
0.5387355802027282
 40
1.0
 40
1.0
 40
1.0
 40
1.0
 10
107.2037096478469
 20
73.33992890004038
 30
0.0
 10
107.1878527030093
 20
73.34599632535085
 30
0.0
 10
107.1560686033247
 20
73.35815804079309
 30
0.0
 10
107.0921226655142
 20
73.34500504541555
 30
0.0
 10
107.006929599879
 20
73.30060288569231
 30
0.0
 10
106.8764706698807
 20
73.16770437207042
 30
0.0
 10
106.8035925875701
 20
73.03002000417987
 30
0.0
 10
106.7545102300582
 20
72.93729153007165
 30
0.0
  0
LWPOLYLINE
  5
3F0
330
1F
100
AcDbEntity
  8
0
  6
Continuous
 62
     7
370
    30
100
AcDbPolyline
 90
       22
 70
   128
 43
0.0
 10
109.486921093
 20
76.9525644239
 10
109.2546767124
 20
76.9322859208
 10
108.8796764728
 20
76.8507425011
 10
108.4933251175
 20
76.7094655857
 10
108.1012565191
 20
76.5105153102
 10
107.7091879208
 20
76.2567928175
 10
107.3228365654
 20
75.9519979529
 10
106.9478363259
 20
75.6005753119
 10
106.58965555
 20
75.207649428
 10
106.2535173201
 20
74.7789500453
 10
105.9443232885
 20
74.3207285661
 10
105.6665822003
 20
73.8396668915
 10
105.4243441462
 20
73.342779984
 10
105.2211415023
 20
72.8373135734
 10
105.0599374208
 20
72.3306384984
 10
104.9430826202
 20
71.8301432224
 10
104.8722811067
 20
71.3431260936
 10
104.8485653257
 20
70.8766889183
 10
104.8722811067
 20
70.437633401
 10
104.9430826202
 20
70.0323619597
 10
105.0599374208
 20
69.6667843646
 10
105.1587052403
 20
69.4550622909
  0
LINE
  5
3F1
330
1F
100
AcDbEntity
  8
0
  6
Continuous
 62
     7
370
    30
100
AcDbLine
 10
106.051923512
 20
69.7249439777
 30
0.0
 11
106.0511723931
 21
69.724510366
 31
0.0
  0
LWPOLYLINE
  5
3F2
330
1F
100
AcDbEntity
  8
0
  6
Continuous
 62
     7
370
    30
100
AcDbPolyline
 90
       25
 70
   128
 43
0.0
 10
109.8856040028
 20
77.0704859938
 10
109.7228383113
 20
77.0871450916
 10
109.3635701205
 20
77.0773751574
 10
108.9865818138
 20
77.0069205151
 10
108.5971654806
 20
76.8767701936
 10
108.2007876726
 20
76.688751218
 10
107.8030126654
 20
76.4455029626
 10
107.4094243482
 20
76.1504400997
 10
107.0255478381
 20
75.8077046651
 10
106.6567719199
 20
75.4221079131
 10
106.3082733992
 20
74.9990627767
 10
105.9849444312
 20
74.5445078824
 10
105.6913238459
 20
74.0648241845
 10
105.4315334326
 20
73.5667453907
 10
105.2092200794
 20
73.0572634353
 10
105.0275045784
 20
72.5435303283
 10
104.8889378169
 20
72.0327577563
 10
104.7954649685
 20
71.5321158467
 10
104.7483981871
 20
71.0486325144
 10
104.7483981871
 20
70.5890948057
 10
104.7954649685
 20
70.1599536225
 10
104.8889378169
 20
69.7672331665
 10
105.0275045784
 20
69.416446372
 10
105.2092200794
 20
69.1125175166
 10
105.2559615519
 20
69.0508411027
  0
ARC
  5
3F3
330
1F
100
AcDbEntity
  8
0
  6
Continuous
 62
     7
370
    30
100
AcDbCircle
 10
101.0987256944
 20
73.9731697407
 30
0.0
 40
2.311885570368306
100
AcDbArc
 50
173.2632359045
 51
235.4245837021
  0
LWPOLYLINE
  5
3F4
330
1F
100
AcDbEntity
  8
0
  6
Continuous
 62
     7
370
    30
100
AcDbPolyline
 90
       21
 70
   128
 43
0.0
 10
104.5363665472
 20
80.2970737415
 10
104.2778716451
 20
80.4168638787
 10
103.9545426771
 20
80.4981110926
 10
103.6060441564
 20
80.5187884015
 10
103.2372682382
 20
80.4786055414
 10
102.8533917281
 20
80.3781265916
 10
102.4598034109
 20
80.2187620561
 10
102.0620284037
 20
80.0027490639
 10
101.6656505957
 20
79.7331199637
 10
101.2762342625
 20
79.4136597572
 10
100.8992459558
 20
79.0488529653
 10
100.539977765
 20
78.6438206757
 10
100.203473028
 20
78.204248654
 10
99.8944555338
 20
77.7363075278
 10
99.6172632104
 20
77.2465661647
 10
99.3757872306
 20
76.74189946
 10
99.1734173878
 20
76.2293918279
 10
99.0129945109
 20
75.7162377522
 10
98.8967705856
 20
75.2096407913
 10
98.8263771409
 20
74.716712456
 10
98.8028023465
 20
74.2443723796
  0
ARC
  5
3F5
330
1F
100
AcDbEntity
  8
0
  6
Continuous
 62
     7
370
    30
100
AcDbCircle
 10
105.7623882705
 20
74.1046274756
 30
0.0
 40
6.966179821747693
100
AcDbArc
 50
122.4985107401
 51
177.5068657926
  0
LINE
  5
3F6
330
1F
100
AcDbEntity
  8
0
  6
Continuous
 62
     8
370
    30
100
AcDbLine
 10
106.8240442502
 20
73.0503729204
 30
0.0
 11
106.6908195287
 21
72.9734639257
 31
0.0
  0
ENDSEC
  0
SECTION
  2
OBJECTS
  0
DICTIONARY
  5
C
330
0
100
AcDbDictionary
281
     1
  3
ACAD_GROUP
350
D
  3
ACAD_LAYOUT
350
1A
  3
ACAD_MLINESTYLE
350
17
  3
ACAD_PLOTSETTINGS
350
19
  3
ACAD_PLOTSTYLENAME
350
E
  3
ACAD_SCALELIST
350
47
  0
DICTIONARY
  5
D
102
{ACAD_REACTORS
330
C
102
}
330
C
100
AcDbDictionary
281
     1
  0
DICTIONARY
  5
1A
102
{ACAD_REACTORS
330
C
102
}
330
C
100
AcDbDictionary
281
     1
  3
Layout1
350
1E
  3
Layout2
350
26
  3
Model
350
22
  0
DICTIONARY
  5
17
102
{ACAD_REACTORS
330
C
102
}
330
C
100
AcDbDictionary
281
     1
  3
Standard
350
18
  0
DICTIONARY
  5
19
102
{ACAD_REACTORS
330
C
102
}
330
C
100
AcDbDictionary
281
     1
  0
ACDBDICTIONARYWDFLT
  5
E
102
{ACAD_REACTORS
330
C
102
}
330
C
100
AcDbDictionary
281
     1
  3
Normal
350
F
100
AcDbDictionaryWithDefault
340
F
  0
DICTIONARY
  5
47
102
{ACAD_REACTORS
330
C
102
}
330
C
100
AcDbDictionary
281
     1
  3
A0
350
48
  3
A1
350
49
  3
A2
350
4A
  3
A3
350
4B
  3
A4
350
4C
  3
A5
350
4D
  3
A6
350
4E
  3
A7
350
4F
  3
A8
350
50
  3
A9
350
51
  3
B0
350
52
  3
B1
350
53
  3
B2
350
54
  3
B3
350
55
  3
B4
350
56
  3
B5
350
57
  3
B6
350
58
  3
B7
350
59
  3
B8
350
5A
  3
B9
350
5B
  3
C0
350
5C
  3
C1
350
5D
  3
C2
350
5E
  3
C3
350
5F
  3
C4
350
60
  3
C5
350
61
  3
C6
350
62
  3
C7
350
63
  3
C8
350
64
  3
C9
350
65
  3
D0
350
66
  3
D1
350
67
  3
D2
350
68
  0
LAYOUT
  5
1E
102
{ACAD_REACTORS
330
1A
102
}
330
1A
100
AcDbPlotSettings
  1

  2
none_device
  4

  6

 40
0.0
 41
0.0
 42
0.0
 43
0.0
 44
0.0
 45
0.0
 46
0.0
 47
0.0
 48
0.0
 49
0.0
140
0.0
141
0.0
142
1.0
143
1.0
 70
   688
 72
     1
 73
     0
 74
     5
  7

 75
    16
147
1.0
148
0.0
149
0.0
100
AcDbLayout
  1
Layout1
 70
     1
 71
     1
 10
0.0
 20
0.0
 11
420.0
 21
297.0
 12
0.0
 22
0.0
 32
0.0
 14
1.0000000000E+20
 24
1.0000000000E+20
 34
1.0000000000E+20
 15
-1.0000000000E+20
 25
-1.0000000000E+20
 35
-1.0000000000E+20
146
0.0
 13
0.0
 23
0.0
 33
0.0
 16
1.0
 26
0.0
 36
0.0
 17
0.0
 27
1.0
 37
0.0
 76
     0
330
1B
  0
LAYOUT
  5
26
102
{ACAD_REACTORS
330
1A
102
}
330
1A
100
AcDbPlotSettings
  1

  2
none_device
  4

  6

 40
0.0
 41
0.0
 42
0.0
 43
0.0
 44
0.0
 45
0.0
 46
0.0
 47
0.0
 48
0.0
 49
0.0
140
0.0
141
0.0
142
1.0
143
1.0
 70
   688
 72
     1
 73
     0
 74
     5
  7

 75
    16
147
1.0
148
0.0
149
0.0
100
AcDbLayout
  1
Layout2
 70
     1
 71
     2
 10
0.0
 20
0.0
 11
0.0
 21
0.0
 12
0.0
 22
0.0
 32
0.0
 14
0.0
 24
0.0
 34
0.0
 15
0.0
 25
0.0
 35
0.0
146
0.0
 13
0.0
 23
0.0
 33
0.0
 16
1.0
 26
0.0
 36
0.0
 17
0.0
 27
1.0
 37
0.0
 76
     0
330
23
  0
LAYOUT
  5
22
102
{ACAD_REACTORS
330
1A
102
}
330
1A
100
AcDbPlotSettings
  1

  2
none_device
  4
Letter_(8.50_x_11.00_Inches)
  6

 40
6.35
 41
6.35
 42
6.35000508
 43
6.35000508
 44
215.9
 45
279.4
 46
0.0
 47
0.0
 48
0.0
 49
0.0
140
0.0
141
0.0
142
1.0
143
1.0
 70
  1712
 72
     1
 73
     0
 74
     0
  7

 75
     0
147
1.0
148
0.0
149
0.0
100
AcDbLayout
  1
Model
 70
     1
 71
     0
 10
0.0
 20
0.0
 11
148.5
 21
105.0
 12
0.0
 22
0.0
 32
0.0
 14
0.0
 24
0.0
 34
0.0
 15
148.5
 25
105.0
 35
0.0
146
0.0
 13
0.0
 23
0.0
 33
0.0
 16
1.0
 26
0.0
 36
0.0
 17
0.0
 27
1.0
 37
0.0
 76
     0
330
1F
331
29
  0
MLINESTYLE
  5
18
102
{ACAD_REACTORS
330
17
102
}
330
17
100
AcDbMlineStyle
  2
Standard
 70
     0
  3

 62
   256
 51
90.0
 52
90.0
 71
     2
 49
0.5
 62
   256
  6
BYLAYER
 49
-0.5
 62
   256
  6
BYLAYER
  0
ACDBPLACEHOLDER
  5
F
102
{ACAD_REACTORS
330
E
102
}
330
E
  0
SCALE
  5
48
102
{ACAD_REACTORS
330
47
102
}
330
47
100
AcDbScale
 70
     0
300
1:1
140
1.0
141
1.0
290
     1
  0
SCALE
  5
49
102
{ACAD_REACTORS
330
47
102
}
330
47
100
AcDbScale
 70
     0
300
1:2
140
1.0
141
2.0
290
     0
  0
SCALE
  5
4A
102
{ACAD_REACTORS
330
47
102
}
330
47
100
AcDbScale
 70
     0
300
1:4
140
1.0
141
4.0
290
     0
  0
SCALE
  5
4B
102
{ACAD_REACTORS
330
47
102
}
330
47
100
AcDbScale
 70
     0
300
1:5
140
1.0
141
5.0
290
     0
  0
SCALE
  5
4C
102
{ACAD_REACTORS
330
47
102
}
330
47
100
AcDbScale
 70
     0
300
1:8
140
1.0
141
8.0
290
     0
  0
SCALE
  5
4D
102
{ACAD_REACTORS
330
47
102
}
330
47
100
AcDbScale
 70
     0
300
1:10
140
1.0
141
10.0
290
     0
  0
SCALE
  5
4E
102
{ACAD_REACTORS
330
47
102
}
330
47
100
AcDbScale
 70
     0
300
1:16
140
1.0
141
16.0
290
     0
  0
SCALE
  5
4F
102
{ACAD_REACTORS
330
47
102
}
330
47
100
AcDbScale
 70
     0
300
1:20
140
1.0
141
20.0
290
     0
  0
SCALE
  5
50
102
{ACAD_REACTORS
330
47
102
}
330
47
100
AcDbScale
 70
     0
300
1:30
140
1.0
141
30.0
290
     0
  0
SCALE
  5
51
102
{ACAD_REACTORS
330
47
102
}
330
47
100
AcDbScale
 70
     0
300
1:40
140
1.0
141
40.0
290
     0
  0
SCALE
  5
52
102
{ACAD_REACTORS
330
47
102
}
330
47
100
AcDbScale
 70
     0
300
1:50
140
1.0
141
50.0
290
     0
  0
SCALE
  5
53
102
{ACAD_REACTORS
330
47
102
}
330
47
100
AcDbScale
 70
     0
300
1:100
140
1.0
141
100.0
290
     0
  0
SCALE
  5
54
102
{ACAD_REACTORS
330
47
102
}
330
47
100
AcDbScale
 70
     0
300
2:1
140
2.0
141
1.0
290
     0
  0
SCALE
  5
55
102
{ACAD_REACTORS
330
47
102
}
330
47
100
AcDbScale
 70
     0
300
4:1
140
4.0
141
1.0
290
     0
  0
SCALE
  5
56
102
{ACAD_REACTORS
330
47
102
}
330
47
100
AcDbScale
 70
     0
300
8:1
140
8.0
141
1.0
290
     0
  0
SCALE
  5
57
102
{ACAD_REACTORS
330
47
102
}
330
47
100
AcDbScale
 70
     0
300
10:1
140
10.0
141
1.0
290
     0
  0
SCALE
  5
58
102
{ACAD_REACTORS
330
47
102
}
330
47
100
AcDbScale
 70
     0
300
100:1
140
100.0
141
1.0
290
     0
  0
SCALE
  5
59
102
{ACAD_REACTORS
330
47
102
}
330
47
100
AcDbScale
 70
     0
300
1/128" = 1'-0"
140
0.0078125
141
12.0
290
     0
  0
SCALE
  5
5A
102
{ACAD_REACTORS
330
47
102
}
330
47
100
AcDbScale
 70
     0
300
1/64" = 1'-0"
140
0.015625
141
12.0
290
     0
  0
SCALE
  5
5B
102
{ACAD_REACTORS
330
47
102
}
330
47
100
AcDbScale
 70
     0
300
1/32" = 1'-0"
140
0.03125
141
12.0
290
     0
  0
SCALE
  5
5C
102
{ACAD_REACTORS
330
47
102
}
330
47
100
AcDbScale
 70
     0
300
1/16" = 1'-0"
140
0.0625
141
12.0
290
     0
  0
SCALE
  5
5D
102
{ACAD_REACTORS
330
47
102
}
330
47
100
AcDbScale
 70
     0
300
3/32" = 1'-0"
140
0.09375
141
12.0
290
     0
  0
SCALE
  5
5E
102
{ACAD_REACTORS
330
47
102
}
330
47
100
AcDbScale
 70
     0
300
1/8" = 1'-0"
140
0.125
141
12.0
290
     0
  0
SCALE
  5
5F
102
{ACAD_REACTORS
330
47
102
}
330
47
100
AcDbScale
 70
     0
300
3/16" = 1'-0"
140
0.1875
141
12.0
290
     0
  0
SCALE
  5
60
102
{ACAD_REACTORS
330
47
102
}
330
47
100
AcDbScale
 70
     0
300
1/4" = 1'-0"
140
0.25
141
12.0
290
     0
  0
SCALE
  5
61
102
{ACAD_REACTORS
330
47
102
}
330
47
100
AcDbScale
 70
     0
300
3/8" = 1'-0"
140
0.375
141
12.0
290
     0
  0
SCALE
  5
62
102
{ACAD_REACTORS
330
47
102
}
330
47
100
AcDbScale
 70
     0
300
1/2" = 1'-0"
140
0.5
141
12.0
290
     0
  0
SCALE
  5
63
102
{ACAD_REACTORS
330
47
102
}
330
47
100
AcDbScale
 70
     0
300
3/4" = 1'-0"
140
0.75
141
12.0
290
     0
  0
SCALE
  5
64
102
{ACAD_REACTORS
330
47
102
}
330
47
100
AcDbScale
 70
     0
300
1" = 1'-0"
140
1.0
141
12.0
290
     0
  0
SCALE
  5
65
102
{ACAD_REACTORS
330
47
102
}
330
47
100
AcDbScale
 70
     0
300
1-1/2" = 1'-0"
140
1.5
141
12.0
290
     0
  0
SCALE
  5
66
102
{ACAD_REACTORS
330
47
102
}
330
47
100
AcDbScale
 70
     0
300
3" = 1'-0"
140
3.0
141
12.0
290
     0
  0
SCALE
  5
67
102
{ACAD_REACTORS
330
47
102
}
330
47
100
AcDbScale
 70
     0
300
6" = 1'-0"
140
6.0
141
12.0
290
     0
  0
SCALE
  5
68
102
{ACAD_REACTORS
330
47
102
}
330
47
100
AcDbScale
 70
     0
300
1'-0" = 1'-0"
140
12.0
141
12.0
290
     0
  0
ENDSEC
  0
EOF
