  0
SECTION
  2
HEADER
  9
$ACADVER
  1
AC1015
  9
$ACADMAINTVER
 70
     6
  9
$DWGCODEPAGE
  3
ANSI_950
  9
$INSBASE
 10
0.0
 20
0.0
 30
0.0
  9
$EXTMIN
 10
0.0
 20
0.0
 30
0.0
  9
$EXTMAX
 10
445.5
 20
315.0
 30
0.0
  9
$LIMMIN
 10
0.0
 20
0.0
  9
$LIMMAX
 10
445.5
 20
315.0
  9
$ORTHOMODE
 70
     0
  9
$REGENMODE
 70
     1
  9
$FILLMODE
 70
     1
  9
$QTEXTMODE
 70
     0
  9
$MIRRTEXT
 70
     1
  9
$LTSCALE
 40
1.5
  9
$ATTMODE
 70
     1
  9
$TEXTSIZE
 40
4.7625
  9
$TRACEWID
 40
1.0
  9
$TEXTSTYLE
  7
Standard
  9
$CLAYER
  8
0
  9
$CELTYPE
  6
ByLayer
  9
$CECOLOR
 62
   256
  9
$CELTSCALE
 40
1.0
  9
$DISPSILH
 70
     0
  9
$DIMSCALE
 40
1.0
  9
$DIMASZ
 40
3.0
  9
$DIMEXO
 40
1.5
  9
$DIMDLI
 40
3.75
  9
$DIMRND
 40
0.0
  9
$DIMDLE
 40
0.0
  9
$DIMEXE
 40
1.5
  9
$DIMTP
 40
0.0
  9
$DIMTM
 40
0.0
  9
$DIMTXT
 40
4.7625
  9
$DIMCEN
 40
2.5
  9
$DIMTSZ
 40
0.0
  9
$DIMTOL
 70
     0
  9
$DIMLIM
 70
     0
  9
$DIMTIH
 70
     1
  9
$DIMTOH
 70
     1
  9
$DIMSE1
 70
     0
  9
$DIMSE2
 70
     0
  9
$DIMTAD
 70
     1
  9
$DIMZIN
 70
     0
  9
$DIMBLK
  1

  9
$DIMASO
 70
     1
  9
$DIMSHO
 70
     1
  9
$DIMPOST
  1

  9
$DIMAPOST
  1

  9
$DIMALT
 70
     0
  9
$DIMALTD
 70
     3
  9
$DIMALTF
 40
0.0393700787
  9
$DIMLFAC
 40
1.0
  9
$DIMTOFL
 70
     1
  9
$DIMTVP
 40
0.0
  9
$DIMTIX
 70
     0
  9
$DIMSOXD
 70
     0
  9
$DIMSAH
 70
     0
  9
$DIMBLK1
  1

  9
$DIMBLK2
  1

  9
$DIMSTYLE
  2
ISO-25
  9
$DIMCLRD
 70
     0
  9
$DIMCLRE
 70
     0
  9
$DIMCLRT
 70
     0
  9
$DIMTFAC
 40
1.0
  9
$DIMGAP
 40
1.5
  9
$DIMJUST
 70
     0
  9
$DIMSD1
 70
     0
  9
$DIMSD2
 70
     0
  9
$DIMTOLJ
 70
     0
  9
$DIMTZIN
 70
     0
  9
$DIMALTZ
 70
     0
  9
$DIMALTTZ
 70
     0
  9
$DIMUPT
 70
     0
  9
$DIMDEC
 70
     2
  9
$DIMTDEC
 70
     2
  9
$DIMALTU
 70
     2
  9
$DIMALTTD
 70
     3
  9
$DIMTXSTY
  7
Standard
  9
$DIMAUNIT
 70
     0
  9
$DIMADEC
 70
     2
  9
$DIMALTRND
 40
0.0
  9
$DIMAZIN
 70
     0
  9
$DIMDSEP
 70
    44
  9
$DIMATFIT
 70
     3
  9
$DIMFRAC
 70
     0
  9
$DIMLDRBLK
  1

  9
$DIMLUNIT
 70
     2
  9
$DIMLWD
 70
    -2
  9
$DIMLWE
 70
    -2
  9
$DIMTMOVE
 70
     0
  9
$LUNITS
 70
     2
  9
$LUPREC
 70
     2
  9
$SKETCHINC
 40
1.0
  9
$FILLETRAD
 40
10.0
  9
$AUNITS
 70
     0
  9
$AUPREC
 70
     2
  9
$MENU
  1
.
  9
$ELEVATION
 40
0.0
  9
$PELEVATION
 40
0.0
  9
$THICKNESS
 40
0.0
  9
$LIMCHECK
 70
     0
  9
$CHAMFERA
 40
0.0
  9
$CHAMFERB
 40
0.0
  9
$CHAMFERC
 40
0.0
  9
$CHAMFERD
 40
0.0
  9
$SKPOLY
 70
     0
  9
$TDCREATE
 40
2458499.416292616
  9
$TDUCREATE
 40
2458499.082959282
  9
$TDUPDATE
 40
2458499.41630037
  9
$TDUUPDATE
 40
2458499.082967037
  9
$TDINDWG
 40
0.0000000116
  9
$TDUSRTIMER
 40
0.0000000116
  9
$USRTIMER
 70
     1
  9
$ANGBASE
 50
0.0
  9
$ANGDIR
 70
     0
  9
$PDMODE
 70
     0
  9
$PDSIZE
 40
-1.0
  9
$PLINEWID
 40
0.0
  9
$SPLFRAME
 70
     0
  9
$SPLINETYPE
 70
     6
  9
$SPLINESEGS
 70
     8
  9
$HANDSEED
  5
3EA
  9
$SURFTAB1
 70
     6
  9
$SURFTAB2
 70
     6
  9
$SURFTYPE
 70
     6
  9
$SURFU
 70
     6
  9
$SURFV
 70
     6
  9
$UCSBASE
  2

  9
$UCSNAME
  2

  9
$UCSORG
 10
0.0
 20
0.0
 30
0.0
  9
$UCSXDIR
 10
1.0
 20
0.0
 30
0.0
  9
$UCSYDIR
 10
0.0
 20
1.0
 30
0.0
  9
$UCSORTHOREF
  2

  9
$UCSORTHOVIEW
 70
     0
  9
$UCSORGTOP
 10
0.0
 20
0.0
 30
0.0
  9
$UCSORGBOTTOM
 10
0.0
 20
0.0
 30
0.0
  9
$UCSORGLEFT
 10
0.0
 20
0.0
 30
0.0
  9
$UCSORGRIGHT
 10
0.0
 20
0.0
 30
0.0
  9
$UCSORGFRONT
 10
0.0
 20
0.0
 30
0.0
  9
$UCSORGBACK
 10
0.0
 20
0.0
 30
0.0
  9
$PUCSBASE
  2

  9
$PUCSNAME
  2

  9
$PUCSORG
 10
0.0
 20
0.0
 30
0.0
  9
$PUCSXDIR
 10
1.0
 20
0.0
 30
0.0
  9
$PUCSYDIR
 10
0.0
 20
1.0
 30
0.0
  9
$PUCSORTHOREF
  2

  9
$PUCSORTHOVIEW
 70
     0
  9
$PUCSORGTOP
 10
0.0
 20
0.0
 30
0.0
  9
$PUCSORGBOTTOM
 10
0.0
 20
0.0
 30
0.0
  9
$PUCSORGLEFT
 10
0.0
 20
0.0
 30
0.0
  9
$PUCSORGRIGHT
 10
0.0
 20
0.0
 30
0.0
  9
$PUCSORGFRONT
 10
0.0
 20
0.0
 30
0.0
  9
$PUCSORGBACK
 10
0.0
 20
0.0
 30
0.0
  9
$USERI1
 70
     0
  9
$USERI2
 70
     0
  9
$USERI3
 70
     0
  9
$USERI4
 70
     0
  9
$USERI5
 70
     0
  9
$USERR1
 40
0.0
  9
$USERR2
 40
0.0
  9
$USERR3
 40
0.0
  9
$USERR4
 40
0.0
  9
$USERR5
 40
0.0
  9
$WORLDVIEW
 70
     1
  9
$SHADEDGE
 70
     3
  9
$SHADEDIF
 70
    70
  9
$TILEMODE
 70
     1
  9
$MAXACTVP
 70
    64
  9
$PINSBASE
 10
0.0
 20
0.0
 30
0.0
  9
$PLIMCHECK
 70
     0
  9
$PEXTMIN
 10
1.0000000000E+20
 20
1.0000000000E+20
 30
1.0000000000E+20
  9
$PEXTMAX
 10
-1.0000000000E+20
 20
-1.0000000000E+20
 30
-1.0000000000E+20
  9
$PLIMMIN
 10
0.0
 20
0.0
  9
$PLIMMAX
 10
420.0
 20
297.0
  9
$UNITMODE
 70
     0
  9
$VISRETAIN
 70
     1
  9
$PLINEGEN
 70
     0
  9
$PSLTSCALE
 70
     1
  9
$TREEDEPTH
 70
  3020
  9
$CMLSTYLE
  2
Standard
  9
$CMLJUST
 70
     0
  9
$CMLSCALE
 40
20.0
  9
$PROXYGRAPHICS
 70
     1
  9
$MEASUREMENT
 70
     1
  9
$CELWEIGHT
370
    -1
  9
$ENDCAPS
280
     0
  9
$JOINSTYLE
280
     0
  9
$LWDISPLAY
290
     1
  9
$INSUNITS
 70
     4
  9
$HYPERLINKBASE
  1

  9
$STYLESHEET
  1

  9
$XEDIT
290
     1
  9
$CEPSNTYPE
380
     0
  9
$PSTYLEMODE
290
     1
  9
$FINGERPRINTGUID
  2
{08608464-8363-4F7C-A765-86540554D508}
  9
$VERSIONGUID
  2
{FAEB1C32-E019-11D5-929B-00C0DF256EC4}
  9
$EXTNAMES
290
     1
  9
$PSVPSCALE
 40
0.0
  9
$OLESTARTUP
290
     0
  0
ENDSEC
  0
SECTION
  2
CLASSES
  0
CLASS
  1
ACDBDICTIONARYWDFLT
  2
AcDbDictionaryWithDefault
  3
ObjectDBX Classes
 90
        0
280
     0
281
     0
  0
CLASS
  1
VISUALSTYLE
  2
AcDbVisualStyle
  3
ObjectDBX Classes
 90
     4095
280
     0
281
     0
  0
CLASS
  1
MATERIAL
  2
AcDbMaterial
  3
ObjectDBX Classes
 90
     1153
280
     0
281
     0
  0
CLASS
  1
SCALE
  2
AcDbScale
  3
ObjectDBX Classes
 90
     1153
280
     0
281
     0
  0
CLASS
  1
TABLESTYLE
  2
AcDbTableStyle
  3
ObjectDBX Classes
 90
     4095
280
     0
281
     0
  0
CLASS
  1
MLEADERSTYLE
  2
AcDbMLeaderStyle
  3
ACDB_MLEADERSTYLE_CLASS
 90
     4095
280
     0
281
     0
  0
CLASS
  1
SUN
  2
AcDbSun
  3
SCENEOE
 90
     1153
280
     0
281
     0
  0
CLASS
  1
ACDBPLACEHOLDER
  2
AcDbPlaceHolder
  3
ObjectDBX Classes
 90
        0
280
     0
281
     0
  0
CLASS
  1
LAYOUT
  2
AcDbLayout
  3
ObjectDBX Classes
 90
        0
280
     0
281
     0
  0
ENDSEC
  0
SECTION
  2
TABLES
  0
TABLE
  2
VPORT
  5
8
330
0
100
AcDbSymbolTable
 70
     1
  0
VPORT
  5
29
330
8
100
AcDbSymbolTableRecord
100
AcDbViewportTableRecord
  2
*Active
 70
     0
 10
0.0
 20
0.0
 11
1.0
 21
1.0
 12
222.75
 22
157.5
 13
0.0
 23
0.0
 14
10.0
 24
10.0
 15
10.0
 25
10.0
 16
0.0
 26
0.0
 36
1.0
 17
0.0
 27
0.0
 37
0.0
 40
315.0
 41
1.4142857143
 42
50.0
 43
0.0
 44
0.0
 50
0.0
 51
0.0
 71
     0
 72
  2000
 73
     1
 74
     3
 75
     0
 76
     0
 77
     0
 78
     0
281
     0
 65
     1
110
0.0
120
0.0
130
0.0
111
1.0
121
0.0
131
0.0
112
0.0
122
1.0
132
0.0
 79
     0
146
0.0
  0
ENDTAB
  0
TABLE
  2
LTYPE
  5
5
330
0
100
AcDbSymbolTable
 70
     6
  0
LTYPE
  5
14
330
5
100
AcDbSymbolTableRecord
100
AcDbLinetypeTableRecord
  2
ByBlock
 70
     0
  3

 72
    65
 73
     0
 40
0.0
  0
LTYPE
  5
15
330
5
100
AcDbSymbolTableRecord
100
AcDbLinetypeTableRecord
  2
ByLayer
 70
     0
  3

 72
    65
 73
     0
 40
0.0
  0
LTYPE
  5
16
330
5
100
AcDbSymbolTableRecord
100
AcDbLinetypeTableRecord
  2
Continuous
 70
     0
  3
Solid line
 72
    65
 73
     0
 40
0.0
  0
LTYPE
  5
6E
330
5
100
AcDbSymbolTableRecord
100
AcDbLinetypeTableRecord
  2
HIDDEN
 70
     0
  3
Hidden __ __ __ __ __ __ __ __ __ __ __ __ __ __
 72
    65
 73
     2
 40
1.905
 49
1.27
 74
     0
 49
-0.635
 74
     0
  0
LTYPE
  5
6F
330
5
100
AcDbSymbolTableRecord
100
AcDbLinetypeTableRecord
  2
PHANTOM
 70
     0
  3
Phantom ______  __  __  ______  __  __  ______
 72
    65
 73
     6
 40
12.7
 49
6.35
 74
     0
 49
-1.27
 74
     0
 49
1.27
 74
     0
 49
-1.27
 74
     0
 49
1.27
 74
     0
 49
-1.27
 74
     0
  0
LTYPE
  5
70
330
5
100
AcDbSymbolTableRecord
100
AcDbLinetypeTableRecord
  2
CENTER
 70
     0
  3
Center ____ _ ____ _ ____ _ ____ _ ____ _ ____
 72
    65
 73
     4
 40
10.16
 49
6.35
 74
     0
 49
-1.27
 74
     0
 49
1.27
 74
     0
 49
-1.27
 74
     0
  0
LTYPE
  5
71
330
5
100
AcDbSymbolTableRecord
100
AcDbLinetypeTableRecord
  2
CENTERX2
 70
     0
  3
Center (2x) ________  __  ________  __  _____
 72
    65
 73
     4
 40
20.32
 49
12.7
 74
     0
 49
-2.54
 74
     0
 49
2.54
 74
     0
 49
-2.54
 74
     0
  0
LTYPE
  5
72
330
5
100
AcDbSymbolTableRecord
100
AcDbLinetypeTableRecord
  2
DOT2
 70
     0
  3
Dot (.5x) ........................................
 72
    65
 73
     2
 40
0.635
 49
0.0
 74
     0
 49
-0.635
 74
     0
  0
ENDTAB
  0
TABLE
  2
LAYER
  5
2
330
0
100
AcDbSymbolTable
 70
    10
  0
LAYER
  5
10
330
2
100
AcDbSymbolTableRecord
100
AcDbLayerTableRecord
  2
0
 70
     0
 62
     7
  6
Continuous
370
    -3
390
F
  0
LAYER
  5
73
330
2
100
AcDbSymbolTableRecord
100
AcDbLayerTableRecord
  2
SLD-0
 70
     0
 62
     7
  6
Continuous
370
    15
390
F
  0
LAYER
  5
74
330
2
100
AcDbSymbolTableRecord
100
AcDbLayerTableRecord
  2
輪廓線
 70
     0
 62
   219
  6
Continuous
370
    15
390
F
  0
LAYER
  5
75
330
2
100
AcDbSymbolTableRecord
100
AcDbLayerTableRecord
  2
DIM
 70
     0
 62
     7
  6
Continuous
370
    -3
390
F
  0
LAYER
  5
76
330
2
100
AcDbSymbolTableRecord
100
AcDbLayerTableRecord
  2
中心線
 70
     0
 62
     7
  6
CENTERX2
370
    -3
390
F
  0
LAYER
  5
77
330
2
100
AcDbSymbolTableRecord
100
AcDbLayerTableRecord
  2
虛線
 70
     0
 62
     7
  6
HIDDEN
370
    -3
390
F
  0
LAYER
  5
78
330
2
100
AcDbSymbolTableRecord
100
AcDbLayerTableRecord
  2
SECTION
 70
     0
 62
     7
  6
PHANTOM
370
    15
390
F
  0
LAYER
  5
79
330
2
100
AcDbSymbolTableRecord
100
AcDbLayerTableRecord
  2
假想線
 70
     0
 62
     7
  6
PHANTOM
370
    -3
390
F
  0
LAYER
  5
7A
330
2
100
AcDbSymbolTableRecord
100
AcDbLayerTableRecord
  2
圖層_1
 70
     0
 62
   179
  6
Continuous
370
    -3
390
F
  0
LAYER
  5
7B
330
2
100
AcDbSymbolTableRecord
100
AcDbLayerTableRecord
  2
工作區域參考線
 70
     0
 62
   179
  6
Continuous
370
    -3
390
F
  0
ENDTAB
  0
TABLE
  2
STYLE
  5
3
330
0
100
AcDbSymbolTable
 70
     3
  0
STYLE
  5
11
330
3
100
AcDbSymbolTableRecord
100
AcDbTextStyleTableRecord
  2
Standard
 70
     0
 40
0.0
 41
1.0
 50
0.0
 71
     0
 42
4.7625
  3
txt
  4

  0
STYLE
  5
CC
330
3
100
AcDbSymbolTableRecord
100
AcDbTextStyleTableRecord
  2
SLDTEXTSTYLE0
 70
     0
 40
0.0
 41
0.605
 50
0.0
 71
     0
 42
4.7625
  3
TXT
  4

  0
STYLE
  5
103
330
3
100
AcDbSymbolTableRecord
100
AcDbTextStyleTableRecord
  2
SLDTEXTSTYLE1
 70
     0
 40
0.0
 41
0.7
 50
0.0
 71
     0
 42
4.7625
  3
TXT
  4

  0
ENDTAB
  0
TABLE
  2
VIEW
  5
6
330
0
100
AcDbSymbolTable
 70
     0
  0
ENDTAB
  0
TABLE
  2
UCS
  5
7
330
0
100
AcDbSymbolTable
 70
     0
  0
ENDTAB
  0
TABLE
  2
APPID
  5
9
330
0
100
AcDbSymbolTable
 70
     1
  0
APPID
  5
12
330
9
100
AcDbSymbolTableRecord
100
AcDbRegAppTableRecord
  2
ACAD
 70
     0
  0
ENDTAB
  0
TABLE
  2
DIMSTYLE
  5
A
330
0
100
AcDbSymbolTable
 70
     3
100
AcDbDimStyleTable
  0
DIMSTYLE
105
27
330
A
100
AcDbSymbolTableRecord
100
AcDbDimStyleTableRecord
  2
ISO-25
 70
     0
 41
2.5
 42
0.625
 43
3.75
 44
1.25
 73
     0
 74
     0
 77
     1
 78
     8
140
2.5
141
2.5
143
0.0393700787
147
0.625
171
     3
172
     1
178
     0
271
     2
272
     2
274
     3
278
    44
283
     0
284
     8
340
11
  0
DIMSTYLE
105
18C
102
{ACAD_REACTORS
330
18B
330
196
330
1E3
330
1ED
330
1F7
330
201
330
20B
330
215
330
21F
330
229
330
233
330
23D
330
247
102
}
330
A
100
AcDbSymbolTableRecord
100
AcDbDimStyleTableRecord
  2
SLDDIMSTYLE0
 70
     0
 41
3.0
 44
0.0
 45
0.000000001
 73
     0
 74
     0
 77
     1
 78
    12
 79
     3
140
3.8137207031
147
0.9534301758
173
     1
178
     0
271
     2
272
     2
276
     2
284
    12
340
103
  0
DIMSTYLE
105
252
102
{ACAD_REACTORS
330
251
330
25B
102
}
330
A
100
AcDbSymbolTableRecord
100
AcDbDimStyleTableRecord
  2
SLDDIMSTYLE1
 70
     0
  3
<>
 41
3.0
 44
0.0
 45
0.000000001
 78
    12
 79
     3
140
3.8137207031
141
0.0
147
0.9534301758
173
     1
178
     0
271
     6
272
     2
276
     2
284
    12
340
103
  0
ENDTAB
  0
TABLE
  2
BLOCK_RECORD
  5
1
330
0
100
AcDbSymbolTable
 70
    32
  0
BLOCK_RECORD
  5
1F
330
1
100
AcDbSymbolTableRecord
100
AcDbBlockTableRecord
  2
*Model_Space
340
22
  0
BLOCK_RECORD
  5
1B
330
1
100
AcDbSymbolTableRecord
100
AcDbBlockTableRecord
  2
*Paper_Space
340
1E
  0
BLOCK_RECORD
  5
23
330
1
100
AcDbSymbolTableRecord
100
AcDbBlockTableRecord
  2
*Paper_Space0
340
26
  0
BLOCK_RECORD
  5
7C
330
1
100
AcDbSymbolTableRecord
100
AcDbBlockTableRecord
  2
圖塊6
340
0
102
{BLKREFS
331
CB
102
}
  0
BLOCK_RECORD
  5
CE
330
1
100
AcDbSymbolTableRecord
100
AcDbBlockTableRecord
  2
SW_NOTE_0
340
0
102
{BLKREFS
331
D4
102
}
  0
BLOCK_RECORD
  5
105
330
1
100
AcDbSymbolTableRecord
100
AcDbBlockTableRecord
  2
SW_NOTE_1
340
0
102
{BLKREFS
331
10A
102
}
  0
BLOCK_RECORD
  5
18D
330
1
100
AcDbSymbolTableRecord
100
AcDbBlockTableRecord
  2
_D
340
0
  0
BLOCK_RECORD
  5
197
330
1
100
AcDbSymbolTableRecord
100
AcDbBlockTableRecord
  2
_D_1
340
0
  0
BLOCK_RECORD
  5
1E4
330
1
100
AcDbSymbolTableRecord
100
AcDbBlockTableRecord
  2
_D_2
340
0
  0
BLOCK_RECORD
  5
1EE
330
1
100
AcDbSymbolTableRecord
100
AcDbBlockTableRecord
  2
_D_3
340
0
  0
BLOCK_RECORD
  5
1F8
330
1
100
AcDbSymbolTableRecord
100
AcDbBlockTableRecord
  2
_D_4
340
0
  0
BLOCK_RECORD
  5
202
330
1
100
AcDbSymbolTableRecord
100
AcDbBlockTableRecord
  2
_D_5
340
0
  0
BLOCK_RECORD
  5
20C
330
1
100
AcDbSymbolTableRecord
100
AcDbBlockTableRecord
  2
_D_6
340
0
  0
BLOCK_RECORD
  5
216
330
1
100
AcDbSymbolTableRecord
100
AcDbBlockTableRecord
  2
_D_7
340
0
  0
BLOCK_RECORD
  5
220
330
1
100
AcDbSymbolTableRecord
100
AcDbBlockTableRecord
  2
_D_8
340
0
  0
BLOCK_RECORD
  5
22A
330
1
100
AcDbSymbolTableRecord
100
AcDbBlockTableRecord
  2
_D_9
340
0
  0
BLOCK_RECORD
  5
234
330
1
100
AcDbSymbolTableRecord
100
AcDbBlockTableRecord
  2
_D_10
340
0
  0
BLOCK_RECORD
  5
23E
330
1
100
AcDbSymbolTableRecord
100
AcDbBlockTableRecord
  2
_D_11
340
0
  0
BLOCK_RECORD
  5
248
330
1
100
AcDbSymbolTableRecord
100
AcDbBlockTableRecord
  2
_D_12
340
0
  0
BLOCK_RECORD
  5
253
330
1
100
AcDbSymbolTableRecord
100
AcDbBlockTableRecord
  2
_D_13
340
0
  0
BLOCK_RECORD
  5
25C
330
1
100
AcDbSymbolTableRecord
100
AcDbBlockTableRecord
  2
_D_14
340
0
  0
BLOCK_RECORD
  5
264
330
1
100
AcDbSymbolTableRecord
100
AcDbBlockTableRecord
  2
SW_CENTERMARKSYMBOL_0
340
0
102
{BLKREFS
331
26F
102
}
  0
BLOCK_RECORD
  5
270
330
1
100
AcDbSymbolTableRecord
100
AcDbBlockTableRecord
  2
SW_CENTERMARKSYMBOL_1
340
0
102
{BLKREFS
331
27B
102
}
  0
BLOCK_RECORD
  5
27C
330
1
100
AcDbSymbolTableRecord
100
AcDbBlockTableRecord
  2
SW_CENTERMARKSYMBOL_2
340
0
102
{BLKREFS
331
287
102
}
  0
BLOCK_RECORD
  5
288
330
1
100
AcDbSymbolTableRecord
100
AcDbBlockTableRecord
  2
SW_CENTERMARKSYMBOL_3
340
0
102
{BLKREFS
331
293
102
}
  0
BLOCK_RECORD
  5
294
330
1
100
AcDbSymbolTableRecord
100
AcDbBlockTableRecord
  2
SW_CENTERMARKSYMBOL_4
340
0
102
{BLKREFS
331
29F
102
}
  0
BLOCK_RECORD
  5
2A0
330
1
100
AcDbSymbolTableRecord
100
AcDbBlockTableRecord
  2
SW_CENTERMARKSYMBOL_5
340
0
102
{BLKREFS
331
2AB
102
}
  0
BLOCK_RECORD
  5
2AC
330
1
100
AcDbSymbolTableRecord
100
AcDbBlockTableRecord
  2
SW_CENTERMARKSYMBOL_6
340
0
102
{BLKREFS
331
2B7
102
}
  0
BLOCK_RECORD
  5
2B8
330
1
100
AcDbSymbolTableRecord
100
AcDbBlockTableRecord
  2
SW_CENTERMARKSYMBOL_7
340
0
102
{BLKREFS
331
2C3
102
}
  0
BLOCK_RECORD
  5
2C4
330
1
100
AcDbSymbolTableRecord
100
AcDbBlockTableRecord
  2
SW_CENTERMARKSYMBOL_8
340
0
102
{BLKREFS
331
2CF
102
}
  0
BLOCK_RECORD
  5
2D0
330
1
100
AcDbSymbolTableRecord
100
AcDbBlockTableRecord
  2
SW_CENTERMARKSYMBOL_9
340
0
102
{BLKREFS
331
2DB
102
}
  0
BLOCK_RECORD
  5
2DC
330
1
100
AcDbSymbolTableRecord
100
AcDbBlockTableRecord
  2
SW_CENTERMARKSYMBOL_10
340
0
102
{BLKREFS
331
2E7
102
}
  0
BLOCK_RECORD
  5
2E8
330
1
100
AcDbSymbolTableRecord
100
AcDbBlockTableRecord
  2
SW_CENTERMARKSYMBOL_11
340
0
102
{BLKREFS
331
2F3
102
}
  0
BLOCK_RECORD
  5
2F4
330
1
100
AcDbSymbolTableRecord
100
AcDbBlockTableRecord
  2
SW_CENTERMARKSYMBOL_12
340
0
102
{BLKREFS
331
2FF
102
}
  0
ENDTAB
  0
ENDSEC
  0
SECTION
  2
BLOCKS
  0
BLOCK
  5
20
330
1F
100
AcDbEntity
  8
0
100
AcDbBlockBegin
  2
*Model_Space
 70
     0
 10
0.0
 20
0.0
 30
0.0
  3
*Model_Space
  1

  0
ENDBLK
  5
21
330
1F
100
AcDbEntity
  8
0
100
AcDbBlockEnd
  0
BLOCK
  5
1C
330
1B
100
AcDbEntity
 67
     1
  8
0
100
AcDbBlockBegin
  2
*Paper_Space
 70
     0
 10
0.0
 20
0.0
 30
0.0
  3
*Paper_Space
  1

  0
ENDBLK
  5
1D
330
1B
100
AcDbEntity
 67
     1
  8
0
100
AcDbBlockEnd
  0
BLOCK
  5
24
330
23
100
AcDbEntity
  8
0
100
AcDbBlockBegin
  2
*Paper_Space0
 70
     0
 10
0.0
 20
0.0
 30
0.0
  3
*Paper_Space0
  1

  0
ENDBLK
  5
25
330
23
100
AcDbEntity
  8
0
100
AcDbBlockEnd
  0
BLOCK
  5
7D
330
7C
100
AcDbEntity
  8
0
100
AcDbBlockBegin
  2
圖塊6
 70
     0
 10
0.0
 20
0.0
 30
0.0
  3
圖塊6
  1

  0
ARC
  5
7F
330
7C
100
AcDbEntity
  8
圖層_1
 62
     7
370
    30
100
AcDbCircle
 10
2.2952316509
 20
9.1531024337
 30
0.0
 40
2.295231650915506
100
AcDbArc
 50
130.2115225915
 51
228.588904108
  0
ARC
  5
80
330
7C
100
AcDbEntity
  8
圖層_1
 62
     7
370
    30
100
AcDbCircle
 10
7.2763703972
 20
8.9924181622
 30
0.0
 40
3.866003140226431
100
AcDbArc
 50
140.4331765613
 51
251.0865666567
  0
ARC
  5
81
330
7C
100
AcDbEntity
  8
圖層_1
 62
     7
370
    30
100
AcDbCircle
 10
7.7647562974
 20
9.4676339569
 30
0.0
 40
4.484454986654794
100
AcDbArc
 50
247.1485306747
 51
309.6030773927
  0
LINE
  5
82
330
7C
100
AcDbEntity
  8
圖層_1
 62
     7
370
    30
100
AcDbLine
 10
2.7733465903
 20
12.7982738976
 30
0.0
 11
0.813404208
 21
10.9058932828
 31
0.0
  0
LINE
  5
83
330
7C
100
AcDbEntity
  8
圖層_1
 62
     7
370
    30
100
AcDbLine
 10
0.7770343349
 20
7.4317177465
 30
0.0
 11
6.7908378002
 21
2.2048119861
 31
0.0
  0
LINE
  5
84
330
7C
100
AcDbEntity
  8
圖層_1
 62
     7
370
    30
100
AcDbLine
 10
6.7908378002
 20
2.2048119861
 30
0.0
 11
5.8442599196
 21
1.2809614004
 31
0.0
  0
LINE
  5
85
330
7C
100
AcDbEntity
  8
圖層_1
 62
     7
370
    30
100
AcDbLine
 10
5.8442599196
 20
1.2809614004
 30
0.0
 11
7.3320789667
 21
0.0
 31
0.0
  0
LINE
  5
86
330
7C
100
AcDbEntity
  8
圖層_1
 62
     7
370
    30
100
AcDbLine
 10
12.1465756182
 20
4.6748669483
 30
0.0
 11
10.6234410708
 21
6.0124555399
 31
0.0
  0
LINE
  5
87
330
7C
100
AcDbEntity
  8
圖層_1
 62
     7
370
    30
100
AcDbLine
 10
4.2961373614
 20
11.4549760463
 30
0.0
 11
2.7733465903
 21
12.7982738976
 31
0.0
  0
LINE
  5
88
330
7C
100
AcDbEntity
  8
圖層_1
 62
     7
370
    30
100
AcDbLine
 10
7.3320789667
 20
0.0
 30
0.0
 11
12.1465756182
 21
4.6748669483
 31
0.0
  0
ENDBLK
  5
7E
330
7C
100
AcDbEntity
  8
0
100
AcDbBlockEnd
  0
BLOCK
  5
CF
330
CE
100
AcDbEntity
  8
0
100
AcDbBlockBegin
  2
SW_NOTE_0
 70
     0
 10
0.0
 20
0.0
 30
0.0
  3
SW_NOTE_0
  1

  0
MTEXT
  5
D1
330
CE
100
AcDbEntity
  8
0
  6
Continuous
 62
     0
370
     0
100
AcDbMText
 10
0.0
 20
5.1159875922
 30
0.0
 40
3.96875
 41
0.0
 71
     1
 72
     1
  1
PROPRIETARY AND CONFIDENTIAL
  7
SLDTEXTSTYLE0
 73
     1
 44
1.0
  0
MTEXT
  5
D2
330
CE
100
AcDbEntity
  8
0
  6
Continuous
 62
     0
370
     0
100
AcDbMText
 10
0.0
 20
-0.12297522
 30
0.0
 40
2.778125
 41
0.0
 71
     1
 72
     1
  1
THE INFORMATION CONTAINED IN THIS DRAWING IS THE SOLE PROPERTY OF UNICE E-O SERVICES INC. ANY REPRODUCTION IN PART OR AS A WHOLE WITHOUT THE WRITTEN PERMISSION OF UNICE E-O SERVICES INC IS
  7
SLDTEXTSTYLE0
 73
     1
 44
1.0
  0
MTEXT
  5
D3
330
CE
100
AcDbEntity
  8
0
  6
Continuous
 62
     0
370
     0
100
AcDbMText
 10
0.0
 20
-3.8271418419
 30
0.0
 40
2.778125
 41
0.0
 71
     1
 72
     1
  1
PROHIBITED.
  7
SLDTEXTSTYLE0
 73
     1
 44
1.0
  0
ENDBLK
  5
D0
330
CE
100
AcDbEntity
  8
0
100
AcDbBlockEnd
  0
BLOCK
  5
106
330
105
100
AcDbEntity
  8
0
100
AcDbBlockBegin
  2
SW_NOTE_1
 70
     0
 10
0.0
 20
0.0
 30
0.0
  3
SW_NOTE_1
  1

  0
MTEXT
  5
108
330
105
100
AcDbEntity
  8
SLD-0
 62
     0
100
AcDbMText
 10
0.0
 20
3.0695925553
 30
0.0
 40
2.38125
 41
0.0
 71
     1
 72
     1
  1
No.5, Andong Rd., Chung Li District,
  7
SLDTEXTSTYLE0
 73
     1
 44
1.0
  0
MTEXT
  5
109
330
105
100
AcDbEntity
  8
SLD-0
 62
     0
100
AcDbMText
 10
0.0
 20
-0.1054074063
 30
0.0
 40
2.38125
 41
0.0
 71
     1
 72
     1
  1
Taoyuan City 32063, Taiwan, R.O.C.
  7
SLDTEXTSTYLE0
 73
     1
 44
1.0
  0
ENDBLK
  5
107
330
105
100
AcDbEntity
  8
0
100
AcDbBlockEnd
  0
BLOCK
  5
18E
330
18D
100
AcDbEntity
  8
0
100
AcDbBlockBegin
  2
_D
 70
     0
 10
0.0
 20
0.0
 30
0.0
  3
_D
  1

  0
SOLID
  5
190
330
18D
100
AcDbEntity
  8
DIM
100
AcDbTrace
 10
98.2143206283
 20
79.4997170754
 30
0.0
 11
97.8393206283
 21
76.4997170754
 31
0.0
 12
98.5893206283
 22
76.4997170754
 32
0.0
 13
98.5893206283
 23
76.4997170754
 33
0.0
  0
SOLID
  5
191
330
18D
100
AcDbEntity
  8
DIM
100
AcDbTrace
 10
98.2143206283
 20
59.4997170754
 30
0.0
 11
98.5893206283
 21
62.4997170754
 31
0.0
 12
97.8393206283
 22
62.4997170754
 32
0.0
 13
97.8393206283
 23
62.4997170754
 33
0.0
  0
LINE
  5
192
330
18D
100
AcDbEntity
  8
DIM
100
AcDbLine
 10
107.7143206283
 20
79.4997170754
 30
0.0
 11
96.7143206283
 21
79.4997170754
 31
0.0
  0
LINE
  5
193
330
18D
100
AcDbEntity
  8
DIM
100
AcDbLine
 10
107.2143206283
 20
59.4997170754
 30
0.0
 11
96.7143206283
 21
59.4997170754
 31
0.0
  0
LINE
  5
194
330
18D
100
AcDbEntity
  8
DIM
100
AcDbLine
 10
98.2143206283
 20
79.4997170754
 30
0.0
 11
98.2143206283
 21
59.4997170754
 31
0.0
  0
MTEXT
  5
195
330
18D
100
AcDbEntity
  8
DIM
100
AcDbMText
 10
93.60993197
 20
67.2639879445
 30
0.0
 40
3.571875
 41
0.0
 71
     1
 72
     1
  1
20
  7
SLDTEXTSTYLE1
 11
-7.044195017643634E-15
 21
1.0
 31
0.0
 73
     1
 44
1.0
  0
ENDBLK
  5
18F
330
18D
100
AcDbEntity
  8
0
100
AcDbBlockEnd
  0
BLOCK
  5
198
330
197
100
AcDbEntity
  8
0
100
AcDbBlockBegin
  2
_D_1
 70
     0
 10
0.0
 20
0.0
 30
0.0
  3
_D_1
  1

  0
SOLID
  5
19A
330
197
100
AcDbEntity
  8
DIM
100
AcDbTrace
 10
184.2143206283
 20
76.5997170754
 30
0.0
 11
183.8393206283
 21
73.5997170754
 31
0.0
 12
184.5893206283
 22
73.5997170754
 32
0.0
 13
184.5893206283
 23
73.5997170754
 33
0.0
  0
SOLID
  5
19B
330
197
100
AcDbEntity
  8
DIM
100
AcDbTrace
 10
184.2143206283
 20
59.4997170754
 30
0.0
 11
184.5893206283
 21
62.4997170754
 31
0.0
 12
183.8393206283
 22
62.4997170754
 32
0.0
 13
183.8393206283
 23
62.4997170754
 33
0.0
  0
LINE
  5
19C
330
197
100
AcDbEntity
  8
DIM
100
AcDbLine
 10
146.7143206283
 20
76.5997170754
 30
0.0
 11
185.7143206283
 21
76.5997170754
 31
0.0
  0
LINE
  5
19D
330
197
100
AcDbEntity
  8
DIM
100
AcDbLine
 10
175.2143206283
 20
59.4997170754
 30
0.0
 11
185.7143206283
 21
59.4997170754
 31
0.0
  0
LINE
  5
19E
330
197
100
AcDbEntity
  8
DIM
100
AcDbLine
 10
184.2143206283
 20
76.5997170754
 30
0.0
 11
184.2143206283
 21
59.4997170754
 31
0.0
  0
MTEXT
  5
19F
330
197
100
AcDbEntity
  8
DIM
100
AcDbMText
 10
179.60993197
 20
64.1371913582
 30
0.0
 40
3.571875
 41
0.0
 71
     1
 72
     1
  1
17.1
  7
SLDTEXTSTYLE1
 11
-7.044195017643634E-15
 21
1.0
 31
0.0
 73
     1
 44
1.0
  0
ENDBLK
  5
199
330
197
100
AcDbEntity
  8
0
100
AcDbBlockEnd
  0
BLOCK
  5
1E5
330
1E4
100
AcDbEntity
  8
0
100
AcDbBlockBegin
  2
_D_2
 70
     0
 10
0.0
 20
0.0
 30
0.0
  3
_D_2
  1

  0
SOLID
  5
1E7
330
1E4
100
AcDbEntity
  8
DIM
100
AcDbTrace
 10
141.2143206283
 20
248.584338234
 30
0.0
 11
138.2143206283
 21
248.959338234
 31
0.0
 12
138.2143206283
 22
248.209338234
 32
0.0
 13
138.2143206283
 23
248.209338234
 33
0.0
  0
SOLID
  5
1E8
330
1E4
100
AcDbEntity
  8
DIM
100
AcDbTrace
 10
116.2143206283
 20
248.584338234
 30
0.0
 11
119.2143206283
 21
248.209338234
 31
0.0
 12
119.2143206283
 22
248.959338234
 32
0.0
 13
119.2143206283
 23
248.959338234
 33
0.0
  0
LINE
  5
1E9
330
1E4
100
AcDbEntity
  8
DIM
100
AcDbLine
 10
141.2143206283
 20
222.4005720499
 30
0.0
 11
141.2143206283
 21
250.084338234
 31
0.0
  0
LINE
  5
1EA
330
1E4
100
AcDbEntity
  8
DIM
100
AcDbLine
 10
116.2143206283
 20
222.4005720499
 30
0.0
 11
116.2143206283
 21
250.084338234
 31
0.0
  0
LINE
  5
1EB
330
1E4
100
AcDbEntity
  8
DIM
100
AcDbLine
 10
141.2143206283
 20
248.584338234
 30
0.0
 11
116.2143206283
 21
248.584338234
 31
0.0
  0
MTEXT
  5
1EC
330
1E4
100
AcDbEntity
  8
DIM
100
AcDbMText
 10
126.4785914974
 20
253.1887268923
 30
0.0
 40
3.571875
 41
0.0
 71
     1
 72
     1
  1
25
  7
SLDTEXTSTYLE1
 73
     1
 44
1.0
  0
ENDBLK
  5
1E6
330
1E4
100
AcDbEntity
  8
0
100
AcDbBlockEnd
  0
BLOCK
  5
1EF
330
1EE
100
AcDbEntity
  8
0
100
AcDbBlockBegin
  2
_D_3
 70
     0
 10
0.0
 20
0.0
 30
0.0
  3
_D_3
  1

  0
SOLID
  5
1F1
330
1EE
100
AcDbEntity
  8
DIM
100
AcDbTrace
 10
141.2143206283
 20
248.584338234
 30
0.0
 11
144.2143206283
 21
248.209338234
 31
0.0
 12
144.2143206283
 22
248.959338234
 32
0.0
 13
144.2143206283
 23
248.959338234
 33
0.0
  0
SOLID
  5
1F2
330
1EE
100
AcDbEntity
  8
DIM
100
AcDbTrace
 10
166.2143206283
 20
248.584338234
 30
0.0
 11
163.2143206283
 21
248.959338234
 31
0.0
 12
163.2143206283
 22
248.209338234
 32
0.0
 13
163.2143206283
 23
248.209338234
 33
0.0
  0
LINE
  5
1F3
330
1EE
100
AcDbEntity
  8
DIM
100
AcDbLine
 10
141.2143206283
 20
222.4005720499
 30
0.0
 11
141.2143206283
 21
250.084338234
 31
0.0
  0
LINE
  5
1F4
330
1EE
100
AcDbEntity
  8
DIM
100
AcDbLine
 10
166.2143206283
 20
222.4005720499
 30
0.0
 11
166.2143206283
 21
250.084338234
 31
0.0
  0
LINE
  5
1F5
330
1EE
100
AcDbEntity
  8
DIM
100
AcDbLine
 10
141.2143206283
 20
248.584338234
 30
0.0
 11
166.2143206283
 21
248.584338234
 31
0.0
  0
MTEXT
  5
1F6
330
1EE
100
AcDbEntity
  8
DIM
100
AcDbMText
 10
151.4785914974
 20
253.1887268923
 30
0.0
 40
3.571875
 41
0.0
 71
     1
 72
     1
  1
25
  7
SLDTEXTSTYLE1
 73
     1
 44
1.0
  0
ENDBLK
  5
1F0
330
1EE
100
AcDbEntity
  8
0
100
AcDbBlockEnd
  0
BLOCK
  5
1F9
330
1F8
100
AcDbEntity
  8
0
100
AcDbBlockBegin
  2
_D_4
 70
     0
 10
0.0
 20
0.0
 30
0.0
  3
_D_4
  1

  0
SOLID
  5
1FB
330
1F8
100
AcDbEntity
  8
DIM
100
AcDbTrace
 10
85.0305544443
 20
217.4005720499
 30
0.0
 11
84.6555544443
 21
214.4005720499
 31
0.0
 12
85.4055544443
 22
214.4005720499
 32
0.0
 13
85.4055544443
 23
214.4005720499
 33
0.0
  0
SOLID
  5
1FC
330
1F8
100
AcDbEntity
  8
DIM
100
AcDbTrace
 10
85.0305544443
 20
192.4005720499
 30
0.0
 11
85.4055544443
 21
195.4005720499
 31
0.0
 12
84.6555544443
 22
195.4005720499
 32
0.0
 13
84.6555544443
 23
195.4005720499
 33
0.0
  0
LINE
  5
1FD
330
1F8
100
AcDbEntity
  8
DIM
100
AcDbLine
 10
111.2143206283
 20
217.4005720499
 30
0.0
 11
83.5305544443
 21
217.4005720499
 31
0.0
  0
LINE
  5
1FE
330
1F8
100
AcDbEntity
  8
DIM
100
AcDbLine
 10
111.2143206283
 20
192.4005720499
 30
0.0
 11
83.5305544443
 21
192.4005720499
 31
0.0
  0
LINE
  5
1FF
330
1F8
100
AcDbEntity
  8
DIM
100
AcDbLine
 10
85.0305544443
 20
217.4005720499
 30
0.0
 11
85.0305544443
 21
192.4005720499
 31
0.0
  0
MTEXT
  5
200
330
1F8
100
AcDbEntity
  8
DIM
100
AcDbMText
 10
80.4261657859
 20
202.664842919
 30
0.0
 40
3.571875
 41
0.0
 71
     1
 72
     1
  1
25
  7
SLDTEXTSTYLE1
 11
-7.044195017643634E-15
 21
1.0
 31
0.0
 73
     1
 44
1.0
  0
ENDBLK
  5
1FA
330
1F8
100
AcDbEntity
  8
0
100
AcDbBlockEnd
  0
BLOCK
  5
203
330
202
100
AcDbEntity
  8
0
100
AcDbBlockBegin
  2
_D_5
 70
     0
 10
0.0
 20
0.0
 30
0.0
  3
_D_5
  1

  0
SOLID
  5
205
330
202
100
AcDbEntity
  8
DIM
100
AcDbTrace
 10
85.0305544443
 20
192.4005720499
 30
0.0
 11
84.6555544443
 21
189.4005720499
 31
0.0
 12
85.4055544443
 22
189.4005720499
 32
0.0
 13
85.4055544443
 23
189.4005720499
 33
0.0
  0
SOLID
  5
206
330
202
100
AcDbEntity
  8
DIM
100
AcDbTrace
 10
85.0305544443
 20
167.4005720499
 30
0.0
 11
85.4055544443
 21
170.4005720499
 31
0.0
 12
84.6555544443
 22
170.4005720499
 32
0.0
 13
84.6555544443
 23
170.4005720499
 33
0.0
  0
LINE
  5
207
330
202
100
AcDbEntity
  8
DIM
100
AcDbLine
 10
111.2143206283
 20
192.4005720499
 30
0.0
 11
83.5305544443
 21
192.4005720499
 31
0.0
  0
LINE
  5
208
330
202
100
AcDbEntity
  8
DIM
100
AcDbLine
 10
111.2143206283
 20
167.4005720499
 30
0.0
 11
83.5305544443
 21
167.4005720499
 31
0.0
  0
LINE
  5
209
330
202
100
AcDbEntity
  8
DIM
100
AcDbLine
 10
85.0305544443
 20
192.4005720499
 30
0.0
 11
85.0305544443
 21
167.4005720499
 31
0.0
  0
MTEXT
  5
20A
330
202
100
AcDbEntity
  8
DIM
100
AcDbMText
 10
80.4261657859
 20
177.664842919
 30
0.0
 40
3.571875
 41
0.0
 71
     1
 72
     1
  1
25
  7
SLDTEXTSTYLE1
 11
-7.044195017643634E-15
 21
1.0
 31
0.0
 73
     1
 44
1.0
  0
ENDBLK
  5
204
330
202
100
AcDbEntity
  8
0
100
AcDbBlockEnd
  0
BLOCK
  5
20D
330
20C
100
AcDbEntity
  8
0
100
AcDbBlockBegin
  2
_D_6
 70
     0
 10
0.0
 20
0.0
 30
0.0
  3
_D_6
  1

  0
SOLID
  5
20F
330
20C
100
AcDbEntity
  8
DIM
100
AcDbTrace
 10
153.7143206283
 20
241.084338234
 30
0.0
 11
150.7143206283
 21
241.459338234
 31
0.0
 12
150.7143206283
 22
240.709338234
 32
0.0
 13
150.7143206283
 23
240.709338234
 33
0.0
  0
SOLID
  5
210
330
20C
100
AcDbEntity
  8
DIM
100
AcDbTrace
 10
141.2143206283
 20
241.084338234
 30
0.0
 11
144.2143206283
 21
240.709338234
 31
0.0
 12
144.2143206283
 22
241.459338234
 32
0.0
 13
144.2143206283
 23
241.459338234
 33
0.0
  0
LINE
  5
211
330
20C
100
AcDbEntity
  8
DIM
100
AcDbLine
 10
153.7143206283
 20
209.0505720499
 30
0.0
 11
153.7143206283
 21
242.584338234
 31
0.0
  0
LINE
  5
212
330
20C
100
AcDbEntity
  8
DIM
100
AcDbLine
 10
141.2143206283
 20
197.4005720499
 30
0.0
 11
141.2143206283
 21
242.584338234
 31
0.0
  0
LINE
  5
213
330
20C
100
AcDbEntity
  8
DIM
100
AcDbLine
 10
153.7143206283
 20
241.084338234
 30
0.0
 11
141.2143206283
 21
241.084338234
 31
0.0
  0
MTEXT
  5
214
330
20C
100
AcDbEntity
  8
DIM
100
AcDbMText
 10
143.5517949112
 20
245.6887268923
 30
0.0
 40
3.571875
 41
0.0
 71
     1
 72
     1
  1
12.5
  7
SLDTEXTSTYLE1
 73
     1
 44
1.0
  0
ENDBLK
  5
20E
330
20C
100
AcDbEntity
  8
0
100
AcDbBlockEnd
  0
BLOCK
  5
217
330
216
100
AcDbEntity
  8
0
100
AcDbBlockBegin
  2
_D_7
 70
     0
 10
0.0
 20
0.0
 30
0.0
  3
_D_7
  1

  0
SOLID
  5
219
330
216
100
AcDbEntity
  8
DIM
100
AcDbTrace
 10
128.7143206283
 20
241.084338234
 30
0.0
 11
131.7143206283
 21
240.709338234
 31
0.0
 12
131.7143206283
 22
241.459338234
 32
0.0
 13
131.7143206283
 23
241.459338234
 33
0.0
  0
SOLID
  5
21A
330
216
100
AcDbEntity
  8
DIM
100
AcDbTrace
 10
141.2143206283
 20
241.084338234
 30
0.0
 11
138.2143206283
 21
241.459338234
 31
0.0
 12
138.2143206283
 22
240.709338234
 32
0.0
 13
138.2143206283
 23
240.709338234
 33
0.0
  0
LINE
  5
21B
330
216
100
AcDbEntity
  8
DIM
100
AcDbLine
 10
128.7143206283
 20
209.0505720499
 30
0.0
 11
128.7143206283
 21
242.584338234
 31
0.0
  0
LINE
  5
21C
330
216
100
AcDbEntity
  8
DIM
100
AcDbLine
 10
141.2143206283
 20
197.4005720499
 30
0.0
 11
141.2143206283
 21
242.584338234
 31
0.0
  0
LINE
  5
21D
330
216
100
AcDbEntity
  8
DIM
100
AcDbLine
 10
128.7143206283
 20
241.084338234
 30
0.0
 11
141.2143206283
 21
241.084338234
 31
0.0
  0
MTEXT
  5
21E
330
216
100
AcDbEntity
  8
DIM
100
AcDbMText
 10
131.0517949112
 20
245.6887268923
 30
0.0
 40
3.571875
 41
0.0
 71
     1
 72
     1
  1
12.5
  7
SLDTEXTSTYLE1
 73
     1
 44
1.0
  0
ENDBLK
  5
218
330
216
100
AcDbEntity
  8
0
100
AcDbBlockEnd
  0
BLOCK
  5
221
330
220
100
AcDbEntity
  8
0
100
AcDbBlockBegin
  2
_D_8
 70
     0
 10
0.0
 20
0.0
 30
0.0
  3
_D_8
  1

  0
SOLID
  5
223
330
220
100
AcDbEntity
  8
DIM
100
AcDbTrace
 10
92.5305544443
 20
204.9005720499
 30
0.0
 11
92.1555544443
 21
201.9005720499
 31
0.0
 12
92.9055544443
 22
201.9005720499
 32
0.0
 13
92.9055544443
 23
201.9005720499
 33
0.0
  0
SOLID
  5
224
330
220
100
AcDbEntity
  8
DIM
100
AcDbTrace
 10
92.5305544443
 20
192.4005720499
 30
0.0
 11
92.9055544443
 21
195.4005720499
 31
0.0
 12
92.1555544443
 22
195.4005720499
 32
0.0
 13
92.1555544443
 23
195.4005720499
 33
0.0
  0
LINE
  5
225
330
220
100
AcDbEntity
  8
DIM
100
AcDbLine
 10
124.5643206283
 20
204.9005720499
 30
0.0
 11
91.0305544443
 21
204.9005720499
 31
0.0
  0
LINE
  5
226
330
220
100
AcDbEntity
  8
DIM
100
AcDbLine
 10
111.2143206283
 20
192.4005720499
 30
0.0
 11
91.0305544443
 21
192.4005720499
 31
0.0
  0
LINE
  5
227
330
220
100
AcDbEntity
  8
DIM
100
AcDbLine
 10
92.5305544443
 20
204.9005720499
 30
0.0
 11
92.5305544443
 21
192.4005720499
 31
0.0
  0
MTEXT
  5
228
330
220
100
AcDbEntity
  8
DIM
100
AcDbMText
 10
87.9261657859
 20
194.7380463327
 30
0.0
 40
3.571875
 41
0.0
 71
     1
 72
     1
  1
12.5
  7
SLDTEXTSTYLE1
 11
-7.044195017643634E-15
 21
1.0
 31
0.0
 73
     1
 44
1.0
  0
ENDBLK
  5
222
330
220
100
AcDbEntity
  8
0
100
AcDbBlockEnd
  0
BLOCK
  5
22B
330
22A
100
AcDbEntity
  8
0
100
AcDbBlockBegin
  2
_D_9
 70
     0
 10
0.0
 20
0.0
 30
0.0
  3
_D_9
  1

  0
SOLID
  5
22D
330
22A
100
AcDbEntity
  8
DIM
100
AcDbTrace
 10
92.5305544443
 20
192.4005720499
 30
0.0
 11
92.1555544443
 21
189.4005720499
 31
0.0
 12
92.9055544443
 22
189.4005720499
 32
0.0
 13
92.9055544443
 23
189.4005720499
 33
0.0
  0
SOLID
  5
22E
330
22A
100
AcDbEntity
  8
DIM
100
AcDbTrace
 10
92.5305544443
 20
179.9005720499
 30
0.0
 11
92.9055544443
 21
182.9005720499
 31
0.0
 12
92.1555544443
 22
182.9005720499
 32
0.0
 13
92.1555544443
 23
182.9005720499
 33
0.0
  0
LINE
  5
22F
330
22A
100
AcDbEntity
  8
DIM
100
AcDbLine
 10
111.2143206283
 20
192.4005720499
 30
0.0
 11
91.0305544443
 21
192.4005720499
 31
0.0
  0
LINE
  5
230
330
22A
100
AcDbEntity
  8
DIM
100
AcDbLine
 10
124.5643206283
 20
179.9005720499
 30
0.0
 11
91.0305544443
 21
179.9005720499
 31
0.0
  0
LINE
  5
231
330
22A
100
AcDbEntity
  8
DIM
100
AcDbLine
 10
92.5305544443
 20
192.4005720499
 30
0.0
 11
92.5305544443
 21
179.9005720499
 31
0.0
  0
MTEXT
  5
232
330
22A
100
AcDbEntity
  8
DIM
100
AcDbMText
 10
87.9261657859
 20
182.2380463327
 30
0.0
 40
3.571875
 41
0.0
 71
     1
 72
     1
  1
12.5
  7
SLDTEXTSTYLE1
 11
-7.044195017643634E-15
 21
1.0
 31
0.0
 73
     1
 44
1.0
  0
ENDBLK
  5
22C
330
22A
100
AcDbEntity
  8
0
100
AcDbBlockEnd
  0
BLOCK
  5
235
330
234
100
AcDbEntity
  8
0
100
AcDbBlockBegin
  2
_D_10
 70
     0
 10
0.0
 20
0.0
 30
0.0
  3
_D_10
  1

  0
SOLID
  5
237
330
234
100
AcDbEntity
  8
DIM
100
AcDbTrace
 10
68.2143206283
 20
137.4005720499
 30
0.0
 11
68.5893206283
 21
140.4005720499
 31
0.0
 12
67.8393206283
 22
140.4005720499
 32
0.0
 13
67.8393206283
 23
140.4005720499
 33
0.0
  0
SOLID
  5
238
330
234
100
AcDbEntity
  8
DIM
100
AcDbTrace
 10
68.2143206283
 20
224.9005720499
 30
0.0
 11
67.8393206283
 21
221.9005720499
 31
0.0
 12
68.5893206283
 22
221.9005720499
 32
0.0
 13
68.5893206283
 23
221.9005720499
 33
0.0
  0
LINE
  5
239
330
234
100
AcDbEntity
  8
DIM
100
AcDbLine
 10
139.7143206283
 20
137.4005720499
 30
0.0
 11
66.7143206283
 21
137.4005720499
 31
0.0
  0
LINE
  5
23A
330
234
100
AcDbEntity
  8
DIM
100
AcDbLine
 10
114.2143206283
 20
224.9005720499
 30
0.0
 11
66.7143206283
 21
224.9005720499
 31
0.0
  0
LINE
  5
23B
330
234
100
AcDbEntity
  8
DIM
100
AcDbLine
 10
68.2143206283
 20
137.4005720499
 30
0.0
 11
68.2143206283
 21
224.9005720499
 31
0.0
  0
MTEXT
  5
23C
330
234
100
AcDbEntity
  8
DIM
100
AcDbMText
 10
63.60993197
 20
177.2380463327
 30
0.0
 40
3.571875
 41
0.0
 71
     1
 72
     1
  1
87.5
  7
SLDTEXTSTYLE1
 11
-1.608122649676637E-16
 21
1.0
 31
0.0
 73
     1
 44
1.0
  0
ENDBLK
  5
236
330
234
100
AcDbEntity
  8
0
100
AcDbBlockEnd
  0
BLOCK
  5
23F
330
23E
100
AcDbEntity
  8
0
100
AcDbBlockBegin
  2
_D_11
 70
     0
 10
0.0
 20
0.0
 30
0.0
  3
_D_11
  1

  0
SOLID
  5
241
330
23E
100
AcDbEntity
  8
DIM
100
AcDbTrace
 10
108.7143206283
 20
257.9005720499
 30
0.0
 11
111.7143206283
 21
257.5255720499
 31
0.0
 12
111.7143206283
 22
258.2755720499
 32
0.0
 13
111.7143206283
 23
258.2755720499
 33
0.0
  0
SOLID
  5
242
330
23E
100
AcDbEntity
  8
DIM
100
AcDbTrace
 10
173.7143206283
 20
257.9005720499
 30
0.0
 11
170.7143206283
 21
258.2755720499
 31
0.0
 12
170.7143206283
 22
257.5255720499
 32
0.0
 13
170.7143206283
 23
257.5255720499
 33
0.0
  0
LINE
  5
243
330
23E
100
AcDbEntity
  8
DIM
100
AcDbLine
 10
108.7143206283
 20
219.4005720499
 30
0.0
 11
108.7143206283
 21
259.4005720499
 31
0.0
  0
LINE
  5
244
330
23E
100
AcDbEntity
  8
DIM
100
AcDbLine
 10
173.7143206283
 20
219.4005720499
 30
0.0
 11
173.7143206283
 21
259.4005720499
 31
0.0
  0
LINE
  5
245
330
23E
100
AcDbEntity
  8
DIM
100
AcDbLine
 10
108.7143206283
 20
257.9005720499
 30
0.0
 11
173.7143206283
 21
257.9005720499
 31
0.0
  0
MTEXT
  5
246
330
23E
100
AcDbEntity
  8
DIM
100
AcDbMText
 10
138.9785914974
 20
262.5049607083
 30
0.0
 40
3.571875
 41
0.0
 71
     1
 72
     1
  1
65
  7
SLDTEXTSTYLE1
 73
     1
 44
1.0
  0
ENDBLK
  5
240
330
23E
100
AcDbEntity
  8
0
100
AcDbBlockEnd
  0
BLOCK
  5
249
330
248
100
AcDbEntity
  8
0
100
AcDbBlockBegin
  2
_D_12
 70
     0
 10
0.0
 20
0.0
 30
0.0
  3
_D_12
  1

  0
SOLID
  5
24B
330
248
100
AcDbEntity
  8
DIM
100
AcDbTrace
 10
75.7143206283
 20
224.9005720499
 30
0.0
 11
75.3393206283
 21
221.9005720499
 31
0.0
 12
76.0893206283
 22
221.9005720499
 32
0.0
 13
76.0893206283
 23
221.9005720499
 33
0.0
  0
SOLID
  5
24C
330
248
100
AcDbEntity
  8
DIM
100
AcDbTrace
 10
75.7143206283
 20
159.9005720499
 30
0.0
 11
76.0893206283
 21
162.9005720499
 31
0.0
 12
75.3393206283
 22
162.9005720499
 32
0.0
 13
75.3393206283
 23
162.9005720499
 33
0.0
  0
LINE
  5
24D
330
248
100
AcDbEntity
  8
DIM
100
AcDbLine
 10
114.2143206283
 20
224.9005720499
 30
0.0
 11
74.2143206283
 21
224.9005720499
 31
0.0
  0
LINE
  5
24E
330
248
100
AcDbEntity
  8
DIM
100
AcDbLine
 10
114.2143206283
 20
159.9005720499
 30
0.0
 11
74.2143206283
 21
159.9005720499
 31
0.0
  0
LINE
  5
24F
330
248
100
AcDbEntity
  8
DIM
100
AcDbLine
 10
75.7143206283
 20
224.9005720499
 30
0.0
 11
75.7143206283
 21
159.9005720499
 31
0.0
  0
MTEXT
  5
250
330
248
100
AcDbEntity
  8
DIM
100
AcDbMText
 10
71.10993197
 20
190.164842919
 30
0.0
 40
3.571875
 41
0.0
 71
     1
 72
     1
  1
65
  7
SLDTEXTSTYLE1
 11
-7.044195017643634E-15
 21
1.0
 31
0.0
 73
     1
 44
1.0
  0
ENDBLK
  5
24A
330
248
100
AcDbEntity
  8
0
100
AcDbBlockEnd
  0
BLOCK
  5
254
330
253
100
AcDbEntity
  8
0
100
AcDbBlockBegin
  2
_D_13
 70
     0
 10
0.0
 20
0.0
 30
0.0
  3
_D_13
  1

  0
SOLID
  5
256
330
253
100
AcDbEntity
  8
DIM
100
AcDbTrace
 10
167.9820875813
 20
219.1683390028
 30
0.0
 11
170.3685729678
 21
221.0244943035
 31
0.0
 12
169.8382428819
 22
221.5548243894
 32
0.0
 13
169.8382428819
 23
221.5548243894
 33
0.0
  0
LINE
  5
257
330
253
100
AcDbEntity
  8
DIM
100
AcDbLine
 10
167.9820875813
 20
219.1683390028
 30
0.0
 11
189.8980868124
 21
241.084338234
 31
0.0
  0
LINE
  5
258
330
253
100
AcDbEntity
  8
DIM
100
AcDbLine
 10
189.8980868124
 20
241.084338234
 30
0.0
 11
210.7701716275
 21
241.084338234
 31
0.0
  0
MTEXT
  5
259
330
253
100
AcDbEntity
  8
DIM
100
AcDbMText
 10
191.7730868124
 20
250.4512268348
 30
0.0
 40
3.571875
 41
0.0
 71
     1
 72
     1
  1
9 HOLES,
  7
SLDTEXTSTYLE1
 73
     1
 44
1.0
  0
MTEXT
  5
25A
330
253
100
AcDbEntity
  8
DIM
100
AcDbMText
 10
191.7730868124
 20
245.6887268923
 30
0.0
 40
3.571875
 41
0.0
 71
     1
 72
     1
  1
M6
  7
SLDTEXTSTYLE1
 73
     1
 44
1.0
  0
ENDBLK
  5
255
330
253
100
AcDbEntity
  8
0
100
AcDbBlockEnd
  0
BLOCK
  5
25D
330
25C
100
AcDbEntity
  8
0
100
AcDbBlockBegin
  2
_D_14
 70
     0
 10
0.0
 20
0.0
 30
0.0
  3
_D_14
  1

  0
SOLID
  5
25F
330
25C
100
AcDbEntity
  8
DIM
100
AcDbTrace
 10
154.8810468173
 20
178.7338458609
 30
0.0
 11
156.7372021179
 21
176.3473604744
 31
0.0
 12
157.2675322038
 22
176.8776905603
 32
0.0
 13
157.2675322038
 23
176.8776905603
 33
0.0
  0
LINE
  5
260
330
25C
100
AcDbEntity
  8
DIM
100
AcDbLine
 10
154.8810468173
 20
178.7338458609
 30
0.0
 11
189.8980868124
 21
143.7168058658
 31
0.0
  0
LINE
  5
261
330
25C
100
AcDbEntity
  8
DIM
100
AcDbLine
 10
189.8980868124
 20
143.7168058658
 30
0.0
 11
210.7701716275
 21
143.7168058658
 31
0.0
  0
MTEXT
  5
262
330
25C
100
AcDbEntity
  8
DIM
100
AcDbMText
 10
191.7730868124
 20
153.0836944666
 30
0.0
 40
3.571875
 41
0.0
 71
     1
 72
     1
  1
4 HOLES,
  7
SLDTEXTSTYLE1
 73
     1
 44
1.0
  0
MTEXT
  5
263
330
25C
100
AcDbEntity
  8
DIM
100
AcDbMText
 10
191.7730868124
 20
148.3211945242
 30
0.0
 40
3.571875
 41
0.0
 71
     1
 72
     1
  1
M4
  7
SLDTEXTSTYLE1
 73
     1
 44
1.0
  0
ENDBLK
  5
25E
330
25C
100
AcDbEntity
  8
0
100
AcDbBlockEnd
  0
BLOCK
  5
265
330
264
100
AcDbEntity
  8
0
100
AcDbBlockBegin
  2
SW_CENTERMARKSYMBOL_0
 70
     0
 10
0.0
 20
0.0
 30
0.0
  3
SW_CENTERMARKSYMBOL_0
  1

  0
LINE
  5
267
330
264
100
AcDbEntity
  8
DIM
 62
     0
100
AcDbLine
 10
0.0
 20
0.0
 30
0.0
 11
0.0
 21
1.0
 31
0.0
  0
LINE
  5
268
330
264
100
AcDbEntity
  8
DIM
 62
     0
100
AcDbLine
 10
0.0
 20
0.0
 30
0.0
 11
-1.0
 21
0.0
 31
0.0
  0
LINE
  5
269
330
264
100
AcDbEntity
  8
DIM
 62
     0
100
AcDbLine
 10
0.0
 20
0.0
 30
0.0
 11
0.0
 21
-1.0
 31
0.0
  0
LINE
  5
26A
330
264
100
AcDbEntity
  8
DIM
 62
     0
100
AcDbLine
 10
0.0
 20
0.0
 30
0.0
 11
1.0
 21
0.0
 31
0.0
  0
LINE
  5
26B
330
264
100
AcDbEntity
  8
DIM
 62
     0
100
AcDbLine
 10
0.0
 20
2.0
 30
0.0
 11
0.0
 21
3.5
 31
0.0
  0
LINE
  5
26C
330
264
100
AcDbEntity
  8
DIM
 62
     0
100
AcDbLine
 10
-2.0
 20
0.0
 30
0.0
 11
-3.5
 21
0.0
 31
0.0
  0
LINE
  5
26D
330
264
100
AcDbEntity
  8
DIM
 62
     0
100
AcDbLine
 10
0.0
 20
-2.0
 30
0.0
 11
0.0
 21
-3.5
 31
0.0
  0
LINE
  5
26E
330
264
100
AcDbEntity
  8
DIM
 62
     0
100
AcDbLine
 10
2.0
 20
0.0
 30
0.0
 11
3.5
 21
0.0
 31
0.0
  0
ENDBLK
  5
266
330
264
100
AcDbEntity
  8
0
100
AcDbBlockEnd
  0
BLOCK
  5
271
330
270
100
AcDbEntity
  8
0
100
AcDbBlockBegin
  2
SW_CENTERMARKSYMBOL_1
 70
     0
 10
0.0
 20
0.0
 30
0.0
  3
SW_CENTERMARKSYMBOL_1
  1

  0
LINE
  5
273
330
270
100
AcDbEntity
  8
DIM
 62
     0
100
AcDbLine
 10
0.0
 20
0.0
 30
0.0
 11
0.0
 21
1.0
 31
0.0
  0
LINE
  5
274
330
270
100
AcDbEntity
  8
DIM
 62
     0
100
AcDbLine
 10
0.0
 20
0.0
 30
0.0
 11
-1.0
 21
0.0
 31
0.0
  0
LINE
  5
275
330
270
100
AcDbEntity
  8
DIM
 62
     0
100
AcDbLine
 10
0.0
 20
0.0
 30
0.0
 11
0.0
 21
-1.0
 31
0.0
  0
LINE
  5
276
330
270
100
AcDbEntity
  8
DIM
 62
     0
100
AcDbLine
 10
0.0
 20
0.0
 30
0.0
 11
1.0
 21
0.0
 31
0.0
  0
LINE
  5
277
330
270
100
AcDbEntity
  8
DIM
 62
     0
100
AcDbLine
 10
0.0
 20
2.0
 30
0.0
 11
0.0
 21
3.5
 31
0.0
  0
LINE
  5
278
330
270
100
AcDbEntity
  8
DIM
 62
     0
100
AcDbLine
 10
-2.0
 20
0.0
 30
0.0
 11
-3.5
 21
0.0
 31
0.0
  0
LINE
  5
279
330
270
100
AcDbEntity
  8
DIM
 62
     0
100
AcDbLine
 10
0.0
 20
-2.0
 30
0.0
 11
0.0
 21
-3.5
 31
0.0
  0
LINE
  5
27A
330
270
100
AcDbEntity
  8
DIM
 62
     0
100
AcDbLine
 10
2.0
 20
0.0
 30
0.0
 11
3.5
 21
0.0
 31
0.0
  0
ENDBLK
  5
272
330
270
100
AcDbEntity
  8
0
100
AcDbBlockEnd
  0
BLOCK
  5
27D
330
27C
100
AcDbEntity
  8
0
100
AcDbBlockBegin
  2
SW_CENTERMARKSYMBOL_2
 70
     0
 10
0.0
 20
0.0
 30
0.0
  3
SW_CENTERMARKSYMBOL_2
  1

  0
LINE
  5
27F
330
27C
100
AcDbEntity
  8
DIM
 62
     0
100
AcDbLine
 10
0.0
 20
0.0
 30
0.0
 11
0.0
 21
1.0
 31
0.0
  0
LINE
  5
280
330
27C
100
AcDbEntity
  8
DIM
 62
     0
100
AcDbLine
 10
0.0
 20
0.0
 30
0.0
 11
-1.0
 21
0.0
 31
0.0
  0
LINE
  5
281
330
27C
100
AcDbEntity
  8
DIM
 62
     0
100
AcDbLine
 10
0.0
 20
0.0
 30
0.0
 11
0.0
 21
-1.0
 31
0.0
  0
LINE
  5
282
330
27C
100
AcDbEntity
  8
DIM
 62
     0
100
AcDbLine
 10
0.0
 20
0.0
 30
0.0
 11
1.0
 21
0.0
 31
0.0
  0
LINE
  5
283
330
27C
100
AcDbEntity
  8
DIM
 62
     0
100
AcDbLine
 10
0.0
 20
2.0
 30
0.0
 11
0.0
 21
3.5
 31
0.0
  0
LINE
  5
284
330
27C
100
AcDbEntity
  8
DIM
 62
     0
100
AcDbLine
 10
-2.0
 20
0.0
 30
0.0
 11
-3.5
 21
0.0
 31
0.0
  0
LINE
  5
285
330
27C
100
AcDbEntity
  8
DIM
 62
     0
100
AcDbLine
 10
0.0
 20
-2.0
 30
0.0
 11
0.0
 21
-3.5
 31
0.0
  0
LINE
  5
286
330
27C
100
AcDbEntity
  8
DIM
 62
     0
100
AcDbLine
 10
2.0
 20
0.0
 30
0.0
 11
3.5
 21
0.0
 31
0.0
  0
ENDBLK
  5
27E
330
27C
100
AcDbEntity
  8
0
100
AcDbBlockEnd
  0
BLOCK
  5
289
330
288
100
AcDbEntity
  8
0
100
AcDbBlockBegin
  2
SW_CENTERMARKSYMBOL_3
 70
     0
 10
0.0
 20
0.0
 30
0.0
  3
SW_CENTERMARKSYMBOL_3
  1

  0
LINE
  5
28B
330
288
100
AcDbEntity
  8
DIM
 62
     0
100
AcDbLine
 10
0.0
 20
0.0
 30
0.0
 11
0.0
 21
1.0
 31
0.0
  0
LINE
  5
28C
330
288
100
AcDbEntity
  8
DIM
 62
     0
100
AcDbLine
 10
0.0
 20
0.0
 30
0.0
 11
-1.0
 21
0.0
 31
0.0
  0
LINE
  5
28D
330
288
100
AcDbEntity
  8
DIM
 62
     0
100
AcDbLine
 10
0.0
 20
0.0
 30
0.0
 11
0.0
 21
-1.0
 31
0.0
  0
LINE
  5
28E
330
288
100
AcDbEntity
  8
DIM
 62
     0
100
AcDbLine
 10
0.0
 20
0.0
 30
0.0
 11
1.0
 21
0.0
 31
0.0
  0
LINE
  5
28F
330
288
100
AcDbEntity
  8
DIM
 62
     0
100
AcDbLine
 10
0.0
 20
2.0
 30
0.0
 11
0.0
 21
2.65
 31
0.0
  0
LINE
  5
290
330
288
100
AcDbEntity
  8
DIM
 62
     0
100
AcDbLine
 10
-2.0
 20
0.0
 30
0.0
 11
-2.65
 21
0.0
 31
0.0
  0
LINE
  5
291
330
288
100
AcDbEntity
  8
DIM
 62
     0
100
AcDbLine
 10
0.0
 20
-2.0
 30
0.0
 11
0.0
 21
-2.65
 31
0.0
  0
LINE
  5
292
330
288
100
AcDbEntity
  8
DIM
 62
     0
100
AcDbLine
 10
2.0
 20
0.0
 30
0.0
 11
2.65
 21
0.0
 31
0.0
  0
ENDBLK
  5
28A
330
288
100
AcDbEntity
  8
0
100
AcDbBlockEnd
  0
BLOCK
  5
295
330
294
100
AcDbEntity
  8
0
100
AcDbBlockBegin
  2
SW_CENTERMARKSYMBOL_4
 70
     0
 10
0.0
 20
0.0
 30
0.0
  3
SW_CENTERMARKSYMBOL_4
  1

  0
LINE
  5
297
330
294
100
AcDbEntity
  8
DIM
 62
     0
100
AcDbLine
 10
0.0
 20
0.0
 30
0.0
 11
0.0
 21
1.0
 31
0.0
  0
LINE
  5
298
330
294
100
AcDbEntity
  8
DIM
 62
     0
100
AcDbLine
 10
0.0
 20
0.0
 30
0.0
 11
-1.0
 21
0.0
 31
0.0
  0
LINE
  5
299
330
294
100
AcDbEntity
  8
DIM
 62
     0
100
AcDbLine
 10
0.0
 20
0.0
 30
0.0
 11
0.0
 21
-1.0
 31
0.0
  0
LINE
  5
29A
330
294
100
AcDbEntity
  8
DIM
 62
     0
100
AcDbLine
 10
0.0
 20
0.0
 30
0.0
 11
1.0
 21
0.0
 31
0.0
  0
LINE
  5
29B
330
294
100
AcDbEntity
  8
DIM
 62
     0
100
AcDbLine
 10
0.0
 20
2.0
 30
0.0
 11
0.0
 21
2.65
 31
0.0
  0
LINE
  5
29C
330
294
100
AcDbEntity
  8
DIM
 62
     0
100
AcDbLine
 10
-2.0
 20
0.0
 30
0.0
 11
-2.65
 21
0.0
 31
0.0
  0
LINE
  5
29D
330
294
100
AcDbEntity
  8
DIM
 62
     0
100
AcDbLine
 10
0.0
 20
-2.0
 30
0.0
 11
0.0
 21
-2.65
 31
0.0
  0
LINE
  5
29E
330
294
100
AcDbEntity
  8
DIM
 62
     0
100
AcDbLine
 10
2.0
 20
0.0
 30
0.0
 11
2.65
 21
0.0
 31
0.0
  0
ENDBLK
  5
296
330
294
100
AcDbEntity
  8
0
100
AcDbBlockEnd
  0
BLOCK
  5
2A1
330
2A0
100
AcDbEntity
  8
0
100
AcDbBlockBegin
  2
SW_CENTERMARKSYMBOL_5
 70
     0
 10
0.0
 20
0.0
 30
0.0
  3
SW_CENTERMARKSYMBOL_5
  1

  0
LINE
  5
2A3
330
2A0
100
AcDbEntity
  8
DIM
 62
     0
100
AcDbLine
 10
0.0
 20
0.0
 30
0.0
 11
0.0
 21
1.0
 31
0.0
  0
LINE
  5
2A4
330
2A0
100
AcDbEntity
  8
DIM
 62
     0
100
AcDbLine
 10
0.0
 20
0.0
 30
0.0
 11
-1.0
 21
0.0
 31
0.0
  0
LINE
  5
2A5
330
2A0
100
AcDbEntity
  8
DIM
 62
     0
100
AcDbLine
 10
0.0
 20
0.0
 30
0.0
 11
0.0
 21
-1.0
 31
0.0
  0
LINE
  5
2A6
330
2A0
100
AcDbEntity
  8
DIM
 62
     0
100
AcDbLine
 10
0.0
 20
0.0
 30
0.0
 11
1.0
 21
0.0
 31
0.0
  0
LINE
  5
2A7
330
2A0
100
AcDbEntity
  8
DIM
 62
     0
100
AcDbLine
 10
0.0
 20
2.0
 30
0.0
 11
0.0
 21
3.5
 31
0.0
  0
LINE
  5
2A8
330
2A0
100
AcDbEntity
  8
DIM
 62
     0
100
AcDbLine
 10
-2.0
 20
0.0
 30
0.0
 11
-3.5
 21
0.0
 31
0.0
  0
LINE
  5
2A9
330
2A0
100
AcDbEntity
  8
DIM
 62
     0
100
AcDbLine
 10
0.0
 20
-2.0
 30
0.0
 11
0.0
 21
-3.5
 31
0.0
  0
LINE
  5
2AA
330
2A0
100
AcDbEntity
  8
DIM
 62
     0
100
AcDbLine
 10
2.0
 20
0.0
 30
0.0
 11
3.5
 21
0.0
 31
0.0
  0
ENDBLK
  5
2A2
330
2A0
100
AcDbEntity
  8
0
100
AcDbBlockEnd
  0
BLOCK
  5
2AD
330
2AC
100
AcDbEntity
  8
0
100
AcDbBlockBegin
  2
SW_CENTERMARKSYMBOL_6
 70
     0
 10
0.0
 20
0.0
 30
0.0
  3
SW_CENTERMARKSYMBOL_6
  1

  0
LINE
  5
2AF
330
2AC
100
AcDbEntity
  8
DIM
 62
     0
100
AcDbLine
 10
0.0
 20
0.0
 30
0.0
 11
0.0
 21
1.0
 31
0.0
  0
LINE
  5
2B0
330
2AC
100
AcDbEntity
  8
DIM
 62
     0
100
AcDbLine
 10
0.0
 20
0.0
 30
0.0
 11
-1.0
 21
0.0
 31
0.0
  0
LINE
  5
2B1
330
2AC
100
AcDbEntity
  8
DIM
 62
     0
100
AcDbLine
 10
0.0
 20
0.0
 30
0.0
 11
0.0
 21
-1.0
 31
0.0
  0
LINE
  5
2B2
330
2AC
100
AcDbEntity
  8
DIM
 62
     0
100
AcDbLine
 10
0.0
 20
0.0
 30
0.0
 11
1.0
 21
0.0
 31
0.0
  0
LINE
  5
2B3
330
2AC
100
AcDbEntity
  8
DIM
 62
     0
100
AcDbLine
 10
0.0
 20
2.0
 30
0.0
 11
0.0
 21
3.5
 31
0.0
  0
LINE
  5
2B4
330
2AC
100
AcDbEntity
  8
DIM
 62
     0
100
AcDbLine
 10
-2.0
 20
0.0
 30
0.0
 11
-3.5
 21
0.0
 31
0.0
  0
LINE
  5
2B5
330
2AC
100
AcDbEntity
  8
DIM
 62
     0
100
AcDbLine
 10
0.0
 20
-2.0
 30
0.0
 11
0.0
 21
-3.5
 31
0.0
  0
LINE
  5
2B6
330
2AC
100
AcDbEntity
  8
DIM
 62
     0
100
AcDbLine
 10
2.0
 20
0.0
 30
0.0
 11
3.5
 21
0.0
 31
0.0
  0
ENDBLK
  5
2AE
330
2AC
100
AcDbEntity
  8
0
100
AcDbBlockEnd
  0
BLOCK
  5
2B9
330
2B8
100
AcDbEntity
  8
0
100
AcDbBlockBegin
  2
SW_CENTERMARKSYMBOL_7
 70
     0
 10
0.0
 20
0.0
 30
0.0
  3
SW_CENTERMARKSYMBOL_7
  1

  0
LINE
  5
2BB
330
2B8
100
AcDbEntity
  8
DIM
 62
     0
100
AcDbLine
 10
0.0
 20
0.0
 30
0.0
 11
0.0
 21
1.0
 31
0.0
  0
LINE
  5
2BC
330
2B8
100
AcDbEntity
  8
DIM
 62
     0
100
AcDbLine
 10
0.0
 20
0.0
 30
0.0
 11
-1.0
 21
0.0
 31
0.0
  0
LINE
  5
2BD
330
2B8
100
AcDbEntity
  8
DIM
 62
     0
100
AcDbLine
 10
0.0
 20
0.0
 30
0.0
 11
0.0
 21
-1.0
 31
0.0
  0
LINE
  5
2BE
330
2B8
100
AcDbEntity
  8
DIM
 62
     0
100
AcDbLine
 10
0.0
 20
0.0
 30
0.0
 11
1.0
 21
0.0
 31
0.0
  0
LINE
  5
2BF
330
2B8
100
AcDbEntity
  8
DIM
 62
     0
100
AcDbLine
 10
0.0
 20
2.0
 30
0.0
 11
0.0
 21
2.65
 31
0.0
  0
LINE
  5
2C0
330
2B8
100
AcDbEntity
  8
DIM
 62
     0
100
AcDbLine
 10
-2.0
 20
0.0
 30
0.0
 11
-2.65
 21
0.0
 31
0.0
  0
LINE
  5
2C1
330
2B8
100
AcDbEntity
  8
DIM
 62
     0
100
AcDbLine
 10
0.0
 20
-2.0
 30
0.0
 11
0.0
 21
-2.65
 31
0.0
  0
LINE
  5
2C2
330
2B8
100
AcDbEntity
  8
DIM
 62
     0
100
AcDbLine
 10
2.0
 20
0.0
 30
0.0
 11
2.65
 21
0.0
 31
0.0
  0
ENDBLK
  5
2BA
330
2B8
100
AcDbEntity
  8
0
100
AcDbBlockEnd
  0
BLOCK
  5
2C5
330
2C4
100
AcDbEntity
  8
0
100
AcDbBlockBegin
  2
SW_CENTERMARKSYMBOL_8
 70
     0
 10
0.0
 20
0.0
 30
0.0
  3
SW_CENTERMARKSYMBOL_8
  1

  0
LINE
  5
2C7
330
2C4
100
AcDbEntity
  8
DIM
 62
     0
100
AcDbLine
 10
0.0
 20
0.0
 30
0.0
 11
0.0
 21
1.0
 31
0.0
  0
LINE
  5
2C8
330
2C4
100
AcDbEntity
  8
DIM
 62
     0
100
AcDbLine
 10
0.0
 20
0.0
 30
0.0
 11
-1.0
 21
0.0
 31
0.0
  0
LINE
  5
2C9
330
2C4
100
AcDbEntity
  8
DIM
 62
     0
100
AcDbLine
 10
0.0
 20
0.0
 30
0.0
 11
0.0
 21
-1.0
 31
0.0
  0
LINE
  5
2CA
330
2C4
100
AcDbEntity
  8
DIM
 62
     0
100
AcDbLine
 10
0.0
 20
0.0
 30
0.0
 11
1.0
 21
0.0
 31
0.0
  0
LINE
  5
2CB
330
2C4
100
AcDbEntity
  8
DIM
 62
     0
100
AcDbLine
 10
0.0
 20
2.0
 30
0.0
 11
0.0
 21
2.65
 31
0.0
  0
LINE
  5
2CC
330
2C4
100
AcDbEntity
  8
DIM
 62
     0
100
AcDbLine
 10
-2.0
 20
0.0
 30
0.0
 11
-2.65
 21
0.0
 31
0.0
  0
LINE
  5
2CD
330
2C4
100
AcDbEntity
  8
DIM
 62
     0
100
AcDbLine
 10
0.0
 20
-2.0
 30
0.0
 11
0.0
 21
-2.65
 31
0.0
  0
LINE
  5
2CE
330
2C4
100
AcDbEntity
  8
DIM
 62
     0
100
AcDbLine
 10
2.0
 20
0.0
 30
0.0
 11
2.65
 21
0.0
 31
0.0
  0
ENDBLK
  5
2C6
330
2C4
100
AcDbEntity
  8
0
100
AcDbBlockEnd
  0
BLOCK
  5
2D1
330
2D0
100
AcDbEntity
  8
0
100
AcDbBlockBegin
  2
SW_CENTERMARKSYMBOL_9
 70
     0
 10
0.0
 20
0.0
 30
0.0
  3
SW_CENTERMARKSYMBOL_9
  1

  0
LINE
  5
2D3
330
2D0
100
AcDbEntity
  8
DIM
 62
     0
100
AcDbLine
 10
0.0
 20
0.0
 30
0.0
 11
0.0
 21
1.0
 31
0.0
  0
LINE
  5
2D4
330
2D0
100
AcDbEntity
  8
DIM
 62
     0
100
AcDbLine
 10
0.0
 20
0.0
 30
0.0
 11
-1.0
 21
0.0
 31
0.0
  0
LINE
  5
2D5
330
2D0
100
AcDbEntity
  8
DIM
 62
     0
100
AcDbLine
 10
0.0
 20
0.0
 30
0.0
 11
0.0
 21
-1.0
 31
0.0
  0
LINE
  5
2D6
330
2D0
100
AcDbEntity
  8
DIM
 62
     0
100
AcDbLine
 10
0.0
 20
0.0
 30
0.0
 11
1.0
 21
0.0
 31
0.0
  0
LINE
  5
2D7
330
2D0
100
AcDbEntity
  8
DIM
 62
     0
100
AcDbLine
 10
0.0
 20
2.0
 30
0.0
 11
0.0
 21
3.5
 31
0.0
  0
LINE
  5
2D8
330
2D0
100
AcDbEntity
  8
DIM
 62
     0
100
AcDbLine
 10
-2.0
 20
0.0
 30
0.0
 11
-3.5
 21
0.0
 31
0.0
  0
LINE
  5
2D9
330
2D0
100
AcDbEntity
  8
DIM
 62
     0
100
AcDbLine
 10
0.0
 20
-2.0
 30
0.0
 11
0.0
 21
-3.5
 31
0.0
  0
LINE
  5
2DA
330
2D0
100
AcDbEntity
  8
DIM
 62
     0
100
AcDbLine
 10
2.0
 20
0.0
 30
0.0
 11
3.5
 21
0.0
 31
0.0
  0
ENDBLK
  5
2D2
330
2D0
100
AcDbEntity
  8
0
100
AcDbBlockEnd
  0
BLOCK
  5
2DD
330
2DC
100
AcDbEntity
  8
0
100
AcDbBlockBegin
  2
SW_CENTERMARKSYMBOL_10
 70
     0
 10
0.0
 20
0.0
 30
0.0
  3
SW_CENTERMARKSYMBOL_10
  1

  0
LINE
  5
2DF
330
2DC
100
AcDbEntity
  8
DIM
 62
     0
100
AcDbLine
 10
0.0
 20
0.0
 30
0.0
 11
0.0
 21
1.0
 31
0.0
  0
LINE
  5
2E0
330
2DC
100
AcDbEntity
  8
DIM
 62
     0
100
AcDbLine
 10
0.0
 20
0.0
 30
0.0
 11
-1.0
 21
0.0
 31
0.0
  0
LINE
  5
2E1
330
2DC
100
AcDbEntity
  8
DIM
 62
     0
100
AcDbLine
 10
0.0
 20
0.0
 30
0.0
 11
0.0
 21
-1.0
 31
0.0
  0
LINE
  5
2E2
330
2DC
100
AcDbEntity
  8
DIM
 62
     0
100
AcDbLine
 10
0.0
 20
0.0
 30
0.0
 11
1.0
 21
0.0
 31
0.0
  0
LINE
  5
2E3
330
2DC
100
AcDbEntity
  8
DIM
 62
     0
100
AcDbLine
 10
0.0
 20
2.0
 30
0.0
 11
0.0
 21
3.5
 31
0.0
  0
LINE
  5
2E4
330
2DC
100
AcDbEntity
  8
DIM
 62
     0
100
AcDbLine
 10
-2.0
 20
0.0
 30
0.0
 11
-3.5
 21
0.0
 31
0.0
  0
LINE
  5
2E5
330
2DC
100
AcDbEntity
  8
DIM
 62
     0
100
AcDbLine
 10
0.0
 20
-2.0
 30
0.0
 11
0.0
 21
-3.5
 31
0.0
  0
LINE
  5
2E6
330
2DC
100
AcDbEntity
  8
DIM
 62
     0
100
AcDbLine
 10
2.0
 20
0.0
 30
0.0
 11
3.5
 21
0.0
 31
0.0
  0
ENDBLK
  5
2DE
330
2DC
100
AcDbEntity
  8
0
100
AcDbBlockEnd
  0
BLOCK
  5
2E9
330
2E8
100
AcDbEntity
  8
0
100
AcDbBlockBegin
  2
SW_CENTERMARKSYMBOL_11
 70
     0
 10
0.0
 20
0.0
 30
0.0
  3
SW_CENTERMARKSYMBOL_11
  1

  0
LINE
  5
2EB
330
2E8
100
AcDbEntity
  8
DIM
 62
     0
100
AcDbLine
 10
0.0
 20
0.0
 30
0.0
 11
0.0
 21
1.0
 31
0.0
  0
LINE
  5
2EC
330
2E8
100
AcDbEntity
  8
DIM
 62
     0
100
AcDbLine
 10
0.0
 20
0.0
 30
0.0
 11
-1.0
 21
0.0
 31
0.0
  0
LINE
  5
2ED
330
2E8
100
AcDbEntity
  8
DIM
 62
     0
100
AcDbLine
 10
0.0
 20
0.0
 30
0.0
 11
0.0
 21
-1.0
 31
0.0
  0
LINE
  5
2EE
330
2E8
100
AcDbEntity
  8
DIM
 62
     0
100
AcDbLine
 10
0.0
 20
0.0
 30
0.0
 11
1.0
 21
0.0
 31
0.0
  0
LINE
  5
2EF
330
2E8
100
AcDbEntity
  8
DIM
 62
     0
100
AcDbLine
 10
0.0
 20
2.0
 30
0.0
 11
0.0
 21
3.5
 31
0.0
  0
LINE
  5
2F0
330
2E8
100
AcDbEntity
  8
DIM
 62
     0
100
AcDbLine
 10
-2.0
 20
0.0
 30
0.0
 11
-3.5
 21
0.0
 31
0.0
  0
LINE
  5
2F1
330
2E8
100
AcDbEntity
  8
DIM
 62
     0
100
AcDbLine
 10
0.0
 20
-2.0
 30
0.0
 11
0.0
 21
-3.5
 31
0.0
  0
LINE
  5
2F2
330
2E8
100
AcDbEntity
  8
DIM
 62
     0
100
AcDbLine
 10
2.0
 20
0.0
 30
0.0
 11
3.5
 21
0.0
 31
0.0
  0
ENDBLK
  5
2EA
330
2E8
100
AcDbEntity
  8
0
100
AcDbBlockEnd
  0
BLOCK
  5
2F5
330
2F4
100
AcDbEntity
  8
0
100
AcDbBlockBegin
  2
SW_CENTERMARKSYMBOL_12
 70
     0
 10
0.0
 20
0.0
 30
0.0
  3
SW_CENTERMARKSYMBOL_12
  1

  0
LINE
  5
2F7
330
2F4
100
AcDbEntity
  8
DIM
 62
     0
100
AcDbLine
 10
0.0
 20
0.0
 30
0.0
 11
0.0
 21
1.0
 31
0.0
  0
LINE
  5
2F8
330
2F4
100
AcDbEntity
  8
DIM
 62
     0
100
AcDbLine
 10
0.0
 20
0.0
 30
0.0
 11
-1.0
 21
0.0
 31
0.0
  0
LINE
  5
2F9
330
2F4
100
AcDbEntity
  8
DIM
 62
     0
100
AcDbLine
 10
0.0
 20
0.0
 30
0.0
 11
0.0
 21
-1.0
 31
0.0
  0
LINE
  5
2FA
330
2F4
100
AcDbEntity
  8
DIM
 62
     0
100
AcDbLine
 10
0.0
 20
0.0
 30
0.0
 11
1.0
 21
0.0
 31
0.0
  0
LINE
  5
2FB
330
2F4
100
AcDbEntity
  8
DIM
 62
     0
100
AcDbLine
 10
0.0
 20
2.0
 30
0.0
 11
0.0
 21
3.5
 31
0.0
  0
LINE
  5
2FC
330
2F4
100
AcDbEntity
  8
DIM
 62
     0
100
AcDbLine
 10
-2.0
 20
0.0
 30
0.0
 11
-3.5
 21
0.0
 31
0.0
  0
LINE
  5
2FD
330
2F4
100
AcDbEntity
  8
DIM
 62
     0
100
AcDbLine
 10
0.0
 20
-2.0
 30
0.0
 11
0.0
 21
-3.5
 31
0.0
  0
LINE
  5
2FE
330
2F4
100
AcDbEntity
  8
DIM
 62
     0
100
AcDbLine
 10
2.0
 20
0.0
 30
0.0
 11
3.5
 21
0.0
 31
0.0
  0
ENDBLK
  5
2F6
330
2F4
100
AcDbEntity
  8
0
100
AcDbBlockEnd
  0
ENDSEC
  0
SECTION
  2
ENTITIES
  0
HATCH
  5
89
330
1F
100
AcDbEntity
  8
0
  6
Continuous
 62
     7
100
AcDbHatch
 10
0.0
 20
0.0
 30
0.0
210
0.0
220
0.0
230
1.0
  2
SOLID
 70
     1
 71
     0
 91
        1
 92
        0
 93
       10
 72
     2
 10
288.210894844405
 20
53.63371321483284
 40
4.484454986654788
 50
50.3969226073138
 51
112.8514693252976
 73
     0
 72
     2
 10
287.722508944218
 20
53.15849742009306
 40
3.866003140226428
 50
108.9134333432859
 51
219.5668234386823
 73
     0
 72
     1
 10
284.7422759084405
 20
55.62105530422515
 11
283.2194851373368
 21
56.96435315545179
 72
     1
 10
283.2194851373368
 20
56.96435315545179
 11
281.2595427550144
 21
55.07197254069054
 72
     2
 10
282.7413701979584
 20
53.31918169158669
 40
2.295231650915492
 50
130.2115225915088
 51
228.5889041080187
 73
     1
 72
     1
 10
281.2231728819765
 20
51.59779700444966
 11
287.2369763472699
 21
46.37089124403766
 72
     1
 10
287.2369763472699
 20
46.37089124403766
 11
286.2903984666472
 21
45.4470406583311
 72
     1
 10
286.2903984666472
 20
45.4470406583311
 11
287.7782175137356
 21
44.16607925790036
 72
     1
 10
287.7782175137356
 20
44.16607925790036
 11
292.5927141652834
 21
48.84094620617359
 72
     1
 10
292.5927141652834
 20
48.84094620617359
 11
291.0695796177962
 21
50.17853479777325
 97
        0
 75
     0
 76
     1
 98
        1
 10
0.0
 20
0.0
  0
HATCH
  5
8A
330
1F
100
AcDbEntity
  8
0
  6
Continuous
 62
     1
100
AcDbHatch
 10
0.0
 20
0.0
 30
0.0
210
0.0
220
0.0
230
1.0
  2
SOLID
 70
     1
 71
     0
 91
        1
 92
        0
 93
       10
 72
     2
 10
288.8838683441533
 20
53.49460373447415
 40
3.866351232519375
 50
317.8184992995785
 51
398.0564711573078
 73
     0
 72
     1
 10
291.9282471087245
 20
51.1112385104617
 11
293.4064204481987
 21
49.82319310062746
 72
     1
 10
293.4064204481987
 20
49.82319310062746
 11
295.2689424203894
 21
51.62984251423828
 72
     2
 10
293.9288539318962
 20
53.47176261196967
 40
2.277829406127398
 50
306.0377529468134
 51
403.4396461533871
 73
     1
 72
     1
 10
295.5827837289046
 20
55.03797557002689
 11
289.3926499413897
 21
60.42173997297782
 72
     1
 10
289.3926499413897
 20
60.42173997297782
 11
290.3290268942806
 21
61.33532761923384
 72
     1
 10
290.3290268942806
 20
61.33532761923384
 11
288.9332671290045
 21
62.58061594900059
 72
     1
 10
288.9332671290045
 20
62.58061594900059
 11
284.0798889563897
 21
57.89023557907947
 72
     1
 10
284.0798889563897
 20
57.89023557907947
 11
285.6135007724125
 21
56.55254978839827
 72
     2
 10
288.4073839080665
 20
52.68337102625687
 40
4.772455056791814
 50
234.1674444878512
 51
314.4407074583993
 73
     0
 97
        0
 75
     0
 76
     1
 98
        1
 10
0.0
 20
0.0
  0
LINE
  5
8B
330
1F
100
AcDbEntity
  8
0
  6
Continuous
 62
     7
370
     0
100
AcDbLine
 10
251.7890662777
 20
26.6617788769
 30
0.0
 11
253.2890662777
 21
26.6617788769
 31
0.0
  0
LINE
  5
8C
330
1F
100
AcDbEntity
  8
0
  6
Continuous
 62
     7
370
     0
100
AcDbLine
 10
247.2890662777
 20
26.6617788769
 30
0.0
 11
251.0390662777
 21
26.6617788769
 31
0.0
  0
LINE
  5
8D
330
1F
100
AcDbEntity
  8
0
  6
Continuous
 62
     7
370
     0
100
AcDbLine
 10
272.0390662777
 20
22.9117788769
 30
0.0
 11
272.0390662777
 21
30.4117788769
 31
0.0
  0
LINE
  5
8E
330
1F
100
AcDbEntity
  8
0
  6
Continuous
 62
     7
370
     0
100
AcDbLine
 10
261.5390662777
 20
24.4117788769
 30
0.0
 11
272.0390662777
 21
22.9117788769
 31
0.0
  0
LINE
  5
8F
330
1F
100
AcDbEntity
  8
0
  6
Continuous
 62
     7
370
     0
100
AcDbLine
 10
252.5390662777
 20
25.1617788769
 30
0.0
 11
252.5390662777
 21
21.4117788769
 31
0.0
  0
LINE
  5
90
330
1F
100
AcDbEntity
  8
0
  6
Continuous
 62
     7
370
     0
100
AcDbLine
 10
272.0390662777
 20
30.4117788769
 30
0.0
 11
261.5390662777
 21
28.9117788769
 31
0.0
  0
LINE
  5
91
330
1F
100
AcDbEntity
  8
0
  6
Continuous
 62
     7
370
     0
100
AcDbLine
 10
260.0390662777
 20
26.6617788769
 30
0.0
 11
273.5390662777
 21
26.6617788769
 31
0.0
  0
LINE
  5
92
330
1F
100
AcDbEntity
  8
0
  6
Continuous
 62
     7
370
     0
100
AcDbLine
 10
252.5390662777
 20
27.4117788769
 30
0.0
 11
252.5390662777
 21
25.9117788769
 31
0.0
  0
LINE
  5
93
330
1F
100
AcDbEntity
  8
0
  6
Continuous
 62
     7
370
     0
100
AcDbLine
 10
254.0390662777
 20
26.6617788769
 30
0.0
 11
257.7890662777
 21
26.6617788769
 31
0.0
  0
LINE
  5
94
330
1F
100
AcDbEntity
  8
0
  6
Continuous
 62
     7
370
     0
100
AcDbLine
 10
252.5390662777
 20
31.9117788769
 30
0.0
 11
252.5390662777
 21
28.1617788769
 31
0.0
  0
LINE
  5
95
330
1F
100
AcDbEntity
  8
0
  6
Continuous
 62
     7
370
     0
100
AcDbLine
 10
261.5390662777
 20
28.9117788769
 30
0.0
 11
261.5390662777
 21
24.4117788769
 31
0.0
  0
LINE
  5
96
330
1F
100
AcDbEntity
  8
工作區域參考線
 62
     1
370
    30
100
AcDbLine
 10
285.6135007724
 20
56.5525497884
 30
0.0
 11
284.0798889564
 21
57.8902355791
 31
0.0
  0
LINE
  5
97
330
1F
100
AcDbEntity
  8
工作區域參考線
 62
     1
370
    30
100
AcDbLine
 10
284.0798889564
 20
57.8902355791
 30
0.0
 11
288.933267129
 21
62.580615949
 31
0.0
  0
LINE
  5
98
330
1F
100
AcDbEntity
  8
工作區域參考線
 62
     1
370
    30
100
AcDbLine
 10
288.933267129
 20
62.580615949
 30
0.0
 11
290.3290268943
 21
61.3353276192
 31
0.0
  0
LINE
  5
99
330
1F
100
AcDbEntity
  8
工作區域參考線
 62
     1
370
    30
100
AcDbLine
 10
290.3290268943
 20
61.3353276192
 30
0.0
 11
289.3926499414
 21
60.421739973
 31
0.0
  0
LINE
  5
9A
330
1F
100
AcDbEntity
  8
工作區域參考線
 62
     1
370
    30
100
AcDbLine
 10
289.3926499414
 20
60.421739973
 30
0.0
 11
295.5827837289
 21
55.03797557
 31
0.0
  0
LINE
  5
9B
330
1F
100
AcDbEntity
  8
工作區域參考線
 62
     1
370
    30
100
AcDbLine
 10
291.9282471087
 20
51.1112385105
 30
0.0
 11
293.4064204482
 21
49.8231931006
 31
0.0
  0
LINE
  5
9C
330
1F
100
AcDbEntity
  8
工作區域參考線
 62
     1
370
    30
100
AcDbLine
 10
293.4064204482
 20
49.8231931006
 30
0.0
 11
295.2689424204
 21
51.6298425142
 31
0.0
  0
LINE
  5
9D
330
1F
100
AcDbEntity
  8
0
  6
Continuous
 62
     7
370
     0
100
AcDbLine
 10
278.5361947814
 20
19.6728696119
 30
0.0
 11
428.5361947814
 21
19.6728696119
 31
0.0
  0
LINE
  5
9E
330
1F
100
AcDbEntity
  8
0
  6
Continuous
 62
     7
370
     0
100
AcDbLine
 10
278.5361947814
 20
27.1728696119
 30
0.0
 11
353.5361947814
 21
27.1728696119
 31
0.0
  0
LINE
  5
9F
330
1F
100
AcDbEntity
  8
0
  6
Continuous
 62
     7
370
     0
100
AcDbLine
 10
278.5361947814
 20
34.6728696119
 30
0.0
 11
353.5361947814
 21
34.6728696119
 31
0.0
  0
LINE
  5
A0
330
1F
100
AcDbEntity
  8
0
  6
Continuous
 62
     7
370
     0
100
AcDbLine
 10
278.5361947814
 20
42.1728696119
 30
0.0
 11
428.5361947814
 21
42.1728696119
 31
0.0
  0
LINE
  5
A1
330
1F
100
AcDbEntity
  8
0
  6
Continuous
 62
     7
370
     0
100
AcDbLine
 10
353.5361947814
 20
49.6728696119
 30
0.0
 11
428.5361947814
 21
49.6728696119
 31
0.0
  0
LINE
  5
A2
330
1F
100
AcDbEntity
  8
0
  6
Continuous
 62
     7
370
    15
100
AcDbLine
 10
353.5361947814
 20
27.1728696119
 30
0.0
 11
428.5361947814
 21
27.1728696119
 31
0.0
  0
LINE
  5
A3
330
1F
100
AcDbEntity
  8
0
  6
Continuous
 62
     7
370
     0
100
AcDbLine
 10
278.5361947814
 20
64.6728696119
 30
0.0
 11
428.5361947814
 21
64.6728696119
 31
0.0
  0
LINE
  5
A4
330
1F
100
AcDbEntity
  8
0
  6
Continuous
 62
     7
370
     0
100
AcDbLine
 10
376.8558265126
 20
12.1728696119
 30
0.0
 11
376.8558265126
 21
27.1728696119
 31
0.0
  0
LINE
  5
A5
330
1F
100
AcDbEntity
  8
0
  6
Continuous
 62
     7
370
     0
100
AcDbLine
 10
353.5361947814
 20
12.1728696119
 30
0.0
 11
353.5361947814
 21
64.6728696119
 31
0.0
  0
LINE
  5
A6
330
1F
100
AcDbEntity
  8
0
  6
Continuous
 62
     7
370
     0
100
AcDbLine
 10
376.8558265126
 20
42.1728696119
 30
0.0
 11
376.8558265126
 21
49.6728696119
 31
0.0
  0
LINE
  5
A7
330
1F
100
AcDbEntity
  8
0
  6
Continuous
 62
     7
370
     0
100
AcDbLine
 10
321.624612953
 20
12.1728696119
 30
0.0
 11
321.624612953
 21
42.1728696119
 31
0.0
  0
LINE
  5
A8
330
1F
100
AcDbEntity
  8
0
  6
Continuous
 62
     7
370
     0
100
AcDbLine
 10
299.6678831259
 20
12.1728696119
 30
0.0
 11
299.6678831259
 21
42.1728696119
 31
0.0
  0
LINE
  5
A9
330
1F
100
AcDbEntity
  8
0
  6
Continuous
 62
     7
370
     0
100
AcDbLine
 10
278.5361947814
 20
12.1728696119
 30
0.0
 11
278.5361947814
 21
64.6728696119
 31
0.0
  0
LINE
  5
AA
330
1F
100
AcDbEntity
  8
0
  6
Continuous
 62
     7
370
    15
100
AcDbLine
 10
64.9811947814
 20
302.0580413626
 30
0.0
 11
64.9811947814
 21
304.3080413626
 31
0.0
  0
LINE
  5
AB
330
1F
100
AcDbEntity
  8
0
  6
Continuous
 62
     7
370
    15
100
AcDbLine
 10
116.9261947814
 20
302.0580413626
 30
0.0
 11
116.9261947814
 21
304.3080413626
 31
0.0
  0
LINE
  5
AC
330
1F
100
AcDbEntity
  8
0
  6
Continuous
 62
     7
370
    15
100
AcDbLine
 10
168.8711947814
 20
302.0580413626
 30
0.0
 11
168.8711947814
 21
304.3080413626
 31
0.0
  0
LINE
  5
AD
330
1F
100
AcDbEntity
  8
0
  6
Continuous
 62
     7
370
    15
100
AcDbLine
 10
220.8161947814
 20
302.0580413626
 30
0.0
 11
220.8161947814
 21
304.3080413626
 31
0.0
  0
LINE
  5
AE
330
1F
100
AcDbEntity
  8
0
  6
Continuous
 62
     7
370
    15
100
AcDbLine
 10
272.7611947814
 20
302.0580413626
 30
0.0
 11
272.7611947814
 21
304.3080413626
 31
0.0
  0
LINE
  5
AF
330
1F
100
AcDbEntity
  8
0
  6
Continuous
 62
     7
370
    15
100
AcDbLine
 10
324.7061947814
 20
302.0580413626
 30
0.0
 11
324.7061947814
 21
304.3080413626
 31
0.0
  0
LINE
  5
B0
330
1F
100
AcDbEntity
  8
0
  6
Continuous
 62
     7
370
    15
100
AcDbLine
 10
376.6511947814
 20
302.0580413626
 30
0.0
 11
376.6511947814
 21
304.3080413626
 31
0.0
  0
LINE
  5
B1
330
1F
100
AcDbEntity
  8
0
  6
Continuous
 62
     7
370
    15
100
AcDbLine
 10
64.9736947814
 20
12.1728696119
 30
0.0
 11
64.9736947814
 21
9.9228696119
 31
0.0
  0
LINE
  5
B2
330
1F
100
AcDbEntity
  8
0
  6
Continuous
 62
     7
370
    15
100
AcDbLine
 10
116.9111947814
 20
12.1728696119
 30
0.0
 11
116.9111947814
 21
9.9228696119
 31
0.0
  0
LINE
  5
B3
330
1F
100
AcDbEntity
  8
0
  6
Continuous
 62
     7
370
    15
100
AcDbLine
 10
168.8486947814
 20
12.1728696119
 30
0.0
 11
168.8486947814
 21
9.9228696119
 31
0.0
  0
LINE
  5
B4
330
1F
100
AcDbEntity
  8
0
  6
Continuous
 62
     7
370
    15
100
AcDbLine
 10
220.7861947814
 20
12.1728696119
 30
0.0
 11
220.7861947814
 21
9.9228696119
 31
0.0
  0
LINE
  5
B5
330
1F
100
AcDbEntity
  8
0
  6
Continuous
 62
     7
370
    15
100
AcDbLine
 10
272.7236947814
 20
12.1728696119
 30
0.0
 11
272.7236947814
 21
9.9228696119
 31
0.0
  0
LINE
  5
B6
330
1F
100
AcDbEntity
  8
0
  6
Continuous
 62
     7
370
    15
100
AcDbLine
 10
324.6611947814
 20
12.1728696119
 30
0.0
 11
324.6611947814
 21
9.9228696119
 31
0.0
  0
LINE
  5
B7
330
1F
100
AcDbEntity
  8
0
  6
Continuous
 62
     7
370
     0
100
AcDbLine
 10
428.5361947814
 20
302.0580413626
 30
0.0
 11
13.0361947814
 21
302.0580413626
 31
0.0
  0
LINE
  5
B8
330
1F
100
AcDbEntity
  8
0
  6
Continuous
 62
     7
370
     0
100
AcDbLine
 10
428.5361947814
 20
12.1728696119
 30
0.0
 11
428.5361947814
 21
302.0580413626
 31
0.0
  0
LINE
  5
B9
330
1F
100
AcDbEntity
  8
0
  6
Continuous
 62
     7
370
     0
100
AcDbLine
 10
13.0361947814
 20
302.0580413626
 30
0.0
 11
13.0361947814
 21
12.1728696119
 31
0.0
  0
LINE
  5
BA
330
1F
100
AcDbEntity
  8
0
  6
Continuous
 62
     7
370
     0
100
AcDbLine
 10
13.0361947814
 20
12.1728696119
 30
0.0
 11
428.5361947814
 21
12.1728696119
 31
0.0
  0
LINE
  5
BB
330
1F
100
AcDbEntity
  8
0
  6
Continuous
 62
     7
370
    15
100
AcDbLine
 10
376.5986947814
 20
12.1728696119
 30
0.0
 11
376.5986947814
 21
9.9228696119
 31
0.0
  0
LINE
  5
BC
330
1F
100
AcDbEntity
  8
0
  6
Continuous
 62
     7
370
    15
100
AcDbLine
 10
13.0361947814
 20
60.4878696119
 30
0.0
 11
10.7861947814
 21
60.4878696119
 31
0.0
  0
LINE
  5
BD
330
1F
100
AcDbEntity
  8
0
  6
Continuous
 62
     7
370
    15
100
AcDbLine
 10
13.0361947814
 20
108.8028696119
 30
0.0
 11
10.7861947814
 21
108.8028696119
 31
0.0
  0
LINE
  5
BE
330
1F
100
AcDbEntity
  8
0
  6
Continuous
 62
     7
370
    15
100
AcDbLine
 10
13.0361947814
 20
157.1178696119
 30
0.0
 11
10.7861947814
 21
157.1178696119
 31
0.0
  0
LINE
  5
BF
330
1F
100
AcDbEntity
  8
0
  6
Continuous
 62
     7
370
    15
100
AcDbLine
 10
13.0361947814
 20
205.4328696119
 30
0.0
 11
10.7861947814
 21
205.4328696119
 31
0.0
  0
LINE
  5
C0
330
1F
100
AcDbEntity
  8
0
  6
Continuous
 62
     7
370
    15
100
AcDbLine
 10
13.0361947814
 20
253.7478696119
 30
0.0
 11
10.7861947814
 21
253.7478696119
 31
0.0
  0
LINE
  5
C1
330
1F
100
AcDbEntity
  8
0
  6
Continuous
 62
     7
370
    15
100
AcDbLine
 10
428.5361947814
 20
60.4878696119
 30
0.0
 11
430.7861947814
 21
60.4878696119
 31
0.0
  0
LINE
  5
C2
330
1F
100
AcDbEntity
  8
0
  6
Continuous
 62
     7
370
    15
100
AcDbLine
 10
428.5361947814
 20
108.8028696119
 30
0.0
 11
430.7861947814
 21
108.8028696119
 31
0.0
  0
LINE
  5
C3
330
1F
100
AcDbEntity
  8
0
  6
Continuous
 62
     7
370
    15
100
AcDbLine
 10
428.5361947814
 20
157.1178696119
 30
0.0
 11
430.7861947814
 21
157.1178696119
 31
0.0
  0
LINE
  5
C4
330
1F
100
AcDbEntity
  8
0
  6
Continuous
 62
     7
370
    15
100
AcDbLine
 10
428.5361947814
 20
205.4328696119
 30
0.0
 11
430.7861947814
 21
205.4328696119
 31
0.0
  0
LINE
  5
C5
330
1F
100
AcDbEntity
  8
0
  6
Continuous
 62
     7
370
    15
100
AcDbLine
 10
428.5361947814
 20
253.7478696119
 30
0.0
 11
430.7861947814
 21
253.7478696119
 31
0.0
  0
CIRCLE
  5
C6
330
1F
100
AcDbEntity
  8
0
  6
Continuous
 62
     7
370
     0
100
AcDbCircle
 10
252.5390662777
 20
26.6617788769
 30
0.0
 40
2.249999999999943
  0
CIRCLE
  5
C7
330
1F
100
AcDbEntity
  8
0
  6
Continuous
 62
     7
370
     0
100
AcDbCircle
 10
252.5390662777
 20
26.6617788769
 30
0.0
 40
3.749999999999943
  0
ARC
  5
C8
330
1F
100
AcDbEntity
  8
工作區域參考線
 62
     1
370
    30
100
AcDbCircle
 10
293.9288539319
 20
53.471762612
 30
0.0
 40
2.277829406127415
100
AcDbArc
 50
306.0377529468
 51
43.4396461534
  0
ARC
  5
C9
330
1F
100
AcDbEntity
  8
工作區域參考線
 62
     1
370
    30
100
AcDbCircle
 10
288.4073839081
 20
52.6833710263
 30
0.0
 40
4.772455056791824
100
AcDbArc
 50
45.5592925416
 51
125.8325555121
  0
ARC
  5
CA
330
1F
100
AcDbEntity
  8
工作區域參考線
 62
     1
370
    30
100
AcDbCircle
 10
288.8838683442
 20
53.4946037345
 30
0.0
 40
3.866351232519385
100
AcDbArc
 50
321.9435288427
 51
42.1815007004
  0
INSERT
  5
CB
330
1F
100
AcDbEntity
  8
0
  6
Continuous
 62
     7
100
AcDbBlockReference
  2
圖塊6
 10
280.446138547
 20
44.1660792579
 30
0.0
  0
MTEXT
  5
CD
330
1F
100
AcDbEntity
  8
0
  6
Continuous
 62
     7
370
     0
100
AcDbMText
 10
248.3140276206
 20
19.8312660554
 30
0.0
 40
3.96875
 41
0.0
 71
     1
 72
     1
  1
UNIT:m/m
  7
SLDTEXTSTYLE0
 73
     1
 44
1.0
  0
INSERT
  5
D4
330
1F
100
AcDbEntity
  8
0
  6
Continuous
 62
     7
370
     0
100
AcDbBlockReference
  2
SW_NOTE_0
 10
18.347261408
 20
290.8356456377
 30
0.0
  0
MTEXT
  5
D5
330
1F
100
AcDbEntity
  8
0
  6
Continuous
 62
     7
370
     0
100
AcDbMText
 10
298.0877840902
 20
60.6610161208
 30
0.0
 40
3.571875
 41
0.0
 71
     1
 72
     1
  1
Unice E-O Services Inc.
  7
SLDTEXTSTYLE0
 73
     1
 44
1.0
  0
MTEXT
  5
D6
330
1F
100
AcDbEntity
  8
0
  6
Continuous
 62
     7
370
     0
100
AcDbMText
 10
326.3385807224
 20
32.3800722766
 30
0.0
 40
2.778125
 41
0.0
 71
     1
 72
     1
  1
2019/1/15
  7
SLDTEXTSTYLE0
 73
     1
 44
1.0
  0
MTEXT
  5
D7
330
1F
100
AcDbEntity
  8
0
  6
Continuous
 62
     7
370
     0
100
AcDbMText
 10
378.913347376
 20
25.30676661
 30
0.0
 40
3.75
 41
0.0
 71
     1
 72
     1
  1
1:1.5
  7
SLDTEXTSTYLE0
 73
     1
 44
1.0
  0
MTEXT
  5
D8
330
1F
100
AcDbEntity
  8
0
  6
Continuous
 62
     7
370
     0
100
AcDbMText
 10
378.4613399977
 20
48.2278793156
 30
0.0
 40
3.75
 41
0.0
 71
     1
 72
     1
  1
07MBH-3M
  7
SLDTEXTSTYLE0
 73
     1
 44
1.0
  0
MTEXT
  5
D9
330
1F
100
AcDbEntity
  8
0
  6
Continuous
 62
     7
370
     0
100
AcDbMText
 10
378.4613399977
 20
57.1623176818
 30
0.0
 40
3.75
 41
0.0
 71
     1
 72
     1
  1
07MBH-3M
  7
SLDTEXTSTYLE0
 73
     1
 44
1.0
  0
MTEXT
  5
DA
330
1F
100
AcDbEntity
  8
0
  6
Continuous
 62
     7
370
     0
100
AcDbMText
 10
354.588280018
 20
24.7597193593
 30
0.0
 40
3.175
 41
0.0
 71
     1
 72
     1
  1
SCALE:
  7
SLDTEXTSTYLE0
 73
     1
 44
1.0
  0
MTEXT
  5
DB
330
1F
100
AcDbEntity
  8
0
  6
Continuous
 62
     7
370
     0
100
AcDbMText
 10
279.5004130184
 20
32.3800722766
 30
0.0
 40
2.778125
 41
0.0
 71
     1
 72
     1
  1
DRAWN
  7
SLDTEXTSTYLE0
 73
     1
 44
1.0
  0
MTEXT
  5
DC
330
1F
100
AcDbEntity
  8
0
  6
Continuous
 62
     7
370
     0
100
AcDbMText
 10
304.8342551905
 20
40.024812462
 30
0.0
 40
2.778125
 41
0.0
 71
     1
 72
     1
  1
NAME
  7
SLDTEXTSTYLE0
 73
     1
 44
1.0
  0
MTEXT
  5
DD
330
1F
100
AcDbEntity
  8
0
  6
Continuous
 62
     7
370
     0
100
AcDbMText
 10
331.3065233636
 20
40.024812462
 30
0.0
 40
2.778125
 41
0.0
 71
     1
 72
     1
  1
DATE
  7
SLDTEXTSTYLE0
 73
     1
 44
1.0
  0
MTEXT
  5
DE
330
1F
100
AcDbEntity
  8
0
  6
Continuous
 62
     7
370
     0
100
AcDbMText
 10
354.4134474968
 20
47.6808320649
 30
0.0
 40
3.175
 41
0.0
 71
     1
 72
     1
  1
DWG. NO.
  7
SLDTEXTSTYLE0
 73
     1
 44
1.0
  0
MTEXT
  5
DF
330
1F
100
AcDbEntity
  8
0
  6
Continuous
 62
     7
370
     0
100
AcDbMText
 10
354.5444860632
 20
62.8260987365
 30
0.0
 40
3.175
 41
0.0
 71
     1
 72
     1
  1
TITLE:
  7
SLDTEXTSTYLE0
 73
     1
 44
1.0
  0
MTEXT
  5
E0
330
1F
100
AcDbEntity
  8
0
  6
Continuous
 62
     7
370
     0
100
AcDbMText
 10
304.5471314703
 20
24.3605684586
 30
0.0
 40
2.778125
 41
0.0
 71
     1
 72
     1
  1
Johnny
  7
SLDTEXTSTYLE0
 73
     1
 44
1.0
  0
MTEXT
  5
E1
330
1F
100
AcDbEntity
  8
0
  6
Continuous
 62
     7
370
     0
100
AcDbMText
 10
326.3385807224
 20
24.3605684586
 30
0.0
 40
2.778125
 41
0.0
 71
     1
 72
     1
  1
2019/1/15
  7
SLDTEXTSTYLE0
 73
     1
 44
1.0
  0
MTEXT
  5
E2
330
1F
100
AcDbEntity
  8
0
  6
Continuous
 62
     7
370
     0
100
AcDbMText
 10
279.5004130184
 20
24.3605684586
 30
0.0
 40
2.778125
 41
0.0
 71
     1
 72
     1
  1
ENG APPR.
  7
SLDTEXTSTYLE0
 73
     1
 44
1.0
  0
MTEXT
  5
E3
330
1F
100
AcDbEntity
  8
0
  6
Continuous
 62
     7
370
     0
100
AcDbMText
 10
354.588280018
 20
17.5280083932
 30
0.0
 40
3.175
 41
0.0
 71
     1
 72
     1
  1
REV
  7
SLDTEXTSTYLE0
 73
     1
 44
1.0
  0
MTEXT
  5
E4
330
1F
100
AcDbEntity
  8
0
  6
Continuous
 62
     7
370
     0
100
AcDbMText
 10
354.5444860632
 20
40.4239633627
 30
0.0
 40
3.175
 41
0.0
 71
     1
 72
     1
  1
MATERIAL:
  7
SLDTEXTSTYLE0
 73
     1
 44
1.0
  0
MTEXT
  5
E5
330
1F
100
AcDbEntity
  8
0
  6
Continuous
 62
     7
370
     0
100
AcDbMText
 10
378.913347376
 20
33.326270428
 30
0.0
 40
3.75
 41
0.0
 71
     1
 72
     1
  1
N/A
  7
SLDTEXTSTYLE0
 73
     1
 44
1.0
  0
MTEXT
  5
E6
330
1F
100
AcDbEntity
  8
0
  6
Continuous
 62
     7
370
     0
100
AcDbMText
 10
39.90448973
 20
306.6800274854
 30
0.0
 40
3.175
 41
0.0
 71
     1
 72
     1
  1
1
  7
SLDTEXTSTYLE0
 73
     1
 44
1.0
  0
MTEXT
  5
E7
330
1F
100
AcDbEntity
  8
0
  6
Continuous
 62
     7
370
     0
100
AcDbMText
 10
91.0756493586
 20
306.6800274854
 30
0.0
 40
3.175
 41
0.0
 71
     1
 72
     1
  1
2
  7
SLDTEXTSTYLE0
 73
     1
 44
1.0
  0
MTEXT
  5
E8
330
1F
100
AcDbEntity
  8
0
  6
Continuous
 62
     7
370
     0
100
AcDbMText
 10
142.3514915859
 20
306.6800274854
 30
0.0
 40
3.175
 41
0.0
 71
     1
 72
     1
  1
3
  7
SLDTEXTSTYLE0
 73
     1
 44
1.0
  0
MTEXT
  5
E9
330
1F
100
AcDbEntity
  8
0
  6
Continuous
 62
     7
370
     0
100
AcDbMText
 10
193.8800044277
 20
306.4488876546
 30
0.0
 40
3.175
 41
0.0
 71
     1
 72
     1
  1
4
  7
SLDTEXTSTYLE0
 73
     1
 44
1.0
  0
MTEXT
  5
EA
330
1F
100
AcDbEntity
  8
0
  6
Continuous
 62
     7
370
     0
100
AcDbMText
 10
245.5534851959
 20
306.6800274854
 30
0.0
 40
3.175
 41
0.0
 71
     1
 72
     1
  1
5
  7
SLDTEXTSTYLE0
 73
     1
 44
1.0
  0
MTEXT
  5
EB
330
1F
100
AcDbEntity
  8
0
  6
Continuous
 62
     7
370
     0
100
AcDbMText
 10
297.9573255623
 20
306.6800274854
 30
0.0
 40
3.175
 41
0.0
 71
     1
 72
     1
  1
6
  7
SLDTEXTSTYLE0
 73
     1
 44
1.0
  0
MTEXT
  5
EC
330
1F
100
AcDbEntity
  8
0
  6
Continuous
 62
     7
370
     0
100
AcDbMText
 10
351.544598611
 20
306.6800274854
 30
0.0
 40
3.175
 41
0.0
 71
     1
 72
     1
  1
7
  7
SLDTEXTSTYLE0
 73
     1
 44
1.0
  0
MTEXT
  5
ED
330
1F
100
AcDbEntity
  8
0
  6
Continuous
 62
     7
370
     0
100
AcDbMText
 10
399.4181730741
 20
306.6800274854
 30
0.0
 40
3.175
 41
0.0
 71
     1
 72
     1
  1
8
  7
SLDTEXTSTYLE0
 73
     1
 44
1.0
  0
MTEXT
  5
EE
330
1F
100
AcDbEntity
  8
0
  6
Continuous
 62
     7
370
     0
100
AcDbMText
 10
8.0352354832
 20
278.7169534319
 30
0.0
 40
3.175
 41
0.0
 71
     1
 72
     1
  1
A
  7
SLDTEXTSTYLE0
 73
     1
 44
1.0
  0
MTEXT
  5
EF
330
1F
100
AcDbEntity
  8
0
  6
Continuous
 62
     7
370
     0
100
AcDbMText
 10
8.3865647747
 20
231.4489572357
 30
0.0
 40
3.175
 41
0.0
 71
     1
 72
     1
  1
B
  7
SLDTEXTSTYLE0
 73
     1
 44
1.0
  0
MTEXT
  5
F0
330
1F
100
AcDbEntity
  8
0
  6
Continuous
 62
     7
370
     0
100
AcDbMText
 10
8.3865647747
 20
181.9115271345
 30
0.0
 40
3.175
 41
0.0
 71
     1
 72
     1
  1
C
  7
SLDTEXTSTYLE0
 73
     1
 44
1.0
  0
MTEXT
  5
F1
330
1F
100
AcDbEntity
  8
0
  6
Continuous
 62
     7
370
     0
100
AcDbMText
 10
8.3865647747
 20
133.1179830331
 30
0.0
 40
3.175
 41
0.0
 71
     1
 72
     1
  1
D
  7
SLDTEXTSTYLE0
 73
     1
 44
1.0
  0
MTEXT
  5
F2
330
1F
100
AcDbEntity
  8
0
  6
Continuous
 62
     7
370
     0
100
AcDbMText
 10
8.3865647747
 20
86.3338273796
 30
0.0
 40
3.175
 41
0.0
 71
     1
 72
     1
  1
E
  7
SLDTEXTSTYLE0
 73
     1
 44
1.0
  0
MTEXT
  5
F3
330
1F
100
AcDbEntity
  8
0
  6
Continuous
 62
     7
370
     0
100
AcDbMText
 10
8.3865647747
 20
38.3541318378
 30
0.0
 40
3.175
 41
0.0
 71
     1
 72
     1
  1
F
  7
SLDTEXTSTYLE0
 73
     1
 44
1.0
  0
MTEXT
  5
F4
330
1F
100
AcDbEntity
  8
0
  6
Continuous
 62
     7
370
     0
100
AcDbMText
 10
399.2787925446
 20
9.9354335945
 30
0.0
 40
3.175
 41
0.0
 71
     1
 72
     1
  1
8
  7
SLDTEXTSTYLE0
 73
     1
 44
1.0
  0
MTEXT
  5
F5
330
1F
100
AcDbEntity
  8
0
  6
Continuous
 62
     7
370
     0
100
AcDbMText
 10
351.4052180815
 20
9.9354335945
 30
0.0
 40
3.175
 41
0.0
 71
     1
 72
     1
  1
7
  7
SLDTEXTSTYLE0
 73
     1
 44
1.0
  0
MTEXT
  5
F6
330
1F
100
AcDbEntity
  8
0
  6
Continuous
 62
     7
370
     0
100
AcDbMText
 10
297.8179450327
 20
9.9354335945
 30
0.0
 40
3.175
 41
0.0
 71
     1
 72
     1
  1
6
  7
SLDTEXTSTYLE0
 73
     1
 44
1.0
  0
MTEXT
  5
F7
330
1F
100
AcDbEntity
  8
0
  6
Continuous
 62
     7
370
     0
100
AcDbMText
 10
245.4141046664
 20
9.9354335945
 30
0.0
 40
3.175
 41
0.0
 71
     1
 72
     1
  1
5
  7
SLDTEXTSTYLE0
 73
     1
 44
1.0
  0
MTEXT
  5
F8
330
1F
100
AcDbEntity
  8
0
  6
Continuous
 62
     7
370
     0
100
AcDbMText
 10
193.7406238981
 20
9.7042937637
 30
0.0
 40
3.175
 41
0.0
 71
     1
 72
     1
  1
4
  7
SLDTEXTSTYLE0
 73
     1
 44
1.0
  0
MTEXT
  5
F9
330
1F
100
AcDbEntity
  8
0
  6
Continuous
 62
     7
370
     0
100
AcDbMText
 10
142.2121110564
 20
9.9354335945
 30
0.0
 40
3.175
 41
0.0
 71
     1
 72
     1
  1
3
  7
SLDTEXTSTYLE0
 73
     1
 44
1.0
  0
MTEXT
  5
FA
330
1F
100
AcDbEntity
  8
0
  6
Continuous
 62
     7
370
     0
100
AcDbMText
 10
90.9362688291
 20
9.9354335945
 30
0.0
 40
3.175
 41
0.0
 71
     1
 72
     1
  1
2
  7
SLDTEXTSTYLE0
 73
     1
 44
1.0
  0
MTEXT
  5
FB
330
1F
100
AcDbEntity
  8
0
  6
Continuous
 62
     7
370
     0
100
AcDbMText
 10
39.7651092004
 20
9.9354335945
 30
0.0
 40
3.175
 41
0.0
 71
     1
 72
     1
  1
1
  7
SLDTEXTSTYLE0
 73
     1
 44
1.0
  0
MTEXT
  5
FC
330
1F
100
AcDbEntity
  8
0
  6
Continuous
 62
     7
370
     0
100
AcDbMText
 10
430.6535769217
 20
279.9637363637
 30
0.0
 40
3.175
 41
0.0
 71
     1
 72
     1
  1
A
  7
SLDTEXTSTYLE0
 73
     1
 44
1.0
  0
MTEXT
  5
FD
330
1F
100
AcDbEntity
  8
0
  6
Continuous
 62
     7
370
     0
100
AcDbMText
 10
431.0049062132
 20
232.6957401676
 30
0.0
 40
3.175
 41
0.0
 71
     1
 72
     1
  1
B
  7
SLDTEXTSTYLE0
 73
     1
 44
1.0
  0
MTEXT
  5
FE
330
1F
100
AcDbEntity
  8
0
  6
Continuous
 62
     7
370
     0
100
AcDbMText
 10
431.0049062132
 20
183.1583100664
 30
0.0
 40
3.175
 41
0.0
 71
     1
 72
     1
  1
C
  7
SLDTEXTSTYLE0
 73
     1
 44
1.0
  0
MTEXT
  5
FF
330
1F
100
AcDbEntity
  8
0
  6
Continuous
 62
     7
370
     0
100
AcDbMText
 10
431.0049062132
 20
134.364765965
 30
0.0
 40
3.175
 41
0.0
 71
     1
 72
     1
  1
D
  7
SLDTEXTSTYLE0
 73
     1
 44
1.0
  0
MTEXT
  5
100
330
1F
100
AcDbEntity
  8
0
  6
Continuous
 62
     7
370
     0
100
AcDbMText
 10
431.0049062132
 20
87.5806103114
 30
0.0
 40
3.175
 41
0.0
 71
     1
 72
     1
  1
E
  7
SLDTEXTSTYLE0
 73
     1
 44
1.0
  0
MTEXT
  5
101
330
1F
100
AcDbEntity
  8
0
  6
Continuous
 62
     7
370
     0
100
AcDbMText
 10
431.0049062132
 20
39.6009147696
 30
0.0
 40
3.175
 41
0.0
 71
     1
 72
     1
  1
F
  7
SLDTEXTSTYLE0
 73
     1
 44
1.0
  0
MTEXT
  5
102
330
1F
100
AcDbEntity
  8
0
  6
Continuous
 62
     7
370
     0
100
AcDbMText
 10
304.7329693203
 20
32.3800722766
 30
0.0
 40
2.778125
 41
0.0
 71
     1
 72
     1
  1
Sky
  7
SLDTEXTSTYLE0
 73
     1
 44
1.0
  0
MTEXT
  5
104
330
1F
100
AcDbEntity
  8
0
  6
Continuous
 62
     7
370
     0
100
AcDbMText
 10
379.2723359468
 20
18.3329404977
 30
0.0
 40
3.571875
 41
0.0
 71
     1
 72
     1
  1
0
  7
SLDTEXTSTYLE1
 73
     1
 44
1.0
  0
INSERT
  5
10A
330
1F
100
AcDbEntity
  8
SLD-0
 62
     7
100
AcDbBlockReference
  2
SW_NOTE_1
 10
298.0877840902
 20
50.3219617818
 30
0.0
  0
LINE
  5
10B
330
1F
100
AcDbEntity
  8
0
  6
Continuous
 62
     7
370
    30
100
AcDbLine
 10
146.2143205166
 20
75.5997170918
 30
0.0
 11
145.2143208183
 21
76.5997172557
 31
0.0
  0
LINE
  5
10C
330
1F
100
AcDbEntity
  8
0
  6
Continuous
 62
     7
370
    30
100
AcDbLine
 10
137.2143204383
 20
76.5997172557
 30
0.0
 11
136.2143207401
 21
75.5997170918
 31
0.0
  0
LINE
  5
10D
330
1F
100
AcDbEntity
  8
0
  6
Continuous
 62
     7
370
    30
100
AcDbLine
 10
146.2143205166
 20
69.5997170396
 30
0.0
 11
146.2143205166
 21
75.5997170918
 31
0.0
  0
LINE
  5
10E
330
1F
100
AcDbEntity
  8
0
  6
Continuous
 62
     7
370
    30
100
AcDbLine
 10
136.2143207401
 20
75.5997170918
 30
0.0
 11
136.2143207401
 21
69.5997170396
 31
0.0
  0
LINE
  5
10F
330
1F
100
AcDbEntity
  8
0
  6
Continuous
 62
     7
370
    30
100
AcDbLine
 10
136.2143207401
 20
69.5997170396
 30
0.0
 11
137.2143204383
 21
68.5997168757
 31
0.0
  0
LINE
  5
110
330
1F
100
AcDbEntity
  8
0
  6
Continuous
 62
     7
370
    30
100
AcDbLine
 10
145.2143208183
 20
68.5997168757
 30
0.0
 11
146.2143205166
 21
69.5997170396
 31
0.0
  0
LINE
  5
111
330
1F
100
AcDbEntity
  8
0
  6
Continuous
 62
     7
370
    30
100
AcDbLine
 10
137.2143204383
 20
76.5997172557
 30
0.0
 11
145.2143208183
 21
76.5997172557
 31
0.0
  0
LINE
  5
112
330
1F
100
AcDbEntity
  8
0
  6
Continuous
 62
     7
370
    30
100
AcDbLine
 10
146.2143205166
 20
75.5997170918
 30
0.0
 11
136.2143207401
 21
75.5997170918
 31
0.0
  0
LINE
  5
113
330
1F
100
AcDbEntity
  8
0
  6
Continuous
 62
     7
370
    30
100
AcDbLine
 10
136.2143207401
 20
69.5997170396
 30
0.0
 11
146.2143205166
 21
69.5997170396
 31
0.0
  0
LINE
  5
114
330
1F
100
AcDbEntity
  8
0
  6
Continuous
 62
     7
370
    30
100
AcDbLine
 10
145.2143208183
 20
68.5997168757
 30
0.0
 11
137.2143204383
 21
68.5997168757
 31
0.0
  0
LINE
  5
115
330
1F
100
AcDbEntity
  8
0
  6
Continuous
 62
     7
370
    30
100
AcDbLine
 10
137.2143204383
 20
68.5997168757
 30
0.0
 11
137.2143204383
 21
65.9997171015
 31
0.0
  0
LINE
  5
116
330
1F
100
AcDbEntity
  8
0
  6
Continuous
 62
     7
370
    30
100
AcDbLine
 10
145.2143208183
 20
68.5997168757
 30
0.0
 11
145.2143208183
 21
65.9997171015
 31
0.0
  0
LINE
  5
117
330
1F
100
AcDbEntity
  8
0
  6
Continuous
 62
     7
370
    30
100
AcDbLine
 10
137.2143204383
 20
65.9997171015
 30
0.0
 11
145.2143208183
 21
65.9997171015
 31
0.0
  0
LINE
  5
118
330
1F
100
AcDbEntity
  8
0
  6
Continuous
 62
     7
370
    30
100
AcDbLine
 10
146.8005275413
 20
68.5997168757
 30
0.0
 11
146.8005275413
 21
65.9997171015
 31
0.0
  0
LINE
  5
119
330
1F
100
AcDbEntity
  8
0
  6
Continuous
 62
     7
370
    30
100
AcDbLine
 10
145.2143208183
 20
68.5997168757
 30
0.0
 11
146.8005275413
 21
68.5997168757
 31
0.0
  0
LINE
  5
11A
330
1F
100
AcDbEntity
  8
0
  6
Continuous
 62
     7
370
    30
100
AcDbLine
 10
135.6281137153
 20
65.9997171015
 30
0.0
 11
135.6281137153
 21
68.5997168757
 31
0.0
  0
LINE
  5
11B
330
1F
100
AcDbEntity
  8
0
  6
Continuous
 62
     7
370
    30
100
AcDbLine
 10
135.6281137153
 20
68.5997168757
 30
0.0
 11
137.2143204383
 21
68.5997168757
 31
0.0
  0
LINE
  5
11C
330
1F
100
AcDbEntity
  8
0
  6
Continuous
 62
     7
370
    30
100
AcDbLine
 10
146.8005275413
 20
68.5997168757
 30
0.0
 11
166.2143210009
 21
68.5997168757
 31
0.0
  0
LINE
  5
11D
330
1F
100
AcDbEntity
  8
0
  6
Continuous
 62
     7
370
    30
100
AcDbLine
 10
116.2143202558
 20
68.5997168757
 30
0.0
 11
135.6281137153
 21
68.5997168757
 31
0.0
  0
LINE
  5
11E
330
1F
100
AcDbEntity
  8
0
  6
Continuous
 62
     7
370
    30
100
AcDbLine
 10
115.7143211052
 20
68.7997170016
 30
0.0
 11
108.7143218204
 21
68.7997170016
 31
0.0
  0
LINE
  5
11F
330
1F
100
AcDbEntity
  8
0
  6
Continuous
 62
     7
370
    30
100
AcDbLine
 10
108.7143218204
 20
68.7997170016
 30
0.0
 11
108.7143218204
 21
78.9997178353
 31
0.0
  0
LINE
  5
120
330
1F
100
AcDbEntity
  8
0
  6
Continuous
 62
     7
370
    30
100
AcDbLine
 10
115.7143211052
 20
78.9997178353
 30
0.0
 11
108.7143218204
 21
78.9997178353
 31
0.0
  0
LINE
  5
121
330
1F
100
AcDbEntity
  8
0
  6
Continuous
 62
     7
370
    30
100
AcDbLine
 10
115.7143211052
 20
78.9997178353
 30
0.0
 11
115.7143211052
 21
68.7997170016
 31
0.0
  0
SPLINE
  5
122
330
1F
100
AcDbEntity
  8
0
  6
Continuous
 62
     7
370
    30
100
AcDbSpline
210
0.0
220
0.0
230
1.0
 70
     8
 71
     3
 72
    12
 73
     8
 74
     0
 42
0.000000001
 43
0.00000001
 40
0.0
 40
0.0
 40
0.0
 40
0.0
 40
0.1867114680846732
 40
0.3728887618941488
 40
0.5593106748419252
 40
0.779385715014983
 40
1.0
 40
1.0
 40
1.0
 40
1.0
 10
118.6230985507238
 20
74.93942335621799
 30
0.0
 10
118.4994127173792
 20
74.93153391539016
 30
0.0
 10
118.2523949110665
 20
74.915777605119
 30
0.0
 10
117.9270027649101
 20
74.71647096745106
 30
0.0
 10
117.6927896393049
 20
74.3969117632368
 30
0.0
 10
117.5785746367642
 20
73.99386740041857
 30
0.0
 10
117.566135386056
 20
73.7048549332284
 30
0.0
 10
117.5599081501233
 20
73.56017187611546
 30
0.0
  0
SPLINE
  5
123
330
1F
100
AcDbEntity
  8
0
  6
Continuous
 62
     7
370
    30
100
AcDbSpline
210
0.0
220
0.0
230
1.0
 70
     8
 71
     3
 72
    12
 73
     8
 74
     0
 42
0.000000001
 43
0.00000001
 40
0.0
 40
0.0
 40
0.0
 40
0.0
 40
0.186736324678504
 40
0.372897677239717
 40
0.5592616024842895
 40
0.7793635680598175
 40
1.0
 40
1.0
 40
1.0
 40
1.0
 10
118.6046006217468
 20
72.16001127289023
 30
0.0
 10
118.7293983816792
 20
72.16792290180715
 30
0.0
 10
118.9786096419074
 20
72.18372179927066
 30
0.0
 10
119.3085139535227
 20
72.38364174943885
 30
0.0
 10
119.5397243302792
 20
72.71048027498516
 30
0.0
 10
119.6526465359581
 20
73.11735022700029
 30
0.0
 10
119.6643462146141
 20
73.4092298878554
 30
0.0
 10
119.6702031478155
 20
73.55534669385638
 30
0.0
  0
SPLINE
  5
124
330
1F
100
AcDbEntity
  8
0
  6
Continuous
 62
     7
370
    30
100
AcDbSpline
210
0.0
220
0.0
230
1.0
 70
     8
 71
     3
 72
    12
 73
     8
 74
     0
 42
0.000000001
 43
0.00000001
 40
0.0
 40
0.0
 40
0.0
 40
0.0
 40
0.2508014568889455
 40
0.5005754626082796
 40
0.625713851637483
 40
0.7508713065724426
 40
1.0
 40
1.0
 40
1.0
 40
1.0
 10
117.5599081501233
 20
73.56017187611546
 30
0.0
 10
117.5656968221083
 20
73.39385284450452
 30
0.0
 10
117.577250451791
 20
73.06189613571208
 30
0.0
 10
117.6968776180762
 20
72.65173099107767
 30
0.0
 10
117.9026107199574
 20
72.38639668303419
 30
0.0
 10
118.1818592696441
 20
72.19209536207407
 30
0.0
 10
118.4356649570059
 20
72.17283269882104
 30
0.0
 10
118.6046006217468
 20
72.16001127289023
 30
0.0
  0
SPLINE
  5
125
330
1F
100
AcDbEntity
  8
0
  6
Continuous
 62
     7
370
    30
100
AcDbSpline
210
0.0
220
0.0
230
1.0
 70
     8
 71
     3
 72
    11
 73
     7
 74
     0
 42
0.000000001
 43
0.00000001
 40
0.0
 40
0.0
 40
0.0
 40
0.0
 40
0.2813309645764556
 40
0.5607592709777454
 40
0.7798213735422447
 40
1.0
 40
1.0
 40
1.0
 40
1.0
 10
119.6702031478155
 20
73.55534669385638
 30
0.0
 10
119.6625143871328
 20
73.73990852135879
 30
0.0
 10
119.6471888653168
 20
74.1077839736624
 30
0.0
 10
119.4612541591589
 20
74.60654161418883
 30
0.0
 10
119.0619972135862
 20
74.90897502612158
 30
0.0
 10
118.7696458183162
 20
74.92925672789136
 30
0.0
 10
118.6230985507238
 20
74.93942335621799
 30
0.0
  0
LINE
  5
126
330
1F
100
AcDbEntity
  8
0
  6
Continuous
 62
     7
370
    30
100
AcDbLine
 10
163.2212327853
 20
75.2136643268
 30
0.0
 11
163.2212327853
 21
71.999165345
 31
0.0
  0
SPLINE
  5
127
330
1F
100
AcDbEntity
  8
0
  6
Continuous
 62
     7
370
    30
100
AcDbSpline
210
0.0
220
0.0
230
1.0
 70
     8
 71
     3
 72
    11
 73
     7
 74
     0
 42
0.000000001
 43
0.00000001
 40
0.0
 40
0.0
 40
0.0
 40
0.0
 40
0.5016622087220225
 40
0.7516787129354183
 40
0.8762688423526082
 40
1.0
 40
1.0
 40
1.0
 40
1.0
 10
162.9687065318095
 20
75.29971667007888
 30
0.0
 10
163.0170652544905
 20
75.29952683884139
 30
0.0
 10
163.0895248135165
 20
75.29924240023351
 30
0.0
 10
163.171551245299
 20
75.27877814945717
 30
0.0
 10
163.212921882879
 20
75.24961104311154
 30
0.0
 10
163.2184688803738
 20
75.22561890173534
 30
0.0
 10
163.2212327852714
 20
75.21366432682957
 30
0.0
  0
SPLINE
  5
128
330
1F
100
AcDbEntity
  8
0
  6
Continuous
 62
     7
370
    30
100
AcDbSpline
210
0.0
220
0.0
230
1.0
 70
     8
 71
     3
 72
    11
 73
     7
 74
     0
 42
0.000000001
 43
0.00000001
 40
0.0
 40
0.0
 40
0.0
 40
0.0
 40
0.1239412016198542
 40
0.2486547586834294
 40
0.4986446098857621
 40
1.0
 40
1.0
 40
1.0
 40
1.0
 10
162.7065280511844
 20
75.21366432682957
 30
0.0
 10
162.709026624036
 20
75.22625037215342
 30
0.0
 10
162.7140393399153
 20
75.25150089435168
 30
0.0
 10
162.7586673411206
 20
75.2800106872649
 30
0.0
 10
162.8436132270832
 20
75.29864832422385
 30
0.0
 10
162.9186417349873
 20
75.29928909709018
 30
0.0
 10
162.9687065318095
 20
75.29971667007888
 30
0.0
  0
LINE
  5
129
330
1F
100
AcDbEntity
  8
0
  6
Continuous
 62
     7
370
    30
100
AcDbLine
 10
162.7065280512
 20
73.3285547458
 30
0.0
 11
162.7065280512
 21
75.2136643268
 31
0.0
  0
SPLINE
  5
12A
330
1F
100
AcDbEntity
  8
0
  6
Continuous
 62
     7
370
    30
100
AcDbSpline
210
0.0
220
0.0
230
1.0
 70
     8
 71
     3
 72
     9
 73
     5
 74
     0
 42
0.000000001
 43
0.00000001
 40
0.0
 40
0.0
 40
0.0
 40
0.0
 40
0.5599973791135249
 40
1.0
 40
1.0
 40
1.0
 40
1.0
 10
162.7145690902936
 20
72.44551193342889
 30
0.0
 10
162.7118656950402
 20
72.61033560203242
 30
0.0
 10
162.7070381809227
 20
72.90466495918841
 30
0.0
 10
162.7066839248048
 20
73.19903233077483
 30
0.0
 10
162.7065280511844
 20
73.32855474577632
 30
0.0
  0
LINE
  5
12B
330
1F
100
AcDbEntity
  8
0
  6
Continuous
 62
     7
370
    30
100
AcDbLine
 10
162.7121569648
 20
72.4455119334
 30
0.0
 11
162.7145690903
 21
72.4455119334
 31
0.0
  0
SPLINE
  5
12C
330
1F
100
AcDbEntity
  8
0
  6
Continuous
 62
     7
370
    30
100
AcDbSpline
210
0.0
220
0.0
230
1.0
 70
     8
 71
     3
 72
     9
 73
     5
 74
     0
 42
0.000000001
 43
0.00000001
 40
0.0
 40
0.0
 40
0.0
 40
0.0
 40
0.5599942348095335
 40
1.0
 40
1.0
 40
1.0
 40
1.0
 10
162.2022764816749
 20
73.4877913482615
 30
0.0
 10
162.2993776372819
 20
73.29417399681682
 30
0.0
 10
162.4727743431249
 20
72.94842516690159
 30
0.0
 10
162.6390116093131
 20
72.59918126411334
 30
0.0
 10
162.7121569648254
 20
72.44551193342889
 30
0.0
  0
LINE
  5
12D
330
1F
100
AcDbEntity
  8
0
  6
Continuous
 62
     7
370
    30
100
AcDbLine
 10
161.4245886043
 20
75.0166290663
 30
0.0
 11
162.2022764817
 21
73.4877913483
 31
0.0
  0
SPLINE
  5
12E
330
1F
100
AcDbEntity
  8
0
  6
Continuous
 62
     7
370
    30
100
AcDbSpline
210
0.0
220
0.0
230
1.0
 70
     8
 71
     3
 72
    10
 73
     6
 74
     0
 42
0.000000001
 43
0.00000001
 40
0.0
 40
0.0
 40
0.0
 40
0.0
 40
0.2809801374977551
 40
0.5599601199055104
 40
1.0
 40
1.0
 40
1.0
 40
1.0
 10
160.9999558016526
 20
75.29971667007888
 30
0.0
 10
161.0514578410443
 20
75.29866682326775
 30
0.0
 10
161.1540953029301
 20
75.29657460297246
 30
0.0
 10
161.3215912777062
 20
75.2053469579385
 30
0.0
 10
161.3854854160788
 20
75.08827627772376
 30
0.0
 10
161.4245886042583
 20
75.01662906633103
 30
0.0
  0
LINE
  5
12F
330
1F
100
AcDbEntity
  8
0
  6
Continuous
 62
     7
370
    30
100
AcDbLine
 10
160.7546659246
 20
75.2997166701
 30
0.0
 11
160.9999558017
 21
75.2997166701
 31
0.0
  0
SPLINE
  5
130
330
1F
100
AcDbEntity
  8
0
  6
Continuous
 62
     7
370
    30
100
AcDbSpline
210
0.0
220
0.0
230
1.0
 70
     8
 71
     3
 72
    10
 73
     6
 74
     0
 42
0.000000001
 43
0.00000001
 40
0.0
 40
0.0
 40
0.0
 40
0.0
 40
0.2817318100415784
 40
0.5607459086588878
 40
1.0
 40
1.0
 40
1.0
 40
1.0
 10
160.5447625800836
 20
75.10026835278954
 30
0.0
 10
160.546737309219
 20
75.13119160035987
 30
0.0
 10
160.5506677183668
 20
75.19273979598232
 30
0.0
 10
160.6270577356418
 20
75.28123111417466
 30
0.0
 10
160.7062414406853
 20
75.29270181067373
 30
0.0
 10
160.7546659245956
 20
75.29971667007888
 30
0.0
  0
LINE
  5
131
330
1F
100
AcDbEntity
  8
0
  6
Continuous
 62
     7
370
    30
100
AcDbLine
 10
160.5447625801
 20
71.885769371
 30
0.0
 11
160.5447625801
 21
75.1002683528
 31
0.0
  0
SPLINE
  5
132
330
1F
100
AcDbEntity
  8
0
  6
Continuous
 62
     7
370
    30
100
AcDbSpline
210
0.0
220
0.0
230
1.0
 70
     8
 71
     3
 72
    11
 73
     7
 74
     0
 42
0.000000001
 43
0.00000001
 40
0.0
 40
0.0
 40
0.0
 40
0.0
 40
0.5008092600511042
 40
0.7508794966979669
 40
0.875702286395351
 40
1.0
 40
1.0
 40
1.0
 40
1.0
 10
160.8005074843633
 20
71.79971702770675
 30
0.0
 10
160.7517891447858
 20
71.80165710754747
 30
0.0
 10
160.6787441649503
 20
71.8045659319055
 30
0.0
 10
160.5942908599006
 20
71.81901544583427
 30
0.0
 10
160.551480502134
 20
71.8486109825941
 30
0.0
 10
160.5469987386673
 20
71.87340065806121
 30
0.0
 10
160.5447625800836
 20
71.88576937095608
 30
0.0
  0
SPLINE
  5
133
330
1F
100
AcDbEntity
  8
0
  6
Continuous
 62
     7
370
    30
100
AcDbSpline
210
0.0
220
0.0
230
1.0
 70
     8
 71
     3
 72
    12
 73
     8
 74
     0
 42
0.000000001
 43
0.00000001
 40
0.0
 40
0.0
 40
0.0
 40
0.0
 40
0.0626260791854884
 40
0.1252541318637671
 40
0.2497665285445351
 40
0.4998006780126908
 40
1.0
 40
1.0
 40
1.0
 40
1.0
 10
161.0594691768158
 20
71.88576937095608
 30
0.0
 10
161.0588147619573
 20
71.87960110820838
 30
0.0
 10
161.0575059116182
 20
71.86726438833674
 30
0.0
 10
161.0456250089347
 20
71.84505877561857
 30
0.0
 10
161.009371577021
 20
71.81897575098641
 30
0.0
 10
160.9228420979917
 20
71.8050056209144
 30
0.0
 10
160.8494438935117
 20
71.80183257581986
 30
0.0
 10
160.8005074843633
 20
71.79971702770675
 30
0.0
  0
LINE
  5
134
330
1F
100
AcDbEntity
  8
0
  6
Continuous
 62
     7
370
    30
100
AcDbLine
 10
161.0594691768
 20
73.9888251983
 30
0.0
 11
161.0594691768
 21
71.885769371
 31
0.0
  0
SPLINE
  5
135
330
1F
100
AcDbEntity
  8
0
  6
Continuous
 62
     7
370
    30
100
AcDbSpline
210
0.0
220
0.0
230
1.0
 70
     8
 71
     3
 72
     9
 73
     5
 74
     0
 42
0.000000001
 43
0.00000001
 40
0.0
 40
0.0
 40
0.0
 40
0.0
 40
0.5599935772288029
 40
1.0
 40
1.0
 40
1.0
 40
1.0
 10
161.0538384005296
 20
74.7858156673738
 30
0.0
 10
161.0562814981694
 20
74.63705456885552
 30
0.0
 10
161.0606442225633
 20
74.37140670329528
 30
0.0
 10
161.0598282222115
 20
74.10572628759039
 30
0.0
 10
161.0594691768158
 20
73.9888251982757
 30
0.0
  0
LINE
  5
136
330
1F
100
AcDbEntity
  8
0
  6
Continuous
 62
     7
370
    30
100
AcDbLine
 10
161.0594691768
 20
74.7858156674
 30
0.0
 11
161.0538384005
 21
74.7858156674
 31
0.0
  0
SPLINE
  5
137
330
1F
100
AcDbEntity
  8
0
  6
Continuous
 62
     7
370
    30
100
AcDbSpline
210
0.0
220
0.0
230
1.0
 70
     8
 71
     3
 72
     9
 73
     5
 74
     0
 42
0.000000001
 43
0.00000001
 40
0.0
 40
0.0
 40
0.0
 40
0.0
 40
0.5599960617769892
 40
1.0
 40
1.0
 40
1.0
 40
1.0
 10
161.3699013426769
 20
74.13680304215634
 30
0.0
 10
161.3088719880005
 20
74.2564848592128
 30
0.0
 10
161.1998902310884
 20
74.47020389265865
 30
0.0
 10
161.1023758767555
 20
74.68937813679621
 30
0.0
 10
161.0594691768158
 20
74.7858156673738
 30
0.0
  0
LINE
  5
138
330
1F
100
AcDbEntity
  8
0
  6
Continuous
 62
     7
370
    30
100
AcDbLine
 10
162.38322687
 20
72.1551860906
 30
0.0
 11
161.3699013427
 21
74.1368030422
 31
0.0
  0
SPLINE
  5
139
330
1F
100
AcDbEntity
  8
0
  6
Continuous
 62
     7
370
    30
100
AcDbSpline
210
0.0
220
0.0
230
1.0
 70
     8
 71
     3
 72
    10
 73
     6
 74
     0
 42
0.000000001
 43
0.00000001
 40
0.0
 40
0.0
 40
0.0
 40
0.0
 40
0.2799130149522194
 40
0.5591815542967565
 40
1.0
 40
1.0
 40
1.0
 40
1.0
 10
162.8392247542608
 20
71.79971702770675
 30
0.0
 10
162.7805758882609
 20
71.80270891521947
 30
0.0
 10
162.6634131902236
 20
71.80868580168158
 30
0.0
 10
162.4961823533393
 20
71.94506011839921
 30
0.0
 10
162.4261182712039
 20
72.07539715862379
 30
0.0
 10
162.3832268699872
 20
72.15518609063115
 30
0.0
  0
LINE
  5
13A
330
1F
100
AcDbEntity
  8
0
  6
Continuous
 62
     7
370
    30
100
AcDbLine
 10
163.0032884017
 20
71.7997170277
 30
0.0
 11
162.8392247543
 21
71.7997170277
 31
0.0
  0
SPLINE
  5
13B
330
1F
100
AcDbEntity
  8
0
  6
Continuous
 62
     7
370
    30
100
AcDbSpline
210
0.0
220
0.0
230
1.0
 70
     8
 71
     3
 72
    11
 73
     7
 74
     0
 42
0.000000001
 43
0.00000001
 40
0.0
 40
0.0
 40
0.0
 40
0.0
 40
0.2796943428312925
 40
0.5588155685907739
 40
0.779243431617147
 40
1.0
 40
1.0
 40
1.0
 40
1.0
 10
163.2212327852714
 20
71.99916534499611
 30
0.0
 10
163.2181578663302
 20
71.96780031434004
 30
0.0
 10
163.2120143292135
 20
71.90513452259569
 30
0.0
 10
163.1504502961376
 20
71.83746419368617
 30
0.0
 10
163.0765655696687
 20
71.80460524171922
 30
0.0
 10
163.0277262536002
 20
71.80134724150413
 30
0.0
 10
163.0032884016502
 20
71.79971702770676
 30
0.0
  0
LINE
  5
13C
330
1F
100
AcDbEntity
  8
0
  6
Continuous
 62
     7
370
    30
100
AcDbLine
 10
166.7143201515
 20
78.9997178353
 30
0.0
 11
115.7143211052
 21
78.9997178353
 31
0.0
  0
LINE
  5
13D
330
1F
100
AcDbEntity
  8
0
  6
Continuous
 62
     7
370
    30
100
AcDbLine
 10
166.7143201515
 20
68.7997170016
 30
0.0
 11
166.7143201515
 21
78.9997178353
 31
0.0
  0
SPLINE
  5
13E
330
1F
100
AcDbEntity
  8
0
  6
Continuous
 62
     7
370
    30
100
AcDbSpline
210
0.0
220
0.0
230
1.0
 70
     8
 71
     3
 72
    12
 73
     8
 74
     0
 42
0.000000001
 43
0.00000001
 40
0.0
 40
0.0
 40
0.0
 40
0.0
 40
0.1869578744524288
 40
0.3733919712285914
 40
0.5596060687893663
 40
0.7794643142944849
 40
1.0
 40
1.0
 40
1.0
 40
1.0
 10
158.2398453786838
 20
75.35118807481017
 30
0.0
 10
158.4061039259115
 20
75.34208926849794
 30
0.0
 10
158.7381552335379
 20
75.32391714691872
 30
0.0
 10
159.2052477479461
 20
75.1167203488397
 30
0.0
 10
159.5658942858387
 20
74.71526126794521
 30
0.0
 10
159.7471879490831
 20
74.17606458305255
 30
0.0
 10
159.7641896762096
 20
73.78550749621391
 30
0.0
 10
159.772703616308
 20
73.58992856369699
 30
0.0
  0
SPLINE
  5
13F
330
1F
100
AcDbEntity
  8
0
  6
Continuous
 62
     7
370
    30
100
AcDbSpline
210
0.0
220
0.0
230
1.0
 70
     8
 71
     3
 72
    12
 73
     8
 74
     0
 42
0.000000001
 43
0.00000001
 40
0.0
 40
0.0
 40
0.0
 40
0.0
 40
0.187238742428123
 40
0.3742195079373337
 40
0.5607138957259427
 40
0.7799588380431159
 40
1.0
 40
1.0
 40
1.0
 40
1.0
 10
156.6329982191193
 20
73.53041518853391
 30
0.0
 10
156.6404357355051
 20
73.70221905372428
 30
0.0
 10
156.6553005208912
 20
74.04559007330884
 30
0.0
 10
156.8039947953684
 20
74.54496501977303
 30
0.0
 10
157.1160939397705
 20
75.00242685236181
 30
0.0
 10
157.6311939390256
 20
75.30979889366314
 30
0.0
 10
158.036716558038
 20
75.33737502023394
 30
0.0
 10
158.2398453786838
 20
75.35118807481017
 30
0.0
  0
SPLINE
  5
140
330
1F
100
AcDbEntity
  8
0
  6
Continuous
 62
     7
370
    30
100
AcDbSpline
210
0.0
220
0.0
230
1.0
 70
     8
 71
     3
 72
    12
 73
     8
 74
     0
 42
0.000000001
 43
0.00000001
 40
0.0
 40
0.0
 40
0.0
 40
0.0
 40
0.1870060463451232
 40
0.3733871499026263
 40
0.5595065483959366
 40
0.7794085207325089
 40
0.9999999999999999
 40
0.9999999999999999
 40
0.9999999999999999
 40
0.9999999999999999
 10
158.1690741762388
 20
71.74824655429805
 30
0.0
 10
158.0011368160283
 20
71.75680365946808
 30
0.0
 10
157.6658233140496
 20
71.77388927340033
 30
0.0
 10
157.1939800088193
 20
71.98350995353871
 30
0.0
 10
156.83335588872
 20
72.39246253678614
 30
0.0
 10
156.656720532215
 20
72.93860649291919
 30
0.0
 10
156.6409139042197
 20
73.33293987256067
 30
0.0
 10
156.6329982191193
 20
73.53041518853391
 30
0.0
  0
SPLINE
  5
141
330
1F
100
AcDbEntity
  8
0
  6
Continuous
 62
     7
370
    30
100
AcDbSpline
210
0.0
220
0.0
230
1.0
 70
     8
 71
     3
 72
    12
 73
     8
 74
     0
 42
0.000000001
 43
0.00000001
 40
0.0
 40
0.0
 40
0.0
 40
0.0
 40
0.187253586808883
 40
0.3742543980512695
 40
0.5607963292171225
 40
0.7799821661432935
 40
1.0
 40
1.0
 40
1.0
 40
1.0
 10
159.772703616308
 20
73.58992856369699
 30
0.0
 10
159.7656163755855
 20
73.41705827056529
 30
0.0
 10
159.7514514612807
 20
73.0715510437105
 30
0.0
 10
159.6050747608907
 20
72.56864323474989
 30
0.0
 10
159.2981853524601
 20
72.10369458929507
 30
0.0
 10
158.7813643029335
 20
71.79038754408798
 30
0.0
 10
158.3734284735714
 20
71.76231127946996
 30
0.0
 10
158.1690741762388
 20
71.74824655429805
 30
0.0
  0
LINE
  5
142
330
1F
100
AcDbEntity
  8
0
  6
Continuous
 62
     7
370
    30
100
AcDbLine
 10
124.0452027008
 20
73.3438349553
 30
0.0
 11
124.0452027008
 21
71.8865740337
 31
0.0
  0
LINE
  5
143
330
1F
100
AcDbEntity
  8
0
  6
Continuous
 62
     7
370
    30
100
AcDbLine
 10
121.4716734424
 20
73.3438349553
 30
0.0
 11
121.4716734424
 21
71.8865740337
 31
0.0
  0
SPLINE
  5
144
330
1F
100
AcDbEntity
  8
0
  6
Continuous
 62
     7
370
    30
100
AcDbSpline
210
0.0
220
0.0
230
1.0
 70
     8
 71
     3
 72
    11
 73
     7
 74
     0
 42
0.000000001
 43
0.00000001
 40
0.0
 40
0.0
 40
0.0
 40
0.0
 40
0.500994125295256
 40
0.750371465272517
 40
0.8758117468898964
 40
1.0
 40
1.0
 40
1.0
 40
1.0
 10
122.7391364112365
 20
73.55132524297917
 30
0.0
 10
122.7391778370291
 20
73.50970303316755
 30
0.0
 10
122.7392398831312
 20
73.44736274415553
 30
0.0
 10
122.7101687656907
 20
73.38040586524681
 30
0.0
 10
122.6807402033999
 20
73.34948320133505
 30
0.0
 10
122.6601237866735
 20
73.34571139804032
 30
0.0
 10
122.6498672798145
 20
73.34383495525803
 30
0.0
  0
SPLINE
  5
145
330
1F
100
AcDbEntity
  8
0
  6
Continuous
 62
     7
370
    30
100
AcDbSpline
210
0.0
220
0.0
230
1.0
 70
     8
 71
     3
 72
    11
 73
     7
 74
     0
 42
0.000000001
 43
0.00000001
 40
0.0
 40
0.0
 40
0.0
 40
0.0
 40
0.1242451356784773
 40
0.2494128529472206
 40
0.498778410008865
 40
1.0
 40
1.0
 40
1.0
 40
1.0
 10
122.6498672798145
 20
73.75559967385018
 30
0.0
 10
122.6601015382066
 20
73.75412623529388
 30
0.0
 10
122.6806460494217
 20
73.75116841717117
 30
0.0
 10
122.7133938894362
 20
73.72377527007855
 30
0.0
 10
122.7393153067889
 20
73.65421499610743
 30
0.0
 10
122.7392080406401
 20
73.59252208410247
 30
0.0
 10
122.7391364112365
 20
73.55132524297917
 30
0.0
  0
LINE
  5
146
330
1F
100
AcDbEntity
  8
0
  6
Continuous
 62
     7
370
    30
100
AcDbLine
 10
121.4716734424
 20
73.7555996739
 30
0.0
 11
122.6498672798
 21
73.7555996739
 31
0.0
  0
LINE
  5
147
330
1F
100
AcDbEntity
  8
0
  6
Continuous
 62
     7
370
    30
100
AcDbLine
 10
121.4716734424
 20
74.8879519515
 30
0.0
 11
121.4716734424
 21
73.7555996739
 31
0.0
  0
SPLINE
  5
148
330
1F
100
AcDbEntity
  8
0
  6
Continuous
 62
     7
370
    30
100
AcDbSpline
210
0.0
220
0.0
230
1.0
 70
     8
 71
     3
 72
    12
 73
     8
 74
     0
 42
0.000000001
 43
0.00000001
 40
0.0
 40
0.0
 40
0.0
 40
0.0
 40
0.1869585476053292
 40
0.3733919841841417
 40
0.5596060589875246
 40
0.7794642776235697
 40
0.9999999999999999
 40
0.9999999999999999
 40
0.9999999999999999
 40
0.9999999999999999
 10
118.6520496442783
 20
75.35118807481015
 30
0.0
 10
118.8183088683939
 20
75.34208944239307
 30
0.0
 10
119.1503603438499
 20
75.32391773291472
 30
0.0
 10
119.6174522988965
 20
75.11671972806515
 30
0.0
 10
119.9780986867273
 20
74.71526133788335
 30
0.0
 10
120.159391726344
 20
74.1760644666098
 30
0.0
 10
120.1763950191693
 20
73.78550747612897
 30
0.0
 10
120.1849097445476
 20
73.58992856369699
 30
0.0
  0
SPLINE
  5
149
330
1F
100
AcDbEntity
  8
0
  6
Continuous
 62
     7
370
    30
100
AcDbSpline
210
0.0
220
0.0
230
1.0
 70
     8
 71
     3
 72
    12
 73
     8
 74
     0
 42
0.000000001
 43
0.00000001
 40
0.0
 40
0.0
 40
0.0
 40
0.0
 40
0.1870054639113373
 40
0.3733866743173028
 40
0.5595061795090455
 40
0.7794083942719402
 40
1.0
 40
1.0
 40
1.0
 40
1.0
 10
118.5812784418332
 20
71.74824655429805
 30
0.0
 10
118.4133417191939
 20
71.75680373544296
 30
0.0
 10
118.078028872978
 20
71.7738895325229
 30
0.0
 10
117.6061860740825
 20
71.98350993179226
 30
0.0
 10
117.2455622037484
 20
72.39246270976082
 30
0.0
 10
117.0689254544051
 20
72.93860628832029
 30
0.0
 10
117.0531190080724
 20
73.33293983904855
 30
0.0
 10
117.0452034160364
 20
73.53041518853391
 30
0.0
  0
SPLINE
  5
14A
330
1F
100
AcDbEntity
  8
0
  6
Continuous
 62
     7
370
    30
100
AcDbSpline
210
0.0
220
0.0
230
1.0
 70
     8
 71
     3
 72
    11
 73
     7
 74
     0
 42
0.000000001
 43
0.00000001
 40
0.0
 40
0.0
 40
0.0
 40
0.0
 40
0.1240107945954358
 40
0.2493169937848292
 40
0.4991131971807555
 40
1.0
 40
1.0
 40
1.0
 40
1.0
 10
122.7174235567319
 20
75.29971667007888
 30
0.0
 10
122.7279160495314
 20
75.29828466077281
 30
0.0
 10
122.7490106386807
 20
75.29540568353194
 30
0.0
 10
122.7819359646275
 20
75.26658118305225
 30
0.0
 10
122.8092846687437
 20
75.19609883041605
 30
0.0
 10
122.809659424056
 20
75.13283214316641
 30
0.0
 10
122.8099094763267
 20
75.09061798827138
 30
0.0
  0
SPLINE
  5
14B
330
1F
100
AcDbEntity
  8
0
  6
Continuous
 62
     7
370
    30
100
AcDbSpline
210
0.0
220
0.0
230
1.0
 70
     8
 71
     3
 72
    12
 73
     8
 74
     0
 42
0.000000001
 43
0.00000001
 40
0.0
 40
0.0
 40
0.0
 40
0.0
 40
0.1872535964221726
 40
0.3742541676430976
 40
0.5607964353144403
 40
0.7799822192924442
 40
1.0
 40
1.0
 40
1.0
 40
1.0
 10
120.1849097445476
 20
73.58992856369699
 30
0.0
 10
120.1778214966097
 20
73.41705836574405
 30
0.0
 10
120.1636545786829
 20
73.07155155956603
 30
0.0
 10
120.017281862508
 20
72.56864224732361
 30
0.0
 10
119.7103891053845
 20
72.10369525328107
 30
0.0
 10
119.1935687901464
 20
71.79038741747608
 30
0.0
 10
118.785632813132
 20
71.76231123721271
 30
0.0
 10
118.5812784418332
 20
71.74824655429805
 30
0.0
  0
LINE
  5
14C
330
1F
100
AcDbEntity
  8
0
  6
Continuous
 62
     7
370
    30
100
AcDbLine
 10
115.7143211052
 20
68.7997170016
 30
0.0
 11
137.0143207781
 21
68.7997170016
 31
0.0
  0
LINE
  5
14D
330
1F
100
AcDbEntity
  8
0
  6
Continuous
 62
     7
370
    30
100
AcDbLine
 10
145.4143204786
 20
68.7997170016
 30
0.0
 11
166.7143201515
 21
68.7997170016
 31
0.0
  0
LINE
  5
14E
330
1F
100
AcDbEntity
  8
0
  6
Continuous
 62
     7
370
    30
100
AcDbLine
 10
122.6498672798
 20
73.3438349553
 30
0.0
 11
121.4716734424
 21
73.3438349553
 31
0.0
  0
SPLINE
  5
14F
330
1F
100
AcDbEntity
  8
0
  6
Continuous
 62
     7
370
    30
100
AcDbSpline
210
0.0
220
0.0
230
1.0
 70
     8
 71
     3
 72
    11
 73
     7
 74
     0
 42
0.000000001
 43
0.00000001
 40
0.0
 40
0.0
 40
0.0
 40
0.0
 40
0.5008082695212467
 40
0.7509728961137928
 40
0.8757289739562732
 40
1.0
 40
1.0
 40
1.0
 40
1.0
 10
123.7878503337371
 20
71.79971702770675
 30
0.0
 10
123.7389166185945
 20
71.80195714358798
 30
0.0
 10
123.6655394480988
 20
71.80531624608953
 30
0.0
 10
123.5805451548581
 20
71.81893088619346
 30
0.0
 10
123.5372746003117
 20
71.84841842652347
 30
0.0
 10
123.5327539094518
 20
71.873335233691
 30
0.0
 10
123.5304979666936
 20
71.88576937095608
 30
0.0
  0
SPLINE
  5
150
330
1F
100
AcDbEntity
  8
0
  6
Continuous
 62
     7
370
    30
100
AcDbSpline
210
0.0
220
0.0
230
1.0
 70
     8
 71
     3
 72
    12
 73
     8
 74
     0
 42
0.000000001
 43
0.00000001
 40
0.0
 40
0.0
 40
0.0
 40
0.0
 40
0.1872387790128142
 40
0.3742195810563098
 40
0.5607138098935648
 40
0.77995879504914
 40
1.0
 40
1.0
 40
1.0
 40
1.0
 10
117.0452034160364
 20
73.53041518853391
 30
0.0
 10
117.0526409152791
 20
73.70221906601843
 30
0.0
 10
117.0675056664028
 20
74.04559011017433
 30
0.0
 10
117.2162001455391
 20
74.54496469869174
 30
0.0
 10
117.5282980772903
 20
75.00242715506597
 30
0.0
 10
118.0433982819652
 20
75.3097988383176
 30
0.0
 10
118.4489208494453
 20
75.33737500176315
 30
0.0
 10
118.6520496442783
 20
75.35118807481015
 30
0.0
  0
LINE
  5
151
330
1F
100
AcDbEntity
  8
0
  6
Continuous
 62
     7
370
    30
100
AcDbLine
 10
125.2233965382
 20
73.3438349553
 30
0.0
 11
124.0452027008
 21
73.3438349553
 31
0.0
  0
LINE
  5
152
330
1F
100
AcDbEntity
  8
0
  6
Continuous
 62
     7
370
    30
100
AcDbLine
 10
122.7206403449
 20
74.8879519515
 30
0.0
 11
121.4716734424
 21
74.8879519515
 31
0.0
  0
SPLINE
  5
153
330
1F
100
AcDbEntity
  8
0
  6
Continuous
 62
     7
370
    30
100
AcDbSpline
210
0.0
220
0.0
230
1.0
 70
     8
 71
     3
 72
    11
 73
     7
 74
     0
 42
0.000000001
 43
0.00000001
 40
0.0
 40
0.0
 40
0.0
 40
0.0
 40
0.5008357224162058
 40
0.7502084140077274
 40
0.8752543797102006
 40
0.9999999999999999
 40
0.9999999999999999
 40
0.9999999999999999
 40
0.9999999999999999
 10
125.3834387346971
 20
75.09061798827138
 30
0.0
 10
125.3831381827939
 20
75.04983461449048
 30
0.0
 10
125.3826879821463
 20
74.98874466265072
 30
0.0
 10
125.3558087979275
 20
74.92119597430376
 30
0.0
 10
125.324640012586
 20
74.8928555085496
 30
0.0
 10
125.3043182615291
 20
74.8895851597693
 30
0.0
 10
125.2941696032751
 20
74.88795195148673
 30
0.0
  0
LINE
  5
154
330
1F
100
AcDbEntity
  8
0
  6
Continuous
 62
     7
370
    30
100
AcDbLine
 10
125.2941696033
 20
74.8879519515
 30
0.0
 11
124.0452027008
 21
74.8879519515
 31
0.0
  0
SPLINE
  5
155
330
1F
100
AcDbEntity
  8
0
  6
Continuous
 62
     7
370
    30
100
AcDbSpline
210
0.0
220
0.0
230
1.0
 70
     8
 71
     3
 72
    11
 73
     7
 74
     0
 42
0.000000001
 43
0.00000001
 40
0.0
 40
0.0
 40
0.0
 40
0.0
 40
0.1244489792734647
 40
0.2488638211120832
 40
0.4992335615406118
 40
1.0
 40
1.0
 40
1.0
 40
1.0
 10
121.4716734424102
 20
71.88657403366055
 30
0.0
 10
121.4695175454508
 20
71.87408493320243
 30
0.0
 10
121.4652063429131
 20
71.84911015815479
 30
0.0
 10
121.4225243488046
 20
71.81853295334649
 30
0.0
 10
121.3369056013043
 20
71.80514663312573
 30
0.0
 10
121.2633554136718
 20
71.80188889325781
 30
0.0
 10
121.2143210753667
 20
71.79971702770675
 30
0.0
  0
SPLINE
  5
156
330
1F
100
AcDbEntity
  8
0
  6
Continuous
 62
     7
370
    30
100
AcDbSpline
210
0.0
220
0.0
230
1.0
 70
     8
 71
     3
 72
    11
 73
     7
 74
     0
 42
0.000000001
 43
0.00000001
 40
0.0
 40
0.0
 40
0.0
 40
0.0
 40
0.2803879794163306
 40
0.5581726090723215
 40
0.7791821498088422
 40
1.0
 40
1.0
 40
1.0
 40
1.0
 10
123.5304979666936
 20
75.11152804271664
 30
0.0
 10
123.5314225475857
 20
75.13892825028037
 30
0.0
 10
123.5332631248097
 20
75.19347425962361
 30
0.0
 10
123.5783775119291
 20
75.25909589911771
 30
0.0
 10
123.6411753070824
 20
75.29271611125223
 30
0.0
 10
123.6837411106456
 20
75.29738382551243
 30
0.0
 10
123.7050147786605
 20
75.29971667007888
 30
0.0
  0
LINE
  5
157
330
1F
100
AcDbEntity
  8
0
  6
Continuous
 62
     7
370
    30
100
AcDbLine
 10
123.5304979667
 20
71.885769371
 30
0.0
 11
123.5304979667
 21
75.1115280427
 31
0.0
  0
LINE
  5
158
330
1F
100
AcDbEntity
  8
0
  6
Continuous
 62
     7
370
    30
100
AcDbLine
 10
124.0452027008
 20
73.7555996739
 30
0.0
 11
125.2233965382
 21
73.7555996739
 31
0.0
  0
SPLINE
  5
159
330
1F
100
AcDbEntity
  8
0
  6
Continuous
 62
     7
370
    30
100
AcDbSpline
210
0.0
220
0.0
230
1.0
 70
     8
 71
     3
 72
    11
 73
     7
 74
     0
 42
0.000000001
 43
0.00000001
 40
0.0
 40
0.0
 40
0.0
 40
0.0
 40
0.1244467538609989
 40
0.2488660885237337
 40
0.4992350731755039
 40
1.0
 40
1.0
 40
1.0
 40
1.0
 10
124.0452027007806
 20
71.88657403366055
 30
0.0
 10
124.0430475925531
 20
71.87408483110873
 30
0.0
 10
124.0387378509304
 20
71.84910917773556
 30
0.0
 10
123.9960531700421
 20
71.81853390810915
 30
0.0
 10
123.9104354904404
 20
71.80514602506852
 30
0.0
 10
123.8368849243512
 20
71.80188865003231
 30
0.0
 10
123.7878503337371
 20
71.79971702770675
 30
0.0
  0
SPLINE
  5
15A
330
1F
100
AcDbEntity
  8
0
  6
Continuous
 62
     7
370
    30
100
AcDbSpline
210
0.0
220
0.0
230
1.0
 70
     8
 71
     3
 72
    11
 73
     7
 74
     0
 42
0.000000001
 43
0.00000001
 40
0.0
 40
0.0
 40
0.0
 40
0.0
 40
0.1240107945954358
 40
0.2493169937848292
 40
0.4991131971807555
 40
1.0
 40
1.0
 40
1.0
 40
1.0
 10
125.2909528151023
 20
75.29971667007888
 30
0.0
 10
125.3014453079018
 20
75.29828466077281
 30
0.0
 10
125.322539897051
 20
75.29540568353194
 30
0.0
 10
125.3554652229979
 20
75.26658118305225
 30
0.0
 10
125.3828139271141
 20
75.19609883041605
 30
0.0
 10
125.3831886824264
 20
75.13283214316641
 30
0.0
 10
125.3834387346971
 20
75.09061798827138
 30
0.0
  0
SPLINE
  5
15B
330
1F
100
AcDbEntity
  8
0
  6
Continuous
 62
     7
370
    30
100
AcDbSpline
210
0.0
220
0.0
230
1.0
 70
     8
 71
     3
 72
    11
 73
     7
 74
     0
 42
0.000000001
 43
0.00000001
 40
0.0
 40
0.0
 40
0.0
 40
0.0
 40
0.500994125295256
 40
0.750371465272517
 40
0.8758117468898964
 40
1.0
 40
1.0
 40
1.0
 40
1.0
 10
125.3126656696069
 20
73.55132524297917
 30
0.0
 10
125.3127070953995
 20
73.50970303316755
 30
0.0
 10
125.3127691415016
 20
73.44736274415553
 30
0.0
 10
125.2836980240611
 20
73.38040586524681
 30
0.0
 10
125.2542694617703
 20
73.34948320133505
 30
0.0
 10
125.2336530450439
 20
73.34571139804032
 30
0.0
 10
125.2233965381849
 20
73.34383495525803
 30
0.0
  0
SPLINE
  5
15C
330
1F
100
AcDbEntity
  8
0
  6
Continuous
 62
     7
370
    30
100
AcDbSpline
210
0.0
220
0.0
230
1.0
 70
     8
 71
     3
 72
    11
 73
     7
 74
     0
 42
0.000000001
 43
0.00000001
 40
0.0
 40
0.0
 40
0.0
 40
0.0
 40
0.1242451356784773
 40
0.2494128529472206
 40
0.498778410008865
 40
1.0
 40
1.0
 40
1.0
 40
1.0
 10
125.2233965381849
 20
73.75559967385018
 30
0.0
 10
125.233630796577
 20
73.75412623529388
 30
0.0
 10
125.2541753077921
 20
73.75116841717117
 30
0.0
 10
125.2869231478066
 20
73.72377527007855
 30
0.0
 10
125.3128445651593
 20
73.65421499610743
 30
0.0
 10
125.3127372990105
 20
73.59252208410247
 30
0.0
 10
125.3126656696069
 20
73.55132524297917
 30
0.0
  0
LINE
  5
15D
330
1F
100
AcDbEntity
  8
0
  6
Continuous
 62
     7
370
    30
100
AcDbLine
 10
124.0452027008
 20
74.8879519515
 30
0.0
 11
124.0452027008
 21
73.7555996739
 31
0.0
  0
SPLINE
  5
15E
330
1F
100
AcDbEntity
  8
0
  6
Continuous
 62
     7
370
    30
100
AcDbSpline
210
0.0
220
0.0
230
1.0
 70
     8
 71
     3
 72
    11
 73
     7
 74
     0
 42
0.000000001
 43
0.00000001
 40
0.0
 40
0.0
 40
0.0
 40
0.0
 40
0.2803869595335743
 40
0.5581742161745168
 40
0.7791829530113124
 40
1.0
 40
1.0
 40
1.0
 40
1.0
 10
120.9569668456781
 20
75.11152804271664
 30
0.0
 10
120.9578912941866
 20
75.13892834606808
 30
0.0
 10
120.9597316198655
 20
75.19347490155546
 30
0.0
 10
121.0048483240484
 20
75.25909545527429
 30
0.0
 10
121.0676459612004
 20
75.2927161730439
 30
0.0
 10
121.1102118231131
 20
75.29738384610368
 30
0.0
 10
121.1314855202901
 20
75.29971667007888
 30
0.0
  0
LINE
  5
15F
330
1F
100
AcDbEntity
  8
0
  6
Continuous
 62
     7
370
    30
100
AcDbLine
 10
123.7050147787
 20
75.2997166701
 30
0.0
 11
125.2909528151
 21
75.2997166701
 31
0.0
  0
SPLINE
  5
160
330
1F
100
AcDbEntity
  8
0
  6
Continuous
 62
     7
370
    30
100
AcDbSpline
210
0.0
220
0.0
230
1.0
 70
     8
 71
     3
 72
    11
 73
     7
 74
     0
 42
0.000000001
 43
0.00000001
 40
0.0
 40
0.0
 40
0.0
 40
0.0
 40
0.5008357224162058
 40
0.7502084140077274
 40
0.8752543797102006
 40
0.9999999999999999
 40
0.9999999999999999
 40
0.9999999999999999
 40
0.9999999999999999
 10
122.8099094763267
 20
75.09061798827138
 30
0.0
 10
122.8096089244235
 20
75.04983461449048
 30
0.0
 10
122.8091587237759
 20
74.98874466265072
 30
0.0
 10
122.7822795395571
 20
74.92119597430376
 30
0.0
 10
122.7511107542156
 20
74.8928555085496
 30
0.0
 10
122.7307890031587
 20
74.8895851597693
 30
0.0
 10
122.7206403449047
 20
74.88795195148673
 30
0.0
  0
SPLINE
  5
161
330
1F
100
AcDbEntity
  8
0
  6
Continuous
 62
     7
370
    30
100
AcDbSpline
210
0.0
220
0.0
230
1.0
 70
     8
 71
     3
 72
    11
 73
     7
 74
     0
 42
0.000000001
 43
0.00000001
 40
0.0
 40
0.0
 40
0.0
 40
0.0
 40
0.5008135515953992
 40
0.7509715000276507
 40
0.8757273163654182
 40
1.0
 40
1.0
 40
1.0
 40
1.0
 10
121.2143210753667
 20
71.79971702770675
 30
0.0
 10
121.1653867733839
 20
71.80195697064708
 30
0.0
 10
121.0920096332371
 20
71.80531577215017
 30
0.0
 10
121.0070150962717
 20
71.81893118055578
 30
0.0
 10
120.9637456535359
 20
71.84841869730855
 30
0.0
 10
120.9592235238814
 20
71.873335259698
 30
0.0
 10
120.9569668456781
 20
71.88576937095608
 30
0.0
  0
LINE
  5
162
330
1F
100
AcDbEntity
  8
0
  6
Continuous
 62
     7
370
    30
100
AcDbLine
 10
121.1314855203
 20
75.2997166701
 30
0.0
 11
122.7174235567
 21
75.2997166701
 31
0.0
  0
LINE
  5
163
330
1F
100
AcDbEntity
  8
0
  6
Continuous
 62
     7
370
    30
100
AcDbLine
 10
120.9569668457
 20
71.885769371
 30
0.0
 11
120.9569668457
 21
75.1115280427
 31
0.0
  0
LINE
  5
164
330
1F
100
AcDbEntity
  8
0
  6
Continuous
 62
     7
370
    30
100
AcDbLine
 10
108.7143218204
 20
78.9997178353
 30
0.0
 11
109.2143191084
 21
79.499716986
 31
0.0
  0
LINE
  5
165
330
1F
100
AcDbEntity
  8
0
  6
Continuous
 62
     7
370
    30
100
AcDbLine
 10
109.2143191084
 20
79.499716986
 30
0.0
 11
115.7143211052
 21
79.499716986
 31
0.0
  0
LINE
  5
166
330
1F
100
AcDbEntity
  8
0
  6
Continuous
 62
     7
370
    30
100
AcDbLine
 10
115.7143211052
 20
78.9997178353
 30
0.0
 11
115.7143211052
 21
79.499716986
 31
0.0
  0
LINE
  5
167
330
1F
100
AcDbEntity
  8
0
  6
Continuous
 62
     7
370
    30
100
AcDbLine
 10
115.7143211052
 20
79.499716986
 30
0.0
 11
166.7143201515
 21
79.499716986
 31
0.0
  0
LINE
  5
168
330
1F
100
AcDbEntity
  8
0
  6
Continuous
 62
     7
370
    30
100
AcDbLine
 10
166.7143201515
 20
79.499716986
 30
0.0
 11
166.7143201515
 21
78.9997178353
 31
0.0
  0
LINE
  5
169
330
1F
100
AcDbEntity
  8
0
  6
Continuous
 62
     7
370
    30
100
AcDbLine
 10
173.7143194362
 20
78.9997178353
 30
0.0
 11
166.7143201515
 21
78.9997178353
 31
0.0
  0
LINE
  5
16A
330
1F
100
AcDbEntity
  8
0
  6
Continuous
 62
     7
370
    30
100
AcDbLine
 10
173.7143194362
 20
78.9997178353
 30
0.0
 11
173.7143194362
 21
68.7997170016
 31
0.0
  0
LINE
  5
16B
330
1F
100
AcDbEntity
  8
0
  6
Continuous
 62
     7
370
    30
100
AcDbLine
 10
173.7143194362
 20
68.7997170016
 30
0.0
 11
166.7143201515
 21
68.7997170016
 31
0.0
  0
LINE
  5
16C
330
1F
100
AcDbEntity
  8
0
  6
Continuous
 62
     7
370
    30
100
AcDbLine
 10
166.7143201515
 20
79.499716986
 30
0.0
 11
173.2143221483
 21
79.499716986
 31
0.0
  0
LINE
  5
16D
330
1F
100
AcDbEntity
  8
0
  6
Continuous
 62
     7
370
    30
100
AcDbLine
 10
173.2143221483
 20
79.499716986
 30
0.0
 11
173.7143194362
 21
78.9997178353
 31
0.0
  0
SPLINE
  5
16E
330
1F
100
AcDbEntity
  8
0
  6
Continuous
 62
     7
370
    30
100
AcDbSpline
210
0.0
220
0.0
230
1.0
 70
     8
 71
     3
 72
    12
 73
     8
 74
     0
 42
0.000000001
 43
0.00000001
 40
0.0
 40
0.0
 40
0.0
 40
0.0
 40
0.1867106067292663
 40
0.3728887900150083
 40
0.5593107782582639
 40
0.7793856259092656
 40
1.0
 40
1.0
 40
1.0
 40
1.0
 10
158.2108924224841
 20
74.93942335621799
 30
0.0
 10
158.0872072843678
 20
74.93153370742135
 30
0.0
 10
157.8401897083288
 20
74.91577690792849
 30
0.0
 10
157.5147969606819
 20
74.7164715998857
 30
0.0
 10
157.2805831378907
 20
74.39691200510686
 30
0.0
 10
157.1663709295624
 20
73.99386705465714
 30
0.0
 10
157.1539313093942
 20
73.70485487944875
 30
0.0
 10
157.1477038845289
 20
73.56017187611546
 30
0.0
  0
SPLINE
  5
16F
330
1F
100
AcDbEntity
  8
0
  6
Continuous
 62
     7
370
    30
100
AcDbSpline
210
0.0
220
0.0
230
1.0
 70
     8
 71
     3
 72
    12
 73
     8
 74
     0
 42
0.000000001
 43
0.00000001
 40
0.0
 40
0.0
 40
0.0
 40
0.0
 40
0.1867364244591891
 40
0.372897069578773
 40
0.5592610944050427
 40
0.7793634501649497
 40
1.0
 40
1.0
 40
1.0
 40
1.0
 10
158.1923963561523
 20
72.16001127289023
 30
0.0
 10
158.317194168389
 20
72.16792278939792
 30
0.0
 10
158.5664049937955
 20
72.18372142820226
 30
0.0
 10
158.8963081425295
 20
72.38364238875837
 30
0.0
 10
159.1275178228288
 20
72.71048051157362
 30
0.0
 10
159.2404428324876
 20
73.11734988881823
 30
0.0
 10
159.2521421389595
 20
73.40922983525665
 30
0.0
 10
159.257998882221
 20
73.55534669385638
 30
0.0
  0
SPLINE
  5
170
330
1F
100
AcDbEntity
  8
0
  6
Continuous
 62
     7
370
    30
100
AcDbSpline
210
0.0
220
0.0
230
1.0
 70
     8
 71
     3
 72
    11
 73
     7
 74
     0
 42
0.000000001
 43
0.00000001
 40
0.0
 40
0.0
 40
0.0
 40
0.0
 40
0.2813308094781715
 40
0.5607593404193338
 40
0.7798205619441679
 40
1.0
 40
1.0
 40
1.0
 40
1.0
 10
159.257998882221
 20
73.55534669385638
 30
0.0
 10
159.2503103180537
 20
73.7399086306944
 30
0.0
 10
159.2349851775929
 20
74.10778454929635
 30
0.0
 10
159.0490477387435
 20
74.60654042785706
 30
0.0
 10
158.6497922660618
 20
74.9089758595864
 30
0.0
 10
158.3574404595672
 20
74.92925698015124
 30
0.0
 10
158.2108924224841
 20
74.93942335621799
 30
0.0
  0
SPLINE
  5
171
330
1F
100
AcDbEntity
  8
0
  6
Continuous
 62
     7
370
    30
100
AcDbSpline
210
0.0
220
0.0
230
1.0
 70
     8
 71
     3
 72
    12
 73
     8
 74
     0
 42
0.000000001
 43
0.00000001
 40
0.0
 40
0.0
 40
0.0
 40
0.0
 40
0.2508014568889455
 40
0.5005754626082796
 40
0.625713851637483
 40
0.7508713065724426
 40
1.0
 40
1.0
 40
1.0
 40
1.0
 10
157.1477038845289
 20
73.56017187611546
 30
0.0
 10
157.1534925565138
 20
73.39385284450452
 30
0.0
 10
157.1650461861965
 20
73.06189613571208
 30
0.0
 10
157.2846733524817
 20
72.65173099107767
 30
0.0
 10
157.490406454363
 20
72.38639668303419
 30
0.0
 10
157.7696550040496
 20
72.19209536207407
 30
0.0
 10
158.0234606914114
 20
72.17283269882104
 30
0.0
 10
158.1923963561523
 20
72.16001127289023
 30
0.0
  0
LINE
  5
172
330
1F
100
AcDbEntity
  8
0
  6
Continuous
 62
     7
370
    30
100
AcDbLine
 10
109.7143201217
 20
65.9997171015
 30
0.0
 11
109.7143201217
 21
68.7997170016
 31
0.0
  0
LINE
  5
173
330
1F
100
AcDbEntity
  8
0
  6
Continuous
 62
     7
370
    30
100
AcDbLine
 10
108.7143218204
 20
65.9997171015
 30
0.0
 11
108.7143218204
 21
68.7997170016
 31
0.0
  0
LINE
  5
174
330
1F
100
AcDbEntity
  8
0
  6
Continuous
 62
     7
370
    30
100
AcDbLine
 10
116.2143202558
 20
65.9997171015
 30
0.0
 11
116.2143202558
 21
68.7997170016
 31
0.0
  0
LINE
  5
175
330
1F
100
AcDbEntity
  8
0
  6
Continuous
 62
     7
370
    30
100
AcDbLine
 10
166.2143210009
 20
65.9997171015
 30
0.0
 11
166.2143210009
 21
68.7997170016
 31
0.0
  0
LINE
  5
176
330
1F
100
AcDbEntity
  8
0
  6
Continuous
 62
     7
370
    30
100
AcDbLine
 10
172.714321135
 20
65.9997171015
 30
0.0
 11
172.714321135
 21
68.7997170016
 31
0.0
  0
LINE
  5
177
330
1F
100
AcDbEntity
  8
0
  6
Continuous
 62
     7
370
    30
100
AcDbLine
 10
173.7143194362
 20
65.9997171015
 30
0.0
 11
173.7143194362
 21
68.7997170016
 31
0.0
  0
SPLINE
  5
178
330
1F
100
AcDbEntity
  8
0
  6
Continuous
 62
     7
370
    30
100
AcDbSpline
210
0.0
220
0.0
230
1.0
 70
     8
 71
     3
 72
    14
 73
    10
 74
     0
 42
0.000000001
 43
0.00000001
 40
0.0
 40
0.0
 40
0.0
 40
0.0
 40
0.25
 40
0.25
 40
0.5
 40
0.5
 40
0.75
 40
0.75
 40
1.0
 40
1.0
 40
1.0
 40
1.0
 10
169.2143206283319
 20
59.49971707539046
 30
0.0
 10
169.2143206283319
 20
59.63457847080337
 30
0.0
 10
169.1869775621066
 20
59.76691455799406
 30
0.0
 10
169.0842091857984
 20
60.0103538377946
 30
0.0
 10
169.0086162063137
 20
60.12088985774661
 30
0.0
 10
168.8242402180611
 20
60.3026860566134
 30
0.0
 10
168.7138439092032
 20
60.37553784923038
 30
0.0
 10
168.475640041977
 20
60.47352285688602
 30
0.0
 10
168.345914304401
 20
60.49971707539046
 30
0.0
 10
168.2143206283319
 20
60.49971707539046
 30
0.0
  0
LINE
  5
179
330
1F
100
AcDbEntity
  8
0
  6
Continuous
 62
     7
370
    30
100
AcDbLine
 10
168.2143213287
 20
60.4997171313
 30
0.0
 11
166.7143201515
 21
60.4997171313
 31
0.0
  0
LINE
  5
17A
330
1F
100
AcDbEntity
  8
0
  6
Continuous
 62
     7
370
    30
100
AcDbLine
 10
166.7143201515
 20
60.4997171313
 30
0.0
 11
166.7143201515
 21
65.9997171015
 31
0.0
  0
LINE
  5
17B
330
1F
100
AcDbEntity
  8
0
  6
Continuous
 62
     7
370
    30
100
AcDbLine
 10
173.7143194362
 20
65.9997171015
 30
0.0
 11
173.7143194362
 21
59.4997169674
 31
0.0
  0
LINE
  5
17C
330
1F
100
AcDbEntity
  8
0
  6
Continuous
 62
     7
370
    30
100
AcDbLine
 10
173.7143194362
 20
59.4997169674
 30
0.0
 11
169.2143214926
 21
59.4997169674
 31
0.0
  0
LINE
  5
17D
330
1F
100
AcDbEntity
  8
0
  6
Continuous
 62
     7
370
    30
100
AcDbLine
 10
166.7143201515
 20
65.9997171015
 30
0.0
 11
173.7143194362
 21
65.9997171015
 31
0.0
  0
LINE
  5
17E
330
1F
100
AcDbEntity
  8
0
  6
Continuous
 62
     7
370
    30
100
AcDbLine
 10
142.7143206414
 20
65.9997171015
 30
0.0
 11
142.7143206414
 21
60.4997171313
 31
0.0
  0
LINE
  5
17F
330
1F
100
AcDbEntity
  8
0
  6
Continuous
 62
     7
370
    30
100
AcDbLine
 10
166.7143201515
 20
60.4997171313
 30
0.0
 11
142.7143206414
 21
60.4997171313
 31
0.0
  0
LINE
  5
180
330
1F
100
AcDbEntity
  8
0
  6
Continuous
 62
     7
370
    30
100
AcDbLine
 10
145.2143208183
 20
65.9997171015
 30
0.0
 11
166.7143201515
 21
65.9997171015
 31
0.0
  0
SPLINE
  5
181
330
1F
100
AcDbEntity
  8
0
  6
Continuous
 62
     7
370
    30
100
AcDbSpline
210
0.0
220
0.0
230
1.0
 70
     8
 71
     3
 72
    14
 73
    10
 74
     0
 42
0.000000001
 43
0.00000001
 40
0.0
 40
0.0
 40
0.0
 40
0.0
 40
0.25
 40
0.25
 40
0.5
 40
0.5
 40
0.75
 40
0.75
 40
1.0
 40
1.0
 40
1.0
 40
1.0
 10
114.2143206283319
 20
60.49971707539046
 30
0.0
 10
114.0826278191654
 20
60.49971707539046
 30
0.0
 10
113.9546017103259
 20
60.47407504747653
 30
0.0
 10
113.7145930492827
 20
60.37555936763007
 30
0.0
 10
113.6049738856703
 20
60.30316607171312
 30
0.0
 10
113.4201140995341
 20
60.12106217442895
 30
0.0
 10
113.3445785041982
 20
60.01045308850544
 30
0.0
 10
113.2420856563482
 20
59.76816035959994
 30
0.0
 10
113.2143206283319
 20
59.63468446483427
 30
0.0
 10
113.2143206283319
 20
59.49971707539046
 30
0.0
  0
LINE
  5
182
330
1F
100
AcDbEntity
  8
0
  6
Continuous
 62
     7
370
    30
100
AcDbLine
 10
113.2143197641
 20
59.4997169674
 30
0.0
 11
108.7143218204
 21
59.4997169674
 31
0.0
  0
LINE
  5
183
330
1F
100
AcDbEntity
  8
0
  6
Continuous
 62
     7
370
    30
100
AcDbLine
 10
108.7143218204
 20
59.4997169674
 30
0.0
 11
108.7143218204
 21
65.9997171015
 31
0.0
  0
LINE
  5
184
330
1F
100
AcDbEntity
  8
0
  6
Continuous
 62
     7
370
    30
100
AcDbLine
 10
108.7143218204
 20
65.9997171015
 30
0.0
 11
115.7143211052
 21
65.9997171015
 31
0.0
  0
LINE
  5
185
330
1F
100
AcDbEntity
  8
0
  6
Continuous
 62
     7
370
    30
100
AcDbLine
 10
115.7143211052
 20
65.9997171015
 30
0.0
 11
115.7143211052
 21
60.4997171313
 31
0.0
  0
LINE
  5
186
330
1F
100
AcDbEntity
  8
0
  6
Continuous
 62
     7
370
    30
100
AcDbLine
 10
115.7143211052
 20
60.4997171313
 30
0.0
 11
114.214319928
 21
60.4997171313
 31
0.0
  0
LINE
  5
187
330
1F
100
AcDbEntity
  8
0
  6
Continuous
 62
     7
370
    30
100
AcDbLine
 10
139.7143206153
 20
60.4997171313
 30
0.0
 11
139.7143206153
 21
65.9997171015
 31
0.0
  0
LINE
  5
188
330
1F
100
AcDbEntity
  8
0
  6
Continuous
 62
     7
370
    30
100
AcDbLine
 10
139.7143206153
 20
60.4997171313
 30
0.0
 11
115.7143211052
 21
60.4997171313
 31
0.0
  0
LINE
  5
189
330
1F
100
AcDbEntity
  8
0
  6
Continuous
 62
     7
370
    30
100
AcDbLine
 10
115.7143211052
 20
65.9997171015
 30
0.0
 11
137.2143204383
 21
65.9997171015
 31
0.0
  0
LINE
  5
18A
330
1F
100
AcDbEntity
  8
0
  6
Continuous
 62
     7
370
    30
100
AcDbLine
 10
142.7143206414
 20
60.4997171313
 30
0.0
 11
139.7143206153
 21
60.4997171313
 31
0.0
  0
DIMENSION
  5
18B
330
1F
100
AcDbEntity
  8
DIM
100
AcDbDimension
  2
_D
 10
98.2143206283
 20
59.4997170754
 30
0.0
 11
98.2143206283
 21
69.4997170754
 31
0.0
 70
   160
  1
<>
 71
     2
 42
-1.0
  3
SLDDIMSTYLE0
100
AcDbAlignedDimension
 13
109.2143206283
 23
79.4997170754
 33
0.0
 14
108.7143206283
 24
59.4997170754
 34
0.0
 50
90.0
100
AcDbRotatedDimension
  0
DIMENSION
  5
196
330
1F
100
AcDbEntity
  8
DIM
100
AcDbDimension
  2
_D_1
 10
184.2143206283
 20
59.4997170754
 30
0.0
 11
184.2143206283
 21
68.0497170754
 31
0.0
 70
   160
  1
<>
 71
     2
 42
-1.0
  3
SLDDIMSTYLE0
100
AcDbAlignedDimension
 13
145.2143206283
 23
76.5997170754
 33
0.0
 14
173.7143206283
 24
59.4997170754
 34
0.0
 50
90.0
100
AcDbRotatedDimension
  0
LINE
  5
1A0
330
1F
100
AcDbEntity
  8
0
  6
Continuous
 62
     7
370
    30
100
AcDbLine
 10
161.0594412371
 20
159.900573242
 30
0.0
 11
161.0594412371
 21
159.8980735722
 31
0.0
  0
CIRCLE
  5
1A1
330
1F
100
AcDbEntity
  8
0
  6
Continuous
 62
     7
370
    30
100
AcDbCircle
 10
141.2143206283
 20
192.4005720499
 30
0.0
 40
1.749999999999972
  0
LINE
  5
1A2
330
1F
100
AcDbEntity
  8
0
  6
Continuous
 62
     7
370
    30
100
AcDbLine
 10
140.4926327699
 20
191.1505720778
 30
0.0
 11
141.9360084868
 21
191.1505720778
 31
0.0
  0
LINE
  5
1A3
330
1F
100
AcDbEntity
  8
0
  6
Continuous
 62
     7
370
    30
100
AcDbLine
 10
141.9360084868
 20
191.1505720778
 30
0.0
 11
142.6576963452
 21
192.4005720499
 31
0.0
  0
LINE
  5
1A4
330
1F
100
AcDbEntity
  8
0
  6
Continuous
 62
     7
370
    30
100
AcDbLine
 10
142.6576963452
 20
192.4005720499
 30
0.0
 11
141.9360084868
 21
193.6505720219
 31
0.0
  0
LINE
  5
1A5
330
1F
100
AcDbEntity
  8
0
  6
Continuous
 62
     7
370
    30
100
AcDbLine
 10
141.9360084868
 20
193.6505720219
 30
0.0
 11
140.4926327699
 21
193.6505720219
 31
0.0
  0
LINE
  5
1A6
330
1F
100
AcDbEntity
  8
0
  6
Continuous
 62
     7
370
    30
100
AcDbLine
 10
140.4926327699
 20
193.6505720219
 30
0.0
 11
139.7709449114
 21
192.4005720499
 31
0.0
  0
LINE
  5
1A7
330
1F
100
AcDbEntity
  8
0
  6
Continuous
 62
     7
370
    30
100
AcDbLine
 10
139.7709449114
 20
192.4005720499
 30
0.0
 11
140.4926327699
 21
191.1505720778
 31
0.0
  0
CIRCLE
  5
1A8
330
1F
100
AcDbEntity
  8
0
  6
Continuous
 62
     7
370
    30
100
AcDbCircle
 10
141.2143206283
 20
142.4005720499
 30
0.0
 40
4.0
  0
CIRCLE
  5
1A9
330
1F
100
AcDbEntity
  8
0
  6
Continuous
 62
     7
370
    30
100
AcDbCircle
 10
141.2143206283
 20
142.4005720499
 30
0.0
 40
4.999999999999972
  0
CIRCLE
  5
1AA
330
1F
100
AcDbEntity
  8
0
  6
Continuous
 62
     7
370
    30
100
AcDbCircle
 10
141.2143206283
 20
142.4005720499
 30
0.0
 40
3.0
  0
CIRCLE
  5
1AB
330
1F
100
AcDbEntity
  8
0
  6
Continuous
 62
     7
370
    30
100
AcDbCircle
 10
141.2143206283
 20
142.4005720499
 30
0.0
 40
1.25
  0
ARC
  5
1AC
330
1F
100
AcDbEntity
  8
0
  6
Continuous
 62
     7
370
    30
100
AcDbCircle
 10
141.2143206283
 20
177.4005720499
 30
0.0
 40
9.0
100
AcDbArc
 50
270.0
 51
283.872102735
  0
ARC
  5
1AD
330
1F
100
AcDbEntity
  8
0
  6
Continuous
 62
     7
370
    30
100
AcDbCircle
 10
141.2143206283
 20
177.4005720499
 30
0.0
 40
9.0
100
AcDbArc
 50
256.127897265
 51
270.0
  0
ARC
  5
1AE
330
1F
100
AcDbEntity
  8
0
  6
Continuous
 62
     7
370
    30
100
AcDbCircle
 10
126.2143206283
 20
192.4005720499
 30
0.0
 40
9.000000000000012
100
AcDbArc
 50
166.127897265
 51
193.872102735
  0
LINE
  5
1AF
330
1F
100
AcDbEntity
  8
0
  6
Continuous
 62
     7
370
    30
100
AcDbLine
 10
137.2143204383
 20
159.900573242
 30
0.0
 11
137.2143204383
 21
145.4005736592
 31
0.0
  0
LINE
  5
1B0
330
1F
100
AcDbEntity
  8
0
  6
Continuous
 62
     7
370
    30
100
AcDbLine
 10
145.2143208183
 20
145.4005736592
 30
0.0
 11
145.2143208183
 21
159.900573242
 31
0.0
  0
ARC
  5
1B1
330
1F
100
AcDbEntity
  8
0
  6
Continuous
 62
     7
370
    30
100
AcDbCircle
 10
141.2143206283
 20
207.4005720499
 30
0.0
 40
8.999999999999991
100
AcDbArc
 50
76.127897265
 51
103.872102735
  0
ARC
  5
1B2
330
1F
100
AcDbEntity
  8
0
  6
Continuous
 62
     7
370
    30
100
AcDbCircle
 10
156.2143206283
 20
192.4005720499
 30
0.0
 40
8.999999999999984
100
AcDbArc
 50
346.127897265
 51
13.872102735
  0
CIRCLE
  5
1B3
330
1F
100
AcDbEntity
  8
0
  6
Continuous
 62
     7
370
    30
100
AcDbCircle
 10
141.2143206283
 20
192.4005720499
 30
0.0
 40
2.25
  0
ARC
  5
1B4
330
1F
100
AcDbEntity
  8
0
  6
Continuous
 62
     7
370
    30
100
AcDbCircle
 10
141.2143206283
 20
192.4005720499
 30
0.0
 40
27.00000000000002
100
AcDbArc
 50
356.6915670143
 51
3.3084329857
  0
LWPOLYLINE
  5
1B5
330
1F
100
AcDbEntity
  8
0
  6
Continuous
 62
     7
370
    30
100
AcDbPolyline
 90
        3
 70
   128
 43
0.0
 10
142.7725166608
 20
219.3555712434
 10
141.2143206283
 20
219.4005727502
 10
139.6561245959
 20
219.3555712434
  0
ARC
  5
1B6
330
1F
100
AcDbEntity
  8
0
  6
Continuous
 62
     7
370
    30
100
AcDbCircle
 10
141.2143206283
 20
192.4005720499
 30
0.0
 40
27.0
100
AcDbArc
 50
176.6915670143
 51
183.3084329857
  0
ARC
  5
1B7
330
1F
100
AcDbEntity
  8
0
  6
Continuous
 62
     7
370
    30
100
AcDbCircle
 10
115.7143206283
 20
217.9005720499
 30
0.0
 40
7.000000000000014
100
AcDbArc
 50
90.0
 51
180.0
  0
LINE
  5
1B8
330
1F
100
AcDbEntity
  8
0
  6
Continuous
 62
     7
370
    30
100
AcDbLine
 10
115.7143211052
 20
224.9005708578
 30
0.0
 11
115.7143211052
 21
224.4005735698
 31
0.0
  0
ARC
  5
1B9
330
1F
100
AcDbEntity
  8
0
  6
Continuous
 62
     7
370
    30
100
AcDbCircle
 10
115.7143206283
 20
217.9005720499
 30
0.0
 40
6.500000000000028
100
AcDbArc
 50
90.0
 51
180.0
  0
LINE
  5
1BA
330
1F
100
AcDbEntity
  8
0
  6
Continuous
 62
     7
370
    30
100
AcDbLine
 10
108.7143218204
 20
217.900571573
 30
0.0
 11
109.2143191084
 21
217.900571573
 31
0.0
  0
ARC
  5
1BB
330
1F
100
AcDbEntity
  8
0
  6
Continuous
 62
     7
370
    30
100
AcDbCircle
 10
166.7143206283
 20
217.9005720499
 30
0.0
 40
6.500000000000028
100
AcDbArc
 50
0.0
 51
90.0
  0
LINE
  5
1BC
330
1F
100
AcDbEntity
  8
0
  6
Continuous
 62
     7
370
    30
100
AcDbLine
 10
166.7143201515
 20
224.4005735698
 30
0.0
 11
166.7143201515
 21
224.9005708578
 31
0.0
  0
ARC
  5
1BD
330
1F
100
AcDbEntity
  8
0
  6
Continuous
 62
     7
370
    30
100
AcDbCircle
 10
166.7143206283
 20
217.9005720499
 30
0.0
 40
6.999999999999972
100
AcDbArc
 50
0.0
 51
90.0
  0
LINE
  5
1BE
330
1F
100
AcDbEntity
  8
0
  6
Continuous
 62
     7
370
    30
100
AcDbLine
 10
173.2143221483
 20
217.900571573
 30
0.0
 11
173.7143194362
 21
217.900571573
 31
0.0
  0
LINE
  5
1BF
330
1F
100
AcDbEntity
  8
0
  6
Continuous
 62
     7
370
    30
100
AcDbLine
 10
166.7143201515
 20
224.4005735698
 30
0.0
 11
115.7143211052
 21
224.4005735698
 31
0.0
  0
LINE
  5
1C0
330
1F
100
AcDbEntity
  8
0
  6
Continuous
 62
     7
370
    30
100
AcDbLine
 10
115.7143211052
 20
224.9005708578
 30
0.0
 11
166.7143201515
 21
224.9005708578
 31
0.0
  0
CIRCLE
  5
1C1
330
1F
100
AcDbEntity
  8
0
  6
Continuous
 62
     7
370
    30
100
AcDbCircle
 10
141.2143206283
 20
192.4005720499
 30
0.0
 40
2.500000000000028
  0
CIRCLE
  5
1C2
330
1F
100
AcDbEntity
  8
0
  6
Continuous
 62
     7
370
    30
100
AcDbCircle
 10
166.2143206283
 20
217.4005720499
 30
0.0
 40
2.500000000000028
  0
CIRCLE
  5
1C3
330
1F
100
AcDbEntity
  8
0
  6
Continuous
 62
     7
370
    30
100
AcDbCircle
 10
166.2143206283
 20
192.4005720499
 30
0.0
 40
2.500000000000028
  0
CIRCLE
  5
1C4
330
1F
100
AcDbEntity
  8
0
  6
Continuous
 62
     7
370
    30
100
AcDbCircle
 10
166.2143206283
 20
167.4005720499
 30
0.0
 40
2.5
  0
CIRCLE
  5
1C5
330
1F
100
AcDbEntity
  8
0
  6
Continuous
 62
     7
370
    30
100
AcDbCircle
 10
116.2143206283
 20
167.4005720499
 30
0.0
 40
2.5
  0
CIRCLE
  5
1C6
330
1F
100
AcDbEntity
  8
0
  6
Continuous
 62
     7
370
    30
100
AcDbCircle
 10
141.2143206283
 20
167.4005720499
 30
0.0
 40
2.5
  0
CIRCLE
  5
1C7
330
1F
100
AcDbEntity
  8
0
  6
Continuous
 62
     7
370
    30
100
AcDbCircle
 10
116.2143206283
 20
192.4005720499
 30
0.0
 40
2.500000000000028
  0
CIRCLE
  5
1C8
330
1F
100
AcDbEntity
  8
0
  6
Continuous
 62
     7
370
    30
100
AcDbCircle
 10
141.2143206283
 20
217.4005720499
 30
0.0
 40
2.500000000000028
  0
CIRCLE
  5
1C9
330
1F
100
AcDbEntity
  8
0
  6
Continuous
 62
     7
370
    30
100
AcDbCircle
 10
116.2143206283
 20
217.4005720499
 30
0.0
 40
2.500000000000028
  0
CIRCLE
  5
1CA
330
1F
100
AcDbEntity
  8
0
  6
Continuous
 62
     7
370
    30
100
AcDbCircle
 10
128.7143206283
 20
179.9005720499
 30
0.0
 40
1.649999999999977
  0
CIRCLE
  5
1CB
330
1F
100
AcDbEntity
  8
0
  6
Continuous
 62
     7
370
    30
100
AcDbCircle
 10
153.7143206283
 20
179.9005720499
 30
0.0
 40
1.649999999999977
  0
CIRCLE
  5
1CC
330
1F
100
AcDbEntity
  8
0
  6
Continuous
 62
     7
370
    30
100
AcDbCircle
 10
153.7143206283
 20
204.9005720499
 30
0.0
 40
1.650000000000006
  0
CIRCLE
  5
1CD
330
1F
100
AcDbEntity
  8
0
  6
Continuous
 62
     7
370
    30
100
AcDbCircle
 10
128.7143206283
 20
204.9005720499
 30
0.0
 40
1.650000000000006
  0
LINE
  5
1CE
330
1F
100
AcDbEntity
  8
0
  6
Continuous
 62
     7
370
    30
100
AcDbLine
 10
173.2143221483
 20
166.9005725267
 30
0.0
 11
173.2143221483
 21
217.900571573
 31
0.0
  0
ARC
  5
1CF
330
1F
100
AcDbEntity
  8
0
  6
Continuous
 62
     7
370
    30
100
AcDbCircle
 10
166.7143206283
 20
166.9005720499
 30
0.0
 40
6.500000000000028
100
AcDbArc
 50
270.0
 51
0.0
  0
LINE
  5
1D0
330
1F
100
AcDbEntity
  8
0
  6
Continuous
 62
     7
370
    30
100
AcDbLine
 10
115.7143211052
 20
160.40057053
 30
0.0
 11
166.7143201515
 21
160.40057053
 31
0.0
  0
ARC
  5
1D1
330
1F
100
AcDbEntity
  8
0
  6
Continuous
 62
     7
370
    30
100
AcDbCircle
 10
115.7143206283
 20
166.9005720499
 30
0.0
 40
6.500000000000028
100
AcDbArc
 50
180.0
 51
270.0
  0
LINE
  5
1D2
330
1F
100
AcDbEntity
  8
0
  6
Continuous
 62
     7
370
    30
100
AcDbLine
 10
109.2143191084
 20
217.900571573
 30
0.0
 11
109.2143191084
 21
166.9005725267
 31
0.0
  0
LINE
  5
1D3
330
1F
100
AcDbEntity
  8
0
  6
Continuous
 62
     7
370
    30
100
AcDbLine
 10
173.7143194362
 20
217.900571573
 30
0.0
 11
173.7143194362
 21
166.9005725267
 31
0.0
  0
LINE
  5
1D4
330
1F
100
AcDbEntity
  8
0
  6
Continuous
 62
     7
370
    30
100
AcDbLine
 10
173.2143221483
 20
166.9005725267
 30
0.0
 11
173.7143194362
 21
166.9005725267
 31
0.0
  0
LINE
  5
1D5
330
1F
100
AcDbEntity
  8
0
  6
Continuous
 62
     7
370
    30
100
AcDbLine
 10
108.7143218204
 20
166.9005725267
 30
0.0
 11
108.7143218204
 21
217.900571573
 31
0.0
  0
LINE
  5
1D6
330
1F
100
AcDbEntity
  8
0
  6
Continuous
 62
     7
370
    30
100
AcDbLine
 10
108.7143218204
 20
166.9005725267
 30
0.0
 11
109.2143191084
 21
166.9005725267
 31
0.0
  0
ARC
  5
1D7
330
1F
100
AcDbEntity
  8
0
  6
Continuous
 62
     7
370
    30
100
AcDbCircle
 10
115.7143206283
 20
166.9005720499
 30
0.0
 40
7.000000000000014
100
AcDbArc
 50
180.0
 51
270.0
  0
LINE
  5
1D8
330
1F
100
AcDbEntity
  8
0
  6
Continuous
 62
     7
370
    30
100
AcDbLine
 10
115.7143211052
 20
159.900573242
 30
0.0
 11
115.7143211052
 21
160.40057053
 31
0.0
  0
ARC
  5
1D9
330
1F
100
AcDbEntity
  8
0
  6
Continuous
 62
     7
370
    30
100
AcDbCircle
 10
166.7143206283
 20
166.9005720499
 30
0.0
 40
7.0
100
AcDbArc
 50
270.0
 51
0.0
  0
LINE
  5
1DA
330
1F
100
AcDbEntity
  8
0
  6
Continuous
 62
     7
370
    30
100
AcDbLine
 10
166.7143201515
 20
160.40057053
 30
0.0
 11
166.7143201515
 21
159.900573242
 31
0.0
  0
LINE
  5
1DB
330
1F
100
AcDbEntity
  8
0
  6
Continuous
 62
     7
370
    30
100
AcDbLine
 10
166.7143201515
 20
159.900573242
 30
0.0
 11
115.7143211052
 21
159.900573242
 31
0.0
  0
LINE
  5
1DC
330
1F
100
AcDbEntity
  8
0
  6
Continuous
 62
     7
370
    30
100
AcDbLine
 10
142.7143206414
 20
219.4005727502
 30
0.0
 11
142.7143206414
 21
219.3588737133
 31
0.0
  0
LINE
  5
1DD
330
1F
100
AcDbEntity
  8
0
  6
Continuous
 62
     7
370
    30
100
AcDbLine
 10
139.7143206153
 20
219.3588737133
 30
0.0
 11
139.7143206153
 21
219.4005727502
 31
0.0
  0
ARC
  5
1DE
330
1F
100
AcDbEntity
  8
0
  6
Continuous
 62
     8
370
    30
100
AcDbCircle
 10
126.2143206283
 20
192.4005720499
 30
0.0
 40
8.900000000000025
100
AcDbArc
 50
166.3330061675
 51
193.6669938325
  0
ARC
  5
1DF
330
1F
100
AcDbEntity
  8
0
  6
Continuous
 62
     8
370
    30
100
AcDbCircle
 10
141.2143206283
 20
177.4005720499
 30
0.0
 40
8.89999999999999
100
AcDbArc
 50
270.0
 51
283.6669938325
  0
ARC
  5
1E0
330
1F
100
AcDbEntity
  8
0
  6
Continuous
 62
     8
370
    30
100
AcDbCircle
 10
141.2143206283
 20
177.4005720499
 30
0.0
 40
8.89999999999999
100
AcDbArc
 50
256.3330061675
 51
270.0
  0
ARC
  5
1E1
330
1F
100
AcDbEntity
  8
0
  6
Continuous
 62
     8
370
    30
100
AcDbCircle
 10
141.2143206283
 20
207.4005720499
 30
0.0
 40
8.900000000000038
100
AcDbArc
 50
76.3330061675
 51
103.6669938325
  0
ARC
  5
1E2
330
1F
100
AcDbEntity
  8
0
  6
Continuous
 62
     8
370
    30
100
AcDbCircle
 10
156.2143206283
 20
192.4005720499
 30
0.0
 40
8.899999999999983
100
AcDbArc
 50
346.3330061675
 51
13.6669938325
  0
DIMENSION
  5
1E3
330
1F
100
AcDbEntity
  8
DIM
100
AcDbDimension
  2
_D_2
 10
116.2143206283
 20
248.584338234
 30
0.0
 11
128.7143206283
 21
248.584338234
 31
0.0
 70
   160
  1
<>
 71
     2
 42
-1.0
  3
SLDDIMSTYLE0
100
AcDbAlignedDimension
 13
141.2143206283
 23
220.9005720499
 33
0.0
 14
116.2143206283
 24
220.9005720499
 34
0.0
100
AcDbRotatedDimension
  0
DIMENSION
  5
1ED
330
1F
100
AcDbEntity
  8
DIM
100
AcDbDimension
  2
_D_3
 10
166.2143206283
 20
248.584338234
 30
0.0
 11
153.7143206283
 21
248.584338234
 31
0.0
 70
   160
  1
<>
 71
     2
 42
-1.0
  3
SLDDIMSTYLE0
100
AcDbAlignedDimension
 13
141.2143206283
 23
220.9005720499
 33
0.0
 14
166.2143206283
 24
220.9005720499
 34
0.0
100
AcDbRotatedDimension
  0
DIMENSION
  5
1F7
330
1F
100
AcDbEntity
  8
DIM
100
AcDbDimension
  2
_D_4
 10
85.0305544443
 20
192.4005720499
 30
0.0
 11
85.0305544443
 21
204.9005720499
 31
0.0
 70
   160
  1
<>
 71
     2
 42
-1.0
  3
SLDDIMSTYLE0
100
AcDbAlignedDimension
 13
112.7143206283
 23
217.4005720499
 33
0.0
 14
112.7143206283
 24
192.4005720499
 34
0.0
 50
90.0
100
AcDbRotatedDimension
  0
DIMENSION
  5
201
330
1F
100
AcDbEntity
  8
DIM
100
AcDbDimension
  2
_D_5
 10
85.0305544443
 20
167.4005720499
 30
0.0
 11
85.0305544443
 21
179.9005720499
 31
0.0
 70
   160
  1
<>
 71
     2
 42
-1.0
  3
SLDDIMSTYLE0
100
AcDbAlignedDimension
 13
112.7143206283
 23
192.4005720499
 33
0.0
 14
112.7143206283
 24
167.4005720499
 34
0.0
 50
90.0
100
AcDbRotatedDimension
  0
DIMENSION
  5
20B
330
1F
100
AcDbEntity
  8
DIM
100
AcDbDimension
  2
_D_6
 10
141.2143206283
 20
241.084338234
 30
0.0
 11
147.4643206283
 21
241.084338234
 31
0.0
 70
   160
  1
<>
 71
     2
 42
-1.0
  3
SLDDIMSTYLE0
100
AcDbAlignedDimension
 13
153.7143206283
 23
207.5505720499
 33
0.0
 14
141.2143206283
 24
195.9005720499
 34
0.0
100
AcDbRotatedDimension
  0
DIMENSION
  5
215
330
1F
100
AcDbEntity
  8
DIM
100
AcDbDimension
  2
_D_7
 10
141.2143206283
 20
241.084338234
 30
0.0
 11
134.9643206283
 21
241.084338234
 31
0.0
 70
   160
  1
<>
 71
     2
 42
-1.0
  3
SLDDIMSTYLE0
100
AcDbAlignedDimension
 13
128.7143206283
 23
207.5505720499
 33
0.0
 14
141.2143206283
 24
195.9005720499
 34
0.0
100
AcDbRotatedDimension
  0
DIMENSION
  5
21F
330
1F
100
AcDbEntity
  8
DIM
100
AcDbDimension
  2
_D_8
 10
92.5305544443
 20
192.4005720499
 30
0.0
 11
92.5305544443
 21
198.6505720499
 31
0.0
 70
   160
  1
<>
 71
     2
 42
-1.0
  3
SLDDIMSTYLE0
100
AcDbAlignedDimension
 13
126.0643206283
 23
204.9005720499
 33
0.0
 14
112.7143206283
 24
192.4005720499
 34
0.0
 50
90.0
100
AcDbRotatedDimension
  0
DIMENSION
  5
229
330
1F
100
AcDbEntity
  8
DIM
100
AcDbDimension
  2
_D_9
 10
92.5305544443
 20
179.9005720499
 30
0.0
 11
92.5305544443
 21
186.1505720499
 31
0.0
 70
   160
  1
<>
 71
     2
 42
-1.0
  3
SLDDIMSTYLE0
100
AcDbAlignedDimension
 13
112.7143206283
 23
192.4005720499
 33
0.0
 14
126.0643206283
 24
179.9005720499
 34
0.0
 50
90.0
100
AcDbRotatedDimension
  0
DIMENSION
  5
233
330
1F
100
AcDbEntity
  8
DIM
100
AcDbDimension
  2
_D_10
 10
68.2143206283
 20
224.9005720499
 30
0.0
 11
68.2143206283
 21
181.1505720499
 31
0.0
 70
   160
  1
<>
 71
     2
 42
-1.0
  3
SLDDIMSTYLE0
100
AcDbAlignedDimension
 13
141.2143206283
 23
137.4005720499
 33
0.0
 14
115.7143206283
 24
224.9005720499
 34
0.0
 50
90.0
100
AcDbRotatedDimension
  0
DIMENSION
  5
23D
330
1F
100
AcDbEntity
  8
DIM
100
AcDbDimension
  2
_D_11
 10
173.7143206283
 20
257.9005720499
 30
0.0
 11
141.2143206283
 21
257.9005720499
 31
0.0
 70
   160
  1
<>
 71
     2
 42
-1.0
  3
SLDDIMSTYLE0
100
AcDbAlignedDimension
 13
108.7143206283
 23
217.9005720499
 33
0.0
 14
173.7143206283
 24
217.9005720499
 34
0.0
100
AcDbRotatedDimension
  0
DIMENSION
  5
247
330
1F
100
AcDbEntity
  8
DIM
100
AcDbDimension
  2
_D_12
 10
75.7143206283
 20
159.9005720499
 30
0.0
 11
75.7143206283
 21
192.4005720499
 31
0.0
 70
   160
  1
<>
 71
     2
 42
-1.0
  3
SLDDIMSTYLE0
100
AcDbAlignedDimension
 13
115.7143206283
 23
224.9005720499
 33
0.0
 14
115.7143206283
 24
159.9005720499
 34
0.0
 50
90.0
100
AcDbRotatedDimension
  0
DIMENSION
  5
251
330
1F
100
AcDbEntity
  8
DIM
100
AcDbDimension
  2
_D_13
 10
164.4465536754
 20
215.6328050969
 30
0.0
 11
201.2716292199
 21
245.8468381764
 31
0.0
 70
   163
  1
9 HOLES,\PM6\P
 71
     1
 42
-1.0
  3
SLDDIMSTYLE1
100
AcDbDiametricDimension
 15
167.9820875813
 25
219.1683390028
 35
0.0
 40
0.0
  0
DIMENSION
  5
25B
330
1F
100
AcDbEntity
  8
DIM
100
AcDbDimension
  2
_D_14
 10
152.5475944394
 20
181.0672982388
 30
0.0
 11
201.2716292199
 21
148.4793058083
 31
0.0
 70
   163
  1
4 HOLES,\PM4\P
 71
     1
 42
-1.0
  3
SLDDIMSTYLE1
100
AcDbDiametricDimension
 15
154.8810468173
 25
178.7338458609
 35
0.0
 40
0.0
  0
INSERT
  5
26F
330
1F
100
AcDbEntity
  8
DIM
100
AcDbBlockReference
  2
SW_CENTERMARKSYMBOL_0
 10
116.2143206283
 20
217.4005720499
 30
0.0
  0
INSERT
  5
27B
330
1F
100
AcDbEntity
  8
DIM
100
AcDbBlockReference
  2
SW_CENTERMARKSYMBOL_1
 10
141.2143206283
 20
217.4005720499
 30
0.0
  0
INSERT
  5
287
330
1F
100
AcDbEntity
  8
DIM
100
AcDbBlockReference
  2
SW_CENTERMARKSYMBOL_2
 10
166.2143206283
 20
217.4005720499
 30
0.0
  0
INSERT
  5
293
330
1F
100
AcDbEntity
  8
DIM
100
AcDbBlockReference
  2
SW_CENTERMARKSYMBOL_3
 10
128.7143206283
 20
204.9005720499
 30
0.0
  0
INSERT
  5
29F
330
1F
100
AcDbEntity
  8
DIM
100
AcDbBlockReference
  2
SW_CENTERMARKSYMBOL_4
 10
153.7143206283
 20
204.9005720499
 30
0.0
  0
INSERT
  5
2AB
330
1F
100
AcDbEntity
  8
DIM
100
AcDbBlockReference
  2
SW_CENTERMARKSYMBOL_5
 10
116.2143206283
 20
192.4005720499
 30
0.0
  0
INSERT
  5
2B7
330
1F
100
AcDbEntity
  8
DIM
100
AcDbBlockReference
  2
SW_CENTERMARKSYMBOL_6
 10
166.2143206283
 20
192.4005720499
 30
0.0
  0
INSERT
  5
2C3
330
1F
100
AcDbEntity
  8
DIM
100
AcDbBlockReference
  2
SW_CENTERMARKSYMBOL_7
 10
128.7143206283
 20
179.9005720499
 30
0.0
  0
INSERT
  5
2CF
330
1F
100
AcDbEntity
  8
DIM
100
AcDbBlockReference
  2
SW_CENTERMARKSYMBOL_8
 10
153.7143206283
 20
179.9005720499
 30
0.0
  0
INSERT
  5
2DB
330
1F
100
AcDbEntity
  8
DIM
100
AcDbBlockReference
  2
SW_CENTERMARKSYMBOL_9
 10
116.2143206283
 20
167.4005720499
 30
0.0
  0
INSERT
  5
2E7
330
1F
100
AcDbEntity
  8
DIM
100
AcDbBlockReference
  2
SW_CENTERMARKSYMBOL_10
 10
141.2143206283
 20
167.4005720499
 30
0.0
  0
INSERT
  5
2F3
330
1F
100
AcDbEntity
  8
DIM
100
AcDbBlockReference
  2
SW_CENTERMARKSYMBOL_11
 10
166.2143206283
 20
167.4005720499
 30
0.0
  0
INSERT
  5
2FF
330
1F
100
AcDbEntity
  8
DIM
100
AcDbBlockReference
  2
SW_CENTERMARKSYMBOL_12
 10
141.2143206283
 20
192.4005720499
 30
0.0
  0
LINE
  5
300
330
1F
100
AcDbEntity
  8
0
  6
Continuous
 62
     7
370
    30
100
AcDbLine
 10
300.8197465684
 20
172.7283420216
 30
0.0
 11
300.1125248905
 21
173.1367451169
 31
0.0
  0
LINE
  5
301
330
1F
100
AcDbEntity
  8
0
  6
Continuous
 62
     7
370
    30
100
AcDbLine
 10
294.4547514672
 20
173.1367451169
 30
0.0
 11
293.7475297893
 21
172.7283420216
 31
0.0
  0
LINE
  5
302
330
1F
100
AcDbEntity
  8
0
  6
Continuous
 62
     7
370
    30
100
AcDbLine
 10
302.2836381789
 20
165.788408567
 30
0.0
 11
302.2836381789
 21
170.6876534383
 31
0.0
  0
LINE
  5
303
330
1F
100
AcDbEntity
  8
0
  6
Continuous
 62
     7
370
    30
100
AcDbLine
 10
292.2836381789
 20
170.6876534383
 30
0.0
 11
292.2836381789
 21
165.788408567
 31
0.0
  0
LINE
  5
304
330
1F
100
AcDbEntity
  8
0
  6
Continuous
 62
     7
370
    30
100
AcDbLine
 10
293.7475297893
 20
163.7477199837
 30
0.0
 11
294.4547514672
 21
163.3393168885
 31
0.0
  0
LINE
  5
305
330
1F
100
AcDbEntity
  8
0
  6
Continuous
 62
     7
370
    30
100
AcDbLine
 10
300.1125248905
 20
163.3393168885
 30
0.0
 11
300.8197465684
 21
163.7477199837
 31
0.0
  0
LINE
  5
306
330
1F
100
AcDbEntity
  8
0
  6
Continuous
 62
     7
370
    30
100
AcDbLine
 10
293.2836381789
 20
164.0565454307
 30
0.0
 11
293.2836381789
 21
162.8488616442
 31
0.0
  0
LINE
  5
307
330
1F
100
AcDbEntity
  8
0
  6
Continuous
 62
     7
370
    30
100
AcDbLine
 10
375.7014230787
 20
185.5453787131
 30
0.0
 11
375.7014230787
 21
193.8740949943
 31
0.0
  0
LINE
  5
308
330
1F
100
AcDbEntity
  8
0
  6
Continuous
 62
     7
370
    30
100
AcDbLine
 10
289.5765313977
 20
193.8740949943
 30
0.0
 11
289.5765313977
 21
185.5453787131
 31
0.0
  0
LINE
  5
309
330
1F
100
AcDbEntity
  8
0
  6
Continuous
 62
     7
370
    30
100
AcDbLine
 10
375.7014230787
 20
183.2590644398
 30
0.0
 11
375.7014230787
 21
185.5453787131
 31
0.0
  0
LINE
  5
30A
330
1F
100
AcDbEntity
  8
0
  6
Continuous
 62
     7
370
    30
100
AcDbLine
 10
375.7014230787
 20
177.9515491625
 30
0.0
 11
375.7014230787
 21
183.2590644398
 31
0.0
  0
LINE
  5
30B
330
1F
100
AcDbEntity
  8
0
  6
Continuous
 62
     7
370
    30
100
AcDbLine
 10
289.5765313977
 20
183.2590644398
 30
0.0
 11
289.5765313977
 21
177.9515491625
 31
0.0
  0
LWPOLYLINE
  5
30C
330
1F
100
AcDbEntity
  8
0
  6
Continuous
 62
     7
370
    30
100
AcDbPolyline
 90
       35
 70
   128
 43
0.0
 10
300.1120653036
 20
169.8713780266
 10
300.5836280773
 20
170.1992090194
 10
300.9428136528
 20
170.5714797191
 10
301.1773903963
 20
170.9755128936
 10
301.2793700781
 20
171.3975496775
 10
301.2452799024
 20
171.8232181144
 10
301.0762807692
 20
172.2380225763
 10
300.7781277414
 20
172.6278373947
 10
300.3609740628
 20
172.9793878934
 10
299.8390254015
 20
173.280702442
 10
299.2300560931
 20
173.5215201347
 10
298.5548038572
 20
173.693640214
 10
297.8362635987
 20
173.7912013369
 10
297.0989043443
 20
173.8108811764
 10
296.3678359791
 20
173.7520095592
 10
295.6679541594
 20
173.6165912877
 10
295.0230925212
 20
173.4092378686
 10
294.4552110541
 20
173.1370104739
 10
293.9836482805
 20
172.809179481
 10
293.6244627049
 20
172.4369087813
 10
293.3898859614
 20
172.0328756069
 10
293.2879062796
 20
171.6108388229
 10
293.3219964554
 20
171.185170386
 10
293.4909955885
 20
170.7703659241
 10
293.7891486163
 20
170.3805511057
 10
294.2063022949
 20
170.029000607
 10
294.7282509562
 20
169.7276860585
 10
295.3372202646
 20
169.4868683657
 10
296.0124725005
 20
169.3147482865
 10
296.731012759
 20
169.2171871635
 10
297.4683720134
 20
169.197507324
 10
298.1994403787
 20
169.2563789412
 10
298.8993221983
 20
169.3917972127
 10
299.5441838365
 20
169.5991506319
 10
300.1120653036
 20
169.8713780266
  0
LWPOLYLINE
  5
30D
330
1F
100
AcDbEntity
  8
0
  6
Continuous
 62
     7
370
    30
100
AcDbPolyline
 90
       20
 70
   128
 43
0.0
 10
300.8191720848
 20
168.6466331588
 10
300.1890222559
 20
168.3385291184
 10
299.4796211231
 20
168.0945030658
 10
298.7103193001
 20
167.9212113956
 10
297.9021013352
 20
167.8233810527
 10
297.0770133076
 20
167.8036805938
 10
296.2575614679
 20
167.8626473962
 10
295.466098326
 20
167.9986729992
 10
294.7242129334
 20
168.2080469789
 10
294.0521419896
 20
168.485058159
 10
293.4682178379
 20
168.8221503966
 10
292.988368407
 20
169.2101286941
 10
292.6256827386
 20
169.6384100151
 10
292.3900539522
 20
170.0953119614
 10
292.2879093869
 20
170.5683714391
 10
292.3220352802
 20
171.0446846189
 10
292.4915007666
 20
171.5112589187
 10
292.7916832694
 20
171.955367408
 10
293.2143945925
 20
172.3648959649
 10
293.7475297893
 20
172.7283420216
  0
LWPOLYLINE
  5
30E
330
1F
100
AcDbEntity
  8
0
  6
Continuous
 62
     7
370
    30
100
AcDbPolyline
 90
       11
 70
   128
 43
0.0
 10
300.8197465684
 20
172.7283420216
 10
301.0990585199
 20
172.5531564801
 10
301.5789079507
 20
172.1651781825
 10
301.9415936191
 20
171.7368968616
 10
302.1772224055
 20
171.2799949152
 10
302.2793669708
 20
170.8069354375
 10
302.2452410775
 20
170.3306222578
 10
302.0757755911
 20
169.864047958
 10
301.7755930883
 20
169.4199394687
 10
301.3528817652
 20
169.0104109118
 10
300.8191720848
 20
168.6466331588
  0
ARC
  5
30F
330
1F
100
AcDbEntity
  8
0
  6
Continuous
 62
     7
370
    30
100
AcDbCircle
 10
299.8229887834
 20
166.0080659866
 30
0.0
 40
2.470434137870877
100
AcDbArc
 50
293.7810212791
 51
354.8988377633
  0
LWPOLYLINE
  5
310
330
1F
100
AcDbEntity
  8
0
  6
Continuous
 62
     7
370
    30
100
AcDbPolyline
 90
       16
 70
   128
 43
0.0
 10
292.2836381789
 20
165.788408567
 10
292.2879093869
 20
165.6691265678
 10
292.3900539522
 20
165.1960670901
 10
292.6256827386
 20
164.7391651437
 10
292.988368407
 20
164.3108838228
 10
293.4682178379
 20
163.9229055253
 10
294.0521419896
 20
163.5858132877
 10
294.7242129334
 20
163.3088021076
 10
295.466098326
 20
163.0994281279
 10
296.2575614679
 20
162.9634025249
 10
297.0770133076
 20
162.9044357225
 10
297.9021013352
 20
162.9241361813
 10
298.7103193001
 20
163.0219665243
 10
299.4796211231
 20
163.1952581945
 10
300.1890222559
 20
163.4392842471
 10
300.8191720848
 20
163.7473882874
  0
LWPOLYLINE
  5
311
330
1F
100
AcDbEntity
  8
0
  6
Continuous
 62
     7
370
    30
100
AcDbPolyline
 90
       30
 70
   128
 43
0.0
 10
299.4049585224
 20
170.2795820825
 10
299.8113843997
 20
170.5714682512
 10
300.0996156731
 20
170.906967651
 10
300.2561749686
 20
171.2703927028
 10
300.2737417475
 20
171.6447500551
 10
300.1514946069
 20
172.0125351742
 10
299.895149687
 20
172.3565508367
 10
299.5166933915
 20
172.6607112525
 10
299.0338219162
 20
172.9107942187
 10
298.4691137944
 20
173.0951061336
 10
297.8489741505
 20
173.2050287771
 10
297.2024000248
 20
173.2354222884
 10
296.559624505
 20
173.1848655008
 10
295.9507030598
 20
173.0557223934
 10
295.4041081793
 20
172.8540315545
 10
294.9453980327
 20
172.5892238234
 10
294.5960213966
 20
172.2736813154
 10
294.3723147341
 20
171.9221584475
 10
294.2847383202
 20
171.5510920383
 10
294.3373871306
 20
171.1778327406
 10
294.5277993656
 20
170.8198337443
 10
294.8470715605
 20
170.4938346848
 10
295.2802749025
 20
170.2150789155
 10
295.8071532847
 20
169.9966007466
 10
296.4030704595
 20
169.8486159743
 10
297.0401620023
 20
169.7780442021
 10
297.6886382204
 20
169.7881852878
 10
298.3181770867
 20
169.8785650453
 10
298.8993420635
 20
170.0449574176
 10
299.4049585224
 20
170.2795820825
  0
ARC
  5
312
330
1F
100
AcDbEntity
  8
0
  6
Continuous
 62
     7
370
    30
100
AcDbCircle
 10
297.2836381789
 20
164.8996197786
 30
0.0
 40
5.070812584124604
100
AcDbArc
 50
78.6413151616
 51
101.3586848384
  0
ARC
  5
313
330
1F
100
AcDbEntity
  8
0
  6
Continuous
 62
     7
370
    30
100
AcDbCircle
 10
297.2836619305
 20
168.7446736525
 30
0.0
 40
6.100870114672512
100
AcDbArc
 50
242.3745472018
 51
297.6200778672
  0
ARC
  5
314
330
1F
100
AcDbEntity
  8
0
  6
Continuous
 62
     7
370
    30
100
AcDbCircle
 10
297.2836622389
 20
168.7512472641
 30
0.0
 40
6.106695222817411
100
AcDbArc
 50
242.4031434423
 51
297.5914816267
  0
LINE
  5
315
330
1F
100
AcDbEntity
  8
0
  6
Continuous
 62
     7
370
    30
100
AcDbLine
 10
306.9710240679
 20
173.8299090384
 30
0.0
 11
302.233586603
 21
171.0950446031
 31
0.0
  0
LINE
  5
316
330
1F
100
AcDbEntity
  8
0
  6
Continuous
 62
     7
370
    30
100
AcDbLine
 10
300.1120653036
 20
163.3390515315
 30
0.0
 11
312.6278783174
 21
170.5642765911
 31
0.0
  0
LINE
  5
317
330
1F
100
AcDbEntity
  8
0
  6
Continuous
 62
     7
370
    30
100
AcDbLine
 10
300.1120653036
 20
163.3390515315
 30
0.0
 11
300.1120653036
 21
161.2160454206
 31
0.0
  0
LWPOLYLINE
  5
318
330
1F
100
AcDbEntity
  8
0
  6
Continuous
 62
     7
370
    30
100
AcDbPolyline
 90
       14
 70
   128
 43
0.0
 10
293.2836381789
 20
162.8488616442
 10
293.3219964554
 20
162.52983778
 10
293.4909955885
 20
162.1150333181
 10
293.7891486163
 20
161.7252184997
 10
294.2063022949
 20
161.373668001
 10
294.7282509562
 20
161.0723534525
 10
295.3372202646
 20
160.8315357597
 10
296.0124725005
 20
160.6594156805
 10
296.731012759
 20
160.5618545576
 10
297.4683720134
 20
160.542174718
 10
298.1994403787
 20
160.6010463352
 10
298.8993221983
 20
160.7364646067
 10
299.5441838365
 20
160.9438180259
 10
300.1120653036
 20
161.2160454206
  0
LINE
  5
319
330
1F
100
AcDbEntity
  8
0
  6
Continuous
 62
     7
370
    30
100
AcDbLine
 10
300.1120653036
 20
161.2160454206
 30
0.0
 11
314.4666547771
 21
169.5027735357
 31
0.0
  0
ARC
  5
31A
330
1F
100
AcDbEntity
  8
0
  6
Continuous
 62
     7
370
    30
100
AcDbCircle
 10
332.6389772382
 20
179.5989930394
 30
0.0
 40
9.917675458554605
100
AcDbArc
 50
242.3910402158
 51
297.6089597842
  0
LINE
  5
31B
330
1F
100
AcDbEntity
  8
0
  6
Continuous
 62
     7
370
    30
100
AcDbLine
 10
337.2351713159
 20
170.8106321853
 30
0.0
 11
337.5887247065
 21
170.1982597514
 31
0.0
  0
ARC
  5
31C
330
1F
100
AcDbEntity
  8
0
  6
Continuous
 62
     7
370
    30
100
AcDbCircle
 10
332.6389772382
 20
179.7031629718
 30
0.0
 40
10.71649127411992
100
AcDbArc
 50
242.4914255688
 51
297.5085744312
  0
LINE
  5
31D
330
1F
100
AcDbEntity
  8
0
  6
Continuous
 62
     7
370
    30
100
AcDbLine
 10
328.0427831605
 20
170.8106321853
 30
0.0
 11
327.6892297699
 21
170.1982597514
 31
0.0
  0
ARC
  5
31E
330
1F
100
AcDbEntity
  8
0
  6
Continuous
 62
     7
370
    30
100
AcDbCircle
 10
332.6389772382
 20
171.3744466906
 30
0.0
 40
10.71649127411994
100
AcDbArc
 50
242.4914255688
 51
297.5085744312
  0
LINE
  5
31F
330
1F
100
AcDbEntity
  8
0
  6
Continuous
 62
     7
370
    30
100
AcDbLine
 10
327.6892297699
 20
161.8695434702
 30
0.0
 11
327.6892297699
 21
170.1982597514
 31
0.0
  0
LINE
  5
320
330
1F
100
AcDbEntity
  8
0
  6
Continuous
 62
     7
370
    30
100
AcDbLine
 10
337.5887247065
 20
170.1982597514
 30
0.0
 11
337.5887247065
 21
161.8695434702
 31
0.0
  0
LWPOLYLINE
  5
321
330
1F
100
AcDbEntity
  8
0
  6
Continuous
 62
     7
370
    30
100
AcDbPolyline
 90
       27
 70
   128
 43
0.0
 10
330.8712102852
 20
193.2618552605
 10
331.3456327027
 20
193.0472853684
 10
331.8952196035
 20
192.9044938385
 10
332.4880309946
 20
192.8417791953
 10
333.0896148327
 20
192.8627861861
 10
333.6650092518
 20
192.9662939609
 10
334.1807744198
 20
193.146287024
 10
334.6069359397
 20
193.3923048328
 10
334.9187268532
 20
193.6900497266
 10
335.0980270056
 20
194.0222178543
 10
335.1344161237
 20
194.3695048118
 10
335.0257794045
 20
194.7117275435
 10
334.7784304189
 20
195.028997308
 10
334.4067441912
 20
195.30287554
 10
333.9323217736
 20
195.5174454321
 10
333.3827348728
 20
195.660236962
 10
332.7899234817
 20
195.7229516051
 10
332.1883396436
 20
195.7019446144
 10
331.6129452246
 20
195.5984368396
 10
331.0971800566
 20
195.4184437765
 10
330.6710185367
 20
195.1724259677
 10
330.3592276232
 20
194.8746810739
 10
330.1799274708
 20
194.5425129462
 10
330.1435383526
 20
194.1952259887
 10
330.2521750719
 20
193.853003257
 10
330.4995240574
 20
193.5357334924
 10
330.8712102852
 20
193.2618552605
  0
LWPOLYLINE
  5
322
330
1F
100
AcDbEntity
  8
0
  6
Continuous
 62
     7
370
    30
100
AcDbPolyline
 90
       27
 70
   128
 43
0.0
 10
366.2265493445
 20
193.2618552605
 10
366.7009717621
 20
193.0472853684
 10
367.2505586629
 20
192.9044938385
 10
367.843370054
 20
192.8417791953
 10
368.444953892
 20
192.8627861861
 10
369.0203483111
 20
192.9662939609
 10
369.5361134791
 20
193.146287024
 10
369.962274999
 20
193.3923048328
 10
370.2740659125
 20
193.6900497266
 10
370.4533660649
 20
194.0222178543
 10
370.4897551831
 20
194.3695048118
 10
370.3811184638
 20
194.7117275435
 10
370.1337694783
 20
195.028997308
 10
369.7620832505
 20
195.30287554
 10
369.287660833
 20
195.5174454321
 10
368.7380739321
 20
195.660236962
 10
368.1452625411
 20
195.7229516051
 10
367.543678703
 20
195.7019446144
 10
366.9682842839
 20
195.5984368396
 10
366.4525191159
 20
195.4184437765
 10
366.026357596
 20
195.1724259677
 10
365.7145666825
 20
194.8746810739
 10
365.5352665301
 20
194.5425129462
 10
365.498877412
 20
194.1952259887
 10
365.6075141312
 20
193.853003257
 10
365.8548631168
 20
193.5357334924
 10
366.2265493445
 20
193.2618552605
  0
LWPOLYLINE
  5
323
330
1F
100
AcDbEntity
  8
0
  6
Continuous
 62
     7
370
    30
100
AcDbPolyline
 90
       27
 70
   128
 43
0.0
 10
348.5488798149
 20
183.0567538627
 10
349.0233022324
 20
182.8421839706
 10
349.5728891332
 20
182.6993924407
 10
350.1657005243
 20
182.6366777976
 10
350.7672843624
 20
182.6576847883
 10
351.3426787815
 20
182.7611925631
 10
351.8584439494
 20
182.9411856262
 10
352.2846054694
 20
183.187203435
 10
352.5963963828
 20
183.4849483288
 10
352.7756965352
 20
183.8171164565
 10
352.8120856534
 20
184.164403414
 10
352.7034489341
 20
184.5066261457
 10
352.4560999486
 20
184.8238959103
 10
352.0844137208
 20
185.0977741422
 10
351.6099913033
 20
185.3123440343
 10
351.0604044025
 20
185.4551355642
 10
350.4675930114
 20
185.5178502074
 10
349.8660091733
 20
185.4968432166
 10
349.2906147542
 20
185.3933354418
 10
348.7748495863
 20
185.2133423787
 10
348.3486880663
 20
184.9673245699
 10
348.0368971529
 20
184.6695796761
 10
347.8575970005
 20
184.3374115484
 10
347.8212078823
 20
183.9901245909
 10
347.9298446016
 20
183.6479018592
 10
348.1771935871
 20
183.3306320947
 10
348.5488798149
 20
183.0567538627
  0
LWPOLYLINE
  5
324
330
1F
100
AcDbEntity
  8
0
  6
Continuous
 62
     7
370
    30
100
AcDbPolyline
 90
       27
 70
   128
 43
0.0
 10
330.8712102852
 20
172.8516524649
 10
331.3456327027
 20
172.6370825728
 10
331.8952196035
 20
172.4942910429
 10
332.4880309946
 20
172.4315763998
 10
333.0896148327
 20
172.4525833906
 10
333.6650092518
 20
172.5560911653
 10
334.1807744198
 20
172.7360842284
 10
334.6069359397
 20
172.9821020372
 10
334.9187268532
 20
173.279846931
 10
335.0980270056
 20
173.6120150587
 10
335.1344161237
 20
173.9593020163
 10
335.0257794045
 20
174.3015247479
 10
334.7784304189
 20
174.6187945125
 10
334.4067441912
 20
174.8926727445
 10
333.9323217736
 20
175.1072426365
 10
333.3827348728
 20
175.2500341664
 10
332.7899234817
 20
175.3127488096
 10
332.1883396437
 20
175.2917418188
 10
331.6129452246
 20
175.188234044
 10
331.0971800566
 20
175.008240981
 10
330.6710185367
 20
174.7622231721
 10
330.3592276232
 20
174.4644782784
 10
330.1799274708
 20
174.1323101506
 10
330.1435383526
 20
173.7850231931
 10
330.2521750719
 20
173.4428004614
 10
330.4995240574
 20
173.1255306969
 10
330.8712102852
 20
172.8516524649
  0
LWPOLYLINE
  5
325
330
1F
100
AcDbEntity
  8
0
  6
Continuous
 62
     7
370
    30
100
AcDbPolyline
 90
       27
 70
   128
 43
0.0
 10
295.5158712259
 20
193.2618552605
 10
295.9902936434
 20
193.0472853684
 10
296.5398805442
 20
192.9044938385
 10
297.1326919353
 20
192.8417791953
 10
297.7342757734
 20
192.8627861861
 10
298.3096701925
 20
192.9662939609
 10
298.8254353604
 20
193.146287024
 10
299.2515968804
 20
193.3923048328
 10
299.5633877938
 20
193.6900497266
 10
299.7426879462
 20
194.0222178543
 10
299.7790770644
 20
194.3695048118
 10
299.6704403451
 20
194.7117275435
 10
299.4230913596
 20
195.028997308
 10
299.0514051318
 20
195.30287554
 10
298.5769827143
 20
195.5174454321
 10
298.0273958135
 20
195.660236962
 10
297.4345844224
 20
195.7229516051
 10
296.8330005843
 20
195.7019446144
 10
296.2576061652
 20
195.5984368396
 10
295.7418409973
 20
195.4184437765
 10
295.3156794773
 20
195.1724259677
 10
295.0038885639
 20
194.8746810739
 10
294.8245884115
 20
194.5425129462
 10
294.7881992933
 20
194.1952259887
 10
294.8968360126
 20
193.853003257
 10
295.1441849981
 20
193.5357334924
 10
295.5158712259
 20
193.2618552605
  0
LWPOLYLINE
  5
326
330
1F
100
AcDbEntity
  8
0
  6
Continuous
 62
     7
370
    30
100
AcDbPolyline
 90
       27
 70
   128
 43
0.0
 10
313.1935407556
 20
183.0567538627
 10
313.6679631731
 20
182.8421839706
 10
314.2175500739
 20
182.6993924407
 10
314.810361465
 20
182.6366777976
 10
315.4119453031
 20
182.6576847883
 10
315.9873397222
 20
182.7611925631
 10
316.5031048901
 20
182.9411856262
 10
316.92926641
 20
183.187203435
 10
317.2410573235
 20
183.4849483288
 10
317.4203574759
 20
183.8171164565
 10
317.4567465941
 20
184.164403414
 10
317.3481098748
 20
184.5066261457
 10
317.1007608893
 20
184.8238959103
 10
316.7290746615
 20
185.0977741422
 10
316.254652244
 20
185.3123440343
 10
315.7050653432
 20
185.4551355642
 10
315.1122539521
 20
185.5178502074
 10
314.510670114
 20
185.4968432166
 10
313.9352756949
 20
185.3933354418
 10
313.4195105269
 20
185.2133423787
 10
312.993349007
 20
184.9673245699
 10
312.6815580935
 20
184.6695796761
 10
312.5022579412
 20
184.3374115484
 10
312.465868823
 20
183.9901245909
 10
312.5745055422
 20
183.6479018592
 10
312.8218545278
 20
183.3306320947
 10
313.1935407556
 20
183.0567538627
  0
LWPOLYLINE
  5
327
330
1F
100
AcDbEntity
  8
0
  6
Continuous
 62
     7
370
    30
100
AcDbPolyline
 90
       27
 70
   128
 43
0.0
 10
313.1935407556
 20
203.4669566582
 10
313.6679631731
 20
203.2523867662
 10
314.2175500739
 20
203.1095952363
 10
314.810361465
 20
203.0468805931
 10
315.4119453031
 20
203.0678875839
 10
315.9873397222
 20
203.1713953587
 10
316.5031048901
 20
203.3513884217
 10
316.92926641
 20
203.5974062306
 10
317.2410573235
 20
203.8951511243
 10
317.4203574759
 20
204.2273192521
 10
317.4567465941
 20
204.5746062096
 10
317.3481098748
 20
204.9168289413
 10
317.1007608893
 20
205.2340987058
 10
316.7290746615
 20
205.5079769378
 10
316.254652244
 20
205.7225468299
 10
315.7050653432
 20
205.8653383598
 10
315.1122539521
 20
205.9280530029
 10
314.510670114
 20
205.9070460121
 10
313.9352756949
 20
205.8035382374
 10
313.4195105269
 20
205.6235451743
 10
312.993349007
 20
205.3775273655
 10
312.6815580935
 20
205.0797824717
 10
312.5022579412
 20
204.747614344
 10
312.465868823
 20
204.4003273864
 10
312.5745055422
 20
204.0581046548
 10
312.8218545278
 20
203.7408348902
 10
313.1935407556
 20
203.4669566582
  0
LWPOLYLINE
  5
328
330
1F
100
AcDbEntity
  8
0
  6
Continuous
 62
     7
370
    30
100
AcDbPolyline
 90
       27
 70
   128
 43
0.0
 10
348.5488798149
 20
203.4669566582
 10
349.0233022324
 20
203.2523867662
 10
349.5728891332
 20
203.1095952363
 10
350.1657005243
 20
203.0468805931
 10
350.7672843624
 20
203.0678875839
 10
351.3426787815
 20
203.1713953587
 10
351.8584439494
 20
203.3513884217
 10
352.2846054694
 20
203.5974062306
 10
352.5963963828
 20
203.8951511243
 10
352.7756965352
 20
204.2273192521
 10
352.8120856534
 20
204.5746062096
 10
352.7034489341
 20
204.9168289413
 10
352.4560999486
 20
205.2340987058
 10
352.0844137208
 20
205.5079769378
 10
351.6099913033
 20
205.7225468299
 10
351.0604044025
 20
205.8653383598
 10
350.4675930114
 20
205.9280530029
 10
349.8660091733
 20
205.9070460121
 10
349.2906147542
 20
205.8035382374
 10
348.7748495863
 20
205.6235451743
 10
348.3486880663
 20
205.3775273655
 10
348.0368971529
 20
205.0797824717
 10
347.8575970005
 20
204.747614344
 10
347.8212078823
 20
204.4003273864
 10
347.9298446016
 20
204.0581046548
 10
348.1771935871
 20
203.7408348902
 10
348.5488798149
 20
203.4669566582
  0
LWPOLYLINE
  5
329
330
1F
100
AcDbEntity
  8
0
  6
Continuous
 62
     7
370
    30
100
AcDbPolyline
 90
       27
 70
   128
 43
0.0
 10
330.8712102852
 20
213.672058056
 10
331.3456327027
 20
213.457488164
 10
331.8952196035
 20
213.314696634
 10
332.4880309946
 20
213.2519819909
 10
333.0896148327
 20
213.2729889817
 10
333.6650092518
 20
213.3764967564
 10
334.1807744198
 20
213.5564898195
 10
334.6069359397
 20
213.8025076284
 10
334.9187268532
 20
214.1002525221
 10
335.0980270056
 20
214.4324206499
 10
335.1344161237
 20
214.7797076074
 10
335.0257794045
 20
215.1219303391
 10
334.7784304189
 20
215.4392001036
 10
334.4067441912
 20
215.7130783356
 10
333.9323217736
 20
215.9276482276
 10
333.3827348728
 20
216.0704397576
 10
332.7899234817
 20
216.1331544007
 10
332.1883396436
 20
216.1121474099
 10
331.6129452246
 20
216.0086396352
 10
331.0971800566
 20
215.8286465721
 10
330.6710185367
 20
215.5826287633
 10
330.3592276232
 20
215.2848838695
 10
330.1799274708
 20
214.9527157417
 10
330.1435383526
 20
214.6054287842
 10
330.2521750719
 20
214.2632060526
 10
330.4995240574
 20
213.945936288
 10
330.8712102852
 20
213.672058056
  0
LWPOLYLINE
  5
32A
330
1F
100
AcDbEntity
  8
0
  6
Continuous
 62
     7
370
    30
100
AcDbPolyline
 90
       22
 70
   128
 43
0.0
 10
313.7945815196
 20
193.608828708
 10
314.1903144719
 20
193.4402236282
 10
314.6545535567
 20
193.3464465406
 10
315.1460490941
 20
193.3358299508
 10
315.6211295486
 20
193.4093171896
 10
316.0375819371
 20
193.5603785931
 10
316.3584026372
 20
193.7755916929
 10
316.5550853219
 20
194.0358338605
 10
316.6101538714
 20
194.3179814373
 10
316.5187152035
 20
194.5969643729
 10
316.2888940451
 20
194.8479938092
 10
315.9411110147
 20
195.0487646791
 10
315.5062681607
 20
195.1814376098
 10
315.0230031791
 20
195.2342240292
 10
314.5342562841
 20
195.2024336322
 10
314.0834547823
 20
195.0888911352
 10
313.7106543653
 20
194.9036852873
 10
313.4489799863
 20
194.6632724407
 10
313.3216825622
 20
194.389014332
 10
313.3400730277
 20
194.1052799978
 10
313.5025173092
 20
193.8372804786
 10
313.7945815196
 20
193.608828708
  0
LWPOLYLINE
  5
32B
330
1F
100
AcDbEntity
  8
0
  6
Continuous
 62
     7
370
    30
100
AcDbPolyline
 90
       22
 70
   128
 43
0.0
 10
331.4722510492
 20
183.4037273102
 10
331.8679840015
 20
183.2351222304
 10
332.3322230864
 20
183.1413451428
 10
332.8237186238
 20
183.1307285531
 10
333.2987990783
 20
183.2042157918
 10
333.7152514668
 20
183.3552771954
 10
334.0360721669
 20
183.5704902951
 10
334.2327548516
 20
183.8307324627
 10
334.2878234011
 20
184.1128800395
 10
334.1963847332
 20
184.3918629751
 10
333.9665635748
 20
184.6428924114
 10
333.6187805444
 20
184.8436632813
 10
333.1839376904
 20
184.976336212
 10
332.7006727087
 20
185.0291226314
 10
332.2119258138
 20
184.9973322345
 10
331.7611243119
 20
184.8837897374
 10
331.388323895
 20
184.6985838895
 10
331.126649516
 20
184.4581710429
 10
330.9993520919
 20
184.1839129343
 10
331.0177425573
 20
183.9001786
 10
331.1801868389
 20
183.6321790808
 10
331.4722510492
 20
183.4037273102
  0
LWPOLYLINE
  5
32C
330
1F
100
AcDbEntity
  8
0
  6
Continuous
 62
     7
370
    30
100
AcDbPolyline
 90
       22
 70
   128
 43
0.0
 10
349.1499205789
 20
193.608828708
 10
349.5456535312
 20
193.4402236282
 10
350.009892616
 20
193.3464465406
 10
350.5013881534
 20
193.3358299508
 10
350.976468608
 20
193.4093171896
 10
351.3929209965
 20
193.5603785931
 10
351.7137416966
 20
193.7755916929
 10
351.9104243812
 20
194.0358338605
 10
351.9654929307
 20
194.3179814373
 10
351.8740542629
 20
194.5969643729
 10
351.6442331045
 20
194.8479938092
 10
351.296450074
 20
195.0487646791
 10
350.8616072201
 20
195.1814376098
 10
350.3783422384
 20
195.2342240292
 10
349.8895953434
 20
195.2024336322
 10
349.4387938416
 20
195.0888911352
 10
349.0659934247
 20
194.9036852873
 10
348.8043190457
 20
194.6632724407
 10
348.6770216215
 20
194.389014332
 10
348.695412087
 20
194.1052799978
 10
348.8578563686
 20
193.8372804786
 10
349.1499205789
 20
193.608828708
  0
LWPOLYLINE
  5
32D
330
1F
100
AcDbEntity
  8
0
  6
Continuous
 62
     7
370
    30
100
AcDbPolyline
 90
       22
 70
   128
 43
0.0
 10
331.4722510492
 20
203.8139301058
 10
331.8679840015
 20
203.645325026
 10
332.3322230864
 20
203.5515479384
 10
332.8237186238
 20
203.5409313486
 10
333.2987990783
 20
203.6144185874
 10
333.7152514668
 20
203.7654799909
 10
334.0360721669
 20
203.9806930907
 10
334.2327548516
 20
204.2409352583
 10
334.2878234011
 20
204.5230828351
 10
334.1963847332
 20
204.8020657707
 10
333.9665635748
 20
205.053095207
 10
333.6187805444
 20
205.2538660769
 10
333.1839376904
 20
205.3865390076
 10
332.7006727087
 20
205.439325427
 10
332.2119258138
 20
205.40753503
 10
331.7611243119
 20
205.293992533
 10
331.388323895
 20
205.108786685
 10
331.126649516
 20
204.8683738385
 10
330.9993520919
 20
204.5941157298
 10
331.0177425573
 20
204.3103813955
 10
331.1801868389
 20
204.0423818764
 10
331.4722510492
 20
203.8139301058
  0
LINE
  5
32E
330
1F
100
AcDbEntity
  8
0
  6
Continuous
 62
     7
370
    30
100
AcDbLine
 10
337.2351713159
 20
170.8106321853
 30
0.0
 11
373.2976171564
 21
191.6290390368
 31
0.0
  0
LINE
  5
32F
330
1F
100
AcDbEntity
  8
0
  6
Continuous
 62
     7
370
    30
100
AcDbLine
 10
291.98033732
 20
191.6290390368
 30
0.0
 11
328.0427831605
 21
170.8106321853
 31
0.0
  0
LWPOLYLINE
  5
330
330
1F
100
AcDbEntity
  8
0
  6
Continuous
 62
     7
370
    30
100
AcDbPolyline
 90
       11
 70
   128
 43
0.0
 10
291.98033732
 20
196.9356917637
 10
291.3179209342
 20
196.4879532229
 10
290.7849889904
 20
195.9859057901
 10
290.3946640418
 20
195.4419115392
 10
290.1565571838
 20
194.8693654139
 10
290.0765313977
 20
194.2823654002
 10
290.1565571838
 20
193.6953653865
 10
290.3946640418
 20
193.1228192613
 10
290.7849889904
 20
192.5788250104
 10
291.3179209342
 20
192.0767775775
 10
291.98033732
 20
191.6290390368
  0
LINE
  5
331
330
1F
100
AcDbEntity
  8
0
  6
Continuous
 62
     7
370
    30
100
AcDbLine
 10
328.0427831605
 20
217.7540986151
 30
0.0
 11
291.98033732
 21
196.9356917637
 31
0.0
  0
ARC
  5
332
330
1F
100
AcDbEntity
  8
0
  6
Continuous
 62
     7
370
    30
100
AcDbCircle
 10
332.6389772382
 20
208.9657377611
 30
0.0
 40
9.917675458554328
100
AcDbArc
 50
62.3910402158
 51
117.6089597842
  0
LINE
  5
333
330
1F
100
AcDbEntity
  8
0
  6
Continuous
 62
     7
370
    30
100
AcDbLine
 10
373.2976171564
 20
196.9356917637
 30
0.0
 11
337.2351713159
 21
217.7540986151
 31
0.0
  0
LWPOLYLINE
  5
334
330
1F
100
AcDbEntity
  8
0
  6
Continuous
 62
     7
370
    30
100
AcDbPolyline
 90
       11
 70
   128
 43
0.0
 10
373.2976171564
 20
191.6290390368
 10
373.9600335421
 20
192.0767775775
 10
374.4929654859
 20
192.5788250104
 10
374.8832904346
 20
193.1228192613
 10
375.1213972926
 20
193.6953653865
 10
375.2014230787
 20
194.2823654002
 10
375.1213972926
 20
194.8693654139
 10
374.8832904346
 20
195.4419115392
 10
374.4929654859
 20
195.9859057901
 10
373.9600335421
 20
196.4879532229
 10
373.2976171564
 20
196.9356917637
  0
LINE
  5
335
330
1F
100
AcDbEntity
  8
0
  6
Continuous
 62
     7
370
    30
100
AcDbLine
 10
373.2976171564
 20
191.6290390368
 30
0.0
 11
373.651170547
 21
191.0166666029
 31
0.0
  0
LINE
  5
336
330
1F
100
AcDbEntity
  8
0
  6
Continuous
 62
     7
370
    30
100
AcDbLine
 10
373.651170547
 20
191.0166666029
 30
0.0
 11
337.5887247065
 21
170.1982597514
 31
0.0
  0
LINE
  5
337
330
1F
100
AcDbEntity
  8
0
  6
Continuous
 62
     7
370
    30
100
AcDbLine
 10
327.6892297699
 20
170.1982597514
 30
0.0
 11
291.6267839294
 21
191.0166666029
 31
0.0
  0
LINE
  5
338
330
1F
100
AcDbEntity
  8
0
  6
Continuous
 62
     7
370
    30
100
AcDbLine
 10
291.6267839294
 20
191.0166666029
 30
0.0
 11
291.98033732
 21
191.6290390368
 31
0.0
  0
LINE
  5
339
330
1F
100
AcDbEntity
  8
0
  6
Continuous
 62
     7
370
    30
100
AcDbLine
 10
337.5887247065
 20
161.8695434702
 30
0.0
 11
373.651170547
 21
182.6879503217
 31
0.0
  0
LINE
  5
33A
330
1F
100
AcDbEntity
  8
0
  6
Continuous
 62
     7
370
    30
100
AcDbLine
 10
373.651170547
 20
182.6879503217
 30
0.0
 11
373.651170547
 21
191.0166666029
 31
0.0
  0
LINE
  5
33B
330
1F
100
AcDbEntity
  8
0
  6
Continuous
 62
     7
370
    30
100
AcDbLine
 10
325.2192440335
 20
168.5326858739
 30
0.0
 11
325.2192440335
 21
165.9079161846
 31
0.0
  0
SPLINE
  5
33C
330
1F
100
AcDbEntity
  8
0
  6
Continuous
 62
     7
370
    30
100
AcDbSpline
210
0.0
220
0.0
230
1.0
 70
     8
 71
     3
 72
    11
 73
     7
 74
     0
 42
0.000000001
 43
0.00000001
 40
0.0
 40
0.0
 40
0.0
 40
0.0
 40
0.5016620265214039
 40
0.7516818123089875
 40
0.8762699403327526
 40
1.0
 40
1.0
 40
1.0
 40
1.0
 10
325.040680073863
 20
168.7060339418209
 30
0.0
 10
325.0748748571039
 20
168.6861383813493
 30
0.0
 10
325.1261117362757
 20
168.6563272133486
 30
0.0
 10
325.1841138564848
 20
168.6061342886135
 30
0.0
 10
325.2133669673867
 20
168.5654301273726
 30
0.0
 10
325.217289529654
 20
168.5435754519857
 30
0.0
 10
325.2192440335423
 20
168.5326858739216
 30
0.0
  0
SPLINE
  5
33D
330
1F
100
AcDbEntity
  8
0
  6
Continuous
 62
     7
370
    30
100
AcDbSpline
210
0.0
220
0.0
230
1.0
 70
     8
 71
     3
 72
    11
 73
     7
 74
     0
 42
0.000000001
 43
0.00000001
 40
0.0
 40
0.0
 40
0.0
 40
0.0
 40
0.1239414816107083
 40
0.2486568813970681
 40
0.4986484914299784
 40
1.0
 40
1.0
 40
1.0
 40
1.0
 10
324.8552920138139
 20
168.7427909026995
 30
0.0
 10
324.8570589769104
 20
168.7520477937252
 30
0.0
 10
324.860603936414
 20
168.7706193778629
 30
0.0
 10
324.8921608455595
 20
168.7756812917509
 30
0.0
 10
324.9522264767587
 20
168.7562244805054
 30
0.0
 10
325.0052793118698
 20
168.7261211216806
 30
0.0
 10
325.040680073863
 20
168.7060339418209
 30
0.0
  0
LINE
  5
33E
330
1F
100
AcDbEntity
  8
0
  6
Continuous
 62
     7
370
    30
100
AcDbLine
 10
324.8552920138
 20
167.2035214126
 30
0.0
 11
324.8552920138
 21
168.7427909027
 31
0.0
  0
SPLINE
  5
33F
330
1F
100
AcDbEntity
  8
0
  6
Continuous
 62
     7
370
    30
100
AcDbSpline
210
0.0
220
0.0
230
1.0
 70
     8
 71
     3
 72
     9
 73
     5
 74
     0
 42
0.000000001
 43
0.00000001
 40
0.0
 40
0.0
 40
0.0
 40
0.0
 40
0.5599972286806243
 40
0.9999999999999999
 40
0.9999999999999999
 40
0.9999999999999999
 40
0.9999999999999999
 10
324.8609787641222
 20
166.4791984618115
 30
0.0
 10
324.8590669858436
 20
166.6148872410932
 30
0.0
 10
324.8556530791659
 20
166.857189831771
 30
0.0
 10
324.8554023398207
 20
167.0976974111822
 30
0.0
 10
324.8552920138139
 20
167.2035214126464
 30
0.0
  0
LINE
  5
340
330
1F
100
AcDbEntity
  8
0
  6
Continuous
 62
     7
370
    30
100
AcDbLine
 10
324.859272739
 20
166.4801833291
 30
0.0
 11
324.8609787641
 21
166.4791984618
 31
0.0
  0
SPLINE
  5
341
330
1F
100
AcDbEntity
  8
0
  6
Continuous
 62
     7
370
    30
100
AcDbSpline
210
0.0
220
0.0
230
1.0
 70
     8
 71
     3
 72
     9
 73
     5
 74
     0
 42
0.000000001
 43
0.00000001
 40
0.0
 40
0.0
 40
0.0
 40
0.0
 40
0.5599940106187243
 40
1.0
 40
1.0
 40
1.0
 40
1.0
 10
324.4987327694863
 20
167.5393823003611
 30
0.0
 10
324.5673935290842
 20
167.3416488242587
 30
0.0
 10
324.6900033397177
 20
166.9885495547076
 30
0.0
 10
324.8075510447691
 20
166.6355189219724
 30
0.0
 10
324.8592727390297
 20
166.4801833291339
 30
0.0
  0
LINE
  5
342
330
1F
100
AcDbEntity
  8
0
  6
Continuous
 62
     7
370
    30
100
AcDbLine
 10
323.9488240147
 20
169.1051959307
 30
0.0
 11
324.4987327695
 21
167.5393823004
 31
0.0
  0
SPLINE
  5
343
330
1F
100
AcDbEntity
  8
0
  6
Continuous
 62
     7
370
    30
100
AcDbSpline
210
0.0
220
0.0
230
1.0
 70
     8
 71
     3
 72
    10
 73
     6
 74
     0
 42
0.000000001
 43
0.00000001
 40
0.0
 40
0.0
 40
0.0
 40
0.0
 40
0.2809791349548877
 40
0.5599619140359073
 40
1.0
 40
1.0
 40
1.0
 40
1.0
 10
323.6485635984021
 20
169.5096856768963
 30
0.0
 10
323.6849809017428
 20
169.4878050972506
 30
0.0
 10
323.7575567635984
 20
169.4441993994089
 30
0.0
 10
323.8759945480368
 20
169.3013357723239
 30
0.0
 10
323.9211742225128
 20
169.179660650889
 30
0.0
 10
323.9488240146779
 20
169.1051959306722
 30
0.0
  0
LINE
  5
344
330
1F
100
AcDbEntity
  8
0
  6
Continuous
 62
     7
370
    30
100
AcDbLine
 10
323.475117714
 20
169.6098138547
 30
0.0
 11
323.6485635984
 21
169.5096856769
 31
0.0
  0
SPLINE
  5
345
330
1F
100
AcDbEntity
  8
0
  6
Continuous
 62
     7
370
    30
100
AcDbSpline
210
0.0
220
0.0
230
1.0
 70
     8
 71
     3
 72
    10
 73
     6
 74
     0
 42
0.000000001
 43
0.00000001
 40
0.0
 40
0.0
 40
0.0
 40
0.0
 40
0.2817317389414403
 40
0.5607430399861092
 40
1.0
 40
1.0
 40
1.0
 40
1.0
 10
323.3266935309547
 20
169.5326394475865
 30
0.0
 10
323.3280896051915
 20
169.5570837317358
 30
0.0
 10
323.3308682729927
 20
169.6057362628836
 30
0.0
 10
323.3848850002487
 20
169.6468092603682
 30
0.0
 10
323.440876259201
 20
169.6238528485062
 30
0.0
 10
323.4751177140002
 20
169.6098138546733
 30
0.0
  0
LINE
  5
346
330
1F
100
AcDbEntity
  8
0
  6
Continuous
 62
     7
370
    30
100
AcDbLine
 10
323.326693531
 20
166.9078697583
 30
0.0
 11
323.326693531
 21
169.5326394476
 31
0.0
  0
SPLINE
  5
347
330
1F
100
AcDbEntity
  8
0
  6
Continuous
 62
     7
370
    30
100
AcDbSpline
210
0.0
220
0.0
230
1.0
 70
     8
 71
     3
 72
    11
 73
     7
 74
     0
 42
0.000000001
 43
0.00000001
 40
0.0
 40
0.0
 40
0.0
 40
0.0
 40
0.5008122433281018
 40
0.7508793631318189
 40
0.8757000698792452
 40
1.0
 40
1.0
 40
1.0
 40
1.0
 10
323.5075321907573
 20
166.7332085339476
 30
0.0
 10
323.4730829289418
 20
166.7546794597993
 30
0.0
 10
323.4214323550653
 20
166.786871314819
 30
0.0
 10
323.3617153929116
 20
166.8331451519673
 30
0.0
 10
323.3314441304622
 20
166.8747858649305
 30
0.0
 10
323.3282748557103
 20
166.8968571735544
 30
0.0
 10
323.3266935309547
 20
166.9078697582768
 30
0.0
  0
SPLINE
  5
348
330
1F
100
AcDbEntity
  8
0
  6
Continuous
 62
     7
370
    30
100
AcDbSpline
210
0.0
220
0.0
230
1.0
 70
     8
 71
     3
 72
    12
 73
     8
 74
     0
 42
0.000000001
 43
0.00000001
 40
0.0
 40
0.0
 40
0.0
 40
0.0
 40
0.0626252715129556
 40
0.1252529462626172
 40
0.2497641406629551
 40
0.4998005501650201
 40
1.0
 40
1.0
 40
1.0
 40
1.0
 10
323.6906455506831
 20
166.6977647294989
 30
0.0
 10
323.6901827637265
 20
166.6929953572235
 30
0.0
 10
323.6892571720537
 20
166.6834564296484
 30
0.0
 10
323.6808578830472
 20
166.6701725230072
 30
0.0
 10
323.6552213424924
 20
166.6636754387003
 30
0.0
 10
323.5940364625461
 20
166.6875892200988
 30
0.0
 10
323.5421356515199
 20
166.71495988444
 30
0.0
 10
323.5075321907573
 20
166.7332085339476
 30
0.0
  0
LINE
  5
349
330
1F
100
AcDbEntity
  8
0
  6
Continuous
 62
     7
370
    30
100
AcDbLine
 10
323.6906455507
 20
168.4149958372
 30
0.0
 11
323.6906455507
 21
166.6977647295
 31
0.0
  0
SPLINE
  5
34A
330
1F
100
AcDbEntity
  8
0
  6
Continuous
 62
     7
370
    30
100
AcDbSpline
210
0.0
220
0.0
230
1.0
 70
     8
 71
     3
 72
     9
 73
     5
 74
     0
 42
0.000000001
 43
0.00000001
 40
0.0
 40
0.0
 40
0.0
 40
0.0
 40
0.5599939797176317
 40
1.0
 40
1.0
 40
1.0
 40
1.0
 10
323.6866648254673
 20
169.0680686325733
 30
0.0
 10
323.6883924447964
 20
168.9456017918679
 30
0.0
 10
323.6914775124786
 20
168.7269086538324
 30
0.0
 10
323.6908997636471
 20
168.5103034367547
 30
0.0
 10
323.6906455506831
 20
168.4149958372159
 30
0.0
  0
LINE
  5
34B
330
1F
100
AcDbEntity
  8
0
  6
Continuous
 62
     7
370
    30
100
AcDbLine
 10
323.6906455507
 20
169.0657706088
 30
0.0
 11
323.6866648255
 21
169.0680686326
 31
0.0
  0
SPLINE
  5
34C
330
1F
100
AcDbEntity
  8
0
  6
Continuous
 62
     7
370
    30
100
AcDbSpline
210
0.0
220
0.0
230
1.0
 70
     8
 71
     3
 72
     9
 73
     5
 74
     0
 42
0.000000001
 43
0.00000001
 40
0.0
 40
0.0
 40
0.0
 40
0.0
 40
0.559996361647639
 40
1.0
 40
1.0
 40
1.0
 40
1.0
 10
323.9101541125818
 20
168.4091062699636
 30
0.0
 10
323.8669999095432
 20
168.5317437343311
 30
0.0
 10
323.789938332015
 20
168.7507406292513
 30
0.0
 10
323.7209851858649
 20
168.9695108956447
 30
0.0
 10
323.6906455506831
 20
169.0657706088211
 30
0.0
  0
LINE
  5
34D
330
1F
100
AcDbEntity
  8
0
  6
Continuous
 62
     7
370
    30
100
AcDbLine
 10
324.6266846514
 20
166.3773903122
 30
0.0
 11
323.9101541126
 21
168.40910627
 31
0.0
  0
SPLINE
  5
34E
330
1F
100
AcDbEntity
  8
0
  6
Continuous
 62
     7
370
    30
100
AcDbSpline
210
0.0
220
0.0
230
1.0
 70
     8
 71
     3
 72
    10
 73
     6
 74
     0
 42
0.000000001
 43
0.00000001
 40
0.0
 40
0.0
 40
0.0
 40
0.0
 40
0.2799136670740593
 40
0.5591822510543006
 40
1.0
 40
1.0
 40
1.0
 40
1.0
 10
324.9491233939002
 20
165.9009956465227
 30
0.0
 10
324.9076523816302
 20
165.9273795411669
 30
0.0
 10
324.8248059303045
 20
165.9800865266919
 30
0.0
 10
324.7065550494348
 20
166.1597050121397
 30
0.0
 10
324.6570129874225
 20
166.294730990501
 30
0.0
 10
324.626684651422
 20
166.3773903121806
 30
0.0
  0
LINE
  5
34F
330
1F
100
AcDbEntity
  8
0
  6
Continuous
 62
     7
370
    30
100
AcDbLine
 10
325.0651331002
 20
165.8340246686
 30
0.0
 11
324.9491233939
 21
165.9009956465
 31
0.0
  0
SPLINE
  5
350
330
1F
100
AcDbEntity
  8
0
  6
Continuous
 62
     7
370
    30
100
AcDbSpline
210
0.0
220
0.0
230
1.0
 70
     8
 71
     3
 72
    11
 73
     7
 74
     0
 42
0.000000001
 43
0.00000001
 40
0.0
 40
0.0
 40
0.0
 40
0.0
 40
0.2796952934189029
 40
0.5588134177063239
 40
0.7792443195046613
 40
0.9999999999999999
 40
0.9999999999999999
 40
0.9999999999999999
 40
0.9999999999999999
 10
325.2192440335423
 20
165.9079161846119
 30
0.0
 10
325.2170697139596
 20
165.8835603455049
 30
0.0
 10
325.2127255616418
 20
165.8348989271229
 30
0.0
 10
325.169192877397
 20
165.8047740832248
 30
0.0
 10
325.1169482378274
 20
165.808103599675
 30
0.0
 10
325.0824132870152
 20
165.8253800729434
 30
0.0
 10
325.0651331001885
 20
165.8340246685997
 30
0.0
  0
SPLINE
  5
351
330
1F
100
AcDbEntity
  8
0
  6
Continuous
 62
     7
370
    30
100
AcDbSpline
210
0.0
220
0.0
230
1.0
 70
     8
 71
     3
 72
    11
 73
     7
 74
     0
 42
0.000000001
 43
0.00000001
 40
0.0
 40
0.0
 40
0.0
 40
0.0
 40
0.2801250816206901
 40
0.557974870066326
 40
0.7786475671119445
 40
1.0
 40
1.0
 40
1.0
 40
1.0
 10
293.7040725776806
 20
186.8383002237206
 30
0.0
 10
293.8822371649031
 20
186.7194134540297
 30
0.0
 10
294.2371192119898
 20
186.482605562758
 30
0.0
 10
294.6258819487344
 20
185.849678567134
 30
0.0
 10
294.7693152523385
 20
185.2640115404241
 30
0.0
 10
294.7817435044444
 20
184.9377985110392
 30
0.0
 10
294.7879671864342
 20
184.7744411749869
 30
0.0
  0
SPLINE
  5
352
330
1F
100
AcDbEntity
  8
0
  6
Continuous
 62
     7
370
    30
100
AcDbSpline
210
0.0
220
0.0
230
1.0
 70
     8
 71
     3
 72
    11
 73
     7
 74
     0
 42
0.000000001
 43
0.00000001
 40
0.0
 40
0.0
 40
0.0
 40
0.0
 40
0.2808536487544997
 40
0.5596989268974386
 40
0.7794504123598353
 40
1.0
 40
1.0
 40
1.0
 40
1.0
 10
292.5678598660911
 20
186.007487165266
 30
0.0
 10
292.5787202687594
 20
186.2119395112137
 30
0.0
 10
292.6003634118914
 20
186.6193821744515
 30
0.0
 10
292.8567000662097
 20
187.0067658294869
 30
0.0
 10
293.273550847582
 20
187.0528487588041
 30
0.0
 10
293.5603920221726
 20
186.909902771395
 30
0.0
 10
293.7040725776806
 20
186.8383002237206
 30
0.0
  0
SPLINE
  5
353
330
1F
100
AcDbEntity
  8
0
  6
Continuous
 62
     7
370
    30
100
AcDbSpline
210
0.0
220
0.0
230
1.0
 70
     8
 71
     3
 72
    11
 73
     7
 74
     0
 42
0.000000001
 43
0.00000001
 40
0.0
 40
0.0
 40
0.0
 40
0.0
 40
0.2801420473422224
 40
0.5578429180994053
 40
0.7785754787955254
 40
1.0
 40
1.0
 40
1.0
 40
1.0
 10
293.6540291749679
 20
183.9252411517657
 30
0.0
 10
293.4739329228735
 20
184.0445046712739
 30
0.0
 10
293.1153097895013
 20
184.2819924399843
 30
0.0
 10
292.7247289858071
 20
184.9241775745014
 30
0.0
 10
292.5852803245788
 20
185.5139977536399
 30
0.0
 10
292.5736727407425
 20
185.8428191633541
 30
0.0
 10
292.5678598660911
 20
186.007487165266
 30
0.0
  0
SPLINE
  5
354
330
1F
100
AcDbEntity
  8
0
  6
Continuous
 62
     7
370
    30
100
AcDbSpline
210
0.0
220
0.0
230
1.0
 70
     8
 71
     3
 72
    11
 73
     7
 74
     0
 42
0.000000001
 43
0.00000001
 40
0.0
 40
0.0
 40
0.0
 40
0.0
 40
0.2808758480361681
 40
0.5598284381949649
 40
0.7794973826614463
 40
1.0
 40
1.0
 40
1.0
 40
1.0
 10
294.7879671864342
 20
184.7744411749869
 30
0.0
 10
294.7774680550513
 20
184.5686024942406
 30
0.0
 10
294.7565416836117
 20
184.1583345841728
 30
0.0
 10
294.5052106053573
 20
183.7610535024654
 30
0.0
 10
294.0871718678812
 20
183.7097338604605
 30
0.0
 10
293.7985922598947
 20
183.8533147419127
 30
0.0
 10
293.6540291749679
 20
183.9252411517657
 30
0.0
  0
LINE
  5
355
330
1F
100
AcDbEntity
  8
0
  6
Continuous
 62
     7
370
    30
100
AcDbLine
 10
291.6267839294
 20
182.6879503217
 30
0.0
 11
327.6892297699
 21
161.8695434702
 31
0.0
  0
LINE
  5
356
330
1F
100
AcDbEntity
  8
0
  6
Continuous
 62
     7
370
    30
100
AcDbLine
 10
291.6267839294
 20
191.0166666029
 30
0.0
 11
291.6267839294
 21
182.6879503217
 31
0.0
  0
SPLINE
  5
357
330
1F
100
AcDbEntity
  8
0
  6
Continuous
 62
     7
370
    30
100
AcDbSpline
210
0.0
220
0.0
230
1.0
 70
     8
 71
     3
 72
    11
 73
     7
 74
     0
 42
0.000000001
 43
0.00000001
 40
0.0
 40
0.0
 40
0.0
 40
0.0
 40
0.280125081620694
 40
0.5579748700663248
 40
0.7786475671119444
 40
0.9999999999999999
 40
0.9999999999999999
 40
0.9999999999999999
 40
0.9999999999999999
 10
321.6968708926086
 20
170.6784017296237
 30
0.0
 10
321.8750354798311
 20
170.5595149599328
 30
0.0
 10
322.2299175269179
 20
170.3227070686611
 30
0.0
 10
322.6186802636624
 20
169.6897800730372
 30
0.0
 10
322.7621135672665
 20
169.1041130463273
 30
0.0
 10
322.7745418193724
 20
168.7779000169424
 30
0.0
 10
322.7807655013622
 20
168.6145426808901
 30
0.0
  0
SPLINE
  5
358
330
1F
100
AcDbEntity
  8
0
  6
Continuous
 62
     7
370
    30
100
AcDbSpline
210
0.0
220
0.0
230
1.0
 70
     8
 71
     3
 72
    11
 73
     7
 74
     0
 42
0.000000001
 43
0.00000001
 40
0.0
 40
0.0
 40
0.0
 40
0.0
 40
0.2808536487545
 40
0.5596989268974376
 40
0.7794504123598356
 40
1.0
 40
1.0
 40
1.0
 40
1.0
 10
320.5606581810191
 20
169.8475886711691
 30
0.0
 10
320.5715185836874
 20
170.0520410171168
 30
0.0
 10
320.5931617268193
 20
170.4594836803546
 30
0.0
 10
320.8494983811377
 20
170.8468673353901
 30
0.0
 10
321.2663491625101
 20
170.8929502647072
 30
0.0
 10
321.5531903371006
 20
170.7500042772981
 30
0.0
 10
321.6968708926086
 20
170.6784017296237
 30
0.0
  0
SPLINE
  5
359
330
1F
100
AcDbEntity
  8
0
  6
Continuous
 62
     7
370
    30
100
AcDbSpline
210
0.0
220
0.0
230
1.0
 70
     8
 71
     3
 72
    11
 73
     7
 74
     0
 42
0.000000001
 43
0.00000001
 40
0.0
 40
0.0
 40
0.0
 40
0.0
 40
0.2801420473422263
 40
0.5578429180994046
 40
0.7785754787955254
 40
1.0
 40
1.0
 40
1.0
 40
1.0
 10
321.646827489896
 20
167.7653426576688
 30
0.0
 10
321.4667312378015
 20
167.884606177177
 30
0.0
 10
321.1081081044293
 20
168.1220939458874
 30
0.0
 10
320.7175273007351
 20
168.7642790804045
 30
0.0
 10
320.5780786395068
 20
169.354099259543
 30
0.0
 10
320.5664710556704
 20
169.6829206692572
 30
0.0
 10
320.5606581810191
 20
169.8475886711691
 30
0.0
  0
SPLINE
  5
35A
330
1F
100
AcDbEntity
  8
0
  6
Continuous
 62
     7
370
    30
100
AcDbSpline
210
0.0
220
0.0
230
1.0
 70
     8
 71
     3
 72
    11
 73
     7
 74
     0
 42
0.000000001
 43
0.00000001
 40
0.0
 40
0.0
 40
0.0
 40
0.0
 40
0.2808758480361682
 40
0.5598284381949656
 40
0.7794973826614456
 40
1.0
 40
1.0
 40
1.0
 40
1.0
 10
322.7807655013622
 20
168.6145426808901
 30
0.0
 10
322.7702663699794
 20
168.4087040001438
 30
0.0
 10
322.7493399985397
 20
167.998436090076
 30
0.0
 10
322.4980089202853
 20
167.6011550083685
 30
0.0
 10
322.0799701828092
 20
167.5498353663636
 30
0.0
 10
321.7913905748227
 20
167.6934162478159
 30
0.0
 10
321.646827489896
 20
167.7653426576688
 30
0.0
  0
SPLINE
  5
35B
330
1F
100
AcDbEntity
  8
0
  6
Continuous
 62
     7
370
    30
100
AcDbSpline
210
0.0
220
0.0
230
1.0
 70
     8
 71
     3
 72
    11
 73
     7
 74
     0
 42
0.000000001
 43
0.00000001
 40
0.0
 40
0.0
 40
0.0
 40
0.0
 40
0.1240164599802793
 40
0.2493208964379304
 40
0.4991163781956955
 40
1.0
 40
1.0
 40
1.0
 40
1.0
 10
298.3984849571458
 20
184.0862458056872
 30
0.0
 10
298.405904678522
 20
184.0807932065022
 30
0.0
 10
298.4208211790022
 20
184.0698313800081
 30
0.0
 10
298.4441030173363
 20
184.0328541782943
 30
0.0
 10
298.4634414397149
 20
183.964138663232
 30
0.0
 10
298.4637060361741
 20
183.912325994399
 30
0.0
 10
298.4638825856907
 20
183.8777544749611
 30
0.0
  0
LINE
  5
35C
330
1F
100
AcDbEntity
  8
0
  6
Continuous
 62
     7
370
    30
100
AcDbLine
 10
297.2770577964
 20
184.7336319256
 30
0.0
 11
298.3984849571
 21
184.0862458057
 31
0.0
  0
SPLINE
  5
35D
330
1F
100
AcDbEntity
  8
0
  6
Continuous
 62
     7
370
    30
100
AcDbSpline
210
0.0
220
0.0
230
1.0
 70
     8
 71
     3
 72
    11
 73
     7
 74
     0
 42
0.000000001
 43
0.00000001
 40
0.0
 40
0.0
 40
0.0
 40
0.0
 40
0.2803879303796653
 40
0.5581739735706093
 40
0.7791807540572558
 40
1.0
 40
1.0
 40
1.0
 40
1.0
 10
297.1536553146686
 20
184.6512063868983
 30
0.0
 10
297.1543090933532
 20
184.673202405455
 30
0.0
 10
297.1556105839194
 20
184.7169903283655
 30
0.0
 10
297.1875113631064
 20
184.7521573625754
 30
0.0
 10
297.231916457785
 20
184.7539745434807
 30
0.0
 10
297.2620149419678
 20
184.7404108791854
 30
0.0
 10
297.2770577963577
 20
184.7336319256091
 30
0.0
  0
LINE
  5
35E
330
1F
100
AcDbEntity
  8
0
  6
Continuous
 62
     7
370
    30
100
AcDbLine
 10
297.1536553147
 20
182.0172431085
 30
0.0
 11
297.1536553147
 21
184.6512063869
 31
0.0
  0
SPLINE
  5
35F
330
1F
100
AcDbEntity
  8
0
  6
Continuous
 62
     7
370
    30
100
AcDbSpline
210
0.0
220
0.0
230
1.0
 70
     8
 71
     3
 72
    11
 73
     7
 74
     0
 42
0.000000001
 43
0.00000001
 40
0.0
 40
0.0
 40
0.0
 40
0.0
 40
0.5008105445132195
 40
0.7509694626061932
 40
0.8757260598071679
 40
0.9999999999999999
 40
0.9999999999999999
 40
0.9999999999999999
 40
0.9999999999999999
 10
297.3356313245328
 20
181.8419253059401
 30
0.0
 10
297.3010298322067
 20
181.8637294338403
 30
0.0
 10
297.2491446145686
 20
181.8964249000025
 30
0.0
 10
297.1890447263384
 20
181.9422369199022
 30
0.0
 10
297.1584481568561
 20
181.9839774977729
 30
0.0
 10
297.1552508631261
 20
182.0061689082958
 30
0.0
 10
297.1536553146686
 20
182.0172431084842
 30
0.0
  0
SPLINE
  5
360
330
1F
100
AcDbEntity
  8
0
  6
Continuous
 62
     7
370
    30
100
AcDbSpline
210
0.0
220
0.0
230
1.0
 70
     8
 71
     3
 72
    11
 73
     7
 74
     0
 42
0.000000001
 43
0.00000001
 40
0.0
 40
0.0
 40
0.0
 40
0.0
 40
0.1244470024500401
 40
0.2488634246206317
 40
0.499232955116736
 40
1.0
 40
1.0
 40
1.0
 40
1.0
 10
297.5176073343969
 20
181.8077947646423
 30
0.0
 10
297.5160830707585
 20
181.7984769233808
 30
0.0
 10
297.5130349180379
 20
181.7798435305247
 30
0.0
 10
297.4828539225944
 20
181.7722990791748
 30
0.0
 10
297.422312040643
 20
181.7963190190371
 30
0.0
 10
297.3703039984929
 20
181.8236825872908
 30
0.0
 10
297.3356313245328
 20
181.8419253059401
 30
0.0
  0
LINE
  5
361
330
1F
100
AcDbEntity
  8
0
  6
Continuous
 62
     7
370
    30
100
AcDbLine
 10
297.5176073344
 20
182.9977078687
 30
0.0
 11
297.5176073344
 21
181.8077947646
 31
0.0
  0
LINE
  5
362
330
1F
100
AcDbEntity
  8
0
  6
Continuous
 62
     7
370
    30
100
AcDbLine
 10
298.3507162546
 20
182.5167643263
 30
0.0
 11
297.5176073344
 21
182.9977078687
 31
0.0
  0
SPLINE
  5
363
330
1F
100
AcDbEntity
  8
0
  6
Continuous
 62
     7
370
    30
100
AcDbSpline
210
0.0
220
0.0
230
1.0
 70
     8
 71
     3
 72
    11
 73
     7
 74
     0
 42
0.000000001
 43
0.00000001
 40
0.0
 40
0.0
 40
0.0
 40
0.0
 40
0.5009958414944921
 40
0.7503742579822175
 40
0.8758097124664116
 40
1.0
 40
1.0
 40
1.0
 40
1.0
 10
298.4138391829781
 20
182.6497489488576
 30
0.0
 10
298.4138688690355
 20
182.6157452457416
 30
0.0
 10
298.4139133317865
 20
182.5648156743139
 30
0.0
 10
298.3933549670195
 20
182.5220120985063
 30
0.0
 10
298.3725466846493
 20
182.5087742598121
 30
0.0
 10
298.3579688258105
 20
182.5141098423335
 30
0.0
 10
298.3507162545564
 20
182.5167643262907
 30
0.0
  0
SPLINE
  5
364
330
1F
100
AcDbEntity
  8
0
  6
Continuous
 62
     7
370
    30
100
AcDbSpline
210
0.0
220
0.0
230
1.0
 70
     8
 71
     3
 72
    11
 73
     7
 74
     0
 42
0.000000001
 43
0.00000001
 40
0.0
 40
0.0
 40
0.0
 40
0.0
 40
0.1242410794130472
 40
0.2494129000157239
 40
0.4987775396957597
 40
1.0
 40
1.0
 40
1.0
 40
1.0
 10
298.3507162545564
 20
182.8529870135378
 30
0.0
 10
298.3579526662444
 20
182.847606367296
 30
0.0
 10
298.3724797005661
 20
182.8368047661714
 30
0.0
 10
298.3956367825828
 20
182.8010701333973
 30
0.0
 10
298.4139647437005
 20
182.7336895798807
 30
0.0
 10
298.4138894572819
 20
182.683358637532
 30
0.0
 10
298.4138391829781
 20
182.6497489488576
 30
0.0
  0
LINE
  5
365
330
1F
100
AcDbEntity
  8
0
  6
Continuous
 62
     7
370
    30
100
AcDbLine
 10
297.5176073344
 20
183.333930556
 30
0.0
 11
298.3507162546
 21
182.8529870135
 31
0.0
  0
LINE
  5
366
330
1F
100
AcDbEntity
  8
0
  6
Continuous
 62
     7
370
    30
100
AcDbLine
 10
297.5176073344
 20
184.2585429459
 30
0.0
 11
297.5176073344
 21
183.333930556
 31
0.0
  0
LINE
  5
367
330
1F
100
AcDbEntity
  8
0
  6
Continuous
 62
     7
370
    30
100
AcDbLine
 10
298.4007596573
 20
183.748709962
 30
0.0
 11
297.5176073344
 21
184.2585429459
 31
0.0
  0
SPLINE
  5
368
330
1F
100
AcDbEntity
  8
0
  6
Continuous
 62
     7
370
    30
100
AcDbSpline
210
0.0
220
0.0
230
1.0
 70
     8
 71
     3
 72
    11
 73
     7
 74
     0
 42
0.000000001
 43
0.00000001
 40
0.0
 40
0.0
 40
0.0
 40
0.0
 40
0.5008324953230536
 40
0.7502066526870481
 40
0.8752490130852911
 40
1.0
 40
1.0
 40
1.0
 40
1.0
 10
298.4638825856907
 20
183.8777544749611
 30
0.0
 10
298.4636698689572
 20
183.8445762973512
 30
0.0
 10
298.46335123646
 20
183.7948780653088
 30
0.0
 10
298.4443462192073
 20
183.7506925024389
 30
0.0
 10
298.4223059871682
 20
183.740275197843
 30
0.0
 10
298.4079361799759
 20
183.7459005612048
 30
0.0
 10
298.4007596572691
 20
183.7487099620103
 30
0.0
  0
SPLINE
  5
369
330
1F
100
AcDbEntity
  8
0
  6
Continuous
 62
     7
370
    30
100
AcDbSpline
210
0.0
220
0.0
230
1.0
 70
     8
 71
     3
 72
    11
 73
     7
 74
     0
 42
0.000000001
 43
0.00000001
 40
0.0
 40
0.0
 40
0.0
 40
0.0
 40
0.1240164599803037
 40
0.2493208964379459
 40
0.4991163781956999
 40
1.0
 40
1.0
 40
1.0
 40
1.0
 10
296.5787248585039
 20
185.1367709495767
 30
0.0
 10
296.5861445798802
 20
185.1313183503918
 30
0.0
 10
296.6010610803604
 20
185.1203565238976
 30
0.0
 10
296.6243429186944
 20
185.0833793221839
 30
0.0
 10
296.6436813410731
 20
185.0146638071215
 30
0.0
 10
296.6439459375323
 20
184.9628511382885
 30
0.0
 10
296.6441224870489
 20
184.9282796188506
 30
0.0
  0
LINE
  5
36A
330
1F
100
AcDbEntity
  8
0
  6
Continuous
 62
     7
370
    30
100
AcDbLine
 10
295.4572976977
 20
185.7841570695
 30
0.0
 11
296.5787248585
 21
185.1367709496
 31
0.0
  0
SPLINE
  5
36B
330
1F
100
AcDbEntity
  8
0
  6
Continuous
 62
     7
370
    30
100
AcDbSpline
210
0.0
220
0.0
230
1.0
 70
     8
 71
     3
 72
    11
 73
     7
 74
     0
 42
0.000000001
 43
0.00000001
 40
0.0
 40
0.0
 40
0.0
 40
0.0
 40
0.280387930379656
 40
0.558173973570595
 40
0.7791807540572573
 40
1.0
 40
1.0
 40
1.0
 40
1.0
 10
295.3338952160267
 20
185.7017315307878
 30
0.0
 10
295.3345489947114
 20
185.7237275493445
 30
0.0
 10
295.3358504852775
 20
185.767515472255
 30
0.0
 10
295.3677512644645
 20
185.8026825064649
 30
0.0
 10
295.4121563591431
 20
185.8044996873702
 30
0.0
 10
295.4422548433259
 20
185.7909360230749
 30
0.0
 10
295.4572976977159
 20
185.7841570694987
 30
0.0
  0
LINE
  5
36C
330
1F
100
AcDbEntity
  8
0
  6
Continuous
 62
     7
370
    30
100
AcDbLine
 10
295.333895216
 20
183.0677682524
 30
0.0
 11
295.333895216
 21
185.7017315308
 31
0.0
  0
SPLINE
  5
36D
330
1F
100
AcDbEntity
  8
0
  6
Continuous
 62
     7
370
    30
100
AcDbSpline
210
0.0
220
0.0
230
1.0
 70
     8
 71
     3
 72
    11
 73
     7
 74
     0
 42
0.000000001
 43
0.00000001
 40
0.0
 40
0.0
 40
0.0
 40
0.0
 40
0.5008105445132262
 40
0.7509694626061958
 40
0.8757260598071728
 40
1.0
 40
1.0
 40
1.0
 40
1.0
 10
295.5158712258909
 20
182.8924504498296
 30
0.0
 10
295.4812697335648
 20
182.9142545777298
 30
0.0
 10
295.4293845159268
 20
182.9469500438921
 30
0.0
 10
295.3692846276965
 20
182.9927620637917
 30
0.0
 10
295.3386880582144
 20
183.0345026416624
 30
0.0
 10
295.3354907644842
 20
183.0566940521853
 30
0.0
 10
295.3338952160267
 20
183.0677682523737
 30
0.0
  0
SPLINE
  5
36E
330
1F
100
AcDbEntity
  8
0
  6
Continuous
 62
     7
370
    30
100
AcDbSpline
210
0.0
220
0.0
230
1.0
 70
     8
 71
     3
 72
    11
 73
     7
 74
     0
 42
0.000000001
 43
0.00000001
 40
0.0
 40
0.0
 40
0.0
 40
0.0
 40
0.1244470024500401
 40
0.248863424620641
 40
0.4992329551167368
 40
1.0
 40
1.0
 40
1.0
 40
1.0
 10
295.6978472357551
 20
182.8583199085318
 30
0.0
 10
295.6963229721167
 20
182.8490020672703
 30
0.0
 10
295.6932748193961
 20
182.8303686744142
 30
0.0
 10
295.6630938239525
 20
182.8228242230643
 30
0.0
 10
295.6025519420012
 20
182.8468441629266
 30
0.0
 10
295.5505438998511
 20
182.8742077311803
 30
0.0
 10
295.5158712258909
 20
182.8924504498296
 30
0.0
  0
LINE
  5
36F
330
1F
100
AcDbEntity
  8
0
  6
Continuous
 62
     7
370
    30
100
AcDbLine
 10
295.6978472358
 20
184.0482330126
 30
0.0
 11
295.6978472358
 21
182.8583199085
 31
0.0
  0
LINE
  5
370
330
1F
100
AcDbEntity
  8
0
  6
Continuous
 62
     7
370
    30
100
AcDbLine
 10
296.5309561559
 20
183.5672894702
 30
0.0
 11
295.6978472358
 21
184.0482330126
 31
0.0
  0
SPLINE
  5
371
330
1F
100
AcDbEntity
  8
0
  6
Continuous
 62
     7
370
    30
100
AcDbSpline
210
0.0
220
0.0
230
1.0
 70
     8
 71
     3
 72
    11
 73
     7
 74
     0
 42
0.000000001
 43
0.00000001
 40
0.0
 40
0.0
 40
0.0
 40
0.0
 40
0.500995841494495
 40
0.7503742579822023
 40
0.8758097124664143
 40
1.0
 40
1.0
 40
1.0
 40
1.0
 10
296.5940790843362
 20
183.7002740927472
 30
0.0
 10
296.5941087703937
 20
183.6662703896311
 30
0.0
 10
296.5941532331447
 20
183.6153408182034
 30
0.0
 10
296.5735948683777
 20
183.5725372423958
 30
0.0
 10
296.5527865860075
 20
183.5592994037016
 30
0.0
 10
296.5382087271686
 20
183.564634986223
 30
0.0
 10
296.5309561559146
 20
183.5672894701803
 30
0.0
  0
SPLINE
  5
372
330
1F
100
AcDbEntity
  8
0
  6
Continuous
 62
     7
370
    30
100
AcDbSpline
210
0.0
220
0.0
230
1.0
 70
     8
 71
     3
 72
    11
 73
     7
 74
     0
 42
0.000000001
 43
0.00000001
 40
0.0
 40
0.0
 40
0.0
 40
0.0
 40
0.1242410794130452
 40
0.2494129000157397
 40
0.498777539695777
 40
1.0
 40
1.0
 40
1.0
 40
1.0
 10
296.5309561559146
 20
183.9035121574273
 30
0.0
 10
296.5381925676026
 20
183.8981315111856
 30
0.0
 10
296.5527196019243
 20
183.8873299100609
 30
0.0
 10
296.5758766839409
 20
183.8515952772869
 30
0.0
 10
296.5942046450587
 20
183.7842147237702
 30
0.0
 10
296.5941293586401
 20
183.7338837814215
 30
0.0
 10
296.5940790843362
 20
183.7002740927472
 30
0.0
  0
LINE
  5
373
330
1F
100
AcDbEntity
  8
0
  6
Continuous
 62
     7
370
    30
100
AcDbLine
 10
295.6978472358
 20
184.3844556999
 30
0.0
 11
296.5309561559
 21
183.9035121574
 31
0.0
  0
LINE
  5
374
330
1F
100
AcDbEntity
  8
0
  6
Continuous
 62
     7
370
    30
100
AcDbLine
 10
295.6978472358
 20
185.3090680898
 30
0.0
 11
295.6978472358
 21
184.3844556999
 31
0.0
  0
LINE
  5
375
330
1F
100
AcDbEntity
  8
0
  6
Continuous
 62
     7
370
    30
100
AcDbLine
 10
296.5809995586
 20
184.7992351059
 30
0.0
 11
295.6978472358
 21
185.3090680898
 31
0.0
  0
SPLINE
  5
376
330
1F
100
AcDbEntity
  8
0
  6
Continuous
 62
     7
370
    30
100
AcDbSpline
210
0.0
220
0.0
230
1.0
 70
     8
 71
     3
 72
    11
 73
     7
 74
     0
 42
0.000000001
 43
0.00000001
 40
0.0
 40
0.0
 40
0.0
 40
0.0
 40
0.5008324953230662
 40
0.7502066526870566
 40
0.8752490130852899
 40
1.0
 40
1.0
 40
1.0
 40
1.0
 10
296.6441224870489
 20
184.9282796188506
 30
0.0
 10
296.6439097703153
 20
184.8951014412407
 30
0.0
 10
296.6435911378182
 20
184.8454032091983
 30
0.0
 10
296.6245861205655
 20
184.8012176463284
 30
0.0
 10
296.6025458885263
 20
184.7908003417325
 30
0.0
 10
296.588176081334
 20
184.7964257050944
 30
0.0
 10
296.5809995586272
 20
184.7992351058998
 30
0.0
  0
SPLINE
  5
377
330
1F
100
AcDbEntity
  8
0
  6
Continuous
 62
     7
370
    30
100
AcDbSpline
210
0.0
220
0.0
230
1.0
 70
     8
 71
     3
 72
    10
 73
     6
 74
     0
 42
0.000000001
 43
0.00000001
 40
0.0
 40
0.0
 40
0.0
 40
0.0
 40
0.2814458412568652
 40
0.6404584394624506
 40
1.0
 40
1.0
 40
1.0
 40
1.0
 10
325.203876994105
 20
165.8374612031871
 30
0.0
 10
325.1958259570995
 20
165.8293382956015
 30
0.0
 10
325.1775050091912
 20
165.8108537989291
 30
0.0
 10
325.1305727245615
 20
165.816976537458
 30
0.0
 10
325.0963827883484
 20
165.8337805555489
 30
0.0
 10
325.0792752358123
 20
165.842188749718
 30
0.0
  0
LINE
  5
378
330
1F
100
AcDbEntity
  8
0
  6
Continuous
 62
     7
370
    30
100
AcDbLine
 10
325.0792752358
 20
165.8421887497
 30
0.0
 11
324.9632655295
 21
165.9091597276
 31
0.0
  0
SPLINE
  5
379
330
1F
100
AcDbEntity
  8
0
  6
Continuous
 62
     7
370
    30
100
AcDbSpline
210
0.0
220
0.0
230
1.0
 70
     8
 71
     3
 72
    10
 73
     6
 74
     0
 42
0.000000001
 43
0.00000001
 40
0.0
 40
0.0
 40
0.0
 40
0.0
 40
0.2799136670740593
 40
0.5591822510543006
 40
1.0
 40
1.0
 40
1.0
 40
1.0
 10
324.9632655295239
 20
165.9091597276409
 30
0.0
 10
324.9217945172539
 20
165.9355436222851
 30
0.0
 10
324.8389480659282
 20
165.9882506078102
 30
0.0
 10
324.7206971850586
 20
166.167869093258
 30
0.0
 10
324.6711551230463
 20
166.3028950716192
 30
0.0
 10
324.6408267870457
 20
166.3855543932989
 30
0.0
  0
LINE
  5
37A
330
1F
100
AcDbEntity
  8
0
  6
Continuous
 62
     7
370
    30
100
AcDbLine
 10
324.640826787
 20
166.3855543933
 30
0.0
 11
323.9242962482
 21
168.4172703511
 31
0.0
  0
SPLINE
  5
37B
330
1F
100
AcDbEntity
  8
0
  6
Continuous
 62
     7
370
    30
100
AcDbSpline
210
0.0
220
0.0
230
1.0
 70
     8
 71
     3
 72
     9
 73
     5
 74
     0
 42
0.000000001
 43
0.00000001
 40
0.0
 40
0.0
 40
0.0
 40
0.0
 40
0.559996361647639
 40
1.0
 40
1.0
 40
1.0
 40
1.0
 10
323.9242962482055
 20
168.4172703510819
 30
0.0
 10
323.8811420451669
 20
168.5399078154493
 30
0.0
 10
323.8040804676387
 20
168.7589047103695
 30
0.0
 10
323.7351273214887
 20
168.9776749767629
 30
0.0
 10
323.7047876863069
 20
169.0739346899393
 30
0.0
  0
LINE
  5
37C
330
1F
100
AcDbEntity
  8
0
  6
Continuous
 62
     7
370
    30
100
AcDbLine
 10
323.7047876863
 20
169.0739346899
 30
0.0
 11
323.7008069611
 21
169.0762327137
 31
0.0
  0
SPLINE
  5
37D
330
1F
100
AcDbEntity
  8
0
  6
Continuous
 62
     7
370
    30
100
AcDbSpline
210
0.0
220
0.0
230
1.0
 70
     8
 71
     3
 72
    10
 73
     6
 74
     0
 42
0.000000001
 43
0.00000001
 40
0.0
 40
0.0
 40
0.0
 40
0.0
 40
0.1096940267023798
 40
0.4064125934718879
 40
1.0
 40
1.0
 40
1.0
 40
1.0
 10
323.6913273274114
 20
166.6806331980086
 30
0.0
 10
323.6864719467965
 20
166.6784402429966
 30
0.0
 10
323.6684829287314
 20
166.6703154201542
 30
0.0
 10
323.6071752368131
 20
166.6975207923482
 30
0.0
 10
323.555876422279
 20
166.7238309978093
 30
0.0
 10
323.521674326381
 20
166.7413726150659
 30
0.0
  0
SPLINE
  5
37E
330
1F
100
AcDbEntity
  8
0
  6
Continuous
 62
     7
370
    30
100
AcDbSpline
210
0.0
220
0.0
230
1.0
 70
     8
 71
     3
 72
    11
 73
     7
 74
     0
 42
0.000000001
 43
0.00000001
 40
0.0
 40
0.0
 40
0.0
 40
0.0
 40
0.5008122433281018
 40
0.7508793631318189
 40
0.8757000698792452
 40
1.0
 40
1.0
 40
1.0
 40
1.0
 10
323.521674326381
 20
166.7413726150659
 30
0.0
 10
323.4872250645656
 20
166.7628435409175
 30
0.0
 10
323.435574490689
 20
166.7950353959372
 30
0.0
 10
323.3758575285353
 20
166.8413092330855
 30
0.0
 10
323.345586266086
 20
166.8829499460487
 30
0.0
 10
323.3424169913341
 20
166.9050212546726
 30
0.0
 10
323.3408356665785
 20
166.9160338393951
 30
0.0
  0
LINE
  5
37F
330
1F
100
AcDbEntity
  8
0
  6
Continuous
 62
     7
370
    30
100
AcDbLine
 10
323.3408356666
 20
166.9160338394
 30
0.0
 11
323.3408356666
 21
169.5408035287
 31
0.0
  0
SPLINE
  5
380
330
1F
100
AcDbEntity
  8
0
  6
Continuous
 62
     7
370
    30
100
AcDbSpline
210
0.0
220
0.0
230
1.0
 70
     8
 71
     3
 72
     9
 73
     5
 74
     0
 42
0.000000001
 43
0.00000001
 40
0.0
 40
0.0
 40
0.0
 40
0.0
 40
0.6240422533241287
 40
1.0
 40
1.0
 40
1.0
 40
1.0
 10
323.3408356665785
 20
169.5408035287047
 30
0.0
 10
323.3413989532643
 20
169.5666009570771
 30
0.0
 10
323.3423015951652
 20
169.6079401904943
 30
0.0
 10
323.3674524934546
 20
169.6222474762462
 30
0.0
 10
323.3769081685023
 20
169.6276264111586
 30
0.0
  0
SPLINE
  5
381
330
1F
100
AcDbEntity
  8
0
  6
Continuous
 62
     7
370
    30
100
AcDbSpline
210
0.0
220
0.0
230
1.0
 70
     8
 71
     3
 72
     9
 73
     5
 74
     0
 42
0.000000001
 43
0.00000001
 40
0.0
 40
0.0
 40
0.0
 40
0.0
 40
0.5599972286806243
 40
0.9999999999999999
 40
0.9999999999999999
 40
0.9999999999999999
 40
0.9999999999999999
 10
324.8751208997459
 20
166.4873625429297
 30
0.0
 10
324.8732091214674
 20
166.6230513222114
 30
0.0
 10
324.8697952147896
 20
166.8653539128892
 30
0.0
 10
324.8695444754444
 20
167.1058614923004
 30
0.0
 10
324.8694341494376
 20
167.2116854937647
 30
0.0
  0
LINE
  5
382
330
1F
100
AcDbEntity
  8
0
  6
Continuous
 62
     7
370
    30
100
AcDbLine
 10
324.8694341494
 20
167.2116854938
 30
0.0
 11
324.8694341494
 21
168.7509549838
 31
0.0
  0
LINE
  5
383
330
1F
100
AcDbEntity
  8
0
  6
Continuous
 62
     7
370
    30
100
AcDbLine
 10
324.8552920138
 20
168.7427909027
 30
0.0
 11
324.8694341494
 21
168.7509549838
 31
0.0
  0
LINE
  5
384
330
1F
100
AcDbEntity
  8
0
  6
Continuous
 62
     7
370
    30
100
AcDbLine
 10
324.8552920138
 20
167.2035214126
 30
0.0
 11
324.8694341494
 21
167.2116854938
 31
0.0
  0
LINE
  5
385
330
1F
100
AcDbEntity
  8
0
  6
Continuous
 62
     7
370
    30
100
AcDbLine
 10
323.9101541126
 20
168.40910627
 30
0.0
 11
323.9242962482
 21
168.4172703511
 31
0.0
  0
LINE
  5
386
330
1F
100
AcDbEntity
  8
0
  6
Continuous
 62
     7
370
    30
100
AcDbLine
 10
324.6266846514
 20
166.3773903122
 30
0.0
 11
324.640826787
 21
166.3855543933
 31
0.0
  0
LINE
  5
387
330
1F
100
AcDbEntity
  8
0
  6
Continuous
 62
     7
370
    30
100
AcDbLine
 10
323.6906455507
 20
169.0657706088
 30
0.0
 11
323.7047876863
 21
169.0739346899
 31
0.0
  0
LINE
  5
388
330
1F
100
AcDbEntity
  8
0
  6
Continuous
 62
     7
370
    30
100
AcDbLine
 10
323.326693531
 20
169.5326394476
 30
0.0
 11
323.3408356666
 21
169.5408035287
 31
0.0
  0
LINE
  5
389
330
1F
100
AcDbEntity
  8
0
  6
Continuous
 62
     7
370
    30
100
AcDbLine
 10
324.8609787641
 20
166.4791984618
 30
0.0
 11
324.8751208997
 21
166.4873625429
 31
0.0
  0
LINE
  5
38A
330
1F
100
AcDbEntity
  8
0
  6
Continuous
 62
     7
370
    30
100
AcDbLine
 10
323.6866648255
 20
169.0680686326
 30
0.0
 11
323.7008069611
 21
169.0762327137
 31
0.0
  0
LINE
  5
38B
330
1F
100
AcDbEntity
  8
0
  6
Continuous
 62
     7
370
    30
100
AcDbLine
 10
323.326693531
 20
166.9078697583
 30
0.0
 11
323.3408356666
 21
166.9160338394
 31
0.0
  0
LINE
  5
38C
330
1F
100
AcDbEntity
  8
0
  6
Continuous
 62
     7
370
    30
100
AcDbLine
 10
325.0651331002
 20
165.8340246686
 30
0.0
 11
325.0792752358
 21
165.8421887497
 31
0.0
  0
SPLINE
  5
38D
330
1F
100
AcDbEntity
  8
0
  6
Continuous
 62
     7
370
    30
100
AcDbSpline
210
0.0
220
0.0
230
1.0
 70
     8
 71
     3
 72
    10
 73
     6
 74
     0
 42
0.000000001
 43
0.00000001
 40
0.0
 40
0.0
 40
0.0
 40
0.0
 40
0.4326036042802983
 40
0.8639716269067811
 40
0.9999999999999999
 40
0.9999999999999999
 40
0.9999999999999999
 40
0.9999999999999999
 10
321.6905407271227
 20
170.3621615313637
 30
0.0
 10
321.6041259797776
 20
170.404682081988
 30
0.0
 10
321.4315432987419
 20
170.4896017380806
 30
0.0
 10
321.2419475126407
 20
170.4841272337497
 30
0.0
 10
321.1771904721135
 20
170.4131828400799
 30
0.0
 10
321.1616655323435
 20
170.396174535967
 30
0.0
  0
SPLINE
  5
38E
330
1F
100
AcDbEntity
  8
0
  6
Continuous
 62
     7
370
    30
100
AcDbSpline
210
0.0
220
0.0
230
1.0
 70
     8
 71
     3
 72
    10
 73
     6
 74
     0
 42
0.000000001
 43
0.00000001
 40
0.0
 40
0.0
 40
0.0
 40
0.0
 40
0.2288747233334333
 40
0.6139699054689282
 40
1.0
 40
1.0
 40
1.0
 40
1.0
 10
322.2080940372283
 20
168.0638329003152
 30
0.0
 10
322.2473592126549
 20
168.0962016376539
 30
0.0
 10
322.3526903549226
 20
168.183032679171
 30
0.0
 10
322.4164531756282
 20
168.457200065579
 30
0.0
 10
322.4261175643457
 20
168.6886893616658
 30
0.0
 10
322.4309556172576
 20
168.8045743385369
 30
0.0
  0
SPLINE
  5
38F
330
1F
100
AcDbEntity
  8
0
  6
Continuous
 62
     7
370
    30
100
AcDbSpline
210
0.0
220
0.0
230
1.0
 70
     8
 71
     3
 72
    11
 73
     7
 74
     0
 42
0.000000001
 43
0.00000001
 40
0.0
 40
0.0
 40
0.0
 40
0.0
 40
0.2813309565023494
 40
0.560759431944927
 40
0.7798210508659763
 40
1.0
 40
1.0
 40
1.0
 40
1.0
 10
322.4309556172576
 20
168.8045743385369
 30
0.0
 10
322.4255189707449
 20
168.9584151529626
 30
0.0
 10
322.4146824426643
 20
169.2650564439879
 30
0.0
 10
322.283205737656
 20
169.7482114144674
 30
0.0
 10
322.0008892039942
 20
170.1581394188262
 30
0.0
 10
321.7941655057676
 20
170.2940389278197
 30
0.0
 10
321.6905407271227
 20
170.3621615313637
 30
0.0
  0
SPLINE
  5
390
330
1F
100
AcDbEntity
  8
0
  6
Continuous
 62
     7
370
    30
100
AcDbSpline
210
0.0
220
0.0
230
1.0
 70
     8
 71
     3
 72
    10
 73
     6
 74
     0
 42
0.000000001
 43
0.00000001
 40
0.0
 40
0.0
 40
0.0
 40
0.0
 40
0.0590766794020013
 40
0.5286472982126909
 40
1.0
 40
1.0
 40
1.0
 40
1.0
 10
322.4794440228964
 20
167.6860578276072
 30
0.0
 10
322.4708729278038
 20
167.6726629695755
 30
0.0
 10
322.3941745366738
 20
167.5527991657858
 30
0.0
 10
322.0830089529197
 20
167.5732362570993
 30
0.0
 10
321.8018269183416
 20
167.7066656743382
 30
0.0
 10
321.6609696255197
 20
167.773506738787
 30
0.0
  0
SPLINE
  5
391
330
1F
100
AcDbEntity
  8
0
  6
Continuous
 62
     7
370
    30
100
AcDbSpline
210
0.0
220
0.0
230
1.0
 70
     8
 71
     3
 72
    11
 73
     7
 74
     0
 42
0.000000001
 43
0.00000001
 40
0.0
 40
0.0
 40
0.0
 40
0.0
 40
0.2801420473422263
 40
0.5578429180994046
 40
0.7785754787955254
 40
1.0
 40
1.0
 40
1.0
 40
1.0
 10
321.6609696255197
 20
167.773506738787
 30
0.0
 10
321.4808733734252
 20
167.8927702582953
 30
0.0
 10
321.122250240053
 20
168.1302580270057
 30
0.0
 10
320.7316694363589
 20
168.7724431615228
 30
0.0
 10
320.5922207751304
 20
169.3622633406613
 30
0.0
 10
320.5806131912942
 20
169.6910847503755
 30
0.0
 10
320.5748003166428
 20
169.8557527522873
 30
0.0
  0
SPLINE
  5
392
330
1F
100
AcDbEntity
  8
0
  6
Continuous
 62
     7
370
    30
100
AcDbSpline
210
0.0
220
0.0
230
1.0
 70
     8
 71
     3
 72
     9
 73
     5
 74
     0
 42
0.000000001
 43
0.00000001
 40
0.0
 40
0.0
 40
0.0
 40
0.0
 40
0.5337058791082829
 40
1.0
 40
1.0
 40
1.0
 40
1.0
 10
320.5748003166428
 20
169.8557527522873
 30
0.0
 10
320.5812899861276
 20
170.0669436342613
 30
0.0
 10
320.5934496226217
 20
170.4626501277459
 30
0.0
 10
320.7952238087246
 20
170.6731078954194
 30
0.0
 10
320.8893099254522
 20
170.7712431151816
 30
0.0
  0
LINE
  5
393
330
1F
100
AcDbEntity
  8
0
  6
Continuous
 62
     7
370
    30
100
AcDbLine
 10
324.9491233939
 20
165.9009956465
 30
0.0
 11
324.9632655295
 21
165.9091597276
 31
0.0
  0
LINE
  5
394
330
1F
100
AcDbEntity
  8
0
  6
Continuous
 62
     7
370
    30
100
AcDbLine
 10
322.4309556173
 20
168.8045743385
 30
0.0
 11
322.4168134816
 21
168.7964102574
 31
0.0
  0
SPLINE
  5
395
330
1F
100
AcDbEntity
  8
0
  6
Continuous
 62
     7
370
    30
100
AcDbSpline
210
0.0
220
0.0
230
1.0
 70
     8
 71
     3
 72
    11
 73
     7
 74
     0
 42
0.000000001
 43
0.00000001
 40
0.0
 40
0.0
 40
0.0
 40
0.0
 40
0.2813309565023494
 40
0.560759431944927
 40
0.7798210508659763
 40
1.0
 40
1.0
 40
1.0
 40
1.0
 10
322.4168134816338
 20
168.7964102574187
 30
0.0
 10
322.4113768351212
 20
168.9502510718443
 30
0.0
 10
322.4005403070406
 20
169.2568923628697
 30
0.0
 10
322.2690636020323
 20
169.7400473333491
 30
0.0
 10
321.9867470683704
 20
170.1499753377079
 30
0.0
 10
321.7800233701439
 20
170.2858748467015
 30
0.0
 10
321.6763985914989
 20
170.3539974502454
 30
0.0
  0
LINE
  5
396
330
1F
100
AcDbEntity
  8
0
  6
Continuous
 62
     7
370
    30
100
AcDbLine
 10
321.6905407271
 20
170.3621615314
 30
0.0
 11
321.6763985915
 21
170.3539974502
 31
0.0
  0
SPLINE
  5
397
330
1F
100
AcDbEntity
  8
0
  6
Continuous
 62
     7
370
    30
100
AcDbSpline
210
0.0
220
0.0
230
1.0
 70
     8
 71
     3
 72
    12
 73
     8
 74
     0
 42
0.000000001
 43
0.00000001
 40
0.0
 40
0.0
 40
0.0
 40
0.0
 40
0.1867363305969235
 40
0.3728972567901108
 40
0.5592611832371802
 40
0.7793634157163912
 40
1.0
 40
1.0
 40
1.0
 40
1.0
 10
321.6633190657899
 20
168.0920449607994
 30
0.0
 10
321.7515643834055
 20
168.0475622774335
 30
0.0
 10
321.9277831018425
 20
167.9587339784692
 30
0.0
 10
322.1610601283978
 20
167.9873090833368
 30
0.0
 10
322.3245506265405
 20
168.1598044778197
 30
0.0
 10
322.4044000555867
 20
168.4459340768157
 30
0.0
 10
322.4126723298493
 20
168.6794904759471
 30
0.0
 10
322.4168134816338
 20
168.7964102574187
 30
0.0
  0
SPLINE
  5
398
330
1F
100
AcDbEntity
  8
0
  6
Continuous
 62
     7
370
    30
100
AcDbSpline
210
0.0
220
0.0
230
1.0
 70
     8
 71
     3
 72
    12
 73
     8
 74
     0
 42
0.000000001
 43
0.00000001
 40
0.0
 40
0.0
 40
0.0
 40
0.0
 40
0.2508015418039441
 40
0.5005754275132867
 40
0.6257136751788508
 40
0.750871425659629
 40
1.0
 40
1.0
 40
1.0
 40
1.0
 10
320.9246102007475
 20
169.6617809850243
 30
0.0
 10
320.9287034165037
 20
169.5236116932146
 30
0.0
 10
320.9368730761171
 20
169.2478392564929
 30
0.0
 10
321.0214618050446
 20
168.8640905503977
 30
0.0
 10
321.1669370806101
 20
168.5634530680319
 30
0.0
 10
321.3643957908355
 20
168.2908077925837
 30
0.0
 10
321.5438635804836
 20
168.171474408156
 30
0.0
 10
321.6633190657899
 20
168.0920449607994
 30
0.0
  0
SPLINE
  5
399
330
1F
100
AcDbEntity
  8
0
  6
Continuous
 62
     7
370
    30
100
AcDbSpline
210
0.0
220
0.0
230
1.0
 70
     8
 71
     3
 72
    12
 73
     8
 74
     0
 42
0.000000001
 43
0.00000001
 40
0.0
 40
0.0
 40
0.0
 40
0.0
 40
0.1867109845357343
 40
0.3728886941177335
 40
0.5593108223810117
 40
0.7793857966224809
 40
1.0
 40
1.0
 40
1.0
 40
1.0
 10
321.6763985914989
 20
170.3539974502454
 30
0.0
 10
321.5889398195678
 20
170.3980441358514
 30
0.0
 10
321.4142720712528
 20
170.4860117030336
 30
0.0
 10
321.1841843477836
 20
170.4560980074103
 30
0.0
 10
321.0185708020852
 20
170.2907707993337
 30
0.0
 10
320.9378098392279
 20
170.0082907612785
 30
0.0
 10
320.9290136679184
 20
169.7773784255449
 30
0.0
 10
320.9246102007475
 20
169.6617809850243
 30
0.0
  0
LINE
  5
39A
330
1F
100
AcDbEntity
  8
0
  6
Continuous
 62
     7
370
    30
100
AcDbLine
 10
320.560658181
 20
169.8475886712
 30
0.0
 11
320.5748003166
 21
169.8557527523
 31
0.0
  0
LINE
  5
39B
330
1F
100
AcDbEntity
  8
0
  6
Continuous
 62
     7
370
    30
100
AcDbLine
 10
321.6468274899
 20
167.7653426577
 30
0.0
 11
321.6609696255
 21
167.7735067388
 31
0.0
  0
LINE
  5
39C
330
1F
100
AcDbEntity
  8
0
  6
Continuous
 62
     7
370
    30
100
AcDbLine
 10
323.5075321908
 20
166.7332085339
 30
0.0
 11
323.5216743264
 21
166.7413726151
 31
0.0
  0
LINE
  5
39D
330
1F
100
AcDbEntity
  8
0
  6
Continuous
 62
     7
370
    30
100
AcDbLine
 10
298.4149017929
 20
183.7568740431
 30
0.0
 11
297.53174947
 21
184.266707027
 31
0.0
  0
SPLINE
  5
39E
330
1F
100
AcDbEntity
  8
0
  6
Continuous
 62
     7
370
    30
100
AcDbSpline
210
0.0
220
0.0
230
1.0
 70
     8
 71
     3
 72
     9
 73
     5
 74
     0
 42
0.000000001
 43
0.00000001
 40
0.0
 40
0.0
 40
0.0
 40
0.0
 40
0.3774292921929349
 40
0.9999999999999999
 40
0.9999999999999999
 40
0.9999999999999999
 40
0.9999999999999999
 10
298.3951755102296
 20
182.5246673286128
 30
0.0
 10
298.3921655174255
 20
182.5225972773855
 30
0.0
 10
298.3841905327955
 20
182.5171126706786
 30
0.0
 10
298.3722760180552
 20
182.5219295558182
 30
0.0
 10
298.3648583901802
 20
182.524928407409
 30
0.0
  0
LINE
  5
39F
330
1F
100
AcDbEntity
  8
0
  6
Continuous
 62
     7
370
    30
100
AcDbLine
 10
298.3648583902
 20
182.5249284074
 30
0.0
 11
297.53174947
 21
183.0058719498
 31
0.0
  0
SPLINE
  5
3A0
330
1F
100
AcDbEntity
  8
0
  6
Continuous
 62
     7
370
    30
100
AcDbSpline
210
0.0
220
0.0
230
1.0
 70
     8
 71
     3
 72
    10
 73
     6
 74
     0
 42
0.000000001
 43
0.00000001
 40
0.0
 40
0.0
 40
0.0
 40
0.0
 40
0.1025833494918055
 40
0.4017110884567782
 40
1.0
 40
1.0
 40
1.0
 40
1.0
 10
297.5180022868986
 20
181.7893691048012
 30
0.0
 10
297.5135765546672
 20
181.7871911946516
 30
0.0
 10
297.4962456162576
 20
181.7786626112012
 30
0.0
 10
297.4350246943639
 20
181.806616158393
 30
0.0
 10
297.3838743349648
 20
181.8326999012401
 30
0.0
 10
297.3497734601565
 20
181.8500893870583
 30
0.0
  0
SPLINE
  5
3A1
330
1F
100
AcDbEntity
  8
0
  6
Continuous
 62
     7
370
    30
100
AcDbSpline
210
0.0
220
0.0
230
1.0
 70
     8
 71
     3
 72
    11
 73
     7
 74
     0
 42
0.000000001
 43
0.00000001
 40
0.0
 40
0.0
 40
0.0
 40
0.0
 40
0.5008105445132195
 40
0.7509694626061932
 40
0.8757260598071679
 40
0.9999999999999999
 40
0.9999999999999999
 40
0.9999999999999999
 40
0.9999999999999999
 10
297.3497734601565
 20
181.8500893870583
 30
0.0
 10
297.3151719678304
 20
181.8718935149585
 30
0.0
 10
297.2632867501924
 20
181.9045889811208
 30
0.0
 10
297.2031868619621
 20
181.9504010010204
 30
0.0
 10
297.1725902924799
 20
181.9921415788911
 30
0.0
 10
297.1693929987498
 20
182.014332989414
 30
0.0
 10
297.1677974502923
 20
182.0254071896024
 30
0.0
  0
LINE
  5
3A2
330
1F
100
AcDbEntity
  8
0
  6
Continuous
 62
     7
370
    30
100
AcDbLine
 10
297.1677974503
 20
182.0254071896
 30
0.0
 11
297.1677974503
 21
184.659370468
 31
0.0
  0
SPLINE
  5
3A3
330
1F
100
AcDbEntity
  8
0
  6
Continuous
 62
     7
370
    30
100
AcDbSpline
210
0.0
220
0.0
230
1.0
 70
     8
 71
     3
 72
     9
 73
     5
 74
     0
 42
0.000000001
 43
0.00000001
 40
0.0
 40
0.0
 40
0.0
 40
0.0
 40
0.5551167165298706
 40
0.9999999999999999
 40
0.9999999999999999
 40
0.9999999999999999
 40
0.9999999999999999
 10
297.1677974502923
 20
184.6593704680165
 30
0.0
 10
297.167960743709
 20
184.6821464141636
 30
0.0
 10
297.1682549042194
 20
184.7231755265448
 30
0.0
 10
297.1909713847843
 20
184.7413844646283
 30
0.0
 10
297.201077567247
 20
184.7494853167914
 30
0.0
  0
LINE
  5
3A4
330
1F
100
AcDbEntity
  8
0
  6
Continuous
 62
     7
370
    30
100
AcDbLine
 10
298.4007596573
 20
183.748709962
 30
0.0
 11
298.4149017929
 21
183.7568740431
 31
0.0
  0
LINE
  5
3A5
330
1F
100
AcDbEntity
  8
0
  6
Continuous
 62
     7
370
    30
100
AcDbLine
 10
297.5176073344
 20
184.2585429459
 30
0.0
 11
297.53174947
 21
184.266707027
 31
0.0
  0
LINE
  5
3A6
330
1F
100
AcDbEntity
  8
0
  6
Continuous
 62
     7
370
    30
100
AcDbLine
 10
297.1536553147
 20
184.6512063869
 30
0.0
 11
297.1677974503
 21
184.659370468
 31
0.0
  0
LINE
  5
3A7
330
1F
100
AcDbEntity
  8
0
  6
Continuous
 62
     7
370
    30
100
AcDbLine
 10
298.3507162546
 20
182.5167643263
 30
0.0
 11
298.3648583902
 21
182.5249284074
 31
0.0
  0
LINE
  5
3A8
330
1F
100
AcDbEntity
  8
0
  6
Continuous
 62
     7
370
    30
100
AcDbLine
 10
297.1536553147
 20
182.0172431085
 30
0.0
 11
297.1677974503
 21
182.0254071896
 31
0.0
  0
LINE
  5
3A9
330
1F
100
AcDbEntity
  8
0
  6
Continuous
 62
     7
370
    30
100
AcDbLine
 10
297.5176073344
 20
182.9977078687
 30
0.0
 11
297.53174947
 21
183.0058719498
 31
0.0
  0
LINE
  5
3AA
330
1F
100
AcDbEntity
  8
0
  6
Continuous
 62
     7
370
    30
100
AcDbLine
 10
296.5951416943
 20
184.807399187
 30
0.0
 11
295.7119893714
 21
185.3172321709
 31
0.0
  0
SPLINE
  5
3AB
330
1F
100
AcDbEntity
  8
0
  6
Continuous
 62
     7
370
    30
100
AcDbSpline
210
0.0
220
0.0
230
1.0
 70
     8
 71
     3
 72
     9
 73
     5
 74
     0
 42
0.000000001
 43
0.00000001
 40
0.0
 40
0.0
 40
0.0
 40
0.0
 40
0.3774292921932785
 40
1.0
 40
1.0
 40
1.0
 40
1.0
 10
296.5754154115878
 20
183.5751924725024
 30
0.0
 10
296.5724054187837
 20
183.573122421275
 30
0.0
 10
296.5644304341536
 20
183.5676378145681
 30
0.0
 10
296.5525159194133
 20
183.5724546997077
 30
0.0
 10
296.5450982915383
 20
183.5754535512985
 30
0.0
  0
LINE
  5
3AC
330
1F
100
AcDbEntity
  8
0
  6
Continuous
 62
     7
370
    30
100
AcDbLine
 10
296.5450982915
 20
183.5754535513
 30
0.0
 11
295.7119893714
 21
184.0563970937
 31
0.0
  0
SPLINE
  5
3AD
330
1F
100
AcDbEntity
  8
0
  6
Continuous
 62
     7
370
    30
100
AcDbSpline
210
0.0
220
0.0
230
1.0
 70
     8
 71
     3
 72
    10
 73
     6
 74
     0
 42
0.000000001
 43
0.00000001
 40
0.0
 40
0.0
 40
0.0
 40
0.0
 40
0.1025833494917808
 40
0.4017110884567552
 40
1.0
 40
1.0
 40
1.0
 40
1.0
 10
295.6982421882568
 20
182.8398942486907
 30
0.0
 10
295.6938164560254
 20
182.8377163385411
 30
0.0
 10
295.6764855176158
 20
182.8291877550907
 30
0.0
 10
295.615264595722
 20
182.8571413022825
 30
0.0
 10
295.564114236323
 20
182.8832250451296
 30
0.0
 10
295.5300133615146
 20
182.9006145309478
 30
0.0
  0
SPLINE
  5
3AE
330
1F
100
AcDbEntity
  8
0
  6
Continuous
 62
     7
370
    30
100
AcDbSpline
210
0.0
220
0.0
230
1.0
 70
     8
 71
     3
 72
    11
 73
     7
 74
     0
 42
0.000000001
 43
0.00000001
 40
0.0
 40
0.0
 40
0.0
 40
0.0
 40
0.5008105445132262
 40
0.7509694626061958
 40
0.8757260598071728
 40
1.0
 40
1.0
 40
1.0
 40
1.0
 10
295.5300133615146
 20
182.9006145309478
 30
0.0
 10
295.4954118691886
 20
182.922418658848
 30
0.0
 10
295.4435266515505
 20
182.9551141250103
 30
0.0
 10
295.3834267633202
 20
183.0009261449099
 30
0.0
 10
295.3528301938381
 20
183.0426667227806
 30
0.0
 10
295.3496329001079
 20
183.0648581333035
 30
0.0
 10
295.3480373516504
 20
183.0759323334919
 30
0.0
  0
LINE
  5
3AF
330
1F
100
AcDbEntity
  8
0
  6
Continuous
 62
     7
370
    30
100
AcDbLine
 10
295.3480373517
 20
183.0759323335
 30
0.0
 11
295.3480373517
 21
185.7098956119
 31
0.0
  0
SPLINE
  5
3B0
330
1F
100
AcDbEntity
  8
0
  6
Continuous
 62
     7
370
    30
100
AcDbSpline
210
0.0
220
0.0
230
1.0
 70
     8
 71
     3
 72
     9
 73
     5
 74
     0
 42
0.000000001
 43
0.00000001
 40
0.0
 40
0.0
 40
0.0
 40
0.0
 40
0.5551167165299918
 40
1.0
 40
1.0
 40
1.0
 40
1.0
 10
295.3480373516504
 20
185.709895611906
 30
0.0
 10
295.3482006450671
 20
185.7326715580531
 30
0.0
 10
295.3484948055775
 20
185.7737006704343
 30
0.0
 10
295.3712112861425
 20
185.7919096085178
 30
0.0
 10
295.3813174686051
 20
185.8000104606809
 30
0.0
  0
LINE
  5
3B1
330
1F
100
AcDbEntity
  8
0
  6
Continuous
 62
     7
370
    30
100
AcDbLine
 10
296.5809995586
 20
184.7992351059
 30
0.0
 11
296.5951416943
 21
184.807399187
 31
0.0
  0
LINE
  5
3B2
330
1F
100
AcDbEntity
  8
0
  6
Continuous
 62
     7
370
    30
100
AcDbLine
 10
295.6978472358
 20
185.3090680898
 30
0.0
 11
295.7119893714
 21
185.3172321709
 31
0.0
  0
LINE
  5
3B3
330
1F
100
AcDbEntity
  8
0
  6
Continuous
 62
     7
370
    30
100
AcDbLine
 10
295.333895216
 20
185.7017315308
 30
0.0
 11
295.3480373517
 21
185.7098956119
 31
0.0
  0
LINE
  5
3B4
330
1F
100
AcDbEntity
  8
0
  6
Continuous
 62
     7
370
    30
100
AcDbLine
 10
296.5309561559
 20
183.5672894702
 30
0.0
 11
296.5450982915
 21
183.5754535513
 31
0.0
  0
LINE
  5
3B5
330
1F
100
AcDbEntity
  8
0
  6
Continuous
 62
     7
370
    30
100
AcDbLine
 10
295.333895216
 20
183.0677682524
 30
0.0
 11
295.3480373517
 21
183.0759323335
 31
0.0
  0
LINE
  5
3B6
330
1F
100
AcDbEntity
  8
0
  6
Continuous
 62
     7
370
    30
100
AcDbLine
 10
295.6978472358
 20
184.0482330126
 30
0.0
 11
295.7119893714
 21
184.0563970937
 31
0.0
  0
LINE
  5
3B7
330
1F
100
AcDbEntity
  8
0
  6
Continuous
 62
     7
370
    30
100
AcDbLine
 10
297.3356313245
 20
181.8419253059
 30
0.0
 11
297.3497734602
 21
181.8500893871
 31
0.0
  0
SPLINE
  5
3B8
330
1F
100
AcDbEntity
  8
0
  6
Continuous
 62
     7
370
    30
100
AcDbSpline
210
0.0
220
0.0
230
1.0
 70
     8
 71
     3
 72
    10
 73
     6
 74
     0
 42
0.000000001
 43
0.00000001
 40
0.0
 40
0.0
 40
0.0
 40
0.0
 40
0.4326036042803466
 40
0.863971626906871
 40
0.9999999999999999
 40
0.9999999999999999
 40
0.9999999999999999
 40
0.9999999999999999
 10
293.6977424121947
 20
186.5220600254605
 30
0.0
 10
293.6113276648496
 20
186.5645805760849
 30
0.0
 10
293.4387449838139
 20
186.6495002321775
 30
0.0
 10
293.2491491977128
 20
186.6440257278466
 30
0.0
 10
293.1843921571855
 20
186.5730813341768
 30
0.0
 10
293.1688672174155
 20
186.5560730300639
 30
0.0
  0
SPLINE
  5
3B9
330
1F
100
AcDbEntity
  8
0
  6
Continuous
 62
     7
370
    30
100
AcDbSpline
210
0.0
220
0.0
230
1.0
 70
     8
 71
     3
 72
    10
 73
     6
 74
     0
 42
0.000000001
 43
0.00000001
 40
0.0
 40
0.0
 40
0.0
 40
0.0
 40
0.228874723333358
 40
0.6139699054688899
 40
1.0
 40
1.0
 40
1.0
 40
1.0
 10
294.2152957223004
 20
184.2237313944122
 30
0.0
 10
294.2545608977269
 20
184.2561001317508
 30
0.0
 10
294.3598920399946
 20
184.3429311732679
 30
0.0
 10
294.4236548607003
 20
184.6170985596759
 30
0.0
 10
294.4333192494177
 20
184.8485878557626
 30
0.0
 10
294.4381573023295
 20
184.9644728326338
 30
0.0
  0
SPLINE
  5
3BA
330
1F
100
AcDbEntity
  8
0
  6
Continuous
 62
     7
370
    30
100
AcDbSpline
210
0.0
220
0.0
230
1.0
 70
     8
 71
     3
 72
    11
 73
     7
 74
     0
 42
0.000000001
 43
0.00000001
 40
0.0
 40
0.0
 40
0.0
 40
0.0
 40
0.2813309565023496
 40
0.5607594319449282
 40
0.7798210508659746
 40
1.0
 40
1.0
 40
1.0
 40
1.0
 10
294.4381573023295
 20
184.9644728326338
 30
0.0
 10
294.4327206558169
 20
185.1183136470595
 30
0.0
 10
294.4218841277363
 20
185.4249549380848
 30
0.0
 10
294.290407422728
 20
185.9081099085643
 30
0.0
 10
294.0080908890662
 20
186.318037912923
 30
0.0
 10
293.8013671908396
 20
186.4539374219166
 30
0.0
 10
293.6977424121947
 20
186.5220600254605
 30
0.0
  0
SPLINE
  5
3BB
330
1F
100
AcDbEntity
  8
0
  6
Continuous
 62
     7
370
    30
100
AcDbSpline
210
0.0
220
0.0
230
1.0
 70
     8
 71
     3
 72
    10
 73
     6
 74
     0
 42
0.000000001
 43
0.00000001
 40
0.0
 40
0.0
 40
0.0
 40
0.0
 40
0.0590766794019833
 40
0.5286472982126842
 40
1.0
 40
1.0
 40
1.0
 40
1.0
 10
294.4866457079684
 20
183.845956321704
 30
0.0
 10
294.4780746128757
 20
183.8325614636724
 30
0.0
 10
294.4013762217458
 20
183.7126976598826
 30
0.0
 10
294.0902106379917
 20
183.7331347511962
 30
0.0
 10
293.8090286034136
 20
183.8665641684351
 30
0.0
 10
293.6681713105917
 20
183.9334052328839
 30
0.0
  0
SPLINE
  5
3BC
330
1F
100
AcDbEntity
  8
0
  6
Continuous
 62
     7
370
    30
100
AcDbSpline
210
0.0
220
0.0
230
1.0
 70
     8
 71
     3
 72
    11
 73
     7
 74
     0
 42
0.000000001
 43
0.00000001
 40
0.0
 40
0.0
 40
0.0
 40
0.0
 40
0.2801420473422224
 40
0.5578429180994053
 40
0.7785754787955254
 40
1.0
 40
1.0
 40
1.0
 40
1.0
 10
293.6681713105917
 20
183.9334052328839
 30
0.0
 10
293.4880750584972
 20
184.0526687523921
 30
0.0
 10
293.129451925125
 20
184.2901565211025
 30
0.0
 10
292.7388711214308
 20
184.9323416556196
 30
0.0
 10
292.5994224602025
 20
185.5221618347582
 30
0.0
 10
292.5878148763662
 20
185.8509832444724
 30
0.0
 10
292.5820020017148
 20
186.0156512463842
 30
0.0
  0
SPLINE
  5
3BD
330
1F
100
AcDbEntity
  8
0
  6
Continuous
 62
     7
370
    30
100
AcDbSpline
210
0.0
220
0.0
230
1.0
 70
     8
 71
     3
 72
     9
 73
     5
 74
     0
 42
0.000000001
 43
0.00000001
 40
0.0
 40
0.0
 40
0.0
 40
0.0
 40
0.5337058791083349
 40
1.0
 40
1.0
 40
1.0
 40
1.0
 10
292.5820020017148
 20
186.0156512463842
 30
0.0
 10
292.5884916711996
 20
186.2268421283582
 30
0.0
 10
292.6006513076936
 20
186.6225486218427
 30
0.0
 10
292.8024254937966
 20
186.8330063895162
 30
0.0
 10
292.8965116105241
 20
186.9311416092783
 30
0.0
  0
LINE
  5
3BE
330
1F
100
AcDbEntity
  8
0
  6
Continuous
 62
     7
370
    30
100
AcDbLine
 10
373.2976171564
 20
196.9356917637
 30
0.0
 11
373.651170547
 21
196.7315233857
 31
0.0
  0
ARC
  5
3BF
330
1F
100
AcDbEntity
  8
0
  6
Continuous
 62
     7
370
    30
100
AcDbCircle
 10
372.5389286139
 20
193.8740949943
 30
0.0
 40
3.066264686829738
100
AcDbArc
 50
291.2682653033
 51
68.7317346967
  0
ARC
  5
3C0
330
1F
100
AcDbEntity
  8
0
  6
Continuous
 62
     7
370
    30
100
AcDbCircle
 10
292.7390258625
 20
193.8740949943
 30
0.0
 40
3.066264686829717
100
AcDbArc
 50
111.2682653033
 51
248.7317346967
  0
LINE
  5
3C1
330
1F
100
AcDbEntity
  8
0
  6
Continuous
 62
     7
370
    30
100
AcDbLine
 10
291.6267839294
 20
196.7315233857
 30
0.0
 11
291.98033732
 21
196.9356917637
 31
0.0
  0
ARC
  5
3C2
330
1F
100
AcDbEntity
  8
0
  6
Continuous
 62
     7
370
    30
100
AcDbCircle
 10
372.2285817508
 20
185.8729409014
 30
0.0
 40
3.488255133486274
100
AcDbArc
 50
294.0681184713
 51
354.6117405711
  0
ARC
  5
3C3
330
1F
100
AcDbEntity
  8
0
  6
Continuous
 62
     7
370
    30
100
AcDbCircle
 10
293.0493727256
 20
185.8729409014
 30
0.0
 40
3.488255133486372
100
AcDbArc
 50
185.3882594289
 51
245.9318815287
  0
LINE
  5
3C4
330
1F
100
AcDbEntity
  8
0
  6
Continuous
 62
     7
370
    30
100
AcDbLine
 10
294.4381573023
 20
184.9644728326
 30
0.0
 11
294.4240151667
 21
184.9563087515
 31
0.0
  0
SPLINE
  5
3C5
330
1F
100
AcDbEntity
  8
0
  6
Continuous
 62
     7
370
    30
100
AcDbSpline
210
0.0
220
0.0
230
1.0
 70
     8
 71
     3
 72
    11
 73
     7
 74
     0
 42
0.000000001
 43
0.00000001
 40
0.0
 40
0.0
 40
0.0
 40
0.0
 40
0.2813309565023496
 40
0.5607594319449282
 40
0.7798210508659746
 40
1.0
 40
1.0
 40
1.0
 40
1.0
 10
294.4240151667058
 20
184.9563087515156
 30
0.0
 10
294.4185785201932
 20
185.1101495659412
 30
0.0
 10
294.4077419921126
 20
185.4167908569665
 30
0.0
 10
294.2762652871043
 20
185.899945827446
 30
0.0
 10
293.9939487534424
 20
186.3098738318048
 30
0.0
 10
293.7872250552159
 20
186.4457733407983
 30
0.0
 10
293.6836002765709
 20
186.5138959443423
 30
0.0
  0
LINE
  5
3C6
330
1F
100
AcDbEntity
  8
0
  6
Continuous
 62
     7
370
    30
100
AcDbLine
 10
293.6977424122
 20
186.5220600255
 30
0.0
 11
293.6836002766
 21
186.5138959443
 31
0.0
  0
SPLINE
  5
3C7
330
1F
100
AcDbEntity
  8
0
  6
Continuous
 62
     7
370
    30
100
AcDbSpline
210
0.0
220
0.0
230
1.0
 70
     8
 71
     3
 72
    12
 73
     8
 74
     0
 42
0.000000001
 43
0.00000001
 40
0.0
 40
0.0
 40
0.0
 40
0.0
 40
0.1867363305969234
 40
0.3728972567901071
 40
0.5592611832371774
 40
0.7793634157163895
 40
1.0
 40
1.0
 40
1.0
 40
1.0
 10
293.6705207508619
 20
184.2519434548962
 30
0.0
 10
293.7587660684775
 20
184.2074607715304
 30
0.0
 10
293.9349847869145
 20
184.118632472566
 30
0.0
 10
294.1682618134698
 20
184.1472075774336
 30
0.0
 10
294.3317523116125
 20
184.3197029719165
 30
0.0
 10
294.4116017406587
 20
184.6058325709126
 30
0.0
 10
294.4198740149213
 20
184.839388970044
 30
0.0
 10
294.4240151667058
 20
184.9563087515156
 30
0.0
  0
SPLINE
  5
3C8
330
1F
100
AcDbEntity
  8
0
  6
Continuous
 62
     7
370
    30
100
AcDbSpline
210
0.0
220
0.0
230
1.0
 70
     8
 71
     3
 72
    12
 73
     8
 74
     0
 42
0.000000001
 43
0.00000001
 40
0.0
 40
0.0
 40
0.0
 40
0.0
 40
0.2508015418039452
 40
0.5005754275132893
 40
0.6257136751788505
 40
0.7508714256596313
 40
1.0
 40
1.0
 40
1.0
 40
1.0
 10
292.9318118858195
 20
185.8216794791211
 30
0.0
 10
292.9359051015757
 20
185.6835101873115
 30
0.0
 10
292.9440747611891
 20
185.4077377505898
 30
0.0
 10
293.0286634901166
 20
185.0239890444945
 30
0.0
 10
293.174138765682
 20
184.7233515621288
 30
0.0
 10
293.3715974759075
 20
184.4507062866806
 30
0.0
 10
293.5510652655556
 20
184.3313729022529
 30
0.0
 10
293.6705207508619
 20
184.2519434548962
 30
0.0
  0
SPLINE
  5
3C9
330
1F
100
AcDbEntity
  8
0
  6
Continuous
 62
     7
370
    30
100
AcDbSpline
210
0.0
220
0.0
230
1.0
 70
     8
 71
     3
 72
    12
 73
     8
 74
     0
 42
0.000000001
 43
0.00000001
 40
0.0
 40
0.0
 40
0.0
 40
0.0
 40
0.1867109845357358
 40
0.3728886941177338
 40
0.559310822381012
 40
0.7793857966224805
 40
1.0
 40
1.0
 40
1.0
 40
1.0
 10
293.6836002765709
 20
186.5138959443423
 30
0.0
 10
293.5961415046398
 20
186.5579426299482
 30
0.0
 10
293.4214737563248
 20
186.6459101971305
 30
0.0
 10
293.1913860328556
 20
186.6159965015072
 30
0.0
 10
293.0257724871572
 20
186.4506692934306
 30
0.0
 10
292.9450115242999
 20
186.1681892553753
 30
0.0
 10
292.9362153529904
 20
185.9372769196418
 30
0.0
 10
292.9318118858195
 20
185.8216794791211
 30
0.0
  0
LINE
  5
3CA
330
1F
100
AcDbEntity
  8
0
  6
Continuous
 62
     7
370
    30
100
AcDbLine
 10
292.5678598661
 20
186.0074871653
 30
0.0
 11
292.5820020017
 21
186.0156512464
 31
0.0
  0
LINE
  5
3CB
330
1F
100
AcDbEntity
  8
0
  6
Continuous
 62
     7
370
    30
100
AcDbLine
 10
293.654029175
 20
183.9252411518
 30
0.0
 11
293.6681713106
 21
183.9334052329
 31
0.0
  0
LINE
  5
3CC
330
1F
100
AcDbEntity
  8
0
  6
Continuous
 62
     7
370
    30
100
AcDbLine
 10
295.5158712259
 20
182.8924504498
 30
0.0
 11
295.5300133615
 21
182.9006145309
 31
0.0
  0
LINE
  5
3CD
330
1F
100
AcDbEntity
  8
0
  6
Continuous
 62
     7
370
    30
100
AcDbLine
 10
337.5887247065
 20
159.5832291969
 30
0.0
 11
337.5887247065
 21
161.8695434702
 31
0.0
  0
LINE
  5
3CE
330
1F
100
AcDbEntity
  8
0
  6
Continuous
 62
     7
370
    30
100
AcDbLine
 10
337.5887247065
 20
159.5832291969
 30
0.0
 11
336.8816179253
 21
159.9914332528
 31
0.0
  0
LINE
  5
3CF
330
1F
100
AcDbEntity
  8
0
  6
Continuous
 62
     7
370
    30
100
AcDbLine
 10
336.8816179253
 20
159.9914332528
 30
0.0
 11
336.8816179253
 21
161.5127699111
 31
0.0
  0
LINE
  5
3D0
330
1F
100
AcDbEntity
  8
0
  6
Continuous
 62
     7
370
    30
100
AcDbLine
 10
373.651170547
 20
180.4016360484
 30
0.0
 11
373.651170547
 21
182.6879503217
 31
0.0
  0
LINE
  5
3D1
330
1F
100
AcDbEntity
  8
0
  6
Continuous
 62
     7
370
    30
100
AcDbLine
 10
337.5887247065
 20
159.5832291969
 30
0.0
 11
373.651170547
 21
180.4016360484
 31
0.0
  0
ARC
  5
3D2
330
1F
100
AcDbEntity
  8
0
  6
Continuous
 62
     7
370
    30
100
AcDbCircle
 10
372.2285817508
 20
183.5866266282
 30
0.0
 40
3.488255133486274
100
AcDbArc
 50
294.0681184713
 51
354.6117405711
  0
ARC
  5
3D3
330
1F
100
AcDbEntity
  8
0
  6
Continuous
 62
     7
370
    30
100
AcDbCircle
 10
332.6389772382
 20
169.0881324173
 30
0.0
 40
10.71649127412002
100
AcDbArc
 50
242.4914255688
 51
297.5085744312
  0
LINE
  5
3D4
330
1F
100
AcDbEntity
  8
0
  6
Continuous
 62
     7
370
    30
100
AcDbLine
 10
312.4864339744
 20
168.359616399
 30
0.0
 11
327.6892297699
 21
159.5832291969
 31
0.0
  0
SPLINE
  5
3D5
330
1F
100
AcDbEntity
  8
0
  6
Continuous
 62
     7
370
    30
100
AcDbSpline
210
0.0
220
0.0
230
1.0
 70
     8
 71
     3
 72
    14
 73
    10
 74
     0
 42
0.000000001
 43
0.00000001
 40
0.0
 40
0.0
 40
0.0
 40
0.0
 40
0.25
 40
0.25
 40
0.5
 40
0.5
 40
0.75
 40
0.75
 40
1.0
 40
1.0
 40
1.0
 40
1.0
 10
329.7834336889243
 20
153.4436518291778
 30
0.0
 10
329.7834336889243
 20
153.5537716624802
 30
0.0
 10
329.7565908513425
 20
153.6686565393317
 30
0.0
 10
329.6571333559556
 20
153.8939199926001
 30
0.0
 10
329.5844505304864
 20
154.0039329836994
 30
0.0
 10
329.410869533695
 20
154.2026968754554
 30
0.0
 10
329.3085310396744
 20
154.2932330243416
 30
0.0
 10
329.0931217355339
 20
154.4433602071672
 30
0.0
 10
328.9783319302138
 20
154.5043912559967
 30
0.0
 10
328.8648675085111
 20
154.5463237841963
 30
0.0
  0
ARC
  5
3D6
330
1F
100
AcDbEntity
  8
0
  6
Continuous
 62
     7
370
    30
100
AcDbCircle
 10
331.4979645815
 20
161.7553868598
 30
0.0
 40
7.674880495701517
100
AcDbArc
 50
240.2471413628
 51
249.9353715581
  0
LINE
  5
3D7
330
1F
100
AcDbEntity
  8
0
  6
Continuous
 62
     7
370
    30
100
AcDbLine
 10
327.6892297699
 20
155.0922547316
 30
0.0
 11
327.6892297699
 21
159.5832291969
 31
0.0
  0
LINE
  5
3D8
330
1F
100
AcDbEntity
  8
0
  6
Continuous
 62
     7
370
    30
100
AcDbLine
 10
337.5887247065
 20
159.5832291969
 30
0.0
 11
337.5887247065
 21
154.2757139197
 31
0.0
  0
ARC
  5
3D9
330
1F
100
AcDbEntity
  8
0
  6
Continuous
 62
     7
370
    30
100
AcDbCircle
 10
332.6041335426
 20
164.0090464851
 30
0.0
 40
10.93544292203306
100
AcDbArc
 50
255.0520724474
 51
297.1176925935
  0
LINE
  5
3DA
330
1F
100
AcDbEntity
  8
0
  6
Continuous
 62
     7
370
    30
100
AcDbLine
 10
373.651170547
 20
175.0941207711
 30
0.0
 11
373.651170547
 21
180.4016360484
 31
0.0
  0
LINE
  5
3DB
330
1F
100
AcDbEntity
  8
0
  6
Continuous
 62
     7
370
    30
100
AcDbLine
 10
337.5887247065
 20
154.2757139197
 30
0.0
 11
373.651170547
 21
175.0941207711
 31
0.0
  0
LINE
  5
3DC
330
1F
100
AcDbEntity
  8
0
  6
Continuous
 62
     7
370
    30
100
AcDbLine
 10
310.7186670214
 20
167.3391062592
 30
0.0
 11
310.7186670214
 21
164.8891520734
 31
0.0
  0
LINE
  5
3DD
330
1F
100
AcDbEntity
  8
0
  6
Continuous
 62
     7
370
    30
100
AcDbLine
 10
327.6892297699
 20
155.0922547316
 30
0.0
 11
310.7186670214
 21
164.8891520734
 31
0.0
  0
ARC
  5
3DE
330
1F
100
AcDbEntity
  8
0
  6
Continuous
 62
     7
370
    30
100
AcDbCircle
 10
372.25710816
 20
178.2586431765
 30
0.0
 40
3.457978020834012
100
AcDbArc
 50
293.7748600604
 51
354.904998982
  0
LINE
  5
3DF
330
1F
100
AcDbEntity
  8
0
  6
Continuous
 62
     7
370
    30
100
AcDbLine
 10
291.6267839294
 20
180.4016360484
 30
0.0
 11
304.9908032652
 21
172.6867519018
 31
0.0
  0
ARC
  5
3E0
330
1F
100
AcDbEntity
  8
0
  6
Continuous
 62
     7
370
    30
100
AcDbCircle
 10
292.6641260415
 20
183.2484601183
 30
0.0
 40
3.029931672900655
100
AcDbArc
 50
157.6175016167
 51
249.9789806416
  0
LINE
  5
3E1
330
1F
100
AcDbEntity
  8
0
  6
Continuous
 62
     7
370
    30
100
AcDbLine
 10
308.5973466778
 20
166.1137642412
 30
0.0
 11
308.5973466778
 21
166.1144940915
 31
0.0
  0
LINE
  5
3E2
330
1F
100
AcDbEntity
  8
0
  6
Continuous
 62
     7
370
    30
100
AcDbLine
 10
308.5973466778
 20
166.1137642412
 30
0.0
 11
308.5967145404
 21
166.1141291663
 31
0.0
  0
LINE
  5
3E3
330
1F
100
AcDbEntity
  8
0
  6
Continuous
 62
     7
370
    30
100
AcDbLine
 10
295.6215183264
 20
173.6045505026
 30
0.0
 11
291.6267839294
 21
175.910661583
 31
0.0
  0
LINE
  5
3E4
330
1F
100
AcDbEntity
  8
0
  6
Continuous
 62
     7
370
    30
100
AcDbLine
 10
291.6267839294
 20
180.4016360484
 30
0.0
 11
291.6267839294
 21
175.910661583
 31
0.0
  0
SPLINE
  5
3E5
330
1F
100
AcDbEntity
  8
0
  6
Continuous
 62
     7
370
    30
100
AcDbSpline
210
0.0
220
0.0
230
1.0
 70
     8
 71
     3
 72
    14
 73
    10
 74
     0
 42
0.000000001
 43
0.00000001
 40
0.0
 40
0.0
 40
0.0
 40
0.0
 40
0.25
 40
0.25
 40
0.5
 40
0.5
 40
0.75
 40
0.75
 40
1.0
 40
1.0
 40
1.0
 40
1.0
 10
290.6811013244375
 20
176.5893428034095
 30
0.0
 10
290.6084094651867
 20
176.6548937639675
 30
0.0
 10
290.5406196925022
 20
176.6993433526821
 30
0.0
 10
290.418218643176
 20
176.7441856755378
 30
0.0
 10
290.3648212335999
 20
176.7437419008936
 30
0.0
 10
290.2774192603336
 20
176.6955115805303
 30
0.0
 10
290.2432261344398
 20
176.6471233490558
 30
0.0
 10
290.197466640497
 20
176.5065410463054
 30
0.0
 10
290.1854539424777
 20
176.4132853419682
 30
0.0
 10
290.1854539424777
 20
176.3030789602136
 30
0.0
  0
ARC
  5
3E6
330
1F
100
AcDbEntity
  8
0
  6
Continuous
 62
     7
370
    30
100
AcDbCircle
 10
292.2520704291
 20
178.0031580414
 30
0.0
 40
2.676036730848907
100
AcDbArc
 50
181.1050499569
 51
219.4420428921
  0
ARC
  5
3E7
330
1F
100
AcDbEntity
  8
0
  6
Continuous
 62
     7
370
    30
100
AcDbCircle
 10
294.3795453946
 20
180.7445960264
 30
0.0
 40
5.56278867897182
100
AcDbArc
 50
228.3288500051
 51
240.3399567755
  0
LINE
  5
3E8
330
1F
100
AcDbEntity
  8
0
  6
Continuous
 62
     7
370
    30
100
AcDbLine
 10
290.1854539425
 20
176.3030789602
 30
0.0
 11
290.6811910455
 21
176.5892618982
 31
0.0
  0
LINE
  5
3E9
330
1F
100
AcDbEntity
  8
0
  6
Continuous
 62
     7
370
    30
100
AcDbLine
 10
310.7186670214
 20
164.8891520734
 30
0.0
 11
308.5973466778
 21
166.1137642412
 31
0.0
  0
ENDSEC
  0
SECTION
  2
OBJECTS
  0
DICTIONARY
  5
C
330
0
100
AcDbDictionary
281
     1
  3
ACAD_GROUP
350
D
  3
ACAD_LAYOUT
350
1A
  3
ACAD_MLINESTYLE
350
17
  3
ACAD_PLOTSETTINGS
350
19
  3
ACAD_PLOTSTYLENAME
350
E
  3
ACAD_SCALELIST
350
47
  0
DICTIONARY
  5
D
102
{ACAD_REACTORS
330
C
102
}
330
C
100
AcDbDictionary
281
     1
  0
DICTIONARY
  5
1A
102
{ACAD_REACTORS
330
C
102
}
330
C
100
AcDbDictionary
281
     1
  3
Layout1
350
1E
  3
Layout2
350
26
  3
Model
350
22
  0
DICTIONARY
  5
17
102
{ACAD_REACTORS
330
C
102
}
330
C
100
AcDbDictionary
281
     1
  3
Standard
350
18
  0
DICTIONARY
  5
19
102
{ACAD_REACTORS
330
C
102
}
330
C
100
AcDbDictionary
281
     1
  0
ACDBDICTIONARYWDFLT
  5
E
102
{ACAD_REACTORS
330
C
102
}
330
C
100
AcDbDictionary
281
     1
  3
Normal
350
F
100
AcDbDictionaryWithDefault
340
F
  0
DICTIONARY
  5
47
102
{ACAD_REACTORS
330
C
102
}
330
C
100
AcDbDictionary
281
     1
  3
A0
350
48
  3
A1
350
49
  3
A2
350
4A
  3
A3
350
4B
  3
A4
350
4C
  3
A5
350
4D
  3
A6
350
4E
  3
A7
350
4F
  3
A8
350
50
  3
A9
350
51
  3
B0
350
52
  3
B1
350
53
  3
B2
350
54
  3
B3
350
55
  3
B4
350
56
  3
B5
350
57
  3
B6
350
58
  3
B7
350
59
  3
B8
350
5A
  3
B9
350
5B
  3
C0
350
5C
  3
C1
350
5D
  3
C2
350
5E
  3
C3
350
5F
  3
C4
350
60
  3
C5
350
61
  3
C6
350
62
  3
C7
350
63
  3
C8
350
64
  3
C9
350
65
  3
D0
350
66
  3
D1
350
67
  3
D2
350
68
  0
LAYOUT
  5
1E
102
{ACAD_REACTORS
330
1A
102
}
330
1A
100
AcDbPlotSettings
  1

  2
none_device
  4

  6

 40
0.0
 41
0.0
 42
0.0
 43
0.0
 44
0.0
 45
0.0
 46
0.0
 47
0.0
 48
0.0
 49
0.0
140
0.0
141
0.0
142
1.0
143
1.0
 70
   688
 72
     1
 73
     0
 74
     5
  7

 75
    16
147
1.0
148
0.0
149
0.0
100
AcDbLayout
  1
Layout1
 70
     1
 71
     1
 10
0.0
 20
0.0
 11
420.0
 21
297.0
 12
0.0
 22
0.0
 32
0.0
 14
1.0000000000E+20
 24
1.0000000000E+20
 34
1.0000000000E+20
 15
-1.0000000000E+20
 25
-1.0000000000E+20
 35
-1.0000000000E+20
146
0.0
 13
0.0
 23
0.0
 33
0.0
 16
1.0
 26
0.0
 36
0.0
 17
0.0
 27
1.0
 37
0.0
 76
     0
330
1B
  0
LAYOUT
  5
26
102
{ACAD_REACTORS
330
1A
102
}
330
1A
100
AcDbPlotSettings
  1

  2
none_device
  4

  6

 40
0.0
 41
0.0
 42
0.0
 43
0.0
 44
0.0
 45
0.0
 46
0.0
 47
0.0
 48
0.0
 49
0.0
140
0.0
141
0.0
142
1.0
143
1.0
 70
   688
 72
     1
 73
     0
 74
     5
  7

 75
    16
147
1.0
148
0.0
149
0.0
100
AcDbLayout
  1
Layout2
 70
     1
 71
     2
 10
0.0
 20
0.0
 11
0.0
 21
0.0
 12
0.0
 22
0.0
 32
0.0
 14
0.0
 24
0.0
 34
0.0
 15
0.0
 25
0.0
 35
0.0
146
0.0
 13
0.0
 23
0.0
 33
0.0
 16
1.0
 26
0.0
 36
0.0
 17
0.0
 27
1.0
 37
0.0
 76
     0
330
23
  0
LAYOUT
  5
22
102
{ACAD_REACTORS
330
1A
102
}
330
1A
100
AcDbPlotSettings
  1

  2
none_device
  4
Letter_(8.50_x_11.00_Inches)
  6

 40
6.35
 41
6.35
 42
6.35000508
 43
6.35000508
 44
215.9
 45
279.4
 46
0.0
 47
0.0
 48
0.0
 49
0.0
140
0.0
141
0.0
142
1.0
143
1.0
 70
  1712
 72
     1
 73
     0
 74
     0
  7

 75
     0
147
1.0
148
0.0
149
0.0
100
AcDbLayout
  1
Model
 70
     1
 71
     0
 10
0.0
 20
0.0
 11
445.5
 21
315.0
 12
0.0
 22
0.0
 32
0.0
 14
0.0
 24
0.0
 34
0.0
 15
445.5
 25
315.0
 35
0.0
146
0.0
 13
0.0
 23
0.0
 33
0.0
 16
1.0
 26
0.0
 36
0.0
 17
0.0
 27
1.0
 37
0.0
 76
     0
330
1F
331
29
  0
MLINESTYLE
  5
18
102
{ACAD_REACTORS
330
17
102
}
330
17
100
AcDbMlineStyle
  2
Standard
 70
     0
  3

 62
   256
 51
90.0
 52
90.0
 71
     2
 49
0.5
 62
   256
  6
BYLAYER
 49
-0.5
 62
   256
  6
BYLAYER
  0
ACDBPLACEHOLDER
  5
F
102
{ACAD_REACTORS
330
E
102
}
330
E
  0
SCALE
  5
48
102
{ACAD_REACTORS
330
47
102
}
330
47
100
AcDbScale
 70
     0
300
1:1
140
1.0
141
1.0
290
     1
  0
SCALE
  5
49
102
{ACAD_REACTORS
330
47
102
}
330
47
100
AcDbScale
 70
     0
300
1:2
140
1.0
141
2.0
290
     0
  0
SCALE
  5
4A
102
{ACAD_REACTORS
330
47
102
}
330
47
100
AcDbScale
 70
     0
300
1:4
140
1.0
141
4.0
290
     0
  0
SCALE
  5
4B
102
{ACAD_REACTORS
330
47
102
}
330
47
100
AcDbScale
 70
     0
300
1:5
140
1.0
141
5.0
290
     0
  0
SCALE
  5
4C
102
{ACAD_REACTORS
330
47
102
}
330
47
100
AcDbScale
 70
     0
300
1:8
140
1.0
141
8.0
290
     0
  0
SCALE
  5
4D
102
{ACAD_REACTORS
330
47
102
}
330
47
100
AcDbScale
 70
     0
300
1:10
140
1.0
141
10.0
290
     0
  0
SCALE
  5
4E
102
{ACAD_REACTORS
330
47
102
}
330
47
100
AcDbScale
 70
     0
300
1:16
140
1.0
141
16.0
290
     0
  0
SCALE
  5
4F
102
{ACAD_REACTORS
330
47
102
}
330
47
100
AcDbScale
 70
     0
300
1:20
140
1.0
141
20.0
290
     0
  0
SCALE
  5
50
102
{ACAD_REACTORS
330
47
102
}
330
47
100
AcDbScale
 70
     0
300
1:30
140
1.0
141
30.0
290
     0
  0
SCALE
  5
51
102
{ACAD_REACTORS
330
47
102
}
330
47
100
AcDbScale
 70
     0
300
1:40
140
1.0
141
40.0
290
     0
  0
SCALE
  5
52
102
{ACAD_REACTORS
330
47
102
}
330
47
100
AcDbScale
 70
     0
300
1:50
140
1.0
141
50.0
290
     0
  0
SCALE
  5
53
102
{ACAD_REACTORS
330
47
102
}
330
47
100
AcDbScale
 70
     0
300
1:100
140
1.0
141
100.0
290
     0
  0
SCALE
  5
54
102
{ACAD_REACTORS
330
47
102
}
330
47
100
AcDbScale
 70
     0
300
2:1
140
2.0
141
1.0
290
     0
  0
SCALE
  5
55
102
{ACAD_REACTORS
330
47
102
}
330
47
100
AcDbScale
 70
     0
300
4:1
140
4.0
141
1.0
290
     0
  0
SCALE
  5
56
102
{ACAD_REACTORS
330
47
102
}
330
47
100
AcDbScale
 70
     0
300
8:1
140
8.0
141
1.0
290
     0
  0
SCALE
  5
57
102
{ACAD_REACTORS
330
47
102
}
330
47
100
AcDbScale
 70
     0
300
10:1
140
10.0
141
1.0
290
     0
  0
SCALE
  5
58
102
{ACAD_REACTORS
330
47
102
}
330
47
100
AcDbScale
 70
     0
300
100:1
140
100.0
141
1.0
290
     0
  0
SCALE
  5
59
102
{ACAD_REACTORS
330
47
102
}
330
47
100
AcDbScale
 70
     0
300
1/128" = 1'-0"
140
0.0078125
141
12.0
290
     0
  0
SCALE
  5
5A
102
{ACAD_REACTORS
330
47
102
}
330
47
100
AcDbScale
 70
     0
300
1/64" = 1'-0"
140
0.015625
141
12.0
290
     0
  0
SCALE
  5
5B
102
{ACAD_REACTORS
330
47
102
}
330
47
100
AcDbScale
 70
     0
300
1/32" = 1'-0"
140
0.03125
141
12.0
290
     0
  0
SCALE
  5
5C
102
{ACAD_REACTORS
330
47
102
}
330
47
100
AcDbScale
 70
     0
300
1/16" = 1'-0"
140
0.0625
141
12.0
290
     0
  0
SCALE
  5
5D
102
{ACAD_REACTORS
330
47
102
}
330
47
100
AcDbScale
 70
     0
300
3/32" = 1'-0"
140
0.09375
141
12.0
290
     0
  0
SCALE
  5
5E
102
{ACAD_REACTORS
330
47
102
}
330
47
100
AcDbScale
 70
     0
300
1/8" = 1'-0"
140
0.125
141
12.0
290
     0
  0
SCALE
  5
5F
102
{ACAD_REACTORS
330
47
102
}
330
47
100
AcDbScale
 70
     0
300
3/16" = 1'-0"
140
0.1875
141
12.0
290
     0
  0
SCALE
  5
60
102
{ACAD_REACTORS
330
47
102
}
330
47
100
AcDbScale
 70
     0
300
1/4" = 1'-0"
140
0.25
141
12.0
290
     0
  0
SCALE
  5
61
102
{ACAD_REACTORS
330
47
102
}
330
47
100
AcDbScale
 70
     0
300
3/8" = 1'-0"
140
0.375
141
12.0
290
     0
  0
SCALE
  5
62
102
{ACAD_REACTORS
330
47
102
}
330
47
100
AcDbScale
 70
     0
300
1/2" = 1'-0"
140
0.5
141
12.0
290
     0
  0
SCALE
  5
63
102
{ACAD_REACTORS
330
47
102
}
330
47
100
AcDbScale
 70
     0
300
3/4" = 1'-0"
140
0.75
141
12.0
290
     0
  0
SCALE
  5
64
102
{ACAD_REACTORS
330
47
102
}
330
47
100
AcDbScale
 70
     0
300
1" = 1'-0"
140
1.0
141
12.0
290
     0
  0
SCALE
  5
65
102
{ACAD_REACTORS
330
47
102
}
330
47
100
AcDbScale
 70
     0
300
1-1/2" = 1'-0"
140
1.5
141
12.0
290
     0
  0
SCALE
  5
66
102
{ACAD_REACTORS
330
47
102
}
330
47
100
AcDbScale
 70
     0
300
3" = 1'-0"
140
3.0
141
12.0
290
     0
  0
SCALE
  5
67
102
{ACAD_REACTORS
330
47
102
}
330
47
100
AcDbScale
 70
     0
300
6" = 1'-0"
140
6.0
141
12.0
290
     0
  0
SCALE
  5
68
102
{ACAD_REACTORS
330
47
102
}
330
47
100
AcDbScale
 70
     0
300
1'-0" = 1'-0"
140
12.0
141
12.0
290
     0
  0
ENDSEC
  0
EOF
