  0
SECTION
  2
HEADER
  9
$ACADVER
  1
AC1015
  9
$ACADMAINTVER
 70
     6
  9
$DWGCODEPAGE
  3
ANSI_950
  9
$INSBASE
 10
0.0
 20
0.0
 30
0.0
  9
$EXTMIN
 10
0.0
 20
0.0
 30
0.0
  9
$EXTMAX
 10
297.0
 20
210.0
 30
0.0
  9
$LIMMIN
 10
0.0
 20
0.0
  9
$LIMMAX
 10
297.0
 20
210.0
  9
$ORTHOMODE
 70
     0
  9
$REGENMODE
 70
     1
  9
$FILLMODE
 70
     1
  9
$QTEXTMODE
 70
     0
  9
$MIRRTEXT
 70
     1
  9
$LTSCALE
 40
1.0
  9
$ATTMODE
 70
     1
  9
$TEXTSIZE
 40
2.5
  9
$TRACEWID
 40
1.0
  9
$TEXTSTYLE
  7
Standard
  9
$CLAYER
  8
0
  9
$CELTYPE
  6
ByLayer
  9
$CECOLOR
 62
   256
  9
$CELTSCALE
 40
1.0
  9
$DISPSILH
 70
     0
  9
$DIMSCALE
 40
1.0
  9
$DIMASZ
 40
2.0
  9
$DIMEXO
 40
1.0
  9
$DIMDLI
 40
3.75
  9
$DIMRND
 40
0.0
  9
$DIMDLE
 40
0.0
  9
$DIMEXE
 40
1.0
  9
$DIMTP
 40
0.0
  9
$DIMTM
 40
0.0
  9
$DIMTXT
 40
2.5
  9
$DIMCEN
 40
2.5
  9
$DIMTSZ
 40
0.0
  9
$DIMTOL
 70
     0
  9
$DIMLIM
 70
     0
  9
$DIMTIH
 70
     1
  9
$DIMTOH
 70
     1
  9
$DIMSE1
 70
     0
  9
$DIMSE2
 70
     0
  9
$DIMTAD
 70
     1
  9
$DIMZIN
 70
     0
  9
$DIMBLK
  1

  9
$DIMASO
 70
     1
  9
$DIMSHO
 70
     1
  9
$DIMPOST
  1

  9
$DIMAPOST
  1

  9
$DIMALT
 70
     0
  9
$DIMALTD
 70
     3
  9
$DIMALTF
 40
0.0393700787
  9
$DIMLFAC
 40
1.0
  9
$DIMTOFL
 70
     1
  9
$DIMTVP
 40
0.0
  9
$DIMTIX
 70
     0
  9
$DIMSOXD
 70
     0
  9
$DIMSAH
 70
     0
  9
$DIMBLK1
  1

  9
$DIMBLK2
  1

  9
$DIMSTYLE
  2
ISO-25
  9
$DIMCLRD
 70
     0
  9
$DIMCLRE
 70
     0
  9
$DIMCLRT
 70
     0
  9
$DIMTFAC
 40
1.0
  9
$DIMGAP
 40
1.0
  9
$DIMJUST
 70
     0
  9
$DIMSD1
 70
     0
  9
$DIMSD2
 70
     0
  9
$DIMTOLJ
 70
     0
  9
$DIMTZIN
 70
     0
  9
$DIMALTZ
 70
     0
  9
$DIMALTTZ
 70
     0
  9
$DIMUPT
 70
     0
  9
$DIMDEC
 70
     2
  9
$DIMTDEC
 70
     2
  9
$DIMALTU
 70
     2
  9
$DIMALTTD
 70
     3
  9
$DIMTXSTY
  7
Standard
  9
$DIMAUNIT
 70
     0
  9
$DIMADEC
 70
     1
  9
$DIMALTRND
 40
0.0
  9
$DIMAZIN
 70
     0
  9
$DIMDSEP
 70
    44
  9
$DIMATFIT
 70
     3
  9
$DIMFRAC
 70
     0
  9
$DIMLDRBLK
  1

  9
$DIMLUNIT
 70
     2
  9
$DIMLWD
 70
    -2
  9
$DIMLWE
 70
    -2
  9
$DIMTMOVE
 70
     0
  9
$LUNITS
 70
     2
  9
$LUPREC
 70
     2
  9
$SKETCHINC
 40
1.0
  9
$FILLETRAD
 40
10.0
  9
$AUNITS
 70
     0
  9
$AUPREC
 70
     1
  9
$MENU
  1
.
  9
$ELEVATION
 40
0.0
  9
$PELEVATION
 40
0.0
  9
$THICKNESS
 40
0.0
  9
$LIMCHECK
 70
     0
  9
$CHAMFERA
 40
0.0
  9
$CHAMFERB
 40
0.0
  9
$CHAMFERC
 40
0.0
  9
$CHAMFERD
 40
0.0
  9
$SKPOLY
 70
     0
  9
$TDCREATE
 40
2457449.580130532
  9
$TDUCREATE
 40
2457449.246797199
  9
$TDUPDATE
 40
2457449.580134838
  9
$TDUUPDATE
 40
2457449.246801504
  9
$TDINDWG
 40
0.0000000116
  9
$TDUSRTIMER
 40
0.0000000116
  9
$USRTIMER
 70
     1
  9
$ANGBASE
 50
0.0
  9
$ANGDIR
 70
     0
  9
$PDMODE
 70
     0
  9
$PDSIZE
 40
-1.0
  9
$PLINEWID
 40
0.0
  9
$SPLFRAME
 70
     0
  9
$SPLINETYPE
 70
     6
  9
$SPLINESEGS
 70
     8
  9
$HANDSEED
  5
39E
  9
$SURFTAB1
 70
     6
  9
$SURFTAB2
 70
     6
  9
$SURFTYPE
 70
     6
  9
$SURFU
 70
     6
  9
$SURFV
 70
     6
  9
$UCSBASE
  2

  9
$UCSNAME
  2

  9
$UCSORG
 10
0.0
 20
0.0
 30
0.0
  9
$UCSXDIR
 10
1.0
 20
0.0
 30
0.0
  9
$UCSYDIR
 10
0.0
 20
1.0
 30
0.0
  9
$UCSORTHOREF
  2

  9
$UCSORTHOVIEW
 70
     0
  9
$UCSORGTOP
 10
0.0
 20
0.0
 30
0.0
  9
$UCSORGBOTTOM
 10
0.0
 20
0.0
 30
0.0
  9
$UCSORGLEFT
 10
0.0
 20
0.0
 30
0.0
  9
$UCSORGRIGHT
 10
0.0
 20
0.0
 30
0.0
  9
$UCSORGFRONT
 10
0.0
 20
0.0
 30
0.0
  9
$UCSORGBACK
 10
0.0
 20
0.0
 30
0.0
  9
$PUCSBASE
  2

  9
$PUCSNAME
  2

  9
$PUCSORG
 10
0.0
 20
0.0
 30
0.0
  9
$PUCSXDIR
 10
1.0
 20
0.0
 30
0.0
  9
$PUCSYDIR
 10
0.0
 20
1.0
 30
0.0
  9
$PUCSORTHOREF
  2

  9
$PUCSORTHOVIEW
 70
     0
  9
$PUCSORGTOP
 10
0.0
 20
0.0
 30
0.0
  9
$PUCSORGBOTTOM
 10
0.0
 20
0.0
 30
0.0
  9
$PUCSORGLEFT
 10
0.0
 20
0.0
 30
0.0
  9
$PUCSORGRIGHT
 10
0.0
 20
0.0
 30
0.0
  9
$PUCSORGFRONT
 10
0.0
 20
0.0
 30
0.0
  9
$PUCSORGBACK
 10
0.0
 20
0.0
 30
0.0
  9
$USERI1
 70
     0
  9
$USERI2
 70
     0
  9
$USERI3
 70
     0
  9
$USERI4
 70
     0
  9
$USERI5
 70
     0
  9
$USERR1
 40
0.0
  9
$USERR2
 40
0.0
  9
$USERR3
 40
0.0
  9
$USERR4
 40
0.0
  9
$USERR5
 40
0.0
  9
$WORLDVIEW
 70
     1
  9
$SHADEDGE
 70
     3
  9
$SHADEDIF
 70
    70
  9
$TILEMODE
 70
     1
  9
$MAXACTVP
 70
    64
  9
$PINSBASE
 10
0.0
 20
0.0
 30
0.0
  9
$PLIMCHECK
 70
     0
  9
$PEXTMIN
 10
1.0000000000E+20
 20
1.0000000000E+20
 30
1.0000000000E+20
  9
$PEXTMAX
 10
-1.0000000000E+20
 20
-1.0000000000E+20
 30
-1.0000000000E+20
  9
$PLIMMIN
 10
0.0
 20
0.0
  9
$PLIMMAX
 10
420.0
 20
297.0
  9
$UNITMODE
 70
     0
  9
$VISRETAIN
 70
     1
  9
$PLINEGEN
 70
     0
  9
$PSLTSCALE
 70
     1
  9
$TREEDEPTH
 70
  3020
  9
$CMLSTYLE
  2
Standard
  9
$CMLJUST
 70
     0
  9
$CMLSCALE
 40
20.0
  9
$PROXYGRAPHICS
 70
     1
  9
$MEASUREMENT
 70
     1
  9
$CELWEIGHT
370
    -1
  9
$ENDCAPS
280
     0
  9
$JOINSTYLE
280
     0
  9
$LWDISPLAY
290
     1
  9
$INSUNITS
 70
     4
  9
$HYPERLINKBASE
  1

  9
$STYLESHEET
  1

  9
$XEDIT
290
     1
  9
$CEPSNTYPE
380
     0
  9
$PSTYLEMODE
290
     1
  9
$FINGERPRINTGUID
  2
{29880B19-50D7-424E-AAC3-634648F8717B}
  9
$VERSIONGUID
  2
{FAEB1C32-E019-11D5-929B-00C0DF256EC4}
  9
$EXTNAMES
290
     1
  9
$PSVPSCALE
 40
0.0
  9
$OLESTARTUP
290
     0
  0
ENDSEC
  0
SECTION
  2
CLASSES
  0
CLASS
  1
ACDBDICTIONARYWDFLT
  2
AcDbDictionaryWithDefault
  3
ObjectDBX Classes
 90
        0
280
     0
281
     0
  0
CLASS
  1
VISUALSTYLE
  2
AcDbVisualStyle
  3
ObjectDBX Classes
 90
     4095
280
     0
281
     0
  0
CLASS
  1
MATERIAL
  2
AcDbMaterial
  3
ObjectDBX Classes
 90
     1153
280
     0
281
     0
  0
CLASS
  1
SCALE
  2
AcDbScale
  3
ObjectDBX Classes
 90
     1153
280
     0
281
     0
  0
CLASS
  1
TABLESTYLE
  2
AcDbTableStyle
  3
ObjectDBX Classes
 90
     4095
280
     0
281
     0
  0
CLASS
  1
MLEADERSTYLE
  2
AcDbMLeaderStyle
  3
ACDB_MLEADERSTYLE_CLASS
 90
     4095
280
     0
281
     0
  0
CLASS
  1
SUN
  2
AcDbSun
  3
SCENEOE
 90
     1153
280
     0
281
     0
  0
CLASS
  1
ACDBPLACEHOLDER
  2
AcDbPlaceHolder
  3
ObjectDBX Classes
 90
        0
280
     0
281
     0
  0
CLASS
  1
LAYOUT
  2
AcDbLayout
  3
ObjectDBX Classes
 90
        0
280
     0
281
     0
  0
ENDSEC
  0
SECTION
  2
TABLES
  0
TABLE
  2
VPORT
  5
8
330
0
100
AcDbSymbolTable
 70
     1
  0
VPORT
  5
29
330
8
100
AcDbSymbolTableRecord
100
AcDbViewportTableRecord
  2
*Active
 70
     0
 10
0.0
 20
0.0
 11
1.0
 21
1.0
 12
148.5
 22
105.0
 13
0.0
 23
0.0
 14
10.0
 24
10.0
 15
10.0
 25
10.0
 16
0.0
 26
0.0
 36
1.0
 17
0.0
 27
0.0
 37
0.0
 40
210.0
 41
1.4142857143
 42
50.0
 43
0.0
 44
0.0
 50
0.0
 51
0.0
 71
     0
 72
  2000
 73
     1
 74
     3
 75
     0
 76
     0
 77
     0
 78
     0
281
     0
 65
     1
110
0.0
120
0.0
130
0.0
111
1.0
121
0.0
131
0.0
112
0.0
122
1.0
132
0.0
 79
     0
146
0.0
  0
ENDTAB
  0
TABLE
  2
LTYPE
  5
5
330
0
100
AcDbSymbolTable
 70
     6
  0
LTYPE
  5
14
330
5
100
AcDbSymbolTableRecord
100
AcDbLinetypeTableRecord
  2
ByBlock
 70
     0
  3

 72
    65
 73
     0
 40
0.0
  0
LTYPE
  5
15
330
5
100
AcDbSymbolTableRecord
100
AcDbLinetypeTableRecord
  2
ByLayer
 70
     0
  3

 72
    65
 73
     0
 40
0.0
  0
LTYPE
  5
16
330
5
100
AcDbSymbolTableRecord
100
AcDbLinetypeTableRecord
  2
Continuous
 70
     0
  3
Solid line
 72
    65
 73
     0
 40
0.0
  0
LTYPE
  5
6E
330
5
100
AcDbSymbolTableRecord
100
AcDbLinetypeTableRecord
  2
HIDDEN
 70
     0
  3
Hidden __ __ __ __ __ __ __ __ __ __ __ __ __ __
 72
    65
 73
     2
 40
1.905
 49
1.27
 74
     0
 49
-0.635
 74
     0
  0
LTYPE
  5
6F
330
5
100
AcDbSymbolTableRecord
100
AcDbLinetypeTableRecord
  2
PHANTOM
 70
     0
  3
Phantom ______  __  __  ______  __  __  ______
 72
    65
 73
     6
 40
12.7
 49
6.35
 74
     0
 49
-1.27
 74
     0
 49
1.27
 74
     0
 49
-1.27
 74
     0
 49
1.27
 74
     0
 49
-1.27
 74
     0
  0
LTYPE
  5
70
330
5
100
AcDbSymbolTableRecord
100
AcDbLinetypeTableRecord
  2
CENTER
 70
     0
  3
Center ____ _ ____ _ ____ _ ____ _ ____ _ ____
 72
    65
 73
     4
 40
10.16
 49
6.35
 74
     0
 49
-1.27
 74
     0
 49
1.27
 74
     0
 49
-1.27
 74
     0
  0
LTYPE
  5
71
330
5
100
AcDbSymbolTableRecord
100
AcDbLinetypeTableRecord
  2
CENTERX2
 70
     0
  3
Center (2x) ________  __  ________  __  _____
 72
    65
 73
     4
 40
20.32
 49
12.7
 74
     0
 49
-2.54
 74
     0
 49
2.54
 74
     0
 49
-2.54
 74
     0
  0
LTYPE
  5
72
330
5
100
AcDbSymbolTableRecord
100
AcDbLinetypeTableRecord
  2
DOT2
 70
     0
  3
Dot (.5x) ........................................
 72
    65
 73
     2
 40
0.635
 49
0.0
 74
     0
 49
-0.635
 74
     0
  0
ENDTAB
  0
TABLE
  2
LAYER
  5
2
330
0
100
AcDbSymbolTable
 70
     3
  0
LAYER
  5
10
330
2
100
AcDbSymbolTableRecord
100
AcDbLayerTableRecord
  2
0
 70
     0
 62
     7
  6
Continuous
370
    -3
390
F
  0
LAYER
  5
73
330
2
100
AcDbSymbolTableRecord
100
AcDbLayerTableRecord
  2
SLD-0
 70
     0
 62
   179
  6
Continuous
370
    15
390
F
  0
LAYER
  5
74
330
2
100
AcDbSymbolTableRecord
100
AcDbLayerTableRecord
  2
DIM
 70
     0
 62
     7
  6
Continuous
370
    -3
390
F
  0
ENDTAB
  0
TABLE
  2
STYLE
  5
3
330
0
100
AcDbSymbolTable
 70
     3
  0
STYLE
  5
11
330
3
100
AcDbSymbolTableRecord
100
AcDbTextStyleTableRecord
  2
Standard
 70
     0
 40
0.0
 41
1.0
 50
0.0
 71
     0
 42
2.5
  3
txt
  4

  0
STYLE
  5
C5
330
3
100
AcDbSymbolTableRecord
100
AcDbTextStyleTableRecord
  2
SLDTEXTSTYLE0
 70
     0
 40
0.0
 41
0.605
 50
0.0
 71
     0
 42
2.5
  3
TXT
  4

  0
STYLE
  5
CE
330
3
100
AcDbSymbolTableRecord
100
AcDbTextStyleTableRecord
  2
SLDTEXTSTYLE1
 70
     0
 40
0.0
 41
0.7
 50
0.0
 71
     0
 42
2.5
  3
TXT
  4

  0
ENDTAB
  0
TABLE
  2
VIEW
  5
6
330
0
100
AcDbSymbolTable
 70
     0
  0
ENDTAB
  0
TABLE
  2
UCS
  5
7
330
0
100
AcDbSymbolTable
 70
     0
  0
ENDTAB
  0
TABLE
  2
APPID
  5
9
330
0
100
AcDbSymbolTable
 70
     1
  0
APPID
  5
12
330
9
100
AcDbSymbolTableRecord
100
AcDbRegAppTableRecord
  2
ACAD
 70
     0
  0
ENDTAB
  0
TABLE
  2
DIMSTYLE
  5
A
330
0
100
AcDbSymbolTable
 70
     3
100
AcDbDimStyleTable
  0
DIMSTYLE
105
27
330
A
100
AcDbSymbolTableRecord
100
AcDbDimStyleTableRecord
  2
ISO-25
 70
     0
 41
2.5
 42
0.625
 43
3.75
 44
1.25
 73
     0
 74
     0
 77
     1
 78
     8
140
2.5
141
2.5
143
0.0393700787
147
0.625
171
     3
172
     1
178
     0
271
     2
272
     2
274
     3
278
    44
283
     0
284
     8
340
11
  0
DIMSTYLE
105
19C
102
{ACAD_REACTORS
330
19B
330
1E6
330
1F0
330
1FA
330
204
102
}
330
A
100
AcDbSymbolTableRecord
100
AcDbDimStyleTableRecord
  2
SLDDIMSTYLE0
 70
     0
 41
2.0
 44
0.0
 45
0.000000001
 73
     0
 74
     0
 77
     1
 78
    12
 79
     3
140
2.5
147
0.625
173
     1
178
     0
271
     2
272
     2
276
     2
284
    12
340
C5
  0
DIMSTYLE
105
214
330
A
100
AcDbSymbolTableRecord
100
AcDbDimStyleTableRecord
  2
SLDDIMSTYLE1
 70
     0
 41
2.0
 44
0.0
 45
0.000000001
146
2.0
147
0.0
173
     1
178
     0
271
     0
272
     0
276
     2
340
11
  0
ENDTAB
  0
TABLE
  2
BLOCK_RECORD
  5
1
330
0
100
AcDbSymbolTable
 70
     9
  0
BLOCK_RECORD
  5
1F
330
1
100
AcDbSymbolTableRecord
100
AcDbBlockTableRecord
  2
*Model_Space
340
22
  0
BLOCK_RECORD
  5
1B
330
1
100
AcDbSymbolTableRecord
100
AcDbBlockTableRecord
  2
*Paper_Space
340
1E
  0
BLOCK_RECORD
  5
23
330
1
100
AcDbSymbolTableRecord
100
AcDbBlockTableRecord
  2
*Paper_Space0
340
26
  0
BLOCK_RECORD
  5
C7
330
1
100
AcDbSymbolTableRecord
100
AcDbBlockTableRecord
  2
SW_NOTE_0
340
0
102
{BLKREFS
331
CD
102
}
  0
BLOCK_RECORD
  5
FE
330
1
100
AcDbSymbolTableRecord
100
AcDbBlockTableRecord
  2
SW_NOTE_1
340
0
102
{BLKREFS
331
103
102
}
  0
BLOCK_RECORD
  5
19D
330
1
100
AcDbSymbolTableRecord
100
AcDbBlockTableRecord
  2
_D
340
0
  0
BLOCK_RECORD
  5
1E7
330
1
100
AcDbSymbolTableRecord
100
AcDbBlockTableRecord
  2
_D_1
340
0
  0
BLOCK_RECORD
  5
1F1
330
1
100
AcDbSymbolTableRecord
100
AcDbBlockTableRecord
  2
_D_2
340
0
  0
BLOCK_RECORD
  5
1FB
330
1
100
AcDbSymbolTableRecord
100
AcDbBlockTableRecord
  2
_D_3
340
0
  0
BLOCK_RECORD
  5
205
330
1
100
AcDbSymbolTableRecord
100
AcDbBlockTableRecord
  2
_D_4
340
0
  0
BLOCK_RECORD
  5
20E
330
1
100
AcDbSymbolTableRecord
100
AcDbBlockTableRecord
  2
SW_NOTE_2
340
0
102
{BLKREFS
331
213
102
}
  0
ENDTAB
  0
ENDSEC
  0
SECTION
  2
BLOCKS
  0
BLOCK
  5
20
330
1F
100
AcDbEntity
  8
0
100
AcDbBlockBegin
  2
*Model_Space
 70
     0
 10
0.0
 20
0.0
 30
0.0
  3
*Model_Space
  1

  0
ENDBLK
  5
21
330
1F
100
AcDbEntity
  8
0
100
AcDbBlockEnd
  0
BLOCK
  5
1C
330
1B
100
AcDbEntity
 67
     1
  8
0
100
AcDbBlockBegin
  2
*Paper_Space
 70
     0
 10
0.0
 20
0.0
 30
0.0
  3
*Paper_Space
  1

  0
ENDBLK
  5
1D
330
1B
100
AcDbEntity
 67
     1
  8
0
100
AcDbBlockEnd
  0
BLOCK
  5
24
330
23
100
AcDbEntity
  8
0
100
AcDbBlockBegin
  2
*Paper_Space0
 70
     0
 10
0.0
 20
0.0
 30
0.0
  3
*Paper_Space0
  1

  0
ENDBLK
  5
25
330
23
100
AcDbEntity
  8
0
100
AcDbBlockEnd
  0
BLOCK
  5
C8
330
C7
100
AcDbEntity
  8
0
100
AcDbBlockBegin
  2
SW_NOTE_0
 70
     0
 10
0.0
 20
0.0
 30
0.0
  3
SW_NOTE_0
  1

  0
MTEXT
  5
CA
330
C7
100
AcDbEntity
  8
0
  6
Continuous
 62
     0
370
     0
100
AcDbMText
 10
0.0
 20
3.4106583948
 30
0.0
 40
2.6458333333
 41
0.0
 71
     1
 72
     1
  1
PROPRIETARY AND CONFIDENTIAL
  7
SLDTEXTSTYLE0
 73
     1
 44
1.0
  0
MTEXT
  5
CB
330
C7
100
AcDbEntity
  8
0
  6
Continuous
 62
     0
370
     0
100
AcDbMText
 10
0.0
 20
-0.08198348
 30
0.0
 40
1.8520833333
 41
0.0
 71
     1
 72
     1
  1
THE INFORMATION CONTAINED IN THIS DRAWING IS THE SOLE PROPERTY OF UNICE E-O SERVICES INC. ANY REPRODUCTION IN PART OR AS A WHOLE WITHOUT THE WRITTEN PERMISSION OF UNICE E-O SERVICES INC IS
  7
SLDTEXTSTYLE0
 73
     1
 44
1.0
  0
MTEXT
  5
CC
330
C7
100
AcDbEntity
  8
0
  6
Continuous
 62
     0
370
     0
100
AcDbMText
 10
0.0
 20
-2.5514278946
 30
0.0
 40
1.8520833333
 41
0.0
 71
     1
 72
     1
  1
PROHIBITED.
  7
SLDTEXTSTYLE0
 73
     1
 44
1.0
  0
ENDBLK
  5
C9
330
C7
100
AcDbEntity
  8
0
100
AcDbBlockEnd
  0
BLOCK
  5
FF
330
FE
100
AcDbEntity
  8
0
100
AcDbBlockBegin
  2
SW_NOTE_1
 70
     0
 10
0.0
 20
0.0
 30
0.0
  3
SW_NOTE_1
  1

  0
MTEXT
  5
101
330
FE
100
AcDbEntity
  8
SLD-0
 62
     0
100
AcDbMText
 10
0.0
 20
2.3874608764
 30
0.0
 40
1.8520833333
 41
0.0
 71
     1
 72
     1
  1
No.5, Andong Rd., Chung Li District,
  7
SLDTEXTSTYLE1
 73
     1
 44
1.0
  0
MTEXT
  5
102
330
FE
100
AcDbEntity
  8
SLD-0
 62
     0
100
AcDbMText
 10
0.0
 20
-0.0819835382
 30
0.0
 40
1.8520833333
 41
0.0
 71
     1
 72
     1
  1
Taoyuan City 32063, Taiwan, R.O.C.
  7
SLDTEXTSTYLE1
 73
     1
 44
1.0
  0
ENDBLK
  5
100
330
FE
100
AcDbEntity
  8
0
100
AcDbBlockEnd
  0
BLOCK
  5
19E
330
19D
100
AcDbEntity
  8
0
100
AcDbBlockBegin
  2
_D
 70
     0
 10
0.0
 20
0.0
 30
0.0
  3
_D
  1

  0
SOLID
  5
1A0
330
19D
100
AcDbEntity
  8
SLD-0
100
AcDbTrace
 10
135.6304411155
 20
127.335721326
 30
0.0
 11
137.6304411155
 21
127.085721326
 31
0.0
 12
137.6304411155
 22
127.585721326
 32
0.0
 13
137.6304411155
 23
127.585721326
 33
0.0
  0
SOLID
  5
1A1
330
19D
100
AcDbEntity
  8
SLD-0
100
AcDbTrace
 10
185.6304411155
 20
127.335721326
 30
0.0
 11
183.6304411155
 21
127.585721326
 31
0.0
 12
183.6304411155
 22
127.085721326
 32
0.0
 13
183.6304411155
 23
127.085721326
 33
0.0
  0
LINE
  5
1A2
330
19D
100
AcDbEntity
  8
SLD-0
100
AcDbLine
 10
135.6304411155
 20
120.4080775317
 30
0.0
 11
135.6304411155
 21
128.335721326
 31
0.0
  0
LINE
  5
1A3
330
19D
100
AcDbEntity
  8
SLD-0
100
AcDbLine
 10
185.6304411155
 20
120.4080775317
 30
0.0
 11
185.6304411155
 21
128.335721326
 31
0.0
  0
LINE
  5
1A4
330
19D
100
AcDbEntity
  8
SLD-0
100
AcDbLine
 10
135.6304411155
 20
127.335721326
 30
0.0
 11
185.6304411155
 21
127.335721326
 31
0.0
  0
MTEXT
  5
1A5
330
19D
100
AcDbEntity
  8
SLD-0
100
AcDbMText
 10
158.7207188907
 20
130.5583905008
 30
0.0
 40
2.5
 41
0.0
 71
     1
 72
     1
  1
50
  7
SLDTEXTSTYLE0
 73
     1
 44
1.0
  0
ENDBLK
  5
19F
330
19D
100
AcDbEntity
  8
0
100
AcDbBlockEnd
  0
BLOCK
  5
1E8
330
1E7
100
AcDbEntity
  8
0
100
AcDbBlockBegin
  2
_D_1
 70
     0
 10
0.0
 20
0.0
 30
0.0
  3
_D_1
  1

  0
SOLID
  5
1EA
330
1E7
100
AcDbEntity
  8
SLD-0
100
AcDbTrace
 10
30.2551698327
 20
119.4080775317
 30
0.0
 11
30.0051698327
 21
117.4080775317
 31
0.0
 12
30.5051698327
 22
117.4080775317
 32
0.0
 13
30.5051698327
 23
117.4080775317
 33
0.0
  0
SOLID
  5
1EB
330
1E7
100
AcDbEntity
  8
SLD-0
100
AcDbTrace
 10
30.2551698327
 20
63.9080775317
 30
0.0
 11
30.5051698327
 21
65.9080775317
 31
0.0
 12
30.0051698327
 22
65.9080775317
 32
0.0
 13
30.0051698327
 23
65.9080775317
 33
0.0
  0
LINE
  5
1EC
330
1E7
100
AcDbEntity
  8
SLD-0
100
AcDbLine
 10
39.1125899902
 20
119.4080775317
 30
0.0
 11
29.2551698327
 21
119.4080775317
 31
0.0
  0
LINE
  5
1ED
330
1E7
100
AcDbEntity
  8
SLD-0
100
AcDbLine
 10
39.1125899902
 20
63.9080775317
 30
0.0
 11
29.2551698327
 21
63.9080775317
 31
0.0
  0
LINE
  5
1EE
330
1E7
100
AcDbEntity
  8
SLD-0
100
AcDbLine
 10
30.2551698327
 20
119.4080775317
 30
0.0
 11
30.2551698327
 21
63.9080775317
 31
0.0
  0
MTEXT
  5
1EF
330
1E7
100
AcDbEntity
  8
SLD-0
100
AcDbMText
 10
27.0325006579
 20
88.3160637256
 30
0.0
 40
2.5
 41
0.0
 71
     1
 72
     1
  1
55.5
  7
SLDTEXTSTYLE0
 11
-7.044195017643634E-15
 21
1.0
 31
0.0
 73
     1
 44
1.0
  0
ENDBLK
  5
1E9
330
1E7
100
AcDbEntity
  8
0
100
AcDbBlockEnd
  0
BLOCK
  5
1F2
330
1F1
100
AcDbEntity
  8
0
100
AcDbBlockBegin
  2
_D_2
 70
     0
 10
0.0
 20
0.0
 30
0.0
  3
_D_2
  1

  0
SOLID
  5
1F4
330
1F1
100
AcDbEntity
  8
SLD-0
100
AcDbTrace
 10
40.1125899902
 20
40.9241139195
 30
0.0
 11
42.1125899902
 21
40.6741139195
 31
0.0
 12
42.1125899902
 22
41.1741139195
 32
0.0
 13
42.1125899902
 23
41.1741139195
 33
0.0
  0
SOLID
  5
1F5
330
1F1
100
AcDbEntity
  8
SLD-0
100
AcDbTrace
 10
118.1125899902
 20
40.9241139195
 30
0.0
 11
116.1125899902
 21
41.1741139195
 31
0.0
 12
116.1125899902
 22
40.6741139195
 32
0.0
 13
116.1125899902
 23
40.6741139195
 33
0.0
  0
LINE
  5
1F6
330
1F1
100
AcDbEntity
  8
SLD-0
100
AcDbLine
 10
40.1125899902
 20
62.9080775317
 30
0.0
 11
40.1125899902
 21
39.9241139195
 31
0.0
  0
LINE
  5
1F7
330
1F1
100
AcDbEntity
  8
SLD-0
100
AcDbLine
 10
118.1125899902
 20
89.2184894539
 30
0.0
 11
118.1125899902
 21
39.9241139195
 31
0.0
  0
LINE
  5
1F8
330
1F1
100
AcDbEntity
  8
SLD-0
100
AcDbLine
 10
40.1125899902
 20
40.9241139195
 30
0.0
 11
118.1125899902
 21
40.9241139195
 31
0.0
  0
MTEXT
  5
1F9
330
1F1
100
AcDbEntity
  8
SLD-0
100
AcDbMText
 10
77.2028677654
 20
44.1467830943
 30
0.0
 40
2.5
 41
0.0
 71
     1
 72
     1
  1
78
  7
SLDTEXTSTYLE0
 73
     1
 44
1.0
  0
ENDBLK
  5
1F3
330
1F1
100
AcDbEntity
  8
0
100
AcDbBlockEnd
  0
BLOCK
  5
1FC
330
1FB
100
AcDbEntity
  8
0
100
AcDbBlockBegin
  2
_D_3
 70
     0
 10
0.0
 20
0.0
 30
0.0
  3
_D_3
  1

  0
SOLID
  5
1FE
330
1FB
100
AcDbEntity
  8
SLD-0
100
AcDbTrace
 10
69.6125899902
 20
55.0151752588
 30
0.0
 11
67.6125899902
 21
55.2651752588
 31
0.0
 12
67.6125899902
 22
54.7651752588
 32
0.0
 13
67.6125899902
 23
54.7651752588
 33
0.0
  0
SOLID
  5
1FF
330
1FB
100
AcDbEntity
  8
SLD-0
100
AcDbTrace
 10
40.1125899902
 20
55.0151752588
 30
0.0
 11
42.1125899902
 21
54.7651752588
 31
0.0
 12
42.1125899902
 22
55.2651752588
 32
0.0
 13
42.1125899902
 23
55.2651752588
 33
0.0
  0
LINE
  5
200
330
1FB
100
AcDbEntity
  8
SLD-0
100
AcDbLine
 10
69.6125899902
 20
106.4080775317
 30
0.0
 11
69.6125899902
 21
54.0151752588
 31
0.0
  0
LINE
  5
201
330
1FB
100
AcDbEntity
  8
SLD-0
100
AcDbLine
 10
40.1125899902
 20
62.9080775317
 30
0.0
 11
40.1125899902
 21
54.0151752588
 31
0.0
  0
LINE
  5
202
330
1FB
100
AcDbEntity
  8
SLD-0
100
AcDbLine
 10
69.6125899902
 20
55.0151752588
 30
0.0
 11
40.1125899902
 21
55.0151752588
 31
0.0
  0
MTEXT
  5
203
330
1FB
100
AcDbEntity
  8
SLD-0
100
AcDbMText
 10
51.5205761841
 20
58.2378444336
 30
0.0
 40
2.5
 41
0.0
 71
     1
 72
     1
  1
29.5
  7
SLDTEXTSTYLE0
 73
     1
 44
1.0
  0
ENDBLK
  5
1FD
330
1FB
100
AcDbEntity
  8
0
100
AcDbBlockEnd
  0
BLOCK
  5
206
330
205
100
AcDbEntity
  8
0
100
AcDbBlockBegin
  2
_D_4
 70
     0
 10
0.0
 20
0.0
 30
0.0
  3
_D_4
  1

  0
SOLID
  5
208
330
205
100
AcDbEntity
  8
SLD-0
100
AcDbTrace
 10
40.1125899902
 20
47.9037985081
 30
0.0
 11
42.1125899902
 21
47.6537985081
 31
0.0
 12
42.1125899902
 22
48.1537985081
 32
0.0
 13
42.1125899902
 23
48.1537985081
 33
0.0
  0
SOLID
  5
209
330
205
100
AcDbEntity
  8
SLD-0
100
AcDbTrace
 10
100.7125899902
 20
47.9037985081
 30
0.0
 11
98.7125899902
 21
48.1537985081
 31
0.0
 12
98.7125899902
 22
47.6537985081
 32
0.0
 13
98.7125899902
 23
47.6537985081
 33
0.0
  0
LINE
  5
20A
330
205
100
AcDbEntity
  8
SLD-0
100
AcDbLine
 10
40.1125899902
 20
62.9080775317
 30
0.0
 11
40.1125899902
 21
46.9037985081
 31
0.0
  0
LINE
  5
20B
330
205
100
AcDbEntity
  8
SLD-0
100
AcDbLine
 10
100.7125899902
 20
62.9080775317
 30
0.0
 11
100.7125899902
 21
46.9037985081
 31
0.0
  0
LINE
  5
20C
330
205
100
AcDbEntity
  8
SLD-0
100
AcDbLine
 10
40.1125899902
 20
47.9037985081
 30
0.0
 11
100.7125899902
 21
47.9037985081
 31
0.0
  0
MTEXT
  5
20D
330
205
100
AcDbEntity
  8
SLD-0
100
AcDbMText
 10
67.0705761841
 20
51.1264676829
 30
0.0
 40
2.5
 41
0.0
 71
     1
 72
     1
  1
60.6
  7
SLDTEXTSTYLE0
 73
     1
 44
1.0
  0
ENDBLK
  5
207
330
205
100
AcDbEntity
  8
0
100
AcDbBlockEnd
  0
BLOCK
  5
20F
330
20E
100
AcDbEntity
  8
0
100
AcDbBlockBegin
  2
SW_NOTE_2
 70
     0
 10
0.0
 20
0.0
 30
0.0
  3
SW_NOTE_2
  1

  0
LINE
  5
211
330
20E
100
AcDbEntity
  8
SLD-0
 62
     0
100
AcDbLine
 10
21.2582764144
 20
0.0
 30
0.0
 11
0.0
 21
0.0
 31
0.0
  0
MTEXT
  5
212
330
20E
100
AcDbEntity
  8
SLD-0
 62
     0
100
AcDbMText
 10
0.4937516976
 20
3.2242373378
 30
0.0
 40
2.5
 41
0.0
 71
     1
 72
     1
  1
M6 Set Screw
  7
SLDTEXTSTYLE0
 73
     1
 44
1.0
  0
ENDBLK
  5
210
330
20E
100
AcDbEntity
  8
0
100
AcDbBlockEnd
  0
ENDSEC
  0
SECTION
  2
ENTITIES
  0
HATCH
  5
75
330
1F
100
AcDbEntity
  8
DIM
 62
     7
100
AcDbHatch
 10
0.0
 20
0.0
 30
0.0
210
0.0
220
0.0
230
1.0
  2
SOLID
 70
     1
 71
     0
 91
        1
 92
        0
 93
       10
 72
     2
 10
192.3134032382553
 20
35.23611498956974
 40
3.045751395731247
 50
249.2112209143416
 51
308.9221353953371
 73
     1
 72
     1
 10
194.2269381994899
 20
32.86651892341587
 11
195.191757860707
 21
32.01923213977352
 72
     1
 10
195.191757860707
 20
32.01923213977352
 11
191.9816178875512
 21
28.90219242701112
 72
     1
 10
191.9816178875512
 20
28.90219242701112
 11
191.0408174320573
 21
29.71218949712112
 72
     1
 10
191.0408174320573
 20
29.71218949712112
 11
191.6718693524724
 21
30.32808988759214
 72
     1
 10
191.6718693524724
 20
30.32808988759214
 11
187.6626670422768
 21
33.81269372786683
 72
     2
 10
188.6776084718175
 20
34.96025410362734
 40
1.531992467805808
 50
131.4906380929588
 51
229.7089352075133
 73
     0
 72
     1
 10
187.686913624302
 20
36.12881075202738
 11
188.9935418791837
 21
37.3903978285349
 72
     1
 10
188.9935418791837
 20
37.3903978285349
 11
190.0087357265861
 21
36.49486592771711
 72
     2
 10
191.9820060299588
 20
34.84747324032232
 40
2.570544369711283
 50
140.1430462780655
 51
253.045252507401
 73
     1
 97
        0
 75
     0
 76
     1
 98
        1
 10
0.0
 20
0.0
  0
HATCH
  5
76
330
1F
100
AcDbEntity
  8
DIM
 62
     1
100
AcDbHatch
 10
0.0
 20
0.0
 30
0.0
210
0.0
220
0.0
230
1.0
  2
SOLID
 70
     1
 71
     0
 91
        1
 92
        0
 93
       10
 72
     2
 10
192.4465686772192
 20
34.4819153508677
 40
3.18163670452787
 50
234.1674444878509
 51
314.4407074583991
 73
     0
 72
     2
 10
192.7642249679437
 20
35.02273715634588
 40
2.57756748834625
 50
317.8184992995781
 51
398.056471157308
 73
     0
 72
     1
 10
194.7938108109912
 20
33.43382700700424
 11
195.779259703974
 21
32.57513006711474
 72
     1
 10
195.779259703974
 20
32.57513006711474
 11
197.0209410187677
 21
33.77956300952197
 72
     2
 10
196.1275486931056
 20
35.00750974134289
 40
1.518552937418266
 50
306.0377529468128
 51
403.4396461533869
 73
     1
 72
     1
 10
197.2301685577779
 20
36.05165171338103
 11
193.1034126994346
 21
39.64082798201499
 72
     1
 10
193.1034126994346
 20
39.64082798201499
 11
193.7276640013619
 21
40.24988641285231
 72
     1
 10
193.7276640013619
 20
40.24988641285231
 11
192.7971574911778
 21
41.08007863269685
 72
     1
 10
192.7971574911778
 20
41.08007863269685
 11
189.561572042768
 21
37.95315838608273
 72
     1
 10
189.561572042768
 20
37.95315838608273
 11
190.5839799201165
 21
37.06136785896194
 97
        0
 75
     0
 76
     1
 98
        1
 10
0.0
 20
0.0
  0
LINE
  5
77
330
1F
100
AcDbEntity
  8
0
  6
Continuous
 62
     7
370
     0
100
AcDbLine
 10
167.8593775185
 20
17.7745192513
 30
0.0
 11
168.8593775185
 21
17.7745192513
 31
0.0
  0
LINE
  5
78
330
1F
100
AcDbEntity
  8
0
  6
Continuous
 62
     7
370
     0
100
AcDbLine
 10
164.8593775185
 20
17.7745192513
 30
0.0
 11
167.3593775185
 21
17.7745192513
 31
0.0
  0
LINE
  5
79
330
1F
100
AcDbEntity
  8
0
  6
Continuous
 62
     7
370
     0
100
AcDbLine
 10
181.3593775185
 20
15.2745192513
 30
0.0
 11
181.3593775185
 21
20.2745192513
 31
0.0
  0
LINE
  5
7A
330
1F
100
AcDbEntity
  8
0
  6
Continuous
 62
     7
370
     0
100
AcDbLine
 10
174.3593775185
 20
16.2745192513
 30
0.0
 11
181.3593775185
 21
15.2745192513
 31
0.0
  0
LINE
  5
7B
330
1F
100
AcDbEntity
  8
0
  6
Continuous
 62
     7
370
     0
100
AcDbLine
 10
168.3593775185
 20
16.7745192513
 30
0.0
 11
168.3593775185
 21
14.2745192513
 31
0.0
  0
LINE
  5
7C
330
1F
100
AcDbEntity
  8
0
  6
Continuous
 62
     7
370
     0
100
AcDbLine
 10
181.3593775185
 20
20.2745192513
 30
0.0
 11
174.3593775185
 21
19.2745192513
 31
0.0
  0
LINE
  5
7D
330
1F
100
AcDbEntity
  8
0
  6
Continuous
 62
     7
370
     0
100
AcDbLine
 10
173.3593775185
 20
17.7745192513
 30
0.0
 11
182.3593775185
 21
17.7745192513
 31
0.0
  0
LINE
  5
7E
330
1F
100
AcDbEntity
  8
0
  6
Continuous
 62
     7
370
     0
100
AcDbLine
 10
168.3593775185
 20
18.2745192513
 30
0.0
 11
168.3593775185
 21
17.2745192513
 31
0.0
  0
LINE
  5
7F
330
1F
100
AcDbEntity
  8
0
  6
Continuous
 62
     7
370
     0
100
AcDbLine
 10
169.3593775185
 20
17.7745192513
 30
0.0
 11
171.8593775185
 21
17.7745192513
 31
0.0
  0
LINE
  5
80
330
1F
100
AcDbEntity
  8
0
  6
Continuous
 62
     7
370
     0
100
AcDbLine
 10
168.3593775185
 20
21.2745192513
 30
0.0
 11
168.3593775185
 21
18.7745192513
 31
0.0
  0
LINE
  5
81
330
1F
100
AcDbEntity
  8
0
  6
Continuous
 62
     7
370
     0
100
AcDbLine
 10
174.3593775185
 20
19.2745192513
 30
0.0
 11
174.3593775185
 21
16.2745192513
 31
0.0
  0
LINE
  5
82
330
1F
100
AcDbEntity
  8
0
370
     0
100
AcDbLine
 10
195.1917578607
 20
32.0192321398
 30
0.0
 11
191.9816178876
 21
28.902192427
 31
0.0
  0
LINE
  5
83
330
1F
100
AcDbEntity
  8
0
370
     0
100
AcDbLine
 10
191.9816178876
 20
28.902192427
 30
0.0
 11
191.0408174321
 21
29.7121894971
 31
0.0
  0
LINE
  5
84
330
1F
100
AcDbEntity
  8
0
370
     0
100
AcDbLine
 10
191.0408174321
 20
29.7121894971
 30
0.0
 11
191.6718693525
 21
30.3280898876
 31
0.0
  0
LINE
  5
85
330
1F
100
AcDbEntity
  8
0
370
     0
100
AcDbLine
 10
187.6626670423
 20
33.8126937279
 30
0.0
 11
191.6718693525
 21
30.3280898876
 31
0.0
  0
LINE
  5
86
330
1F
100
AcDbEntity
  8
0
370
     0
100
AcDbLine
 10
188.9935418792
 20
37.3903978285
 30
0.0
 11
187.6869136243
 21
36.128810752
 31
0.0
  0
LINE
  5
87
330
1F
100
AcDbEntity
  8
0
370
     0
100
AcDbLine
 10
188.9935418792
 20
37.3903978285
 30
0.0
 11
190.0087357266
 21
36.4948659277
 31
0.0
  0
LINE
  5
88
330
1F
100
AcDbEntity
  8
0
370
     0
100
AcDbLine
 10
194.2269381995
 20
32.8665189234
 30
0.0
 11
195.1917578607
 21
32.0192321398
 31
0.0
  0
LINE
  5
89
330
1F
100
AcDbEntity
  8
0
 62
     1
370
     0
100
AcDbLine
 10
190.5839799201
 20
37.061367859
 30
0.0
 11
189.5615720428
 21
37.9531583861
 31
0.0
  0
LINE
  5
8A
330
1F
100
AcDbEntity
  8
0
 62
     1
370
     0
100
AcDbLine
 10
189.5615720428
 20
37.9531583861
 30
0.0
 11
192.7971574912
 21
41.0800786327
 31
0.0
  0
LINE
  5
8B
330
1F
100
AcDbEntity
  8
0
 62
     1
370
     0
100
AcDbLine
 10
192.7971574912
 20
41.0800786327
 30
0.0
 11
193.7276640014
 21
40.2498864129
 31
0.0
  0
LINE
  5
8C
330
1F
100
AcDbEntity
  8
0
 62
     1
370
     0
100
AcDbLine
 10
193.7276640014
 20
40.2498864129
 30
0.0
 11
193.1034126994
 21
39.640827982
 31
0.0
  0
LINE
  5
8D
330
1F
100
AcDbEntity
  8
0
 62
     1
370
     0
100
AcDbLine
 10
193.1034126994
 20
39.640827982
 30
0.0
 11
197.2301685578
 21
36.0516517134
 31
0.0
  0
LINE
  5
8E
330
1F
100
AcDbEntity
  8
0
 62
     1
370
     0
100
AcDbLine
 10
194.793810811
 20
33.433827007
 30
0.0
 11
195.779259704
 21
32.5751300671
 31
0.0
  0
LINE
  5
8F
330
1F
100
AcDbEntity
  8
0
 62
     1
370
     0
100
AcDbLine
 10
195.779259704
 20
32.5751300671
 30
0.0
 11
197.0209410188
 21
33.7795630095
 31
0.0
  0
LINE
  5
90
330
1F
100
AcDbEntity
  8
0
  6
Continuous
 62
     7
370
     0
100
AcDbLine
 10
185.6907965209
 20
13.1152464079
 30
0.0
 11
285.6907965209
 21
13.1152464079
 31
0.0
  0
LINE
  5
91
330
1F
100
AcDbEntity
  8
0
  6
Continuous
 62
     7
370
     0
100
AcDbLine
 10
185.6907965209
 20
18.1152464079
 30
0.0
 11
235.6907965209
 21
18.1152464079
 31
0.0
  0
LINE
  5
92
330
1F
100
AcDbEntity
  8
0
  6
Continuous
 62
     7
370
     0
100
AcDbLine
 10
185.6907965209
 20
23.1152464079
 30
0.0
 11
235.6907965209
 21
23.1152464079
 31
0.0
  0
LINE
  5
93
330
1F
100
AcDbEntity
  8
0
  6
Continuous
 62
     7
370
     0
100
AcDbLine
 10
185.6907965209
 20
28.1152464079
 30
0.0
 11
285.6907965209
 21
28.1152464079
 31
0.0
  0
LINE
  5
94
330
1F
100
AcDbEntity
  8
0
  6
Continuous
 62
     7
370
     0
100
AcDbLine
 10
235.6907965209
 20
33.1152464079
 30
0.0
 11
285.6907965209
 21
33.1152464079
 31
0.0
  0
LINE
  5
95
330
1F
100
AcDbEntity
  8
0
  6
Continuous
 62
     7
370
    15
100
AcDbLine
 10
235.6907965209
 20
18.1152464079
 30
0.0
 11
285.6907965209
 21
18.1152464079
 31
0.0
  0
LINE
  5
96
330
1F
100
AcDbEntity
  8
0
  6
Continuous
 62
     7
370
     0
100
AcDbLine
 10
185.6907965209
 20
43.1152464079
 30
0.0
 11
285.6907965209
 21
43.1152464079
 31
0.0
  0
LINE
  5
97
330
1F
100
AcDbEntity
  8
0
  6
Continuous
 62
     7
370
     0
100
AcDbLine
 10
251.237217675
 20
8.1152464079
 30
0.0
 11
251.237217675
 21
18.1152464079
 31
0.0
  0
LINE
  5
98
330
1F
100
AcDbEntity
  8
0
  6
Continuous
 62
     7
370
     0
100
AcDbLine
 10
235.6907965209
 20
8.1152464079
 30
0.0
 11
235.6907965209
 21
43.1152464079
 31
0.0
  0
LINE
  5
99
330
1F
100
AcDbEntity
  8
0
  6
Continuous
 62
     7
370
     0
100
AcDbLine
 10
251.237217675
 20
28.1152464079
 30
0.0
 11
251.237217675
 21
33.1152464079
 31
0.0
  0
LINE
  5
9A
330
1F
100
AcDbEntity
  8
0
  6
Continuous
 62
     7
370
     0
100
AcDbLine
 10
214.4164086353
 20
8.1152464079
 30
0.0
 11
214.4164086353
 21
28.1152464079
 31
0.0
  0
LINE
  5
9B
330
1F
100
AcDbEntity
  8
0
  6
Continuous
 62
     7
370
     0
100
AcDbLine
 10
199.7785887506
 20
8.1152464079
 30
0.0
 11
199.7785887506
 21
28.1152464079
 31
0.0
  0
LINE
  5
9C
330
1F
100
AcDbEntity
  8
0
  6
Continuous
 62
     7
370
     0
100
AcDbLine
 10
185.6907965209
 20
8.1152464079
 30
0.0
 11
185.6907965209
 21
43.1152464079
 31
0.0
  0
LINE
  5
9D
330
1F
100
AcDbEntity
  8
0
  6
Continuous
 62
     7
370
    15
100
AcDbLine
 10
8.6907965209
 20
104.7436369915
 30
0.0
 11
14.6907965209
 21
104.7436369915
 31
0.0
  0
LINE
  5
9E
330
1F
100
AcDbEntity
  8
0
  6
Continuous
 62
     7
370
    15
100
AcDbLine
 10
285.6907965209
 20
104.7436369915
 30
0.0
 11
279.6907965209
 21
104.7436369915
 31
0.0
  0
LINE
  5
9F
330
1F
100
AcDbEntity
  8
0
  6
Continuous
 62
     7
370
    15
100
AcDbLine
 10
147.1907965209
 20
8.1152464079
 30
0.0
 11
147.1907965209
 21
10.1152464079
 31
0.0
  0
LINE
  5
A0
330
1F
100
AcDbEntity
  8
0
  6
Continuous
 62
     7
370
    15
100
AcDbLine
 10
147.1907965209
 20
201.3720275751
 30
0.0
 11
147.1907965209
 21
195.3720275751
 31
0.0
  0
LINE
  5
A1
330
1F
100
AcDbEntity
  8
0
  6
Continuous
 62
     7
370
    15
100
AcDbLine
 10
43.3207965209
 20
201.3720275751
 30
0.0
 11
43.3207965209
 21
202.8720275751
 31
0.0
  0
LINE
  5
A2
330
1F
100
AcDbEntity
  8
0
  6
Continuous
 62
     7
370
    15
100
AcDbLine
 10
77.9507965209
 20
201.3720275751
 30
0.0
 11
77.9507965209
 21
202.8720275751
 31
0.0
  0
LINE
  5
A3
330
1F
100
AcDbEntity
  8
0
  6
Continuous
 62
     7
370
    15
100
AcDbLine
 10
112.5807965209
 20
201.3720275751
 30
0.0
 11
112.5807965209
 21
202.8720275751
 31
0.0
  0
LINE
  5
A4
330
1F
100
AcDbEntity
  8
0
  6
Continuous
 62
     7
370
    15
100
AcDbLine
 10
147.2107965209
 20
201.3720275751
 30
0.0
 11
147.2107965209
 21
202.8720275751
 31
0.0
  0
LINE
  5
A5
330
1F
100
AcDbEntity
  8
0
  6
Continuous
 62
     7
370
    15
100
AcDbLine
 10
181.8407965209
 20
201.3720275751
 30
0.0
 11
181.8407965209
 21
202.8720275751
 31
0.0
  0
LINE
  5
A6
330
1F
100
AcDbEntity
  8
0
  6
Continuous
 62
     7
370
    15
100
AcDbLine
 10
216.4707965209
 20
201.3720275751
 30
0.0
 11
216.4707965209
 21
202.8720275751
 31
0.0
  0
LINE
  5
A7
330
1F
100
AcDbEntity
  8
0
  6
Continuous
 62
     7
370
    15
100
AcDbLine
 10
251.1007965209
 20
201.3720275751
 30
0.0
 11
251.1007965209
 21
202.8720275751
 31
0.0
  0
LINE
  5
A8
330
1F
100
AcDbEntity
  8
0
  6
Continuous
 62
     7
370
    15
100
AcDbLine
 10
43.3157965209
 20
8.1152464079
 30
0.0
 11
43.3157965209
 21
6.6152464079
 31
0.0
  0
LINE
  5
A9
330
1F
100
AcDbEntity
  8
0
  6
Continuous
 62
     7
370
    15
100
AcDbLine
 10
77.9407965209
 20
8.1152464079
 30
0.0
 11
77.9407965209
 21
6.6152464079
 31
0.0
  0
LINE
  5
AA
330
1F
100
AcDbEntity
  8
0
  6
Continuous
 62
     7
370
    15
100
AcDbLine
 10
112.5657965209
 20
8.1152464079
 30
0.0
 11
112.5657965209
 21
6.6152464079
 31
0.0
  0
LINE
  5
AB
330
1F
100
AcDbEntity
  8
0
  6
Continuous
 62
     7
370
    15
100
AcDbLine
 10
147.1907965209
 20
8.1152464079
 30
0.0
 11
147.1907965209
 21
6.6152464079
 31
0.0
  0
LINE
  5
AC
330
1F
100
AcDbEntity
  8
0
  6
Continuous
 62
     7
370
    15
100
AcDbLine
 10
181.8157965209
 20
8.1152464079
 30
0.0
 11
181.8157965209
 21
6.6152464079
 31
0.0
  0
LINE
  5
AD
330
1F
100
AcDbEntity
  8
0
  6
Continuous
 62
     7
370
    15
100
AcDbLine
 10
216.4407965209
 20
8.1152464079
 30
0.0
 11
216.4407965209
 21
6.6152464079
 31
0.0
  0
LINE
  5
AE
330
1F
100
AcDbEntity
  8
0
  6
Continuous
 62
     7
370
     0
100
AcDbLine
 10
285.6907965209
 20
201.3720275751
 30
0.0
 11
8.6907965209
 21
201.3720275751
 31
0.0
  0
LINE
  5
AF
330
1F
100
AcDbEntity
  8
0
  6
Continuous
 62
     7
370
     0
100
AcDbLine
 10
285.6907965209
 20
8.1152464079
 30
0.0
 11
285.6907965209
 21
201.3720275751
 31
0.0
  0
LINE
  5
B0
330
1F
100
AcDbEntity
  8
0
  6
Continuous
 62
     7
370
     0
100
AcDbLine
 10
8.6907965209
 20
201.3720275751
 30
0.0
 11
8.6907965209
 21
8.1152464079
 31
0.0
  0
LINE
  5
B1
330
1F
100
AcDbEntity
  8
0
  6
Continuous
 62
     7
370
     0
100
AcDbLine
 10
8.6907965209
 20
8.1152464079
 30
0.0
 11
285.6907965209
 21
8.1152464079
 31
0.0
  0
LINE
  5
B2
330
1F
100
AcDbEntity
  8
0
  6
Continuous
 62
     7
370
    15
100
AcDbLine
 10
251.0657965209
 20
8.1152464079
 30
0.0
 11
251.0657965209
 21
6.6152464079
 31
0.0
  0
LINE
  5
B3
330
1F
100
AcDbEntity
  8
0
  6
Continuous
 62
     7
370
    15
100
AcDbLine
 10
8.6907965209
 20
40.3252464079
 30
0.0
 11
7.1907965209
 21
40.3252464079
 31
0.0
  0
LINE
  5
B4
330
1F
100
AcDbEntity
  8
0
  6
Continuous
 62
     7
370
    15
100
AcDbLine
 10
8.6907965209
 20
72.5352464079
 30
0.0
 11
7.1907965209
 21
72.5352464079
 31
0.0
  0
LINE
  5
B5
330
1F
100
AcDbEntity
  8
0
  6
Continuous
 62
     7
370
    15
100
AcDbLine
 10
8.6907965209
 20
104.7452464079
 30
0.0
 11
7.1907965209
 21
104.7452464079
 31
0.0
  0
LINE
  5
B6
330
1F
100
AcDbEntity
  8
0
  6
Continuous
 62
     7
370
    15
100
AcDbLine
 10
8.6907965209
 20
136.9552464079
 30
0.0
 11
7.1907965209
 21
136.9552464079
 31
0.0
  0
LINE
  5
B7
330
1F
100
AcDbEntity
  8
0
  6
Continuous
 62
     7
370
    15
100
AcDbLine
 10
8.6907965209
 20
169.1652464079
 30
0.0
 11
7.1907965209
 21
169.1652464079
 31
0.0
  0
LINE
  5
B8
330
1F
100
AcDbEntity
  8
0
  6
Continuous
 62
     7
370
    15
100
AcDbLine
 10
285.6907965209
 20
40.3252464079
 30
0.0
 11
287.1907965209
 21
40.3252464079
 31
0.0
  0
LINE
  5
B9
330
1F
100
AcDbEntity
  8
0
  6
Continuous
 62
     7
370
    15
100
AcDbLine
 10
285.6907965209
 20
72.5352464079
 30
0.0
 11
287.1907965209
 21
72.5352464079
 31
0.0
  0
LINE
  5
BA
330
1F
100
AcDbEntity
  8
0
  6
Continuous
 62
     7
370
    15
100
AcDbLine
 10
285.6907965209
 20
104.7452464079
 30
0.0
 11
287.1907965209
 21
104.7452464079
 31
0.0
  0
LINE
  5
BB
330
1F
100
AcDbEntity
  8
0
  6
Continuous
 62
     7
370
    15
100
AcDbLine
 10
285.6907965209
 20
136.9552464079
 30
0.0
 11
287.1907965209
 21
136.9552464079
 31
0.0
  0
LINE
  5
BC
330
1F
100
AcDbEntity
  8
0
  6
Continuous
 62
     7
370
    15
100
AcDbLine
 10
285.6907965209
 20
169.1652464079
 30
0.0
 11
287.1907965209
 21
169.1652464079
 31
0.0
  0
CIRCLE
  5
BD
330
1F
100
AcDbEntity
  8
0
  6
Continuous
 62
     7
370
     0
100
AcDbCircle
 10
168.3593775185
 20
17.7745192513
 30
0.0
 40
1.5
  0
CIRCLE
  5
BE
330
1F
100
AcDbEntity
  8
0
  6
Continuous
 62
     7
370
     0
100
AcDbCircle
 10
168.3593775185
 20
17.7745192513
 30
0.0
 40
2.5
  0
ARC
  5
BF
330
1F
100
AcDbEntity
  8
0
370
     0
100
AcDbCircle
 10
188.6776084718
 20
34.9602541036
 30
0.0
 40
1.531992467805816
100
AcDbArc
 50
130.2910647925
 51
228.509361907
  0
ARC
  5
C0
330
1F
100
AcDbEntity
  8
0
370
     0
100
AcDbCircle
 10
191.98200603
 20
34.8474732403
 30
0.0
 40
2.570544369711286
100
AcDbArc
 50
140.1430462781
 51
253.0452525074
  0
ARC
  5
C1
330
1F
100
AcDbEntity
  8
0
370
     0
100
AcDbCircle
 10
192.3134032383
 20
35.2361149896
 30
0.0
 40
3.045751395731261
100
AcDbArc
 50
249.2112209143
 51
308.9221353953
  0
ARC
  5
C2
330
1F
100
AcDbEntity
  8
0
 62
     1
370
     0
100
AcDbCircle
 10
196.1275486931
 20
35.0075097413
 30
0.0
 40
1.518552937418275
100
AcDbArc
 50
306.0377529468
 51
43.4396461534
  0
ARC
  5
C3
330
1F
100
AcDbEntity
  8
0
 62
     1
370
     0
100
AcDbCircle
 10
192.4465686772
 20
34.4819153509
 30
0.0
 40
3.18163670452787
100
AcDbArc
 50
45.5592925416
 51
125.8325555121
  0
ARC
  5
C4
330
1F
100
AcDbEntity
  8
0
 62
     1
370
     0
100
AcDbCircle
 10
192.7642249679
 20
35.0227371563
 30
0.0
 40
2.57756748834625
100
AcDbArc
 50
321.9435288427
 51
42.1815007004
  0
MTEXT
  5
C6
330
1F
100
AcDbEntity
  8
0
  6
Continuous
 62
     7
370
     0
100
AcDbMText
 10
165.5426850804
 20
13.2208440369
 30
0.0
 40
2.6458333333
 41
0.0
 71
     1
 72
     1
  1
UNIT:m/m
  7
SLDTEXTSTYLE0
 73
     1
 44
1.0
  0
INSERT
  5
CD
330
1F
100
AcDbEntity
  8
0
  6
Continuous
 62
     7
370
     0
100
AcDbBlockReference
  2
SW_NOTE_0
 10
12.2315076053
 20
193.8904304251
 30
0.0
  0
MTEXT
  5
CF
330
1F
100
AcDbEntity
  8
0
  6
Continuous
 62
     7
370
     0
100
AcDbMText
 10
198.7251893935
 20
40.4406774139
 30
0.0
 40
2.38125
 41
0.0
 71
     1
 72
     1
  1
Unice E-O Services Inc.
  7
SLDTEXTSTYLE1
 73
     1
 44
1.0
  0
MTEXT
  5
D0
330
1F
100
AcDbEntity
  8
0
  6
Continuous
 62
     7
370
     0
100
AcDbMText
 10
217.5590538149
 20
21.5867148511
 30
0.0
 40
1.8520833333
 41
0.0
 71
     1
 72
     1
  1
2010/12/30
  7
SLDTEXTSTYLE0
 73
     1
 44
1.0
  0
MTEXT
  5
D1
330
1F
100
AcDbEntity
  8
0
  6
Continuous
 62
     7
370
     0
100
AcDbMText
 10
252.6088982507
 20
16.87117774
 30
0.0
 40
2.5
 41
0.0
 71
     1
 72
     1
  1
1:1
  7
SLDTEXTSTYLE0
 73
     1
 44
1.0
  0
MTEXT
  5
D2
330
1F
100
AcDbEntity
  8
0
  6
Continuous
 62
     7
370
     0
100
AcDbMText
 10
252.3075599985
 20
32.1519195438
 30
0.0
 40
2.5
 41
0.0
 71
     1
 72
     1
  1
07MBH-1M
  7
SLDTEXTSTYLE0
 73
     1
 44
1.0
  0
MTEXT
  5
D3
330
1F
100
AcDbEntity
  8
0
  6
Continuous
 62
     7
370
     0
100
AcDbMText
 10
252.3075599985
 20
38.1082117879
 30
0.0
 40
2.5
 41
0.0
 71
     1
 72
     1
  1
07MBH-1M
  7
SLDTEXTSTYLE0
 73
     1
 44
1.0
  0
MTEXT
  5
D4
330
1F
100
AcDbEntity
  8
0
  6
Continuous
 62
     7
370
     0
100
AcDbMText
 10
236.3921866786
 20
16.5064795728
 30
0.0
 40
2.1166666667
 41
0.0
 71
     1
 72
     1
  1
SCALE:
  7
SLDTEXTSTYLE0
 73
     1
 44
1.0
  0
MTEXT
  5
D5
330
1F
100
AcDbEntity
  8
0
  6
Continuous
 62
     7
370
     0
100
AcDbMText
 10
186.3336086789
 20
21.5867148511
 30
0.0
 40
1.8520833333
 41
0.0
 71
     1
 72
     1
  1
DRAWN
  7
SLDTEXTSTYLE0
 73
     1
 44
1.0
  0
MTEXT
  5
D6
330
1F
100
AcDbEntity
  8
0
  6
Continuous
 62
     7
370
     0
100
AcDbMText
 10
203.2228367937
 20
26.683208308
 30
0.0
 40
1.8520833333
 41
0.0
 71
     1
 72
     1
  1
NAME
  7
SLDTEXTSTYLE0
 73
     1
 44
1.0
  0
MTEXT
  5
D7
330
1F
100
AcDbEntity
  8
0
  6
Continuous
 62
     7
370
     0
100
AcDbMText
 10
220.8710155758
 20
26.683208308
 30
0.0
 40
1.8520833333
 41
0.0
 71
     1
 72
     1
  1
DATE
  7
SLDTEXTSTYLE0
 73
     1
 44
1.0
  0
MTEXT
  5
D8
330
1F
100
AcDbEntity
  8
0
  6
Continuous
 62
     7
370
     0
100
AcDbMText
 10
236.2756316645
 20
31.7872213766
 30
0.0
 40
2.1166666667
 41
0.0
 71
     1
 72
     1
  1
DWG. NO.
  7
SLDTEXTSTYLE0
 73
     1
 44
1.0
  0
MTEXT
  5
D9
330
1F
100
AcDbEntity
  8
0
  6
Continuous
 62
     7
370
     0
100
AcDbMText
 10
236.3629907088
 20
41.8840658243
 30
0.0
 40
2.1166666667
 41
0.0
 71
     1
 72
     1
  1
TITLE:
  7
SLDTEXTSTYLE0
 73
     1
 44
1.0
  0
MTEXT
  5
DA
330
1F
100
AcDbEntity
  8
0
  6
Continuous
 62
     7
370
     0
100
AcDbMText
 10
203.0314209802
 20
16.2403789724
 30
0.0
 40
1.8520833333
 41
0.0
 71
     1
 72
     1
  1
Johnny
  7
SLDTEXTSTYLE0
 73
     1
 44
1.0
  0
MTEXT
  5
DB
330
1F
100
AcDbEntity
  8
0
  6
Continuous
 62
     7
370
     0
100
AcDbMText
 10
217.5590538149
 20
16.2403789724
 30
0.0
 40
1.8520833333
 41
0.0
 71
     1
 72
     1
  1
2010/12/30
  7
SLDTEXTSTYLE0
 73
     1
 44
1.0
  0
MTEXT
  5
DC
330
1F
100
AcDbEntity
  8
0
  6
Continuous
 62
     7
370
     0
100
AcDbMText
 10
186.3336086789
 20
16.2403789724
 30
0.0
 40
1.8520833333
 41
0.0
 71
     1
 72
     1
  1
ENG APPR.
  7
SLDTEXTSTYLE0
 73
     1
 44
1.0
  0
MTEXT
  5
DD
330
1F
100
AcDbEntity
  8
0
  6
Continuous
 62
     7
370
     0
100
AcDbMText
 10
236.3921866786
 20
11.6853389288
 30
0.0
 40
2.1166666667
 41
0.0
 71
     1
 72
     1
  1
REV
  7
SLDTEXTSTYLE0
 73
     1
 44
1.0
  0
MTEXT
  5
DE
330
1F
100
AcDbEntity
  8
0
  6
Continuous
 62
     7
370
     0
100
AcDbMText
 10
236.3629907088
 20
26.9493089085
 30
0.0
 40
2.1166666667
 41
0.0
 71
     1
 72
     1
  1
MATERIAL:
  7
SLDTEXTSTYLE0
 73
     1
 44
1.0
  0
MTEXT
  5
DF
330
1F
100
AcDbEntity
  8
0
  6
Continuous
 62
     7
370
     0
100
AcDbMText
 10
252.6088982507
 20
22.2175136187
 30
0.0
 40
2.5
 41
0.0
 71
     1
 72
     1
  1
N/A
  7
SLDTEXTSTYLE0
 73
     1
 44
1.0
  0
MTEXT
  5
E0
330
1F
100
AcDbEntity
  8
0
  6
Continuous
 62
     7
370
     0
100
AcDbMText
 10
26.6029931533
 20
204.453351657
 30
0.0
 40
2.1166666667
 41
0.0
 71
     1
 72
     1
  1
1
  7
SLDTEXTSTYLE0
 73
     1
 44
1.0
  0
MTEXT
  5
E1
330
1F
100
AcDbEntity
  8
0
  6
Continuous
 62
     7
370
     0
100
AcDbMText
 10
60.7170995724
 20
204.453351657
 30
0.0
 40
2.1166666667
 41
0.0
 71
     1
 72
     1
  1
2
  7
SLDTEXTSTYLE0
 73
     1
 44
1.0
  0
MTEXT
  5
E2
330
1F
100
AcDbEntity
  8
0
  6
Continuous
 62
     7
370
     0
100
AcDbMText
 10
94.9009943906
 20
204.453351657
 30
0.0
 40
2.1166666667
 41
0.0
 71
     1
 72
     1
  1
3
  7
SLDTEXTSTYLE0
 73
     1
 44
1.0
  0
MTEXT
  5
E3
330
1F
100
AcDbEntity
  8
0
  6
Continuous
 62
     7
370
     0
100
AcDbMText
 10
129.2533362851
 20
204.2992584364
 30
0.0
 40
2.1166666667
 41
0.0
 71
     1
 72
     1
  1
4
  7
SLDTEXTSTYLE0
 73
     1
 44
1.0
  0
MTEXT
  5
E4
330
1F
100
AcDbEntity
  8
0
  6
Continuous
 62
     7
370
     0
100
AcDbMText
 10
163.702323464
 20
204.453351657
 30
0.0
 40
2.1166666667
 41
0.0
 71
     1
 72
     1
  1
5
  7
SLDTEXTSTYLE0
 73
     1
 44
1.0
  0
MTEXT
  5
E5
330
1F
100
AcDbEntity
  8
0
  6
Continuous
 62
     7
370
     0
100
AcDbMText
 10
198.6382170415
 20
204.453351657
 30
0.0
 40
2.1166666667
 41
0.0
 71
     1
 72
     1
  1
6
  7
SLDTEXTSTYLE0
 73
     1
 44
1.0
  0
MTEXT
  5
E6
330
1F
100
AcDbEntity
  8
0
  6
Continuous
 62
     7
370
     0
100
AcDbMText
 10
234.3630657407
 20
204.453351657
 30
0.0
 40
2.1166666667
 41
0.0
 71
     1
 72
     1
  1
7
  7
SLDTEXTSTYLE0
 73
     1
 44
1.0
  0
MTEXT
  5
E7
330
1F
100
AcDbEntity
  8
0
  6
Continuous
 62
     7
370
     0
100
AcDbMText
 10
266.2787820494
 20
204.453351657
 30
0.0
 40
2.1166666667
 41
0.0
 71
     1
 72
     1
  1
8
  7
SLDTEXTSTYLE0
 73
     1
 44
1.0
  0
MTEXT
  5
E8
330
1F
100
AcDbEntity
  8
0
  6
Continuous
 62
     7
370
     0
100
AcDbMText
 10
5.3568236555
 20
185.8113022879
 30
0.0
 40
2.1166666667
 41
0.0
 71
     1
 72
     1
  1
A
  7
SLDTEXTSTYLE0
 73
     1
 44
1.0
  0
MTEXT
  5
E9
330
1F
100
AcDbEntity
  8
0
  6
Continuous
 62
     7
370
     0
100
AcDbMText
 10
5.5910431831
 20
154.2993048238
 30
0.0
 40
2.1166666667
 41
0.0
 71
     1
 72
     1
  1
B
  7
SLDTEXTSTYLE0
 73
     1
 44
1.0
  0
MTEXT
  5
EA
330
1F
100
AcDbEntity
  8
0
  6
Continuous
 62
     7
370
     0
100
AcDbMText
 10
5.5910431831
 20
121.274351423
 30
0.0
 40
2.1166666667
 41
0.0
 71
     1
 72
     1
  1
C
  7
SLDTEXTSTYLE0
 73
     1
 44
1.0
  0
MTEXT
  5
EB
330
1F
100
AcDbEntity
  8
0
  6
Continuous
 62
     7
370
     0
100
AcDbMText
 10
5.5910431831
 20
88.7453220221
 30
0.0
 40
2.1166666667
 41
0.0
 71
     1
 72
     1
  1
D
  7
SLDTEXTSTYLE0
 73
     1
 44
1.0
  0
MTEXT
  5
EC
330
1F
100
AcDbEntity
  8
0
  6
Continuous
 62
     7
370
     0
100
AcDbMText
 10
5.5910431831
 20
57.5558849197
 30
0.0
 40
2.1166666667
 41
0.0
 71
     1
 72
     1
  1
E
  7
SLDTEXTSTYLE0
 73
     1
 44
1.0
  0
MTEXT
  5
ED
330
1F
100
AcDbEntity
  8
0
  6
Continuous
 62
     7
370
     0
100
AcDbMText
 10
5.5910431831
 20
25.5694212252
 30
0.0
 40
2.1166666667
 41
0.0
 71
     1
 72
     1
  1
F
  7
SLDTEXTSTYLE0
 73
     1
 44
1.0
  0
MTEXT
  5
EE
330
1F
100
AcDbEntity
  8
0
  6
Continuous
 62
     7
370
     0
100
AcDbMText
 10
266.1858616964
 20
6.6236223963
 30
0.0
 40
2.1166666667
 41
0.0
 71
     1
 72
     1
  1
8
  7
SLDTEXTSTYLE0
 73
     1
 44
1.0
  0
MTEXT
  5
EF
330
1F
100
AcDbEntity
  8
0
  6
Continuous
 62
     7
370
     0
100
AcDbMText
 10
234.2701453876
 20
6.6236223963
 30
0.0
 40
2.1166666667
 41
0.0
 71
     1
 72
     1
  1
7
  7
SLDTEXTSTYLE0
 73
     1
 44
1.0
  0
MTEXT
  5
F0
330
1F
100
AcDbEntity
  8
0
  6
Continuous
 62
     7
370
     0
100
AcDbMText
 10
198.5452966885
 20
6.6236223963
 30
0.0
 40
2.1166666667
 41
0.0
 71
     1
 72
     1
  1
6
  7
SLDTEXTSTYLE0
 73
     1
 44
1.0
  0
MTEXT
  5
F1
330
1F
100
AcDbEntity
  8
0
  6
Continuous
 62
     7
370
     0
100
AcDbMText
 10
163.6094031109
 20
6.6236223963
 30
0.0
 40
2.1166666667
 41
0.0
 71
     1
 72
     1
  1
5
  7
SLDTEXTSTYLE0
 73
     1
 44
1.0
  0
MTEXT
  5
F2
330
1F
100
AcDbEntity
  8
0
  6
Continuous
 62
     7
370
     0
100
AcDbMText
 10
129.1604159321
 20
6.4695291758
 30
0.0
 40
2.1166666667
 41
0.0
 71
     1
 72
     1
  1
4
  7
SLDTEXTSTYLE0
 73
     1
 44
1.0
  0
MTEXT
  5
F3
330
1F
100
AcDbEntity
  8
0
  6
Continuous
 62
     7
370
     0
100
AcDbMText
 10
94.8080740376
 20
6.6236223963
 30
0.0
 40
2.1166666667
 41
0.0
 71
     1
 72
     1
  1
3
  7
SLDTEXTSTYLE0
 73
     1
 44
1.0
  0
MTEXT
  5
F4
330
1F
100
AcDbEntity
  8
0
  6
Continuous
 62
     7
370
     0
100
AcDbMText
 10
60.6241792194
 20
6.6236223963
 30
0.0
 40
2.1166666667
 41
0.0
 71
     1
 72
     1
  1
2
  7
SLDTEXTSTYLE0
 73
     1
 44
1.0
  0
MTEXT
  5
F5
330
1F
100
AcDbEntity
  8
0
  6
Continuous
 62
     7
370
     0
100
AcDbMText
 10
26.5100728003
 20
6.6236223963
 30
0.0
 40
2.1166666667
 41
0.0
 71
     1
 72
     1
  1
1
  7
SLDTEXTSTYLE0
 73
     1
 44
1.0
  0
MTEXT
  5
F6
330
1F
100
AcDbEntity
  8
0
  6
Continuous
 62
     7
370
     0
100
AcDbMText
 10
287.1023846145
 20
186.6424909092
 30
0.0
 40
2.1166666667
 41
0.0
 71
     1
 72
     1
  1
A
  7
SLDTEXTSTYLE0
 73
     1
 44
1.0
  0
MTEXT
  5
F7
330
1F
100
AcDbEntity
  8
0
  6
Continuous
 62
     7
370
     0
100
AcDbMText
 10
287.3366041421
 20
155.1304934451
 30
0.0
 40
2.1166666667
 41
0.0
 71
     1
 72
     1
  1
B
  7
SLDTEXTSTYLE0
 73
     1
 44
1.0
  0
MTEXT
  5
F8
330
1F
100
AcDbEntity
  8
0
  6
Continuous
 62
     7
370
     0
100
AcDbMText
 10
287.3366041421
 20
122.1055400442
 30
0.0
 40
2.1166666667
 41
0.0
 71
     1
 72
     1
  1
C
  7
SLDTEXTSTYLE0
 73
     1
 44
1.0
  0
MTEXT
  5
F9
330
1F
100
AcDbEntity
  8
0
  6
Continuous
 62
     7
370
     0
100
AcDbMText
 10
287.3366041421
 20
89.5765106433
 30
0.0
 40
2.1166666667
 41
0.0
 71
     1
 72
     1
  1
D
  7
SLDTEXTSTYLE0
 73
     1
 44
1.0
  0
MTEXT
  5
FA
330
1F
100
AcDbEntity
  8
0
  6
Continuous
 62
     7
370
     0
100
AcDbMText
 10
287.3366041421
 20
58.3870735409
 30
0.0
 40
2.1166666667
 41
0.0
 71
     1
 72
     1
  1
E
  7
SLDTEXTSTYLE0
 73
     1
 44
1.0
  0
MTEXT
  5
FB
330
1F
100
AcDbEntity
  8
0
  6
Continuous
 62
     7
370
     0
100
AcDbMText
 10
287.3366041421
 20
26.4006098464
 30
0.0
 40
2.1166666667
 41
0.0
 71
     1
 72
     1
  1
F
  7
SLDTEXTSTYLE0
 73
     1
 44
1.0
  0
MTEXT
  5
FC
330
1F
100
AcDbEntity
  8
0
  6
Continuous
 62
     7
370
     0
100
AcDbMText
 10
204.5958218698
 20
21.5867148511
 30
0.0
 40
1.8520833333
 41
0.0
 71
     1
 72
     1
  1
Eric
  7
SLDTEXTSTYLE0
 73
     1
 44
1.0
  0
MTEXT
  5
FD
330
1F
100
AcDbEntity
  8
0
  6
Continuous
 62
     7
370
     0
100
AcDbMText
 10
252.8482239645
 20
12.0500370959
 30
0.0
 40
2.5
 41
0.0
 71
     1
 72
     1
  1
0
  7
SLDTEXTSTYLE0
 73
     1
 44
1.0
  0
INSERT
  5
103
330
1F
100
AcDbEntity
  8
SLD-0
 62
     7
100
AcDbBlockReference
  2
SW_NOTE_1
 10
198.7251893935
 20
33.6062615951
 30
0.0
  0
LINE
  5
104
330
1F
100
AcDbEntity
  8
0
  6
Continuous
 62
     7
370
    30
100
AcDbLine
 10
174.7229392875
 20
100.6795078918
 30
0.0
 11
174.0158325063
 21
101.386614673
 31
0.0
  0
LINE
  5
105
330
1F
100
AcDbEntity
  8
0
  6
Continuous
 62
     7
370
    30
100
AcDbLine
 10
174.9433932767
 20
101.0129423336
 30
0.0
 11
174.0158325063
 21
101.386614673
 31
0.0
  0
ARC
  5
106
330
1F
100
AcDbEntity
  8
0
  6
Continuous
 62
     7
370
    30
100
AcDbCircle
 10
174.0158325063
 20
101.386614673
 30
0.0
 40
1.000000000000001
100
AcDbArc
 50
315.0
 51
338.0577209436
  0
LINE
  5
107
330
1F
100
AcDbEntity
  8
0
  6
Continuous
 62
     7
370
    30
100
AcDbLine
 10
151.5339987882
 20
90.2184894539
 30
0.0
 11
150.8268920071
 21
89.5113826727
 31
0.0
  0
ARC
  5
108
330
1F
100
AcDbEntity
  8
0
  6
Continuous
 62
     7
370
    30
100
AcDbCircle
 10
151.5339987882
 20
90.2184894539
 30
0.0
 40
1.000000000000018
100
AcDbArc
 50
135.0
 51
225.0
  0
LINE
  5
109
330
1F
100
AcDbEntity
  8
0
  6
Continuous
 62
     7
370
    30
100
AcDbLine
 10
151.5339987882
 20
90.2184894539
 30
0.0
 11
150.8268920071
 21
90.9255962351
 31
0.0
  0
ARC
  5
10A
330
1F
100
AcDbEntity
  8
0
  6
Continuous
 62
     7
370
    30
100
AcDbCircle
 10
157.7660646437
 20
133.3380860892
 30
0.0
 40
28.34813416709358
100
AcDbArc
 50
291.9422790564
 51
311.1632268697
  0
LINE
  5
10B
330
1F
100
AcDbEntity
  8
0
  6
Continuous
 62
     7
370
    30
100
AcDbLine
 10
168.3589782568
 20
107.0434689225
 30
0.0
 11
167.9853059174
 21
107.9710296929
 31
0.0
  0
ARC
  5
10C
330
1F
100
AcDbEntity
  8
0
  6
Continuous
 62
     7
370
    30
100
AcDbCircle
 10
157.7660646437
 20
133.3380860892
 30
0.0
 40
27.3481341670936
100
AcDbArc
 50
291.9422790564
 51
311.1632268697
  0
LINE
  5
10D
330
1F
100
AcDbEntity
  8
0
  6
Continuous
 62
     7
370
    30
100
AcDbLine
 10
175.7667820022
 20
112.7493848916
 30
0.0
 11
176.4249884176
 21
111.9965473828
 31
0.0
  0
LINE
  5
10E
330
1F
100
AcDbEntity
  8
0
  6
Continuous
 62
     7
370
    30
100
AcDbLine
 10
177.1320951988
 20
112.703654164
 30
0.0
 11
179.6760177478
 21
110.159731615
 31
0.0
  0
LINE
  5
10F
330
1F
100
AcDbEntity
  8
0
  6
Continuous
 62
     7
370
    30
100
AcDbLine
 10
179.6760177478
 20
110.159731615
 30
0.0
 11
178.9689109666
 21
109.4526248338
 31
0.0
  0
LINE
  5
110
330
1F
100
AcDbEntity
  8
0
  6
Continuous
 62
     7
370
    30
100
AcDbLine
 10
178.9689109666
 20
109.4526248338
 30
0.0
 11
176.4249884176
 21
111.9965473828
 31
0.0
  0
LINE
  5
111
330
1F
100
AcDbEntity
  8
0
  6
Continuous
 62
     7
370
    30
100
AcDbLine
 10
177.1320951988
 20
112.703654164
 30
0.0
 11
176.4249884176
 21
111.9965473828
 31
0.0
  0
ARC
  5
112
330
1F
100
AcDbEntity
  8
0
  6
Continuous
 62
     7
370
    30
100
AcDbCircle
 10
200.310449673
 20
90.7937010599
 30
0.0
 40
27.34813416709357
100
AcDbArc
 50
138.8367731303
 51
158.0577209436
  0
ARC
  5
113
330
1F
100
AcDbEntity
  8
0
  6
Continuous
 62
     7
370
    30
100
AcDbCircle
 10
200.310449673
 20
90.7937010599
 30
0.0
 40
28.34813416709358
100
AcDbArc
 50
138.8367731303
 51
158.0577209436
  0
LINE
  5
114
330
1F
100
AcDbEntity
  8
0
  6
Continuous
 62
     7
370
    30
100
AcDbLine
 10
179.7217484755
 20
108.7944184184
 30
0.0
 11
178.9689109666
 21
109.4526248338
 31
0.0
  0
LINE
  5
115
330
1F
100
AcDbEntity
  8
0
  6
Continuous
 62
     7
370
    30
100
AcDbLine
 10
168.3589782568
 20
107.0434689225
 30
0.0
 11
151.5339987882
 21
90.2184894539
 31
0.0
  0
LINE
  5
116
330
1F
100
AcDbEntity
  8
0
  6
Continuous
 62
     7
370
    30
100
AcDbLine
 10
150.8268920071
 20
90.9255962351
 30
0.0
 11
167.6518714757
 21
107.7505757037
 31
0.0
  0
LINE
  5
117
330
1F
100
AcDbEntity
  8
0
  6
Continuous
 62
     7
370
    30
100
AcDbLine
 10
168.3589782568
 20
107.0434689225
 30
0.0
 11
167.6518714757
 21
107.7505757037
 31
0.0
  0
LINE
  5
118
330
1F
100
AcDbEntity
  8
0
  6
Continuous
 62
     7
370
    30
100
AcDbLine
 10
157.1908530377
 20
84.5616352044
 30
0.0
 11
174.0158325063
 21
101.386614673
 31
0.0
  0
LINE
  5
119
330
1F
100
AcDbEntity
  8
0
  6
Continuous
 62
     7
370
    30
100
AcDbLine
 10
151.5339987882
 20
90.2184894539
 30
0.0
 11
157.1908530377
 21
84.5616352044
 31
0.0
  0
ARC
  5
11A
330
1F
100
AcDbEntity
  8
0
  6
Continuous
 62
     7
370
    30
100
AcDbCircle
 10
178.9689109666
 20
109.4526248338
 30
0.0
 40
1.000000000000001
100
AcDbArc
 50
318.8367731303
 51
45.0
  0
LINE
  5
11B
330
1F
100
AcDbEntity
  8
0
  6
Continuous
 62
     7
370
    30
100
AcDbLine
 10
157.1908530377
 20
84.5616352044
 30
0.0
 11
156.4837462565
 21
83.8545284232
 31
0.0
  0
LINE
  5
11C
330
1F
100
AcDbEntity
  8
0
  6
Continuous
 62
     7
370
    30
100
AcDbLine
 10
156.4837462565
 20
83.8545284232
 30
0.0
 11
150.8268920071
 21
89.5113826727
 31
0.0
  0
ARC
  5
11D
330
1F
100
AcDbEntity
  8
0
  6
Continuous
 62
     7
370
    30
100
AcDbCircle
 10
176.4249884176
 20
111.9965473828
 30
0.0
 40
0.999999999999998
100
AcDbArc
 50
45.0
 51
131.1632268697
  0
ARC
  5
11E
330
1F
100
AcDbEntity
  8
0
  6
Continuous
 62
     7
370
    30
100
AcDbCircle
 10
168.3589782568
 20
107.0434689225
 30
0.0
 40
1.000000000000009
100
AcDbArc
 50
111.9422790564
 51
135.0
  0
LINE
  5
11F
330
1F
100
AcDbEntity
  8
0
  6
Continuous
 62
     7
370
    30
100
AcDbLine
 10
174.7229392875
 20
100.6795078918
 30
0.0
 11
157.8979598189
 21
83.8545284232
 31
0.0
  0
LINE
  5
120
330
1F
100
AcDbEntity
  8
0
  6
Continuous
 62
     7
370
    30
100
AcDbLine
 10
157.1908530377
 20
84.5616352044
 30
0.0
 11
157.8979598189
 21
83.8545284232
 31
0.0
  0
ARC
  5
121
330
1F
100
AcDbEntity
  8
0
  6
Continuous
 62
     7
370
    30
100
AcDbCircle
 10
157.1908530377
 20
84.5616352044
 30
0.0
 40
1.000000000000018
100
AcDbArc
 50
225.0
 51
315.0
  0
LINE
  5
122
330
1F
100
AcDbEntity
  8
0
  6
Continuous
 62
     7
370
    30
100
AcDbLine
 10
178.173726141
 20
112.1657087234
 30
0.0
 11
178.173726141
 21
112.3000799447
 31
0.0
  0
SPLINE
  5
123
330
1F
100
AcDbEntity
  8
0
  6
Continuous
 62
     7
370
    30
100
AcDbSpline
210
0.0
220
0.0
230
1.0
 70
     8
 71
     3
 72
     9
 73
     5
 74
     0
 42
0.000000001
 43
0.00000001
 40
0.0
 40
0.0
 40
0.0
 40
0.0
 40
0.5578880974118702
 40
1.0
 40
1.0
 40
1.0
 40
1.0
 10
178.6644299342915
 20
112.0452722954512
 30
0.0
 10
178.5764588593996
 20
112.0817928276377
 30
0.0
 10
178.4187729806364
 20
112.1472549379711
 30
0.0
 10
178.2488507719795
 20
112.16005129962
 30
0.0
 10
178.1737261410182
 20
112.1657087234148
 30
0.0
  0
SPLINE
  5
124
330
1F
100
AcDbEntity
  8
0
  6
Continuous
 62
     7
370
    30
100
AcDbSpline
210
0.0
220
0.0
230
1.0
 70
     8
 71
     3
 72
    10
 73
     6
 74
     0
 42
0.000000001
 43
0.00000001
 40
0.0
 40
0.0
 40
0.0
 40
0.0
 40
0.5600113699777582
 40
0.7802776236410214
 40
1.0
 40
1.0
 40
1.0
 40
1.0
 10
178.8386148507678
 20
111.4669783727498
 30
0.0
 10
178.8332627267557
 20
111.5829170465909
 30
0.0
 10
178.825805480654
 20
111.7444572540984
 30
0.0
 10
178.7575789455907
 20
111.9438921037455
 30
0.0
 10
178.6954540068326
 20
112.0115067580843
 30
0.0
 10
178.6644299342915
 20
112.0452722954512
 30
0.0
  0
LINE
  5
125
330
1F
100
AcDbEntity
  8
0
  6
Continuous
 62
     7
370
    30
100
AcDbLine
 10
178.8386148508
 20
110.9971345121
 30
0.0
 11
178.8386148508
 21
111.4669783727
 31
0.0
  0
LINE
  5
126
330
1F
100
AcDbEntity
  8
0
  6
Continuous
 62
     7
370
    30
100
AcDbLine
 10
179.9404588653
 20
107.3552190015
 30
0.0
 11
178.5472567572
 21
107.3552190015
 31
0.0
  0
LINE
  5
127
330
1F
100
AcDbEntity
  8
0
  6
Continuous
 62
     7
370
    30
100
AcDbLine
 10
179.9404588653
 20
107.4895902228
 30
0.0
 11
179.9404588653
 21
107.3552190015
 31
0.0
  0
SPLINE
  5
128
330
1F
100
AcDbEntity
  8
0
  6
Continuous
 62
     7
370
    30
100
AcDbSpline
210
0.0
220
0.0
230
1.0
 70
     8
 71
     3
 72
     9
 73
     5
 74
     0
 42
0.000000001
 43
0.00000001
 40
0.0
 40
0.0
 40
0.0
 40
0.0
 40
0.5577888705740551
 40
1.0
 40
1.0
 40
1.0
 40
1.0
 10
179.4298482244075
 20
107.630928840751
 30
0.0
 10
179.5204561339102
 20
107.5881171803178
 30
0.0
 10
179.6828973626306
 20
107.5113647338426
 30
0.0
 10
179.8614852943088
 20
107.4962667287114
 30
0.0
 10
179.9404588652781
 20
107.4895902228102
 30
0.0
  0
SPLINE
  5
129
330
1F
100
AcDbEntity
  8
0
  6
Continuous
 62
     7
370
    30
100
AcDbSpline
210
0.0
220
0.0
230
1.0
 70
     8
 71
     3
 72
    10
 73
     6
 74
     0
 42
0.000000001
 43
0.00000001
 40
0.0
 40
0.0
 40
0.0
 40
0.0
 40
0.5601234433190682
 40
0.7803712189439254
 40
1.0
 40
1.0
 40
1.0
 40
1.0
 10
179.2616353622104
 20
108.1823485191961
 30
0.0
 10
179.2662122275953
 20
108.0713810960185
 30
0.0
 10
179.2725887755902
 20
107.9167798481666
 30
0.0
 10
179.3428358476597
 20
107.7287984248464
 30
0.0
 10
179.4008713213433
 20
107.6635214161668
 30
0.0
 10
179.4298482244075
 20
107.630928840751
 30
0.0
  0
LINE
  5
12A
330
1F
100
AcDbEntity
  8
0
  6
Continuous
 62
     7
370
    30
100
AcDbLine
 10
179.2616353622
 20
108.2541666474
 30
0.0
 11
179.2616353622
 21
108.1823485192
 31
0.0
  0
LINE
  5
12B
330
1F
100
AcDbEntity
  8
0
  6
Continuous
 62
     7
370
    30
100
AcDbLine
 10
180.3505399258
 20
109.8147100222
 30
0.0
 11
179.8999308628
 21
109.8175932612
 31
0.0
  0
SPLINE
  5
12C
330
1F
100
AcDbEntity
  8
0
  6
Continuous
 62
     7
370
    30
100
AcDbSpline
210
0.0
220
0.0
230
1.0
 70
     8
 71
     3
 72
    10
 73
     6
 74
     0
 42
0.000000001
 43
0.00000001
 40
0.0
 40
0.0
 40
0.0
 40
0.0
 40
0.2786905031362829
 40
0.5591146962643145
 40
1.0
 40
1.0
 40
1.0
 40
1.0
 10
180.854183169994
 20
109.7072130451489
 30
0.0
 10
180.8122145212371
 20
109.732694565929
 30
0.0
 10
180.7280161433295
 20
109.783816124041
 30
0.0
 10
180.5525118690951
 20
109.8088516709378
 30
0.0
 10
180.4271591479021
 20
109.8124876228287
 30
0.0
 10
180.3505399257824
 20
109.8147100221743
 30
0.0
  0
SPLINE
  5
12D
330
1F
100
AcDbEntity
  8
0
  6
Continuous
 62
     7
370
    30
100
AcDbSpline
210
0.0
220
0.0
230
1.0
 70
     8
 71
     3
 72
     9
 73
     5
 74
     0
 42
0.000000001
 43
0.00000001
 40
0.0
 40
0.0
 40
0.0
 40
0.0
 40
0.5618661542988234
 40
1.0
 40
1.0
 40
1.0
 40
1.0
 10
181.0154286355321
 20
109.1090122748502
 30
0.0
 10
181.0041123115952
 20
109.2264345955544
 30
0.0
 10
180.9839717071999
 20
109.4354208813553
 30
0.0
 10
180.8937238226974
 20
109.6244103586602
 30
0.0
 10
180.854183169994
 20
109.7072130451489
 30
0.0
  0
LINE
  5
12E
330
1F
100
AcDbEntity
  8
0
  6
Continuous
 62
     7
370
    30
100
AcDbLine
 10
181.1836414977
 20
109.1090122749
 30
0.0
 11
181.0154286355
 21
109.1090122749
 31
0.0
  0
LINE
  5
12F
330
1F
100
AcDbEntity
  8
0
  6
Continuous
 62
     7
370
    30
100
AcDbLine
 10
181.1836414977
 20
110.7821828154
 30
0.0
 11
181.1836414977
 21
109.1090122749
 31
0.0
  0
LINE
  5
130
330
1F
100
AcDbEntity
  8
0
  6
Continuous
 62
     7
370
    30
100
AcDbLine
 10
181.0154286355
 20
110.7821828154
 30
0.0
 11
181.1836414977
 21
110.7821828154
 31
0.0
  0
SPLINE
  5
131
330
1F
100
AcDbEntity
  8
0
  6
Continuous
 62
     7
370
    30
100
AcDbSpline
210
0.0
220
0.0
230
1.0
 70
     8
 71
     3
 72
     9
 73
     5
 74
     0
 42
0.000000001
 43
0.00000001
 40
0.0
 40
0.0
 40
0.0
 40
0.0
 40
0.5581781111261144
 40
1.0
 40
1.0
 40
1.0
 40
1.0
 10
180.8740900175913
 20
110.2038888927014
 30
0.0
 10
180.9151335081716
 20
110.3080537807291
 30
0.0
 10
180.9886646799646
 20
110.4946696403471
 30
0.0
 10
181.0072272748135
 20
110.6940792742793
 30
0.0
 10
181.0154286355321
 20
110.7821828154028
 30
0.0
  0
SPLINE
  5
132
330
1F
100
AcDbEntity
  8
0
  6
Continuous
 62
     7
370
    30
100
AcDbSpline
210
0.0
220
0.0
230
1.0
 70
     8
 71
     3
 72
    10
 73
     6
 74
     0
 42
0.000000001
 43
0.00000001
 40
0.0
 40
0.0
 40
0.0
 40
0.0
 40
0.5603610191166154
 40
0.7806040857484887
 40
1.0
 40
1.0
 40
1.0
 40
1.0
 10
180.3505399257824
 20
110.0635456171405
 30
0.0
 10
180.4542522282894
 20
110.0671116130755
 30
0.0
 10
180.5987273868345
 20
110.0720791802362
 30
0.0
 10
180.7790671436035
 20
110.125852800718
 30
0.0
 10
180.8424564417863
 20
110.1779102990462
 30
0.0
 10
180.8740900175913
 20
110.2038888927014
 30
0.0
  0
LINE
  5
133
330
1F
100
AcDbEntity
  8
0
  6
Continuous
 62
     7
370
    30
100
AcDbLine
 10
179.7606026974
 20
110.0635456171
 30
0.0
 11
180.3505399258
 21
110.0635456171
 31
0.0
  0
LINE
  5
134
330
1F
100
AcDbEntity
  8
0
  6
Continuous
 62
     7
370
    30
100
AcDbLine
 10
179.2616353622
 20
111.7765298529
 30
0.0
 11
179.2616353622
 21
110.5741140006
 31
0.0
  0
SPLINE
  5
135
330
1F
100
AcDbEntity
  8
0
  6
Continuous
 62
     7
370
    30
100
AcDbSpline
210
0.0
220
0.0
230
1.0
 70
     8
 71
     3
 72
     9
 73
     5
 74
     0
 42
0.000000001
 43
0.00000001
 40
0.0
 40
0.0
 40
0.0
 40
0.0
 40
0.5582508416995691
 40
1.0
 40
1.0
 40
1.0
 40
1.0
 10
179.3094117964439
 20
112.0044632578768
 30
0.0
 10
179.2924291853354
 20
111.9636153357093
 30
0.0
 10
179.2620080738208
 20
111.8904440673185
 30
0.0
 10
179.2617495603282
 20
111.8114329482379
 30
0.0
 10
179.2616353622104
 20
111.7765298528877
 30
0.0
  0
SPLINE
  5
136
330
1F
100
AcDbEntity
  8
0
  6
Continuous
 62
     7
370
    30
100
AcDbSpline
210
0.0
220
0.0
230
1.0
 70
     8
 71
     3
 72
     9
 73
     5
 74
     0
 42
0.000000001
 43
0.00000001
 40
0.0
 40
0.0
 40
0.0
 40
0.0
 40
0.5623693583563933
 40
1.0
 40
1.0
 40
1.0
 40
1.0
 10
179.5174383538356
 20
112.0721465397076
 30
0.0
 10
179.4740544323076
 20
112.0717762902309
 30
0.0
 10
179.3969095436622
 20
112.0711179160303
 30
0.0
 10
179.3360470768478
 20
112.0247536718199
 30
0.0
 10
179.3094117964439
 20
112.0044632578768
 30
0.0
  0
LINE
  5
137
330
1F
100
AcDbEntity
  8
0
  6
Continuous
 62
     7
370
    30
100
AcDbLine
 10
180.497850598
 20
112.0721465397
 30
0.0
 11
179.5174383538
 21
112.0721465397
 31
0.0
  0
SPLINE
  5
138
330
1F
100
AcDbEntity
  8
0
  6
Continuous
 62
     7
370
    30
100
AcDbSpline
210
0.0
220
0.0
230
1.0
 70
     8
 71
     3
 72
    10
 73
     6
 74
     0
 42
0.000000001
 43
0.00000001
 40
0.0
 40
0.0
 40
0.0
 40
0.0
 40
0.2787390541253921
 40
0.5592032548756698
 40
1.0
 40
1.0
 40
1.0
 40
1.0
 10
181.2234551929238
 20
111.9377753184258
 30
0.0
 10
181.1612694067702
 20
111.9697476992494
 30
0.0
 10
181.0365129598016
 20
112.0338903414735
 30
0.0
 10
180.7863819049155
 20
112.065040637643
 30
0.0
 10
180.6072975402144
 20
112.0694510982286
 30
0.0
 10
180.4978505980024
 20
112.0721465397076
 30
0.0
  0
SPLINE
  5
139
330
1F
100
AcDbEntity
  8
0
  6
Continuous
 62
     7
370
    30
100
AcDbSpline
210
0.0
220
0.0
230
1.0
 70
     8
 71
     3
 72
     9
 73
     5
 74
     0
 42
0.000000001
 43
0.00000001
 40
0.0
 40
0.0
 40
0.0
 40
0.0
 40
0.562651256747143
 40
1.0
 40
1.0
 40
1.0
 40
1.0
 10
181.4792581845491
 20
111.2927934562735
 30
0.0
 10
181.458781108254
 20
111.4253073162978
 30
0.0
 10
181.422387203416
 20
111.6608241812036
 30
0.0
 10
181.2839851549041
 20
111.8535061162749
 30
0.0
 10
181.2234551929238
 20
111.9377753184258
 30
0.0
  0
LINE
  5
13A
330
1F
100
AcDbEntity
  8
0
  6
Continuous
 62
     7
370
    30
100
AcDbLine
 10
181.6265688568
 20
111.2927934563
 30
0.0
 11
181.4792581845
 21
111.2927934563
 31
0.0
  0
LINE
  5
13B
330
1F
100
AcDbEntity
  8
0
  6
Continuous
 62
     7
370
    30
100
AcDbLine
 10
181.6066620092
 20
112.3000799447
 30
0.0
 11
181.6265688568
 21
111.2927934563
 31
0.0
  0
LINE
  5
13C
330
1F
100
AcDbEntity
  8
0
  6
Continuous
 62
     7
370
    30
100
AcDbLine
 10
178.173726141
 20
112.3000799447
 30
0.0
 11
181.6066620092
 21
112.3000799447
 31
0.0
  0
SPLINE
  5
13D
330
1F
100
AcDbEntity
  8
0
  6
Continuous
 62
     7
370
    30
100
AcDbSpline
210
0.0
220
0.0
230
1.0
 70
     8
 71
     3
 72
    11
 73
     7
 74
     0
 42
0.000000001
 43
0.00000001
 40
0.0
 40
0.0
 40
0.0
 40
0.0
 40
0.2799932256425771
 40
0.5597952288860045
 40
0.7798680384449583
 40
1.0
 40
1.0
 40
1.0
 40
1.0
 10
170.7723602043439
 20
111.7954413581052
 30
0.0
 10
170.8817912454723
 20
111.9028065947588
 30
0.0
 10
171.1005785913985
 20
112.1174637425845
 30
0.0
 10
171.4828973255115
 20
112.31609005754
 30
0.0
 10
171.8628624967404
 20
112.4250221428585
 30
0.0
 10
172.103322991173
 20
112.4352890679225
 30
0.0
 10
172.2235693941867
 20
112.4404232202575
 30
0.0
  0
SPLINE
  5
13E
330
1F
100
AcDbEntity
  8
0
  6
Continuous
 62
     7
370
    30
100
AcDbSpline
210
0.0
220
0.0
230
1.0
 70
     8
 71
     3
 72
    11
 73
     7
 74
     0
 42
0.000000001
 43
0.00000001
 40
0.0
 40
0.0
 40
0.0
 40
0.0
 40
0.2800887275144134
 40
0.560008789844007
 40
0.7800256346719604
 40
1.0
 40
1.0
 40
1.0
 40
1.0
 10
170.1134435488734
 20
109.8604957716481
 30
0.0
 10
170.1203145975373
 20
110.056061390215
 30
0.0
 10
170.1340525572237
 20
110.4470748606987
 30
0.0
 10
170.2714376538549
 20
110.9770445476699
 30
0.0
 10
170.4797557468597
 20
111.4382267518204
 30
0.0
 10
170.6748316631317
 20
111.6763774868634
 30
0.0
 10
170.7723602043439
 20
111.7954413581052
 30
0.0
  0
LINE
  5
13F
330
1F
100
AcDbEntity
  8
0
  6
Continuous
 62
     7
370
    30
100
AcDbLine
 10
170.2130292161
 20
109.0196757361
 30
0.0
 11
170.1134435489
 21
109.8604957716
 31
0.0
  0
LINE
  5
140
330
1F
100
AcDbEntity
  8
0
  6
Continuous
 62
     7
370
    30
100
AcDbLine
 10
173.6817459807
 20
111.7954413581
 30
0.0
 11
173.9889150484
 21
111.3561950285
 31
0.0
  0
SPLINE
  5
141
330
1F
100
AcDbEntity
  8
0
  6
Continuous
 62
     7
370
    30
100
AcDbSpline
210
0.0
220
0.0
230
1.0
 70
     8
 71
     3
 72
    10
 73
     6
 74
     0
 42
0.000000001
 43
0.00000001
 40
0.0
 40
0.0
 40
0.0
 40
0.0
 40
0.2804546690558642
 40
0.5607792749542583
 40
1.0
 40
1.0
 40
1.0
 40
1.0
 10
172.2235693941867
 20
112.4404232202575
 30
0.0
 10
172.3768747800583
 20
112.4314571478442
 30
0.0
 10
172.683414455169
 20
112.4135291611073
 30
0.0
 10
173.2090536678326
 20
112.2265541537879
 30
0.0
 10
173.5025758545851
 20
111.9588511108481
 30
0.0
 10
173.6817459806886
 20
111.7954413581052
 30
0.0
  0
SPLINE
  5
142
330
1F
100
AcDbEntity
  8
0
  6
Continuous
 62
     7
370
    30
100
AcDbSpline
210
0.0
220
0.0
230
1.0
 70
     8
 71
     3
 72
    11
 73
     7
 74
     0
 42
0.000000001
 43
0.00000001
 40
0.0
 40
0.0
 40
0.0
 40
0.0
 40
0.2799773975160276
 40
0.5597992711926163
 40
0.7798903409157266
 40
1.0
 40
1.0
 40
1.0
 40
1.0
 10
139.9406346456534
 20
111.8282876566407
 30
0.0
 10
140.0518642558726
 20
111.9368333612221
 30
0.0
 10
140.2742616896945
 20
112.1538644746436
 30
0.0
 10
140.6610209468726
 20
112.357437490592
 30
0.0
 10
141.0470636332978
 20
112.4658121631475
 30
0.0
 10
141.2908484631287
 20
112.4767556338121
 30
0.0
 10
141.4127460254734
 20
112.4822276002118
 30
0.0
  0
SPLINE
  5
143
330
1F
100
AcDbEntity
  8
0
  6
Continuous
 62
     7
370
    30
100
AcDbSpline
210
0.0
220
0.0
230
1.0
 70
     8
 71
     3
 72
    11
 73
     7
 74
     0
 42
0.000000001
 43
0.00000001
 40
0.0
 40
0.0
 40
0.0
 40
0.0
 40
0.2800907331626719
 40
0.5600322593951577
 40
0.7800339512942694
 40
1.0
 40
1.0
 40
1.0
 40
1.0
 10
139.2777366206635
 20
109.8863746735246
 30
0.0
 10
139.2851617653355
 20
110.0826085397922
 30
0.0
 10
139.3000080992362
 20
110.4749717367276
 30
0.0
 10
139.43623056827
 20
111.0074793793567
 30
0.0
 10
139.6477536457201
 20
111.4692676480182
 30
0.0
 10
139.843012918535
 20
111.7086207840208
 30
0.0
 10
139.9406346456534
 20
111.8282876566407
 30
0.0
  0
SPLINE
  5
144
330
1F
100
AcDbEntity
  8
0
  6
Continuous
 62
     7
370
    30
100
AcDbSpline
210
0.0
220
0.0
230
1.0
 70
     8
 71
     3
 72
    10
 73
     6
 74
     0
 42
0.000000001
 43
0.00000001
 40
0.0
 40
0.0
 40
0.0
 40
0.0
 40
0.2800523578142783
 40
0.560148505982666
 40
1.0
 40
1.0
 40
1.0
 40
1.0
 10
139.899825608079
 20
107.9982101789211
 30
0.0
 10
139.7866786180405
 20
108.1507775424191
 30
0.0
 10
139.5603669457477
 20
108.4559361255931
 30
0.0
 10
139.3242253954474
 20
109.100351566102
 30
0.0
 10
139.2953673951704
 20
109.5882769880375
 30
0.0
 10
139.2777366206635
 20
109.8863746735246
 30
0.0
  0
SPLINE
  5
145
330
1F
100
AcDbEntity
  8
0
  6
Continuous
 62
     7
370
    30
100
AcDbSpline
210
0.0
220
0.0
230
1.0
 70
     8
 71
     3
 72
    11
 73
     7
 74
     0
 42
0.000000001
 43
0.00000001
 40
0.0
 40
0.0
 40
0.0
 40
0.0
 40
0.2799821058106852
 40
0.5597526787438777
 40
0.7798789780720949
 40
1.0
 40
1.0
 40
1.0
 40
1.0
 10
141.4127460254734
 20
107.3034611977755
 30
0.0
 10
141.2519281164245
 20
107.3128792254012
 30
0.0
 10
140.9304137999311
 20
107.3317081651174
 30
0.0
 10
140.5072550205269
 20
107.4943894973389
 30
0.0
 10
140.1600675902378
 20
107.7223445625121
 30
0.0
 10
139.9865722422152
 20
107.9062557083208
 30
0.0
 10
139.899825608079
 20
107.9982101789211
 30
0.0
  0
SPLINE
  5
146
330
1F
100
AcDbEntity
  8
0
  6
Continuous
 62
     7
370
    30
100
AcDbSpline
210
0.0
220
0.0
230
1.0
 70
     8
 71
     3
 72
    11
 73
     7
 74
     0
 42
0.000000001
 43
0.00000001
 40
0.0
 40
0.0
 40
0.0
 40
0.0
 40
0.2798929703307609
 40
0.5596790582656211
 40
0.7798156116675392
 40
1.0
 40
1.0
 40
1.0
 40
1.0
 10
142.9784195890007
 20
107.9982101789211
 30
0.0
 10
142.8624260139254
 20
107.8797989089427
 30
0.0
 10
142.6304831581037
 20
107.6430215865569
 30
0.0
 10
142.2151051916489
 20
107.4297347323945
 30
0.0
 10
141.802490289104
 20
107.3200612967969
 30
0.0
 10
141.5426701886666
 20
107.3089949648519
 30
0.0
 10
141.4127460254734
 20
107.3034611977755
 30
0.0
  0
SPLINE
  5
147
330
1F
100
AcDbEntity
  8
0
  6
Continuous
 62
     7
370
    30
100
AcDbSpline
210
0.0
220
0.0
230
1.0
 70
     8
 71
     3
 72
    11
 73
     7
 74
     0
 42
0.000000001
 43
0.00000001
 40
0.0
 40
0.0
 40
0.0
 40
0.0
 40
0.2800630518779703
 40
0.5599693407053932
 40
0.7799861785456116
 40
1.0
 40
1.0
 40
1.0
 40
1.0
 10
143.6104620002148
 20
109.8863746735246
 30
0.0
 10
143.6029302554801
 20
109.6963657100767
 30
0.0
 10
143.5878709818445
 20
109.3164541391766
 30
0.0
 10
143.4538134016083
 20
108.8013641293935
 30
0.0
 10
143.2518738857984
 20
108.3536615606507
 30
0.0
 10
143.0695706047069
 20
108.1166934313632
 30
0.0
 10
142.9784195890007
 20
107.9982101789211
 30
0.0
  0
SPLINE
  5
148
330
1F
100
AcDbEntity
  8
0
  6
Continuous
 62
     7
370
    30
100
AcDbSpline
210
0.0
220
0.0
230
1.0
 70
     8
 71
     3
 72
    10
 73
     6
 74
     0
 42
0.000000001
 43
0.00000001
 40
0.0
 40
0.0
 40
0.0
 40
0.0
 40
0.2800739435414916
 40
0.5601892596393923
 40
1.0
 40
1.0
 40
1.0
 40
1.0
 10
142.9366152090463
 20
111.8282876566407
 30
0.0
 10
143.058427698929
 20
111.6737032370068
 30
0.0
 10
143.3020706728498
 20
111.3645115625102
 30
0.0
 10
143.5600954142717
 20
110.700974526075
 30
0.0
 10
143.5913613167547
 20
110.1952980130534
 30
0.0
 10
143.6104620002148
 20
109.8863746735246
 30
0.0
  0
SPLINE
  5
149
330
1F
100
AcDbEntity
  8
0
  6
Continuous
 62
     7
370
    30
100
AcDbSpline
210
0.0
220
0.0
230
1.0
 70
     8
 71
     3
 72
    11
 73
     7
 74
     0
 42
0.000000001
 43
0.00000001
 40
0.0
 40
0.0
 40
0.0
 40
0.0
 40
0.2800011350847069
 40
0.5597917273406211
 40
0.7798737367570077
 40
0.9999999999999999
 40
0.9999999999999999
 40
0.9999999999999999
 40
0.9999999999999999
 10
141.4127460254734
 20
112.4822276002118
 30
0.0
 10
141.5725220676063
 20
112.4738779241731
 30
0.0
 10
141.8919540105738
 20
112.4571848505145
 30
0.0
 10
142.3162680670431
 20
112.3082087381718
 30
0.0
 10
142.6691715201888
 20
112.093888800064
 30
0.0
 10
142.8474613383107
 20
111.9168273044041
 30
0.0
 10
142.9366152090463
 20
111.8282876566407
 30
0.0
  0
ARC
  5
14A
330
1F
100
AcDbEntity
  8
0
  6
Continuous
 62
     7
370
    30
100
AcDbCircle
 10
182.8804411155
 20
71.4080775317
 30
0.0
 40
1.5
100
AcDbArc
 50
270.0
 51
0.0
  0
LINE
  5
14B
330
1F
100
AcDbEntity
  8
0
  6
Continuous
 62
     7
370
    30
100
AcDbLine
 10
138.3804411155
 20
69.9080775317
 30
0.0
 11
182.8804411155
 21
69.9080775317
 31
0.0
  0
ARC
  5
14C
330
1F
100
AcDbEntity
  8
0
  6
Continuous
 62
     7
370
    30
100
AcDbCircle
 10
138.3804411155
 20
71.4080775317
 30
0.0
 40
1.5
100
AcDbArc
 50
180.0
 51
270.0
  0
LINE
  5
14D
330
1F
100
AcDbEntity
  8
0
  6
Continuous
 62
     7
370
    30
100
AcDbLine
 10
136.8804411155
 20
116.4080775317
 30
0.0
 11
136.8804411155
 21
71.4080775317
 31
0.0
  0
ARC
  5
14E
330
1F
100
AcDbEntity
  8
0
  6
Continuous
 62
     7
370
    30
100
AcDbCircle
 10
138.3804411155
 20
116.4080775317
 30
0.0
 40
1.500000000000014
100
AcDbArc
 50
90.0
 51
180.0
  0
LINE
  5
14F
330
1F
100
AcDbEntity
  8
0
  6
Continuous
 62
     7
370
    30
100
AcDbLine
 10
182.8804411155
 20
117.9080775317
 30
0.0
 11
138.3804411155
 21
117.9080775317
 31
0.0
  0
ARC
  5
150
330
1F
100
AcDbEntity
  8
0
  6
Continuous
 62
     7
370
    30
100
AcDbCircle
 10
182.8804411155
 20
116.4080775317
 30
0.0
 40
1.5
100
AcDbArc
 50
0.0
 51
90.0
  0
LINE
  5
151
330
1F
100
AcDbEntity
  8
0
  6
Continuous
 62
     7
370
    30
100
AcDbLine
 10
184.3804411155
 20
71.4080775317
 30
0.0
 11
184.3804411155
 21
116.4080775317
 31
0.0
  0
LINE
  5
152
330
1F
100
AcDbEntity
  8
0
  6
Continuous
 62
     7
370
    30
100
AcDbLine
 10
146.806506382
 20
112.1288810554
 30
0.0
 11
146.806506382
 21
112.3826933622
 31
0.0
  0
SPLINE
  5
153
330
1F
100
AcDbEntity
  8
0
  6
Continuous
 62
     7
370
    30
100
AcDbSpline
210
0.0
220
0.0
230
1.0
 70
     8
 71
     3
 72
    10
 73
     6
 74
     0
 42
0.000000001
 43
0.00000001
 40
0.0
 40
0.0
 40
0.0
 40
0.0
 40
0.278450147705671
 40
0.559009882997216
 40
1.0
 40
1.0
 40
1.0
 40
1.0
 10
147.3240844194901
 20
111.9974958612177
 30
0.0
 10
147.2806250579388
 20
112.0232668923792
 30
0.0
 10
147.1933770790236
 20
112.0750042005941
 30
0.0
 10
147.0139316624296
 20
112.106589735446
 30
0.0
 10
146.8851896970457
 20
112.1204252155293
 30
0.0
 10
146.8065063819605
 20
112.1288810553599
 30
0.0
  0
SPLINE
  5
154
330
1F
100
AcDbEntity
  8
0
  6
Continuous
 62
     7
370
    30
100
AcDbSpline
210
0.0
220
0.0
230
1.0
 70
     8
 71
     3
 72
    10
 73
     6
 74
     0
 42
0.000000001
 43
0.00000001
 40
0.0
 40
0.0
 40
0.0
 40
0.0
 40
0.5606433719229641
 40
0.7808513891964887
 40
1.0
 40
1.0
 40
1.0
 40
1.0
 10
147.47239043409
 20
111.2708959239164
 30
0.0
 10
147.468674244461
 20
111.4114562814961
 30
0.0
 10
147.4634984197216
 20
111.6072255636792
 30
0.0
 10
147.4132700379175
 20
111.856688105667
 30
0.0
 10
147.3537651315452
 20
111.9506354534376
 30
0.0
 10
147.3240844194901
 20
111.9974958612177
 30
0.0
  0
LINE
  5
155
330
1F
100
AcDbEntity
  8
0
  6
Continuous
 62
     7
370
    30
100
AcDbLine
 10
147.4723904341
 20
108.5187742436
 30
0.0
 11
147.4723904341
 21
111.2708959239
 31
0.0
  0
LINE
  5
156
330
1F
100
AcDbEntity
  8
0
  6
Continuous
 62
     7
370
    30
100
AcDbLine
 10
144.8765375074
 20
112.3826933622
 30
0.0
 11
147.4723904341
 21
108.5187742436
 31
0.0
  0
LINE
  5
157
330
1F
100
AcDbEntity
  8
0
  6
Continuous
 62
     7
370
    30
100
AcDbLine
 10
143.8164978728
 20
112.3826933622
 30
0.0
 11
144.8765375074
 21
112.3826933622
 31
0.0
  0
LINE
  5
158
330
1F
100
AcDbEntity
  8
0
  6
Continuous
 62
     7
370
    30
100
AcDbLine
 10
143.8164978728
 20
112.1258950282
 30
0.0
 11
143.8164978728
 21
112.3826933622
 31
0.0
  0
SPLINE
  5
159
330
1F
100
AcDbEntity
  8
0
  6
Continuous
 62
     7
370
    30
100
AcDbSpline
210
0.0
220
0.0
230
1.0
 70
     8
 71
     3
 72
     9
 73
     5
 74
     0
 42
0.000000001
 43
0.00000001
 40
0.0
 40
0.0
 40
0.0
 40
0.0
 40
0.5592636271648296
 40
1.0
 40
1.0
 40
1.0
 40
1.0
 10
144.1340120920236
 20
112.0900627025451
 30
0.0
 10
144.075314995637
 20
112.1013917620527
 30
0.0
 10
143.9703607423375
 20
112.1216488625637
 30
0.0
 10
143.8635661389723
 20
112.1245960815946
 30
0.0
 10
143.8164978728468
 20
112.1258950282203
 30
0.0
  0
SPLINE
  5
15A
330
1F
100
AcDbEntity
  8
0
  6
Continuous
 62
     7
370
    30
100
AcDbSpline
210
0.0
220
0.0
230
1.0
 70
     8
 71
     3
 72
     9
 73
     5
 74
     0
 42
0.000000001
 43
0.00000001
 40
0.0
 40
0.0
 40
0.0
 40
0.0
 40
0.5608304348354268
 40
1.0
 40
1.0
 40
1.0
 40
1.0
 10
144.3768756327106
 20
111.8123621785629
 30
0.0
 10
144.3393165830356
 20
111.8713161891642
 30
0.0
 10
144.2723461632046
 20
111.9764353248948
 30
0.0
 10
144.1762254040325
 20
112.0553887577638
 30
0.0
 10
144.1340120920236
 20
112.0900627025451
 30
0.0
  0
LINE
  5
15B
330
1F
100
AcDbEntity
  8
0
  6
Continuous
 62
     7
370
    30
100
AcDbLine
 10
144.3768756327
 20
108.5934249221
 30
0.0
 11
144.3768756327
 21
111.8123621786
 31
0.0
  0
SPLINE
  5
15C
330
1F
100
AcDbEntity
  8
0
  6
Continuous
 62
     7
370
    30
100
AcDbSpline
210
0.0
220
0.0
230
1.0
 70
     8
 71
     3
 72
     9
 73
     5
 74
     0
 42
0.000000001
 43
0.00000001
 40
0.0
 40
0.0
 40
0.0
 40
0.0
 40
0.55947273267067
 40
1.0
 40
1.0
 40
1.0
 40
1.0
 10
144.3400479646556
 20
107.947447717548
 30
0.0
 10
144.3541011792659
 20
108.0675424432149
 30
0.0
 10
144.3792198558155
 20
108.2821994204969
 30
0.0
 10
144.377592518966
 20
108.498249132739
 30
0.0
 10
144.3768756327106
 20
108.5934249220803
 30
0.0
  0
SPLINE
  5
15D
330
1F
100
AcDbEntity
  8
0
  6
Continuous
 62
     7
370
    30
100
AcDbSpline
210
0.0
220
0.0
230
1.0
 70
     8
 71
     3
 72
    10
 73
     6
 74
     0
 42
0.000000001
 43
0.00000001
 40
0.0
 40
0.0
 40
0.0
 40
0.0
 40
0.559561229800693
 40
0.7800081457599849
 40
1.0
 40
1.0
 40
1.0
 40
1.0
 10
143.8164978728468
 20
107.6408822645497
 30
0.0
 10
143.9359415852962
 20
107.6602921494762
 30
0.0
 10
144.102441806735
 20
107.6873488280749
 30
0.0
 10
144.2799578301996
 20
107.818201603801
 30
0.0
 10
144.3200317212966
 20
107.9043953647885
 30
0.0
 10
144.3400479646556
 20
107.947447717548
 30
0.0
  0
LINE
  5
15E
330
1F
100
AcDbEntity
  8
0
  6
Continuous
 62
     7
370
    30
100
AcDbLine
 10
143.8164978728
 20
107.3890606424
 30
0.0
 11
143.8164978728
 21
107.6408822645
 31
0.0
  0
LINE
  5
15F
330
1F
100
AcDbEntity
  8
0
  6
Continuous
 62
     7
370
    30
100
AcDbLine
 10
145.4448780063
 20
107.3890606424
 30
0.0
 11
143.8164978728
 21
107.3890606424
 31
0.0
  0
LINE
  5
160
330
1F
100
AcDbEntity
  8
0
  6
Continuous
 62
     7
370
    30
100
AcDbLine
 10
145.4448780063
 20
107.6359055527
 30
0.0
 11
145.4448780063
 21
107.3890606424
 31
0.0
  0
SPLINE
  5
161
330
1F
100
AcDbEntity
  8
0
  6
Continuous
 62
     7
370
    30
100
AcDbSpline
210
0.0
220
0.0
230
1.0
 70
     8
 71
     3
 72
    10
 73
     6
 74
     0
 42
0.000000001
 43
0.00000001
 40
0.0
 40
0.0
 40
0.0
 40
0.0
 40
0.2789828981051599
 40
0.5592709435781575
 40
1.0
 40
1.0
 40
1.0
 40
1.0
 10
144.9123698330779
 20
107.8578669033602
 30
0.0
 10
144.9507702571949
 20
107.8173733330985
 30
0.0
 10
145.0277507516109
 20
107.7361967541649
 30
0.0
 10
145.217628121317
 20
107.6658664280237
 30
0.0
 10
145.3586667228285
 20
107.6472717433094
 30
0.0
 10
145.4448780063055
 20
107.6359055526504
 30
0.0
  0
SPLINE
  5
162
330
1F
100
AcDbEntity
  8
0
  6
Continuous
 62
     7
370
    30
100
AcDbSpline
210
0.0
220
0.0
230
1.0
 70
     8
 71
     3
 72
     9
 73
     5
 74
     0
 42
0.000000001
 43
0.00000001
 40
0.0
 40
0.0
 40
0.0
 40
0.0
 40
0.5619407086696204
 40
1.0
 40
1.0
 40
1.0
 40
1.0
 10
144.7919334051142
 20
108.5934249220803
 30
0.0
 10
144.7899258209936
 20
108.4512329359481
 30
0.0
 10
144.7863532303453
 20
108.1981955888786
 30
0.0
 10
144.87398285973
 20
107.9615372761302
 30
0.0
 10
144.9123698330779
 20
107.8578669033602
 30
0.0
  0
LINE
  5
163
330
1F
100
AcDbEntity
  8
0
  6
Continuous
 62
     7
370
    30
100
AcDbLine
 10
144.7919334051
 20
111.3610207618
 30
0.0
 11
144.7919334051
 21
108.5934249221
 31
0.0
  0
LINE
  5
164
330
1F
100
AcDbEntity
  8
0
  6
Continuous
 62
     7
370
    30
100
AcDbLine
 10
147.7013191815
 20
107.3233680454
 30
0.0
 11
144.7919334051
 21
111.3610207618
 31
0.0
  0
LINE
  5
165
330
1F
100
AcDbEntity
  8
0
  6
Continuous
 62
     7
370
    30
100
AcDbLine
 10
147.8745087556
 20
107.3233680454
 30
0.0
 11
147.7013191815
 21
107.3233680454
 31
0.0
  0
LINE
  5
166
330
1F
100
AcDbEntity
  8
0
  6
Continuous
 62
     7
370
    30
100
AcDbLine
 10
147.8745087556
 20
111.2708959239
 30
0.0
 11
147.8745087556
 21
107.3233680454
 31
0.0
  0
SPLINE
  5
167
330
1F
100
AcDbEntity
  8
0
  6
Continuous
 62
     7
370
    30
100
AcDbSpline
210
0.0
220
0.0
230
1.0
 70
     8
 71
     3
 72
    10
 73
     6
 74
     0
 42
0.000000001
 43
0.00000001
 40
0.0
 40
0.0
 40
0.0
 40
0.0
 40
0.2785542837987518
 40
0.5590837202157778
 40
1.0
 40
1.0
 40
1.0
 40
1.0
 10
147.9790197054411
 20
112.0124259969157
 30
0.0
 10
147.9521683269671
 20
111.9471636869884
 30
0.0
 10
147.8982751742016
 20
111.8161763098552
 30
0.0
 10
147.8811946509062
 20
111.5626494387133
 30
0.0
 10
147.8770449018809
 20
111.3815661581485
 30
0.0
 10
147.8745087555554
 20
111.2708959239164
 30
0.0
  0
SPLINE
  5
168
330
1F
100
AcDbEntity
  8
0
  6
Continuous
 62
     7
370
    30
100
AcDbSpline
210
0.0
220
0.0
230
1.0
 70
     8
 71
     3
 72
     9
 73
     5
 74
     0
 42
0.000000001
 43
0.00000001
 40
0.0
 40
0.0
 40
0.0
 40
0.0
 40
0.5627763038302287
 40
1.0
 40
1.0
 40
1.0
 40
1.0
 10
148.4348865154192
 20
112.1388344791585
 30
0.0
 10
148.3454123636143
 20
112.1286590289172
 30
0.0
 10
148.1864253003781
 20
112.1105782210153
 30
0.0
 10
148.042115409378
 20
112.0422852862681
 30
0.0
 10
147.9790197054411
 20
112.0124259969157
 30
0.0
  0
LINE
  5
169
330
1F
100
AcDbEntity
  8
0
  6
Continuous
 62
     7
370
    30
100
AcDbLine
 10
148.4348865154
 20
112.3826933622
 30
0.0
 11
148.4348865154
 21
112.1388344792
 31
0.0
  0
LINE
  5
16A
330
1F
100
AcDbEntity
  8
0
  6
Continuous
 62
     7
370
    30
100
AcDbLine
 10
146.806506382
 20
112.3826933622
 30
0.0
 11
148.4348865154
 21
112.3826933622
 31
0.0
  0
LINE
  5
16B
330
1F
100
AcDbEntity
  8
0
  6
Continuous
 62
     7
370
    30
100
AcDbLine
 10
174.6064190516
 20
112.1657087234
 30
0.0
 11
174.6064190516
 21
112.3000799447
 31
0.0
  0
SPLINE
  5
16C
330
1F
100
AcDbEntity
  8
0
  6
Continuous
 62
     7
370
    30
100
AcDbSpline
210
0.0
220
0.0
230
1.0
 70
     8
 71
     3
 72
     9
 73
     5
 74
     0
 42
0.000000001
 43
0.00000001
 40
0.0
 40
0.0
 40
0.0
 40
0.0
 40
0.3398792944567324
 40
1.0
 40
1.0
 40
1.0
 40
1.0
 10
174.9386382437183
 20
112.1004266065084
 30
0.0
 10
174.902541458855
 20
112.1144566926018
 30
0.0
 10
174.7963367401444
 20
112.1557363066362
 30
0.0
 10
174.6819368125203
 20
112.1617433498261
 30
0.0
 10
174.6064190515829
 20
112.1657087234148
 30
0.0
  0
LINE
  5
16D
330
1F
100
AcDbEntity
  8
0
  6
Continuous
 62
     7
370
    30
100
AcDbLine
 10
178.0393549197
 20
112.3000799447
 30
0.0
 11
178.0495098694
 21
111.7862394935
 31
0.0
  0
LINE
  5
16E
330
1F
100
AcDbEntity
  8
0
  6
Continuous
 62
     7
370
    30
100
AcDbLine
 10
174.6064190516
 20
112.3000799447
 30
0.0
 11
175.2395514133
 21
112.3000799447
 31
0.0
  0
LINE
  5
16F
330
1F
100
AcDbEntity
  8
0
  6
Continuous
 62
     7
370
    30
100
AcDbLine
 10
177.5356694181
 20
112.3000799447
 30
0.0
 11
178.0393549197
 21
112.3000799447
 31
0.0
  0
ARC
  5
170
330
1F
100
AcDbEntity
  8
0
  6
Continuous
 62
     7
370
    30
100
AcDbCircle
 10
160.6304411155
 20
94.9080775317
 30
0.0
 40
14.25000000000003
100
AcDbArc
 50
0.0
 51
20.6126029207
  0
ARC
  5
171
330
1F
100
AcDbEntity
  8
0
  6
Continuous
 62
     7
370
    30
100
AcDbCircle
 10
160.6304411155
 20
94.9080775317
 30
0.0
 40
14.25000000000003
100
AcDbArc
 50
61.7891366232
 51
0.0
  0
SPLINE
  5
172
330
1F
100
AcDbEntity
  8
0
  6
Continuous
 62
     7
370
    30
100
AcDbSpline
210
0.0
220
0.0
230
1.0
 70
     8
 71
     3
 72
    10
 73
     6
 74
     0
 42
0.000000001
 43
0.00000001
 40
0.0
 40
0.0
 40
0.0
 40
0.0
 40
0.2809750304475813
 40
0.5616982625243906
 40
1.0
 40
1.0
 40
1.0
 40
1.0
 10
140.4412918627254
 20
108.1385534544821
 30
0.0
 10
140.5122393010014
 20
108.0595635877892
 30
0.0
 10
140.6540705973509
 20
107.9016546419026
 30
0.0
 10
140.9717282044288
 20
107.6807907034129
 30
0.0
 10
141.2457241499324
 20
107.6442469960528
 30
0.0
 10
141.4127460254734
 20
107.6219707593323
 30
0.0
  0
SPLINE
  5
173
330
1F
100
AcDbEntity
  8
0
  6
Continuous
 62
     7
370
    30
100
AcDbSpline
210
0.0
220
0.0
230
1.0
 70
     8
 71
     3
 72
    11
 73
     7
 74
     0
 42
0.000000001
 43
0.00000001
 40
0.0
 40
0.0
 40
0.0
 40
0.0
 40
0.2801598534098134
 40
0.5601702360544324
 40
0.7801436176392899
 40
1.0
 40
1.0
 40
1.0
 40
1.0
 10
139.943620672793
 20
109.8923467278038
 30
0.0
 10
139.9482315882591
 20
109.7187099903391
 30
0.0
 10
139.9574509591776
 20
109.3715291540079
 30
0.0
 10
140.0511286995066
 20
108.8958462201803
 30
0.0
 10
140.2036143660596
 20
108.4728117591742
 30
0.0
 10
140.3620800816715
 20
108.2499531284863
 30
0.0
 10
140.4412918627254
 20
108.1385534544821
 30
0.0
  0
SPLINE
  5
174
330
1F
100
AcDbEntity
  8
0
  6
Continuous
 62
     7
370
    30
100
AcDbSpline
210
0.0
220
0.0
230
1.0
 70
     8
 71
     3
 72
    10
 73
     6
 74
     0
 42
0.000000001
 43
0.00000001
 40
0.0
 40
0.0
 40
0.0
 40
0.0
 40
0.2800298065245248
 40
0.5601300469590464
 40
1.0
 40
1.0
 40
1.0
 40
1.0
 10
141.4127460254734
 20
112.1826295438725
 30
0.0
 10
141.3087474473171
 20
112.1735094603726
 30
0.0
 10
141.1007241329803
 20
112.1552669994628
 30
0.0
 10
140.7601592034845
 20
111.9882506358361
 30
0.0
 10
140.5739617679175
 20
111.795039236562
 30
0.0
 10
140.4602033679428
 20
111.6769956149012
 30
0.0
  0
SPLINE
  5
175
330
1F
100
AcDbEntity
  8
0
  6
Continuous
 62
     7
370
    30
100
AcDbSpline
210
0.0
220
0.0
230
1.0
 70
     8
 71
     3
 72
     9
 73
     5
 74
     0
 42
0.000000001
 43
0.00000001
 40
0.0
 40
0.0
 40
0.0
 40
0.0
 40
0.5598964152250872
 40
1.0
 40
1.0
 40
1.0
 40
1.0
 10
142.424013883416
 20
111.6769956149012
 30
0.0
 10
142.2648387183059
 20
111.8348005853428
 30
0.0
 10
141.9805447653858
 20
112.1166473093983
 30
0.0
 10
141.5862684467131
 20
112.1624650097164
 30
0.0
 10
141.4127460254734
 20
112.1826295438725
 30
0.0
  0
SPLINE
  5
176
330
1F
100
AcDbEntity
  8
0
  6
Continuous
 62
     7
370
    30
100
AcDbSpline
210
0.0
220
0.0
230
1.0
 70
     8
 71
     3
 72
    11
 73
     7
 74
     0
 42
0.000000001
 43
0.00000001
 40
0.0
 40
0.0
 40
0.0
 40
0.0
 40
0.280129930412732
 40
0.5601163870582004
 40
0.7801054999196941
 40
0.9999999999999999
 40
0.9999999999999999
 40
0.9999999999999999
 40
0.9999999999999999
 10
142.9575173990235
 20
109.8923467278038
 30
0.0
 10
142.9524876389193
 20
110.0699396405223
 30
0.0
 10
142.9424306947962
 20
110.4250345084377
 30
0.0
 10
142.8377949639428
 20
110.9101235720485
 30
0.0
 10
142.672371716899
 20
111.3390360877189
 30
0.0
 10
142.5067879563306
 20
111.5643585937416
 30
0.0
 10
142.424013883416
 20
111.6769956149012
 30
0.0
  0
SPLINE
  5
177
330
1F
100
AcDbEntity
  8
0
  6
Continuous
 62
     7
370
    30
100
AcDbSpline
210
0.0
220
0.0
230
1.0
 70
     8
 71
     3
 72
    10
 73
     6
 74
     0
 42
0.000000001
 43
0.00000001
 40
0.0
 40
0.0
 40
0.0
 40
0.0
 40
0.2798061903266481
 40
0.5599254203469173
 40
1.0
 40
1.0
 40
1.0
 40
1.0
 10
142.4439207310133
 20
108.1385534544821
 30
0.0
 10
142.542776781743
 20
108.2821975697197
 30
0.0
 10
142.7405994807121
 20
108.5696465053951
 30
0.0
 10
142.9223540120495
 20
109.1721181471672
 30
0.0
 10
142.9441803876181
 20
109.6191734751378
 30
0.0
 10
142.9575173990235
 20
109.8923467278038
 30
0.0
  0
SPLINE
  5
178
330
1F
100
AcDbEntity
  8
0
  6
Continuous
 62
     7
370
    30
100
AcDbSpline
210
0.0
220
0.0
230
1.0
 70
     8
 71
     3
 72
    10
 73
     6
 74
     0
 42
0.000000001
 43
0.00000001
 40
0.0
 40
0.0
 40
0.0
 40
0.0
 40
0.2802295808595978
 40
0.5604246777460777
 40
1.0
 40
1.0
 40
1.0
 40
1.0
 10
141.4127460254734
 20
107.6219707593323
 30
0.0
 10
141.5240547076463
 20
107.6300051908463
 30
0.0
 10
141.7466583747743
 20
107.6460730651881
 30
0.0
 10
142.1187813197106
 20
107.808122374964
 30
0.0
 10
142.3206414913544
 20
108.0132678359856
 30
0.0
 10
142.4439207310133
 20
108.1385534544821
 30
0.0
  0
SPLINE
  5
179
330
1F
100
AcDbEntity
  8
0
  6
Continuous
 62
     7
370
    30
100
AcDbSpline
210
0.0
220
0.0
230
1.0
 70
     8
 71
     3
 72
    10
 73
     6
 74
     0
 42
0.000000001
 43
0.00000001
 40
0.0
 40
0.0
 40
0.0
 40
0.0
 40
0.2797582719671647
 40
0.5598778938107669
 40
1.0
 40
1.0
 40
1.0
 40
1.0
 10
140.4602033679428
 20
111.6769956149013
 30
0.0
 10
140.3595066082954
 20
111.5309995183132
 30
0.0
 10
140.1579830239934
 20
111.2388187492245
 30
0.0
 10
139.9771411689256
 20
110.6247449557334
 30
0.0
 10
139.956334884425
 20
110.1701429164981
 30
0.0
 10
139.943620672793
 20
109.8923467278038
 30
0.0
  0
SPLINE
  5
17A
330
1F
100
AcDbEntity
  8
0
  6
Continuous
 62
     7
370
    30
100
AcDbSpline
210
0.0
220
0.0
230
1.0
 70
     8
 71
     3
 72
     9
 73
     5
 74
     0
 42
0.000000001
 43
0.00000001
 40
0.0
 40
0.0
 40
0.0
 40
0.0
 40
0.8427768410838624
 40
1.0
 40
1.0
 40
1.0
 40
1.0
 10
170.5971799454877
 20
109.8674631683071
 30
0.0
 10
170.5967937719498
 20
109.6850641681965
 30
0.0
 10
170.5963355562999
 20
109.4686379552075
 30
0.0
 10
170.6428491053119
 20
109.2584860586703
 30
0.0
 10
170.6501621124199
 20
109.2254453136445
 30
0.0
  0
SPLINE
  5
17B
330
1F
100
AcDbEntity
  8
0
  6
Continuous
 62
     7
370
    30
100
AcDbSpline
210
0.0
220
0.0
230
1.0
 70
     8
 71
     3
 72
    10
 73
     6
 74
     0
 42
0.000000001
 43
0.00000001
 40
0.0
 40
0.0
 40
0.0
 40
0.0
 40
0.2798811345009839
 40
0.5599585147220818
 40
1.0
 40
1.0
 40
1.0
 40
1.0
 10
171.1555670205918
 20
111.7287534186542
 30
0.0
 10
171.0489572767324
 20
111.5768890148776
 30
0.0
 10
170.8356630369014
 20
111.2730537237654
 30
0.0
 10
170.6349870748444
 20
110.6340403161067
 30
0.0
 10
170.6115199505957
 20
110.1582210333487
 30
0.0
 10
170.5971799454877
 20
109.8674631683071
 30
0.0
  0
SPLINE
  5
17C
330
1F
100
AcDbEntity
  8
0
  6
Continuous
 62
     7
370
    30
100
AcDbSpline
210
0.0
220
0.0
230
1.0
 70
     8
 71
     3
 72
    10
 73
     6
 74
     0
 42
0.000000001
 43
0.00000001
 40
0.0
 40
0.0
 40
0.0
 40
0.0
 40
0.2801976001720091
 40
0.56037003192355
 40
0.9999999999999999
 40
0.9999999999999999
 40
0.9999999999999999
 40
0.9999999999999999
 10
172.2235693941867
 20
112.2662383037812
 30
0.0
 10
172.1082844490888
 20
112.2574074735522
 30
0.0
 10
171.8777249142277
 20
112.2397466063133
 30
0.0
 10
171.4926757760872
 20
112.070901993762
 30
0.0
 10
171.2833908726071
 20
111.8584882538339
 30
0.0
 10
171.1555670205918
 20
111.7287534186542
 30
0.0
  0
SPLINE
  5
17D
330
1F
100
AcDbEntity
  8
0
  6
Continuous
 62
     7
370
    30
100
AcDbSpline
210
0.0
220
0.0
230
1.0
 70
     8
 71
     3
 72
    10
 73
     6
 74
     0
 42
0.000000001
 43
0.00000001
 40
0.0
 40
0.0
 40
0.0
 40
0.0
 40
0.2807931901961646
 40
0.5613380715103652
 40
1.0
 40
1.0
 40
1.0
 40
1.0
 10
173.3055065610997
 20
111.7287534186542
 30
0.0
 10
173.2250687520373
 20
111.8128762538389
 30
0.0
 10
173.0642642660594
 20
111.9810475333473
 30
0.0
 10
172.7072917089904
 20
112.2091642097967
 30
0.0
 10
172.4068289955972
 20
112.2446156178013
 30
0.0
 10
172.2235693941867
 20
112.2662383037812
 30
0.0
  0
SPLINE
  5
17E
330
1F
100
AcDbEntity
  8
0
  6
Continuous
 62
     7
370
    30
100
AcDbSpline
210
0.0
220
0.0
230
1.0
 70
     8
 71
     3
 72
     9
 73
     5
 74
     0
 42
0.000000001
 43
0.00000001
 40
0.0
 40
0.0
 40
0.0
 40
0.0
 40
0.4007527159507573
 40
1.0
 40
1.0
 40
1.0
 40
1.0
 10
173.6583180383031
 20
111.0971292968228
 30
0.0
 10
173.6246934387447
 20
111.1887036229067
 30
0.0
 10
173.5407898288126
 20
111.4172094381864
 30
0.0
 10
173.3936685736699
 20
111.6120160722668
 30
0.0
 10
173.3055065610997
 20
111.7287534186542
 30
0.0
  0
LINE
  5
17F
330
1F
100
AcDbEntity
  8
0
  6
Continuous
 62
     7
370
    30
100
AcDbLine
 10
184.3804411155
 20
116.4080775317
 30
0.0
 11
184.8804411155
 21
116.4080775317
 31
0.0
  0
LINE
  5
180
330
1F
100
AcDbEntity
  8
0
  6
Continuous
 62
     7
370
    30
100
AcDbLine
 10
184.8804411155
 20
116.4080775317
 30
0.0
 11
184.8804411155
 21
71.4080775317
 31
0.0
  0
LINE
  5
181
330
1F
100
AcDbEntity
  8
0
  6
Continuous
 62
     7
370
    30
100
AcDbLine
 10
184.8804411155
 20
71.4080775317
 30
0.0
 11
184.3804411155
 21
71.4080775317
 31
0.0
  0
LINE
  5
182
330
1F
100
AcDbEntity
  8
0
  6
Continuous
 62
     7
370
    30
100
AcDbLine
 10
182.8804411155
 20
117.9080775317
 30
0.0
 11
182.8804411155
 21
118.4080775317
 31
0.0
  0
ARC
  5
183
330
1F
100
AcDbEntity
  8
0
  6
Continuous
 62
     7
370
    30
100
AcDbCircle
 10
182.8804411155
 20
116.4080775317
 30
0.0
 40
2.0
100
AcDbArc
 50
0.0
 51
90.0
  0
ARC
  5
184
330
1F
100
AcDbEntity
  8
0
  6
Continuous
 62
     7
370
    30
100
AcDbCircle
 10
182.8804411155
 20
71.4080775317
 30
0.0
 40
2.0
100
AcDbArc
 50
270.0
 51
0.0
  0
LINE
  5
185
330
1F
100
AcDbEntity
  8
0
  6
Continuous
 62
     7
370
    30
100
AcDbLine
 10
182.8804411155
 20
69.4080775317
 30
0.0
 11
182.8804411155
 21
69.9080775317
 31
0.0
  0
LINE
  5
186
330
1F
100
AcDbEntity
  8
0
  6
Continuous
 62
     7
370
    30
100
AcDbLine
 10
138.3804411155
 20
117.9080775317
 30
0.0
 11
138.3804411155
 21
118.4080775317
 31
0.0
  0
LINE
  5
187
330
1F
100
AcDbEntity
  8
0
  6
Continuous
 62
     7
370
    30
100
AcDbLine
 10
138.3804411155
 20
118.4080775317
 30
0.0
 11
182.8804411155
 21
118.4080775317
 31
0.0
  0
LINE
  5
188
330
1F
100
AcDbEntity
  8
0
  6
Continuous
 62
     7
370
    30
100
AcDbLine
 10
182.8804411155
 20
69.4080775317
 30
0.0
 11
138.3804411155
 21
69.4080775317
 31
0.0
  0
LINE
  5
189
330
1F
100
AcDbEntity
  8
0
  6
Continuous
 62
     7
370
    30
100
AcDbLine
 10
138.3804411155
 20
69.4080775317
 30
0.0
 11
138.3804411155
 21
69.9080775317
 31
0.0
  0
LINE
  5
18A
330
1F
100
AcDbEntity
  8
0
  6
Continuous
 62
     7
370
    30
100
AcDbLine
 10
136.8804411155
 20
116.4080775317
 30
0.0
 11
136.3804411155
 21
116.4080775317
 31
0.0
  0
ARC
  5
18B
330
1F
100
AcDbEntity
  8
0
  6
Continuous
 62
     7
370
    30
100
AcDbCircle
 10
138.3804411155
 20
116.4080775317
 30
0.0
 40
2.000000000000014
100
AcDbArc
 50
90.0
 51
180.0
  0
ARC
  5
18C
330
1F
100
AcDbEntity
  8
0
  6
Continuous
 62
     7
370
    30
100
AcDbCircle
 10
138.3804411155
 20
71.4080775317
 30
0.0
 40
2.0
100
AcDbArc
 50
180.0
 51
270.0
  0
LINE
  5
18D
330
1F
100
AcDbEntity
  8
0
  6
Continuous
 62
     7
370
    30
100
AcDbLine
 10
136.3804411155
 20
71.4080775317
 30
0.0
 11
136.8804411155
 21
71.4080775317
 31
0.0
  0
LINE
  5
18E
330
1F
100
AcDbEntity
  8
0
  6
Continuous
 62
     7
370
    30
100
AcDbLine
 10
136.3804411155
 20
71.4080775317
 30
0.0
 11
136.3804411155
 21
116.4080775317
 31
0.0
  0
ARC
  5
18F
330
1F
100
AcDbEntity
  8
0
  6
Continuous
 62
     7
370
    30
100
AcDbCircle
 10
160.6304411155
 20
94.9080775317
 30
0.0
 40
13.75000000000003
100
AcDbArc
 50
0.0
 51
19.6644458143
  0
ARC
  5
190
330
1F
100
AcDbEntity
  8
0
  6
Continuous
 62
     7
370
    30
100
AcDbCircle
 10
160.6304411155
 20
94.9080775317
 30
0.0
 40
13.75000000000003
100
AcDbArc
 50
62.4188027432
 51
0.0
  0
LINE
  5
191
330
1F
100
AcDbEntity
  8
0
  6
Continuous
 62
     7
370
    30
100
AcDbLine
 10
154.3304411155
 20
67.9080775317
 30
0.0
 11
154.3304411155
 21
68.9080775317
 31
0.0
  0
LINE
  5
192
330
1F
100
AcDbEntity
  8
0
  6
Continuous
 62
     7
370
    30
100
AcDbLine
 10
141.1304411155
 20
63.9080775317
 30
0.0
 11
154.3304411155
 21
67.9080775317
 31
0.0
  0
LINE
  5
193
330
1F
100
AcDbEntity
  8
0
  6
Continuous
 62
     7
370
    30
100
AcDbLine
 10
135.6304411155
 20
63.9080775317
 30
0.0
 11
141.1304411155
 21
63.9080775317
 31
0.0
  0
LINE
  5
194
330
1F
100
AcDbEntity
  8
0
  6
Continuous
 62
     7
370
    30
100
AcDbLine
 10
135.6304411155
 20
119.4080775317
 30
0.0
 11
135.6304411155
 21
63.9080775317
 31
0.0
  0
LINE
  5
195
330
1F
100
AcDbEntity
  8
0
  6
Continuous
 62
     7
370
    30
100
AcDbLine
 10
185.6304411155
 20
119.4080775317
 30
0.0
 11
135.6304411155
 21
119.4080775317
 31
0.0
  0
LINE
  5
196
330
1F
100
AcDbEntity
  8
0
  6
Continuous
 62
     7
370
    30
100
AcDbLine
 10
185.6304411155
 20
63.9080775317
 30
0.0
 11
185.6304411155
 21
119.4080775317
 31
0.0
  0
LINE
  5
197
330
1F
100
AcDbEntity
  8
0
  6
Continuous
 62
     7
370
    30
100
AcDbLine
 10
166.9304411155
 20
67.9080775317
 30
0.0
 11
180.1304411155
 21
63.9080775317
 31
0.0
  0
LINE
  5
198
330
1F
100
AcDbEntity
  8
0
  6
Continuous
 62
     7
370
    30
100
AcDbLine
 10
154.3304411155
 20
68.9080775317
 30
0.0
 11
166.9304411155
 21
68.9080775317
 31
0.0
  0
LINE
  5
199
330
1F
100
AcDbEntity
  8
0
  6
Continuous
 62
     7
370
    30
100
AcDbLine
 10
180.1304411155
 20
63.9080775317
 30
0.0
 11
185.6304411155
 21
63.9080775317
 31
0.0
  0
LINE
  5
19A
330
1F
100
AcDbEntity
  8
0
  6
Continuous
 62
     7
370
    30
100
AcDbLine
 10
166.9304411155
 20
68.9080775317
 30
0.0
 11
166.9304411155
 21
67.9080775317
 31
0.0
  0
DIMENSION
  5
19B
330
1F
100
AcDbEntity
  8
SLD-0
100
AcDbDimension
  2
_D
 10
185.6304411155
 20
127.335721326
 30
0.0
 11
160.6304411155
 21
127.335721326
 31
0.0
 70
   160
  1
<>
 71
     2
 42
-1.0
  3
SLDDIMSTYLE0
100
AcDbAlignedDimension
 13
135.6304411155
 23
119.4080775317
 33
0.0
 14
185.6304411155
 24
119.4080775317
 34
0.0
100
AcDbRotatedDimension
  0
LINE
  5
1A6
330
1F
100
AcDbEntity
  8
0
  6
Continuous
 62
     7
370
    30
100
AcDbLine
 10
104.2125899902
 20
83.5616352044
 30
0.0
 11
117.1125899902
 21
83.5616352044
 31
0.0
  0
ARC
  5
1A7
330
1F
100
AcDbEntity
  8
0
  6
Continuous
 62
     7
370
    30
100
AcDbCircle
 10
117.1125899902
 20
84.5616352044
 30
0.0
 40
1.0
100
AcDbArc
 50
270.0
 51
0.0
  0
LINE
  5
1A8
330
1F
100
AcDbEntity
  8
0
  6
Continuous
 62
     7
370
    30
100
AcDbLine
 10
105.7125899902
 20
106.0677318588
 30
0.0
 11
104.2125899902
 21
106.0677318588
 31
0.0
  0
SPLINE
  5
1A9
330
1F
100
AcDbEntity
  8
0
  6
Continuous
 62
     7
370
    30
100
AcDbSpline
210
0.0
220
0.0
230
1.0
 70
     8
 71
     3
 72
    16
 73
    12
 74
     0
 42
0.000000001
 43
0.00000001
 40
0.0
 40
0.0
 40
0.0
 40
0.0
 40
0.0608510949477813
 40
0.2001821150920894
 40
0.3241718159275667
 40
0.4408389278650602
 40
0.5644087164777876
 40
0.6862852337915716
 40
0.8084071950372458
 40
0.9313780058754556
 40
1.0
 40
1.0
 40
1.0
 40
1.0
 10
107.2125899901992
 20
106.8354988117935
 30
0.0
 10
107.2121420508198
 20
106.8244657475141
 30
0.0
 10
107.2106684626702
 20
106.7881702273545
 30
0.0
 10
107.1922935032054
 20
106.7189176132038
 30
0.0
 10
107.1243123304201
 20
106.6015028856302
 30
0.0
 10
106.9961678278333
 20
106.4658506932159
 30
0.0
 10
106.8014122909951
 20
106.3277828927252
 30
0.0
 10
106.5423253408714
 20
106.2053474303506
 30
0.0
 10
106.238109136214
 20
106.1161279771281
 30
0.0
 10
105.9535899983077
 20
106.0731751523601
 30
0.0
 10
105.7761447964533
 20
106.0691673254422
 30
0.0
 10
105.7125899901992
 20
106.0677318588272
 30
0.0
  0
ARC
  5
1AA
330
1F
100
AcDbEntity
  8
0
  6
Continuous
 62
     7
370
    30
100
AcDbCircle
 10
108.2125899902
 20
111.9965473828
 30
0.0
 40
1.0
100
AcDbArc
 50
90.0
 51
180.0
  0
LINE
  5
1AB
330
1F
100
AcDbEntity
  8
0
  6
Continuous
 62
     7
370
    30
100
AcDbLine
 10
117.1125899902
 20
112.9965473828
 30
0.0
 11
108.2125899902
 21
112.9965473828
 31
0.0
  0
ARC
  5
1AC
330
1F
100
AcDbEntity
  8
0
  6
Continuous
 62
     7
370
    30
100
AcDbCircle
 10
117.1125899902
 20
111.9965473828
 30
0.0
 40
1.0
100
AcDbArc
 50
0.0
 51
90.0
  0
LINE
  5
1AD
330
1F
100
AcDbEntity
  8
0
  6
Continuous
 62
     7
370
    30
100
AcDbLine
 10
40.1125899902
 20
63.9080775317
 30
0.0
 11
100.7125899902
 21
63.9080775317
 31
0.0
  0
LINE
  5
1AE
330
1F
100
AcDbEntity
  8
0
  6
Continuous
 62
     7
370
    30
100
AcDbLine
 10
40.1125899902
 20
119.4080775317
 30
0.0
 11
100.7125899902
 21
119.4080775317
 31
0.0
  0
LINE
  5
1AF
330
1F
100
AcDbEntity
  8
0
  6
Continuous
 62
     7
370
    30
100
AcDbLine
 10
100.7125899902
 20
119.4080775317
 30
0.0
 11
100.7125899902
 21
63.9080775317
 31
0.0
  0
LINE
  5
1B0
330
1F
100
AcDbEntity
  8
0
  6
Continuous
 62
     7
370
    30
100
AcDbLine
 10
40.1125899902
 20
119.4080775317
 30
0.0
 11
40.1125899902
 21
63.9080775317
 31
0.0
  0
LINE
  5
1B1
330
1F
100
AcDbEntity
  8
0
  6
Continuous
 62
     7
370
    30
100
AcDbLine
 10
103.7125899902
 20
118.4080775317
 30
0.0
 11
100.7125899902
 21
118.4080775317
 31
0.0
  0
LINE
  5
1B2
330
1F
100
AcDbEntity
  8
0
  6
Continuous
 62
     7
370
    30
100
AcDbLine
 10
103.7125899902
 20
116.4080775317
 30
0.0
 11
103.7125899902
 21
118.4080775317
 31
0.0
  0
LINE
  5
1B3
330
1F
100
AcDbEntity
  8
0
  6
Continuous
 62
     7
370
    30
100
AcDbLine
 10
103.7125899902
 20
116.4080775317
 30
0.0
 11
100.7125899902
 21
116.4080775317
 31
0.0
  0
LINE
  5
1B4
330
1F
100
AcDbEntity
  8
0
  6
Continuous
 62
     7
370
    30
100
AcDbLine
 10
103.7125899902
 20
71.4080775317
 30
0.0
 11
100.7125899902
 21
71.4080775317
 31
0.0
  0
LINE
  5
1B5
330
1F
100
AcDbEntity
  8
0
  6
Continuous
 62
     7
370
    30
100
AcDbLine
 10
103.7125899902
 20
69.4080775317
 30
0.0
 11
103.7125899902
 21
71.4080775317
 31
0.0
  0
LINE
  5
1B6
330
1F
100
AcDbEntity
  8
0
  6
Continuous
 62
     7
370
    30
100
AcDbLine
 10
103.7125899902
 20
69.4080775317
 30
0.0
 11
100.7125899902
 21
69.4080775317
 31
0.0
  0
LINE
  5
1B7
330
1F
100
AcDbEntity
  8
0
  6
Continuous
 62
     7
370
    30
100
AcDbLine
 10
103.7125899902
 20
71.4080775317
 30
0.0
 11
103.7125899902
 21
116.4080775317
 31
0.0
  0
LINE
  5
1B8
330
1F
100
AcDbEntity
  8
0
  6
Continuous
 62
     7
370
    30
100
AcDbLine
 10
104.2125899902
 20
117.9080775317
 30
0.0
 11
104.2125899902
 21
116.4080775317
 31
0.0
  0
LINE
  5
1B9
330
1F
100
AcDbEntity
  8
0
  6
Continuous
 62
     7
370
    30
100
AcDbLine
 10
104.2125899902
 20
116.4080775317
 30
0.0
 11
103.7125899902
 21
116.4080775317
 31
0.0
  0
ARC
  5
1BA
330
1F
100
AcDbEntity
  8
0
  6
Continuous
 62
     7
370
    30
100
AcDbCircle
 10
103.7125899902
 20
117.9080775317
 30
0.0
 40
0.5
100
AcDbArc
 50
0.0
 51
90.0
  0
LINE
  5
1BB
330
1F
100
AcDbEntity
  8
0
  6
Continuous
 62
     7
370
    30
100
AcDbLine
 10
104.2125899902
 20
116.4080775317
 30
0.0
 11
104.2125899902
 21
71.4080775317
 31
0.0
  0
LINE
  5
1BC
330
1F
100
AcDbEntity
  8
0
  6
Continuous
 62
     7
370
    30
100
AcDbLine
 10
103.7125899902
 20
71.4080775317
 30
0.0
 11
104.2125899902
 21
71.4080775317
 31
0.0
  0
LINE
  5
1BD
330
1F
100
AcDbEntity
  8
0
  6
Continuous
 62
     7
370
    30
100
AcDbLine
 10
104.2125899902
 20
71.4080775317
 30
0.0
 11
104.2125899902
 21
69.9080775317
 31
0.0
  0
ARC
  5
1BE
330
1F
100
AcDbEntity
  8
0
  6
Continuous
 62
     7
370
    30
100
AcDbCircle
 10
103.7125899902
 20
69.9080775317
 30
0.0
 40
0.5
100
AcDbArc
 50
270.0
 51
0.0
  0
LINE
  5
1BF
330
1F
100
AcDbEntity
  8
0
  6
Continuous
 62
     7
370
    30
100
AcDbLine
 10
104.2125899902
 20
90.9255962351
 30
0.0
 11
117.1125899902
 21
90.9255962351
 31
0.0
  0
LINE
  5
1C0
330
1F
100
AcDbEntity
  8
0
  6
Continuous
 62
     7
370
    30
100
AcDbLine
 10
117.1125899902
 20
90.9255962351
 30
0.0
 11
117.1125899902
 21
89.5113826727
 31
0.0
  0
LINE
  5
1C1
330
1F
100
AcDbEntity
  8
0
  6
Continuous
 62
     7
370
    30
100
AcDbLine
 10
117.1125899902
 20
89.5113826727
 30
0.0
 11
104.2125899902
 21
89.5113826727
 31
0.0
  0
ARC
  5
1C2
330
1F
100
AcDbEntity
  8
0
  6
Continuous
 62
     7
370
    30
100
AcDbCircle
 10
117.2375899902
 20
90.3952661492
 30
0.0
 40
0.8926785535678512
100
AcDbArc
 50
261.9505330245
 51
348.578246341
  0
ARC
  5
1C3
330
1F
100
AcDbEntity
  8
0
  6
Continuous
 62
     7
370
    30
100
AcDbCircle
 10
117.2375899902
 20
90.0417127586
 30
0.0
 40
0.8926785535678512
100
AcDbArc
 50
11.421753659
 51
98.0494669755
  0
LINE
  5
1C4
330
1F
100
AcDbEntity
  8
0
  6
Continuous
 62
     7
370
    30
100
AcDbLine
 10
108.2125899902
 20
107.7505757037
 30
0.0
 11
108.2125899902
 21
107.542605593
 31
0.0
  0
LINE
  5
1C5
330
1F
100
AcDbEntity
  8
0
  6
Continuous
 62
     7
370
    30
100
AcDbLine
 10
117.1125899902
 20
107.7505757037
 30
0.0
 11
108.2125899902
 21
107.7505757037
 31
0.0
  0
LINE
  5
1C6
330
1F
100
AcDbEntity
  8
0
  6
Continuous
 62
     7
370
    30
100
AcDbLine
 10
117.1125899902
 20
90.9255962351
 30
0.0
 11
117.1125899902
 21
107.7505757037
 31
0.0
  0
LINE
  5
1C7
330
1F
100
AcDbEntity
  8
0
  6
Continuous
 62
     7
370
    30
100
AcDbLine
 10
105.7125899902
 20
105.77483864
 30
0.0
 11
104.2125899902
 21
105.77483864
 31
0.0
  0
ARC
  5
1C8
330
1F
100
AcDbEntity
  8
0
  6
Continuous
 62
     7
370
    30
100
AcDbCircle
 10
106.0250899902
 20
107.9845473312
 30
0.0
 40
2.231696383919658
100
AcDbArc
 50
261.9505330245
 51
348.578246341
  0
LINE
  5
1C9
330
1F
100
AcDbEntity
  8
0
  6
Continuous
 62
     7
370
    30
100
AcDbLine
 10
117.1125899902
 20
83.8545284232
 30
0.0
 11
117.1125899902
 21
89.5113826727
 31
0.0
  0
LINE
  5
1CA
330
1F
100
AcDbEntity
  8
0
  6
Continuous
 62
     7
370
    30
100
AcDbLine
 10
104.2125899902
 20
83.8545284232
 30
0.0
 11
117.1125899902
 21
83.8545284232
 31
0.0
  0
LINE
  5
1CB
330
1F
100
AcDbEntity
  8
0
  6
Continuous
 62
     7
370
    30
100
AcDbLine
 10
118.1125899902
 20
107.0434689225
 30
0.0
 11
118.1125899902
 21
90.2184894539
 31
0.0
  0
ARC
  5
1CC
330
1F
100
AcDbEntity
  8
0
  6
Continuous
 62
     7
370
    30
100
AcDbCircle
 10
117.2375899902
 20
106.8666922272
 30
0.0
 40
0.8926785535678174
100
AcDbArc
 50
11.421753659
 51
98.0494669755
  0
LINE
  5
1CD
330
1F
100
AcDbEntity
  8
0
  6
Continuous
 62
     7
370
    30
100
AcDbLine
 10
118.1125899902
 20
90.2184894539
 30
0.0
 11
118.1125899902
 21
84.5616352044
 31
0.0
  0
ARC
  5
1CE
330
1F
100
AcDbEntity
  8
0
  6
Continuous
 62
     7
370
    30
100
AcDbCircle
 10
117.2375899902
 20
84.7384118997
 30
0.0
 40
0.892678553567837
100
AcDbArc
 50
261.9505330245
 51
348.578246341
  0
ARC
  5
1CF
330
1F
100
AcDbEntity
  8
0
  6
Continuous
 62
     7
370
    30
100
AcDbCircle
 10
108.0875899902
 20
106.6587221165
 30
0.0
 40
0.8926785535678391
100
AcDbArc
 50
81.9505330245
 51
168.578246341
  0
LINE
  5
1D0
330
1F
100
AcDbEntity
  8
0
  6
Continuous
 62
     7
370
    30
100
AcDbLine
 10
107.2125899902
 20
106.8354988118
 30
0.0
 11
107.2125899902
 21
107.0434689225
 31
0.0
  0
ARC
  5
1D1
330
1F
100
AcDbEntity
  8
0
  6
Continuous
 62
     7
370
    30
100
AcDbCircle
 10
108.0875899902
 20
106.8666922272
 30
0.0
 40
0.8926785535678372
100
AcDbArc
 50
81.9505330245
 51
168.578246341
  0
ARC
  5
1D2
330
1F
100
AcDbEntity
  8
0
  6
Continuous
 62
     7
370
    30
100
AcDbCircle
 10
108.1776822359
 20
107.0058349955
 30
0.0
 40
0.9658257374595396
100
AcDbArc
 50
87.9287125778
 51
177.7668733388
  0
LINE
  5
1D3
330
1F
100
AcDbEntity
  8
0
  6
Continuous
 62
     7
370
    30
100
AcDbLine
 10
108.2125899902
 20
107.9710296929
 30
0.0
 11
108.2125899902
 21
107.7505757037
 31
0.0
  0
LINE
  5
1D4
330
1F
100
AcDbEntity
  8
0
  6
Continuous
 62
     7
370
    30
100
AcDbLine
 10
117.1125899902
 20
107.9710296929
 30
0.0
 11
117.1125899902
 21
107.7505757037
 31
0.0
  0
LINE
  5
1D5
330
1F
100
AcDbEntity
  8
0
  6
Continuous
 62
     7
370
    30
100
AcDbLine
 10
108.2125899902
 20
107.9710296929
 30
0.0
 11
117.1125899902
 21
107.9710296929
 31
0.0
  0
ARC
  5
1D6
330
1F
100
AcDbEntity
  8
0
  6
Continuous
 62
     7
370
    30
100
AcDbCircle
 10
117.1474977445
 20
107.0058349955
 30
0.0
 40
0.9658257374594953
100
AcDbArc
 50
2.2331266612
 51
92.0712874222
  0
LINE
  5
1D7
330
1F
100
AcDbEntity
  8
0
  6
Continuous
 62
     7
370
    30
100
AcDbLine
 10
107.2125899902
 20
107.0434689225
 30
0.0
 11
107.2125899902
 21
111.9965473828
 31
0.0
  0
ARC
  5
1D8
330
1F
100
AcDbEntity
  8
0
  6
Continuous
 62
     7
370
    30
100
AcDbCircle
 10
108.1042810689
 20
111.8526797885
 30
0.0
 40
0.9032224889198501
100
AcDbArc
 50
83.1128671002
 51
170.8347438363
  0
LINE
  5
1D9
330
1F
100
AcDbEntity
  8
0
  6
Continuous
 62
     7
370
    30
100
AcDbLine
 10
108.2125899902
 20
112.7493848916
 30
0.0
 11
108.2125899902
 21
107.9710296929
 31
0.0
  0
LINE
  5
1DA
330
1F
100
AcDbEntity
  8
0
  6
Continuous
 62
     7
370
    30
100
AcDbLine
 10
117.1125899902
 20
107.9710296929
 30
0.0
 11
117.1125899902
 21
112.7493848916
 31
0.0
  0
LINE
  5
1DB
330
1F
100
AcDbEntity
  8
0
  6
Continuous
 62
     7
370
    30
100
AcDbLine
 10
117.1125899902
 20
112.7493848916
 30
0.0
 11
108.2125899902
 21
112.7493848916
 31
0.0
  0
ARC
  5
1DC
330
1F
100
AcDbEntity
  8
0
  6
Continuous
 62
     7
370
    30
100
AcDbCircle
 10
117.2208989115
 20
111.8526797885
 30
0.0
 40
0.9032224889198153
100
AcDbArc
 50
9.1652561637
 51
96.8871328998
  0
LINE
  5
1DD
330
1F
100
AcDbEntity
  8
0
  6
Continuous
 62
     7
370
    30
100
AcDbLine
 10
118.1125899902
 20
111.9965473828
 30
0.0
 11
118.1125899902
 21
107.0434689225
 31
0.0
  0
LINE
  5
1DE
330
1F
100
AcDbEntity
  8
0
  6
Continuous
 62
     8
370
    30
100
AcDbLine
 10
117.1125899902
 20
83.8545284232
 30
0.0
 11
117.1125899902
 21
83.5616352044
 31
0.0
  0
LINE
  5
1DF
330
1F
100
AcDbEntity
  8
0
  6
Continuous
 62
     8
370
    30
100
AcDbLine
 10
105.7125899902
 20
106.0677318588
 30
0.0
 11
105.7125899902
 21
105.77483864
 31
0.0
  0
LINE
  5
1E0
330
1F
100
AcDbEntity
  8
0
  6
Continuous
 62
     8
370
    30
100
AcDbLine
 10
108.2125899902
 20
112.9965473828
 30
0.0
 11
108.2125899902
 21
112.7493848916
 31
0.0
  0
LINE
  5
1E1
330
1F
100
AcDbEntity
  8
0
  6
Continuous
 62
     8
370
    30
100
AcDbLine
 10
117.1125899902
 20
112.9965473828
 30
0.0
 11
117.1125899902
 21
112.7493848916
 31
0.0
  0
LINE
  5
1E2
330
1F
100
AcDbEntity
  8
SLD-0
  6
CENTERX2
100
AcDbLine
 10
67.1125899902
 20
119.4080775317
 30
0.0
 11
67.1125899902
 21
109.4080775317
 31
0.0
  0
LINE
  5
1E3
330
1F
100
AcDbEntity
  8
SLD-0
  6
CENTERX2
100
AcDbLine
 10
67.1125899902
 20
109.4080775317
 30
0.0
 11
69.6125899902
 21
107.9647018587
 31
0.0
  0
LINE
  5
1E4
330
1F
100
AcDbEntity
  8
SLD-0
  6
CENTERX2
100
AcDbLine
 10
69.6125899902
 20
107.9647018587
 30
0.0
 11
72.1125899902
 21
109.4080775317
 31
0.0
  0
LINE
  5
1E5
330
1F
100
AcDbEntity
  8
SLD-0
  6
CENTERX2
100
AcDbLine
 10
72.1125899902
 20
109.4080775317
 30
0.0
 11
72.1125899902
 21
119.4080775317
 31
0.0
  0
DIMENSION
  5
1E6
330
1F
100
AcDbEntity
  8
SLD-0
100
AcDbDimension
  2
_D_1
 10
30.2551698327
 20
63.9080775317
 30
0.0
 11
30.2551698327
 21
91.6580775317
 31
0.0
 70
   160
  1
<>
 71
     2
 42
-1.0
  3
SLDDIMSTYLE0
100
AcDbAlignedDimension
 13
40.1125899902
 23
119.4080775317
 33
0.0
 14
40.1125899902
 24
63.9080775317
 34
0.0
 50
90.0
100
AcDbRotatedDimension
  0
DIMENSION
  5
1F0
330
1F
100
AcDbEntity
  8
SLD-0
100
AcDbDimension
  2
_D_2
 10
118.1125899902
 20
40.9241139195
 30
0.0
 11
79.1125899902
 21
40.9241139195
 31
0.0
 70
   160
  1
<>
 71
     2
 42
-1.0
  3
SLDDIMSTYLE0
100
AcDbAlignedDimension
 13
40.1125899902
 23
63.9080775317
 33
0.0
 14
118.1125899902
 24
90.2184894539
 34
0.0
 50
0.0
100
AcDbRotatedDimension
  0
DIMENSION
  5
1FA
330
1F
100
AcDbEntity
  8
SLD-0
100
AcDbDimension
  2
_D_3
 10
40.1125899902
 20
55.0151752588
 30
0.0
 11
54.8625899902
 21
55.0151752588
 31
0.0
 70
   160
  1
<>
 71
     2
 42
-1.0
  3
SLDDIMSTYLE0
100
AcDbAlignedDimension
 13
69.6125899902
 23
107.4080775317
 33
0.0
 14
40.1125899902
 24
63.9080775317
 34
0.0
100
AcDbRotatedDimension
  0
DIMENSION
  5
204
330
1F
100
AcDbEntity
  8
SLD-0
100
AcDbDimension
  2
_D_4
 10
100.7125899902
 20
47.9037985081
 30
0.0
 11
70.4125899902
 21
47.9037985081
 31
0.0
 70
   160
  1
<>
 71
     2
 42
-1.0
  3
SLDDIMSTYLE0
100
AcDbAlignedDimension
 13
40.1125899902
 23
63.9080775317
 33
0.0
 14
100.7125899902
 24
63.9080775317
 34
0.0
100
AcDbRotatedDimension
  0
INSERT
  5
213
330
1F
100
AcDbEntity
  8
SLD-0
100
AcDbBlockReference
  2
SW_NOTE_2
 10
73.4783653846
 20
128.2307691227
 30
0.0
  0
LEADER
  5
215
330
1F
100
AcDbEntity
  8
SLD-0
100
AcDbLeader
  3
SLDDIMSTYLE1
 76
     2
 10
70.7052838201
 20
119.4080775317
 30
0.0
 10
73.4783653846
 20
128.2307691227
 30
0.0
  0
LINE
  5
216
330
1F
100
AcDbEntity
  8
SLD-0
  6
CENTERX2
370
     0
100
AcDbLine
 10
69.6125899902
 20
107.4080775317
 30
0.0
 11
69.6125899902
 21
121.4080775317
 31
0.0
  0
LINE
  5
217
330
1F
100
AcDbEntity
  8
0
  6
Continuous
 62
     7
370
    30
100
AcDbLine
 10
231.7598964019
 20
144.3985884729
 30
0.0
 11
230.5606798118
 21
146.4756925302
 31
0.0
  0
ARC
  5
218
330
1F
100
AcDbEntity
  8
0
  6
Continuous
 62
     7
370
    30
100
AcDbCircle
 10
231.1825461331
 20
144.0652551388
 30
0.0
 40
0.6666666666666856
100
AcDbArc
 50
306.6306917676
 51
0.0
  0
ARC
  5
219
330
1F
100
AcDbEntity
  8
0
  6
Continuous
 62
     7
370
    30
100
AcDbCircle
 10
231.1825461331
 20
144.0652551388
 30
0.0
 40
0.6666666666667006
100
AcDbArc
 50
0.0
 51
30.0000000728
  0
ARC
  5
21A
330
1F
100
AcDbEntity
  8
0
  6
Continuous
 62
     7
370
    30
100
AcDbCircle
 10
229.983329543
 20
146.1423591961
 30
0.0
 40
0.6666666666666619
100
AcDbArc
 50
30.0000000728
 51
113.3799168625
  0
SPLINE
  5
21B
330
1F
100
AcDbEntity
  8
0
  6
Continuous
 62
     7
370
    30
100
AcDbSpline
210
0.0
220
0.0
230
1.0
 70
     8
 71
     3
 72
    13
 73
     9
 74
     0
 42
0.000000001
 43
0.00000001
 40
0.0
 40
0.0
 40
0.0
 40
0.0
 40
0.1048384935971827
 40
0.3075644491615686
 40
0.5110622814474453
 40
0.7159910894253776
 40
0.9225830046615682
 40
1.0
 40
1.0
 40
1.0
 40
1.0
 10
229.4585618356021
 20
140.7554739794315
 30
0.0
 10
229.5141936677963
 20
140.8780683945454
 30
0.0
 10
229.677400646813
 20
141.2377233500972
 30
0.0
 10
229.9862269741847
 20
141.7885669630265
 30
0.0
 10
230.4001085538975
 20
142.385611149953
 30
0.0
 10
230.8630936887075
 20
142.9176506240752
 30
0.0
 10
231.2643057889733
 20
143.2884991148893
 30
0.0
 10
231.512627011012
 20
143.4784723474124
 30
0.0
 10
231.5803160241845
 20
143.5302564862513
 30
0.0
  0
SPLINE
  5
21C
330
1F
100
AcDbEntity
  8
0
  6
Continuous
 62
     7
370
    30
100
AcDbSpline
210
0.0
220
0.0
230
1.0
 70
     8
 71
     3
 72
    13
 73
     9
 74
     0
 42
0.000000001
 43
0.00000001
 40
0.0
 40
0.0
 40
0.0
 40
0.0
 40
0.1044834029857353
 40
0.3137920114778595
 40
0.5220470047459499
 40
0.728684138584907
 40
0.9337184781206547
 40
1.0
 40
1.0
 40
1.0
 40
1.0
 10
229.7187787578243
 20
146.7542883803293
 30
0.0
 10
229.6123336554603
 20
146.7105515274779
 30
0.0
 10
229.2926501284285
 20
146.5791978900601
 30
0.0
 10
228.7308835309158
 20
146.4148905076156
 30
0.0
 10
228.0227225016253
 20
146.2890354858473
 30
0.0
 10
227.2826207244243
 20
146.2405949877869
 30
0.0
 10
226.6874616270319
 20
146.259230863742
 30
0.0
 10
226.3400951753914
 20
146.2949441160112
 30
0.0
 10
226.2552347586636
 20
146.3036687394052
 30
0.0
  0
LINE
  5
21D
330
1F
100
AcDbEntity
  8
0
  6
Continuous
 62
     7
370
    30
100
AcDbLine
 10
229.1729406041
 20
133.9994159685
 30
0.0
 11
229.1776546493
 21
134.0021373289
 31
0.0
  0
LINE
  5
21E
330
1F
100
AcDbEntity
  8
0
  6
Continuous
 62
     7
370
    30
100
AcDbLine
 10
219.6784266893
 20
150.4570657141
 30
0.0
 11
219.6737126441
 21
150.4543443537
 31
0.0
  0
LINE
  5
21F
330
1F
100
AcDbEntity
  8
0
  6
Continuous
 62
     7
370
    30
100
AcDbLine
 10
229.006287482
 20
134.2880989226
 30
0.0
 11
229.0110015272
 21
134.290820283
 31
0.0
  0
LINE
  5
220
330
1F
100
AcDbEntity
  8
0
  6
Continuous
 62
     7
370
    30
100
AcDbLine
 10
219.8450798114
 20
150.16838276
 30
0.0
 11
219.8403657662
 21
150.1656613996
 31
0.0
  0
ARC
  5
221
330
1F
100
AcDbEntity
  8
0
  6
Continuous
 62
     7
370
    30
100
AcDbCircle
 10
228.8476425551
 20
141.0223486264
 30
0.0
 40
0.666666666666654
100
AcDbArc
 50
300.0053758774
 51
336.4023172982
  0
ARC
  5
222
330
1F
100
AcDbEntity
  8
0
  6
Continuous
 62
     7
370
    30
100
AcDbCircle
 10
226.1809758885
 20
145.6411507663
 30
0.0
 40
0.6666666666666865
100
AcDbArc
 50
83.6046485297
 51
119.9973117336
  0
SPLINE
  5
223
330
1F
100
AcDbEntity
  8
0
  6
Continuous
 62
     7
370
    30
100
AcDbSpline
210
0.0
220
0.0
230
1.0
 70
     8
 71
     3
 72
    10
 73
     6
 74
     0
 42
0.000000001
 43
0.00000001
 40
0.0
 40
0.0
 40
0.0
 40
0.0
 40
0.0097044115736298
 40
0.3338482961382455
 40
1.0
 40
1.0
 40
1.0
 40
1.0
 10
228.8200801940875
 20
140.2365552107814
 30
0.0
 10
228.8200541265321
 20
140.2365400450699
 30
0.0
 10
228.8191573582026
 20
140.2360183187503
 30
0.0
 10
228.8260472168759
 20
140.2400141500959
 30
0.0
 10
228.8467083082217
 20
140.2519482672733
 30
0.0
 10
228.8606066042098
 20
140.2599761052084
 30
0.0
  0
LINE
  5
224
330
1F
100
AcDbEntity
  8
0
  6
Continuous
 62
     7
370
    30
100
AcDbLine
 10
213.4767540009
 20
138.3056350102
 30
0.0
 11
216.1434206676
 21
133.6868328702
 31
0.0
  0
SPLINE
  5
225
330
1F
100
AcDbEntity
  8
0
  6
Continuous
 62
     7
370
    30
100
AcDbSpline
210
0.0
220
0.0
230
1.0
 70
     8
 71
     3
 72
    12
 73
     8
 74
     0
 42
0.000000001
 43
0.00000001
 40
0.0
 40
0.0
 40
0.0
 40
0.0
 40
0.013558826923425
 40
0.2900981871027982
 40
0.5587507917190089
 40
0.8374720099850572
 40
1.0
 40
1.0
 40
1.0
 40
1.0
 10
213.507605417629
 20
161.2765900616311
 30
0.0
 10
213.5039766216671
 20
161.2752237144943
 30
0.0
 10
213.4263366358579
 20
161.2459900035266
 30
0.0
 10
213.3106874102309
 20
161.1225482903586
 30
0.0
 10
213.1886364732451
 20
160.9211583586957
 30
0.0
 10
213.1365875903258
 20
160.7155266619268
 30
0.0
 10
213.1316550242702
 20
160.5798904196461
 30
0.0
 10
213.1298381823777
 20
160.5299307020595
 30
0.0
  0
ARC
  5
226
330
1F
100
AcDbEntity
  8
0
  6
Continuous
 62
     7
370
    30
100
AcDbCircle
 10
216.7207709364
 20
134.0201662043
 30
0.0
 40
0.6666666666667007
100
AcDbArc
 50
210.0000000728
 51
299.9973117336
  0
ARC
  5
227
330
1F
100
AcDbEntity
  8
0
  6
Continuous
 62
     7
370
    30
100
AcDbCircle
 10
214.0541042697
 20
138.6389683442
 30
0.0
 40
0.6666666666666786
100
AcDbArc
 50
120.0053758774
 51
210.0000000728
  0
SPLINE
  5
228
330
1F
100
AcDbEntity
  8
0
  6
Continuous
 62
     7
370
    30
100
AcDbSpline
210
0.0
220
0.0
230
1.0
 70
     8
 71
     3
 72
    11
 73
     7
 74
     0
 42
0.000000001
 43
0.00000001
 40
0.0
 40
0.0
 40
0.0
 40
0.0
 40
0.1823168811674439
 40
0.4756170568156967
 40
0.7489019970575133
 40
1.0
 40
1.0
 40
1.0
 40
1.0
 10
234.9811263499925
 20
122.4102248648594
 30
0.0
 10
235.0303680344851
 20
122.3843188530166
 30
0.0
 10
235.1588267098475
 20
122.3167368440023
 30
0.0
 10
235.3714091520112
 20
122.2640137565444
 30
0.0
 10
235.6093663900952
 20
122.267282421346
 30
0.0
 10
235.7453414243388
 20
122.3303740988295
 30
0.0
 10
235.8104523513672
 20
122.3605852153891
 30
0.0
  0
LINE
  5
229
330
1F
100
AcDbEntity
  8
0
  6
Continuous
 62
     7
370
    30
100
AcDbLine
 10
214.9178793708
 20
162.0928665745
 30
0.0
 11
213.5036658085
 21
161.2764584627
 31
0.0
  0
LINE
  5
22A
330
1F
100
AcDbEntity
  8
0
  6
Continuous
 62
     7
370
    30
100
AcDbLine
 10
235.8143919605
 20
122.3607168144
 30
0.0
 11
237.2286055229
 21
123.1771249262
 31
0.0
  0
LINE
  5
22B
330
1F
100
AcDbEntity
  8
0
  6
Continuous
 62
     7
370
    30
100
AcDbLine
 10
213.1298381824
 20
160.5299307021
 30
0.0
 11
213.1298381824
 21
136.0337063455
 31
0.0
  0
LINE
  5
22C
330
1F
100
AcDbEntity
  8
0
  6
Continuous
 62
     7
370
    30
100
AcDbLine
 10
214.0036251748
 20
134.5202785236
 30
0.0
 11
234.98112635
 21
122.4102248649
 31
0.0
  0
SPLINE
  5
22D
330
1F
100
AcDbEntity
  8
0
  6
Continuous
 62
     7
370
    30
100
AcDbSpline
210
0.0
220
0.0
230
1.0
 70
     8
 71
     3
 72
    14
 73
    10
 74
     0
 42
0.000000001
 43
0.00000001
 40
0.0
 40
0.0
 40
0.0
 40
0.0
 40
0.0983093675371945
 40
0.2755024560022223
 40
0.4521233410907799
 40
0.628655212658495
 40
0.8066454292462993
 40
0.9771957421246592
 40
1.0
 40
1.0
 40
1.0
 40
1.0
 10
213.1298381823777
 20
136.033706345487
 30
0.0
 10
213.1319773617063
 20
135.9780426204382
 30
0.0
 10
213.1379722040454
 20
135.8220504363223
 30
0.0
 10
213.2004492551693
 20
135.5548303424334
 30
0.0
 10
213.3292818999469
 20
135.2463198330613
 30
0.0
 10
213.5096661388148
 20
134.9592087297024
 30
0.0
 10
213.7266013579595
 20
134.7161505793826
 30
0.0
 10
213.8991112871517
 20
134.5819633262804
 30
0.0
 10
213.9925992006947
 20
134.5267861279809
 30
0.0
 10
214.0036251747916
 20
134.520278523563
 30
0.0
  0
LWPOLYLINE
  5
22E
330
1F
100
AcDbEntity
  8
0
  6
Continuous
 62
     7
370
    30
100
AcDbPolyline
 90
       28
 70
   128
 43
0.0
 10
239.4611308373
 20
164.244853011
 10
239.7889651989
 20
164.0952097578
 10
240.1677424824
 20
163.9932453066
 10
240.5770427065
 20
163.9444565871
 10
240.9948003902
 20
163.951473812
 10
241.3984941086
 20
164.0139186808
 10
241.7663606289
 20
164.1284247745
 10
242.0785681717
 20
164.2888190399
 10
242.3182855476
 20
164.4864545807
 10
242.4725895308
 20
164.7106768137
 10
242.5331615536
 20
164.9493978603
 10
242.4967361627
 20
165.189748207
 10
242.3652770601
 20
165.4187705045
 10
242.1458712403
 20
165.6241181015
 10
241.8503469278
 20
165.7947206558
 10
241.4946359146
 20
165.9213809395
 10
241.0979146737
 20
165.997270664
 10
240.6815705497
 20
166.0182985946
 10
240.2680487623
 20
165.9833311102
 10
239.8796423779
 20
165.8942533167
 10
239.5372904854
 20
165.7558674213
 10
239.2594493638
 20
165.5756338432
 10
239.0610974999
 20
165.3632690213
 10
238.952928094
 20
165.1302215983
 10
238.9407725869
 20
164.8890552208
 10
239.025286285
 20
164.6527712309
 10
239.2019130331
 20
164.4341077595
 10
239.4611308373
 20
164.244853011
  0
LINE
  5
22F
330
1F
100
AcDbEntity
  8
0
  6
Continuous
 62
     7
370
    30
100
AcDbLine
 10
239.6185679718
 20
164.8070929773
 30
0.0
 11
240.4350645527
 21
164.3357395341
 31
0.0
  0
LINE
  5
230
330
1F
100
AcDbEntity
  8
0
  6
Continuous
 62
     7
370
    30
100
AcDbLine
 10
240.4350645527
 20
164.3357395341
 30
0.0
 11
241.5504196244
 21
164.5082668685
 31
0.0
  0
LINE
  5
231
330
1F
100
AcDbEntity
  8
0
  6
Continuous
 62
     7
370
    30
100
AcDbLine
 10
241.5504196244
 20
164.5082668685
 30
0.0
 11
241.8492781151
 21
165.152147646
 31
0.0
  0
LINE
  5
232
330
1F
100
AcDbEntity
  8
0
  6
Continuous
 62
     7
370
    30
100
AcDbLine
 10
241.8492781151
 20
165.152147646
 30
0.0
 11
241.0327815342
 21
165.6235010891
 31
0.0
  0
LINE
  5
233
330
1F
100
AcDbEntity
  8
0
  6
Continuous
 62
     7
370
    30
100
AcDbLine
 10
241.0327815342
 20
165.6235010891
 30
0.0
 11
239.9174264625
 21
165.4509737547
 31
0.0
  0
LINE
  5
234
330
1F
100
AcDbEntity
  8
0
  6
Continuous
 62
     7
370
    30
100
AcDbLine
 10
239.9174264625
 20
165.4509737547
 30
0.0
 11
239.6185679718
 21
164.8070929773
 31
0.0
  0
LINE
  5
235
330
1F
100
AcDbEntity
  8
0
  6
Continuous
 62
     7
370
    30
100
AcDbLine
 10
241.2155774242
 20
164.4564722125
 30
0.0
 11
241.0327815342
 21
164.5619980336
 31
0.0
  0
LINE
  5
236
330
1F
100
AcDbEntity
  8
0
  6
Continuous
 62
     7
370
    30
100
AcDbLine
 10
241.0327815342
 20
164.5619980336
 30
0.0
 11
240.2522686627
 21
164.4412653553
 31
0.0
  0
LINE
  5
237
330
1F
100
AcDbEntity
  8
0
  6
Continuous
 62
     7
370
    30
100
AcDbLine
 10
239.9174264625
 20
164.6345656429
 30
0.0
 11
239.9174264625
 21
165.4509737547
 31
0.0
  0
LINE
  5
238
330
1F
100
AcDbEntity
  8
0
  6
Continuous
 62
     7
370
    30
100
AcDbLine
 10
241.0327815342
 20
164.5619980336
 30
0.0
 11
241.0327815342
 21
165.6235010891
 31
0.0
  0
LINE
  5
239
330
1F
100
AcDbEntity
  8
0
  6
Continuous
 62
     7
370
    30
100
AcDbLine
 10
226.1211626413
 20
143.9128402571
 30
0.0
 11
227.3203792314
 21
141.8357361998
 31
0.0
  0
LWPOLYLINE
  5
23A
330
1F
100
AcDbEntity
  8
0
  6
Continuous
 62
     7
370
    30
100
AcDbPolyline
 90
        9
 70
   128
 43
0.0
 10
227.3203792314
 20
141.8357361998
 10
227.2220078651
 20
141.7789464169
 10
227.1146070422
 20
141.7169416818
 10
227.0023041161
 20
141.6521048017
 10
226.8894148252
 20
141.5869274217
 10
226.7802774416
 20
141.5239142718
 10
226.6790860539
 20
141.4654869121
 10
226.5897293903
 20
141.4138906733
 10
226.5156413773
 20
141.3711083698
  0
LINE
  5
23B
330
1F
100
AcDbEntity
  8
0
  6
Continuous
 62
     7
370
    30
100
AcDbLine
 10
226.5156413773
 20
141.3711083698
 30
0.0
 11
225.3164247872
 21
143.4482124271
 31
0.0
  0
LWPOLYLINE
  5
23C
330
1F
100
AcDbEntity
  8
0
  6
Continuous
 62
     7
370
    30
100
AcDbPolyline
 90
        9
 70
   128
 43
0.0
 10
226.1211626413
 20
143.9128402571
 10
226.022791275
 20
143.8560504742
 10
225.9153904521
 20
143.7940457391
 10
225.8030875259
 20
143.729208859
 10
225.690198235
 20
143.664031479
 10
225.5810608515
 20
143.6010183291
 10
225.4798694638
 20
143.5425909694
 10
225.3905128002
 20
143.4909947306
 10
225.3164247872
 20
143.4482124271
  0
LINE
  5
23D
330
1F
100
AcDbEntity
  8
0
  6
Continuous
 62
     7
370
    30
100
AcDbLine
 10
230.3166628763
 20
146.3348509889
 30
0.0
 11
226.1211626413
 21
143.9128402571
 31
0.0
  0
LINE
  5
23E
330
1F
100
AcDbEntity
  8
0
  6
Continuous
 62
     7
370
    30
100
AcDbLine
 10
231.5158794665
 20
144.2577469316
 30
0.0
 11
230.3166628763
 21
146.3348509889
 31
0.0
  0
LINE
  5
23F
330
1F
100
AcDbEntity
  8
0
  6
Continuous
 62
     7
370
    30
100
AcDbLine
 10
227.3203792314
 20
141.8357361998
 30
0.0
 11
231.5158794665
 21
144.2577469316
 31
0.0
  0
LINE
  5
240
330
1F
100
AcDbEntity
  8
0
  6
Continuous
 62
     7
370
    30
100
AcDbLine
 10
221.5140711326
 20
142.9470039973
 30
0.0
 11
213.5826997489
 21
138.366832307
 31
0.0
  0
ARC
  5
241
330
1F
100
AcDbEntity
  8
0
  6
Continuous
 62
     7
370
    30
100
AcDbCircle
 10
222.4774026532
 20
150.3124516938
 30
0.0
 40
7.428177931889685
100
AcDbArc
 50
262.5485456462
 51
292.4697931561
  0
ARC
  5
242
330
1F
100
AcDbEntity
  8
0
  6
Continuous
 62
     7
370
    30
100
AcDbCircle
 10
231.0427514372
 20
135.4800654525
 30
0.0
 40
7.429610497724105
100
AcDbArc
 50
127.5413213197
 51
157.4586955295
  0
LINE
  5
243
330
1F
100
AcDbEntity
  8
0
  6
Continuous
 62
     7
370
    30
100
AcDbLine
 10
216.2493664156
 20
133.748030167
 30
0.0
 11
224.1807377993
 21
138.3282018574
 31
0.0
  0
LINE
  5
244
330
1F
100
AcDbEntity
  8
0
  6
Continuous
 62
     7
370
    30
100
AcDbLine
 10
213.5826997489
 20
138.366832307
 30
0.0
 11
216.2493664156
 21
133.748030167
 31
0.0
  0
ARC
  5
245
330
1F
100
AcDbEntity
  8
0
  6
Continuous
 62
     7
370
    30
100
AcDbCircle
 10
227.0849513832
 20
141.6689511117
 30
0.0
 40
0.6425139544917033
100
AcDbArc
 50
207.6169641298
 51
293.5762265355
  0
ARC
  5
246
330
1F
100
AcDbEntity
  8
0
  6
Continuous
 62
     7
370
    30
100
AcDbCircle
 10
226.844223967
 20
141.4440111479
 30
0.0
 40
0.6165811805441916
100
AcDbArc
 50
323.8246140543
 51
39.4435654404
  0
ARC
  5
247
330
1F
100
AcDbEntity
  8
0
  6
Continuous
 62
     7
370
    30
100
AcDbCircle
 10
225.858953792
 20
143.792305929
 30
0.0
 40
0.6424469309623166
100
AcDbArc
 50
126.4183754787
 51
212.3844976312
  0
ARC
  5
248
330
1F
100
AcDbEntity
  8
0
  6
Continuous
 62
     7
370
    30
100
AcDbCircle
 10
225.5439474291
 20
143.6964168616
 30
0.0
 40
0.6164547731236077
100
AcDbArc
 50
20.5532334876
 51
96.1834414118
  0
ARC
  5
249
330
1F
100
AcDbEntity
  8
0
  6
Continuous
 62
     7
370
    30
100
AcDbCircle
 10
234.0839678915
 20
147.3975400606
 30
0.0
 40
1.536804807572056
100
AcDbArc
 50
2.6054784857
 51
57.39452166
  0
ARC
  5
24A
330
1F
100
AcDbEntity
  8
0
  6
Continuous
 62
     7
370
    30
100
AcDbCircle
 10
235.4238159122
 20
148.6688588299
 30
0.0
 40
0.5122682691907635
100
AcDbArc
 50
122.60547834
 51
177.3945215143
  0
ARC
  5
24B
330
1F
100
AcDbEntity
  8
0
  6
Continuous
 62
     7
370
    30
100
AcDbCircle
 10
234.0436337119
 20
147.3742531099
 30
0.0
 40
2.049073076762703
100
AcDbArc
 50
2.6054784857
 51
57.39452166
  0
ARC
  5
24C
330
1F
100
AcDbEntity
  8
0
  6
Continuous
 62
     7
370
    30
100
AcDbCircle
 10
235.8548862533
 20
147.9223046079
 30
0.0
 40
0.5123406359705696
100
AcDbArc
 50
242.6096722366
 51
297.3903277634
  0
ARC
  5
24D
330
1F
100
AcDbEntity
  8
0
  6
Continuous
 62
     7
370
    30
100
AcDbCircle
 10
231.7093500309
 20
135.396836278
 30
0.0
 40
7.167525859139883
100
AcDbArc
 50
127.5413213197
 51
157.4586955295
  0
ARC
  5
24E
330
1F
100
AcDbEntity
  8
0
  6
Continuous
 62
     7
370
    30
100
AcDbCircle
 10
224.7610125543
 20
138.8593310864
 30
0.0
 40
0.7866492542371218
100
AcDbArc
 50
222.4680691269
 51
294.6736496011
  0
ARC
  5
24F
330
1F
100
AcDbEntity
  8
0
  6
Continuous
 62
     7
370
    30
100
AcDbCircle
 10
222.2640978875
 20
143.1839793118
 30
0.0
 40
0.7865732214610022
100
AcDbArc
 50
125.3219350684
 51
197.5342343665
  0
ARC
  5
250
330
1F
100
AcDbEntity
  8
0
  6
Continuous
 62
     7
370
    30
100
AcDbCircle
 10
222.7386741595
 20
150.9313836723
 30
0.0
 40
7.166143828053475
100
AcDbArc
 50
262.5485456462
 51
292.4697931561
  0
ARC
  5
251
330
1F
100
AcDbEntity
  8
0
  6
Continuous
 62
     7
370
    30
100
AcDbCircle
 10
231.039724202
 20
143.8660218796
 30
0.0
 40
0.6165811805443144
100
AcDbArc
 50
323.8246140543
 51
39.4435654404
  0
LINE
  5
252
330
1F
100
AcDbEntity
  8
0
  6
Continuous
 62
     7
370
    30
100
AcDbLine
 10
231.5374371382
 20
143.5020793219
 30
0.0
 11
227.3419369032
 21
141.0800685901
 31
0.0
  0
LINE
  5
253
330
1F
100
AcDbEntity
  8
0
  6
Continuous
 62
     7
370
    30
100
AcDbLine
 10
225.4775478281
 20
144.3092851837
 30
0.0
 11
229.6730480632
 21
146.7312959155
 31
0.0
  0
ARC
  5
254
330
1F
100
AcDbEntity
  8
0
  6
Continuous
 62
     7
370
    30
100
AcDbCircle
 10
229.7394476642
 20
146.1184275933
 30
0.0
 40
0.6164547731236809
100
AcDbArc
 50
20.5532334876
 51
96.1834414118
  0
ARC
  5
255
330
1F
100
AcDbEntity
  8
0
  6
Continuous
 62
     7
370
    30
100
AcDbCircle
 10
235.4578472742
 20
148.1906612217
 30
0.0
 40
2.049073076762731
100
AcDbArc
 50
2.6054784857
 51
57.39452166
  0
LINE
  5
256
330
1F
100
AcDbEntity
  8
0
  6
Continuous
 62
     7
370
    30
100
AcDbLine
 10
236.0905885137
 20
147.4674009129
 30
0.0
 11
237.5048020761
 21
148.2838090247
 31
0.0
  0
LINE
  5
257
330
1F
100
AcDbEntity
  8
0
  6
Continuous
 62
     7
370
    30
100
AcDbLine
 10
235.1477794721
 20
149.10039407
 30
0.0
 11
236.5619930345
 21
149.9168021818
 31
0.0
  0
LINE
  5
258
330
1F
100
AcDbEntity
  8
0
  6
Continuous
 62
     7
370
    30
100
AcDbLine
 10
232.6933104946
 20
146.8470935499
 30
0.0
 11
232.6933104946
 21
146.9202399406
 31
0.0
  0
SPLINE
  5
259
330
1F
100
AcDbEntity
  8
0
  6
Continuous
 62
     7
370
    30
100
AcDbSpline
210
0.0
220
0.0
230
1.0
 70
     8
 71
     3
 72
     9
 73
     5
 74
     0
 42
0.000000001
 43
0.00000001
 40
0.0
 40
0.0
 40
0.0
 40
0.0
 40
0.5578880974118702
 40
1.0
 40
1.0
 40
1.0
 40
1.0
 10
232.9246304811605
 20
146.6479945249638
 30
0.0
 10
232.8831605187576
 20
146.6918149613477
 30
0.0
 10
232.8088266826437
 20
146.7703619613413
 30
0.0
 10
232.7287245853001
 20
146.8235697522034
 30
0.0
 10
232.6933104946422
 20
146.847093549854
 30
0.0
  0
SPLINE
  5
25A
330
1F
100
AcDbEntity
  8
0
  6
Continuous
 62
     7
370
    30
100
AcDbSpline
210
0.0
220
0.0
230
1.0
 70
     8
 71
     3
 72
    10
 73
     6
 74
     0
 42
0.000000001
 43
0.00000001
 40
0.0
 40
0.0
 40
0.0
 40
0.0
 40
0.5600113699777582
 40
0.7802776236410214
 40
1.0
 40
1.0
 40
1.0
 40
1.0
 10
233.0067420382411
 20
146.2857921392735
 30
0.0
 10
233.0042190227859
 20
146.3503610843379
 30
0.0
 10
233.0007036432609
 20
146.4403265845347
 30
0.0
 10
232.9685413461942
 20
146.5674579461232
 30
0.0
 10
232.9392553692097
 20
146.6211711306055
 30
0.0
 10
232.9246304811605
 20
146.6479945249638
 30
0.0
  0
LINE
  5
25B
330
1F
100
AcDbEntity
  8
0
  6
Continuous
 62
     7
370
    30
100
AcDbLine
 10
233.0067420382
 20
144.5487008153
 30
0.0
 11
233.0067420382
 21
146.2857921393
 31
0.0
  0
SPLINE
  5
25C
330
1F
100
AcDbEntity
  8
0
  6
Continuous
 62
     7
370
    30
100
AcDbSpline
210
0.0
220
0.0
230
1.0
 70
     8
 71
     3
 72
    10
 73
     6
 74
     0
 42
0.000000001
 43
0.00000001
 40
0.0
 40
0.0
 40
0.0
 40
0.0
 40
0.2785120652043521
 40
0.5590464629733358
 40
1.0
 40
1.0
 40
1.0
 40
1.0
 10
232.9433988370646
 20
144.2563802212109
 30
0.0
 10
232.9581528496397
 20
144.2750929125938
 30
0.0
 10
232.987768006666
 20
144.312654172005
 30
0.0
 10
233.0034899846824
 20
144.4182644405042
 30
0.0
 10
233.0055084238578
 20
144.4992218675875
 30
0.0
 10
233.0067420382411
 20
144.5487008153277
 30
0.0
  0
SPLINE
  5
25D
330
1F
100
AcDbEntity
  8
0
  6
Continuous
 62
     7
370
    30
100
AcDbSpline
210
0.0
220
0.0
230
1.0
 70
     8
 71
     3
 72
     9
 73
     5
 74
     0
 42
0.000000001
 43
0.00000001
 40
0.0
 40
0.0
 40
0.0
 40
0.0
 40
0.5619659230160555
 40
1.0
 40
1.0
 40
1.0
 40
1.0
 10
232.6933104946421
 20
144.3015991518822
 30
0.0
 10
232.7441518798672
 20
144.2782237325494
 30
0.0
 10
232.8346224638347
 20
144.2366279375457
 30
0.0
 10
232.910264880778
 20
144.2503635533988
 30
0.0
 10
232.9433988370646
 20
144.2563802212109
 30
0.0
  0
LINE
  5
25E
330
1F
100
AcDbEntity
  8
0
  6
Continuous
 62
     7
370
    30
100
AcDbLine
 10
232.6933104946
 20
144.2284527611
 30
0.0
 11
232.6933104946
 21
144.3015991519
 31
0.0
  0
LINE
  5
25F
330
1F
100
AcDbEntity
  8
0
  6
Continuous
 62
     7
370
    30
100
AcDbLine
 10
233.5261562879
 20
143.7476611186
 30
0.0
 11
232.6933104946
 21
144.2284527611
 31
0.0
  0
LINE
  5
260
330
1F
100
AcDbEntity
  8
0
  6
Continuous
 62
     7
370
    30
100
AcDbLine
 10
233.5261562879
 20
143.8208075094
 30
0.0
 11
233.5261562879
 21
143.7476611186
 31
0.0
  0
SPLINE
  5
261
330
1F
100
AcDbEntity
  8
0
  6
Continuous
 62
     7
370
    30
100
AcDbSpline
210
0.0
220
0.0
230
1.0
 70
     8
 71
     3
 72
     9
 73
     5
 74
     0
 42
0.000000001
 43
0.00000001
 40
0.0
 40
0.0
 40
0.0
 40
0.0
 40
0.5577888705740551
 40
1.0
 40
1.0
 40
1.0
 40
1.0
 10
233.2854521234173
 20
144.0367022323388
 30
0.0
 10
233.3281651015763
 20
143.9887395762555
 30
0.0
 10
233.4047406311579
 20
143.9027524606755
 30
0.0
 10
233.4889277895098
 20
143.8459334903985
 30
0.0
 10
233.5261562878877
 20
143.8208075093794
 30
0.0
  0
SPLINE
  5
262
330
1F
100
AcDbEntity
  8
0
  6
Continuous
 62
     7
370
    30
100
AcDbSpline
210
0.0
220
0.0
230
1.0
 70
     8
 71
     3
 72
    10
 73
     6
 74
     0
 42
0.000000001
 43
0.00000001
 40
0.0
 40
0.0
 40
0.0
 40
0.0
 40
0.5601234433190682
 40
0.7803712189439254
 40
1.0
 40
1.0
 40
1.0
 40
1.0
 10
233.2061558197224
 20
144.3826501286939
 30
0.0
 10
233.2083133747559
 20
144.320998312142
 30
0.0
 10
233.2113193083078
 20
144.2351042046795
 30
0.0
 10
233.2444340956536
 20
144.1136577755115
 30
0.0
 10
233.2717922803144
 20
144.0623300039055
 30
0.0
 10
233.2854521234173
 20
144.0367022323388
 30
0.0
  0
LINE
  5
263
330
1F
100
AcDbEntity
  8
0
  6
Continuous
 62
     7
370
    30
100
AcDbLine
 10
233.2061558197
 20
145.2750360958
 30
0.0
 11
233.2061558197
 21
144.3826501287
 31
0.0
  0
LINE
  5
264
330
1F
100
AcDbEntity
  8
0
  6
Continuous
 62
     7
370
    30
100
AcDbLine
 10
233.7194703537
 20
144.9749131471
 30
0.0
 11
233.2061558197
 21
145.2750360958
 31
0.0
  0
SPLINE
  5
265
330
1F
100
AcDbEntity
  8
0
  6
Continuous
 62
     7
370
    30
100
AcDbSpline
210
0.0
220
0.0
230
1.0
 70
     8
 71
     3
 72
    10
 73
     6
 74
     0
 42
0.000000001
 43
0.00000001
 40
0.0
 40
0.0
 40
0.0
 40
0.0
 40
0.2786905031362829
 40
0.5591146962643145
 40
1.0
 40
1.0
 40
1.0
 40
1.0
 10
233.9568900558874
 20
144.7793365578054
 30
0.0
 10
233.937105845132
 20
144.8046288740118
 30
0.0
 10
233.897414349143
 20
144.8553708459642
 30
0.0
 10
233.8146808408508
 20
144.9167602475385
 30
0.0
 10
233.755589001387
 20
144.9528525090848
 30
0.0
 10
233.7194703537002
 20
144.9749131470821
 30
0.0
  0
SPLINE
  5
266
330
1F
100
AcDbEntity
  8
0
  6
Continuous
 62
     7
370
    30
100
AcDbSpline
210
0.0
220
0.0
230
1.0
 70
     8
 71
     3
 72
     9
 73
     5
 74
     0
 42
0.000000001
 43
0.00000001
 40
0.0
 40
0.0
 40
0.0
 40
0.0
 40
0.5618661542988234
 40
1.0
 40
1.0
 40
1.0
 40
1.0
 10
234.0329018972992
 20
144.4098189606852
 30
0.0
 10
234.0275673310366
 20
144.476818618292
 30
0.0
 10
234.0180729590732
 20
144.5960634902144
 30
0.0
 10
233.9755296983269
 20
144.7235016060329
 30
0.0
 10
233.9568900558874
 20
144.7793365578054
 30
0.0
  0
LINE
  5
267
330
1F
100
AcDbEntity
  8
0
  6
Continuous
 62
     7
370
    30
100
AcDbLine
 10
234.112198201
 20
144.3640421789
 30
0.0
 11
234.0329018973
 21
144.4098189607
 31
0.0
  0
LINE
  5
268
330
1F
100
AcDbEntity
  8
0
  6
Continuous
 62
     7
370
    30
100
AcDbLine
 10
234.112198201
 20
145.2748502
 30
0.0
 11
234.112198201
 21
144.3640421789
 31
0.0
  0
LINE
  5
269
330
1F
100
AcDbEntity
  8
0
  6
Continuous
 62
     7
370
    30
100
AcDbLine
 10
234.0329018973
 20
145.3206269818
 30
0.0
 11
234.112198201
 21
145.2748502
 31
0.0
  0
SPLINE
  5
26A
330
1F
100
AcDbEntity
  8
0
  6
Continuous
 62
     7
370
    30
100
AcDbSpline
210
0.0
220
0.0
230
1.0
 70
     8
 71
     3
 72
     9
 73
     5
 74
     0
 42
0.000000001
 43
0.00000001
 40
0.0
 40
0.0
 40
0.0
 40
0.0
 40
0.5581781111261144
 40
1.0
 40
1.0
 40
1.0
 40
1.0
 10
233.9662742338395
 20
145.0442899203887
 30
0.0
 10
233.9856223208481
 20
145.089823762333
 30
0.0
 10
234.0202852476504
 20
145.171399590974
 30
0.0
 10
234.0290357387798
 20
145.2748987762295
 30
0.0
 10
234.0329018972992
 20
145.320626981756
 30
0.0
  0
SPLINE
  5
26B
330
1F
100
AcDbEntity
  8
0
  6
Continuous
 62
     7
370
    30
100
AcDbSpline
210
0.0
220
0.0
230
1.0
 70
     8
 71
     3
 72
    10
 73
     6
 74
     0
 42
0.000000001
 43
0.00000001
 40
0.0
 40
0.0
 40
0.0
 40
0.0
 40
0.5603610191166154
 40
0.7806040857484887
 40
1.0
 40
1.0
 40
1.0
 40
1.0
 10
233.7194703537002
 20
145.110369426242
 30
0.0
 10
233.7683608019637
 20
145.0840867586985
 30
0.0
 10
233.8364670448438
 20
145.0474740091157
 30
0.0
 10
233.9214800214631
 20
145.0276692994965
 30
0.0
 10
233.9513620231963
 20
145.0387568350498
 30
0.0
 10
233.9662742338395
 20
145.0442899203887
 30
0.0
  0
LINE
  5
26C
330
1F
100
AcDbEntity
  8
0
  6
Continuous
 62
     7
370
    30
100
AcDbLine
 10
233.2061558197
 20
145.4066995991
 30
0.0
 11
233.7194703537
 21
145.1103694262
 31
0.0
  0
LINE
  5
26D
330
1F
100
AcDbEntity
  8
0
  6
Continuous
 62
     7
370
    30
100
AcDbLine
 10
233.2061558197
 20
146.3391806249
 30
0.0
 11
233.2061558197
 21
145.4066995991
 31
0.0
  0
SPLINE
  5
26E
330
1F
100
AcDbEntity
  8
0
  6
Continuous
 62
     7
370
    30
100
AcDbSpline
210
0.0
220
0.0
230
1.0
 70
     8
 71
     3
 72
     9
 73
     5
 74
     0
 42
0.000000001
 43
0.00000001
 40
0.0
 40
0.0
 40
0.0
 40
0.0
 40
0.5582508416995691
 40
1.0
 40
1.0
 40
1.0
 40
1.0
 10
233.2286778468074
 20
146.4502568871017
 30
0.0
 10
233.220672167156
 20
146.432642470571
 30
0.0
 10
233.2063315176605
 20
146.4010896000424
 30
0.0
 10
233.2062096532314
 20
146.3581494153318
 30
0.0
 10
233.2061558197224
 20
146.3391806248787
 30
0.0
  0
SPLINE
  5
26F
330
1F
100
AcDbEntity
  8
0
  6
Continuous
 62
     7
370
    30
100
AcDbSpline
210
0.0
220
0.0
230
1.0
 70
     8
 71
     3
 72
     9
 73
     5
 74
     0
 42
0.000000001
 43
0.00000001
 40
0.0
 40
0.0
 40
0.0
 40
0.0
 40
0.5623693583563933
 40
1.0
 40
1.0
 40
1.0
 40
1.0
 10
233.3267425064064
 20
146.4304894720568
 30
0.0
 10
233.3062911296685
 20
146.4420942513373
 30
0.0
 10
233.2699246804051
 20
146.4627297626931
 30
0.0
 10
233.2412338384023
 20
146.4540537681573
 30
0.0
 10
233.2286778468074
 20
146.4502568871017
 30
0.0
  0
LINE
  5
270
330
1F
100
AcDbEntity
  8
0
  6
Continuous
 62
     7
370
    30
100
AcDbLine
 10
233.7889132705
 20
146.163683969
 30
0.0
 11
233.3267425064
 21
146.4304894721
 31
0.0
  0
SPLINE
  5
271
330
1F
100
AcDbEntity
  8
0
  6
Continuous
 62
     7
370
    30
100
AcDbSpline
210
0.0
220
0.0
230
1.0
 70
     8
 71
     3
 72
     9
 73
     5
 74
     0
 42
0.000000001
 43
0.00000001
 40
0.0
 40
0.0
 40
0.0
 40
0.0
 40
0.5573026436976255
 40
0.9999999999999999
 40
0.9999999999999999
 40
0.9999999999999999
 40
0.9999999999999999
 10
234.1309665568982
 20
145.8930744191979
 30
0.0
 10
234.0693733072591
 20
145.955422747298
 30
0.0
 10
233.9588530175463
 20
146.0672979174684
 30
0.0
 10
233.8410599500964
 20
146.1341075301322
 30
0.0
 10
233.7889132705455
 20
146.1636839690341
 30
0.0
  0
SPLINE
  5
272
330
1F
100
AcDbEntity
  8
0
  6
Continuous
 62
     7
370
    30
100
AcDbSpline
210
0.0
220
0.0
230
1.0
 70
     8
 71
     3
 72
     9
 73
     5
 74
     0
 42
0.000000001
 43
0.00000001
 40
0.0
 40
0.0
 40
0.0
 40
0.0
 40
0.562651256747143
 40
1.0
 40
1.0
 40
1.0
 40
1.0
 10
234.2515532435822
 20
145.4723585311518
 30
0.0
 10
234.2419002572441
 20
145.5500663981166
 30
0.0
 10
234.2247440059743
 20
145.6881765792155
 30
0.0
 10
234.1595006546191
 20
145.830729206714
 30
0.0
 10
234.1309665568982
 20
145.8930744191979
 30
0.0
  0
LINE
  5
273
330
1F
100
AcDbEntity
  8
0
  6
Continuous
 62
     7
370
    30
100
AcDbLine
 10
234.3209961604
 20
145.4322699886
 30
0.0
 11
234.2515532436
 21
145.4723585312
 31
0.0
  0
LINE
  5
274
330
1F
100
AcDbEntity
  8
0
  6
Continuous
 62
     7
370
    30
100
AcDbLine
 10
234.3116119825
 20
145.9860143772
 30
0.0
 11
234.3209961604
 21
145.4322699886
 31
0.0
  0
LINE
  5
275
330
1F
100
AcDbEntity
  8
0
  6
Continuous
 62
     7
370
    30
100
AcDbLine
 10
232.6933104946
 20
146.9202399406
 30
0.0
 11
234.3116119825
 21
145.9860143772
 31
0.0
  0
SPLINE
  5
276
330
1F
100
AcDbEntity
  8
0
  6
Continuous
 62
     7
370
    30
100
AcDbSpline
210
0.0
220
0.0
230
1.0
 70
     8
 71
     3
 72
     9
 73
     5
 74
     0
 42
0.000000001
 43
0.00000001
 40
0.0
 40
0.0
 40
0.0
 40
0.0
 40
0.5591653139964239
 40
1.0
 40
1.0
 40
1.0
 40
1.0
 10
229.2042731320652
 20
148.6597130028872
 30
0.0
 10
229.3148919880777
 20
148.7084490501794
 30
0.0
 10
229.5127205250838
 20
148.7956076168362
 30
0.0
 10
229.7734438289686
 20
148.6708755720761
 30
0.0
 10
229.8883797047706
 20
148.6158893602897
 30
0.0
  0
SPLINE
  5
277
330
1F
100
AcDbEntity
  8
0
  6
Continuous
 62
     7
370
    30
100
AcDbSpline
210
0.0
220
0.0
230
1.0
 70
     8
 71
     3
 72
     9
 73
     5
 74
     0
 42
0.000000001
 43
0.00000001
 40
0.0
 40
0.0
 40
0.0
 40
0.0
 40
0.5602696297460021
 40
1.0
 40
1.0
 40
1.0
 40
1.0
 10
228.8936568418519
 20
147.785719943654
 30
0.0
 10
228.904622950422
 20
147.9960257645092
 30
0.0
 10
228.9241958631553
 20
148.3713911416235
 30
0.0
 10
229.1187303917702
 20
148.5716521538385
 30
0.0
 10
229.2042731320652
 20
148.6597130028872
 30
0.0
  0
SPLINE
  5
278
330
1F
100
AcDbEntity
  8
0
  6
Continuous
 62
     7
370
    30
100
AcDbSpline
210
0.0
220
0.0
230
1.0
 70
     8
 71
     3
 72
    10
 73
     6
 74
     0
 42
0.000000001
 43
0.00000001
 40
0.0
 40
0.0
 40
0.0
 40
0.0
 40
0.2799874205327905
 40
0.5601294246845019
 40
1.0
 40
1.0
 40
1.0
 40
1.0
 10
229.1850355672634
 20
146.5934611154623
 30
0.0
 10
229.1319373830442
 20
146.7068407468801
 30
0.0
 10
229.0257116986119
 20
146.9336626076485
 30
0.0
 10
228.9152427489101
 20
147.3470361961269
 30
0.0
 10
228.9018430158792
 20
147.6193548476436
 30
0.0
 10
228.8936568418519
 20
147.785719943654
 30
0.0
  0
SPLINE
  5
279
330
1F
100
AcDbEntity
  8
0
  6
Continuous
 62
     7
370
    30
100
AcDbSpline
210
0.0
220
0.0
230
1.0
 70
     8
 71
     3
 72
     9
 73
     5
 74
     0
 42
0.000000001
 43
0.00000001
 40
0.0
 40
0.0
 40
0.0
 40
0.0
 40
0.9774514503992445
 40
1.0
 40
1.0
 40
1.0
 40
1.0
 10
230.8826333587916
 20
146.637508240798
 30
0.0
 10
230.884926662969
 20
146.4223244051936
 30
0.0
 10
230.8872728707283
 20
146.2021765548667
 30
0.0
 10
230.7969186950751
 20
146.0729572931103
 30
0.0
 10
230.7948813394637
 20
146.0700435861773
 30
0.0
  0
SPLINE
  5
27A
330
1F
100
AcDbEntity
  8
0
  6
Continuous
 62
     7
370
    30
100
AcDbSpline
210
0.0
220
0.0
230
1.0
 70
     8
 71
     3
 72
    10
 73
     6
 74
     0
 42
0.000000001
 43
0.00000001
 40
0.0
 40
0.0
 40
0.0
 40
0.0
 40
0.280001494730666
 40
0.5600851101152139
 40
1.0
 40
1.0
 40
1.0
 40
1.0
 10
230.5757707397592
 20
147.8679642868107
 30
0.0
 10
230.6324283708283
 20
147.751304257475
 30
0.0
 10
230.745760249884
 20
147.5179499839938
 30
0.0
 10
230.8606641060605
 20
147.0903136556918
 30
0.0
 10
230.8743011837892
 20
146.8092416176729
 30
0.0
 10
230.8826333587916
 20
146.637508240798
 30
0.0
  0
SPLINE
  5
27B
330
1F
100
AcDbEntity
  8
0
  6
Continuous
 62
     7
370
    30
100
AcDbSpline
210
0.0
220
0.0
230
1.0
 70
     8
 71
     3
 72
    10
 73
     6
 74
     0
 42
0.000000001
 43
0.00000001
 40
0.0
 40
0.0
 40
0.0
 40
0.0
 40
0.2804546690558642
 40
0.5607792749542583
 40
1.0
 40
1.0
 40
1.0
 40
1.0
 10
229.8883797047706
 20
148.6158893602897
 30
0.0
 10
229.960648556732
 20
148.569288664054
 30
0.0
 10
230.105152745381
 20
148.4761088830383
 30
0.0
 10
230.3529414465357
 20
148.2312816944821
 30
0.0
 10
230.4913091323233
 20
148.0056767563763
 30
0.0
 10
230.5757707397592
 20
147.8679642868107
 30
0.0
  0
SPLINE
  5
27C
330
1F
100
AcDbEntity
  8
0
  6
Continuous
 62
     7
370
    30
100
AcDbSpline
210
0.0
220
0.0
230
1.0
 70
     8
 71
     3
 72
     9
 73
     5
 74
     0
 42
0.000000001
 43
0.00000001
 40
0.0
 40
0.0
 40
0.0
 40
0.0
 40
0.5591778242112782
 40
1.0
 40
1.0
 40
1.0
 40
1.0
 10
214.6700583199101
 20
157.0680168476051
 30
0.0
 10
214.7822374244645
 20
157.1175782709143
 30
0.0
 10
214.9828517902304
 20
157.2062109404574
 30
0.0
 10
215.2473996960302
 20
157.0793184261535
 30
0.0
 10
215.3640182794651
 20
157.0233813919067
 30
0.0
  0
SPLINE
  5
27D
330
1F
100
AcDbEntity
  8
0
  6
Continuous
 62
     7
370
    30
100
AcDbSpline
210
0.0
220
0.0
230
1.0
 70
     8
 71
     3
 72
     9
 73
     5
 74
     0
 42
0.000000001
 43
0.00000001
 40
0.0
 40
0.0
 40
0.0
 40
0.0
 40
0.560274433107747
 40
1.0
 40
1.0
 40
1.0
 40
1.0
 10
214.3575651941064
 20
156.1913144866794
 30
0.0
 10
214.3686549216897
 20
156.4024031703086
 30
0.0
 10
214.3884483067311
 20
156.7791626138163
 30
0.0
 10
214.5840480930062
 20
156.9797940677762
 30
0.0
 10
214.6700583199101
 20
157.0680168476051
 30
0.0
  0
SPLINE
  5
27E
330
1F
100
AcDbEntity
  8
0
  6
Continuous
 62
     7
370
    30
100
AcDbSpline
210
0.0
220
0.0
230
1.0
 70
     8
 71
     3
 72
    10
 73
     6
 74
     0
 42
0.000000001
 43
0.00000001
 40
0.0
 40
0.0
 40
0.0
 40
0.0
 40
0.2800523578142783
 40
0.560148505982666
 40
1.0
 40
1.0
 40
1.0
 40
1.0
 10
214.6508207551084
 20
154.9941794085473
 30
0.0
 10
214.5974827524903
 20
155.1080224346179
 30
0.0
 10
214.4907984070637
 20
155.3357262878104
 30
0.0
 10
214.3794802127055
 20
155.7507832515348
 30
0.0
 10
214.365876420914
 20
156.0242439001518
 30
0.0
 10
214.3575651941064
 20
156.1913144866794
 30
0.0
  0
SPLINE
  5
27F
330
1F
100
AcDbEntity
  8
0
  6
Continuous
 62
     7
370
    30
100
AcDbSpline
210
0.0
220
0.0
230
1.0
 70
     8
 71
     3
 72
     9
 73
     5
 74
     0
 42
0.000000001
 43
0.00000001
 40
0.0
 40
0.0
 40
0.0
 40
0.0
 40
0.5589671569312324
 40
1.0
 40
1.0
 40
1.0
 40
1.0
 10
215.3640182794651
 20
154.2042653100321
 30
0.0
 10
215.2098975825745
 20
154.3138828127707
 30
0.0
 10
214.9341735172523
 20
154.5099900462268
 30
0.0
 10
214.7375418002815
 20
154.8459916610751
 30
0.0
 10
214.6508207551084
 20
154.9941794085473
 30
0.0
  0
SPLINE
  5
280
330
1F
100
AcDbEntity
  8
0
  6
Continuous
 62
     7
370
    30
100
AcDbSpline
210
0.0
220
0.0
230
1.0
 70
     8
 71
     3
 72
    10
 73
     6
 74
     0
 42
0.000000001
 43
0.00000001
 40
0.0
 40
0.0
 40
0.0
 40
0.0
 40
0.2803751402910562
 40
0.560643214060545
 40
1.0
 40
1.0
 40
1.0
 40
1.0
 10
216.1020838753949
 20
154.156383042203
 30
0.0
 10
216.0473903438529
 20
154.1237854206841
 30
0.0
 10
215.9380241665227
 20
154.0586026256612
 30
0.0
 10
215.6875999378911
 20
154.0494226614277
 30
0.0
 10
215.4866844131083
 20
154.1455662196085
 30
0.0
 10
215.3640182794651
 20
154.2042653100321
 30
0.0
  0
SPLINE
  5
281
330
1F
100
AcDbEntity
  8
0
  6
Continuous
 62
     7
370
    30
100
AcDbSpline
210
0.0
220
0.0
230
1.0
 70
     8
 71
     3
 72
     9
 73
     5
 74
     0
 42
0.000000001
 43
0.00000001
 40
0.0
 40
0.0
 40
0.0
 40
0.0
 40
0.5600206658583705
 40
1.0
 40
1.0
 40
1.0
 40
1.0
 10
216.4000315253729
 20
155.0122237712908
 30
0.0
 10
216.3881238453939
 20
154.8090805763636
 30
0.0
 10
216.3668609158183
 20
154.4463382575317
 30
0.0
 10
216.1829853322279
 20
154.2449775793234
 30
0.0
 10
216.1020838753949
 20
154.156383042203
 30
0.0
  0
SPLINE
  5
282
330
1F
100
AcDbEntity
  8
0
  6
Continuous
 62
     7
370
    30
100
AcDbSpline
210
0.0
220
0.0
230
1.0
 70
     8
 71
     3
 72
    10
 73
     6
 74
     0
 42
0.000000001
 43
0.00000001
 40
0.0
 40
0.0
 40
0.0
 40
0.0
 40
0.2800739435414916
 40
0.5601892596393923
 40
1.0
 40
1.0
 40
1.0
 40
1.0
 10
216.0823771016956
 20
156.2527025693328
 30
0.0
 10
216.139800060115
 20
156.1354033427038
 30
0.0
 10
216.2546544594803
 20
155.9007875619901
 30
0.0
 10
216.3762884890625
 20
155.4693663510427
 30
0.0
 10
216.3910273768396
 20
155.1855874319098
 30
0.0
 10
216.4000315253729
 20
155.0122237712908
 30
0.0
  0
SPLINE
  5
283
330
1F
100
AcDbEntity
  8
0
  6
Continuous
 62
     7
370
    30
100
AcDbSpline
210
0.0
220
0.0
230
1.0
 70
     8
 71
     3
 72
     9
 73
     5
 74
     0
 42
0.000000001
 43
0.00000001
 40
0.0
 40
0.0
 40
0.0
 40
0.0
 40
0.5592601761479495
 40
0.9999999999999999
 40
0.9999999999999999
 40
0.9999999999999999
 40
0.9999999999999999
 10
215.3640182794651
 20
157.0233813919067
 30
0.0
 10
215.5172797987316
 20
156.9170630657121
 30
0.0
 10
215.7913231256176
 20
156.7269577610095
 30
0.0
 10
215.9933401527445
 20
156.3977829968882
 30
0.0
 10
216.0823771016956
 20
156.2527025693328
 30
0.0
  0
ARC
  5
284
330
1F
100
AcDbEntity
  8
0
  6
Continuous
 62
     7
370
    30
100
AcDbCircle
 10
235.1881096255
 20
122.9012493594
 30
0.0
 40
0.4367091974285004
100
AcDbArc
 50
230.7967147643
 51
9.2140369905
  0
LINE
  5
285
330
1F
100
AcDbEntity
  8
0
  6
Continuous
 62
     7
370
    30
100
AcDbLine
 10
213.9345760365
 20
134.6728934591
 30
0.0
 11
234.9120772117
 21
122.5628398003
 31
0.0
  0
ARC
  5
286
330
1F
100
AcDbEntity
  8
0
  6
Continuous
 62
     7
370
    30
100
AcDbCircle
 10
214.7626853567
 20
135.9674991791
 30
0.0
 40
1.536804807572112
100
AcDbArc
 50
182.6054784857
 51
237.39452166
  0
LINE
  5
287
330
1F
100
AcDbEntity
  8
0
  6
Continuous
 62
     7
370
    30
100
AcDbLine
 10
213.2274692553
 20
160.3938626834
 30
0.0
 11
213.2274692553
 21
135.8976383268
 31
0.0
  0
ARC
  5
288
330
1F
100
AcDbEntity
  8
0
  6
Continuous
 62
     7
370
    30
100
AcDbCircle
 10
213.6585436227
 20
160.4637898803
 30
0.0
 40
0.4367091974284963
100
AcDbArc
 50
50.7967147643
 51
189.2140369905
  0
LINE
  5
289
330
1F
100
AcDbEntity
  8
0
  6
Continuous
 62
     7
370
    30
100
AcDbLine
 10
234.9120772117
 20
148.6921457807
 30
0.0
 11
213.9345760365
 21
160.8021994394
 31
0.0
  0
LINE
  5
28A
330
1F
100
AcDbEntity
  8
0
  6
Continuous
 62
     7
370
    30
100
AcDbLine
 10
235.6191839929
 20
122.9711765563
 30
0.0
 11
235.6191839929
 21
147.4674009129
 31
0.0
  0
LINE
  5
28B
330
1F
100
AcDbEntity
  8
0
  6
Continuous
 62
     7
370
    30
100
AcDbLine
 10
217.9066612956
 20
155.3631969061
 30
0.0
 11
217.9066612956
 21
155.5013623108
 31
0.0
  0
SPLINE
  5
28C
330
1F
100
AcDbEntity
  8
0
  6
Continuous
 62
     7
370
    30
100
AcDbSpline
210
0.0
220
0.0
230
1.0
 70
     8
 71
     3
 72
    10
 73
     6
 74
     0
 42
0.000000001
 43
0.00000001
 40
0.0
 40
0.0
 40
0.0
 40
0.0
 40
0.278450147705671
 40
0.559009882997216
 40
1.0
 40
1.0
 40
1.0
 40
1.0
 10
218.1506499223302
 20
155.1508243545686
 30
0.0
 10
218.1301629828243
 20
155.1766799454755
 30
0.0
 10
218.0890338911337
 20
155.2285870138206
 30
0.0
 10
218.0044425105161
 20
155.2946144972475
 30
0.0
 10
217.9437529660186
 20
155.3371813149646
 30
0.0
 10
217.9066612955766
 20
155.3631969060785
 30
0.0
  0
SPLINE
  5
28D
330
1F
100
AcDbEntity
  8
0
  6
Continuous
 62
     7
370
    30
100
AcDbSpline
210
0.0
220
0.0
230
1.0
 70
     8
 71
     3
 72
    10
 73
     6
 74
     0
 42
0.000000001
 43
0.00000001
 40
0.0
 40
0.0
 40
0.0
 40
0.0
 40
0.5606433719229641
 40
0.7808513891964887
 40
1.0
 40
1.0
 40
1.0
 40
1.0
 10
218.2205620480731
 20
154.7149326083047
 30
0.0
 10
218.2188102194819
 20
154.7924594297555
 30
0.0
 10
218.2163703123009
 20
154.9004370306004
 30
0.0
 10
218.1926924260464
 20
155.0499035477631
 30
0.0
 10
218.1646415441733
 20
155.1172382062637
 30
0.0
 10
218.1506499223302
 20
155.1508243545686
 30
0.0
  0
LINE
  5
28E
330
1F
100
AcDbEntity
  8
0
  6
Continuous
 62
     7
370
    30
100
AcDbLine
 10
218.2205620481
 20
153.2167861608
 30
0.0
 11
218.2205620481
 21
154.7149326083
 31
0.0
  0
LINE
  5
28F
330
1F
100
AcDbEntity
  8
0
  6
Continuous
 62
     7
370
    30
100
AcDbLine
 10
216.9968652431
 20
156.0265763924
 30
0.0
 11
218.2205620481
 21
153.2167861608
 31
0.0
  0
LINE
  5
290
330
1F
100
AcDbEntity
  8
0
  6
Continuous
 62
     7
370
    30
100
AcDbLine
 10
216.4971577672
 20
156.3150513779
 30
0.0
 11
216.9968652431
 21
156.0265763924
 31
0.0
  0
LINE
  5
291
330
1F
100
AcDbEntity
  8
0
  6
Continuous
 62
     7
370
    30
100
AcDbLine
 10
216.4971577672
 20
156.1752604978
 30
0.0
 11
216.4971577672
 21
156.3150513779
 31
0.0
  0
SPLINE
  5
292
330
1F
100
AcDbEntity
  8
0
  6
Continuous
 62
     7
370
    30
100
AcDbSpline
210
0.0
220
0.0
230
1.0
 70
     8
 71
     3
 72
     9
 73
     5
 74
     0
 42
0.000000001
 43
0.00000001
 40
0.0
 40
0.0
 40
0.0
 40
0.0
 40
0.5592636271648296
 40
1.0
 40
1.0
 40
1.0
 40
1.0
 10
216.6468354055121
 20
156.069347732231
 30
0.0
 10
216.6191653289182
 20
156.0914884204066
 30
0.0
 10
216.5696894194365
 20
156.1310774211931
 30
0.0
 10
216.5193459606141
 20
156.161744431102
 30
0.0
 10
216.4971577671767
 20
156.175260497815
 30
0.0
  0
SPLINE
  5
293
330
1F
100
AcDbEntity
  8
0
  6
Continuous
 62
     7
370
    30
100
AcDbSpline
210
0.0
220
0.0
230
1.0
 70
     8
 71
     3
 72
     9
 73
     5
 74
     0
 42
0.000000001
 43
0.00000001
 40
0.0
 40
0.0
 40
0.0
 40
0.0
 40
0.5608304348354268
 40
1.0
 40
1.0
 40
1.0
 40
1.0
 10
216.7613223765273
 20
155.8520866031276
 30
0.0
 10
216.7436168707139
 20
155.8944000111902
 30
0.0
 10
216.7120467120463
 20
155.9698477854804
 30
0.0
 10
216.6667349516307
 20
156.038984841432
 30
0.0
 10
216.6468354055121
 20
156.069347732231
 30
0.0
  0
LINE
  5
294
330
1F
100
AcDbEntity
  8
0
  6
Continuous
 62
     7
370
    30
100
AcDbLine
 10
216.7613223765
 20
154.0998241759
 30
0.0
 11
216.7613223765
 21
155.8520866031
 31
0.0
  0
SPLINE
  5
295
330
1F
100
AcDbEntity
  8
0
  6
Continuous
 62
     7
370
    30
100
AcDbSpline
210
0.0
220
0.0
230
1.0
 70
     8
 71
     3
 72
     9
 73
     5
 74
     0
 42
0.000000001
 43
0.00000001
 40
0.0
 40
0.0
 40
0.0
 40
0.0
 40
0.55947273267067
 40
1.0
 40
1.0
 40
1.0
 40
1.0
 10
216.743961647316
 20
153.7582018108635
 30
0.0
 10
216.7505863962149
 20
153.8197522545946
 30
0.0
 10
216.7624274538967
 20
153.9297673458347
 30
0.0
 10
216.761660319949
 20
154.0478191411308
 30
0.0
 10
216.7613223765273
 20
154.0998241759159
 30
0.0
  0
SPLINE
  5
296
330
1F
100
AcDbEntity
  8
0
  6
Continuous
 62
     7
370
    30
100
AcDbSpline
210
0.0
220
0.0
230
1.0
 70
     8
 71
     3
 72
    10
 73
     6
 74
     0
 42
0.000000001
 43
0.00000001
 40
0.0
 40
0.0
 40
0.0
 40
0.0
 40
0.559561229800693
 40
0.7800081457599849
 40
1.0
 40
1.0
 40
1.0
 40
1.0
 10
216.4971577671768
 20
153.733796522238
 30
0.0
 10
216.5534640732055
 20
153.711857559119
 30
0.0
 10
216.6319530303044
 20
153.681275436858
 30
0.0
 10
216.7156348862785
 20
153.7041980174989
 30
0.0
 10
216.7345258997073
 20
153.7402129499618
 30
0.0
 10
216.743961647316
 20
153.7582018108635
 30
0.0
  0
LINE
  5
297
330
1F
100
AcDbEntity
  8
0
  6
Continuous
 62
     7
370
    30
100
AcDbLine
 10
216.4971577672
 20
153.5967147677
 30
0.0
 11
216.4971577672
 21
153.7337965222
 31
0.0
  0
LINE
  5
298
330
1F
100
AcDbEntity
  8
0
  6
Continuous
 62
     7
370
    30
100
AcDbLine
 10
217.2647835237
 20
153.153573851
 30
0.0
 11
216.4971577672
 21
153.5967147677
 31
0.0
  0
LINE
  5
299
330
1F
100
AcDbEntity
  8
0
  6
Continuous
 62
     7
370
    30
100
AcDbLine
 10
217.2647835237
 20
153.28794648
 30
0.0
 11
217.2647835237
 21
153.153573851
 31
0.0
  0
SPLINE
  5
29A
330
1F
100
AcDbEntity
  8
0
  6
Continuous
 62
     7
370
    30
100
AcDbSpline
210
0.0
220
0.0
230
1.0
 70
     8
 71
     3
 72
    10
 73
     6
 74
     0
 42
0.000000001
 43
0.00000001
 40
0.0
 40
0.0
 40
0.0
 40
0.0
 40
0.2789828981051599
 40
0.5592709435781575
 40
1.0
 40
1.0
 40
1.0
 40
1.0
 10
217.0137567634378
 20
153.5536881450481
 30
0.0
 10
217.0318588969669
 20
153.5211949039741
 30
0.0
 10
217.0681478500473
 20
153.4560564108307
 30
0.0
 10
217.1576569005227
 20
153.3660988814658
 30
0.0
 10
217.2241431348812
 20
153.3175949827122
 30
0.0
 10
217.2647835236555
 20
153.2879464799593
 30
0.0
  0
SPLINE
  5
29B
330
1F
100
AcDbEntity
  8
0
  6
Continuous
 62
     7
370
    30
100
AcDbSpline
210
0.0
220
0.0
230
1.0
 70
     8
 71
     3
 72
     9
 73
     5
 74
     0
 42
0.000000001
 43
0.00000001
 40
0.0
 40
0.0
 40
0.0
 40
0.0
 40
0.5619407086696204
 40
1.0
 40
1.0
 40
1.0
 40
1.0
 10
216.9569824868278
 20
153.9868719984941
 30
0.0
 10
216.9560361025975
 20
153.9100146279479
 30
0.0
 10
216.954351967215
 20
153.7732433114007
 30
0.0
 10
216.9956609706622
 20
153.6205686840914
 30
0.0
 10
217.0137567634378
 20
153.5536881450481
 30
0.0
  0
LINE
  5
29C
330
1F
100
AcDbEntity
  8
0
  6
Continuous
 62
     7
370
    30
100
AcDbLine
 10
216.9569824868
 20
155.4934419678
 30
0.0
 11
216.9569824868
 21
153.9868719985
 31
0.0
  0
LINE
  5
29D
330
1F
100
AcDbEntity
  8
0
  6
Continuous
 62
     7
370
    30
100
AcDbLine
 10
218.3284800945
 20
152.5037544336
 30
0.0
 11
216.9569824868
 21
155.4934419678
 31
0.0
  0
LINE
  5
29E
330
1F
100
AcDbEntity
  8
0
  6
Continuous
 62
     7
370
    30
100
AcDbLine
 10
218.4101224427
 20
152.4566233092
 30
0.0
 11
218.3284800945
 21
152.5037544336
 31
0.0
  0
LINE
  5
29F
330
1F
100
AcDbEntity
  8
0
  6
Continuous
 62
     7
370
    30
100
AcDbLine
 10
218.4101224427
 20
154.6055017218
 30
0.0
 11
218.4101224427
 21
152.4566233092
 31
0.0
  0
SPLINE
  5
2A0
330
1F
100
AcDbEntity
  8
0
  6
Continuous
 62
     7
370
    30
100
AcDbSpline
210
0.0
220
0.0
230
1.0
 70
     8
 71
     3
 72
     9
 73
     5
 74
     0
 42
0.000000001
 43
0.00000001
 40
0.0
 40
0.0
 40
0.0
 40
0.0
 40
0.5575607207374994
 40
1.0
 40
1.0
 40
1.0
 40
1.0
 10
218.4593893769531
 20
154.9807202379284
 30
0.0
 10
218.4411196447224
 20
154.9176089408289
 30
0.0
 10
218.4083523934596
 20
154.804417148882
 30
0.0
 10
218.4095795156481
 20
154.6665150340714
 30
0.0
 10
218.4101224427048
 20
154.6055017217857
 30
0.0
  0
SPLINE
  5
2A1
330
1F
100
AcDbEntity
  8
0
  6
Continuous
 62
     7
370
    30
100
AcDbSpline
210
0.0
220
0.0
230
1.0
 70
     8
 71
     3
 72
     9
 73
     5
 74
     0
 42
0.000000001
 43
0.00000001
 40
0.0
 40
0.0
 40
0.0
 40
0.0
 40
0.5627763038302287
 40
1.0
 40
1.0
 40
1.0
 40
1.0
 10
218.6742870520553
 20
154.9254742405493
 30
0.0
 10
218.6321085324006
 20
154.9442842680591
 30
0.0
 10
218.5571613120437
 20
154.9777078990502
 30
0.0
 10
218.4891329770315
 20
154.9798038420034
 30
0.0
 10
218.4593893769531
 20
154.9807202379284
 30
0.0
  0
LINE
  5
2A2
330
1F
100
AcDbEntity
  8
0
  6
Continuous
 62
     7
370
    30
100
AcDbLine
 10
218.6742870521
 20
155.0582213941
 30
0.0
 11
218.6742870521
 21
154.9254742405
 31
0.0
  0
LINE
  5
2A3
330
1F
100
AcDbEntity
  8
0
  6
Continuous
 62
     7
370
    30
100
AcDbLine
 10
217.9066612956
 20
155.5013623108
 30
0.0
 11
218.6742870521
 21
155.0582213941
 31
0.0
  0
LINE
  5
2A4
330
1F
100
AcDbEntity
  8
0
  6
Continuous
 62
     7
370
    30
100
AcDbLine
 10
231.0116658056
 20
147.8178863649
 30
0.0
 11
231.0116658056
 21
147.8910327557
 31
0.0
  0
SPLINE
  5
2A5
330
1F
100
AcDbEntity
  8
0
  6
Continuous
 62
     7
370
    30
100
AcDbSpline
210
0.0
220
0.0
230
1.0
 70
     8
 71
     3
 72
     9
 73
     5
 74
     0
 42
0.000000001
 43
0.00000001
 40
0.0
 40
0.0
 40
0.0
 40
0.0
 40
0.5578880974118708
 40
1.0
 40
1.0
 40
1.0
 40
1.0
 10
231.2429857921508
 20
147.618787340023
 30
0.0
 10
231.2015158297479
 20
147.6626077764069
 30
0.0
 10
231.1271819936341
 20
147.7411547764005
 30
0.0
 10
231.0470798962904
 20
147.7943625672626
 30
0.0
 10
231.0116658056325
 20
147.8178863649132
 30
0.0
  0
SPLINE
  5
2A6
330
1F
100
AcDbEntity
  8
0
  6
Continuous
 62
     7
370
    30
100
AcDbSpline
210
0.0
220
0.0
230
1.0
 70
     8
 71
     3
 72
    10
 73
     6
 74
     0
 42
0.000000001
 43
0.00000001
 40
0.0
 40
0.0
 40
0.0
 40
0.0
 40
0.56001136997776
 40
0.7802776236410273
 40
1.0
 40
1.0
 40
1.0
 40
1.0
 10
231.3250973492314
 20
147.2565849543327
 30
0.0
 10
231.3225743337762
 20
147.3211538993972
 30
0.0
 10
231.3190589542512
 20
147.4111193995938
 30
0.0
 10
231.2868966571845
 20
147.5382507611824
 30
0.0
 10
231.2576106802001
 20
147.5919639456647
 30
0.0
 10
231.2429857921508
 20
147.618787340023
 30
0.0
  0
LINE
  5
2A7
330
1F
100
AcDbEntity
  8
0
  6
Continuous
 62
     7
370
    30
100
AcDbLine
 10
231.3250973492
 20
145.5194936304
 30
0.0
 11
231.3250973492
 21
147.2565849543
 31
0.0
  0
SPLINE
  5
2A8
330
1F
100
AcDbEntity
  8
0
  6
Continuous
 62
     7
370
    30
100
AcDbSpline
210
0.0
220
0.0
230
1.0
 70
     8
 71
     3
 72
    10
 73
     6
 74
     0
 42
0.000000001
 43
0.00000001
 40
0.0
 40
0.0
 40
0.0
 40
0.0
 40
0.2785120652043363
 40
0.5590464629733434
 40
1.0
 40
1.0
 40
1.0
 40
1.0
 10
231.261754148055
 20
145.2271730362701
 30
0.0
 10
231.27650816063
 20
145.245885727653
 30
0.0
 10
231.3061233176564
 20
145.2834469870642
 30
0.0
 10
231.3218452956727
 20
145.3890572555634
 30
0.0
 10
231.3238637348481
 20
145.4700146826467
 30
0.0
 10
231.3250973492314
 20
145.5194936303869
 30
0.0
  0
LINE
  5
2A9
330
1F
100
AcDbEntity
  8
0
  6
Continuous
 62
     7
370
    30
100
AcDbLine
 10
231.8445115989
 20
144.7184539337
 30
0.0
 11
231.4405990695
 21
144.9516276736
 31
0.0
  0
LINE
  5
2AA
330
1F
100
AcDbEntity
  8
0
  6
Continuous
 62
     7
370
    30
100
AcDbLine
 10
231.8445115989
 20
144.7916003244
 30
0.0
 11
231.8445115989
 21
144.7184539337
 31
0.0
  0
SPLINE
  5
2AB
330
1F
100
AcDbEntity
  8
0
  6
Continuous
 62
     7
370
    30
100
AcDbSpline
210
0.0
220
0.0
230
1.0
 70
     8
 71
     3
 72
     9
 73
     5
 74
     0
 42
0.000000001
 43
0.00000001
 40
0.0
 40
0.0
 40
0.0
 40
0.0
 40
0.5577888705740583
 40
1.0
 40
1.0
 40
1.0
 40
1.0
 10
231.6038074344077
 20
145.007495047398
 30
0.0
 10
231.6465204125666
 20
144.9595323913147
 30
0.0
 10
231.7230959421483
 20
144.8735452757347
 30
0.0
 10
231.8072831005001
 20
144.8167263054577
 30
0.0
 10
231.8445115988781
 20
144.7916003244386
 30
0.0
  0
SPLINE
  5
2AC
330
1F
100
AcDbEntity
  8
0
  6
Continuous
 62
     7
370
    30
100
AcDbSpline
210
0.0
220
0.0
230
1.0
 70
     8
 71
     3
 72
    10
 73
     6
 74
     0
 42
0.000000001
 43
0.00000001
 40
0.0
 40
0.0
 40
0.0
 40
0.0
 40
0.5601234433190357
 40
0.7803712189439305
 40
1.0
 40
1.0
 40
1.0
 40
1.0
 10
231.5245111307127
 20
145.3534429437531
 30
0.0
 10
231.5266686857462
 20
145.2917911272012
 30
0.0
 10
231.5296746192981
 20
145.2058970197388
 30
0.0
 10
231.5627894066439
 20
145.0844505905707
 30
0.0
 10
231.5901475913047
 20
145.0331228189647
 30
0.0
 10
231.6038074344077
 20
145.007495047398
 30
0.0
  0
LINE
  5
2AD
330
1F
100
AcDbEntity
  8
0
  6
Continuous
 62
     7
370
    30
100
AcDbLine
 10
231.5245111307
 20
146.2458289109
 30
0.0
 11
231.5245111307
 21
145.3534429438
 31
0.0
  0
LINE
  5
2AE
330
1F
100
AcDbEntity
  8
0
  6
Continuous
 62
     7
370
    30
100
AcDbLine
 10
232.0378256647
 20
145.9457059621
 30
0.0
 11
231.5245111307
 21
146.2458289109
 31
0.0
  0
SPLINE
  5
2AF
330
1F
100
AcDbEntity
  8
0
  6
Continuous
 62
     7
370
    30
100
AcDbSpline
210
0.0
220
0.0
230
1.0
 70
     8
 71
     3
 72
    10
 73
     6
 74
     0
 42
0.000000001
 43
0.00000001
 40
0.0
 40
0.0
 40
0.0
 40
0.0
 40
0.2786905031362981
 40
0.5591146962643126
 40
1.0
 40
1.0
 40
1.0
 40
1.0
 10
232.2752453668778
 20
145.7501293728646
 30
0.0
 10
232.2554611561223
 20
145.775421689071
 30
0.0
 10
232.2157696601334
 20
145.8261636610234
 30
0.0
 10
232.1330361518411
 20
145.8875530625976
 30
0.0
 10
232.0739443123773
 20
145.923645324144
 30
0.0
 10
232.0378256646906
 20
145.9457059621413
 30
0.0
  0
SPLINE
  5
2B0
330
1F
100
AcDbEntity
  8
0
  6
Continuous
 62
     7
370
    30
100
AcDbSpline
210
0.0
220
0.0
230
1.0
 70
     8
 71
     3
 72
     9
 73
     5
 74
     0
 42
0.000000001
 43
0.00000001
 40
0.0
 40
0.0
 40
0.0
 40
0.0
 40
0.5618661542988053
 40
1.0
 40
1.0
 40
1.0
 40
1.0
 10
232.3512572082895
 20
145.3806117757444
 30
0.0
 10
232.3459226420269
 20
145.4476114333513
 30
0.0
 10
232.3364282700635
 20
145.5668563052736
 30
0.0
 10
232.2938850093172
 20
145.6942944210921
 30
0.0
 10
232.2752453668778
 20
145.7501293728646
 30
0.0
  0
LINE
  5
2B1
330
1F
100
AcDbEntity
  8
0
  6
Continuous
 62
     7
370
    30
100
AcDbLine
 10
232.430553512
 20
145.334834994
 30
0.0
 11
232.3512572083
 21
145.3806117757
 31
0.0
  0
LINE
  5
2B2
330
1F
100
AcDbEntity
  8
0
  6
Continuous
 62
     7
370
    30
100
AcDbLine
 10
232.430553512
 20
146.2456430151
 30
0.0
 11
232.430553512
 21
145.334834994
 31
0.0
  0
LINE
  5
2B3
330
1F
100
AcDbEntity
  8
0
  6
Continuous
 62
     7
370
    30
100
AcDbLine
 10
232.3512572083
 20
146.2914197968
 30
0.0
 11
232.430553512
 21
146.2456430151
 31
0.0
  0
SPLINE
  5
2B4
330
1F
100
AcDbEntity
  8
0
  6
Continuous
 62
     7
370
    30
100
AcDbSpline
210
0.0
220
0.0
230
1.0
 70
     8
 71
     3
 72
     9
 73
     5
 74
     0
 42
0.000000001
 43
0.00000001
 40
0.0
 40
0.0
 40
0.0
 40
0.0
 40
0.5581781111261211
 40
1.0
 40
1.0
 40
1.0
 40
1.0
 10
232.2846295448298
 20
146.0150827354479
 30
0.0
 10
232.3039776318384
 20
146.0606165773922
 30
0.0
 10
232.3386405586407
 20
146.1421924060332
 30
0.0
 10
232.3473910497701
 20
146.2456915912887
 30
0.0
 10
232.3512572082895
 20
146.2914197968151
 30
0.0
  0
SPLINE
  5
2B5
330
1F
100
AcDbEntity
  8
0
  6
Continuous
 62
     7
370
    30
100
AcDbSpline
210
0.0
220
0.0
230
1.0
 70
     8
 71
     3
 72
    10
 73
     6
 74
     0
 42
0.000000001
 43
0.00000001
 40
0.0
 40
0.0
 40
0.0
 40
0.0
 40
0.5603610191166125
 40
0.7806040857484893
 40
1.0
 40
1.0
 40
1.0
 40
1.0
 10
232.0378256646906
 20
146.0811622413012
 30
0.0
 10
232.086716112954
 20
146.0548795737577
 30
0.0
 10
232.1548223558341
 20
146.0182668241749
 30
0.0
 10
232.2398353324534
 20
145.9984621145557
 30
0.0
 10
232.2697173341866
 20
146.0095496501091
 30
0.0
 10
232.2846295448298
 20
146.0150827354479
 30
0.0
  0
LINE
  5
2B6
330
1F
100
AcDbEntity
  8
0
  6
Continuous
 62
     7
370
    30
100
AcDbLine
 10
231.5245111307
 20
146.3774924142
 30
0.0
 11
232.0378256647
 21
146.0811622413
 31
0.0
  0
LINE
  5
2B7
330
1F
100
AcDbEntity
  8
0
  6
Continuous
 62
     7
370
    30
100
AcDbLine
 10
231.5245111307
 20
147.3099734399
 30
0.0
 11
231.5245111307
 21
146.3774924142
 31
0.0
  0
SPLINE
  5
2B8
330
1F
100
AcDbEntity
  8
0
  6
Continuous
 62
     7
370
    30
100
AcDbSpline
210
0.0
220
0.0
230
1.0
 70
     8
 71
     3
 72
     9
 73
     5
 74
     0
 42
0.000000001
 43
0.00000001
 40
0.0
 40
0.0
 40
0.0
 40
0.0
 40
0.558250841699585
 40
1.0
 40
1.0
 40
1.0
 40
1.0
 10
231.5470331577977
 20
147.4210497021609
 30
0.0
 10
231.5390274781463
 20
147.4034352856303
 30
0.0
 10
231.5246868286508
 20
147.3718824151016
 30
0.0
 10
231.5245649642217
 20
147.328942230391
 30
0.0
 10
231.5245111307127
 20
147.3099734399379
 30
0.0
  0
SPLINE
  5
2B9
330
1F
100
AcDbEntity
  8
0
  6
Continuous
 62
     7
370
    30
100
AcDbSpline
210
0.0
220
0.0
230
1.0
 70
     8
 71
     3
 72
     9
 73
     5
 74
     0
 42
0.000000001
 43
0.00000001
 40
0.0
 40
0.0
 40
0.0
 40
0.0
 40
0.562369358356406
 40
0.9999999999999999
 40
0.9999999999999999
 40
0.9999999999999999
 40
0.9999999999999999
 10
231.6450978173967
 20
147.401282287116
 30
0.0
 10
231.6246464406588
 20
147.4128870663965
 30
0.0
 10
231.5882799913954
 20
147.4335225777523
 30
0.0
 10
231.5595891493927
 20
147.4248465832165
 30
0.0
 10
231.5470331577977
 20
147.4210497021609
 30
0.0
  0
LINE
  5
2BA
330
1F
100
AcDbEntity
  8
0
  6
Continuous
 62
     7
370
    30
100
AcDbLine
 10
232.1072685815
 20
147.1344767841
 30
0.0
 11
231.6450978174
 21
147.4012822871
 31
0.0
  0
SPLINE
  5
2BB
330
1F
100
AcDbEntity
  8
0
  6
Continuous
 62
     7
370
    30
100
AcDbSpline
210
0.0
220
0.0
230
1.0
 70
     8
 71
     3
 72
     9
 73
     5
 74
     0
 42
0.000000001
 43
0.00000001
 40
0.0
 40
0.0
 40
0.0
 40
0.0
 40
0.5573026436976255
 40
0.9999999999999999
 40
0.9999999999999999
 40
0.9999999999999999
 40
0.9999999999999999
 10
232.4493218678885
 20
146.8638672342571
 30
0.0
 10
232.3877286182494
 20
146.9262155623572
 30
0.0
 10
232.2772083285366
 20
147.0380907325276
 30
0.0
 10
232.1594152610867
 20
147.1049003451914
 30
0.0
 10
232.1072685815358
 20
147.1344767840933
 30
0.0
  0
SPLINE
  5
2BC
330
1F
100
AcDbEntity
  8
0
  6
Continuous
 62
     7
370
    30
100
AcDbSpline
210
0.0
220
0.0
230
1.0
 70
     8
 71
     3
 72
     9
 73
     5
 74
     0
 42
0.000000001
 43
0.00000001
 40
0.0
 40
0.0
 40
0.0
 40
0.0
 40
0.5626512567471397
 40
1.0
 40
1.0
 40
1.0
 40
1.0
 10
232.5699085545725
 20
146.443151346211
 30
0.0
 10
232.5602555682345
 20
146.5208592131758
 30
0.0
 10
232.5430993169646
 20
146.6589693942747
 30
0.0
 10
232.4778559656094
 20
146.8015220217732
 30
0.0
 10
232.4493218678885
 20
146.8638672342571
 30
0.0
  0
LINE
  5
2BD
330
1F
100
AcDbEntity
  8
0
  6
Continuous
 62
     7
370
    30
100
AcDbLine
 10
232.6393514714
 20
146.4030628036
 30
0.0
 11
232.5699085546
 21
146.4431513462
 31
0.0
  0
LINE
  5
2BE
330
1F
100
AcDbEntity
  8
0
  6
Continuous
 62
     7
370
    30
100
AcDbLine
 10
232.6299672935
 20
146.9568071923
 30
0.0
 11
232.6393514714
 21
146.4030628036
 31
0.0
  0
LINE
  5
2BF
330
1F
100
AcDbEntity
  8
0
  6
Continuous
 62
     7
370
    30
100
AcDbLine
 10
231.0116658056
 20
147.8910327557
 30
0.0
 11
232.6299672935
 21
146.9568071923
 31
0.0
  0
ARC
  5
2C0
330
1F
100
AcDbEntity
  8
0
  6
Continuous
 62
     7
370
    30
100
AcDbCircle
 10
218.9487124567
 20
138.1269212792
 30
0.0
 40
12.19414993178617
100
AcDbArc
 50
1.0432487761
 51
20.1221790004
  0
LWPOLYLINE
  5
2C1
330
1F
100
AcDbEntity
  8
0
  6
Continuous
 62
     7
370
    30
100
AcDbPolyline
 90
       29
 70
   128
 43
0.0
 10
228.2770998927
 20
146.3558005417
 10
228.0678889758
 20
146.6391158678
 10
227.487928294
 20
147.3605814424
 10
226.877510224
 20
148.0310259873
 10
226.2427013747
 20
148.6437863233
 10
225.5898107618
 20
149.192772563
 10
224.9253271055
 20
149.6725286344
 10
224.2558543428
 20
150.0782865061
 10
223.5880459949
 20
150.4060135742
 10
222.9285390412
 20
150.6524527399
 10
222.2838879581
 20
150.8151547799
 10
221.6604995775
 20
150.8925026882
 10
221.0645694135
 20
150.8837277467
 10
220.5020200875
 20
150.7889171647
 10
219.9784424677
 20
150.6090132122
 10
219.4990401035
 20
150.3458038557
 10
219.0685775112
 20
150.0019049879
 10
218.6913328212
 20
149.5807344303
 10
218.3710552609
 20
149.0864779651
 10
218.1109278924
 20
148.5240477351
 10
217.9135359785
 20
147.8990334246
 10
217.7808412887
 20
147.2176467067
 10
217.7141626025
 20
146.4866595087
 10
217.7141626025
 20
145.7133367097
 10
217.7808412887
 20
144.9053639392
 10
217.9135359785
 20
144.0707711935
 10
218.1109278924
 20
143.2178530304
 10
218.3710552609
 20
142.3550861336
 10
218.5034149264
 20
141.9781777592
  0
LWPOLYLINE
  5
2C2
330
1F
100
AcDbEntity
  8
0
  6
Continuous
 62
     7
370
    30
100
AcDbPolyline
 90
       21
 70
   128
 43
0.0
 10
222.0583150343
 20
136.3316853199
 10
222.2838879581
 20
136.1087488477
 10
222.9285390412
 20
135.5271525899
 10
223.5880459949
 20
135.0121412347
 10
224.2558543428
 20
134.5688331963
 10
224.9253271055
 20
134.2016342692
 10
225.5898107618
 20
133.9141938412
 10
226.2427013747
 20
133.7093686245
 10
226.877510224
 20
133.5891942642
 10
227.487928294
 20
133.5548651069
 10
228.0678889758
 20
133.6067223313
 10
228.6116283596
 20
133.7442505569
 10
229.1137425191
 20
133.9660829666
 10
229.5692412181
 20
134.2700148901
 10
229.973597506
 20
134.6530257154
 10
230.3227927083
 20
135.1113089089
 10
230.6133563662
 20
135.6403098464
 10
230.8424007275
 20
136.2347710787
 10
231.0076494466
 20
136.8887845832
 10
231.1074602072
 20
137.5958504798
 10
231.1408410454
 20
138.34894163
  0
ARC
  5
2C3
330
1F
100
AcDbEntity
  8
0
  6
Continuous
 62
     7
370
    30
100
AcDbCircle
 10
236.8514662062
 20
123.7154690184
 30
0.0
 40
0.6573039067428025
100
AcDbArc
 50
305.0133328787
 51
6.2988475146
  0
LINE
  5
2C4
330
1F
100
AcDbEntity
  8
0
  6
Continuous
 62
     7
370
    30
100
AcDbLine
 10
237.5048020761
 20
123.7875846681
 30
0.0
 11
237.5048020761
 21
148.2838090247
 31
0.0
  0
LINE
  5
2C5
330
1F
100
AcDbEntity
  8
0
  6
Continuous
 62
     7
370
    30
100
AcDbLine
 10
236.5619930345
 20
149.9168021818
 30
0.0
 11
215.5844918593
 21
162.0268558405
 31
0.0
  0
ARC
  5
2C6
330
1F
100
AcDbEntity
  8
0
  6
Continuous
 62
     7
370
    30
100
AcDbCircle
 10
215.1939317861
 20
161.481680735
 30
0.0
 40
0.6706363145357916
100
AcDbArc
 50
54.3824225248
 51
114.3071190461
  0
LINE
  5
2C7
330
1F
100
AcDbEntity
  8
0
  6
Continuous
 62
     7
370
    30
100
AcDbLine
 10
216.8808542914
 20
131.6108322395
 30
0.0
 11
220.4486068685
 21
130.7996697872
 31
0.0
  0
LINE
  5
2C8
330
1F
100
AcDbEntity
  8
0
  6
Continuous
 62
     7
370
    30
100
AcDbLine
 10
214.2881294271
 20
133.1075804445
 30
0.0
 11
216.8808542914
 21
131.6108322395
 31
0.0
  0
LINE
  5
2C9
330
1F
100
AcDbEntity
  8
0
  6
Continuous
 62
     7
370
    30
100
AcDbLine
 10
214.2881294271
 20
163.3195904842
 30
0.0
 11
214.2881294271
 21
161.7293196703
 31
0.0
  0
LINE
  5
2CA
330
1F
100
AcDbEntity
  8
0
  6
Continuous
 62
     7
370
    30
100
AcDbLine
 10
214.2881294271
 20
134.3560377147
 30
0.0
 11
214.2881294271
 21
133.1075804445
 31
0.0
  0
LINE
  5
2CB
330
1F
100
AcDbEntity
  8
0
  6
Continuous
 62
     7
370
    30
100
AcDbLine
 10
237.8583554666
 20
149.7127886205
 30
0.0
 11
214.2881294271
 21
163.3195904842
 31
0.0
  0
LINE
  5
2CC
330
1F
100
AcDbEntity
  8
0
  6
Continuous
 62
     7
370
    30
100
AcDbLine
 10
237.8583554666
 20
119.5007785808
 30
0.0
 11
237.8583554666
 21
149.7127886205
 31
0.0
  0
LINE
  5
2CD
330
1F
100
AcDbEntity
  8
0
  6
Continuous
 62
     7
370
    30
100
AcDbLine
 10
235.2656306023
 20
120.9975267858
 30
0.0
 11
237.8583554666
 21
119.5007785808
 31
0.0
  0
LINE
  5
2CE
330
1F
100
AcDbEntity
  8
0
  6
Continuous
 62
     7
370
    30
100
AcDbLine
 10
231.6978780252
 20
124.3056037785
 30
0.0
 11
235.2656306023
 21
120.9975267858
 31
0.0
  0
LWPOLYLINE
  5
2CF
330
1F
100
AcDbEntity
  8
0
  6
Continuous
 62
     7
370
    30
100
AcDbPolyline
 90
       27
 70
   128
 43
0.0
 10
239.5554117415
 20
164.2992802184
 10
239.8716933532
 20
164.1562336237
 10
240.2380846204
 20
164.0610392704
 10
240.6332922144
 20
164.0192295084
 10
241.0343481065
 20
164.0332341689
 10
241.4179443859
 20
164.102239352
 10
241.7617878312
 20
164.2222347274
 10
242.0458955112
 20
164.3862466
 10
242.2537561201
 20
164.5847431958
 10
242.3732895551
 20
164.8061886143
 10
242.3975489672
 20
165.0377132527
 10
242.3251244877
 20
165.2658617405
 10
242.160225164
 20
165.4773749168
 10
241.9124343454
 20
165.6599604048
 10
241.5961527338
 20
165.8030069995
 10
241.2297614666
 20
165.8982013528
 10
240.8345538725
 20
165.9400111149
 10
240.4334979804
 20
165.9260064544
 10
240.0499017011
 20
165.8570012712
 10
239.7060582558
 20
165.7370058958
 10
239.4219505758
 20
165.5729940233
 10
239.2140899668
 20
165.3744974274
 10
239.0945565319
 20
165.1530520089
 10
239.0702971198
 20
164.9215273706
 10
239.1427215993
 20
164.6933788828
 10
239.307620923
 20
164.4818657064
 10
239.5554117415
 20
164.2992802184
  0
LINE
  5
2D0
330
1F
100
AcDbEntity
  8
0
  6
Continuous
 62
     7
370
    30
100
AcDbLine
 10
266.4254694266
 20
166.2042324794
 30
0.0
 11
264.0684468226
 21
167.5649126657
 31
0.0
  0
LINE
  5
2D1
330
1F
100
AcDbEntity
  8
0
  6
Continuous
 62
     7
370
    30
100
AcDbLine
 10
266.4254694266
 20
166.2042324794
 30
0.0
 11
237.8583554666
 21
149.7127886205
 31
0.0
  0
LINE
  5
2D2
330
1F
100
AcDbEntity
  8
0
  6
Continuous
 62
     7
370
    30
100
AcDbLine
 10
242.855243387
 20
179.8110343431
 30
0.0
 11
214.2881294271
 21
163.3195904842
 31
0.0
  0
LINE
  5
2D3
330
1F
100
AcDbEntity
  8
0
  6
Continuous
 62
     7
370
    30
100
AcDbLine
 10
245.212265991
 20
178.4503541567
 30
0.0
 11
242.855243387
 21
179.8110343431
 31
0.0
  0
LINE
  5
2D4
330
1F
100
AcDbEntity
  8
0
  6
Continuous
 62
     7
370
    30
100
AcDbLine
 10
245.212265991
 20
178.4503541567
 30
0.0
 11
244.7408614702
 21
178.1782181194
 31
0.0
  0
LINE
  5
2D5
330
1F
100
AcDbEntity
  8
0
  6
Continuous
 62
     7
370
    30
100
AcDbLine
 10
244.7408614702
 20
178.1782181194
 30
0.0
 11
263.5970423018
 21
167.2927766285
 31
0.0
  0
LINE
  5
2D6
330
1F
100
AcDbEntity
  8
0
  6
Continuous
 62
     7
370
    30
100
AcDbLine
 10
263.5970423018
 20
167.2927766285
 30
0.0
 11
264.0684468226
 21
167.5649126657
 31
0.0
  0
LINE
  5
2D7
330
1F
100
AcDbEntity
  8
0
  6
Continuous
 62
     7
370
    30
100
AcDbLine
 10
266.4254694266
 20
135.9922224396
 30
0.0
 11
266.4254694266
 21
166.2042324794
 31
0.0
  0
LINE
  5
2D8
330
1F
100
AcDbEntity
  8
0
  6
Continuous
 62
     7
370
    30
100
AcDbLine
 10
266.4254694266
 20
135.9922224396
 30
0.0
 11
237.8583554666
 21
119.5007785808
 31
0.0
  0
ARC
  5
2D9
330
1F
100
AcDbEntity
  8
0
  6
Continuous
 62
     7
370
    30
100
AcDbCircle
 10
235.9048502659
 20
137.8188470098
 30
0.0
 40
7.16752585913912
100
AcDbArc
 50
127.5413213197
 51
157.4586955295
  0
LINE
  5
2DA
330
1F
100
AcDbEntity
  8
0
  6
Continuous
 62
     7
370
    30
100
AcDbLine
 10
225.0893986605
 20
138.1445027053
 30
0.0
 11
229.2848988956
 21
140.566513437
 31
0.0
  0
LINE
  5
2DB
330
1F
100
AcDbEntity
  8
0
  6
Continuous
 62
     7
370
    30
100
AcDbLine
 10
226.0048250583
 20
146.247767959
 30
0.0
 11
221.8093248233
 21
143.8257572273
 31
0.0
  0
ARC
  5
2DC
330
1F
100
AcDbEntity
  8
0
  6
Continuous
 62
     7
370
    30
100
AcDbCircle
 10
226.9341743946
 20
153.353394404
 30
0.0
 40
7.166143828053108
100
AcDbArc
 50
262.5485456462
 51
292.4697931561
  0
LINE
  5
2DD
330
1F
100
AcDbEntity
  8
0
  6
Continuous
 62
     7
370
    30
100
AcDbLine
 10
236.0905885137
 20
147.4674009129
 30
0.0
 11
236.0905885137
 21
122.9711765563
 31
0.0
  0
ARC
  5
2DE
330
1F
100
AcDbEntity
  8
0
  6
Continuous
 62
     7
370
    30
100
AcDbCircle
 10
235.8548862533
 20
123.4260802513
 30
0.0
 40
0.5123406359706201
100
AcDbArc
 50
242.6096722366
 51
297.3903277634
  0
ARC
  5
2DF
330
1F
100
AcDbEntity
  8
0
  6
Continuous
 62
     7
370
    30
100
AcDbCircle
 10
214.446314737
 20
160.7789124886
 30
0.0
 40
0.5122682691907364
100
AcDbArc
 50
122.60547834
 51
177.3945215143
  0
LINE
  5
2E0
330
1F
100
AcDbEntity
  8
0
  6
Continuous
 62
     7
370
    30
100
AcDbLine
 10
214.1702782969
 20
161.2104477287
 30
0.0
 11
235.1477794721
 21
149.10039407
 31
0.0
  0
LINE
  5
2E1
330
1F
100
AcDbEntity
  8
0
  6
Continuous
 62
     7
370
    30
100
AcDbLine
 10
236.0905885137
 20
122.9711765563
 30
0.0
 11
237.5048020761
 21
123.7875846681
 31
0.0
  0
LINE
  5
2E2
330
1F
100
AcDbEntity
  8
0
  6
Continuous
 62
     7
370
    30
100
AcDbLine
 10
214.1702782969
 20
161.2104477287
 30
0.0
 11
215.5844918593
 21
162.0268558405
 31
0.0
  0
LINE
  5
2E3
330
1F
100
AcDbEntity
  8
0
  6
Continuous
 62
     7
370
    30
100
AcDbLine
 10
234.3209030126
 20
145.4377664824
 30
0.0
 11
234.2562672888
 21
145.4750798915
 31
0.0
  0
SPLINE
  5
2E4
330
1F
100
AcDbEntity
  8
0
  6
Continuous
 62
     7
370
    30
100
AcDbSpline
210
0.0
220
0.0
230
1.0
 70
     8
 71
     3
 72
     9
 73
     5
 74
     0
 42
0.000000001
 43
0.00000001
 40
0.0
 40
0.0
 40
0.0
 40
0.0
 40
0.562651256747143
 40
1.0
 40
1.0
 40
1.0
 40
1.0
 10
234.2562672887901
 20
145.4750798915245
 30
0.0
 10
234.2466143024521
 20
145.5527877584894
 30
0.0
 10
234.2294580511822
 20
145.6908979395882
 30
0.0
 10
234.1642146998269
 20
145.8334505670867
 30
0.0
 10
234.1356806021061
 20
145.8957957795706
 30
0.0
  0
SPLINE
  5
2E5
330
1F
100
AcDbEntity
  8
0
  6
Continuous
 62
     7
370
    30
100
AcDbSpline
210
0.0
220
0.0
230
1.0
 70
     8
 71
     3
 72
     9
 73
     5
 74
     0
 42
0.000000001
 43
0.00000001
 40
0.0
 40
0.0
 40
0.0
 40
0.0
 40
0.5573026436976255
 40
0.9999999999999999
 40
0.9999999999999999
 40
0.9999999999999999
 40
0.9999999999999999
 10
234.1356806021061
 20
145.8957957795706
 30
0.0
 10
234.074087352467
 20
145.9581441076707
 30
0.0
 10
233.9635670627542
 20
146.0700192778411
 30
0.0
 10
233.8457739953043
 20
146.136828890505
 30
0.0
 10
233.7936273157534
 20
146.1664053294068
 30
0.0
  0
LINE
  5
2E6
330
1F
100
AcDbEntity
  8
0
  6
Continuous
 62
     7
370
    30
100
AcDbLine
 10
233.7936273158
 20
146.1664053294
 30
0.0
 11
233.3314565516
 21
146.4332108324
 31
0.0
  0
SPLINE
  5
2E7
330
1F
100
AcDbEntity
  8
0
  6
Continuous
 62
     7
370
    30
100
AcDbSpline
210
0.0
220
0.0
230
1.0
 70
     8
 71
     3
 72
     9
 73
     5
 74
     0
 42
0.000000001
 43
0.00000001
 40
0.0
 40
0.0
 40
0.0
 40
0.0
 40
0.5623693583563933
 40
1.0
 40
1.0
 40
1.0
 40
1.0
 10
233.3314565516143
 20
146.4332108324295
 30
0.0
 10
233.3110051748764
 20
146.44481561171
 30
0.0
 10
233.274638725613
 20
146.4654511230658
 30
0.0
 10
233.2459478836102
 20
146.45677512853
 30
0.0
 10
233.2333918920153
 20
146.4529782474744
 30
0.0
  0
SPLINE
  5
2E8
330
1F
100
AcDbEntity
  8
0
  6
Continuous
 62
     7
370
    30
100
AcDbSpline
210
0.0
220
0.0
230
1.0
 70
     8
 71
     3
 72
     9
 73
     5
 74
     0
 42
0.000000001
 43
0.00000001
 40
0.0
 40
0.0
 40
0.0
 40
0.0
 40
0.5581781111261144
 40
1.0
 40
1.0
 40
1.0
 40
1.0
 10
233.9709882790474
 20
145.0470112807614
 30
0.0
 10
233.990336366056
 20
145.0925451227058
 30
0.0
 10
234.0249992928583
 20
145.1741209513467
 30
0.0
 10
234.0337497839877
 20
145.2776201366022
 30
0.0
 10
234.0376159425071
 20
145.3233483421287
 30
0.0
  0
LINE
  5
2E9
330
1F
100
AcDbEntity
  8
0
  6
Continuous
 62
     7
370
    30
100
AcDbLine
 10
234.112198201
 20
144.3694848997
 30
0.0
 11
234.0376159425
 21
144.4125403211
 31
0.0
  0
SPLINE
  5
2EA
330
1F
100
AcDbEntity
  8
0
  6
Continuous
 62
     7
370
    30
100
AcDbSpline
210
0.0
220
0.0
230
1.0
 70
     8
 71
     3
 72
     9
 73
     5
 74
     0
 42
0.000000001
 43
0.00000001
 40
0.0
 40
0.0
 40
0.0
 40
0.0
 40
0.5618661542988234
 40
1.0
 40
1.0
 40
1.0
 40
1.0
 10
234.0376159425071
 20
144.4125403210579
 30
0.0
 10
234.0322813762445
 20
144.4795399786648
 30
0.0
 10
234.0227870042811
 20
144.5987848505872
 30
0.0
 10
233.9802437435348
 20
144.7262229664057
 30
0.0
 10
233.9616041010953
 20
144.7820579181782
 30
0.0
  0
SPLINE
  5
2EB
330
1F
100
AcDbEntity
  8
0
  6
Continuous
 62
     7
370
    30
100
AcDbSpline
210
0.0
220
0.0
230
1.0
 70
     8
 71
     3
 72
    10
 73
     6
 74
     0
 42
0.000000001
 43
0.00000001
 40
0.0
 40
0.0
 40
0.0
 40
0.0
 40
0.2786905031362829
 40
0.5591146962643145
 40
1.0
 40
1.0
 40
1.0
 40
1.0
 10
233.9616041010953
 20
144.7820579181782
 30
0.0
 10
233.9418198903398
 20
144.8073502343845
 30
0.0
 10
233.902128394351
 20
144.8580922063369
 30
0.0
 10
233.8193948860587
 20
144.9194816079112
 30
0.0
 10
233.7603030465949
 20
144.9555738694575
 30
0.0
 10
233.7241843989082
 20
144.9776345074549
 30
0.0
  0
LINE
  5
2EC
330
1F
100
AcDbEntity
  8
0
  6
Continuous
 62
     7
370
    30
100
AcDbLine
 10
233.7241843989
 20
144.9776345075
 30
0.0
 11
233.2108698649
 21
145.2777574562
 31
0.0
  0
LINE
  5
2ED
330
1F
100
AcDbEntity
  8
0
  6
Continuous
 62
     7
370
    30
100
AcDbLine
 10
233.5261562879
 20
143.7531038394
 30
0.0
 11
232.6980245399
 21
144.2311741215
 31
0.0
  0
LINE
  5
2EE
330
1F
100
AcDbEntity
  8
0
  6
Continuous
 62
     7
370
    30
100
AcDbLine
 10
232.6980245399
 20
144.2311741215
 30
0.0
 11
232.6980245399
 21
144.3043205123
 31
0.0
  0
SPLINE
  5
2EF
330
1F
100
AcDbEntity
  8
0
  6
Continuous
 62
     7
370
    30
100
AcDbSpline
210
0.0
220
0.0
230
1.0
 70
     8
 71
     3
 72
    10
 73
     6
 74
     0
 42
0.000000001
 43
0.00000001
 40
0.0
 40
0.0
 40
0.0
 40
0.0
 40
0.2785120652043521
 40
0.5590464629733358
 40
1.0
 40
1.0
 40
1.0
 40
1.0
 10
232.9481128822725
 20
144.2591015815836
 30
0.0
 10
232.9628668948476
 20
144.2778142729665
 30
0.0
 10
232.9924820518739
 20
144.3153755323777
 30
0.0
 10
233.0082040298903
 20
144.4209858008769
 30
0.0
 10
233.0102224690658
 20
144.5019432279602
 30
0.0
 10
233.011456083449
 20
144.5514221757005
 30
0.0
  0
LINE
  5
2F0
330
1F
100
AcDbEntity
  8
0
  6
Continuous
 62
     7
370
    30
100
AcDbLine
 10
233.0114560834
 20
144.5514221757
 30
0.0
 11
233.0114560834
 21
146.2885134996
 31
0.0
  0
SPLINE
  5
2F1
330
1F
100
AcDbEntity
  8
0
  6
Continuous
 62
     7
370
    30
100
AcDbSpline
210
0.0
220
0.0
230
1.0
 70
     8
 71
     3
 72
    10
 73
     6
 74
     0
 42
0.000000001
 43
0.00000001
 40
0.0
 40
0.0
 40
0.0
 40
0.0
 40
0.5600113699777582
 40
0.7802776236410214
 40
1.0
 40
1.0
 40
1.0
 40
1.0
 10
233.011456083449
 20
146.2885134996463
 30
0.0
 10
233.0089330679938
 20
146.3530824447107
 30
0.0
 10
233.0054176884688
 20
146.4430479449074
 30
0.0
 10
232.9732553914021
 20
146.5701793064959
 30
0.0
 10
232.9439694144177
 20
146.6238924909782
 30
0.0
 10
232.9293445263684
 20
146.6507158853366
 30
0.0
  0
SPLINE
  5
2F2
330
1F
100
AcDbEntity
  8
0
  6
Continuous
 62
     7
370
    30
100
AcDbSpline
210
0.0
220
0.0
230
1.0
 70
     8
 71
     3
 72
     9
 73
     5
 74
     0
 42
0.000000001
 43
0.00000001
 40
0.0
 40
0.0
 40
0.0
 40
0.0
 40
0.5578880974118702
 40
1.0
 40
1.0
 40
1.0
 40
1.0
 10
232.9293445263684
 20
146.6507158853366
 30
0.0
 10
232.8878745639655
 20
146.6945363217204
 30
0.0
 10
232.8135407278516
 20
146.7730833217141
 30
0.0
 10
232.733438630508
 20
146.8262911125762
 30
0.0
 10
232.6980245398501
 20
146.8498149102267
 30
0.0
  0
LINE
  5
2F3
330
1F
100
AcDbEntity
  8
0
  6
Continuous
 62
     7
370
    30
100
AcDbLine
 10
232.6980245399
 20
146.8498149102
 30
0.0
 11
232.6980245399
 21
146.9175185802
 31
0.0
  0
LINE
  5
2F4
330
1F
100
AcDbEntity
  8
0
  6
Continuous
 62
     7
370
    30
100
AcDbLine
 10
234.1356806021
 20
145.8957957796
 30
0.0
 11
234.1309665569
 21
145.8930744192
 31
0.0
  0
LINE
  5
2F5
330
1F
100
AcDbEntity
  8
0
  6
Continuous
 62
     7
370
    30
100
AcDbLine
 10
234.2562672888
 20
145.4750798915
 30
0.0
 11
234.2515532436
 21
145.4723585312
 31
0.0
  0
LINE
  5
2F6
330
1F
100
AcDbEntity
  8
0
  6
Continuous
 62
     7
370
    30
100
AcDbLine
 10
233.7936273158
 20
146.1664053294
 30
0.0
 11
233.7889132705
 21
146.163683969
 31
0.0
  0
LINE
  5
2F7
330
1F
100
AcDbEntity
  8
0
  6
Continuous
 62
     7
370
    30
100
AcDbLine
 10
233.3314565516
 20
146.4332108324
 30
0.0
 11
233.3267425064
 21
146.4304894721
 31
0.0
  0
LINE
  5
2F8
330
1F
100
AcDbEntity
  8
0
  6
Continuous
 62
     7
370
    30
100
AcDbLine
 10
233.970988279
 20
145.0470112808
 30
0.0
 11
233.9662742338
 21
145.0442899204
 31
0.0
  0
LINE
  5
2F9
330
1F
100
AcDbEntity
  8
0
  6
Continuous
 62
     7
370
    30
100
AcDbLine
 10
232.9293445264
 20
146.6507158853
 30
0.0
 11
232.9246304812
 21
146.647994525
 31
0.0
  0
LINE
  5
2FA
330
1F
100
AcDbEntity
  8
0
  6
Continuous
 62
     7
370
    30
100
AcDbLine
 10
233.0114560834
 20
146.2885134996
 30
0.0
 11
233.0067420382
 21
146.2857921393
 31
0.0
  0
LINE
  5
2FB
330
1F
100
AcDbEntity
  8
0
  6
Continuous
 62
     7
370
    30
100
AcDbLine
 10
232.6980245399
 20
146.8498149102
 30
0.0
 11
232.6933104946
 21
146.8470935499
 31
0.0
  0
LINE
  5
2FC
330
1F
100
AcDbEntity
  8
0
  6
Continuous
 62
     7
370
    30
100
AcDbLine
 10
233.9616041011
 20
144.7820579182
 30
0.0
 11
233.9568900559
 21
144.7793365578
 31
0.0
  0
LINE
  5
2FD
330
1F
100
AcDbEntity
  8
0
  6
Continuous
 62
     7
370
    30
100
AcDbLine
 10
234.0376159425
 20
144.4125403211
 30
0.0
 11
234.0329018973
 21
144.4098189607
 31
0.0
  0
LINE
  5
2FE
330
1F
100
AcDbEntity
  8
0
  6
Continuous
 62
     7
370
    30
100
AcDbLine
 10
233.7241843989
 20
144.9776345075
 30
0.0
 11
233.7194703537
 21
144.9749131471
 31
0.0
  0
LINE
  5
2FF
330
1F
100
AcDbEntity
  8
0
  6
Continuous
 62
     7
370
    30
100
AcDbLine
 10
232.6392583236
 20
146.4085592975
 30
0.0
 11
232.5746225998
 21
146.4458727066
 31
0.0
  0
SPLINE
  5
300
330
1F
100
AcDbEntity
  8
0
  6
Continuous
 62
     7
370
    30
100
AcDbSpline
210
0.0
220
0.0
230
1.0
 70
     8
 71
     3
 72
     9
 73
     5
 74
     0
 42
0.000000001
 43
0.00000001
 40
0.0
 40
0.0
 40
0.0
 40
0.0
 40
0.5626512567471397
 40
1.0
 40
1.0
 40
1.0
 40
1.0
 10
232.5746225997805
 20
146.4458727065837
 30
0.0
 10
232.5649696134424
 20
146.5235805735486
 30
0.0
 10
232.5478133621725
 20
146.6616907546474
 30
0.0
 10
232.4825700108173
 20
146.804243382146
 30
0.0
 10
232.4540359130964
 20
146.8665885946298
 30
0.0
  0
SPLINE
  5
301
330
1F
100
AcDbEntity
  8
0
  6
Continuous
 62
     7
370
    30
100
AcDbSpline
210
0.0
220
0.0
230
1.0
 70
     8
 71
     3
 72
     9
 73
     5
 74
     0
 42
0.000000001
 43
0.00000001
 40
0.0
 40
0.0
 40
0.0
 40
0.0
 40
0.5573026436976255
 40
0.9999999999999999
 40
0.9999999999999999
 40
0.9999999999999999
 40
0.9999999999999999
 10
232.4540359130964
 20
146.8665885946298
 30
0.0
 10
232.3924426634573
 20
146.9289369227299
 30
0.0
 10
232.2819223737445
 20
147.0408120929004
 30
0.0
 10
232.1641293062946
 20
147.1076217055642
 30
0.0
 10
232.1119826267437
 20
147.137198144466
 30
0.0
  0
LINE
  5
302
330
1F
100
AcDbEntity
  8
0
  6
Continuous
 62
     7
370
    30
100
AcDbLine
 10
232.1119826267
 20
147.1371981445
 30
0.0
 11
231.6498118626
 21
147.4040036475
 31
0.0
  0
SPLINE
  5
303
330
1F
100
AcDbEntity
  8
0
  6
Continuous
 62
     7
370
    30
100
AcDbSpline
210
0.0
220
0.0
230
1.0
 70
     8
 71
     3
 72
     9
 73
     5
 74
     0
 42
0.000000001
 43
0.00000001
 40
0.0
 40
0.0
 40
0.0
 40
0.0
 40
0.562369358356406
 40
0.9999999999999999
 40
0.9999999999999999
 40
0.9999999999999999
 40
0.9999999999999999
 10
231.6498118626047
 20
147.4040036474887
 30
0.0
 10
231.6293604858667
 20
147.4156084267692
 30
0.0
 10
231.5929940366033
 20
147.436243938125
 30
0.0
 10
231.5643031946006
 20
147.4275679435893
 30
0.0
 10
231.5517472030056
 20
147.4237710625336
 30
0.0
  0
SPLINE
  5
304
330
1F
100
AcDbEntity
  8
0
  6
Continuous
 62
     7
370
    30
100
AcDbSpline
210
0.0
220
0.0
230
1.0
 70
     8
 71
     3
 72
     9
 73
     5
 74
     0
 42
0.000000001
 43
0.00000001
 40
0.0
 40
0.0
 40
0.0
 40
0.0
 40
0.5581781111261211
 40
1.0
 40
1.0
 40
1.0
 40
1.0
 10
232.2893435900377
 20
146.0178040958207
 30
0.0
 10
232.3086916770463
 20
146.063337937765
 30
0.0
 10
232.3433546038486
 20
146.1449137664059
 30
0.0
 10
232.352105094978
 20
146.2484129516614
 30
0.0
 10
232.3559712534974
 20
146.2941411571879
 30
0.0
  0
LINE
  5
305
330
1F
100
AcDbEntity
  8
0
  6
Continuous
 62
     7
370
    30
100
AcDbLine
 10
232.430553512
 20
145.3402777148
 30
0.0
 11
232.3559712535
 21
145.3833331361
 31
0.0
  0
SPLINE
  5
306
330
1F
100
AcDbEntity
  8
0
  6
Continuous
 62
     7
370
    30
100
AcDbSpline
210
0.0
220
0.0
230
1.0
 70
     8
 71
     3
 72
     9
 73
     5
 74
     0
 42
0.000000001
 43
0.00000001
 40
0.0
 40
0.0
 40
0.0
 40
0.0
 40
0.5618661542988053
 40
1.0
 40
1.0
 40
1.0
 40
1.0
 10
232.3559712534974
 20
145.3833331361171
 30
0.0
 10
232.3506366872348
 20
145.450332793724
 30
0.0
 10
232.3411423152714
 20
145.5695776656464
 30
0.0
 10
232.2985990545251
 20
145.6970157814649
 30
0.0
 10
232.2799594120857
 20
145.7528507332374
 30
0.0
  0
SPLINE
  5
307
330
1F
100
AcDbEntity
  8
0
  6
Continuous
 62
     7
370
    30
100
AcDbSpline
210
0.0
220
0.0
230
1.0
 70
     8
 71
     3
 72
    10
 73
     6
 74
     0
 42
0.000000001
 43
0.00000001
 40
0.0
 40
0.0
 40
0.0
 40
0.0
 40
0.2786905031362981
 40
0.5591146962643126
 40
1.0
 40
1.0
 40
1.0
 40
1.0
 10
232.2799594120857
 20
145.7528507332374
 30
0.0
 10
232.2601752013302
 20
145.7781430494437
 30
0.0
 10
232.2204837053413
 20
145.8288850213962
 30
0.0
 10
232.1377501970491
 20
145.8902744229704
 30
0.0
 10
232.0786583575852
 20
145.9263666845167
 30
0.0
 10
232.0425397098985
 20
145.9484273225141
 30
0.0
  0
LINE
  5
308
330
1F
100
AcDbEntity
  8
0
  6
Continuous
 62
     7
370
    30
100
AcDbLine
 10
232.0425397099
 20
145.9484273225
 30
0.0
 11
231.5292251759
 21
146.2485502712
 31
0.0
  0
LINE
  5
309
330
1F
100
AcDbEntity
  8
0
  6
Continuous
 62
     7
370
    30
100
AcDbLine
 10
231.8445115989
 20
144.7238966544
 30
0.0
 11
231.4358857904
 21
144.9597913125
 31
0.0
  0
SPLINE
  5
30A
330
1F
100
AcDbEntity
  8
0
  6
Continuous
 62
     7
370
    30
100
AcDbSpline
210
0.0
220
0.0
230
1.0
 70
     8
 71
     3
 72
    10
 73
     6
 74
     0
 42
0.000000001
 43
0.00000001
 40
0.0
 40
0.0
 40
0.0
 40
0.0
 40
0.2785120652043363
 40
0.5590464629733434
 40
1.0
 40
1.0
 40
1.0
 40
1.0
 10
231.2664681932629
 20
145.2298943966429
 30
0.0
 10
231.2812222058379
 20
145.2486070880257
 30
0.0
 10
231.3108373628642
 20
145.2861683474369
 30
0.0
 10
231.3265593408806
 20
145.3917786159361
 30
0.0
 10
231.3285777800561
 20
145.4727360430194
 30
0.0
 10
231.3298113944393
 20
145.5222149907596
 30
0.0
  0
LINE
  5
30B
330
1F
100
AcDbEntity
  8
0
  6
Continuous
 62
     7
370
    30
100
AcDbLine
 10
231.3298113944
 20
145.5222149908
 30
0.0
 11
231.3298113944
 21
147.2593063147
 31
0.0
  0
SPLINE
  5
30C
330
1F
100
AcDbEntity
  8
0
  6
Continuous
 62
     7
370
    30
100
AcDbSpline
210
0.0
220
0.0
230
1.0
 70
     8
 71
     3
 72
    10
 73
     6
 74
     0
 42
0.000000001
 43
0.00000001
 40
0.0
 40
0.0
 40
0.0
 40
0.0
 40
0.56001136997776
 40
0.7802776236410273
 40
1.0
 40
1.0
 40
1.0
 40
1.0
 10
231.3298113944393
 20
147.2593063147055
 30
0.0
 10
231.3272883789842
 20
147.3238752597699
 30
0.0
 10
231.3237729994592
 20
147.4138407599666
 30
0.0
 10
231.2916107023924
 20
147.5409721215551
 30
0.0
 10
231.262324725408
 20
147.5946853060374
 30
0.0
 10
231.2476998373587
 20
147.6215087003958
 30
0.0
  0
SPLINE
  5
30D
330
1F
100
AcDbEntity
  8
0
  6
Continuous
 62
     7
370
    30
100
AcDbSpline
210
0.0
220
0.0
230
1.0
 70
     8
 71
     3
 72
     9
 73
     5
 74
     0
 42
0.000000001
 43
0.00000001
 40
0.0
 40
0.0
 40
0.0
 40
0.0
 40
0.5578880974118708
 40
1.0
 40
1.0
 40
1.0
 40
1.0
 10
231.2476998373587
 20
147.6215087003958
 30
0.0
 10
231.2062298749559
 20
147.6653291367796
 30
0.0
 10
231.131896038842
 20
147.7438761367733
 30
0.0
 10
231.0517939414983
 20
147.7970839276354
 30
0.0
 10
231.0163798508404
 20
147.8206077252859
 30
0.0
  0
LINE
  5
30E
330
1F
100
AcDbEntity
  8
0
  6
Continuous
 62
     7
370
    30
100
AcDbLine
 10
231.0163798508
 20
147.8206077253
 30
0.0
 11
231.0163798508
 21
147.8883113953
 31
0.0
  0
LINE
  5
30F
330
1F
100
AcDbEntity
  8
0
  6
Continuous
 62
     7
370
    30
100
AcDbLine
 10
233.0114560834
 20
144.5514221757
 30
0.0
 11
233.0067420382
 21
144.5487008153
 31
0.0
  0
ARC
  5
310
330
1F
100
AcDbEntity
  8
0
  6
Continuous
 62
     7
370
    30
100
AcDbCircle
 10
224.7388711674
 20
138.5862883784
 30
0.0
 40
0.614915855150597
100
AcDbArc
 50
204.8162991805
 51
293.6430708155
  0
ARC
  5
311
330
1F
100
AcDbEntity
  8
0
  6
Continuous
 62
     7
370
    30
100
AcDbCircle
 10
224.854420667
 20
138.2402658571
 30
0.0
 40
0.2537424652789665
100
AcDbArc
 50
301.0969795905
 51
337.8270928618
  0
ARC
  5
312
330
1F
100
AcDbEntity
  8
0
  6
Continuous
 62
     7
370
    30
100
AcDbCircle
 10
222.0165839861
 20
143.3012919585
 30
0.0
 40
0.6148488655021939
100
AcDbArc
 50
126.3512434488
 51
215.1850856436
  0
ARC
  5
313
330
1F
100
AcDbEntity
  8
0
  6
Continuous
 62
     7
370
    30
100
AcDbCircle
 10
221.7748077583
 20
143.5744165966
 30
0.0
 40
0.2536997051888403
100
AcDbArc
 50
82.1803811972
 51
118.9146639065
  0
LINE
  5
314
330
1F
100
AcDbEntity
  8
0
  6
Continuous
 62
     7
370
    30
100
AcDbLine
 10
233.2108698649
 20
145.2777574562
 30
0.0
 11
233.2061558197
 21
145.2750360958
 31
0.0
  0
LINE
  5
315
330
1F
100
AcDbEntity
  8
0
  6
Continuous
 62
     7
370
    30
100
AcDbLine
 10
224.9854756534
 20
138.0229876271
 30
0.0
 11
217.0541042697
 21
133.4428159368
 31
0.0
  0
ARC
  5
316
330
1F
100
AcDbEntity
  8
0
  6
Continuous
 62
     7
370
    30
100
AcDbCircle
 10
216.8074997837
 20
134.006116688
 30
0.0
 40
0.6149158551506491
100
AcDbArc
 50
204.8162991805
 51
293.6430708155
  0
ARC
  5
317
330
1F
100
AcDbEntity
  8
0
  6
Continuous
 62
     7
370
    30
100
AcDbCircle
 10
214.0852126024
 20
138.7211202682
 30
0.0
 40
0.6148488655022721
100
AcDbArc
 50
126.3512434488
 51
215.1850856436
  0
LINE
  5
318
330
1F
100
AcDbEntity
  8
0
  6
Continuous
 62
     7
370
    30
100
AcDbLine
 10
213.7207709364
 20
139.2163186117
 30
0.0
 11
221.6521423201
 21
143.7964903021
 31
0.0
  0
LINE
  5
319
330
1F
100
AcDbEntity
  8
0
  6
Continuous
 62
     7
370
    30
100
AcDbLine
 10
232.4540359131
 20
146.8665885946
 30
0.0
 11
232.4493218679
 21
146.8638672343
 31
0.0
  0
LINE
  5
31A
330
1F
100
AcDbEntity
  8
0
  6
Continuous
 62
     7
370
    30
100
AcDbLine
 10
232.5746225998
 20
146.4458727066
 30
0.0
 11
232.5699085546
 21
146.4431513462
 31
0.0
  0
LINE
  5
31B
330
1F
100
AcDbEntity
  8
0
  6
Continuous
 62
     7
370
    30
100
AcDbLine
 10
232.1119826267
 20
147.1371981445
 30
0.0
 11
232.1072685815
 21
147.1344767841
 31
0.0
  0
LINE
  5
31C
330
1F
100
AcDbEntity
  8
0
  6
Continuous
 62
     7
370
    30
100
AcDbLine
 10
231.6498118626
 20
147.4040036475
 30
0.0
 11
231.6450978174
 21
147.4012822871
 31
0.0
  0
ARC
  5
31D
330
1F
100
AcDbEntity
  8
0
  6
Continuous
 62
     7
370
    30
100
AcDbCircle
 10
229.0499209021
 20
140.6622765889
 30
0.0
 40
0.253742465279269
100
AcDbArc
 50
301.0969795905
 51
337.8270928618
  0
LINE
  5
31E
330
1F
100
AcDbEntity
  8
0
  6
Continuous
 62
     7
370
    30
100
AcDbLine
 10
229.1809758885
 20
140.4449983589
 30
0.0
 11
224.9854756534
 21
138.0229876271
 31
0.0
  0
LINE
  5
31F
330
1F
100
AcDbEntity
  8
0
  6
Continuous
 62
     7
370
    30
100
AcDbLine
 10
221.6521423201
 20
143.7964903021
 30
0.0
 11
225.8476425551
 21
146.2185010338
 31
0.0
  0
ARC
  5
320
330
1F
100
AcDbEntity
  8
0
  6
Continuous
 62
     7
370
    30
100
AcDbCircle
 10
225.9703079934
 20
145.9964273283
 30
0.0
 40
0.2536997051887282
100
AcDbArc
 50
82.1803811972
 51
118.9146639065
  0
LINE
  5
321
330
1F
100
AcDbEntity
  8
0
  6
Continuous
 62
     7
370
    30
100
AcDbLine
 10
217.0541042697
 20
133.4428159368
 30
0.0
 11
223.1352225879
 21
136.9533708176
 31
0.0
  0
LINE
  5
322
330
1F
100
AcDbEntity
  8
0
  6
Continuous
 62
     7
370
    30
100
AcDbLine
 10
229.0829378381
 20
140.3883837986
 30
0.0
 11
229.1809758885
 21
140.4449983589
 31
0.0
  0
LWPOLYLINE
  5
323
330
1F
100
AcDbEntity
  8
0
  6
Continuous
 62
     7
370
    30
100
AcDbPolyline
 90
        6
 70
   128
 43
0.0
 10
229.4281158067
 20
140.5874944099
 10
229.2142119236
 20
140.4640133316
 10
229.0405527795
 20
140.363770941
 10
228.9138119978
 20
140.290619497
 10
228.8388601557
 20
140.2473701684
 10
228.8339378845
 20
140.2445310067
  0
LWPOLYLINE
  5
324
330
1F
100
AcDbEntity
  8
0
  6
Continuous
 62
     7
370
    30
100
AcDbPolyline
 90
        3
 70
   128
 43
0.0
 10
228.8558090675
 20
140.257206227
 10
228.9430073339
 20
140.3075731282
 10
229.0829378381
 20
140.3883837986
  0
LINE
  5
325
330
1F
100
AcDbEntity
  8
0
  6
Continuous
 62
     7
370
    30
100
AcDbLine
 10
230.1352225879
 20
140.9956984658
 30
0.0
 11
229.4281158067
 21
140.5874944099
 31
0.0
  0
LINE
  5
326
330
1F
100
AcDbEntity
  8
0
  6
Continuous
 62
     7
370
    30
100
AcDbLine
 10
223.1352225879
 20
136.9533708176
 30
0.0
 11
230.1352225879
 21
140.9956984658
 31
0.0
  0
LINE
  5
327
330
1F
100
AcDbEntity
  8
0
  6
Continuous
 62
     7
370
    30
100
AcDbLine
 10
232.28934359
 20
146.0178040958
 30
0.0
 11
232.2846295448
 21
146.0150827354
 31
0.0
  0
LINE
  5
328
330
1F
100
AcDbEntity
  8
0
  6
Continuous
 62
     7
370
    30
100
AcDbLine
 10
231.2476998374
 20
147.6215087004
 30
0.0
 11
231.2429857922
 21
147.61878734
 31
0.0
  0
LINE
  5
329
330
1F
100
AcDbEntity
  8
0
  6
Continuous
 62
     7
370
    30
100
AcDbLine
 10
231.3298113944
 20
147.2593063147
 30
0.0
 11
231.3250973492
 21
147.2565849543
 31
0.0
  0
LINE
  5
32A
330
1F
100
AcDbEntity
  8
0
  6
Continuous
 62
     7
370
    30
100
AcDbLine
 10
232.6980245399
 20
144.2311741215
 30
0.0
 11
232.6933104946
 21
144.2284527611
 31
0.0
  0
LINE
  5
32B
330
1F
100
AcDbEntity
  8
0
  6
Continuous
 62
     7
370
    30
100
AcDbLine
 10
231.0163798508
 20
147.8206077253
 30
0.0
 11
231.0116658056
 21
147.8178863649
 31
0.0
  0
LINE
  5
32C
330
1F
100
AcDbEntity
  8
0
  6
Continuous
 62
     7
370
    30
100
AcDbLine
 10
232.2799594121
 20
145.7528507332
 30
0.0
 11
232.2752453669
 21
145.7501293729
 31
0.0
  0
LINE
  5
32D
330
1F
100
AcDbEntity
  8
0
  6
Continuous
 62
     7
370
    30
100
AcDbLine
 10
232.3559712535
 20
145.3833331361
 30
0.0
 11
232.3512572083
 21
145.3806117757
 31
0.0
  0
LINE
  5
32E
330
1F
100
AcDbEntity
  8
0
  6
Continuous
 62
     7
370
    30
100
AcDbLine
 10
232.9481128823
 20
144.2591015816
 30
0.0
 11
232.9433988371
 21
144.2563802212
 31
0.0
  0
LINE
  5
32F
330
1F
100
AcDbEntity
  8
0
  6
Continuous
 62
     7
370
    30
100
AcDbLine
 10
232.0425397099
 20
145.9484273225
 30
0.0
 11
232.0378256647
 21
145.9457059621
 31
0.0
  0
SPLINE
  5
330
330
1F
100
AcDbEntity
  8
0
  6
Continuous
 62
     7
370
    30
100
AcDbSpline
210
0.0
220
0.0
230
1.0
 70
     8
 71
     3
 72
    10
 73
     6
 74
     0
 42
0.000000001
 43
0.00000001
 40
0.0
 40
0.0
 40
0.0
 40
0.0
 40
0.2799874205327905
 40
0.5601294246845019
 40
1.0
 40
1.0
 40
1.0
 40
1.0
 10
229.1897496124714
 20
146.5961824758351
 30
0.0
 10
229.1366514282521
 20
146.7095621072529
 30
0.0
 10
229.0304257438198
 20
146.9363839680213
 30
0.0
 10
228.919956794118
 20
147.3497575564996
 30
0.0
 10
228.9065570610871
 20
147.6220762080163
 30
0.0
 10
228.8983708870598
 20
147.7884413040267
 30
0.0
  0
SPLINE
  5
331
330
1F
100
AcDbEntity
  8
0
  6
Continuous
 62
     7
370
    30
100
AcDbSpline
210
0.0
220
0.0
230
1.0
 70
     8
 71
     3
 72
     9
 73
     5
 74
     0
 42
0.000000001
 43
0.00000001
 40
0.0
 40
0.0
 40
0.0
 40
0.0
 40
0.5602696297460021
 40
1.0
 40
1.0
 40
1.0
 40
1.0
 10
228.8983708870598
 20
147.7884413040267
 30
0.0
 10
228.9093369956299
 20
147.998747124882
 30
0.0
 10
228.9289099083632
 20
148.3741125019962
 30
0.0
 10
229.1234444369781
 20
148.5743735142112
 30
0.0
 10
229.2089871772731
 20
148.66243436326
 30
0.0
  0
LINE
  5
332
330
1F
100
AcDbEntity
  8
0
  6
Continuous
 62
     7
370
    30
100
AcDbLine
 10
230.6284456083
 20
146.3583187278
 30
0.0
 11
230.6658808043
 21
146.7718723236
 31
0.0
  0
SPLINE
  5
333
330
1F
100
AcDbEntity
  8
0
  6
Continuous
 62
     7
370
    30
100
AcDbSpline
210
0.0
220
0.0
230
1.0
 70
     8
 71
     3
 72
     9
 73
     5
 74
     0
 42
0.000000001
 43
0.00000001
 40
0.0
 40
0.0
 40
0.0
 40
0.0
 40
0.5605964892223089
 40
1.0
 40
1.0
 40
1.0
 40
1.0
 10
230.6658808043308
 20
146.7718723236133
 30
0.0
 10
230.65872008403
 20
146.9809958385276
 30
0.0
 10
230.6459466891935
 20
147.3540333422129
 30
0.0
 10
230.477249818787
 20
147.7588804351273
 30
0.0
 10
230.4031238216731
 20
147.9367716690819
 30
0.0
  0
SPLINE
  5
334
330
1F
100
AcDbEntity
  8
0
  6
Continuous
 62
     7
370
    30
100
AcDbSpline
210
0.0
220
0.0
230
1.0
 70
     8
 71
     3
 72
     9
 73
     5
 74
     0
 42
0.000000001
 43
0.00000001
 40
0.0
 40
0.0
 40
0.0
 40
0.0
 40
0.5598873498408067
 40
1.0
 40
1.0
 40
1.0
 40
1.0
 10
230.4031238216731
 20
147.9367716690819
 30
0.0
 10
230.3226781186468
 20
148.0745818708999
 30
0.0
 10
230.1789961743249
 20
148.3207210306025
 30
0.0
 10
229.9804683547721
 20
148.4617310374417
 30
0.0
 10
229.8930937499784
 20
148.5237913252506
 30
0.0
  0
SPLINE
  5
335
330
1F
100
AcDbEntity
  8
0
  6
Continuous
 62
     7
370
    30
100
AcDbSpline
210
0.0
220
0.0
230
1.0
 70
     8
 71
     3
 72
     9
 73
     5
 74
     0
 42
0.000000001
 43
0.00000001
 40
0.0
 40
0.0
 40
0.0
 40
0.0
 40
0.6931897733691953
 40
1.0
 40
1.0
 40
1.0
 40
1.0
 10
229.8930937499784
 20
148.5237913252506
 30
0.0
 10
229.7817197416209
 20
148.5717875122429
 30
0.0
 10
229.6210508849294
 20
148.6410271185329
 30
0.0
 10
229.5090109786134
 20
148.577563092385
 30
0.0
 10
229.4746359895649
 20
148.5580916801397
 30
0.0
  0
LINE
  5
336
330
1F
100
AcDbEntity
  8
0
  6
Continuous
 62
     7
370
    30
100
AcDbLine
 10
231.3298113944
 20
145.5222149908
 30
0.0
 11
231.3250973492
 21
145.5194936304
 31
0.0
  0
LINE
  5
337
330
1F
100
AcDbEntity
  8
0
  6
Continuous
 62
     7
370
    30
100
AcDbLine
 10
231.5292251759
 20
146.2485502712
 30
0.0
 11
231.5245111307
 21
146.2458289109
 31
0.0
  0
SPLINE
  5
338
330
1F
100
AcDbEntity
  8
0
  6
Continuous
 62
     7
370
    30
100
AcDbSpline
210
0.0
220
0.0
230
1.0
 70
     8
 71
     3
 72
     9
 73
     5
 74
     0
 42
0.000000001
 43
0.00000001
 40
0.0
 40
0.0
 40
0.0
 40
0.0
 40
0.6089168648842471
 40
1.0
 40
1.0
 40
1.0
 40
1.0
 10
229.121692366087
 20
147.6578706134106
 30
0.0
 10
229.1270624018901
 20
147.4534667663059
 30
0.0
 10
229.1358813985591
 20
147.1177824407559
 30
0.0
 10
229.2837371989948
 20
146.7528139533277
 30
0.0
 10
229.3415611089742
 20
146.6100809330459
 30
0.0
  0
SPLINE
  5
339
330
1F
100
AcDbEntity
  8
0
  6
Continuous
 62
     7
370
    30
100
AcDbSpline
210
0.0
220
0.0
230
1.0
 70
     8
 71
     3
 72
    10
 73
     6
 74
     0
 42
0.000000001
 43
0.00000001
 40
0.0
 40
0.0
 40
0.0
 40
0.0
 40
0.2798811345009839
 40
0.5599585147220818
 40
1.0
 40
1.0
 40
1.0
 40
1.0
 10
229.3849185576424
 20
148.5191263356422
 30
0.0
 10
229.3346622424266
 20
148.4654696998334
 30
0.0
 10
229.2341143735117
 20
148.3581188055116
 30
0.0
 10
229.1395148177839
 20
148.0648762821383
 30
0.0
 10
229.1284523093231
 20
147.8122452900348
 30
0.0
 10
229.121692366087
 20
147.6578706134106
 30
0.0
  0
SPLINE
  5
33A
330
1F
100
AcDbEntity
  8
0
  6
Continuous
 62
     7
370
    30
100
AcDbSpline
210
0.0
220
0.0
230
1.0
 70
     8
 71
     3
 72
     9
 73
     5
 74
     0
 42
0.000000001
 43
0.00000001
 40
0.0
 40
0.0
 40
0.0
 40
0.0
 40
0.6931897733691953
 40
1.0
 40
1.0
 40
1.0
 40
1.0
 10
229.8883797047706
 20
148.5210699648779
 30
0.0
 10
229.777005696413
 20
148.5690661518701
 30
0.0
 10
229.6163368397214
 20
148.6383057581601
 30
0.0
 10
229.5042969334055
 20
148.5748417320123
 30
0.0
 10
229.4699219443569
 20
148.555370319767
 30
0.0
  0
LINE
  5
33B
330
1F
100
AcDbEntity
  8
0
  6
Continuous
 62
     7
370
    30
100
AcDbLine
 10
229.4201530117
 20
148.5341497017
 30
0.0
 11
229.3849185576
 21
148.5191263356
 31
0.0
  0
SPLINE
  5
33C
330
1F
100
AcDbEntity
  8
0
  6
Continuous
 62
     7
370
    30
100
AcDbSpline
210
0.0
220
0.0
230
1.0
 70
     8
 71
     3
 72
     9
 73
     5
 74
     0
 42
0.000000001
 43
0.00000001
 40
0.0
 40
0.0
 40
0.0
 40
0.0
 40
0.5598873498408067
 40
1.0
 40
1.0
 40
1.0
 40
1.0
 10
230.3984097764652
 20
147.9340503087092
 30
0.0
 10
230.3179640734388
 20
148.0718605105272
 30
0.0
 10
230.174282129117
 20
148.3179996702298
 30
0.0
 10
229.9757543095643
 20
148.4590096770689
 30
0.0
 10
229.8883797047706
 20
148.5210699648779
 30
0.0
  0
SPLINE
  5
33D
330
1F
100
AcDbEntity
  8
0
  6
Continuous
 62
     7
370
    30
100
AcDbSpline
210
0.0
220
0.0
230
1.0
 70
     8
 71
     3
 72
     9
 73
     5
 74
     0
 42
0.000000001
 43
0.00000001
 40
0.0
 40
0.0
 40
0.0
 40
0.0
 40
0.5605964892223089
 40
1.0
 40
1.0
 40
1.0
 40
1.0
 10
230.6611667591229
 20
146.7691509632405
 30
0.0
 10
230.6540060388221
 20
146.9782744781548
 30
0.0
 10
230.6412326439856
 20
147.3513119818402
 30
0.0
 10
230.472535773579
 20
147.7561590747545
 30
0.0
 10
230.3984097764652
 20
147.9340503087092
 30
0.0
  0
LINE
  5
33E
330
1F
100
AcDbEntity
  8
0
  6
Continuous
 62
     7
370
    30
100
AcDbLine
 10
230.6245834392
 20
146.365008201
 30
0.0
 11
230.6611667591
 21
146.7691509632
 31
0.0
  0
LINE
  5
33F
330
1F
100
AcDbEntity
  8
0
  6
Continuous
 62
     7
370
    30
100
AcDbLine
 10
230.4031238217
 20
147.9367716691
 30
0.0
 11
230.3984097765
 21
147.9340503087
 31
0.0
  0
LINE
  5
340
330
1F
100
AcDbEntity
  8
0
  6
Continuous
 62
     7
370
    30
100
AcDbLine
 10
230.6658808043
 20
146.7718723236
 30
0.0
 11
230.6611667591
 21
146.7691509632
 31
0.0
  0
LINE
  5
341
330
1F
100
AcDbEntity
  8
0
  6
Continuous
 62
     7
370
    30
100
AcDbLine
 10
229.89309375
 20
148.5237913253
 30
0.0
 11
229.8883797048
 21
148.5210699649
 31
0.0
  0
LINE
  5
342
330
1F
100
AcDbEntity
  8
0
  6
Continuous
 62
     7
370
    30
100
AcDbLine
 10
229.2089871773
 20
148.6624343633
 30
0.0
 11
229.2042731321
 21
148.6597130029
 31
0.0
  0
LWPOLYLINE
  5
343
330
1F
100
AcDbEntity
  8
0
  6
Continuous
 62
     7
370
    30
100
AcDbPolyline
 90
       15
 70
   128
 43
0.0
 10
219.6784266893
 20
150.4570657141
 10
219.5037541488
 20
150.3485252161
 10
219.0732915564
 20
150.0046263483
 10
218.6960468664
 20
149.5834557906
 10
218.3757693061
 20
149.0891993254
 10
218.1156419376
 20
148.5267690955
 10
217.9182500237
 20
147.901754785
 10
217.7855553339
 20
147.2203680671
 10
217.7188766477
 20
146.4893808691
 10
217.7188766477
 20
145.7160580701
 10
217.7855553339
 20
144.9080852995
 10
217.9182500237
 20
144.0734925539
 10
218.1156419376
 20
143.2205743907
 10
218.3757693061
 20
142.357807494
 10
218.5081287042
 20
141.9808998498
  0
LWPOLYLINE
  5
344
330
1F
100
AcDbEntity
  8
0
  6
Continuous
 62
     7
370
    30
100
AcDbPolyline
 90
       14
 70
   128
 43
0.0
 10
222.0630290795
 20
136.3344066802
 10
222.2886020033
 20
136.1114702081
 10
222.9332530864
 20
135.5298739503
 10
223.5927600401
 20
135.0148625951
 10
224.260568388
 20
134.5715545567
 10
224.9300411507
 20
134.2043556296
 10
225.594524807
 20
133.9169152016
 10
226.2474154199
 20
133.7120899849
 10
226.8822242692
 20
133.5919156245
 10
227.4926423392
 20
133.5575864672
 10
228.072603021
 20
133.6094436916
 10
228.6163424048
 20
133.7469719173
 10
229.1184565643
 20
133.968804327
 10
229.1776546493
 20
134.0021373289
  0
ARC
  5
345
330
1F
100
AcDbEntity
  8
0
  6
Continuous
 62
     7
370
    30
100
AcDbCircle
 10
219.2140350211
 20
138.2795769816
 30
0.0
 40
11.6976699526798
100
AcDbArc
 50
1.0196027751
 51
19.2233605448
  0
LWPOLYLINE
  5
346
330
1F
100
AcDbEntity
  8
0
  6
Continuous
 62
     7
370
    30
100
AcDbPolyline
 90
       16
 70
   128
 43
0.0
 10
228.0690881771
 20
146.320114138
 10
227.8566860241
 20
146.6023528401
 10
227.2825928365
 20
147.3017324021
 10
226.6792080807
 20
147.9490650376
 10
226.0527233011
 20
148.5377082377
 10
225.409567079
 20
149.0616217267
 10
224.7563390678
 20
149.5154294432
 10
224.0997422708
 20
149.8944747059
 10
223.4465142596
 20
150.1948679976
 10
222.8033580376
 20
150.4135268764
 10
222.1768732579
 20
150.5482076065
 10
221.5734885022
 20
150.5975281813
 10
220.9993953145
 20
150.5609825049
 10
220.4604846679
 20
150.4389455855
 10
219.9622865148
 20
150.232669687
 10
219.8450798114
 20
150.16838276
  0
ARC
  5
347
330
1F
100
AcDbEntity
  8
0
  6
Continuous
 62
     7
370
    30
100
AcDbCircle
 10
226.3465642783
 20
138.0243326499
 30
0.0
 40
4.586757073033028
100
AcDbArc
 50
305.5137163071
 51
5.7984640863
  0
ARC
  5
348
330
1F
100
AcDbEntity
  8
0
  6
Continuous
 62
     7
370
    30
100
AcDbCircle
 10
219.2105190793
 20
138.2769852892
 30
0.0
 40
11.69646973207985
100
AcDbArc
 50
1.0190721257
 51
19.2110107902
  0
LWPOLYLINE
  5
349
330
1F
100
AcDbEntity
  8
0
  6
Continuous
 62
     7
370
    30
100
AcDbPolyline
 90
       28
 70
   128
 43
0.0
 10
228.0631723047
 20
146.3190286567
 10
227.8519719789
 20
146.5996314797
 10
227.2778787912
 20
147.2990110417
 10
226.6744940355
 20
147.9463436772
 10
226.0480092559
 20
148.5349868773
 10
225.4048530338
 20
149.0589003664
 10
224.7516250226
 20
149.5127080829
 10
224.0950282256
 20
149.8917533456
 10
223.4418002144
 20
150.1921466372
 10
222.7986439924
 20
150.410805516
 10
222.1721592127
 20
150.5454862461
 10
221.568774457
 20
150.5948068209
 10
220.9946812693
 20
150.5582611445
 10
220.4557706227
 20
150.4362242251
 10
219.9575724696
 20
150.2299483266
 10
219.5051989973
 20
149.9415501188
 10
219.1032921697
 20
149.5739889577
 10
218.7559760948
 20
149.131036518
 10
218.4668147054
 20
148.6172380913
 10
218.2387751888
 20
148.0378659447
 10
218.0741975389
 20
147.3988652205
 10
217.9747705453
 20
146.7067929307
 10
217.9415144632
 20
145.9687506737
 10
217.9747705453
 20
145.1923117616
 10
218.0741975389
 20
144.3854435084
 10
218.2387751888
 20
143.5564254742
 10
218.4668147054
 20
142.713764506
 10
218.6777972289
 20
142.0788792453
  0
LWPOLYLINE
  5
34A
330
1F
100
AcDbEntity
  8
0
  6
Continuous
 62
     7
370
    30
100
AcDbPolyline
 90
       20
 70
   128
 43
0.0
 10
222.2420187477
 20
136.4377352163
 10
222.7986439924
 20
135.9187734449
 10
223.4418002144
 20
135.3948599559
 10
224.0950282256
 20
134.9410522394
 10
224.7516250226
 20
134.5620069767
 10
225.4048530338
 20
134.2616136851
 10
226.0480092559
 20
134.0429548062
 10
226.6744940355
 20
133.9082740761
 10
227.2778787912
 20
133.8589535014
 10
227.8519719789
 20
133.8954991777
 10
228.3908826255
 20
134.0175360971
 10
228.8890807786
 20
134.2238119957
 10
229.3414542509
 20
134.5122102034
 10
229.7433610785
 20
134.8797713646
 10
230.0906771534
 20
135.3227238043
 10
230.3798385428
 20
135.8365222309
 10
230.6078780594
 20
136.4158943775
 10
230.7724557093
 20
137.0548951018
 10
230.8718827029
 20
137.7469673915
 10
230.905138785
 20
138.4850096486
  0
LWPOLYLINE
  5
34B
330
1F
100
AcDbEntity
  8
0
  6
Continuous
 62
     7
370
    30
100
AcDbPolyline
 90
        9
 70
   128
 43
0.0
 10
226.8018892546
 20
146.7692011408
 10
226.8733242684
 20
146.7956608031
 10
226.9548238879
 20
146.7989163885
 10
227.0432561281
 20
146.7788427865
 10
227.1352225879
 20
146.7362114145
 10
227.2271890477
 20
146.6726605722
 10
227.3156212879
 20
146.5906324828
 10
227.3971209074
 20
146.4932794398
 10
227.4685559212
 20
146.384342666
  0
LWPOLYLINE
  5
34C
330
1F
100
AcDbEntity
  8
0
  6
Continuous
 62
     7
370
    30
100
AcDbPolyline
 90
        9
 70
   128
 43
0.0
 10
230.1352225879
 20
141.7655405261
 10
230.1938477887
 20
141.6492064007
 10
230.2374102429
 20
141.5299455788
 10
230.2642358697
 20
141.412341187
 10
230.2732937754
 20
141.300912696
 10
230.2642358697
 20
141.1999422404
 10
230.2374102429
 20
141.113310058
 10
230.1938477887
 20
141.0443453751
 10
230.1352225879
 20
140.9956984658
  0
LINE
  5
34D
330
1F
100
AcDbEntity
  8
0
  6
Continuous
 62
     7
370
    30
100
AcDbLine
 10
230.1352225879
 20
141.7655405261
 30
0.0
 11
230.066962084
 21
141.8837711866
 31
0.0
  0
LINE
  5
34E
330
1F
100
AcDbEntity
  8
0
  6
Continuous
 62
     7
370
    30
100
AcDbLine
 10
227.534684455
 20
146.2698046861
 30
0.0
 11
227.4685559212
 21
146.384342666
 31
0.0
  0
LINE
  5
34F
330
1F
100
AcDbEntity
  8
0
  6
Continuous
 62
     7
370
    30
100
AcDbLine
 10
228.8983708871
 20
147.788441304
 30
0.0
 11
228.8936568419
 21
147.7857199437
 31
0.0
  0
LINE
  5
350
330
1F
100
AcDbEntity
  8
0
  6
Continuous
 62
     7
370
    30
100
AcDbLine
 10
229.1897496125
 20
146.5961824758
 30
0.0
 11
229.1850355673
 21
146.5934611155
 31
0.0
  0
LWPOLYLINE
  5
351
330
1F
100
AcDbEntity
  8
0
  6
Continuous
 62
     7
370
    30
100
AcDbPolyline
 90
        3
 70
   128
 43
0.0
 10
225.8570705583
 20
146.2237727082
 10
225.8808785903
 20
146.2375160065
 10
226.0947824734
 20
146.3609970849
  0
LINE
  5
352
330
1F
100
AcDbEntity
  8
0
  6
Continuous
 62
     7
370
    30
100
AcDbLine
 10
226.0947824734
 20
146.3609970849
 30
0.0
 11
226.8018892546
 21
146.7692011408
 31
0.0
  0
SPLINE
  5
353
330
1F
100
AcDbEntity
  8
0
  6
Continuous
 62
     7
370
    30
100
AcDbSpline
210
0.0
220
0.0
230
1.0
 70
     8
 71
     3
 72
     9
 73
     5
 74
     0
 42
0.000000001
 43
0.00000001
 40
0.0
 40
0.0
 40
0.0
 40
0.0
 40
0.5627763038302287
 40
1.0
 40
1.0
 40
1.0
 40
1.0
 10
218.6790010972633
 20
154.9281956009221
 30
0.0
 10
218.6368225776085
 20
154.9470056284318
 30
0.0
 10
218.5618753572516
 20
154.9804292594229
 30
0.0
 10
218.4938470222394
 20
154.9825252023762
 30
0.0
 10
218.464103422161
 20
154.9834415983011
 30
0.0
  0
LINE
  5
354
330
1F
100
AcDbEntity
  8
0
  6
Continuous
 62
     7
370
    30
100
AcDbLine
 10
218.4101224427
 20
152.4620660299
 30
0.0
 11
218.3331941397
 21
152.506475794
 31
0.0
  0
LINE
  5
355
330
1F
100
AcDbEntity
  8
0
  6
Continuous
 62
     7
370
    30
100
AcDbLine
 10
218.3331941397
 20
152.506475794
 30
0.0
 11
216.961696532
 21
155.4961633282
 31
0.0
  0
LINE
  5
356
330
1F
100
AcDbEntity
  8
0
  6
Continuous
 62
     7
370
    30
100
AcDbLine
 10
217.2647835237
 20
153.1590165718
 30
0.0
 11
216.5018718124
 21
153.5994361281
 31
0.0
  0
LINE
  5
357
330
1F
100
AcDbEntity
  8
0
  6
Continuous
 62
     7
370
    30
100
AcDbLine
 10
216.5018718124
 20
153.5994361281
 30
0.0
 11
216.5018718124
 21
153.7365178826
 31
0.0
  0
SPLINE
  5
358
330
1F
100
AcDbEntity
  8
0
  6
Continuous
 62
     7
370
    30
100
AcDbSpline
210
0.0
220
0.0
230
1.0
 70
     8
 71
     3
 72
     9
 73
     5
 74
     0
 42
0.000000001
 43
0.00000001
 40
0.0
 40
0.0
 40
0.0
 40
0.0
 40
0.3952848753839669
 40
1.0
 40
1.0
 40
1.0
 40
1.0
 10
216.6820326403471
 20
153.7018234301199
 30
0.0
 10
216.6941354431372
 20
153.7044085502329
 30
0.0
 10
216.7247533684456
 20
153.7109484415215
 30
0.0
 10
216.7396608892332
 20
153.7420908723169
 30
0.0
 10
216.7486756925239
 20
153.7609231712362
 30
0.0
  0
SPLINE
  5
359
330
1F
100
AcDbEntity
  8
0
  6
Continuous
 62
     7
370
    30
100
AcDbSpline
210
0.0
220
0.0
230
1.0
 70
     8
 71
     3
 72
     9
 73
     5
 74
     0
 42
0.000000001
 43
0.00000001
 40
0.0
 40
0.0
 40
0.0
 40
0.0
 40
0.55947273267067
 40
1.0
 40
1.0
 40
1.0
 40
1.0
 10
216.7486756925239
 20
153.7609231712362
 30
0.0
 10
216.7553004414229
 20
153.8224736149674
 30
0.0
 10
216.7671414991046
 20
153.9324887062075
 30
0.0
 10
216.7663743651569
 20
154.0505405015035
 30
0.0
 10
216.7660364217352
 20
154.1025455362886
 30
0.0
  0
LINE
  5
35A
330
1F
100
AcDbEntity
  8
0
  6
Continuous
 62
     7
370
    30
100
AcDbLine
 10
216.7660364217
 20
154.1025455363
 30
0.0
 11
216.7660364217
 21
155.8548079635
 31
0.0
  0
SPLINE
  5
35B
330
1F
100
AcDbEntity
  8
0
  6
Continuous
 62
     7
370
    30
100
AcDbSpline
210
0.0
220
0.0
230
1.0
 70
     8
 71
     3
 72
     9
 73
     5
 74
     0
 42
0.000000001
 43
0.00000001
 40
0.0
 40
0.0
 40
0.0
 40
0.0
 40
0.5608304348354268
 40
1.0
 40
1.0
 40
1.0
 40
1.0
 10
216.7660364217352
 20
155.8548079635004
 30
0.0
 10
216.7483309159218
 20
155.8971213715629
 30
0.0
 10
216.7167607572542
 20
155.9725691458531
 30
0.0
 10
216.6714489968386
 20
156.0417062018047
 30
0.0
 10
216.6515494507201
 20
156.0720690926037
 30
0.0
  0
SPLINE
  5
35C
330
1F
100
AcDbEntity
  8
0
  6
Continuous
 62
     7
370
    30
100
AcDbSpline
210
0.0
220
0.0
230
1.0
 70
     8
 71
     3
 72
     9
 73
     5
 74
     0
 42
0.000000001
 43
0.00000001
 40
0.0
 40
0.0
 40
0.0
 40
0.0
 40
0.5592636271648296
 40
1.0
 40
1.0
 40
1.0
 40
1.0
 10
216.6515494507201
 20
156.0720690926037
 30
0.0
 10
216.6238793741261
 20
156.0942097807794
 30
0.0
 10
216.5744034646445
 20
156.1337987815658
 30
0.0
 10
216.5240600058221
 20
156.1644657914748
 30
0.0
 10
216.5018718123847
 20
156.1779818581877
 30
0.0
  0
LINE
  5
35D
330
1F
100
AcDbEntity
  8
0
  6
Continuous
 62
     7
370
    30
100
AcDbLine
 10
216.5018718124
 20
156.1779818582
 30
0.0
 11
216.5018718124
 21
156.3123300175
 31
0.0
  0
LINE
  5
35E
330
1F
100
AcDbEntity
  8
0
  6
Continuous
 62
     7
370
    30
100
AcDbLine
 10
218.2252760933
 20
153.2195075212
 30
0.0
 11
218.2252760933
 21
154.7176539687
 31
0.0
  0
SPLINE
  5
35F
330
1F
100
AcDbEntity
  8
0
  6
Continuous
 62
     7
370
    30
100
AcDbSpline
210
0.0
220
0.0
230
1.0
 70
     8
 71
     3
 72
    10
 73
     6
 74
     0
 42
0.000000001
 43
0.00000001
 40
0.0
 40
0.0
 40
0.0
 40
0.0
 40
0.5606433719229641
 40
0.7808513891964887
 40
1.0
 40
1.0
 40
1.0
 40
1.0
 10
218.225276093281
 20
154.7176539686774
 30
0.0
 10
218.2235242646898
 20
154.7951807901282
 30
0.0
 10
218.2210843575088
 20
154.9031583909731
 30
0.0
 10
218.1974064712543
 20
155.0526249081359
 30
0.0
 10
218.1693555893812
 20
155.1199595666364
 30
0.0
 10
218.1553639675382
 20
155.1535457149413
 30
0.0
  0
SPLINE
  5
360
330
1F
100
AcDbEntity
  8
0
  6
Continuous
 62
     7
370
    30
100
AcDbSpline
210
0.0
220
0.0
230
1.0
 70
     8
 71
     3
 72
    10
 73
     6
 74
     0
 42
0.000000001
 43
0.00000001
 40
0.0
 40
0.0
 40
0.0
 40
0.0
 40
0.278450147705671
 40
0.559009882997216
 40
1.0
 40
1.0
 40
1.0
 40
1.0
 10
218.1553639675382
 20
155.1535457149413
 30
0.0
 10
218.1348770280322
 20
155.1794013058482
 30
0.0
 10
218.0937479363417
 20
155.2313083741934
 30
0.0
 10
218.009156555724
 20
155.2973358576202
 30
0.0
 10
217.9484670112265
 20
155.3399026753374
 30
0.0
 10
217.9113753407845
 20
155.3659182664512
 30
0.0
  0
LINE
  5
361
330
1F
100
AcDbEntity
  8
0
  6
Continuous
 62
     7
370
    30
100
AcDbLine
 10
217.9113753408
 20
155.3659182665
 30
0.0
 11
217.9113753408
 21
155.4986409504
 31
0.0
  0
LINE
  5
362
330
1F
100
AcDbEntity
  8
0
  6
Continuous
 62
     7
370
    30
100
AcDbLine
 10
218.4641034222
 20
154.9834415983
 30
0.0
 11
218.459389377
 21
154.9807202379
 31
0.0
  0
LINE
  5
363
330
1F
100
AcDbEntity
  8
0
  6
Continuous
 62
     7
370
    30
100
AcDbLine
 10
218.1553639675
 20
155.1535457149
 30
0.0
 11
218.1506499223
 21
155.1508243546
 31
0.0
  0
LINE
  5
364
330
1F
100
AcDbEntity
  8
0
  6
Continuous
 62
     7
370
    30
100
AcDbLine
 10
218.2252760933
 20
154.7176539687
 30
0.0
 11
218.2205620481
 21
154.7149326083
 31
0.0
  0
LINE
  5
365
330
1F
100
AcDbEntity
  8
0
  6
Continuous
 62
     7
370
    30
100
AcDbLine
 10
217.9113753408
 20
155.3659182665
 30
0.0
 11
217.9066612956
 21
155.3631969061
 31
0.0
  0
LINE
  5
366
330
1F
100
AcDbEntity
  8
0
  6
Continuous
 62
     7
370
    30
100
AcDbLine
 10
216.961696532
 20
155.4961633282
 30
0.0
 11
216.9569824868
 21
155.4934419678
 31
0.0
  0
LINE
  5
367
330
1F
100
AcDbEntity
  8
0
  6
Continuous
 62
     7
370
    30
100
AcDbLine
 10
218.3331941397
 20
152.506475794
 30
0.0
 11
218.3284800945
 21
152.5037544336
 31
0.0
  0
LINE
  5
368
330
1F
100
AcDbEntity
  8
0
  6
Continuous
 62
     7
370
    30
100
AcDbLine
 10
218.2252760933
 20
153.2195075212
 30
0.0
 11
218.2205620481
 21
153.2167861608
 31
0.0
  0
LINE
  5
369
330
1F
100
AcDbEntity
  8
0
  6
Continuous
 62
     7
370
    30
100
AcDbLine
 10
216.6515494507
 20
156.0720690926
 30
0.0
 11
216.6468354055
 21
156.0693477322
 31
0.0
  0
LINE
  5
36A
330
1F
100
AcDbEntity
  8
0
  6
Continuous
 62
     7
370
    30
100
AcDbLine
 10
216.7660364217
 20
155.8548079635
 30
0.0
 11
216.7613223765
 21
155.8520866031
 31
0.0
  0
LINE
  5
36B
330
1F
100
AcDbEntity
  8
0
  6
Continuous
 62
     7
370
    30
100
AcDbLine
 10
216.5018718124
 20
156.1779818582
 30
0.0
 11
216.4971577672
 21
156.1752604978
 31
0.0
  0
LINE
  5
36C
330
1F
100
AcDbEntity
  8
0
  6
Continuous
 62
     7
370
    30
100
AcDbLine
 10
216.7660364217
 20
154.1025455363
 30
0.0
 11
216.7613223765
 21
154.0998241759
 31
0.0
  0
SPLINE
  5
36D
330
1F
100
AcDbEntity
  8
0
  6
Continuous
 62
     7
370
    30
100
AcDbSpline
210
0.0
220
0.0
230
1.0
 70
     8
 71
     3
 72
     9
 73
     5
 74
     0
 42
0.000000001
 43
0.00000001
 40
0.0
 40
0.0
 40
0.0
 40
0.0
 40
0.3894641353591435
 40
1.0
 40
1.0
 40
1.0
 40
1.0
 10
215.9349562457731
 20
154.0763262987329
 30
0.0
 10
215.8678587732766
 20
154.0677784750621
 30
0.0
 10
215.6955772551475
 20
154.0458308221341
 30
0.0
 10
215.4926355277074
 20
154.1458943176506
 30
0.0
 10
215.368732324673
 20
154.2069866704048
 30
0.0
  0
SPLINE
  5
36E
330
1F
100
AcDbEntity
  8
0
  6
Continuous
 62
     7
370
    30
100
AcDbSpline
210
0.0
220
0.0
230
1.0
 70
     8
 71
     3
 72
     9
 73
     5
 74
     0
 42
0.000000001
 43
0.00000001
 40
0.0
 40
0.0
 40
0.0
 40
0.0
 40
0.5589671569312324
 40
1.0
 40
1.0
 40
1.0
 40
1.0
 10
215.368732324673
 20
154.2069866704048
 30
0.0
 10
215.2146116277824
 20
154.3166041731434
 30
0.0
 10
214.9388875624603
 20
154.5127114065995
 30
0.0
 10
214.7422558454894
 20
154.8487130214478
 30
0.0
 10
214.6555348003163
 20
154.9969007689201
 30
0.0
  0
SPLINE
  5
36F
330
1F
100
AcDbEntity
  8
0
  6
Continuous
 62
     7
370
    30
100
AcDbSpline
210
0.0
220
0.0
230
1.0
 70
     8
 71
     3
 72
    10
 73
     6
 74
     0
 42
0.000000001
 43
0.00000001
 40
0.0
 40
0.0
 40
0.0
 40
0.0
 40
0.2800523578142783
 40
0.560148505982666
 40
1.0
 40
1.0
 40
1.0
 40
1.0
 10
214.6555348003163
 20
154.9969007689201
 30
0.0
 10
214.6021967976982
 20
155.1107437949906
 30
0.0
 10
214.4955124522716
 20
155.3384476481831
 30
0.0
 10
214.3841942579135
 20
155.7535046119075
 30
0.0
 10
214.3705904661219
 20
156.0269652605245
 30
0.0
 10
214.3622792393143
 20
156.1940358470522
 30
0.0
  0
SPLINE
  5
370
330
1F
100
AcDbEntity
  8
0
  6
Continuous
 62
     7
370
    30
100
AcDbSpline
210
0.0
220
0.0
230
1.0
 70
     8
 71
     3
 72
     9
 73
     5
 74
     0
 42
0.000000001
 43
0.00000001
 40
0.0
 40
0.0
 40
0.0
 40
0.0
 40
0.560274433107747
 40
1.0
 40
1.0
 40
1.0
 40
1.0
 10
214.3622792393143
 20
156.1940358470522
 30
0.0
 10
214.3733689668976
 20
156.4051245306814
 30
0.0
 10
214.393162351939
 20
156.781883974189
 30
0.0
 10
214.5887621382142
 20
156.982515428149
 30
0.0
 10
214.674772365118
 20
157.0707382079779
 30
0.0
  0
SPLINE
  5
371
330
1F
100
AcDbEntity
  8
0
  6
Continuous
 62
     7
370
    30
100
AcDbSpline
210
0.0
220
0.0
230
1.0
 70
     8
 71
     3
 72
    10
 73
     6
 74
     0
 42
0.000000001
 43
0.00000001
 40
0.0
 40
0.0
 40
0.0
 40
0.0
 40
0.2798061903266479
 40
0.5599254203469181
 40
1.0
 40
1.0
 40
1.0
 40
1.0
 10
215.8548327425899
 20
154.3809581451622
 30
0.0
 10
215.9014339318115
 20
154.4322500395751
 30
0.0
 10
215.9946884464206
 20
154.5348912124028
 30
0.0
 10
216.0803683541673
 20
154.8133910434952
 30
0.0
 10
216.0906574062828
 20
155.0508105804459
 30
0.0
 10
216.0969445337531
 20
155.1958858386912
 30
0.0
  0
SPLINE
  5
372
330
1F
100
AcDbEntity
  8
0
  6
Continuous
 62
     7
370
    30
100
AcDbSpline
210
0.0
220
0.0
230
1.0
 70
     8
 71
     3
 72
     9
 73
     5
 74
     0
 42
0.000000001
 43
0.00000001
 40
0.0
 40
0.0
 40
0.0
 40
0.0
 40
0.5606422565498246
 40
1.0
 40
1.0
 40
1.0
 40
1.0
 10
216.0969445337531
 20
155.1958858386912
 30
0.0
 10
216.0901839758822
 20
155.396339148521
 30
0.0
 10
216.0781253809546
 20
155.7538814270203
 30
0.0
 10
215.9164721593177
 20
156.1420284189387
 30
0.0
 10
215.8454485646378
 20
156.3125638054349
 30
0.0
  0
SPLINE
  5
373
330
1F
100
AcDbEntity
  8
0
  6
Continuous
 62
     7
370
    30
100
AcDbSpline
210
0.0
220
0.0
230
1.0
 70
     8
 71
     3
 72
     9
 73
     5
 74
     0
 42
0.000000001
 43
0.00000001
 40
0.0
 40
0.0
 40
0.0
 40
0.0
 40
0.5598964152250872
 40
1.0
 40
1.0
 40
1.0
 40
1.0
 10
215.8454485646378
 20
156.3125638054349
 30
0.0
 10
215.7704126722073
 20
156.4417839032231
 30
0.0
 10
215.6363952175672
 20
156.6725767682501
 30
0.0
 10
215.4505315785041
 20
156.8048149113492
 30
0.0
 10
215.368732324673
 20
156.863013392171
 30
0.0
  0
SPLINE
  5
374
330
1F
100
AcDbEntity
  8
0
  6
Continuous
 62
     7
370
    30
100
AcDbSpline
210
0.0
220
0.0
230
1.0
 70
     8
 71
     3
 72
    10
 73
     6
 74
     0
 42
0.000000001
 43
0.00000001
 40
0.0
 40
0.0
 40
0.0
 40
0.0
 40
0.3574735538971264
 40
0.7150370205804599
 40
1.0
 40
1.0
 40
1.0
 40
1.0
 10
215.368732324673
 20
156.863013392171
 30
0.0
 10
215.3198691431992
 20
156.8860252283625
 30
0.0
 10
215.222130490042
 20
156.9320546887495
 30
0.0
 10
215.0940978662229
 20
156.93798647872
 30
0.0
 10
215.0317145775392
 20
156.9019285413608
 30
0.0
 10
215.0040473462257
 20
156.8859367058123
 30
0.0
  0
LINE
  5
375
330
1F
100
AcDbEntity
  8
0
  6
Continuous
 62
     7
370
    30
100
AcDbLine
 10
215.7709349625
 20
154.3451833574
 30
0.0
 11
215.8548327426
 21
154.3809581452
 31
0.0
  0
SPLINE
  5
376
330
1F
100
AcDbEntity
  8
0
  6
Continuous
 62
     7
370
    30
100
AcDbSpline
210
0.0
220
0.0
230
1.0
 70
     8
 71
     3
 72
     9
 73
     5
 74
     0
 42
0.000000001
 43
0.00000001
 40
0.0
 40
0.0
 40
0.0
 40
0.0
 40
0.5602777493579868
 40
1.0
 40
1.0
 40
1.0
 40
1.0
 10
214.9060703954045
 20
154.9232242691363
 30
0.0
 10
214.976945348642
 20
154.7956615085643
 30
0.0
 10
215.1034450237026
 20
154.5679837885082
 30
0.0
 10
215.2844335828822
 20
154.4357815939067
 30
0.0
 10
215.3640182794651
 20
154.3776493473567
 30
0.0
  0
SPLINE
  5
377
330
1F
100
AcDbEntity
  8
0
  6
Continuous
 62
     7
370
    30
100
AcDbSpline
210
0.0
220
0.0
230
1.0
 70
     8
 71
     3
 72
     9
 73
     5
 74
     0
 42
0.000000001
 43
0.00000001
 40
0.0
 40
0.0
 40
0.0
 40
0.0
 40
0.560847679469486
 40
0.9999999999999999
 40
0.9999999999999999
 40
0.9999999999999999
 40
0.9999999999999999
 10
214.6714659466029
 20
156.0133543901486
 30
0.0
 10
214.6767008485676
 20
155.8181648324822
 30
0.0
 10
214.6860347589257
 20
155.4701388624879
 30
0.0
 10
214.8389272869367
 20
155.0901133533396
 30
0.0
 10
214.9060703954045
 20
154.9232242691363
 30
0.0
  0
SPLINE
  5
378
330
1F
100
AcDbEntity
  8
0
  6
Continuous
 62
     7
370
    30
100
AcDbSpline
210
0.0
220
0.0
230
1.0
 70
     8
 71
     3
 72
    10
 73
     6
 74
     0
 42
0.000000001
 43
0.00000001
 40
0.0
 40
0.0
 40
0.0
 40
0.0
 40
0.2797582719671647
 40
0.5598778938107669
 40
1.0
 40
1.0
 40
1.0
 40
1.0
 10
214.9149853644589
 20
156.8442660567005
 30
0.0
 10
214.8675164567321
 20
156.7921947596772
 30
0.0
 10
214.7725173280461
 20
156.6879849077204
 30
0.0
 10
214.6872676600189
 20
156.4029209509352
 30
0.0
 10
214.6774594834445
 20
156.1611156786148
 30
0.0
 10
214.6714659466029
 20
156.0133543901486
 30
0.0
  0
SPLINE
  5
379
330
1F
100
AcDbEntity
  8
0
  6
Continuous
 62
     7
370
    30
100
AcDbSpline
210
0.0
220
0.0
230
1.0
 70
     8
 71
     3
 72
    10
 73
     6
 74
     0
 42
0.000000001
 43
0.00000001
 40
0.0
 40
0.0
 40
0.0
 40
0.0
 40
0.3574735538971264
 40
0.7150370205804599
 40
1.0
 40
1.0
 40
1.0
 40
1.0
 10
215.3640182794651
 20
156.8602920317983
 30
0.0
 10
215.3151550979912
 20
156.8833038679898
 30
0.0
 10
215.2174164448341
 20
156.9293333283768
 30
0.0
 10
215.089383821015
 20
156.9352651183473
 30
0.0
 10
215.0270005323313
 20
156.899207180988
 30
0.0
 10
214.9993333010178
 20
156.8832153454396
 30
0.0
  0
LINE
  5
37A
330
1F
100
AcDbEntity
  8
0
  6
Continuous
 62
     7
370
    30
100
AcDbLine
 10
214.9503154503
 20
156.8605804062
 30
0.0
 11
214.9149853645
 21
156.8442660567
 31
0.0
  0
SPLINE
  5
37B
330
1F
100
AcDbEntity
  8
0
  6
Continuous
 62
     7
370
    30
100
AcDbSpline
210
0.0
220
0.0
230
1.0
 70
     8
 71
     3
 72
     9
 73
     5
 74
     0
 42
0.000000001
 43
0.00000001
 40
0.0
 40
0.0
 40
0.0
 40
0.0
 40
0.5598964152250872
 40
1.0
 40
1.0
 40
1.0
 40
1.0
 10
215.84073451943
 20
156.3098424450621
 30
0.0
 10
215.7656986269994
 20
156.4390625428503
 30
0.0
 10
215.6316811723594
 20
156.6698554078774
 30
0.0
 10
215.4458175332962
 20
156.8020935509764
 30
0.0
 10
215.3640182794651
 20
156.8602920317983
 30
0.0
  0
SPLINE
  5
37C
330
1F
100
AcDbEntity
  8
0
  6
Continuous
 62
     7
370
    30
100
AcDbSpline
210
0.0
220
0.0
230
1.0
 70
     8
 71
     3
 72
     9
 73
     5
 74
     0
 42
0.000000001
 43
0.00000001
 40
0.0
 40
0.0
 40
0.0
 40
0.0
 40
0.5606422565498246
 40
1.0
 40
1.0
 40
1.0
 40
1.0
 10
216.0922304885452
 20
155.1931644783185
 30
0.0
 10
216.0854699306742
 20
155.3936177881482
 30
0.0
 10
216.0734113357466
 20
155.7511600666475
 30
0.0
 10
215.9117581141097
 20
156.1393070585659
 30
0.0
 10
215.84073451943
 20
156.3098424450621
 30
0.0
  0
SPLINE
  5
37D
330
1F
100
AcDbEntity
  8
0
  6
Continuous
 62
     7
370
    30
100
AcDbSpline
210
0.0
220
0.0
230
1.0
 70
     8
 71
     3
 72
    10
 73
     6
 74
     0
 42
0.000000001
 43
0.00000001
 40
0.0
 40
0.0
 40
0.0
 40
0.0
 40
0.2798061903266479
 40
0.5599254203469181
 40
1.0
 40
1.0
 40
1.0
 40
1.0
 10
215.850118697382
 20
154.3782367847894
 30
0.0
 10
215.8967198866036
 20
154.4295286792024
 30
0.0
 10
215.9899744012127
 20
154.5321698520301
 30
0.0
 10
216.0756543089594
 20
154.8106696831225
 30
0.0
 10
216.0859433610749
 20
155.0480892200732
 30
0.0
 10
216.0922304885452
 20
155.1931644783185
 30
0.0
  0
SPLINE
  5
37E
330
1F
100
AcDbEntity
  8
0
  6
Continuous
 62
     7
370
    30
100
AcDbSpline
210
0.0
220
0.0
230
1.0
 70
     8
 71
     3
 72
     9
 73
     5
 74
     0
 42
0.000000001
 43
0.00000001
 40
0.0
 40
0.0
 40
0.0
 40
0.0
 40
0.9170124971851855
 40
1.0
 40
1.0
 40
1.0
 40
1.0
 10
215.3640182794651
 20
154.3776493473567
 30
0.0
 10
215.474055256826
 20
154.3240837813324
 30
0.0
 10
215.5940503252669
 20
154.2656706558966
 30
0.0
 10
215.6784234556315
 20
154.3047656356544
 30
0.0
 10
215.6854253710251
 20
154.3080100303972
 30
0.0
  0
LINE
  5
37F
330
1F
100
AcDbEntity
  8
0
  6
Continuous
 62
     7
370
    30
100
AcDbLine
 10
215.7662209173
 20
154.342461997
 30
0.0
 11
215.8501186974
 21
154.3782367848
 31
0.0
  0
LINE
  5
380
330
1F
100
AcDbEntity
  8
0
  6
Continuous
 62
     7
370
    30
100
AcDbLine
 10
215.8454485646
 20
156.3125638054
 30
0.0
 11
215.8407345194
 21
156.3098424451
 31
0.0
  0
LINE
  5
381
330
1F
100
AcDbEntity
  8
0
  6
Continuous
 62
     7
370
    30
100
AcDbLine
 10
216.0969445338
 20
155.1958858387
 30
0.0
 11
216.0922304885
 21
155.1931644783
 31
0.0
  0
LINE
  5
382
330
1F
100
AcDbEntity
  8
0
  6
Continuous
 62
     7
370
    30
100
AcDbLine
 10
215.3687323247
 20
156.8630133922
 30
0.0
 11
215.3640182795
 21
156.8602920318
 31
0.0
  0
LINE
  5
383
330
1F
100
AcDbEntity
  8
0
  6
Continuous
 62
     7
370
    30
100
AcDbLine
 10
214.6747723651
 20
157.070738208
 30
0.0
 11
214.6700583199
 21
157.0680168476
 31
0.0
  0
LINE
  5
384
330
1F
100
AcDbEntity
  8
0
  6
Continuous
 62
     7
370
    30
100
AcDbLine
 10
216.7486756925
 20
153.7609231712
 30
0.0
 11
216.7439616473
 21
153.7582018109
 31
0.0
  0
LINE
  5
385
330
1F
100
AcDbEntity
  8
0
  6
Continuous
 62
     7
370
    30
100
AcDbLine
 10
215.8548327426
 20
154.3809581452
 30
0.0
 11
215.8501186974
 21
154.3782367848
 31
0.0
  0
LINE
  5
386
330
1F
100
AcDbEntity
  8
0
  6
Continuous
 62
     7
370
    30
100
AcDbLine
 10
216.5018718124
 20
153.5994361281
 30
0.0
 11
216.4971577672
 21
153.5967147677
 31
0.0
  0
LINE
  5
387
330
1F
100
AcDbEntity
  8
0
  6
Continuous
 62
     7
370
    30
100
AcDbLine
 10
214.3622792393
 20
156.1940358471
 30
0.0
 11
214.3575651941
 21
156.1913144867
 31
0.0
  0
LINE
  5
388
330
1F
100
AcDbEntity
  8
0
  6
Continuous
 62
     7
370
    30
100
AcDbLine
 10
215.3687323247
 20
154.2069866704
 30
0.0
 11
215.3640182795
 21
154.20426531
 31
0.0
  0
LINE
  5
389
330
1F
100
AcDbEntity
  8
0
  6
Continuous
 62
     7
370
    30
100
AcDbLine
 10
214.6555348003
 20
154.9969007689
 30
0.0
 11
214.6508207551
 21
154.9941794085
 31
0.0
  0
LINE
  5
38A
330
1F
100
AcDbEntity
  8
0
  6
Continuous
 62
     7
370
    30
100
AcDbLine
 10
245.212265991
 20
178.4503541567
 30
0.0
 11
245.212265991
 21
177.9060820821
 31
0.0
  0
LWPOLYLINE
  5
38B
330
1F
100
AcDbEntity
  8
0
  6
Continuous
 62
     8
370
    30
100
AcDbPolyline
 90
        6
 70
   128
 43
0.0
 10
231.7598964019
 20
144.3985884729
 10
231.7515817269
 20
144.3937966281
 10
231.72160099
 20
144.3764968967
 10
231.6709046774
 20
144.3472363191
 10
231.6014410197
 20
144.3071393629
 10
231.5158794665
 20
144.2577469316
  0
LWPOLYLINE
  5
38C
330
1F
100
AcDbEntity
  8
0
  6
Continuous
 62
     8
370
    30
100
AcDbPolyline
 90
        6
 70
   128
 43
0.0
 10
230.5606798118
 20
146.4756925302
 10
230.5523651367
 20
146.4709006855
 10
230.5223843999
 20
146.4536009541
 10
230.4716880872
 20
146.4243403764
 10
230.4022244296
 20
146.3842434202
 10
230.3166628763
 20
146.3348509889
  0
LINE
  5
38D
330
1F
100
AcDbEntity
  8
0
  6
Continuous
 62
     8
370
    30
100
AcDbLine
 10
231.5803160242
 20
143.5302564863
 30
0.0
 11
231.5374371382
 21
143.5020793219
 31
0.0
  0
LINE
  5
38E
330
1F
100
AcDbEntity
  8
0
  6
Continuous
 62
     8
370
    30
100
AcDbLine
 10
229.7187787578
 20
146.7542883803
 30
0.0
 11
229.6730480632
 21
146.7312959155
 31
0.0
  0
ARC
  5
38F
330
1F
100
AcDbEntity
  8
0
  6
Continuous
 62
     8
370
    30
100
AcDbCircle
 10
229.0884723259
 20
140.9213447574
 30
0.0
 40
0.4055720197267483
100
AcDbArc
 50
298.9679188155
 51
335.685655682
  0
ARC
  5
390
330
1F
100
AcDbEntity
  8
0
  6
Continuous
 62
     8
370
    30
100
AcDbCircle
 10
226.2138752431
 20
145.9002073518
 30
0.0
 40
0.4055864340256844
100
AcDbArc
 50
84.3080614766
 51
121.0259982022
  0
LWPOLYLINE
  5
391
330
1F
100
AcDbEntity
  8
0
  6
Continuous
 62
     8
370
    30
100
AcDbPolyline
 90
        4
 70
   128
 43
0.0
 10
228.8339378845
 20
140.2445310067
 10
228.8185776105
 20
140.2356850029
 10
228.853743809
 20
140.2560130547
 10
228.8558090675
 20
140.257206227
  0
LINE
  5
392
330
1F
100
AcDbEntity
  8
0
  6
Continuous
 62
     8
370
    30
100
AcDbLine
 10
227.4685559212
 20
146.384342666
 30
0.0
 11
227.2423482561
 21
146.2537557606
 31
0.0
  0
LINE
  5
393
330
1F
100
AcDbEntity
  8
0
  6
Continuous
 62
     8
370
    30
100
AcDbLine
 10
229.9163321802
 20
141.6391777834
 30
0.0
 11
230.1352225879
 21
141.7655405261
 31
0.0
  0
ARC
  5
394
330
1F
100
AcDbEntity
  8
0
  6
Continuous
 62
     8
370
    30
100
AcDbCircle
 10
229.2001076153
 20
140.8803737482
 30
0.0
 40
0.371168482180752
100
AcDbArc
 50
307.9009558505
 51
12.1956989754
  0
ARC
  5
395
330
1F
100
AcDbEntity
  8
0
  6
Continuous
 62
     8
370
    30
100
AcDbCircle
 10
226.2346017177
 20
146.0160862017
 30
0.0
 40
0.3721732639440702
100
AcDbArc
 50
47.4610776169
 51
112.066545325
  0
LWPOLYLINE
  5
396
330
1F
100
AcDbEntity
  8
0
  6
Continuous
 62
     8
370
    30
100
AcDbPolyline
 90
        5
 70
   128
 43
0.0
 10
216.2493664156
 20
133.748030167
 10
216.1933942139
 20
133.7157058988
 10
216.1576888039
 20
133.6950818694
 10
216.1436223246
 20
133.6869506487
 10
216.1434206676
 20
133.6868328702
  0
LWPOLYLINE
  5
397
330
1F
100
AcDbEntity
  8
0
  6
Continuous
 62
     8
370
    30
100
AcDbPolyline
 90
        5
 70
   128
 43
0.0
 10
213.5826997489
 20
138.366832307
 10
213.5267275473
 20
138.3345080388
 10
213.4910221373
 20
138.3138840094
 10
213.4769556579
 20
138.3057527887
 10
213.4767540009
 20
138.3056350102
  0
ARC
  5
398
330
1F
100
AcDbEntity
  8
0
  6
Continuous
 62
     8
370
    30
100
AcDbCircle
 10
213.2892291468
 20
160.541233055
 30
0.0
 40
0.159788330640835
100
AcDbArc
 50
184.0416120318
 51
247.2624446983
  0
ARC
  5
399
330
1F
100
AcDbEntity
  8
0
  6
Continuous
 62
     8
370
    30
100
AcDbCircle
 10
213.7794001947
 20
160.6643870317
 30
0.0
 40
0.671541492054288
100
AcDbArc
 50
54.4043677283
 51
114.0555994692
  0
ARC
  5
39A
330
1F
100
AcDbEntity
  8
0
  6
Continuous
 62
     8
370
    30
100
AcDbCircle
 10
235.4571314207
 20
122.8902374385
 30
0.0
 40
0.6386071010300769
100
AcDbArc
 50
303.800814897
 51
7.281435469
  0
ARC
  5
39B
330
1F
100
AcDbEntity
  8
0
  6
Continuous
 62
     8
370
    30
100
AcDbCircle
 10
235.0789710535
 20
122.5464178245
 30
0.0
 40
0.1676998382043526
100
AcDbArc
 50
174.3803153403
 51
234.2939933786
  0
ARC
  5
39C
330
1F
100
AcDbEntity
  8
0
  6
Continuous
 62
     8
370
    30
100
AcDbCircle
 10
213.2966572032
 20
136.0503418045
 30
0.0
 40
0.1676464261646408
100
AcDbArc
 50
185.6947992512
 51
245.6253417064
  0
ARC
  5
39D
330
1F
100
AcDbEntity
  8
0
  6
Continuous
 62
     8
370
    30
100
AcDbCircle
 10
214.0979100039
 20
134.6548645466
 30
0.0
 40
0.1643259766610242
100
AcDbArc
 50
173.7011524803
 51
234.9866671264
  0
ENDSEC
  0
SECTION
  2
OBJECTS
  0
DICTIONARY
  5
C
330
0
100
AcDbDictionary
281
     1
  3
ACAD_GROUP
350
D
  3
ACAD_LAYOUT
350
1A
  3
ACAD_MLINESTYLE
350
17
  3
ACAD_PLOTSETTINGS
350
19
  3
ACAD_PLOTSTYLENAME
350
E
  3
ACAD_SCALELIST
350
47
  0
DICTIONARY
  5
D
102
{ACAD_REACTORS
330
C
102
}
330
C
100
AcDbDictionary
281
     1
  0
DICTIONARY
  5
1A
102
{ACAD_REACTORS
330
C
102
}
330
C
100
AcDbDictionary
281
     1
  3
Layout1
350
1E
  3
Layout2
350
26
  3
Model
350
22
  0
DICTIONARY
  5
17
102
{ACAD_REACTORS
330
C
102
}
330
C
100
AcDbDictionary
281
     1
  3
Standard
350
18
  0
DICTIONARY
  5
19
102
{ACAD_REACTORS
330
C
102
}
330
C
100
AcDbDictionary
281
     1
  0
ACDBDICTIONARYWDFLT
  5
E
102
{ACAD_REACTORS
330
C
102
}
330
C
100
AcDbDictionary
281
     1
  3
Normal
350
F
100
AcDbDictionaryWithDefault
340
F
  0
DICTIONARY
  5
47
102
{ACAD_REACTORS
330
C
102
}
330
C
100
AcDbDictionary
281
     1
  3
A0
350
48
  3
A1
350
49
  3
A2
350
4A
  3
A3
350
4B
  3
A4
350
4C
  3
A5
350
4D
  3
A6
350
4E
  3
A7
350
4F
  3
A8
350
50
  3
A9
350
51
  3
B0
350
52
  3
B1
350
53
  3
B2
350
54
  3
B3
350
55
  3
B4
350
56
  3
B5
350
57
  3
B6
350
58
  3
B7
350
59
  3
B8
350
5A
  3
B9
350
5B
  3
C0
350
5C
  3
C1
350
5D
  3
C2
350
5E
  3
C3
350
5F
  3
C4
350
60
  3
C5
350
61
  3
C6
350
62
  3
C7
350
63
  3
C8
350
64
  3
C9
350
65
  3
D0
350
66
  3
D1
350
67
  3
D2
350
68
  0
LAYOUT
  5
1E
102
{ACAD_REACTORS
330
1A
102
}
330
1A
100
AcDbPlotSettings
  1

  2
none_device
  4

  6

 40
0.0
 41
0.0
 42
0.0
 43
0.0
 44
0.0
 45
0.0
 46
0.0
 47
0.0
 48
0.0
 49
0.0
140
0.0
141
0.0
142
1.0
143
1.0
 70
   688
 72
     1
 73
     0
 74
     5
  7

 75
    16
147
1.0
148
0.0
149
0.0
100
AcDbLayout
  1
Layout1
 70
     1
 71
     1
 10
0.0
 20
0.0
 11
420.0
 21
297.0
 12
0.0
 22
0.0
 32
0.0
 14
1.0000000000E+20
 24
1.0000000000E+20
 34
1.0000000000E+20
 15
-1.0000000000E+20
 25
-1.0000000000E+20
 35
-1.0000000000E+20
146
0.0
 13
0.0
 23
0.0
 33
0.0
 16
1.0
 26
0.0
 36
0.0
 17
0.0
 27
1.0
 37
0.0
 76
     0
330
1B
  0
LAYOUT
  5
26
102
{ACAD_REACTORS
330
1A
102
}
330
1A
100
AcDbPlotSettings
  1

  2
none_device
  4

  6

 40
0.0
 41
0.0
 42
0.0
 43
0.0
 44
0.0
 45
0.0
 46
0.0
 47
0.0
 48
0.0
 49
0.0
140
0.0
141
0.0
142
1.0
143
1.0
 70
   688
 72
     1
 73
     0
 74
     5
  7

 75
    16
147
1.0
148
0.0
149
0.0
100
AcDbLayout
  1
Layout2
 70
     1
 71
     2
 10
0.0
 20
0.0
 11
0.0
 21
0.0
 12
0.0
 22
0.0
 32
0.0
 14
0.0
 24
0.0
 34
0.0
 15
0.0
 25
0.0
 35
0.0
146
0.0
 13
0.0
 23
0.0
 33
0.0
 16
1.0
 26
0.0
 36
0.0
 17
0.0
 27
1.0
 37
0.0
 76
     0
330
23
  0
LAYOUT
  5
22
102
{ACAD_REACTORS
330
1A
102
}
330
1A
100
AcDbPlotSettings
  1

  2
none_device
  4
Letter_(8.50_x_11.00_Inches)
  6

 40
6.35
 41
6.35
 42
6.35000508
 43
6.35000508
 44
215.9
 45
279.4
 46
0.0
 47
0.0
 48
0.0
 49
0.0
140
0.0
141
0.0
142
1.0
143
1.0
 70
  1712
 72
     1
 73
     0
 74
     0
  7

 75
     0
147
1.0
148
0.0
149
0.0
100
AcDbLayout
  1
Model
 70
     1
 71
     0
 10
0.0
 20
0.0
 11
297.0
 21
210.0
 12
0.0
 22
0.0
 32
0.0
 14
0.0
 24
0.0
 34
0.0
 15
297.0
 25
210.0
 35
0.0
146
0.0
 13
0.0
 23
0.0
 33
0.0
 16
1.0
 26
0.0
 36
0.0
 17
0.0
 27
1.0
 37
0.0
 76
     0
330
1F
331
29
  0
MLINESTYLE
  5
18
102
{ACAD_REACTORS
330
17
102
}
330
17
100
AcDbMlineStyle
  2
Standard
 70
     0
  3

 62
   256
 51
90.0
 52
90.0
 71
     2
 49
0.5
 62
   256
  6
BYLAYER
 49
-0.5
 62
   256
  6
BYLAYER
  0
ACDBPLACEHOLDER
  5
F
102
{ACAD_REACTORS
330
E
102
}
330
E
  0
SCALE
  5
48
102
{ACAD_REACTORS
330
47
102
}
330
47
100
AcDbScale
 70
     0
300
1:1
140
1.0
141
1.0
290
     1
  0
SCALE
  5
49
102
{ACAD_REACTORS
330
47
102
}
330
47
100
AcDbScale
 70
     0
300
1:2
140
1.0
141
2.0
290
     0
  0
SCALE
  5
4A
102
{ACAD_REACTORS
330
47
102
}
330
47
100
AcDbScale
 70
     0
300
1:4
140
1.0
141
4.0
290
     0
  0
SCALE
  5
4B
102
{ACAD_REACTORS
330
47
102
}
330
47
100
AcDbScale
 70
     0
300
1:5
140
1.0
141
5.0
290
     0
  0
SCALE
  5
4C
102
{ACAD_REACTORS
330
47
102
}
330
47
100
AcDbScale
 70
     0
300
1:8
140
1.0
141
8.0
290
     0
  0
SCALE
  5
4D
102
{ACAD_REACTORS
330
47
102
}
330
47
100
AcDbScale
 70
     0
300
1:10
140
1.0
141
10.0
290
     0
  0
SCALE
  5
4E
102
{ACAD_REACTORS
330
47
102
}
330
47
100
AcDbScale
 70
     0
300
1:16
140
1.0
141
16.0
290
     0
  0
SCALE
  5
4F
102
{ACAD_REACTORS
330
47
102
}
330
47
100
AcDbScale
 70
     0
300
1:20
140
1.0
141
20.0
290
     0
  0
SCALE
  5
50
102
{ACAD_REACTORS
330
47
102
}
330
47
100
AcDbScale
 70
     0
300
1:30
140
1.0
141
30.0
290
     0
  0
SCALE
  5
51
102
{ACAD_REACTORS
330
47
102
}
330
47
100
AcDbScale
 70
     0
300
1:40
140
1.0
141
40.0
290
     0
  0
SCALE
  5
52
102
{ACAD_REACTORS
330
47
102
}
330
47
100
AcDbScale
 70
     0
300
1:50
140
1.0
141
50.0
290
     0
  0
SCALE
  5
53
102
{ACAD_REACTORS
330
47
102
}
330
47
100
AcDbScale
 70
     0
300
1:100
140
1.0
141
100.0
290
     0
  0
SCALE
  5
54
102
{ACAD_REACTORS
330
47
102
}
330
47
100
AcDbScale
 70
     0
300
2:1
140
2.0
141
1.0
290
     0
  0
SCALE
  5
55
102
{ACAD_REACTORS
330
47
102
}
330
47
100
AcDbScale
 70
     0
300
4:1
140
4.0
141
1.0
290
     0
  0
SCALE
  5
56
102
{ACAD_REACTORS
330
47
102
}
330
47
100
AcDbScale
 70
     0
300
8:1
140
8.0
141
1.0
290
     0
  0
SCALE
  5
57
102
{ACAD_REACTORS
330
47
102
}
330
47
100
AcDbScale
 70
     0
300
10:1
140
10.0
141
1.0
290
     0
  0
SCALE
  5
58
102
{ACAD_REACTORS
330
47
102
}
330
47
100
AcDbScale
 70
     0
300
100:1
140
100.0
141
1.0
290
     0
  0
SCALE
  5
59
102
{ACAD_REACTORS
330
47
102
}
330
47
100
AcDbScale
 70
     0
300
1/128" = 1'-0"
140
0.0078125
141
12.0
290
     0
  0
SCALE
  5
5A
102
{ACAD_REACTORS
330
47
102
}
330
47
100
AcDbScale
 70
     0
300
1/64" = 1'-0"
140
0.015625
141
12.0
290
     0
  0
SCALE
  5
5B
102
{ACAD_REACTORS
330
47
102
}
330
47
100
AcDbScale
 70
     0
300
1/32" = 1'-0"
140
0.03125
141
12.0
290
     0
  0
SCALE
  5
5C
102
{ACAD_REACTORS
330
47
102
}
330
47
100
AcDbScale
 70
     0
300
1/16" = 1'-0"
140
0.0625
141
12.0
290
     0
  0
SCALE
  5
5D
102
{ACAD_REACTORS
330
47
102
}
330
47
100
AcDbScale
 70
     0
300
3/32" = 1'-0"
140
0.09375
141
12.0
290
     0
  0
SCALE
  5
5E
102
{ACAD_REACTORS
330
47
102
}
330
47
100
AcDbScale
 70
     0
300
1/8" = 1'-0"
140
0.125
141
12.0
290
     0
  0
SCALE
  5
5F
102
{ACAD_REACTORS
330
47
102
}
330
47
100
AcDbScale
 70
     0
300
3/16" = 1'-0"
140
0.1875
141
12.0
290
     0
  0
SCALE
  5
60
102
{ACAD_REACTORS
330
47
102
}
330
47
100
AcDbScale
 70
     0
300
1/4" = 1'-0"
140
0.25
141
12.0
290
     0
  0
SCALE
  5
61
102
{ACAD_REACTORS
330
47
102
}
330
47
100
AcDbScale
 70
     0
300
3/8" = 1'-0"
140
0.375
141
12.0
290
     0
  0
SCALE
  5
62
102
{ACAD_REACTORS
330
47
102
}
330
47
100
AcDbScale
 70
     0
300
1/2" = 1'-0"
140
0.5
141
12.0
290
     0
  0
SCALE
  5
63
102
{ACAD_REACTORS
330
47
102
}
330
47
100
AcDbScale
 70
     0
300
3/4" = 1'-0"
140
0.75
141
12.0
290
     0
  0
SCALE
  5
64
102
{ACAD_REACTORS
330
47
102
}
330
47
100
AcDbScale
 70
     0
300
1" = 1'-0"
140
1.0
141
12.0
290
     0
  0
SCALE
  5
65
102
{ACAD_REACTORS
330
47
102
}
330
47
100
AcDbScale
 70
     0
300
1-1/2" = 1'-0"
140
1.5
141
12.0
290
     0
  0
SCALE
  5
66
102
{ACAD_REACTORS
330
47
102
}
330
47
100
AcDbScale
 70
     0
300
3" = 1'-0"
140
3.0
141
12.0
290
     0
  0
SCALE
  5
67
102
{ACAD_REACTORS
330
47
102
}
330
47
100
AcDbScale
 70
     0
300
6" = 1'-0"
140
6.0
141
12.0
290
     0
  0
SCALE
  5
68
102
{ACAD_REACTORS
330
47
102
}
330
47
100
AcDbScale
 70
     0
300
1'-0" = 1'-0"
140
12.0
141
12.0
290
     0
  0
ENDSEC
  0
EOF
